999
DXF file: S:\Engenharia\Wildfire\Engenharia\Montagens\Coifas\Coifas_Projetos_TEEC\Parede\95800_012\vista_isometrica.dxf
999
Pro/ENGINEER 2013050 by Parametric Technology Corporation
  0
SECTION
  2
HEADER
  9
$ACADVER
  1
AC1021
  9
$DWGCODEPAGE
  3
ANSI_1252
  9
$EXTMAX
 10
1500.0
 20
1100.0
 30
0.0
  9
$EXTMIN
 10
0.0
 20
-0.0
 30
0.0
  9
$LIMMIN
 10
0.0
 20
-0.0
  9
$LIMMAX
 10
1500.0
 20
1100.0
  9
$VIEWCTR
 10
750.0
 20
550.0
  9
$VIEWSIZE
 40
1100.0
  9
$CLAYER
  8
0
  9
$LTSCALE
 40
82.5
  9
$CELTYPE
  6
BYLAYER
  9
$DIMSCALE
 40
1.0
  9
$DIMASZ
 40
3.0
  9
$DIMEXO
 40
0.5
  9
$DIMDLI
 40
57.0
  9
$DIMEXE
 40
0.5
  9
$DIMCEN
 40
13.5
  9
$DIMLFAC
 40
1.0
  9
$DIMBLK
  1
_FILLED
  9
$DIMTXT
 40
1.8
  9
$DIMTOL
 70
1
  9
$DIMLIM
 70
0
  9
$DIMTFAC
 40
1.0
  9
$DIMTP
 40
0.001
  9
$DIMTM
 40
0.001
  9
$DIMGAP
 40
0.625
  9
$DIMDSEP
 70
46
  9
$PDMODE
 70
3
  9
$PDSIZE
 40
1.0
  9
$HANDSEED
  5
3C2
  9
$TILEMODE
 70
1
  9
$MEASUREMENT
 70
1
  9
$INSUNITS
 70
4
  0
ENDSEC
  0
SECTION
  2
CLASSES
  0
CLASS
  1
ACDBDICTIONARYWDFLT
  2
AcDbDictionaryWithDefault
  3
AutoCAD 2000
 90
0
 91
1
280
0
281
0
  0
CLASS
  1
ACDBPLACEHOLDER
  2
AcDbPlaceHolder
  3
AutoCAD 2000
 90
0
 91
1
280
0
281
0
  0
CLASS
  1
LAYOUT
  2
AcDbLayout
  3
AutoCAD 2000
 90
0
 91
0
280
0
281
0
  0
ENDSEC
  0
SECTION
  2
TABLES
  0
TABLE
  2
VPORT
  5
8
100
AcDbSymbolTable
 70
2
  0
VPORT
  5
1F4
100
AcDbSymbolTableRecord
100
AcDbViewportTableRecord
  2
*ACTIVE
 70
0
 10
0.0
 20
0.0
 11
1.0
 21
1.0
 12
750.0
 22
550.0
 13
0.0
 23
0.0
 14
1.0
 24
1.0
 15
0.0
 25
0.0
 16
0.0
 26
0.0
 36
1.0
 17
0.0
 27
0.0
 37
0.0
 40
1100.0
 41
1.3636363636
 42
50.0
 43
0.0
 44
0.0
 50
0.0
 51
0.0
 71
0
 72
100
 73
1
 74
1
 75
0
 76
0
 77
0
 78
0
  0
ENDTAB
  0
TABLE
  2
LTYPE
  5
5
100
AcDbSymbolTable
 70
6
  0
LTYPE
  5
14
100
AcDbSymbolTableRecord
100
AcDbLinetypeTableRecord
  2
BYBLOCK
 70
0
  3

 72
65
 73
0
 40
0.0
  0
LTYPE
  5
15
100
AcDbSymbolTableRecord
100
AcDbLinetypeTableRecord
  2
BYLAYER
 70
0
  3

 72
65
 73
0
 40
0.0
  0
LTYPE
  5
16
100
AcDbSymbolTableRecord
100
AcDbLinetypeTableRecord
  2
CONTINUOUS
 70
64
  3
Solid line
 72
65
 73
0
 40
0.0
  0
LTYPE
  5
1F5
100
AcDbSymbolTableRecord
100
AcDbLinetypeTableRecord
  2
CENTER
 70
64
  3
____ _ ____ _ ____ _ ____ _ ____ _ ____ _ ____
 72
65
 73
4
 40
0.6
 49
0.375
 74
0
 49
-0.075
 74
0
 49
0.075
 74
0
 49
-0.075
 74
0
  0
LTYPE
  5
1F6
100
AcDbSymbolTableRecord
100
AcDbLinetypeTableRecord
  2
HIDDEN
 70
64
  3
- - - - - - - - - - - - - - - - - - - -
 72
65
 73
2
 40
0.2
 49
0.1
 74
0
 49
-0.1
 74
0
  0
LTYPE
  5
1F7
100
AcDbSymbolTableRecord
100
AcDbLinetypeTableRecord
  2
PHANTOM
 70
64
  3
_____ _ _ _____ _ _ _____ _ _ _____
 72
65
 73
6
 40
0.8
 49
0.45
 74
0
 49
-0.05
 74
0
 49
0.1
 74
0
 49
-0.05
 74
0
 49
0.1
 74
0
 49
-0.05
 74
0
  0
LTYPE
  5
1F8
100
AcDbSymbolTableRecord
100
AcDbLinetypeTableRecord
  2
DOT
 70
64
  3
. . . . . . . . . . . . . . . . . . . .
 72
65
 73
2
 40
0.2
 49
0.1
 74
0
 49
-0.1
 74
0
  0
LTYPE
  5
1F9
100
AcDbSymbolTableRecord
100
AcDbLinetypeTableRecord
  2
DASHED
 70
64
  3
- - - - - - - - - - - - - - - - - - - -
 72
65
 73
2
 40
0.2
 49
0.1
 74
0
 49
-0.1
 74
0
  0
ENDTAB
  0
TABLE
  2
LAYER
  5
2
100
AcDbSymbolTable
 70
36
  0
LAYER
  5
10
100
AcDbSymbolTableRecord
100
AcDbLayerTableRecord
  2
0
 70
0
 62
7
  6
CONTINUOUS
370
-3
390
F
  0
LAYER
  5
1FA
100
AcDbSymbolTableRecord
100
AcDbLayerTableRecord
  2
DEFAULT_1
 70
0
 62
7
  6
CENTER
370
-3
390
F
  0
LAYER
  5
1FB
100
AcDbSymbolTableRecord
100
AcDbLayerTableRecord
  2
DEFAULT_2
 70
0
 62
8
  6
HIDDEN
370
-3
390
F
  0
LAYER
  5
1FC
100
AcDbSymbolTableRecord
100
AcDbLayerTableRecord
  2
DEFAULT_3
 70
0
 62
7
  6
PHANTOM
370
-3
390
F
  0
ENDTAB
  0
TABLE
  2
STYLE
  5
3
100
AcDbSymbolTable
 70
1
  0
STYLE
  5
11
100
AcDbSymbolTableRecord
100
AcDbTextStyleTableRecord
  2
STANDARD
 70
0
 40
0.0
 41
0.8
 50
0.0
 71
0
 42
0.2
  3
txt
  4

  0
STYLE
  5
1FD
100
AcDbSymbolTableRecord
100
AcDbTextStyleTableRecord
  2
TEXTSTYLE_1
 70
0
 40
0.0
 41
0.8
 50
0.0
 71
0
 42
0.2
  3
gdt
  4

  0
ENDTAB
  0
TABLE
  2
VIEW
  5
6
100
AcDbSymbolTable
 70
0
  0
ENDTAB
  0
TABLE
  2
UCS
  5
7
100
AcDbSymbolTable
 70
0
  0
ENDTAB
  0
TABLE
  2
APPID
  5
9
100
AcDbSymbolTable
 70
1
  0
APPID
  5
1FE
100
AcDbSymbolTableRecord
100
AcDbRegAppTableRecord
  2
ACAD
 70
0
  0
ENDTAB
  0
TABLE
  2
BLOCK_RECORD
  5
1
100
AcDbSymbolTable
 70
0
  0
BLOCK_RECORD
  5
1FF
100
AcDbSymbolTableRecord
100
AcDbBlockTableRecord
  2
*Model_Space
  0
BLOCK_RECORD
  5
200
100
AcDbSymbolTableRecord
100
AcDbBlockTableRecord
  2
*Paper_Space
  0
BLOCK_RECORD
  5
201
100
AcDbSymbolTableRecord
100
AcDbBlockTableRecord
  2
_FILLED
  0
BLOCK_RECORD
  5
202
100
AcDbSymbolTableRecord
100
AcDbBlockTableRecord
  2
*D0
  0
BLOCK_RECORD
  5
203
100
AcDbSymbolTableRecord
100
AcDbBlockTableRecord
  2
*D1
  0
BLOCK_RECORD
  5
204
100
AcDbSymbolTableRecord
100
AcDbBlockTableRecord
  2
*D2
  0
BLOCK_RECORD
  5
205
100
AcDbSymbolTableRecord
100
AcDbBlockTableRecord
  2
*D3
  0
BLOCK_RECORD
  5
206
100
AcDbSymbolTableRecord
100
AcDbBlockTableRecord
  2
*D4
  0
BLOCK_RECORD
  5
207
100
AcDbSymbolTableRecord
100
AcDbBlockTableRecord
  2
*D5
  0
ENDTAB
  0
TABLE
  2
DIMSTYLE
  5
A
100
AcDbSymbolTable
 70
1
100
AcDbDimStyleTable
 71
0
  0
DIMSTYLE
105
208
100
AcDbSymbolTableRecord
100
AcDbDimStyleTableRecord
  2
STANDARD
 70
0
  3

  4

 40
1.0
 41
3.0
 42
0.5
 43
0.38
 44
0.5
 45
0.0
 46
0.0
 47
0.001
 48
0.001
140
1.8
141
0.09
142
0.0
143
25.4
144
1.0
145
0.0
146
1.0
147
0.625
 71
1.0
 72
0.0
 73
0
 74
0
 75
0
 76
0
 77
1
 78
8
170
0
171
2
172
0
173
0
174
0
175
0
176
0
177
0
178
0
270
2
271
3
272
3
273
2
274
2
275
0
280
0
281
0
282
0
283
1
284
8
285
0
286
0
287
3
288
0
340
11
278
46
341
201
342
201
343
201
344
201
  0
DIMSTYLE
105
209
100
AcDbSymbolTableRecord
100
AcDbDimStyleTableRecord
  2
DIMSTYLE_1
 70
0
  3

  4

 40
1.0
 41
3.0
 42
0.5
 43
0.38
 44
0.5
 45
0.0
 46
0.0
 47
0.001
 48
0.001
140
10.0
141
0.09
142
0.0
143
25.4
144
1.0
145
0.0
146
1.0
147
2.5
 71
0.0
 72
0.0
 73
0
 74
0
 75
0
 76
0
 77
1
 78
8
170
0
171
2
172
0
173
0
174
0
175
0
176
0
177
0
178
0
270
2
271
3
272
3
273
2
274
2
275
0
280
0
281
0
282
0
283
1
284
8
285
0
286
0
287
3
288
0
340
11
278
46
341
201
342
201
343
201
344
201
  0
ENDTAB
  0
ENDSEC
  0
SECTION
  2
BLOCKS
  0
BLOCK
  5
20
100
AcDbEntity
  8
0
100
AcDbBlockBegin
  2
*Model_Space
 70
0
 10
0.0
 20
0.0
 30
0.0
  3
*Model_Space
  1

  0
ENDBLK
  5
21
100
AcDbEntity
  8
0
100
AcDbBlockEnd
  0
BLOCK
  5
1C
100
AcDbEntity
  8
0
100
AcDbBlockBegin
  2
*Paper_Space
 70
0
 10
0.0
 20
0.0
 30
0.0
  3
*Paper_Space
  1

  0
ENDBLK
  5
1D
100
AcDbEntity
  8
0
100
AcDbBlockEnd
  0
BLOCK
  5
20A
100
AcDbEntity
  8
0
100
AcDbBlockBegin
  2
_FILLED
 70
64
 10
0.0
 20
0.0
  3
_FILLED
  1

  0
SOLID
  5
20B
100
AcDbEntity
  8
0
  6
BYBLOCK
 62
0
100
AcDbTrace
 10
0.0
 20
0.0
 11
-1.0
 21
0.1666666667
 12
-1.0
 22
-0.1666666667
 13
-1.0
 23
-0.1666666667
  0
ENDBLK
  5
20C
100
AcDbEntity
  8
0
  6
BYBLOCK
 62
0
100
AcDbBlockEnd
  0
BLOCK
  5
20D
100
AcDbEntity
  8
0
100
AcDbBlockBegin
 62
2
  6
CONTINUOUS
  2
*D0
 70
65
 10
0.0
 20
0.0
  3
*D0
  1

  0
MTEXT
  5
20E
100
AcDbEntity
  8
0
100
AcDbMText
 62
2
  6
CONTINUOUS
  7
STANDARD
 71
2
 72
1
 10
345.4082249083
 20
185.0881843566
 30
0.0
 11
0.9681003459
 21
-0.2505628071
 31
0.0
 44
0.9
  1
500
 40
10.0
 41
46.2857142857
  0
LINE
  5
20F
100
AcDbEntity
  8
0
100
AcDbLine
 62
2
  6
CONTINUOUS
 10
659.6241087376
 20
168.0459256136
 11
513.3831723098
 21
128.4455858073
  0
LINE
  5
210
100
AcDbEntity
  8
0
100
AcDbLine
 62
2
  6
CONTINUOUS
 10
300.7707954281
 20
252.6228726215
 11
170.2039699993
 21
217.2668992483
  0
LINE
  5
211
100
AcDbEntity
  8
0
100
AcDbLine
 62
2
  6
CONTINUOUS
 10
513.865790975
 20
128.5762733125
 11
342.2761898197
 21
172.986930033
  0
LINE
  5
212
100
AcDbEntity
  8
0
100
AcDbLine
 62
2
  6
CONTINUOUS
 10
170.6865886645
 20
217.3975867535
 11
342.2761898197
 21
172.986930033
  0
INSERT
  5
213
100
AcDbEntity
  8
0
100
AcDbBlockReference
 62
2
  6
CONTINUOUS
  2
_FILLED
 10
513.865790975
 20
128.5762733125
 41
3.0
 42
3.0
 43
3.0
 50
345.4891813009
  0
INSERT
  5
214
100
AcDbEntity
  8
0
100
AcDbBlockReference
 62
2
  6
CONTINUOUS
  2
_FILLED
 10
170.6865886645
 20
217.3975867535
 41
3.0
 42
3.0
 43
3.0
 50
165.4891813009
  0
ENDBLK
  5
215
100
AcDbEntity
  8
0
  6
BYBLOCK
 62
0
100
AcDbBlockEnd
  0
BLOCK
  5
216
100
AcDbEntity
  8
0
100
AcDbBlockBegin
 62
2
  6
CONTINUOUS
  2
*D1
 70
65
 10
0.0
 20
0.0
  3
*D1
  1

  0
MTEXT
  5
217
100
AcDbEntity
  8
0
100
AcDbMText
 62
2
  6
CONTINUOUS
  7
STANDARD
 71
2
 72
1
 10
1073.9621896097
 20
209.3237819873
 30
0.0
 11
0.9681003459
 21
0.2505628071
 31
0.0
 44
0.9
  1
800
 40
10.0
 41
46.2857142857
  0
LINE
  5
218
100
AcDbEntity
  8
0
100
AcDbLine
 62
2
  6
CONTINUOUS
 10
642.6669722811
 20
164.244468646
 11
796.6108626213
 21
124.3774646012
  0
LINE
  5
219
100
AcDbEntity
  8
0
100
AcDbLine
 62
2
  6
CONTINUOUS
 10
1208.0439834019
 20
308.7924583214
 11
1358.5456514274
 21
269.8168900499
  0
LINE
  5
21A
100
AcDbEntity
  8
0
100
AcDbLine
 62
2
  6
CONTINUOUS
 10
796.1268302951
 20
124.5028149394
 11
1077.0942246982
 21
197.2225276637
  0
LINE
  5
21B
100
AcDbEntity
  8
0
100
AcDbLine
 62
2
  6
CONTINUOUS
 10
1358.0616191013
 20
269.9422403881
 11
1077.0942246982
 21
197.2225276637
  0
INSERT
  5
21C
100
AcDbEntity
  8
0
100
AcDbBlockReference
 62
2
  6
CONTINUOUS
  2
_FILLED
 10
796.1268302951
 20
124.5028149394
 41
3.0
 42
3.0
 43
3.0
 50
194.5108186991
  0
INSERT
  5
21D
100
AcDbEntity
  8
0
100
AcDbBlockReference
 62
2
  6
CONTINUOUS
  2
_FILLED
 10
1358.0616191013
 20
269.9422403881
 41
3.0
 42
3.0
 43
3.0
 50
14.5108186991
  0
ENDBLK
  5
21E
100
AcDbEntity
  8
0
  6
BYBLOCK
 62
0
100
AcDbBlockEnd
  0
BLOCK
  5
21F
100
AcDbEntity
  8
0
100
AcDbBlockBegin
 62
2
  6
CONTINUOUS
  2
*D2
 70
65
 10
0.0
 20
0.0
  3
*D2
  1

  0
MTEXT
  5
220
100
AcDbEntity
  8
0
100
AcDbMText
 62
2
  6
CONTINUOUS
  7
STANDARD
 71
2
 72
1
 10
469.8427661183
 20
895.7187781419
 30
0.0
 11
0.9681003459
 21
0.2505628071
 31
0.0
 44
0.9
  1
326
 40
10.0
 41
46.2857142857
  0
LINE
  5
221
100
AcDbEntity
  8
0
100
AcDbLine
 62
2
  6
CONTINUOUS
 10
460.814836215
 20
825.4922373709
 11
357.715152628
 21
852.1922043739
  0
LINE
  5
222
100
AcDbEntity
  8
0
100
AcDbLine
 62
2
  6
CONTINUOUS
 10
691.2609362037
 20
885.1360769176
 11
588.1612526167
 21
911.8360439206
  0
LINE
  5
223
100
AcDbEntity
  8
0
100
AcDbLine
 62
2
  6
CONTINUOUS
 10
358.1991847966
 20
852.0668534273
 11
473.4222347909
 21
881.8887732007
  0
LINE
  5
224
100
AcDbEntity
  8
0
100
AcDbLine
 62
2
  6
CONTINUOUS
 10
588.6452847853
 20
911.710692974
 11
473.4222347909
 21
881.8887732007
  0
INSERT
  5
225
100
AcDbEntity
  8
0
100
AcDbBlockReference
 62
2
  6
CONTINUOUS
  2
_FILLED
 10
358.1991847966
 20
852.0668534273
 41
3.0
 42
3.0
 43
3.0
 50
194.5108186991
  0
INSERT
  5
226
100
AcDbEntity
  8
0
100
AcDbBlockReference
 62
2
  6
CONTINUOUS
  2
_FILLED
 10
588.6452847853
 20
911.710692974
 41
3.0
 42
3.0
 43
3.0
 50
14.5108186991
  0
ENDBLK
  5
227
100
AcDbEntity
  8
0
  6
BYBLOCK
 62
0
100
AcDbBlockEnd
  0
BLOCK
  5
228
100
AcDbEntity
  8
0
100
AcDbBlockBegin
 62
2
  6
CONTINUOUS
  2
*D3
 70
65
 10
0.0
 20
0.0
  3
*D3
  1

  0
MTEXT
  5
229
100
AcDbEntity
  8
0
100
AcDbMText
 62
2
  6
CONTINUOUS
  7
STANDARD
 71
2
 72
1
 10
930.9640953844
 20
908.7183603462
 30
0.0
 11
0.9681003459
 21
-0.2505628071
 31
0.0
 44
0.9
  1
279
 40
10.0
 41
46.2857142857
  0
LINE
  5
22A
100
AcDbEntity
  8
0
100
AcDbLine
 62
2
  6
CONTINUOUS
 10
888.5927233905
 20
834.0931771851
 11
1026.2632691058
 21
869.5466940402
  0
LINE
  5
22B
100
AcDbEntity
  8
0
100
AcDbLine
 62
2
  6
CONTINUOUS
 10
692.229170255
 20
885.1354197428
 11
829.4743880833
 21
920.4794043133
  0
LINE
  5
22C
100
AcDbEntity
  8
0
100
AcDbLine
 62
2
  6
CONTINUOUS
 10
1025.779067223
 20
869.4220002684
 11
927.3846267118
 21
894.8883554049
  0
LINE
  5
22D
100
AcDbEntity
  8
0
100
AcDbLine
 62
2
  6
CONTINUOUS
 10
828.9901862005
 20
920.3547105414
 11
927.3846267118
 21
894.8883554049
  0
INSERT
  5
22E
100
AcDbEntity
  8
0
100
AcDbBlockReference
 62
2
  6
CONTINUOUS
  2
_FILLED
 10
1025.779067223
 20
869.4220002684
 41
3.0
 42
3.0
 43
3.0
 50
345.4891813009
  0
INSERT
  5
22F
100
AcDbEntity
  8
0
100
AcDbBlockReference
 62
2
  6
CONTINUOUS
  2
_FILLED
 10
828.9901862005
 20
920.3547105414
 41
3.0
 42
3.0
 43
3.0
 50
165.4891813009
  0
ENDBLK
  5
230
100
AcDbEntity
  8
0
  6
BYBLOCK
 62
0
100
AcDbBlockEnd
  0
BLOCK
  5
231
100
AcDbEntity
  8
0
100
AcDbBlockBegin
 62
2
  6
CONTINUOUS
  2
*D4
 70
65
 10
0.0
 20
0.0
  3
*D4
  1

  0
MTEXT
  5
232
100
AcDbEntity
  8
0
100
AcDbMText
 62
2
  6
CONTINUOUS
  7
STANDARD
 71
2
 72
1
 10
1012.1256402343
 20
633.5570738688
 30
0.0
 11
0.0
 21
1.0
 31
0.0
 44
0.9
  1
490 - 970
 40
10.0
 41
138.8571428571
  0
LINE
  5
233
100
AcDbEntity
  8
0
100
AcDbLine
 62
2
  6
CONTINUOUS
 10
889.0172771333
 20
834.2018545053
 11
954.8660537934
 21
850.995755824
  0
LINE
  5
234
100
AcDbEntity
  8
0
100
AcDbLine
 62
2
  6
CONTINUOUS
 10
954.8660537934
 20
850.995755824
 11
1025.1101317912
 21
868.9106234031
  0
LINE
  5
235
100
AcDbEntity
  8
0
100
AcDbLine
 62
2
  6
CONTINUOUS
 10
888.437378146
 20
363.5939864438
 11
1025.1101317912
 21
398.4506512763
  0
LINE
  5
236
100
AcDbEntity
  8
0
100
AcDbLine
 62
2
  6
CONTINUOUS
 10
1024.6256402343
 20
868.7870599323
 11
1024.6256402343
 21
633.5570738688
  0
LINE
  5
237
100
AcDbEntity
  8
0
100
AcDbLine
 62
2
  6
CONTINUOUS
 10
1024.6256402343
 20
398.3270878054
 11
1024.6256402343
 21
633.5570738688
  0
INSERT
  5
238
100
AcDbEntity
  8
0
100
AcDbBlockReference
 62
2
  6
CONTINUOUS
  2
_FILLED
 10
1024.6256402343
 20
868.7870599323
 41
3.0
 42
3.0
 43
3.0
 50
90.0
  0
INSERT
  5
239
100
AcDbEntity
  8
0
100
AcDbBlockReference
 62
2
  6
CONTINUOUS
  2
_FILLED
 10
1024.6256402343
 20
398.3270878054
 41
3.0
 42
3.0
 43
3.0
 50
270.0
  0
ENDBLK
  5
23A
100
AcDbEntity
  8
0
  6
BYBLOCK
 62
0
100
AcDbBlockEnd
  0
BLOCK
  5
23B
100
AcDbEntity
  8
0
100
AcDbBlockBegin
 62
2
  6
CONTINUOUS
  2
*D5
 70
65
 10
0.0
 20
0.0
  3
*D5
  1

  0
MTEXT
  5
23C
100
AcDbEntity
  8
0
100
AcDbMText
 62
2
  6
CONTINUOUS
  7
STANDARD
 71
2
 72
1
 10
1109.0825648621
 20
610.5138859184
 30
0.0
 11
0.0
 21
1.0
 31
0.0
 44
0.9
  1
550 - 1030
 40
10.0
 41
154.2857142857
  0
LINE
  5
23D
100
AcDbEntity
  8
0
100
AcDbLine
 62
2
  6
CONTINUOUS
 10
988.6799208831
 20
293.6717658518
 11
1122.0670734845
 21
327.6708542782
  0
LINE
  5
23E
100
AcDbEntity
  8
0
100
AcDbLine
 62
2
  6
CONTINUOUS
 10
889.0172941989
 20
834.2017875719
 11
1039.2007720525
 21
872.4820960135
  0
LINE
  5
23F
100
AcDbEntity
  8
0
100
AcDbLine
 62
2
  6
CONTINUOUS
 10
1039.2007720525
 20
872.4820960135
 11
1122.0670734846
 21
893.6039106337
  0
LINE
  5
240
100
AcDbEntity
  8
0
100
AcDbLine
 62
2
  6
CONTINUOUS
 10
1121.5825648621
 20
327.5473577407
 11
1121.5825648621
 21
610.5138859184
  0
LINE
  5
241
100
AcDbEntity
  8
0
100
AcDbLine
 62
2
  6
CONTINUOUS
 10
1121.5825648621
 20
893.4804140961
 11
1121.5825648621
 21
610.5138859184
  0
INSERT
  5
242
100
AcDbEntity
  8
0
100
AcDbBlockReference
 62
2
  6
CONTINUOUS
  2
_FILLED
 10
1121.5825648621
 20
327.5473577407
 41
3.0
 42
3.0
 43
3.0
 50
270.0
  0
INSERT
  5
243
100
AcDbEntity
  8
0
100
AcDbBlockReference
 62
2
  6
CONTINUOUS
  2
_FILLED
 10
1121.5825648621
 20
893.4804140961
 41
3.0
 42
3.0
 43
3.0
 50
90.0
  0
ENDBLK
  5
244
100
AcDbEntity
  8
0
  6
BYBLOCK
 62
0
100
AcDbBlockEnd
  0
ENDSEC
  0
SECTION
  2
ENTITIES
  0
DIMENSION
  5
245
100
AcDbEntity
  8
0
100
AcDbDimension
 62
2
  6
CONTINUOUS
  2
*D0
 10
170.6865886645
 20
217.3975867535
 11
342.2761898197
 21
172.986930033
 70
160
 71
2
 42
368.5978539945
  1
<>500
  3
DIMSTYLE_1
100
AcDbAlignedDimension
 13
659.7493901412
 23
168.5299757865
 14
300.8960768317
 24
253.1069227945
 50
165.4891813009
100
AcDbRotatedDimension
  0
DIMENSION
  5
246
100
AcDbEntity
  8
0
100
AcDbDimension
 62
2
  6
CONTINUOUS
  2
*D1
 10
1358.0616191013
 20
269.9422403881
 11
1077.0942246982
 21
197.2225276637
 70
160
 71
2
 42
583.5600300739
  1
<>800
  3
DIMSTYLE_1
100
AcDbAlignedDimension
 13
642.5416908776
 23
164.728518819
 14
1207.9187019983
 24
309.2765084943
 50
14.5108186991
100
AcDbRotatedDimension
  0
DIMENSION
  5
247
100
AcDbEntity
  8
0
100
AcDbDimension
 62
2
  6
CONTINUOUS
  2
*D2
 10
588.6452847853
 20
911.710692974
 11
473.4222347909
 21
881.8887732007
 70
160
 71
2
 42
238.0394769694
  3
DIMSTYLE_1
100
AcDbAlignedDimension
 13
460.9401176185
 23
825.008187198
 14
691.3862176072
 24
884.6520267447
 50
14.5108186991
100
AcDbRotatedDimension
  0
DIMENSION
  5
248
100
AcDbEntity
  8
0
100
AcDbDimension
 62
2
  6
CONTINUOUS
  2
*D3
 10
828.9901862005
 20
920.3547105414
 11
927.3846267118
 21
894.8883554049
 70
160
 71
2
 42
202.8889112852
  3
DIMSTYLE_1
100
AcDbAlignedDimension
 13
888.467441987
 23
833.6091270121
 14
692.1038888515
 24
884.6513695699
 50
165.4891813009
100
AcDbRotatedDimension
  0
DIMENSION
  5
249
100
AcDbEntity
  8
0
100
AcDbDimension
 62
2
  6
CONTINUOUS
  2
*D4
 10
1024.6256402343
 20
398.3270878054
 11
1024.6256402343
 21
633.5570738688
 70
160
 71
2
 42
470.6078680615
  1
<>490 - 970
  3
DIMSTYLE_1
100
AcDbAlignedDimension
 13
888.5172771333
 23
834.2018545053
 14
887.937378146
 24
363.5939864438
 50
270.0
100
AcDbRotatedDimension
  0
DIMENSION
  5
24A
100
AcDbEntity
  8
0
100
AcDbDimension
 62
2
  6
CONTINUOUS
  2
*D5
 10
1121.5825648621
 20
893.4804140961
 11
1121.5825648621
 21
610.5138859184
 70
160
 71
2
 42
540.5300217201
  1
<>550 - 1030
  3
DIMSTYLE_1
100
AcDbAlignedDimension
 13
988.1799208831
 23
293.6717658518
 14
888.5172941989
 24
834.2017875719
 50
90.0
100
AcDbRotatedDimension
  0
LINE
  5
24B
100
AcDbEntity
  8
0
100
AcDbLine
 62
7
  6
CONTINUOUS
 10
300.9152727539
 20
254.0413967968
 11
300.0147555251
 21
257.4710842504
  0
LINE
  5
24C
100
AcDbEntity
  8
0
100
AcDbLine
 62
7
  6
CONTINUOUS
 10
303.2901030991
 20
252.226426223
 11
302.5442481869
 21
252.4721757324
  0
LINE
  5
24D
100
AcDbEntity
  8
0
100
AcDbLine
 62
7
  6
CONTINUOUS
 10
304.1858985478
 20
251.8498904886
 11
303.5446723265
 21
252.0714337209
  0
LINE
  5
24E
100
AcDbEntity
  8
0
100
AcDbLine
 62
7
  6
CONTINUOUS
 10
303.268367838
 20
252.1736345777
 11
303.5331452576
 21
252.064620996
  0
LINE
  5
24F
100
AcDbEntity
  8
0
100
AcDbLine
 62
7
  6
CONTINUOUS
 10
304.1858985478
 20
251.8498904886
 11
642.182939955
 21
164.3698189841
  0
LINE
  5
250
100
AcDbEntity
  8
0
100
AcDbLine
 62
7
  6
CONTINUOUS
 10
303.2901030991
 20
252.226426223
 11
641.2871445063
 21
164.7463547186
  0
LINE
  5
251
100
AcDbEntity
  8
0
100
AcDbLine
 62
7
  6
CONTINUOUS
 10
302.3896104418
 20
255.6560200942
 11
640.386651849
 21
168.1759485897
  0
LINE
  5
252
100
AcDbEntity
  8
0
100
AcDbLine
 62
7
  6
CONTINUOUS
 10
302.8346228369
 20
256.9938987513
 11
640.8316642441
 21
169.5138272469
  0
LINE
  5
253
100
AcDbEntity
  8
0
100
AcDbLine
 62
7
  6
CONTINUOUS
 10
779.677316579
 20
239.5798149034
 11
987.4906672551
 21
293.3658678849
  0
LINE
  5
254
100
AcDbEntity
  8
0
100
AcDbLine
 62
7
  6
CONTINUOUS
 10
460.7658255895
 20
328.5003618084
 11
460.5638837334
 21
328.6322013293
  0
LINE
  5
255
100
AcDbEntity
  8
0
100
AcDbLine
 62
7
  6
CONTINUOUS
 10
464.3145115376
 20
333.8887563787
 11
464.3971324853
 21
333.6678996725
  0
LINE
  5
256
100
AcDbEntity
  8
0
100
AcDbLine
 62
7
  6
CONTINUOUS
 10
464.6518129937
 20
333.6415989185
 11
464.804455653
 21
333.1422512651
  0
LINE
  5
257
100
AcDbEntity
  8
0
100
AcDbLine
 62
7
  6
CONTINUOUS
 10
459.9812470069
 20
329.4162962222
 11
459.8629464885
 21
330.3379895364
  0
LINE
  5
258
100
AcDbEntity
  8
0
100
AcDbLine
 62
7
  6
CONTINUOUS
 10
460.1368453958
 20
330.5605202797
 11
460.0185448774
 21
331.4822135939
  0
LINE
  5
259
100
AcDbEntity
  8
0
100
AcDbLine
 62
7
  6
CONTINUOUS
 10
465.2729705629
 20
333.9463545074
 11
465.3322019222
 21
333.4599118541
  0
LINE
  5
25A
100
AcDbEntity
  8
0
100
AcDbLine
 62
7
  6
CONTINUOUS
 10
461.8787673708
 20
352.3920572613
 11
461.8787673709
 21
825.2204762628
  0
LINE
  5
25B
100
AcDbEntity
  8
0
100
AcDbLine
 62
7
  6
CONTINUOUS
 10
478.3401418101
 20
822.7212852344
 11
478.3401418101
 21
821.175895551
  0
LINE
  5
25C
100
AcDbEntity
  8
0
100
AcDbLine
 62
7
  6
CONTINUOUS
 10
478.7644058789
 20
822.8310928555
 11
478.7644058789
 21
821.0660879299
  0
LINE
  5
25D
100
AcDbEntity
  8
0
100
AcDbLine
 62
7
  6
CONTINUOUS
 10
465.9030080939
 20
333.7832887952
 11
465.8787394042
 21
333.2085911751
  0
LINE
  5
25E
100
AcDbEntity
  8
0
100
AcDbLine
 62
7
  6
CONTINUOUS
 10
457.2683597308
 20
351.1671602048
 11
457.975466512
 21
350.9841475029
  0
LINE
  5
25F
100
AcDbEntity
  8
0
100
AcDbLine
 62
7
  6
CONTINUOUS
 10
468.5820682298
 20
352.2102529908
 11
653.1394340713
 21
304.443291797
  0
LINE
  5
260
100
AcDbEntity
  8
0
100
AcDbLine
 62
7
  6
CONTINUOUS
 10
626.9359191683
 20
285.4923768637
 11
626.7339773123
 21
285.6242163846
  0
LINE
  5
261
100
AcDbEntity
  8
0
100
AcDbLine
 62
7
  6
CONTINUOUS
 10
471.0473424634
 20
331.9608965638
 11
470.9290419451
 21
332.882589878
  0
LINE
  5
262
100
AcDbEntity
  8
0
100
AcDbLine
 62
7
  6
CONTINUOUS
 10
471.4868620964
 20
330.8930566673
 11
471.368561578
 21
331.8147499815
  0
LINE
  5
263
100
AcDbEntity
  8
0
100
AcDbLine
 62
7
  6
CONTINUOUS
 10
630.4846051164
 20
290.880771434
 11
630.5672260642
 21
290.6599147279
  0
LINE
  5
264
100
AcDbEntity
  8
0
100
AcDbLine
 62
7
  6
CONTINUOUS
 10
926.1181872703
 20
366.1834096992
 11
926.6018975407
 21
366.1964760865
  0
LINE
  5
265
100
AcDbEntity
  8
0
100
AcDbLine
 62
7
  6
CONTINUOUS
 10
930.1909871594
 20
365.1890805796
 11
930.1216110593
 21
365.1948033781
  0
LINE
  5
266
100
AcDbEntity
  8
0
100
AcDbLine
 62
7
  6
CONTINUOUS
 10
929.0337719389
 20
367.8260586955
 11
929.1041002656
 21
367.8179143682
  0
LINE
  5
267
100
AcDbEntity
  8
0
100
AcDbLine
 62
7
  6
CONTINUOUS
 10
1203.8045617823
 20
309.4456643066
 11
1203.020068227
 21
309.5886407112
  0
LINE
  5
268
100
AcDbEntity
  8
0
100
AcDbLine
 62
7
  6
CONTINUOUS
 10
630.8219065725
 20
290.6336139738
 11
630.9745492318
 21
290.1342663205
  0
LINE
  5
269
100
AcDbEntity
  8
0
100
AcDbLine
 62
7
  6
CONTINUOUS
 10
626.1513405857
 20
286.4083112775
 11
626.0330400674
 21
287.3300045917
  0
LINE
  5
26A
100
AcDbEntity
  8
0
100
AcDbLine
 62
7
  6
CONTINUOUS
 10
626.3069389746
 20
287.552535335
 11
626.1886384563
 21
288.4742286492
  0
LINE
  5
26B
100
AcDbEntity
  8
0
100
AcDbLine
 62
7
  6
CONTINUOUS
 10
632.0731016727
 20
290.7753038506
 11
632.048832983
 21
290.2006062304
  0
LINE
  5
26C
100
AcDbEntity
  8
0
100
AcDbLine
 62
7
  6
CONTINUOUS
 10
887.9528865891
 20
396.9486452926
 11
1203.7626045121
 21
315.2110756657
  0
LINE
  5
26D
100
AcDbEntity
  8
0
100
AcDbLine
 62
7
  6
CONTINUOUS
 10
637.2174360423
 20
288.9529116192
 11
637.0991355239
 21
289.8746049334
  0
LINE
  5
26E
100
AcDbEntity
  8
0
100
AcDbLine
 62
7
  6
CONTINUOUS
 10
637.6569556752
 20
287.8850717226
 11
637.5386551569
 21
288.8067650368
  0
LINE
  5
26F
100
AcDbEntity
  8
0
100
AcDbLine
 62
7
  6
CONTINUOUS
 10
631.4430641417
 20
290.9383695627
 11
631.5022955011
 21
290.4519269094
  0
LINE
  5
270
100
AcDbEntity
  8
0
100
AcDbLine
 62
7
  6
CONTINUOUS
 10
656.8697499663
 20
303.1164280862
 11
656.8697499663
 21
774.7489517318
  0
LINE
  5
271
100
AcDbEntity
  8
0
100
AcDbLine
 62
7
  6
CONTINUOUS
 10
659.0277459996
 20
303.284233354
 11
659.0277459997
 21
774.6765020383
  0
LINE
  5
272
100
AcDbEntity
  8
0
100
AcDbLine
 62
7
  6
CONTINUOUS
 10
684.7588248009
 20
882.9060798993
 11
684.7588248009
 21
781.557324332
  0
LINE
  5
273
100
AcDbEntity
  8
0
100
AcDbLine
 62
7
  6
CONTINUOUS
 10
694.0784207502
 20
783.9694132563
 11
694.0784207502
 21
878.5584605817
  0
LINE
  5
274
100
AcDbEntity
  8
0
100
AcDbLine
 62
7
  6
CONTINUOUS
 10
694.5026848189
 20
784.0792208775
 11
694.5026848189
 21
878.6682682029
  0
LINE
  5
275
100
AcDbEntity
  8
0
100
AcDbLine
 62
7
  6
CONTINUOUS
 10
470.9590269966
 20
329.8086722751
 11
471.121128048
 21
329.9872371698
  0
LINE
  5
276
100
AcDbEntity
  8
0
100
AcDbLine
 62
7
  6
CONTINUOUS
 10
923.0412092978
 20
364.2962593892
 11
922.8678444547
 21
364.5125187423
  0
LINE
  5
277
100
AcDbEntity
  8
0
100
AcDbLine
 62
7
  6
CONTINUOUS
 10
934.2402270444
 20
364.5706557407
 11
934.4135918876
 21
364.3543963876
  0
LINE
  5
278
100
AcDbEntity
  8
0
100
AcDbLine
 62
7
  6
CONTINUOUS
 10
637.1291205755
 20
286.8006873304
 11
637.2912216268
 21
286.9792522251
  0
LINE
  5
279
100
AcDbEntity
  8
0
100
AcDbLine
 62
7
  6
CONTINUOUS
 10
462.7264915256
 20
331.0755625387
 11
463.3202562949
 21
331.3668785283
  0
LINE
  5
27A
100
AcDbEntity
  8
0
100
AcDbLine
 62
7
  6
CONTINUOUS
 10
457.4649754157
 20
350.7553963145
 11
457.1867176039
 21
350.6305347416
  0
LINE
  5
27B
100
AcDbEntity
  8
0
100
AcDbLine
 62
7
  6
CONTINUOUS
 10
457.975466512
 20
350.9841475029
 11
457.4649754157
 21
350.7553963145
  0
LINE
  5
27C
100
AcDbEntity
  8
0
100
AcDbLine
 62
7
  6
CONTINUOUS
 10
887.9528865891
 20
833.9318808729
 11
887.9528865891
 21
362.6657165516
  0
LINE
  5
27D
100
AcDbEntity
  8
0
100
AcDbLine
 62
7
  6
CONTINUOUS
 10
928.4126143697
 20
367.8092794665
 11
928.4253733877
 21
367.4872594644
  0
LINE
  5
27E
100
AcDbEntity
  8
0
100
AcDbLine
 62
7
  6
CONTINUOUS
 10
929.0337719389
 20
367.8260586955
 11
929.0122577671
 21
367.6414232032
  0
LINE
  5
27F
100
AcDbEntity
  8
0
100
AcDbLine
 62
7
  6
CONTINUOUS
 10
922.8231243994
 20
364.635049703
 11
922.9414249178
 21
365.6179798716
  0
LINE
  5
280
100
AcDbEntity
  8
0
100
AcDbLine
 62
7
  6
CONTINUOUS
 10
923.262935548
 20
365.7787181179
 11
923.3812360663
 21
366.7616482865
  0
LINE
  5
281
100
AcDbEntity
  8
0
100
AcDbLine
 62
7
  6
CONTINUOUS
 10
924.331253483
 20
363.3573429937
 11
924.3743466018
 21
363.7153932128
  0
LINE
  5
282
100
AcDbEntity
  8
0
100
AcDbLine
 62
7
  6
CONTINUOUS
 10
932.5784632515
 20
362.42104453
 11
932.6149508523
 21
362.7242111111
  0
LINE
  5
283
100
AcDbEntity
  8
0
100
AcDbLine
 62
7
  6
CONTINUOUS
 10
934.1841215199
 20
364.464299248
 11
934.3024220383
 21
365.4472294166
  0
LINE
  5
284
100
AcDbEntity
  8
0
100
AcDbLine
 62
7
  6
CONTINUOUS
 10
934.3400114244
 20
363.2489352583
 11
934.4583119428
 21
364.2318654269
  0
LINE
  5
285
100
AcDbEntity
  8
0
100
AcDbLine
 62
7
  6
CONTINUOUS
 10
628.8965851044
 20
288.067577594
 11
629.4903498737
 21
288.3588935836
  0
LINE
  5
286
100
AcDbEntity
  8
0
100
AcDbLine
 62
7
  6
CONTINUOUS
 10
657.0967360941
 20
774.6906692704
 11
462.2888178772
 21
825.1106686417
  0
LINE
  5
287
100
AcDbEntity
  8
0
100
AcDbLine
 62
7
  6
CONTINUOUS
 10
657.5210001628
 20
774.8004768915
 11
462.7130819459
 21
825.2204762628
  0
LINE
  5
288
100
AcDbEntity
  8
0
100
AcDbLine
 62
7
  6
CONTINUOUS
 10
469.4305963672
 20
826.9590969308
 11
476.9259282478
 21
825.0191622908
  0
LINE
  5
289
100
AcDbEntity
  8
0
100
AcDbLine
 62
7
  6
CONTINUOUS
 10
469.8548604359
 20
827.0689045519
 11
477.3501923165
 21
825.1289699119
  0
LINE
  5
28A
100
AcDbEntity
  8
0
100
AcDbLine
 62
7
  6
CONTINUOUS
 10
929.6638094699
 20
367.6629929833
 11
929.5821090568
 21
367.3777850905
  0
LINE
  5
28B
100
AcDbEntity
  8
0
100
AcDbLine
 62
7
  6
CONTINUOUS
 10
923.2336677453
 20
365.8953497138
 11
923.0139411849
 21
365.7264008597
  0
LINE
  5
28C
100
AcDbEntity
  8
0
100
AcDbLine
 62
7
  6
CONTINUOUS
 10
934.0477685969
 20
362.9715654161
 11
934.2674951573
 21
363.1405142702
  0
LINE
  5
28D
100
AcDbEntity
  8
0
100
AcDbLine
 62
7
  6
CONTINUOUS
 10
660.74713845
 20
168.624913601
 11
660.1067274028
 21
168.1766131188
  0
LINE
  5
28E
100
AcDbEntity
  8
0
100
AcDbLine
 62
7
  6
CONTINUOUS
 10
887.5428360828
 20
833.8220732518
 11
659.0766350814
 21
774.6906692704
  0
LINE
  5
28F
100
AcDbEntity
  8
0
100
AcDbLine
 62
7
  6
CONTINUOUS
 10
887.1185720141
 20
833.9318808729
 11
658.6523710127
 21
774.8004768915
  0
LINE
  5
290
100
AcDbEntity
  8
0
100
AcDbLine
 62
7
  6
CONTINUOUS
 10
1208.4584603053
 20
312.8334086222
 11
1207.7113609368
 21
314.0286980388
  0
LINE
  5
291
100
AcDbEntity
  8
0
100
AcDbLine
 62
7
  6
CONTINUOUS
 10
692.6642071878
 20
880.8563376381
 11
685.1688753072
 21
882.7962722781
  0
LINE
  5
292
100
AcDbEntity
  8
0
100
AcDbLine
 62
7
  6
CONTINUOUS
 10
693.0884712565
 20
880.9661452592
 11
685.5931393759
 21
882.9060798993
  0
LINE
  5
293
100
AcDbEntity
  8
0
100
AcDbLine
 62
7
  6
CONTINUOUS
 10
692.3106537972
 20
884.6447005672
 11
887.1185720141
 21
834.2247011959
  0
LINE
  5
294
100
AcDbEntity
  8
0
100
AcDbLine
 62
7
  6
CONTINUOUS
 10
692.7349178659
 20
884.7545081884
 11
887.5428360828
 21
834.3345088171
  0
LINE
  5
295
100
AcDbEntity
  8
0
100
AcDbLine
 62
7
  6
CONTINUOUS
 10
988.7689473947
 20
294.630406646
 11
997.1428203222
 21
310.4301021968
  0
LINE
  5
296
100
AcDbEntity
  8
0
100
AcDbLine
 62
7
  6
CONTINUOUS
 10
462.7130819459
 20
825.5132965859
 11
468.2992255173
 21
826.9590969308
  0
LINE
  5
297
100
AcDbEntity
  8
0
100
AcDbLine
 62
7
  6
CONTINUOUS
 10
685.5931393759
 20
883.1989002223
 11
691.1792829473
 21
884.6447005672
  0
LINE
  5
298
100
AcDbEntity
  8
0
100
AcDbLine
 62
7
  6
CONTINUOUS
 10
462.2888178772
 20
825.623104207
 11
467.8749614486
 21
827.0689045519
  0
LINE
  5
299
100
AcDbEntity
  8
0
100
AcDbLine
 62
7
  6
CONTINUOUS
 10
685.1688753072
 20
883.3087078434
 11
690.7550188786
 21
884.7545081884
  0
LINE
  5
29A
100
AcDbEntity
  8
0
100
AcDbLine
 62
7
  6
CONTINUOUS
 10
1208.4584581527
 20
312.8333993125
 11
1208.4618081154
 21
312.8194348468
  0
LINE
  5
29B
100
AcDbEntity
  8
0
100
AcDbLine
 62
7
  6
CONTINUOUS
 10
1206.3496301321
 20
308.1625839024
 11
1207.5523909829
 21
308.9130912584
  0
LINE
  5
29C
100
AcDbEntity
  8
0
100
AcDbLine
 62
7
  6
CONTINUOUS
 10
1207.5613048335
 20
308.9236653039
 11
1208.4616950002
 21
312.8189450782
  0
LINE
  5
29D
100
AcDbEntity
  8
0
100
AcDbLine
 62
7
  6
CONTINUOUS
 10
1207.5613348922
 20
308.9237964341
 11
1207.552278109
 21
308.912602753
  0
ARC
  5
29E
100
AcDbEntity
  8
0
100
AcDbCircle
 62
7
  6
CONTINUOUS
 10
647.6749345053
 20
187.8468040442
 40
22.9790752471
100
AcDbArc
 50
296.2823965537
 51
300.3958515853
  0
ARC
  5
29F
100
AcDbEntity
  8
0
100
AcDbCircle
 62
7
  6
CONTINUOUS
 10
649.605884071
 20
184.5709147145
 40
19.1764524995
100
AcDbArc
 50
300.371844126
 51
304.940403162
  0
ARC
  5
2A0
100
AcDbEntity
  8
0
100
AcDbCircle
 62
7
  6
CONTINUOUS
 10
650.0091760409
 20
182.6416988325
 40
17.6408403488
100
AcDbArc
 50
300.8990390987
 51
304.917495138
  0
ARC
  5
2A1
100
AcDbEntity
  8
0
100
AcDbCircle
 62
7
  6
CONTINUOUS
 10
644.5119730486
 20
177.2570191923
 40
12.9196069871
100
AcDbArc
 50
255.5457230633
 51
259.7185500122
  0
ARC
  5
2A2
100
AcDbEntity
  8
0
100
AcDbCircle
 62
7
  6
CONTINUOUS
 10
631.4829047801
 20
296.3311261883
 40
10.3159754223
100
AcDbArc
 50
289.5434841183
 51
291.536709041
  0
ARC
  5
2A3
100
AcDbEntity
  8
0
100
AcDbCircle
 62
7
  6
CONTINUOUS
 10
631.6038792202
 20
295.0269896312
 40
10.0525828062
100
AcDbArc
 50
289.5467863532
 51
291.1423617379
  0
ARC
  5
2A4
100
AcDbEntity
  8
0
100
AcDbCircle
 62
7
  6
CONTINUOUS
 10
631.4696909199
 20
296.2305428991
 40
9.9602523072
100
AcDbArc
 50
289.5434838012
 51
291.5367087195
  0
ARC
  5
2A5
100
AcDbEntity
  8
0
100
AcDbCircle
 62
7
  6
CONTINUOUS
 10
631.9038419343
 20
295.2565261429
 40
9.1618767912
100
AcDbArc
 50
291.5550595473
 51
293.7117141904
  0
ARC
  5
2A6
100
AcDbEntity
  8
0
100
AcDbCircle
 62
7
  6
CONTINUOUS
 10
629.4864435339
 20
291.450878343
 40
6.4947467349
100
AcDbArc
 50
255.5040452846
 51
257.8545943392
  0
ARC
  5
2A7
100
AcDbEntity
  8
0
100
AcDbCircle
 62
7
  6
CONTINUOUS
 10
629.3599142954
 20
292.1402112294
 40
5.9940462195
100
AcDbArc
 50
255.4908698571
 51
256.0527114915
  0
ARC
  5
2A8
100
AcDbEntity
  8
0
100
AcDbCircle
 62
7
  6
CONTINUOUS
 10
629.4329589835
 20
290.4964914091
 40
5.628772783
100
AcDbArc
 50
254.1591481497
 51
255.5020413706
  0
ARC
  5
2A9
100
AcDbEntity
  8
0
100
AcDbCircle
 62
7
  6
CONTINUOUS
 10
632.7183377616
 20
290.4408385901
 40
5.4151868926
100
AcDbArc
 50
296.0299528017
 51
297.759781275
  0
ARC
  5
2AA
100
AcDbEntity
  8
0
100
AcDbCircle
 62
7
  6
CONTINUOUS
 10
632.032442334
 20
286.1453715649
 40
4.9864060805
100
AcDbArc
 50
52.4862877247
 51
69.9429261273
  0
ARC
  5
2AB
100
AcDbEntity
  8
0
100
AcDbCircle
 62
7
  6
CONTINUOUS
 10
632.03262861
 20
286.1456999565
 40
4.9860348547
100
AcDbArc
 50
81.6515135666
 51
142.1422944955
  0
ARC
  5
2AC
100
AcDbEntity
  8
0
100
AcDbCircle
 62
7
  6
CONTINUOUS
 10
304.3324553094
 20
256.8165947274
 40
4.6984260926
100
AcDbArc
 50
246.5249735758
 51
247.6260380065
  0
ARC
  5
2AD
100
AcDbEntity
  8
0
100
AcDbCircle
 62
7
  6
CONTINUOUS
 10
630.1189899256
 20
292.032856342
 40
4.1501213878
100
AcDbArc
 50
255.5095402336
 51
258.3144470569
  0
ARC
  5
2AE
100
AcDbEntity
  8
0
100
AcDbCircle
 62
7
  6
CONTINUOUS
 10
629.6539672885
 20
288.4697376585
 40
3.7157028987
100
AcDbArc
 50
252.6146093462
 51
256.4968966464
  0
ARC
  5
2AF
100
AcDbEntity
  8
0
100
AcDbCircle
 62
7
  6
CONTINUOUS
 10
629.9446141919
 20
291.3706912664
 40
3.4653895742
100
AcDbArc
 50
252.3965374179
 51
255.561498692
  0
ARC
  5
2B0
100
AcDbEntity
  8
0
100
AcDbCircle
 62
7
  6
CONTINUOUS
 10
631.5182725867
 20
288.0523541709
 40
3.0113805228
100
AcDbArc
 50
110.075230784
 51
122.1922394251
  0
ARC
  5
2B1
100
AcDbEntity
  8
0
100
AcDbCircle
 62
7
  6
CONTINUOUS
 10
632.3759499673
 20
288.4904511831
 40
2.6162819954
100
AcDbArc
 50
69.2614720054
 51
81.6348833913
  0
ARC
  5
2B2
100
AcDbEntity
  8
0
100
AcDbCircle
 62
7
  6
CONTINUOUS
 10
461.905736802
 20
340.7846169211
 40
11.3711244448
100
AcDbArc
 50
111.1569689773
 51
114.0679921297
  0
ARC
  5
2B3
100
AcDbEntity
  8
0
100
AcDbCircle
 62
7
  6
CONTINUOUS
 10
465.3128112014
 20
339.3391111326
 40
10.3159754219
100
AcDbArc
 50
289.5434841183
 51
291.536709041
  0
ARC
  5
2B4
100
AcDbEntity
  8
0
100
AcDbCircle
 62
7
  6
CONTINUOUS
 10
465.4337856413
 20
338.034974576
 40
10.0525828062
100
AcDbArc
 50
289.5467863532
 51
291.142361738
  0
ARC
  5
2B5
100
AcDbEntity
  8
0
100
AcDbCircle
 62
7
  6
CONTINUOUS
 10
465.2995973413
 20
339.2385278432
 40
9.9602523066
100
AcDbArc
 50
289.5434838012
 51
291.5367087196
  0
ARC
  5
2B6
100
AcDbEntity
  8
0
100
AcDbCircle
 62
7
  6
CONTINUOUS
 10
465.7337483557
 20
338.264511087
 40
9.1618767906
100
AcDbArc
 50
291.5550595472
 51
293.7117141904
  0
ARC
  5
2B7
100
AcDbEntity
  8
0
100
AcDbCircle
 62
7
  6
CONTINUOUS
 10
463.3163499551
 20
334.4588632877
 40
6.4947467349
100
AcDbArc
 50
255.5040452846
 51
257.8545943392
  0
ARC
  5
2B8
100
AcDbEntity
  8
0
100
AcDbCircle
 62
7
  6
CONTINUOUS
 10
463.1898207176
 20
335.1481961783
 40
5.9940462238
100
AcDbArc
 50
255.4908698573
 51
256.0527114913
  0
ARC
  5
2B9
100
AcDbEntity
  8
0
100
AcDbCircle
 62
7
  6
CONTINUOUS
 10
463.2628654044
 20
333.5044763528
 40
5.6287727821
100
AcDbArc
 50
254.1591481496
 51
255.5020413708
  0
ARC
  5
2BA
100
AcDbEntity
  8
0
100
AcDbCircle
 62
7
  6
CONTINUOUS
 10
466.5482441826
 20
333.4488235351
 40
5.415186893
100
AcDbArc
 50
296.0299528018
 51
297.7597812751
  0
ARC
  5
2BB
100
AcDbEntity
  8
0
100
AcDbCircle
 62
7
  6
CONTINUOUS
 10
465.8623487551
 20
329.1533565096
 40
4.9864060805
100
AcDbArc
 50
52.4862877247
 51
69.9429261273
  0
ARC
  5
2BC
100
AcDbEntity
  8
0
100
AcDbCircle
 62
7
  6
CONTINUOUS
 10
465.8625350312
 20
329.1536849012
 40
4.9860348547
100
AcDbArc
 50
81.6515135666
 51
142.1422944955
  0
ARC
  5
2BD
100
AcDbEntity
  8
0
100
AcDbCircle
 62
7
  6
CONTINUOUS
 10
463.9488963469
 20
335.040841287
 40
4.1501213883
100
AcDbArc
 50
255.5095402338
 51
258.3144470568
  0
ARC
  5
2BE
100
AcDbEntity
  8
0
100
AcDbCircle
 62
7
  6
CONTINUOUS
 10
463.4838737096
 20
331.4777226031
 40
3.7157028987
100
AcDbArc
 50
252.614609346
 51
256.4968966464
  0
ARC
  5
2BF
100
AcDbEntity
  8
0
100
AcDbCircle
 62
7
  6
CONTINUOUS
 10
463.7745206129
 20
334.3786762107
 40
3.4653895738
100
AcDbArc
 50
252.3965374178
 51
255.5614986921
  0
ARC
  5
2C0
100
AcDbEntity
  8
0
100
AcDbCircle
 62
7
  6
CONTINUOUS
 10
465.3481790078
 20
331.0603391156
 40
3.0113805228
100
AcDbArc
 50
110.075230784
 51
122.1922394251
  0
ARC
  5
2C1
100
AcDbEntity
  8
0
100
AcDbCircle
 62
7
  6
CONTINUOUS
 10
466.2058563884
 20
331.4984361278
 40
2.6162819954
100
AcDbArc
 50
69.2614720054
 51
81.6348833913
  0
ARC
  5
2C2
100
AcDbEntity
  8
0
100
AcDbCircle
 62
7
  6
CONTINUOUS
 10
1228.0078164898
 20
441.5797014428
 40
134.3324285978
100
AcDbArc
 50
259.6200874595
 51
259.9829532911
  0
ARC
  5
2C3
100
AcDbEntity
  8
0
100
AcDbCircle
 62
7
  6
CONTINUOUS
 10
1224.782699652
 20
428.3390204441
 40
121.6733537483
100
AcDbArc
 50
259.6258463454
 51
259.9963642557
  0
ARC
  5
2C4
100
AcDbEntity
  8
0
100
AcDbCircle
 62
7
  6
CONTINUOUS
 10
1226.4302131611
 20
431.67508169
 40
120.3112027269
100
AcDbArc
 50
259.5967929733
 51
260.1426790125
  0
ARC
  5
2C5
100
AcDbEntity
  8
0
100
AcDbCircle
 62
7
  6
CONTINUOUS
 10
1217.5782171331
 20
380.381547127
 40
68.2595149665
100
AcDbArc
 50
260.0924045308
 51
260.9065657605
  0
ARC
  5
2C6
100
AcDbEntity
  8
0
100
AcDbCircle
 62
7
  6
CONTINUOUS
 10
931.6688953673
 20
393.4034356762
 40
30.4254739166
100
AcDbArc
 50
258.988248835
 51
259.6952020418
  0
ARC
  5
2C7
100
AcDbEntity
  8
0
100
AcDbCircle
 62
7
  6
CONTINUOUS
 10
931.5387756873
 20
392.1909377646
 40
29.3763195992
100
AcDbArc
 50
258.9882487137
 51
259.6952020292
  0
ARC
  5
2C8
100
AcDbEntity
  8
0
100
AcDbCircle
 62
7
  6
CONTINUOUS
 10
931.750582631
 20
390.3926589197
 40
28.0916069764
100
AcDbArc
 50
264.9363670453
 51
266.6753681863
  0
ARC
  5
2C9
100
AcDbEntity
  8
0
100
AcDbCircle
 62
7
  6
CONTINUOUS
 10
931.3818699708
 20
383.873377821
 40
21.5619174543
100
AcDbArc
 50
266.6488434433
 51
268.7124685506
  0
ARC
  5
2CA
100
AcDbEntity
  8
0
100
AcDbCircle
 62
7
  6
CONTINUOUS
 10
928.7753443559
 20
380.3010842901
 40
15.7886232276
100
AcDbArc
 50
255.4900760282
 51
255.7279545309
  0
ARC
  5
2CB
100
AcDbEntity
  8
0
100
AcDbCircle
 62
7
  6
CONTINUOUS
 10
929.0522999946
 20
376.766211629
 40
10.9823176779
100
AcDbArc
 50
255.497879336
 51
256.5616724224
  0
ARC
  5
2CC
100
AcDbEntity
  8
0
100
AcDbCircle
 62
7
  6
CONTINUOUS
 10
928.5369537731
 20
374.78843583
 40
8.9385069282
100
AcDbArc
 50
254.2999830766
 51
255.521340359
  0
ARC
  5
2CD
100
AcDbEntity
  8
0
100
AcDbCircle
 62
7
  6
CONTINUOUS
 10
928.453085376
 20
362.8744950553
 40
4.9860368946
100
AcDbArc
 50
34.872375563
 51
68.7567662932
  0
ARC
  5
2CE
100
AcDbEntity
  8
0
100
AcDbCircle
 62
7
  6
CONTINUOUS
 10
928.4530911407
 20
362.874498385
 40
4.9860323875
100
AcDbArc
 50
98.5597659148
 51
131.4019969202
  0
ARC
  5
2CF
100
AcDbEntity
  8
0
100
AcDbCircle
 62
7
  6
CONTINUOUS
 10
928.695340167
 20
365.0763052101
 40
2.7726133554
100
AcDbArc
 50
96.7544550238
 51
98.0757749417
  0
ARC
  5
2D0
100
AcDbEntity
  8
0
100
AcDbCircle
 62
7
  6
CONTINUOUS
 10
928.6926298595
 20
365.0992013853
 40
2.7495573236
100
AcDbArc
 50
95.3414903292
 51
96.754484795
  0
ARC
  5
2D1
100
AcDbEntity
  8
0
100
AcDbCircle
 62
7
  6
CONTINUOUS
 10
928.6875060676
 20
365.1639600116
 40
2.6846030866
100
AcDbArc
 50
84.2524017734
 51
95.36127348
  0
ARC
  5
2D2
100
AcDbEntity
  8
0
100
AcDbCircle
 62
7
  6
CONTINUOUS
 10
928.6896827218
 20
365.2062149493
 40
2.6423434
100
AcDbArc
 50
82.5176232582
 51
84.2076039743
  0
ARC
  5
2D3
100
AcDbEntity
  8
0
100
AcDbCircle
 62
7
  6
CONTINUOUS
 10
928.0682424226
 20
365.2493163813
 40
2.5830220742
100
AcDbArc
 50
82.3384380807
 51
84.7223255359
  0
ARC
  5
2D4
100
AcDbEntity
  8
0
100
AcDbCircle
 62
7
  6
CONTINUOUS
 10
928.7529379101
 20
365.3039727334
 40
2.5399373745
100
AcDbArc
 50
67.9689190896
 51
70.0342228486
  0
ARC
  5
2D5
100
AcDbEntity
  8
0
100
AcDbCircle
 62
7
  6
CONTINUOUS
 10
928.7852713745
 20
365.402622601
 40
2.4361783672
100
AcDbArc
 50
69.9567345955
 51
82.4801625731
  0
ARC
  5
2D6
100
AcDbEntity
  8
0
100
AcDbCircle
 62
7
  6
CONTINUOUS
 10
929.432893905
 20
365.3200726603
 40
2.3542722099
100
AcDbArc
 50
83.3456130994
 51
84.3711719642
  0
SPLINE
  5
2D7
100
AcDbEntity
  8
0
100
AcDbSpline
 62
7
  6
CONTINUOUS
 70
0
 71
3
 72
9
 73
5
 74
0
 42
0.0000001
 43
0.0000001
 44
0.0000000001
 40
0.0
 40
0.0
 40
0.0
 40
0.0
 40
0.2308375923
 40
1.0
 40
1.0
 40
1.0
 40
1.0
 10
924.653920564
 20
363.639948671
 30
0.0
 10
924.7511443261
 20
363.6147853097
 30
0.0
 10
925.17338613
 20
363.509890945
 30
0.0
 10
925.5991310974
 20
363.4194296
 30
0.0
 10
925.9275954285
 20
363.3554941354
 30
0.0
  0
SPLINE
  5
2D8
100
AcDbEntity
  8
0
100
AcDbSpline
 62
7
  6
CONTINUOUS
 70
0
 71
3
 72
18
 73
14
 74
0
 42
0.0000001
 43
0.0000001
 44
0.0000000001
 40
0.0
 40
0.0
 40
0.0
 40
0.0
 40
0.1567121214
 40
0.3198047827
 40
0.4809323733
 40
0.6318590478
 40
0.7649206523
 40
0.8226362155
 40
0.8735134977
 40
0.9169760864
 40
0.9526013401
 40
0.9801950248
 40
1.0
 40
1.0
 40
1.0
 40
1.0
 10
926.2838043475
 20
363.2884563935
 30
0.0
 10
926.6863669838
 20
363.2152005542
 30
0.0
 10
927.5108277043
 20
363.0816233
 30
0.0
 10
928.7564296319
 20
362.9211281187
 30
0.0
 10
929.9914980947
 20
362.8015966891
 30
0.0
 10
931.1516496156
 20
362.7291633555
 30
0.0
 10
932.0440261942
 20
362.7094167678
 30
0.0
 10
932.6749228523
 20
362.7231961562
 30
0.0
 10
933.0714125132
 20
362.7460878177
 30
0.0
 10
933.4089866919
 20
362.781458033
 30
0.0
 10
933.6840153825
 20
362.8286656141
 30
0.0
 10
933.8929068126
 20
362.8865251865
 30
0.0
 10
934.0067362948
 20
362.9400239151
 30
0.0
 10
934.0477317979
 20
362.9715414122
 30
0.0
  0
SPLINE
  5
2D9
100
AcDbEntity
  8
0
100
AcDbSpline
 62
7
  6
CONTINUOUS
 70
0
 71
3
 72
9
 73
5
 74
0
 42
0.0000001
 43
0.0000001
 44
0.0000000001
 40
0.0
 40
0.0
 40
0.0
 40
0.0
 40
0.2650734228
 40
1.0
 40
1.0
 40
1.0
 40
1.0
 10
923.2805367018
 20
365.9260258827
 30
0.0
 10
923.2762300968
 20
365.9235901198
 30
0.0
 10
923.2601215318
 20
365.9141631984
 30
0.0
 10
923.2445797734
 20
365.9037346348
 30
0.0
 10
923.2337045442
 20
365.8953737177
 30
0.0
  0
SPLINE
  5
2DA
100
AcDbEntity
  8
0
100
AcDbSpline
 62
7
  6
CONTINUOUS
 70
0
 71
3
 72
9
 73
5
 74
0
 42
0.0000001
 43
0.0000001
 44
0.0000000001
 40
0.0
 40
0.0
 40
0.0
 40
0.0
 40
0.4518454769
 40
1.0
 40
1.0
 40
1.0
 40
1.0
 10
922.8231292389
 20
364.6350490761
 30
0.0
 10
922.820736095
 20
364.6151435787
 30
0.0
 10
922.8279711508
 20
364.5693842475
 30
0.0
 10
922.8526352853
 20
364.5314942698
 30
0.0
 10
922.8678496249
 20
364.5125181856
 30
0.0
  0
SPLINE
  5
2DB
100
AcDbEntity
  8
0
100
AcDbSpline
 62
7
  6
CONTINUOUS
 70
0
 71
3
 72
9
 73
5
 74
0
 42
0.0000001
 43
0.0000001
 44
0.0000000001
 40
0.0
 40
0.0
 40
0.0
 40
0.0
 40
0.4518454769
 40
1.0
 40
1.0
 40
1.0
 40
1.0
 10
934.4583071034
 20
364.231866054
 30
0.0
 10
934.4607002472
 20
364.2517715514
 30
0.0
 10
934.4534651914
 20
364.2975308825
 30
0.0
 10
934.4288010569
 20
364.3354208601
 30
0.0
 10
934.4135867173
 20
364.3543969443
 30
0.0
  0
SPLINE
  5
2DC
100
AcDbEntity
  8
0
100
AcDbSpline
 62
7
  6
CONTINUOUS
 70
0
 71
3
 72
9
 73
5
 74
0
 42
0.0000001
 43
0.0000001
 44
0.0000000001
 40
0.0
 40
0.0
 40
0.0
 40
0.0
 40
0.2361416335
 40
1.0
 40
1.0
 40
1.0
 40
1.0
 10
934.2402473931
 20
364.5706246678
 30
0.0
 10
934.2376524929
 20
364.5738620111
 30
0.0
 10
934.2263922069
 20
364.587353416
 30
0.0
 10
934.2141402733
 20
364.6000003694
 30
0.0
 10
934.2044224443
 20
364.6092568758
 30
0.0
  0
SPLINE
  5
2DD
100
AcDbEntity
  8
0
100
AcDbSpline
 62
7
  6
CONTINUOUS
 70
0
 71
3
 72
9
 73
5
 74
0
 42
0.0000001
 43
0.0000001
 44
0.0000000001
 40
0.0
 40
0.0
 40
0.0
 40
0.0
 40
0.5481546636
 40
1.0
 40
1.0
 40
1.0
 40
1.0
 10
923.0139460218
 20
365.7264001346
 30
0.0
 10
922.9946656425
 20
365.7115733546
 30
0.0
 10
922.9617162722
 20
365.6806205024
 30
0.0
 10
922.9438228967
 20
365.6378847057
 30
0.0
 10
922.9414297572
 20
365.6179792445
 30
0.0
  0
SPLINE
  5
2DE
100
AcDbEntity
  8
0
100
AcDbSpline
 62
7
  6
CONTINUOUS
 70
0
 71
3
 72
13
 73
9
 74
0
 42
0.0000001
 43
0.0000001
 44
0.0000000001
 40
0.0
 40
0.0
 40
0.0
 40
0.0
 40
0.0610230284
 40
0.1400027656
 40
0.2378511208
 40
0.354658099
 40
0.6432823366
 40
1.0
 40
1.0
 40
1.0
 40
1.0
 10
923.0411889489
 20
364.2962904623
 30
0.0
 10
923.0635417443
 20
364.2684035828
 30
0.0
 10
923.124876625
 20
364.2127282451
 30
0.0
 10
923.2416073579
 20
364.1363763695
 30
0.0
 10
923.394434739
 20
364.056977753
 30
0.0
 10
923.6649572569
 20
363.9395815955
 30
0.0
 10
924.0875946324
 20
363.7942204827
 30
0.0
 10
924.4516642789
 20
363.6922964494
 30
0.0
 10
924.653920564
 20
363.639948671
 30
0.0
  0
SPLINE
  5
2DF
100
AcDbEntity
  8
0
100
AcDbSpline
 62
7
  6
CONTINUOUS
 70
0
 71
3
 72
9
 73
5
 74
0
 42
0.0000001
 43
0.0000001
 44
0.0000000001
 40
0.0
 40
0.0
 40
0.0
 40
0.0
 40
0.5481546636
 40
1.0
 40
1.0
 40
1.0
 40
1.0
 10
934.2674903203
 20
363.1405149952
 30
0.0
 10
934.2867706996
 20
363.1553417752
 30
0.0
 10
934.3197200698
 20
363.1862946273
 30
0.0
 10
934.3376134455
 20
363.229030424
 30
0.0
 10
934.340006585
 20
363.2489358852
 30
0.0
  0
SPLINE
  5
2E0
100
AcDbEntity
  8
0
100
AcDbSpline
 62
7
  6
CONTINUOUS
 70
0
 71
3
 72
15
 73
11
 74
0
 42
0.0000001
 43
0.0000001
 44
0.0000000001
 40
0.0
 40
0.0
 40
0.0
 40
0.0
 40
0.1040228554
 40
0.1438444717
 40
0.1900172354
 40
0.301872944
 40
0.4397967704
 40
0.6030274281
 40
0.790351762
 40
1.0
 40
1.0
 40
1.0
 40
1.0
 10
922.9414297572
 20
365.6179792445
 30
0.0
 10
922.9333746232
 20
365.5509789048
 30
0.0
 10
923.0072355835
 20
365.4629359515
 30
0.0
 10
923.1025450826
 20
365.3898844449
 30
0.0
 10
923.2111757201
 20
365.3196209591
 30
0.0
 10
923.3821600969
 20
365.2326084155
 30
0.0
 10
923.6298381543
 20
365.1295049965
 30
0.0
 10
923.9287743427
 20
365.0241687059
 30
0.0
 10
924.2762651934
 20
364.9174324945
 30
0.0
 10
924.5247863462
 20
364.8497763802
 30
0.0
 10
924.6564530701
 20
364.8156985241
 30
0.0
  0
SPLINE
  5
2E1
100
AcDbEntity
  8
0
100
AcDbSpline
 62
7
  6
CONTINUOUS
 70
0
 71
3
 72
24
 73
20
 74
0
 42
0.0000001
 43
0.0000001
 44
0.0000000001
 40
0.0
 40
0.0
 40
0.0
 40
0.0
 40
0.1386051671
 40
0.2989233909
 40
0.4677677842
 40
0.5510257718
 40
0.6311903989
 40
0.7066039043
 40
0.7757179611
 40
0.8371334417
 40
0.8896436039
 40
0.9122515288
 40
0.9322989573
 40
0.9497226747
 40
0.9644955501
 40
0.9766484988
 40
0.9863139561
 40
0.9938370652
 40
1.0
 40
1.0
 40
1.0
 40
1.0
 10
924.6564530701
 20
364.8156985241
 30
0.0
 10
925.1025407426
 20
364.7002425397
 30
0.0
 10
926.0745503692
 20
364.4898422575
 30
0.0
 10
927.6088215885
 20
364.2341681151
 30
0.0
 10
928.969773321
 20
364.0642547814
 30
0.0
 10
930.069608492
 20
363.9610252241
 30
0.0
 10
930.8616345394
 20
363.9040543284
 30
0.0
 10
931.6078333339
 20
363.868275071
 30
0.0
 10
932.2924514502
 20
363.8543323113
 30
0.0
 10
932.9010234767
 20
363.8624193889
 30
0.0
 10
933.3544478654
 20
363.888055225
 30
0.0
 10
933.6691204715
 20
363.9214332502
 30
0.0
 10
933.8668022371
 20
363.9504176051
 30
0.0
 10
934.0372362382
 20
363.9843799535
 30
0.0
 10
934.1796456208
 20
364.0231223693
 30
0.0
 10
934.2936572932
 20
364.0663831809
 30
0.0
 10
934.3791580676
 20
364.1143084085
 30
0.0
 10
934.4371525756
 20
364.1677497867
 30
0.0
 10
934.4558614914
 20
364.211524141
 30
0.0
 10
934.4583071034
 20
364.231866054
 30
0.0
  0
SPLINE
  5
2E2
100
AcDbEntity
  8
0
100
AcDbSpline
 62
7
  6
CONTINUOUS
 70
0
 71
3
 72
18
 73
14
 74
0
 42
0.0000001
 43
0.0000001
 44
0.0000000001
 40
0.0
 40
0.0
 40
0.0
 40
0.0
 40
0.0540091377
 40
0.0773508447
 40
0.1030170434
 40
0.134021934
 40
0.1720685494
 40
0.2180180088
 40
0.2722665455
 40
0.4060541169
 40
0.5731283678
 40
0.771922461
 40
1.0
 40
1.0
 40
1.0
 40
1.0
 10
923.2337045442
 20
365.8953737177
 30
0.0
 10
923.204967465
 20
365.873280543
 30
0.0
 10
923.1658448397
 20
365.8313950129
 30
0.0
 10
923.1605620114
 20
365.7601403282
 30
0.0
 10
923.1791666585
 20
365.7085453235
 30
0.0
 10
923.2171078945
 20
365.6568928966
 30
0.0
 10
923.2737299512
 20
365.6040156501
 30
0.0
 10
923.3490846607
 20
365.5496009136
 30
0.0
 10
923.484214201
 20
365.4693052915
 30
0.0
 10
923.7008404661
 20
365.3687544832
 30
0.0
 10
924.0148521755
 20
365.2506675209
 30
0.0
 10
924.3950140954
 20
365.1302368529
 30
0.0
 10
924.6713504194
 20
365.0544055264
 30
0.0
 10
924.8195412897
 20
365.016050907
 30
0.0
  0
SPLINE
  5
2E3
100
AcDbEntity
  8
0
100
AcDbSpline
 62
7
  6
CONTINUOUS
 70
0
 71
3
 72
9
 73
5
 74
0
 42
0.0000001
 43
0.0000001
 44
0.0000000001
 40
0.0
 40
0.0
 40
0.0
 40
0.0
 40
0.2308375918
 40
1.0
 40
1.0
 40
1.0
 40
1.0
 10
924.5381525518
 20
363.8327683555
 30
0.0
 10
924.6388485957
 20
363.8067063014
 30
0.0
 10
925.076170485
 20
363.6980657044
 30
0.0
 10
925.5171206513
 20
363.6043735935
 30
0.0
 10
925.857315868
 20
363.538154717
 30
0.0
  0
SPLINE
  5
2E4
100
AcDbEntity
  8
0
100
AcDbSpline
 62
7
  6
CONTINUOUS
 70
0
 71
3
 72
18
 73
14
 74
0
 42
0.0000001
 43
0.0000001
 44
0.0000000001
 40
0.0
 40
0.0
 40
0.0
 40
0.0
 40
0.1567145137
 40
0.3198096227
 40
0.4809392618
 40
0.6318671574
 40
0.7649287969
 40
0.8226438516
 40
0.8735202504
 40
0.9169815803
 40
0.9526052206
 40
0.9801970061
 40
1.0
 40
1.0
 40
1.0
 40
1.0
 10
926.2262464781
 20
363.468722781
 30
0.0
 10
926.6431948556
 20
363.3928491143
 30
0.0
 10
927.4971179681
 20
363.2544987654
 30
0.0
 10
928.7872309414
 20
363.0882696003
 30
0.0
 10
930.0664311565
 20
362.9644690791
 30
0.0
 10
931.2680319415
 20
362.8894508725
 30
0.0
 10
932.1922860026
 20
362.8690025122
 30
0.0
 10
932.8457142831
 20
362.8832782593
 30
0.0
 10
933.2563590544
 20
362.9069909324
 30
0.0
 10
933.605980648
 20
362.9436281266
 30
0.0
 10
933.8908196868
 20
362.9925257729
 30
0.0
 10
934.1071560608
 20
363.0524556994
 30
0.0
 10
934.2250389265
 20
363.1078695029
 30
0.0
 10
934.2674903203
 20
363.1405149952
 30
0.0
  0
SPLINE
  5
2E5
100
AcDbEntity
  8
0
100
AcDbSpline
 62
7
  6
CONTINUOUS
 70
0
 71
3
 72
13
 73
9
 74
0
 42
0.0000001
 43
0.0000001
 44
0.0000000001
 40
0.0
 40
0.0
 40
0.0
 40
0.0
 40
0.0610280518
 40
0.1400118888
 40
0.2378628569
 40
0.3546707664
 40
0.6432917969
 40
1.0
 40
1.0
 40
1.0
 40
1.0
 10
922.8678496249
 20
364.5125181856
 30
0.0
 10
922.8910058283
 20
364.4836366122
 30
0.0
 10
922.9545381496
 20
364.4259758239
 30
0.0
 10
923.0754443061
 20
364.3469000778
 30
0.0
 10
923.2337321699
 20
364.2646693592
 30
0.0
 10
923.5139116057
 20
364.1430870246
 30
0.0
 10
923.951626998
 20
363.9925423431
 30
0.0
 10
924.3286831866
 20
363.8869830162
 30
0.0
 10
924.5381525518
 20
363.8327683555
 30
0.0
  0
SPLINE
  5
2E6
100
AcDbEntity
  8
0
100
AcDbSpline
 62
7
  6
CONTINUOUS
 70
0
 71
3
 72
26
 73
22
 74
0
 42
0.0000001
 43
0.0000001
 44
0.0000000001
 40
0.0
 40
0.0
 40
0.0
 40
0.0
 40
0.0700669555
 40
0.1475396072
 40
0.3175239726
 40
0.4061328085
 40
0.4944343466
 40
0.5803895435
 40
0.6620181806
 40
0.737449902
 40
0.8049751309
 40
0.8630984381
 40
0.8882438687
 40
0.9106113306
 40
0.9301081923
 40
0.946684217
 40
0.9603430313
 40
0.9711920166
 40
0.9858755729
 40
0.9922473483
 40
1.0
 40
1.0
 40
1.0
 40
1.0
 10
924.8830350381
 20
364.9997591319
 30
0.0
 10
925.1023549713
 20
364.9439654805
 30
0.0
 10
925.5665980597
 20
364.8359270453
 30
0.0
 10
926.572197975
 20
364.6341006781
 30
0.0
 10
927.6444595604
 20
364.4623142334
 30
0.0
 10
928.7558434865
 20
364.3199796173
 30
0.0
 10
929.6001861576
 20
364.2303127157
 30
0.0
 10
930.423830451
 20
364.1611829703
 30
0.0
 10
931.2074076748
 20
364.1142049101
 30
0.0
 10
931.9325026287
 20
364.0903524522
 30
0.0
 10
932.5820812234
 20
364.090096413
 30
0.0
 10
933.0689499016
 20
364.1099359624
 30
0.0
 10
933.4089212429
 20
364.1395777359
 30
0.0
 10
933.6237214152
 20
364.1663527416
 30
0.0
 10
933.8098762872
 20
364.1986973407
 30
0.0
 10
933.9659773804
 20
364.2358738665
 30
0.0
 10
934.0926799474
 20
364.2790074351
 30
0.0
 10
934.204458582
 20
364.3329605801
 30
0.0
 10
934.2904744506
 20
364.4138750035
 30
0.0
 10
934.2813740246
 20
364.5119277249
 30
0.0
 10
934.2559081636
 20
364.5510866186
 30
0.0
 10
934.2402473931
 20
364.5706246678
 30
0.0
  0
SPLINE
  5
2E7
100
AcDbEntity
  8
0
100
AcDbSpline
 62
7
  6
CONTINUOUS
 70
0
 71
3
 72
11
 73
7
 74
0
 42
0.0000001
 43
0.0000001
 44
0.0000000001
 40
0.0
 40
0.0
 40
0.0
 40
0.0
 40
0.2898762468
 40
0.5476500615
 40
0.7806807836
 40
1.0
 40
1.0
 40
1.0
 40
1.0
 10
471.1211275473
 20
329.9872372095
 30
0.0
 10
471.1864929234
 20
330.0592384591
 30
0.0
 10
471.3015366596
 20
330.2035441921
 30
0.0
 10
471.4276675074
 20
330.4349476083
 30
0.0
 10
471.4940220791
 20
330.6660808087
 30
0.0
 10
471.4962214436
 20
330.8200784143
 30
0.0
 10
471.4868592699
 20
330.8930563847
 30
0.0
  0
SPLINE
  5
2E8
100
AcDbEntity
  8
0
100
AcDbSpline
 62
7
  6
CONTINUOUS
 70
0
 71
3
 72
9
 73
5
 74
0
 42
0.0000001
 43
0.0000001
 44
0.0000000001
 40
0.0
 40
0.0
 40
0.0
 40
0.0
 40
0.2410279641
 40
1.0
 40
1.0
 40
1.0
 40
1.0
 10
461.853727411
 20
328.0549430565
 30
0.0
 10
461.8965359546
 20
328.0438633901
 30
0.0
 10
462.0746605653
 20
327.9998990394
 30
0.0
 10
462.2546432136
 20
327.9635889629
 30
0.0
 10
462.3918148942
 20
327.939670331
 30
0.0
  0
SPLINE
  5
2E9
100
AcDbEntity
  8
0
100
AcDbSpline
 62
7
  6
CONTINUOUS
 70
0
 71
3
 72
9
 73
5
 74
0
 42
0.0000001
 43
0.0000001
 44
0.0000000001
 40
0.0
 40
0.0
 40
0.0
 40
0.0
 40
0.238245516
 40
1.0
 40
1.0
 40
1.0
 40
1.0
 10
462.3918148942
 20
327.939670331
 30
0.0
 10
462.4777911949
 20
327.9246786397
 30
0.0
 10
462.8397126996
 20
327.8678093897
 30
0.0
 10
463.2050244803
 20
327.833533234
 30
0.0
 10
463.4836111946
 20
327.8175611387
 30
0.0
  0
SPLINE
  5
2EA
100
AcDbEntity
  8
0
100
AcDbSpline
 62
7
  6
CONTINUOUS
 70
0
 71
3
 72
11
 73
7
 74
0
 42
0.0000001
 43
0.0000001
 44
0.0000000001
 40
0.0
 40
0.0
 40
0.0
 40
0.0
 40
0.2456761353
 40
0.5033823023
 40
0.7593587388
 40
1.0
 40
1.0
 40
1.0
 40
1.0
 10
463.4836111946
 20
327.8175611387
 30
0.0
 10
463.9247528231
 20
327.7922693506
 30
0.0
 10
464.8319961952
 20
327.7922561849
 30
0.0
 10
466.1935238389
 20
327.9203409449
 30
0.0
 10
467.5290336551
 20
328.1691408736
 30
0.0
 10
468.3892911455
 20
328.4168866802
 30
0.0
 10
468.7971434738
 20
328.5617362085
 30
0.0
  0
SPLINE
  5
2EB
100
AcDbEntity
  8
0
100
AcDbSpline
 62
7
  6
CONTINUOUS
 70
0
 71
3
 72
11
 73
7
 74
0
 42
0.0000001
 43
0.0000001
 44
0.0000000001
 40
0.0
 40
0.0
 40
0.0
 40
0.0
 40
0.2947128284
 40
0.5613138085
 40
0.7968143039
 40
1.0
 40
1.0
 40
1.0
 40
1.0
 10
469.0596164546
 20
328.6590601144
 30
0.0
 10
469.2645751114
 20
328.7383967581
 30
0.0
 10
469.649987514
 20
328.9029265723
 30
0.0
 10
470.175570596
 20
329.1820767788
 30
0.0
 10
470.6124337196
 20
329.4768312299
 30
0.0
 10
470.8572424665
 20
329.6965459272
 30
0.0
 10
470.9590861209
 20
329.8087379752
 30
0.0
  0
SPLINE
  5
2EC
100
AcDbEntity
  8
0
100
AcDbSpline
 62
7
  6
CONTINUOUS
 70
0
 71
3
 72
11
 73
7
 74
0
 42
0.0000001
 43
0.0000001
 44
0.0000000001
 40
0.0
 40
0.0
 40
0.0
 40
0.0
 40
0.2193181827
 40
0.4523433603
 40
0.7101144006
 40
1.0
 40
1.0
 40
1.0
 40
1.0
 10
459.9812498333
 20
329.4162965047
 30
0.0
 10
459.9906120063
 20
329.3433185397
 30
0.0
 10
460.0316554301
 20
329.1948748482
 30
0.0
 10
460.1542072877
 20
328.9879850309
 30
0.0
 10
460.334690088
 20
328.7959291193
 30
0.0
 10
460.4824611525
 20
328.6853684973
 30
0.0
 10
460.5638917153
 20
328.6322029653
 30
0.0
  0
SPLINE
  5
2ED
100
AcDbEntity
  8
0
100
AcDbSpline
 62
7
  6
CONTINUOUS
 70
0
 71
3
 72
10
 73
6
 74
0
 42
0.0000001
 43
0.0000001
 44
0.0000000001
 40
0.0
 40
0.0
 40
0.0
 40
0.0
 40
0.2293172426
 40
0.4677350841
 40
1.0
 40
1.0
 40
1.0
 40
1.0
 10
471.3685587515
 20
331.8147496994
 30
0.0
 10
471.3611962303
 20
331.872140416
 30
0.0
 10
471.3330250256
 20
331.9879066022
 30
0.0
 10
471.2223708945
 20
332.2162929165
 30
0.0
 10
471.0876173112
 20
332.3629079656
 30
0.0
 10
470.985581478
 20
332.4502309129
 30
0.0
  0
SPLINE
  5
2EE
100
AcDbEntity
  8
0
100
AcDbSpline
 62
7
  6
CONTINUOUS
 70
0
 71
3
 72
10
 73
6
 74
0
 42
0.0000001
 43
0.0000001
 44
0.0000000001
 40
0.0
 40
0.0
 40
0.0
 40
0.0
 40
0.5323035477
 40
0.7707091291
 40
1.0
 40
1.0
 40
1.0
 40
1.0
 10
460.0734104369
 20
331.0501338139
 30
0.0
 10
459.9966206966
 20
330.9397978888
 30
0.0
 10
459.903110124
 20
330.7637806512
 30
0.0
 10
459.8535955884
 20
330.514646781
 30
0.0
 10
459.8555812252
 20
330.3954239419
 30
0.0
 10
459.862949315
 20
330.3379898185
 30
0.0
  0
SPLINE
  5
2EF
100
AcDbEntity
  8
0
100
AcDbSpline
 62
7
  6
CONTINUOUS
 70
0
 71
3
 72
9
 73
5
 74
0
 42
0.0000001
 43
0.0000001
 44
0.0000000001
 40
0.0
 40
0.0
 40
0.0
 40
0.0
 40
0.4613227126
 40
1.0
 40
1.0
 40
1.0
 40
1.0
 10
460.7659124614
 20
328.5003117038
 30
0.0
 10
460.9007963908
 20
328.4122551909
 30
0.0
 10
461.2139745006
 20
328.2531729783
 30
0.0
 10
461.5454545259
 20
328.1408210117
 30
0.0
 10
461.7264004706
 20
328.0894640224
 30
0.0
  0
SPLINE
  5
2F0
100
AcDbEntity
  8
0
100
AcDbSpline
 62
7
  6
CONTINUOUS
 70
0
 71
3
 72
9
 73
5
 74
0
 42
0.0000001
 43
0.0000001
 44
0.0000000001
 40
0.0
 40
0.0
 40
0.0
 40
0.0
 40
0.2406115573
 40
1.0
 40
1.0
 40
1.0
 40
1.0
 10
461.9498983089
 20
328.1094896927
 30
0.0
 10
462.0059477261
 20
328.0973842305
 30
0.0
 10
462.2395032881
 20
328.0499116528
 30
0.0
 10
462.4752163739
 20
328.0132937819
 30
0.0
 10
462.6547611129
 20
327.9905859297
 30
0.0
  0
SPLINE
  5
2F1
100
AcDbEntity
  8
0
100
AcDbSpline
 62
7
  6
CONTINUOUS
 70
0
 71
3
 72
11
 73
7
 74
0
 42
0.0000001
 43
0.0000001
 44
0.0000000001
 40
0.0
 40
0.0
 40
0.0
 40
0.0
 40
0.2372986369
 40
0.4949808307
 40
0.7552480673
 40
1.0
 40
1.0
 40
1.0
 40
1.0
 10
462.6547611129
 20
327.9905859297
 30
0.0
 10
463.1502670563
 20
327.927917005
 30
0.0
 10
464.1941964318
 20
327.8759637436
 30
0.0
 10
465.7834369158
 20
327.9741058752
 30
0.0
 10
467.3697323949
 20
328.2372231473
 30
0.0
 10
468.3965996199
 20
328.5233645886
 30
0.0
 10
468.8820344111
 20
328.6957676764
 30
0.0
  0
SPLINE
  5
2F2
100
AcDbEntity
  8
0
100
AcDbSpline
 62
7
  6
CONTINUOUS
 70
0
 71
3
 72
9
 73
5
 74
0
 42
0.0000001
 43
0.0000001
 44
0.0000000001
 40
0.0
 40
0.0
 40
0.0
 40
0.0
 40
0.2576441839
 40
1.0
 40
1.0
 40
1.0
 40
1.0
 10
468.8820344111
 20
328.6957676764
 30
0.0
 10
468.9407719371
 20
328.7166284204
 30
0.0
 10
469.1680409963
 20
328.7995689122
 30
0.0
 10
469.3924038392
 20
328.8905701594
 30
0.0
 10
469.5566071401
 20
328.9633219853
 30
0.0
  0
SPLINE
  5
2F3
100
AcDbEntity
  8
0
100
AcDbSpline
 62
7
  6
CONTINUOUS
 70
0
 71
3
 72
9
 73
5
 74
0
 42
0.0000001
 43
0.0000001
 44
0.0000000001
 40
0.0
 40
0.0
 40
0.0
 40
0.0
 40
0.5444566479
 40
1.0
 40
1.0
 40
1.0
 40
1.0
 10
469.5566071401
 20
328.9633219853
 30
0.0
 10
469.8290866125
 20
329.0840465935
 30
0.0
 10
470.3186236331
 20
329.3317235174
 30
0.0
 10
470.7683169886
 20
329.6506364193
 30
0.0
 10
470.9524632972
 20
329.8187695853
 30
0.0
  0
SPLINE
  5
2F4
100
AcDbEntity
  8
0
100
AcDbSpline
 62
7
  6
CONTINUOUS
 70
0
 71
3
 72
9
 73
5
 74
0
 42
0.0000001
 43
0.0000001
 44
0.0000000001
 40
0.0
 40
0.0
 40
0.0
 40
0.0
 40
0.2580365353
 40
1.0
 40
1.0
 40
1.0
 40
1.0
 10
470.9524632972
 20
329.8187695853
 30
0.0
 10
470.9676084795
 20
329.8325977607
 30
0.0
 10
471.0257287503
 20
329.8868094529
 30
0.0
 10
471.0814898205
 20
329.9435754724
 30
0.0
 10
471.1211275473
 20
329.9872372095
 30
0.0
  0
SPLINE
  5
2F5
100
AcDbEntity
  8
0
100
AcDbSpline
 62
7
  6
CONTINUOUS
 70
0
 71
3
 72
14
 73
10
 74
0
 42
0.0000001
 43
0.0000001
 44
0.0000000001
 40
0.0
 40
0.0
 40
0.0
 40
0.0
 40
0.1056244701
 40
0.2224666221
 40
0.3480548579
 40
0.4794921205
 40
0.7471273474
 40
0.8769806092
 40
1.0
 40
1.0
 40
1.0
 40
1.0
 10
461.7450809599
 20
329.3308671378
 30
0.0
 10
461.9838038604
 20
329.2715726008
 30
0.0
 10
462.4941272742
 20
329.1763736094
 30
0.0
 10
463.3016669674
 20
329.0983403696
 30
0.0
 10
464.1729000607
 20
329.0792818524
 30
0.0
 10
465.3940884121
 20
329.1340659112
 30
0.0
 10
466.6180822919
 20
329.3032299477
 30
0.0
 10
467.7984191576
 20
329.5817067444
 30
0.0
 10
468.3615572387
 20
329.7562280922
 30
0.0
 10
468.631522528
 20
329.8521067702
 30
0.0
  0
SPLINE
  5
2F6
100
AcDbEntity
  8
0
100
AcDbSpline
 62
7
  6
CONTINUOUS
 70
0
 71
3
 72
16
 73
12
 74
0
 42
0.0000001
 43
0.0000001
 44
0.0000000001
 40
0.0
 40
0.0
 40
0.0
 40
0.0
 40
0.1859096507
 40
0.3535492967
 40
0.5010924826
 40
0.627920386
 40
0.7352665827
 40
0.8272495135
 40
0.8700158431
 40
0.9122187334
 40
1.0
 40
1.0
 40
1.0
 40
1.0
 10
468.9559786605
 20
329.9736748137
 30
0.0
 10
469.1600339158
 20
330.0543255085
 30
0.0
 10
469.5429767744
 20
330.2213339196
 30
0.0
 10
470.063213362
 20
330.5044627693
 30
0.0
 10
470.4926546099
 20
330.802965337
 30
0.0
 10
470.8233768274
 20
331.1119580379
 30
0.0
 10
471.0496549585
 20
331.4274451137
 30
0.0
 10
471.1462247189
 20
331.7025580598
 30
0.0
 10
471.1568136653
 20
331.9124384122
 30
0.0
 10
471.1272210008
 20
332.1153011637
 30
0.0
 10
471.0590630958
 20
332.2577053064
 30
0.0
 10
471.0004360434
 20
332.343122983
 30
0.0
  0
SPLINE
  5
2F7
100
AcDbEntity
  8
0
100
AcDbSpline
 62
7
  6
CONTINUOUS
 70
0
 71
3
 72
13
 73
9
 74
0
 42
0.0000001
 43
0.0000001
 44
0.0000000001
 40
0.0
 40
0.0
 40
0.0
 40
0.0
 40
0.090171302
 40
0.1850645723
 40
0.2886159567
 40
0.403619564
 40
0.6735238178
 40
1.0
 40
1.0
 40
1.0
 40
1.0
 10
459.862949315
 20
330.3379898185
 30
0.0
 10
459.8714690151
 20
330.2715789148
 30
0.0
 10
459.9067734862
 20
330.1370068504
 30
0.0
 10
460.0103456978
 20
329.9474081131
 30
0.0
 10
460.1625540996
 20
329.7694893082
 30
0.0
 10
460.4425991071
 20
329.5368723678
 30
0.0
 10
460.9146840023
 20
329.2890010101
 30
0.0
 10
461.3376524541
 20
329.1533093428
 30
0.0
 10
461.5723386731
 20
329.0925680791
 30
0.0
  0
SPLINE
  5
2F8
100
AcDbEntity
  8
0
100
AcDbSpline
 62
7
  6
CONTINUOUS
 70
0
 71
3
 72
15
 73
11
 74
0
 42
0.0000001
 43
0.0000001
 44
0.0000000001
 40
0.0
 40
0.0
 40
0.0
 40
0.0
 40
0.0993853638
 40
0.1939292157
 40
0.2915518599
 40
0.3993492085
 40
0.5222160459
 40
0.6628043674
 40
0.8221421209
 40
1.0
 40
1.0
 40
1.0
 40
1.0
 10
460.0865518735
 20
330.9445325459
 30
0.0
 10
460.0576622524
 20
330.8650356657
 30
0.0
 10
460.0201791315
 20
330.7015382485
 30
0.0
 10
460.0428982328
 20
330.4501767453
 30
0.0
 10
460.1468565563
 20
330.2127046083
 30
0.0
 10
460.3258531638
 20
329.9946707667
 30
0.0
 10
460.5745140885
 20
329.7969183691
 30
0.0
 10
460.8892430585
 20
329.6201254031
 30
0.0
 10
461.2662623931
 20
329.465750911
 30
0.0
 10
461.5415665548
 20
329.3832410728
 30
0.0
 10
461.6881066853
 20
329.3453136964
 30
0.0
  0
SPLINE
  5
2F9
100
AcDbEntity
  8
0
100
AcDbSpline
 62
7
  6
CONTINUOUS
 70
0
 71
3
 72
14
 73
10
 74
0
 42
0.0000001
 43
0.0000001
 44
0.0000000001
 40
0.0
 40
0.0
 40
0.0
 40
0.0
 40
0.1048607497
 40
0.2212569494
 40
0.3466861259
 40
0.478202907
 40
0.7464397528
 40
0.8766647816
 40
1.0
 40
1.0
 40
1.0
 40
1.0
 10
461.5723386731
 20
329.0925680791
 30
0.0
 10
461.819246674
 20
329.0286635865
 30
0.0
 10
462.3486257357
 20
328.925683412
 30
0.0
 10
463.1882851479
 20
328.8398696117
 30
0.0
 10
464.096875171
 20
328.8163070555
 30
0.0
 10
465.3737574305
 20
328.8697013358
 30
0.0
 10
466.6550770076
 20
329.044315457
 30
0.0
 10
467.8912121186
 20
329.3345522197
 30
0.0
 10
468.481054335
 20
329.5170668147
 30
0.0
 10
468.7637337093
 20
329.6174609255
 30
0.0
  0
SPLINE
  5
2FA
100
AcDbEntity
  8
0
100
AcDbSpline
 62
7
  6
CONTINUOUS
 70
0
 71
3
 72
14
 73
10
 74
0
 42
0.0000001
 43
0.0000001
 44
0.0000000001
 40
0.0
 40
0.0
 40
0.0
 40
0.0
 40
0.3362361982
 40
0.4819674894
 40
0.6119367158
 40
0.7264868048
 40
0.8270615619
 40
0.9166331737
 40
1.0
 40
1.0
 40
1.0
 40
1.0
 10
469.4180594641
 20
329.8760763116
 30
0.0
 10
469.7165092183
 20
330.0073744925
 30
0.0
 10
470.1355090185
 20
330.2196748543
 30
0.0
 10
470.6250588824
 20
330.556450316
 30
0.0
 10
470.9127604933
 20
330.8037121826
 30
0.0
 10
471.1354851588
 20
331.0552166333
 30
0.0
 10
471.2903476834
 20
331.3092308635
 30
0.0
 10
471.3739092193
 20
331.5639407805
 30
0.0
 10
471.3788455235
 20
331.7345645026
 30
0.0
 10
471.3685587515
 20
331.8147496994
 30
0.0
  0
SPLINE
  5
2FB
100
AcDbEntity
  8
0
100
AcDbSpline
 62
7
  6
CONTINUOUS
 70
0
 71
3
 72
9
 73
5
 74
0
 42
0.0000001
 43
0.0000001
 44
0.0000000001
 40
0.0
 40
0.0
 40
0.0
 40
0.0
 40
0.2420873443
 40
1.0
 40
1.0
 40
1.0
 40
1.0
 10
460.5638917153
 20
328.6322029653
 30
0.0
 10
460.5799904498
 20
328.6216921969
 30
0.0
 10
460.6470479601
 20
328.5791317306
 30
0.0
 10
460.7162085235
 20
328.5399152281
 30
0.0
 10
460.7694671699
 20
328.5118686534
 30
0.0
  0
SPLINE
  5
2FC
100
AcDbEntity
  8
0
100
AcDbSpline
 62
7
  6
CONTINUOUS
 70
0
 71
3
 72
9
 73
5
 74
0
 42
0.0000001
 43
0.0000001
 44
0.0000000001
 40
0.0
 40
0.0
 40
0.0
 40
0.0
 40
0.4687533254
 40
1.0
 40
1.0
 40
1.0
 40
1.0
 10
460.7694671699
 20
328.5118686534
 30
0.0
 10
460.9054882262
 20
328.4402385055
 30
0.0
 10
461.2076994488
 20
328.3100927538
 30
0.0
 10
461.5219729978
 20
328.2145287878
 30
0.0
 10
461.6906391915
 20
328.1708747649
 30
0.0
  0
SPLINE
  5
2FD
100
AcDbEntity
  8
0
100
AcDbSpline
 62
7
  6
CONTINUOUS
 70
0
 71
3
 72
11
 73
7
 74
0
 42
0.0000001
 43
0.0000001
 44
0.0000000001
 40
0.0
 40
0.0
 40
0.0
 40
0.0
 40
0.2898762468
 40
0.5476500615
 40
0.7806807836
 40
1.0
 40
1.0
 40
1.0
 40
1.0
 10
637.2912211261
 20
286.9792522648
 30
0.0
 10
637.3565865022
 20
287.0512535144
 30
0.0
 10
637.4716302384
 20
287.1955592475
 30
0.0
 10
637.5977610863
 20
287.4269626637
 30
0.0
 10
637.6641156579
 20
287.658095864
 30
0.0
 10
637.6663150225
 20
287.8120934696
 30
0.0
 10
637.6569528488
 20
287.88507144
 30
0.0
  0
SPLINE
  5
2FE
100
AcDbEntity
  8
0
100
AcDbSpline
 62
7
  6
CONTINUOUS
 70
0
 71
3
 72
9
 73
5
 74
0
 42
0.0000001
 43
0.0000001
 44
0.0000000001
 40
0.0
 40
0.0
 40
0.0
 40
0.0
 40
0.2410279641
 40
1.0
 40
1.0
 40
1.0
 40
1.0
 10
628.0238209898
 20
285.0469581119
 30
0.0
 10
628.0666295334
 20
285.0358784455
 30
0.0
 10
628.2447541441
 20
284.9919140948
 30
0.0
 10
628.4247367925
 20
284.9556040183
 30
0.0
 10
628.561908473
 20
284.9316853863
 30
0.0
  0
SPLINE
  5
2FF
100
AcDbEntity
  8
0
100
AcDbSpline
 62
7
  6
CONTINUOUS
 70
0
 71
3
 72
9
 73
5
 74
0
 42
0.0000001
 43
0.0000001
 44
0.0000000001
 40
0.0
 40
0.0
 40
0.0
 40
0.0
 40
0.238245516
 40
1.0
 40
1.0
 40
1.0
 40
1.0
 10
628.561908473
 20
284.9316853863
 30
0.0
 10
628.6478847738
 20
284.916693695
 30
0.0
 10
629.0098062784
 20
284.859824445
 30
0.0
 10
629.3751180592
 20
284.8255482894
 30
0.0
 10
629.6537047734
 20
284.809576194
 30
0.0
  0
SPLINE
  5
300
100
AcDbEntity
  8
0
100
AcDbSpline
 62
7
  6
CONTINUOUS
 70
0
 71
3
 72
11
 73
7
 74
0
 42
0.0000001
 43
0.0000001
 44
0.0000000001
 40
0.0
 40
0.0
 40
0.0
 40
0.0
 40
0.2456761353
 40
0.5033823023
 40
0.7593587388
 40
1.0
 40
1.0
 40
1.0
 40
1.0
 10
629.6537047734
 20
284.809576194
 30
0.0
 10
630.0948464019
 20
284.784284406
 30
0.0
 10
631.0020897741
 20
284.7842712402
 30
0.0
 10
632.3636174177
 20
284.9123560002
 30
0.0
 10
633.6991272339
 20
285.161155929
 30
0.0
 10
634.5593847244
 20
285.4089017355
 30
0.0
 10
634.9672370526
 20
285.5537512638
 30
0.0
  0
SPLINE
  5
301
100
AcDbEntity
  8
0
100
AcDbSpline
 62
7
  6
CONTINUOUS
 70
0
 71
3
 72
11
 73
7
 74
0
 42
0.0000001
 43
0.0000001
 44
0.0000000001
 40
0.0
 40
0.0
 40
0.0
 40
0.0
 40
0.2947128284
 40
0.5613138085
 40
0.7968143039
 40
1.0
 40
1.0
 40
1.0
 40
1.0
 10
635.2297100334
 20
285.6510751698
 30
0.0
 10
635.4346686903
 20
285.7304118135
 30
0.0
 10
635.8200810928
 20
285.8949416277
 30
0.0
 10
636.3456641748
 20
286.1740918342
 30
0.0
 10
636.7825272984
 20
286.4688462852
 30
0.0
 10
637.0273360453
 20
286.6885609825
 30
0.0
 10
637.1291796998
 20
286.8007530305
 30
0.0
  0
SPLINE
  5
302
100
AcDbEntity
  8
0
100
AcDbSpline
 62
7
  6
CONTINUOUS
 70
0
 71
3
 72
11
 73
7
 74
0
 42
0.0000001
 43
0.0000001
 44
0.0000000001
 40
0.0
 40
0.0
 40
0.0
 40
0.0
 40
0.2193181827
 40
0.4523433603
 40
0.7101144006
 40
1.0
 40
1.0
 40
1.0
 40
1.0
 10
626.1513434121
 20
286.4083115601
 30
0.0
 10
626.1607055852
 20
286.335333595
 30
0.0
 10
626.201749009
 20
286.1868899035
 30
0.0
 10
626.3243008665
 20
285.9800000862
 30
0.0
 10
626.5047836669
 20
285.7879441746
 30
0.0
 10
626.6525547314
 20
285.6773835527
 30
0.0
 10
626.7339852941
 20
285.6242180206
 30
0.0
  0
SPLINE
  5
303
100
AcDbEntity
  8
0
100
AcDbSpline
 62
7
  6
CONTINUOUS
 70
0
 71
3
 72
10
 73
6
 74
0
 42
0.0000001
 43
0.0000001
 44
0.0000000001
 40
0.0
 40
0.0
 40
0.0
 40
0.0
 40
0.2293172426
 40
0.4677350841
 40
1.0
 40
1.0
 40
1.0
 40
1.0
 10
637.5386523304
 20
288.8067647547
 30
0.0
 10
637.5312898091
 20
288.8641554713
 30
0.0
 10
637.5031186044
 20
288.9799216575
 30
0.0
 10
637.3924644733
 20
289.2083079718
 30
0.0
 10
637.25771089
 20
289.3549230209
 30
0.0
 10
637.1556750568
 20
289.4422459682
 30
0.0
  0
SPLINE
  5
304
100
AcDbEntity
  8
0
100
AcDbSpline
 62
7
  6
CONTINUOUS
 70
0
 71
3
 72
10
 73
6
 74
0
 42
0.0000001
 43
0.0000001
 44
0.0000000001
 40
0.0
 40
0.0
 40
0.0
 40
0.0
 40
0.5323035477
 40
0.7707091291
 40
1.0
 40
1.0
 40
1.0
 40
1.0
 10
626.2435040157
 20
288.0421488692
 30
0.0
 10
626.1667142754
 20
287.9318129441
 30
0.0
 10
626.0732037029
 20
287.7557957066
 30
0.0
 10
626.0236891673
 20
287.5066618363
 30
0.0
 10
626.025674804
 20
287.3874389973
 30
0.0
 10
626.0330428939
 20
287.3300048738
 30
0.0
  0
SPLINE
  5
305
100
AcDbEntity
  8
0
100
AcDbSpline
 62
7
  6
CONTINUOUS
 70
0
 71
3
 72
9
 73
5
 74
0
 42
0.0000001
 43
0.0000001
 44
0.0000000001
 40
0.0
 40
0.0
 40
0.0
 40
0.0
 40
0.4613227126
 40
1.0
 40
1.0
 40
1.0
 40
1.0
 10
626.9360060402
 20
285.4923267592
 30
0.0
 10
627.0708899697
 20
285.4042702462
 30
0.0
 10
627.3840680794
 20
285.2451880336
 30
0.0
 10
627.7155481047
 20
285.132836067
 30
0.0
 10
627.8964940494
 20
285.0814790777
 30
0.0
  0
SPLINE
  5
306
100
AcDbEntity
  8
0
100
AcDbSpline
 62
7
  6
CONTINUOUS
 70
0
 71
3
 72
9
 73
5
 74
0
 42
0.0000001
 43
0.0000001
 44
0.0000000001
 40
0.0
 40
0.0
 40
0.0
 40
0.0
 40
0.2406115573
 40
1.0
 40
1.0
 40
1.0
 40
1.0
 10
628.1199918877
 20
285.1015047481
 30
0.0
 10
628.176041305
 20
285.0893992858
 30
0.0
 10
628.4095968669
 20
285.0419267081
 30
0.0
 10
628.6453099527
 20
285.0053088372
 30
0.0
 10
628.8248546918
 20
284.982600985
 30
0.0
  0
SPLINE
  5
307
100
AcDbEntity
  8
0
100
AcDbSpline
 62
7
  6
CONTINUOUS
 70
0
 71
3
 72
11
 73
7
 74
0
 42
0.0000001
 43
0.0000001
 44
0.0000000001
 40
0.0
 40
0.0
 40
0.0
 40
0.0
 40
0.2372986369
 40
0.4949808307
 40
0.7552480673
 40
1.0
 40
1.0
 40
1.0
 40
1.0
 10
628.8248546918
 20
284.982600985
 30
0.0
 10
629.3203606352
 20
284.9199320603
 30
0.0
 10
630.3642900106
 20
284.867978799
 30
0.0
 10
631.9535304946
 20
284.9661209306
 30
0.0
 10
633.5398259737
 20
285.2292382026
 30
0.0
 10
634.5666931987
 20
285.5153796439
 30
0.0
 10
635.0521279899
 20
285.6877827318
 30
0.0
  0
SPLINE
  5
308
100
AcDbEntity
  8
0
100
AcDbSpline
 62
7
  6
CONTINUOUS
 70
0
 71
3
 72
9
 73
5
 74
0
 42
0.0000001
 43
0.0000001
 44
0.0000000001
 40
0.0
 40
0.0
 40
0.0
 40
0.0
 40
0.2576441839
 40
1.0
 40
1.0
 40
1.0
 40
1.0
 10
635.0521279899
 20
285.6877827318
 30
0.0
 10
635.110865516
 20
285.7086434757
 30
0.0
 10
635.3381345751
 20
285.7915839675
 30
0.0
 10
635.5624974181
 20
285.8825852147
 30
0.0
 10
635.7267007189
 20
285.9553370407
 30
0.0
  0
SPLINE
  5
309
100
AcDbEntity
  8
0
100
AcDbSpline
 62
7
  6
CONTINUOUS
 70
0
 71
3
 72
9
 73
5
 74
0
 42
0.0000001
 43
0.0000001
 44
0.0000000001
 40
0.0
 40
0.0
 40
0.0
 40
0.0
 40
0.5444566479
 40
1.0
 40
1.0
 40
1.0
 40
1.0
 10
635.7267007189
 20
285.9553370407
 30
0.0
 10
635.9991801913
 20
286.0760616488
 30
0.0
 10
636.4887172119
 20
286.3237385728
 30
0.0
 10
636.9384105674
 20
286.6426514747
 30
0.0
 10
637.1225568761
 20
286.8107846407
 30
0.0
  0
SPLINE
  5
30A
100
AcDbEntity
  8
0
100
AcDbSpline
 62
7
  6
CONTINUOUS
 70
0
 71
3
 72
9
 73
5
 74
0
 42
0.0000001
 43
0.0000001
 44
0.0000000001
 40
0.0
 40
0.0
 40
0.0
 40
0.0
 40
0.2580365353
 40
1.0
 40
1.0
 40
1.0
 40
1.0
 10
637.1225568761
 20
286.8107846407
 30
0.0
 10
637.1377020584
 20
286.824612816
 30
0.0
 10
637.1958223291
 20
286.8788245082
 30
0.0
 10
637.2515833993
 20
286.9355905278
 30
0.0
 10
637.2912211261
 20
286.9792522648
 30
0.0
  0
SPLINE
  5
30B
100
AcDbEntity
  8
0
100
AcDbSpline
 62
7
  6
CONTINUOUS
 70
0
 71
3
 72
14
 73
10
 74
0
 42
0.0000001
 43
0.0000001
 44
0.0000000001
 40
0.0
 40
0.0
 40
0.0
 40
0.0
 40
0.1056244701
 40
0.2224666221
 40
0.3480548579
 40
0.4794921205
 40
0.7471273474
 40
0.8769806092
 40
1.0
 40
1.0
 40
1.0
 40
1.0
 10
627.9151745387
 20
286.3228821931
 30
0.0
 10
628.1538974392
 20
286.2635876561
 30
0.0
 10
628.6642208531
 20
286.1683886647
 30
0.0
 10
629.4717605463
 20
286.0903554249
 30
0.0
 10
630.3429936395
 20
286.0712969077
 30
0.0
 10
631.5641819909
 20
286.1260809665
 30
0.0
 10
632.7881758707
 20
286.295245003
 30
0.0
 10
633.9685127364
 20
286.5737217997
 30
0.0
 10
634.5316508175
 20
286.7482431476
 30
0.0
 10
634.8016161069
 20
286.8441218255
 30
0.0
  0
SPLINE
  5
30C
100
AcDbEntity
  8
0
100
AcDbSpline
 62
7
  6
CONTINUOUS
 70
0
 71
3
 72
16
 73
12
 74
0
 42
0.0000001
 43
0.0000001
 44
0.0000000001
 40
0.0
 40
0.0
 40
0.0
 40
0.0
 40
0.1859096507
 40
0.3535492967
 40
0.5010924826
 40
0.627920386
 40
0.7352665827
 40
0.8272495135
 40
0.8700158431
 40
0.9122187334
 40
1.0
 40
1.0
 40
1.0
 40
1.0
 10
635.1260722394
 20
286.965689869
 30
0.0
 10
635.3301274946
 20
287.0463405639
 30
0.0
 10
635.7130703533
 20
287.213348975
 30
0.0
 10
636.2333069408
 20
287.4964778247
 30
0.0
 10
636.6627481887
 20
287.7949803924
 30
0.0
 10
636.9934704063
 20
288.1039730932
 30
0.0
 10
637.2197485374
 20
288.4194601691
 30
0.0
 10
637.3163182977
 20
288.6945731151
 30
0.0
 10
637.3269072441
 20
288.9044534675
 30
0.0
 10
637.2973145797
 20
289.107316219
 30
0.0
 10
637.2291566746
 20
289.2497203618
 30
0.0
 10
637.1705296222
 20
289.3351380383
 30
0.0
  0
SPLINE
  5
30D
100
AcDbEntity
  8
0
100
AcDbSpline
 62
7
  6
CONTINUOUS
 70
0
 71
3
 72
13
 73
9
 74
0
 42
0.0000001
 43
0.0000001
 44
0.0000000001
 40
0.0
 40
0.0
 40
0.0
 40
0.0
 40
0.090171302
 40
0.1850645723
 40
0.2886159567
 40
0.403619564
 40
0.6735238178
 40
1.0
 40
1.0
 40
1.0
 40
1.0
 10
626.0330428939
 20
287.3300048738
 30
0.0
 10
626.0415625939
 20
287.2635939702
 30
0.0
 10
626.076867065
 20
287.1290219057
 30
0.0
 10
626.1804392766
 20
286.9394231685
 30
0.0
 10
626.3326476784
 20
286.7615043636
 30
0.0
 10
626.612692686
 20
286.5288874231
 30
0.0
 10
627.0847775811
 20
286.2810160654
 30
0.0
 10
627.507746033
 20
286.1453243981
 30
0.0
 10
627.7424322519
 20
286.0845831344
 30
0.0
  0
SPLINE
  5
30E
100
AcDbEntity
  8
0
100
AcDbSpline
 62
7
  6
CONTINUOUS
 70
0
 71
3
 72
15
 73
11
 74
0
 42
0.0000001
 43
0.0000001
 44
0.0000000001
 40
0.0
 40
0.0
 40
0.0
 40
0.0
 40
0.0993853638
 40
0.1939292157
 40
0.2915518599
 40
0.3993492085
 40
0.5222160459
 40
0.6628043674
 40
0.8221421209
 40
1.0
 40
1.0
 40
1.0
 40
1.0
 10
626.2566454523
 20
287.9365476013
 30
0.0
 10
626.2277558313
 20
287.857050721
 30
0.0
 10
626.1902727103
 20
287.6935533038
 30
0.0
 10
626.2129918116
 20
287.4421918006
 30
0.0
 10
626.3169501351
 20
287.2047196636
 30
0.0
 10
626.4959467427
 20
286.986685822
 30
0.0
 10
626.7446076673
 20
286.7889334245
 30
0.0
 10
627.0593366374
 20
286.6121404585
 30
0.0
 10
627.4363559719
 20
286.4577659664
 30
0.0
 10
627.7116601337
 20
286.3752561282
 30
0.0
 10
627.8582002641
 20
286.3373287517
 30
0.0
  0
SPLINE
  5
30F
100
AcDbEntity
  8
0
100
AcDbSpline
 62
7
  6
CONTINUOUS
 70
0
 71
3
 72
14
 73
10
 74
0
 42
0.0000001
 43
0.0000001
 44
0.0000000001
 40
0.0
 40
0.0
 40
0.0
 40
0.0
 40
0.1048607497
 40
0.2212569494
 40
0.3466861259
 40
0.478202907
 40
0.7464397528
 40
0.8766647816
 40
1.0
 40
1.0
 40
1.0
 40
1.0
 10
627.7424322519
 20
286.0845831344
 30
0.0
 10
627.9893402528
 20
286.0206786419
 30
0.0
 10
628.5187193146
 20
285.9176984674
 30
0.0
 10
629.3583787268
 20
285.831884667
 30
0.0
 10
630.2669687498
 20
285.8083221108
 30
0.0
 10
631.5438510094
 20
285.8617163911
 30
0.0
 10
632.8251705864
 20
286.0363305124
 30
0.0
 10
634.0613056974
 20
286.3265672751
 30
0.0
 10
634.6511479138
 20
286.50908187
 30
0.0
 10
634.9338272882
 20
286.6094759808
 30
0.0
  0
SPLINE
  5
310
100
AcDbEntity
  8
0
100
AcDbSpline
 62
7
  6
CONTINUOUS
 70
0
 71
3
 72
14
 73
10
 74
0
 42
0.0000001
 43
0.0000001
 44
0.0000000001
 40
0.0
 40
0.0
 40
0.0
 40
0.0
 40
0.3362361982
 40
0.4819674894
 40
0.6119367158
 40
0.7264868048
 40
0.8270615619
 40
0.9166331737
 40
1.0
 40
1.0
 40
1.0
 40
1.0
 10
635.5881530429
 20
286.8680913669
 30
0.0
 10
635.8866027971
 20
286.9993895478
 30
0.0
 10
636.3056025974
 20
287.2116899096
 30
0.0
 10
636.7951524613
 20
287.5484653713
 30
0.0
 10
637.0828540722
 20
287.7957272379
 30
0.0
 10
637.3055787376
 20
288.0472316886
 30
0.0
 10
637.4604412622
 20
288.3012459188
 30
0.0
 10
637.5440027981
 20
288.5559558358
 30
0.0
 10
637.5489391024
 20
288.726579558
 30
0.0
 10
637.5386523304
 20
288.8067647547
 30
0.0
  0
SPLINE
  5
311
100
AcDbEntity
  8
0
100
AcDbSpline
 62
7
  6
CONTINUOUS
 70
0
 71
3
 72
9
 73
5
 74
0
 42
0.0000001
 43
0.0000001
 44
0.0000000001
 40
0.0
 40
0.0
 40
0.0
 40
0.0
 40
0.2420873443
 40
1.0
 40
1.0
 40
1.0
 40
1.0
 10
626.7339852941
 20
285.6242180206
 30
0.0
 10
626.7500840286
 20
285.6137072522
 30
0.0
 10
626.817141539
 20
285.5711467859
 30
0.0
 10
626.8863021023
 20
285.5319302834
 30
0.0
 10
626.9395607488
 20
285.5038837087
 30
0.0
  0
SPLINE
  5
312
100
AcDbEntity
  8
0
100
AcDbSpline
 62
7
  6
CONTINUOUS
 70
0
 71
3
 72
9
 73
5
 74
0
 42
0.0000001
 43
0.0000001
 44
0.0000000001
 40
0.0
 40
0.0
 40
0.0
 40
0.0
 40
0.4687533254
 40
1.0
 40
1.0
 40
1.0
 40
1.0
 10
626.9395607488
 20
285.5038837087
 30
0.0
 10
627.0755818051
 20
285.4322535609
 30
0.0
 10
627.3777930277
 20
285.3021078091
 30
0.0
 10
627.6920665766
 20
285.2065438431
 30
0.0
 10
627.8607327703
 20
285.1628898202
 30
0.0
  0
SPLINE
  5
313
100
AcDbEntity
  8
0
100
AcDbSpline
 62
7
  6
CONTINUOUS
 70
0
 71
3
 72
9
 73
5
 74
0
 42
0.0000001
 43
0.0000001
 44
0.0000000001
 40
0.0
 40
0.0
 40
0.0
 40
0.0
 40
0.2379658416
 40
1.0
 40
1.0
 40
1.0
 40
1.0
 10
932.6761022386
 20
366.2080134529
 30
0.0
 10
932.6237634258
 20
366.2215597345
 30
0.0
 10
932.403515835
 20
366.2773046838
 30
0.0
 10
932.1821671169
 20
366.3286579587
 30
0.0
 10
932.0130794647
 20
366.3658348047
 30
0.0
  0
SPLINE
  5
314
100
AcDbEntity
  8
0
100
AcDbSpline
 62
7
  6
CONTINUOUS
 70
0
 71
3
 72
17
 73
13
 74
0
 42
0.0000001
 43
0.0000001
 44
0.0000000001
 40
0.0
 40
0.0
 40
0.0
 40
0.0
 40
0.2081633793
 40
0.3958722352
 40
0.560598904
 40
0.7002550299
 40
0.8133211861
 40
0.8991565833
 40
0.9321724713
 40
0.9591281082
 40
0.981075214
 40
1.0
 40
1.0
 40
1.0
 40
1.0
 10
925.8216451848
 20
367.1108564275
 30
0.0
 10
925.645994026
 20
367.114909661
 30
0.0
 10
925.3118401742
 20
367.1186945595
 30
0.0
 10
924.838660186
 20
367.1101615071
 30
0.0
 10
924.423847509
 20
367.0873893654
 30
0.0
 10
924.0731217224
 20
367.0510141506
 30
0.0
 10
923.7915239071
 20
367.0016524911
 30
0.0
 10
923.6024135722
 20
366.9473922802
 30
0.0
 10
923.4911022805
 20
366.8941127287
 30
0.0
 10
923.433942084
 20
366.8544879566
 30
0.0
 10
923.395403388
 20
366.8110424369
 30
0.0
 10
923.3831545065
 20
366.7775494591
 30
0.0
 10
923.3812428531
 20
366.7616910145
 30
0.0
  0
SPLINE
  5
315
100
AcDbEntity
  8
0
100
AcDbSpline
 62
7
  6
CONTINUOUS
 70
0
 71
3
 72
15
 73
11
 74
0
 42
0.0000001
 43
0.0000001
 44
0.0000000001
 40
0.0
 40
0.0
 40
0.0
 40
0.0
 40
0.2096279891
 40
0.3969924835
 40
0.560229592
 40
0.6981389048
 40
0.810001813
 40
0.8561671723
 40
0.895987357
 40
1.0
 40
1.0
 40
1.0
 40
1.0
 10
932.6761022386
 20
366.2080134529
 30
0.0
 10
932.8009491737
 20
366.1757006884
 30
0.0
 10
933.0366313898
 20
366.1115350869
 30
0.0
 10
933.3661720974
 20
366.0103175251
 30
0.0
 10
933.6496722415
 20
365.9104230249
 30
0.0
 10
933.8845346653
 20
365.8126317785
 30
0.0
 10
934.0466787438
 20
365.7301362865
 30
0.0
 10
934.1496803644
 20
365.6634882621
 30
0.0
 10
934.2400520595
 20
365.5942212902
 30
0.0
 10
934.3100731615
 20
365.5107141792
 30
0.0
 10
934.3024152515
 20
365.4471866885
 30
0.0
  0
SPLINE
  5
316
100
AcDbEntity
  8
0
100
AcDbSpline
 62
7
  6
CONTINUOUS
 70
0
 71
3
 72
9
 73
5
 74
0
 42
0.0000001
 43
0.0000001
 44
0.0000000001
 40
0.0
 40
0.0
 40
0.0
 40
0.0
 40
0.2522236599
 40
1.0
 40
1.0
 40
1.0
 40
1.0
 10
928.3058354888
 20
367.8213880309
 30
0.0
 10
928.2559467555
 20
367.8259931076
 30
0.0
 10
928.0576644138
 20
367.8384647028
 30
0.0
 10
927.8578455992
 20
367.8271050307
 30
0.0
 10
927.7109651403
 20
367.8049922395
 30
0.0
  0
SPLINE
  5
317
100
AcDbEntity
  8
0
100
AcDbSpline
 62
7
  6
CONTINUOUS
 70
0
 71
3
 72
9
 73
5
 74
0
 42
0.0000001
 43
0.0000001
 44
0.0000000001
 40
0.0
 40
0.0
 40
0.0
 40
0.0
 40
0.254486227
 40
1.0
 40
1.0
 40
1.0
 40
1.0
 10
930.001110926
 20
367.0791970953
 30
0.0
 10
929.9672940405
 20
367.1068268351
 30
0.0
 10
929.8326963326
 20
367.2132735564
 30
0.0
 10
929.6911622374
 20
367.3110140869
 30
0.0
 10
929.5821503052
 20
367.3779612414
 30
0.0
  0
SPLINE
  5
318
100
AcDbEntity
  8
0
100
AcDbSpline
 62
7
  6
CONTINUOUS
 70
0
 71
3
 72
9
 73
5
 74
0
 42
0.0000001
 43
0.0000001
 44
0.0000000001
 40
0.0
 40
0.0
 40
0.0
 40
0.0
 40
0.2554101878
 40
1.0
 40
1.0
 40
1.0
 40
1.0
 10
929.5821503052
 20
367.3779612414
 30
0.0
 10
929.5384052455
 20
367.4048262571
 30
0.0
 10
929.3649014233
 20
367.506309788
 30
0.0
 10
929.1823425605
 20
367.5925116274
 30
0.0
 10
929.0426519007
 20
367.6462137544
 30
0.0
  0
SPLINE
  5
319
100
AcDbEntity
  8
0
100
AcDbSpline
 62
7
  6
CONTINUOUS
 70
0
 71
3
 72
9
 73
5
 74
0
 42
0.0000001
 43
0.0000001
 44
0.0000000001
 40
0.0
 40
0.0
 40
0.0
 40
0.0
 40
0.2403542474
 40
1.0
 40
1.0
 40
1.0
 40
1.0
 10
930.571791531
 20
367.0946127982
 30
0.0
 10
930.5261302934
 20
367.0978604045
 30
0.0
 10
930.3358114512
 20
367.1064010036
 30
0.0
 10
930.1448287239
 20
367.0958385051
 30
0.0
 10
930.001110926
 20
367.0791970953
 30
0.0
  0
SPLINE
  5
31A
100
AcDbEntity
  8
0
100
AcDbSpline
 62
7
  6
CONTINUOUS
 70
0
 71
3
 72
9
 73
5
 74
0
 42
0.0000001
 43
0.0000001
 44
0.0000000001
 40
0.0
 40
0.0
 40
0.0
 40
0.0
 40
0.2437034071
 40
1.0
 40
1.0
 40
1.0
 40
1.0
 10
929.0426519007
 20
367.6462137544
 30
0.0
 10
928.9913675706
 20
367.6387058416
 30
0.0
 10
928.7818025492
 20
367.6020663988
 30
0.0
 10
928.576400805
 20
367.5426828124
 30
0.0
 10
928.4253741674
 20
367.4873334363
 30
0.0
  0
SPLINE
  5
31B
100
AcDbEntity
  8
0
100
AcDbSpline
 62
7
  6
CONTINUOUS
 70
0
 71
3
 72
9
 73
5
 74
0
 42
0.0000001
 43
0.0000001
 44
0.0000000001
 40
0.0
 40
0.0
 40
0.0
 40
0.0
 40
0.2311379313
 40
1.0
 40
1.0
 40
1.0
 40
1.0
 10
928.4253741674
 20
367.4873334363
 30
0.0
 10
928.2519827425
 20
367.423787645
 30
0.0
 10
927.5239009077
 20
367.0885802045
 30
0.0
 10
926.9026298693
 20
366.5485416143
 30
0.0
 10
926.5000249321
 20
366.0845828402
 30
0.0
  0
SPLINE
  5
31C
100
AcDbEntity
  8
0
100
AcDbSpline
 62
7
  6
CONTINUOUS
 70
0
 71
3
 72
15
 73
11
 74
0
 42
0.0000001
 43
0.0000001
 44
0.0000000001
 40
0.0
 40
0.0
 40
0.0
 40
0.0
 40
0.104012643
 40
0.1438328277
 40
0.189998187
 40
0.3018610952
 40
0.439770408
 40
0.6030075165
 40
0.7903720109
 40
1.0
 40
1.0
 40
1.0
 40
1.0
 10
923.2629423348
 20
365.778760846
 30
0.0
 10
923.2552844247
 20
365.7152333553
 30
0.0
 10
923.3253055267
 20
365.6317262443
 30
0.0
 10
923.4156772219
 20
365.5624592724
 30
0.0
 10
923.5186788424
 20
365.495811248
 30
0.0
 10
923.6808229209
 20
365.413315756
 30
0.0
 10
923.9156853447
 20
365.3155245096
 30
0.0
 10
924.1991854888
 20
365.2156300094
 30
0.0
 10
924.5287261965
 20
365.1144124476
 30
0.0
 10
924.7644084126
 20
365.0502468461
 30
0.0
 10
924.8892553476
 20
365.0179340816
 30
0.0
  0
SPLINE
  5
31D
100
AcDbEntity
  8
0
100
AcDbSpline
 62
7
  6
CONTINUOUS
 70
0
 71
3
 72
9
 73
5
 74
0
 42
0.0000001
 43
0.0000001
 44
0.0000000001
 40
0.0
 40
0.0
 40
0.0
 40
0.0
 40
0.2484311736
 40
1.0
 40
1.0
 40
1.0
 40
1.0
 10
930.2596660333
 20
367.5217341291
 30
0.0
 10
930.2155580323
 20
367.5388797756
 30
0.0
 10
930.0358203297
 20
367.6021574691
 30
0.0
 10
929.8479074644
 20
367.6418928571
 30
0.0
 10
929.7057070588
 20
367.6584846474
 30
0.0
  0
SPLINE
  5
31E
100
AcDbEntity
  8
0
100
AcDbSpline
 62
7
  6
CONTINUOUS
 70
0
 71
3
 72
22
 73
18
 74
0
 42
0.0000001
 43
0.0000001
 44
0.0000000001
 40
0.0
 40
0.0
 40
0.0
 40
0.0
 40
0.0061637439
 40
0.0136878458
 40
0.0233551072
 40
0.0355099977
 40
0.0502840387
 40
0.0677101704
 40
0.1103597075
 40
0.1628721833
 40
0.2242894443
 40
0.2934049124
 40
0.3688195747
 40
0.532233434
 40
0.7010771188
 40
0.8613930404
 40
1.0
 40
1.0
 40
1.0
 40
1.0
 10
934.1841147331
 20
364.46425652
 30
0.0
 10
934.1817892916
 20
364.4449654258
 30
0.0
 10
934.164013757
 20
364.4034648158
 30
0.0
 10
934.109015192
 20
364.3527855468
 30
0.0
 10
934.0279139681
 20
364.3073476284
 30
0.0
 10
933.9197854421
 20
364.2663315458
 30
0.0
 10
933.784729364
 20
364.2295800833
 30
0.0
 10
933.5531673942
 20
364.1835354247
 30
0.0
 10
933.2002248317
 20
364.1419979239
 30
0.0
 10
932.7072749413
 20
364.1139009429
 30
0.0
 10
932.1301303645
 20
364.1063153111
 30
0.0
 10
931.4809383807
 20
364.1195058103
 30
0.0
 10
930.5111859333
 20
364.1660805618
 30
0.0
 10
929.2301355368
 20
364.2741709831
 30
0.0
 10
927.6888628424
 20
364.4664650566
 30
0.0
 10
926.2339717575
 20
364.7089445752
 30
0.0
 10
925.3122650788
 20
364.9084511069
 30
0.0
 10
924.8892553476
 20
365.0179340816
 30
0.0
  0
SPLINE
  5
31F
100
AcDbEntity
  8
0
100
AcDbSpline
 62
7
  6
CONTINUOUS
 70
0
 71
3
 72
9
 73
5
 74
0
 42
0.0000001
 43
0.0000001
 44
0.0000000001
 40
0.0
 40
0.0
 40
0.0
 40
0.0
 40
0.2444568087
 40
1.0
 40
1.0
 40
1.0
 40
1.0
 10
929.6638094699
 20
367.6629929833
 30
0.0
 10
929.7453048548
 20
367.6309830918
 30
0.0
 10
930.0723904284
 20
367.4842373701
 30
0.0
 10
930.3705312706
 20
367.2755121151
 30
0.0
 10
930.571791531
 20
367.0946127982
 30
0.0
  0
SPLINE
  5
320
100
AcDbEntity
  8
0
100
AcDbSpline
 62
7
  6
CONTINUOUS
 70
0
 71
3
 72
17
 73
13
 74
0
 42
0.0000001
 43
0.0000001
 44
0.0000000001
 40
0.0
 40
0.0
 40
0.0
 40
0.0
 40
0.0510003537
 40
0.0743577648
 40
0.1008120201
 40
0.1329299409
 40
0.172115814
 40
0.2740855565
 40
0.4088247382
 40
0.5758873225
 40
0.7737953423
 40
1.0
 40
1.0
 40
1.0
 40
1.0
 10
925.1556388734
 20
366.6144614851
 30
0.0
 10
925.1386109423
 20
366.5994511792
 30
0.0
 10
925.1164899823
 20
366.5699705676
 30
0.0
 10
925.1184545455
 20
366.5237314675
 30
0.0
 10
925.1337007135
 20
366.4899497669
 30
0.0
 10
925.1612167228
 20
366.4558680855
 30
0.0
 10
925.2192728232
 20
366.4047378349
 30
0.0
 10
925.3250363292
 20
366.340947775
 30
0.0
 10
925.4884157643
 20
366.2658835514
 30
0.0
 10
925.6970165266
 20
366.1881871994
 30
0.0
 10
925.9479908213
 20
366.1089664904
 30
0.0
 10
926.1300839307
 20
366.0590463666
 30
0.0
 10
926.2275518798
 20
366.0338198051
 30
0.0
  0
SPLINE
  5
321
100
AcDbEntity
  8
0
100
AcDbSpline
 62
7
  6
CONTINUOUS
 70
0
 71
3
 72
15
 73
11
 74
0
 42
0.0000001
 43
0.0000001
 44
0.0000000001
 40
0.0
 40
0.0
 40
0.0
 40
0.0
 40
0.104012643
 40
0.1438328277
 40
0.189998187
 40
0.3018610952
 40
0.439770408
 40
0.6030075165
 40
0.7903720109
 40
1.0
 40
1.0
 40
1.0
 40
1.0
 10
923.3812428531
 20
366.7616910145
 30
0.0
 10
923.3735849431
 20
366.6981635239
 30
0.0
 10
923.443606045
 20
366.6146564129
 30
0.0
 10
923.5339777402
 20
366.545389441
 30
0.0
 10
923.6369793608
 20
366.4787414166
 30
0.0
 10
923.7991234393
 20
366.3962459246
 30
0.0
 10
924.033985863
 20
366.2984546782
 30
0.0
 10
924.3174860072
 20
366.198560178
 30
0.0
 10
924.6470267148
 20
366.0973426162
 30
0.0
 10
924.8827089309
 20
366.0331770146
 30
0.0
 10
925.0075558659
 20
366.0008642501
 30
0.0
  0
SPLINE
  5
322
100
AcDbEntity
  8
0
100
AcDbSpline
 62
7
  6
CONTINUOUS
 70
0
 71
3
 72
24
 73
20
 74
0
 42
0.0000001
 43
0.0000001
 44
0.0000000001
 40
0.0
 40
0.0
 40
0.0
 40
0.0
 40
0.0072799723
 40
0.0135149067
 40
0.0203868272
 40
0.029212218
 40
0.040616354
 40
0.0548496548
 40
0.0920045978
 40
0.1404692724
 40
0.1993655957
 40
0.2674499263
 40
0.3432113436
 40
0.4249329734
 40
0.5107440286
 40
0.5986696302
 40
0.6866810053
 40
0.8548782752
 40
1.0
 40
1.0
 40
1.0
 40
1.0
 10
932.543761131
 20
365.7252642319
 30
0.0
 10
932.5528109764
 20
365.7122826109
 30
0.0
 10
932.56707809
 20
365.685417165
 30
0.0
 10
932.5651476109
 20
365.6387909838
 30
0.0
 10
932.5366262383
 20
365.598320149
 30
0.0
 10
932.4880985427
 20
365.5640805486
 30
0.0
 10
932.4195426465
 20
365.5331435428
 30
0.0
 10
932.2889518432
 20
365.4927348526
 30
0.0
 10
932.074492665
 20
365.4552779603
 30
0.0
 10
931.7615716699
 20
365.4265837955
 30
0.0
 10
931.3802575241
 20
365.4130044863
 30
0.0
 10
930.9394810981
 20
365.4149281488
 30
0.0
 10
930.4494030805
 20
365.4326053973
 30
0.0
 10
929.9215296268
 20
365.4656975259
 30
0.0
 10
929.368244549
 20
365.513501461
 30
0.0
 10
928.8025524997
 20
365.5749147127
 30
0.0
 10
928.0607171532
 20
365.6716134165
 30
0.0
 10
927.1994551942
 20
365.811983103
 30
0.0
 10
926.5329451636
 20
365.954778207
 30
0.0
 10
926.2275518798
 20
366.0338198051
 30
0.0
  0
SPLINE
  5
323
100
AcDbEntity
  8
0
100
AcDbSpline
 62
7
  6
CONTINUOUS
 70
0
 71
3
 72
11
 73
7
 74
0
 42
0.0000001
 43
0.0000001
 44
0.0000000001
 40
0.0
 40
0.0
 40
0.0
 40
0.0
 40
0.2748482523
 40
0.5321350667
 40
0.7727032099
 40
1.0
 40
1.0
 40
1.0
 40
1.0
 10
926.1181872703
 20
366.1834096992
 30
0.0
 10
926.2664702592
 20
366.4024511443
 30
0.0
 10
926.5866387686
 20
366.8056758114
 30
0.0
 10
927.1481346591
 20
367.2999662912
 30
0.0
 10
927.7590254197
 20
367.6481558195
 30
0.0
 10
928.1964332709
 20
367.7758571753
 30
0.0
 10
928.4126143697
 20
367.8092794665
 30
0.0
  0
SPLINE
  5
324
100
AcDbEntity
  8
0
100
AcDbSpline
 62
7
  6
CONTINUOUS
 70
0
 71
3
 72
19
 73
15
 74
0
 42
0.0000001
 43
0.0000001
 44
0.0000000001
 40
0.0
 40
0.0
 40
0.0
 40
0.0
 40
0.0156217404
 40
0.0354001682
 40
0.0615098726
 40
0.094788476
 40
0.1355044476
 40
0.1836429063
 40
0.2390452634
 40
0.3014411353
 40
0.4457738226
 40
0.6132082945
 40
0.7995407118
 40
1.0
 40
1.0
 40
1.0
 40
1.0
 10
934.3024152515
 20
365.4471866885
 30
0.0
 10
934.2997944847
 20
365.4254456741
 30
0.0
 10
934.2773270455
 20
365.3781414046
 30
0.0
 10
934.2092727839
 20
365.3230008695
 30
0.0
 10
934.1092381114
 20
365.2739124711
 30
0.0
 10
933.9755246483
 20
365.230309757
 30
0.0
 10
933.8084921311
 20
365.1921085058
 30
0.0
 10
933.6087858962
 20
365.1596800678
 30
0.0
 10
933.3776134809
 20
365.1332988936
 30
0.0
 10
933.0111759449
 20
365.1051490944
 30
0.0
 10
932.4866770975
 20
365.0889352683
 30
0.0
 10
931.7883537094
 20
365.0958223862
 30
0.0
 10
931.0120222877
 20
365.1286357564
 30
0.0
 10
930.4710605459
 20
365.1662559969
 30
0.0
 10
930.1909871594
 20
365.1890805796
 30
0.0
  0
SPLINE
  5
325
100
AcDbEntity
  8
0
100
AcDbSpline
 62
7
  6
CONTINUOUS
 70
0
 71
3
 72
11
 73
7
 74
0
 42
0.0000001
 43
0.0000001
 44
0.0000000001
 40
0.0
 40
0.0
 40
0.0
 40
0.0
 40
0.2664357637
 40
0.5328569112
 40
0.7825553095
 40
1.0
 40
1.0
 40
1.0
 40
1.0
 10
930.1216110593
 20
365.1948033781
 30
0.0
 10
929.6629615902
 20
365.2330918769
 30
0.0
 10
928.7470898999
 20
365.3272302667
 30
0.0
 10
927.4077115948
 20
365.5121519167
 30
0.0
 10
926.1594672985
 20
365.7318862759
 30
0.0
 10
925.371190821
 20
365.9067485983
 30
0.0
 10
925.0075558659
 20
366.0008642501
 30
0.0
  0
SPLINE
  5
326
100
AcDbEntity
  8
0
100
AcDbSpline
 62
7
  6
CONTINUOUS
 70
0
 71
3
 72
20
 73
16
 74
0
 42
0.0000001
 43
0.0000001
 44
0.0000000001
 40
0.0
 40
0.0
 40
0.0
 40
0.0
 40
0.061539491
 40
0.1292467291
 40
0.2784087879
 40
0.436710053
 40
0.5920345356
 40
0.6648954385
 40
0.7327417675
 40
0.7944509642
 40
0.8491705979
 40
0.8964385702
 40
0.9363858097
 40
0.970085422
 40
1.0
 40
1.0
 40
1.0
 40
1.0
 10
469.3080665976
 20
334.0635929841
 30
0.0
 10
469.1026752442
 20
334.116752178
 30
0.0
 10
468.6651633966
 20
334.2051829074
 30
0.0
 10
467.7111774545
 20
334.3174072579
 30
0.0
 10
466.4139702097
 20
334.331680049
 30
0.0
 10
464.8238554541
 20
334.1717239805
 30
0.0
 10
463.5168234247
 20
333.8962308447
 30
0.0
 10
462.5415303334
 20
333.5934344842
 30
0.0
 10
461.890484535
 20
333.340362125
 30
0.0
 10
461.3183451994
 20
333.0622696798
 30
0.0
 10
460.83715731
 20
332.7651048521
 30
0.0
 10
460.4564632874
 20
332.4547534651
 30
0.0
 10
460.1835231877
 20
332.1356307974
 30
0.0
 10
460.024988373
 20
331.8097324819
 30
0.0
 10
460.0054263202
 20
331.5845121185
 30
0.0
 10
460.018555507
 20
331.4822198766
 30
0.0
  0
SPLINE
  5
327
100
AcDbEntity
  8
0
100
AcDbSpline
 62
7
  6
CONTINUOUS
 70
0
 71
3
 72
13
 73
9
 74
0
 42
0.0000001
 43
0.0000001
 44
0.0000000001
 40
0.0
 40
0.0
 40
0.0
 40
0.0
 40
0.3264768168
 40
0.5963791685
 40
0.7113828117
 40
0.8149346569
 40
0.9098295658
 40
1.0
 40
1.0
 40
1.0
 40
1.0
 10
469.3080665976
 20
334.0635929841
 30
0.0
 10
469.5306146434
 20
334.0059933114
 30
0.0
 10
469.9317073831
 20
333.8773234955
 30
0.0
 10
470.3793683083
 20
333.6422667574
 30
0.0
 10
470.6449329934
 20
333.4216847266
 30
0.0
 10
470.7892552168
 20
333.2529588543
 30
0.0
 10
470.8875018463
 20
333.0731792646
 30
0.0
 10
470.9209485071
 20
332.9455584476
 30
0.0
 10
470.9290313155
 20
332.8825835953
 30
0.0
  0
SPLINE
  5
328
100
AcDbEntity
  8
0
100
AcDbSpline
 62
7
  6
CONTINUOUS
 70
0
 71
3
 72
9
 73
5
 74
0
 42
0.0000001
 43
0.0000001
 44
0.0000000001
 40
0.0
 40
0.0
 40
0.0
 40
0.0
 40
0.2643310896
 40
1.0
 40
1.0
 40
1.0
 40
1.0
 10
464.6518129937
 20
333.6415989185
 30
0.0
 10
464.5723695073
 20
333.6536102337
 30
0.0
 10
464.2702861155
 20
333.6865105535
 30
0.0
 10
463.9604926026
 20
333.6640948135
 30
0.0
 10
463.7438309326
 20
333.608766063
 30
0.0
  0
SPLINE
  5
329
100
AcDbEntity
  8
0
100
AcDbSpline
 62
7
  6
CONTINUOUS
 70
0
 71
3
 72
9
 73
5
 74
0
 42
0.0000001
 43
0.0000001
 44
0.0000000001
 40
0.0
 40
0.0
 40
0.0
 40
0.0
 40
0.2549249846
 40
1.0
 40
1.0
 40
1.0
 40
1.0
 10
466.3164485185
 20
332.942923636
 30
0.0
 10
466.2803358154
 20
332.9672080225
 30
0.0
 10
466.1376094426
 20
333.0608682914
 30
0.0
 10
465.99057277
 20
333.1480027281
 30
0.0
 10
465.8787393733
 20
333.2085932808
 30
0.0
  0
SPLINE
  5
32A
100
AcDbEntity
  8
0
100
AcDbSpline
 62
7
  6
CONTINUOUS
 70
0
 71
3
 72
9
 73
5
 74
0
 42
0.0000001
 43
0.0000001
 44
0.0000000001
 40
0.0
 40
0.0
 40
0.0
 40
0.0
 40
0.2579020321
 40
1.0
 40
1.0
 40
1.0
 40
1.0
 10
465.8787393733
 20
333.2085932808
 30
0.0
 10
465.8291979739
 20
333.2354344647
 30
0.0
 10
465.6353543428
 20
333.3362150118
 30
0.0
 10
465.4343369702
 20
333.4234498965
 30
0.0
 10
465.2818505247
 20
333.4785332064
 30
0.0
  0
SPLINE
  5
32B
100
AcDbEntity
  8
0
100
AcDbSpline
 62
7
  6
CONTINUOUS
 70
0
 71
3
 72
9
 73
5
 74
0
 42
0.0000001
 43
0.0000001
 44
0.0000000001
 40
0.0
 40
0.0
 40
0.0
 40
0.0
 40
0.2396655327
 40
1.0
 40
1.0
 40
1.0
 40
1.0
 10
466.8871291236
 20
333.2229139517
 30
0.0
 10
466.8401728748
 20
333.2035280411
 30
0.0
 10
466.6456603626
 20
333.1192342435
 30
0.0
 10
466.4567882975
 20
333.0221611794
 30
0.0
 10
466.3164485185
 20
332.942923636
 30
0.0
  0
SPLINE
  5
32C
100
AcDbEntity
  8
0
100
AcDbSpline
 62
7
  6
CONTINUOUS
 70
0
 71
3
 72
9
 73
5
 74
0
 42
0.0000001
 43
0.0000001
 44
0.0000000001
 40
0.0
 40
0.0
 40
0.0
 40
0.0
 40
0.2444230691
 40
1.0
 40
1.0
 40
1.0
 40
1.0
 10
465.2818505247
 20
333.4785332064
 30
0.0
 10
465.2412042585
 20
333.4537836778
 30
0.0
 10
465.0766622506
 20
333.3496633948
 30
0.0
 10
464.9191728531
 20
333.2344990283
 30
0.0
 10
464.8043998123
 20
333.1424769376
 30
0.0
  0
SPLINE
  5
32D
100
AcDbEntity
  8
0
100
AcDbSpline
 62
7
  6
CONTINUOUS
 70
0
 71
3
 72
9
 73
5
 74
0
 42
0.0000001
 43
0.0000001
 44
0.0000000001
 40
0.0
 40
0.0
 40
0.0
 40
0.0
 40
0.4814000188
 40
1.0
 40
1.0
 40
1.0
 40
1.0
 10
464.8043998123
 20
333.1424769376
 30
0.0
 10
464.4580778857
 20
332.8648048682
 30
0.0
 10
463.8141133116
 20
332.1917623041
 30
0.0
 10
463.3230655325
 20
331.4040037528
 30
0.0
 10
463.1083291874
 20
330.9767356797
 30
0.0
  0
SPLINE
  5
32E
100
AcDbEntity
  8
0
100
AcDbSpline
 62
7
  6
CONTINUOUS
 70
0
 71
3
 72
13
 73
9
 74
0
 42
0.0000001
 43
0.0000001
 44
0.0000000001
 40
0.0
 40
0.0
 40
0.0
 40
0.0
 40
0.0901704342
 40
0.1850653431
 40
0.2886171883
 40
0.4036208315
 40
0.6735231832
 40
1.0
 40
1.0
 40
1.0
 40
1.0
 10
460.1368560253
 20
330.5605265625
 30
0.0
 10
460.1449388338
 20
330.4975517101
 30
0.0
 10
460.1783854945
 20
330.3699308931
 30
0.0
 10
460.2766321241
 20
330.1901513034
 30
0.0
 10
460.4209543474
 20
330.0214254311
 30
0.0
 10
460.6865190326
 20
329.8008434003
 30
0.0
 10
461.1341799578
 20
329.5657866622
 30
0.0
 10
461.5352726974
 20
329.4371168464
 30
0.0
 10
461.7578207432
 20
329.3795171737
 30
0.0
  0
SPLINE
  5
32F
100
AcDbEntity
  8
0
100
AcDbSpline
 62
7
  6
CONTINUOUS
 70
0
 71
3
 72
9
 73
5
 74
0
 42
0.0000001
 43
0.0000001
 44
0.0000000001
 40
0.0
 40
0.0
 40
0.0
 40
0.0
 40
0.2487187052
 40
1.0
 40
1.0
 40
1.0
 40
1.0
 10
467.5724663816
 20
333.837343458
 30
0.0
 10
467.5371316871
 20
333.8502427784
 30
0.0
 10
467.3936479715
 20
333.8981581662
 30
0.0
 10
467.2448360541
 20
333.9299600257
 30
0.0
 10
467.1321793897
 20
333.9447388654
 30
0.0
  0
SPLINE
  5
330
100
AcDbEntity
  8
0
100
AcDbSpline
 62
7
  6
CONTINUOUS
 70
0
 71
3
 72
9
 73
5
 74
0
 42
0.0000001
 43
0.0000001
 44
0.0000000001
 40
0.0
 40
0.0
 40
0.0
 40
0.0
 40
0.4822215953
 40
1.0
 40
1.0
 40
1.0
 40
1.0
 10
467.1321793897
 20
333.9447388654
 30
0.0
 10
466.9331113675
 20
333.9708535601
 30
0.0
 10
466.5112348968
 20
333.9660939649
 30
0.0
 10
466.1049581562
 20
333.8587205291
 30
0.0
 10
465.9030080939
 20
333.7832887952
 30
0.0
  0
SPLINE
  5
331
100
AcDbEntity
  8
0
100
AcDbSpline
 62
7
  6
CONTINUOUS
 70
0
 71
3
 72
14
 73
10
 74
0
 42
0.0000001
 43
0.0000001
 44
0.0000000001
 40
0.0
 40
0.0
 40
0.0
 40
0.0
 40
0.0797815609
 40
0.1667091812
 40
0.2660406157
 40
0.3807323859
 40
0.5119498057
 40
0.6596347279
 40
1.0
 40
1.0
 40
1.0
 40
1.0
 10
471.0473318339
 20
331.9608902811
 30
0.0
 10
471.0581350048
 20
331.876720516
 30
0.0
 10
471.0496988372
 20
331.6957633195
 30
0.0
 10
470.9486732502
 20
331.4277470429
 30
0.0
 10
470.7662574972
 20
331.1619000029
 30
0.0
 10
470.5067934199
 20
330.9000278029
 30
0.0
 10
470.1740336482
 20
330.6443566428
 30
0.0
 10
469.6116843692
 20
330.2997618306
 30
0.0
 10
469.1352129466
 20
330.087467618
 30
0.0
 10
468.7970322365
 20
329.9582355133
 30
0.0
  0
SPLINE
  5
332
100
AcDbEntity
  8
0
100
AcDbSpline
 62
7
  6
CONTINUOUS
 70
0
 71
3
 72
12
 73
8
 74
0
 42
0.0000001
 43
0.0000001
 44
0.0000000001
 40
0.0
 40
0.0
 40
0.0
 40
0.0
 40
0.2502737849
 40
0.518812736
 40
0.7774311358
 40
0.8946633323
 40
1.0
 40
1.0
 40
1.0
 40
1.0
 10
468.7970322365
 20
329.9582355133
 30
0.0
 10
468.2397842504
 20
329.7452892158
 30
0.0
 10
467.0442225538
 20
329.4077579181
 30
0.0
 10
465.2071614863
 20
329.137392526
 30
0.0
 10
463.665705953
 20
329.105090297
 30
0.0
 10
462.5230693694
 20
329.2161974381
 30
0.0
 10
462.0008906303
 20
329.3166060576
 30
0.0
 10
461.7578207432
 20
329.3795171737
 30
0.0
  0
SPLINE
  5
333
100
AcDbEntity
  8
0
100
AcDbSpline
 62
7
  6
CONTINUOUS
 70
0
 71
3
 72
9
 73
5
 74
0
 42
0.0000001
 43
0.0000001
 44
0.0000000001
 40
0.0
 40
0.0
 40
0.0
 40
0.0
 40
0.4926502279
 40
1.0
 40
1.0
 40
1.0
 40
1.0
 10
464.3145115376
 20
333.8887563787
 30
0.0
 10
464.4672991178
 20
333.930949101
 30
0.0
 10
464.7875151316
 20
333.9832808716
 30
0.0
 10
465.1112767152
 20
333.9687383916
 30
0.0
 10
465.2729705629
 20
333.9463545074
 30
0.0
  0
SPLINE
  5
334
100
AcDbEntity
  8
0
100
AcDbSpline
 62
7
  6
CONTINUOUS
 70
0
 71
3
 72
15
 73
11
 74
0
 42
0.0000001
 43
0.0000001
 44
0.0000000001
 40
0.0
 40
0.0
 40
0.0
 40
0.0
 40
0.1175993848
 40
0.2198871905
 40
0.315723323
 40
0.4161766757
 40
0.5306963934
 40
0.6649377757
 40
0.8213660424
 40
1.0
 40
1.0
 40
1.0
 40
1.0
 10
461.925872287
 20
332.2136241111
 30
0.0
 10
461.8780318624
 20
332.1520728079
 30
0.0
 10
461.7989049215
 20
332.0277144807
 30
0.0
 10
461.7402243165
 20
331.8228367365
 30
0.0
 10
461.7591781296
 20
331.6208233424
 30
0.0
 10
461.8554422431
 20
331.4339426109
 30
0.0
 10
462.0198712977
 20
331.2674497493
 30
0.0
 10
462.2466549583
 20
331.1207608101
 30
0.0
 10
462.5320648615
 20
330.9946595103
 30
0.0
 10
462.7448769241
 20
330.9294421774
 30
0.0
 10
462.8595162387
 20
330.8997713395
 30
0.0
  0
SPLINE
  5
335
100
AcDbEntity
  8
0
100
AcDbSpline
 62
7
  6
CONTINUOUS
 70
0
 71
3
 72
9
 73
5
 74
0
 42
0.0000001
 43
0.0000001
 44
0.0000000001
 40
0.0
 40
0.0
 40
0.0
 40
0.0
 40
0.2394487559
 40
1.0
 40
1.0
 40
1.0
 40
1.0
 10
465.9030080939
 20
333.7832887952
 30
0.0
 10
465.9877370135
 20
333.7512612803
 30
0.0
 10
466.3359430099
 20
333.6026756575
 30
0.0
 10
466.659259121
 20
333.3985553127
 30
0.0
 10
466.8871291236
 20
333.2229139517
 30
0.0
  0
SPLINE
  5
336
100
AcDbEntity
  8
0
100
AcDbSpline
 62
7
  6
CONTINUOUS
 70
0
 71
3
 72
13
 73
9
 74
0
 42
0.0000001
 43
0.0000001
 44
0.0000000001
 40
0.0
 40
0.0
 40
0.0
 40
0.0
 40
0.0901704342
 40
0.1850653431
 40
0.2886171883
 40
0.4036208315
 40
0.6735231832
 40
1.0
 40
1.0
 40
1.0
 40
1.0
 10
460.018555507
 20
331.4822198766
 30
0.0
 10
460.0266383155
 20
331.4192450243
 30
0.0
 10
460.0600849762
 20
331.2916242073
 30
0.0
 10
460.1583316058
 20
331.1118446176
 30
0.0
 10
460.3026538291
 20
330.9431187453
 30
0.0
 10
460.5682185143
 20
330.7225367145
 30
0.0
 10
461.0158794394
 20
330.4874799764
 30
0.0
 10
461.4169721791
 20
330.3588101605
 30
0.0
 10
461.6395202249
 20
330.3012104878
 30
0.0
  0
SPLINE
  5
337
100
AcDbEntity
  8
0
100
AcDbSpline
 62
7
  6
CONTINUOUS
 70
0
 71
3
 72
21
 73
17
 74
0
 42
0.0000001
 43
0.0000001
 44
0.0000000001
 40
0.0
 40
0.0
 40
0.0
 40
0.0
 40
0.0377166565
 40
0.069973954
 40
0.101840254
 40
0.1385855749
 40
0.1833691358
 40
0.2372643382
 40
0.3000514248
 40
0.3707376696
 40
0.4478357426
 40
0.5295294606
 40
0.6984025625
 40
0.8604474169
 40
0.9339025184
 40
1.0
 40
1.0
 40
1.0
 40
1.0
 10
468.8988234619
 20
333.1086108517
 30
0.0
 10
468.9745891901
 20
333.0504312927
 30
0.0
 10
469.1047789807
 20
332.9251789894
 30
0.0
 10
469.2113233322
 20
332.680384408
 30
0.0
 10
469.1876114774
 20
332.4163980331
 30
0.0
 10
469.0461771079
 20
332.1602092132
 30
0.0
 10
468.8052671637
 20
331.9126002245
 30
0.0
 10
468.470811096
 20
331.6745438979
 30
0.0
 10
468.0510644916
 20
331.4510810541
 30
0.0
 10
467.5570599932
 20
331.248228553
 30
0.0
 10
467.0026654315
 20
331.0718631853
 30
0.0
 10
466.1953825028
 20
330.8770294492
 30
0.0
 10
465.1577429866
 20
330.731415267
 30
0.0
 10
464.1301489342
 20
330.7143314699
 30
0.0
 10
463.3693593413
 20
330.790473587
 30
0.0
 10
463.0215837022
 20
330.8578251934
 30
0.0
 10
462.8595162387
 20
330.8997713395
 30
0.0
  0
SPLINE
  5
338
100
AcDbEntity
  8
0
100
AcDbSpline
 62
7
  6
CONTINUOUS
 70
0
 71
3
 72
20
 73
16
 74
0
 42
0.0000001
 43
0.0000001
 44
0.0000000001
 40
0.0
 40
0.0
 40
0.0
 40
0.0
 40
0.029914578
 40
0.0636141903
 40
0.1035614298
 40
0.1508294021
 40
0.2055490358
 40
0.2672582325
 40
0.3351045615
 40
0.4079654644
 40
0.563289947
 40
0.7215912121
 40
0.8707532709
 40
0.938460509
 40
1.0
 40
1.0
 40
1.0
 40
1.0
 10
470.9290313155
 20
332.8825835953
 30
0.0
 10
470.9421605023
 20
332.7802913534
 30
0.0
 10
470.9225984495
 20
332.55507099
 30
0.0
 10
470.7640636348
 20
332.2291726745
 30
0.0
 10
470.4911235352
 20
331.9100500068
 30
0.0
 10
470.1104295125
 20
331.5996986198
 30
0.0
 10
469.6292416231
 20
331.3025337921
 30
0.0
 10
469.0571022875
 20
331.0244413469
 30
0.0
 10
468.4060564891
 20
330.7713689877
 30
0.0
 10
467.4307633978
 20
330.4685726272
 30
0.0
 10
466.1237313685
 20
330.1930794914
 30
0.0
 10
464.5336166128
 20
330.0331234229
 30
0.0
 10
463.2364093681
 20
330.047396214
 30
0.0
 10
462.282423426
 20
330.1596205645
 30
0.0
 10
461.8449115783
 20
330.2480512939
 30
0.0
 10
461.6395202249
 20
330.3012104878
 30
0.0
  0
SPLINE
  5
339
100
AcDbEntity
  8
0
100
AcDbSpline
 62
7
  6
CONTINUOUS
 70
0
 71
3
 72
9
 73
5
 74
0
 42
0.0000001
 43
0.0000001
 44
0.0000000001
 40
0.0
 40
0.0
 40
0.0
 40
0.0
 40
0.5263359159
 40
1.0
 40
1.0
 40
1.0
 40
1.0
 10
462.7264915256
 20
331.0755625387
 30
0.0
 10
462.9197918344
 20
331.6122684229
 30
0.0
 10
463.4222985032
 20
332.5906561105
 30
0.0
 10
464.2168729156
 20
333.3688841814
 30
0.0
 10
464.6518129937
 20
333.6415989185
 30
0.0
  0
SPLINE
  5
33A
100
AcDbEntity
  8
0
100
AcDbSpline
 62
7
  6
CONTINUOUS
 70
0
 71
3
 72
9
 73
5
 74
0
 42
0.0000001
 43
0.0000001
 44
0.0000000001
 40
0.0
 40
0.0
 40
0.0
 40
0.0
 40
0.5064205442
 40
1.0
 40
1.0
 40
1.0
 40
1.0
 10
465.2729705629
 20
333.9463545074
 30
0.0
 10
465.4843360615
 20
334.0226503621
 30
0.0
 10
465.9206571283
 20
334.1266298556
 30
0.0
 10
466.3697799458
 20
334.118685443
 30
0.0
 10
466.5864749319
 20
334.0868837327
 30
0.0
  0
SPLINE
  5
33B
100
AcDbEntity
  8
0
100
AcDbSpline
 62
7
  6
CONTINUOUS
 70
0
 71
3
 72
20
 73
16
 74
0
 42
0.0000001
 43
0.0000001
 44
0.0000000001
 40
0.0
 40
0.0
 40
0.0
 40
0.0
 40
0.061539491
 40
0.1292467291
 40
0.2784087879
 40
0.436710053
 40
0.5920345356
 40
0.6648954385
 40
0.7327417675
 40
0.7944509642
 40
0.8491705979
 40
0.8964385702
 40
0.9363858097
 40
0.970085422
 40
1.0
 40
1.0
 40
1.0
 40
1.0
 10
635.4781601765
 20
291.0556080394
 30
0.0
 10
635.2727688231
 20
291.1087672333
 30
0.0
 10
634.8352569754
 20
291.1971979627
 30
0.0
 10
633.8812710333
 20
291.3094223133
 30
0.0
 10
632.5840637885
 20
291.3236951043
 30
0.0
 10
630.9939490329
 20
291.1637390358
 30
0.0
 10
629.6869170036
 20
290.8882459
 30
0.0
 10
628.7116239123
 20
290.5854495395
 30
0.0
 10
628.0605781138
 20
290.3323771803
 30
0.0
 10
627.4884387782
 20
290.0542847352
 30
0.0
 10
627.0072508888
 20
289.7571199074
 30
0.0
 10
626.6265568662
 20
289.4467685205
 30
0.0
 10
626.3536167665
 20
289.1276458527
 30
0.0
 10
626.1950819519
 20
288.8017475372
 30
0.0
 10
626.175519899
 20
288.5765271738
 30
0.0
 10
626.1886490858
 20
288.474234932
 30
0.0
  0
SPLINE
  5
33C
100
AcDbEntity
  8
0
100
AcDbSpline
 62
7
  6
CONTINUOUS
 70
0
 71
3
 72
13
 73
9
 74
0
 42
0.0000001
 43
0.0000001
 44
0.0000000001
 40
0.0
 40
0.0
 40
0.0
 40
0.0
 40
0.3264768168
 40
0.5963791685
 40
0.7113828117
 40
0.8149346569
 40
0.9098295658
 40
1.0
 40
1.0
 40
1.0
 40
1.0
 10
635.4781601765
 20
291.0556080394
 30
0.0
 10
635.7007082223
 20
290.9980083667
 30
0.0
 10
636.1018009619
 20
290.8693385508
 30
0.0
 10
636.5494618871
 20
290.6342818128
 30
0.0
 10
636.8150265723
 20
290.4136997819
 30
0.0
 10
636.9593487956
 20
290.2449739096
 30
0.0
 10
637.0575954252
 20
290.0651943199
 30
0.0
 10
637.0910420859
 20
289.9375735029
 30
0.0
 10
637.0991248944
 20
289.8745986506
 30
0.0
  0
SPLINE
  5
33D
100
AcDbEntity
  8
0
100
AcDbSpline
 62
7
  6
CONTINUOUS
 70
0
 71
3
 72
9
 73
5
 74
0
 42
0.0000001
 43
0.0000001
 44
0.0000000001
 40
0.0
 40
0.0
 40
0.0
 40
0.0
 40
0.2643310896
 40
1.0
 40
1.0
 40
1.0
 40
1.0
 10
630.8219065725
 20
290.6336139738
 30
0.0
 10
630.7424630861
 20
290.645625289
 30
0.0
 10
630.4403796943
 20
290.6785256088
 30
0.0
 10
630.1305861815
 20
290.6561098688
 30
0.0
 10
629.9139245114
 20
290.6007811184
 30
0.0
  0
SPLINE
  5
33E
100
AcDbEntity
  8
0
100
AcDbSpline
 62
7
  6
CONTINUOUS
 70
0
 71
3
 72
9
 73
5
 74
0
 42
0.0000001
 43
0.0000001
 44
0.0000000001
 40
0.0
 40
0.0
 40
0.0
 40
0.0
 40
0.2549249846
 40
1.0
 40
1.0
 40
1.0
 40
1.0
 10
632.4865420974
 20
289.9349386914
 30
0.0
 10
632.4504293942
 20
289.9592230778
 30
0.0
 10
632.3077030214
 20
290.0528833468
 30
0.0
 10
632.1606663488
 20
290.1400177834
 30
0.0
 10
632.0488329522
 20
290.2006083361
 30
0.0
  0
SPLINE
  5
33F
100
AcDbEntity
  8
0
100
AcDbSpline
 62
7
  6
CONTINUOUS
 70
0
 71
3
 72
9
 73
5
 74
0
 42
0.0000001
 43
0.0000001
 44
0.0000000001
 40
0.0
 40
0.0
 40
0.0
 40
0.0
 40
0.2579020321
 40
1.0
 40
1.0
 40
1.0
 40
1.0
 10
632.0488329522
 20
290.2006083361
 30
0.0
 10
631.9992915528
 20
290.22744952
 30
0.0
 10
631.8054479216
 20
290.3282300671
 30
0.0
 10
631.6044305491
 20
290.4154649518
 30
0.0
 10
631.4519441035
 20
290.4705482617
 30
0.0
  0
SPLINE
  5
340
100
AcDbEntity
  8
0
100
AcDbSpline
 62
7
  6
CONTINUOUS
 70
0
 71
3
 72
9
 73
5
 74
0
 42
0.0000001
 43
0.0000001
 44
0.0000000001
 40
0.0
 40
0.0
 40
0.0
 40
0.0
 40
0.2396655327
 40
1.0
 40
1.0
 40
1.0
 40
1.0
 10
633.0572227024
 20
290.214929007
 30
0.0
 10
633.0102664537
 20
290.1955430964
 30
0.0
 10
632.8157539415
 20
290.1112492988
 30
0.0
 10
632.6268818763
 20
290.0141762347
 30
0.0
 10
632.4865420974
 20
289.9349386914
 30
0.0
  0
SPLINE
  5
341
100
AcDbEntity
  8
0
100
AcDbSpline
 62
7
  6
CONTINUOUS
 70
0
 71
3
 72
9
 73
5
 74
0
 42
0.0000001
 43
0.0000001
 44
0.0000000001
 40
0.0
 40
0.0
 40
0.0
 40
0.0
 40
0.2444230691
 40
1.0
 40
1.0
 40
1.0
 40
1.0
 10
631.4519441035
 20
290.4705482617
 30
0.0
 10
631.4112978374
 20
290.4457987331
 30
0.0
 10
631.2467558295
 20
290.3416784501
 30
0.0
 10
631.0892664319
 20
290.2265140836
 30
0.0
 10
630.9744933911
 20
290.1344919929
 30
0.0
  0
SPLINE
  5
342
100
AcDbEntity
  8
0
100
AcDbSpline
 62
7
  6
CONTINUOUS
 70
0
 71
3
 72
9
 73
5
 74
0
 42
0.0000001
 43
0.0000001
 44
0.0000000001
 40
0.0
 40
0.0
 40
0.0
 40
0.0
 40
0.4814000188
 40
1.0
 40
1.0
 40
1.0
 40
1.0
 10
630.9744933911
 20
290.1344919929
 30
0.0
 10
630.6281714646
 20
289.8568199235
 30
0.0
 10
629.9842068905
 20
289.1837773595
 30
0.0
 10
629.4931591114
 20
288.3960188081
 30
0.0
 10
629.2784227662
 20
287.968750735
 30
0.0
  0
SPLINE
  5
343
100
AcDbEntity
  8
0
100
AcDbSpline
 62
7
  6
CONTINUOUS
 70
0
 71
3
 72
13
 73
9
 74
0
 42
0.0000001
 43
0.0000001
 44
0.0000000001
 40
0.0
 40
0.0
 40
0.0
 40
0.0
 40
0.0901704342
 40
0.1850653431
 40
0.2886171883
 40
0.4036208315
 40
0.6735231832
 40
1.0
 40
1.0
 40
1.0
 40
1.0
 10
626.3069496042
 20
287.5525416178
 30
0.0
 10
626.3150324126
 20
287.4895667655
 30
0.0
 10
626.3484790734
 20
287.3619459485
 30
0.0
 10
626.446725703
 20
287.1821663588
 30
0.0
 10
626.5910479263
 20
287.0134404864
 30
0.0
 10
626.8566126114
 20
286.7928584556
 30
0.0
 10
627.3042735366
 20
286.5578017175
 30
0.0
 10
627.7053662763
 20
286.4291319017
 30
0.0
 10
627.9279143221
 20
286.371532229
 30
0.0
  0
SPLINE
  5
344
100
AcDbEntity
  8
0
100
AcDbSpline
 62
7
  6
CONTINUOUS
 70
0
 71
3
 72
9
 73
5
 74
0
 42
0.0000001
 43
0.0000001
 44
0.0000000001
 40
0.0
 40
0.0
 40
0.0
 40
0.0
 40
0.2487187052
 40
1.0
 40
1.0
 40
1.0
 40
1.0
 10
633.7425599604
 20
290.8293585133
 30
0.0
 10
633.707225266
 20
290.8422578337
 30
0.0
 10
633.5637415503
 20
290.8901732215
 30
0.0
 10
633.4149296329
 20
290.921975081
 30
0.0
 10
633.3022729686
 20
290.9367539207
 30
0.0
  0
SPLINE
  5
345
100
AcDbEntity
  8
0
100
AcDbSpline
 62
7
  6
CONTINUOUS
 70
0
 71
3
 72
9
 73
5
 74
0
 42
0.0000001
 43
0.0000001
 44
0.0000000001
 40
0.0
 40
0.0
 40
0.0
 40
0.0
 40
0.4822215953
 40
1.0
 40
1.0
 40
1.0
 40
1.0
 10
633.3022729686
 20
290.9367539207
 30
0.0
 10
633.1032049464
 20
290.9628686154
 30
0.0
 10
632.6813284756
 20
290.9581090202
 30
0.0
 10
632.275051735
 20
290.8507355844
 30
0.0
 10
632.0731016727
 20
290.7753038506
 30
0.0
  0
SPLINE
  5
346
100
AcDbEntity
  8
0
100
AcDbSpline
 62
7
  6
CONTINUOUS
 70
0
 71
3
 72
14
 73
10
 74
0
 42
0.0000001
 43
0.0000001
 44
0.0000000001
 40
0.0
 40
0.0
 40
0.0
 40
0.0
 40
0.0797815609
 40
0.1667091812
 40
0.2660406157
 40
0.3807323859
 40
0.5119498057
 40
0.6596347279
 40
1.0
 40
1.0
 40
1.0
 40
1.0
 10
637.2174254127
 20
288.9529053364
 30
0.0
 10
637.2282285836
 20
288.8687355713
 30
0.0
 10
637.219792416
 20
288.6877783748
 30
0.0
 10
637.1187668291
 20
288.4197620983
 30
0.0
 10
636.936351076
 20
288.1539150583
 30
0.0
 10
636.6768869988
 20
287.8920428582
 30
0.0
 10
636.344127227
 20
287.6363716981
 30
0.0
 10
635.7817779481
 20
287.2917768859
 30
0.0
 10
635.3053065255
 20
287.0794826734
 30
0.0
 10
634.9671258153
 20
286.9502505686
 30
0.0
  0
SPLINE
  5
347
100
AcDbEntity
  8
0
100
AcDbSpline
 62
7
  6
CONTINUOUS
 70
0
 71
3
 72
12
 73
8
 74
0
 42
0.0000001
 43
0.0000001
 44
0.0000000001
 40
0.0
 40
0.0
 40
0.0
 40
0.0
 40
0.2502737849
 40
0.518812736
 40
0.7774311358
 40
0.8946633323
 40
1.0
 40
1.0
 40
1.0
 40
1.0
 10
634.9671258153
 20
286.9502505686
 30
0.0
 10
634.4098778292
 20
286.7373042711
 30
0.0
 10
633.2143161327
 20
286.3997729735
 30
0.0
 10
631.3772550652
 20
286.1294075813
 30
0.0
 10
629.8357995319
 20
286.0971053524
 30
0.0
 10
628.6931629482
 20
286.2082124934
 30
0.0
 10
628.1709842091
 20
286.3086211129
 30
0.0
 10
627.9279143221
 20
286.371532229
 30
0.0
  0
SPLINE
  5
348
100
AcDbEntity
  8
0
100
AcDbSpline
 62
7
  6
CONTINUOUS
 70
0
 71
3
 72
9
 73
5
 74
0
 42
0.0000001
 43
0.0000001
 44
0.0000000001
 40
0.0
 40
0.0
 40
0.0
 40
0.0
 40
0.4926502279
 40
1.0
 40
1.0
 40
1.0
 40
1.0
 10
630.4846051164
 20
290.880771434
 30
0.0
 10
630.6373926966
 20
290.9229641563
 30
0.0
 10
630.9576087104
 20
290.9752959269
 30
0.0
 10
631.2813702941
 20
290.9607534469
 30
0.0
 10
631.4430641417
 20
290.9383695627
 30
0.0
  0
SPLINE
  5
349
100
AcDbEntity
  8
0
100
AcDbSpline
 62
7
  6
CONTINUOUS
 70
0
 71
3
 72
15
 73
11
 74
0
 42
0.0000001
 43
0.0000001
 44
0.0000000001
 40
0.0
 40
0.0
 40
0.0
 40
0.0
 40
0.1175993848
 40
0.2198871905
 40
0.315723323
 40
0.4161766757
 40
0.5306963934
 40
0.6649377757
 40
0.8213660424
 40
1.0
 40
1.0
 40
1.0
 40
1.0
 10
628.0959658658
 20
289.2056391664
 30
0.0
 10
628.0481254413
 20
289.1440878632
 30
0.0
 10
627.9689985004
 20
289.0197295361
 30
0.0
 10
627.9103178953
 20
288.8148517919
 30
0.0
 10
627.9292717085
 20
288.6128383977
 30
0.0
 10
628.0255358219
 20
288.4259576662
 30
0.0
 10
628.1899648765
 20
288.2594648046
 30
0.0
 10
628.4167485372
 20
288.1127758655
 30
0.0
 10
628.7021584403
 20
287.9866745656
 30
0.0
 10
628.914970503
 20
287.9214572328
 30
0.0
 10
629.0296098176
 20
287.8917863948
 30
0.0
  0
SPLINE
  5
34A
100
AcDbEntity
  8
0
100
AcDbSpline
 62
7
  6
CONTINUOUS
 70
0
 71
3
 72
9
 73
5
 74
0
 42
0.0000001
 43
0.0000001
 44
0.0000000001
 40
0.0
 40
0.0
 40
0.0
 40
0.0
 40
0.2394487559
 40
1.0
 40
1.0
 40
1.0
 40
1.0
 10
632.0731016727
 20
290.7753038506
 30
0.0
 10
632.1578305923
 20
290.7432763357
 30
0.0
 10
632.5060365888
 20
290.5946907128
 30
0.0
 10
632.8293526999
 20
290.390570368
 30
0.0
 10
633.0572227024
 20
290.214929007
 30
0.0
  0
SPLINE
  5
34B
100
AcDbEntity
  8
0
100
AcDbSpline
 62
7
  6
CONTINUOUS
 70
0
 71
3
 72
13
 73
9
 74
0
 42
0.0000001
 43
0.0000001
 44
0.0000000001
 40
0.0
 40
0.0
 40
0.0
 40
0.0
 40
0.0901704342
 40
0.1850653431
 40
0.2886171883
 40
0.4036208315
 40
0.6735231832
 40
1.0
 40
1.0
 40
1.0
 40
1.0
 10
626.1886490858
 20
288.474234932
 30
0.0
 10
626.1967318943
 20
288.4112600797
 30
0.0
 10
626.230178555
 20
288.2836392627
 30
0.0
 10
626.3284251846
 20
288.103859673
 30
0.0
 10
626.4727474079
 20
287.9351338006
 30
0.0
 10
626.7383120931
 20
287.7145517698
 30
0.0
 10
627.1859730183
 20
287.4794950317
 30
0.0
 10
627.5870657579
 20
287.3508252159
 30
0.0
 10
627.8096138037
 20
287.2932255432
 30
0.0
  0
SPLINE
  5
34C
100
AcDbEntity
  8
0
100
AcDbSpline
 62
7
  6
CONTINUOUS
 70
0
 71
3
 72
21
 73
17
 74
0
 42
0.0000001
 43
0.0000001
 44
0.0000000001
 40
0.0
 40
0.0
 40
0.0
 40
0.0
 40
0.0377166565
 40
0.069973954
 40
0.101840254
 40
0.1385855749
 40
0.1833691358
 40
0.2372643382
 40
0.3000514248
 40
0.3707376696
 40
0.4478357426
 40
0.5295294606
 40
0.6984025625
 40
0.8604474169
 40
0.9339025184
 40
1.0
 40
1.0
 40
1.0
 40
1.0
 10
635.0689170408
 20
290.100625907
 30
0.0
 10
635.1446827689
 20
290.042446348
 30
0.0
 10
635.2748725595
 20
289.9171940447
 30
0.0
 10
635.3814169111
 20
289.6723994634
 30
0.0
 10
635.3577050563
 20
289.4084130884
 30
0.0
 10
635.2162706867
 20
289.1522242685
 30
0.0
 10
634.9753607425
 20
288.9046152799
 30
0.0
 10
634.6409046749
 20
288.6665589532
 30
0.0
 10
634.2211580705
 20
288.4430961095
 30
0.0
 10
633.727153572
 20
288.2402436084
 30
0.0
 10
633.1727590104
 20
288.0638782406
 30
0.0
 10
632.3654760816
 20
287.8690445046
 30
0.0
 10
631.3278365655
 20
287.7234303223
 30
0.0
 10
630.300242513
 20
287.7063465253
 30
0.0
 10
629.5394529202
 20
287.7824886423
 30
0.0
 10
629.1916772811
 20
287.8498402487
 30
0.0
 10
629.0296098176
 20
287.8917863948
 30
0.0
  0
SPLINE
  5
34D
100
AcDbEntity
  8
0
100
AcDbSpline
 62
7
  6
CONTINUOUS
 70
0
 71
3
 72
20
 73
16
 74
0
 42
0.0000001
 43
0.0000001
 44
0.0000000001
 40
0.0
 40
0.0
 40
0.0
 40
0.0
 40
0.029914578
 40
0.0636141903
 40
0.1035614298
 40
0.1508294021
 40
0.2055490358
 40
0.2672582325
 40
0.3351045615
 40
0.4079654644
 40
0.563289947
 40
0.7215912121
 40
0.8707532709
 40
0.938460509
 40
1.0
 40
1.0
 40
1.0
 40
1.0
 10
637.0991248944
 20
289.8745986506
 30
0.0
 10
637.1122540812
 20
289.7723064088
 30
0.0
 10
637.0926920283
 20
289.5470860453
 30
0.0
 10
636.9341572137
 20
289.2211877298
 30
0.0
 10
636.661217114
 20
288.9020650621
 30
0.0
 10
636.2805230914
 20
288.5917136751
 30
0.0
 10
635.799335202
 20
288.2945488474
 30
0.0
 10
635.2271958664
 20
288.0164564023
 30
0.0
 10
634.5761500679
 20
287.763384043
 30
0.0
 10
633.6008569766
 20
287.4605876825
 30
0.0
 10
632.2938249473
 20
287.1850945468
 30
0.0
 10
630.7037101917
 20
287.0251384782
 30
0.0
 10
629.4065029469
 20
287.0394112693
 30
0.0
 10
628.4525170048
 20
287.1516356198
 30
0.0
 10
628.0150051571
 20
287.2400663492
 30
0.0
 10
627.8096138037
 20
287.2932255432
 30
0.0
  0
SPLINE
  5
34E
100
AcDbEntity
  8
0
100
AcDbSpline
 62
7
  6
CONTINUOUS
 70
0
 71
3
 72
9
 73
5
 74
0
 42
0.0000001
 43
0.0000001
 44
0.0000000001
 40
0.0
 40
0.0
 40
0.0
 40
0.0
 40
0.5263359159
 40
1.0
 40
1.0
 40
1.0
 40
1.0
 10
628.8965851044
 20
288.067577594
 30
0.0
 10
629.0898854132
 20
288.6042834783
 30
0.0
 10
629.5923920821
 20
289.5826711658
 30
0.0
 10
630.3869664944
 20
290.3608992367
 30
0.0
 10
630.8219065725
 20
290.6336139738
 30
0.0
  0
SPLINE
  5
34F
100
AcDbEntity
  8
0
100
AcDbSpline
 62
7
  6
CONTINUOUS
 70
0
 71
3
 72
9
 73
5
 74
0
 42
0.0000001
 43
0.0000001
 44
0.0000000001
 40
0.0
 40
0.0
 40
0.0
 40
0.0
 40
0.5064205442
 40
1.0
 40
1.0
 40
1.0
 40
1.0
 10
631.4430641417
 20
290.9383695627
 30
0.0
 10
631.6544296404
 20
291.0146654175
 30
0.0
 10
632.0907507072
 20
291.1186449109
 30
0.0
 10
632.5398735247
 20
291.1107004983
 30
0.0
 10
632.7565685107
 20
291.0788987881
 30
0.0
  0
SPLINE
  5
350
100
AcDbEntity
  8
0
100
AcDbSpline
 62
7
  6
CONTINUOUS
 70
0
 71
3
 72
8
 73
4
 74
0
 42
0.0000001
 43
0.0000001
 44
0.0000000001
 40
0.0
 40
0.0
 40
0.0
 40
0.0
 40
1.0
 40
1.0
 40
1.0
 40
1.0
 10
988.7689473947
 20
294.630406646
 30
0.0
 10
988.7001697237
 20
294.4367272417
 30
0.0
 10
988.6060615039
 20
294.2497769062
 30
0.0
 10
988.4879664151
 20
294.0815638577
 30
0.0
  0
SPLINE
  5
351
100
AcDbEntity
  8
0
100
AcDbSpline
 62
7
  6
CONTINUOUS
 70
0
 71
3
 72
9
 73
5
 74
0
 42
0.0000001
 43
0.0000001
 44
0.0000000001
 40
0.0
 40
0.0
 40
0.0
 40
0.0
 40
0.5070860131
 40
1.0
 40
1.0
 40
1.0
 40
1.0
 10
988.4879664151
 20
294.0815638577
 30
0.0
 10
988.3668522907
 20
293.9090505356
 30
0.0
 10
988.0742215309
 20
293.6018413963
 30
0.0
 10
987.689140022
 20
293.4172534746
 30
0.0
 10
987.490787715
 20
293.365900622
 30
0.0
  0
SPLINE
  5
352
100
AcDbEntity
  8
0
100
AcDbSpline
 62
7
  6
CONTINUOUS
 70
0
 71
3
 72
9
 73
5
 74
0
 42
0.0000001
 43
0.0000001
 44
0.0000000001
 40
0.0
 40
0.0
 40
0.0
 40
0.0
 40
0.3899710985
 40
1.0
 40
1.0
 40
1.0
 40
1.0
 10
462.4786645944
 20
825.3668864244
 30
0.0
 10
462.4786645944
 20
825.3472615425
 30
0.0
 10
462.5097240278
 20
825.3000988726
 30
0.0
 10
462.5549297818
 20
825.2777469709
 30
0.0
 10
462.5828436994
 20
825.2649702213
 30
0.0
  0
SPLINE
  5
353
100
AcDbEntity
  8
0
100
AcDbSpline
 62
7
  6
CONTINUOUS
 70
0
 71
3
 72
9
 73
5
 74
0
 42
0.0000001
 43
0.0000001
 44
0.0000000001
 40
0.0
 40
0.0
 40
0.0
 40
0.0
 40
0.46455881
 40
1.0
 40
1.0
 40
1.0
 40
1.0
 10
462.5828436994
 20
825.2649702213
 30
0.0
 10
462.6022403804
 20
825.2560919785
 30
0.0
 10
462.6451716945
 20
825.2395484735
 30
0.0
 10
462.6892794157
 20
825.226636811
 30
0.0
 10
462.7130819459
 20
825.2204762628
 30
0.0
  0
SPLINE
  5
354
100
AcDbEntity
  8
0
100
AcDbSpline
 62
7
  6
CONTINUOUS
 70
0
 71
3
 72
9
 73
5
 74
0
 42
0.0000001
 43
0.0000001
 44
0.0000000001
 40
0.0
 40
0.0
 40
0.0
 40
0.0
 40
0.3899710985
 40
1.0
 40
1.0
 40
1.0
 40
1.0
 10
887.3529893656
 20
834.0782910344
 30
0.0
 10
887.3529893656
 20
834.0586661526
 30
0.0
 10
887.3219299322
 20
834.0115034827
 30
0.0
 10
887.2767241782
 20
833.989151581
 30
0.0
 10
887.2488102606
 20
833.9763748314
 30
0.0
  0
SPLINE
  5
355
100
AcDbEntity
  8
0
100
AcDbSpline
 62
7
  6
CONTINUOUS
 70
0
 71
3
 72
9
 73
5
 74
0
 42
0.0000001
 43
0.0000001
 44
0.0000000001
 40
0.0
 40
0.0
 40
0.0
 40
0.0
 40
0.46455881
 40
1.0
 40
1.0
 40
1.0
 40
1.0
 10
887.2488102606
 20
833.9763748314
 30
0.0
 10
887.2294135796
 20
833.9674965886
 30
0.0
 10
887.1864822655
 20
833.9509530835
 30
0.0
 10
887.1423745443
 20
833.938041421
 30
0.0
 10
887.1185720141
 20
833.9318808729
 30
0.0
  0
SPLINE
  5
356
100
AcDbEntity
  8
0
100
AcDbSpline
 62
7
  6
CONTINUOUS
 70
0
 71
3
 72
8
 73
4
 74
0
 42
0.0000001
 43
0.0000001
 44
0.0000000001
 40
0.0
 40
0.0
 40
0.0
 40
0.0
 40
1.0
 40
1.0
 40
1.0
 40
1.0
 10
693.0884712565
 20
880.9661452592
 30
0.0
 10
693.2861719386
 20
880.9149765574
 30
0.0
 10
693.4720471479
 20
880.8088647253
 30
0.0
 10
693.6296673566
 20
880.6790199504
 30
0.0
  0
SPLINE
  5
357
100
AcDbEntity
  8
0
100
AcDbSpline
 62
7
  6
CONTINUOUS
 70
0
 71
3
 72
8
 73
4
 74
0
 42
0.0000001
 43
0.0000001
 44
0.0000000001
 40
0.0
 40
0.0
 40
0.0
 40
0.0
 40
1.0
 40
1.0
 40
1.0
 40
1.0
 10
693.6296673566
 20
880.6790199504
 30
0.0
 10
693.8114865061
 20
880.5292405108
 30
0.0
 10
693.9650023231
 20
880.3421177764
 30
0.0
 10
694.0884712565
 20
880.1414999653
 30
0.0
  0
SPLINE
  5
358
100
AcDbEntity
  8
0
100
AcDbSpline
 62
7
  6
CONTINUOUS
 70
0
 71
3
 72
8
 73
4
 74
0
 42
0.0000001
 43
0.0000001
 44
0.0000000001
 40
0.0
 40
0.0
 40
0.0
 40
0.0
 40
1.0
 40
1.0
 40
1.0
 40
1.0
 10
694.0884712565
 20
880.1414999653
 30
0.0
 10
694.1550816718
 20
880.0332684018
 30
0.0
 10
694.2136879878
 20
879.9197799324
 30
0.0
 10
694.2643125656
 20
879.8032116224
 30
0.0
  0
SPLINE
  5
359
100
AcDbEntity
  8
0
100
AcDbSpline
 62
7
  6
CONTINUOUS
 70
0
 71
3
 72
8
 73
4
 74
0
 42
0.0000001
 43
0.0000001
 44
0.0000000001
 40
0.0
 40
0.0
 40
0.0
 40
0.0
 40
1.0
 40
1.0
 40
1.0
 40
1.0
 10
694.2643125656
 20
879.8032116224
 30
0.0
 10
694.4183009933
 20
879.4486373904
 30
0.0
 10
694.5026848189
 20
879.0548368537
 30
0.0
 10
694.5026848189
 20
878.6682682028
 30
0.0
  0
SPLINE
  5
35A
100
AcDbEntity
  8
0
100
AcDbSpline
 62
7
  6
CONTINUOUS
 70
0
 71
3
 72
8
 73
4
 74
0
 42
0.0000001
 43
0.0000001
 44
0.0000000001
 40
0.0
 40
0.0
 40
0.0
 40
0.0
 40
1.0
 40
1.0
 40
1.0
 40
1.0
 10
685.5931393759
 20
882.9060798993
 30
0.0
 10
685.5199159656
 20
882.9250315124
 30
0.0
 10
685.4407039362
 20
882.9465790095
 30
0.0
 10
685.3860841398
 20
882.9989002223
 30
0.0
  0
SPLINE
  5
35B
100
AcDbEntity
  8
0
100
AcDbSpline
 62
7
  6
CONTINUOUS
 70
0
 71
3
 72
9
 73
5
 74
0
 42
0.0000001
 43
0.0000001
 44
0.0000000001
 40
0.0
 40
0.0
 40
0.0
 40
0.0
 40
0.5464674848
 40
1.0
 40
1.0
 40
1.0
 40
1.0
 10
685.3860841398
 20
882.9989002223
 30
0.0
 10
685.3780017457
 20
883.0066424823
 30
0.0
 10
685.3645218154
 20
883.02261271
 30
0.0
 10
685.3587220244
 20
883.0432011749
 30
0.0
 10
685.3587220244
 20
883.0524900608
 30
0.0
  0
SPLINE
  5
35C
100
AcDbEntity
  8
0
100
AcDbSpline
 62
7
  6
CONTINUOUS
 70
0
 71
3
 72
9
 73
5
 74
0
 42
0.0000001
 43
0.0000001
 44
0.0000000001
 40
0.0
 40
0.0
 40
0.0
 40
0.0
 40
0.2166594466
 40
1.0
 40
1.0
 40
1.0
 40
1.0
 10
657.5210001628
 20
774.8004768915
 30
0.0
 10
657.5608344744
 20
774.790167013
 30
0.0
 10
657.7471097669
 20
774.7521798952
 30
0.0
 10
657.9379174515
 20
774.7398052165
 30
0.0
 10
658.0866855878
 20
774.7398052165
 30
0.0
  0
SPLINE
  5
35D
100
AcDbEntity
  8
0
100
AcDbSpline
 62
7
  6
CONTINUOUS
 70
0
 71
3
 72
9
 73
5
 74
0
 42
0.0000001
 43
0.0000001
 44
0.0000000001
 40
0.0
 40
0.0
 40
0.0
 40
0.0
 40
0.7833405534
 40
1.0
 40
1.0
 40
1.0
 40
1.0
 10
658.0866855878
 20
774.7398052165
 30
0.0
 10
658.235453724
 20
774.7398052165
 30
0.0
 10
658.4262614086
 20
774.7521798952
 30
0.0
 10
658.6125367011
 20
774.790167013
 30
0.0
 10
658.6523710127
 20
774.8004768915
 30
0.0
  0
SPLINE
  5
35E
100
AcDbEntity
  8
0
100
AcDbSpline
 62
7
  6
CONTINUOUS
 70
0
 71
3
 72
8
 73
4
 74
0
 42
0.0000001
 43
0.0000001
 44
0.0000000001
 40
0.0
 40
0.0
 40
0.0
 40
0.0
 40
1.0
 40
1.0
 40
1.0
 40
1.0
 10
887.1185720141
 20
834.2247011959
 30
0.0
 10
887.1917954244
 20
834.2057495828
 30
0.0
 10
887.2710074538
 20
834.1842020857
 30
0.0
 10
887.3256272502
 20
834.1318808729
 30
0.0
  0
SPLINE
  5
35F
100
AcDbEntity
  8
0
100
AcDbSpline
 62
7
  6
CONTINUOUS
 70
0
 71
3
 72
9
 73
5
 74
0
 42
0.0000001
 43
0.0000001
 44
0.0000000001
 40
0.0
 40
0.0
 40
0.0
 40
0.0
 40
0.5464674848
 40
1.0
 40
1.0
 40
1.0
 40
1.0
 10
887.3256272502
 20
834.1318808729
 30
0.0
 10
887.3337096443
 20
834.1241386129
 30
0.0
 10
887.3471895746
 20
834.1081683851
 30
0.0
 10
887.3529893656
 20
834.0875799203
 30
0.0
 10
887.3529893656
 20
834.0782910344
 30
0.0
  0
SPLINE
  5
360
100
AcDbEntity
  8
0
100
AcDbSpline
 62
7
  6
CONTINUOUS
 70
0
 71
3
 72
8
 73
4
 74
0
 42
0.0000001
 43
0.0000001
 44
0.0000000001
 40
0.0
 40
0.0
 40
0.0
 40
0.0
 40
1.0
 40
1.0
 40
1.0
 40
1.0
 10
478.3401418101
 20
822.7212852344
 30
0.0
 10
478.3401418101
 20
823.1078538853
 30
0.0
 10
478.2557579846
 20
823.5016544219
 30
0.0
 10
478.1017695569
 20
823.8562286539
 30
0.0
  0
SPLINE
  5
361
100
AcDbEntity
  8
0
100
AcDbSpline
 62
7
  6
CONTINUOUS
 70
0
 71
3
 72
8
 73
4
 74
0
 42
0.0000001
 43
0.0000001
 44
0.0000000001
 40
0.0
 40
0.0
 40
0.0
 40
0.0
 40
1.0
 40
1.0
 40
1.0
 40
1.0
 10
478.1017695569
 20
823.8562286539
 30
0.0
 10
478.0511449791
 20
823.9727969639
 30
0.0
 10
477.9925386631
 20
824.0862854333
 30
0.0
 10
477.9259282478
 20
824.1945169969
 30
0.0
  0
SPLINE
  5
362
100
AcDbEntity
  8
0
100
AcDbSpline
 62
7
  6
CONTINUOUS
 70
0
 71
3
 72
9
 73
5
 74
0
 42
0.0000001
 43
0.0000001
 44
0.0000000001
 40
0.0
 40
0.0
 40
0.0
 40
0.0
 40
0.2687304421
 40
1.0
 40
1.0
 40
1.0
 40
1.0
 10
477.9259282478
 20
824.1945169969
 30
0.0
 10
477.8780940808
 20
824.2722400775
 30
0.0
 10
477.6851802752
 20
824.5512098915
 30
0.0
 10
477.4258318749
 20
824.7903301466
 30
0.0
 10
477.2069399857
 20
824.9076414099
 30
0.0
  0
SPLINE
  5
363
100
AcDbEntity
  8
0
100
AcDbSpline
 62
7
  6
CONTINUOUS
 70
0
 71
3
 72
8
 73
4
 74
0
 42
0.0000001
 43
0.0000001
 44
0.0000000001
 40
0.0
 40
0.0
 40
0.0
 40
0.0
 40
1.0
 40
1.0
 40
1.0
 40
1.0
 10
477.2069399857
 20
824.9076414099
 30
0.0
 10
477.1181149173
 20
824.9552456451
 30
0.0
 10
477.0234907472
 20
824.9939112578
 30
0.0
 10
476.9259282478
 20
825.0191622908
 30
0.0
  0
SPLINE
  5
364
100
AcDbEntity
  8
0
100
AcDbSpline
 62
7
  6
CONTINUOUS
 70
0
 71
3
 72
9
 73
5
 74
0
 42
0.0000001
 43
0.0000001
 44
0.0000000001
 40
0.0
 40
0.0
 40
0.0
 40
0.0
 40
0.2166594466
 40
1.0
 40
1.0
 40
1.0
 40
1.0
 10
469.4305963672
 20
826.9590969308
 30
0.0
 10
469.3907620556
 20
826.9694068093
 30
0.0
 10
469.2044867631
 20
827.0073939272
 30
0.0
 10
469.0136790785
 20
827.0197686059
 30
0.0
 10
468.8649109422
 20
827.0197686059
 30
0.0
  0
SPLINE
  5
365
100
AcDbEntity
  8
0
100
AcDbSpline
 62
7
  6
CONTINUOUS
 70
0
 71
3
 72
9
 73
5
 74
0
 42
0.0000001
 43
0.0000001
 44
0.0000000001
 40
0.0
 40
0.0
 40
0.0
 40
0.0
 40
0.7833405534
 40
1.0
 40
1.0
 40
1.0
 40
1.0
 10
468.8649109422
 20
827.0197686059
 30
0.0
 10
468.716142806
 20
827.0197686059
 30
0.0
 10
468.5253351213
 20
827.0073939272
 30
0.0
 10
468.3390598289
 20
826.9694068093
 30
0.0
 10
468.2992255173
 20
826.9590969308
 30
0.0
  0
SPLINE
  5
366
100
AcDbEntity
  8
0
100
AcDbSpline
 62
7
  6
CONTINUOUS
 70
0
 71
3
 72
8
 73
4
 74
0
 42
0.0000001
 43
0.0000001
 44
0.0000000001
 40
0.0
 40
0.0
 40
0.0
 40
0.0
 40
1.0
 40
1.0
 40
1.0
 40
1.0
 10
462.7130819459
 20
825.5132965859
 30
0.0
 10
462.6398585356
 20
825.4943449727
 30
0.0
 10
462.5606465062
 20
825.4727974756
 30
0.0
 10
462.5060267098
 20
825.4204762628
 30
0.0
  0
SPLINE
  5
367
100
AcDbEntity
  8
0
100
AcDbSpline
 62
7
  6
CONTINUOUS
 70
0
 71
3
 72
9
 73
5
 74
0
 42
0.0000001
 43
0.0000001
 44
0.0000000001
 40
0.0
 40
0.0
 40
0.0
 40
0.0
 40
0.5464674848
 40
1.0
 40
1.0
 40
1.0
 40
1.0
 10
462.5060267098
 20
825.4204762628
 30
0.0
 10
462.4979443157
 20
825.4127340029
 30
0.0
 10
462.4844643854
 20
825.3967637751
 30
0.0
 10
462.4786645944
 20
825.3761753102
 30
0.0
 10
462.4786645944
 20
825.3668864244
 30
0.0
  0
SPLINE
  5
368
100
AcDbEntity
  8
0
100
AcDbSpline
 62
7
  6
CONTINUOUS
 70
0
 71
3
 72
9
 73
5
 74
0
 42
0.0000001
 43
0.0000001
 44
0.0000000001
 40
0.0
 40
0.0
 40
0.0
 40
0.0
 40
0.3899710985
 40
1.0
 40
1.0
 40
1.0
 40
1.0
 10
685.3587220244
 20
883.0524900608
 30
0.0
 10
685.3587220244
 20
883.0721149426
 30
0.0
 10
685.3897814578
 20
883.1192776125
 30
0.0
 10
685.4349872118
 20
883.1416295142
 30
0.0
 10
685.4629011294
 20
883.1544062638
 30
0.0
  0
SPLINE
  5
369
100
AcDbEntity
  8
0
100
AcDbSpline
 62
7
  6
CONTINUOUS
 70
0
 71
3
 72
9
 73
5
 74
0
 42
0.0000001
 43
0.0000001
 44
0.0000000001
 40
0.0
 40
0.0
 40
0.0
 40
0.0
 40
0.46455881
 40
1.0
 40
1.0
 40
1.0
 40
1.0
 10
685.4629011294
 20
883.1544062638
 30
0.0
 10
685.4822978104
 20
883.1632845066
 30
0.0
 10
685.5252291245
 20
883.1798280117
 30
0.0
 10
685.5693368457
 20
883.1927396741
 30
0.0
 10
685.5931393759
 20
883.1989002223
 30
0.0
  0
SPLINE
  5
36A
100
AcDbEntity
  8
0
100
AcDbSpline
 62
7
  6
CONTINUOUS
 70
0
 71
3
 72
9
 73
5
 74
0
 42
0.0000001
 43
0.0000001
 44
0.0000000001
 40
0.0
 40
0.0
 40
0.0
 40
0.0
 40
0.2166594466
 40
1.0
 40
1.0
 40
1.0
 40
1.0
 10
691.1792829473
 20
884.6447005672
 30
0.0
 10
691.2191172589
 20
884.6550104457
 30
0.0
 10
691.4053925513
 20
884.6929975636
 30
0.0
 10
691.596200236
 20
884.7053722423
 30
0.0
 10
691.7449683722
 20
884.7053722423
 30
0.0
  0
SPLINE
  5
36B
100
AcDbEntity
  8
0
100
AcDbSpline
 62
7
  6
CONTINUOUS
 70
0
 71
3
 72
9
 73
5
 74
0
 42
0.0000001
 43
0.0000001
 44
0.0000000001
 40
0.0
 40
0.0
 40
0.0
 40
0.0
 40
0.7833405534
 40
1.0
 40
1.0
 40
1.0
 40
1.0
 10
691.7449683722
 20
884.7053722423
 30
0.0
 10
691.8937365085
 20
884.7053722423
 30
0.0
 10
692.0845441931
 20
884.6929975636
 30
0.0
 10
692.2708194856
 20
884.6550104457
 30
0.0
 10
692.3106537972
 20
884.6447005672
 30
0.0
  0
SPLINE
  5
36C
100
AcDbEntity
  8
0
100
AcDbSpline
 62
7
  6
CONTINUOUS
 70
0
 71
3
 72
9
 73
5
 74
0
 42
0.0000001
 43
0.0000001
 44
0.0000000001
 40
0.0
 40
0.0
 40
0.0
 40
0.0
 40
0.1935092034
 40
1.0
 40
1.0
 40
1.0
 40
1.0
 10
932.8271845098
 20
362.5174521407
 30
0.0
 10
932.8138846976
 20
362.507239592
 30
0.0
 10
932.7398072691
 20
362.4615158784
 30
0.0
 10
932.6552755418
 20
362.4364965935
 30
0.0
 10
932.5874862153
 20
362.4195061189
 30
0.0
  0
SPLINE
  5
36D
100
AcDbEntity
  8
0
100
AcDbSpline
 62
7
  6
CONTINUOUS
 70
0
 71
3
 72
9
 73
5
 74
0
 42
0.0000001
 43
0.0000001
 44
0.0000000001
 40
0.0
 40
0.0
 40
0.0
 40
0.0
 40
0.2116951721
 40
1.0
 40
1.0
 40
1.0
 40
1.0
 10
932.5874862153
 20
362.4195061189
 30
0.0
 10
932.5560039641
 20
362.4116155199
 30
0.0
 10
932.4061400885
 20
362.3789345014
 30
0.0
 10
932.2536005251
 20
362.3601242104
 30
0.0
 10
932.1332912127
 20
362.3486116127
 30
0.0
  0
SPLINE
  5
36E
100
AcDbEntity
  8
0
100
AcDbSpline
 62
7
  6
CONTINUOUS
 70
0
 71
3
 72
8
 73
4
 74
0
 42
0.0000001
 43
0.0000001
 44
0.0000000001
 40
0.0
 40
0.0
 40
0.0
 40
0.0
 40
1.0
 40
1.0
 40
1.0
 40
1.0
 10
932.1332912127
 20
362.3486116127
 30
0.0
 10
931.9479239965
 20
362.3308735163
 30
0.0
 10
931.761696116
 20
362.3217997703
 30
0.0
 10
931.5755436847
 20
362.3170125759
 30
0.0
  0
SPLINE
  5
36F
100
AcDbEntity
  8
0
100
AcDbSpline
 62
7
  6
CONTINUOUS
 70
0
 71
3
 72
8
 73
4
 74
0
 42
0.0000001
 43
0.0000001
 44
0.0000000001
 40
0.0
 40
0.0
 40
0.0
 40
0.0
 40
1.0
 40
1.0
 40
1.0
 40
1.0
 10
931.5755436847
 20
362.3170125759
 30
0.0
 10
931.3495633682
 20
362.3112011466
 30
0.0
 10
931.123381358
 20
362.3120429432
 30
0.0
 10
930.8973786063
 20
362.3169042591
 30
0.0
  0
SPLINE
  5
370
100
AcDbEntity
  8
0
100
AcDbSpline
 62
7
  6
CONTINUOUS
 70
0
 71
3
 72
9
 73
5
 74
0
 42
0.0000001
 43
0.0000001
 44
0.0000000001
 40
0.0
 40
0.0
 40
0.0
 40
0.0
 40
0.2617923032
 40
1.0
 40
1.0
 40
1.0
 40
1.0
 10
929.2711593296
 20
362.4106853901
 30
0.0
 10
928.9776079933
 20
362.4365492104
 30
0.0
 10
927.8579675387
 20
362.5522100313
 30
0.0
 10
926.742987606
 20
362.7220843019
 30
0.0
 10
925.9299876179
 20
362.893958642
 30
0.0
  0
SPLINE
  5
371
100
AcDbEntity
  8
0
100
AcDbSpline
 62
7
  6
CONTINUOUS
 70
0
 71
3
 72
8
 73
4
 74
0
 42
0.0000001
 43
0.0000001
 44
0.0000000001
 40
0.0
 40
0.0
 40
0.0
 40
0.0
 40
1.0
 40
1.0
 40
1.0
 40
1.0
 10
925.9299876179
 20
362.893958642
 30
0.0
 10
925.7102750397
 20
362.9404075411
 30
0.0
 10
925.4912322491
 20
362.99061309
 30
0.0
 10
925.2741967403
 20
363.0482906867
 30
0.0
  0
SPLINE
  5
372
100
AcDbEntity
  8
0
100
AcDbSpline
 62
7
  6
CONTINUOUS
 70
0
 71
3
 72
9
 73
5
 74
0
 42
0.0000001
 43
0.0000001
 44
0.0000000001
 40
0.0
 40
0.0
 40
0.0
 40
0.0
 40
0.1932632619
 40
1.0
 40
1.0
 40
1.0
 40
1.0
 10
654.1988462672
 20
303.8800233601
 30
0.0
 10
654.1523888029
 20
303.9428668317
 30
0.0
 10
653.8571985056
 20
304.2267841414
 30
0.0
 10
653.4552529764
 20
304.3615518496
 30
0.0
 10
653.1394340713
 20
304.443291797
 30
0.0
  0
SPLINE
  5
373
100
AcDbEntity
  8
0
100
AcDbSpline
 62
7
  6
CONTINUOUS
 70
0
 71
3
 72
10
 73
6
 74
0
 42
0.0000001
 43
0.0000001
 44
0.0000000001
 40
0.0
 40
0.0
 40
0.0
 40
0.0
 40
0.2135273265
 40
0.5134000604
 40
1.0
 40
1.0
 40
1.0
 40
1.0
 10
661.9745249083
 20
304.5701086713
 30
0.0
 10
661.8463735829
 20
304.3756379609
 30
0.0
 10
661.3866516425
 20
304.0210724098
 30
0.0
 10
660.3880981849
 20
303.5829130549
 30
0.0
 10
659.5533350086
 20
303.374213101
 30
0.0
 10
659.0277459996
 20
303.284233354
 30
0.0
  0
SPLINE
  5
374
100
AcDbEntity
  8
0
100
AcDbSpline
 62
7
  6
CONTINUOUS
 70
0
 71
3
 72
9
 73
5
 74
0
 42
0.0000001
 43
0.0000001
 44
0.0000000001
 40
0.0
 40
0.0
 40
0.0
 40
0.0
 40
0.3061917636
 40
1.0
 40
1.0
 40
1.0
 40
1.0
 10
663.0339371042
 20
305.3140424978
 30
0.0
 10
662.9118863686
 20
305.2614485128
 30
0.0
 10
662.5241256077
 20
305.0748030561
 30
0.0
 10
662.1402273575
 20
304.8215635266
 30
0.0
 10
661.9745249083
 20
304.5701086713
 30
0.0
  0
SPLINE
  5
375
100
AcDbEntity
  8
0
100
AcDbSpline
 62
7
  6
CONTINUOUS
 70
0
 71
3
 72
9
 73
5
 74
0
 42
0.0000001
 43
0.0000001
 44
0.0000000001
 40
0.0
 40
0.0
 40
0.0
 40
0.0
 40
0.4896711968
 40
1.0
 40
1.0
 40
1.0
 40
1.0
 10
884.5754835537
 20
362.6532140004
 30
0.0
 10
847.2428554478
 20
359.415763696
 30
0.0
 10
771.4732408354
 20
346.0676196961
 30
0.0
 10
698.8992946923
 20
320.7691077154
 30
0.0
 10
663.0339371042
 20
305.3140424978
 30
0.0
  0
SPLINE
  5
376
100
AcDbEntity
  8
0
100
AcDbSpline
 62
7
  6
CONTINUOUS
 70
0
 71
3
 72
9
 73
5
 74
0
 42
0.0000001
 43
0.0000001
 44
0.0000000001
 40
0.0
 40
0.0
 40
0.0
 40
0.0
 40
0.2765518247
 40
1.0
 40
1.0
 40
1.0
 40
1.0
 10
886.4633228743
 20
362.6720849971
 30
0.0
 10
886.2894062505
 20
362.6800323928
 30
0.0
 10
885.6603392356
 20
362.7005911571
 30
0.0
 10
885.0292141675
 20
362.6925610914
 30
0.0
 10
884.5754835537
 20
362.6532140004
 30
0.0
  0
SPLINE
  5
377
100
AcDbEntity
  8
0
100
AcDbSpline
 62
7
  6
CONTINUOUS
 70
0
 71
3
 72
9
 73
5
 74
0
 42
0.0000001
 43
0.0000001
 44
0.0000000001
 40
0.0
 40
0.0
 40
0.0
 40
0.0
 40
0.2715654097
 40
1.0
 40
1.0
 40
1.0
 40
1.0
 10
302.5829923315
 20
261.6207246944
 30
0.0
 10
302.4552500821
 20
261.5304127476
 30
0.0
 10
301.9948552144
 20
261.1847118725
 30
0.0
 10
301.5716466339
 20
260.783857162
 30
0.0
 10
301.3120215256
 20
260.4541782528
 30
0.0
  0
SPLINE
  5
378
100
AcDbEntity
  8
0
100
AcDbSpline
 62
7
  6
CONTINUOUS
 70
0
 71
3
 72
9
 73
5
 74
0
 42
0.0000001
 43
0.0000001
 44
0.0000000001
 40
0.0
 40
0.0
 40
0.0
 40
0.0
 40
0.2436379979
 40
1.0
 40
1.0
 40
1.0
 40
1.0
 10
457.1867176039
 20
350.6305347416
 30
0.0
 10
443.9577351508
 20
344.6914219603
 30
0.0
 10
390.302507915
 20
318.895120561
 30
0.0
 10
339.3257707234
 20
287.6314081091
 30
0.0
 10
302.5829923315
 20
261.6207246944
 30
0.0
  0
SPLINE
  5
379
100
AcDbEntity
  8
0
100
AcDbSpline
 62
7
  6
CONTINUOUS
 70
0
 71
3
 72
9
 73
5
 74
0
 42
0.0000001
 43
0.0000001
 44
0.0000000001
 40
0.0
 40
0.0
 40
0.0
 40
0.0
 40
0.4877683075
 40
1.0
 40
1.0
 40
1.0
 40
1.0
 10
468.5820682298
 20
352.2102529908
 30
0.0
 10
466.8645154434
 20
352.6547883629
 30
0.0
 10
463.1595563224
 20
352.7171078939
 30
0.0
 10
459.5385857122
 20
352.0632170313
 30
0.0
 10
457.8016221015
 20
351.3892722038
 30
0.0
  0
SPLINE
  5
37A
100
AcDbEntity
  8
0
100
AcDbSpline
 62
7
  6
CONTINUOUS
 70
0
 71
3
 72
9
 73
5
 74
0
 42
0.0000001
 43
0.0000001
 44
0.0000000001
 40
0.0
 40
0.0
 40
0.0
 40
0.0
 40
0.2838782093
 40
1.0
 40
1.0
 40
1.0
 40
1.0
 10
925.2741967403
 20
363.0482906867
 30
0.0
 10
925.199674227
 20
363.0672517846
 30
0.0
 10
924.9379373711
 20
363.1368652337
 30
0.0
 10
924.6786847079
 20
363.2172313768
 30
0.0
 10
924.4974857276
 20
363.2864867063
 30
0.0
  0
SPLINE
  5
37B
100
AcDbEntity
  8
0
100
AcDbSpline
 62
7
  6
CONTINUOUS
 70
0
 71
3
 72
8
 73
4
 74
0
 42
0.0000001
 43
0.0000001
 44
0.0000000001
 40
0.0
 40
0.0
 40
0.0
 40
0.0
 40
1.0
 40
1.0
 40
1.0
 40
1.0
 10
924.4974857276
 20
363.2864867063
 30
0.0
 10
924.4393646811
 20
363.3087009165
 30
0.0
 10
924.381700052
 20
363.3322087068
 30
0.0
 10
924.3249279989
 20
363.3576736075
 30
0.0
  0
SPLINE
  5
37C
100
AcDbEntity
  8
0
100
AcDbSpline
 62
7
  6
CONTINUOUS
 70
0
 71
3
 72
9
 73
5
 74
0
 42
0.0000001
 43
0.0000001
 44
0.0000000001
 40
0.0
 40
0.0
 40
0.0
 40
0.0
 40
0.2981540807
 40
1.0
 40
1.0
 40
1.0
 40
1.0
 10
924.3249279989
 20
363.3576736075
 30
0.0
 10
924.2947661273
 20
363.3712026067
 30
0.0
 10
924.1947213066
 20
363.418599002
 30
0.0
 10
924.0969328234
 20
363.4735860675
 30
0.0
 10
924.0367704925
 20
363.5229392745
 30
0.0
  0
SPLINE
  5
37D
100
AcDbEntity
  8
0
100
AcDbSpline
 62
7
  6
CONTINUOUS
 70
0
 71
3
 72
9
 73
5
 74
0
 42
0.0000001
 43
0.0000001
 44
0.0000000001
 40
0.0
 40
0.0
 40
0.0
 40
0.0
 40
0.5312582718
 40
1.0
 40
1.0
 40
1.0
 40
1.0
 10
924.0367704925
 20
363.5229392745
 30
0.0
 10
924.0258919467
 20
363.5318633158
 30
0.0
 10
924.0060227674
 20
363.5494277095
 30
0.0
 10
923.9879914254
 20
363.5689240798
 30
0.0
 10
923.9802163777
 20
363.5786027194
 30
0.0
  0
SPLINE
  5
37E
100
AcDbEntity
  8
0
100
AcDbSpline
 62
7
  6
CONTINUOUS
 70
0
 71
3
 72
9
 73
5
 74
0
 42
0.0000001
 43
0.0000001
 44
0.0000000001
 40
0.0
 40
0.0
 40
0.0
 40
0.0
 40
0.5123790318
 40
1.0
 40
1.0
 40
1.0
 40
1.0
 10
659.068221419
 20
167.5045608913
 30
0.0
 10
656.6727374526
 20
166.0673819971
 30
0.0
 10
651.4619438753
 20
164.1947499828
 30
0.0
 10
645.8961390731
 20
163.7110952527
 30
0.0
 10
643.2727235664
 20
164.1418841506
 30
0.0
  0
SPLINE
  5
37F
100
AcDbEntity
  8
0
100
AcDbSpline
 62
7
  6
CONTINUOUS
 70
0
 71
3
 72
8
 73
4
 74
0
 42
0.0000001
 43
0.0000001
 44
0.0000000001
 40
0.0
 40
0.0
 40
0.0
 40
0.0
 40
1.0
 40
1.0
 40
1.0
 40
1.0
 10
643.2727235664
 20
164.1418841506
 30
0.0
 10
642.9065063693
 20
164.2020203747
 30
0.0
 10
642.5422231116
 20
164.2768296606
 30
0.0
 10
642.182939955
 20
164.3698189841
 30
0.0
  0
SPLINE
  5
380
100
AcDbEntity
  8
0
100
AcDbSpline
 62
7
  6
CONTINUOUS
 70
0
 71
3
 72
13
 73
9
 74
0
 42
0.0000001
 43
0.0000001
 44
0.0000000001
 40
0.0
 40
0.0
 40
0.0
 40
0.0
 40
0.1163102059
 40
0.2339095577
 40
0.3535261192
 40
0.4758007291
 40
0.7300816847
 40
1.0
 40
1.0
 40
1.0
 40
1.0
 10
1202.8723176643
 20
308.6546849047
 30
0.0
 10
1180.9648618506
 20
312.6628270533
 30
0.0
 10
1136.4047076299
 20
318.2021031851
 30
0.0
 10
1068.5839898698
 20
318.9534369467
 30
0.0
 10
999.9446901426
 20
312.1853947571
 30
0.0
 10
906.7465649404
 20
292.97038674
 30
0.0
 10
789.94400185
 20
249.6166247436
 30
0.0
 10
703.099386077
 20
198.247938036
 30
0.0
 10
660.74713845
 20
168.624913601
 30
0.0
  0
SPLINE
  5
381
100
AcDbEntity
  8
0
100
AcDbSpline
 62
7
  6
CONTINUOUS
 70
0
 71
3
 72
9
 73
5
 74
0
 42
0.0000001
 43
0.0000001
 44
0.0000000001
 40
0.0
 40
0.0
 40
0.0
 40
0.0
 40
0.4795255742
 40
1.0
 40
1.0
 40
1.0
 40
1.0
 10
468.9246499644
 20
328.5829274567
 30
0.0
 10
468.2037186271
 20
328.2306303729
 30
0.0
 10
466.5713016291
 20
327.7709884475
 30
0.0
 10
464.8919118368
 20
327.6332766791
 30
0.0
 10
464.0217615624
 20
327.6700498736
 30
0.0
  0
SPLINE
  5
382
100
AcDbEntity
  8
0
100
AcDbSpline
 62
7
  6
CONTINUOUS
 70
0
 71
3
 72
9
 73
5
 74
0
 42
0.0000001
 43
0.0000001
 44
0.0000000001
 40
0.0
 40
0.0
 40
0.0
 40
0.0
 40
0.2782405561
 40
1.0
 40
1.0
 40
1.0
 40
1.0
 10
464.0217615624
 20
327.6700498736
 30
0.0
 10
463.890140076
 20
327.675612295
 30
0.0
 10
463.417965066
 20
327.7056829683
 30
0.0
 10
462.9452863591
 20
327.7723973363
 30
0.0
 10
462.6162644001
 20
327.864731859
 30
0.0
  0
SPLINE
  5
383
100
AcDbEntity
  8
0
100
AcDbSpline
 62
7
  6
CONTINUOUS
 70
0
 71
3
 72
9
 73
5
 74
0
 42
0.0000001
 43
0.0000001
 44
0.0000000001
 40
0.0
 40
0.0
 40
0.0
 40
0.0
 40
0.4795255742
 40
1.0
 40
1.0
 40
1.0
 40
1.0
 10
635.0947435433
 20
285.574942512
 30
0.0
 10
634.3738122059
 20
285.2226454282
 30
0.0
 10
632.7413952079
 20
284.7630035029
 30
0.0
 10
631.0620054157
 20
284.6252917344
 30
0.0
 10
630.1918551412
 20
284.6620649289
 30
0.0
  0
SPLINE
  5
384
100
AcDbEntity
  8
0
100
AcDbSpline
 62
7
  6
CONTINUOUS
 70
0
 71
3
 72
9
 73
5
 74
0
 42
0.0000001
 43
0.0000001
 44
0.0000000001
 40
0.0
 40
0.0
 40
0.0
 40
0.0
 40
0.2782405561
 40
1.0
 40
1.0
 40
1.0
 40
1.0
 10
630.1918551412
 20
284.6620649289
 30
0.0
 10
630.0602336548
 20
284.6676273503
 30
0.0
 10
629.5880586448
 20
284.6976980236
 30
0.0
 10
629.1153799379
 20
284.7644123916
 30
0.0
 10
628.7863579789
 20
284.8567469143
 30
0.0
  0
SPLINE
  5
385
100
AcDbEntity
  8
0
100
AcDbSpline
 62
7
  6
CONTINUOUS
 70
0
 71
3
 72
9
 73
5
 74
0
 42
0.0000001
 43
0.0000001
 44
0.0000000001
 40
0.0
 40
0.0
 40
0.0
 40
0.0
 40
0.2692461082
 40
1.0
 40
1.0
 40
1.0
 40
1.0
 10
302.4608405124
 20
252.5070395533
 30
0.0
 10
302.3977621517
 20
252.5344392399
 30
0.0
 10
302.1658426304
 20
252.6414366971
 30
0.0
 10
301.9433853683
 20
252.7697544793
 30
0.0
 10
301.790581077
 20
252.8769467598
 30
0.0
  0
SPLINE
  5
386
100
AcDbEntity
  8
0
100
AcDbSpline
 62
7
  6
CONTINUOUS
 70
0
 71
3
 72
9
 73
5
 74
0
 42
0.0000001
 43
0.0000001
 44
0.0000000001
 40
0.0
 40
0.0
 40
0.0
 40
0.0
 40
0.2869380528
 40
1.0
 40
1.0
 40
1.0
 40
1.0
 10
301.790581077
 20
252.8769467598
 30
0.0
 10
301.6750618474
 20
252.9579835523
 30
0.0
 10
301.2916591391
 20
253.2648119764
 30
0.0
 10
301.0035246139
 20
253.7036449
 30
0.0
 10
300.9148645204
 20
254.0429169674
 30
0.0
  0
SPLINE
  5
387
100
AcDbEntity
  8
0
100
AcDbSpline
 62
7
  6
CONTINUOUS
 70
0
 71
3
 72
9
 73
5
 74
0
 42
0.0000001
 43
0.0000001
 44
0.0000000001
 40
0.0
 40
0.0
 40
0.0
 40
0.0
 40
0.3051868189
 40
1.0
 40
1.0
 40
1.0
 40
1.0
 10
1206.3496846576
 20
308.1625710787
 30
0.0
 10
1206.2959891539
 20
308.1287608556
 30
0.0
 10
1206.0683165212
 20
308.1640051678
 30
0.0
 10
1205.8717490734
 20
308.1696121463
 30
0.0
 10
1205.7283266816
 20
308.186922567
 30
0.0
  0
SPLINE
  5
388
100
AcDbEntity
  8
0
100
AcDbSpline
 62
7
  6
CONTINUOUS
 70
0
 71
3
 72
9
 73
5
 74
0
 42
0.0000001
 43
0.0000001
 44
0.0000000001
 40
0.0
 40
0.0
 40
0.0
 40
0.0
 40
0.1869235021
 40
1.0
 40
1.0
 40
1.0
 40
1.0
 10
1205.7283266816
 20
308.186922567
 30
0.0
 10
1205.5979590835
 20
308.2026573343
 30
0.0
 10
1204.901843844
 20
308.2976264301
 30
0.0
 10
1204.2092593384
 20
308.4163756603
 30
0.0
 10
1203.6467399739
 20
308.5154992939
 30
0.0
  0
SPLINE
  5
389
100
AcDbEntity
  8
0
100
AcDbSpline
 62
7
  6
CONTINUOUS
 70
0
 71
3
 72
10
 73
6
 74
0
 42
0.0000001
 43
0.0000001
 44
0.0000000001
 40
0.0
 40
0.0
 40
0.0
 40
0.0
 40
0.0941842375
 40
0.2923755694
 40
1.0
 40
1.0
 40
1.0
 40
1.0
 10
1207.7113608782
 20
314.0286979898
 30
0.0
 10
1207.6920243828
 20
314.0596423905
 30
0.0
 10
1207.5787263175
 20
314.1064467043
 30
0.0
 10
1207.2321232502
 20
314.2537207076
 30
0.0
 10
1206.887278493
 20
314.3513653001
 30
0.0
 10
1206.6245955325
 20
314.4298241927
 30
0.0
  0
SPLINE
  5
38A
100
AcDbEntity
  8
0
100
AcDbSpline
 62
7
  6
CONTINUOUS
 70
0
 71
3
 72
9
 73
5
 74
0
 42
0.0000001
 43
0.0000001
 44
0.0000000001
 40
0.0
 40
0.0
 40
0.0
 40
0.0
 40
0.1972567933
 40
1.0
 40
1.0
 40
1.0
 40
1.0
 10
1206.6245955325
 20
314.4298241927
 30
0.0
 10
1206.4376812194
 20
314.4856522906
 30
0.0
 10
1205.4874899746
 20
314.7598686185
 30
0.0
 10
1204.5311420817
 20
315.0121635058
 30
0.0
 10
1203.7626069915
 20
315.211075024
 30
0.0
  0
SPLINE
  5
38B
100
AcDbEntity
  8
0
100
AcDbSpline
 62
7
  6
CONTINUOUS
 70
0
 71
3
 72
11
 73
7
 74
0
 42
0.0000001
 43
0.0000001
 44
0.0000000001
 40
0.0
 40
0.0
 40
0.0
 40
0.0
 40
0.0948510803
 40
0.3013419936
 40
0.613258886
 40
1.0
 40
1.0
 40
1.0
 40
1.0
 10
889.5225512088
 20
363.0629428251
 30
0.0
 10
889.5225687625
 20
362.9631798441
 30
0.0
 10
889.1596742492
 20
362.7773269734
 30
0.0
 10
888.5758050691
 20
362.7037881418
 30
0.0
 10
887.596954602
 20
362.6344027003
 30
0.0
 10
886.8696674973
 20
362.6535164357
 30
0.0
 10
886.4633228743
 20
362.6720849971
 30
0.0
  0
SPLINE
  5
38C
100
AcDbEntity
  8
0
100
AcDbSpline
 62
7
  6
CONTINUOUS
 70
0
 71
3
 72
8
 73
4
 74
0
 42
0.0000001
 43
0.0000001
 44
0.0000000001
 40
0.0
 40
0.0
 40
0.0
 40
0.0
 40
1.0
 40
1.0
 40
1.0
 40
1.0
 10
300.014586148
 20
257.4715653649
 30
0.0
 10
299.9348023374
 20
257.7755967977
 30
0.0
 10
299.945321346
 20
258.1097878323
 30
0.0
 10
300.022426954
 20
258.4145094985
 30
0.0
  0
SPLINE
  5
38D
100
AcDbEntity
  8
0
100
AcDbSpline
 62
7
  6
CONTINUOUS
 70
0
 71
3
 72
9
 73
5
 74
0
 42
0.0000001
 43
0.0000001
 44
0.0000000001
 40
0.0
 40
0.0
 40
0.0
 40
0.0
 40
0.2276497793
 40
1.0
 40
1.0
 40
1.0
 40
1.0
 10
300.022426954
 20
258.4145094985
 30
0.0
 10
300.04777119
 20
258.5146700192
 30
0.0
 10
300.1888728004
 20
258.9472156228
 30
0.0
 10
300.4351818072
 20
259.3396815687
 30
0.0
 10
300.6519317247
 20
259.615159004
 30
0.0
  0
SPLINE
  5
38E
100
AcDbEntity
  8
0
100
AcDbSpline
 62
7
  6
CONTINUOUS
 70
0
 71
3
 72
13
 73
9
 74
0
 42
0.0000001
 43
0.0000001
 44
0.0000000001
 40
0.0
 40
0.0
 40
0.0
 40
0.0
 40
0.1162921975
 40
0.2338813487
 40
0.3534945526
 40
0.4757710794
 40
0.7300657321
 40
1.0
 40
1.0
 40
1.0
 40
1.0
 10
1203.020068227
 20
309.5886407112
 30
0.0
 10
1181.0928902642
 20
313.5694887241
 30
0.0
 10
1136.4950129848
 20
319.0536251196
 30
0.0
 10
1068.6248822508
 20
319.7186584704
 30
0.0
 10
999.9408632986
 20
312.8626952107
 30
0.0
 10
906.6872676566
 20
293.5265218364
 30
0.0
 10
789.8295956408
 20
250.0189701617
 30
0.0
 10
702.9546675115
 20
198.5324821028
 30
0.0
 10
660.5886968472
 20
168.8510528596
 30
0.0
  0
SPLINE
  5
38F
100
AcDbEntity
  8
0
100
AcDbSpline
 62
7
  6
CONTINUOUS
 70
0
 71
3
 72
9
 73
5
 74
0
 42
0.0000001
 43
0.0000001
 44
0.0000000001
 40
0.0
 40
0.0
 40
0.0
 40
0.0
 40
0.5437049874
 40
1.0
 40
1.0
 40
1.0
 40
1.0
 10
932.8099534993
 20
362.7305517609
 30
0.0
 10
932.8434464493
 20
362.7005210467
 30
0.0
 10
932.9132050757
 20
362.6265633642
 30
0.0
 10
932.8571277952
 20
362.5404447405
 30
0.0
 10
932.8271845098
 20
362.5174521407
 30
0.0
  0
SPLINE
  5
390
100
AcDbEntity
  8
0
100
AcDbSpline
 62
7
  6
CONTINUOUS
 70
0
 71
3
 72
10
 73
6
 74
0
 42
0.0000001
 43
0.0000001
 44
0.0000000001
 40
0.0
 40
0.0
 40
0.0
 40
0.0
 40
0.6877989884
 40
0.8897071146
 40
1.0
 40
1.0
 40
1.0
 40
1.0
 10
887.9603664614
 20
363.7384820598
 30
0.0
 10
888.351209837
 20
363.652548437
 30
0.0
 10
888.8647924367
 20
363.5169015922
 30
0.0
 10
889.3785817291
 20
363.2796394864
 30
0.0
 10
889.5225399176
 20
363.1271140188
 30
0.0
 10
889.5225512088
 20
363.0629428251
 30
0.0
  0
SPLINE
  5
391
100
AcDbEntity
  8
0
100
AcDbSpline
 62
7
  6
CONTINUOUS
 70
0
 71
3
 72
9
 73
5
 74
0
 42
0.0000001
 43
0.0000001
 44
0.0000000001
 40
0.0
 40
0.0
 40
0.0
 40
0.0
 40
0.5096152546
 40
1.0
 40
1.0
 40
1.0
 40
1.0
 10
657.8499710219
 20
167.2432477711
 30
0.0
 10
655.6981861817
 20
166.1783302468
 30
0.0
 10
651.1870864167
 20
164.6674366611
 30
0.0
 10
646.4383776299
 20
164.1697975236
 30
0.0
 10
644.1326538601
 20
164.3148595343
 30
0.0
  0
SPLINE
  5
392
100
AcDbEntity
  8
0
100
AcDbSpline
 62
7
  6
CONTINUOUS
 70
0
 71
3
 72
9
 73
5
 74
0
 42
0.0000001
 43
0.0000001
 44
0.0000000001
 40
0.0
 40
0.0
 40
0.0
 40
0.0
 40
0.2609783975
 40
1.0
 40
1.0
 40
1.0
 40
1.0
 10
644.1326538601
 20
164.3148595343
 30
0.0
 10
643.9641414471
 20
164.3254613027
 30
0.0
 10
643.3190497838
 20
164.3747183625
 30
0.0
 10
642.6764004644
 20
164.4590734478
 30
0.0
 10
642.2060342519
 20
164.5448639475
 30
0.0
  0
SPLINE
  5
393
100
AcDbEntity
  8
0
100
AcDbSpline
 62
7
  6
CONTINUOUS
 70
0
 71
3
 72
11
 73
7
 74
0
 42
0.0000001
 43
0.0000001
 44
0.0000000001
 40
0.0
 40
0.0
 40
0.0
 40
0.0
 40
0.2364015202
 40
0.4965147801
 40
0.7514384263
 40
1.0
 40
1.0
 40
1.0
 40
1.0
 10
659.6881509151
 20
172.2808609124
 30
0.0
 10
658.3849104332
 20
171.3677500536
 30
0.0
 10
655.3961993116
 20
169.8081283359
 30
0.0
 10
650.5521382883
 20
168.274922376
 30
0.0
 10
645.44707816
 20
167.5525677269
 30
0.0
 10
642.0064232222
 20
167.7567209096
 30
0.0
 10
640.386651849
 20
168.1759485897
 30
0.0
  0
SPLINE
  5
394
100
AcDbEntity
  8
0
100
AcDbSpline
 62
7
  6
CONTINUOUS
 70
0
 71
3
 72
11
 73
7
 74
0
 42
0.0000001
 43
0.0000001
 44
0.0000000001
 40
0.0
 40
0.0
 40
0.0
 40
0.0
 40
0.0836310625
 40
0.2819606691
 40
0.5910874778
 40
1.0
 40
1.0
 40
1.0
 40
1.0
 10
1207.5517447202
 20
308.9126879993
 30
0.0
 10
1207.4822055868
 20
308.8692961359
 30
0.0
 10
1207.1799174973
 20
308.9254956791
 30
0.0
 10
1206.6258094441
 20
308.9569683598
 30
0.0
 10
1205.7267314117
 20
309.1128026061
 30
0.0
 10
1205.0365553866
 20
309.2253952001
 30
0.0
 10
1204.6418765349
 20
309.2950302862
 30
0.0
  0
SPLINE
  5
395
100
AcDbEntity
  8
0
100
AcDbSpline
 62
7
  6
CONTINUOUS
 70
0
 71
3
 72
9
 73
5
 74
0
 42
0.0000001
 43
0.0000001
 44
0.0000000001
 40
0.0
 40
0.0
 40
0.0
 40
0.0
 40
0.5660396842
 40
1.0
 40
1.0
 40
1.0
 40
1.0
 10
302.3896104418
 20
255.6560200942
 30
0.0
 10
301.8243165983
 20
255.802328907
 30
0.0
 10
300.8317176972
 20
256.1664968372
 30
0.0
 10
300.128215903
 20
257.0385575033
 30
0.0
 10
300.014586148
 20
257.4715653649
 30
0.0
  0
SPLINE
  5
396
100
AcDbEntity
  8
0
100
AcDbSpline
 62
7
  6
CONTINUOUS
 70
0
 71
3
 72
9
 73
5
 74
0
 42
0.0000001
 43
0.0000001
 44
0.0000000001
 40
0.0
 40
0.0
 40
0.0
 40
0.0
 40
0.2744585048
 40
1.0
 40
1.0
 40
1.0
 40
1.0
 10
301.3120215256
 20
260.4541782528
 30
0.0
 10
301.2453240324
 20
260.3694839914
 30
0.0
 10
301.0147723955
 20
260.0520579348
 30
0.0
 10
300.8359781756
 20
259.691491265
 30
0.0
 10
300.7648329451
 20
259.4155310876
 30
0.0
  0
SPLINE
  5
397
100
AcDbEntity
  8
0
100
AcDbSpline
 62
7
  6
CONTINUOUS
 70
0
 71
3
 72
9
 73
5
 74
0
 42
0.0000001
 43
0.0000001
 44
0.0000000001
 40
0.0
 40
0.0
 40
0.0
 40
0.0
 40
0.4836718146
 40
1.0
 40
1.0
 40
1.0
 40
1.0
 10
300.7648329451
 20
259.4155310876
 30
0.0
 10
300.6795944231
 20
259.0849054431
 30
0.0
 10
300.7019089408
 20
258.3158714701
 30
0.0
 10
301.2279936302
 20
257.7677117458
 30
0.0
 10
301.5270799525
 20
257.5593850849
 30
0.0
  0
SPLINE
  5
398
100
AcDbEntity
  8
0
100
AcDbSpline
 62
7
  6
CONTINUOUS
 70
0
 71
3
 72
9
 73
5
 74
0
 42
0.0000001
 43
0.0000001
 44
0.0000000001
 40
0.0
 40
0.0
 40
0.0
 40
0.0
 40
0.2268000818
 40
1.0
 40
1.0
 40
1.0
 40
1.0
 10
301.5270799525
 20
257.5593850849
 30
0.0
 10
301.6157251358
 20
257.4976398506
 30
0.0
 10
302.0229188778
 20
257.248826764
 30
0.0
 10
302.4780878139
 20
257.0861768055
 30
0.0
 10
302.8346314006
 20
256.9938965349
 30
0.0
  0
SPLINE
  5
399
100
AcDbEntity
  8
0
100
AcDbSpline
 62
7
  6
CONTINUOUS
 70
0
 71
3
 72
13
 73
9
 74
0
 42
0.0000001
 43
0.0000001
 44
0.0000000001
 40
0.0
 40
0.0
 40
0.0
 40
0.0
 40
0.2699537743
 40
0.524244035
 40
0.6465139722
 40
0.7661205334
 40
0.8837059176
 40
1.0
 40
1.0
 40
1.0
 40
1.0
 10
659.6881477281
 20
172.2808617697
 30
0.0
 10
702.2550595253
 20
202.1065214375
 30
0.0
 10
789.5479126848
 20
253.8298643839
 30
0.0
 10
906.9773291597
 20
297.4976461318
 30
0.0
 10
1000.6807559328
 20
316.8592686991
 30
0.0
 10
1069.6916163698
 20
323.6854781508
 30
0.0
 10
1137.8793407346
 20
322.9411650202
 30
0.0
 10
1182.6801203403
 20
317.3730638715
 30
0.0
 10
1204.7051109013
 20
313.3416317428
 30
0.0
  0
SPLINE
  5
39A
100
AcDbEntity
  8
0
100
AcDbSpline
 62
7
  6
CONTINUOUS
 70
0
 71
3
 72
11
 73
7
 74
0
 42
0.0000001
 43
0.0000001
 44
0.0000000001
 40
0.0
 40
0.0
 40
0.0
 40
0.0
 40
0.4384891559
 40
0.7582077474
 40
0.9466147046
 40
1.0
 40
1.0
 40
1.0
 40
1.0
 10
1204.2231413436
 20
314.4986360601
 30
0.0
 10
1204.7310282172
 20
314.4056382315
 30
0.0
 10
1205.5593430289
 20
314.2542041592
 30
0.0
 10
1206.8158535913
 20
314.0634146913
 30
0.0
 10
1207.2114845527
 20
314.0080844415
 30
0.0
 10
1207.7446732323
 20
313.9753878725
 30
0.0
 10
1207.7113608782
 20
314.0286979898
 30
0.0
  0
SPLINE
  5
39B
100
AcDbEntity
  8
0
100
AcDbSpline
 62
7
  6
CONTINUOUS
 70
0
 71
3
 72
13
 73
9
 74
0
 42
0.0000001
 43
0.0000001
 44
0.0000000001
 40
0.0
 40
0.0
 40
0.0
 40
0.0
 40
0.1162939279
 40
0.2338791397
 40
0.3534855292
 40
0.4757553601
 40
0.7300456794
 40
1.0
 40
1.0
 40
1.0
 40
1.0
 10
1204.2231413436
 20
314.4986360601
 30
0.0
 10
1182.179951552
 20
318.5333993577
 30
0.0
 10
1137.3422933377
 20
324.1070745577
 30
0.0
 10
1069.0981966473
 20
324.852300373
 30
0.0
 10
1000.0302722046
 20
318.0208504344
 30
0.0
 10
906.2493140469
 20
298.6432836073
 30
0.0
 10
788.7225799962
 20
254.9391571944
 30
0.0
 10
701.3581303938
 20
203.1717305856
 30
0.0
 10
658.7559028516
 20
173.3213258736
 30
0.0
  0
SPLINE
  5
39C
100
AcDbEntity
  8
0
100
AcDbSpline
 62
7
  6
CONTINUOUS
 70
0
 71
3
 72
11
 73
7
 74
0
 42
0.0000001
 43
0.0000001
 44
0.0000000001
 40
0.0
 40
0.0
 40
0.0
 40
0.0
 40
0.2242172529
 40
0.4858646251
 40
0.7551761841
 40
1.0
 40
1.0
 40
1.0
 40
1.0
 10
640.8316642441
 20
169.5138272469
 30
0.0
 10
642.1885928584
 20
169.1626282786
 30
0.0
 10
645.2603349767
 20
168.9285015249
 30
0.0
 10
649.9635960377
 20
169.5247120693
 30
0.0
 10
654.6207063371
 20
170.9539761215
 30
0.0
 10
657.5030129489
 20
172.4423680195
 30
0.0
 10
658.7559028516
 20
173.3213258736
 30
0.0
  0
SPLINE
  5
39D
100
AcDbEntity
  8
0
100
AcDbSpline
 62
7
  6
CONTINUOUS
 70
0
 71
3
 72
11
 73
7
 74
0
 42
0.0000001
 43
0.0000001
 44
0.0000000001
 40
0.0
 40
0.0
 40
0.0
 40
0.0
 40
0.0689726516
 40
0.2569911493
 40
0.5695392703
 40
1.0
 40
1.0
 40
1.0
 40
1.0
 10
1208.4618004913
 20
312.8194880654
 30
0.0
 10
1208.4531190777
 20
312.7816755716
 30
0.0
 10
1208.2472342272
 20
312.8024770892
 30
0.0
 10
1207.9835482224
 20
312.8024945326
 30
0.0
 10
1207.4319853988
 20
312.8832050799
 30
0.0
 10
1207.0292498673
 20
312.9417561727
 30
0.0
 10
1206.7901479345
 20
312.9799229148
 30
0.0
  0
SPLINE
  5
39E
100
AcDbEntity
  8
0
100
AcDbSpline
 62
7
  6
CONTINUOUS
 70
0
 71
3
 72
9
 73
5
 74
0
 42
0.0000001
 43
0.0000001
 44
0.0000000001
 40
0.0
 40
0.0
 40
0.0
 40
0.0
 40
0.4783742305
 40
1.0
 40
1.0
 40
1.0
 40
1.0
 10
923.9802163777
 20
363.5786027194
 30
0.0
 10
923.956830062
 20
363.6077147879
 30
0.0
 10
923.9194579695
 20
363.695027118
 30
0.0
 10
923.9912199073
 20
363.7562980796
 30
0.0
 10
924.0257686639
 20
363.777847232
 30
0.0
  0
SPLINE
  5
39F
100
AcDbEntity
  8
0
100
AcDbSpline
 62
7
  6
CONTINUOUS
 70
0
 71
3
 72
9
 73
5
 74
0
 42
0.0000001
 43
0.0000001
 44
0.0000000001
 40
0.0
 40
0.0
 40
0.0
 40
0.0
 40
0.4805407352
 40
1.0
 40
1.0
 40
1.0
 40
1.0
 10
924.0257686639
 20
363.777847232
 30
0.0
 10
924.0328770018
 20
363.7822809272
 30
0.0
 10
924.0479981622
 20
363.7909852617
 30
0.0
 10
924.0635946336
 20
363.7987956057
 30
0.0
 10
924.0717872112
 20
363.8026552392
 30
0.0
  0
SPLINE
  5
3A0
100
AcDbEntity
  8
0
100
AcDbSpline
 62
7
  6
CONTINUOUS
 70
0
 71
3
 72
9
 73
5
 74
0
 42
0.0000001
 43
0.0000001
 44
0.0000000001
 40
0.0
 40
0.0
 40
0.0
 40
0.0
 40
0.1705639177
 40
1.0
 40
1.0
 40
1.0
 40
1.0
 10
684.758644942
 20
883.0524900608
 30
0.0
 10
684.758644942
 20
883.071131553
 30
0.0
 10
684.7971680696
 20
883.1794900011
 30
0.0
 10
684.9164772932
 20
883.2235847872
 30
0.0
 10
685.0011385413
 20
883.2559919162
 30
0.0
  0
SPLINE
  5
3A1
100
AcDbEntity
  8
0
100
AcDbSpline
 62
7
  6
CONTINUOUS
 70
0
 71
3
 72
8
 73
4
 74
0
 42
0.0000001
 43
0.0000001
 44
0.0000000001
 40
0.0
 40
0.0
 40
0.0
 40
0.0
 40
1.0
 40
1.0
 40
1.0
 40
1.0
 10
685.0011385413
 20
883.2559919162
 30
0.0
 10
685.0558739965
 20
883.2769438747
 30
0.0
 10
685.1121364117
 20
883.2940227367
 30
0.0
 10
685.1688753072
 20
883.3087078434
 30
0.0
  0
SPLINE
  5
3A2
100
AcDbEntity
  8
0
100
AcDbSpline
 62
7
  6
CONTINUOUS
 70
0
 71
3
 72
8
 73
4
 74
0
 42
0.0000001
 43
0.0000001
 44
0.0000000001
 40
0.0
 40
0.0
 40
0.0
 40
0.0
 40
1.0
 40
1.0
 40
1.0
 40
1.0
 10
477.3501923165
 20
825.1289699119
 30
0.0
 10
477.5478929986
 20
825.0778012101
 30
0.0
 10
477.7337682079
 20
824.971689378
 30
0.0
 10
477.8913884166
 20
824.8418446031
 30
0.0
  0
SPLINE
  5
3A3
100
AcDbEntity
  8
0
100
AcDbSpline
 62
7
  6
CONTINUOUS
 70
0
 71
3
 72
8
 73
4
 74
0
 42
0.0000001
 43
0.0000001
 44
0.0000000001
 40
0.0
 40
0.0
 40
0.0
 40
0.0
 40
1.0
 40
1.0
 40
1.0
 40
1.0
 10
477.8913884166
 20
824.8418446031
 30
0.0
 10
478.0732075661
 20
824.6920651635
 30
0.0
 10
478.226723383
 20
824.5049424291
 30
0.0
 10
478.3501923165
 20
824.304324618
 30
0.0
  0
SPLINE
  5
3A4
100
AcDbEntity
  8
0
100
AcDbSpline
 62
7
  6
CONTINUOUS
 70
0
 71
3
 72
8
 73
4
 74
0
 42
0.0000001
 43
0.0000001
 44
0.0000000001
 40
0.0
 40
0.0
 40
0.0
 40
0.0
 40
1.0
 40
1.0
 40
1.0
 40
1.0
 10
478.3501923165
 20
824.304324618
 30
0.0
 10
478.4168027318
 20
824.1960930545
 30
0.0
 10
478.4754090478
 20
824.0826045851
 30
0.0
 10
478.5260336256
 20
823.966036275
 30
0.0
  0
SPLINE
  5
3A5
100
AcDbEntity
  8
0
100
AcDbSpline
 62
7
  6
CONTINUOUS
 70
0
 71
3
 72
8
 73
4
 74
0
 42
0.0000001
 43
0.0000001
 44
0.0000000001
 40
0.0
 40
0.0
 40
0.0
 40
0.0
 40
1.0
 40
1.0
 40
1.0
 40
1.0
 10
478.5260336256
 20
823.966036275
 30
0.0
 10
478.6800220533
 20
823.6114620431
 30
0.0
 10
478.7644058788
 20
823.2176615064
 30
0.0
 10
478.7644058788
 20
822.8310928555
 30
0.0
  0
SPLINE
  5
3A6
100
AcDbEntity
  8
0
100
AcDbSpline
 62
7
  6
CONTINUOUS
 70
0
 71
3
 72
9
 73
5
 74
0
 42
0.0000001
 43
0.0000001
 44
0.0000000001
 40
0.0
 40
0.0
 40
0.0
 40
0.0
 40
0.3130942511
 40
1.0
 40
1.0
 40
1.0
 40
1.0
 10
887.5428360828
 20
834.3345088171
 30
0.0
 10
887.5831198395
 20
834.3240826136
 30
0.0
 10
887.7093770034
 20
834.2862007903
 30
0.0
 10
887.8392574412
 20
834.2352241994
 30
0.0
 10
887.9051827459
 20
834.1720732518
 30
0.0
  0
SPLINE
  5
3A7
100
AcDbEntity
  8
0
100
AcDbSpline
 62
7
  6
CONTINUOUS
 70
0
 71
3
 72
9
 73
5
 74
0
 42
0.0000001
 43
0.0000001
 44
0.0000000001
 40
0.0
 40
0.0
 40
0.0
 40
0.0
 40
0.5464674848
 40
1.0
 40
1.0
 40
1.0
 40
1.0
 10
887.9051827459
 20
834.1720732518
 30
0.0
 10
887.9193269357
 20
834.1585242968
 30
0.0
 10
887.9429168136
 20
834.1305763982
 30
0.0
 10
887.9530664479
 20
834.0945465847
 30
0.0
 10
887.9530664479
 20
834.0782910344
 30
0.0
  0
SPLINE
  5
3A8
100
AcDbEntity
  8
0
100
AcDbSpline
 62
7
  6
CONTINUOUS
 70
0
 71
3
 72
9
 73
5
 74
0
 42
0.0000001
 43
0.0000001
 44
0.0000000001
 40
0.0
 40
0.0
 40
0.0
 40
0.0
 40
0.3130942511
 40
1.0
 40
1.0
 40
1.0
 40
1.0
 10
462.2888178772
 20
825.623104207
 30
0.0
 10
462.2485341205
 20
825.6126780036
 30
0.0
 10
462.1222769566
 20
825.5747961803
 30
0.0
 10
461.9923965188
 20
825.5238195894
 30
0.0
 10
461.9264712141
 20
825.4606686417
 30
0.0
  0
SPLINE
  5
3A9
100
AcDbEntity
  8
0
100
AcDbSpline
 62
7
  6
CONTINUOUS
 70
0
 71
3
 72
9
 73
5
 74
0
 42
0.0000001
 43
0.0000001
 44
0.0000000001
 40
0.0
 40
0.0
 40
0.0
 40
0.0
 40
0.5464674848
 40
1.0
 40
1.0
 40
1.0
 40
1.0
 10
461.9264712141
 20
825.4606686417
 30
0.0
 10
461.9123270243
 20
825.4471196868
 30
0.0
 10
461.8887371464
 20
825.4191717881
 30
0.0
 10
461.878587512
 20
825.3831419746
 30
0.0
 10
461.878587512
 20
825.3668864244
 30
0.0
  0
SPLINE
  5
3AA
100
AcDbEntity
  8
0
100
AcDbSpline
 62
7
  6
CONTINUOUS
 70
0
 71
3
 72
9
 73
5
 74
0
 42
0.0000001
 43
0.0000001
 44
0.0000000001
 40
0.0
 40
0.0
 40
0.0
 40
0.0
 40
0.2170422625
 40
1.0
 40
1.0
 40
1.0
 40
1.0
 10
469.8548604359
 20
827.0689045519
 30
0.0
 10
469.7597089807
 20
827.0935315607
 30
0.0
 10
469.313850058
 20
827.1765725624
 30
0.0
 10
468.8562599621
 20
827.1874207772
 30
0.0
 10
468.5025642791
 20
827.1626867693
 30
0.0
  0
SPLINE
  5
3AB
100
AcDbEntity
  8
0
100
AcDbSpline
 62
7
  6
CONTINUOUS
 70
0
 71
3
 72
8
 73
4
 74
0
 42
0.0000001
 43
0.0000001
 44
0.0000000001
 40
0.0
 40
0.0
 40
0.0
 40
0.0
 40
1.0
 40
1.0
 40
1.0
 40
1.0
 10
468.5025642791
 20
827.1626867693
 30
0.0
 10
468.3932961492
 20
827.1550456277
 30
0.0
 10
468.2841869557
 20
827.1437552803
 30
0.0
 10
468.1758064938
 20
827.1278937945
 30
0.0
  0
SPLINE
  5
3AC
100
AcDbEntity
  8
0
100
AcDbSpline
 62
7
  6
CONTINUOUS
 70
0
 71
3
 72
8
 73
4
 74
0
 42
0.0000001
 43
0.0000001
 44
0.0000000001
 40
0.0
 40
0.0
 40
0.0
 40
0.0
 40
1.0
 40
1.0
 40
1.0
 40
1.0
 10
468.1758064938
 20
827.1278937945
 30
0.0
 10
468.074692351
 20
827.1130957349
 30
0.0
 10
467.9738928371
 20
827.0945098795
 30
0.0
 10
467.8749614486
 20
827.0689045519
 30
0.0
  0
SPLINE
  5
3AD
100
AcDbEntity
  8
0
100
AcDbSpline
 62
7
  6
CONTINUOUS
 70
0
 71
3
 72
9
 73
5
 74
0
 42
0.0000001
 43
0.0000001
 44
0.0000000001
 40
0.0
 40
0.0
 40
0.0
 40
0.0
 40
0.2170422625
 40
1.0
 40
1.0
 40
1.0
 40
1.0
 10
690.7550188786
 20
884.7545081884
 30
0.0
 10
690.8501703338
 20
884.7791351971
 30
0.0
 10
691.2960292564
 20
884.8621761988
 30
0.0
 10
691.7536193524
 20
884.8730244136
 30
0.0
 10
692.1073150354
 20
884.8482904057
 30
0.0
  0
SPLINE
  5
3AE
100
AcDbEntity
  8
0
100
AcDbSpline
 62
7
  6
CONTINUOUS
 70
0
 71
3
 72
8
 73
4
 74
0
 42
0.0000001
 43
0.0000001
 44
0.0000000001
 40
0.0
 40
0.0
 40
0.0
 40
0.0
 40
1.0
 40
1.0
 40
1.0
 40
1.0
 10
692.1073150354
 20
884.8482904057
 30
0.0
 10
692.2165831653
 20
884.8406492642
 30
0.0
 10
692.3256923587
 20
884.8293589167
 30
0.0
 10
692.4340728207
 20
884.8134974309
 30
0.0
  0
SPLINE
  5
3AF
100
AcDbEntity
  8
0
100
AcDbSpline
 62
7
  6
CONTINUOUS
 70
0
 71
3
 72
8
 73
4
 74
0
 42
0.0000001
 43
0.0000001
 44
0.0000000001
 40
0.0
 40
0.0
 40
0.0
 40
0.0
 40
1.0
 40
1.0
 40
1.0
 40
1.0
 10
692.4340728207
 20
884.8134974309
 30
0.0
 10
692.5351869635
 20
884.7986993713
 30
0.0
 10
692.6359864773
 20
884.7801135159
 30
0.0
 10
692.7349178659
 20
884.7545081884
 30
0.0
  0
SPLINE
  5
3B0
100
AcDbEntity
  8
0
100
AcDbSpline
 62
7
  6
CONTINUOUS
 70
0
 71
3
 72
9
 73
5
 74
0
 42
0.0000001
 43
0.0000001
 44
0.0000000001
 40
0.0
 40
0.0
 40
0.0
 40
0.0
 40
0.1705639177
 40
1.0
 40
1.0
 40
1.0
 40
1.0
 10
461.878587512
 20
825.3668864244
 30
0.0
 10
461.878587512
 20
825.3482449322
 30
0.0
 10
461.9171106396
 20
825.2398864841
 30
0.0
 10
462.0364198632
 20
825.1957916979
 30
0.0
 10
462.1210811113
 20
825.1633845689
 30
0.0
  0
SPLINE
  5
3B1
100
AcDbEntity
  8
0
100
AcDbSpline
 62
7
  6
CONTINUOUS
 70
0
 71
3
 72
8
 73
4
 74
0
 42
0.0000001
 43
0.0000001
 44
0.0000000001
 40
0.0
 40
0.0
 40
0.0
 40
0.0
 40
1.0
 40
1.0
 40
1.0
 40
1.0
 10
462.1210811113
 20
825.1633845689
 30
0.0
 10
462.1758165665
 20
825.1424326105
 30
0.0
 10
462.2320789817
 20
825.1253537485
 30
0.0
 10
462.2888178772
 20
825.1106686417
 30
0.0
  0
SPLINE
  5
3B2
100
AcDbEntity
  8
0
100
AcDbSpline
 62
7
  6
CONTINUOUS
 70
0
 71
3
 72
9
 73
5
 74
0
 42
0.0000001
 43
0.0000001
 44
0.0000000001
 40
0.0
 40
0.0
 40
0.0
 40
0.0
 40
0.1705639177
 40
1.0
 40
1.0
 40
1.0
 40
1.0
 10
887.9530664479
 20
834.0782910344
 30
0.0
 10
887.9530664479
 20
834.0596495422
 30
0.0
 10
887.9145433204
 20
833.9512910941
 30
0.0
 10
887.7952340968
 20
833.9071963079
 30
0.0
 10
887.7105728487
 20
833.874789179
 30
0.0
  0
SPLINE
  5
3B3
100
AcDbEntity
  8
0
100
AcDbSpline
 62
7
  6
CONTINUOUS
 70
0
 71
3
 72
8
 73
4
 74
0
 42
0.0000001
 43
0.0000001
 44
0.0000000001
 40
0.0
 40
0.0
 40
0.0
 40
0.0
 40
1.0
 40
1.0
 40
1.0
 40
1.0
 10
887.7105728487
 20
833.874789179
 30
0.0
 10
887.6558373935
 20
833.8538372205
 30
0.0
 10
887.5995749783
 20
833.8367583585
 30
0.0
 10
887.5428360828
 20
833.8220732518
 30
0.0
  0
SPLINE
  5
3B4
100
AcDbEntity
  8
0
100
AcDbSpline
 62
7
  6
CONTINUOUS
 70
0
 71
3
 72
9
 73
5
 74
0
 42
0.0000001
 43
0.0000001
 44
0.0000000001
 40
0.0
 40
0.0
 40
0.0
 40
0.0
 40
0.2170422625
 40
1.0
 40
1.0
 40
1.0
 40
1.0
 10
657.0967360941
 20
774.6906692704
 30
0.0
 10
657.1918875493
 20
774.6660422616
 30
0.0
 10
657.637746472
 20
774.5830012599
 30
0.0
 10
658.0953365679
 20
774.5721530452
 30
0.0
 10
658.4490322509
 20
774.596887053
 30
0.0
  0
SPLINE
  5
3B5
100
AcDbEntity
  8
0
100
AcDbSpline
 62
7
  6
CONTINUOUS
 70
0
 71
3
 72
8
 73
4
 74
0
 42
0.0000001
 43
0.0000001
 44
0.0000000001
 40
0.0
 40
0.0
 40
0.0
 40
0.0
 40
1.0
 40
1.0
 40
1.0
 40
1.0
 10
658.4490322509
 20
774.596887053
 30
0.0
 10
658.5583003808
 20
774.6045281946
 30
0.0
 10
658.6674095743
 20
774.615818542
 30
0.0
 10
658.7757900362
 20
774.6316800278
 30
0.0
  0
SPLINE
  5
3B6
100
AcDbEntity
  8
0
100
AcDbSpline
 62
7
  6
CONTINUOUS
 70
0
 71
3
 72
8
 73
4
 74
0
 42
0.0000001
 43
0.0000001
 44
0.0000000001
 40
0.0
 40
0.0
 40
0.0
 40
0.0
 40
1.0
 40
1.0
 40
1.0
 40
1.0
 10
658.7757900362
 20
774.6316800278
 30
0.0
 10
658.876904179
 20
774.6464780875
 30
0.0
 10
658.9777036929
 20
774.6650639429
 30
0.0
 10
659.0766350814
 20
774.6906692704
 30
0.0
  0
SPLINE
  5
3B7
100
AcDbEntity
  8
0
100
AcDbSpline
 62
7
  6
CONTINUOUS
 70
0
 71
3
 72
9
 73
5
 74
0
 42
0.0000001
 43
0.0000001
 44
0.0000000001
 40
0.0
 40
0.0
 40
0.0
 40
0.0
 40
0.3130942511
 40
1.0
 40
1.0
 40
1.0
 40
1.0
 10
685.1688753072
 20
882.7962722781
 30
0.0
 10
685.1285915505
 20
882.8066984816
 30
0.0
 10
685.0023343866
 20
882.8445803049
 30
0.0
 10
684.8724539488
 20
882.8955568958
 30
0.0
 10
684.8065286441
 20
882.9587078434
 30
0.0
  0
SPLINE
  5
3B8
100
AcDbEntity
  8
0
100
AcDbSpline
 62
7
  6
CONTINUOUS
 70
0
 71
3
 72
9
 73
5
 74
0
 42
0.0000001
 43
0.0000001
 44
0.0000000001
 40
0.0
 40
0.0
 40
0.0
 40
0.0
 40
0.5464674848
 40
1.0
 40
1.0
 40
1.0
 40
1.0
 10
684.8065286441
 20
882.9587078434
 30
0.0
 10
684.7923844543
 20
882.9722567984
 30
0.0
 10
684.7687945764
 20
883.000204697
 30
0.0
 10
684.758644942
 20
883.0362345105
 30
0.0
 10
684.758644942
 20
883.0524900608
 30
0.0
  0
SPLINE
  5
3B9
100
AcDbEntity
  8
0
100
AcDbSpline
 62
7
  6
CONTINUOUS
 70
0
 71
3
 72
8
 73
4
 74
0
 42
0.0000001
 43
0.0000001
 44
0.0000000001
 40
0.0
 40
0.0
 40
0.0
 40
0.0
 40
1.0
 40
1.0
 40
1.0
 40
1.0
 10
694.0784207502
 20
878.5584605817
 30
0.0
 10
694.0784207502
 20
878.9450292326
 30
0.0
 10
693.9940369246
 20
879.3388297693
 30
0.0
 10
693.8400484969
 20
879.6934040012
 30
0.0
  0
SPLINE
  5
3BA
100
AcDbEntity
  8
0
100
AcDbSpline
 62
7
  6
CONTINUOUS
 70
0
 71
3
 72
8
 73
4
 74
0
 42
0.0000001
 43
0.0000001
 44
0.0000000001
 40
0.0
 40
0.0
 40
0.0
 40
0.0
 40
1.0
 40
1.0
 40
1.0
 40
1.0
 10
693.8400484969
 20
879.6934040012
 30
0.0
 10
693.7894239191
 20
879.8099723112
 30
0.0
 10
693.7308176031
 20
879.9234607806
 30
0.0
 10
693.6642071878
 20
880.0316923442
 30
0.0
  0
SPLINE
  5
3BB
100
AcDbEntity
  8
0
100
AcDbSpline
 62
7
  6
CONTINUOUS
 70
0
 71
3
 72
9
 73
5
 74
0
 42
0.0000001
 43
0.0000001
 44
0.0000000001
 40
0.0
 40
0.0
 40
0.0
 40
0.0
 40
0.2687304421
 40
1.0
 40
1.0
 40
1.0
 40
1.0
 10
693.6642071878
 20
880.0316923442
 30
0.0
 10
693.6163730208
 20
880.1094154248
 30
0.0
 10
693.4234592152
 20
880.3883852389
 30
0.0
 10
693.164110815
 20
880.6275054939
 30
0.0
 10
692.9452189257
 20
880.7448167572
 30
0.0
  0
SPLINE
  5
3BC
100
AcDbEntity
  8
0
100
AcDbSpline
 62
7
  6
CONTINUOUS
 70
0
 71
3
 72
8
 73
4
 74
0
 42
0.0000001
 43
0.0000001
 44
0.0000000001
 40
0.0
 40
0.0
 40
0.0
 40
0.0
 40
1.0
 40
1.0
 40
1.0
 40
1.0
 10
692.9452189257
 20
880.7448167572
 30
0.0
 10
692.8563938574
 20
880.7924209924
 30
0.0
 10
692.7617696872
 20
880.8310866051
 30
0.0
 10
692.6642071878
 20
880.8563376381
 30
0.0
  0
SPLINE
  5
3BD
100
AcDbEntity
  8
0
100
AcDbSpline
 62
7
  6
CONTINUOUS
 70
0
 71
3
 72
10
 73
6
 74
0
 42
0.0000001
 43
0.0000001
 44
0.0000000001
 40
0.0
 40
0.0
 40
0.0
 40
0.0
 40
0.442591708
 40
0.7721061137
 40
1.0
 40
1.0
 40
1.0
 40
1.0
 10
656.8697499663
 20
303.1164280862
 30
0.0
 10
656.4494352327
 20
303.1250594978
 30
0.0
 10
655.7204046359
 20
303.1899837389
 30
0.0
 10
654.804029277
 20
303.4225648633
 30
0.0
 10
654.3270748576
 20
303.706567277
 30
0.0
 10
654.1988462672
 20
303.8800233601
 30
0.0
  0
SPLINE
  5
3BE
100
AcDbEntity
  8
0
100
AcDbSpline
 62
7
  6
CONTINUOUS
 70
0
 71
3
 72
9
 73
5
 74
0
 42
0.0000001
 43
0.0000001
 44
0.0000000001
 40
0.0
 40
0.0
 40
0.0
 40
0.0
 40
0.4305092498
 40
1.0
 40
1.0
 40
1.0
 40
1.0
 10
659.0277459996
 20
303.284233354
 30
0.0
 10
658.7217818808
 20
303.2318529321
 30
0.0
 10
658.0039071121
 20
303.1409959798
 30
0.0
 10
657.2798150136
 20
303.108007158
 30
0.0
 10
656.8697499663
 20
303.1164280862
 30
0.0
  0
ELLIPSE
  5
3BF
100
AcDbEntity
  8
0
100
AcDbEllipse
 62
7
  6
CONTINUOUS
 10
462.9252139803
 20
349.7030585897
 30
0.0
 11
-5.865839487
 21
54.440037045
 31
0.0
 40
0.0999236322
 41
1.5331345849
 42
1.5421444498
  0
ENDSEC
  0
SECTION
  2
OBJECTS
  0
DICTIONARY
  5
C
100
AcDbDictionary
280
0
281
1
  3
ACAD_GROUP
350
D
  3
ACAD_MLINESTYLE
350
17
  3
ACAD_LAYOUT
350
1A
  3
ACAD_PLOTSETTINGS
350
19
  3
ACAD_PLOTSTYLENAME
350
E
  0
DICTIONARY
  5
D
102
{ACAD_REACTORS
330
C
102
}
100
AcDbDictionary
280
0
281
1
  0
ACDBDICTIONARYWDFLT
  5
E
102
{ACAD_REACTORS
330
C
102
}
100
AcDbDictionary
281
1
  3
Normal
350
F
100
AcDbDictionaryWithDefault
340
F
  0
DICTIONARY
  5
17
102
{ACAD_REACTORS
330
C
102
}
100
AcDbDictionary
280
0
281
1
  3
Standard
350
18
  0
DICTIONARY
  5
19
102
{ACAD_REACTORS
330
C
102
}
100
AcDbDictionary
281
1
  0
DICTIONARY
  5
1A
102
{ACAD_REACTORS
330
C
102
}
100
AcDbDictionary
281
1
  3
Model
350
3C0
  3
Layout1
350
3C1
  0
ACDBPLACEHOLDER
  5
F
102
{ACAD_REACTORS
330
E
102
}
  0
MLINESTYLE
  5
18
102
{ACAD_REACTORS
330
17
102
}
100
AcDbMlineStyle
  2
STANDARD
 70
0
  3

 62
256
 51
90.0
 52
90.0
 71
2
 49
0.5
 62
256
  6
BYLAYER
 49
-0.5
 62
256
  6
BYLAYER
  0
LAYOUT
  5
3C0
102
{ACAD_REACTORS
330
1A
102
}
100
AcDbPlotSettings
  1

  2
none_device
  4

  6

 40
0.0
 41
0.0
 42
0.0
 43
0.0
 44
1500.0
 45
1100.0
 46
0.0
 47
0.0
 48
0.0
 49
0.0
140
0.0
141
0.0
142
1.0
143
1.0
 70
1024
 72
1
 73
0
 74
0
  7

 75
0
147
1.0
148
0.0
149
0.0
100
AcDbLayout
  1
Model
 70
0
 71
0
 10
0.0
 20
0.0
 11
1500.0
 21
1100.0
 12
0.0
 22
0.0
 32
0.0
 14
0.0
 24
0.0
 34
0.0
 15
0.0
 25
0.0
 35
0.0
146
0.0
 13
0.0
 23
0.0
 33
0.0
 16
1.0
 26
0.0
 36
0.0
 17
0.0
 27
1.0
 37
0.0
 76
0
330
1FF
345
0
346
0
  0
LAYOUT
  5
3C1
102
{ACAD_REACTORS
330
1A
102
}
100
AcDbPlotSettings
  1

  2
none_device
  4

  6

 40
0.0
 41
0.0
 42
0.0
 43
0.0
 44
1500.0
 45
1100.0
 46
0.0
 47
0.0
 48
0.0
 49
0.0
140
0.0
141
0.0
142
1.0
143
1.0
 70
0
 72
1
 73
0
 74
0
  7

 75
0
147
1.0
148
0.0
149
0.0
100
AcDbLayout
  1
Layout1
 70
0
 71
1
 10
0.0
 20
0.0
 11
1500.0
 21
1100.0
 12
0.0
 22
0.0
 32
0.0
 14
0.0
 24
0.0
 34
0.0
 15
0.0
 25
0.0
 35
0.0
146
0.0
 13
0.0
 23
0.0
 33
0.0
 16
1.0
 26
0.0
 36
0.0
 17
0.0
 27
1.0
 37
0.0
 76
0
330
200
345
0
346
0
  0
ENDSEC
  0
EOF
