999
DXF file: S:\Engenharia\Wildfire\Engenharia\Montagens\Coifas\Coifas_Projetos_TEEC\Vetro Flex\vista_isometrica_75.dxf
999
Pro/ENGINEER 2013050 by Parametric Technology Corporation
  0
SECTION
  2
HEADER
  9
$ACADVER
  1
AC1021
  9
$DWGCODEPAGE
  3
ANSI_1252
  9
$EXTMAX
 10
1500.0
 20
1100.0
 30
0.0
  9
$EXTMIN
 10
0.0
 20
-0.0
 30
0.0
  9
$LIMMIN
 10
0.0
 20
-0.0
  9
$LIMMAX
 10
1500.0
 20
1100.0
  9
$VIEWCTR
 10
750.0
 20
550.0
  9
$VIEWSIZE
 40
1100.0
  9
$CLAYER
  8
0
  9
$LTSCALE
 40
82.5
  9
$CELTYPE
  6
BYLAYER
  9
$DIMSCALE
 40
1.0
  9
$DIMASZ
 40
3.0
  9
$DIMEXO
 40
0.5
  9
$DIMDLI
 40
57.0
  9
$DIMEXE
 40
0.5
  9
$DIMCEN
 40
13.5
  9
$DIMLFAC
 40
1.0
  9
$DIMBLK
  1
_FILLED
  9
$DIMTXT
 40
1.8
  9
$DIMTOL
 70
1
  9
$DIMLIM
 70
0
  9
$DIMTFAC
 40
1.0
  9
$DIMTP
 40
0.001
  9
$DIMTM
 40
0.001
  9
$DIMGAP
 40
0.625
  9
$DIMDSEP
 70
46
  9
$PDMODE
 70
3
  9
$PDSIZE
 40
1.0
  9
$HANDSEED
  5
402
  9
$TILEMODE
 70
1
  9
$MEASUREMENT
 70
1
  9
$INSUNITS
 70
4
  0
ENDSEC
  0
SECTION
  2
CLASSES
  0
CLASS
  1
ACDBDICTIONARYWDFLT
  2
AcDbDictionaryWithDefault
  3
AutoCAD 2000
 90
0
 91
1
280
0
281
0
  0
CLASS
  1
ACDBPLACEHOLDER
  2
AcDbPlaceHolder
  3
AutoCAD 2000
 90
0
 91
1
280
0
281
0
  0
CLASS
  1
LAYOUT
  2
AcDbLayout
  3
AutoCAD 2000
 90
0
 91
0
280
0
281
0
  0
ENDSEC
  0
SECTION
  2
TABLES
  0
TABLE
  2
VPORT
  5
8
100
AcDbSymbolTable
 70
2
  0
VPORT
  5
1F4
100
AcDbSymbolTableRecord
100
AcDbViewportTableRecord
  2
*ACTIVE
 70
0
 10
0.0
 20
0.0
 11
1.0
 21
1.0
 12
750.0
 22
550.0
 13
0.0
 23
0.0
 14
1.0
 24
1.0
 15
0.0
 25
0.0
 16
0.0
 26
0.0
 36
1.0
 17
0.0
 27
0.0
 37
0.0
 40
1100.0
 41
1.3636363636
 42
50.0
 43
0.0
 44
0.0
 50
0.0
 51
0.0
 71
0
 72
100
 73
1
 74
1
 75
0
 76
0
 77
0
 78
0
  0
ENDTAB
  0
TABLE
  2
LTYPE
  5
5
100
AcDbSymbolTable
 70
6
  0
LTYPE
  5
14
100
AcDbSymbolTableRecord
100
AcDbLinetypeTableRecord
  2
BYBLOCK
 70
0
  3

 72
65
 73
0
 40
0.0
  0
LTYPE
  5
15
100
AcDbSymbolTableRecord
100
AcDbLinetypeTableRecord
  2
BYLAYER
 70
0
  3

 72
65
 73
0
 40
0.0
  0
LTYPE
  5
16
100
AcDbSymbolTableRecord
100
AcDbLinetypeTableRecord
  2
CONTINUOUS
 70
64
  3
Solid line
 72
65
 73
0
 40
0.0
  0
LTYPE
  5
1F5
100
AcDbSymbolTableRecord
100
AcDbLinetypeTableRecord
  2
CENTER
 70
64
  3
____ _ ____ _ ____ _ ____ _ ____ _ ____ _ ____
 72
65
 73
4
 40
0.6
 49
0.375
 74
0
 49
-0.075
 74
0
 49
0.075
 74
0
 49
-0.075
 74
0
  0
LTYPE
  5
1F6
100
AcDbSymbolTableRecord
100
AcDbLinetypeTableRecord
  2
HIDDEN
 70
64
  3
- - - - - - - - - - - - - - - - - - - -
 72
65
 73
2
 40
0.2
 49
0.1
 74
0
 49
-0.1
 74
0
  0
LTYPE
  5
1F7
100
AcDbSymbolTableRecord
100
AcDbLinetypeTableRecord
  2
PHANTOM
 70
64
  3
_____ _ _ _____ _ _ _____ _ _ _____
 72
65
 73
6
 40
0.8
 49
0.45
 74
0
 49
-0.05
 74
0
 49
0.1
 74
0
 49
-0.05
 74
0
 49
0.1
 74
0
 49
-0.05
 74
0
  0
LTYPE
  5
1F8
100
AcDbSymbolTableRecord
100
AcDbLinetypeTableRecord
  2
DOT
 70
64
  3
. . . . . . . . . . . . . . . . . . . .
 72
65
 73
2
 40
0.2
 49
0.1
 74
0
 49
-0.1
 74
0
  0
LTYPE
  5
1F9
100
AcDbSymbolTableRecord
100
AcDbLinetypeTableRecord
  2
DASHED
 70
64
  3
- - - - - - - - - - - - - - - - - - - -
 72
65
 73
2
 40
0.2
 49
0.1
 74
0
 49
-0.1
 74
0
  0
ENDTAB
  0
TABLE
  2
LAYER
  5
2
100
AcDbSymbolTable
 70
36
  0
LAYER
  5
10
100
AcDbSymbolTableRecord
100
AcDbLayerTableRecord
  2
0
 70
0
 62
7
  6
CONTINUOUS
370
-3
390
F
  0
LAYER
  5
1FA
100
AcDbSymbolTableRecord
100
AcDbLayerTableRecord
  2
DEFAULT_1
 70
0
 62
7
  6
CENTER
370
-3
390
F
  0
LAYER
  5
1FB
100
AcDbSymbolTableRecord
100
AcDbLayerTableRecord
  2
DEFAULT_2
 70
0
 62
8
  6
HIDDEN
370
-3
390
F
  0
LAYER
  5
1FC
100
AcDbSymbolTableRecord
100
AcDbLayerTableRecord
  2
DEFAULT_3
 70
0
 62
7
  6
PHANTOM
370
-3
390
F
  0
ENDTAB
  0
TABLE
  2
STYLE
  5
3
100
AcDbSymbolTable
 70
1
  0
STYLE
  5
11
100
AcDbSymbolTableRecord
100
AcDbTextStyleTableRecord
  2
STANDARD
 70
0
 40
0.0
 41
0.8
 50
0.0
 71
0
 42
0.2
  3
txt
  4

  0
STYLE
  5
1FD
100
AcDbSymbolTableRecord
100
AcDbTextStyleTableRecord
  2
TEXTSTYLE_1
 70
0
 40
0.0
 41
0.8
 50
0.0
 71
0
 42
0.2
  3
gdt
  4

  0
ENDTAB
  0
TABLE
  2
VIEW
  5
6
100
AcDbSymbolTable
 70
0
  0
ENDTAB
  0
TABLE
  2
UCS
  5
7
100
AcDbSymbolTable
 70
0
  0
ENDTAB
  0
TABLE
  2
APPID
  5
9
100
AcDbSymbolTable
 70
1
  0
APPID
  5
1FE
100
AcDbSymbolTableRecord
100
AcDbRegAppTableRecord
  2
ACAD
 70
0
  0
ENDTAB
  0
TABLE
  2
BLOCK_RECORD
  5
1
100
AcDbSymbolTable
 70
0
  0
BLOCK_RECORD
  5
1FF
100
AcDbSymbolTableRecord
100
AcDbBlockTableRecord
  2
*Model_Space
  0
BLOCK_RECORD
  5
200
100
AcDbSymbolTableRecord
100
AcDbBlockTableRecord
  2
*Paper_Space
  0
BLOCK_RECORD
  5
201
100
AcDbSymbolTableRecord
100
AcDbBlockTableRecord
  2
_FILLED
  0
BLOCK_RECORD
  5
202
100
AcDbSymbolTableRecord
100
AcDbBlockTableRecord
  2
*D0
  0
BLOCK_RECORD
  5
203
100
AcDbSymbolTableRecord
100
AcDbBlockTableRecord
  2
*D1
  0
BLOCK_RECORD
  5
204
100
AcDbSymbolTableRecord
100
AcDbBlockTableRecord
  2
*D2
  0
BLOCK_RECORD
  5
205
100
AcDbSymbolTableRecord
100
AcDbBlockTableRecord
  2
*D3
  0
BLOCK_RECORD
  5
206
100
AcDbSymbolTableRecord
100
AcDbBlockTableRecord
  2
*D4
  0
BLOCK_RECORD
  5
207
100
AcDbSymbolTableRecord
100
AcDbBlockTableRecord
  2
*D5
  0
ENDTAB
  0
TABLE
  2
DIMSTYLE
  5
A
100
AcDbSymbolTable
 70
1
100
AcDbDimStyleTable
 71
0
  0
DIMSTYLE
105
208
100
AcDbSymbolTableRecord
100
AcDbDimStyleTableRecord
  2
STANDARD
 70
0
  3

  4

 40
1.0
 41
3.0
 42
0.5
 43
0.38
 44
0.5
 45
0.0
 46
0.0
 47
0.001
 48
0.001
140
1.8
141
0.09
142
0.0
143
25.4
144
1.0
145
0.0
146
1.0
147
0.625
 71
1.0
 72
0.0
 73
0
 74
0
 75
0
 76
0
 77
1
 78
8
170
0
171
2
172
0
173
0
174
0
175
0
176
0
177
0
178
0
270
2
271
3
272
3
273
2
274
2
275
0
280
0
281
0
282
0
283
1
284
8
285
0
286
0
287
3
288
0
340
11
278
46
341
201
342
201
343
201
344
201
  0
DIMSTYLE
105
209
100
AcDbSymbolTableRecord
100
AcDbDimStyleTableRecord
  2
DIMSTYLE_1
 70
0
  3

  4

 40
1.0
 41
3.0
 42
0.5
 43
0.38
 44
0.5
 45
0.0
 46
0.0
 47
0.8
 48
0.8
140
8.0
141
0.09
142
0.0
143
25.4
144
1.0
145
0.0
146
1.0
147
2.0
 71
0.0
 72
0.0
 73
0
 74
0
 75
0
 76
0
 77
1
 78
8
170
0
171
2
172
0
173
0
174
0
175
0
176
0
177
0
178
0
270
2
271
3
272
3
273
2
274
2
275
0
280
0
281
0
282
0
283
1
284
8
285
0
286
0
287
3
288
0
340
11
278
46
341
201
342
201
343
201
344
201
  0
DIMSTYLE
105
20A
100
AcDbSymbolTableRecord
100
AcDbDimStyleTableRecord
  2
DIMSTYLE_2
 70
0
  3

  4

 40
1.0
 41
3.0
 42
0.5
 43
0.38
 44
0.5
 45
0.0
 46
0.0
 47
0.5
 48
0.5
140
8.0
141
0.09
142
0.0
143
25.4
144
1.0
145
0.0
146
1.0
147
2.0
 71
0.0
 72
0.0
 73
0
 74
0
 75
0
 76
0
 77
1
 78
8
170
0
171
2
172
0
173
0
174
0
175
0
176
0
177
0
178
0
270
2
271
3
272
3
273
2
274
2
275
0
280
0
281
0
282
0
283
1
284
8
285
0
286
0
287
3
288
0
340
11
278
46
341
201
342
201
343
201
344
201
  0
ENDTAB
  0
ENDSEC
  0
SECTION
  2
BLOCKS
  0
BLOCK
  5
20
100
AcDbEntity
  8
0
100
AcDbBlockBegin
  2
*Model_Space
 70
0
 10
0.0
 20
0.0
 30
0.0
  3
*Model_Space
  1

  0
ENDBLK
  5
21
100
AcDbEntity
  8
0
100
AcDbBlockEnd
  0
BLOCK
  5
1C
100
AcDbEntity
  8
0
100
AcDbBlockBegin
  2
*Paper_Space
 70
0
 10
0.0
 20
0.0
 30
0.0
  3
*Paper_Space
  1

  0
ENDBLK
  5
1D
100
AcDbEntity
  8
0
100
AcDbBlockEnd
  0
BLOCK
  5
20B
100
AcDbEntity
  8
0
100
AcDbBlockBegin
  2
_FILLED
 70
64
 10
0.0
 20
0.0
  3
_FILLED
  1

  0
SOLID
  5
20C
100
AcDbEntity
  8
0
  6
BYBLOCK
 62
0
100
AcDbTrace
 10
0.0
 20
0.0
 11
-1.0
 21
0.1666666667
 12
-1.0
 22
-0.1666666667
 13
-1.0
 23
-0.1666666667
  0
ENDBLK
  5
20D
100
AcDbEntity
  8
0
  6
BYBLOCK
 62
0
100
AcDbBlockEnd
  0
BLOCK
  5
20E
100
AcDbEntity
  8
0
100
AcDbBlockBegin
 62
2
  6
CONTINUOUS
  2
*D0
 70
65
 10
0.0
 20
0.0
  3
*D0
  1

  0
MTEXT
  5
20F
100
AcDbEntity
  8
0
100
AcDbMText
 62
2
  6
CONTINUOUS
  7
STANDARD
 71
2
 72
1
 10
283.512075781
 20
549.1882579543
 30
0.0
 11
0.0
 21
1.0
 31
0.0
 44
0.9
  1
490 - 970
 40
8.0
 41
111.0857142857
  0
LINE
  5
210
100
AcDbEntity
  8
0
100
AcDbLine
 62
2
  6
CONTINUOUS
 10
509.8291818471
 20
841.1764438969
 11
294.4566653492
 21
785.3087452314
  0
LINE
  5
211
100
AcDbEntity
  8
0
100
AcDbLine
 62
2
  6
CONTINUOUS
 10
510.4090808344
 20
368.8348052285
 11
294.4566653492
 21
312.8166805829
  0
LINE
  5
212
100
AcDbEntity
  8
0
100
AcDbLine
 62
2
  6
CONTINUOUS
 10
294.9406472096
 20
785.4342902785
 11
294.9406472096
 21
549.1882579543
  0
LINE
  5
213
100
AcDbEntity
  8
0
100
AcDbLine
 62
2
  6
CONTINUOUS
 10
294.9406472096
 20
312.94222563
 11
294.9406472096
 21
549.1882579543
  0
INSERT
  5
214
100
AcDbEntity
  8
0
100
AcDbBlockReference
 62
2
  6
CONTINUOUS
  2
_FILLED
 10
294.9406472096
 20
785.4342902785
 41
3.0
 42
3.0
 43
3.0
 50
90.0
  0
INSERT
  5
215
100
AcDbEntity
  8
0
100
AcDbBlockReference
 62
2
  6
CONTINUOUS
  2
_FILLED
 10
294.9406472096
 20
312.94222563
 41
3.0
 42
3.0
 43
3.0
 50
270.0
  0
ENDBLK
  5
216
100
AcDbEntity
  8
0
  6
BYBLOCK
 62
0
100
AcDbBlockEnd
  0
BLOCK
  5
217
100
AcDbEntity
  8
0
100
AcDbBlockBegin
 62
2
  6
CONTINUOUS
  2
*D1
 70
65
 10
0.0
 20
0.0
  3
*D1
  1

  0
MTEXT
  5
218
100
AcDbEntity
  8
0
100
AcDbMText
 62
2
  6
CONTINUOUS
  7
STANDARD
 71
2
 72
1
 10
218.6919765254
 20
503.557873001
 30
0.0
 11
0.0
 21
1.0
 31
0.0
 44
0.9
  1
550 - 1030
 40
8.0
 41
123.4285714286
  0
LINE
  5
219
100
AcDbEntity
  8
0
100
AcDbLine
 62
2
  6
CONTINUOUS
 10
450.5382060623
 20
295.3647113354
 11
229.6364939113
 21
238.1984218544
  0
LINE
  5
21A
100
AcDbEntity
  8
0
100
AcDbLine
 62
2
  6
CONTINUOUS
 10
510.4090086521
 20
841.3268113951
 11
229.6364939113
 21
768.6667912454
  0
LINE
  5
21B
100
AcDbEntity
  8
0
100
AcDbLine
 62
2
  6
CONTINUOUS
 10
230.120547954
 20
238.3236883055
 11
230.120547954
 21
503.557873001
  0
LINE
  5
21C
100
AcDbEntity
  8
0
100
AcDbLine
 62
2
  6
CONTINUOUS
 10
230.120547954
 20
768.7920576965
 11
230.120547954
 21
503.557873001
  0
INSERT
  5
21D
100
AcDbEntity
  8
0
100
AcDbBlockReference
 62
2
  6
CONTINUOUS
  2
_FILLED
 10
230.120547954
 20
238.3236883055
 41
3.0
 42
3.0
 43
3.0
 50
270.0
  0
INSERT
  5
21E
100
AcDbEntity
  8
0
100
AcDbBlockReference
 62
2
  6
CONTINUOUS
  2
_FILLED
 10
230.120547954
 20
768.7920576965
 41
3.0
 42
3.0
 43
3.0
 50
90.0
  0
ENDBLK
  5
21F
100
AcDbEntity
  8
0
  6
BYBLOCK
 62
0
100
AcDbBlockEnd
  0
BLOCK
  5
220
100
AcDbEntity
  8
0
100
AcDbBlockBegin
 62
2
  6
CONTINUOUS
  2
*D2
 70
65
 10
0.0
 20
0.0
  3
*D2
  1

  0
MTEXT
  5
221
100
AcDbEntity
  8
0
100
AcDbMText
 62
2
  6
CONTINUOUS
  7
STANDARD
 71
2
 72
1
 10
554.6258637149
 20
899.8170367293
 30
0.0
 11
0.9681003459
 21
0.2505628071
 31
0.0
 44
0.9
  1
326
 40
8.0
 41
37.0285714286
  0
LINE
  5
222
100
AcDbEntity
  8
0
100
AcDbLine
 62
2
  6
CONTINUOUS
 10
509.8291434371
 20
841.4273858256
 11
441.7823683883
 21
859.0565098846
  0
LINE
  5
223
100
AcDbEntity
  8
0
100
AcDbLine
 62
2
  6
CONTINUOUS
 10
740.2752434258
 20
901.0712253723
 11
672.228468377
 21
918.7003494313
  0
LINE
  5
224
100
AcDbEntity
  8
0
100
AcDbLine
 62
2
  6
CONTINUOUS
 10
442.2663886587
 20
858.931113003
 11
557.489438653
 21
888.7530327763
  0
LINE
  5
225
100
AcDbEntity
  8
0
100
AcDbLine
 62
2
  6
CONTINUOUS
 10
672.7124886473
 20
918.5749525497
 11
557.489438653
 21
888.7530327763
  0
INSERT
  5
226
100
AcDbEntity
  8
0
100
AcDbBlockReference
 62
2
  6
CONTINUOUS
  2
_FILLED
 10
442.2663886587
 20
858.931113003
 41
3.0
 42
3.0
 43
3.0
 50
194.5108186991
  0
INSERT
  5
227
100
AcDbEntity
  8
0
100
AcDbBlockReference
 62
2
  6
CONTINUOUS
  2
_FILLED
 10
672.7124886473
 20
918.5749525497
 41
3.0
 42
3.0
 43
3.0
 50
14.5108186991
  0
ENDBLK
  5
228
100
AcDbEntity
  8
0
  6
BYBLOCK
 62
0
100
AcDbBlockEnd
  0
BLOCK
  5
229
100
AcDbEntity
  8
0
100
AcDbBlockBegin
 62
2
  6
CONTINUOUS
  2
*D3
 70
65
 10
0.0
 20
0.0
  3
*D3
  1

  0
MTEXT
  5
22A
100
AcDbEntity
  8
0
100
AcDbMText
 62
2
  6
CONTINUOUS
  7
STANDARD
 71
2
 72
1
 10
925.6330278496
 20
908.2838588389
 30
0.0
 11
0.9681003459
 21
-0.2505628071
 31
0.0
 44
0.9
  1
279
 40
8.0
 41
37.0285714286
  0
LINE
  5
22B
100
AcDbEntity
  8
0
100
AcDbLine
 62
2
  6
CONTINUOUS
 10
741.2431749342
 20
901.0716454757
 11
824.8594555474
 21
922.8118893392
  0
LINE
  5
22C
100
AcDbEntity
  8
0
100
AcDbLine
 62
2
  6
CONTINUOUS
 10
938.0309921384
 20
850.1392105391
 11
1021.6472727516
 21
871.8794544026
  0
LINE
  5
22D
100
AcDbEntity
  8
0
100
AcDbLine
 62
2
  6
CONTINUOUS
 10
824.3755443094
 20
922.6860723542
 11
922.7694529115
 21
897.2198548859
  0
LINE
  5
22E
100
AcDbEntity
  8
0
100
AcDbLine
 62
2
  6
CONTINUOUS
 10
1021.1633615136
 20
871.7536374176
 11
922.7694529115
 21
897.2198548859
  0
INSERT
  5
22F
100
AcDbEntity
  8
0
100
AcDbBlockReference
 62
2
  6
CONTINUOUS
  2
_FILLED
 10
824.3755443094
 20
922.6860723542
 41
3.0
 42
3.0
 43
3.0
 50
165.4891813009
  0
INSERT
  5
230
100
AcDbEntity
  8
0
100
AcDbBlockReference
 62
2
  6
CONTINUOUS
  2
_FILLED
 10
1021.1633615136
 20
871.7536374176
 41
3.0
 42
3.0
 43
3.0
 50
345.4891813009
  0
ENDBLK
  5
231
100
AcDbEntity
  8
0
  6
BYBLOCK
 62
0
100
AcDbBlockEnd
  0
BLOCK
  5
232
100
AcDbEntity
  8
0
100
AcDbBlockBegin
 62
2
  6
CONTINUOUS
  2
*D4
 70
65
 10
0.0
 20
0.0
  3
*D4
  1

  0
MTEXT
  5
233
100
AcDbEntity
  8
0
100
AcDbMText
 62
2
  6
CONTINUOUS
  7
STANDARD
 71
2
 72
1
 10
394.1847572833
 20
207.2526378092
 30
0.0
 11
0.9681003459
 21
-0.2505628071
 31
0.0
 44
0.9
  1
500
 40
8.0
 41
37.0285714286
  0
LINE
  5
234
100
AcDbEntity
  8
0
100
AcDbLine
 62
2
  6
CONTINUOUS
 10
450.5382393239
 20
295.3645828764
 11
228.9593454262
 21
237.9603007422
  0
LINE
  5
235
100
AcDbEntity
  8
0
100
AcDbLine
 62
2
  6
CONTINUOUS
 10
724.400963122
 20
198.6447399417
 11
552.7149777021
 21
154.16617715
  0
LINE
  5
236
100
AcDbEntity
  8
0
100
AcDbLine
 62
2
  6
CONTINUOUS
 10
229.4433662073
 20
238.0856956523
 11
391.3211823452
 21
196.1886338562
  0
LINE
  5
237
100
AcDbEntity
  8
0
100
AcDbLine
 62
2
  6
CONTINUOUS
 10
553.1989984832
 20
154.2915720601
 11
391.3211823452
 21
196.1886338562
  0
INSERT
  5
238
100
AcDbEntity
  8
0
100
AcDbBlockReference
 62
2
  6
CONTINUOUS
  2
_FILLED
 10
229.4433662073
 20
238.0856956523
 41
3.0
 42
3.0
 43
3.0
 50
165.4891813009
  0
INSERT
  5
239
100
AcDbEntity
  8
0
100
AcDbBlockReference
 62
2
  6
CONTINUOUS
  2
_FILLED
 10
553.1989984832
 20
154.2915720601
 41
3.0
 42
3.0
 43
3.0
 50
345.4891813009
  0
ENDBLK
  5
23A
100
AcDbEntity
  8
0
  6
BYBLOCK
 62
0
100
AcDbBlockEnd
  0
BLOCK
  5
23B
100
AcDbEntity
  8
0
100
AcDbBlockBegin
 62
2
  6
CONTINUOUS
  2
*D5
 70
65
 10
0.0
 20
0.0
  3
*D5
  1

  0
MTEXT
  5
23C
100
AcDbEntity
  8
0
100
AcDbMText
 62
2
  6
CONTINUOUS
  7
STANDARD
 71
2
 72
1
 10
1103.5797986892
 20
240.7729281746
 30
0.0
 11
0.9681003459
 21
0.2505628071
 31
0.0
 44
0.9
  1
750
 40
8.0
 41
37.0285714286
  0
LINE
  5
23D
100
AcDbEntity
  8
0
100
AcDbLine
 62
2
  6
CONTINUOUS
 10
1240.0411699916
 20
336.5031948425
 11
1368.3959489092
 21
297.23722361
  0
LINE
  5
23E
100
AcDbEntity
  8
0
100
AcDbLine
 62
2
  6
CONTINUOUS
 10
725.3631113016
 20
198.6238673202
 11
845.4470531423
 21
161.8880897702
  0
LINE
  5
23F
100
AcDbEntity
  8
0
100
AcDbLine
 62
2
  6
CONTINUOUS
 10
1367.9178215107
 20
297.3834911415
 11
1106.4433736273
 21
229.7089242216
  0
LINE
  5
240
100
AcDbEntity
  8
0
100
AcDbLine
 62
2
  6
CONTINUOUS
 10
844.9689257438
 20
162.0343573017
 11
1106.4433736273
 21
229.7089242216
  0
INSERT
  5
241
100
AcDbEntity
  8
0
100
AcDbBlockReference
 62
2
  6
CONTINUOUS
  2
_FILLED
 10
1367.9178215107
 20
297.3834911415
 41
3.0
 42
3.0
 43
3.0
 50
14.5108186991
  0
INSERT
  5
242
100
AcDbEntity
  8
0
100
AcDbBlockReference
 62
2
  6
CONTINUOUS
  2
_FILLED
 10
844.9689257438
 20
162.0343573017
 41
3.0
 42
3.0
 43
3.0
 50
194.5108186991
  0
ENDBLK
  5
243
100
AcDbEntity
  8
0
  6
BYBLOCK
 62
0
100
AcDbBlockEnd
  0
ENDSEC
  0
SECTION
  2
ENTITIES
  0
DIMENSION
  5
244
100
AcDbEntity
  8
0
100
AcDbDimension
 62
2
  6
CONTINUOUS
  2
*D0
 10
294.9406472096
 20
312.94222563
 11
294.9406472096
 21
549.1882579543
 70
160
 71
2
 42
472.3416386684
  1
<> - 970
  3
DIMSTYLE_1
100
AcDbAlignedDimension
 13
510.3291818471
 23
841.1764438969
 14
510.9090808344
 24
368.8348052285
 50
270.0
100
AcDbRotatedDimension
  0
DIMENSION
  5
245
100
AcDbEntity
  8
0
100
AcDbDimension
 62
2
  6
CONTINUOUS
  2
*D1
 10
230.120547954
 20
768.7920576965
 11
230.120547954
 21
503.557873001
 70
160
 71
2
 42
545.9621000597
  1
<> - 1030
  3
DIMSTYLE_1
100
AcDbAlignedDimension
 13
451.0382060623
 23
295.3647113354
 14
510.9090086521
 24
841.3268113951
 50
90.0
100
AcDbRotatedDimension
  0
DIMENSION
  5
246
100
AcDbEntity
  8
0
100
AcDbDimension
 62
2
  6
CONTINUOUS
  2
*D2
 10
672.7124886473
 20
918.5749525497
 11
557.489438653
 21
888.7530327763
 70
160
 71
2
 42
238.0394769694
  3
DIMSTYLE_2
100
AcDbAlignedDimension
 13
509.9544248407
 23
840.9433356527
 14
740.4005248294
 24
900.5871751993
 50
14.5108186991
100
AcDbRotatedDimension
  0
DIMENSION
  5
247
100
AcDbEntity
  8
0
100
AcDbDimension
 62
2
  6
CONTINUOUS
  2
*D3
 10
1021.1633615136
 20
871.7536374176
 11
922.7694529115
 21
897.2198548859
 70
160
 71
2
 42
203.2721277711
  3
DIMSTYLE_2
100
AcDbAlignedDimension
 13
741.1178935306
 23
900.5875953028
 14
937.9057107349
 24
849.6551603662
 50
345.4891813009
100
AcDbRotatedDimension
  0
DIMENSION
  5
248
100
AcDbEntity
  8
0
100
AcDbDimension
 62
2
  6
CONTINUOUS
  2
*D4
 10
553.1989984832
 20
154.2915720601
 11
391.3211823452
 21
196.1886338562
 70
160
 71
2
 42
289.360992981
  3
DIMSTYLE_2
100
AcDbAlignedDimension
 13
450.6635207274
 23
295.8486330494
 14
724.5262445255
 24
199.1287901146
 50
345.4891813009
100
AcDbRotatedDimension
  0
DIMENSION
  5
249
100
AcDbEntity
  8
0
100
AcDbDimension
 62
2
  6
CONTINUOUS
  2
*D5
 10
844.9689257438
 20
162.0343573017
 11
1106.4433736273
 21
229.7089242216
 70
160
 71
2
 42
532.807437981
  3
DIMSTYLE_1
100
AcDbAlignedDimension
 13
1239.915888588
 23
336.9872450154
 14
725.2378298981
 24
199.1079174931
 50
194.5108186991
100
AcDbRotatedDimension
  0
LINE
  5
24A
100
AcDbEntity
  8
0
100
AcDbLine
 62
7
  6
CONTINUOUS
 10
366.8061094731
 20
325.9513788709
 11
367.7695425171
 21
325.0548033988
  0
LINE
  5
24B
100
AcDbEntity
  8
0
100
AcDbLine
 62
7
  6
CONTINUOUS
 10
368.8567195756
 20
325.0420800887
 11
369.5638263568
 21
324.2591669644
  0
LINE
  5
24C
100
AcDbEntity
  8
0
100
AcDbLine
 62
7
  6
CONTINUOUS
 10
366.5135738251
 20
330.369885009
 11
366.5135738251
 21
326.5061817039
  0
LINE
  5
24D
100
AcDbEntity
  8
0
100
AcDbLine
 62
7
  6
CONTINUOUS
 10
368.8567195756
 20
328.9057833939
 11
368.8567195756
 21
325.0420800887
  0
LINE
  5
24E
100
AcDbEntity
  8
0
100
AcDbLine
 62
7
  6
CONTINUOUS
 10
724.8849839031
 20
198.7701348517
 11
1234.0018663574
 21
330.5392802141
  0
LINE
  5
24F
100
AcDbEntity
  8
0
100
AcDbLine
 62
7
  6
CONTINUOUS
 10
726.2368803311
 20
201.6188596012
 11
1235.3537627854
 21
333.3880049636
  0
LINE
  5
250
100
AcDbEntity
  8
0
100
AcDbLine
 62
7
  6
CONTINUOUS
 10
726.0962162177
 20
203.2310740386
 11
1235.213098672
 21
335.000219401
  0
LINE
  5
251
100
AcDbEntity
  8
0
100
AcDbLine
 62
7
  6
CONTINUOUS
 10
723.4241594995
 20
198.5156065561
 11
724.8849839031
 21
198.7701348517
  0
LINE
  5
252
100
AcDbEntity
  8
0
100
AcDbLine
 62
7
  6
CONTINUOUS
 10
452.74780261
 20
295.0433745231
 11
670.9838881039
 21
238.5597192686
  0
LINE
  5
253
100
AcDbEntity
  8
0
100
AcDbLine
 62
7
  6
CONTINUOUS
 10
451.4608238916
 20
296.310164642
 11
668.5528343323
 21
240.1226178004
  0
LINE
  5
254
100
AcDbEntity
  8
0
100
AcDbLine
 62
7
  6
CONTINUOUS
 10
451.0650359805
 20
296.5079495945
 11
451.4255030142
 21
296.4146538611
  0
LINE
  5
255
100
AcDbEntity
  8
0
100
AcDbLine
 62
7
  6
CONTINUOUS
 10
451.022260105
 20
296.9438418673
 11
451.3261555197
 21
296.8651879463
  0
LINE
  5
256
100
AcDbEntity
  8
0
100
AcDbLine
 62
7
  6
CONTINUOUS
 10
636.1430828642
 20
255.263378351
 11
369.5638263568
 21
324.2591669644
  0
LINE
  5
257
100
AcDbEntity
  8
0
100
AcDbLine
 62
7
  6
CONTINUOUS
 10
368.8567195756
 20
325.0420800887
 11
635.4449583769
 21
256.0439666866
  0
LINE
  5
258
100
AcDbEntity
  8
0
100
AcDbLine
 62
7
  6
CONTINUOUS
 10
368.8567195756
 20
328.9057833939
 11
632.0469854984
 21
260.7871300875
  0
LINE
  5
259
100
AcDbEntity
  8
0
100
AcDbLine
 62
7
  6
CONTINUOUS
 10
632.7540922796
 20
261.9360686157
 11
369.5638263568
 21
330.0547219221
  0
LINE
  5
25A
100
AcDbEntity
  8
0
100
AcDbLine
 62
7
  6
CONTINUOUS
 10
509.1252240091
 20
351.8109660877
 11
508.9325374003
 21
351.9902811821
  0
LINE
  5
25B
100
AcDbEntity
  8
0
100
AcDbLine
 62
7
  6
CONTINUOUS
 10
451.022260105
 20
296.9438418673
 11
451.022260105
 21
303.1761729261
  0
LINE
  5
25C
100
AcDbEntity
  8
0
100
AcDbLine
 62
7
  6
CONTINUOUS
 10
451.3051028174
 20
303.1029678454
 11
451.3051028174
 21
297.1838020363
  0
LINE
  5
25D
100
AcDbEntity
  8
0
100
AcDbLine
 62
7
  6
CONTINUOUS
 10
451.100267443
 20
296.3386423117
 11
451.4607529552
 21
296.3092933492
  0
LINE
  5
25E
100
AcDbEntity
  8
0
100
AcDbLine
 62
7
  6
CONTINUOUS
 10
509.8700937354
 20
352.9210029591
 11
509.1614681628
 21
353.2710503182
  0
LINE
  5
25F
100
AcDbEntity
  8
0
100
AcDbLine
 62
7
  6
CONTINUOUS
 10
518.5064679013
 20
356.6035638918
 11
519.8794299482
 21
355.9253471334
  0
LINE
  5
260
100
AcDbEntity
  8
0
100
AcDbLine
 62
7
  6
CONTINUOUS
 10
635.4449583769
 20
256.0439666866
 11
636.1430828642
 21
255.263378351
  0
LINE
  5
261
100
AcDbEntity
  8
0
100
AcDbLine
 62
7
  6
CONTINUOUS
 10
513.5140600086
 20
355.9656074311
 11
513.4244335447
 21
356.3182273303
  0
LINE
  5
262
100
AcDbEntity
  8
0
100
AcDbLine
 62
7
  6
CONTINUOUS
 10
513.936094125
 20
355.5538925939
 11
513.8840529525
 21
355.8698462107
  0
LINE
  5
263
100
AcDbEntity
  8
0
100
AcDbLine
 62
7
  6
CONTINUOUS
 10
506.2829224993
 20
368.3684310632
 11
506.2829224993
 21
368.0024056594
  0
LINE
  5
264
100
AcDbEntity
  8
0
100
AcDbLine
 62
7
  6
CONTINUOUS
 10
508.4704490555
 20
353.9977662563
 11
508.4704490555
 21
355.1986311954
  0
LINE
  5
265
100
AcDbEntity
  8
0
100
AcDbLine
 62
7
  6
CONTINUOUS
 10
508.7204490555
 20
352.392513236
 11
508.7204490555
 21
353.3584390623
  0
LINE
  5
266
100
AcDbEntity
  8
0
100
AcDbLine
 62
7
  6
CONTINUOUS
 10
510.8930626948
 20
368.9534840565
 11
510.8930626948
 21
841.1555787825
  0
LINE
  5
267
100
AcDbEntity
  8
0
100
AcDbLine
 62
7
  6
CONTINUOUS
 10
511.3031132011
 20
368.9616829634
 11
511.3031132011
 21
841.0457711614
  0
LINE
  5
268
100
AcDbEntity
  8
0
100
AcDbLine
 62
7
  6
CONTINUOUS
 10
511.7273772698
 20
841.1555787825
 11
511.7273772698
 21
841.4483991056
  0
LINE
  5
269
100
AcDbEntity
  8
0
100
AcDbLine
 62
7
  6
CONTINUOUS
 10
514.5204490555
 20
355.705134779
 11
514.5204490555
 21
356.0345576424
  0
LINE
  5
26A
100
AcDbEntity
  8
0
100
AcDbLine
 62
7
  6
CONTINUOUS
 10
517.3135208412
 20
839.7097784376
 11
517.3135208412
 21
842.8941994505
  0
LINE
  5
26B
100
AcDbEntity
  8
0
100
AcDbLine
 62
7
  6
CONTINUOUS
 10
518.4448916911
 20
839.4169581145
 11
518.4448916911
 21
842.8941994505
  0
LINE
  5
26C
100
AcDbEntity
  8
0
100
AcDbLine
 62
7
  6
CONTINUOUS
 10
520.3204490555
 20
352.392513236
 11
520.3204490555
 21
353.3584390623
  0
LINE
  5
26D
100
AcDbEntity
  8
0
100
AcDbLine
 62
7
  6
CONTINUOUS
 10
520.5704490555
 20
353.9977662563
 11
520.5704490555
 21
355.1986311954
  0
LINE
  5
26E
100
AcDbEntity
  8
0
100
AcDbLine
 62
7
  6
CONTINUOUS
 10
527.3544371341
 20
838.6563877541
 11
527.3544371341
 21
837.1109980707
  0
LINE
  5
26F
100
AcDbEntity
  8
0
100
AcDbLine
 62
7
  6
CONTINUOUS
 10
527.7787012028
 20
838.7661953752
 11
527.7787012028
 21
837.0011904496
  0
LINE
  5
270
100
AcDbEntity
  8
0
100
AcDbLine
 62
7
  6
CONTINUOUS
 10
369.5638263568
 20
330.0547219221
 11
368.8567195756
 21
328.9057833939
  0
LINE
  5
271
100
AcDbEntity
  8
0
100
AcDbLine
 62
7
  6
CONTINUOUS
 10
632.7540922796
 20
261.9360686157
 11
1160.2557510448
 21
398.4635442273
  0
LINE
  5
272
100
AcDbEntity
  8
0
100
AcDbLine
 62
7
  6
CONTINUOUS
 10
712.0485894553
 20
320.6015464036
 11
933.5897506172
 21
377.9406181864
  0
LINE
  5
273
100
AcDbEntity
  8
0
100
AcDbLine
 62
7
  6
CONTINUOUS
 10
678.2510242393
 20
313.3285436558
 11
678.8874203423
 21
313.4932550875
  0
LINE
  5
274
100
AcDbEntity
  8
0
100
AcDbLine
 62
7
  6
CONTINUOUS
 10
975.2358723376
 20
390.1938784506
 11
975.8722684407
 21
390.3585898823
  0
LINE
  5
275
100
AcDbEntity
  8
0
100
AcDbLine
 62
7
  6
CONTINUOUS
 10
676.0589932176
 20
313.3285436558
 11
677.1550087284
 21
313.6122133438
  0
LINE
  5
276
100
AcDbEntity
  8
0
100
AcDbLine
 62
7
  6
CONTINUOUS
 10
677.7914048315
 20
313.7769247755
 11
678.8874203423
 21
314.0605944634
  0
LINE
  5
277
100
AcDbEntity
  8
0
100
AcDbLine
 62
7
  6
CONTINUOUS
 10
973.0438413159
 20
390.1938784506
 11
974.1398568268
 21
390.4775481385
  0
LINE
  5
278
100
AcDbEntity
  8
0
100
AcDbLine
 62
7
  6
CONTINUOUS
 10
974.7762529298
 20
390.6422595702
 11
975.8722684407
 21
390.9259292581
  0
LINE
  5
279
100
AcDbEntity
  8
0
100
AcDbLine
 62
7
  6
CONTINUOUS
 10
975.2358723376
 20
391.0906406898
 11
974.1398568268
 21
390.8069710019
  0
LINE
  5
27A
100
AcDbEntity
  8
0
100
AcDbLine
 62
7
  6
CONTINUOUS
 10
973.5034607237
 20
390.6422595702
 11
972.4074452129
 21
390.3585898823
  0
LINE
  5
27B
100
AcDbEntity
  8
0
100
AcDbLine
 62
7
  6
CONTINUOUS
 10
678.2510242393
 20
314.2253058951
 11
677.1550087284
 21
313.9416362072
  0
LINE
  5
27C
100
AcDbEntity
  8
0
100
AcDbLine
 62
7
  6
CONTINUOUS
 10
676.5186126254
 20
313.7769247755
 11
675.4225971145
 21
313.4932550875
  0
LINE
  5
27D
100
AcDbEntity
  8
0
100
AcDbLine
 62
7
  6
CONTINUOUS
 10
973.0438413159
 20
391.0906406898
 11
972.4074452129
 21
390.9259292581
  0
LINE
  5
27E
100
AcDbEntity
  8
0
100
AcDbLine
 62
7
  6
CONTINUOUS
 10
676.0589932176
 20
314.2253058951
 11
675.4225971145
 21
314.0605944634
  0
LINE
  5
27F
100
AcDbEntity
  8
0
100
AcDbLine
 62
7
  6
CONTINUOUS
 10
512.7880374416
 20
355.5861765228
 11
513.4244335447
 21
355.4214650911
  0
LINE
  5
280
100
AcDbEntity
  8
0
100
AcDbLine
 62
7
  6
CONTINUOUS
 10
675.4225971145
 20
313.4932550875
 11
676.0589932176
 21
313.3285436558
  0
LINE
  5
281
100
AcDbEntity
  8
0
100
AcDbLine
 62
7
  6
CONTINUOUS
 10
512.7880374416
 20
356.1535158986
 11
513.8840529525
 21
355.8698462107
  0
LINE
  5
282
100
AcDbEntity
  8
0
100
AcDbLine
 62
7
  6
CONTINUOUS
 10
514.5204490555
 20
355.705134779
 11
515.6164645664
 21
355.4214650911
  0
LINE
  5
283
100
AcDbEntity
  8
0
100
AcDbLine
 62
7
  6
CONTINUOUS
 10
675.4225971145
 20
314.0605944634
 11
676.5186126254
 21
313.7769247755
  0
LINE
  5
284
100
AcDbEntity
  8
0
100
AcDbLine
 62
7
  6
CONTINUOUS
 10
677.1550087284
 20
313.6122133438
 11
678.2510242393
 21
313.3285436558
  0
LINE
  5
285
100
AcDbEntity
  8
0
100
AcDbLine
 62
7
  6
CONTINUOUS
 10
678.8874203423
 20
313.4932550875
 11
677.7914048315
 21
313.7769247755
  0
LINE
  5
286
100
AcDbEntity
  8
0
100
AcDbLine
 62
7
  6
CONTINUOUS
 10
677.1550087284
 20
313.9416362072
 11
676.0589932176
 21
314.2253058951
  0
LINE
  5
287
100
AcDbEntity
  8
0
100
AcDbLine
 62
7
  6
CONTINUOUS
 10
516.2528606694
 20
355.5861765228
 11
515.1568451586
 21
355.8698462107
  0
LINE
  5
288
100
AcDbEntity
  8
0
100
AcDbLine
 62
7
  6
CONTINUOUS
 10
514.5204490555
 20
356.0345576424
 11
513.4244335447
 21
356.3182273303
  0
LINE
  5
289
100
AcDbEntity
  8
0
100
AcDbLine
 62
7
  6
CONTINUOUS
 10
678.8874203423
 20
314.0605944634
 11
678.2510242393
 21
314.2253058951
  0
LINE
  5
28A
100
AcDbEntity
  8
0
100
AcDbLine
 62
7
  6
CONTINUOUS
 10
516.2528606694
 20
356.1535158986
 11
515.6164645664
 21
356.3182273303
  0
LINE
  5
28B
100
AcDbEntity
  8
0
100
AcDbLine
 62
7
  6
CONTINUOUS
 10
506.2829224993
 20
368.3684310632
 11
506.9900292804
 21
368.1854183613
  0
LINE
  5
28C
100
AcDbEntity
  8
0
100
AcDbLine
 62
7
  6
CONTINUOUS
 10
517.5966309982
 20
368.3684310632
 11
702.1537010145
 21
320.6015464347
  0
LINE
  5
28D
100
AcDbEntity
  8
0
100
AcDbLine
 62
7
  6
CONTINUOUS
 10
672.5046534083
 20
310.8280815239
 11
671.7960278357
 21
311.178128883
  0
LINE
  5
28E
100
AcDbEntity
  8
0
100
AcDbLine
 62
7
  6
CONTINUOUS
 10
681.1410275742
 20
314.5106424566
 11
682.5139896211
 21
313.8324256982
  0
LINE
  5
28F
100
AcDbEntity
  8
0
100
AcDbLine
 62
7
  6
CONTINUOUS
 10
671.759783682
 20
309.7180446525
 11
671.5670970732
 21
309.8973597469
  0
LINE
  5
290
100
AcDbEntity
  8
0
100
AcDbLine
 62
7
  6
CONTINUOUS
 10
515.104803986
 20
355.5538925939
 11
515.1568451586
 21
355.8698462107
  0
LINE
  5
291
100
AcDbEntity
  8
0
100
AcDbLine
 62
7
  6
CONTINUOUS
 10
515.5268381025
 20
355.9656074311
 11
515.6164645664
 21
356.3182273303
  0
LINE
  5
292
100
AcDbEntity
  8
0
100
AcDbLine
 62
7
  6
CONTINUOUS
 10
452.2853268005
 20
295.2976100475
 11
452.278599075
 21
295.2784795693
  0
LINE
  5
293
100
AcDbEntity
  8
0
100
AcDbLine
 62
7
  6
CONTINUOUS
 10
452.1436233395
 20
295.3123466937
 11
452.1683673635
 21
295.3707915377
  0
LINE
  5
294
100
AcDbEntity
  8
0
100
AcDbLine
 62
7
  6
CONTINUOUS
 10
367.7695425171
 20
331.8212633142
 11
366.8061094731
 21
330.924687842
  0
LINE
  5
295
100
AcDbEntity
  8
0
100
AcDbLine
 62
7
  6
CONTINUOUS
 10
515.6164645664
 20
355.4214650911
 11
516.2528606694
 21
355.5861765228
  0
LINE
  5
296
100
AcDbEntity
  8
0
100
AcDbLine
 62
7
  6
CONTINUOUS
 10
513.4244335447
 20
355.4214650911
 11
514.5204490555
 21
355.705134779
  0
LINE
  5
297
100
AcDbEntity
  8
0
100
AcDbLine
 62
7
  6
CONTINUOUS
 10
515.1568451586
 20
355.8698462107
 11
516.2528606694
 21
356.1535158986
  0
LINE
  5
298
100
AcDbEntity
  8
0
100
AcDbLine
 62
7
  6
CONTINUOUS
 10
515.6164645664
 20
356.3182273303
 11
514.5204490555
 21
356.0345576424
  0
LINE
  5
299
100
AcDbEntity
  8
0
100
AcDbLine
 62
7
  6
CONTINUOUS
 10
513.8840529525
 20
355.8698462107
 11
512.7880374416
 21
355.5861765228
  0
LINE
  5
29A
100
AcDbEntity
  8
0
100
AcDbLine
 62
7
  6
CONTINUOUS
 10
513.4244335447
 20
356.3182273303
 11
512.7880374416
 21
356.1535158986
  0
LINE
  5
29B
100
AcDbEntity
  8
0
100
AcDbLine
 62
7
  6
CONTINUOUS
 10
369.5638263568
 20
332.6168997486
 11
506.9900292804
 21
368.1854183613
  0
LINE
  5
29C
100
AcDbEntity
  8
0
100
AcDbLine
 62
7
  6
CONTINUOUS
 10
972.4074452129
 20
390.3585898823
 11
973.0438413159
 21
390.1938784506
  0
LINE
  5
29D
100
AcDbEntity
  8
0
100
AcDbLine
 62
7
  6
CONTINUOUS
 10
972.4074452129
 20
390.9259292581
 11
973.5034607237
 21
390.6422595702
  0
LINE
  5
29E
100
AcDbEntity
  8
0
100
AcDbLine
 62
7
  6
CONTINUOUS
 10
974.1398568268
 20
390.4775481385
 11
975.2358723376
 21
390.1938784506
  0
LINE
  5
29F
100
AcDbEntity
  8
0
100
AcDbLine
 62
7
  6
CONTINUOUS
 10
975.8722684407
 20
390.3585898823
 11
974.7762529298
 21
390.6422595702
  0
LINE
  5
2A0
100
AcDbEntity
  8
0
100
AcDbLine
 62
7
  6
CONTINUOUS
 10
974.1398568268
 20
390.8069710019
 11
973.0438413159
 21
391.0906406898
  0
LINE
  5
2A1
100
AcDbEntity
  8
0
100
AcDbLine
 62
7
  6
CONTINUOUS
 10
676.1486196815
 20
313.8726859959
 11
676.0589932176
 21
314.2253058951
  0
LINE
  5
2A2
100
AcDbEntity
  8
0
100
AcDbLine
 62
7
  6
CONTINUOUS
 10
676.5706537979
 20
313.4609711587
 11
676.5186126254
 21
313.7769247755
  0
LINE
  5
2A3
100
AcDbEntity
  8
0
100
AcDbLine
 62
7
  6
CONTINUOUS
 10
726.0962162177
 20
203.2310740386
 11
726.2368803311
 21
201.6188596012
  0
LINE
  5
2A4
100
AcDbEntity
  8
0
100
AcDbLine
 62
7
  6
CONTINUOUS
 10
671.1050087284
 20
311.904844821
 11
671.1050087284
 21
313.1057097602
  0
LINE
  5
2A5
100
AcDbEntity
  8
0
100
AcDbLine
 62
7
  6
CONTINUOUS
 10
671.3550087284
 20
310.2995918008
 11
671.3550087284
 21
311.2655176271
  0
LINE
  5
2A6
100
AcDbEntity
  8
0
100
AcDbLine
 62
7
  6
CONTINUOUS
 10
677.1550087284
 20
313.6122133438
 11
677.1550087284
 21
313.9416362072
  0
LINE
  5
2A7
100
AcDbEntity
  8
0
100
AcDbLine
 62
7
  6
CONTINUOUS
 10
682.9550087284
 20
310.2995918008
 11
682.9550087284
 21
311.2655176271
  0
LINE
  5
2A8
100
AcDbEntity
  8
0
100
AcDbLine
 62
7
  6
CONTINUOUS
 10
683.2050087284
 20
311.904844821
 11
683.2050087284
 21
313.1057097602
  0
LINE
  5
2A9
100
AcDbEntity
  8
0
100
AcDbLine
 62
7
  6
CONTINUOUS
 10
975.8722684407
 20
390.9259292581
 11
975.2358723376
 21
391.0906406898
  0
LINE
  5
2AA
100
AcDbEntity
  8
0
100
AcDbLine
 62
7
  6
CONTINUOUS
 10
969.4895015067
 20
387.6934163186
 11
968.7808759341
 21
388.0434636778
  0
LINE
  5
2AB
100
AcDbEntity
  8
0
100
AcDbLine
 62
7
  6
CONTINUOUS
 10
706.111031418
 20
319.3574861821
 11
706.111031418
 21
790.6257717901
  0
LINE
  5
2AC
100
AcDbEntity
  8
0
100
AcDbLine
 62
7
  6
CONTINUOUS
 10
708.0909304053
 20
319.3574608955
 11
708.0909304053
 21
790.6257717901
  0
LINE
  5
2AD
100
AcDbEntity
  8
0
100
AcDbLine
 62
7
  6
CONTINUOUS
 10
733.7731201248
 20
898.841182419
 11
733.7731201248
 21
797.4924268517
  0
LINE
  5
2AE
100
AcDbEntity
  8
0
100
AcDbLine
 62
7
  6
CONTINUOUS
 10
734.1831706311
 20
898.7313747978
 11
734.1831706311
 21
797.5985557322
  0
LINE
  5
2AF
100
AcDbEntity
  8
0
100
AcDbLine
 62
7
  6
CONTINUOUS
 10
734.6074346998
 20
899.134002742
 11
734.6074346998
 21
898.841182419
  0
LINE
  5
2B0
100
AcDbEntity
  8
0
100
AcDbLine
 62
7
  6
CONTINUOUS
 10
740.1935782712
 20
900.5798030869
 11
740.1935782712
 21
897.395382074
  0
LINE
  5
2B1
100
AcDbEntity
  8
0
100
AcDbLine
 62
7
  6
CONTINUOUS
 10
741.3249491211
 20
900.5798030869
 11
741.3249491211
 21
897.102561751
  0
LINE
  5
2B2
100
AcDbEntity
  8
0
100
AcDbLine
 62
7
  6
CONTINUOUS
 10
743.0927160741
 20
799.904515776
 11
743.0927160741
 21
894.4935631014
  0
LINE
  5
2B3
100
AcDbEntity
  8
0
100
AcDbLine
 62
7
  6
CONTINUOUS
 10
743.5169801428
 20
800.0143233972
 11
743.5169801428
 21
894.6033707225
  0
LINE
  5
2B4
100
AcDbEntity
  8
0
100
AcDbLine
 62
7
  6
CONTINUOUS
 10
677.7393636589
 20
313.4609711587
 11
677.7914048315
 21
313.7769247755
  0
LINE
  5
2B5
100
AcDbEntity
  8
0
100
AcDbLine
 62
7
  6
CONTINUOUS
 10
678.1613977754
 20
313.8726859959
 11
678.2510242393
 21
314.2253058951
  0
LINE
  5
2B6
100
AcDbEntity
  8
0
100
AcDbLine
 62
7
  6
CONTINUOUS
 10
519.9156741019
 20
351.8109660877
 11
520.1083607107
 21
351.9902811821
  0
LINE
  5
2B7
100
AcDbEntity
  8
0
100
AcDbLine
 62
7
  6
CONTINUOUS
 10
1160.2557510448
 20
398.4635442273
 11
936.967181913
 21
456.2548784723
  0
LINE
  5
2B8
100
AcDbEntity
  8
0
100
AcDbLine
 62
7
  6
CONTINUOUS
 10
978.1258756726
 20
391.3759772513
 11
979.4988377195
 21
390.6977604929
  0
LINE
  5
2B9
100
AcDbEntity
  8
0
100
AcDbLine
 62
7
  6
CONTINUOUS
 10
632.7540922796
 20
261.9360686157
 11
632.0469854984
 21
260.7871300875
  0
LINE
  5
2BA
100
AcDbEntity
  8
0
100
AcDbLine
 62
7
  6
CONTINUOUS
 10
968.7446317804
 20
386.5833794472
 11
968.5519451716
 21
386.7626945417
  0
LINE
  5
2BB
100
AcDbEntity
  8
0
100
AcDbLine
 62
7
  6
CONTINUOUS
 10
706.9475227221
 20
206.3162265803
 11
708.3435127126
 21
209.257865565
  0
LINE
  5
2BC
100
AcDbEntity
  8
0
100
AcDbLine
 62
7
  6
CONTINUOUS
 10
510.5344302097
 20
356.6035638918
 11
509.1614681628
 21
355.9253471334
  0
LINE
  5
2BD
100
AcDbEntity
  8
0
100
AcDbLine
 62
7
  6
CONTINUOUS
 10
519.1708043756
 20
352.9210029591
 11
519.8794299482
 21
353.2710503182
  0
LINE
  5
2BE
100
AcDbEntity
  8
0
100
AcDbLine
 62
7
  6
CONTINUOUS
 10
724.8849839031
 20
198.7701348517
 11
726.2368803311
 21
201.6188596012
  0
LINE
  5
2BF
100
AcDbEntity
  8
0
100
AcDbLine
 62
7
  6
CONTINUOUS
 10
682.5502337748
 20
309.7180446525
 11
682.7429203836
 21
309.8973597469
  0
LINE
  5
2C0
100
AcDbEntity
  8
0
100
AcDbLine
 62
7
  6
CONTINUOUS
 10
936.132867338
 20
850.1598037156
 11
936.132867338
 21
849.8669833926
  0
LINE
  5
2C1
100
AcDbEntity
  8
0
100
AcDbLine
 62
7
  6
CONTINUOUS
 10
936.5571314067
 20
849.7571757715
 11
936.5571314067
 21
378.3327588325
  0
LINE
  5
2C2
100
AcDbEntity
  8
0
100
AcDbLine
 62
7
  6
CONTINUOUS
 10
936.967181913
 20
849.8669833926
 11
936.967181913
 21
378.4026569426
  0
LINE
  5
2C3
100
AcDbEntity
  8
0
100
AcDbLine
 62
7
  6
CONTINUOUS
 10
673.1689898826
 20
314.5106424566
 11
671.7960278357
 21
313.8324256982
  0
LINE
  5
2C4
100
AcDbEntity
  8
0
100
AcDbLine
 62
7
  6
CONTINUOUS
 10
681.8053640485
 20
310.8280815239
 11
682.5139896211
 21
311.178128883
  0
LINE
  5
2C5
100
AcDbEntity
  8
0
100
AcDbLine
 62
7
  6
CONTINUOUS
 10
973.1334677798
 20
390.7380207906
 11
973.0438413159
 21
391.0906406898
  0
LINE
  5
2C6
100
AcDbEntity
  8
0
100
AcDbLine
 62
7
  6
CONTINUOUS
 10
973.5555018963
 20
390.3263059534
 11
973.5034607237
 21
390.6422595702
  0
LINE
  5
2C7
100
AcDbEntity
  8
0
100
AcDbLine
 62
7
  6
CONTINUOUS
 10
968.0898568268
 20
388.7701796158
 11
968.0898568268
 21
389.9710445549
  0
LINE
  5
2C8
100
AcDbEntity
  8
0
100
AcDbLine
 62
7
  6
CONTINUOUS
 10
968.3398568268
 20
387.1649265956
 11
968.3398568268
 21
388.1308524219
  0
LINE
  5
2C9
100
AcDbEntity
  8
0
100
AcDbLine
 62
7
  6
CONTINUOUS
 10
974.1398568268
 20
390.4775481385
 11
974.1398568268
 21
390.8069710019
  0
LINE
  5
2CA
100
AcDbEntity
  8
0
100
AcDbLine
 62
7
  6
CONTINUOUS
 10
979.9398568268
 20
387.1649265956
 11
979.9398568268
 21
388.1308524219
  0
LINE
  5
2CB
100
AcDbEntity
  8
0
100
AcDbLine
 62
7
  6
CONTINUOUS
 10
980.1898568268
 20
388.7701796158
 11
980.1898568268
 21
389.9710445549
  0
LINE
  5
2CC
100
AcDbEntity
  8
0
100
AcDbLine
 62
7
  6
CONTINUOUS
 10
974.7242117573
 20
390.3263059534
 11
974.7762529298
 21
390.6422595702
  0
LINE
  5
2CD
100
AcDbEntity
  8
0
100
AcDbLine
 62
7
  6
CONTINUOUS
 10
975.1462458737
 20
390.7380207906
 11
975.2358723376
 21
391.0906406898
  0
LINE
  5
2CE
100
AcDbEntity
  8
0
100
AcDbLine
 62
7
  6
CONTINUOUS
 10
709.4049966931
 20
210.1876241547
 11
708.303530708
 21
209.3049248251
  0
LINE
  5
2CF
100
AcDbEntity
  8
0
100
AcDbLine
 62
7
  6
CONTINUOUS
 10
970.153837981
 20
391.3759772513
 11
968.7808759341
 21
390.6977604929
  0
LINE
  5
2D0
100
AcDbEntity
  8
0
100
AcDbLine
 62
7
  6
CONTINUOUS
 10
978.7902121469
 20
387.6934163186
 11
979.4988377195
 21
388.0434636778
  0
LINE
  5
2D1
100
AcDbEntity
  8
0
100
AcDbLine
 62
7
  6
CONTINUOUS
 10
936.5571314067
 20
849.7571757715
 11
708.0909304053
 21
790.6257717901
  0
LINE
  5
2D2
100
AcDbEntity
  8
0
100
AcDbLine
 62
7
  6
CONTINUOUS
 10
936.132867338
 20
849.8669833926
 11
707.6666663366
 21
790.7355794112
  0
LINE
  5
2D3
100
AcDbEntity
  8
0
100
AcDbLine
 62
7
  6
CONTINUOUS
 10
936.5571314067
 20
850.2696113368
 11
936.132867338
 21
850.1598037156
  0
LINE
  5
2D4
100
AcDbEntity
  8
0
100
AcDbLine
 62
7
  6
CONTINUOUS
 10
706.111031418
 20
790.6257717901
 11
706.5352954867
 21
790.7355794112
  0
LINE
  5
2D5
100
AcDbEntity
  8
0
100
AcDbLine
 62
7
  6
CONTINUOUS
 10
706.111031418
 20
790.6257717901
 11
511.3031132011
 21
841.0457711614
  0
LINE
  5
2D6
100
AcDbEntity
  8
0
100
AcDbLine
 62
7
  6
CONTINUOUS
 10
706.5352954867
 20
790.7355794112
 11
511.7273772698
 21
841.1555787825
  0
LINE
  5
2D7
100
AcDbEntity
  8
0
100
AcDbLine
 62
7
  6
CONTINUOUS
 10
708.0909304053
 20
790.6257717901
 11
707.6666663366
 21
790.7355794112
  0
LINE
  5
2D8
100
AcDbEntity
  8
0
100
AcDbLine
 62
7
  6
CONTINUOUS
 10
511.3031132011
 20
841.5582067267
 11
511.7273772698
 21
841.4483991056
  0
LINE
  5
2D9
100
AcDbEntity
  8
0
100
AcDbLine
 62
7
  6
CONTINUOUS
 10
516.8892567725
 20
843.0040070716
 11
517.3135208412
 21
842.8941994505
  0
LINE
  5
2DA
100
AcDbEntity
  8
0
100
AcDbLine
 62
7
  6
CONTINUOUS
 10
518.4448916911
 20
842.8941994505
 11
525.9402235717
 21
840.9542648104
  0
LINE
  5
2DB
100
AcDbEntity
  8
0
100
AcDbLine
 62
7
  6
CONTINUOUS
 10
518.8691557598
 20
843.0040070716
 11
526.3644876404
 21
841.0640724316
  0
LINE
  5
2DC
100
AcDbEntity
  8
0
100
AcDbLine
 62
7
  6
CONTINUOUS
 10
979.5350818732
 20
386.5833794472
 11
979.727768482
 21
386.7626945417
  0
LINE
  5
2DD
100
AcDbEntity
  8
0
100
AcDbLine
 62
7
  6
CONTINUOUS
 10
743.5169801428
 20
894.6033707225
 11
743.0927160741
 21
894.4935631014
  0
LINE
  5
2DE
100
AcDbEntity
  8
0
100
AcDbLine
 62
7
  6
CONTINUOUS
 10
527.3544371341
 20
838.6563877541
 11
527.7787012028
 21
838.7661953752
  0
LINE
  5
2DF
100
AcDbEntity
  8
0
100
AcDbLine
 62
7
  6
CONTINUOUS
 10
742.1027665804
 20
896.9012477789
 11
741.6785025117
 21
896.7914401578
  0
LINE
  5
2E0
100
AcDbEntity
  8
0
100
AcDbLine
 62
7
  6
CONTINUOUS
 10
525.9402235717
 20
840.9542648104
 11
526.3644876404
 21
841.0640724316
  0
LINE
  5
2E1
100
AcDbEntity
  8
0
100
AcDbLine
 62
7
  6
CONTINUOUS
 10
741.7492131898
 20
900.6896107081
 11
741.3249491211
 21
900.5798030869
  0
LINE
  5
2E2
100
AcDbEntity
  8
0
100
AcDbLine
 62
7
  6
CONTINUOUS
 10
518.8691557598
 20
843.0040070716
 11
518.4448916911
 21
842.8941994505
  0
LINE
  5
2E3
100
AcDbEntity
  8
0
100
AcDbLine
 62
7
  6
CONTINUOUS
 10
511.3031132011
 20
841.0457711614
 11
511.7273772698
 21
841.1555787825
  0
LINE
  5
2E4
100
AcDbEntity
  8
0
100
AcDbLine
 62
7
  6
CONTINUOUS
 10
734.1831706311
 20
898.7313747978
 11
734.6074346998
 21
898.841182419
  0
LINE
  5
2E5
100
AcDbEntity
  8
0
100
AcDbLine
 62
7
  6
CONTINUOUS
 10
511.7273772698
 20
841.4483991056
 11
517.3135208412
 21
842.8941994505
  0
LINE
  5
2E6
100
AcDbEntity
  8
0
100
AcDbLine
 62
7
  6
CONTINUOUS
 10
734.6074346998
 20
899.134002742
 11
740.1935782712
 21
900.5798030869
  0
LINE
  5
2E7
100
AcDbEntity
  8
0
100
AcDbLine
 62
7
  6
CONTINUOUS
 10
511.3031132011
 20
841.5582067267
 11
516.8892567725
 21
843.0040070716
  0
LINE
  5
2E8
100
AcDbEntity
  8
0
100
AcDbLine
 62
7
  6
CONTINUOUS
 10
734.1831706311
 20
899.2438103631
 11
739.7693142025
 21
900.6896107081
  0
LINE
  5
2E9
100
AcDbEntity
  8
0
100
AcDbLine
 62
7
  6
CONTINUOUS
 10
741.6785025117
 20
896.7914401578
 11
734.1831706311
 21
898.7313747978
  0
LINE
  5
2EA
100
AcDbEntity
  8
0
100
AcDbLine
 62
7
  6
CONTINUOUS
 10
742.1027665804
 20
896.9012477789
 11
734.6074346998
 21
898.841182419
  0
LINE
  5
2EB
100
AcDbEntity
  8
0
100
AcDbLine
 62
7
  6
CONTINUOUS
 10
734.1831706311
 20
899.2438103631
 11
734.6074346998
 21
899.134002742
  0
LINE
  5
2EC
100
AcDbEntity
  8
0
100
AcDbLine
 62
7
  6
CONTINUOUS
 10
936.5571314067
 20
849.7571757715
 11
936.132867338
 21
849.8669833926
  0
LINE
  5
2ED
100
AcDbEntity
  8
0
100
AcDbLine
 62
7
  6
CONTINUOUS
 10
739.7693142025
 20
900.6896107081
 11
740.1935782712
 21
900.5798030869
  0
LINE
  5
2EE
100
AcDbEntity
  8
0
100
AcDbLine
 62
7
  6
CONTINUOUS
 10
741.3249491211
 20
900.5798030869
 11
936.132867338
 21
850.1598037156
  0
LINE
  5
2EF
100
AcDbEntity
  8
0
100
AcDbLine
 62
7
  6
CONTINUOUS
 10
741.7492131898
 20
900.6896107081
 11
936.5571314067
 21
850.2696113368
  0
LINE
  5
2F0
100
AcDbEntity
  8
0
100
AcDbLine
 62
7
  6
CONTINUOUS
 10
1235.213098672
 20
335.000219401
 11
1235.3537627854
 21
333.3880049636
  0
LINE
  5
2F1
100
AcDbEntity
  8
0
100
AcDbLine
 62
7
  6
CONTINUOUS
 10
1235.3537627854
 20
333.3880049636
 11
1234.0018663574
 21
330.5392802141
  0
LINE
  5
2F2
100
AcDbEntity
  8
0
100
AcDbLine
 62
7
  6
CONTINUOUS
 10
1239.563042593
 20
336.649462374
 11
1238.1985774749
 21
333.7742528009
  0
ARC
  5
2F3
100
AcDbEntity
  8
0
100
AcDbCircle
 62
7
  6
CONTINUOUS
 10
551.0011890297
 20
73.3996595361
 40
204.8087685885
100
AcDbArc
 50
40.2576555275
 51
40.4427555714
  0
ARC
  5
2F4
100
AcDbEntity
  8
0
100
AcDbCircle
 62
7
  6
CONTINUOUS
 10
604.2044128443
 20
149.5986801063
 40
110.9349842041
100
AcDbArc
 50
73.1774492038
 51
73.6436040873
  0
ARC
  5
2F5
100
AcDbEntity
  8
0
100
AcDbCircle
 62
7
  6
CONTINUOUS
 10
724.3714627344
 20
221.3271479353
 40
23.0012473354
100
AcDbArc
 50
224.9180790856
 51
229.2970069514
  0
ARC
  5
2F6
100
AcDbEntity
  8
0
100
AcDbCircle
 62
7
  6
CONTINUOUS
 10
723.4772016875
 20
220.4481678827
 40
21.7473642292
100
AcDbArc
 50
220.5287288021
 51
224.9418235241
  0
ARC
  5
2F7
100
AcDbEntity
  8
0
100
AcDbCircle
 62
7
  6
CONTINUOUS
 10
721.7734633797
 20
217.9297867553
 40
18.9146458559
100
AcDbArc
 50
220.0763040556
 51
224.2069827759
  0
ARC
  5
2F8
100
AcDbEntity
  8
0
100
AcDbCircle
 62
7
  6
CONTINUOUS
 10
514.5949154946
 20
341.5951294254
 40
15.6310813285
100
AcDbArc
 50
84.2672242638
 51
88.2321397445
  0
ARC
  5
2F9
100
AcDbEntity
  8
0
100
AcDbCircle
 62
7
  6
CONTINUOUS
 10
972.395104935
 20
395.2179186504
 40
9.4141608367
100
AcDbArc
 50
255.5040872882
 51
257.4011264749
  0
ARC
  5
2FA
100
AcDbEntity
  8
0
100
AcDbCircle
 62
7
  6
CONTINUOUS
 10
512.7756971636
 20
360.4455052904
 40
9.4141608362
100
AcDbArc
 50
255.5040872882
 51
257.4011264749
  0
ARC
  5
2FB
100
AcDbEntity
  8
0
100
AcDbCircle
 62
7
  6
CONTINUOUS
 10
675.4102568366
 20
318.3525838553
 40
9.4141608363
100
AcDbArc
 50
255.5040872882
 51
257.4011264749
  0
ARC
  5
2FC
100
AcDbEntity
  8
0
100
AcDbCircle
 62
7
  6
CONTINUOUS
 10
972.4556916655
 20
394.7487256283
 40
9.0912684443
100
AcDbArc
 50
255.5041597247
 51
257.4057983841
  0
ARC
  5
2FD
100
AcDbEntity
  8
0
100
AcDbCircle
 62
7
  6
CONTINUOUS
 10
512.8362838941
 20
359.9763122682
 40
9.0912684438
100
AcDbArc
 50
255.5041597246
 51
257.4057983842
  0
ARC
  5
2FE
100
AcDbEntity
  8
0
100
AcDbCircle
 62
7
  6
CONTINUOUS
 10
675.470843567
 20
317.8833908327
 40
9.0912684434
100
AcDbArc
 50
255.5041597246
 51
257.4057983843
  0
ARC
  5
2FF
100
AcDbEntity
  8
0
100
AcDbCircle
 62
7
  6
CONTINUOUS
 10
971.8669257083
 20
395.4444330374
 40
8.0356530815
100
AcDbArc
 50
253.163193561
 51
255.5508254817
  0
ARC
  5
300
100
AcDbEntity
  8
0
100
AcDbCircle
 62
7
  6
CONTINUOUS
 10
512.247517937
 20
360.6720196777
 40
8.0356530814
100
AcDbArc
 50
253.163193561
 51
255.5508254817
  0
ARC
  5
301
100
AcDbEntity
  8
0
100
AcDbCircle
 62
7
  6
CONTINUOUS
 10
674.8820776098
 20
318.5790982424
 40
8.0356530812
100
AcDbArc
 50
253.163193561
 51
255.5508254817
  0
ARC
  5
302
100
AcDbEntity
  8
0
100
AcDbCircle
 62
7
  6
CONTINUOUS
 10
452.642809681
 20
297.0192033509
 40
1.7784174564
100
AcDbArc
 50
257.4426823309
 51
258.1825142574
  0
ARC
  5
303
100
AcDbEntity
  8
0
100
AcDbCircle
 62
7
  6
CONTINUOUS
 10
452.6340642101
 20
296.9814655541
 40
1.7396810103
100
AcDbArc
 50
253.6255134762
 51
257.453598948
  0
ARC
  5
304
100
AcDbEntity
  8
0
100
AcDbCircle
 62
7
  6
CONTINUOUS
 10
452.3665380129
 20
296.6904622043
 40
1.3142368101
100
AcDbArc
 50
187.9826633387
 51
195.5273902844
  0
ARC
  5
305
100
AcDbEntity
  8
0
100
AcDbCircle
 62
7
  6
CONTINUOUS
 10
977.1455882325
 20
390.5610056724
 40
0.414938982
100
AcDbArc
 50
35.536502009
 51
37.5577298802
  0
ARC
  5
306
100
AcDbEntity
  8
0
100
AcDbCircle
 62
7
  6
CONTINUOUS
 10
517.5261804621
 20
355.7885923135
 40
0.4149389809
100
AcDbArc
 50
35.5365020066
 51
37.5577298831
  0
ARC
  5
307
100
AcDbEntity
  8
0
100
AcDbCircle
 62
7
  6
CONTINUOUS
 10
680.1607401351
 20
313.6956708784
 40
0.4149389808
100
AcDbArc
 50
35.5365020065
 51
37.5577298834
  0
ARC
  5
308
100
AcDbEntity
  8
0
100
AcDbCircle
 62
7
  6
CONTINUOUS
 10
971.1340538793
 20
390.5610833489
 40
0.4148349199
100
AcDbArc
 50
142.4447518316
 51
144.4885344268
  0
ARC
  5
309
100
AcDbEntity
  8
0
100
AcDbCircle
 62
7
  6
CONTINUOUS
 10
511.5146461082
 20
355.7886699892
 40
0.4148349201
100
AcDbArc
 50
142.4447518322
 51
144.4885344266
  0
ARC
  5
30A
100
AcDbEntity
  8
0
100
AcDbCircle
 62
7
  6
CONTINUOUS
 10
674.1492057814
 20
313.6957485538
 40
0.4148349204
100
AcDbArc
 50
142.4447518334
 51
144.488534426
  0
SPLINE
  5
30B
100
AcDbEntity
  8
0
100
AcDbSpline
 62
7
  6
CONTINUOUS
 70
0
 71
3
 72
9
 73
5
 74
0
 42
0.0000001
 43
0.0000001
 44
0.0000000001
 40
0.0
 40
0.0
 40
0.0
 40
0.0
 40
0.4758730048
 40
1.0
 40
1.0
 40
1.0
 40
1.0
 10
970.4733907957
 20
385.8762037101
 30
0.0
 10
970.7411998788
 20
385.8161650051
 30
0.0
 10
971.3090739816
 20
385.7124739941
 30
0.0
 10
971.8818909012
 20
385.6427945941
 30
0.0
 10
972.1827786137
 20
385.6137466126
 30
0.0
  0
SPLINE
  5
30C
100
AcDbEntity
  8
0
100
AcDbSpline
 62
7
  6
CONTINUOUS
 70
0
 71
3
 72
17
 73
13
 74
0
 42
0.0000001
 43
0.0000001
 44
0.0000000001
 40
0.0
 40
0.0
 40
0.0
 40
0.0
 40
0.1490600476
 40
0.3025410633
 40
0.4543309421
 40
0.5984058711
 40
0.7291511308
 40
0.841712211
 40
0.8899973315
 40
0.9325131266
 40
0.9691367394
 40
1.0
 40
1.0
 40
1.0
 40
1.0
 10
972.1827786137
 20
385.6137466126
 30
0.0
 10
972.555398479
 20
385.5777735418
 30
0.0
 10
973.3140600611
 20
385.5279809417
 30
0.0
 10
974.4554944514
 20
385.5145166684
 30
0.0
 10
975.5835811739
 20
385.5609043091
 30
0.0
 10
976.6505986708
 20
385.664911298
 30
0.0
 10
977.61141698
 20
385.8218689279
 30
0.0
 10
978.3236616111
 20
385.9980874843
 30
0.0
 10
978.8064049715
 20
386.1658895078
 30
0.0
 10
979.1002788355
 20
386.2936399933
 30
0.0
 10
979.3420208237
 20
386.4283383228
 30
0.0
 10
979.4783711719
 20
386.5306072162
 30
0.0
 10
979.5351116679
 20
386.5834125876
 30
0.0
  0
SPLINE
  5
30D
100
AcDbEntity
  8
0
100
AcDbSpline
 62
7
  6
CONTINUOUS
 70
0
 71
3
 72
11
 73
7
 74
0
 42
0.0000001
 43
0.0000001
 44
0.0000000001
 40
0.0
 40
0.0
 40
0.0
 40
0.0
 40
0.2196209292
 40
0.4526338624
 40
0.7101132052
 40
1.0
 40
1.0
 40
1.0
 40
1.0
 10
968.3398630312
 20
387.1649265078
 30
0.0
 10
968.3398630228
 20
387.130728771
 30
0.0
 10
968.349421731
 20
387.0599468392
 30
0.0
 10
968.3914066751
 20
386.9566401341
 30
0.0
 10
968.4598945333
 20
386.8554251603
 30
0.0
 10
968.518905447
 20
386.7934450504
 30
0.0
 10
968.5519500837
 20
386.7626947232
 30
0.0
  0
SPLINE
  5
30E
100
AcDbEntity
  8
0
100
AcDbSpline
 62
7
  6
CONTINUOUS
 70
0
 71
3
 72
9
 73
5
 74
0
 42
0.0000001
 43
0.0000001
 44
0.0000000001
 40
0.0
 40
0.0
 40
0.0
 40
0.0
 40
0.2444847772
 40
1.0
 40
1.0
 40
1.0
 40
1.0
 10
979.9398506224
 20
388.1308525101
 30
0.0
 10
979.9398506257
 20
388.1444817613
 30
0.0
 10
979.9369457236
 20
388.2002219934
 30
0.0
 10
979.9219306604
 20
388.2550748944
 30
0.0
 10
979.9055493763
 20
388.2938762337
 30
0.0
  0
SPLINE
  5
30F
100
AcDbEntity
  8
0
100
AcDbSpline
 62
7
  6
CONTINUOUS
 70
0
 71
3
 72
9
 73
5
 74
0
 42
0.0000001
 43
0.0000001
 44
0.0000000001
 40
0.0
 40
0.0
 40
0.0
 40
0.0
 40
0.2591277816
 40
1.0
 40
1.0
 40
1.0
 40
1.0
 10
968.3741645376
 20
388.293877246
 30
0.0
 10
968.3685468411
 20
388.2805709283
 30
0.0
 10
968.3491197923
 20
388.228316037
 30
0.0
 10
968.3398630412
 20
388.1721479327
 30
0.0
 10
968.3398630312
 20
388.1308523336
 30
0.0
  0
SPLINE
  5
310
100
AcDbEntity
  8
0
100
AcDbSpline
 62
7
  6
CONTINUOUS
 70
0
 71
3
 72
11
 73
7
 74
0
 42
0.0000001
 43
0.0000001
 44
0.0000000001
 40
0.0
 40
0.0
 40
0.0
 40
0.0
 40
0.1863396443
 40
0.4153114469
 40
0.6872402821
 40
1.0
 40
1.0
 40
1.0
 40
1.0
 10
968.7446013386
 20
386.5834123657
 30
0.0
 10
968.8165734553
 20
386.5164312379
 30
0.0
 10
968.9966970954
 20
386.3885816757
 30
0.0
 10
969.3213578721
 20
386.2256123365
 30
0.0
 10
969.7237413746
 20
386.0741323681
 30
0.0
 10
970.0203019652
 20
385.9882184245
 30
0.0
 10
970.1800588521
 20
385.9468702997
 30
0.0
  0
SPLINE
  5
311
100
AcDbEntity
  8
0
100
AcDbSpline
 62
7
  6
CONTINUOUS
 70
0
 71
3
 72
11
 73
7
 74
0
 42
0.0000001
 43
0.0000001
 44
0.0000000001
 40
0.0
 40
0.0
 40
0.0
 40
0.0
 40
0.289888719
 40
0.5473677351
 40
0.7803796311
 40
1.0
 40
1.0
 40
1.0
 40
1.0
 10
979.7277629606
 20
386.76269501
 30
0.0
 10
979.7608079593
 20
386.7934454519
 30
0.0
 10
979.819819605
 20
386.8554253295
 30
0.0
 10
979.888307603
 20
386.9566405479
 30
0.0
 10
979.9302919219
 20
387.0599472817
 30
0.0
 10
979.9398506141
 20
387.1307290008
 30
0.0
 10
979.9398506224
 20
387.1649266834
 30
0.0
  0
SPLINE
  5
312
100
AcDbEntity
  8
0
100
AcDbSpline
 62
7
  6
CONTINUOUS
 70
0
 71
3
 72
14
 73
10
 74
0
 42
0.0000001
 43
0.0000001
 44
0.0000000001
 40
0.0
 40
0.0
 40
0.0
 40
0.0
 40
0.0711228948
 40
0.1508853629
 40
0.2453269973
 40
0.3577172623
 40
0.4894582538
 40
0.640814664
 40
1.0
 40
1.0
 40
1.0
 40
1.0
 10
968.3398630312
 20
388.1308523336
 30
0.0
 10
968.339863019
 20
388.0809307171
 30
0.0
 10
968.3614683975
 20
387.974319787
 30
0.0
 10
968.4518939124
 20
387.8250521826
 30
0.0
 10
968.5953586138
 20
387.682133926
 30
0.0
 10
968.7902298961
 20
387.5447608371
 30
0.0
 10
969.0352071787
 20
387.4131447152
 30
0.0
 10
969.4504396004
 20
387.2365027217
 30
0.0
 10
969.7945653681
 20
387.1325492666
 30
0.0
 10
970.0386374959
 20
387.0693787509
 30
0.0
  0
SPLINE
  5
313
100
AcDbEntity
  8
0
100
AcDbSpline
 62
7
  6
CONTINUOUS
 70
0
 71
3
 72
9
 73
5
 74
0
 42
0.0000001
 43
0.0000001
 44
0.0000000001
 40
0.0
 40
0.0
 40
0.0
 40
0.0
 40
0.23517123
 40
1.0
 40
1.0
 40
1.0
 40
1.0
 10
970.0386374959
 20
387.0693787509
 30
0.0
 10
970.1134954527
 20
387.0500040861
 30
0.0
 10
970.4329049374
 20
386.9718676674
 30
0.0
 10
970.7560118386
 20
386.9092769462
 30
0.0
 10
971.0040801402
 20
386.8680142575
 30
0.0
  0
SPLINE
  5
314
100
AcDbEntity
  8
0
100
AcDbSpline
 62
7
  6
CONTINUOUS
 70
0
 71
3
 72
11
 73
7
 74
0
 42
0.0000001
 43
0.0000001
 44
0.0000000001
 40
0.0
 40
0.0
 40
0.0
 40
0.0
 40
0.2402213976
 40
0.4999968323
 40
0.7597732313
 40
1.0
 40
1.0
 40
1.0
 40
1.0
 10
971.0040801402
 20
386.8680142575
 30
0.0
 10
971.501284429
 20
386.7853112854
 30
0.0
 10
972.5453674407
 20
386.6673773834
 30
0.0
 10
974.139796197
 20
386.6101322292
 30
0.0
 10
975.7342365492
 20
386.6673690536
 30
0.0
 10
976.7783333736
 20
386.7852996135
 30
0.0
 10
977.2755491553
 20
386.8680021742
 30
0.0
  0
SPLINE
  5
315
100
AcDbEntity
  8
0
100
AcDbSpline
 62
7
  6
CONTINUOUS
 70
0
 71
3
 72
16
 73
12
 74
0
 42
0.0000001
 43
0.0000001
 44
0.0000000001
 40
0.0
 40
0.0
 40
0.0
 40
0.0
 40
0.192117383
 40
0.3671391811
 40
0.5229307204
 40
0.657909896
 40
0.7712843065
 40
0.8635212915
 40
0.9373526598
 40
0.9694720005
 40
1.0
 40
1.0
 40
1.0
 40
1.0
 10
977.2755491553
 20
386.8680021742
 30
0.0
 10
977.4708971448
 20
386.9004946645
 30
0.0
 10
977.842977308
 20
386.9704957546
 30
0.0
 10
978.3671312859
 20
387.0974322733
 30
0.0
 10
978.8260809683
 20
387.2398676429
 30
0.0
 10
979.213145263
 20
387.3954291765
 30
0.0
 10
979.5233339084
 20
387.5621817223
 30
0.0
 10
979.753393378
 20
387.7378874784
 30
0.0
 10
979.8822892522
 20
387.9017552705
 30
0.0
 10
979.9318343704
 20
388.0345676283
 30
0.0
 10
979.9398506148
 20
388.0993846909
 30
0.0
 10
979.9398506224
 20
388.1308525101
 30
0.0
  0
SPLINE
  5
316
100
AcDbEntity
  8
0
100
AcDbSpline
 62
7
  6
CONTINUOUS
 70
0
 71
3
 72
12
 73
8
 74
0
 42
0.0000001
 43
0.0000001
 44
0.0000000001
 40
0.0
 40
0.0
 40
0.0
 40
0.0
 40
0.1624439338
 40
0.2640424936
 40
0.3807829491
 40
0.6605203715
 40
1.0
 40
1.0
 40
1.0
 40
1.0
 10
968.5790010944
 20
388.1529764648
 30
0.0
 10
968.620940947
 20
388.0616623223
 30
0.0
 10
968.7330918451
 20
387.9345785965
 30
0.0
 10
968.921256774
 20
387.793738741
 30
0.0
 10
969.1878271399
 20
387.6375154276
 30
0.0
 10
969.6091907099
 20
387.4613178953
 30
0.0
 10
969.9767615628
 20
387.3517836666
 30
0.0
 10
970.1800588521
 20
387.2991664565
 30
0.0
  0
SPLINE
  5
317
100
AcDbEntity
  8
0
100
AcDbSpline
 62
7
  6
CONTINUOUS
 70
0
 71
3
 72
9
 73
5
 74
0
 42
0.0000001
 43
0.0000001
 44
0.0000000001
 40
0.0
 40
0.0
 40
0.0
 40
0.0
 40
0.4758559566
 40
1.0
 40
1.0
 40
1.0
 40
1.0
 10
970.3416500069
 20
386.0304409162
 30
0.0
 10
970.619135025
 20
385.9682102367
 30
0.0
 10
971.2075535705
 20
385.8607398113
 30
0.0
 10
971.8010974535
 20
385.7885320273
 30
0.0
 10
972.112883005
 20
385.7584319589
 30
0.0
  0
SPLINE
  5
318
100
AcDbEntity
  8
0
100
AcDbSpline
 62
7
  6
CONTINUOUS
 70
0
 71
3
 72
16
 73
12
 74
0
 42
0.0000001
 43
0.0000001
 44
0.0000000001
 40
0.0
 40
0.0
 40
0.0
 40
0.0
 40
0.1437020675
 40
0.2917528058
 40
0.4390118999
 40
0.5803746242
 40
0.7110078888
 40
0.8265965316
 40
0.9236400036
 40
0.9644763629
 40
1.0
 40
1.0
 40
1.0
 40
1.0
 10
972.112883005
 20
385.7584319589
 30
0.0
 10
972.4726745401
 20
385.723697348
 30
0.0
 10
973.2052795986
 20
385.6741173684
 30
0.0
 10
974.3098160098
 20
385.6552528577
 30
0.0
 10
975.4081125087
 20
385.6907187838
 30
0.0
 10
976.4594756975
 20
385.7791140414
 30
0.0
 10
977.425341143
 20
385.9168028469
 30
0.0
 10
978.2701678074
 20
386.0983820339
 30
0.0
 10
978.8803347818
 20
386.2891559611
 30
0.0
 10
979.2801043712
 20
386.4645941873
 30
0.0
 10
979.4484777078
 20
386.5579875693
 30
0.0
 10
979.5235433889
 20
386.6064591581
 30
0.0
  0
SPLINE
  5
319
100
AcDbEntity
  8
0
100
AcDbSpline
 62
7
  6
CONTINUOUS
 70
0
 71
3
 72
9
 73
5
 74
0
 42
0.0000001
 43
0.0000001
 44
0.0000000001
 40
0.0
 40
0.0
 40
0.0
 40
0.0
 40
0.2681625098
 40
1.0
 40
1.0
 40
1.0
 40
1.0
 10
979.5235433889
 20
386.6064591581
 30
0.0
 10
979.5428651449
 20
386.6189356481
 30
0.0
 10
979.6140668031
 20
386.6667304774
 30
0.0
 10
979.6818122806
 20
386.7199350231
 30
0.0
 10
979.7277629606
 20
386.76269501
 30
0.0
  0
SPLINE
  5
31A
100
AcDbEntity
  8
0
100
AcDbSpline
 62
7
  6
CONTINUOUS
 70
0
 71
3
 72
9
 73
5
 74
0
 42
0.0000001
 43
0.0000001
 44
0.0000000001
 40
0.0
 40
0.0
 40
0.0
 40
0.0
 40
0.2323759741
 40
1.0
 40
1.0
 40
1.0
 40
1.0
 10
968.5519500837
 20
386.7626947232
 30
0.0
 10
968.5665415683
 20
386.7491163344
 30
0.0
 10
968.6309263015
 20
386.6923948465
 30
0.0
 10
968.7008581545
 20
386.6421753044
 30
0.0
 10
968.756171847
 20
386.6064588921
 30
0.0
  0
SPLINE
  5
31B
100
AcDbEntity
  8
0
100
AcDbSpline
 62
7
  6
CONTINUOUS
 70
0
 71
3
 72
10
 73
6
 74
0
 42
0.0000001
 43
0.0000001
 44
0.0000000001
 40
0.0
 40
0.0
 40
0.0
 40
0.0
 40
0.2034202659
 40
0.4385078203
 40
1.0
 40
1.0
 40
1.0
 40
1.0
 10
968.756171847
 20
386.6064588921
 30
0.0
 10
968.8349090594
 20
386.5556177602
 30
0.0
 10
969.0123653096
 20
386.4579142862
 30
0.0
 10
969.4357063235
 20
386.2750681977
 30
0.0
 10
969.7881851161
 20
386.1682747699
 30
0.0
 10
970.0386374959
 20
386.1034529246
 30
0.0
  0
SPLINE
  5
31C
100
AcDbEntity
  8
0
100
AcDbSpline
 62
7
  6
CONTINUOUS
 70
0
 71
3
 72
13
 73
9
 74
0
 42
0.0000001
 43
0.0000001
 44
0.0000000001
 40
0.0
 40
0.0
 40
0.0
 40
0.0
 40
0.1055686166
 40
0.2232391062
 40
0.4825783829
 40
0.75095537
 40
0.8796185446
 40
1.0
 40
1.0
 40
1.0
 40
1.0
 10
970.1800588521
 20
387.2991664565
 30
0.0
 10
970.4195510861
 20
387.237181305
 30
0.0
 10
970.9316703278
 20
387.1277799169
 30
0.0
 10
972.0506191604
 20
386.9608086217
 30
0.0
 10
973.5618116353
 20
386.8563616651
 30
0.0
 10
975.1017457359
 20
386.8795712978
 30
0.0
 10
976.3104109447
 20
386.9805436486
 30
0.0
 10
976.8891495913
 20
387.0584485096
 30
0.0
 10
977.1674217787
 20
387.1047338906
 30
0.0
  0
SPLINE
  5
31D
100
AcDbEntity
  8
0
100
AcDbSpline
 62
7
  6
CONTINUOUS
 70
0
 71
3
 72
14
 73
10
 74
0
 42
0.0000001
 43
0.0000001
 44
0.0000000001
 40
0.0
 40
0.0
 40
0.0
 40
0.0
 40
0.3478424776
 40
0.4993489909
 40
0.6340563724
 40
0.7511181354
 40
0.850318309
 40
0.9324414276
 40
1.0
 40
1.0
 40
1.0
 40
1.0
 10
977.1674217787
 20
387.1047338906
 30
0.0
 10
977.4887532304
 20
387.1581813759
 30
0.0
 10
977.948001022
 20
387.2509698133
 30
0.0
 10
978.518717479
 20
387.4159109248
 30
0.0
 10
978.8741724047
 20
387.5445336869
 30
0.0
 10
979.17318269
 20
387.6821489311
 30
0.0
 10
979.4128307201
 20
387.8275706065
 30
0.0
 10
979.5911705277
 20
387.9794707121
 30
0.0
 10
979.6743080677
 20
388.0954853679
 30
0.0
 10
979.7007136784
 20
388.1529784495
 30
0.0
  0
SPLINE
  5
31E
100
AcDbEntity
  8
0
100
AcDbSpline
 62
7
  6
CONTINUOUS
 70
0
 71
3
 72
9
 73
5
 74
0
 42
0.0000001
 43
0.0000001
 44
0.0000000001
 40
0.0
 40
0.0
 40
0.0
 40
0.0
 40
0.4758730048
 40
1.0
 40
1.0
 40
1.0
 40
1.0
 10
510.8539830244
 20
351.1037903506
 30
0.0
 10
511.1217921076
 20
351.0437516456
 30
0.0
 10
511.6896662104
 20
350.9400606345
 30
0.0
 10
512.2624831299
 20
350.8703812346
 30
0.0
 10
512.5633708424
 20
350.841333253
 30
0.0
  0
SPLINE
  5
31F
100
AcDbEntity
  8
0
100
AcDbSpline
 62
7
  6
CONTINUOUS
 70
0
 71
3
 72
17
 73
13
 74
0
 42
0.0000001
 43
0.0000001
 44
0.0000000001
 40
0.0
 40
0.0
 40
0.0
 40
0.0
 40
0.1490600476
 40
0.3025410633
 40
0.4543309421
 40
0.5984058711
 40
0.7291511308
 40
0.841712211
 40
0.8899973315
 40
0.9325131266
 40
0.9691367394
 40
1.0
 40
1.0
 40
1.0
 40
1.0
 10
512.5633708424
 20
350.841333253
 30
0.0
 10
512.9359907077
 20
350.8053601823
 30
0.0
 10
513.6946522899
 20
350.7555675822
 30
0.0
 10
514.8360866802
 20
350.7421033089
 30
0.0
 10
515.9641734027
 20
350.7884909496
 30
0.0
 10
517.0311908996
 20
350.8924979385
 30
0.0
 10
517.9920092087
 20
351.0494555684
 30
0.0
 10
518.7042538398
 20
351.2256741248
 30
0.0
 10
519.1869972003
 20
351.3934761483
 30
0.0
 10
519.4808710642
 20
351.5212266338
 30
0.0
 10
519.7226130525
 20
351.6559249633
 30
0.0
 10
519.8589634006
 20
351.7581938567
 30
0.0
 10
519.9157038966
 20
351.8109992281
 30
0.0
  0
SPLINE
  5
320
100
AcDbEntity
  8
0
100
AcDbSpline
 62
7
  6
CONTINUOUS
 70
0
 71
3
 72
11
 73
7
 74
0
 42
0.0000001
 43
0.0000001
 44
0.0000000001
 40
0.0
 40
0.0
 40
0.0
 40
0.0
 40
0.2196209292
 40
0.4526338624
 40
0.7101132052
 40
1.0
 40
1.0
 40
1.0
 40
1.0
 10
508.7204552599
 20
352.3925131482
 30
0.0
 10
508.7204552516
 20
352.3583154114
 30
0.0
 10
508.7300139597
 20
352.2875334797
 30
0.0
 10
508.7719989038
 20
352.1842267746
 30
0.0
 10
508.8404867621
 20
352.0830118008
 30
0.0
 10
508.8994976757
 20
352.0210316909
 30
0.0
 10
508.9325423124
 20
351.9902813637
 30
0.0
  0
SPLINE
  5
321
100
AcDbEntity
  8
0
100
AcDbSpline
 62
7
  6
CONTINUOUS
 70
0
 71
3
 72
9
 73
5
 74
0
 42
0.0000001
 43
0.0000001
 44
0.0000000001
 40
0.0
 40
0.0
 40
0.0
 40
0.0
 40
0.2444847772
 40
1.0
 40
1.0
 40
1.0
 40
1.0
 10
520.3204428511
 20
353.3584391506
 30
0.0
 10
520.3204428544
 20
353.3720684018
 30
0.0
 10
520.3175379524
 20
353.4278086339
 30
0.0
 10
520.3025228892
 20
353.4826615349
 30
0.0
 10
520.286141605
 20
353.5214628742
 30
0.0
  0
SPLINE
  5
322
100
AcDbEntity
  8
0
100
AcDbSpline
 62
7
  6
CONTINUOUS
 70
0
 71
3
 72
9
 73
5
 74
0
 42
0.0000001
 43
0.0000001
 44
0.0000000001
 40
0.0
 40
0.0
 40
0.0
 40
0.0
 40
0.2591277816
 40
1.0
 40
1.0
 40
1.0
 40
1.0
 10
508.7547567663
 20
353.5214638865
 30
0.0
 10
508.7491390698
 20
353.5081575688
 30
0.0
 10
508.7297120211
 20
353.4559026775
 30
0.0
 10
508.7204552699
 20
353.3997345731
 30
0.0
 10
508.7204552599
 20
353.3584389741
 30
0.0
  0
SPLINE
  5
323
100
AcDbEntity
  8
0
100
AcDbSpline
 62
7
  6
CONTINUOUS
 70
0
 71
3
 72
11
 73
7
 74
0
 42
0.0000001
 43
0.0000001
 44
0.0000000001
 40
0.0
 40
0.0
 40
0.0
 40
0.0
 40
0.1863396443
 40
0.4153114469
 40
0.6872402821
 40
1.0
 40
1.0
 40
1.0
 40
1.0
 10
509.1251935673
 20
351.8109990062
 30
0.0
 10
509.1971656841
 20
351.7440178784
 30
0.0
 10
509.3772893241
 20
351.6161683162
 30
0.0
 10
509.7019501009
 20
351.4531989769
 30
0.0
 10
510.1043336033
 20
351.3017190086
 30
0.0
 10
510.400894194
 20
351.215805065
 30
0.0
 10
510.5606510809
 20
351.1744569402
 30
0.0
  0
SPLINE
  5
324
100
AcDbEntity
  8
0
100
AcDbSpline
 62
7
  6
CONTINUOUS
 70
0
 71
3
 72
11
 73
7
 74
0
 42
0.0000001
 43
0.0000001
 44
0.0000000001
 40
0.0
 40
0.0
 40
0.0
 40
0.0
 40
0.289888719
 40
0.5473677351
 40
0.7803796311
 40
1.0
 40
1.0
 40
1.0
 40
1.0
 10
520.1083551893
 20
351.9902816505
 30
0.0
 10
520.1414001881
 20
352.0210320924
 30
0.0
 10
520.2004118338
 20
352.08301197
 30
0.0
 10
520.2688998318
 20
352.1842271884
 30
0.0
 10
520.3108841507
 20
352.2875339222
 30
0.0
 10
520.3204428428
 20
352.3583156413
 30
0.0
 10
520.3204428511
 20
352.3925133238
 30
0.0
  0
SPLINE
  5
325
100
AcDbEntity
  8
0
100
AcDbSpline
 62
7
  6
CONTINUOUS
 70
0
 71
3
 72
14
 73
10
 74
0
 42
0.0000001
 43
0.0000001
 44
0.0000000001
 40
0.0
 40
0.0
 40
0.0
 40
0.0
 40
0.0711228948
 40
0.1508853629
 40
0.2453269973
 40
0.3577172623
 40
0.4894582538
 40
0.640814664
 40
1.0
 40
1.0
 40
1.0
 40
1.0
 10
508.7204552599
 20
353.3584389741
 30
0.0
 10
508.7204552478
 20
353.3085173576
 30
0.0
 10
508.7420606263
 20
353.2019064275
 30
0.0
 10
508.8324861411
 20
353.0526388231
 30
0.0
 10
508.9759508426
 20
352.9097205665
 30
0.0
 10
509.1708221248
 20
352.7723474775
 30
0.0
 10
509.4157994075
 20
352.6407313557
 30
0.0
 10
509.8310318292
 20
352.4640893622
 30
0.0
 10
510.1751575968
 20
352.3601359071
 30
0.0
 10
510.4192297246
 20
352.2969653914
 30
0.0
  0
SPLINE
  5
326
100
AcDbEntity
  8
0
100
AcDbSpline
 62
7
  6
CONTINUOUS
 70
0
 71
3
 72
9
 73
5
 74
0
 42
0.0000001
 43
0.0000001
 44
0.0000000001
 40
0.0
 40
0.0
 40
0.0
 40
0.0
 40
0.23517123
 40
1.0
 40
1.0
 40
1.0
 40
1.0
 10
510.4192297246
 20
352.2969653914
 30
0.0
 10
510.4940876814
 20
352.2775907266
 30
0.0
 10
510.8134971662
 20
352.1994543079
 30
0.0
 10
511.1366040674
 20
352.1368635867
 30
0.0
 10
511.3846723689
 20
352.095600898
 30
0.0
  0
SPLINE
  5
327
100
AcDbEntity
  8
0
100
AcDbSpline
 62
7
  6
CONTINUOUS
 70
0
 71
3
 72
11
 73
7
 74
0
 42
0.0000001
 43
0.0000001
 44
0.0000000001
 40
0.0
 40
0.0
 40
0.0
 40
0.0
 40
0.2402213976
 40
0.4999968323
 40
0.7597732313
 40
1.0
 40
1.0
 40
1.0
 40
1.0
 10
511.3846723689
 20
352.095600898
 30
0.0
 10
511.8818766578
 20
352.0128979259
 30
0.0
 10
512.9259596695
 20
351.8949640239
 30
0.0
 10
514.5203884257
 20
351.8377188697
 30
0.0
 10
516.1148287779
 20
351.8949556941
 30
0.0
 10
517.1589256023
 20
352.012886254
 30
0.0
 10
517.6561413841
 20
352.0955888147
 30
0.0
  0
SPLINE
  5
328
100
AcDbEntity
  8
0
100
AcDbSpline
 62
7
  6
CONTINUOUS
 70
0
 71
3
 72
16
 73
12
 74
0
 42
0.0000001
 43
0.0000001
 44
0.0000000001
 40
0.0
 40
0.0
 40
0.0
 40
0.0
 40
0.192117383
 40
0.3671391811
 40
0.5229307204
 40
0.657909896
 40
0.7712843065
 40
0.8635212915
 40
0.9373526598
 40
0.9694720005
 40
1.0
 40
1.0
 40
1.0
 40
1.0
 10
517.6561413841
 20
352.0955888147
 30
0.0
 10
517.8514893736
 20
352.128081305
 30
0.0
 10
518.2235695367
 20
352.1980823951
 30
0.0
 10
518.7477235147
 20
352.3250189138
 30
0.0
 10
519.206673197
 20
352.4674542834
 30
0.0
 10
519.5937374917
 20
352.623015817
 30
0.0
 10
519.9039261371
 20
352.7897683628
 30
0.0
 10
520.1339856068
 20
352.9654741188
 30
0.0
 10
520.2628814809
 20
353.1293419109
 30
0.0
 10
520.3124265992
 20
353.2621542688
 30
0.0
 10
520.3204428435
 20
353.3269713314
 30
0.0
 10
520.3204428511
 20
353.3584391506
 30
0.0
  0
SPLINE
  5
329
100
AcDbEntity
  8
0
100
AcDbSpline
 62
7
  6
CONTINUOUS
 70
0
 71
3
 72
12
 73
8
 74
0
 42
0.0000001
 43
0.0000001
 44
0.0000000001
 40
0.0
 40
0.0
 40
0.0
 40
0.0
 40
0.1624439338
 40
0.2640424936
 40
0.3807829491
 40
0.6605203715
 40
1.0
 40
1.0
 40
1.0
 40
1.0
 10
508.9595933232
 20
353.3805631053
 30
0.0
 10
509.0015331757
 20
353.2892489628
 30
0.0
 10
509.1136840739
 20
353.162165237
 30
0.0
 10
509.3018490028
 20
353.0213253814
 30
0.0
 10
509.5684193686
 20
352.8651020681
 30
0.0
 10
509.9897829386
 20
352.6889045357
 30
0.0
 10
510.3573537915
 20
352.5793703071
 30
0.0
 10
510.5606510809
 20
352.526753097
 30
0.0
  0
SPLINE
  5
32A
100
AcDbEntity
  8
0
100
AcDbSpline
 62
7
  6
CONTINUOUS
 70
0
 71
3
 72
9
 73
5
 74
0
 42
0.0000001
 43
0.0000001
 44
0.0000000001
 40
0.0
 40
0.0
 40
0.0
 40
0.0
 40
0.4758559566
 40
1.0
 40
1.0
 40
1.0
 40
1.0
 10
510.7222422356
 20
351.2580275567
 30
0.0
 10
510.9997272537
 20
351.1957968771
 30
0.0
 10
511.5881457992
 20
351.0883264518
 30
0.0
 10
512.1816896823
 20
351.0161186678
 30
0.0
 10
512.4934752337
 20
350.9860185993
 30
0.0
  0
SPLINE
  5
32B
100
AcDbEntity
  8
0
100
AcDbSpline
 62
7
  6
CONTINUOUS
 70
0
 71
3
 72
16
 73
12
 74
0
 42
0.0000001
 43
0.0000001
 44
0.0000000001
 40
0.0
 40
0.0
 40
0.0
 40
0.0
 40
0.1437020675
 40
0.2917528058
 40
0.4390118999
 40
0.5803746242
 40
0.7110078888
 40
0.8265965316
 40
0.9236400036
 40
0.9644763629
 40
1.0
 40
1.0
 40
1.0
 40
1.0
 10
512.4934752337
 20
350.9860185993
 30
0.0
 10
512.8532667688
 20
350.9512839884
 30
0.0
 10
513.5858718273
 20
350.9017040089
 30
0.0
 10
514.6904082386
 20
350.8828394982
 30
0.0
 10
515.7887047375
 20
350.9183054243
 30
0.0
 10
516.8400679262
 20
351.0067006819
 30
0.0
 10
517.8059333717
 20
351.1443894874
 30
0.0
 10
518.6507600361
 20
351.3259686744
 30
0.0
 10
519.2609270106
 20
351.5167426016
 30
0.0
 10
519.6606966
 20
351.6921808278
 30
0.0
 10
519.8290699365
 20
351.7855742097
 30
0.0
 10
519.9041356176
 20
351.8340457986
 30
0.0
  0
SPLINE
  5
32C
100
AcDbEntity
  8
0
100
AcDbSpline
 62
7
  6
CONTINUOUS
 70
0
 71
3
 72
9
 73
5
 74
0
 42
0.0000001
 43
0.0000001
 44
0.0000000001
 40
0.0
 40
0.0
 40
0.0
 40
0.0
 40
0.2681625098
 40
1.0
 40
1.0
 40
1.0
 40
1.0
 10
519.9041356176
 20
351.8340457986
 30
0.0
 10
519.9234573737
 20
351.8465222885
 30
0.0
 10
519.9946590319
 20
351.8943171179
 30
0.0
 10
520.0624045094
 20
351.9475216636
 30
0.0
 10
520.1083551893
 20
351.9902816505
 30
0.0
  0
SPLINE
  5
32D
100
AcDbEntity
  8
0
100
AcDbSpline
 62
7
  6
CONTINUOUS
 70
0
 71
3
 72
9
 73
5
 74
0
 42
0.0000001
 43
0.0000001
 44
0.0000000001
 40
0.0
 40
0.0
 40
0.0
 40
0.0
 40
0.2323759741
 40
1.0
 40
1.0
 40
1.0
 40
1.0
 10
508.9325423124
 20
351.9902813637
 30
0.0
 10
508.947133797
 20
351.9767029749
 30
0.0
 10
509.0115185302
 20
351.919981487
 30
0.0
 10
509.0814503832
 20
351.8697619449
 30
0.0
 10
509.1367640758
 20
351.8340455326
 30
0.0
  0
SPLINE
  5
32E
100
AcDbEntity
  8
0
100
AcDbSpline
 62
7
  6
CONTINUOUS
 70
0
 71
3
 72
10
 73
6
 74
0
 42
0.0000001
 43
0.0000001
 44
0.0000000001
 40
0.0
 40
0.0
 40
0.0
 40
0.0
 40
0.2034202659
 40
0.4385078203
 40
1.0
 40
1.0
 40
1.0
 40
1.0
 10
509.1367640758
 20
351.8340455326
 30
0.0
 10
509.2155012881
 20
351.7832044007
 30
0.0
 10
509.3929575383
 20
351.6855009267
 30
0.0
 10
509.8162985522
 20
351.5026548382
 30
0.0
 10
510.1687773448
 20
351.3958614104
 30
0.0
 10
510.4192297246
 20
351.3310395651
 30
0.0
  0
SPLINE
  5
32F
100
AcDbEntity
  8
0
100
AcDbSpline
 62
7
  6
CONTINUOUS
 70
0
 71
3
 72
13
 73
9
 74
0
 42
0.0000001
 43
0.0000001
 44
0.0000000001
 40
0.0
 40
0.0
 40
0.0
 40
0.0
 40
0.1055686166
 40
0.2232391062
 40
0.4825783829
 40
0.75095537
 40
0.8796185446
 40
1.0
 40
1.0
 40
1.0
 40
1.0
 10
510.5606510809
 20
352.526753097
 30
0.0
 10
510.8001433148
 20
352.4647679455
 30
0.0
 10
511.3122625566
 20
352.3553665574
 30
0.0
 10
512.4312113892
 20
352.1883952622
 30
0.0
 10
513.942403864
 20
352.0839483056
 30
0.0
 10
515.4823379647
 20
352.1071579382
 30
0.0
 10
516.6910031734
 20
352.2081302891
 30
0.0
 10
517.26974182
 20
352.2860351501
 30
0.0
 10
517.5480140074
 20
352.3323205311
 30
0.0
  0
SPLINE
  5
330
100
AcDbEntity
  8
0
100
AcDbSpline
 62
7
  6
CONTINUOUS
 70
0
 71
3
 72
14
 73
10
 74
0
 42
0.0000001
 43
0.0000001
 44
0.0000000001
 40
0.0
 40
0.0
 40
0.0
 40
0.0
 40
0.3478424776
 40
0.4993489909
 40
0.6340563724
 40
0.7511181354
 40
0.850318309
 40
0.9324414276
 40
1.0
 40
1.0
 40
1.0
 40
1.0
 10
517.5480140074
 20
352.3323205311
 30
0.0
 10
517.8693454591
 20
352.3857680164
 30
0.0
 10
518.3285932508
 20
352.4785564537
 30
0.0
 10
518.8993097077
 20
352.6434975653
 30
0.0
 10
519.2547646335
 20
352.7721203274
 30
0.0
 10
519.5537749188
 20
352.9097355716
 30
0.0
 10
519.7934229488
 20
353.055157247
 30
0.0
 10
519.9717627564
 20
353.2070573525
 30
0.0
 10
520.0549002965
 20
353.3230720084
 30
0.0
 10
520.0813059072
 20
353.3805650899
 30
0.0
  0
SPLINE
  5
331
100
AcDbEntity
  8
0
100
AcDbSpline
 62
7
  6
CONTINUOUS
 70
0
 71
3
 72
9
 73
5
 74
0
 42
0.0000001
 43
0.0000001
 44
0.0000000001
 40
0.0
 40
0.0
 40
0.0
 40
0.0
 40
0.4758730048
 40
1.0
 40
1.0
 40
1.0
 40
1.0
 10
673.4885426973
 20
309.0108689154
 30
0.0
 10
673.7563517805
 20
308.9508302104
 30
0.0
 10
674.3242258833
 20
308.8471391993
 30
0.0
 10
674.8970428028
 20
308.7774597994
 30
0.0
 10
675.1979305153
 20
308.7484118178
 30
0.0
  0
SPLINE
  5
332
100
AcDbEntity
  8
0
100
AcDbSpline
 62
7
  6
CONTINUOUS
 70
0
 71
3
 72
17
 73
13
 74
0
 42
0.0000001
 43
0.0000001
 44
0.0000000001
 40
0.0
 40
0.0
 40
0.0
 40
0.0
 40
0.1490600476
 40
0.3025410633
 40
0.4543309421
 40
0.5984058711
 40
0.7291511308
 40
0.841712211
 40
0.8899973315
 40
0.9325131266
 40
0.9691367394
 40
1.0
 40
1.0
 40
1.0
 40
1.0
 10
675.1979305153
 20
308.7484118178
 30
0.0
 10
675.5705503806
 20
308.7124387471
 30
0.0
 10
676.3292119628
 20
308.662646147
 30
0.0
 10
677.4706463531
 20
308.6491818737
 30
0.0
 10
678.5987330756
 20
308.6955695144
 30
0.0
 10
679.6657505725
 20
308.7995765033
 30
0.0
 10
680.6265688816
 20
308.9565341332
 30
0.0
 10
681.3388135127
 20
309.1327526896
 30
0.0
 10
681.8215568732
 20
309.3005547131
 30
0.0
 10
682.1154307371
 20
309.4283051986
 30
0.0
 10
682.3571727254
 20
309.5630035281
 30
0.0
 10
682.4935230736
 20
309.6652724215
 30
0.0
 10
682.5502635695
 20
309.7180777929
 30
0.0
  0
SPLINE
  5
333
100
AcDbEntity
  8
0
100
AcDbSpline
 62
7
  6
CONTINUOUS
 70
0
 71
3
 72
11
 73
7
 74
0
 42
0.0000001
 43
0.0000001
 44
0.0000000001
 40
0.0
 40
0.0
 40
0.0
 40
0.0
 40
0.2196209292
 40
0.4526338624
 40
0.7101132052
 40
1.0
 40
1.0
 40
1.0
 40
1.0
 10
671.3550149328
 20
310.299591713
 30
0.0
 10
671.3550149245
 20
310.2653939762
 30
0.0
 10
671.3645736326
 20
310.1946120445
 30
0.0
 10
671.4065585767
 20
310.0913053394
 30
0.0
 10
671.475046435
 20
309.9900903656
 30
0.0
 10
671.5340573486
 20
309.9281102557
 30
0.0
 10
671.5671019853
 20
309.8973599285
 30
0.0
  0
SPLINE
  5
334
100
AcDbEntity
  8
0
100
AcDbSpline
 62
7
  6
CONTINUOUS
 70
0
 71
3
 72
9
 73
5
 74
0
 42
0.0000001
 43
0.0000001
 44
0.0000000001
 40
0.0
 40
0.0
 40
0.0
 40
0.0
 40
0.2444847772
 40
1.0
 40
1.0
 40
1.0
 40
1.0
 10
682.955002524
 20
311.2655177154
 30
0.0
 10
682.9550025274
 20
311.2791469666
 30
0.0
 10
682.9520976253
 20
311.3348871987
 30
0.0
 10
682.9370825621
 20
311.3897400997
 30
0.0
 10
682.9207012779
 20
311.428541439
 30
0.0
  0
SPLINE
  5
335
100
AcDbEntity
  8
0
100
AcDbSpline
 62
7
  6
CONTINUOUS
 70
0
 71
3
 72
9
 73
5
 74
0
 42
0.0000001
 43
0.0000001
 44
0.0000000001
 40
0.0
 40
0.0
 40
0.0
 40
0.0
 40
0.2591277816
 40
1.0
 40
1.0
 40
1.0
 40
1.0
 10
671.3893164392
 20
311.4285424513
 30
0.0
 10
671.3836987427
 20
311.4152361335
 30
0.0
 10
671.364271694
 20
311.3629812423
 30
0.0
 10
671.3550149428
 20
311.3068131379
 30
0.0
 10
671.3550149328
 20
311.2655175388
 30
0.0
  0
SPLINE
  5
336
100
AcDbEntity
  8
0
100
AcDbSpline
 62
7
  6
CONTINUOUS
 70
0
 71
3
 72
11
 73
7
 74
0
 42
0.0000001
 43
0.0000001
 44
0.0000000001
 40
0.0
 40
0.0
 40
0.0
 40
0.0
 40
0.1863396443
 40
0.4153114469
 40
0.6872402821
 40
1.0
 40
1.0
 40
1.0
 40
1.0
 10
671.7597532402
 20
309.718077571
 30
0.0
 10
671.831725357
 20
309.6510964432
 30
0.0
 10
672.011848997
 20
309.523246881
 30
0.0
 10
672.3365097738
 20
309.3602775417
 30
0.0
 10
672.7388932762
 20
309.2087975734
 30
0.0
 10
673.0354538669
 20
309.1228836298
 30
0.0
 10
673.1952107538
 20
309.081535505
 30
0.0
  0
SPLINE
  5
337
100
AcDbEntity
  8
0
100
AcDbSpline
 62
7
  6
CONTINUOUS
 70
0
 71
3
 72
11
 73
7
 74
0
 42
0.0000001
 43
0.0000001
 44
0.0000000001
 40
0.0
 40
0.0
 40
0.0
 40
0.0
 40
0.289888719
 40
0.5473677351
 40
0.7803796311
 40
1.0
 40
1.0
 40
1.0
 40
1.0
 10
682.7429148622
 20
309.8973602153
 30
0.0
 10
682.775959861
 20
309.9281106572
 30
0.0
 10
682.8349715067
 20
309.9900905347
 30
0.0
 10
682.9034595047
 20
310.0913057532
 30
0.0
 10
682.9454438236
 20
310.1946124869
 30
0.0
 10
682.9550025157
 20
310.2653942061
 30
0.0
 10
682.955002524
 20
310.2995918886
 30
0.0
  0
SPLINE
  5
338
100
AcDbEntity
  8
0
100
AcDbSpline
 62
7
  6
CONTINUOUS
 70
0
 71
3
 72
14
 73
10
 74
0
 42
0.0000001
 43
0.0000001
 44
0.0000000001
 40
0.0
 40
0.0
 40
0.0
 40
0.0
 40
0.0711228948
 40
0.1508853629
 40
0.2453269973
 40
0.3577172623
 40
0.4894582538
 40
0.640814664
 40
1.0
 40
1.0
 40
1.0
 40
1.0
 10
671.3550149328
 20
311.2655175388
 30
0.0
 10
671.3550149207
 20
311.2155959224
 30
0.0
 10
671.3766202992
 20
311.1089849923
 30
0.0
 10
671.467045814
 20
310.9597173879
 30
0.0
 10
671.6105105155
 20
310.8167991313
 30
0.0
 10
671.8053817977
 20
310.6794260423
 30
0.0
 10
672.0503590804
 20
310.5478099205
 30
0.0
 10
672.4655915021
 20
310.371167927
 30
0.0
 10
672.8097172697
 20
310.2672144719
 30
0.0
 10
673.0537893975
 20
310.2040439562
 30
0.0
  0
SPLINE
  5
339
100
AcDbEntity
  8
0
100
AcDbSpline
 62
7
  6
CONTINUOUS
 70
0
 71
3
 72
9
 73
5
 74
0
 42
0.0000001
 43
0.0000001
 44
0.0000000001
 40
0.0
 40
0.0
 40
0.0
 40
0.0
 40
0.23517123
 40
1.0
 40
1.0
 40
1.0
 40
1.0
 10
673.0537893975
 20
310.2040439562
 30
0.0
 10
673.1286473543
 20
310.1846692914
 30
0.0
 10
673.4480568391
 20
310.1065328726
 30
0.0
 10
673.7711637403
 20
310.0439421515
 30
0.0
 10
674.0192320418
 20
310.0026794628
 30
0.0
  0
SPLINE
  5
33A
100
AcDbEntity
  8
0
100
AcDbSpline
 62
7
  6
CONTINUOUS
 70
0
 71
3
 72
11
 73
7
 74
0
 42
0.0000001
 43
0.0000001
 44
0.0000000001
 40
0.0
 40
0.0
 40
0.0
 40
0.0
 40
0.2402213976
 40
0.4999968323
 40
0.7597732313
 40
1.0
 40
1.0
 40
1.0
 40
1.0
 10
674.0192320418
 20
310.0026794628
 30
0.0
 10
674.5164363307
 20
309.9199764907
 30
0.0
 10
675.5605193424
 20
309.8020425887
 30
0.0
 10
677.1549480986
 20
309.7447974344
 30
0.0
 10
678.7493884508
 20
309.8020342589
 30
0.0
 10
679.7934852753
 20
309.9199648188
 30
0.0
 10
680.290701057
 20
310.0026673795
 30
0.0
  0
SPLINE
  5
33B
100
AcDbEntity
  8
0
100
AcDbSpline
 62
7
  6
CONTINUOUS
 70
0
 71
3
 72
16
 73
12
 74
0
 42
0.0000001
 43
0.0000001
 44
0.0000000001
 40
0.0
 40
0.0
 40
0.0
 40
0.0
 40
0.192117383
 40
0.3671391811
 40
0.5229307204
 40
0.657909896
 40
0.7712843065
 40
0.8635212915
 40
0.9373526598
 40
0.9694720005
 40
1.0
 40
1.0
 40
1.0
 40
1.0
 10
680.290701057
 20
310.0026673795
 30
0.0
 10
680.4860490465
 20
310.0351598698
 30
0.0
 10
680.8581292096
 20
310.1051609598
 30
0.0
 10
681.3822831876
 20
310.2320974786
 30
0.0
 10
681.8412328699
 20
310.3745328482
 30
0.0
 10
682.2282971646
 20
310.5300943818
 30
0.0
 10
682.53848581
 20
310.6968469276
 30
0.0
 10
682.7685452797
 20
310.8725526836
 30
0.0
 10
682.8974411538
 20
311.0364204757
 30
0.0
 10
682.9469862721
 20
311.1692328336
 30
0.0
 10
682.9550025164
 20
311.2340498962
 30
0.0
 10
682.955002524
 20
311.2655177154
 30
0.0
  0
SPLINE
  5
33C
100
AcDbEntity
  8
0
100
AcDbSpline
 62
7
  6
CONTINUOUS
 70
0
 71
3
 72
12
 73
8
 74
0
 42
0.0000001
 43
0.0000001
 44
0.0000000001
 40
0.0
 40
0.0
 40
0.0
 40
0.0
 40
0.1624439338
 40
0.2640424936
 40
0.3807829491
 40
0.6605203715
 40
1.0
 40
1.0
 40
1.0
 40
1.0
 10
671.5941529961
 20
311.2876416701
 30
0.0
 10
671.6360928486
 20
311.1963275276
 30
0.0
 10
671.7482437468
 20
311.0692438018
 30
0.0
 10
671.9364086757
 20
310.9284039462
 30
0.0
 10
672.2029790415
 20
310.7721806328
 30
0.0
 10
672.6243426115
 20
310.5959831005
 30
0.0
 10
672.9919134644
 20
310.4864488719
 30
0.0
 10
673.1952107538
 20
310.4338316618
 30
0.0
  0
SPLINE
  5
33D
100
AcDbEntity
  8
0
100
AcDbSpline
 62
7
  6
CONTINUOUS
 70
0
 71
3
 72
9
 73
5
 74
0
 42
0.0000001
 43
0.0000001
 44
0.0000000001
 40
0.0
 40
0.0
 40
0.0
 40
0.0
 40
0.4758559566
 40
1.0
 40
1.0
 40
1.0
 40
1.0
 10
673.3568019085
 20
309.1651061215
 30
0.0
 10
673.6342869266
 20
309.1028754419
 30
0.0
 10
674.2227054721
 20
308.9954050166
 30
0.0
 10
674.8162493552
 20
308.9231972326
 30
0.0
 10
675.1280349066
 20
308.8930971641
 30
0.0
  0
SPLINE
  5
33E
100
AcDbEntity
  8
0
100
AcDbSpline
 62
7
  6
CONTINUOUS
 70
0
 71
3
 72
16
 73
12
 74
0
 42
0.0000001
 43
0.0000001
 44
0.0000000001
 40
0.0
 40
0.0
 40
0.0
 40
0.0
 40
0.1437020675
 40
0.2917528058
 40
0.4390118999
 40
0.5803746242
 40
0.7110078888
 40
0.8265965316
 40
0.9236400036
 40
0.9644763629
 40
1.0
 40
1.0
 40
1.0
 40
1.0
 10
675.1280349066
 20
308.8930971641
 30
0.0
 10
675.4878264417
 20
308.8583625532
 30
0.0
 10
676.2204315002
 20
308.8087825737
 30
0.0
 10
677.3249679115
 20
308.789918063
 30
0.0
 10
678.4232644104
 20
308.825383989
 30
0.0
 10
679.4746275991
 20
308.9137792467
 30
0.0
 10
680.4404930446
 20
309.0514680522
 30
0.0
 10
681.285319709
 20
309.2330472391
 30
0.0
 10
681.8954866835
 20
309.4238211664
 30
0.0
 10
682.2952562729
 20
309.5992593926
 30
0.0
 10
682.4636296095
 20
309.6926527745
 30
0.0
 10
682.5386952905
 20
309.7411243634
 30
0.0
  0
SPLINE
  5
33F
100
AcDbEntity
  8
0
100
AcDbSpline
 62
7
  6
CONTINUOUS
 70
0
 71
3
 72
9
 73
5
 74
0
 42
0.0000001
 43
0.0000001
 44
0.0000000001
 40
0.0
 40
0.0
 40
0.0
 40
0.0
 40
0.2681625098
 40
1.0
 40
1.0
 40
1.0
 40
1.0
 10
682.5386952905
 20
309.7411243634
 30
0.0
 10
682.5580170466
 20
309.7536008533
 30
0.0
 10
682.6292187048
 20
309.8013956827
 30
0.0
 10
682.6969641823
 20
309.8546002284
 30
0.0
 10
682.7429148622
 20
309.8973602153
 30
0.0
  0
SPLINE
  5
340
100
AcDbEntity
  8
0
100
AcDbSpline
 62
7
  6
CONTINUOUS
 70
0
 71
3
 72
9
 73
5
 74
0
 42
0.0000001
 43
0.0000001
 44
0.0000000001
 40
0.0
 40
0.0
 40
0.0
 40
0.0
 40
0.2323759741
 40
1.0
 40
1.0
 40
1.0
 40
1.0
 10
671.5671019853
 20
309.8973599285
 30
0.0
 10
671.58169347
 20
309.8837815397
 30
0.0
 10
671.6460782031
 20
309.8270600518
 30
0.0
 10
671.7160100561
 20
309.7768405097
 30
0.0
 10
671.7713237487
 20
309.7411240974
 30
0.0
  0
SPLINE
  5
341
100
AcDbEntity
  8
0
100
AcDbSpline
 62
7
  6
CONTINUOUS
 70
0
 71
3
 72
10
 73
6
 74
0
 42
0.0000001
 43
0.0000001
 44
0.0000000001
 40
0.0
 40
0.0
 40
0.0
 40
0.0
 40
0.2034202659
 40
0.4385078203
 40
1.0
 40
1.0
 40
1.0
 40
1.0
 10
671.7713237487
 20
309.7411240974
 30
0.0
 10
671.850060961
 20
309.6902829654
 30
0.0
 10
672.0275172112
 20
309.5925794915
 30
0.0
 10
672.4508582251
 20
309.409733403
 30
0.0
 10
672.8033370177
 20
309.3029399752
 30
0.0
 10
673.0537893975
 20
309.2381181299
 30
0.0
  0
SPLINE
  5
342
100
AcDbEntity
  8
0
100
AcDbSpline
 62
7
  6
CONTINUOUS
 70
0
 71
3
 72
13
 73
9
 74
0
 42
0.0000001
 43
0.0000001
 44
0.0000000001
 40
0.0
 40
0.0
 40
0.0
 40
0.0
 40
0.1055686166
 40
0.2232391062
 40
0.4825783829
 40
0.75095537
 40
0.8796185446
 40
1.0
 40
1.0
 40
1.0
 40
1.0
 10
673.1952107538
 20
310.4338316618
 30
0.0
 10
673.4347029877
 20
310.3718465103
 30
0.0
 10
673.9468222295
 20
310.2624451222
 30
0.0
 10
675.0657710621
 20
310.095473827
 30
0.0
 10
676.5769635369
 20
309.9910268703
 30
0.0
 10
678.1168976376
 20
310.014236503
 30
0.0
 10
679.3255628463
 20
310.1152088539
 30
0.0
 10
679.9043014929
 20
310.1931137149
 30
0.0
 10
680.1825736803
 20
310.2393990958
 30
0.0
  0
SPLINE
  5
343
100
AcDbEntity
  8
0
100
AcDbSpline
 62
7
  6
CONTINUOUS
 70
0
 71
3
 72
14
 73
10
 74
0
 42
0.0000001
 43
0.0000001
 44
0.0000000001
 40
0.0
 40
0.0
 40
0.0
 40
0.0
 40
0.3478424776
 40
0.4993489909
 40
0.6340563724
 40
0.7511181354
 40
0.850318309
 40
0.9324414276
 40
1.0
 40
1.0
 40
1.0
 40
1.0
 10
680.1825736803
 20
310.2393990958
 30
0.0
 10
680.503905132
 20
310.2928465812
 30
0.0
 10
680.9631529237
 20
310.3856350185
 30
0.0
 10
681.5338693806
 20
310.5505761301
 30
0.0
 10
681.8893243064
 20
310.6791988922
 30
0.0
 10
682.1883345917
 20
310.8168141364
 30
0.0
 10
682.4279826217
 20
310.9622358118
 30
0.0
 10
682.6063224293
 20
311.1141359173
 30
0.0
 10
682.6894599694
 20
311.2301505731
 30
0.0
 10
682.7158655801
 20
311.2876436547
 30
0.0
  0
SPLINE
  5
344
100
AcDbEntity
  8
0
100
AcDbSpline
 62
7
  6
CONTINUOUS
 70
0
 71
3
 72
12
 73
8
 74
0
 42
0.0000001
 43
0.0000001
 44
0.0000000001
 40
0.0
 40
0.0
 40
0.0
 40
0.0
 40
0.1061517875
 40
0.2247788758
 40
0.4861042126
 40
0.7546822116
 40
1.0
 40
1.0
 40
1.0
 40
1.0
 10
970.4275462255
 20
387.3632209022
 30
0.0
 10
970.6606653029
 20
387.3028852451
 30
0.0
 10
971.1600399557
 20
387.1970199717
 30
0.0
 10
972.2516581936
 20
387.0377196757
 30
0.0
 10
973.7224796821
 20
386.9433932708
 30
0.0
 10
975.4822597705
 20
386.983624063
 30
0.0
 10
976.6432573487
 20
387.117055591
 30
0.0
 10
977.1904847612
 20
387.2181785509
 30
0.0
  0
SPLINE
  5
345
100
AcDbEntity
  8
0
100
AcDbSpline
 62
7
  6
CONTINUOUS
 70
0
 71
3
 72
10
 73
6
 74
0
 42
0.0000001
 43
0.0000001
 44
0.0000000001
 40
0.0
 40
0.0
 40
0.0
 40
0.0
 40
0.5573827865
 40
0.7941362151
 40
1.0
 40
1.0
 40
1.0
 40
1.0
 10
977.1904847612
 20
387.2181785509
 30
0.0
 10
977.4961175582
 20
387.2746568858
 30
0.0
 10
977.9293815148
 20
387.3717555398
 30
0.0
 10
978.4593255807
 20
387.5463491176
 30
0.0
 10
978.6871449792
 20
387.6425110907
 30
0.0
 10
978.7900674834
 20
387.6933493544
 30
0.0
  0
SPLINE
  5
346
100
AcDbEntity
  8
0
100
AcDbSpline
 62
7
  6
CONTINUOUS
 70
0
 71
3
 72
15
 73
11
 74
0
 42
0.0000001
 43
0.0000001
 44
0.0000000001
 40
0.0
 40
0.0
 40
0.0
 40
0.0
 40
0.1159071862
 40
0.2481051127
 40
0.3900992959
 40
0.5347010839
 40
0.6745530277
 40
0.8026149855
 40
0.9126808716
 40
1.0
 40
1.0
 40
1.0
 40
1.0
 10
977.3218373421
 20
391.659001894
 30
0.0
 10
977.0500148599
 20
391.7293547294
 30
0.0
 10
976.4591895633
 20
391.8453853117
 30
0.0
 10
975.5199162876
 20
391.9548421442
 30
0.0
 10
974.5060519619
 20
392.0066331404
 30
0.0
 10
973.4724261535
 20
391.9976953019
 30
0.0
 10
972.4749155586
 20
391.928536112
 30
0.0
 10
971.5668154118
 20
391.8034137992
 30
0.0
 10
970.7970948656
 20
391.6298765117
 30
0.0
 10
970.3436136461
 20
391.4697125255
 30
0.0
 10
970.1539619679
 20
391.3760346441
 30
0.0
  0
SPLINE
  5
347
100
AcDbEntity
  8
0
100
AcDbSpline
 62
7
  6
CONTINUOUS
 70
0
 71
3
 72
17
 73
13
 74
0
 42
0.0000001
 43
0.0000001
 44
0.0000000001
 40
0.0
 40
0.0
 40
0.0
 40
0.0
 40
0.1268119031
 40
0.2728209156
 40
0.4282294839
 40
0.5823509527
 40
0.724618747
 40
0.8455811588
 40
0.8957431469
 40
0.9381878574
 40
0.9727602416
 40
1.0
 40
1.0
 40
1.0
 40
1.0
 10
971.7356937707
 20
390.213201549
 30
0.0
 10
971.9778106436
 20
390.1505370912
 30
0.0
 10
972.5079926538
 20
390.0517417746
 30
0.0
 10
973.349124736
 20
389.9688190269
 30
0.0
 10
974.2479789884
 20
389.945445354
 30
0.0
 10
975.1389882133
 20
389.9833446531
 30
0.0
 10
975.9571124865
 20
390.0797052981
 30
0.0
 10
976.5634565163
 20
390.2078860207
 30
0.0
 10
976.9636704975
 20
390.3405202827
 30
0.0
 10
977.1934904874
 20
390.4425693083
 30
0.0
 10
977.3687571532
 20
390.5512906636
 30
0.0
 10
977.4575766723
 20
390.6378366906
 30
0.0
 10
977.4878921838
 20
390.6821871859
 30
0.0
  0
SPLINE
  5
348
100
AcDbEntity
  8
0
100
AcDbSpline
 62
7
  6
CONTINUOUS
 70
0
 71
3
 72
8
 73
4
 74
0
 42
0.0000001
 43
0.0000001
 44
0.0000000001
 40
0.0
 40
0.0
 40
0.0
 40
0.0
 40
1.0
 40
1.0
 40
1.0
 40
1.0
 10
977.4878921838
 20
390.6821871859
 30
0.0
 10
977.4948762711
 20
390.6924046527
 30
0.0
 10
977.5013804772
 20
390.7029744848
 30
0.0
 10
977.5072522918
 20
390.7138692495
 30
0.0
  0
SPLINE
  5
349
100
AcDbEntity
  8
0
100
AcDbSpline
 62
7
  6
CONTINUOUS
 70
0
 71
3
 72
9
 73
5
 74
0
 42
0.0000001
 43
0.0000001
 44
0.0000000001
 40
0.0
 40
0.0
 40
0.0
 40
0.0
 40
0.2642634338
 40
1.0
 40
1.0
 40
1.0
 40
1.0
 10
977.5072522918
 20
390.7138692495
 30
0.0
 10
977.5125462229
 20
390.7236917896
 30
0.0
 10
977.5306893822
 20
390.7618140484
 30
0.0
 10
977.5398561764
 20
390.8044657996
 30
0.0
 10
977.5398504764
 20
390.8355316959
 30
0.0
  0
SPLINE
  5
34A
100
AcDbEntity
  8
0
100
AcDbSpline
 62
7
  6
CONTINUOUS
 70
0
 71
3
 72
11
 73
7
 74
0
 42
0.0000001
 43
0.0000001
 44
0.0000000001
 40
0.0
 40
0.0
 40
0.0
 40
0.0
 40
0.1846798153
 40
0.4017317655
 40
0.670750339
 40
1.0
 40
1.0
 40
1.0
 40
1.0
 10
968.0898568268
 20
388.7701796158
 30
0.0
 10
968.0898570747
 20
388.7056675536
 30
0.0
 10
968.1261680807
 20
388.5644341419
 30
0.0
 10
968.2705707733
 20
388.375189672
 30
0.0
 10
968.4946835346
 20
388.1967087147
 30
0.0
 10
968.6777577419
 20
388.0944023828
 30
0.0
 10
968.780875213
 20
388.0434634868
 30
0.0
  0
SPLINE
  5
34B
100
AcDbEntity
  8
0
100
AcDbSpline
 62
7
  6
CONTINUOUS
 70
0
 71
3
 72
11
 73
7
 74
0
 42
0.0000001
 43
0.0000001
 44
0.0000000001
 40
0.0
 40
0.0
 40
0.0
 40
0.0
 40
0.1846798228
 40
0.4017317755
 40
0.6707503472
 40
1.0
 40
1.0
 40
1.0
 40
1.0
 10
980.1898568268
 20
389.9710445549
 30
0.0
 10
980.1898565774
 20
390.03555661
 30
0.0
 10
980.1535455836
 20
390.1767900041
 30
0.0
 10
980.0091429208
 20
390.366034456
 30
0.0
 10
979.7850302047
 20
390.5445153955
 30
0.0
 10
979.6019560345
 20
390.6468217215
 30
0.0
 10
979.498838584
 20
390.6977606133
 30
0.0
  0
SPLINE
  5
34C
100
AcDbEntity
  8
0
100
AcDbSpline
 62
7
  6
CONTINUOUS
 70
0
 71
3
 72
11
 73
7
 74
0
 42
0.0000001
 43
0.0000001
 44
0.0000000001
 40
0.0
 40
0.0
 40
0.0
 40
0.0
 40
0.3292568841
 40
0.5982677969
 40
0.8153210137
 40
1.0
 40
1.0
 40
1.0
 40
1.0
 10
968.780876552
 20
390.697760409
 30
0.0
 10
968.677755441
 20
390.6468228836
 30
0.0
 10
968.4946798092
 20
390.5445174049
 30
0.0
 10
968.2705715723
 20
390.3660307832
 30
0.0
 10
968.1261669822
 20
390.1767907607
 30
0.0
 10
968.0898565774
 20
390.0355564023
 30
0.0
 10
968.0898568268
 20
389.9710445549
 30
0.0
  0
SPLINE
  5
34D
100
AcDbEntity
  8
0
100
AcDbSpline
 62
7
  6
CONTINUOUS
 70
0
 71
3
 72
9
 73
5
 74
0
 42
0.0000001
 43
0.0000001
 44
0.0000000001
 40
0.0
 40
0.0
 40
0.0
 40
0.0
 40
0.4573052174
 40
1.0
 40
1.0
 40
1.0
 40
1.0
 10
978.1260225237
 20
391.3759052231
 30
0.0
 10
978.0093618867
 20
391.4335424263
 30
0.0
 10
977.7445350817
 20
391.5398214949
 30
0.0
 10
977.471330325
 20
391.620310263
 30
0.0
 10
977.3218373421
 20
391.659001894
 30
0.0
  0
SPLINE
  5
34E
100
AcDbEntity
  8
0
100
AcDbSpline
 62
7
  6
CONTINUOUS
 70
0
 71
3
 72
9
 73
5
 74
0
 42
0.0000001
 43
0.0000001
 44
0.0000000001
 40
0.0
 40
0.0
 40
0.0
 40
0.0
 40
0.2412633774
 40
1.0
 40
1.0
 40
1.0
 40
1.0
 10
970.7398631771
 20
390.8353577751
 30
0.0
 10
970.7398650445
 20
390.8251804263
 30
0.0
 10
970.7426732618
 20
390.7829882296
 30
0.0
 10
970.7572851564
 20
390.7420443131
 30
0.0
 10
970.7724700578
 20
390.7138695635
 30
0.0
  0
SPLINE
  5
34F
100
AcDbEntity
  8
0
100
AcDbSpline
 62
7
  6
CONTINUOUS
 70
0
 71
3
 72
8
 73
4
 74
0
 42
0.0000001
 43
0.0000001
 44
0.0000000001
 40
0.0
 40
0.0
 40
0.0
 40
0.0
 40
1.0
 40
1.0
 40
1.0
 40
1.0
 10
970.7724700578
 20
390.7138695635
 30
0.0
 10
970.7783561356
 20
390.7029482699
 30
0.0
 10
970.7848751665
 20
390.6923521023
 30
0.0
 10
970.791876198
 20
390.6821097332
 30
0.0
  0
SPLINE
  5
350
100
AcDbEntity
  8
0
100
AcDbSpline
 62
7
  6
CONTINUOUS
 70
0
 71
3
 72
11
 73
7
 74
0
 42
0.0000001
 43
0.0000001
 44
0.0000000001
 40
0.0
 40
0.0
 40
0.0
 40
0.0
 40
0.1710412873
 40
0.3935424771
 40
0.6706646896
 40
1.0
 40
1.0
 40
1.0
 40
1.0
 10
970.791876198
 20
390.6821097332
 30
0.0
 10
970.8263047004
 20
390.6317415232
 30
0.0
 10
970.9313368665
 20
390.5343121447
 30
0.0
 10
971.1392765306
 20
390.414729383
 30
0.0
 10
971.414235652
 20
390.3038404655
 30
0.0
 10
971.6219671488
 20
390.2426361647
 30
0.0
 10
971.7356937707
 20
390.213201549
 30
0.0
  0
SPLINE
  5
351
100
AcDbEntity
  8
0
100
AcDbSpline
 62
7
  6
CONTINUOUS
 70
0
 71
3
 72
11
 73
7
 74
0
 42
0.0000001
 43
0.0000001
 44
0.0000000001
 40
0.0
 40
0.0
 40
0.0
 40
0.0
 40
0.3292568841
 40
0.5982677971
 40
0.815321014
 40
1.0
 40
1.0
 40
1.0
 40
1.0
 10
979.4988371003
 20
388.0434637612
 30
0.0
 10
979.6019582115
 20
388.0944012864
 30
0.0
 10
979.7850338436
 20
388.1967067657
 30
0.0
 10
980.0091420805
 20
388.3751933874
 30
0.0
 10
980.1535466728
 20
388.5644334098
 30
0.0
 10
980.1898570747
 20
388.7056677684
 30
0.0
 10
980.1898568268
 20
388.7701796158
 30
0.0
  0
SPLINE
  5
352
100
AcDbEntity
  8
0
100
AcDbSpline
 62
7
  6
CONTINUOUS
 70
0
 71
3
 72
9
 73
5
 74
0
 42
0.0000001
 43
0.0000001
 44
0.0000000001
 40
0.0
 40
0.0
 40
0.0
 40
0.0
 40
0.4573052367
 40
1.0
 40
1.0
 40
1.0
 40
1.0
 10
969.4893304261
 20
387.6935002302
 30
0.0
 10
969.6254344775
 20
387.6262568553
 30
0.0
 10
969.9343990032
 20
387.5022646569
 30
0.0
 10
970.2531377997
 20
387.4083611243
 30
0.0
 10
970.4275462255
 20
387.3632209022
 30
0.0
  0
SPLINE
  5
353
100
AcDbEntity
  8
0
100
AcDbSpline
 62
7
  6
CONTINUOUS
 70
0
 71
3
 72
21
 73
17
 74
0
 42
0.0000001
 43
0.0000001
 44
0.0000000001
 40
0.0
 40
0.0
 40
0.0
 40
0.0
 40
0.1341981881
 40
0.2893484809
 40
0.4532451371
 40
0.6127429911
 40
0.6868436297
 40
0.7552092312
 40
0.8165705677
 40
0.8698925078
 40
0.9144716752
 40
0.9501247801
 40
0.9648266363
 40
0.9777282492
 40
0.9892469478
 40
1.0
 40
1.0
 40
1.0
 40
1.0
 10
969.8618608006
 20
388.8638177085
 30
0.0
 10
970.3304500143
 20
388.7425378959
 30
0.0
 10
971.3601755027
 20
388.5564630174
 30
0.0
 10
972.9899448061
 20
388.4116891856
 30
0.0
 10
974.71746137
 20
388.3907296964
 30
0.0
 10
976.1500937408
 20
388.4795309863
 30
0.0
 10
977.2306810405
 20
388.6184626345
 30
0.0
 10
977.954633818
 20
388.7485556825
 30
0.0
 10
978.5967528175
 20
388.9039876255
 30
0.0
 10
979.1440376618
 20
389.0812672202
 30
0.0
 10
979.5853303566
 20
389.2763936253
 30
0.0
 10
979.8766481954
 20
389.461550008
 30
0.0
 10
980.0417019051
 20
389.6202263048
 30
0.0
 10
980.1260293841
 20
389.7344612772
 30
0.0
 10
980.177921643
 20
389.8515452496
 30
0.0
 10
980.1898569767
 20
389.9322601604
 30
0.0
 10
980.1898568268
 20
389.9710445549
 30
0.0
  0
SPLINE
  5
354
100
AcDbEntity
  8
0
100
AcDbSpline
 62
7
  6
CONTINUOUS
 70
0
 71
3
 72
17
 73
13
 74
0
 42
0.0000001
 43
0.0000001
 44
0.0000000001
 40
0.0
 40
0.0
 40
0.0
 40
0.0
 40
0.1259489069
 40
0.2708803514
 40
0.4252672631
 40
0.5786972535
 40
0.7208519913
 40
0.8424427757
 40
0.893212695
 40
0.9364337233
 40
0.9718955201
 40
1.0
 40
1.0
 40
1.0
 40
1.0
 10
976.5440198828
 20
391.2645027566
 30
0.0
 10
976.3044678869
 20
391.3265033755
 30
0.0
 10
975.7801500873
 20
391.4245695814
 30
0.0
 10
974.9481276538
 20
391.5075914501
 30
0.0
 10
974.0582388789
 20
391.5322609805
 30
0.0
 10
973.1741545796
 20
391.4967241352
 30
0.0
 10
972.35917467
 20
391.4036198612
 30
0.0
 10
971.7524001652
 20
391.2787771973
 30
0.0
 10
971.3487045643
 20
391.1493580964
 30
0.0
 10
971.1142469724
 20
391.0493092992
 30
0.0
 10
970.9330315108
 20
390.9424741528
 30
0.0
 10
970.8388330736
 20
390.8577159656
 30
0.0
 10
970.8051868734
 20
390.8139360791
 30
0.0
  0
SPLINE
  5
355
100
AcDbEntity
  8
0
100
AcDbSpline
 62
7
  6
CONTINUOUS
 70
0
 71
3
 72
9
 73
5
 74
0
 42
0.0000001
 43
0.0000001
 44
0.0000000001
 40
0.0
 40
0.0
 40
0.0
 40
0.0
 40
0.2607787512
 40
1.0
 40
1.0
 40
1.0
 40
1.0
 10
970.7963785464
 20
390.8020467907
 30
0.0
 10
970.79278535
 20
390.7970092128
 30
0.0
 10
970.7794569342
 20
390.7773794179
 30
0.0
 10
970.7680233276
 20
390.7564258223
 30
0.0
 10
970.7610509077
 20
390.7403309586
 30
0.0
  0
SPLINE
  5
356
100
AcDbEntity
  8
0
100
AcDbSpline
 62
7
  6
CONTINUOUS
 70
0
 71
3
 72
19
 73
15
 74
0
 42
0.0000001
 43
0.0000001
 44
0.0000000001
 40
0.0
 40
0.0
 40
0.0
 40
0.0
 40
0.1342456032
 40
0.2894428294
 40
0.4533922496
 40
0.6129393478
 40
0.687062348
 40
0.7554477539
 40
0.8168249366
 40
0.8701591594
 40
0.9147478249
 40
0.9504079766
 40
0.977915923
 40
1.0
 40
1.0
 40
1.0
 40
1.0
 10
976.5440198828
 20
391.4576879219
 30
0.0
 10
976.2806609819
 20
391.5258502211
 30
0.0
 10
975.7019443457
 20
391.6304228659
 30
0.0
 10
974.7859992627
 20
391.7117817693
 30
0.0
 10
973.815131347
 20
391.723554165
 30
0.0
 10
973.0099916583
 20
391.6736358057
 30
0.0
 10
972.4027015529
 20
391.5955500101
 30
0.0
 10
971.9958630876
 20
391.5224312825
 30
0.0
 10
971.6349736268
 20
391.4350732572
 30
0.0
 10
971.3275428346
 20
391.3354231755
 30
0.0
 10
971.0792341764
 20
391.2257870068
 30
0.0
 10
970.8943621967
 20
391.1076105256
 30
0.0
 10
970.7726688127
 20
390.9808633883
 30
0.0
 10
970.7398549661
 20
390.8801091931
 30
0.0
 10
970.7398631771
 20
390.8353577751
 30
0.0
  0
SPLINE
  5
357
100
AcDbEntity
  8
0
100
AcDbSpline
 62
7
  6
CONTINUOUS
 70
0
 71
3
 72
14
 73
10
 74
0
 42
0.0000001
 43
0.0000001
 44
0.0000000001
 40
0.0
 40
0.0
 40
0.0
 40
0.0
 40
0.0711240762
 40
0.1508853543
 40
0.2453253884
 40
0.3577210162
 40
0.4894539331
 40
0.6408121558
 40
1.0
 40
1.0
 40
1.0
 40
1.0
 10
968.0898568268
 20
389.9710445549
 30
0.0
 10
968.0898570281
 20
389.9189703094
 30
0.0
 10
968.1124126766
 20
389.8077678232
 30
0.0
 10
968.2067236179
 20
389.6520649183
 30
0.0
 10
968.3563692177
 20
389.5029773714
 30
0.0
 10
968.5596475859
 20
389.3597000065
 30
0.0
 10
968.8151753514
 20
389.222397527
 30
0.0
 10
969.2483064962
 20
389.038148742
 30
0.0
 10
969.6072666898
 20
388.9297115133
 30
0.0
 10
969.8618608006
 20
388.8638177085
 30
0.0
  0
SPLINE
  5
358
100
AcDbEntity
  8
0
100
AcDbSpline
 62
7
  6
CONTINUOUS
 70
0
 71
3
 72
25
 73
21
 74
0
 42
0.0000001
 43
0.0000001
 44
0.0000000001
 40
0.0
 40
0.0
 40
0.0
 40
0.0
 40
0.0708945204
 40
0.1501772894
 40
0.3248002425
 40
0.4151320909
 40
0.5039483463
 40
0.5886623071
 40
0.6668473308
 40
0.7363468038
 40
0.7954070397
 40
0.8428824979
 40
0.8622184402
 40
0.8787750393
 40
0.9050745838
 40
0.9167791397
 40
0.9290329479
 40
0.9429205821
 40
0.9591602971
 40
1.0
 40
1.0
 40
1.0
 40
1.0
 10
970.9578763114
 20
390.011887577
 30
0.0
 10
971.1597993644
 20
389.9596260451
 30
0.0
 10
971.5925623625
 20
389.8680828368
 30
0.0
 10
972.5386502672
 20
389.7309038807
 30
0.0
 10
973.5514311962
 20
389.6673601311
 30
0.0
 10
974.5924348754
 20
389.6705944725
 30
0.0
 10
975.3681147832
 20
389.7087601154
 30
0.0
 10
976.105463393
 20
389.7810889473
 30
0.0
 10
976.7816016506
 20
389.8852504635
 30
0.0
 10
977.3759436747
 20
390.0175748767
 30
0.0
 10
977.8703938605
 20
390.1739122213
 30
0.0
 10
978.2090171823
 20
390.3281576543
 30
0.0
 10
978.4132374923
 20
390.4658360854
 30
0.0
 10
978.548918119
 20
390.5879175675
 30
0.0
 10
978.6390654246
 20
390.7323939934
 30
0.0
 10
978.6423454782
 20
390.883503626
 30
0.0
 10
978.6058737943
 20
390.9906905635
 30
0.0
 10
978.5337587288
 20
391.0938908674
 30
0.0
 10
978.3810209217
 20
391.2376437561
 30
0.0
 10
978.233745622
 20
391.3226836886
 30
0.0
 10
978.1260225237
 20
391.3759052231
 30
0.0
  0
SPLINE
  5
359
100
AcDbEntity
  8
0
100
AcDbSpline
 62
7
  6
CONTINUOUS
 70
0
 71
3
 72
15
 73
11
 74
0
 42
0.0000001
 43
0.0000001
 44
0.0000000001
 40
0.0
 40
0.0
 40
0.0
 40
0.0
 40
0.1102240355
 40
0.2348322268
 40
0.3691171129
 40
0.5078286777
 40
0.6454929463
 40
0.7766896738
 40
0.8963370227
 40
1.0
 40
1.0
 40
1.0
 40
1.0
 10
969.8618608006
 20
387.6629527693
 30
0.0
 10
970.180531496
 20
387.5804747239
 30
0.0
 10
970.8687061082
 20
387.4402252433
 30
0.0
 10
971.9624214456
 20
387.2976759182
 30
0.0
 10
973.1475671759
 20
387.2145464462
 30
0.0
 10
974.3743587764
 20
387.1946508249
 30
0.0
 10
975.5912903918
 20
387.2389099539
 30
0.0
 10
976.7473571689
 20
387.3452620771
 30
0.0
 10
977.7940298186
 20
387.5088542481
 30
0.0
 10
978.4440343731
 20
387.663458082
 30
0.0
 10
978.7403067533
 20
387.7532399749
 30
0.0
  0
SPLINE
  5
35A
100
AcDbEntity
  8
0
100
AcDbSpline
 62
7
  6
CONTINUOUS
 70
0
 71
3
 72
9
 73
5
 74
0
 42
0.0000001
 43
0.0000001
 44
0.0000000001
 40
0.0
 40
0.0
 40
0.0
 40
0.0
 40
0.2751820467
 40
1.0
 40
1.0
 40
1.0
 40
1.0
 10
978.7403067533
 20
387.7532399749
 30
0.0
 10
978.8116429319
 20
387.7748575727
 30
0.0
 10
979.0695580185
 20
387.8574248098
 30
0.0
 10
979.3228068256
 20
387.9565121521
 30
0.0
 10
979.4988371003
 20
388.0434637612
 30
0.0
  0
SPLINE
  5
35B
100
AcDbEntity
  8
0
100
AcDbSpline
 62
7
  6
CONTINUOUS
 70
0
 71
3
 72
19
 73
15
 74
0
 42
0.0000001
 43
0.0000001
 44
0.0000000001
 40
0.0
 40
0.0
 40
0.0
 40
0.0
 40
0.1354849855
 40
0.1908393009
 40
0.2388619859
 40
0.2810783517
 40
0.3198758932
 40
0.3583757406
 40
0.3997717705
 40
0.4466118611
 40
0.5005635714
 40
0.6329576529
 40
0.7998812048
 40
1.0
 40
1.0
 40
1.0
 40
1.0
 10
970.1539619679
 20
391.3760346441
 30
0.0
 10
970.0561949924
 20
391.3277429378
 30
0.0
 10
969.9216317743
 20
391.2507681141
 30
0.0
 10
969.7758264207
 20
391.1245536366
 30
0.0
 10
969.700690351
 20
391.033709785
 30
0.0
 10
969.6531456076
 20
390.9401486024
 30
0.0
 10
969.6349866836
 20
390.8441596042
 30
0.0
 10
969.647637457
 20
390.7479146698
 30
0.0
 10
969.6900317366
 20
390.6538459663
 30
0.0
 10
969.760273222
 20
390.5625324523
 30
0.0
 10
969.8994177218
 20
390.4355532839
 30
0.0
 10
970.1457344855
 20
390.2889294828
 30
0.0
 10
970.5181879943
 20
390.1362070381
 30
0.0
 10
970.8019510059
 20
390.0522440156
 30
0.0
 10
970.9578763114
 20
390.011887577
 30
0.0
  0
SPLINE
  5
35C
100
AcDbEntity
  8
0
100
AcDbSpline
 62
7
  6
CONTINUOUS
 70
0
 71
3
 72
9
 73
5
 74
0
 42
0.0000001
 43
0.0000001
 44
0.0000000001
 40
0.0
 40
0.0
 40
0.0
 40
0.0
 40
0.2401593647
 40
1.0
 40
1.0
 40
1.0
 40
1.0
 10
977.5186806332
 20
390.7402960801
 30
0.0
 10
977.5164096504
 20
390.745540187
 30
0.0
 10
977.5063081139
 20
390.7670953378
 30
0.0
 10
977.4937488566
 20
390.7874617946
 30
0.0
 10
977.4832429199
 20
390.8021771277
 30
0.0
  0
SPLINE
  5
35D
100
AcDbEntity
  8
0
100
AcDbSpline
 62
7
  6
CONTINUOUS
 70
0
 71
3
 72
11
 73
7
 74
0
 42
0.0000001
 43
0.0000001
 44
0.0000000001
 40
0.0
 40
0.0
 40
0.0
 40
0.0
 40
0.1743781967
 40
0.3984053364
 40
0.6744560483
 40
1.0
 40
1.0
 40
1.0
 40
1.0
 10
977.4745267801
 20
390.8139360791
 30
0.0
 10
977.4374161949
 20
390.8622189963
 30
0.0
 10
977.3306751111
 20
390.9550542127
 30
0.0
 10
977.1244709169
 20
391.0700980956
 30
0.0
 10
976.8558696833
 20
391.1767644994
 30
0.0
 10
976.6540808174
 20
391.2360168906
 30
0.0
 10
976.5440198828
 20
391.2645027566
 30
0.0
  0
SPLINE
  5
35E
100
AcDbEntity
  8
0
100
AcDbSpline
 62
7
  6
CONTINUOUS
 70
0
 71
3
 72
14
 73
10
 74
0
 42
0.0000001
 43
0.0000001
 44
0.0000000001
 40
0.0
 40
0.0
 40
0.0
 40
0.0
 40
0.0711229883
 40
0.1508901211
 40
0.2453444616
 40
0.3577341164
 40
0.4894601085
 40
0.6408306105
 40
1.0
 40
1.0
 40
1.0
 40
1.0
 10
977.5398504764
 20
390.8355316959
 30
0.0
 10
977.5398451073
 20
390.8647940136
 30
0.0
 10
977.5271460336
 20
390.9272809915
 30
0.0
 10
977.4741286688
 20
391.0147731396
 30
0.0
 10
977.3900081019
 20
391.0985312254
 30
0.0
 10
977.2757845223
 20
391.1790536774
 30
0.0
 10
977.1321832448
 20
391.2561946336
 30
0.0
 10
976.888794333
 20
391.3597300171
 30
0.0
 10
976.6870799502
 20
391.4206612519
 30
0.0
 10
976.5440198828
 20
391.4576879219
 30
0.0
  0
SPLINE
  5
35F
100
AcDbEntity
  8
0
100
AcDbSpline
 62
7
  6
CONTINUOUS
 70
0
 71
3
 72
9
 73
5
 74
0
 42
0.0000001
 43
0.0000001
 44
0.0000000001
 40
0.0
 40
0.0
 40
0.0
 40
0.0
 40
0.2246039304
 40
1.0
 40
1.0
 40
1.0
 40
1.0
 10
968.780875213
 20
388.0434634868
 30
0.0
 10
968.8354279492
 20
388.0165150354
 30
0.0
 10
969.0817041101
 20
387.9033963503
 30
0.0
 10
969.3383961722
 20
387.8141597877
 30
0.0
 10
969.5394252053
 20
387.7532392513
 30
0.0
  0
SPLINE
  5
360
100
AcDbEntity
  8
0
100
AcDbSpline
 62
7
  6
CONTINUOUS
 70
0
 71
3
 72
12
 73
8
 74
0
 42
0.0000001
 43
0.0000001
 44
0.0000000001
 40
0.0
 40
0.0
 40
0.0
 40
0.0
 40
0.1061517875
 40
0.2247788758
 40
0.4861042126
 40
0.7546822116
 40
1.0
 40
1.0
 40
1.0
 40
1.0
 10
510.8081384543
 20
352.5908075427
 30
0.0
 10
511.0412575316
 20
352.5304718855
 30
0.0
 10
511.5406321844
 20
352.4246066121
 30
0.0
 10
512.6322504223
 20
352.2653063162
 30
0.0
 10
514.1030719108
 20
352.1709799113
 30
0.0
 10
515.8628519993
 20
352.2112107035
 30
0.0
 10
517.0238495775
 20
352.3446422315
 30
0.0
 10
517.57107699
 20
352.4457651914
 30
0.0
  0
SPLINE
  5
361
100
AcDbEntity
  8
0
100
AcDbSpline
 62
7
  6
CONTINUOUS
 70
0
 71
3
 72
10
 73
6
 74
0
 42
0.0000001
 43
0.0000001
 44
0.0000000001
 40
0.0
 40
0.0
 40
0.0
 40
0.0
 40
0.5573827865
 40
0.7941362151
 40
1.0
 40
1.0
 40
1.0
 40
1.0
 10
517.57107699
 20
352.4457651914
 30
0.0
 10
517.876709787
 20
352.5022435263
 30
0.0
 10
518.3099737436
 20
352.5993421803
 30
0.0
 10
518.8399178095
 20
352.7739357581
 30
0.0
 10
519.067737208
 20
352.8700977311
 30
0.0
 10
519.1706597122
 20
352.9209359949
 30
0.0
  0
SPLINE
  5
362
100
AcDbEntity
  8
0
100
AcDbSpline
 62
7
  6
CONTINUOUS
 70
0
 71
3
 72
9
 73
5
 74
0
 42
0.0000001
 43
0.0000001
 44
0.0000000001
 40
0.0
 40
0.0
 40
0.0
 40
0.0
 40
0.4693309799
 40
1.0
 40
1.0
 40
1.0
 40
1.0
 10
517.7024295709
 20
356.8865885345
 30
0.0
 10
517.4647720871
 20
356.9480988175
 30
0.0
 10
516.9514992628
 20
357.0526396656
 30
0.0
 10
516.432454847
 20
357.1201413478
 30
0.0
 10
516.1562877887
 20
357.1480333361
 30
0.0
  0
SPLINE
  5
363
100
AcDbEntity
  8
0
100
AcDbSpline
 62
7
  6
CONTINUOUS
 70
0
 71
3
 72
12
 73
8
 74
0
 42
0.0000001
 43
0.0000001
 44
0.0000000001
 40
0.0
 40
0.0
 40
0.0
 40
0.0
 40
0.2941421328
 40
0.5735554488
 40
0.8149419463
 40
0.9153783575
 40
1.0
 40
1.0
 40
1.0
 40
1.0
 10
515.0771357072
 20
357.2187707156
 30
0.0
 10
514.624713427
 20
357.2333680866
 30
0.0
 10
513.7409510913
 20
357.2273978149
 30
0.0
 10
512.4903310155
 20
357.1209184423
 30
0.0
 10
511.5465260782
 20
356.9529166431
 30
0.0
 10
510.9163852306
 20
356.7676616376
 30
0.0
 10
510.6513122373
 20
356.6612935709
 30
0.0
 10
510.5345541966
 20
356.6036212846
 30
0.0
  0
SPLINE
  5
364
100
AcDbEntity
  8
0
100
AcDbSpline
 62
7
  6
CONTINUOUS
 70
0
 71
3
 72
17
 73
13
 74
0
 42
0.0000001
 43
0.0000001
 44
0.0000000001
 40
0.0
 40
0.0
 40
0.0
 40
0.0
 40
0.1268119031
 40
0.2728209156
 40
0.4282294839
 40
0.5823509527
 40
0.724618747
 40
0.8455811588
 40
0.8957431469
 40
0.9381878574
 40
0.9727602416
 40
1.0
 40
1.0
 40
1.0
 40
1.0
 10
512.1162859995
 20
355.4407881895
 30
0.0
 10
512.3584028724
 20
355.3781237317
 30
0.0
 10
512.8885848826
 20
355.279328415
 30
0.0
 10
513.7297169647
 20
355.1964056673
 30
0.0
 10
514.6285712171
 20
355.1730319945
 30
0.0
 10
515.519580442
 20
355.2109312936
 30
0.0
 10
516.3377047153
 20
355.3072919386
 30
0.0
 10
516.9440487451
 20
355.4354726612
 30
0.0
 10
517.3442627262
 20
355.5681069231
 30
0.0
 10
517.5740827161
 20
355.6701559487
 30
0.0
 10
517.7493493819
 20
355.778877304
 30
0.0
 10
517.8381689011
 20
355.8654233311
 30
0.0
 10
517.8684844125
 20
355.9097738264
 30
0.0
  0
SPLINE
  5
365
100
AcDbEntity
  8
0
100
AcDbSpline
 62
7
  6
CONTINUOUS
 70
0
 71
3
 72
8
 73
4
 74
0
 42
0.0000001
 43
0.0000001
 44
0.0000000001
 40
0.0
 40
0.0
 40
0.0
 40
0.0
 40
1.0
 40
1.0
 40
1.0
 40
1.0
 10
517.8684844125
 20
355.9097738264
 30
0.0
 10
517.8754684999
 20
355.9199912932
 30
0.0
 10
517.8819727059
 20
355.9305611253
 30
0.0
 10
517.8878445205
 20
355.94145589
 30
0.0
  0
SPLINE
  5
366
100
AcDbEntity
  8
0
100
AcDbSpline
 62
7
  6
CONTINUOUS
 70
0
 71
3
 72
9
 73
5
 74
0
 42
0.0000001
 43
0.0000001
 44
0.0000000001
 40
0.0
 40
0.0
 40
0.0
 40
0.0
 40
0.2642634338
 40
1.0
 40
1.0
 40
1.0
 40
1.0
 10
517.8878445205
 20
355.94145589
 30
0.0
 10
517.8931384516
 20
355.9512784301
 30
0.0
 10
517.9112816109
 20
355.9894006888
 30
0.0
 10
517.9204484052
 20
356.0320524401
 30
0.0
 10
517.9204427052
 20
356.0631183364
 30
0.0
  0
SPLINE
  5
367
100
AcDbEntity
  8
0
100
AcDbSpline
 62
7
  6
CONTINUOUS
 70
0
 71
3
 72
11
 73
7
 74
0
 42
0.0000001
 43
0.0000001
 44
0.0000000001
 40
0.0
 40
0.0
 40
0.0
 40
0.0
 40
0.1846798153
 40
0.4017317655
 40
0.670750339
 40
1.0
 40
1.0
 40
1.0
 40
1.0
 10
508.4704490555
 20
353.9977662563
 30
0.0
 10
508.4704493034
 20
353.933254194
 30
0.0
 10
508.5067603095
 20
353.7920207824
 30
0.0
 10
508.6511630021
 20
353.6027763125
 30
0.0
 10
508.8752757634
 20
353.4242953552
 30
0.0
 10
509.0583499706
 20
353.3219890233
 30
0.0
 10
509.1614674417
 20
353.2710501273
 30
0.0
  0
SPLINE
  5
368
100
AcDbEntity
  8
0
100
AcDbSpline
 62
7
  6
CONTINUOUS
 70
0
 71
3
 72
11
 73
7
 74
0
 42
0.0000001
 43
0.0000001
 44
0.0000000001
 40
0.0
 40
0.0
 40
0.0
 40
0.0
 40
0.1846798228
 40
0.4017317755
 40
0.6707503472
 40
1.0
 40
1.0
 40
1.0
 40
1.0
 10
520.5704490555
 20
355.1986311954
 30
0.0
 10
520.5704488062
 20
355.2631432505
 30
0.0
 10
520.5341378124
 20
355.4043766446
 30
0.0
 10
520.3897351496
 20
355.5936210965
 30
0.0
 10
520.1656224335
 20
355.772102036
 30
0.0
 10
519.9825482633
 20
355.874408362
 30
0.0
 10
519.8794308127
 20
355.9253472537
 30
0.0
  0
SPLINE
  5
369
100
AcDbEntity
  8
0
100
AcDbSpline
 62
7
  6
CONTINUOUS
 70
0
 71
3
 72
11
 73
7
 74
0
 42
0.0000001
 43
0.0000001
 44
0.0000000001
 40
0.0
 40
0.0
 40
0.0
 40
0.0
 40
0.3292568841
 40
0.5982677969
 40
0.8153210137
 40
1.0
 40
1.0
 40
1.0
 40
1.0
 10
509.1614687808
 20
355.9253470495
 30
0.0
 10
509.0583476698
 20
355.8744095241
 30
0.0
 10
508.875272038
 20
355.7721040453
 30
0.0
 10
508.6511638011
 20
355.5936174236
 30
0.0
 10
508.5067592109
 20
355.4043774011
 30
0.0
 10
508.4704488062
 20
355.2631430428
 30
0.0
 10
508.4704490555
 20
355.1986311954
 30
0.0
  0
SPLINE
  5
36A
100
AcDbEntity
  8
0
100
AcDbSpline
 62
7
  6
CONTINUOUS
 70
0
 71
3
 72
9
 73
5
 74
0
 42
0.0000001
 43
0.0000001
 44
0.0000000001
 40
0.0
 40
0.0
 40
0.0
 40
0.0
 40
0.4573052174
 40
1.0
 40
1.0
 40
1.0
 40
1.0
 10
518.5066147525
 20
356.6034918635
 30
0.0
 10
518.3899541155
 20
356.6611290668
 30
0.0
 10
518.1251273104
 20
356.7674081354
 30
0.0
 10
517.8519225537
 20
356.8478969035
 30
0.0
 10
517.7024295709
 20
356.8865885345
 30
0.0
  0
SPLINE
  5
36B
100
AcDbEntity
  8
0
100
AcDbSpline
 62
7
  6
CONTINUOUS
 70
0
 71
3
 72
9
 73
5
 74
0
 42
0.0000001
 43
0.0000001
 44
0.0000000001
 40
0.0
 40
0.0
 40
0.0
 40
0.0
 40
0.2412633774
 40
1.0
 40
1.0
 40
1.0
 40
1.0
 10
511.1204554059
 20
356.0629444155
 30
0.0
 10
511.1204572732
 20
356.0527670668
 30
0.0
 10
511.1232654906
 20
356.0105748701
 30
0.0
 10
511.1378773851
 20
355.9696309535
 30
0.0
 10
511.1530622866
 20
355.941456204
 30
0.0
  0
SPLINE
  5
36C
100
AcDbEntity
  8
0
100
AcDbSpline
 62
7
  6
CONTINUOUS
 70
0
 71
3
 72
8
 73
4
 74
0
 42
0.0000001
 43
0.0000001
 44
0.0000000001
 40
0.0
 40
0.0
 40
0.0
 40
0.0
 40
1.0
 40
1.0
 40
1.0
 40
1.0
 10
511.1530622866
 20
355.941456204
 30
0.0
 10
511.1589483644
 20
355.9305349104
 30
0.0
 10
511.1654673952
 20
355.9199387428
 30
0.0
 10
511.1724684268
 20
355.9096963737
 30
0.0
  0
SPLINE
  5
36D
100
AcDbEntity
  8
0
100
AcDbSpline
 62
7
  6
CONTINUOUS
 70
0
 71
3
 72
11
 73
7
 74
0
 42
0.0000001
 43
0.0000001
 44
0.0000000001
 40
0.0
 40
0.0
 40
0.0
 40
0.0
 40
0.1710412873
 40
0.3935424771
 40
0.6706646896
 40
1.0
 40
1.0
 40
1.0
 40
1.0
 10
511.1724684268
 20
355.9096963737
 30
0.0
 10
511.2068969292
 20
355.8593281637
 30
0.0
 10
511.3119290953
 20
355.7618987852
 30
0.0
 10
511.5198687594
 20
355.6423160235
 30
0.0
 10
511.7948278808
 20
355.531427106
 30
0.0
 10
512.0025593775
 20
355.4702228052
 30
0.0
 10
512.1162859995
 20
355.4407881895
 30
0.0
  0
SPLINE
  5
36E
100
AcDbEntity
  8
0
100
AcDbSpline
 62
7
  6
CONTINUOUS
 70
0
 71
3
 72
11
 73
7
 74
0
 42
0.0000001
 43
0.0000001
 44
0.0000000001
 40
0.0
 40
0.0
 40
0.0
 40
0.0
 40
0.3292568841
 40
0.5982677971
 40
0.815321014
 40
1.0
 40
1.0
 40
1.0
 40
1.0
 10
519.879429329
 20
353.2710504017
 30
0.0
 10
519.9825504403
 20
353.3219879269
 30
0.0
 10
520.1656260724
 20
353.4242934062
 30
0.0
 10
520.3897343093
 20
353.6027800279
 30
0.0
 10
520.5341389015
 20
353.7920200502
 30
0.0
 10
520.5704493034
 20
353.9332544089
 30
0.0
 10
520.5704490555
 20
353.9977662563
 30
0.0
  0
SPLINE
  5
36F
100
AcDbEntity
  8
0
100
AcDbSpline
 62
7
  6
CONTINUOUS
 70
0
 71
3
 72
9
 73
5
 74
0
 42
0.0000001
 43
0.0000001
 44
0.0000000001
 40
0.0
 40
0.0
 40
0.0
 40
0.0
 40
0.4573052367
 40
1.0
 40
1.0
 40
1.0
 40
1.0
 10
509.8699226548
 20
352.9210868707
 30
0.0
 10
510.0060267063
 20
352.8538434958
 30
0.0
 10
510.3149912319
 20
352.7298512974
 30
0.0
 10
510.6337300284
 20
352.6359477648
 30
0.0
 10
510.8081384543
 20
352.5908075427
 30
0.0
  0
SPLINE
  5
370
100
AcDbEntity
  8
0
100
AcDbSpline
 62
7
  6
CONTINUOUS
 70
0
 71
3
 72
21
 73
17
 74
0
 42
0.0000001
 43
0.0000001
 44
0.0000000001
 40
0.0
 40
0.0
 40
0.0
 40
0.0
 40
0.1341981881
 40
0.2893484809
 40
0.4532451371
 40
0.6127429911
 40
0.6868436297
 40
0.7552092312
 40
0.8165705677
 40
0.8698925078
 40
0.9144716752
 40
0.9501247801
 40
0.9648266363
 40
0.9777282492
 40
0.9892469478
 40
1.0
 40
1.0
 40
1.0
 40
1.0
 10
510.2424530293
 20
354.091404349
 30
0.0
 10
510.711042243
 20
353.9701245364
 30
0.0
 10
511.7407677314
 20
353.7840496579
 30
0.0
 10
513.3705370349
 20
353.6392758261
 30
0.0
 10
515.0980535987
 20
353.6183163369
 30
0.0
 10
516.5306859695
 20
353.7071176267
 30
0.0
 10
517.6112732692
 20
353.846049275
 30
0.0
 10
518.3352260467
 20
353.976142323
 30
0.0
 10
518.9773450463
 20
354.131574266
 30
0.0
 10
519.5246298905
 20
354.3088538607
 30
0.0
 10
519.9659225854
 20
354.5039802657
 30
0.0
 10
520.2572404242
 20
354.6891366485
 30
0.0
 10
520.4222941339
 20
354.8478129453
 30
0.0
 10
520.5066216128
 20
354.9620479176
 30
0.0
 10
520.5585138718
 20
355.0791318901
 30
0.0
 10
520.5704492054
 20
355.1598468009
 30
0.0
 10
520.5704490555
 20
355.1986311954
 30
0.0
  0
SPLINE
  5
371
100
AcDbEntity
  8
0
100
AcDbSpline
 62
7
  6
CONTINUOUS
 70
0
 71
3
 72
17
 73
13
 74
0
 42
0.0000001
 43
0.0000001
 44
0.0000000001
 40
0.0
 40
0.0
 40
0.0
 40
0.0
 40
0.1259489069
 40
0.2708803514
 40
0.4252672631
 40
0.5786972535
 40
0.7208519913
 40
0.8424427757
 40
0.893212695
 40
0.9364337233
 40
0.9718955201
 40
1.0
 40
1.0
 40
1.0
 40
1.0
 10
516.9246121116
 20
356.4920893971
 30
0.0
 10
516.6850601156
 20
356.554090016
 30
0.0
 10
516.1607423161
 20
356.6521562219
 30
0.0
 10
515.3287198825
 20
356.7351780906
 30
0.0
 10
514.4388311076
 20
356.759847621
 30
0.0
 10
513.5547468084
 20
356.7243107756
 30
0.0
 10
512.7397668987
 20
356.6312065016
 30
0.0
 10
512.1329923939
 20
356.5063638378
 30
0.0
 10
511.729296793
 20
356.3769447368
 30
0.0
 10
511.4948392011
 20
356.2768959396
 30
0.0
 10
511.3136237395
 20
356.1700607933
 30
0.0
 10
511.2194253024
 20
356.0853026061
 30
0.0
 10
511.1857791021
 20
356.0415227196
 30
0.0
  0
SPLINE
  5
372
100
AcDbEntity
  8
0
100
AcDbSpline
 62
7
  6
CONTINUOUS
 70
0
 71
3
 72
9
 73
5
 74
0
 42
0.0000001
 43
0.0000001
 44
0.0000000001
 40
0.0
 40
0.0
 40
0.0
 40
0.0
 40
0.2607787512
 40
1.0
 40
1.0
 40
1.0
 40
1.0
 10
511.1769707751
 20
356.0296334312
 30
0.0
 10
511.1733775788
 20
356.0245958533
 30
0.0
 10
511.1600491629
 20
356.0049660584
 30
0.0
 10
511.1486155563
 20
355.9840124628
 30
0.0
 10
511.1416431365
 20
355.9679175991
 30
0.0
  0
SPLINE
  5
373
100
AcDbEntity
  8
0
100
AcDbSpline
 62
7
  6
CONTINUOUS
 70
0
 71
3
 72
9
 73
5
 74
0
 42
0.0000001
 43
0.0000001
 44
0.0000000001
 40
0.0
 40
0.0
 40
0.0
 40
0.0
 40
0.2275736693
 40
1.0
 40
1.0
 40
1.0
 40
1.0
 10
516.9246121116
 20
356.6852745624
 30
0.0
 10
516.847693469
 20
356.705182572
 30
0.0
 10
516.50765783
 20
356.7847534808
 30
0.0
 10
516.1617153766
 20
356.837419532
 30
0.0
 10
515.8937804721
 20
356.8680360327
 30
0.0
  0
SPLINE
  5
374
100
AcDbEntity
  8
0
100
AcDbSpline
 62
7
  6
CONTINUOUS
 70
0
 71
3
 72
9
 73
5
 74
0
 42
0.0000001
 43
0.0000001
 44
0.0000000001
 40
0.0
 40
0.0
 40
0.0
 40
0.0
 40
0.2425953935
 40
1.0
 40
1.0
 40
1.0
 40
1.0
 10
515.8937804721
 20
356.8680360327
 30
0.0
 10
515.8209761442
 20
356.8763552689
 30
0.0
 10
515.5205062448
 20
356.9074208396
 30
0.0
 10
515.2188113019
 20
356.9263208876
 30
0.0
 10
514.9901794491
 20
356.934575204
 30
0.0
  0
SPLINE
  5
375
100
AcDbEntity
  8
0
100
AcDbSpline
 62
7
  6
CONTINUOUS
 70
0
 71
3
 72
17
 73
13
 74
0
 42
0.0000001
 43
0.0000001
 44
0.0000000001
 40
0.0
 40
0.0
 40
0.0
 40
0.0
 40
0.1756269443
 40
0.3486333868
 40
0.5117164341
 40
0.6581385428
 40
0.7821912957
 40
0.8798311765
 40
0.9183266822
 40
0.9502829068
 40
0.9767828582
 40
1.0
 40
1.0
 40
1.0
 40
1.0
 10
514.9901794491
 20
356.934575204
 30
0.0
 10
514.7487337839
 20
356.9432921386
 30
0.0
 10
514.2688648487
 20
356.9471513617
 30
0.0
 10
513.5653168744
 20
356.9143762038
 30
0.0
 10
512.9048226634
 20
356.8446667504
 30
0.0
 10
512.3166366725
 20
356.7416187333
 30
0.0
 10
511.8270715064
 20
356.6101799402
 30
0.0
 10
511.4935592224
 20
356.4741099109
 30
0.0
 10
511.2982048911
 20
356.3490234615
 30
0.0
 10
511.1989223322
 20
356.2586636202
 30
0.0
 10
511.1357770329
 20
356.1637545984
 30
0.0
 10
511.1204495457
 20
356.094883309
 30
0.0
 10
511.1204554059
 20
356.0629444155
 30
0.0
  0
SPLINE
  5
376
100
AcDbEntity
  8
0
100
AcDbSpline
 62
7
  6
CONTINUOUS
 70
0
 71
3
 72
14
 73
10
 74
0
 42
0.0000001
 43
0.0000001
 44
0.0000000001
 40
0.0
 40
0.0
 40
0.0
 40
0.0
 40
0.0711240762
 40
0.1508853543
 40
0.2453253884
 40
0.3577210162
 40
0.4894539331
 40
0.6408121558
 40
1.0
 40
1.0
 40
1.0
 40
1.0
 10
508.4704490555
 20
355.1986311954
 30
0.0
 10
508.4704492568
 20
355.1465569499
 30
0.0
 10
508.4930049054
 20
355.0353544637
 30
0.0
 10
508.5873158466
 20
354.8796515588
 30
0.0
 10
508.7369614464
 20
354.7305640119
 30
0.0
 10
508.9402398146
 20
354.587286647
 30
0.0
 10
509.1957675801
 20
354.4499841674
 30
0.0
 10
509.6288987249
 20
354.2657353825
 30
0.0
 10
509.9878589186
 20
354.1572981538
 30
0.0
 10
510.2424530293
 20
354.091404349
 30
0.0
  0
SPLINE
  5
377
100
AcDbEntity
  8
0
100
AcDbSpline
 62
7
  6
CONTINUOUS
 70
0
 71
3
 72
25
 73
21
 74
0
 42
0.0000001
 43
0.0000001
 44
0.0000000001
 40
0.0
 40
0.0
 40
0.0
 40
0.0
 40
0.0708945204
 40
0.1501772894
 40
0.3248002425
 40
0.4151320909
 40
0.5039483463
 40
0.5886623071
 40
0.6668473308
 40
0.7363468038
 40
0.7954070397
 40
0.8428824979
 40
0.8622184402
 40
0.8787750393
 40
0.9050745838
 40
0.9167791397
 40
0.9290329479
 40
0.9429205821
 40
0.9591602971
 40
1.0
 40
1.0
 40
1.0
 40
1.0
 10
511.3384685402
 20
355.2394742174
 30
0.0
 10
511.5403915931
 20
355.1872126856
 30
0.0
 10
511.9731545912
 20
355.0956694773
 30
0.0
 10
512.9192424959
 20
354.9584905212
 30
0.0
 10
513.9320234249
 20
354.8949467716
 30
0.0
 10
514.9730271042
 20
354.8981811129
 30
0.0
 10
515.7487070119
 20
354.9363467558
 30
0.0
 10
516.4860556217
 20
355.0086755878
 30
0.0
 10
517.1621938793
 20
355.112837104
 30
0.0
 10
517.7565359035
 20
355.2451615172
 30
0.0
 10
518.2509860892
 20
355.4014988617
 30
0.0
 10
518.5896094111
 20
355.5557442948
 30
0.0
 10
518.793829721
 20
355.6934227258
 30
0.0
 10
518.9295103477
 20
355.815504208
 30
0.0
 10
519.0196576533
 20
355.9599806339
 30
0.0
 10
519.022937707
 20
356.1110902665
 30
0.0
 10
518.986466023
 20
356.218277204
 30
0.0
 10
518.9143509576
 20
356.3214775079
 30
0.0
 10
518.7616131504
 20
356.4652303965
 30
0.0
 10
518.6143378507
 20
356.5502703291
 30
0.0
 10
518.5066147525
 20
356.6034918635
 30
0.0
  0
SPLINE
  5
378
100
AcDbEntity
  8
0
100
AcDbSpline
 62
7
  6
CONTINUOUS
 70
0
 71
3
 72
15
 73
11
 74
0
 42
0.0000001
 43
0.0000001
 44
0.0000000001
 40
0.0
 40
0.0
 40
0.0
 40
0.0
 40
0.1102240355
 40
0.2348322268
 40
0.3691171129
 40
0.5078286777
 40
0.6454929463
 40
0.7766896738
 40
0.8963370227
 40
1.0
 40
1.0
 40
1.0
 40
1.0
 10
510.2424530293
 20
352.8905394098
 30
0.0
 10
510.5611237248
 20
352.8080613644
 30
0.0
 10
511.249298337
 20
352.6678118838
 30
0.0
 10
512.3430136743
 20
352.5252625587
 30
0.0
 10
513.5281594046
 20
352.4421330866
 30
0.0
 10
514.7549510052
 20
352.4222374654
 30
0.0
 10
515.9718826205
 20
352.4664965944
 30
0.0
 10
517.1279493976
 20
352.5728487176
 30
0.0
 10
518.1746220474
 20
352.7364408886
 30
0.0
 10
518.8246266018
 20
352.8910447225
 30
0.0
 10
519.120898982
 20
352.9808266154
 30
0.0
  0
SPLINE
  5
379
100
AcDbEntity
  8
0
100
AcDbSpline
 62
7
  6
CONTINUOUS
 70
0
 71
3
 72
9
 73
5
 74
0
 42
0.0000001
 43
0.0000001
 44
0.0000000001
 40
0.0
 40
0.0
 40
0.0
 40
0.0
 40
0.2751820467
 40
1.0
 40
1.0
 40
1.0
 40
1.0
 10
519.120898982
 20
352.9808266154
 30
0.0
 10
519.1922351606
 20
353.0024442132
 30
0.0
 10
519.4501502473
 20
353.0850114503
 30
0.0
 10
519.7033990543
 20
353.1840987926
 30
0.0
 10
519.879429329
 20
353.2710504017
 30
0.0
  0
SPLINE
  5
37A
100
AcDbEntity
  8
0
100
AcDbSpline
 62
7
  6
CONTINUOUS
 70
0
 71
3
 72
19
 73
15
 74
0
 42
0.0000001
 43
0.0000001
 44
0.0000000001
 40
0.0
 40
0.0
 40
0.0
 40
0.0
 40
0.1354849855
 40
0.1908393009
 40
0.2388619859
 40
0.2810783517
 40
0.3198758932
 40
0.3583757406
 40
0.3997717705
 40
0.4466118611
 40
0.5005635714
 40
0.6329576529
 40
0.7998812048
 40
1.0
 40
1.0
 40
1.0
 40
1.0
 10
510.5345541966
 20
356.6036212846
 30
0.0
 10
510.4367872211
 20
356.5553295783
 30
0.0
 10
510.3022240031
 20
356.4783547546
 30
0.0
 10
510.1564186495
 20
356.3521402771
 30
0.0
 10
510.0812825798
 20
356.2612964254
 30
0.0
 10
510.0337378364
 20
356.1677352429
 30
0.0
 10
510.0155789124
 20
356.0717462447
 30
0.0
 10
510.0282296857
 20
355.9755013103
 30
0.0
 10
510.0706239653
 20
355.8814326068
 30
0.0
 10
510.1408654508
 20
355.7901190928
 30
0.0
 10
510.2800099506
 20
355.6631399244
 30
0.0
 10
510.5263267143
 20
355.5165161233
 30
0.0
 10
510.898780223
 20
355.3637936785
 30
0.0
 10
511.1825432347
 20
355.279830656
 30
0.0
 10
511.3384685402
 20
355.2394742174
 30
0.0
  0
SPLINE
  5
37B
100
AcDbEntity
  8
0
100
AcDbSpline
 62
7
  6
CONTINUOUS
 70
0
 71
3
 72
9
 73
5
 74
0
 42
0.0000001
 43
0.0000001
 44
0.0000000001
 40
0.0
 40
0.0
 40
0.0
 40
0.0
 40
0.2401593647
 40
1.0
 40
1.0
 40
1.0
 40
1.0
 10
517.8992728619
 20
355.9678827206
 30
0.0
 10
517.8970018792
 20
355.9731268275
 30
0.0
 10
517.8869003427
 20
355.9946819782
 30
0.0
 10
517.8743410853
 20
356.0150484351
 30
0.0
 10
517.8638351486
 20
356.0297637682
 30
0.0
  0
SPLINE
  5
37C
100
AcDbEntity
  8
0
100
AcDbSpline
 62
7
  6
CONTINUOUS
 70
0
 71
3
 72
11
 73
7
 74
0
 42
0.0000001
 43
0.0000001
 44
0.0000000001
 40
0.0
 40
0.0
 40
0.0
 40
0.0
 40
0.1743781967
 40
0.3984053364
 40
0.6744560483
 40
1.0
 40
1.0
 40
1.0
 40
1.0
 10
517.8551190089
 20
356.0415227196
 30
0.0
 10
517.8180084236
 20
356.0898056367
 30
0.0
 10
517.7112673399
 20
356.1826408532
 30
0.0
 10
517.5050631456
 20
356.2976847361
 30
0.0
 10
517.236461912
 20
356.4043511399
 30
0.0
 10
517.0346730462
 20
356.4636035311
 30
0.0
 10
516.9246121116
 20
356.4920893971
 30
0.0
  0
SPLINE
  5
37D
100
AcDbEntity
  8
0
100
AcDbSpline
 62
7
  6
CONTINUOUS
 70
0
 71
3
 72
14
 73
10
 74
0
 42
0.0000001
 43
0.0000001
 44
0.0000000001
 40
0.0
 40
0.0
 40
0.0
 40
0.0
 40
0.0711229883
 40
0.1508901211
 40
0.2453444616
 40
0.3577341164
 40
0.4894601085
 40
0.6408306105
 40
1.0
 40
1.0
 40
1.0
 40
1.0
 10
517.9204427052
 20
356.0631183364
 30
0.0
 10
517.9204373361
 20
356.0923806541
 30
0.0
 10
517.9077382623
 20
356.154867632
 30
0.0
 10
517.8547208976
 20
356.2423597801
 30
0.0
 10
517.7706003306
 20
356.3261178659
 30
0.0
 10
517.6563767511
 20
356.4066403179
 30
0.0
 10
517.5127754735
 20
356.4837812741
 30
0.0
 10
517.2693865618
 20
356.5873166575
 30
0.0
 10
517.0676721789
 20
356.6482478924
 30
0.0
 10
516.9246121116
 20
356.6852745624
 30
0.0
  0
SPLINE
  5
37E
100
AcDbEntity
  8
0
100
AcDbSpline
 62
7
  6
CONTINUOUS
 70
0
 71
3
 72
9
 73
5
 74
0
 42
0.0000001
 43
0.0000001
 44
0.0000000001
 40
0.0
 40
0.0
 40
0.0
 40
0.0
 40
0.2246039304
 40
1.0
 40
1.0
 40
1.0
 40
1.0
 10
509.1614674417
 20
353.2710501273
 30
0.0
 10
509.216020178
 20
353.2441016758
 30
0.0
 10
509.4622963388
 20
353.1309829908
 30
0.0
 10
509.718988401
 20
353.0417464282
 30
0.0
 10
509.9200174341
 20
352.9808258918
 30
0.0
  0
SPLINE
  5
37F
100
AcDbEntity
  8
0
100
AcDbSpline
 62
7
  6
CONTINUOUS
 70
0
 71
3
 72
12
 73
8
 74
0
 42
0.0000001
 43
0.0000001
 44
0.0000000001
 40
0.0
 40
0.0
 40
0.0
 40
0.0
 40
0.1061517875
 40
0.2247788758
 40
0.4861042126
 40
0.7546822116
 40
1.0
 40
1.0
 40
1.0
 40
1.0
 10
673.4426981272
 20
310.4978861075
 30
0.0
 10
673.6758172045
 20
310.4375504503
 30
0.0
 10
674.1751918573
 20
310.3316851769
 30
0.0
 10
675.2668100952
 20
310.172384881
 30
0.0
 10
676.7376315837
 20
310.0780584761
 30
0.0
 10
678.4974116722
 20
310.1182892683
 30
0.0
 10
679.6584092504
 20
310.2517207963
 30
0.0
 10
680.2056366629
 20
310.3528437562
 30
0.0
  0
SPLINE
  5
380
100
AcDbEntity
  8
0
100
AcDbSpline
 62
7
  6
CONTINUOUS
 70
0
 71
3
 72
10
 73
6
 74
0
 42
0.0000001
 43
0.0000001
 44
0.0000000001
 40
0.0
 40
0.0
 40
0.0
 40
0.0
 40
0.5573827865
 40
0.7941362151
 40
1.0
 40
1.0
 40
1.0
 40
1.0
 10
680.2056366629
 20
310.3528437562
 30
0.0
 10
680.5112694599
 20
310.4093220911
 30
0.0
 10
680.9445334165
 20
310.5064207451
 30
0.0
 10
681.4744774824
 20
310.6810143229
 30
0.0
 10
681.7022968809
 20
310.7771762959
 30
0.0
 10
681.8052193851
 20
310.8280145597
 30
0.0
  0
SPLINE
  5
381
100
AcDbEntity
  8
0
100
AcDbSpline
 62
7
  6
CONTINUOUS
 70
0
 71
3
 72
15
 73
11
 74
0
 42
0.0000001
 43
0.0000001
 44
0.0000000001
 40
0.0
 40
0.0
 40
0.0
 40
0.0
 40
0.1159071862
 40
0.2481051127
 40
0.3900992959
 40
0.5347010839
 40
0.6745530277
 40
0.8026149855
 40
0.9126808716
 40
1.0
 40
1.0
 40
1.0
 40
1.0
 10
680.3369892438
 20
314.7936670993
 30
0.0
 10
680.0651667615
 20
314.8640199346
 30
0.0
 10
679.474341465
 20
314.980050517
 30
0.0
 10
678.5350681893
 20
315.0895073495
 30
0.0
 10
677.5212038636
 20
315.1412983457
 30
0.0
 10
676.4875780551
 20
315.1323605072
 30
0.0
 10
675.4900674602
 20
315.0632013173
 30
0.0
 10
674.5819673134
 20
314.9380790045
 30
0.0
 10
673.8122467673
 20
314.764541717
 30
0.0
 10
673.3587655478
 20
314.6043777308
 30
0.0
 10
673.1691138695
 20
314.5106998494
 30
0.0
  0
SPLINE
  5
382
100
AcDbEntity
  8
0
100
AcDbSpline
 62
7
  6
CONTINUOUS
 70
0
 71
3
 72
17
 73
13
 74
0
 42
0.0000001
 43
0.0000001
 44
0.0000000001
 40
0.0
 40
0.0
 40
0.0
 40
0.0
 40
0.1268119031
 40
0.2728209156
 40
0.4282294839
 40
0.5823509527
 40
0.724618747
 40
0.8455811588
 40
0.8957431469
 40
0.9381878574
 40
0.9727602416
 40
1.0
 40
1.0
 40
1.0
 40
1.0
 10
674.7508456724
 20
313.3478667543
 30
0.0
 10
674.9929625453
 20
313.2852022965
 30
0.0
 10
675.5231445555
 20
313.1864069798
 30
0.0
 10
676.3642766376
 20
313.1034842321
 30
0.0
 10
677.26313089
 20
313.0801105593
 30
0.0
 10
678.1541401149
 20
313.1180098584
 30
0.0
 10
678.9722643882
 20
313.2143705034
 30
0.0
 10
679.578608418
 20
313.342551226
 30
0.0
 10
679.9788223991
 20
313.4751854879
 30
0.0
 10
680.208642389
 20
313.5772345135
 30
0.0
 10
680.3839090549
 20
313.6859558688
 30
0.0
 10
680.472728574
 20
313.7725018959
 30
0.0
 10
680.5030440854
 20
313.8168523911
 30
0.0
  0
SPLINE
  5
383
100
AcDbEntity
  8
0
100
AcDbSpline
 62
7
  6
CONTINUOUS
 70
0
 71
3
 72
8
 73
4
 74
0
 42
0.0000001
 43
0.0000001
 44
0.0000000001
 40
0.0
 40
0.0
 40
0.0
 40
0.0
 40
1.0
 40
1.0
 40
1.0
 40
1.0
 10
680.5030440854
 20
313.8168523911
 30
0.0
 10
680.5100281728
 20
313.827069858
 30
0.0
 10
680.5165323788
 20
313.8376396901
 30
0.0
 10
680.5224041934
 20
313.8485344548
 30
0.0
  0
SPLINE
  5
384
100
AcDbEntity
  8
0
100
AcDbSpline
 62
7
  6
CONTINUOUS
 70
0
 71
3
 72
9
 73
5
 74
0
 42
0.0000001
 43
0.0000001
 44
0.0000000001
 40
0.0
 40
0.0
 40
0.0
 40
0.0
 40
0.2642634338
 40
1.0
 40
1.0
 40
1.0
 40
1.0
 10
680.5224041934
 20
313.8485344548
 30
0.0
 10
680.5276981245
 20
313.8583569949
 30
0.0
 10
680.5458412838
 20
313.8964792536
 30
0.0
 10
680.5550080781
 20
313.9391310048
 30
0.0
 10
680.5550023781
 20
313.9701969012
 30
0.0
  0
SPLINE
  5
385
100
AcDbEntity
  8
0
100
AcDbSpline
 62
7
  6
CONTINUOUS
 70
0
 71
3
 72
11
 73
7
 74
0
 42
0.0000001
 43
0.0000001
 44
0.0000000001
 40
0.0
 40
0.0
 40
0.0
 40
0.0
 40
0.1846798153
 40
0.4017317655
 40
0.670750339
 40
1.0
 40
1.0
 40
1.0
 40
1.0
 10
671.1050087284
 20
311.904844821
 30
0.0
 10
671.1050089763
 20
311.8403327588
 30
0.0
 10
671.1413199824
 20
311.6990993472
 30
0.0
 10
671.285722675
 20
311.5098548773
 30
0.0
 10
671.5098354363
 20
311.33137392
 30
0.0
 10
671.6929096435
 20
311.2290675881
 30
0.0
 10
671.7960271146
 20
311.1781286921
 30
0.0
  0
SPLINE
  5
386
100
AcDbEntity
  8
0
100
AcDbSpline
 62
7
  6
CONTINUOUS
 70
0
 71
3
 72
11
 73
7
 74
0
 42
0.0000001
 43
0.0000001
 44
0.0000000001
 40
0.0
 40
0.0
 40
0.0
 40
0.0
 40
0.1846798228
 40
0.4017317755
 40
0.6707503472
 40
1.0
 40
1.0
 40
1.0
 40
1.0
 10
683.2050087284
 20
313.1057097602
 30
0.0
 10
683.2050084791
 20
313.1702218153
 30
0.0
 10
683.1686974853
 20
313.3114552094
 30
0.0
 10
683.0242948225
 20
313.5006996612
 30
0.0
 10
682.8001821064
 20
313.6791806008
 30
0.0
 10
682.6171079362
 20
313.7814869268
 30
0.0
 10
682.5139904856
 20
313.8324258185
 30
0.0
  0
SPLINE
  5
387
100
AcDbEntity
  8
0
100
AcDbSpline
 62
7
  6
CONTINUOUS
 70
0
 71
3
 72
11
 73
7
 74
0
 42
0.0000001
 43
0.0000001
 44
0.0000000001
 40
0.0
 40
0.0
 40
0.0
 40
0.0
 40
0.3292568841
 40
0.5982677969
 40
0.8153210137
 40
1.0
 40
1.0
 40
1.0
 40
1.0
 10
671.7960284537
 20
313.8324256142
 30
0.0
 10
671.6929073427
 20
313.7814880889
 30
0.0
 10
671.5098317109
 20
313.6791826101
 30
0.0
 10
671.285723474
 20
313.5006959884
 30
0.0
 10
671.1413188838
 20
313.3114559659
 30
0.0
 10
671.1050084791
 20
313.1702216076
 30
0.0
 10
671.1050087284
 20
313.1057097602
 30
0.0
  0
SPLINE
  5
388
100
AcDbEntity
  8
0
100
AcDbSpline
 62
7
  6
CONTINUOUS
 70
0
 71
3
 72
9
 73
5
 74
0
 42
0.0000001
 43
0.0000001
 44
0.0000000001
 40
0.0
 40
0.0
 40
0.0
 40
0.0
 40
0.4573052174
 40
1.0
 40
1.0
 40
1.0
 40
1.0
 10
681.1411744254
 20
314.5105704283
 30
0.0
 10
681.0245137884
 20
314.5682076316
 30
0.0
 10
680.7596869833
 20
314.6744867002
 30
0.0
 10
680.4864822266
 20
314.7549754682
 30
0.0
 10
680.3369892438
 20
314.7936670993
 30
0.0
  0
SPLINE
  5
389
100
AcDbEntity
  8
0
100
AcDbSpline
 62
7
  6
CONTINUOUS
 70
0
 71
3
 72
9
 73
5
 74
0
 42
0.0000001
 43
0.0000001
 44
0.0000000001
 40
0.0
 40
0.0
 40
0.0
 40
0.0
 40
0.2412633774
 40
1.0
 40
1.0
 40
1.0
 40
1.0
 10
673.7550150788
 20
313.9700229803
 30
0.0
 10
673.7550169461
 20
313.9598456316
 30
0.0
 10
673.7578251635
 20
313.9176534349
 30
0.0
 10
673.772437058
 20
313.8767095183
 30
0.0
 10
673.7876219595
 20
313.8485347688
 30
0.0
  0
SPLINE
  5
38A
100
AcDbEntity
  8
0
100
AcDbSpline
 62
7
  6
CONTINUOUS
 70
0
 71
3
 72
8
 73
4
 74
0
 42
0.0000001
 43
0.0000001
 44
0.0000000001
 40
0.0
 40
0.0
 40
0.0
 40
0.0
 40
1.0
 40
1.0
 40
1.0
 40
1.0
 10
673.7876219595
 20
313.8485347688
 30
0.0
 10
673.7935080373
 20
313.8376134752
 30
0.0
 10
673.8000270681
 20
313.8270173075
 30
0.0
 10
673.8070280997
 20
313.8167749385
 30
0.0
  0
SPLINE
  5
38B
100
AcDbEntity
  8
0
100
AcDbSpline
 62
7
  6
CONTINUOUS
 70
0
 71
3
 72
11
 73
7
 74
0
 42
0.0000001
 43
0.0000001
 44
0.0000000001
 40
0.0
 40
0.0
 40
0.0
 40
0.0
 40
0.1710412873
 40
0.3935424771
 40
0.6706646896
 40
1.0
 40
1.0
 40
1.0
 40
1.0
 10
673.8070280997
 20
313.8167749385
 30
0.0
 10
673.8414566021
 20
313.7664067285
 30
0.0
 10
673.9464887682
 20
313.66897735
 30
0.0
 10
674.1544284323
 20
313.5493945883
 30
0.0
 10
674.4293875537
 20
313.4385056707
 30
0.0
 10
674.6371190504
 20
313.37730137
 30
0.0
 10
674.7508456724
 20
313.3478667543
 30
0.0
  0
SPLINE
  5
38C
100
AcDbEntity
  8
0
100
AcDbSpline
 62
7
  6
CONTINUOUS
 70
0
 71
3
 72
11
 73
7
 74
0
 42
0.0000001
 43
0.0000001
 44
0.0000000001
 40
0.0
 40
0.0
 40
0.0
 40
0.0
 40
0.3292568841
 40
0.5982677971
 40
0.815321014
 40
1.0
 40
1.0
 40
1.0
 40
1.0
 10
682.5139890019
 20
311.1781289665
 30
0.0
 10
682.6171101132
 20
311.2290664917
 30
0.0
 10
682.8001857453
 20
311.331371971
 30
0.0
 10
683.0242939822
 20
311.5098585927
 30
0.0
 10
683.1686985744
 20
311.699098615
 30
0.0
 10
683.2050089763
 20
311.8403329737
 30
0.0
 10
683.2050087284
 20
311.904844821
 30
0.0
  0
SPLINE
  5
38D
100
AcDbEntity
  8
0
100
AcDbSpline
 62
7
  6
CONTINUOUS
 70
0
 71
3
 72
9
 73
5
 74
0
 42
0.0000001
 43
0.0000001
 44
0.0000000001
 40
0.0
 40
0.0
 40
0.0
 40
0.0
 40
0.4573052367
 40
1.0
 40
1.0
 40
1.0
 40
1.0
 10
672.5044823277
 20
310.8281654355
 30
0.0
 10
672.6405863792
 20
310.7609220606
 30
0.0
 10
672.9495509048
 20
310.6369298622
 30
0.0
 10
673.2682897013
 20
310.5430263296
 30
0.0
 10
673.4426981272
 20
310.4978861075
 30
0.0
  0
SPLINE
  5
38E
100
AcDbEntity
  8
0
100
AcDbSpline
 62
7
  6
CONTINUOUS
 70
0
 71
3
 72
21
 73
17
 74
0
 42
0.0000001
 43
0.0000001
 44
0.0000000001
 40
0.0
 40
0.0
 40
0.0
 40
0.0
 40
0.1341981881
 40
0.2893484809
 40
0.4532451371
 40
0.6127429911
 40
0.6868436297
 40
0.7552092312
 40
0.8165705677
 40
0.8698925078
 40
0.9144716752
 40
0.9501247801
 40
0.9648266363
 40
0.9777282492
 40
0.9892469478
 40
1.0
 40
1.0
 40
1.0
 40
1.0
 10
672.8770127022
 20
311.9984829138
 30
0.0
 10
673.3456019159
 20
311.8772031012
 30
0.0
 10
674.3753274044
 20
311.6911282227
 30
0.0
 10
676.0050967078
 20
311.5463543909
 30
0.0
 10
677.7326132716
 20
311.5253949017
 30
0.0
 10
679.1652456424
 20
311.6141961915
 30
0.0
 10
680.2458329421
 20
311.7531278397
 30
0.0
 10
680.9697857196
 20
311.8832208878
 30
0.0
 10
681.6119047192
 20
312.0386528308
 30
0.0
 10
682.1591895634
 20
312.2159324254
 30
0.0
 10
682.6004822583
 20
312.4110588305
 30
0.0
 10
682.8918000971
 20
312.5962152133
 30
0.0
 10
683.0568538068
 20
312.7548915101
 30
0.0
 10
683.1411812857
 20
312.8691264824
 30
0.0
 10
683.1930735447
 20
312.9862104549
 30
0.0
 10
683.2050088783
 20
313.0669253657
 30
0.0
 10
683.2050087284
 20
313.1057097602
 30
0.0
  0
SPLINE
  5
38F
100
AcDbEntity
  8
0
100
AcDbSpline
 62
7
  6
CONTINUOUS
 70
0
 71
3
 72
17
 73
13
 74
0
 42
0.0000001
 43
0.0000001
 44
0.0000000001
 40
0.0
 40
0.0
 40
0.0
 40
0.0
 40
0.1259489069
 40
0.2708803514
 40
0.4252672631
 40
0.5786972535
 40
0.7208519913
 40
0.8424427757
 40
0.893212695
 40
0.9364337233
 40
0.9718955201
 40
1.0
 40
1.0
 40
1.0
 40
1.0
 10
679.5591717845
 20
314.3991679619
 30
0.0
 10
679.3196197885
 20
314.4611685808
 30
0.0
 10
678.795301989
 20
314.5592347867
 30
0.0
 10
677.9632795554
 20
314.6422566554
 30
0.0
 10
677.0733907805
 20
314.6669261858
 30
0.0
 10
676.1893064813
 20
314.6313893404
 30
0.0
 10
675.3743265716
 20
314.5382850664
 30
0.0
 10
674.7675520669
 20
314.4134424026
 30
0.0
 10
674.3638564659
 20
314.2840233016
 30
0.0
 10
674.129398874
 20
314.1839745044
 30
0.0
 10
673.9481834124
 20
314.0771393581
 30
0.0
 10
673.8539849753
 20
313.9923811709
 30
0.0
 10
673.8203387751
 20
313.9486012844
 30
0.0
  0
SPLINE
  5
390
100
AcDbEntity
  8
0
100
AcDbSpline
 62
7
  6
CONTINUOUS
 70
0
 71
3
 72
9
 73
5
 74
0
 42
0.0000001
 43
0.0000001
 44
0.0000000001
 40
0.0
 40
0.0
 40
0.0
 40
0.0
 40
0.2607787512
 40
1.0
 40
1.0
 40
1.0
 40
1.0
 10
673.811530448
 20
313.936711996
 30
0.0
 10
673.8079372517
 20
313.931674418
 30
0.0
 10
673.7946088358
 20
313.9120446232
 30
0.0
 10
673.7831752292
 20
313.8910910276
 30
0.0
 10
673.7762028094
 20
313.8749961639
 30
0.0
  0
SPLINE
  5
391
100
AcDbEntity
  8
0
100
AcDbSpline
 62
7
  6
CONTINUOUS
 70
0
 71
3
 72
19
 73
15
 74
0
 42
0.0000001
 43
0.0000001
 44
0.0000000001
 40
0.0
 40
0.0
 40
0.0
 40
0.0
 40
0.1342456032
 40
0.2894428294
 40
0.4533922496
 40
0.6129393478
 40
0.687062348
 40
0.7554477539
 40
0.8168249366
 40
0.8701591594
 40
0.9147478249
 40
0.9504079766
 40
0.977915923
 40
1.0
 40
1.0
 40
1.0
 40
1.0
 10
679.5591717845
 20
314.5923531272
 30
0.0
 10
679.2958128836
 20
314.6605154264
 30
0.0
 10
678.7170962474
 20
314.7650880712
 30
0.0
 10
677.8011511644
 20
314.8464469746
 30
0.0
 10
676.8302832486
 20
314.8582193702
 30
0.0
 10
676.0251435599
 20
314.808301011
 30
0.0
 10
675.4178534546
 20
314.7302152154
 30
0.0
 10
675.0110149893
 20
314.6570964878
 30
0.0
 10
674.6501255284
 20
314.5697384625
 30
0.0
 10
674.3426947362
 20
314.4700883807
 30
0.0
 10
674.094386078
 20
314.3604522121
 30
0.0
 10
673.9095140983
 20
314.2422757308
 30
0.0
 10
673.7878207143
 20
314.1155285936
 30
0.0
 10
673.7550068677
 20
314.0147743983
 30
0.0
 10
673.7550150788
 20
313.9700229803
 30
0.0
  0
SPLINE
  5
392
100
AcDbEntity
  8
0
100
AcDbSpline
 62
7
  6
CONTINUOUS
 70
0
 71
3
 72
14
 73
10
 74
0
 42
0.0000001
 43
0.0000001
 44
0.0000000001
 40
0.0
 40
0.0
 40
0.0
 40
0.0
 40
0.0711240762
 40
0.1508853543
 40
0.2453253884
 40
0.3577210162
 40
0.4894539331
 40
0.6408121558
 40
1.0
 40
1.0
 40
1.0
 40
1.0
 10
671.1050087284
 20
313.1057097602
 30
0.0
 10
671.1050089297
 20
313.0536355147
 30
0.0
 10
671.1275645783
 20
312.9424330285
 30
0.0
 10
671.2218755195
 20
312.7867301236
 30
0.0
 10
671.3715211193
 20
312.6376425766
 30
0.0
 10
671.5747994876
 20
312.4943652118
 30
0.0
 10
671.830327253
 20
312.3570627322
 30
0.0
 10
672.2634583978
 20
312.1728139473
 30
0.0
 10
672.6224185915
 20
312.0643767185
 30
0.0
 10
672.8770127022
 20
311.9984829138
 30
0.0
  0
SPLINE
  5
393
100
AcDbEntity
  8
0
100
AcDbSpline
 62
7
  6
CONTINUOUS
 70
0
 71
3
 72
25
 73
21
 74
0
 42
0.0000001
 43
0.0000001
 44
0.0000000001
 40
0.0
 40
0.0
 40
0.0
 40
0.0
 40
0.0708945204
 40
0.1501772894
 40
0.3248002425
 40
0.4151320909
 40
0.5039483463
 40
0.5886623071
 40
0.6668473308
 40
0.7363468038
 40
0.7954070397
 40
0.8428824979
 40
0.8622184402
 40
0.8787750393
 40
0.9050745838
 40
0.9167791397
 40
0.9290329479
 40
0.9429205821
 40
0.9591602971
 40
1.0
 40
1.0
 40
1.0
 40
1.0
 10
673.9730282131
 20
313.1465527822
 30
0.0
 10
674.1749512661
 20
313.0942912504
 30
0.0
 10
674.6077142641
 20
313.0027480421
 30
0.0
 10
675.5538021688
 20
312.865569086
 30
0.0
 10
676.5665830978
 20
312.8020253364
 30
0.0
 10
677.6075867771
 20
312.8052596777
 30
0.0
 10
678.3832666848
 20
312.8434253206
 30
0.0
 10
679.1206152946
 20
312.9157541526
 30
0.0
 10
679.7967535522
 20
313.0199156688
 30
0.0
 10
680.3910955764
 20
313.152240082
 30
0.0
 10
680.8855457621
 20
313.3085774265
 30
0.0
 10
681.224169084
 20
313.4628228596
 30
0.0
 10
681.4283893939
 20
313.6005012906
 30
0.0
 10
681.5640700206
 20
313.7225827727
 30
0.0
 10
681.6542173262
 20
313.8670591987
 30
0.0
 10
681.6574973799
 20
314.0181688312
 30
0.0
 10
681.6210256959
 20
314.1253557688
 30
0.0
 10
681.5489106305
 20
314.2285560727
 30
0.0
 10
681.3961728233
 20
314.3723089613
 30
0.0
 10
681.2488975236
 20
314.4573488939
 30
0.0
 10
681.1411744254
 20
314.5105704283
 30
0.0
  0
SPLINE
  5
394
100
AcDbEntity
  8
0
100
AcDbSpline
 62
7
  6
CONTINUOUS
 70
0
 71
3
 72
15
 73
11
 74
0
 42
0.0000001
 43
0.0000001
 44
0.0000000001
 40
0.0
 40
0.0
 40
0.0
 40
0.0
 40
0.1102240355
 40
0.2348322268
 40
0.3691171129
 40
0.5078286777
 40
0.6454929463
 40
0.7766896738
 40
0.8963370227
 40
1.0
 40
1.0
 40
1.0
 40
1.0
 10
672.8770127022
 20
310.7976179746
 30
0.0
 10
673.1956833977
 20
310.7151399292
 30
0.0
 10
673.8838580099
 20
310.5748904486
 30
0.0
 10
674.9775733472
 20
310.4323411235
 30
0.0
 10
676.1627190775
 20
310.3492116514
 30
0.0
 10
677.3895106781
 20
310.3293160302
 30
0.0
 10
678.6064422934
 20
310.3735751592
 30
0.0
 10
679.7625090705
 20
310.4799272824
 30
0.0
 10
680.8091817203
 20
310.6435194534
 30
0.0
 10
681.4591862747
 20
310.7981232873
 30
0.0
 10
681.7554586549
 20
310.8879051802
 30
0.0
  0
SPLINE
  5
395
100
AcDbEntity
  8
0
100
AcDbSpline
 62
7
  6
CONTINUOUS
 70
0
 71
3
 72
9
 73
5
 74
0
 42
0.0000001
 43
0.0000001
 44
0.0000000001
 40
0.0
 40
0.0
 40
0.0
 40
0.0
 40
0.2751820467
 40
1.0
 40
1.0
 40
1.0
 40
1.0
 10
681.7554586549
 20
310.8879051802
 30
0.0
 10
681.8267948335
 20
310.9095227779
 30
0.0
 10
682.0847099202
 20
310.9920900151
 30
0.0
 10
682.3379587272
 20
311.0911773574
 30
0.0
 10
682.5139890019
 20
311.1781289665
 30
0.0
  0
SPLINE
  5
396
100
AcDbEntity
  8
0
100
AcDbSpline
 62
7
  6
CONTINUOUS
 70
0
 71
3
 72
19
 73
15
 74
0
 42
0.0000001
 43
0.0000001
 44
0.0000000001
 40
0.0
 40
0.0
 40
0.0
 40
0.0
 40
0.1354849855
 40
0.1908393009
 40
0.2388619859
 40
0.2810783517
 40
0.3198758932
 40
0.3583757406
 40
0.3997717705
 40
0.4466118611
 40
0.5005635714
 40
0.6329576529
 40
0.7998812048
 40
1.0
 40
1.0
 40
1.0
 40
1.0
 10
673.1691138695
 20
314.5106998494
 30
0.0
 10
673.071346894
 20
314.4624081431
 30
0.0
 10
672.936783676
 20
314.3854333193
 30
0.0
 10
672.7909783224
 20
314.2592188419
 30
0.0
 10
672.7158422527
 20
314.1683749902
 30
0.0
 10
672.6682975093
 20
314.0748138077
 30
0.0
 10
672.6501385853
 20
313.9788248095
 30
0.0
 10
672.6627893586
 20
313.8825798751
 30
0.0
 10
672.7051836382
 20
313.7885111716
 30
0.0
 10
672.7754251237
 20
313.6971976576
 30
0.0
 10
672.9145696235
 20
313.5702184892
 30
0.0
 10
673.1608863872
 20
313.4235946881
 30
0.0
 10
673.5333398959
 20
313.2708722433
 30
0.0
 10
673.8171029076
 20
313.1869092208
 30
0.0
 10
673.9730282131
 20
313.1465527822
 30
0.0
  0
SPLINE
  5
397
100
AcDbEntity
  8
0
100
AcDbSpline
 62
7
  6
CONTINUOUS
 70
0
 71
3
 72
9
 73
5
 74
0
 42
0.0000001
 43
0.0000001
 44
0.0000000001
 40
0.0
 40
0.0
 40
0.0
 40
0.0
 40
0.2401593647
 40
1.0
 40
1.0
 40
1.0
 40
1.0
 10
680.5338325348
 20
313.8749612854
 30
0.0
 10
680.5315615521
 20
313.8802053923
 30
0.0
 10
680.5214600156
 20
313.901760543
 30
0.0
 10
680.5089007582
 20
313.9221269999
 30
0.0
 10
680.4983948215
 20
313.936842333
 30
0.0
  0
SPLINE
  5
398
100
AcDbEntity
  8
0
100
AcDbSpline
 62
7
  6
CONTINUOUS
 70
0
 71
3
 72
11
 73
7
 74
0
 42
0.0000001
 43
0.0000001
 44
0.0000000001
 40
0.0
 40
0.0
 40
0.0
 40
0.0
 40
0.1743781967
 40
0.3984053364
 40
0.6744560483
 40
1.0
 40
1.0
 40
1.0
 40
1.0
 10
680.4896786818
 20
313.9486012844
 30
0.0
 10
680.4525680965
 20
313.9968842015
 30
0.0
 10
680.3458270128
 20
314.089719418
 30
0.0
 10
680.1396228185
 20
314.2047633009
 30
0.0
 10
679.8710215849
 20
314.3114297047
 30
0.0
 10
679.6692327191
 20
314.3706820959
 30
0.0
 10
679.5591717845
 20
314.3991679619
 30
0.0
  0
SPLINE
  5
399
100
AcDbEntity
  8
0
100
AcDbSpline
 62
7
  6
CONTINUOUS
 70
0
 71
3
 72
14
 73
10
 74
0
 42
0.0000001
 43
0.0000001
 44
0.0000000001
 40
0.0
 40
0.0
 40
0.0
 40
0.0
 40
0.0711229883
 40
0.1508901211
 40
0.2453444616
 40
0.3577341164
 40
0.4894601085
 40
0.6408306105
 40
1.0
 40
1.0
 40
1.0
 40
1.0
 10
680.5550023781
 20
313.9701969012
 30
0.0
 10
680.554997009
 20
313.9994592189
 30
0.0
 10
680.5422979352
 20
314.0619461968
 30
0.0
 10
680.4892805705
 20
314.1494383449
 30
0.0
 10
680.4051600035
 20
314.2331964307
 30
0.0
 10
680.290936424
 20
314.3137188827
 30
0.0
 10
680.1473351464
 20
314.3908598389
 30
0.0
 10
679.9039462347
 20
314.4943952223
 30
0.0
 10
679.7022318518
 20
314.5553264571
 30
0.0
 10
679.5591717845
 20
314.5923531272
 30
0.0
  0
SPLINE
  5
39A
100
AcDbEntity
  8
0
100
AcDbSpline
 62
7
  6
CONTINUOUS
 70
0
 71
3
 72
9
 73
5
 74
0
 42
0.0000001
 43
0.0000001
 44
0.0000000001
 40
0.0
 40
0.0
 40
0.0
 40
0.0
 40
0.2246039304
 40
1.0
 40
1.0
 40
1.0
 40
1.0
 10
671.7960271146
 20
311.1781286921
 30
0.0
 10
671.8505798509
 20
311.1511802406
 30
0.0
 10
672.0968560117
 20
311.0380615556
 30
0.0
 10
672.3535480739
 20
310.948824993
 30
0.0
 10
672.554577107
 20
310.8879044566
 30
0.0
  0
SPLINE
  5
39B
100
AcDbEntity
  8
0
100
AcDbSpline
 62
7
  6
CONTINUOUS
 70
0
 71
3
 72
9
 73
5
 74
0
 42
0.0000001
 43
0.0000001
 44
0.0000000001
 40
0.0
 40
0.0
 40
0.0
 40
0.0
 40
0.2522260174
 40
1.0
 40
1.0
 40
1.0
 40
1.0
 10
451.4608238916
 20
296.310164642
 30
0.0
 10
451.435339483
 20
296.3805066386
 30
0.0
 10
451.3463878525
 20
296.6635761081
 30
0.0
 10
451.3051028174
 20
296.9619948361
 30
0.0
 10
451.3051028174
 20
297.1838020363
 30
0.0
  0
SPLINE
  5
39C
100
AcDbEntity
  8
0
100
AcDbSpline
 62
7
  6
CONTINUOUS
 70
0
 71
3
 72
8
 73
4
 74
0
 42
0.0000001
 43
0.0000001
 44
0.0000000001
 40
0.0
 40
0.0
 40
0.0
 40
0.0
 40
1.0
 40
1.0
 40
1.0
 40
1.0
 10
452.2311996899
 20
295.3311352607
 30
0.0
 10
452.2670681748
 20
295.3097801705
 30
0.0
 10
452.3021109176
 20
295.2870535542
 30
0.0
 10
452.3370433983
 20
295.2641994545
 30
0.0
  0
SPLINE
  5
39D
100
AcDbEntity
  8
0
100
AcDbSpline
 62
7
  6
CONTINUOUS
 70
0
 71
3
 72
9
 73
5
 74
0
 42
0.0000001
 43
0.0000001
 44
0.0000000001
 40
0.0
 40
0.0
 40
0.0
 40
0.0
 40
0.5719377713
 40
1.0
 40
1.0
 40
1.0
 40
1.0
 10
452.3370433983
 20
295.2641994545
 30
0.0
 10
452.4118219027
 20
295.2152766365
 30
0.0
 10
452.541464745
 20
295.128773305
 30
0.0
 10
452.6840476624
 20
295.0598429909
 30
0.0
 10
452.7488032081
 20
295.0431160881
 30
0.0
  0
SPLINE
  5
39E
100
AcDbEntity
  8
0
100
AcDbSpline
 62
7
  6
CONTINUOUS
 70
0
 71
3
 72
9
 73
5
 74
0
 42
0.0000001
 43
0.0000001
 44
0.0000000001
 40
0.0
 40
0.0
 40
0.0
 40
0.0
 40
0.5003234232
 40
1.0
 40
1.0
 40
1.0
 40
1.0
 10
452.2311996899
 20
295.3311352607
 30
0.0
 10
452.0490793365
 20
295.4395646123
 30
0.0
 10
451.7128601472
 20
295.7136605133
 30
0.0
 10
451.5136988301
 20
296.1051941541
 30
0.0
 10
451.4608238916
 20
296.310164642
 30
0.0
  0
SPLINE
  5
39F
100
AcDbEntity
  8
0
100
AcDbSpline
 62
7
  6
CONTINUOUS
 70
0
 71
3
 72
9
 73
5
 74
0
 42
0.0000001
 43
0.0000001
 44
0.0000000001
 40
0.0
 40
0.0
 40
0.0
 40
0.0
 40
0.2560762558
 40
1.0
 40
1.0
 40
1.0
 40
1.0
 10
451.022260105
 20
296.9438418673
 30
0.0
 10
451.022260105
 20
296.906420794
 30
0.0
 10
451.0257113147
 20
296.7603229579
 30
0.0
 10
451.0431969352
 20
296.6144448469
 30
0.0
 10
451.0650359805
 20
296.5079495945
 30
0.0
  0
SPLINE
  5
3A0
100
AcDbEntity
  8
0
100
AcDbSpline
 62
7
  6
CONTINUOUS
 70
0
 71
3
 72
9
 73
5
 74
0
 42
0.0000001
 43
0.0000001
 44
0.0000000001
 40
0.0
 40
0.0
 40
0.0
 40
0.0
 40
0.2376578045
 40
1.0
 40
1.0
 40
1.0
 40
1.0
 10
451.100267443
 20
296.3386423117
 30
0.0
 10
451.1558741172
 20
296.2358525877
 30
0.0
 10
451.4204439198
 20
295.8211478414
 30
0.0
 10
451.8086462785
 20
295.4806413352
 30
0.0
 10
452.1436233395
 20
295.3123466937
 30
0.0
  0
SPLINE
  5
3A1
100
AcDbEntity
  8
0
100
AcDbSpline
 62
7
  6
CONTINUOUS
 70
0
 71
3
 72
8
 73
4
 74
0
 42
0.0000001
 43
0.0000001
 44
0.0000000001
 40
0.0
 40
0.0
 40
0.0
 40
0.0
 40
1.0
 40
1.0
 40
1.0
 40
1.0
 10
452.3370175277
 20
295.2643024121
 30
0.0
 10
452.3176817045
 20
295.2695606423
 30
0.0
 10
452.2982123757
 20
295.274375732
 30
0.0
 10
452.278599075
 20
295.2784795693
 30
0.0
  0
SPLINE
  5
3A2
100
AcDbEntity
  8
0
100
AcDbSpline
 62
7
  6
CONTINUOUS
 70
0
 71
3
 72
9
 73
5
 74
0
 42
0.0000001
 43
0.0000001
 44
0.0000000001
 40
0.0
 40
0.0
 40
0.0
 40
0.0
 40
0.3899710985
 40
1.0
 40
1.0
 40
1.0
 40
1.0
 10
511.4929599183
 20
841.301988944
 30
0.0
 10
511.4929599183
 20
841.2823640622
 30
0.0
 10
511.5240193517
 20
841.2352013923
 30
0.0
 10
511.5692251057
 20
841.2128494906
 30
0.0
 10
511.5971390233
 20
841.200072741
 30
0.0
  0
SPLINE
  5
3A3
100
AcDbEntity
  8
0
100
AcDbSpline
 62
7
  6
CONTINUOUS
 70
0
 71
3
 72
9
 73
5
 74
0
 42
0.0000001
 43
0.0000001
 44
0.0000000001
 40
0.0
 40
0.0
 40
0.0
 40
0.0
 40
0.46455881
 40
1.0
 40
1.0
 40
1.0
 40
1.0
 10
511.5971390233
 20
841.200072741
 30
0.0
 10
511.6165357043
 20
841.1911944982
 30
0.0
 10
511.6594670184
 20
841.1746509932
 30
0.0
 10
511.7035747396
 20
841.1617393307
 30
0.0
 10
511.7273772698
 20
841.1555787825
 30
0.0
  0
SPLINE
  5
3A4
100
AcDbEntity
  8
0
100
AcDbSpline
 62
7
  6
CONTINUOUS
 70
0
 71
3
 72
9
 73
5
 74
0
 42
0.0000001
 43
0.0000001
 44
0.0000000001
 40
0.0
 40
0.0
 40
0.0
 40
0.0
 40
0.3899710985
 40
1.0
 40
1.0
 40
1.0
 40
1.0
 10
936.3672846895
 20
850.0133935541
 30
0.0
 10
936.3672846895
 20
849.9937686723
 30
0.0
 10
936.3362252561
 20
849.9466060023
 30
0.0
 10
936.2910195021
 20
849.9242541007
 30
0.0
 10
936.2631055846
 20
849.9114773511
 30
0.0
  0
SPLINE
  5
3A5
100
AcDbEntity
  8
0
100
AcDbSpline
 62
7
  6
CONTINUOUS
 70
0
 71
3
 72
9
 73
5
 74
0
 42
0.0000001
 43
0.0000001
 44
0.0000000001
 40
0.0
 40
0.0
 40
0.0
 40
0.0
 40
0.46455881
 40
1.0
 40
1.0
 40
1.0
 40
1.0
 10
936.2631055846
 20
849.9114773511
 30
0.0
 10
936.2437089035
 20
849.9025991083
 30
0.0
 10
936.2007775894
 20
849.8860556032
 30
0.0
 10
936.1566698682
 20
849.8731439407
 30
0.0
 10
936.132867338
 20
849.8669833926
 30
0.0
  0
SPLINE
  5
3A6
100
AcDbEntity
  8
0
100
AcDbSpline
 62
7
  6
CONTINUOUS
 70
0
 71
3
 72
8
 73
4
 74
0
 42
0.0000001
 43
0.0000001
 44
0.0000000001
 40
0.0
 40
0.0
 40
0.0
 40
0.0
 40
1.0
 40
1.0
 40
1.0
 40
1.0
 10
742.1027665804
 20
896.9012477789
 30
0.0
 10
742.3004672625
 20
896.8500790771
 30
0.0
 10
742.4863424719
 20
896.743967245
 30
0.0
 10
742.6439626806
 20
896.6141224701
 30
0.0
  0
SPLINE
  5
3A7
100
AcDbEntity
  8
0
100
AcDbSpline
 62
7
  6
CONTINUOUS
 70
0
 71
3
 72
8
 73
4
 74
0
 42
0.0000001
 43
0.0000001
 44
0.0000000001
 40
0.0
 40
0.0
 40
0.0
 40
0.0
 40
1.0
 40
1.0
 40
1.0
 40
1.0
 10
742.6439626806
 20
896.6141224701
 30
0.0
 10
742.8257818301
 20
896.4643430305
 30
0.0
 10
742.979297647
 20
896.2772202961
 30
0.0
 10
743.1027665804
 20
896.076602485
 30
0.0
  0
SPLINE
  5
3A8
100
AcDbEntity
  8
0
100
AcDbSpline
 62
7
  6
CONTINUOUS
 70
0
 71
3
 72
8
 73
4
 74
0
 42
0.0000001
 43
0.0000001
 44
0.0000000001
 40
0.0
 40
0.0
 40
0.0
 40
0.0
 40
1.0
 40
1.0
 40
1.0
 40
1.0
 10
743.1027665804
 20
896.076602485
 30
0.0
 10
743.1693769957
 20
895.9683709215
 30
0.0
 10
743.2279833117
 20
895.8548824521
 30
0.0
 10
743.2786078895
 20
895.738314142
 30
0.0
  0
SPLINE
  5
3A9
100
AcDbEntity
  8
0
100
AcDbSpline
 62
7
  6
CONTINUOUS
 70
0
 71
3
 72
8
 73
4
 74
0
 42
0.0000001
 43
0.0000001
 44
0.0000000001
 40
0.0
 40
0.0
 40
0.0
 40
0.0
 40
1.0
 40
1.0
 40
1.0
 40
1.0
 10
743.2786078895
 20
895.738314142
 30
0.0
 10
743.4325963172
 20
895.3837399101
 30
0.0
 10
743.5169801428
 20
894.9899393734
 30
0.0
 10
743.5169801428
 20
894.6033707225
 30
0.0
  0
SPLINE
  5
3AA
100
AcDbEntity
  8
0
100
AcDbSpline
 62
7
  6
CONTINUOUS
 70
0
 71
3
 72
8
 73
4
 74
0
 42
0.0000001
 43
0.0000001
 44
0.0000000001
 40
0.0
 40
0.0
 40
0.0
 40
0.0
 40
1.0
 40
1.0
 40
1.0
 40
1.0
 10
734.6074346998
 20
898.841182419
 30
0.0
 10
734.5342112895
 20
898.8601340321
 30
0.0
 10
734.4549992601
 20
898.8816815292
 30
0.0
 10
734.4003794638
 20
898.934002742
 30
0.0
  0
SPLINE
  5
3AB
100
AcDbEntity
  8
0
100
AcDbSpline
 62
7
  6
CONTINUOUS
 70
0
 71
3
 72
9
 73
5
 74
0
 42
0.0000001
 43
0.0000001
 44
0.0000000001
 40
0.0
 40
0.0
 40
0.0
 40
0.0
 40
0.5464674848
 40
1.0
 40
1.0
 40
1.0
 40
1.0
 10
734.4003794638
 20
898.934002742
 30
0.0
 10
734.3922970696
 20
898.9417450019
 30
0.0
 10
734.3788171394
 20
898.9577152297
 30
0.0
 10
734.3730173483
 20
898.9783036946
 30
0.0
 10
734.3730173483
 20
898.9875925805
 30
0.0
  0
SPLINE
  5
3AC
100
AcDbEntity
  8
0
100
AcDbSpline
 62
7
  6
CONTINUOUS
 70
0
 71
3
 72
9
 73
5
 74
0
 42
0.0000001
 43
0.0000001
 44
0.0000000001
 40
0.0
 40
0.0
 40
0.0
 40
0.0
 40
0.2166594466
 40
1.0
 40
1.0
 40
1.0
 40
1.0
 10
706.5352954867
 20
790.7355794112
 30
0.0
 10
706.5751297984
 20
790.7252695327
 30
0.0
 10
706.7614050908
 20
790.6872824149
 30
0.0
 10
706.9522127754
 20
790.6749077361
 30
0.0
 10
707.1009809117
 20
790.6749077361
 30
0.0
  0
SPLINE
  5
3AD
100
AcDbEntity
  8
0
100
AcDbSpline
 62
7
  6
CONTINUOUS
 70
0
 71
3
 72
9
 73
5
 74
0
 42
0.0000001
 43
0.0000001
 44
0.0000000001
 40
0.0
 40
0.0
 40
0.0
 40
0.0
 40
0.7833405534
 40
1.0
 40
1.0
 40
1.0
 40
1.0
 10
707.1009809117
 20
790.6749077361
 30
0.0
 10
707.2497490479
 20
790.6749077361
 30
0.0
 10
707.4405567326
 20
790.6872824149
 30
0.0
 10
707.626832025
 20
790.7252695327
 30
0.0
 10
707.6666663366
 20
790.7355794112
 30
0.0
  0
SPLINE
  5
3AE
100
AcDbEntity
  8
0
100
AcDbSpline
 62
7
  6
CONTINUOUS
 70
0
 71
3
 72
8
 73
4
 74
0
 42
0.0000001
 43
0.0000001
 44
0.0000000001
 40
0.0
 40
0.0
 40
0.0
 40
0.0
 40
1.0
 40
1.0
 40
1.0
 40
1.0
 10
936.132867338
 20
850.1598037156
 30
0.0
 10
936.2060907483
 20
850.1408521025
 30
0.0
 10
936.2853027777
 20
850.1193046054
 30
0.0
 10
936.3399225741
 20
850.0669833926
 30
0.0
  0
SPLINE
  5
3AF
100
AcDbEntity
  8
0
100
AcDbSpline
 62
7
  6
CONTINUOUS
 70
0
 71
3
 72
9
 73
5
 74
0
 42
0.0000001
 43
0.0000001
 44
0.0000000001
 40
0.0
 40
0.0
 40
0.0
 40
0.0
 40
0.5464674848
 40
1.0
 40
1.0
 40
1.0
 40
1.0
 10
936.3399225741
 20
850.0669833926
 30
0.0
 10
936.3480049682
 20
850.0592411326
 30
0.0
 10
936.3614848985
 20
850.0432709048
 30
0.0
 10
936.3672846895
 20
850.02268244
 30
0.0
 10
936.3672846895
 20
850.0133935541
 30
0.0
  0
SPLINE
  5
3B0
100
AcDbEntity
  8
0
100
AcDbSpline
 62
7
  6
CONTINUOUS
 70
0
 71
3
 72
8
 73
4
 74
0
 42
0.0000001
 43
0.0000001
 44
0.0000000001
 40
0.0
 40
0.0
 40
0.0
 40
0.0
 40
1.0
 40
1.0
 40
1.0
 40
1.0
 10
527.3544371341
 20
838.6563877541
 30
0.0
 10
527.3544371341
 20
839.042956405
 30
0.0
 10
527.2700533085
 20
839.4367569416
 30
0.0
 10
527.1160648808
 20
839.7913311736
 30
0.0
  0
SPLINE
  5
3B1
100
AcDbEntity
  8
0
100
AcDbSpline
 62
7
  6
CONTINUOUS
 70
0
 71
3
 72
8
 73
4
 74
0
 42
0.0000001
 43
0.0000001
 44
0.0000000001
 40
0.0
 40
0.0
 40
0.0
 40
0.0
 40
1.0
 40
1.0
 40
1.0
 40
1.0
 10
527.1160648808
 20
839.7913311736
 30
0.0
 10
527.065440303
 20
839.9078994836
 30
0.0
 10
527.006833987
 20
840.021387953
 30
0.0
 10
526.9402235717
 20
840.1296195165
 30
0.0
  0
SPLINE
  5
3B2
100
AcDbEntity
  8
0
100
AcDbSpline
 62
7
  6
CONTINUOUS
 70
0
 71
3
 72
9
 73
5
 74
0
 42
0.0000001
 43
0.0000001
 44
0.0000000001
 40
0.0
 40
0.0
 40
0.0
 40
0.0
 40
0.2687304421
 40
1.0
 40
1.0
 40
1.0
 40
1.0
 10
526.9402235717
 20
840.1296195165
 30
0.0
 10
526.8923894047
 20
840.2073425972
 30
0.0
 10
526.6994755991
 20
840.4863124112
 30
0.0
 10
526.4401271989
 20
840.7254326663
 30
0.0
 10
526.2212353096
 20
840.8427439296
 30
0.0
  0
SPLINE
  5
3B3
100
AcDbEntity
  8
0
100
AcDbSpline
 62
7
  6
CONTINUOUS
 70
0
 71
3
 72
8
 73
4
 74
0
 42
0.0000001
 43
0.0000001
 44
0.0000000001
 40
0.0
 40
0.0
 40
0.0
 40
0.0
 40
1.0
 40
1.0
 40
1.0
 40
1.0
 10
526.2212353096
 20
840.8427439296
 30
0.0
 10
526.1324102413
 20
840.8903481648
 30
0.0
 10
526.0377860711
 20
840.9290137775
 30
0.0
 10
525.9402235717
 20
840.9542648104
 30
0.0
  0
SPLINE
  5
3B4
100
AcDbEntity
  8
0
100
AcDbSpline
 62
7
  6
CONTINUOUS
 70
0
 71
3
 72
9
 73
5
 74
0
 42
0.0000001
 43
0.0000001
 44
0.0000000001
 40
0.0
 40
0.0
 40
0.0
 40
0.0
 40
0.2166594466
 40
1.0
 40
1.0
 40
1.0
 40
1.0
 10
518.4448916911
 20
842.8941994505
 30
0.0
 10
518.4050573795
 20
842.904509329
 30
0.0
 10
518.218782087
 20
842.9424964468
 30
0.0
 10
518.0279744024
 20
842.9548711256
 30
0.0
 10
517.8792062662
 20
842.9548711256
 30
0.0
  0
SPLINE
  5
3B5
100
AcDbEntity
  8
0
100
AcDbSpline
 62
7
  6
CONTINUOUS
 70
0
 71
3
 72
9
 73
5
 74
0
 42
0.0000001
 43
0.0000001
 44
0.0000000001
 40
0.0
 40
0.0
 40
0.0
 40
0.0
 40
0.7833405534
 40
1.0
 40
1.0
 40
1.0
 40
1.0
 10
517.8792062662
 20
842.9548711256
 30
0.0
 10
517.7304381299
 20
842.9548711256
 30
0.0
 10
517.5396304453
 20
842.9424964468
 30
0.0
 10
517.3533551528
 20
842.904509329
 30
0.0
 10
517.3135208412
 20
842.8941994505
 30
0.0
  0
SPLINE
  5
3B6
100
AcDbEntity
  8
0
100
AcDbSpline
 62
7
  6
CONTINUOUS
 70
0
 71
3
 72
8
 73
4
 74
0
 42
0.0000001
 43
0.0000001
 44
0.0000000001
 40
0.0
 40
0.0
 40
0.0
 40
0.0
 40
1.0
 40
1.0
 40
1.0
 40
1.0
 10
511.7273772698
 20
841.4483991056
 30
0.0
 10
511.6541538595
 20
841.4294474924
 30
0.0
 10
511.5749418301
 20
841.4078999953
 30
0.0
 10
511.5203220338
 20
841.3555787825
 30
0.0
  0
SPLINE
  5
3B7
100
AcDbEntity
  8
0
100
AcDbSpline
 62
7
  6
CONTINUOUS
 70
0
 71
3
 72
9
 73
5
 74
0
 42
0.0000001
 43
0.0000001
 44
0.0000000001
 40
0.0
 40
0.0
 40
0.0
 40
0.0
 40
0.5464674848
 40
1.0
 40
1.0
 40
1.0
 40
1.0
 10
511.5203220338
 20
841.3555787825
 30
0.0
 10
511.5122396396
 20
841.3478365226
 30
0.0
 10
511.4987597094
 20
841.3318662948
 30
0.0
 10
511.4929599183
 20
841.3112778299
 30
0.0
 10
511.4929599183
 20
841.301988944
 30
0.0
  0
SPLINE
  5
3B8
100
AcDbEntity
  8
0
100
AcDbSpline
 62
7
  6
CONTINUOUS
 70
0
 71
3
 72
9
 73
5
 74
0
 42
0.0000001
 43
0.0000001
 44
0.0000000001
 40
0.0
 40
0.0
 40
0.0
 40
0.0
 40
0.3899710985
 40
1.0
 40
1.0
 40
1.0
 40
1.0
 10
734.3730173483
 20
898.9875925805
 30
0.0
 10
734.3730173483
 20
899.0072174623
 30
0.0
 10
734.4040767817
 20
899.0543801322
 30
0.0
 10
734.4492825357
 20
899.0767320339
 30
0.0
 10
734.4771964533
 20
899.0895087835
 30
0.0
  0
SPLINE
  5
3B9
100
AcDbEntity
  8
0
100
AcDbSpline
 62
7
  6
CONTINUOUS
 70
0
 71
3
 72
9
 73
5
 74
0
 42
0.0000001
 43
0.0000001
 44
0.0000000001
 40
0.0
 40
0.0
 40
0.0
 40
0.0
 40
0.46455881
 40
1.0
 40
1.0
 40
1.0
 40
1.0
 10
734.4771964533
 20
899.0895087835
 30
0.0
 10
734.4965931343
 20
899.0983870263
 30
0.0
 10
734.5395244484
 20
899.1149305313
 30
0.0
 10
734.5836321696
 20
899.1278421938
 30
0.0
 10
734.6074346998
 20
899.134002742
 30
0.0
  0
SPLINE
  5
3BA
100
AcDbEntity
  8
0
100
AcDbSpline
 62
7
  6
CONTINUOUS
 70
0
 71
3
 72
9
 73
5
 74
0
 42
0.0000001
 43
0.0000001
 44
0.0000000001
 40
0.0
 40
0.0
 40
0.0
 40
0.0
 40
0.2166594466
 40
1.0
 40
1.0
 40
1.0
 40
1.0
 10
740.1935782712
 20
900.5798030869
 30
0.0
 10
740.2334125828
 20
900.5901129654
 30
0.0
 10
740.4196878753
 20
900.6281000833
 30
0.0
 10
740.6104955599
 20
900.640474762
 30
0.0
 10
740.7592636962
 20
900.640474762
 30
0.0
  0
SPLINE
  5
3BB
100
AcDbEntity
  8
0
100
AcDbSpline
 62
7
  6
CONTINUOUS
 70
0
 71
3
 72
9
 73
5
 74
0
 42
0.0000001
 43
0.0000001
 44
0.0000000001
 40
0.0
 40
0.0
 40
0.0
 40
0.0
 40
0.7833405534
 40
1.0
 40
1.0
 40
1.0
 40
1.0
 10
740.7592636962
 20
900.640474762
 30
0.0
 10
740.9080318324
 20
900.640474762
 30
0.0
 10
741.098839517
 20
900.6281000833
 30
0.0
 10
741.2851148095
 20
900.5901129654
 30
0.0
 10
741.3249491211
 20
900.5798030869
 30
0.0
  0
SPLINE
  5
3BC
100
AcDbEntity
  8
0
100
AcDbSpline
 62
7
  6
CONTINUOUS
 70
0
 71
3
 72
9
 73
5
 74
0
 42
0.0000001
 43
0.0000001
 44
0.0000000001
 40
0.0
 40
0.0
 40
0.0
 40
0.0
 40
0.2934816001
 40
1.0
 40
1.0
 40
1.0
 40
1.0
 10
366.8060937297
 20
325.9513777375
 30
0.0
 10
366.7605189462
 20
325.993784521
 30
0.0
 10
366.614080525
 20
326.1452034995
 30
0.0
 10
366.5139454893
 20
326.3563165541
 30
0.0
 10
366.5139454893
 20
326.5061817039
 30
0.0
  0
SPLINE
  5
3BD
100
AcDbEntity
  8
0
100
AcDbSpline
 62
7
  6
CONTINUOUS
 70
0
 71
3
 72
9
 73
5
 74
0
 42
0.0000001
 43
0.0000001
 44
0.0000000001
 40
0.0
 40
0.0
 40
0.0
 40
0.0
 40
0.5
 40
1.0
 40
1.0
 40
1.0
 40
1.0
 10
517.5966309982
 20
368.3684310632
 30
0.0
 10
515.7607065233
 20
368.8436032827
 30
0.0
 10
511.9397767487
 20
369.1059679476
 30
0.0
 10
508.1188469742
 20
368.8436032827
 30
0.0
 10
506.2829224993
 20
368.3684310632
 30
0.0
  0
SPLINE
  5
3BE
100
AcDbEntity
  8
0
100
AcDbSpline
 62
7
  6
CONTINUOUS
 70
0
 71
3
 72
9
 73
5
 74
0
 42
0.0000001
 43
0.0000001
 44
0.0000000001
 40
0.0
 40
0.0
 40
0.0
 40
0.0
 40
0.1814172028
 40
1.0
 40
1.0
 40
1.0
 40
1.0
 10
703.2132095696
 20
320.1128345556
 30
0.0
 10
703.1646933464
 20
320.1647608016
 30
0.0
 10
702.8505620574
 20
320.405500683
 30
0.0
 10
702.4641262692
 20
320.5212024667
 30
0.0
 10
702.1537010145
 20
320.6015464347
 30
0.0
  0
SPLINE
  5
3BF
100
AcDbEntity
  8
0
100
AcDbSpline
 62
7
  6
CONTINUOUS
 70
0
 71
3
 72
13
 73
9
 74
0
 42
0.0000001
 43
0.0000001
 44
0.0000000001
 40
0.0
 40
0.0
 40
0.0
 40
0.0
 40
0.0758148795
 40
0.1912118888
 40
0.4999999975
 40
0.8087881076
 40
0.9241851187
 40
1.0
 40
1.0
 40
1.0
 40
1.0
 10
703.2132095696
 20
320.1128345556
 30
0.0
 10
703.3519778643
 20
319.9643127594
 30
0.0
 10
703.8321116209
 20
319.7329509842
 30
0.0
 10
705.1231327762
 20
319.3974301081
 30
0.0
 10
707.1011452229
 20
319.2652644469
 30
0.0
 10
709.0791576731
 20
319.3974301015
 30
0.0
 10
710.3701788449
 20
319.7329509726
 30
0.0
 10
710.8503126116
 20
319.9643127448
 30
0.0
 10
710.9890809148
 20
320.11283454
 30
0.0
  0
SPLINE
  5
3C0
100
AcDbEntity
  8
0
100
AcDbSpline
 62
7
  6
CONTINUOUS
 70
0
 71
3
 72
9
 73
5
 74
0
 42
0.0000001
 43
0.0000001
 44
0.0000000001
 40
0.0
 40
0.0
 40
0.0
 40
0.0
 40
0.3201216876
 40
1.0
 40
1.0
 40
1.0
 40
1.0
 10
712.0485894553
 20
320.6015464036
 30
0.0
 10
711.9274708357
 20
320.5701985981
 30
0.0
 10
711.557360373
 20
320.4587082034
 30
0.0
 10
711.1704825113
 20
320.3069861593
 30
0.0
 10
710.9890809148
 20
320.11283454
 30
0.0
  0
SPLINE
  5
3C1
100
AcDbEntity
  8
0
100
AcDbSpline
 62
7
  6
CONTINUOUS
 70
0
 71
3
 72
9
 73
5
 74
0
 42
0.0000001
 43
0.0000001
 44
0.0000000001
 40
0.0
 40
0.0
 40
0.0
 40
0.0
 40
0.274400324
 40
1.0
 40
1.0
 40
1.0
 40
1.0
 10
935.4779882597
 20
378.2148391751
 30
0.0
 10
935.3036768575
 20
378.203929336
 30
0.0
 10
934.6695400618
 20
378.1520733941
 30
0.0
 10
934.0368536314
 20
378.0563369616
 30
0.0
 10
933.5897506172
 20
377.9406181864
 30
0.0
  0
SPLINE
  5
3C2
100
AcDbEntity
  8
0
100
AcDbSpline
 62
7
  6
CONTINUOUS
 70
0
 71
3
 72
10
 73
6
 74
0
 42
0.0000001
 43
0.0000001
 44
0.0000000001
 40
0.0
 40
0.0
 40
0.0
 40
0.0
 40
0.6683890297
 40
0.8790563549
 40
1.0
 40
1.0
 40
1.0
 40
1.0
 10
935.4779882597
 20
378.2148391751
 30
0.0
 10
936.220994756
 20
378.2613426237
 30
0.0
 10
937.2153933284
 20
378.3997819216
 30
0.0
 10
938.2442787779
 20
378.771755567
 30
0.0
 10
938.5376206663
 20
379.0864023731
 30
0.0
 10
938.5376206663
 20
379.2211109713
 30
0.0
  0
SPLINE
  5
3C3
100
AcDbEntity
  8
0
100
AcDbSpline
 62
7
  6
CONTINUOUS
 70
0
 71
3
 72
9
 73
5
 74
0
 42
0.0000001
 43
0.0000001
 44
0.0000000001
 40
0.0
 40
0.0
 40
0.0
 40
0.0
 40
0.4717876676
 40
1.0
 40
1.0
 40
1.0
 40
1.0
 10
1160.2557510448
 20
398.4635442273
 30
0.0
 10
1174.4999781238
 20
394.7768669765
 30
0.0
 10
1203.2018212407
 20
380.8649260656
 30
0.0
 10
1226.2387583109
 20
359.2676057215
 30
0.0
 10
1236.9066554583
 20
346.7150997663
 30
0.0
  0
SPLINE
  5
3C4
100
AcDbEntity
  8
0
100
AcDbSpline
 62
7
  6
CONTINUOUS
 70
0
 71
3
 72
9
 73
5
 74
0
 42
0.0000001
 43
0.0000001
 44
0.0000000001
 40
0.0
 40
0.0
 40
0.0
 40
0.0
 40
0.473120849
 40
1.0
 40
1.0
 40
1.0
 40
1.0
 10
636.1430828642
 20
255.263378351
 30
0.0
 10
649.2992476525
 20
251.40104966
 30
0.0
 10
675.6440371375
 20
237.9874948221
 30
0.0
 10
696.9667625366
 20
217.8774460384
 30
0.0
 10
706.8718141635
 20
206.2566499851
 30
0.0
  0
SPLINE
  5
3C5
100
AcDbEntity
  8
0
100
AcDbSpline
 62
7
  6
CONTINUOUS
 70
0
 71
3
 72
9
 73
5
 74
0
 42
0.0000001
 43
0.0000001
 44
0.0000000001
 40
0.0
 40
0.0
 40
0.0
 40
0.0
 40
0.480815886
 40
1.0
 40
1.0
 40
1.0
 40
1.0
 10
721.8003784315
 20
198.393882619
 30
0.0
 10
719.3535574916
 20
198.359753447
 30
0.0
 10
714.2778641823
 20
199.8489992234
 30
0.0
 10
710.0559686505
 20
202.8460890336
 30
0.0
 10
708.2149603131
 20
204.7415032261
 30
0.0
  0
SPLINE
  5
3C6
100
AcDbEntity
  8
0
100
AcDbSpline
 62
7
  6
CONTINUOUS
 70
0
 71
3
 72
9
 73
5
 74
0
 42
0.0000001
 43
0.0000001
 44
0.0000000001
 40
0.0
 40
0.0
 40
0.0
 40
0.0
 40
0.4149116759
 40
1.0
 40
1.0
 40
1.0
 40
1.0
 10
367.7689112495
 20
331.8206893706
 30
0.0
 10
367.9688446321
 20
332.0069623092
 30
0.0
 10
368.5635306776
 20
332.3233331768
 30
0.0
 10
369.1907806616
 20
332.5203484179
 30
0.0
 10
369.5638263568
 20
332.6168997486
 30
0.0
  0
SPLINE
  5
3C7
100
AcDbEntity
  8
0
100
AcDbSpline
 62
7
  6
CONTINUOUS
 70
0
 71
3
 72
8
 73
4
 74
0
 42
0.0000001
 43
0.0000001
 44
0.0000000001
 40
0.0
 40
0.0
 40
0.0
 40
0.0
 40
1.0
 40
1.0
 40
1.0
 40
1.0
 10
1238.0952798685
 20
345.0987503461
 30
0.0
 10
1237.7403796115
 20
345.6655959752
 30
0.0
 10
1237.3397496363
 20
346.2054944361
 30
0.0
 10
1236.9066554583
 20
346.7150997663
 30
0.0
  0
SPLINE
  5
3C8
100
AcDbEntity
  8
0
100
AcDbSpline
 62
7
  6
CONTINUOUS
 70
0
 71
3
 72
9
 73
5
 74
0
 42
0.0000001
 43
0.0000001
 44
0.0000000001
 40
0.0
 40
0.0
 40
0.0
 40
0.0
 40
0.5369464023
 40
1.0
 40
1.0
 40
1.0
 40
1.0
 10
1239.0158894347
 20
343.5450188191
 30
0.0
 10
1239.5970949715
 20
342.4135093992
 30
0.0
 10
1240.3839107852
 20
340.1082445997
 30
0.0
 10
1240.0307941326
 20
337.6371461045
 30
0.0
 10
1239.5611392454
 20
336.6457717007
 30
0.0
  0
SPLINE
  5
3C9
100
AcDbEntity
  8
0
100
AcDbSpline
 62
7
  6
CONTINUOUS
 70
0
 71
3
 72
9
 73
5
 74
0
 42
0.0000001
 43
0.0000001
 44
0.0000000001
 40
0.0
 40
0.0
 40
0.0
 40
0.0
 40
0.2217260833
 40
1.0
 40
1.0
 40
1.0
 40
1.0
 10
366.5139454893
 20
330.369885009
 30
0.0
 10
366.5139454893
 20
330.4170604329
 30
0.0
 10
366.5426043027
 20
330.630757779
 30
0.0
 10
366.6848670914
 20
330.8118890584
 30
0.0
 10
366.8060937297
 20
330.9246889754
 30
0.0
  0
SPLINE
  5
3CA
100
AcDbEntity
  8
0
100
AcDbSpline
 62
7
  6
CONTINUOUS
 70
0
 71
3
 72
9
 73
5
 74
0
 42
0.0000001
 43
0.0000001
 44
0.0000000001
 40
0.0
 40
0.0
 40
0.0
 40
0.0
 40
0.2824649344
 40
1.0
 40
1.0
 40
1.0
 40
1.0
 10
369.5638263568
 20
324.2591669644
 30
0.0
 10
369.4391472373
 20
324.291436295
 30
0.0
 10
369.0003380534
 20
324.4141837082
 30
0.0
 10
368.5682609253
 20
324.5696867654
 30
0.0
 10
368.2765281558
 20
324.7177461642
 30
0.0
  0
SPLINE
  5
3CB
100
AcDbEntity
  8
0
100
AcDbSpline
 62
7
  6
CONTINUOUS
 70
0
 71
3
 72
8
 73
4
 74
0
 42
0.0000001
 43
0.0000001
 44
0.0000000001
 40
0.0
 40
0.0
 40
0.0
 40
0.0
 40
1.0
 40
1.0
 40
1.0
 40
1.0
 10
368.2765281558
 20
324.7177461642
 30
0.0
 10
368.1291928653
 20
324.7925213586
 30
0.0
 10
367.9853947589
 20
324.8774481482
 30
0.0
 10
367.8561652763
 20
324.9803984195
 30
0.0
  0
SPLINE
  5
3CC
100
AcDbEntity
  8
0
100
AcDbSpline
 62
7
  6
CONTINUOUS
 70
0
 71
3
 72
9
 73
5
 74
0
 42
0.0000001
 43
0.0000001
 44
0.0000000001
 40
0.0
 40
0.0
 40
0.0
 40
0.0
 40
0.5096258419
 40
1.0
 40
1.0
 40
1.0
 40
1.0
 10
367.8561652763
 20
324.9803984195
 30
0.0
 10
367.8408768427
 20
324.9925779033
 30
0.0
 10
367.8112935097
 20
325.0170049774
 30
0.0
 10
367.7826725811
 20
325.0425562534
 30
0.0
 10
367.7689112495
 20
325.0553773423
 30
0.0
  0
SPLINE
  5
3CD
100
AcDbEntity
  8
0
100
AcDbSpline
 62
7
  6
CONTINUOUS
 70
0
 71
3
 72
9
 73
5
 74
0
 42
0.0000001
 43
0.0000001
 44
0.0000000001
 40
0.0
 40
0.0
 40
0.0
 40
0.0
 40
0.2662456607
 40
1.0
 40
1.0
 40
1.0
 40
1.0
 10
1234.0018663574
 20
330.5392802141
 30
0.0
 10
1234.3180919195
 20
330.6211254122
 30
0.0
 10
1235.4862041929
 20
330.9940295565
 30
0.0
 10
1236.5697934482
 20
331.6712914541
 30
0.0
 10
1237.1939132801
 20
332.3200255082
 30
0.0
  0
SPLINE
  5
3CE
100
AcDbEntity
  8
0
100
AcDbSpline
 62
7
  6
CONTINUOUS
 70
0
 71
3
 72
8
 73
4
 74
0
 42
0.0000001
 43
0.0000001
 44
0.0000000001
 40
0.0
 40
0.0
 40
0.0
 40
0.0
 40
1.0
 40
1.0
 40
1.0
 40
1.0
 10
1237.1939132801
 20
332.3200255082
 30
0.0
 10
1237.6021167651
 20
332.7443278427
 30
0.0
 10
1237.9461038285
 20
333.241052002
 30
0.0
 10
1238.1979628868
 20
333.7732451728
 30
0.0
  0
SPLINE
  5
3CF
100
AcDbEntity
  8
0
100
AcDbSpline
 62
7
  6
CONTINUOUS
 70
0
 71
3
 72
9
 73
5
 74
0
 42
0.0000001
 43
0.0000001
 44
0.0000000001
 40
0.0
 40
0.0
 40
0.0
 40
0.0
 40
0.4879506507
 40
1.0
 40
1.0
 40
1.0
 40
1.0
 10
1239.5611392454
 20
336.6457717007
 30
0.0
 10
1239.2668118089
 20
336.0244885101
 30
0.0
 10
1238.4137372276
 20
334.855030797
 30
0.0
 10
1237.1960470174
 20
334.084726803
 30
0.0
 10
1236.5354823932
 20
333.7947063577
 30
0.0
  0
SPLINE
  5
3D0
100
AcDbEntity
  8
0
100
AcDbSpline
 62
7
  6
CONTINUOUS
 70
0
 71
3
 72
8
 73
4
 74
0
 42
0.0000001
 43
0.0000001
 44
0.0000000001
 40
0.0
 40
0.0
 40
0.0
 40
0.0
 40
1.0
 40
1.0
 40
1.0
 40
1.0
 10
1236.5354823932
 20
333.7947063577
 30
0.0
 10
1236.1540448037
 20
333.6272364455
 30
0.0
 10
1235.7570562466
 20
333.4923849921
 30
0.0
 10
1235.3537627854
 20
333.3880049636
 30
0.0
  0
SPLINE
  5
3D1
100
AcDbEntity
  8
0
100
AcDbSpline
 62
7
  6
CONTINUOUS
 70
0
 71
3
 72
9
 73
5
 74
0
 42
0.0000001
 43
0.0000001
 44
0.0000000001
 40
0.0
 40
0.0
 40
0.0
 40
0.0
 40
0.528228086
 40
1.0
 40
1.0
 40
1.0
 40
1.0
 10
708.3435127126
 20
209.257865565
 30
0.0
 10
697.7232098186
 20
221.7543691852
 30
0.0
 10
674.800332396
 20
243.2652628312
 30
0.0
 10
646.2267663006
 20
257.1171327605
 30
0.0
 10
632.0469854984
 20
260.7871300875
 30
0.0
  0
SPLINE
  5
3D2
100
AcDbEntity
  8
0
100
AcDbSpline
 62
7
  6
CONTINUOUS
 70
0
 71
3
 72
9
 73
5
 74
0
 42
0.0000001
 43
0.0000001
 44
0.0000000001
 40
0.0
 40
0.0
 40
0.0
 40
0.0
 40
0.2646715574
 40
1.0
 40
1.0
 40
1.0
 40
1.0
 10
1235.213098672
 20
335.000219401
 30
0.0
 10
1235.4653563236
 20
335.0655084855
 30
0.0
 10
1236.4051826497
 20
335.3574864943
 30
0.0
 10
1237.2893179061
 20
335.8522999966
 30
0.0
 10
1237.8356804745
 20
336.3272380831
 30
0.0
  0
SPLINE
  5
3D3
100
AcDbEntity
  8
0
100
AcDbSpline
 62
7
  6
CONTINUOUS
 70
0
 71
3
 72
8
 73
4
 74
0
 42
0.0000001
 43
0.0000001
 44
0.0000000001
 40
0.0
 40
0.0
 40
0.0
 40
0.0
 40
1.0
 40
1.0
 40
1.0
 40
1.0
 10
1237.8356804745
 20
336.3272380831
 30
0.0
 10
1238.5163553892
 20
336.9189302309
 30
0.0
 10
1239.0532720431
 20
337.7228164837
 30
0.0
 10
1239.3348345448
 20
338.5796364734
 30
0.0
  0
SPLINE
  5
3D4
100
AcDbEntity
  8
0
100
AcDbSpline
 62
7
  6
CONTINUOUS
 70
0
 71
3
 72
9
 73
5
 74
0
 42
0.0000001
 43
0.0000001
 44
0.0000000001
 40
0.0
 40
0.0
 40
0.0
 40
0.0
 40
0.2353350375
 40
1.0
 40
1.0
 40
1.0
 40
1.0
 10
1239.3348345448
 20
338.5796364734
 30
0.0
 10
1239.4319493024
 20
338.8751654062
 30
0.0
 10
1239.7332758174
 20
340.1682175546
 30
0.0
 10
1239.5744912587
 20
341.5399893682
 30
0.0
 10
1239.2876827341
 20
342.5092131393
 30
0.0
  0
SPLINE
  5
3D5
100
AcDbEntity
  8
0
100
AcDbSpline
 62
7
  6
CONTINUOUS
 70
0
 71
3
 72
9
 73
5
 74
0
 42
0.0000001
 43
0.0000001
 44
0.0000000001
 40
0.0
 40
0.0
 40
0.0
 40
0.0
 40
0.2385815007
 40
1.0
 40
1.0
 40
1.0
 40
1.0
 10
1239.2876827341
 20
342.5092131393
 30
0.0
 10
1239.2232357737
 20
342.7270013869
 30
0.0
 10
1238.9177410176
 20
343.6292899042
 30
0.0
 10
1238.4799347529
 20
344.484380715
 30
0.0
 10
1238.0952798685
 20
345.0987503461
 30
0.0
  0
SPLINE
  5
3D6
100
AcDbEntity
  8
0
100
AcDbSpline
 62
7
  6
CONTINUOUS
 70
0
 71
3
 72
11
 73
7
 74
0
 42
0.0000001
 43
0.0000001
 44
0.0000000001
 40
0.0
 40
0.0
 40
0.0
 40
0.0
 40
0.2597282527
 40
0.5295527879
 40
0.7827295188
 40
1.0
 40
1.0
 40
1.0
 40
1.0
 10
709.4049966931
 20
210.1876241547
 30
0.0
 10
710.4609682774
 20
208.945102839
 30
0.0
 10
712.9563323752
 20
206.6951145888
 30
0.0
 10
717.2485287485
 20
204.2275316504
 30
0.0
 10
721.7354436769
 20
202.8645250865
 30
0.0
 10
724.7756633734
 20
202.8892898125
 30
0.0
 10
726.0962162177
 20
203.2310740386
 30
0.0
  0
SPLINE
  5
3D7
100
AcDbEntity
  8
0
100
AcDbSpline
 62
7
  6
CONTINUOUS
 70
0
 71
3
 72
9
 73
5
 74
0
 42
0.0000001
 43
0.0000001
 44
0.0000000001
 40
0.0
 40
0.0
 40
0.0
 40
0.0
 40
0.4717876676
 40
1.0
 40
1.0
 40
1.0
 40
1.0
 10
632.7540922796
 20
261.9360686157
 30
0.0
 10
646.9983193586
 20
258.2493913649
 30
0.0
 10
675.7001624755
 20
244.337450454
 30
0.0
 10
698.7370995457
 20
222.7401301099
 30
0.0
 10
709.4049966931
 20
210.1876241547
 30
0.0
  0
SPLINE
  5
3D8
100
AcDbEntity
  8
0
100
AcDbSpline
 62
7
  6
CONTINUOUS
 70
0
 71
3
 72
9
 73
5
 74
0
 42
0.0000001
 43
0.0000001
 44
0.0000000001
 40
0.0
 40
0.0
 40
0.0
 40
0.0
 40
0.5267018737
 40
1.0
 40
1.0
 40
1.0
 40
1.0
 10
706.9475227221
 20
206.3162265803
 30
0.0
 10
697.0634142216
 20
217.9886245385
 30
0.0
 10
675.7688190123
 20
238.2081945454
 30
0.0
 10
649.4660884971
 20
251.8086243931
 30
0.0
 10
636.3099470715
 20
255.7862753909
 30
0.0
  0
SPLINE
  5
3D9
100
AcDbEntity
  8
0
100
AcDbSpline
 62
7
  6
CONTINUOUS
 70
0
 71
3
 72
9
 73
5
 74
0
 42
0.0000001
 43
0.0000001
 44
0.0000000001
 40
0.0
 40
0.0
 40
0.0
 40
0.0
 40
0.3378872189
 40
1.0
 40
1.0
 40
1.0
 40
1.0
 10
938.5376206663
 20
379.2211109713
 30
0.0
 10
938.5376206663
 20
379.4263946476
 30
0.0
 10
937.9146796981
 20
379.8532979761
 30
0.0
 10
937.3692467979
 20
379.9636667791
 30
0.0
 10
936.9746997249
 20
380.04209833
 30
0.0
  0
SPLINE
  5
3DA
100
AcDbEntity
  8
0
100
AcDbSpline
 62
7
  6
CONTINUOUS
 70
0
 71
3
 72
11
 73
7
 74
0
 42
0.0000001
 43
0.0000001
 44
0.0000000001
 40
0.0
 40
0.0
 40
0.0
 40
0.0
 40
0.3800883476
 40
0.6605735235
 40
0.8473352521
 40
1.0
 40
1.0
 40
1.0
 40
1.0
 10
369.5638263568
 20
330.0547219221
 30
0.0
 10
369.2180173617
 20
330.144223876
 30
0.0
 10
368.6196491071
 20
330.3313067826
 30
0.0
 10
367.9151904126
 20
330.6857645312
 30
0.0
 10
367.4690039196
 20
331.1330862671
 30
0.0
 10
367.5249491588
 20
331.4968007715
 30
0.0
 10
367.599755441
 20
331.6192283674
 30
0.0
  0
SPLINE
  5
3DB
100
AcDbEntity
  8
0
100
AcDbSpline
 62
7
  6
CONTINUOUS
 70
0
 71
3
 72
8
 73
4
 74
0
 42
0.0000001
 43
0.0000001
 44
0.0000000001
 40
0.0
 40
0.0
 40
0.0
 40
0.0
 40
1.0
 40
1.0
 40
1.0
 40
1.0
 10
367.599755441
 20
331.6192283674
 30
0.0
 10
367.6454748328
 20
331.6940525006
 30
0.0
 10
367.7047545631
 20
331.7609161884
 30
0.0
 10
367.7689112495
 20
331.8206893706
 30
0.0
  0
SPLINE
  5
3DC
100
AcDbEntity
  8
0
100
AcDbSpline
 62
7
  6
CONTINUOUS
 70
0
 71
3
 72
8
 73
4
 74
0
 42
0.0000001
 43
0.0000001
 44
0.0000000001
 40
0.0
 40
0.0
 40
0.0
 40
0.0
 40
1.0
 40
1.0
 40
1.0
 40
1.0
 10
368.8567195756
 20
325.0420800887
 30
0.0
 10
368.5819231543
 20
325.1132026361
 30
0.0
 10
368.3092012844
 20
325.1939432821
 30
0.0
 10
368.0418153057
 20
325.2892125233
 30
0.0
  0
SPLINE
  5
3DD
100
AcDbEntity
  8
0
100
AcDbSpline
 62
7
  6
CONTINUOUS
 70
0
 71
3
 72
9
 73
5
 74
0
 42
0.0000001
 43
0.0000001
 44
0.0000000001
 40
0.0
 40
0.0
 40
0.0
 40
0.0
 40
0.2931510985
 40
1.0
 40
1.0
 40
1.0
 40
1.0
 10
368.0418153057
 20
325.2892125233
 30
0.0
 10
367.9242234003
 20
325.3311103508
 30
0.0
 10
367.5277815014
 20
325.4841862779
 30
0.0
 10
367.1405319717
 20
325.6787939611
 30
0.0
 10
366.9051069295
 20
325.8663445951
 30
0.0
  0
SPLINE
  5
3DE
100
AcDbEntity
  8
0
100
AcDbSpline
 62
7
  6
CONTINUOUS
 70
0
 71
3
 72
9
 73
5
 74
0
 42
0.0000001
 43
0.0000001
 44
0.0000000001
 40
0.0
 40
0.0
 40
0.0
 40
0.0
 40
0.5095517025
 40
1.0
 40
1.0
 40
1.0
 40
1.0
 10
366.9051069295
 20
325.8663445951
 30
0.0
 10
366.8877650444
 20
325.8801599544
 30
0.0
 10
366.854199885
 20
325.9078674692
 30
0.0
 10
366.8217172803
 20
325.9368402131
 30
0.0
 10
366.8060937297
 20
325.9513777375
 30
0.0
  0
SPLINE
  5
3DF
100
AcDbEntity
  8
0
100
AcDbSpline
 62
7
  6
CONTINUOUS
 70
0
 71
3
 72
10
 73
6
 74
0
 42
0.0000001
 43
0.0000001
 44
0.0000000001
 40
0.0
 40
0.0
 40
0.0
 40
0.0
 40
0.3639091452
 40
0.6511744568
 40
1.0
 40
1.0
 40
1.0
 40
1.0
 10
368.8567195756
 20
328.9057833939
 30
0.0
 10
368.5204245781
 20
328.9928229441
 30
0.0
 10
367.9159740305
 20
329.1815499034
 30
0.0
 10
367.0764925721
 20
329.5479746929
 30
0.0
 10
366.5139454893
 20
330.0369071616
 30
0.0
 10
366.5139454893
 20
330.369885009
 30
0.0
  0
SPLINE
  5
3E0
100
AcDbEntity
  8
0
100
AcDbSpline
 62
7
  6
CONTINUOUS
 70
0
 71
3
 72
11
 73
7
 74
0
 42
0.0000001
 43
0.0000001
 44
0.0000000001
 40
0.0
 40
0.0
 40
0.0
 40
0.0
 40
0.2168939571
 40
0.4696192766
 40
0.7396135344
 40
1.0
 40
1.0
 40
1.0
 40
1.0
 10
726.2368803311
 20
201.6188596012
 30
0.0
 10
724.8181584815
 20
201.2516673668
 30
0.0
 10
721.547605529
 20
201.2411847285
 30
0.0
 10
716.7404803674
 20
202.7633219189
 30
0.0
 10
712.1445160015
 20
205.465530324
 30
0.0
 10
709.4827758418
 20
207.9171474757
 30
0.0
 10
708.3434546095
 20
209.2577431298
 30
0.0
  0
SPLINE
  5
3E1
100
AcDbEntity
  8
0
100
AcDbSpline
 62
7
  6
CONTINUOUS
 70
0
 71
3
 72
9
 73
5
 74
0
 42
0.0000001
 43
0.0000001
 44
0.0000000001
 40
0.0
 40
0.0
 40
0.0
 40
0.0
 40
0.5215747112
 40
1.0
 40
1.0
 40
1.0
 40
1.0
 10
709.3714751435
 20
203.8898961088
 30
0.0
 10
711.2176689018
 20
202.3013411804
 30
0.0
 10
715.2154539052
 20
199.7734950975
 30
0.0
 10
719.8496060436
 20
198.5052162017
 30
0.0
 10
722.0832975521
 20
198.4643376304
 30
0.0
  0
SPLINE
  5
3E2
100
AcDbEntity
  8
0
100
AcDbSpline
 62
7
  6
CONTINUOUS
 70
0
 71
3
 72
8
 73
4
 74
0
 42
0.0000001
 43
0.0000001
 44
0.0000000001
 40
0.0
 40
0.0
 40
0.0
 40
0.0
 40
1.0
 40
1.0
 40
1.0
 40
1.0
 10
722.0832975521
 20
198.4643376304
 30
0.0
 10
722.5303810376
 20
198.4561555989
 30
0.0
 10
722.9787695409
 20
198.4718973424
 30
0.0
 10
723.4237963826
 20
198.5155058134
 30
0.0
  0
SPLINE
  5
3E3
100
AcDbEntity
  8
0
100
AcDbSpline
 62
7
  6
CONTINUOUS
 70
0
 71
3
 72
9
 73
5
 74
0
 42
0.0000001
 43
0.0000001
 44
0.0000000001
 40
0.0
 40
0.0
 40
0.0
 40
0.0
 40
0.1705639177
 40
1.0
 40
1.0
 40
1.0
 40
1.0
 10
733.772940266
 20
898.9875925805
 30
0.0
 10
733.772940266
 20
899.0062340726
 30
0.0
 10
733.8114633935
 20
899.1145925207
 30
0.0
 10
733.9307726171
 20
899.1586873069
 30
0.0
 10
734.0154338652
 20
899.1910944359
 30
0.0
  0
SPLINE
  5
3E4
100
AcDbEntity
  8
0
100
AcDbSpline
 62
7
  6
CONTINUOUS
 70
0
 71
3
 72
8
 73
4
 74
0
 42
0.0000001
 43
0.0000001
 44
0.0000000001
 40
0.0
 40
0.0
 40
0.0
 40
0.0
 40
1.0
 40
1.0
 40
1.0
 40
1.0
 10
734.0154338652
 20
899.1910944359
 30
0.0
 10
734.0701693205
 20
899.2120463943
 30
0.0
 10
734.1264317356
 20
899.2291252564
 30
0.0
 10
734.1831706311
 20
899.2438103631
 30
0.0
  0
SPLINE
  5
3E5
100
AcDbEntity
  8
0
100
AcDbSpline
 62
7
  6
CONTINUOUS
 70
0
 71
3
 72
8
 73
4
 74
0
 42
0.0000001
 43
0.0000001
 44
0.0000000001
 40
0.0
 40
0.0
 40
0.0
 40
0.0
 40
1.0
 40
1.0
 40
1.0
 40
1.0
 10
526.3644876404
 20
841.0640724316
 30
0.0
 10
526.5621883225
 20
841.0129037298
 30
0.0
 10
526.7480635318
 20
840.9067918977
 30
0.0
 10
526.9056837405
 20
840.7769471228
 30
0.0
  0
SPLINE
  5
3E6
100
AcDbEntity
  8
0
100
AcDbSpline
 62
7
  6
CONTINUOUS
 70
0
 71
3
 72
8
 73
4
 74
0
 42
0.0000001
 43
0.0000001
 44
0.0000000001
 40
0.0
 40
0.0
 40
0.0
 40
0.0
 40
1.0
 40
1.0
 40
1.0
 40
1.0
 10
526.9056837405
 20
840.7769471228
 30
0.0
 10
527.08750289
 20
840.6271676832
 30
0.0
 10
527.241018707
 20
840.4400449488
 30
0.0
 10
527.3644876404
 20
840.2394271377
 30
0.0
  0
SPLINE
  5
3E7
100
AcDbEntity
  8
0
100
AcDbSpline
 62
7
  6
CONTINUOUS
 70
0
 71
3
 72
8
 73
4
 74
0
 42
0.0000001
 43
0.0000001
 44
0.0000000001
 40
0.0
 40
0.0
 40
0.0
 40
0.0
 40
1.0
 40
1.0
 40
1.0
 40
1.0
 10
527.3644876404
 20
840.2394271377
 30
0.0
 10
527.4310980557
 20
840.1311955741
 30
0.0
 10
527.4897043717
 20
840.0177071047
 30
0.0
 10
527.5403289495
 20
839.9011387947
 30
0.0
  0
SPLINE
  5
3E8
100
AcDbEntity
  8
0
100
AcDbSpline
 62
7
  6
CONTINUOUS
 70
0
 71
3
 72
8
 73
4
 74
0
 42
0.0000001
 43
0.0000001
 44
0.0000000001
 40
0.0
 40
0.0
 40
0.0
 40
0.0
 40
1.0
 40
1.0
 40
1.0
 40
1.0
 10
527.5403289495
 20
839.9011387947
 30
0.0
 10
527.6943173772
 20
839.5465645628
 30
0.0
 10
527.7787012028
 20
839.1527640261
 30
0.0
 10
527.7787012028
 20
838.7661953752
 30
0.0
  0
SPLINE
  5
3E9
100
AcDbEntity
  8
0
100
AcDbSpline
 62
7
  6
CONTINUOUS
 70
0
 71
3
 72
9
 73
5
 74
0
 42
0.0000001
 43
0.0000001
 44
0.0000000001
 40
0.0
 40
0.0
 40
0.0
 40
0.0
 40
0.3130942511
 40
1.0
 40
1.0
 40
1.0
 40
1.0
 10
936.5571314067
 20
850.2696113368
 30
0.0
 10
936.5974151634
 20
850.2591851333
 30
0.0
 10
936.7236723273
 20
850.22130331
 30
0.0
 10
936.8535527651
 20
850.1703267191
 30
0.0
 10
936.9194780699
 20
850.1071757715
 30
0.0
  0
SPLINE
  5
3EA
100
AcDbEntity
  8
0
100
AcDbSpline
 62
7
  6
CONTINUOUS
 70
0
 71
3
 72
9
 73
5
 74
0
 42
0.0000001
 43
0.0000001
 44
0.0000000001
 40
0.0
 40
0.0
 40
0.0
 40
0.0
 40
0.5464674848
 40
1.0
 40
1.0
 40
1.0
 40
1.0
 10
936.9194780699
 20
850.1071757715
 30
0.0
 10
936.9336222596
 20
850.0936268165
 30
0.0
 10
936.9572121375
 20
850.0656789179
 30
0.0
 10
936.9673617719
 20
850.0296491044
 30
0.0
 10
936.9673617719
 20
850.0133935541
 30
0.0
  0
SPLINE
  5
3EB
100
AcDbEntity
  8
0
100
AcDbSpline
 62
7
  6
CONTINUOUS
 70
0
 71
3
 72
9
 73
5
 74
0
 42
0.0000001
 43
0.0000001
 44
0.0000000001
 40
0.0
 40
0.0
 40
0.0
 40
0.0
 40
0.3130942511
 40
1.0
 40
1.0
 40
1.0
 40
1.0
 10
511.3031132011
 20
841.5582067267
 30
0.0
 10
511.2628294445
 20
841.5477805233
 30
0.0
 10
511.1365722805
 20
841.5098987
 30
0.0
 10
511.0066918428
 20
841.458922109
 30
0.0
 10
510.940766538
 20
841.3957711614
 30
0.0
  0
SPLINE
  5
3EC
100
AcDbEntity
  8
0
100
AcDbSpline
 62
7
  6
CONTINUOUS
 70
0
 71
3
 72
9
 73
5
 74
0
 42
0.0000001
 43
0.0000001
 44
0.0000000001
 40
0.0
 40
0.0
 40
0.0
 40
0.0
 40
0.5464674848
 40
1.0
 40
1.0
 40
1.0
 40
1.0
 10
510.940766538
 20
841.3957711614
 30
0.0
 10
510.9266223483
 20
841.3822222064
 30
0.0
 10
510.9030324703
 20
841.3542743078
 30
0.0
 10
510.892882836
 20
841.3182444943
 30
0.0
 10
510.892882836
 20
841.301988944
 30
0.0
  0
SPLINE
  5
3ED
100
AcDbEntity
  8
0
100
AcDbSpline
 62
7
  6
CONTINUOUS
 70
0
 71
3
 72
9
 73
5
 74
0
 42
0.0000001
 43
0.0000001
 44
0.0000000001
 40
0.0
 40
0.0
 40
0.0
 40
0.0
 40
0.2170422625
 40
1.0
 40
1.0
 40
1.0
 40
1.0
 10
518.8691557598
 20
843.0040070716
 30
0.0
 10
518.7740043046
 20
843.0286340804
 30
0.0
 10
518.328145382
 20
843.1116750821
 30
0.0
 10
517.870555286
 20
843.1225232968
 30
0.0
 10
517.516859603
 20
843.097789289
 30
0.0
  0
SPLINE
  5
3EE
100
AcDbEntity
  8
0
100
AcDbSpline
 62
7
  6
CONTINUOUS
 70
0
 71
3
 72
8
 73
4
 74
0
 42
0.0000001
 43
0.0000001
 44
0.0000000001
 40
0.0
 40
0.0
 40
0.0
 40
0.0
 40
1.0
 40
1.0
 40
1.0
 40
1.0
 10
517.516859603
 20
843.097789289
 30
0.0
 10
517.4075914731
 20
843.0901481474
 30
0.0
 10
517.2984822796
 20
843.0788578
 30
0.0
 10
517.1901018177
 20
843.0629963142
 30
0.0
  0
SPLINE
  5
3EF
100
AcDbEntity
  8
0
100
AcDbSpline
 62
7
  6
CONTINUOUS
 70
0
 71
3
 72
8
 73
4
 74
0
 42
0.0000001
 43
0.0000001
 44
0.0000000001
 40
0.0
 40
0.0
 40
0.0
 40
0.0
 40
1.0
 40
1.0
 40
1.0
 40
1.0
 10
517.1901018177
 20
843.0629963142
 30
0.0
 10
517.0889876749
 20
843.0481982546
 30
0.0
 10
516.9881881611
 20
843.0296123992
 30
0.0
 10
516.8892567725
 20
843.0040070716
 30
0.0
  0
SPLINE
  5
3F0
100
AcDbEntity
  8
0
100
AcDbSpline
 62
7
  6
CONTINUOUS
 70
0
 71
3
 72
9
 73
5
 74
0
 42
0.0000001
 43
0.0000001
 44
0.0000000001
 40
0.0
 40
0.0
 40
0.0
 40
0.0
 40
0.2170422625
 40
1.0
 40
1.0
 40
1.0
 40
1.0
 10
739.7693142025
 20
900.6896107081
 30
0.0
 10
739.8644656577
 20
900.7142377168
 30
0.0
 10
740.3103245803
 20
900.7972787185
 30
0.0
 10
740.7679146763
 20
900.8081269333
 30
0.0
 10
741.1216103593
 20
900.7833929254
 30
0.0
  0
SPLINE
  5
3F1
100
AcDbEntity
  8
0
100
AcDbSpline
 62
7
  6
CONTINUOUS
 70
0
 71
3
 72
8
 73
4
 74
0
 42
0.0000001
 43
0.0000001
 44
0.0000000001
 40
0.0
 40
0.0
 40
0.0
 40
0.0
 40
1.0
 40
1.0
 40
1.0
 40
1.0
 10
741.1216103593
 20
900.7833929254
 30
0.0
 10
741.2308784892
 20
900.7757517838
 30
0.0
 10
741.3399876827
 20
900.7644614364
 30
0.0
 10
741.4483681446
 20
900.7485999506
 30
0.0
  0
SPLINE
  5
3F2
100
AcDbEntity
  8
0
100
AcDbSpline
 62
7
  6
CONTINUOUS
 70
0
 71
3
 72
8
 73
4
 74
0
 42
0.0000001
 43
0.0000001
 44
0.0000000001
 40
0.0
 40
0.0
 40
0.0
 40
0.0
 40
1.0
 40
1.0
 40
1.0
 40
1.0
 10
741.4483681446
 20
900.7485999506
 30
0.0
 10
741.5494822874
 20
900.733801891
 30
0.0
 10
741.6502818013
 20
900.7152160356
 30
0.0
 10
741.7492131898
 20
900.6896107081
 30
0.0
  0
SPLINE
  5
3F3
100
AcDbEntity
  8
0
100
AcDbSpline
 62
7
  6
CONTINUOUS
 70
0
 71
3
 72
9
 73
5
 74
0
 42
0.0000001
 43
0.0000001
 44
0.0000000001
 40
0.0
 40
0.0
 40
0.0
 40
0.0
 40
0.1705639177
 40
1.0
 40
1.0
 40
1.0
 40
1.0
 10
510.892882836
 20
841.301988944
 30
0.0
 10
510.892882836
 20
841.2833474519
 30
0.0
 10
510.9314059635
 20
841.1749890038
 30
0.0
 10
511.0507151871
 20
841.1308942176
 30
0.0
 10
511.1353764352
 20
841.0984870886
 30
0.0
  0
SPLINE
  5
3F4
100
AcDbEntity
  8
0
100
AcDbSpline
 62
7
  6
CONTINUOUS
 70
0
 71
3
 72
8
 73
4
 74
0
 42
0.0000001
 43
0.0000001
 44
0.0000000001
 40
0.0
 40
0.0
 40
0.0
 40
0.0
 40
1.0
 40
1.0
 40
1.0
 40
1.0
 10
511.1353764352
 20
841.0984870886
 30
0.0
 10
511.1901118905
 20
841.0775351302
 30
0.0
 10
511.2463743056
 20
841.0604562681
 30
0.0
 10
511.3031132011
 20
841.0457711614
 30
0.0
  0
SPLINE
  5
3F5
100
AcDbEntity
  8
0
100
AcDbSpline
 62
7
  6
CONTINUOUS
 70
0
 71
3
 72
9
 73
5
 74
0
 42
0.0000001
 43
0.0000001
 44
0.0000000001
 40
0.0
 40
0.0
 40
0.0
 40
0.0
 40
0.1705639177
 40
1.0
 40
1.0
 40
1.0
 40
1.0
 10
936.9673617719
 20
850.0133935541
 30
0.0
 10
936.9673617719
 20
849.9947520619
 30
0.0
 10
936.9288386443
 20
849.8863936138
 30
0.0
 10
936.8095294207
 20
849.8422988276
 30
0.0
 10
936.7248681726
 20
849.8098916987
 30
0.0
  0
SPLINE
  5
3F6
100
AcDbEntity
  8
0
100
AcDbSpline
 62
7
  6
CONTINUOUS
 70
0
 71
3
 72
8
 73
4
 74
0
 42
0.0000001
 43
0.0000001
 44
0.0000000001
 40
0.0
 40
0.0
 40
0.0
 40
0.0
 40
1.0
 40
1.0
 40
1.0
 40
1.0
 10
936.7248681726
 20
849.8098916987
 30
0.0
 10
936.6701327174
 20
849.7889397402
 30
0.0
 10
936.6138703022
 20
849.7718608782
 30
0.0
 10
936.5571314067
 20
849.7571757715
 30
0.0
  0
SPLINE
  5
3F7
100
AcDbEntity
  8
0
100
AcDbSpline
 62
7
  6
CONTINUOUS
 70
0
 71
3
 72
9
 73
5
 74
0
 42
0.0000001
 43
0.0000001
 44
0.0000000001
 40
0.0
 40
0.0
 40
0.0
 40
0.0
 40
0.2170422625
 40
1.0
 40
1.0
 40
1.0
 40
1.0
 10
706.111031418
 20
790.6257717901
 30
0.0
 10
706.2061828732
 20
790.6011447813
 30
0.0
 10
706.6520417959
 20
790.5181037796
 30
0.0
 10
707.1096318918
 20
790.5072555649
 30
0.0
 10
707.4633275748
 20
790.5319895727
 30
0.0
  0
SPLINE
  5
3F8
100
AcDbEntity
  8
0
100
AcDbSpline
 62
7
  6
CONTINUOUS
 70
0
 71
3
 72
8
 73
4
 74
0
 42
0.0000001
 43
0.0000001
 44
0.0000000001
 40
0.0
 40
0.0
 40
0.0
 40
0.0
 40
1.0
 40
1.0
 40
1.0
 40
1.0
 10
707.4633275748
 20
790.5319895727
 30
0.0
 10
707.5725957047
 20
790.5396307143
 30
0.0
 10
707.6817048982
 20
790.5509210617
 30
0.0
 10
707.7900853601
 20
790.5667825475
 30
0.0
  0
SPLINE
  5
3F9
100
AcDbEntity
  8
0
100
AcDbSpline
 62
7
  6
CONTINUOUS
 70
0
 71
3
 72
8
 73
4
 74
0
 42
0.0000001
 43
0.0000001
 44
0.0000000001
 40
0.0
 40
0.0
 40
0.0
 40
0.0
 40
1.0
 40
1.0
 40
1.0
 40
1.0
 10
707.7900853601
 20
790.5667825475
 30
0.0
 10
707.8911995029
 20
790.5815806071
 30
0.0
 10
707.9919990168
 20
790.6001664626
 30
0.0
 10
708.0909304053
 20
790.6257717901
 30
0.0
  0
SPLINE
  5
3FA
100
AcDbEntity
  8
0
100
AcDbSpline
 62
7
  6
CONTINUOUS
 70
0
 71
3
 72
9
 73
5
 74
0
 42
0.0000001
 43
0.0000001
 44
0.0000000001
 40
0.0
 40
0.0
 40
0.0
 40
0.0
 40
0.3130942511
 40
1.0
 40
1.0
 40
1.0
 40
1.0
 10
734.1831706311
 20
898.7313747978
 30
0.0
 10
734.1428868745
 20
898.7418010012
 30
0.0
 10
734.0166297105
 20
898.7796828245
 30
0.0
 10
733.8867492728
 20
898.8306594155
 30
0.0
 10
733.820823968
 20
898.8938103631
 30
0.0
  0
SPLINE
  5
3FB
100
AcDbEntity
  8
0
100
AcDbSpline
 62
7
  6
CONTINUOUS
 70
0
 71
3
 72
9
 73
5
 74
0
 42
0.0000001
 43
0.0000001
 44
0.0000000001
 40
0.0
 40
0.0
 40
0.0
 40
0.0
 40
0.5464674848
 40
1.0
 40
1.0
 40
1.0
 40
1.0
 10
733.820823968
 20
898.8938103631
 30
0.0
 10
733.8066797783
 20
898.9073593181
 30
0.0
 10
733.7830899003
 20
898.9353072167
 30
0.0
 10
733.772940266
 20
898.9713370302
 30
0.0
 10
733.772940266
 20
898.9875925805
 30
0.0
  0
SPLINE
  5
3FC
100
AcDbEntity
  8
0
100
AcDbSpline
 62
7
  6
CONTINUOUS
 70
0
 71
3
 72
8
 73
4
 74
0
 42
0.0000001
 43
0.0000001
 44
0.0000000001
 40
0.0
 40
0.0
 40
0.0
 40
0.0
 40
1.0
 40
1.0
 40
1.0
 40
1.0
 10
743.0927160741
 20
894.4935631014
 30
0.0
 10
743.0927160741
 20
894.8801317523
 30
0.0
 10
743.0083322485
 20
895.2739322889
 30
0.0
 10
742.8543438208
 20
895.6285065209
 30
0.0
  0
SPLINE
  5
3FD
100
AcDbEntity
  8
0
100
AcDbSpline
 62
7
  6
CONTINUOUS
 70
0
 71
3
 72
8
 73
4
 74
0
 42
0.0000001
 43
0.0000001
 44
0.0000000001
 40
0.0
 40
0.0
 40
0.0
 40
0.0
 40
1.0
 40
1.0
 40
1.0
 40
1.0
 10
742.8543438208
 20
895.6285065209
 30
0.0
 10
742.803719243
 20
895.7450748309
 30
0.0
 10
742.745112927
 20
895.8585633003
 30
0.0
 10
742.6785025117
 20
895.9667948639
 30
0.0
  0
SPLINE
  5
3FE
100
AcDbEntity
  8
0
100
AcDbSpline
 62
7
  6
CONTINUOUS
 70
0
 71
3
 72
9
 73
5
 74
0
 42
0.0000001
 43
0.0000001
 44
0.0000000001
 40
0.0
 40
0.0
 40
0.0
 40
0.0
 40
0.2687304421
 40
1.0
 40
1.0
 40
1.0
 40
1.0
 10
742.6785025117
 20
895.9667948639
 30
0.0
 10
742.6306683448
 20
896.0445179445
 30
0.0
 10
742.4377545392
 20
896.3234877586
 30
0.0
 10
742.1784061389
 20
896.5626080136
 30
0.0
 10
741.9595142496
 20
896.6799192769
 30
0.0
  0
SPLINE
  5
3FF
100
AcDbEntity
  8
0
100
AcDbSpline
 62
7
  6
CONTINUOUS
 70
0
 71
3
 72
8
 73
4
 74
0
 42
0.0000001
 43
0.0000001
 44
0.0000000001
 40
0.0
 40
0.0
 40
0.0
 40
0.0
 40
1.0
 40
1.0
 40
1.0
 40
1.0
 10
741.9595142496
 20
896.6799192769
 30
0.0
 10
741.8706891813
 20
896.7275235121
 30
0.0
 10
741.7760650112
 20
896.7661891248
 30
0.0
 10
741.6785025117
 20
896.7914401578
 30
0.0
  0
ENDSEC
  0
SECTION
  2
OBJECTS
  0
DICTIONARY
  5
C
100
AcDbDictionary
280
0
281
1
  3
ACAD_GROUP
350
D
  3
ACAD_MLINESTYLE
350
17
  3
ACAD_LAYOUT
350
1A
  3
ACAD_PLOTSETTINGS
350
19
  3
ACAD_PLOTSTYLENAME
350
E
  0
DICTIONARY
  5
D
102
{ACAD_REACTORS
330
C
102
}
100
AcDbDictionary
280
0
281
1
  0
ACDBDICTIONARYWDFLT
  5
E
102
{ACAD_REACTORS
330
C
102
}
100
AcDbDictionary
281
1
  3
Normal
350
F
100
AcDbDictionaryWithDefault
340
F
  0
DICTIONARY
  5
17
102
{ACAD_REACTORS
330
C
102
}
100
AcDbDictionary
280
0
281
1
  3
Standard
350
18
  0
DICTIONARY
  5
19
102
{ACAD_REACTORS
330
C
102
}
100
AcDbDictionary
281
1
  0
DICTIONARY
  5
1A
102
{ACAD_REACTORS
330
C
102
}
100
AcDbDictionary
281
1
  3
Model
350
400
  3
Layout1
350
401
  0
ACDBPLACEHOLDER
  5
F
102
{ACAD_REACTORS
330
E
102
}
  0
MLINESTYLE
  5
18
102
{ACAD_REACTORS
330
17
102
}
100
AcDbMlineStyle
  2
STANDARD
 70
0
  3

 62
256
 51
90.0
 52
90.0
 71
2
 49
0.5
 62
256
  6
BYLAYER
 49
-0.5
 62
256
  6
BYLAYER
  0
LAYOUT
  5
400
102
{ACAD_REACTORS
330
1A
102
}
100
AcDbPlotSettings
  1

  2
none_device
  4

  6

 40
0.0
 41
0.0
 42
0.0
 43
0.0
 44
1500.0
 45
1100.0
 46
0.0
 47
0.0
 48
0.0
 49
0.0
140
0.0
141
0.0
142
1.0
143
1.0
 70
1024
 72
1
 73
0
 74
0
  7

 75
0
147
1.0
148
0.0
149
0.0
100
AcDbLayout
  1
Model
 70
0
 71
0
 10
0.0
 20
0.0
 11
1500.0
 21
1100.0
 12
0.0
 22
0.0
 32
0.0
 14
0.0
 24
0.0
 34
0.0
 15
0.0
 25
0.0
 35
0.0
146
0.0
 13
0.0
 23
0.0
 33
0.0
 16
1.0
 26
0.0
 36
0.0
 17
0.0
 27
1.0
 37
0.0
 76
0
330
1FF
345
0
346
0
  0
LAYOUT
  5
401
102
{ACAD_REACTORS
330
1A
102
}
100
AcDbPlotSettings
  1

  2
none_device
  4

  6

 40
0.0
 41
0.0
 42
0.0
 43
0.0
 44
1500.0
 45
1100.0
 46
0.0
 47
0.0
 48
0.0
 49
0.0
140
0.0
141
0.0
142
1.0
143
1.0
 70
0
 72
1
 73
0
 74
0
  7

 75
0
147
1.0
148
0.0
149
0.0
100
AcDbLayout
  1
Layout1
 70
0
 71
1
 10
0.0
 20
0.0
 11
1500.0
 21
1100.0
 12
0.0
 22
0.0
 32
0.0
 14
0.0
 24
0.0
 34
0.0
 15
0.0
 25
0.0
 35
0.0
146
0.0
 13
0.0
 23
0.0
 33
0.0
 16
1.0
 26
0.0
 36
0.0
 17
0.0
 27
1.0
 37
0.0
 76
0
330
200
345
0
346
0
  0
ENDSEC
  0
EOF
