999
DXF file: S:\Engenharia\Wildfire\Engenharia\Montagens\Coifas\Coifas_Projetos_TEEC\Dritta\Dritta_90\vista_isometrica_dritta90.dxf
999
Pro/ENGINEER 2013050 by Parametric Technology Corporation
  0
SECTION
  2
HEADER
  9
$ACADVER
  1
AC1021
  9
$DWGCODEPAGE
  3
ANSI_1252
  9
$EXTMAX
 10
1500.0
 20
1100.0
 30
0.0
  9
$EXTMIN
 10
0.0
 20
-0.0
 30
0.0
  9
$LIMMIN
 10
0.0
 20
-0.0
  9
$LIMMAX
 10
1500.0
 20
1100.0
  9
$VIEWCTR
 10
750.0
 20
550.0
  9
$VIEWSIZE
 40
1100.0
  9
$CLAYER
  8
0
  9
$LTSCALE
 40
82.5
  9
$CELTYPE
  6
BYLAYER
  9
$DIMSCALE
 40
1.0
  9
$DIMASZ
 40
3.0
  9
$DIMEXO
 40
0.5
  9
$DIMDLI
 40
57.0
  9
$DIMEXE
 40
0.5
  9
$DIMCEN
 40
13.5
  9
$DIMLFAC
 40
1.0
  9
$DIMBLK
  1
_FILLED
  9
$DIMTXT
 40
1.8
  9
$DIMTOL
 70
1
  9
$DIMLIM
 70
0
  9
$DIMTFAC
 40
1.0
  9
$DIMTP
 40
0.001
  9
$DIMTM
 40
0.001
  9
$DIMGAP
 40
0.625
  9
$DIMDSEP
 70
46
  9
$PDMODE
 70
3
  9
$PDSIZE
 40
1.0
  9
$HANDSEED
  5
438
  9
$TILEMODE
 70
1
  9
$MEASUREMENT
 70
1
  9
$INSUNITS
 70
4
  0
ENDSEC
  0
SECTION
  2
CLASSES
  0
CLASS
  1
ACDBDICTIONARYWDFLT
  2
AcDbDictionaryWithDefault
  3
AutoCAD 2000
 90
0
 91
1
280
0
281
0
  0
CLASS
  1
ACDBPLACEHOLDER
  2
AcDbPlaceHolder
  3
AutoCAD 2000
 90
0
 91
1
280
0
281
0
  0
CLASS
  1
LAYOUT
  2
AcDbLayout
  3
AutoCAD 2000
 90
0
 91
0
280
0
281
0
  0
ENDSEC
  0
SECTION
  2
TABLES
  0
TABLE
  2
VPORT
  5
8
100
AcDbSymbolTable
 70
2
  0
VPORT
  5
1F4
100
AcDbSymbolTableRecord
100
AcDbViewportTableRecord
  2
*ACTIVE
 70
0
 10
0.0
 20
0.0
 11
1.0
 21
1.0
 12
750.0
 22
550.0
 13
0.0
 23
0.0
 14
1.0
 24
1.0
 15
0.0
 25
0.0
 16
0.0
 26
0.0
 36
1.0
 17
0.0
 27
0.0
 37
0.0
 40
1100.0
 41
1.3636363636
 42
50.0
 43
0.0
 44
0.0
 50
0.0
 51
0.0
 71
0
 72
100
 73
1
 74
1
 75
0
 76
0
 77
0
 78
0
  0
ENDTAB
  0
TABLE
  2
LTYPE
  5
5
100
AcDbSymbolTable
 70
6
  0
LTYPE
  5
14
100
AcDbSymbolTableRecord
100
AcDbLinetypeTableRecord
  2
BYBLOCK
 70
0
  3

 72
65
 73
0
 40
0.0
  0
LTYPE
  5
15
100
AcDbSymbolTableRecord
100
AcDbLinetypeTableRecord
  2
BYLAYER
 70
0
  3

 72
65
 73
0
 40
0.0
  0
LTYPE
  5
16
100
AcDbSymbolTableRecord
100
AcDbLinetypeTableRecord
  2
CONTINUOUS
 70
64
  3
Solid line
 72
65
 73
0
 40
0.0
  0
LTYPE
  5
1F5
100
AcDbSymbolTableRecord
100
AcDbLinetypeTableRecord
  2
CENTER
 70
64
  3
____ _ ____ _ ____ _ ____ _ ____ _ ____ _ ____
 72
65
 73
4
 40
0.6
 49
0.375
 74
0
 49
-0.075
 74
0
 49
0.075
 74
0
 49
-0.075
 74
0
  0
LTYPE
  5
1F6
100
AcDbSymbolTableRecord
100
AcDbLinetypeTableRecord
  2
HIDDEN
 70
64
  3
- - - - - - - - - - - - - - - - - - - -
 72
65
 73
2
 40
0.2
 49
0.1
 74
0
 49
-0.1
 74
0
  0
LTYPE
  5
1F7
100
AcDbSymbolTableRecord
100
AcDbLinetypeTableRecord
  2
PHANTOM
 70
64
  3
_____ _ _ _____ _ _ _____ _ _ _____
 72
65
 73
6
 40
0.8
 49
0.45
 74
0
 49
-0.05
 74
0
 49
0.1
 74
0
 49
-0.05
 74
0
 49
0.1
 74
0
 49
-0.05
 74
0
  0
LTYPE
  5
1F8
100
AcDbSymbolTableRecord
100
AcDbLinetypeTableRecord
  2
DOT
 70
64
  3
. . . . . . . . . . . . . . . . . . . .
 72
65
 73
2
 40
0.2
 49
0.1
 74
0
 49
-0.1
 74
0
  0
LTYPE
  5
1F9
100
AcDbSymbolTableRecord
100
AcDbLinetypeTableRecord
  2
DASHED
 70
64
  3
- - - - - - - - - - - - - - - - - - - -
 72
65
 73
2
 40
0.2
 49
0.1
 74
0
 49
-0.1
 74
0
  0
ENDTAB
  0
TABLE
  2
LAYER
  5
2
100
AcDbSymbolTable
 70
36
  0
LAYER
  5
10
100
AcDbSymbolTableRecord
100
AcDbLayerTableRecord
  2
0
 70
0
 62
7
  6
CONTINUOUS
370
-3
390
F
  0
LAYER
  5
1FA
100
AcDbSymbolTableRecord
100
AcDbLayerTableRecord
  2
DEFAULT_1
 70
0
 62
7
  6
CENTER
370
-3
390
F
  0
LAYER
  5
1FB
100
AcDbSymbolTableRecord
100
AcDbLayerTableRecord
  2
DEFAULT_2
 70
0
 62
8
  6
HIDDEN
370
-3
390
F
  0
LAYER
  5
1FC
100
AcDbSymbolTableRecord
100
AcDbLayerTableRecord
  2
DEFAULT_3
 70
0
 62
7
  6
PHANTOM
370
-3
390
F
  0
ENDTAB
  0
TABLE
  2
STYLE
  5
3
100
AcDbSymbolTable
 70
1
  0
STYLE
  5
11
100
AcDbSymbolTableRecord
100
AcDbTextStyleTableRecord
  2
STANDARD
 70
0
 40
0.0
 41
0.8
 50
0.0
 71
0
 42
0.2
  3
txt
  4

  0
STYLE
  5
1FD
100
AcDbSymbolTableRecord
100
AcDbTextStyleTableRecord
  2
TEXTSTYLE_1
 70
0
 40
0.0
 41
0.8
 50
0.0
 71
0
 42
0.2
  3
gdt
  4

  0
ENDTAB
  0
TABLE
  2
VIEW
  5
6
100
AcDbSymbolTable
 70
0
  0
ENDTAB
  0
TABLE
  2
UCS
  5
7
100
AcDbSymbolTable
 70
0
  0
ENDTAB
  0
TABLE
  2
APPID
  5
9
100
AcDbSymbolTable
 70
1
  0
APPID
  5
1FE
100
AcDbSymbolTableRecord
100
AcDbRegAppTableRecord
  2
ACAD
 70
0
  0
ENDTAB
  0
TABLE
  2
BLOCK_RECORD
  5
1
100
AcDbSymbolTable
 70
0
  0
BLOCK_RECORD
  5
1FF
100
AcDbSymbolTableRecord
100
AcDbBlockTableRecord
  2
*Model_Space
  0
BLOCK_RECORD
  5
200
100
AcDbSymbolTableRecord
100
AcDbBlockTableRecord
  2
*Paper_Space
  0
BLOCK_RECORD
  5
201
100
AcDbSymbolTableRecord
100
AcDbBlockTableRecord
  2
_FILLED
  0
BLOCK_RECORD
  5
202
100
AcDbSymbolTableRecord
100
AcDbBlockTableRecord
  2
*D0
  0
BLOCK_RECORD
  5
203
100
AcDbSymbolTableRecord
100
AcDbBlockTableRecord
  2
*D1
  0
BLOCK_RECORD
  5
204
100
AcDbSymbolTableRecord
100
AcDbBlockTableRecord
  2
*D2
  0
BLOCK_RECORD
  5
205
100
AcDbSymbolTableRecord
100
AcDbBlockTableRecord
  2
*D3
  0
BLOCK_RECORD
  5
206
100
AcDbSymbolTableRecord
100
AcDbBlockTableRecord
  2
*D4
  0
BLOCK_RECORD
  5
207
100
AcDbSymbolTableRecord
100
AcDbBlockTableRecord
  2
*D5
  0
ENDTAB
  0
TABLE
  2
DIMSTYLE
  5
A
100
AcDbSymbolTable
 70
1
100
AcDbDimStyleTable
 71
0
  0
DIMSTYLE
105
208
100
AcDbSymbolTableRecord
100
AcDbDimStyleTableRecord
  2
STANDARD
 70
0
  3

  4

 40
1.0
 41
3.0
 42
0.5
 43
0.38
 44
0.5
 45
0.0
 46
0.0
 47
0.001
 48
0.001
140
1.8
141
0.09
142
0.0
143
25.4
144
1.0
145
0.0
146
1.0
147
0.625
 71
1.0
 72
0.0
 73
0
 74
0
 75
0
 76
0
 77
1
 78
8
170
0
171
2
172
0
173
0
174
0
175
0
176
0
177
0
178
0
270
2
271
3
272
3
273
2
274
2
275
0
280
0
281
0
282
0
283
1
284
8
285
0
286
0
287
3
288
0
340
11
278
46
341
201
342
201
343
201
344
201
  0
DIMSTYLE
105
209
100
AcDbSymbolTableRecord
100
AcDbDimStyleTableRecord
  2
DIMSTYLE_1
 70
0
  3

  4

 40
1.0
 41
3.0
 42
0.5
 43
0.38
 44
0.5
 45
0.0
 46
0.0
 47
0.8
 48
0.8
140
8.0
141
0.09
142
0.0
143
25.4
144
1.0
145
0.0
146
1.0
147
2.0
 71
0.0
 72
0.0
 73
0
 74
0
 75
0
 76
0
 77
1
 78
8
170
0
171
2
172
0
173
0
174
0
175
0
176
0
177
0
178
0
270
2
271
3
272
3
273
2
274
2
275
0
280
0
281
0
282
0
283
1
284
8
285
0
286
0
287
3
288
0
340
11
278
46
341
201
342
201
343
201
344
201
  0
DIMSTYLE
105
20A
100
AcDbSymbolTableRecord
100
AcDbDimStyleTableRecord
  2
DIMSTYLE_2
 70
0
  3

  4

 40
1.0
 41
3.0
 42
0.5
 43
0.38
 44
0.5
 45
0.0
 46
0.0
 47
0.5
 48
0.5
140
8.0
141
0.09
142
0.0
143
25.4
144
1.0
145
0.0
146
1.0
147
2.0
 71
0.0
 72
0.0
 73
0
 74
0
 75
0
 76
0
 77
1
 78
8
170
0
171
2
172
0
173
0
174
0
175
0
176
0
177
0
178
0
270
2
271
3
272
3
273
2
274
2
275
0
280
0
281
0
282
0
283
1
284
8
285
0
286
0
287
3
288
0
340
11
278
46
341
201
342
201
343
201
344
201
  0
ENDTAB
  0
ENDSEC
  0
SECTION
  2
BLOCKS
  0
BLOCK
  5
20
100
AcDbEntity
  8
0
100
AcDbBlockBegin
  2
*Model_Space
 70
0
 10
0.0
 20
0.0
 30
0.0
  3
*Model_Space
  1

  0
ENDBLK
  5
21
100
AcDbEntity
  8
0
100
AcDbBlockEnd
  0
BLOCK
  5
1C
100
AcDbEntity
  8
0
100
AcDbBlockBegin
  2
*Paper_Space
 70
0
 10
0.0
 20
0.0
 30
0.0
  3
*Paper_Space
  1

  0
ENDBLK
  5
1D
100
AcDbEntity
  8
0
100
AcDbBlockEnd
  0
BLOCK
  5
20B
100
AcDbEntity
  8
0
100
AcDbBlockBegin
  2
_FILLED
 70
64
 10
0.0
 20
0.0
  3
_FILLED
  1

  0
SOLID
  5
20C
100
AcDbEntity
  8
0
  6
BYBLOCK
 62
0
100
AcDbTrace
 10
0.0
 20
0.0
 11
-1.0
 21
0.1666666667
 12
-1.0
 22
-0.1666666667
 13
-1.0
 23
-0.1666666667
  0
ENDBLK
  5
20D
100
AcDbEntity
  8
0
  6
BYBLOCK
 62
0
100
AcDbBlockEnd
  0
BLOCK
  5
20E
100
AcDbEntity
  8
0
100
AcDbBlockBegin
 62
2
  6
CONTINUOUS
  2
*D0
 70
65
 10
0.0
 20
0.0
  3
*D0
  1

  0
MTEXT
  5
20F
100
AcDbEntity
  8
0
100
AcDbMText
 62
2
  6
CONTINUOUS
  7
STANDARD
 71
2
 72
1
 10
116.9429681659
 20
553.8395252858
 30
0.0
 11
0.0
 21
1.0
 31
0.0
 44
0.9
  1
540 - 1020
 40
8.0
 41
123.4285714286
  0
LINE
  5
210
100
AcDbEntity
  8
0
100
AcDbLine
 62
2
  6
CONTINUOUS
 10
249.6264603394
 20
319.1815217421
 11
127.8871012965
 21
288.0775864877
  0
LINE
  5
211
100
AcDbEntity
  8
0
100
AcDbLine
 62
2
  6
CONTINUOUS
 10
452.3539745056
 20
902.2539506803
 11
127.8871012965
 21
819.3539198619
  0
LINE
  5
212
100
AcDbEntity
  8
0
100
AcDbLine
 62
2
  6
CONTINUOUS
 10
128.3715395944
 20
288.2013585987
 11
128.3715395944
 21
553.8395252858
  0
LINE
  5
213
100
AcDbEntity
  8
0
100
AcDbLine
 62
2
  6
CONTINUOUS
 10
128.3715395944
 20
819.4776919728
 11
128.3715395944
 21
553.8395252858
  0
INSERT
  5
214
100
AcDbEntity
  8
0
100
AcDbBlockReference
 62
2
  6
CONTINUOUS
  2
_FILLED
 10
128.3715395944
 20
288.2013585987
 41
3.0
 42
3.0
 43
3.0
 50
270.0
  0
INSERT
  5
215
100
AcDbEntity
  8
0
100
AcDbBlockReference
 62
2
  6
CONTINUOUS
  2
_FILLED
 10
128.3715395944
 20
819.4776919728
 41
3.0
 42
3.0
 43
3.0
 50
90.0
  0
ENDBLK
  5
216
100
AcDbEntity
  8
0
  6
BYBLOCK
 62
0
100
AcDbBlockEnd
  0
BLOCK
  5
217
100
AcDbEntity
  8
0
100
AcDbBlockBegin
 62
2
  6
CONTINUOUS
  2
*D1
 70
65
 10
0.0
 20
0.0
  3
*D1
  1

  0
MTEXT
  5
218
100
AcDbEntity
  8
0
100
AcDbMText
 62
2
  6
CONTINUOUS
  7
STANDARD
 71
2
 72
1
 10
184.2043822231
 20
594.4226163051
 30
0.0
 11
0.0
 21
1.0
 31
0.0
 44
0.9
  1
490 - 970
 40
8.0
 41
111.0857142857
  0
LINE
  5
219
100
AcDbEntity
  8
0
100
AcDbLine
 62
2
  6
CONTINUOUS
 10
247.8229462761
 20
366.1728006314
 11
195.148762516
 21
352.6030758316
  0
LINE
  5
21A
100
AcDbEntity
  8
0
100
AcDbLine
 62
2
  6
CONTINUOUS
 10
452.3542216679
 20
902.2529872948
 11
195.148762516
 21
835.9926857857
  0
LINE
  5
21B
100
AcDbEntity
  8
0
100
AcDbLine
 62
2
  6
CONTINUOUS
 10
195.6329536517
 20
352.7278113281
 11
195.6329536517
 21
594.4226163051
  0
LINE
  5
21C
100
AcDbEntity
  8
0
100
AcDbLine
 62
2
  6
CONTINUOUS
 10
195.6329536517
 20
836.1174212821
 11
195.6329536517
 21
594.4226163051
  0
INSERT
  5
21D
100
AcDbEntity
  8
0
100
AcDbBlockReference
 62
2
  6
CONTINUOUS
  2
_FILLED
 10
195.6329536517
 20
352.7278113281
 41
3.0
 42
3.0
 43
3.0
 50
270.0
  0
INSERT
  5
21E
100
AcDbEntity
  8
0
100
AcDbBlockReference
 62
2
  6
CONTINUOUS
  2
_FILLED
 10
195.6329536517
 20
836.1174212821
 41
3.0
 42
3.0
 43
3.0
 50
90.0
  0
ENDBLK
  5
21F
100
AcDbEntity
  8
0
  6
BYBLOCK
 62
0
100
AcDbBlockEnd
  0
BLOCK
  5
220
100
AcDbEntity
  8
0
100
AcDbBlockBegin
 62
2
  6
CONTINUOUS
  2
*D2
 70
65
 10
0.0
 20
0.0
  3
*D2
  1

  0
MTEXT
  5
221
100
AcDbEntity
  8
0
100
AcDbMText
 62
2
  6
CONTINUOUS
  7
STANDARD
 71
2
 72
1
 10
482.8761860457
 20
964.6636464647
 30
0.0
 11
0.9681003459
 21
0.2505628071
 31
0.0
 44
0.9
  1
300
 40
8.0
 41
37.0285714286
  0
LINE
  5
222
100
AcDbEntity
  8
0
100
AcDbLine
 62
2
  6
CONTINUOUS
 10
452.354496336
 20
902.5035196608
 11
370.0327945219
 21
923.9035196079
  0
LINE
  5
223
100
AcDbEntity
  8
0
100
AcDbLine
 62
2
  6
CONTINUOUS
 10
682.8005963247
 20
962.1473592074
 11
600.4788945106
 21
983.5473591545
  0
LINE
  5
224
100
AcDbEntity
  8
0
100
AcDbLine
 62
2
  6
CONTINUOUS
 10
370.5167109895
 20
923.7777227383
 11
485.7397609838
 21
953.5996425117
  0
LINE
  5
225
100
AcDbEntity
  8
0
100
AcDbLine
 62
2
  6
CONTINUOUS
 10
600.9628109782
 20
983.421562285
 11
485.7397609838
 21
953.5996425117
  0
INSERT
  5
226
100
AcDbEntity
  8
0
100
AcDbBlockReference
 62
2
  6
CONTINUOUS
  2
_FILLED
 10
370.5167109895
 20
923.7777227383
 41
3.0
 42
3.0
 43
3.0
 50
194.5108186991
  0
INSERT
  5
227
100
AcDbEntity
  8
0
100
AcDbBlockReference
 62
2
  6
CONTINUOUS
  2
_FILLED
 10
600.9628109782
 20
983.421562285
 41
3.0
 42
3.0
 43
3.0
 50
14.5108186991
  0
ENDBLK
  5
228
100
AcDbEntity
  8
0
  6
BYBLOCK
 62
0
100
AcDbBlockEnd
  0
BLOCK
  5
229
100
AcDbEntity
  8
0
100
AcDbBlockBegin
 62
2
  6
CONTINUOUS
  2
*D3
 70
65
 10
0.0
 20
0.0
  3
*D3
  1

  0
MTEXT
  5
22A
100
AcDbEntity
  8
0
100
AcDbMText
 62
2
  6
CONTINUOUS
  7
STANDARD
 71
2
 72
1
 10
884.4438125991
 20
973.5701632054
 30
0.0
 11
0.9681003459
 21
-0.2505628071
 31
0.0
 44
0.9
  1
273
 40
8.0
 41
37.0285714286
  0
LINE
  5
22B
100
AcDbEntity
  8
0
100
AcDbLine
 62
2
  6
CONTINUOUS
 10
683.7684519436
 20
962.1472719152
 11
783.6702682102
 21
988.0980862979
  0
LINE
  5
22C
100
AcDbEntity
  8
0
100
AcDbLine
 62
2
  6
CONTINUOUS
 10
880.5562691478
 20
911.2148369786
 11
980.4580854144
 21
937.1656513613
  0
LINE
  5
22D
100
AcDbEntity
  8
0
100
AcDbLine
 62
2
  6
CONTINUOUS
 10
783.1863290588
 20
987.9723767207
 11
881.580237661
 21
962.5061592524
  0
LINE
  5
22E
100
AcDbEntity
  8
0
100
AcDbLine
 62
2
  6
CONTINUOUS
 10
979.9741462631
 20
937.0399417841
 11
881.580237661
 21
962.5061592524
  0
INSERT
  5
22F
100
AcDbEntity
  8
0
100
AcDbBlockReference
 62
2
  6
CONTINUOUS
  2
_FILLED
 10
783.1863290588
 20
987.9723767207
 41
3.0
 42
3.0
 43
3.0
 50
165.4891813009
  0
INSERT
  5
230
100
AcDbEntity
  8
0
100
AcDbBlockReference
 62
2
  6
CONTINUOUS
  2
_FILLED
 10
979.9741462631
 20
937.0399417841
 41
3.0
 42
3.0
 43
3.0
 50
345.4891813009
  0
ENDBLK
  5
231
100
AcDbEntity
  8
0
  6
BYBLOCK
 62
0
100
AcDbBlockEnd
  0
BLOCK
  5
232
100
AcDbEntity
  8
0
100
AcDbBlockBegin
 62
2
  6
CONTINUOUS
  2
*D4
 70
65
 10
0.0
 20
0.0
  3
*D4
  1

  0
MTEXT
  5
233
100
AcDbEntity
  8
0
100
AcDbMText
 62
2
  6
CONTINUOUS
  7
STANDARD
 71
2
 72
1
 10
1077.4536808723
 20
279.9309404891
 30
0.0
 11
0.9681003459
 21
0.2505628071
 31
0.0
 44
0.9
  1
900
 40
8.0
 41
37.0285714286
  0
LINE
  5
234
100
AcDbEntity
  8
0
100
AcDbLine
 62
2
  6
CONTINUOUS
 10
1238.9888734854
 20
391.9827202828
 11
1398.1508953125
 21
350.8780107624
  0
LINE
  5
235
100
AcDbEntity
  8
0
100
AcDbLine
 62
2
  6
CONTINUOUS
 10
604.2898266924
 20
227.7105190644
 11
763.4518485194
 21
186.6058095439
  0
LINE
  5
236
100
AcDbEntity
  8
0
100
AcDbLine
 62
2
  6
CONTINUOUS
 10
1397.666779207
 20
351.0030371453
 11
1080.3172558105
 21
268.8669365361
  0
LINE
  5
237
100
AcDbEntity
  8
0
100
AcDbLine
 62
2
  6
CONTINUOUS
 10
762.9677324139
 20
186.7308359269
 11
1080.3172558105
 21
268.8669365361
  0
INSERT
  5
238
100
AcDbEntity
  8
0
100
AcDbBlockReference
 62
2
  6
CONTINUOUS
  2
_FILLED
 10
1397.666779207
 20
351.0030371453
 41
3.0
 42
3.0
 43
3.0
 50
14.5108186991
  0
INSERT
  5
239
100
AcDbEntity
  8
0
100
AcDbBlockReference
 62
2
  6
CONTINUOUS
  2
_FILLED
 10
762.9677324139
 20
186.7308359269
 41
3.0
 42
3.0
 43
3.0
 50
194.5108186991
  0
ENDBLK
  5
23A
100
AcDbEntity
  8
0
  6
BYBLOCK
 62
0
100
AcDbBlockEnd
  0
BLOCK
  5
23B
100
AcDbEntity
  8
0
100
AcDbBlockBegin
 62
2
  6
CONTINUOUS
  2
*D5
 70
65
 10
0.0
 20
0.0
  3
*D5
  1

  0
MTEXT
  5
23C
100
AcDbEntity
  8
0
100
AcDbMText
 62
2
  6
CONTINUOUS
  7
STANDARD
 71
2
 72
1
 10
306.3571632874
 20
252.8131882274
 30
0.0
 11
0.9681003459
 21
-0.2505628071
 31
0.0
 44
0.9
  1
500
 40
8.0
 41
37.0285714286
  0
LINE
  5
23D
100
AcDbEntity
  8
0
100
AcDbLine
 62
2
  6
CONTINUOUS
 10
603.1801119711
 20
227.6741535591
 11
479.7861063863
 21
195.8712194535
  0
LINE
  5
23E
100
AcDbEntity
  8
0
100
AcDbLine
 62
2
  6
CONTINUOUS
 10
249.6267213778
 20
319.1805045052
 11
126.2327157931
 21
287.3775703996
  0
LINE
  5
23F
100
AcDbEntity
  8
0
100
AcDbLine
 62
2
  6
CONTINUOUS
 10
480.2702836459
 20
195.9960088013
 11
303.4935883493
 21
241.7491842744
  0
LINE
  5
240
100
AcDbEntity
  8
0
100
AcDbLine
 62
2
  6
CONTINUOUS
 10
126.7168930526
 20
287.5023597474
 11
303.4935883493
 21
241.7491842744
  0
INSERT
  5
241
100
AcDbEntity
  8
0
100
AcDbBlockReference
 62
2
  6
CONTINUOUS
  2
_FILLED
 10
480.2702836459
 20
195.9960088013
 41
3.0
 42
3.0
 43
3.0
 50
345.4891813009
  0
INSERT
  5
242
100
AcDbEntity
  8
0
100
AcDbBlockReference
 62
2
  6
CONTINUOUS
  2
_FILLED
 10
126.7168930526
 20
287.5023597474
 41
3.0
 42
3.0
 43
3.0
 50
165.4891813009
  0
ENDBLK
  5
243
100
AcDbEntity
  8
0
  6
BYBLOCK
 62
0
100
AcDbBlockEnd
  0
ENDSEC
  0
SECTION
  2
ENTITIES
  0
DIMENSION
  5
244
100
AcDbEntity
  8
0
100
AcDbDimension
 62
2
  6
CONTINUOUS
  2
*D0
 10
128.3715395944
 20
819.4776919728
 11
128.3715395944
 21
553.8395252858
 70
160
 71
2
 42
583.0724289382
  1
<> - 1020
  3
DIMSTYLE_1
100
AcDbAlignedDimension
 13
250.1264603394
 23
319.1815217421
 14
452.8539745056
 24
902.2539506803
 50
90.0
100
AcDbRotatedDimension
  0
DIMENSION
  5
245
100
AcDbEntity
  8
0
100
AcDbDimension
 62
2
  6
CONTINUOUS
  2
*D1
 10
195.6329536517
 20
836.1174212821
 11
195.6329536517
 21
594.4226163051
 70
160
 71
2
 42
536.0801866634
  1
<> - 970
  3
DIMSTYLE_1
100
AcDbAlignedDimension
 13
248.3229462761
 23
366.1728006314
 14
452.8542216679
 24
902.2529872948
 50
90.0
100
AcDbRotatedDimension
  0
DIMENSION
  5
246
100
AcDbEntity
  8
0
100
AcDbDimension
 62
2
  6
CONTINUOUS
  2
*D2
 10
600.9628109782
 20
983.421562285
 11
485.7397609838
 21
953.5996425117
 70
160
 71
2
 42
238.0394769694
  3
DIMSTYLE_2
100
AcDbAlignedDimension
 13
452.4797777395
 23
902.0194694878
 14
682.9258777282
 24
961.6633090345
 50
14.5108186991
100
AcDbRotatedDimension
  0
DIMENSION
  5
247
100
AcDbEntity
  8
0
100
AcDbDimension
 62
2
  6
CONTINUOUS
  2
*D3
 10
979.9741462631
 20
937.0399417841
 11
881.580237661
 21
962.5061592524
 70
160
 71
2
 42
203.2721277711
  3
DIMSTYLE_2
100
AcDbAlignedDimension
 13
683.6431705401
 23
961.6632217422
 14
880.4309877443
 24
910.7307868056
 50
345.4891813009
100
AcDbRotatedDimension
  0
DIMENSION
  5
248
100
AcDbEntity
  8
0
100
AcDbDimension
 62
2
  6
CONTINUOUS
  2
*D4
 10
762.9677324139
 20
186.7308359269
 11
1080.3172558105
 21
268.8669365361
 70
160
 71
2
 42
655.6128705975
  3
DIMSTYLE_1
100
AcDbAlignedDimension
 13
1238.8635920819
 23
392.4667704558
 14
604.1645452888
 24
228.1945692373
 50
194.5108186991
100
AcDbRotatedDimension
  0
DIMENSION
  5
249
100
AcDbEntity
  8
0
100
AcDbDimension
 62
2
  6
CONTINUOUS
  2
*D5
 10
126.7168930526
 20
287.5023597474
 11
303.4935883493
 21
241.7491842744
 70
160
 71
2
 42
365.2032478819
  3
DIMSTYLE_2
100
AcDbAlignedDimension
 13
603.3053933747
 23
228.1582037321
 14
249.7520027814
 24
319.6645546782
 50
165.4891813009
100
AcDbRotatedDimension
  0
LINE
  5
24A
100
AcDbEntity
  8
0
100
AcDbLine
 62
7
  6
CONTINUOUS
 10
250.1108986374
 20
365.8306883699
 11
250.1108986374
 21
320.238989369
  0
LINE
  5
24B
100
AcDbEntity
  8
0
100
AcDbLine
 62
7
  6
CONTINUOUS
 10
603.1741173032
 20
227.9258087371
 11
250.7500602011
 21
319.1398666674
  0
LINE
  5
24C
100
AcDbEntity
  8
0
100
AcDbLine
 62
7
  6
CONTINUOUS
 10
603.240025162
 20
228.8424460441
 11
250.1108986374
 21
320.238989369
  0
LINE
  5
24D
100
AcDbEntity
  8
0
100
AcDbLine
 62
7
  6
CONTINUOUS
 10
603.3814465182
 20
228.8790485844
 11
603.8057105869
 21
228.7692409633
  0
LINE
  5
24E
100
AcDbEntity
  8
0
100
AcDbLine
 62
7
  6
CONTINUOUS
 10
603.8423021805
 20
228.3074163484
 11
603.4492361715
 21
228.6272822857
  0
LINE
  5
24F
100
AcDbEntity
  8
0
100
AcDbLine
 62
7
  6
CONTINUOUS
 10
603.5122120061
 20
228.5607019992
 11
603.5547487327
 21
228.5131157248
  0
LINE
  5
250
100
AcDbEntity
  8
0
100
AcDbLine
 62
7
  6
CONTINUOUS
 10
603.5547487327
 20
228.5131157248
 11
603.5926716446
 21
228.4663461946
  0
LINE
  5
251
100
AcDbEntity
  8
0
100
AcDbLine
 62
7
  6
CONTINUOUS
 10
603.5926716446
 20
228.4663461946
 11
603.6257520989
 21
228.4214283039
  0
LINE
  5
252
100
AcDbEntity
  8
0
100
AcDbLine
 62
7
  6
CONTINUOUS
 10
453.4183117909
 20
419.4148096467
 11
453.4183117909
 21
902.2313126297
  0
LINE
  5
253
100
AcDbEntity
  8
0
100
AcDbLine
 62
7
  6
CONTINUOUS
 10
453.8283622972
 20
419.1585918641
 11
453.8283622972
 21
902.1215050086
  0
LINE
  5
254
100
AcDbEntity
  8
0
100
AcDbLine
 62
7
  6
CONTINUOUS
 10
454.252626366
 20
902.2313126297
 11
454.252626366
 21
902.5241329528
  0
LINE
  5
255
100
AcDbEntity
  8
0
100
AcDbLine
 62
7
  6
CONTINUOUS
 10
459.8387699373
 20
900.7855122848
 11
459.8387699373
 21
903.9699332977
  0
LINE
  5
256
100
AcDbEntity
  8
0
100
AcDbLine
 62
7
  6
CONTINUOUS
 10
460.9701407872
 20
900.4926919618
 11
460.9701407872
 21
903.9699332977
  0
LINE
  5
257
100
AcDbEntity
  8
0
100
AcDbLine
 62
7
  6
CONTINUOUS
 10
461.8493311526
 20
416.295657746
 11
461.8493311526
 21
416.2590552056
  0
LINE
  5
258
100
AcDbEntity
  8
0
100
AcDbLine
 62
7
  6
CONTINUOUS
 10
462.8392806462
 20
416.1332748878
 11
462.8392806462
 21
416.5518755286
  0
LINE
  5
259
100
AcDbEntity
  8
0
100
AcDbLine
 62
7
  6
CONTINUOUS
 10
463.833923251
 20
416.5689621323
 11
463.833923251
 21
415.8758424387
  0
LINE
  5
25A
100
AcDbEntity
  8
0
100
AcDbLine
 62
7
  6
CONTINUOUS
 10
464.0724008821
 20
415.8141198859
 11
464.0724008821
 21
416.5072395795
  0
LINE
  5
25B
100
AcDbEntity
  8
0
100
AcDbLine
 62
7
  6
CONTINUOUS
 10
464.5410300322
 20
415.6928297368
 11
464.5410300322
 21
416.3859494304
  0
LINE
  5
25C
100
AcDbEntity
  8
0
100
AcDbLine
 62
7
  6
CONTINUOUS
 10
469.8796862302
 20
899.7321216013
 11
469.8796862302
 21
898.1867319179
  0
LINE
  5
25D
100
AcDbEntity
  8
0
100
AcDbLine
 62
7
  6
CONTINUOUS
 10
470.3039502989
 20
899.8419292224
 11
470.3039502989
 21
898.0769242968
  0
LINE
  5
25E
100
AcDbEntity
  8
0
100
AcDbLine
 62
7
  6
CONTINUOUS
 10
1237.1984674744
 20
391.7696539598
 11
603.833677365
 21
227.8427837821
  0
LINE
  5
25F
100
AcDbEntity
  8
0
100
AcDbLine
 62
7
  6
CONTINUOUS
 10
1238.50475738
 20
393.0414421818
 11
603.8057105869
 21
228.7692409633
  0
LINE
  5
260
100
AcDbEntity
  8
0
100
AcDbLine
 62
7
  6
CONTINUOUS
 10
603.3814465182
 20
228.8790485844
 11
603.240025162
 21
228.8424460441
  0
LINE
  5
261
100
AcDbEntity
  8
0
100
AcDbLine
 62
2
  6
CONTINUOUS
 10
640.7873952428
 20
256.3070256416
 11
672.6072003942
 21
264.5425972262
  0
LINE
  5
262
100
AcDbEntity
  8
0
100
AcDbLine
 62
7
  6
CONTINUOUS
 10
603.3814465182
 20
273.5847750001
 11
603.8057105869
 21
273.474967379
  0
LINE
  5
263
100
AcDbEntity
  8
0
100
AcDbLine
 62
7
  6
CONTINUOUS
 10
603.2215962127
 20
274.4389148079
 11
250.1108986374
 21
365.8306883699
  0
LINE
  5
264
100
AcDbEntity
  8
0
100
AcDbLine
 62
7
  6
CONTINUOUS
 10
603.5230984297
 20
274.5074097977
 11
603.9473624984
 21
274.3976021766
  0
LINE
  5
265
100
AcDbEntity
  8
0
100
AcDbLine
 62
7
  6
CONTINUOUS
 10
603.4193402564
 20
276.2524666055
 11
252.0907976247
 21
367.1829845267
  0
LINE
  5
266
100
AcDbEntity
  8
0
100
AcDbLine
 62
7
  6
CONTINUOUS
 10
603.6257520989
 20
228.4214283039
 11
603.6541158877
 21
228.3790472602
  0
LINE
  5
267
100
AcDbEntity
  8
0
100
AcDbLine
 62
7
  6
CONTINUOUS
 10
603.6541158877
 20
228.3790472602
 11
603.6779463522
 21
228.3398400044
  0
LINE
  5
268
100
AcDbEntity
  8
0
100
AcDbLine
 62
7
  6
CONTINUOUS
 10
603.6779463522
 20
228.3398400044
 11
603.6974133935
 21
228.3045112744
  0
LINE
  5
269
100
AcDbEntity
  8
0
100
AcDbLine
 62
7
  6
CONTINUOUS
 10
603.6974133935
 20
228.3045112744
 11
603.7127476278
 21
228.2737230691
  0
LINE
  5
26A
100
AcDbEntity
  8
0
100
AcDbLine
 62
7
  6
CONTINUOUS
 10
603.7127476278
 20
228.2737230691
 11
603.7242195953
 21
228.2481246829
  0
LINE
  5
26B
100
AcDbEntity
  8
0
100
AcDbLine
 62
7
  6
CONTINUOUS
 10
603.7242195953
 20
228.2481246829
 11
603.7321390976
 21
228.2283634452
  0
LINE
  5
26C
100
AcDbEntity
  8
0
100
AcDbLine
 62
7
  6
CONTINUOUS
 10
500.6315953548
 20
406.3519040828
 11
500.6315953548
 21
406.5429275084
  0
LINE
  5
26D
100
AcDbEntity
  8
0
100
AcDbLine
 62
2
  6
CONTINUOUS
 10
671.8068439064
 20
266.7454346608
 11
671.1280213964
 21
266.569742467
  0
LINE
  5
26E
100
AcDbEntity
  8
0
100
AcDbLine
 62
2
  6
CONTINUOUS
 10
669.344344541
 20
266.1080929265
 11
668.6655220311
 21
265.9324007327
  0
LINE
  5
26F
100
AcDbEntity
  8
0
100
AcDbLine
 62
2
  6
CONTINUOUS
 10
650.6599317329
 20
261.2722110452
 11
649.981109223
 21
261.0965188514
  0
LINE
  5
270
100
AcDbEntity
  8
0
100
AcDbLine
 62
2
  6
CONTINUOUS
 10
648.1974323676
 20
260.6348693109
 11
647.5186098576
 21
260.4591771171
  0
LINE
  5
271
100
AcDbEntity
  8
0
100
AcDbLine
 62
2
  6
CONTINUOUS
 10
642.9931264583
 20
259.287895825
 11
643.6896266377
 21
259.4681633364
  0
LINE
  5
272
100
AcDbEntity
  8
0
100
AcDbLine
 62
2
  6
CONTINUOUS
 10
644.8788918553
 20
259.7759678244
 11
645.5745081512
 21
259.9560065698
  0
LINE
  5
273
100
AcDbEntity
  8
0
100
AcDbLine
 62
2
  6
CONTINUOUS
 10
646.4203846381
 20
260.1749355144
 11
647.1928987966
 21
260.3748768913
  0
LINE
  5
274
100
AcDbEntity
  8
0
100
AcDbLine
 62
2
  6
CONTINUOUS
 10
650.9295161932
 20
261.3419846378
 11
651.609323788
 21
261.5179317903
  0
LINE
  5
275
100
AcDbEntity
  8
0
100
AcDbLine
 62
2
  6
CONTINUOUS
 10
652.6371977183
 20
261.7839651394
 11
653.0463554987
 21
261.8898629654
  0
LINE
  5
276
100
AcDbEntity
  8
0
100
AcDbLine
 62
2
  6
CONTINUOUS
 10
654.0828195235
 20
262.1581195946
 11
654.7620349471
 21
262.333913482
  0
LINE
  5
277
100
AcDbEntity
  8
0
100
AcDbLine
 62
2
  6
CONTINUOUS
 10
658.3921443847
 20
263.2734549403
 11
659.0877606806
 21
263.4534936857
  0
LINE
  5
278
100
AcDbEntity
  8
0
100
AcDbLine
 62
2
  6
CONTINUOUS
 10
660.5063936603
 20
263.8206629189
 11
661.2020099562
 21
264.0007016643
  0
LINE
  5
279
100
AcDbEntity
  8
0
100
AcDbLine
 62
2
  6
CONTINUOUS
 10
662.3316130391
 20
264.2930644556
 11
663.0281132186
 21
264.473331967
  0
LINE
  5
27A
100
AcDbEntity
  8
0
100
AcDbLine
 62
2
  6
CONTINUOUS
 10
664.2182623195
 20
264.7813652208
 11
664.9138786154
 21
264.9614039663
  0
LINE
  5
27B
100
AcDbEntity
  8
0
100
AcDbLine
 62
2
  6
CONTINUOUS
 10
665.5029869524
 20
265.1138764235
 11
666.1986032484
 21
265.293915169
  0
LINE
  5
27C
100
AcDbEntity
  8
0
100
AcDbLine
 62
2
  6
CONTINUOUS
 10
667.617236228
 20
265.6610844021
 11
668.312852524
 21
265.8411231476
  0
LINE
  5
27D
100
AcDbEntity
  8
0
100
AcDbLine
 62
2
  6
CONTINUOUS
 10
670.8774404308
 20
267.3754279916
 11
669.5949255065
 21
267.0434887035
  0
LINE
  5
27E
100
AcDbEntity
  8
0
100
AcDbLine
 62
2
  6
CONTINUOUS
 10
649.7305282574
 20
261.902204376
 11
648.4480133331
 21
261.5702650879
  0
LINE
  5
27F
100
AcDbEntity
  8
0
100
AcDbLine
 62
2
  6
CONTINUOUS
 10
670.6529340278
 20
268.0997213779
 11
669.8194319096
 21
267.8839951556
  0
LINE
  5
280
100
AcDbEntity
  8
0
100
AcDbLine
 62
2
  6
CONTINUOUS
 10
649.5060218543
 20
262.6264977623
 11
648.672519736
 21
262.41077154
  0
LINE
  5
281
100
AcDbEntity
  8
0
100
AcDbLine
 62
2
  6
CONTINUOUS
 10
645.5745081512
 20
262.3684063208
 11
645.7981306707
 21
262.4262840878
  0
LINE
  5
282
100
AcDbEntity
  8
0
100
AcDbLine
 62
2
  6
CONTINUOUS
 10
646.0244048407
 20
263.6330924783
 11
645.5745081512
 21
263.5166506467
  0
LINE
  5
283
100
AcDbEntity
  8
0
100
AcDbLine
 62
2
  6
CONTINUOUS
 10
642.2466868624
 20
262.6565545257
 11
642.9931264583
 21
262.8497473092
  0
LINE
  5
284
100
AcDbEntity
  8
0
100
AcDbLine
 62
2
  6
CONTINUOUS
 10
643.6896266377
 20
263.0300148205
 11
644.4360662335
 21
263.2232076039
  0
LINE
  5
285
100
AcDbEntity
  8
0
100
AcDbLine
 62
2
  6
CONTINUOUS
 10
661.5851734433
 20
267.6617231563
 11
662.3316130391
 21
267.8549159397
  0
LINE
  5
286
100
AcDbEntity
  8
0
100
AcDbLine
 62
2
  6
CONTINUOUS
 10
663.0281132186
 20
268.0351834511
 11
663.7745528144
 21
268.2283762345
  0
LINE
  5
287
100
AcDbEntity
  8
0
100
AcDbLine
 62
2
  6
CONTINUOUS
 10
642.2466868624
 20
263.4437840742
 11
644.4360662335
 21
264.0104371524
  0
LINE
  5
288
100
AcDbEntity
  8
0
100
AcDbLine
 62
2
  6
CONTINUOUS
 10
644.8788918553
 20
264.1250488569
 11
646.0685990145
 21
264.4329677278
  0
LINE
  5
289
100
AcDbEntity
  8
0
100
AcDbLine
 62
2
  6
CONTINUOUS
 10
648.7675372098
 20
265.1315043343
 11
649.4110043807
 21
265.2980458931
  0
LINE
  5
28A
100
AcDbEntity
  8
0
100
AcDbLine
 62
2
  6
CONTINUOUS
 10
651.4510074443
 20
265.826037538
 11
652.155462575
 21
266.0083639422
  0
LINE
  5
28B
100
AcDbEntity
  8
0
100
AcDbLine
 62
2
  6
CONTINUOUS
 10
653.5537662348
 20
266.3702715602
 11
654.2582213655
 21
266.5525979645
  0
LINE
  5
28C
100
AcDbEntity
  8
0
100
AcDbLine
 62
2
  6
CONTINUOUS
 10
658.3921443847
 20
267.6225359728
 11
659.0877606806
 21
267.8025747183
  0
LINE
  5
28D
100
AcDbEntity
  8
0
100
AcDbLine
 62
2
  6
CONTINUOUS
 10
660.5063936603
 20
268.1697439514
 11
661.2020099562
 21
268.3497826969
  0
LINE
  5
28E
100
AcDbEntity
  8
0
100
AcDbLine
 62
2
  6
CONTINUOUS
 10
661.5851734433
 20
268.4489527048
 11
663.7745528144
 21
269.015605783
  0
LINE
  5
28F
100
AcDbEntity
  8
0
100
AcDbLine
 62
2
  6
CONTINUOUS
 10
664.2182623195
 20
269.1304462534
 11
664.9138786154
 21
269.3104849988
  0
LINE
  5
290
100
AcDbEntity
  8
0
100
AcDbLine
 62
2
  6
CONTINUOUS
 10
665.5029869524
 20
269.4629574561
 11
666.1986032484
 21
269.6429962016
  0
LINE
  5
291
100
AcDbEntity
  8
0
100
AcDbLine
 62
2
  6
CONTINUOUS
 10
667.617236228
 20
270.0101654347
 11
668.312852524
 21
270.1902041802
  0
LINE
  5
292
100
AcDbEntity
  8
0
100
AcDbLine
 62
2
  6
CONTINUOUS
 10
669.9144493833
 20
270.6047279499
 11
670.5579165542
 21
270.7712695087
  0
LINE
  5
293
100
AcDbEntity
  8
0
100
AcDbLine
 62
2
  6
CONTINUOUS
 10
640.7873952428
 20
265.9662839037
 11
672.6072003942
 21
274.2018554883
  0
LINE
  5
294
100
AcDbEntity
  8
0
100
AcDbLine
 62
7
  6
CONTINUOUS
 10
603.439712963
 20
274.174970027
 11
603.240025162
 21
274.123287021
  0
LINE
  5
295
100
AcDbEntity
  8
0
100
AcDbLine
 62
7
  6
CONTINUOUS
 10
1238.3631054685
 20
438.5964789701
 11
603.9473624984
 21
274.3976021766
  0
LINE
  5
296
100
AcDbEntity
  8
0
100
AcDbLine
 62
7
  6
CONTINUOUS
 10
603.5207844274
 20
274.516350416
 11
603.2215962127
 21
274.4389148079
  0
LINE
  5
297
100
AcDbEntity
  8
0
100
AcDbLine
 62
7
  6
CONTINUOUS
 10
1236.2420156802
 20
439.9122322586
 11
604.0885532994
 21
276.298876767
  0
LINE
  5
298
100
AcDbEntity
  8
0
100
AcDbLine
 62
7
  6
CONTINUOUS
 10
603.556841591
 20
274.601249129
 11
603.2144821605
 21
274.5499647547
  0
LINE
  5
299
100
AcDbEntity
  8
0
100
AcDbLine
 62
7
  6
CONTINUOUS
 10
500.0393873271
 20
406.8604179755
 11
500.3967064232
 21
406.7317145835
  0
LINE
  5
29A
100
AcDbEntity
  8
0
100
AcDbLine
 62
7
  6
CONTINUOUS
 10
558.8883491914
 20
391.6291858605
 11
559.2456682874
 21
391.5004824685
  0
LINE
  5
29B
100
AcDbEntity
  8
0
100
AcDbLine
 62
7
  6
CONTINUOUS
 10
631.8794466794
 20
372.7376997077
 11
632.2367657754
 21
372.6089963157
  0
LINE
  5
29C
100
AcDbEntity
  8
0
100
AcDbLine
 62
2
  6
CONTINUOUS
 10
647.1928987966
 20
260.3748768913
 11
646.2531029608
 21
261.9680315115
  0
LINE
  5
29D
100
AcDbEntity
  8
0
100
AcDbLine
 62
2
  6
CONTINUOUS
 10
646.4203846381
 20
260.1749355144
 11
645.5745081512
 21
261.6101545471
  0
LINE
  5
29E
100
AcDbEntity
  8
0
100
AcDbLine
 62
2
  6
CONTINUOUS
 10
659.0877606806
 20
266.3428193134
 11
660.5063936603
 21
263.8206629189
  0
LINE
  5
29F
100
AcDbEntity
  8
0
100
AcDbLine
 62
2
  6
CONTINUOUS
 10
660.5063936603
 20
265.2804183238
 11
659.0877606806
 21
267.8025747183
  0
LINE
  5
2A0
100
AcDbEntity
  8
0
100
AcDbLine
 62
2
  6
CONTINUOUS
 10
666.1986032484
 20
268.1832407967
 11
667.617236228
 21
265.6610844021
  0
LINE
  5
2A1
100
AcDbEntity
  8
0
100
AcDbLine
 62
2
  6
CONTINUOUS
 10
667.617236228
 20
267.120839807
 11
666.1986032484
 21
269.6429962016
  0
LINE
  5
2A2
100
AcDbEntity
  8
0
100
AcDbLine
 62
7
  6
CONTINUOUS
 10
603.5700544494
 20
275.3841923553
 11
603.3580526023
 21
275.831334859
  0
LINE
  5
2A3
100
AcDbEntity
  8
0
100
AcDbLine
 62
7
  6
CONTINUOUS
 10
603.550732411
 20
275.4499917505
 11
603.5456700337
 21
275.4641297411
  0
LINE
  5
2A4
100
AcDbEntity
  8
0
100
AcDbLine
 62
7
  6
CONTINUOUS
 10
603.7321390976
 20
228.2283634452
 11
603.7370057004
 21
228.2146773
  0
LINE
  5
2A5
100
AcDbEntity
  8
0
100
AcDbLine
 62
7
  6
CONTINUOUS
 10
603.5456700337
 20
275.4641297411
 11
603.5072616125
 21
275.5807618518
  0
LINE
  5
2A6
100
AcDbEntity
  8
0
100
AcDbLine
 62
7
  6
CONTINUOUS
 10
603.7370057004
 20
228.2146773
 11
603.7390864449
 21
228.2080796727
  0
LINE
  5
2A7
100
AcDbEntity
  8
0
100
AcDbLine
 62
7
  6
CONTINUOUS
 10
603.5072616125
 20
275.5807618518
 11
603.4718102183
 21
275.7063790243
  0
LINE
  5
2A8
100
AcDbEntity
  8
0
100
AcDbLine
 62
7
  6
CONTINUOUS
 10
603.4718102183
 20
275.7063790243
 11
603.4393980575
 21
275.841757164
  0
LINE
  5
2A9
100
AcDbEntity
  8
0
100
AcDbLine
 62
7
  6
CONTINUOUS
 10
603.7038822353
 20
228.2915230791
 11
603.7283667024
 21
227.9093623015
  0
LINE
  5
2AA
100
AcDbEntity
  8
0
100
AcDbLine
 62
7
  6
CONTINUOUS
 10
559.4805572191
 20
391.1206719678
 11
559.4805572191
 21
391.3116953934
  0
LINE
  5
2AB
100
AcDbEntity
  8
0
100
AcDbLine
 62
7
  6
CONTINUOUS
 10
650.6161795015
 20
368.7385924928
 11
879.0823805028
 21
427.8699964741
  0
LINE
  5
2AC
100
AcDbEntity
  8
0
100
AcDbLine
 62
7
  6
CONTINUOUS
 10
647.5758769787
 20
368.2992955859
 11
649.0147177384
 21
368.6716949773
  0
LINE
  5
2AD
100
AcDbEntity
  8
0
100
AcDbLine
 62
7
  6
CONTINUOUS
 10
879.4924310092
 20
428.3237166435
 11
880.779693414
 21
428.6568846699
  0
LINE
  5
2AE
100
AcDbEntity
  8
0
100
AcDbLine
 62
7
  6
CONTINUOUS
 10
461.9907525088
 20
416.2590552056
 11
647.2930342662
 21
368.2992955859
  0
LINE
  5
2AF
100
AcDbEntity
  8
0
100
AcDbLine
 62
7
  6
CONTINUOUS
 10
462.3415404387
 20
416.2620995331
 11
645.0020964751
 21
368.9860688418
  0
LINE
  5
2B0
100
AcDbEntity
  8
0
100
AcDbLine
 62
7
  6
CONTINUOUS
 10
452.8384128036
 20
419.1402905939
 11
462.8392806462
 21
416.5518755286
  0
LINE
  5
2B1
100
AcDbEntity
  8
0
100
AcDbLine
 62
7
  6
CONTINUOUS
 10
453.8283622972
 20
419.1585918641
 11
648.6362805141
 21
368.7385924928
  0
LINE
  5
2B2
100
AcDbEntity
  8
0
100
AcDbLine
 62
7
  6
CONTINUOUS
 10
896.7948691762
 20
323.1955755939
 11
903.0233209809
 21
321.5835336454
  0
LINE
  5
2B3
100
AcDbEntity
  8
0
100
AcDbLine
 62
7
  6
CONTINUOUS
 10
908.1085776752
 20
326.1237788242
 11
914.3370294798
 21
324.5117368756
  0
LINE
  5
2B4
100
AcDbEntity
  8
0
100
AcDbLine
 62
7
  6
CONTINUOUS
 10
898.805005285
 20
330.9389202645
 11
905.0278234375
 21
329.3283364124
  0
LINE
  5
2B5
100
AcDbEntity
  8
0
100
AcDbLine
 62
7
  6
CONTINUOUS
 10
919.4222861742
 20
329.0519820545
 11
925.6507379788
 21
327.4399401059
  0
LINE
  5
2B6
100
AcDbEntity
  8
0
100
AcDbLine
 62
7
  6
CONTINUOUS
 10
910.118713784
 20
333.8671234948
 11
916.3415319365
 21
332.2565396427
  0
LINE
  5
2B7
100
AcDbEntity
  8
0
100
AcDbLine
 62
7
  6
CONTINUOUS
 10
930.7359946731
 20
331.9801852847
 11
936.9644464778
 21
330.3681433362
  0
LINE
  5
2B8
100
AcDbEntity
  8
0
100
AcDbLine
 62
7
  6
CONTINUOUS
 10
921.432422283
 20
336.7953267251
 11
927.6552404355
 21
335.184742873
  0
LINE
  5
2B9
100
AcDbEntity
  8
0
100
AcDbLine
 62
7
  6
CONTINUOUS
 10
942.0497031721
 20
334.908388515
 11
948.2781549768
 21
333.2963465665
  0
LINE
  5
2BA
100
AcDbEntity
  8
0
100
AcDbLine
 62
7
  6
CONTINUOUS
 10
932.746130782
 20
339.7235299554
 11
938.9689489345
 21
338.1129461033
  0
LINE
  5
2BB
100
AcDbEntity
  8
0
100
AcDbLine
 62
7
  6
CONTINUOUS
 10
944.0598392809
 20
342.6517331856
 11
950.2826574335
 21
341.0411493335
  0
LINE
  5
2BC
100
AcDbEntity
  8
0
100
AcDbLine
 62
2
  6
CONTINUOUS
 10
649.981109223
 20
261.0965188514
 11
649.7305282574
 21
261.902204376
  0
LINE
  5
2BD
100
AcDbEntity
  8
0
100
AcDbLine
 62
2
  6
CONTINUOUS
 10
671.1280213964
 20
266.569742467
 11
670.8774404308
 21
267.3754279916
  0
LINE
  5
2BE
100
AcDbEntity
  8
0
100
AcDbLine
 62
2
  6
CONTINUOUS
 10
649.5060218543
 20
262.6264977623
 11
649.0892707952
 21
263.9675233905
  0
LINE
  5
2BF
100
AcDbEntity
  8
0
100
AcDbLine
 62
2
  6
CONTINUOUS
 10
670.6529340278
 20
268.0997213779
 11
670.2361829687
 21
269.4407470061
  0
LINE
  5
2C0
100
AcDbEntity
  8
0
100
AcDbLine
 62
2
  6
CONTINUOUS
 10
649.4110043807
 20
265.2980458931
 11
650.6599317329
 21
261.2722110452
  0
LINE
  5
2C1
100
AcDbEntity
  8
0
100
AcDbLine
 62
2
  6
CONTINUOUS
 10
670.5579165542
 20
270.7712695087
 11
671.8068439064
 21
266.7454346608
  0
LINE
  5
2C2
100
AcDbEntity
  8
0
100
AcDbLine
 62
2
  6
CONTINUOUS
 10
652.6371977183
 20
261.7839651394
 11
651.947994089
 21
264.4299951122
  0
LINE
  5
2C3
100
AcDbEntity
  8
0
100
AcDbLine
 62
2
  6
CONTINUOUS
 10
652.8457755701
 20
263.3580748289
 11
652.155462575
 21
266.0083639422
  0
LINE
  5
2C4
100
AcDbEntity
  8
0
100
AcDbLine
 62
7
  6
CONTINUOUS
 10
603.3750529594
 20
276.1830304458
 11
603.3853598111
 21
276.1352603655
  0
LINE
  5
2C5
100
AcDbEntity
  8
0
100
AcDbLine
 62
7
  6
CONTINUOUS
 10
603.4393980575
 20
275.841757164
 11
603.4101371614
 21
275.9876872152
  0
LINE
  5
2C6
100
AcDbEntity
  8
0
100
AcDbLine
 62
7
  6
CONTINUOUS
 10
603.4101371614
 20
275.9876872152
 11
603.3855889204
 21
276.135295018
  0
LINE
  5
2C7
100
AcDbEntity
  8
0
100
AcDbLine
 62
7
  6
CONTINUOUS
 10
603.240025162
 20
228.8424460441
 11
603.240025162
 21
274.123287021
  0
LINE
  5
2C8
100
AcDbEntity
  8
0
100
AcDbLine
 62
7
  6
CONTINUOUS
 10
603.2625884026
 20
228.2549412274
 11
603.2625884026
 21
227.9967456562
  0
LINE
  5
2C9
100
AcDbEntity
  8
0
100
AcDbLine
 62
7
  6
CONTINUOUS
 10
603.3814465182
 20
273.5847750001
 11
603.3814465182
 21
228.8790485844
  0
LINE
  5
2CA
100
AcDbEntity
  8
0
100
AcDbLine
 62
7
  6
CONTINUOUS
 10
603.4193402564
 20
275.941789505
 11
603.4193402564
 21
276.2524666055
  0
LINE
  5
2CB
100
AcDbEntity
  8
0
100
AcDbLine
 62
7
  6
CONTINUOUS
 10
603.7283667024
 20
228.3356670895
 11
603.7283667024
 21
227.9093623015
  0
LINE
  5
2CC
100
AcDbEntity
  8
0
100
AcDbLine
 62
7
  6
CONTINUOUS
 10
603.8057105869
 20
273.474967379
 11
603.8057105869
 21
228.7692409633
  0
LINE
  5
2CD
100
AcDbEntity
  8
0
100
AcDbLine
 62
7
  6
CONTINUOUS
 10
604.0885532994
 20
275.7447145544
 11
604.0885532994
 21
276.298876767
  0
LINE
  5
2CE
100
AcDbEntity
  8
0
100
AcDbLine
 62
7
  6
CONTINUOUS
 10
632.471654707
 20
372.2291858149
 11
632.471654707
 21
372.4202092406
  0
LINE
  5
2CF
100
AcDbEntity
  8
0
100
AcDbLine
 62
2
  6
CONTINUOUS
 10
639.01962829
 20
258.2643084524
 11
639.01962829
 21
263.0939375835
  0
LINE
  5
2D0
100
AcDbEntity
  8
0
100
AcDbLine
 62
2
  6
CONTINUOUS
 10
642.2466868624
 20
262.6565545257
 11
642.2466868624
 21
263.4437840742
  0
LINE
  5
2D1
100
AcDbEntity
  8
0
100
AcDbLine
 62
2
  6
CONTINUOUS
 10
642.9931264583
 20
259.287895825
 11
642.9931264583
 21
262.8497473092
  0
LINE
  5
2D2
100
AcDbEntity
  8
0
100
AcDbLine
 62
2
  6
CONTINUOUS
 10
643.6896266377
 20
259.4681633364
 11
643.6896266377
 21
263.0300148205
  0
LINE
  5
2D3
100
AcDbEntity
  8
0
100
AcDbLine
 62
2
  6
CONTINUOUS
 10
644.4360662335
 20
263.2232076039
 11
644.4360662335
 21
264.0104371524
  0
LINE
  5
2D4
100
AcDbEntity
  8
0
100
AcDbLine
 62
2
  6
CONTINUOUS
 10
644.8788918553
 20
259.7759678244
 11
644.8788918553
 21
264.1250488569
  0
LINE
  5
2D5
100
AcDbEntity
  8
0
100
AcDbLine
 62
2
  6
CONTINUOUS
 10
645.5745081512
 20
263.5166506467
 11
645.5745081512
 21
262.3684063208
  0
LINE
  5
2D6
100
AcDbEntity
  8
0
100
AcDbLine
 62
2
  6
CONTINUOUS
 10
645.5745081512
 20
259.9560065698
 11
645.5745081512
 21
261.6101545471
  0
LINE
  5
2D7
100
AcDbEntity
  8
0
100
AcDbLine
 62
7
  6
CONTINUOUS
 10
645.8078533894
 20
368.6836886822
 11
645.8078533894
 21
369.4706433003
  0
LINE
  5
2D8
100
AcDbEntity
  8
0
100
AcDbLine
 62
7
  6
CONTINUOUS
 10
648.0705950892
 20
368.4273380548
 11
648.0705950892
 21
368.7385924928
  0
LINE
  5
2D9
100
AcDbEntity
  8
0
100
AcDbLine
 62
7
  6
CONTINUOUS
 10
648.6362805141
 20
368.7385924928
 11
648.6362805141
 21
851.7015056373
  0
LINE
  5
2DA
100
AcDbEntity
  8
0
100
AcDbLine
 62
7
  6
CONTINUOUS
 10
650.6161795015
 20
368.7385924928
 11
650.6161795015
 21
851.7015056373
  0
LINE
  5
2DB
100
AcDbEntity
  8
0
100
AcDbLine
 62
2
  6
CONTINUOUS
 10
653.7548634654
 20
264.9042605954
 11
654.0828195235
 21
262.1581195946
  0
LINE
  5
2DC
100
AcDbEntity
  8
0
100
AcDbLine
 62
2
  6
CONTINUOUS
 10
654.2582213655
 20
266.5525979645
 11
654.7620349471
 21
262.333913482
  0
LINE
  5
2DD
100
AcDbEntity
  8
0
100
AcDbLine
 62
2
  6
CONTINUOUS
 10
658.3921443847
 20
267.6225359728
 11
658.3921443847
 21
263.2734549403
  0
LINE
  5
2DE
100
AcDbEntity
  8
0
100
AcDbLine
 62
2
  6
CONTINUOUS
 10
659.0877606806
 20
266.3428193134
 11
659.0877606806
 21
263.4534936857
  0
LINE
  5
2DF
100
AcDbEntity
  8
0
100
AcDbLine
 62
2
  6
CONTINUOUS
 10
660.5063936603
 20
268.1697439514
 11
660.5063936603
 21
265.2804183238
  0
LINE
  5
2E0
100
AcDbEntity
  8
0
100
AcDbLine
 62
2
  6
CONTINUOUS
 10
661.2020099562
 20
268.3497826969
 11
661.2020099562
 21
264.0007016643
  0
LINE
  5
2E1
100
AcDbEntity
  8
0
100
AcDbLine
 62
2
  6
CONTINUOUS
 10
661.5851734433
 20
267.6617231563
 11
661.5851734433
 21
268.4489527048
  0
LINE
  5
2E2
100
AcDbEntity
  8
0
100
AcDbLine
 62
2
  6
CONTINUOUS
 10
662.3316130391
 20
264.2930644556
 11
662.3316130391
 21
267.8549159397
  0
LINE
  5
2E3
100
AcDbEntity
  8
0
100
AcDbLine
 62
2
  6
CONTINUOUS
 10
663.0281132186
 20
264.473331967
 11
663.0281132186
 21
268.0351834511
  0
LINE
  5
2E4
100
AcDbEntity
  8
0
100
AcDbLine
 62
2
  6
CONTINUOUS
 10
663.7745528144
 20
268.2283762345
 11
663.7745528144
 21
269.015605783
  0
LINE
  5
2E5
100
AcDbEntity
  8
0
100
AcDbLine
 62
2
  6
CONTINUOUS
 10
664.2182623195
 20
264.7813652208
 11
664.2182623195
 21
269.1304462534
  0
LINE
  5
2E6
100
AcDbEntity
  8
0
100
AcDbLine
 62
2
  6
CONTINUOUS
 10
664.9138786154
 20
264.9614039663
 11
664.9138786154
 21
269.3104849988
  0
LINE
  5
2E7
100
AcDbEntity
  8
0
100
AcDbLine
 62
2
  6
CONTINUOUS
 10
665.5029869524
 20
269.4629574561
 11
665.5029869524
 21
265.1138764235
  0
LINE
  5
2E8
100
AcDbEntity
  8
0
100
AcDbLine
 62
2
  6
CONTINUOUS
 10
666.1986032484
 20
268.1832407967
 11
666.1986032484
 21
265.293915169
  0
LINE
  5
2E9
100
AcDbEntity
  8
0
100
AcDbLine
 62
2
  6
CONTINUOUS
 10
667.617236228
 20
270.0101654347
 11
667.617236228
 21
267.120839807
  0
LINE
  5
2EA
100
AcDbEntity
  8
0
100
AcDbLine
 62
2
  6
CONTINUOUS
 10
668.312852524
 20
270.1902041802
 11
668.312852524
 21
265.8411231476
  0
LINE
  5
2EB
100
AcDbEntity
  8
0
100
AcDbLine
 62
2
  6
CONTINUOUS
 10
674.3749673471
 20
267.4149435465
 11
674.3749673471
 21
272.2445726775
  0
LINE
  5
2EC
100
AcDbEntity
  8
0
100
AcDbLine
 62
7
  6
CONTINUOUS
 10
676.2983692209
 20
959.9169162662
 11
676.2983692209
 21
858.5681606989
  0
LINE
  5
2ED
100
AcDbEntity
  8
0
100
AcDbLine
 62
7
  6
CONTINUOUS
 10
676.7084197272
 20
959.807108645
 11
676.7084197272
 21
858.6742895794
  0
LINE
  5
2EE
100
AcDbEntity
  8
0
100
AcDbLine
 62
7
  6
CONTINUOUS
 10
677.132683796
 20
960.2097365892
 11
677.132683796
 21
959.9169162662
  0
LINE
  5
2EF
100
AcDbEntity
  8
0
100
AcDbLine
 62
7
  6
CONTINUOUS
 10
682.7188273673
 20
961.6555369341
 11
682.7188273673
 21
958.4711159212
  0
LINE
  5
2F0
100
AcDbEntity
  8
0
100
AcDbLine
 62
7
  6
CONTINUOUS
 10
683.8501982172
 20
961.6555369341
 11
683.8501982172
 21
958.1782955982
  0
LINE
  5
2F1
100
AcDbEntity
  8
0
100
AcDbLine
 62
7
  6
CONTINUOUS
 10
685.6179651702
 20
860.9802496232
 11
685.6179651702
 21
955.5692969486
  0
LINE
  5
2F2
100
AcDbEntity
  8
0
100
AcDbLine
 62
7
  6
CONTINUOUS
 10
686.0422292389
 20
861.0900572444
 11
686.0422292389
 21
955.6791045697
  0
LINE
  5
2F3
100
AcDbEntity
  8
0
100
AcDbLine
 62
2
  6
CONTINUOUS
 10
650.9295161932
 20
261.3419846378
 11
651.4510074443
 21
265.826037538
  0
LINE
  5
2F4
100
AcDbEntity
  8
0
100
AcDbLine
 62
2
  6
CONTINUOUS
 10
651.609323788
 20
261.5179317903
 11
651.947994089
 21
264.4299951122
  0
LINE
  5
2F5
100
AcDbEntity
  8
0
100
AcDbLine
 62
7
  6
CONTINUOUS
 10
603.2513519036
 20
228.2246498107
 11
603.2506082018
 21
228.2213986994
  0
LINE
  5
2F6
100
AcDbEntity
  8
0
100
AcDbLine
 62
7
  6
CONTINUOUS
 10
603.2506082018
 20
228.2213986994
 11
603.2508293963
 21
228.22214415
  0
LINE
  5
2F7
100
AcDbEntity
  8
0
100
AcDbLine
 62
7
  6
CONTINUOUS
 10
462.8392806462
 20
416.5518755286
 11
461.8493311526
 21
416.295657746
  0
LINE
  5
2F8
100
AcDbEntity
  8
0
100
AcDbLine
 62
7
  6
CONTINUOUS
 10
455.4154930298
 20
418.7478122034
 11
454.8851629439
 21
418.610552677
  0
LINE
  5
2F9
100
AcDbEntity
  8
0
100
AcDbLine
 62
7
  6
CONTINUOUS
 10
454.9912289611
 20
418.8576198245
 11
454.4608988752
 21
418.7203602981
  0
LINE
  5
2FA
100
AcDbEntity
  8
0
100
AcDbLine
 62
7
  6
CONTINUOUS
 10
252.0907976247
 20
367.1829845267
 11
452.8384128036
 21
419.1402905939
  0
LINE
  5
2FB
100
AcDbEntity
  8
0
100
AcDbLine
 62
7
  6
CONTINUOUS
 10
879.4924310092
 20
529.566476175
 11
885.0927881429
 21
531.0159552606
  0
LINE
  5
2FC
100
AcDbEntity
  8
0
100
AcDbLine
 62
7
  6
CONTINUOUS
 10
251.7400096948
 20
367.1860288541
 11
452.4876248737
 21
419.1433349213
  0
LINE
  5
2FD
100
AcDbEntity
  8
0
100
AcDbLine
 62
7
  6
CONTINUOUS
 10
879.4924310092
 20
529.6603110995
 11
884.8724446015
 21
531.0527610801
  0
LINE
  5
2FE
100
AcDbEntity
  8
0
100
AcDbLine
 62
7
  6
CONTINUOUS
 10
879.801499528
 20
428.4037094624
 11
879.5768876836
 21
428.4618432855
  0
LINE
  5
2FF
100
AcDbEntity
  8
0
100
AcDbLine
 62
7
  6
CONTINUOUS
 10
880.779693414
 20
428.7300897507
 11
879.4924310092
 21
429.0632577771
  0
LINE
  5
300
100
AcDbEntity
  8
0
100
AcDbLine
 62
2
  6
CONTINUOUS
 10
652.8457755701
 20
263.3580748289
 11
653.5537662348
 21
266.3702715602
  0
LINE
  5
301
100
AcDbEntity
  8
0
100
AcDbLine
 62
2
  6
CONTINUOUS
 10
653.0463554987
 20
261.8898629654
 11
653.7548634654
 21
264.9042605954
  0
LINE
  5
302
100
AcDbEntity
  8
0
100
AcDbLine
 62
2
  6
CONTINUOUS
 10
647.5186098576
 20
260.4591771171
 11
648.7675372098
 21
265.1315043343
  0
LINE
  5
303
100
AcDbEntity
  8
0
100
AcDbLine
 62
2
  6
CONTINUOUS
 10
668.6655220311
 20
265.9324007327
 11
669.9144493833
 21
270.6047279499
  0
LINE
  5
304
100
AcDbEntity
  8
0
100
AcDbLine
 62
2
  6
CONTINUOUS
 10
649.0892707952
 20
263.9675233905
 11
648.672519736
 21
262.41077154
  0
LINE
  5
305
100
AcDbEntity
  8
0
100
AcDbLine
 62
2
  6
CONTINUOUS
 10
670.2361829687
 20
269.4407470061
 11
669.8194319096
 21
267.8839951556
  0
LINE
  5
306
100
AcDbEntity
  8
0
100
AcDbLine
 62
2
  6
CONTINUOUS
 10
648.1974323676
 20
260.6348693109
 11
648.4480133331
 21
261.5702650879
  0
LINE
  5
307
100
AcDbEntity
  8
0
100
AcDbLine
 62
2
  6
CONTINUOUS
 10
669.344344541
 20
266.1080929265
 11
669.5949255065
 21
267.0434887035
  0
LINE
  5
308
100
AcDbEntity
  8
0
100
AcDbLine
 62
7
  6
CONTINUOUS
 10
603.2508293963
 20
228.22214415
 11
603.2531501517
 21
228.2296116394
  0
LINE
  5
309
100
AcDbEntity
  8
0
100
AcDbLine
 62
7
  6
CONTINUOUS
 10
603.2531501517
 20
228.2296116394
 11
603.2581130492
 21
228.2436776162
  0
LINE
  5
30A
100
AcDbEntity
  8
0
100
AcDbLine
 62
7
  6
CONTINUOUS
 10
603.2581130492
 20
228.2436776162
 11
603.2662305307
 21
228.2641077696
  0
LINE
  5
30B
100
AcDbEntity
  8
0
100
AcDbLine
 62
7
  6
CONTINUOUS
 10
603.2662305307
 20
228.2641077696
 11
603.2780194066
 21
228.2906609292
  0
LINE
  5
30C
100
AcDbEntity
  8
0
100
AcDbLine
 62
7
  6
CONTINUOUS
 10
604.0776625949
 20
275.7218557843
 11
604.0736060417
 21
275.7133413841
  0
LINE
  5
30D
100
AcDbEntity
  8
0
100
AcDbLine
 62
7
  6
CONTINUOUS
 10
604.0736060417
 20
275.7133413841
 11
603.9898692445
 21
275.5539977973
  0
LINE
  5
30E
100
AcDbEntity
  8
0
100
AcDbLine
 62
7
  6
CONTINUOUS
 10
603.2780194066
 20
228.2906609292
 11
603.293802957
 21
228.3226739228
  0
LINE
  5
30F
100
AcDbEntity
  8
0
100
AcDbLine
 62
7
  6
CONTINUOUS
 10
603.293802957
 20
228.3226739228
 11
603.313865641
 21
228.3594834082
  0
LINE
  5
310
100
AcDbEntity
  8
0
100
AcDbLine
 62
7
  6
CONTINUOUS
 10
603.9898692445
 20
275.5539977973
 11
603.9030285001
 21
275.4055726237
  0
LINE
  5
311
100
AcDbEntity
  8
0
100
AcDbLine
 62
7
  6
CONTINUOUS
 10
603.313865641
 20
228.3594834082
 11
603.3384524111
 21
228.4004142714
  0
LINE
  5
312
100
AcDbEntity
  8
0
100
AcDbLine
 62
7
  6
CONTINUOUS
 10
603.9030285001
 20
275.4055726237
 11
603.8414993624
 21
275.3103029038
  0
LINE
  5
313
100
AcDbEntity
  8
0
100
AcDbLine
 62
7
  6
CONTINUOUS
 10
603.3384524111
 20
228.4004142714
 11
603.3677463756
 21
228.4447461656
  0
LINE
  5
314
100
AcDbEntity
  8
0
100
AcDbLine
 62
7
  6
CONTINUOUS
 10
885.0927881429
 20
531.0159552606
 11
1236.4213307746
 21
440.0854373394
  0
LINE
  5
315
100
AcDbEntity
  8
0
100
AcDbLine
 62
7
  6
CONTINUOUS
 10
885.215298393
 20
531.0780821991
 11
1236.8756463226
 21
440.0616867476
  0
LINE
  5
316
100
AcDbEntity
  8
0
100
AcDbLine
 62
7
  6
CONTINUOUS
 10
603.3677463756
 20
228.4447461656
 11
603.4019436527
 21
228.4918268137
  0
LINE
  5
317
100
AcDbEntity
  8
0
100
AcDbLine
 62
7
  6
CONTINUOUS
 10
603.4019436527
 20
228.4918268137
 11
603.4411816303
 21
228.5409535594
  0
LINE
  5
318
100
AcDbEntity
  8
0
100
AcDbLine
 62
7
  6
CONTINUOUS
 10
603.4411816303
 20
228.5409535594
 11
603.4844281002
 21
228.5901239187
  0
LINE
  5
319
100
AcDbEntity
  8
0
100
AcDbLine
 62
7
  6
CONTINUOUS
 10
878.6581164341
 20
911.2355375628
 11
878.6581164341
 21
910.9427172398
  0
LINE
  5
31A
100
AcDbEntity
  8
0
100
AcDbLine
 62
7
  6
CONTINUOUS
 10
879.0823805028
 20
910.8329096187
 11
879.0823805028
 21
427.8699964741
  0
LINE
  5
31B
100
AcDbEntity
  8
0
100
AcDbLine
 62
7
  6
CONTINUOUS
 10
879.4924310092
 20
910.9427172398
 11
879.4924310092
 21
428.1262142568
  0
LINE
  5
31C
100
AcDbEntity
  8
0
100
AcDbLine
 62
7
  6
CONTINUOUS
 10
880.779693414
 20
428.7300897507
 11
880.779693414
 21
428.6568846699
  0
LINE
  5
31D
100
AcDbEntity
  8
0
100
AcDbLine
 62
7
  6
CONTINUOUS
 10
603.1992409214
 20
228.3679962227
 11
603.4741486788
 21
228.5974324107
  0
LINE
  5
31E
100
AcDbEntity
  8
0
100
AcDbLine
 62
7
  6
CONTINUOUS
 10
648.6362805141
 20
851.7015056373
 11
453.8283622972
 21
902.1215050086
  0
LINE
  5
31F
100
AcDbEntity
  8
0
100
AcDbLine
 62
7
  6
CONTINUOUS
 10
649.0605445829
 20
851.8113132584
 11
454.252626366
 21
902.2313126297
  0
LINE
  5
320
100
AcDbEntity
  8
0
100
AcDbLine
 62
7
  6
CONTINUOUS
 10
650.6161795015
 20
851.7015056373
 11
650.1919154328
 21
851.8113132584
  0
LINE
  5
321
100
AcDbEntity
  8
0
100
AcDbLine
 62
7
  6
CONTINUOUS
 10
453.8283622972
 20
902.6339405739
 11
454.252626366
 21
902.5241329528
  0
LINE
  5
322
100
AcDbEntity
  8
0
100
AcDbLine
 62
7
  6
CONTINUOUS
 10
879.0823805028
 20
910.8329096187
 11
650.6161795015
 21
851.7015056373
  0
LINE
  5
323
100
AcDbEntity
  8
0
100
AcDbLine
 62
7
  6
CONTINUOUS
 10
878.6581164341
 20
910.9427172398
 11
650.1919154328
 21
851.8113132584
  0
LINE
  5
324
100
AcDbEntity
  8
0
100
AcDbLine
 62
7
  6
CONTINUOUS
 10
879.0823805028
 20
911.345345184
 11
878.6581164341
 21
911.2355375628
  0
LINE
  5
325
100
AcDbEntity
  8
0
100
AcDbLine
 62
7
  6
CONTINUOUS
 10
648.6362805141
 20
851.7015056373
 11
649.0605445829
 21
851.8113132584
  0
LINE
  5
326
100
AcDbEntity
  8
0
100
AcDbLine
 62
7
  6
CONTINUOUS
 10
459.4145058686
 20
904.0797409188
 11
459.8387699373
 21
903.9699332977
  0
LINE
  5
327
100
AcDbEntity
  8
0
100
AcDbLine
 62
7
  6
CONTINUOUS
 10
460.9701407872
 20
903.9699332977
 11
468.4654726678
 21
902.0299986576
  0
LINE
  5
328
100
AcDbEntity
  8
0
100
AcDbLine
 62
7
  6
CONTINUOUS
 10
461.3944048559
 20
904.0797409188
 11
468.8897367365
 21
902.1398062788
  0
LINE
  5
329
100
AcDbEntity
  8
0
100
AcDbLine
 62
7
  6
CONTINUOUS
 10
686.0422292389
 20
955.6791045697
 11
685.6179651702
 21
955.5692969486
  0
LINE
  5
32A
100
AcDbEntity
  8
0
100
AcDbLine
 62
7
  6
CONTINUOUS
 10
469.8796862302
 20
899.7321216013
 11
470.3039502989
 21
899.8419292224
  0
LINE
  5
32B
100
AcDbEntity
  8
0
100
AcDbLine
 62
7
  6
CONTINUOUS
 10
684.6280156765
 20
957.9769816261
 11
684.2037516078
 21
957.867174005
  0
LINE
  5
32C
100
AcDbEntity
  8
0
100
AcDbLine
 62
7
  6
CONTINUOUS
 10
468.4654726678
 20
902.0299986577
 11
468.8897367365
 21
902.1398062788
  0
LINE
  5
32D
100
AcDbEntity
  8
0
100
AcDbLine
 62
7
  6
CONTINUOUS
 10
684.2744622859
 20
961.7653445553
 11
683.8501982172
 21
961.6555369341
  0
LINE
  5
32E
100
AcDbEntity
  8
0
100
AcDbLine
 62
7
  6
CONTINUOUS
 10
461.3944048559
 20
904.0797409188
 11
460.9701407872
 21
903.9699332977
  0
LINE
  5
32F
100
AcDbEntity
  8
0
100
AcDbLine
 62
7
  6
CONTINUOUS
 10
453.8283622972
 20
902.1215050086
 11
454.252626366
 21
902.2313126297
  0
LINE
  5
330
100
AcDbEntity
  8
0
100
AcDbLine
 62
7
  6
CONTINUOUS
 10
676.7084197272
 20
959.807108645
 11
677.132683796
 21
959.9169162662
  0
LINE
  5
331
100
AcDbEntity
  8
0
100
AcDbLine
 62
7
  6
CONTINUOUS
 10
454.252626366
 20
902.5241329528
 11
459.8387699373
 21
903.9699332977
  0
LINE
  5
332
100
AcDbEntity
  8
0
100
AcDbLine
 62
7
  6
CONTINUOUS
 10
677.132683796
 20
960.2097365892
 11
682.7188273673
 21
961.6555369341
  0
LINE
  5
333
100
AcDbEntity
  8
0
100
AcDbLine
 62
7
  6
CONTINUOUS
 10
453.8283622972
 20
902.6339405739
 11
459.4145058686
 21
904.0797409188
  0
LINE
  5
334
100
AcDbEntity
  8
0
100
AcDbLine
 62
7
  6
CONTINUOUS
 10
676.7084197272
 20
960.3195442103
 11
682.2945632986
 21
961.7653445553
  0
LINE
  5
335
100
AcDbEntity
  8
0
100
AcDbLine
 62
7
  6
CONTINUOUS
 10
684.2037516078
 20
957.867174005
 11
676.7084197272
 21
959.807108645
  0
LINE
  5
336
100
AcDbEntity
  8
0
100
AcDbLine
 62
7
  6
CONTINUOUS
 10
684.6280156765
 20
957.9769816261
 11
677.132683796
 21
959.9169162662
  0
LINE
  5
337
100
AcDbEntity
  8
0
100
AcDbLine
 62
7
  6
CONTINUOUS
 10
676.7084197272
 20
960.3195442103
 11
677.132683796
 21
960.2097365892
  0
LINE
  5
338
100
AcDbEntity
  8
0
100
AcDbLine
 62
7
  6
CONTINUOUS
 10
879.0823805028
 20
910.8329096187
 11
878.6581164341
 21
910.9427172398
  0
LINE
  5
339
100
AcDbEntity
  8
0
100
AcDbLine
 62
7
  6
CONTINUOUS
 10
682.2945632986
 20
961.7653445553
 11
682.7188273673
 21
961.6555369341
  0
LINE
  5
33A
100
AcDbEntity
  8
0
100
AcDbLine
 62
7
  6
CONTINUOUS
 10
683.8501982172
 20
961.6555369341
 11
878.6581164341
 21
911.2355375628
  0
LINE
  5
33B
100
AcDbEntity
  8
0
100
AcDbLine
 62
7
  6
CONTINUOUS
 10
684.2744622859
 20
961.7653445553
 11
879.0823805028
 21
911.345345184
  0
LINE
  5
33C
100
AcDbEntity
  8
0
100
AcDbLine
 62
7
  6
CONTINUOUS
 10
1236.4213307746
 20
439.8606832555
 11
1236.4213307746
 21
440.0854373394
  0
LINE
  5
33D
100
AcDbEntity
  8
0
100
AcDbLine
 62
7
  6
CONTINUOUS
 10
1238.50475738
 20
393.0414421818
 11
1238.50475738
 21
437.7471685974
  0
LINE
  5
33E
100
AcDbEntity
  8
0
100
AcDbLine
 62
7
  6
CONTINUOUS
 10
1236.6705839341
 20
440.081627052
 11
1236.6404718865
 21
439.7974454314
  0
LINE
  5
33F
100
AcDbEntity
  8
0
100
AcDbLine
 62
7
  6
CONTINUOUS
 10
1237.260944462
 20
439.6880527665
 11
1237.3493847145
 21
439.9203660395
  0
ARC
  5
340
100
AcDbEntity
  8
0
100
AcDbCircle
 62
7
  6
CONTINUOUS
 10
591.6890496213
 20
217.4696744244
 40
16.211040886
100
AcDbArc
 50
43.1699824642
 51
43.3205908165
  0
ARC
  5
341
100
AcDbEntity
  8
0
100
AcDbCircle
 62
7
  6
CONTINUOUS
 10
252.234915591
 20
365.0453958238
 40
2.1437760703
100
AcDbArc
 50
101.4484986395
 51
109.1479965358
  0
ARC
  5
342
100
AcDbEntity
  8
0
100
AcDbCircle
 62
7
  6
CONTINUOUS
 10
252.2075858454
 20
365.1778532887
 40
2.0085295044
100
AcDbArc
 50
93.3334080922
 51
101.4343812685
  0
ARC
  5
343
100
AcDbEntity
  8
0
100
AcDbCircle
 62
7
  6
CONTINUOUS
 10
498.9544167713
 20
406.2189157337
 40
0.6816931973
100
AcDbArc
 50
109.7799089458
 51
111.8500512951
  0
ARC
  5
344
100
AcDbEntity
  8
0
100
AcDbCircle
 62
7
  6
CONTINUOUS
 10
557.8033786357
 20
390.9876836181
 40
0.6816931979
100
AcDbArc
 50
109.7799089469
 51
111.8500512942
  0
ARC
  5
345
100
AcDbEntity
  8
0
100
AcDbCircle
 62
7
  6
CONTINUOUS
 10
598.7020839201
 20
224.0824990814
 40
6.5719486358
100
AcDbArc
 50
43.3249330941
 51
43.7523525503
  0
ARC
  5
346
100
AcDbEntity
  8
0
100
AcDbCircle
 62
7
  6
CONTINUOUS
 10
599.4683970717
 20
276.0281147978
 40
4.3304903648
100
AcDbArc
 50
339.4415763276
 51
340.508367406
  0
ARC
  5
347
100
AcDbEntity
  8
0
100
AcDbCircle
 62
7
  6
CONTINUOUS
 10
606.253209912
 20
274.688878963
 40
3.0419013299
100
AcDbArc
 50
182.6174307024
 51
184.7135185695
  0
ARC
  5
348
100
AcDbEntity
  8
0
100
AcDbCircle
 62
7
  6
CONTINUOUS
 10
600.4932045745
 20
274.1212569267
 40
2.7468213377
100
AcDbArc
 50
0.0423456174
 51
6.6408653288
  0
ARC
  5
349
100
AcDbEntity
  8
0
100
AcDbCircle
 62
7
  6
CONTINUOUS
 10
604.6865205047
 20
227.8398101548
 40
1.5782842207
100
AcDbArc
 50
160.448233391
 51
163.4059613801
  0
ARC
  5
34A
100
AcDbEntity
  8
0
100
AcDbCircle
 62
7
  6
CONTINUOUS
 10
602.3996203586
 20
227.8576758264
 40
1.5111576279
100
AcDbArc
 50
14.7283896945
 51
17.3143052102
  0
ARC
  5
34B
100
AcDbEntity
  8
0
100
AcDbCircle
 62
7
  6
CONTINUOUS
 10
604.6262622032
 20
275.7068008019
 40
0.5018067821
100
AcDbArc
 50
136.2693869928
 51
143.9141680747
  0
ARC
  5
34C
100
AcDbEntity
  8
0
100
AcDbCircle
 62
7
  6
CONTINUOUS
 10
649.5074071509
 20
372.579937606
 40
3.94180532
100
AcDbArc
 50
261.6815270612
 51
262.7603302826
  0
ARC
  5
34D
100
AcDbEntity
  8
0
100
AcDbCircle
 62
7
  6
CONTINUOUS
 10
630.7944761237
 20
372.0961974653
 40
0.6816931979
100
AcDbArc
 50
109.779908947
 51
111.8500512941
  0
ARC
  5
34E
100
AcDbEntity
  8
0
100
AcDbCircle
 62
7
  6
CONTINUOUS
 10
898.5723426724
 20
328.9666321974
 40
2.1226513617
100
AcDbArc
 50
53.4857848802
 51
58.673702222
  0
ARC
  5
34F
100
AcDbEntity
  8
0
100
AcDbCircle
 62
7
  6
CONTINUOUS
 10
909.8860511714
 20
331.8948354277
 40
2.1226513616
100
AcDbArc
 50
53.4857848801
 51
58.6737022221
  0
ARC
  5
350
100
AcDbEntity
  8
0
100
AcDbCircle
 62
7
  6
CONTINUOUS
 10
920.1831236544
 20
330.8670073488
 40
2.1021916337
100
AcDbArc
 50
269.9448647201
 51
277.4432500913
  0
ARC
  5
351
100
AcDbEntity
  8
0
100
AcDbCircle
 62
7
  6
CONTINUOUS
 10
908.8694151554
 20
327.9388041185
 40
2.1021916337
100
AcDbArc
 50
269.9448647201
 51
277.4432500913
  0
ARC
  5
352
100
AcDbEntity
  8
0
100
AcDbCircle
 62
7
  6
CONTINUOUS
 10
897.5557066564
 20
325.0106008883
 40
2.1021916337
100
AcDbArc
 50
269.9448647201
 51
277.4432500913
  0
ARC
  5
353
100
AcDbEntity
  8
0
100
AcDbCircle
 62
7
  6
CONTINUOUS
 10
898.6177719886
 20
329.040573112
 40
2.0358703526
100
AcDbArc
 50
58.6839443876
 51
63.7801067192
  0
ARC
  5
354
100
AcDbEntity
  8
0
100
AcDbCircle
 62
7
  6
CONTINUOUS
 10
909.9314804877
 20
331.9687763423
 40
2.0358703525
100
AcDbArc
 50
58.6839443876
 51
63.7801067193
  0
ARC
  5
355
100
AcDbEntity
  8
0
100
AcDbCircle
 62
7
  6
CONTINUOUS
 10
920.1842696872
 20
330.7699943982
 40
2.0051802139
100
AcDbArc
 50
264.7614537881
 51
269.9094506198
  0
ARC
  5
356
100
AcDbEntity
  8
0
100
AcDbCircle
 62
7
  6
CONTINUOUS
 10
908.8705611882
 20
327.841791168
 40
2.0051802139
100
AcDbArc
 50
264.7614537881
 51
269.9094506198
  0
ARC
  5
357
100
AcDbEntity
  8
0
100
AcDbCircle
 62
7
  6
CONTINUOUS
 10
897.5568526892
 20
324.9135879377
 40
2.0051802139
100
AcDbArc
 50
264.7614537881
 51
269.9094506198
  0
ARC
  5
358
100
AcDbEntity
  8
0
100
AcDbCircle
 62
7
  6
CONTINUOUS
 10
898.6433945387
 20
329.0920937975
 40
1.978330412
100
AcDbArc
 50
63.7865763335
 51
68.7786927985
  0
ARC
  5
359
100
AcDbEntity
  8
0
100
AcDbCircle
 62
7
  6
CONTINUOUS
 10
909.9571030378
 20
332.0202970279
 40
1.9783304119
100
AcDbArc
 50
63.7865763333
 51
68.7786927986
  0
ARC
  5
35A
100
AcDbEntity
  8
0
100
AcDbCircle
 62
7
  6
CONTINUOUS
 10
920.1810622802
 20
330.731104241
 40
1.966159681
100
AcDbArc
 50
261.7514949207
 51
264.7510574538
  0
ARC
  5
35B
100
AcDbEntity
  8
0
100
AcDbCircle
 62
7
  6
CONTINUOUS
 10
908.8673537812
 20
327.8029010105
 40
1.9661596809
100
AcDbArc
 50
261.7514949207
 51
264.751057454
  0
ARC
  5
35C
100
AcDbEntity
  8
0
100
AcDbCircle
 62
7
  6
CONTINUOUS
 10
897.5536452822
 20
324.8746977803
 40
1.9661596809
100
AcDbArc
 50
261.7514949207
 51
264.7510574539
  0
ARC
  5
35D
100
AcDbEntity
  8
0
100
AcDbCircle
 62
7
  6
CONTINUOUS
 10
897.9755813843
 20
324.7436659454
 40
1.9448863591
100
AcDbArc
 50
248.7878002044
 51
255.4820973617
  0
ARC
  5
35E
100
AcDbEntity
  8
0
100
AcDbCircle
 62
7
  6
CONTINUOUS
 10
909.2892898833
 20
327.6718691756
 40
1.9448863591
100
AcDbArc
 50
248.7878002045
 51
255.4820973618
  0
ARC
  5
35F
100
AcDbEntity
  8
0
100
AcDbCircle
 62
7
  6
CONTINUOUS
 10
920.6029983823
 20
330.6000724059
 40
1.9448863591
100
AcDbArc
 50
248.7878002044
 51
255.4820973618
  0
ARC
  5
360
100
AcDbEntity
  8
0
100
AcDbCircle
 62
7
  6
CONTINUOUS
 10
910.3947195999
 20
331.9432858392
 40
1.9429693214
100
AcDbArc
 50
75.4966558154
 51
81.7502861805
  0
ARC
  5
361
100
AcDbEntity
  8
0
100
AcDbCircle
 62
7
  6
CONTINUOUS
 10
899.0810111009
 20
329.0150826089
 40
1.9429693215
100
AcDbArc
 50
75.4966558155
 51
81.7502861805
  0
ARC
  5
362
100
AcDbEntity
  8
0
100
AcDbCircle
 62
7
  6
CONTINUOUS
 10
921.1997596704
 20
334.823038658
 40
2.1226513616
100
AcDbArc
 50
53.4857848801
 51
58.6737022221
  0
ARC
  5
363
100
AcDbEntity
  8
0
100
AcDbCircle
 62
7
  6
CONTINUOUS
 10
932.5134681693
 20
337.7512418882
 40
2.1226513617
100
AcDbArc
 50
53.4857848802
 51
58.673702222
  0
ARC
  5
364
100
AcDbEntity
  8
0
100
AcDbCircle
 62
7
  6
CONTINUOUS
 10
943.8271766682
 20
340.6794451184
 40
2.1226513618
100
AcDbArc
 50
53.4857848804
 51
58.6737022219
  0
ARC
  5
365
100
AcDbEntity
  8
0
100
AcDbCircle
 62
7
  6
CONTINUOUS
 10
942.8105406524
 20
336.7234138094
 40
2.1021916337
100
AcDbArc
 50
269.9448647201
 51
277.4432500913
  0
ARC
  5
366
100
AcDbEntity
  8
0
100
AcDbCircle
 62
7
  6
CONTINUOUS
 10
931.4968321534
 20
333.7952105791
 40
2.1021916337
100
AcDbArc
 50
269.9448647201
 51
277.4432500913
  0
ARC
  5
367
100
AcDbEntity
  8
0
100
AcDbCircle
 62
7
  6
CONTINUOUS
 10
921.2451889866
 20
334.8969795726
 40
2.0358703525
100
AcDbArc
 50
58.6839443876
 51
63.7801067193
  0
ARC
  5
368
100
AcDbEntity
  8
0
100
AcDbCircle
 62
7
  6
CONTINUOUS
 10
932.5588974856
 20
337.8251828028
 40
2.0358703525
100
AcDbArc
 50
58.6839443876
 51
63.7801067192
  0
ARC
  5
369
100
AcDbEntity
  8
0
100
AcDbCircle
 62
7
  6
CONTINUOUS
 10
943.8726059846
 20
340.7533860332
 40
2.0358703525
100
AcDbArc
 50
58.6839443876
 51
63.7801067193
  0
ARC
  5
36A
100
AcDbEntity
  8
0
100
AcDbCircle
 62
7
  6
CONTINUOUS
 10
942.8116866852
 20
336.6264008589
 40
2.005180214
100
AcDbArc
 50
264.7614537882
 51
269.9094506197
  0
ARC
  5
36B
100
AcDbEntity
  8
0
100
AcDbCircle
 62
7
  6
CONTINUOUS
 10
931.4979781862
 20
333.6981976286
 40
2.005180214
100
AcDbArc
 50
264.7614537882
 51
269.9094506197
  0
ARC
  5
36C
100
AcDbEntity
  8
0
100
AcDbCircle
 62
7
  6
CONTINUOUS
 10
921.2708115367
 20
334.9485002581
 40
1.978330412
100
AcDbArc
 50
63.7865763334
 51
68.7786927984
  0
ARC
  5
36D
100
AcDbEntity
  8
0
100
AcDbCircle
 62
7
  6
CONTINUOUS
 10
932.5845200357
 20
337.8767034884
 40
1.978330412
100
AcDbArc
 50
63.7865763334
 51
68.7786927984
  0
ARC
  5
36E
100
AcDbEntity
  8
0
100
AcDbCircle
 62
7
  6
CONTINUOUS
 10
943.8982285347
 20
340.8049067187
 40
1.9783304119
100
AcDbArc
 50
63.7865763333
 51
68.7786927985
  0
ARC
  5
36F
100
AcDbEntity
  8
0
100
AcDbCircle
 62
7
  6
CONTINUOUS
 10
942.8084792782
 20
336.5875107014
 40
1.9661596809
100
AcDbArc
 50
261.7514949207
 51
264.7510574539
  0
ARC
  5
370
100
AcDbEntity
  8
0
100
AcDbCircle
 62
7
  6
CONTINUOUS
 10
931.4947707792
 20
333.6593074712
 40
1.9661596809
100
AcDbArc
 50
261.7514949206
 51
264.7510574538
  0
ARC
  5
371
100
AcDbEntity
  8
0
100
AcDbCircle
 62
7
  6
CONTINUOUS
 10
931.9167068813
 20
333.5282756361
 40
1.9448863591
100
AcDbArc
 50
248.7878002044
 51
255.4820973618
  0
ARC
  5
372
100
AcDbEntity
  8
0
100
AcDbCircle
 62
7
  6
CONTINUOUS
 10
943.2304153803
 20
336.4564788664
 40
1.9448863591
100
AcDbArc
 50
248.7878002044
 51
255.4820973618
  0
ARC
  5
373
100
AcDbEntity
  8
0
100
AcDbCircle
 62
7
  6
CONTINUOUS
 10
944.3358450969
 20
340.72789553
 40
1.9429693215
100
AcDbArc
 50
75.4966558155
 51
81.7502861804
  0
ARC
  5
374
100
AcDbEntity
  8
0
100
AcDbCircle
 62
7
  6
CONTINUOUS
 10
933.0221365979
 20
337.7996922998
 40
1.9429693214
100
AcDbArc
 50
75.4966558154
 51
81.7502861806
  0
ARC
  5
375
100
AcDbEntity
  8
0
100
AcDbCircle
 62
7
  6
CONTINUOUS
 10
921.7084280989
 20
334.8714890695
 40
1.9429693214
100
AcDbArc
 50
75.4966558154
 51
81.7502861806
  0
SPLINE
  5
376
100
AcDbEntity
  8
0
100
AcDbSpline
 62
2
  6
CONTINUOUS
 70
0
 71
3
 72
68
 73
64
 74
0
 42
0.0000001
 43
0.0000001
 44
0.0000000001
 40
0.0
 40
0.0
 40
0.0
 40
0.0
 40
0.0625
 40
0.09375
 40
0.125
 40
0.140625
 40
0.15625
 40
0.1640625
 40
0.16796875
 40
0.171875
 40
0.1796875
 40
0.1875
 40
0.203125
 40
0.21875
 40
0.25
 40
0.28125
 40
0.296875
 40
0.3125
 40
0.3203125
 40
0.328125
 40
0.33203125
 40
0.3359375
 40
0.34375
 40
0.359375
 40
0.375
 40
0.40625
 40
0.4375
 40
0.453125
 40
0.46875
 40
0.484375
 40
0.4921875
 40
0.49609375
 40
0.5
 40
0.50390625
 40
0.5078125
 40
0.515625
 40
0.53125
 40
0.546875
 40
0.5625
 40
0.59375
 40
0.625
 40
0.640625
 40
0.65625
 40
0.6640625
 40
0.66796875
 40
0.671875
 40
0.6796875
 40
0.6875
 40
0.71875
 40
0.75
 40
0.78125
 40
0.796875
 40
0.8125
 40
0.8203125
 40
0.828125
 40
0.83203125
 40
0.8359375
 40
0.84375
 40
0.859375
 40
0.875
 40
0.90625
 40
0.9375
 40
1.0
 40
1.0
 40
1.0
 40
1.0
 10
645.7981306707
 20
262.4262840878
 30
0.0
 10
645.809468096
 20
262.4302199424
 30
0.0
 10
645.8264742868
 20
262.4361247622
 30
0.0
 10
645.8491489965
 20
262.4439937034
 30
0.0
 10
645.8633211305
 20
262.4489204417
 30
0.0
 10
645.8746578333
 20
262.4528421103
 30
0.0
 10
645.8817455634
 20
262.4553381331
 30
0.0
 10
645.8867023835
 20
262.4569952054
 30
0.0
 10
645.889542035
 20
262.4580831419
 30
0.0
 10
645.8924087456
 20
262.4597023896
 30
0.0
 10
645.8959828689
 20
262.4615445289
 30
0.0
 10
645.9017066436
 20
262.4645936192
 30
0.0
 10
645.9088595918
 20
262.4683701574
 30
0.0
 10
645.9203052824
 20
262.4744321619
 30
0.0
 10
645.9346121756
 20
262.4820023915
 30
0.0
 10
645.9489187323
 20
262.4895772957
 30
0.0
 10
645.9603649613
 20
262.4956318208
 30
0.0
 10
645.9675165636
 20
262.4994270573
 30
0.0
 10
645.9732430974
 20
262.5024378162
 30
0.0
 10
645.9768101967
 20
262.504377537
 30
0.0
 10
645.9796913254
 20
262.5057964797
 30
0.0
 10
645.9824722448
 20
262.5077003609
 30
0.0
 10
645.9872923024
 20
262.5112574272
 30
0.0
 10
645.9942023857
 20
262.5162214169
 30
0.0
 10
646.0052449543
 20
262.5242294652
 30
0.0
 10
646.0190527536
 20
262.5342171744
 30
0.0
 10
646.0328591547
 20
262.5442122071
 30
0.0
 10
646.0439039604
 20
262.5522085377
 30
0.0
 10
646.0521893493
 20
262.5582004781
 30
0.0
 10
646.0590880226
 20
262.563211327
 30
0.0
 10
646.0639285297
 20
262.5666843563
 30
0.0
 10
646.0666766748
 20
262.568722929
 30
0.0
 10
646.0687880931
 20
262.5700997807
 30
0.0
 10
646.0707072029
 20
262.5720579514
 30
0.0
 10
646.0733330953
 20
262.5744660752
 30
0.0
 10
646.0778971542
 20
262.578774765
 30
0.0
 10
646.0844335724
 20
262.5848806555
 30
0.0
 10
646.0922703057
 20
262.5922288126
 30
0.0
 10
646.1027216027
 20
262.6020192287
 30
0.0
 10
646.1157857509
 20
262.6142579777
 30
0.0
 10
646.128846892
 20
262.6265027196
 30
0.0
 10
646.1393030005
 20
262.6362835471
 30
0.0
 10
646.1458215828
 20
262.6424309831
 30
0.0
 10
646.1504176359
 20
262.6466651825
 30
0.0
 10
646.1529922483
 20
262.649192695
 30
0.0
 10
646.1553721189
 20
262.6521268765
 30
0.0
 10
646.1584135203
 20
262.6556556031
 30
0.0
 10
646.1656581025
 20
262.6642389427
 30
0.0
 10
646.1765479365
 20
262.677066018
 30
0.0
 10
646.1910548206
 20
262.694195642
 30
0.0
 10
646.2031460536
 20
262.7084660217
 30
0.0
 10
646.2128202963
 20
262.7198792337
 30
0.0
 10
646.2188624757
 20
262.727022374
 30
0.0
 10
646.2237060387
 20
262.7327139404
 30
0.0
 10
646.2267108281
 20
262.7363235927
 30
0.0
 10
646.2291660547
 20
262.7390912351
 30
0.0
 10
646.2314336508
 20
262.7422972569
 30
0.0
 10
646.2353147818
 20
262.7481114411
 30
0.0
 10
646.2409047316
 20
262.7563111662
 30
0.0
 10
646.249823236
 20
262.7694901063
 30
0.0
 10
646.2609800725
 20
262.7859434409
 30
0.0
 10
646.2788261234
 20
262.8122801955
 30
0.0
 10
646.2922117613
 20
262.8320301921
 30
0.0
 10
646.3011352755
 20
262.8451974275
 30
0.0
  0
SPLINE
  5
377
100
AcDbEntity
  8
0
100
AcDbSpline
 62
2
  6
CONTINUOUS
 70
0
 71
3
 72
146
 73
142
 74
0
 42
0.0000001
 43
0.0000001
 44
0.0000000001
 40
0.0
 40
0.0
 40
0.0
 40
0.0
 40
0.03125
 40
0.046875
 40
0.0625
 40
0.0703125
 40
0.078125
 40
0.08203125
 40
0.083984375
 40
0.0859375
 40
0.08984375
 40
0.09375
 40
0.109375
 40
0.125
 40
0.140625
 40
0.15625
 40
0.16015625
 40
0.1640625
 40
0.166015625
 40
0.16796875
 40
0.171875
 40
0.1796875
 40
0.1875
 40
0.203125
 40
0.21875
 40
0.2265625
 40
0.234375
 40
0.2421875
 40
0.24609375
 40
0.248046875
 40
0.25
 40
0.251953125
 40
0.25390625
 40
0.2578125
 40
0.265625
 40
0.2734375
 40
0.28125
 40
0.296875
 40
0.3125
 40
0.3203125
 40
0.328125
 40
0.33203125
 40
0.333984375
 40
0.3359375
 40
0.33984375
 40
0.34375
 40
0.3515625
 40
0.359375
 40
0.375
 40
0.390625
 40
0.3984375
 40
0.40625
 40
0.41015625
 40
0.4140625
 40
0.416015625
 40
0.41796875
 40
0.421875
 40
0.4296875
 40
0.4375
 40
0.453125
 40
0.46875
 40
0.4765625
 40
0.484375
 40
0.4921875
 40
0.49609375
 40
0.498046875
 40
0.5
 40
0.501953125
 40
0.50390625
 40
0.5078125
 40
0.515625
 40
0.5234375
 40
0.53125
 40
0.546875
 40
0.5546875
 40
0.5625
 40
0.5703125
 40
0.578125
 40
0.58203125
 40
0.583984375
 40
0.5859375
 40
0.58984375
 40
0.59375
 40
0.6015625
 40
0.609375
 40
0.625
 40
0.640625
 40
0.6484375
 40
0.65625
 40
0.66015625
 40
0.6640625
 40
0.666015625
 40
0.66796875
 40
0.669921875
 40
0.671875
 40
0.6796875
 40
0.6875
 40
0.6953125
 40
0.703125
 40
0.71875
 40
0.7265625
 40
0.734375
 40
0.7421875
 40
0.74609375
 40
0.748046875
 40
0.75
 40
0.751953125
 40
0.75390625
 40
0.7578125
 40
0.765625
 40
0.7734375
 40
0.78125
 40
0.796875
 40
0.8046875
 40
0.8125
 40
0.8203125
 40
0.828125
 40
0.830078125
 40
0.83203125
 40
0.833984375
 40
0.8359375
 40
0.83984375
 40
0.84375
 40
0.8515625
 40
0.859375
 40
0.875
 40
0.890625
 40
0.8984375
 40
0.90625
 40
0.91015625
 40
0.9140625
 40
0.916015625
 40
0.91796875
 40
0.919921875
 40
0.921875
 40
0.9296875
 40
0.9375
 40
0.9453125
 40
0.953125
 40
0.96875
 40
1.0
 40
1.0
 40
1.0
 40
1.0
 10
646.3011352661
 20
262.8451974119
 30
0.0
 10
646.3067973778
 20
262.8562773422
 30
0.0
 10
646.3152898534
 20
262.872897804
 30
0.0
 10
646.326615922
 20
262.8950561544
 30
0.0
 10
646.3336889486
 20
262.9089098429
 30
0.0
 10
646.339360517
 20
262.919982033
 30
0.0
 10
646.3428752627
 20
262.9269266938
 30
0.0
 10
646.3453956763
 20
262.9317387722
 30
0.0
 10
646.3467418939
 20
262.9345654844
 30
0.0
 10
646.3477339903
 20
262.9376820402
 30
0.0
 10
646.3490951542
 20
262.9414786642
 30
0.0
 10
646.3522622955
 20
262.9506721096
 30
0.0
 10
646.3570552653
 20
262.9644279098
 30
0.0
 10
646.3634198207
 20
262.9827891765
 30
0.0
 10
646.3697985102
 20
263.0011429623
 30
0.0
 10
646.3745596783
 20
263.0149155947
 30
0.0
 10
646.3777674551
 20
263.0240875324
 30
0.0
 10
646.3790542678
 20
263.0279235092
 30
0.0
 10
646.3801997779
 20
263.0309588656
 30
0.0
 10
646.3809208566
 20
263.0341164535
 30
0.0
 10
646.3819855444
 20
263.0396990237
 30
0.0
 10
646.3836094124
 20
263.0476444925
 30
0.0
 10
646.3861501242
 20
263.0603738057
 30
0.0
 10
646.3893455494
 20
263.0762797494
 30
0.0
 10
646.3925346792
 20
263.0921877804
 30
0.0
 10
646.3950854636
 20
263.1049137539
 30
0.0
 10
646.3970038873
 20
263.1144583353
 30
0.0
 10
646.3985850056
 20
263.1224120038
 30
0.0
 10
646.3997263472
 20
263.1279798411
 30
0.0
 10
646.4003245692
 20
263.1311610455
 30
0.0
 10
646.4009252815
 20
263.1335481224
 30
0.0
 10
646.4009447971
 20
263.1359307136
 30
0.0
 10
646.4011735457
 20
263.1391090666
 30
0.0
 10
646.4014794026
 20
263.1446704558
 30
0.0
 10
646.4019657101
 20
263.1526156735
 30
0.0
 10
646.4025282005
 20
263.1621497953
 30
0.0
 10
646.4032852862
 20
263.1748618994
 30
0.0
 10
646.4042311011
 20
263.1907528151
 30
0.0
 10
646.4051702117
 20
263.2066406616
 30
0.0
 10
646.4059380243
 20
263.2193576765
 30
0.0
 10
646.406379949
 20
263.227290501
 30
0.0
 10
646.4067653939
 20
263.2328741548
 30
0.0
 10
646.4068665825
 20
263.2360168186
 30
0.0
 10
646.4065192323
 20
263.2389786763
 30
0.0
 10
646.4062386237
 20
263.2427429062
 30
0.0
 10
646.405703821
 20
263.2487310762
 30
0.0
 10
646.4050647182
 20
263.2562281405
 30
0.0
 10
646.4040256483
 20
263.268216788
 30
0.0
 10
646.4027329992
 20
263.2832051063
 30
0.0
 10
646.4014362284
 20
263.2981917079
 30
0.0
 10
646.4004037533
 20
263.3101831021
 30
0.0
 10
646.3997481633
 20
263.3176732996
 30
0.0
 10
646.3992471593
 20
263.3236755466
 30
0.0
 10
646.3988805085
 20
263.3274039405
 30
0.0
 10
646.3987097767
 20
263.3304393584
 30
0.0
 10
646.398091508
 20
263.3332823735
 30
0.0
 10
646.3968016381
 20
263.3381682712
 30
0.0
 10
646.3950674355
 20
263.3451947548
 30
0.0
 10
646.3922321113
 20
263.35641109
 30
0.0
 10
646.3887085813
 20
263.3704402797
 30
0.0
 10
646.3851783006
 20
263.3844669347
 30
0.0
 10
646.3823537773
 20
263.3956873253
 30
0.0
 10
646.3802403316
 20
263.4041069395
 30
0.0
 10
646.3784627621
 20
263.4111092692
 30
0.0
 10
646.3772506653
 20
263.416038442
 30
0.0
 10
646.3765077448
 20
263.418812102
 30
0.0
 10
646.376092235
 20
263.4210135084
 30
0.0
 10
646.3751351499
 20
263.4227517741
 30
0.0
 10
646.3740479441
 20
263.4252310105
 30
0.0
 10
646.3720573179
 20
263.4294944052
 30
0.0
 10
646.3692595851
 20
263.4356243242
 30
0.0
 10
646.3658825941
 20
263.4429633653
 30
0.0
 10
646.361386895
 20
263.4527547249
 30
0.0
 10
646.3568888859
 20
263.4625439795
 30
0.0
 10
646.35239259
 20
263.4723350705
 30
0.0
 10
646.3490175384
 20
263.4796749843
 30
0.0
 10
646.3456529488
 20
263.487027598
 30
0.0
 10
646.3428166091
 20
263.4931152801
 30
0.0
 10
646.3408948757
 20
263.4974540428
 30
0.0
 10
646.3396972893
 20
263.4998125242
 30
0.0
 10
646.3381251073
 20
263.5017159618
 30
0.0
 10
646.3362881408
 20
263.5042510653
 30
0.0
 10
646.333277315
 20
263.5082201569
 30
0.0
 10
646.3295383345
 20
263.5132113503
 30
0.0
 10
646.3235421931
 20
263.5211805032
 30
0.0
 10
646.3160521045
 20
263.5311483023
 30
0.0
 10
646.3085588787
 20
263.5411116149
 30
0.0
 10
646.3025677569
 20
263.5490879464
 30
0.0
 10
646.2988162274
 20
263.5540611932
 30
0.0
 10
646.2958311271
 20
263.5580670752
 30
0.0
 10
646.2939286702
 20
263.5605085201
 30
0.0
 10
646.2924909201
 20
263.5626042102
 30
0.0
 10
646.2911820229
 20
263.5637857141
 30
0.0
 10
646.2898085114
 20
263.5648578586
 30
0.0
 10
646.2870947263
 20
263.5670584024
 30
0.0
 10
646.283010089
 20
263.5703355923
 30
0.0
 10
646.2775718818
 20
263.5747186737
 30
0.0
 10
646.2721315517
 20
263.5790981771
 30
0.0
 10
646.2648784655
 20
263.5849386046
 30
0.0
 10
646.2576255022
 20
263.5907796507
 30
0.0
 10
646.2503716545
 20
263.5966180235
 30
0.0
 10
646.2449337992
 20
263.6010042046
 30
0.0
 10
646.2403941867
 20
263.6046357976
 30
0.0
 10
646.2372322903
 20
263.6072241462
 30
0.0
 10
646.2354007711
 20
263.6086310125
 30
0.0
 10
646.2340967719
 20
263.6098895227
 30
0.0
 10
646.2325265729
 20
263.6103706862
 30
0.0
 10
646.2305258276
 20
263.6112833848
 30
0.0
 10
646.2269812614
 20
263.6127542749
 30
0.0
 10
646.2219402131
 20
263.6149215941
 30
0.0
 10
646.2158812745
 20
263.6174941082
 30
0.0
 10
646.2078060686
 20
263.6209339929
 30
0.0
 10
646.1997299507
 20
263.6243712207
 30
0.0
 10
646.1916540345
 20
263.6278090197
 30
0.0
 10
646.1855974044
 20
263.6303883121
 30
0.0
 10
646.1795394451
 20
263.6329635462
 30
0.0
 10
646.1749997329
 20
263.6349064394
 30
0.0
 10
646.1719674114
 20
263.636183857
 30
0.0
 10
646.1704616917
 20
263.6368544324
 30
0.0
 10
646.1689153772
 20
263.6374011102
 30
0.0
 10
646.1666604669
 20
263.6375404866
 30
0.0
 10
646.163907966
 20
263.6379165605
 30
0.0
 10
646.1594670037
 20
263.6384054712
 30
0.0
 10
646.1539284591
 20
263.6390552526
 30
0.0
 10
646.1450596967
 20
263.6400732026
 30
0.0
 10
646.1339762928
 20
263.6413538194
 30
0.0
 10
646.1228915565
 20
263.6426288441
 30
0.0
 10
646.1140249259
 20
263.6436557416
 30
0.0
 10
646.108481052
 20
263.6442831543
 30
0.0
 10
646.1040510147
 20
263.6448179208
 30
0.0
 10
646.1012707017
 20
263.6450772581
 30
0.0
 10
646.099072881
 20
263.6454562591
 30
0.0
 10
646.0973521504
 20
263.6452708513
 30
0.0
 10
646.0956111416
 20
263.6449538363
 30
0.0
 10
646.0921395553
 20
263.6443875055
 30
0.0
 10
646.0869277945
 20
263.6435095749
 30
0.0
 10
646.0799812843
 20
263.6423552526
 30
0.0
 10
646.0730341043
 20
263.6411965829
 30
0.0
 10
646.0637714312
 20
263.6396532068
 30
0.0
 10
646.0475616439
 20
263.6369515877
 30
0.0
 10
646.033667578
 20
263.6346361579
 30
0.0
 10
646.0244048591
 20
263.6330924838
 30
0.0
  0
SPLINE
  5
378
100
AcDbEntity
  8
0
100
AcDbSpline
 62
2
  6
CONTINUOUS
 70
0
 71
3
 72
307
 73
303
 74
0
 42
0.0000001
 43
0.0000001
 44
0.0000000001
 40
0.0
 40
0.0
 40
0.0
 40
0.0
 40
0.015625
 40
0.0234375
 40
0.03125
 40
0.0390625
 40
0.046875
 40
0.05078125
 40
0.0546875
 40
0.056640625
 40
0.05859375
 40
0.060546875
 40
0.0615234375
 40
0.0620117188
 40
0.0625
 40
0.0629882812
 40
0.0634765625
 40
0.064453125
 40
0.06640625
 40
0.068359375
 40
0.0703125
 40
0.07421875
 40
0.078125
 40
0.0859375
 40
0.09375
 40
0.1015625
 40
0.109375
 40
0.11328125
 40
0.1171875
 40
0.119140625
 40
0.12109375
 40
0.123046875
 40
0.1240234375
 40
0.1245117188
 40
0.125
 40
0.1254882812
 40
0.1259765625
 40
0.126953125
 40
0.12890625
 40
0.130859375
 40
0.1328125
 40
0.13671875
 40
0.140625
 40
0.1484375
 40
0.15625
 40
0.1640625
 40
0.171875
 40
0.17578125
 40
0.1796875
 40
0.181640625
 40
0.18359375
 40
0.185546875
 40
0.1865234375
 40
0.1870117188
 40
0.1875
 40
0.1879882812
 40
0.1884765625
 40
0.189453125
 40
0.19140625
 40
0.193359375
 40
0.1953125
 40
0.19921875
 40
0.203125
 40
0.2109375
 40
0.21875
 40
0.2265625
 40
0.234375
 40
0.23828125
 40
0.2421875
 40
0.244140625
 40
0.24609375
 40
0.248046875
 40
0.2490234375
 40
0.2495117188
 40
0.25
 40
0.2504882812
 40
0.2509765625
 40
0.251953125
 40
0.25390625
 40
0.255859375
 40
0.2578125
 40
0.26171875
 40
0.265625
 40
0.2734375
 40
0.28125
 40
0.2890625
 40
0.296875
 40
0.30078125
 40
0.3046875
 40
0.306640625
 40
0.30859375
 40
0.310546875
 40
0.3115234375
 40
0.3120117188
 40
0.3125
 40
0.3129882812
 40
0.3134765625
 40
0.314453125
 40
0.31640625
 40
0.318359375
 40
0.3203125
 40
0.32421875
 40
0.328125
 40
0.3359375
 40
0.34375
 40
0.3515625
 40
0.359375
 40
0.36328125
 40
0.3671875
 40
0.369140625
 40
0.37109375
 40
0.373046875
 40
0.3740234375
 40
0.3745117188
 40
0.375
 40
0.3754882812
 40
0.3759765625
 40
0.376953125
 40
0.37890625
 40
0.380859375
 40
0.3828125
 40
0.38671875
 40
0.390625
 40
0.3984375
 40
0.40625
 40
0.4140625
 40
0.421875
 40
0.42578125
 40
0.4296875
 40
0.431640625
 40
0.43359375
 40
0.435546875
 40
0.4365234375
 40
0.4370117188
 40
0.4375
 40
0.4379882812
 40
0.4384765625
 40
0.439453125
 40
0.44140625
 40
0.443359375
 40
0.4453125
 40
0.44921875
 40
0.453125
 40
0.4609375
 40
0.46875
 40
0.4765625
 40
0.484375
 40
0.48828125
 40
0.4921875
 40
0.494140625
 40
0.49609375
 40
0.498046875
 40
0.4990234375
 40
0.4995117188
 40
0.5
 40
0.5004882812
 40
0.5009765625
 40
0.501953125
 40
0.50390625
 40
0.505859375
 40
0.5078125
 40
0.51171875
 40
0.515625
 40
0.5234375
 40
0.53125
 40
0.5390625
 40
0.546875
 40
0.55078125
 40
0.5546875
 40
0.556640625
 40
0.55859375
 40
0.560546875
 40
0.5615234375
 40
0.5620117188
 40
0.5625
 40
0.5629882812
 40
0.5634765625
 40
0.564453125
 40
0.56640625
 40
0.568359375
 40
0.5703125
 40
0.57421875
 40
0.578125
 40
0.5859375
 40
0.59375
 40
0.6015625
 40
0.609375
 40
0.61328125
 40
0.6171875
 40
0.619140625
 40
0.62109375
 40
0.623046875
 40
0.6240234375
 40
0.6245117188
 40
0.625
 40
0.6254882812
 40
0.6259765625
 40
0.626953125
 40
0.62890625
 40
0.630859375
 40
0.6328125
 40
0.63671875
 40
0.640625
 40
0.6484375
 40
0.65625
 40
0.6640625
 40
0.671875
 40
0.67578125
 40
0.6796875
 40
0.681640625
 40
0.68359375
 40
0.685546875
 40
0.6865234375
 40
0.6870117188
 40
0.6875
 40
0.6879882812
 40
0.6884765625
 40
0.689453125
 40
0.69140625
 40
0.693359375
 40
0.6953125
 40
0.69921875
 40
0.703125
 40
0.7109375
 40
0.71875
 40
0.7265625
 40
0.734375
 40
0.73828125
 40
0.7421875
 40
0.744140625
 40
0.74609375
 40
0.748046875
 40
0.7490234375
 40
0.7495117188
 40
0.75
 40
0.7504882812
 40
0.7509765625
 40
0.751953125
 40
0.75390625
 40
0.755859375
 40
0.7578125
 40
0.76171875
 40
0.765625
 40
0.7734375
 40
0.78125
 40
0.7890625
 40
0.796875
 40
0.80078125
 40
0.8046875
 40
0.806640625
 40
0.80859375
 40
0.810546875
 40
0.8115234375
 40
0.8125
 40
0.8134765625
 40
0.814453125
 40
0.81640625
 40
0.818359375
 40
0.8203125
 40
0.82421875
 40
0.828125
 40
0.8359375
 40
0.84375
 40
0.8515625
 40
0.859375
 40
0.86328125
 40
0.8671875
 40
0.869140625
 40
0.87109375
 40
0.873046875
 40
0.8740234375
 40
0.875
 40
0.8759765625
 40
0.876953125
 40
0.87890625
 40
0.880859375
 40
0.8828125
 40
0.88671875
 40
0.890625
 40
0.8984375
 40
0.90625
 40
0.9140625
 40
0.921875
 40
0.92578125
 40
0.9296875
 40
0.931640625
 40
0.93359375
 40
0.935546875
 40
0.9365234375
 40
0.9375
 40
0.9384765625
 40
0.939453125
 40
0.94140625
 40
0.943359375
 40
0.9453125
 40
0.94921875
 40
0.953125
 40
0.9609375
 40
0.96875
 40
0.9765625
 40
0.984375
 40
1.0
 40
1.0
 40
1.0
 40
1.0
 10
655.542062115
 20
264.710339885
 30
0.0
 10
655.543564498
 20
264.689797823
 30
0.0
 10
655.5458180714
 20
264.6589847294
 30
0.0
 10
655.5488228407
 20
264.6179006071
 30
0.0
 10
655.5510764057
 20
264.587087509
 30
0.0
 10
655.5533300163
 20
264.556274435
 30
0.0
 10
655.555207883
 20
264.5305967982
 30
0.0
 10
655.5567104946
 20
264.5100548572
 30
0.0
 10
655.5576489023
 20
264.4972157606
 30
0.0
 10
655.5584012878
 20
264.4869453615
 30
0.0
 10
655.5589610338
 20
264.4792401576
 30
0.0
 10
655.5594419413
 20
264.472826804
 30
0.0
 10
655.5597502138
 20
264.4683224441
 30
0.0
 10
655.5599706556
 20
264.4657719647
 30
0.0
 10
655.5600112324
 20
264.4637930727
 30
0.0
 10
655.5605286843
 20
264.4620665904
 30
0.0
 10
655.5610522809
 20
264.4596765707
 30
0.0
 10
655.5620460755
 20
264.4555350572
 30
0.0
 10
655.5634252639
 20
264.4495971632
 30
0.0
 10
655.5650976331
 20
264.4424808699
 30
0.0
 10
655.567321401
 20
264.4329892727
 30
0.0
 10
655.5701031851
 20
264.421125874
 30
0.0
 10
655.5745528801
 20
264.4021438223
 30
0.0
 10
655.5801153992
 20
264.3784164702
 30
0.0
 10
655.5867902398
 20
264.3499435478
 30
0.0
 10
655.5934651692
 20
264.321470685
 30
0.0
 10
655.599027466
 20
264.2977431838
 30
0.0
 10
655.6034776056
 20
264.2787614305
 30
0.0
 10
655.6062582597
 20
264.2668972733
 30
0.0
 10
655.608484347
 20
264.2574072328
 30
0.0
 10
655.6101496304
 20
264.2502861834
 30
0.0
 10
655.6115509882
 20
264.2443631704
 30
0.0
 10
655.6125052068
 20
264.2401950917
 30
0.0
 10
655.613092214
 20
264.2378476361
 30
0.0
 10
655.6134148888
 20
264.2359904103
 30
0.0
 10
655.6141870164
 20
264.2345025692
 30
0.0
 10
655.6150597457
 20
264.2323899355
 30
0.0
 10
655.616660066
 20
264.2287528581
 30
0.0
 10
655.6189080496
 20
264.223525648
 30
0.0
 10
655.6216219757
 20
264.2172664298
 30
0.0
 10
655.6252348346
 20
264.2089161133
 30
0.0
 10
655.6297528632
 20
264.1984798244
 30
0.0
 10
655.6369806159
 20
264.1817808638
 30
0.0
 10
655.6460156842
 20
264.1609074737
 30
0.0
 10
655.6568575939
 20
264.135859262
 30
0.0
 10
655.6676995887
 20
264.1108111277
 30
0.0
 10
655.6767344444
 20
264.089937544
 30
0.0
 10
655.6839626223
 20
264.0732389706
 30
0.0
 10
655.6884795702
 20
264.0628016976
 30
0.0
 10
655.692094647
 20
264.0544534009
 30
0.0
 10
655.6948017973
 20
264.048188012
 30
0.0
 10
655.6970709806
 20
264.0429801084
 30
0.0
 10
655.6986334559
 20
264.0393085657
 30
0.0
 10
655.6995668223
 20
264.0372511541
 30
0.0
 10
655.7001526922
 20
264.0355936885
 30
0.0
 10
655.7011749202
 20
264.034373544
 30
0.0
 10
655.7023856842
 20
264.0325941422
 30
0.0
 10
655.7045754371
 20
264.0295512615
 30
0.0
 10
655.7076665799
 20
264.0251671315
 30
0.0
 10
655.7113918208
 20
264.0199220802
 30
0.0
 10
655.7163532657
 20
264.0129231232
 30
0.0
 10
655.7225569699
 20
264.0041763292
 30
0.0
 10
655.7324818355
 20
263.9901803951
 30
0.0
 10
655.7448882834
 20
263.9726858458
 30
0.0
 10
655.7597758563
 20
263.9516922144
 30
0.0
 10
655.7746635018
 20
263.9306986828
 30
0.0
 10
655.7870697684
 20
263.9132038839
 30
0.0
 10
655.7969949966
 20
263.899208449
 30
0.0
 10
655.8031977792
 20
263.8904603862
 30
0.0
 10
655.8081611155
 20
263.8834640334
 30
0.0
 10
655.8118805783
 20
263.8782110262
 30
0.0
 10
655.8149897994
 20
263.8738517882
 30
0.0
 10
655.8171472795
 20
263.8707644711
 30
0.0
 10
655.8184097526
 20
263.8690562675
 30
0.0
 10
655.8192731467
 20
263.867617425
 30
0.0
 10
655.8204555703
 20
263.866781353
 30
0.0
 10
655.821920854
 20
263.8654563372
 30
0.0
 10
655.8245369485
 20
263.8632355204
 30
0.0
 10
655.8282471196
 20
263.86001171
 30
0.0
 10
655.8327109275
 20
263.8561650591
 30
0.0
 10
655.8386586188
 20
263.8510285345
 30
0.0
 10
655.8460946206
 20
263.8446105004
 30
0.0
 10
655.8579914476
 20
263.8343401802
 30
0.0
 10
655.8728627491
 20
263.8215027864
 30
0.0
 10
655.8907081897
 20
263.8060976818
 30
0.0
 10
655.9085536869
 20
263.7906926948
 30
0.0
 10
655.9234248469
 20
263.777855007
 30
0.0
 10
655.9353219569
 20
263.7675852745
 30
0.0
 10
655.9427572396
 20
263.7611657467
 30
0.0
 10
655.9487064068
 20
263.7560322881
 30
0.0
 10
655.9531657057
 20
263.7521762701
 30
0.0
 10
655.9568899842
 20
263.7489817673
 30
0.0
 10
655.9594808947
 20
263.7467086314
 30
0.0
 10
655.9609865294
 20
263.7454674439
 30
0.0
 10
655.9620450077
 20
263.7443738784
 30
0.0
 10
655.9633739199
 20
263.7439021388
 30
0.0
 10
655.9650514725
 20
263.7430562528
 30
0.0
 10
655.9680311397
 20
263.74167701
 30
0.0
 10
655.9722648296
 20
263.7396538291
 30
0.0
 10
655.9773550926
 20
263.7372486267
 30
0.0
 10
655.9841386746
 20
263.7340337913
 30
0.0
 10
655.9926193285
 20
263.7300179516
 30
0.0
 10
656.0061877171
 20
263.7235910961
 30
0.0
 10
656.0231484295
 20
263.7155580492
 30
0.0
 10
656.0435011828
 20
263.7059181531
 30
0.0
 10
656.0638539799
 20
263.6962783801
 30
0.0
 10
656.0808145826
 20
263.6882450253
 30
0.0
 10
656.0943831907
 20
263.6818187856
 30
0.0
 10
656.1028632868
 20
263.6778013806
 30
0.0
 10
656.1096480137
 20
263.6745897581
 30
0.0
 10
656.114734779
 20
263.6721747398
 30
0.0
 10
656.1189794121
 20
263.6701822704
 30
0.0
 10
656.1219395439
 20
263.6687482024
 30
0.0
 10
656.1236483971
 20
263.6679901601
 30
0.0
 10
656.1248811637
 20
263.667248593
 30
0.0
 10
656.1263007491
 20
263.667168455
 30
0.0
 10
656.1281283651
 20
263.6668308905
 30
0.0
 10
656.1313570545
 20
263.6663476464
 30
0.0
 10
656.1359535947
 20
263.6656010987
 30
0.0
 10
656.1414762372
 20
263.6647292965
 30
0.0
 10
656.1488373874
 20
263.6635584916
 30
0.0
 10
656.1580396377
 20
263.6620978624
 30
0.0
 10
656.172762784
 20
263.6597592473
 30
0.0
 10
656.1911668735
 20
263.656836534
 30
0.0
 10
656.2132517104
 20
263.6533290234
 30
0.0
 10
656.2353365787
 20
263.6498216424
 30
0.0
 10
656.2537405896
 20
263.6468986054
 30
0.0
 10
656.268463893
 20
263.6445606376
 30
0.0
 10
656.2776657439
 20
263.6430983632
 30
0.0
 10
656.2850277139
 20
263.641930935
 30
0.0
 10
656.2905478516
 20
263.6410488164
 30
0.0
 10
656.2951522287
 20
263.6403345463
 30
0.0
 10
656.298366928
 20
263.6397936814
 30
0.0
 10
656.3002169597
 20
263.6395484399
 30
0.0
 10
656.3015676913
 20
263.639184715
 30
0.0
 10
656.3030590614
 20
263.6395082533
 30
0.0
 10
656.3049984986
 20
263.6396999125
 30
0.0
 10
656.30841537
 20
263.6401470086
 30
0.0
 10
656.3132846653
 20
263.6407273232
 30
0.0
 10
656.3191329344
 20
263.6414486952
 30
0.0
 10
656.3269288401
 20
263.6424017945
 30
0.0
 10
656.3366743339
 20
263.643596158
 30
0.0
 10
656.3522667821
 20
263.6455054682
 30
0.0
 10
656.3717574594
 20
263.6478926831
 30
0.0
 10
656.3951462231
 20
263.6507570777
 30
0.0
 10
656.418534996
 20
263.6536216021
 30
0.0
 10
656.4380256501
 20
263.6560084925
 30
0.0
 10
656.4536181449
 20
263.6579184517
 30
0.0
 10
656.4633635204
 20
263.6591111659
 30
0.0
 10
656.4711596688
 20
263.6600676501
 30
0.0
 10
656.4770071963
 20
263.6607786808
 30
0.0
 10
656.4818788119
 20
263.661391351
 30
0.0
 10
656.4852915412
 20
263.6617806869
 30
0.0
 10
656.4872376151
 20
263.6620648924
 30
0.0
 10
656.4887085994
 20
263.6621041584
 30
0.0
 10
656.4901358966
 20
263.6628081128
 30
0.0
 10
656.4920541981
 20
263.663514868
 30
0.0
 10
656.4954041258
 20
263.6648597132
 30
0.0
 10
656.5001934488
 20
263.6667244446
 30
0.0
 10
656.5059390474
 20
263.6689862958
 30
0.0
 10
656.5136004006
 20
263.6719936541
 30
0.0
 10
656.5231769021
 20
263.6757557431
 30
0.0
 10
656.5384994107
 20
263.6817734691
 30
0.0
 10
656.5576525095
 20
263.6892961848
 30
0.0
 10
656.5806362462
 20
263.6983231893
 30
0.0
 10
656.6036199696
 20
263.7073503177
 30
0.0
 10
656.6227731015
 20
263.7148727234
 30
0.0
 10
656.6380955439
 20
263.7208910693
 30
0.0
 10
656.6476722138
 20
263.7246515826
 30
0.0
 10
656.6553332212
 20
263.727662175
 30
0.0
 10
656.6610798763
 20
263.7299141459
 30
0.0
 10
656.6658658939
 20
263.7318097903
 30
0.0
 10
656.6692217222
 20
263.7330994506
 30
0.0
 10
656.6711305695
 20
263.7338946258
 30
0.0
 10
656.672586907
 20
263.7343269826
 30
0.0
 10
656.6739488207
 20
263.7353863243
 30
0.0
 10
656.6757976417
 20
263.7365800806
 30
0.0
 10
656.679017733
 20
263.7387710503
 30
0.0
 10
656.6836258862
 20
263.7418477345
 30
0.0
 10
656.689152236
 20
263.7455625578
 30
0.0
 10
656.6965219018
 20
263.7505076912
 30
0.0
 10
656.7057335734
 20
263.756691835
 30
0.0
 10
656.7204724776
 20
263.7665849405
 30
0.0
 10
656.738896028
 20
263.7789518486
 30
0.0
 10
656.7610043272
 20
263.7937918992
 30
0.0
 10
656.7831125995
 20
263.8086320644
 30
0.0
 10
656.801536217
 20
263.8209986862
 30
0.0
 10
656.816274987
 20
263.8308923643
 30
0.0
 10
656.8254869998
 20
263.8370750528
 30
0.0
 10
656.8328559653
 20
263.8420231731
 30
0.0
 10
656.8383844544
 20
263.845728871
 30
0.0
 10
656.8429859143
 20
263.8488341066
 30
0.0
 10
656.8462179542
 20
263.850974107
 30
0.0
 10
656.8480476305
 20
263.8522495289
 30
0.0
 10
656.8494683509
 20
263.8530580203
 30
0.0
 10
656.8507038202
 20
263.8544325293
 30
0.0
 10
656.8524157302
 20
263.8560677746
 30
0.0
 10
656.8553814663
 20
263.8590214417
 30
0.0
 10
656.8596339722
 20
263.863192874
 30
0.0
 10
656.864730242
 20
263.8682191776
 30
0.0
 10
656.8715276215
 20
263.874913726
 30
0.0
 10
656.8800235402
 20
263.8832843733
 30
0.0
 10
656.8936174606
 20
263.8966760326
 30
0.0
 10
656.9106097053
 20
263.9134160819
 30
0.0
 10
656.9310004713
 20
263.9335039247
 30
0.0
 10
656.9513911968
 20
263.9535918731
 30
0.0
 10
656.9683835429
 20
263.9703316583
 30
0.0
 10
656.9819772605
 20
263.9837238459
 30
0.0
 10
656.9904736948
 20
263.9920931506
 30
0.0
 10
656.997270016
 20
263.9987904546
 30
0.0
 10
657.0023695192
 20
264.0038083393
 30
0.0
 10
657.0066119084
 20
264.0080061124
 30
0.0
 10
657.0095957044
 20
264.0109127566
 30
0.0
 10
657.011278678
 20
264.0126233445
 30
0.0
 10
657.012603031
 20
264.0137664254
 30
0.0
 10
657.0136899189
 20
264.015444122
 30
0.0
 10
657.0152219333
 20
264.0174945709
 30
0.0
 10
657.0178643662
 20
264.021169741
 30
0.0
 10
657.0216594469
 20
264.0263745597
 30
0.0
 10
657.0262049075
 20
264.0326397852
 30
0.0
 10
657.0322685381
 20
264.0409866281
 30
0.0
 10
657.0398470434
 20
264.0514225071
 30
0.0
 10
657.0519732295
 20
264.0681186136
 30
0.0
 10
657.0671307619
 20
264.0889891946
 30
0.0
 10
657.0853198957
 20
264.1140336917
 30
0.0
 10
657.1035089702
 20
264.1390782725
 30
0.0
 10
657.1186666509
 20
264.1599486443
 30
0.0
 10
657.1307925403
 20
264.1766451692
 30
0.0
 10
657.1383717999
 20
264.1870799847
 30
0.0
 10
657.1444338825
 20
264.1954290105
 30
0.0
 10
657.1489840724
 20
264.201687567
 30
0.0
 10
657.1527643561
 20
264.2069132514
 30
0.0
 10
657.155433204
 20
264.2105511727
 30
0.0
 10
657.156922895
 20
264.2126613035
 30
0.0
 10
657.1581397869
 20
264.2141556765
 30
0.0
 10
657.1589758664
 20
264.2159872905
 30
0.0
 10
657.1602234706
 20
264.218311809
 30
0.0
 10
657.1623448894
 20
264.2224345241
 30
0.0
 10
657.1654078437
 20
264.228295463
 30
0.0
 10
657.1690695394
 20
264.2353408546
 30
0.0
 10
657.1739566377
 20
264.2447304261
 30
0.0
 10
657.1800638543
 20
264.2564688572
 30
0.0
 10
657.1898363258
 20
264.2752495279
 30
0.0
 10
657.202051604
 20
264.2987256432
 30
0.0
 10
657.216710044
 20
264.3268968806
 30
0.0
 10
657.2313685569
 20
264.3550680786
 30
0.0
 10
657.243583653
 20
264.3785442924
 30
0.0
 10
657.2533564887
 20
264.3973247662
 30
0.0
 10
657.2594627794
 20
264.4090636976
 30
0.0
 10
657.2643517782
 20
264.4184522423
 30
0.0
 10
657.2680076677
 20
264.4255007709
 30
0.0
 10
657.2710887882
 20
264.4313518946
 30
0.0
 10
657.2734762042
 20
264.436083594
 30
0.0
 10
657.2754784798
 20
264.4394935574
 30
0.0
 10
657.2766726415
 20
264.4434333649
 30
0.0
 10
657.2785471418
 20
264.4485013601
 30
0.0
 10
657.2807934167
 20
264.4548998547
 30
0.0
 10
657.2835304017
 20
264.4625508679
 30
0.0
 10
657.2871652356
 20
264.4727617124
 30
0.0
 10
657.291713736
 20
264.4855220173
 30
0.0
 10
657.2989885645
 20
264.5059403223
 30
0.0
 10
657.3080830583
 20
264.5314625779
 30
0.0
 10
657.3189960099
 20
264.5620895623
 30
0.0
 10
657.3299091924
 20
264.5927164372
 30
0.0
 10
657.3390031088
 20
264.6182389663
 30
0.0
 10
657.3462790922
 20
264.6386567243
 30
0.0
 10
657.3508246572
 20
264.6514184195
 30
0.0
 10
657.3544655157
 20
264.6616264105
 30
0.0
 10
657.3571840948
 20
264.6692861414
 30
0.0
 10
657.3594879573
 20
264.6756573604
 30
0.0
 10
657.3612449679
 20
264.6807810031
 30
0.0
 10
657.3627979361
 20
264.6845508665
 30
0.0
 10
657.3634531031
 20
264.6885988709
 30
0.0
 10
657.3646402726
 20
264.6938990518
 30
0.0
 10
657.3660166353
 20
264.7005576124
 30
0.0
 10
657.3677143264
 20
264.7085336169
 30
0.0
 10
657.3699618282
 20
264.7191732733
 30
0.0
 10
657.3727767137
 20
264.7324711372
 30
0.0
 10
657.3772774508
 20
264.7537486735
 30
0.0
 10
657.3829044362
 20
264.7803452654
 30
0.0
 10
657.3896563305
 20
264.8122613211
 30
0.0
 10
657.3964084754
 20
264.8441773205
 30
0.0
 10
657.4020348343
 20
264.8707740532
 30
0.0
 10
657.4065368245
 20
264.892051308
 30
0.0
 10
657.409348525
 20
264.9053498873
 30
0.0
 10
657.4116025636
 20
264.9159880753
 30
0.0
 10
657.4132802841
 20
264.9239685658
 30
0.0
 10
657.41471913
 20
264.9306130911
 30
0.0
 10
657.4157788219
 20
264.9359419068
 30
0.0
 10
657.416823298
 20
264.9399024621
 30
0.0
 10
657.4169146378
 20
264.9440006456
 30
0.0
 10
657.4173693672
 20
264.949416815
 30
0.0
 10
657.4178235478
 20
264.956203521
 30
0.0
 10
657.4184174591
 20
264.9643405082
 30
0.0
 10
657.419192263
 20
264.9751922904
 30
0.0
 10
657.4201666154
 20
264.9887561738
 30
0.0
 10
657.421722311
 20
265.0104588591
 30
0.0
 10
657.4236680519
 20
265.0375870538
 30
0.0
 10
657.4260024603
 20
265.0701409568
 30
0.0
 10
657.4283369973
 20
265.1026948413
 30
0.0
 10
657.4314496682
 20
265.1461000271
 30
0.0
 10
657.4337841815
 20
265.178653915
 30
0.0
 10
657.4353405215
 20
265.2003565073
 30
0.0
  0
SPLINE
  5
379
100
AcDbEntity
  8
0
100
AcDbSpline
 62
2
  6
CONTINUOUS
 70
0
 71
3
 72
307
 73
303
 74
0
 42
0.0000001
 43
0.0000001
 44
0.0000000001
 40
0.0
 40
0.0
 40
0.0
 40
0.0
 40
0.015625
 40
0.0234375
 40
0.03125
 40
0.0390625
 40
0.046875
 40
0.05078125
 40
0.0546875
 40
0.056640625
 40
0.05859375
 40
0.060546875
 40
0.0615234375
 40
0.0620117188
 40
0.0625
 40
0.0629882812
 40
0.0634765625
 40
0.064453125
 40
0.06640625
 40
0.068359375
 40
0.0703125
 40
0.07421875
 40
0.078125
 40
0.0859375
 40
0.09375
 40
0.1015625
 40
0.109375
 40
0.11328125
 40
0.1171875
 40
0.119140625
 40
0.12109375
 40
0.123046875
 40
0.1240234375
 40
0.1245117188
 40
0.125
 40
0.1254882812
 40
0.1259765625
 40
0.126953125
 40
0.12890625
 40
0.130859375
 40
0.1328125
 40
0.13671875
 40
0.140625
 40
0.1484375
 40
0.15625
 40
0.1640625
 40
0.171875
 40
0.17578125
 40
0.1796875
 40
0.181640625
 40
0.18359375
 40
0.185546875
 40
0.1865234375
 40
0.1870117188
 40
0.1875
 40
0.1879882812
 40
0.1884765625
 40
0.189453125
 40
0.19140625
 40
0.193359375
 40
0.1953125
 40
0.19921875
 40
0.203125
 40
0.2109375
 40
0.21875
 40
0.2265625
 40
0.234375
 40
0.23828125
 40
0.2421875
 40
0.244140625
 40
0.24609375
 40
0.248046875
 40
0.2490234375
 40
0.2495117188
 40
0.25
 40
0.2504882812
 40
0.2509765625
 40
0.251953125
 40
0.25390625
 40
0.255859375
 40
0.2578125
 40
0.26171875
 40
0.265625
 40
0.2734375
 40
0.28125
 40
0.2890625
 40
0.296875
 40
0.30078125
 40
0.3046875
 40
0.306640625
 40
0.30859375
 40
0.310546875
 40
0.3115234375
 40
0.3120117188
 40
0.3125
 40
0.3129882812
 40
0.3134765625
 40
0.314453125
 40
0.31640625
 40
0.318359375
 40
0.3203125
 40
0.32421875
 40
0.328125
 40
0.3359375
 40
0.34375
 40
0.3515625
 40
0.359375
 40
0.36328125
 40
0.3671875
 40
0.369140625
 40
0.37109375
 40
0.373046875
 40
0.3740234375
 40
0.3745117188
 40
0.375
 40
0.3754882812
 40
0.3759765625
 40
0.376953125
 40
0.37890625
 40
0.380859375
 40
0.3828125
 40
0.38671875
 40
0.390625
 40
0.3984375
 40
0.40625
 40
0.4140625
 40
0.421875
 40
0.42578125
 40
0.4296875
 40
0.431640625
 40
0.43359375
 40
0.435546875
 40
0.4365234375
 40
0.4370117188
 40
0.4375
 40
0.4379882812
 40
0.4384765625
 40
0.439453125
 40
0.44140625
 40
0.443359375
 40
0.4453125
 40
0.44921875
 40
0.453125
 40
0.4609375
 40
0.46875
 40
0.4765625
 40
0.484375
 40
0.48828125
 40
0.4921875
 40
0.494140625
 40
0.49609375
 40
0.498046875
 40
0.4990234375
 40
0.4995117188
 40
0.5
 40
0.5004882812
 40
0.5009765625
 40
0.501953125
 40
0.50390625
 40
0.505859375
 40
0.5078125
 40
0.51171875
 40
0.515625
 40
0.5234375
 40
0.53125
 40
0.5390625
 40
0.546875
 40
0.55078125
 40
0.5546875
 40
0.556640625
 40
0.55859375
 40
0.560546875
 40
0.5615234375
 40
0.5620117188
 40
0.5625
 40
0.5629882812
 40
0.5634765625
 40
0.564453125
 40
0.56640625
 40
0.568359375
 40
0.5703125
 40
0.57421875
 40
0.578125
 40
0.5859375
 40
0.59375
 40
0.6015625
 40
0.609375
 40
0.61328125
 40
0.6171875
 40
0.619140625
 40
0.62109375
 40
0.623046875
 40
0.6240234375
 40
0.6245117188
 40
0.625
 40
0.6254882812
 40
0.6259765625
 40
0.626953125
 40
0.62890625
 40
0.630859375
 40
0.6328125
 40
0.63671875
 40
0.640625
 40
0.6484375
 40
0.65625
 40
0.6640625
 40
0.671875
 40
0.67578125
 40
0.6796875
 40
0.681640625
 40
0.68359375
 40
0.685546875
 40
0.6865234375
 40
0.6870117188
 40
0.6875
 40
0.6879882812
 40
0.6884765625
 40
0.689453125
 40
0.69140625
 40
0.693359375
 40
0.6953125
 40
0.69921875
 40
0.703125
 40
0.7109375
 40
0.71875
 40
0.7265625
 40
0.734375
 40
0.73828125
 40
0.7421875
 40
0.744140625
 40
0.74609375
 40
0.748046875
 40
0.7490234375
 40
0.7495117188
 40
0.75
 40
0.7504882812
 40
0.7509765625
 40
0.751953125
 40
0.75390625
 40
0.755859375
 40
0.7578125
 40
0.76171875
 40
0.765625
 40
0.7734375
 40
0.78125
 40
0.7890625
 40
0.796875
 40
0.80078125
 40
0.8046875
 40
0.806640625
 40
0.80859375
 40
0.810546875
 40
0.8115234375
 40
0.8125
 40
0.8134765625
 40
0.814453125
 40
0.81640625
 40
0.818359375
 40
0.8203125
 40
0.82421875
 40
0.828125
 40
0.8359375
 40
0.84375
 40
0.8515625
 40
0.859375
 40
0.86328125
 40
0.8671875
 40
0.869140625
 40
0.87109375
 40
0.873046875
 40
0.8740234375
 40
0.875
 40
0.8759765625
 40
0.876953125
 40
0.87890625
 40
0.880859375
 40
0.8828125
 40
0.88671875
 40
0.890625
 40
0.8984375
 40
0.90625
 40
0.9140625
 40
0.921875
 40
0.92578125
 40
0.9296875
 40
0.931640625
 40
0.93359375
 40
0.935546875
 40
0.9365234375
 40
0.9375
 40
0.9384765625
 40
0.939453125
 40
0.94140625
 40
0.943359375
 40
0.9453125
 40
0.94921875
 40
0.953125
 40
0.9609375
 40
0.96875
 40
0.9765625
 40
0.984375
 40
1.0
 40
1.0
 40
1.0
 40
1.0
 10
657.4353405215
 20
265.2003563943
 30
0.0
 10
657.4338381384
 20
265.2208984563
 30
0.0
 10
657.4315845651
 20
265.2517115499
 30
0.0
 10
657.4285797958
 20
265.2927956722
 30
0.0
 10
657.4263262308
 20
265.3236087703
 30
0.0
 10
657.4240726202
 20
265.3544218442
 30
0.0
 10
657.4221947535
 20
265.380099481
 30
0.0
 10
657.4206921419
 20
265.400641422
 30
0.0
 10
657.4197537341
 20
265.4134805187
 30
0.0
 10
657.4190013486
 20
265.4237509177
 30
0.0
 10
657.4184416027
 20
265.4314561217
 30
0.0
 10
657.4179606952
 20
265.4378694753
 30
0.0
 10
657.4176524227
 20
265.4423738351
 30
0.0
 10
657.4174319809
 20
265.4449243145
 30
0.0
 10
657.4173914041
 20
265.4469032065
 30
0.0
 10
657.4168739521
 20
265.4486296888
 30
0.0
 10
657.4163503556
 20
265.4510197085
 30
0.0
 10
657.4153565609
 20
265.455161222
 30
0.0
 10
657.4139773725
 20
265.4610991161
 30
0.0
 10
657.4123050034
 20
265.4682154093
 30
0.0
 10
657.4100812354
 20
265.4777070066
 30
0.0
 10
657.4072994513
 20
265.4895704052
 30
0.0
 10
657.4028497563
 20
265.508552457
 30
0.0
 10
657.3972872372
 20
265.532279809
 30
0.0
 10
657.3906123967
 20
265.5607527315
 30
0.0
 10
657.3839374672
 20
265.5892255942
 30
0.0
 10
657.3783751704
 20
265.6129530955
 30
0.0
 10
657.3739250309
 20
265.6319348488
 30
0.0
 10
657.3711443767
 20
265.643799006
 30
0.0
 10
657.3689182895
 20
265.6532890464
 30
0.0
 10
657.367253006
 20
265.6604100959
 30
0.0
 10
657.3658516483
 20
265.6663331089
 30
0.0
 10
657.3648974297
 20
265.6705011876
 30
0.0
 10
657.3643104224
 20
265.6728486431
 30
0.0
 10
657.3639877477
 20
265.6747058689
 30
0.0
 10
657.36321562
 20
265.67619371
 30
0.0
 10
657.3623428907
 20
265.6783063437
 30
0.0
 10
657.3607425704
 20
265.6819434211
 30
0.0
 10
657.3584945868
 20
265.6871706312
 30
0.0
 10
657.3557806607
 20
265.6934298494
 30
0.0
 10
657.3521678018
 20
265.7017801659
 30
0.0
 10
657.3476497733
 20
265.7122164548
 30
0.0
 10
657.3404220206
 20
265.7289154154
 30
0.0
 10
657.3313869523
 20
265.7497888055
 30
0.0
 10
657.3205450425
 20
265.7748370173
 30
0.0
 10
657.3097030478
 20
265.7998851515
 30
0.0
 10
657.300668192
 20
265.8207587352
 30
0.0
 10
657.2934400142
 20
265.8374573086
 30
0.0
 10
657.2889230662
 20
265.8478945816
 30
0.0
 10
657.2853079895
 20
265.8562428783
 30
0.0
 10
657.2826008391
 20
265.8625082672
 30
0.0
 10
657.2803316559
 20
265.8677161708
 30
0.0
 10
657.2787691805
 20
265.8713877135
 30
0.0
 10
657.2778358141
 20
265.8734451252
 30
0.0
 10
657.2772499442
 20
265.8751025908
 30
0.0
 10
657.2762277163
 20
265.8763227352
 30
0.0
 10
657.2750169523
 20
265.878102137
 30
0.0
 10
657.2728271994
 20
265.8811450178
 30
0.0
 10
657.2697360566
 20
265.8855291477
 30
0.0
 10
657.2660108157
 20
265.8907741991
 30
0.0
 10
657.2610493707
 20
265.897773156
 30
0.0
 10
657.2548456666
 20
265.9065199501
 30
0.0
 10
657.244920801
 20
265.9205158841
 30
0.0
 10
657.2325143531
 20
265.9380104334
 30
0.0
 10
657.2176267801
 20
265.9590040648
 30
0.0
 10
657.2027391346
 20
265.9799975964
 30
0.0
 10
657.1903328681
 20
265.9974923953
 30
0.0
 10
657.1804076399
 20
266.0114878302
 30
0.0
 10
657.1742048572
 20
266.020235893
 30
0.0
 10
657.169241521
 20
266.0272322459
 30
0.0
 10
657.1655220582
 20
266.0324852531
 30
0.0
 10
657.1624128371
 20
266.0368444911
 30
0.0
 10
657.160255357
 20
266.0399318082
 30
0.0
 10
657.1589928838
 20
266.0416400117
 30
0.0
 10
657.1581294898
 20
266.0430788543
 30
0.0
 10
657.1569470662
 20
266.0439149263
 30
0.0
 10
657.1554817824
 20
266.0452399421
 30
0.0
 10
657.152865688
 20
266.0474607588
 30
0.0
 10
657.1491555168
 20
266.0506845693
 30
0.0
 10
657.144691709
 20
266.0545312202
 30
0.0
 10
657.1387440176
 20
266.0596677448
 30
0.0
 10
657.1313080159
 20
266.0660857788
 30
0.0
 10
657.1194111888
 20
266.076356099
 30
0.0
 10
657.1045398873
 20
266.0891934929
 30
0.0
 10
657.0866944468
 20
266.1045985975
 30
0.0
 10
657.0688489496
 20
266.1200035845
 30
0.0
 10
657.0539777895
 20
266.1328412722
 30
0.0
 10
657.0420806796
 20
266.1431110047
 30
0.0
 10
657.0346453969
 20
266.1495305325
 30
0.0
 10
657.0286962297
 20
266.1546639911
 30
0.0
 10
657.0242369308
 20
266.1585200092
 30
0.0
 10
657.0205126523
 20
266.161714512
 30
0.0
 10
657.0179217418
 20
266.1639876478
 30
0.0
 10
657.016416107
 20
266.1652288353
 30
0.0
 10
657.0153576288
 20
266.1663224009
 30
0.0
 10
657.0140287166
 20
266.1667941405
 30
0.0
 10
657.012351164
 20
266.1676400264
 30
0.0
 10
657.0093714967
 20
266.1690192692
 30
0.0
 10
657.0051378069
 20
266.1710424501
 30
0.0
 10
657.0000475439
 20
266.1734476526
 30
0.0
 10
656.9932639618
 20
266.176662488
 30
0.0
 10
656.984783308
 20
266.1806783276
 30
0.0
 10
656.9712149194
 20
266.1871051832
 30
0.0
 10
656.954254207
 20
266.1951382301
 30
0.0
 10
656.9339014537
 20
266.2047781262
 30
0.0
 10
656.9135486565
 20
266.2144178991
 30
0.0
 10
656.8965880538
 20
266.222451254
 30
0.0
 10
656.8830194458
 20
266.2288774936
 30
0.0
 10
656.8745393497
 20
266.2328948986
 30
0.0
 10
656.8677546228
 20
266.2361065211
 30
0.0
 10
656.8626678574
 20
266.2385215394
 30
0.0
 10
656.8584232244
 20
266.2405140089
 30
0.0
 10
656.8554630926
 20
266.2419480768
 30
0.0
 10
656.8537542393
 20
266.2427061191
 30
0.0
 10
656.8525214728
 20
266.2434476863
 30
0.0
 10
656.8511018874
 20
266.2435278243
 30
0.0
 10
656.8492742713
 20
266.2438653888
 30
0.0
 10
656.8460455819
 20
266.2443486328
 30
0.0
 10
656.8414490417
 20
266.2450951805
 30
0.0
 10
656.8359263993
 20
266.2459669827
 30
0.0
 10
656.8285652491
 20
266.2471377876
 30
0.0
 10
656.8193629987
 20
266.2485984168
 30
0.0
 10
656.8046398525
 20
266.250937032
 30
0.0
 10
656.786235763
 20
266.2538597452
 30
0.0
 10
656.7641509261
 20
266.2573672558
 30
0.0
 10
656.7420660578
 20
266.2608746369
 30
0.0
 10
656.7236620469
 20
266.2637976738
 30
0.0
 10
656.7089387435
 20
266.2661356417
 30
0.0
 10
656.6997368926
 20
266.2675979161
 30
0.0
 10
656.6923749225
 20
266.2687653442
 30
0.0
 10
656.6868547848
 20
266.2696474628
 30
0.0
 10
656.6822504078
 20
266.270361733
 30
0.0
 10
656.6790357085
 20
266.2709025979
 30
0.0
 10
656.6771856768
 20
266.2711478393
 30
0.0
 10
656.6758349452
 20
266.2715115642
 30
0.0
 10
656.6743435751
 20
266.271188026
 30
0.0
 10
656.6724041379
 20
266.2709963667
 30
0.0
 10
656.6689872665
 20
266.2705492707
 30
0.0
 10
656.6641179712
 20
266.2699689561
 30
0.0
 10
656.6582697021
 20
266.269247584
 30
0.0
 10
656.6504737964
 20
266.2682944847
 30
0.0
 10
656.6407283026
 20
266.2671001213
 30
0.0
 10
656.6251358544
 20
266.2651908111
 30
0.0
 10
656.605645177
 20
266.2628035961
 30
0.0
 10
656.5822564134
 20
266.2599392015
 30
0.0
 10
656.5588676404
 20
266.2570746772
 30
0.0
 10
656.5393769863
 20
266.2546877867
 30
0.0
 10
656.5237844916
 20
266.2527778276
 30
0.0
 10
656.5140391161
 20
266.2515851134
 30
0.0
 10
656.5062429677
 20
266.2506286291
 30
0.0
 10
656.5003954401
 20
266.2499175984
 30
0.0
 10
656.4955238245
 20
266.2493049283
 30
0.0
 10
656.4921110953
 20
266.2489155923
 30
0.0
 10
656.4901650214
 20
266.2486313869
 30
0.0
 10
656.488694037
 20
266.2485921209
 30
0.0
 10
656.4872667398
 20
266.2478881664
 30
0.0
 10
656.4853484383
 20
266.2471814112
 30
0.0
 10
656.4819985106
 20
266.245836566
 30
0.0
 10
656.4772091877
 20
266.2439718346
 30
0.0
 10
656.471463589
 20
266.2417099834
 30
0.0
 10
656.4638022358
 20
266.2387026251
 30
0.0
 10
656.4542257344
 20
266.2349405361
 30
0.0
 10
656.4389032257
 20
266.2289228101
 30
0.0
 10
656.4197501269
 20
266.2214000945
 30
0.0
 10
656.3967663903
 20
266.21237309
 30
0.0
 10
656.3737826669
 20
266.2033459615
 30
0.0
 10
656.3546295349
 20
266.1958235559
 30
0.0
 10
656.3393070926
 20
266.1898052099
 30
0.0
 10
656.3297304227
 20
266.1860446966
 30
0.0
 10
656.3220694153
 20
266.1830341043
 30
0.0
 10
656.3163227601
 20
266.1807821333
 30
0.0
 10
656.3115367425
 20
266.178886489
 30
0.0
 10
656.3081809143
 20
266.1775968286
 30
0.0
 10
656.306272067
 20
266.1768016535
 30
0.0
 10
656.3048157294
 20
266.1763692967
 30
0.0
 10
656.3034538157
 20
266.1753099549
 30
0.0
 10
656.3016049947
 20
266.1741161986
 30
0.0
 10
656.2983849035
 20
266.171925229
 30
0.0
 10
656.2937767503
 20
266.1688485448
 30
0.0
 10
656.2882504005
 20
266.1651337215
 30
0.0
 10
656.2808807347
 20
266.1601885881
 30
0.0
 10
656.2716690631
 20
266.1540044443
 30
0.0
 10
656.2569301589
 20
266.1441113388
 30
0.0
 10
656.2385066085
 20
266.1317444306
 30
0.0
 10
656.2163983093
 20
266.11690438
 30
0.0
 10
656.194290037
 20
266.1020642149
 30
0.0
 10
656.1758664194
 20
266.089697593
 30
0.0
 10
656.1611276495
 20
266.079803915
 30
0.0
 10
656.1519156367
 20
266.0736212264
 30
0.0
 10
656.1445466711
 20
266.0686731061
 30
0.0
 10
656.139018182
 20
266.0649674083
 30
0.0
 10
656.1344167222
 20
266.0618621726
 30
0.0
 10
656.1311846822
 20
266.0597221722
 30
0.0
 10
656.129355006
 20
266.0584467504
 30
0.0
 10
656.1279342856
 20
266.0576382589
 30
0.0
 10
656.1266988163
 20
266.05626375
 30
0.0
 10
656.1249869062
 20
266.0546285047
 30
0.0
 10
656.1220211702
 20
266.0516748375
 30
0.0
 10
656.1177686643
 20
266.0475034053
 30
0.0
 10
656.1126723945
 20
266.0424771016
 30
0.0
 10
656.105875015
 20
266.0357825533
 30
0.0
 10
656.0973790963
 20
266.027411906
 30
0.0
 10
656.0837851758
 20
266.0140202467
 30
0.0
 10
656.0667929312
 20
265.9972801973
 30
0.0
 10
656.0464021651
 20
265.9771923546
 30
0.0
 10
656.0260114396
 20
265.9571044062
 30
0.0
 10
656.0090190935
 20
265.9403646209
 30
0.0
 10
655.995425376
 20
265.9269724334
 30
0.0
 10
655.9869289416
 20
265.9186031287
 30
0.0
 10
655.9801326205
 20
265.9119058247
 30
0.0
 10
655.9750331172
 20
265.9068879399
 30
0.0
 10
655.970790728
 20
265.9026901668
 30
0.0
 10
655.967806932
 20
265.8997835226
 30
0.0
 10
655.9661239585
 20
265.8980729348
 30
0.0
 10
655.9647996055
 20
265.8969298539
 30
0.0
 10
655.9637127175
 20
265.8952521572
 30
0.0
 10
655.9621807031
 20
265.8932017083
 30
0.0
 10
655.9595382702
 20
265.8895265383
 30
0.0
 10
655.9557431896
 20
265.8843217195
 30
0.0
 10
655.951197729
 20
265.878056494
 30
0.0
 10
655.9451340984
 20
265.8697096511
 30
0.0
 10
655.937555593
 20
265.8592737721
 30
0.0
 10
655.9254294069
 20
265.8425776656
 30
0.0
 10
655.9102718745
 20
265.8217070846
 30
0.0
 10
655.8920827407
 20
265.7966625875
 30
0.0
 10
655.8738936663
 20
265.7716180067
 30
0.0
 10
655.8587359855
 20
265.7507476349
 30
0.0
 10
655.8466100962
 20
265.73405111
 30
0.0
 10
655.8390308366
 20
265.7236162946
 30
0.0
 10
655.832968754
 20
265.7152672687
 30
0.0
 10
655.8284185641
 20
265.7090087123
 30
0.0
 10
655.8246382804
 20
265.7037830278
 30
0.0
 10
655.8219694324
 20
265.7001451065
 30
0.0
 10
655.8204797415
 20
265.6980349758
 30
0.0
 10
655.8192628495
 20
265.6965406027
 30
0.0
 10
655.8184267701
 20
265.6947089888
 30
0.0
 10
655.8171791658
 20
265.6923844702
 30
0.0
 10
655.8150577471
 20
265.6882617551
 30
0.0
 10
655.8119947928
 20
265.6824008162
 30
0.0
 10
655.8083330971
 20
265.6753554247
 30
0.0
 10
655.8034459988
 20
265.6659658531
 30
0.0
 10
655.7973387821
 20
265.654227422
 30
0.0
 10
655.7875663107
 20
265.6354467514
 30
0.0
 10
655.7753510325
 20
265.6119706361
 30
0.0
 10
655.7606925925
 20
265.5837993986
 30
0.0
 10
655.7460340795
 20
265.5556282006
 30
0.0
 10
655.7338189835
 20
265.5321519869
 30
0.0
 10
655.7240461477
 20
265.5133715131
 30
0.0
 10
655.717939857
 20
265.5016325817
 30
0.0
 10
655.7130508583
 20
265.4922440369
 30
0.0
 10
655.7093949688
 20
265.4851955083
 30
0.0
 10
655.7063138483
 20
265.4793443846
 30
0.0
 10
655.7039264322
 20
265.4746126853
 30
0.0
 10
655.7019241567
 20
265.4712027218
 30
0.0
 10
655.700729995
 20
265.4672629144
 30
0.0
 10
655.6988554947
 20
265.4621949191
 30
0.0
 10
655.6966092197
 20
265.4557964246
 30
0.0
 10
655.6938722347
 20
265.4481454113
 30
0.0
 10
655.6902374008
 20
265.4379345669
 30
0.0
 10
655.6856889005
 20
265.4251742619
 30
0.0
 10
655.678414072
 20
265.4047559569
 30
0.0
 10
655.6693195782
 20
265.3792337013
 30
0.0
 10
655.6584066266
 20
265.348606717
 30
0.0
 10
655.6474934441
 20
265.3179798421
 30
0.0
 10
655.6383995277
 20
265.292457313
 30
0.0
 10
655.6311235443
 20
265.272039555
 30
0.0
 10
655.6265779793
 20
265.2592778597
 30
0.0
 10
655.6229371207
 20
265.2490698688
 30
0.0
 10
655.6202185416
 20
265.2414101378
 30
0.0
 10
655.6179146791
 20
265.2350389189
 30
0.0
 10
655.6161576685
 20
265.2299152761
 30
0.0
 10
655.6146047003
 20
265.2261454128
 30
0.0
 10
655.6139495334
 20
265.2220974084
 30
0.0
 10
655.6127623639
 20
265.2167972275
 30
0.0
 10
655.6113860012
 20
265.2101386668
 30
0.0
 10
655.60968831
 20
265.2021626623
 30
0.0
 10
655.6074408082
 20
265.191523006
 30
0.0
 10
655.6046259228
 20
265.178225142
 30
0.0
 10
655.6001251857
 20
265.1569476058
 30
0.0
 10
655.5944982002
 20
265.1303510139
 30
0.0
 10
655.587746306
 20
265.0984349581
 30
0.0
 10
655.5809941611
 20
265.0665189587
 30
0.0
 10
655.5753678022
 20
265.0399222261
 30
0.0
 10
655.570865812
 20
265.0186449713
 30
0.0
 10
655.5680541114
 20
265.0053463919
 30
0.0
 10
655.5658000729
 20
264.9947082039
 30
0.0
 10
655.5641223523
 20
264.9867277135
 30
0.0
 10
655.5626835065
 20
264.9800831882
 30
0.0
 10
655.5616238146
 20
264.9747543724
 30
0.0
 10
655.5605793385
 20
264.9707938171
 30
0.0
 10
655.5604879986
 20
264.9666956336
 30
0.0
 10
655.5600332693
 20
264.9612794643
 30
0.0
 10
655.5595790886
 20
264.9544927582
 30
0.0
 10
655.5589851773
 20
264.946355771
 30
0.0
 10
655.5582103734
 20
264.9355039889
 30
0.0
 10
655.5572360211
 20
264.9219401055
 30
0.0
 10
655.5556803255
 20
264.9002374202
 30
0.0
 10
655.5537345846
 20
264.8731092255
 30
0.0
 10
655.5514001762
 20
264.8405553224
 30
0.0
 10
655.5490656392
 20
264.8080014379
 30
0.0
 10
655.5459529683
 20
264.7645962521
 30
0.0
 10
655.543618455
 20
264.7320423642
 30
0.0
 10
655.542062115
 20
264.7103397719
 30
0.0
  0
SPLINE
  5
37A
100
AcDbEntity
  8
0
100
AcDbSpline
 62
2
  6
CONTINUOUS
 70
0
 71
3
 72
375
 73
371
 74
0
 42
0.0000001
 43
0.0000001
 44
0.0000000001
 40
0.0
 40
0.0
 40
0.0
 40
0.0
 40
0.015625
 40
0.0234375
 40
0.03125
 40
0.0390625
 40
0.04296875
 40
0.046875
 40
0.05078125
 40
0.0546875
 40
0.056640625
 40
0.05859375
 40
0.060546875
 40
0.0615234375
 40
0.0620117188
 40
0.0625
 40
0.0629882812
 40
0.0634765625
 40
0.064453125
 40
0.06640625
 40
0.068359375
 40
0.0703125
 40
0.07421875
 40
0.078125
 40
0.08203125
 40
0.0859375
 40
0.09375
 40
0.1015625
 40
0.10546875
 40
0.109375
 40
0.11328125
 40
0.1171875
 40
0.119140625
 40
0.12109375
 40
0.1220703125
 40
0.123046875
 40
0.1240234375
 40
0.1245117188
 40
0.1247558594
 40
0.125
 40
0.1252441406
 40
0.1254882812
 40
0.1259765625
 40
0.126953125
 40
0.1279296875
 40
0.12890625
 40
0.130859375
 40
0.1328125
 40
0.13671875
 40
0.140625
 40
0.14453125
 40
0.1484375
 40
0.15625
 40
0.1640625
 40
0.16796875
 40
0.171875
 40
0.17578125
 40
0.1796875
 40
0.181640625
 40
0.18359375
 40
0.1845703125
 40
0.185546875
 40
0.1865234375
 40
0.1870117188
 40
0.1872558594
 40
0.1875
 40
0.1877441406
 40
0.1879882812
 40
0.1884765625
 40
0.189453125
 40
0.1904296875
 40
0.19140625
 40
0.193359375
 40
0.1953125
 40
0.19921875
 40
0.203125
 40
0.20703125
 40
0.2109375
 40
0.21875
 40
0.2265625
 40
0.23046875
 40
0.234375
 40
0.23828125
 40
0.2421875
 40
0.244140625
 40
0.24609375
 40
0.2470703125
 40
0.248046875
 40
0.2490234375
 40
0.2495117188
 40
0.2497558594
 40
0.25
 40
0.2502441406
 40
0.2504882812
 40
0.2509765625
 40
0.251953125
 40
0.2529296875
 40
0.25390625
 40
0.255859375
 40
0.2578125
 40
0.26171875
 40
0.265625
 40
0.26953125
 40
0.2734375
 40
0.28125
 40
0.2890625
 40
0.29296875
 40
0.296875
 40
0.30078125
 40
0.3046875
 40
0.306640625
 40
0.30859375
 40
0.3095703125
 40
0.310546875
 40
0.3115234375
 40
0.3120117188
 40
0.3122558594
 40
0.3125
 40
0.3127441406
 40
0.3129882812
 40
0.3134765625
 40
0.314453125
 40
0.3154296875
 40
0.31640625
 40
0.318359375
 40
0.3203125
 40
0.32421875
 40
0.328125
 40
0.33203125
 40
0.3359375
 40
0.34375
 40
0.3515625
 40
0.35546875
 40
0.359375
 40
0.36328125
 40
0.3671875
 40
0.369140625
 40
0.37109375
 40
0.3720703125
 40
0.373046875
 40
0.3740234375
 40
0.3745117188
 40
0.3747558594
 40
0.375
 40
0.3752441406
 40
0.3754882812
 40
0.3759765625
 40
0.376953125
 40
0.3779296875
 40
0.37890625
 40
0.380859375
 40
0.3828125
 40
0.38671875
 40
0.390625
 40
0.39453125
 40
0.3984375
 40
0.40625
 40
0.4140625
 40
0.41796875
 40
0.421875
 40
0.42578125
 40
0.4296875
 40
0.431640625
 40
0.43359375
 40
0.4345703125
 40
0.435546875
 40
0.4365234375
 40
0.4370117188
 40
0.4372558594
 40
0.4375
 40
0.4377441406
 40
0.4379882812
 40
0.4384765625
 40
0.439453125
 40
0.4404296875
 40
0.44140625
 40
0.443359375
 40
0.4453125
 40
0.44921875
 40
0.453125
 40
0.45703125
 40
0.4609375
 40
0.46875
 40
0.4765625
 40
0.48046875
 40
0.484375
 40
0.48828125
 40
0.4921875
 40
0.494140625
 40
0.49609375
 40
0.4970703125
 40
0.498046875
 40
0.4990234375
 40
0.4995117188
 40
0.4997558594
 40
0.5
 40
0.5002441406
 40
0.5004882812
 40
0.5009765625
 40
0.501953125
 40
0.5029296875
 40
0.50390625
 40
0.505859375
 40
0.5078125
 40
0.51171875
 40
0.515625
 40
0.51953125
 40
0.5234375
 40
0.53125
 40
0.5390625
 40
0.54296875
 40
0.546875
 40
0.55078125
 40
0.5546875
 40
0.556640625
 40
0.55859375
 40
0.5595703125
 40
0.560546875
 40
0.5615234375
 40
0.5620117188
 40
0.5622558594
 40
0.5625
 40
0.5627441406
 40
0.5629882812
 40
0.5634765625
 40
0.564453125
 40
0.5654296875
 40
0.56640625
 40
0.568359375
 40
0.5703125
 40
0.57421875
 40
0.578125
 40
0.58203125
 40
0.5859375
 40
0.59375
 40
0.6015625
 40
0.60546875
 40
0.609375
 40
0.61328125
 40
0.6171875
 40
0.619140625
 40
0.62109375
 40
0.6220703125
 40
0.623046875
 40
0.6240234375
 40
0.6245117188
 40
0.6247558594
 40
0.625
 40
0.6252441406
 40
0.6254882812
 40
0.6259765625
 40
0.626953125
 40
0.6279296875
 40
0.62890625
 40
0.630859375
 40
0.6328125
 40
0.63671875
 40
0.640625
 40
0.64453125
 40
0.6484375
 40
0.65625
 40
0.6640625
 40
0.66796875
 40
0.671875
 40
0.67578125
 40
0.6796875
 40
0.681640625
 40
0.68359375
 40
0.6845703125
 40
0.685546875
 40
0.6865234375
 40
0.6870117188
 40
0.6872558594
 40
0.6875
 40
0.6877441406
 40
0.6879882812
 40
0.6884765625
 40
0.689453125
 40
0.6904296875
 40
0.69140625
 40
0.693359375
 40
0.6953125
 40
0.69921875
 40
0.703125
 40
0.70703125
 40
0.7109375
 40
0.71875
 40
0.7265625
 40
0.734375
 40
0.73828125
 40
0.7421875
 40
0.744140625
 40
0.74609375
 40
0.748046875
 40
0.7490234375
 40
0.7495117188
 40
0.75
 40
0.7504882812
 40
0.7509765625
 40
0.751953125
 40
0.75390625
 40
0.755859375
 40
0.7578125
 40
0.76171875
 40
0.765625
 40
0.7734375
 40
0.78125
 40
0.7890625
 40
0.796875
 40
0.80078125
 40
0.8046875
 40
0.806640625
 40
0.80859375
 40
0.810546875
 40
0.8115234375
 40
0.8120117188
 40
0.8125
 40
0.8129882812
 40
0.8134765625
 40
0.814453125
 40
0.81640625
 40
0.818359375
 40
0.8203125
 40
0.82421875
 40
0.828125
 40
0.8359375
 40
0.84375
 40
0.8515625
 40
0.859375
 40
0.86328125
 40
0.8671875
 40
0.869140625
 40
0.87109375
 40
0.873046875
 40
0.8740234375
 40
0.8745117188
 40
0.875
 40
0.8754882812
 40
0.8759765625
 40
0.876953125
 40
0.87890625
 40
0.880859375
 40
0.8828125
 40
0.88671875
 40
0.890625
 40
0.8984375
 40
0.90625
 40
0.9140625
 40
0.921875
 40
0.92578125
 40
0.9296875
 40
0.931640625
 40
0.93359375
 40
0.935546875
 40
0.9365234375
 40
0.9370117188
 40
0.9375
 40
0.9379882812
 40
0.9384765625
 40
0.939453125
 40
0.94140625
 40
0.943359375
 40
0.9453125
 40
0.94921875
 40
0.953125
 40
0.9609375
 40
0.96875
 40
0.9765625
 40
0.984375
 40
1.0
 40
1.0
 40
1.0
 40
1.0
 10
654.8968271772
 20
264.5433407945
 30
0.0
 10
654.8993535935
 20
264.5087971403
 30
0.0
 10
654.9031432185
 20
264.4569816593
 30
0.0
 10
654.9081960497
 20
264.3878943501
 30
0.0
 10
654.9119856784
 20
264.3360788711
 30
0.0
 10
654.9151436853
 20
264.2928992961
 30
0.0
 10
654.9176701292
 20
264.2583556565
 30
0.0
 10
654.9195648571
 20
264.2324478713
 30
0.0
 10
654.9214599859
 20
264.2065402982
 30
0.0
 10
654.9230380112
 20
264.1849499929
 30
0.0
 10
654.924303228
 20
264.167679229
 30
0.0
 10
654.9252444999
 20
264.1547221119
 30
0.0
 10
654.9260531969
 20
264.1439373782
 30
0.0
 10
654.9265715898
 20
264.1363628197
 30
0.0
 10
654.926942286
 20
264.1320739184
 30
0.0
 10
654.9270105202
 20
264.1287462017
 30
0.0
 10
654.9278806705
 20
264.1258429388
 30
0.0
 10
654.9287611537
 20
264.1218238673
 30
0.0
 10
654.9304323246
 20
264.1148594735
 30
0.0
 10
654.932751576
 20
264.1048742753
 30
0.0
 10
654.9355638422
 20
264.0929074742
 30
0.0
 10
654.9393033427
 20
264.0769463471
 30
0.0
 10
654.9439812143
 20
264.0569967886
 30
0.0
 10
654.9495931616
 20
264.0330565251
 30
0.0
 10
654.9552055098
 20
264.0091164739
 30
0.0
 10
654.9626885007
 20
263.9771963314
 30
0.0
 10
654.9720422878
 20
263.9372961791
 30
0.0
 10
654.9813960558
 20
263.8973960162
 30
0.0
 10
654.9888790773
 20
263.8654758907
 30
0.0
 10
654.9944913335
 20
263.8415357885
 30
0.0
 10
655.000103626
 20
263.8175957161
 30
0.0
 10
655.0047804237
 20
263.7976455632
 30
0.0
 10
655.0085221141
 20
263.7816856481
 30
0.0
 10
655.0108600964
 20
263.7717102293
 30
0.0
 10
655.0127317972
 20
263.763730975
 30
0.0
 10
655.0141319726
 20
263.7577435753
 30
0.0
 10
655.0153102383
 20
263.7527634883
 30
0.0
 10
655.0161125482
 20
263.7492589553
 30
0.0
 10
655.0166061056
 20
263.7472852076
 30
0.0
 10
655.0168774115
 20
263.7457236466
 30
0.0
 10
655.0175266188
 20
263.7444726654
 30
0.0
 10
655.0182604122
 20
263.7426963567
 30
0.0
 10
655.0196059662
 20
263.7396382911
 30
0.0
 10
655.0214960776
 20
263.7352432372
 30
0.0
 10
655.0237779548
 20
263.7299804679
 30
0.0
 10
655.0268156573
 20
263.7229594968
 30
0.0
 10
655.0306144292
 20
263.7141846339
 30
0.0
 10
655.0366915455
 20
263.7001440981
 30
0.0
 10
655.0442882561
 20
263.6825936876
 30
0.0
 10
655.0534041737
 20
263.6615330838
 30
0.0
 10
655.0625201275
 20
263.6404725098
 30
0.0
 10
655.0746747198
 20
263.612391734
 30
0.0
 10
655.089867965
 20
263.5772907682
 30
0.0
 10
655.105061207
 20
263.5421897996
 30
0.0
 10
655.1172158044
 20
263.5141090283
 30
0.0
 10
655.1263317431
 20
263.4930484406
 30
0.0
 10
655.135447717
 20
263.4719878881
 30
0.0
 10
655.1430442526
 20
263.4544373181
 30
0.0
 10
655.1491217258
 20
263.4403971075
 30
0.0
 10
655.1529195892
 20
263.4316214172
 30
0.0
 10
655.1559591565
 20
263.4246021444
 30
0.0
 10
655.1582353367
 20
263.4193341867
 30
0.0
 10
655.1601432727
 20
263.4149553658
 30
0.0
 10
655.1614570067
 20
263.4118683217
 30
0.0
 10
655.1622417839
 20
263.4101384439
 30
0.0
 10
655.1627343851
 20
263.4087448418
 30
0.0
 10
655.1635938774
 20
263.4077189407
 30
0.0
 10
655.1646118914
 20
263.4062228144
 30
0.0
 10
655.1664530422
 20
263.4036643512
 30
0.0
 10
655.1690520843
 20
263.3999781616
 30
0.0
 10
655.1721842779
 20
263.3955681067
 30
0.0
 10
655.1763558757
 20
263.3896833628
 30
0.0
 10
655.1815719686
 20
263.3823290322
 30
0.0
 10
655.1899168255
 20
263.3705612094
 30
0.0
 10
655.2003482026
 20
263.3558517375
 30
0.0
 10
655.2128657239
 20
263.3382002399
 30
0.0
 10
655.2253832803
 20
263.3205487774
 30
0.0
 10
655.2420733433
 20
263.2970134817
 30
0.0
 10
655.2629359265
 20
263.2675943669
 30
0.0
 10
655.283798507
 20
263.2381752484
 30
0.0
 10
655.3004885742
 20
263.2146399585
 30
0.0
 10
655.3130061178
 20
263.1969884784
 30
0.0
 10
655.3255236871
 20
263.1793370468
 30
0.0
 10
655.335954915
 20
263.1646273695
 30
0.0
 10
655.3443000762
 20
263.1528599658
 30
0.0
 10
655.3495153945
 20
263.1455045685
 30
0.0
 10
655.3536885824
 20
263.1396220141
 30
0.0
 10
655.3568159179
 20
263.1352052699
 30
0.0
 10
655.3594301602
 20
263.1315400096
 30
0.0
 10
655.361244176
 20
263.1289441842
 30
0.0
 10
655.3623056672
 20
263.1275079215
 30
0.0
 10
655.3630316114
 20
263.1262981384
 30
0.0
 10
655.3640257968
 20
263.1255951665
 30
0.0
 10
655.3652578117
 20
263.1244810893
 30
0.0
 10
655.3674574317
 20
263.1226138199
 30
0.0
 10
655.3705769547
 20
263.1199032305
 30
0.0
 10
655.3743301377
 20
263.1166689549
 30
0.0
 10
655.3793309743
 20
263.1123501497
 30
0.0
 10
655.3855831868
 20
263.1069538474
 30
0.0
 10
655.3955860747
 20
263.0983185319
 30
0.0
 10
655.4080899083
 20
263.0875248102
 30
0.0
 10
655.4230944127
 20
263.0745721629
 30
0.0
 10
655.4380989428
 20
263.0616195641
 30
0.0
 10
655.4581049739
 20
263.0443494154
 30
0.0
 10
655.4831125161
 20
263.0227617359
 30
0.0
 10
655.5081200563
 20
263.001174052
 30
0.0
 10
655.5281260907
 20
262.9839039102
 30
0.0
 10
655.5431306108
 20
262.9709512907
 30
0.0
 10
655.5581351526
 20
262.9579987212
 30
0.0
 10
655.5706388698
 20
262.9472047575
 30
0.0
 10
655.5806419952
 20
262.9385699354
 30
0.0
 10
655.5868936031
 20
262.9331723773
 30
0.0
 10
655.5918956807
 20
262.92885615
 30
0.0
 10
655.5956450725
 20
262.9256139985
 30
0.0
 10
655.598776457
 20
262.922928051
 30
0.0
 10
655.6009549023
 20
262.9210167916
 30
0.0
 10
655.6022208445
 20
262.9199731974
 30
0.0
 10
655.6031108162
 20
262.9190537242
 30
0.0
 10
655.6042281695
 20
262.9186570842
 30
0.0
 10
655.6056386608
 20
262.9179458607
 30
0.0
 10
655.6081439739
 20
262.9167861893
 30
0.0
 10
655.611703673
 20
262.9150850927
 30
0.0
 10
655.6159835813
 20
262.9130627913
 30
0.0
 10
655.6216872374
 20
262.9103597481
 30
0.0
 10
655.6288177964
 20
262.9069832181
 30
0.0
 10
655.6402261382
 20
262.9015794991
 30
0.0
 10
655.6544867551
 20
262.8948252865
 30
0.0
 10
655.6715994141
 20
262.8867200444
 30
0.0
 10
655.6887120948
 20
262.8786148524
 30
0.0
 10
655.7115289949
 20
262.8678079121
 30
0.0
 10
655.7400501227
 20
262.8542992433
 30
0.0
 10
655.7685712489
 20
262.8407905701
 30
0.0
 10
655.7913881515
 20
262.829983637
 30
0.0
 10
655.8085008244
 20
262.8218784232
 30
0.0
 10
655.8256135125
 20
262.8137732627
 30
0.0
 10
655.839874039
 20
262.8070187965
 30
0.0
 10
655.8512825651
 20
262.8016155946
 30
0.0
 10
655.8584126552
 20
262.7982377486
 30
0.0
 10
655.8641172739
 20
262.7955374068
 30
0.0
 10
655.8683942414
 20
262.7935068522
 30
0.0
 10
655.8719631415
 20
262.7918315779
 30
0.0
 10
655.8744520292
 20
262.7906258093
 30
0.0
 10
655.8758888381
 20
262.7899884451
 30
0.0
 10
655.8769253519
 20
262.7893649332
 30
0.0
 10
655.8781189436
 20
262.7892975529
 30
0.0
 10
655.8796556086
 20
262.7890137277
 30
0.0
 10
655.8823703003
 20
262.7886074146
 30
0.0
 10
655.886235085
 20
262.7879797151
 30
0.0
 10
655.8908785393
 20
262.7872467012
 30
0.0
 10
655.8970678164
 20
262.7862622849
 30
0.0
 10
655.9048050959
 20
262.7850341835
 30
0.0
 10
655.9171843614
 20
262.7830678692
 30
0.0
 10
655.9326585742
 20
262.7806104403
 30
0.0
 10
655.9512275735
 20
262.7776613268
 30
0.0
 10
655.9697965878
 20
262.7747122665
 30
0.0
 10
655.9945552682
 20
262.7707801674
 30
0.0
 10
656.0255036207
 20
262.7658650505
 30
0.0
 10
656.056451972
 20
262.7609499289
 30
0.0
 10
656.0812106542
 20
262.7570178374
 30
0.0
 10
656.099779663
 20
262.7540687542
 30
0.0
 10
656.118348683
 20
262.7511197264
 30
0.0
 10
656.1338228311
 20
262.748662031
 30
0.0
 10
656.1462022286
 20
262.7466962602
 30
0.0
 10
656.1539391723
 20
262.7454667756
 30
0.0
 10
656.1601291387
 20
262.7444851985
 30
0.0
 10
656.164770487
 20
262.7437435105
 30
0.0
 10
656.168641861
 20
262.7431429501
 30
0.0
 10
656.1713447897
 20
262.7426881893
 30
0.0
 10
656.1729003019
 20
262.7424819895
 30
0.0
 10
656.1740360011
 20
262.7421761685
 30
0.0
 10
656.1752899495
 20
262.7424482005
 30
0.0
 10
656.1769206341
 20
262.7426093481
 30
0.0
 10
656.1797935498
 20
262.7429852678
 30
0.0
 10
656.1838876678
 20
262.7434731981
 30
0.0
 10
656.18880491
 20
262.7440797299
 30
0.0
 10
656.1953597308
 20
262.7448810986
 30
0.0
 10
656.2035537711
 20
262.7458853229
 30
0.0
 10
656.2166639481
 20
262.747490677
 30
0.0
 10
656.233051768
 20
262.7494978517
 30
0.0
 10
656.2527171096
 20
262.7519062546
 30
0.0
 10
656.2723824626
 20
262.7543147129
 30
0.0
 10
656.2986029292
 20
262.7575259712
 30
0.0
 10
656.3313785138
 20
262.7615400513
 30
0.0
 10
656.3641540981
 20
262.7655541266
 30
0.0
 10
656.3903745653
 20
262.7687653925
 30
0.0
 10
656.4100399166
 20
262.7711738279
 30
0.0
 10
656.4297052644
 20
262.7735823167
 30
0.0
 10
656.4460930651
 20
262.7755892242
 30
0.0
 10
656.4592032812
 20
262.7771951232
 30
0.0
 10
656.4673972221
 20
262.7781979609
 30
0.0
 10
656.473952247
 20
262.7790021757
 30
0.0
 10
656.4788688656
 20
262.7796000125
 30
0.0
 10
656.4829649345
 20
262.7801151474
 30
0.0
 10
656.4858343675
 20
262.7804425022
 30
0.0
 10
656.4874706322
 20
262.780681463
 30
0.0
 10
656.4887074403
 20
262.7807144779
 30
0.0
 10
656.489907516
 20
262.781306365
 30
0.0
 10
656.4915204297
 20
262.7819006068
 30
0.0
 10
656.4943370589
 20
262.7830313567
 30
0.0
 10
656.4983639359
 20
262.7845992284
 30
0.0
 10
656.5031948525
 20
262.7865009997
 30
0.0
 10
656.5096365411
 20
262.7890295956
 30
0.0
 10
656.5176884922
 20
262.7921927711
 30
0.0
 10
656.5305717031
 20
262.7972524935
 30
0.0
 10
656.5466756862
 20
262.8035776127
 30
0.0
 10
656.5660004791
 20
262.8111675558
 30
0.0
 10
656.5853252684
 20
262.8187575524
 30
0.0
 10
656.6110916554
 20
262.8288775291
 30
0.0
 10
656.6432996386
 20
262.841527507
 30
0.0
 10
656.6755076224
 20
262.8541774804
 30
0.0
 10
656.7012740086
 20
262.8642974644
 30
0.0
 10
656.7205988003
 20
262.8718874392
 30
0.0
 10
656.7399235843
 20
262.8794774643
 30
0.0
 10
656.7560275947
 20
262.8858023282
 30
0.0
 10
656.76891075
 20
262.8908625711
 30
0.0
 10
656.7769628427
 20
262.894024422
 30
0.0
 10
656.7834042406
 20
262.896555737
 30
0.0
 10
656.7882360454
 20
262.8984492009
 30
0.0
 10
656.7922601433
 20
262.9000430644
 30
0.0
 10
656.7950817338
 20
262.9011274147
 30
0.0
 10
656.7966866983
 20
262.9017960003
 30
0.0
 10
656.7979111912
 20
262.9021595272
 30
0.0
 10
656.7990562923
 20
262.9030502249
 30
0.0
 10
656.8006107866
 20
262.9040539388
 30
0.0
 10
656.8033182489
 20
262.9058961126
 30
0.0
 10
656.8071927979
 20
262.9084829978
 30
0.0
 10
656.8118393693
 20
262.9116064324
 30
0.0
 10
656.8180358063
 20
262.9157643153
 30
0.0
 10
656.8257810073
 20
262.9209639619
 30
0.0
 10
656.8381735219
 20
262.9292821148
 30
0.0
 10
656.853664099
 20
262.9396802458
 30
0.0
 10
656.8722528198
 20
262.9521578144
 30
0.0
 10
656.890841533
 20
262.9646354335
 30
0.0
 10
656.9156264866
 20
262.9812722413
 30
0.0
 10
656.9466076776
 20
263.0020682575
 30
0.0
 10
656.9775888695
 20
263.0228642696
 30
0.0
 10
657.0023738216
 20
263.0395010841
 30
0.0
 10
657.0209625395
 20
263.0519786829
 30
0.0
 10
657.0395512426
 20
263.0644563274
 30
0.0
 10
657.0550418748
 20
263.0748542226
 30
0.0
 10
657.0674342767
 20
263.0831728563
 30
0.0
 10
657.0751797646
 20
263.0883712793
 30
0.0
 10
657.0813756128
 20
263.0925316737
 30
0.0
 10
657.086023983
 20
263.0956474355
 30
0.0
 10
657.0898929042
 20
263.0982583269
 30
0.0
 10
657.092610413
 20
263.1000576457
 30
0.0
 10
657.0941488103
 20
263.1011300242
 30
0.0
 10
657.0953433562
 20
263.1018098062
 30
0.0
 10
657.0963821425
 20
263.1029654974
 30
0.0
 10
657.0978215216
 20
263.1043404166
 30
0.0
 10
657.1003151214
 20
263.1068238687
 30
0.0
 10
657.103890641
 20
263.1103312214
 30
0.0
 10
657.1081755999
 20
263.1145573525
 30
0.0
 10
657.1138908569
 20
263.1201861488
 30
0.0
 10
657.1210342507
 20
263.127224214
 30
0.0
 10
657.1324640595
 20
263.1384839615
 30
0.0
 10
657.1467511906
 20
263.1525590428
 30
0.0
 10
657.1638958035
 20
263.1694489701
 30
0.0
 10
657.1810404016
 20
263.1863389431
 30
0.0
 10
657.2038998709
 20
263.208858891
 30
0.0
 10
657.2324742055
 20
263.2370088319
 30
0.0
 10
657.2610485416
 20
263.2651587688
 30
0.0
 10
657.2839080086
 20
263.287678723
 30
0.0
 10
657.3010526138
 20
263.3045686773
 30
0.0
 10
657.3181971999
 20
263.3214586746
 30
0.0
 10
657.3324844145
 20
263.3355335384
 30
0.0
 10
657.3439140529
 20
263.3467937294
 30
0.0
 10
657.3510578803
 20
263.3538306658
 30
0.0
 10
657.3567722474
 20
263.359461779
 30
0.0
 10
657.361059925
 20
263.3636808315
 30
0.0
 10
657.3646269385
 20
263.3672103317
 30
0.0
 10
657.3671357231
 20
263.3696542468
 30
0.0
 10
657.3685507723
 20
263.3710925142
 30
0.0
 10
657.3696642923
 20
263.37205362
 30
0.0
 10
657.3705781509
 20
263.3734642324
 30
0.0
 10
657.3718662732
 20
263.375188256
 30
0.0
 10
657.3740880387
 20
263.3782783499
 30
0.0
 10
657.3772789538
 20
263.3826545771
 30
0.0
 10
657.3811007907
 20
263.3879223974
 30
0.0
 10
657.3861991094
 20
263.3949404479
 30
0.0
 10
657.3925711393
 20
263.403714966
 30
0.0
 10
657.4027668726
 20
263.4177531024
 30
0.0
 10
657.4155113728
 20
263.4353011479
 30
0.0
 10
657.4308048442
 20
263.4563586418
 30
0.0
 10
657.4460982969
 20
263.4774161783
 30
0.0
 10
657.4664895719
 20
263.5054928804
 30
0.0
 10
657.4919786771
 20
263.5405887511
 30
0.0
 10
657.5225655414
 20
263.5827038493
 30
0.0
 10
657.548054786
 20
263.6177995957
 30
0.0
 10
657.5684457543
 20
263.6458765712
 30
0.0
 10
657.5811910824
 20
263.6634238193
 30
0.0
 10
657.5913851167
 20
263.677463591
 30
0.0
 10
657.5990367433
 20
263.687988017
 30
0.0
 10
657.605393691
 20
263.6967755591
 30
0.0
 10
657.6098816416
 20
263.7028931093
 30
0.0
 10
657.6123867148
 20
263.7064415178
 30
0.0
 10
657.6144330476
 20
263.7089544644
 30
0.0
 10
657.6158390038
 20
263.7120345175
 30
0.0
 10
657.6179369826
 20
263.7159434418
 30
0.0
 10
657.621504373
 20
263.7228762241
 30
0.0
 10
657.6266550553
 20
263.732732014
 30
0.0
 10
657.6328125847
 20
263.7445795865
 30
0.0
 10
657.6410307583
 20
263.7603691461
 30
0.0
 10
657.6513006901
 20
263.7801085622
 30
0.0
 10
657.6677341382
 20
263.8116902491
 30
0.0
 10
657.6882754102
 20
263.8511678333
 30
0.0
 10
657.7129251835
 20
263.8985407197
 30
0.0
 10
657.7375748301
 20
263.9459137034
 30
0.0
 10
657.7581164188
 20
263.9853910446
 30
0.0
 10
657.7745492335
 20
264.0169732174
 30
0.0
 10
657.7848207751
 20
264.0367113984
 30
0.0
 10
657.7930356446
 20
264.0525034931
 30
0.0
 10
657.7992032686
 20
264.0643433207
 30
0.0
 10
657.8043223673
 20
264.0742233424
 30
0.0
 10
657.8079461396
 20
264.081112867
 30
0.0
 10
657.8099537804
 20
264.085091101
 30
0.0
 10
657.8116372261
 20
264.0879582567
 30
0.0
 10
657.8126413544
 20
264.0912708104
 30
0.0
 10
657.8142171456
 20
264.0955321888
 30
0.0
 10
657.8168643793
 20
264.1030619861
 30
0.0
 10
657.8207038605
 20
264.1137809957
 30
0.0
 10
657.8252865325
 20
264.1266600054
 30
0.0
 10
657.831405391
 20
264.1438263607
 30
0.0
 10
657.8390510093
 20
264.1652862421
 30
0.0
 10
657.8512856507
 20
264.1996209694
 30
0.0
 10
657.8665783814
 20
264.2425397514
 30
0.0
 10
657.884929921
 20
264.2940421244
 30
0.0
 10
657.903281323
 20
264.3455445625
 30
0.0
 10
657.9185743978
 20
264.3884631815
 30
0.0
 10
657.9308083509
 20
264.4227982348
 30
0.0
 10
657.9384557186
 20
264.4442572876
 30
0.0
 10
657.9445709866
 20
264.4614253435
 30
0.0
 10
657.9491646278
 20
264.4742991579
 30
0.0
 10
657.9529697892
 20
264.4850344226
 30
0.0
 10
657.9556782895
 20
264.4925352017
 30
0.0
 10
657.9571559161
 20
264.4968430746
 30
0.0
 10
657.9584615747
 20
264.5000128123
 30
0.0
 10
657.9590125227
 20
264.5034163611
 30
0.0
 10
657.9600103716
 20
264.5078728703
 30
0.0
 10
657.9616339534
 20
264.5157097599
 30
0.0
 10
657.9640174806
 20
264.5268854503
 30
0.0
 10
657.9668502659
 20
264.5403047822
 30
0.0
 10
657.9706368998
 20
264.5581942546
 30
0.0
 10
657.9753669095
 20
264.5805571121
 30
0.0
 10
657.9829367603
 20
264.6163371156
 30
0.0
 10
657.9923984397
 20
264.6610623157
 30
0.0
 10
658.0037527459
 20
264.7147324692
 30
0.0
 10
658.0151069028
 20
264.7684026562
 30
0.0
 10
658.0245689555
 20
264.8131277724
 30
0.0
 10
658.0321380596
 20
264.8489079437
 30
0.0
 10
658.0368699673
 20
264.8712703748
 30
0.0
 10
658.0406527055
 20
264.8891607223
 30
0.0
 10
658.0434973925
 20
264.9025773808
 30
0.0
 10
658.0458436823
 20
264.9137614357
 30
0.0
 10
658.0475337391
 20
264.9215833932
 30
0.0
 10
658.0484250782
 20
264.9260638273
 30
0.0
 10
658.0493031901
 20
264.9293938866
 30
0.0
 10
658.0493800756
 20
264.932839639
 30
0.0
 10
658.0497620664
 20
264.9373936205
 30
0.0
 10
658.0503003369
 20
264.9453818902
 30
0.0
 10
658.0511373718
 20
264.9567838741
 30
0.0
 10
658.0521126745
 20
264.9704704624
 30
0.0
 10
658.0534232559
 20
264.9887177772
 30
0.0
 10
658.0550579977
 20
265.0115274238
 30
0.0
 10
658.0576755323
 20
265.0480225772
 30
0.0
 10
658.0609467822
 20
265.0936416154
 30
0.0
 10
658.0648725686
 20
265.14838442
 30
0.0
 10
658.0687982783
 20
265.2031272355
 30
0.0
 10
658.0740325849
 20
265.2761176525
 30
0.0
 10
658.0779583087
 20
265.330860466
 30
0.0
 10
658.0805754593
 20
265.3673556748
 30
0.0
  0
SPLINE
  5
37B
100
AcDbEntity
  8
0
100
AcDbSpline
 62
2
  6
CONTINUOUS
 70
0
 71
3
 72
375
 73
371
 74
0
 42
0.0000001
 43
0.0000001
 44
0.0000000001
 40
0.0
 40
0.0
 40
0.0
 40
0.0
 40
0.015625
 40
0.0234375
 40
0.03125
 40
0.0390625
 40
0.04296875
 40
0.046875
 40
0.05078125
 40
0.0546875
 40
0.056640625
 40
0.05859375
 40
0.060546875
 40
0.0615234375
 40
0.0620117188
 40
0.0625
 40
0.0629882812
 40
0.0634765625
 40
0.064453125
 40
0.06640625
 40
0.068359375
 40
0.0703125
 40
0.07421875
 40
0.078125
 40
0.08203125
 40
0.0859375
 40
0.09375
 40
0.1015625
 40
0.10546875
 40
0.109375
 40
0.11328125
 40
0.1171875
 40
0.119140625
 40
0.12109375
 40
0.1220703125
 40
0.123046875
 40
0.1240234375
 40
0.1245117188
 40
0.1247558594
 40
0.125
 40
0.1252441406
 40
0.1254882812
 40
0.1259765625
 40
0.126953125
 40
0.1279296875
 40
0.12890625
 40
0.130859375
 40
0.1328125
 40
0.13671875
 40
0.140625
 40
0.14453125
 40
0.1484375
 40
0.15625
 40
0.1640625
 40
0.16796875
 40
0.171875
 40
0.17578125
 40
0.1796875
 40
0.181640625
 40
0.18359375
 40
0.1845703125
 40
0.185546875
 40
0.1865234375
 40
0.1870117188
 40
0.1872558594
 40
0.1875
 40
0.1877441406
 40
0.1879882812
 40
0.1884765625
 40
0.189453125
 40
0.1904296875
 40
0.19140625
 40
0.193359375
 40
0.1953125
 40
0.19921875
 40
0.203125
 40
0.20703125
 40
0.2109375
 40
0.21875
 40
0.2265625
 40
0.23046875
 40
0.234375
 40
0.23828125
 40
0.2421875
 40
0.244140625
 40
0.24609375
 40
0.2470703125
 40
0.248046875
 40
0.2490234375
 40
0.2495117188
 40
0.2497558594
 40
0.25
 40
0.2502441406
 40
0.2504882812
 40
0.2509765625
 40
0.251953125
 40
0.2529296875
 40
0.25390625
 40
0.255859375
 40
0.2578125
 40
0.26171875
 40
0.265625
 40
0.26953125
 40
0.2734375
 40
0.28125
 40
0.2890625
 40
0.29296875
 40
0.296875
 40
0.30078125
 40
0.3046875
 40
0.306640625
 40
0.30859375
 40
0.3095703125
 40
0.310546875
 40
0.3115234375
 40
0.3120117188
 40
0.3122558594
 40
0.3125
 40
0.3127441406
 40
0.3129882812
 40
0.3134765625
 40
0.314453125
 40
0.3154296875
 40
0.31640625
 40
0.318359375
 40
0.3203125
 40
0.32421875
 40
0.328125
 40
0.33203125
 40
0.3359375
 40
0.34375
 40
0.3515625
 40
0.35546875
 40
0.359375
 40
0.36328125
 40
0.3671875
 40
0.369140625
 40
0.37109375
 40
0.3720703125
 40
0.373046875
 40
0.3740234375
 40
0.3745117188
 40
0.3747558594
 40
0.375
 40
0.3752441406
 40
0.3754882812
 40
0.3759765625
 40
0.376953125
 40
0.3779296875
 40
0.37890625
 40
0.380859375
 40
0.3828125
 40
0.38671875
 40
0.390625
 40
0.39453125
 40
0.3984375
 40
0.40625
 40
0.4140625
 40
0.41796875
 40
0.421875
 40
0.42578125
 40
0.4296875
 40
0.431640625
 40
0.43359375
 40
0.4345703125
 40
0.435546875
 40
0.4365234375
 40
0.4370117188
 40
0.4372558594
 40
0.4375
 40
0.4377441406
 40
0.4379882812
 40
0.4384765625
 40
0.439453125
 40
0.4404296875
 40
0.44140625
 40
0.443359375
 40
0.4453125
 40
0.44921875
 40
0.453125
 40
0.45703125
 40
0.4609375
 40
0.46875
 40
0.4765625
 40
0.48046875
 40
0.484375
 40
0.48828125
 40
0.4921875
 40
0.494140625
 40
0.49609375
 40
0.4970703125
 40
0.498046875
 40
0.4990234375
 40
0.4995117188
 40
0.4997558594
 40
0.5
 40
0.5002441406
 40
0.5004882812
 40
0.5009765625
 40
0.501953125
 40
0.5029296875
 40
0.50390625
 40
0.505859375
 40
0.5078125
 40
0.51171875
 40
0.515625
 40
0.51953125
 40
0.5234375
 40
0.53125
 40
0.5390625
 40
0.54296875
 40
0.546875
 40
0.55078125
 40
0.5546875
 40
0.556640625
 40
0.55859375
 40
0.5595703125
 40
0.560546875
 40
0.5615234375
 40
0.5620117188
 40
0.5622558594
 40
0.5625
 40
0.5627441406
 40
0.5629882812
 40
0.5634765625
 40
0.564453125
 40
0.5654296875
 40
0.56640625
 40
0.568359375
 40
0.5703125
 40
0.57421875
 40
0.578125
 40
0.58203125
 40
0.5859375
 40
0.59375
 40
0.6015625
 40
0.60546875
 40
0.609375
 40
0.61328125
 40
0.6171875
 40
0.619140625
 40
0.62109375
 40
0.6220703125
 40
0.623046875
 40
0.6240234375
 40
0.6245117188
 40
0.6247558594
 40
0.625
 40
0.6252441406
 40
0.6254882812
 40
0.6259765625
 40
0.626953125
 40
0.6279296875
 40
0.62890625
 40
0.630859375
 40
0.6328125
 40
0.63671875
 40
0.640625
 40
0.64453125
 40
0.6484375
 40
0.65625
 40
0.6640625
 40
0.66796875
 40
0.671875
 40
0.67578125
 40
0.6796875
 40
0.681640625
 40
0.68359375
 40
0.6845703125
 40
0.685546875
 40
0.6865234375
 40
0.6870117188
 40
0.6872558594
 40
0.6875
 40
0.6877441406
 40
0.6879882812
 40
0.6884765625
 40
0.689453125
 40
0.6904296875
 40
0.69140625
 40
0.693359375
 40
0.6953125
 40
0.69921875
 40
0.703125
 40
0.70703125
 40
0.7109375
 40
0.71875
 40
0.7265625
 40
0.734375
 40
0.73828125
 40
0.7421875
 40
0.744140625
 40
0.74609375
 40
0.748046875
 40
0.7490234375
 40
0.7495117188
 40
0.75
 40
0.7504882812
 40
0.7509765625
 40
0.751953125
 40
0.75390625
 40
0.755859375
 40
0.7578125
 40
0.76171875
 40
0.765625
 40
0.7734375
 40
0.78125
 40
0.7890625
 40
0.796875
 40
0.80078125
 40
0.8046875
 40
0.806640625
 40
0.80859375
 40
0.810546875
 40
0.8115234375
 40
0.8120117188
 40
0.8125
 40
0.8129882812
 40
0.8134765625
 40
0.814453125
 40
0.81640625
 40
0.818359375
 40
0.8203125
 40
0.82421875
 40
0.828125
 40
0.8359375
 40
0.84375
 40
0.8515625
 40
0.859375
 40
0.86328125
 40
0.8671875
 40
0.869140625
 40
0.87109375
 40
0.873046875
 40
0.8740234375
 40
0.8745117188
 40
0.875
 40
0.8754882812
 40
0.8759765625
 40
0.876953125
 40
0.87890625
 40
0.880859375
 40
0.8828125
 40
0.88671875
 40
0.890625
 40
0.8984375
 40
0.90625
 40
0.9140625
 40
0.921875
 40
0.92578125
 40
0.9296875
 40
0.931640625
 40
0.93359375
 40
0.935546875
 40
0.9365234375
 40
0.9370117188
 40
0.9375
 40
0.9379882812
 40
0.9384765625
 40
0.939453125
 40
0.94140625
 40
0.943359375
 40
0.9453125
 40
0.94921875
 40
0.953125
 40
0.9609375
 40
0.96875
 40
0.9765625
 40
0.984375
 40
1.0
 40
1.0
 40
1.0
 40
1.0
 10
658.0805754593
 20
265.3673554847
 30
0.0
 10
658.078049043
 20
265.4018991389
 30
0.0
 10
658.074259418
 20
265.45371462
 30
0.0
 10
658.0692065868
 20
265.5228019292
 30
0.0
 10
658.065416958
 20
265.5746174082
 30
0.0
 10
658.0622589512
 20
265.6177969831
 30
0.0
 10
658.0597325072
 20
265.6523406227
 30
0.0
 10
658.0578377793
 20
265.678248408
 30
0.0
 10
658.0559426505
 20
265.7041559811
 30
0.0
 10
658.0543646253
 20
265.7257462863
 30
0.0
 10
658.0530994085
 20
265.7430170502
 30
0.0
 10
658.0521581366
 20
265.7559741674
 30
0.0
 10
658.0513494396
 20
265.7667589011
 30
0.0
 10
658.0508310467
 20
265.7743334596
 30
0.0
 10
658.0504603504
 20
265.7786223609
 30
0.0
 10
658.0503921163
 20
265.7819500775
 30
0.0
 10
658.0495219659
 20
265.7848533405
 30
0.0
 10
658.0486414828
 20
265.7888724119
 30
0.0
 10
658.0469703118
 20
265.7958368057
 30
0.0
 10
658.0446510604
 20
265.8058220039
 30
0.0
 10
658.0418387943
 20
265.817788805
 30
0.0
 10
658.0380992937
 20
265.8337499321
 30
0.0
 10
658.0334214222
 20
265.8536994907
 30
0.0
 10
658.0278094749
 20
265.8776397541
 30
0.0
 10
658.0221971266
 20
265.9015798054
 30
0.0
 10
658.0147141358
 20
265.9334999479
 30
0.0
 10
658.0053603486
 20
265.9734001002
 30
0.0
 10
657.9960065807
 20
266.0133002631
 30
0.0
 10
657.9885235592
 20
266.0452203886
 30
0.0
 10
657.982911303
 20
266.0691604908
 30
0.0
 10
657.9772990105
 20
266.0931005632
 30
0.0
 10
657.9726222128
 20
266.1130507161
 30
0.0
 10
657.9688805224
 20
266.1290106311
 30
0.0
 10
657.96654254
 20
266.1389860499
 30
0.0
 10
657.9646708392
 20
266.1469653043
 30
0.0
 10
657.9632706639
 20
266.1529527039
 30
0.0
 10
657.9620923982
 20
266.1579327909
 30
0.0
 10
657.9612900883
 20
266.161437324
 30
0.0
 10
657.9607965308
 20
266.1634110716
 30
0.0
 10
657.9605252249
 20
266.1649726326
 30
0.0
 10
657.9598760177
 20
266.1662236139
 30
0.0
 10
657.9591422243
 20
266.1679999226
 30
0.0
 10
657.9577966702
 20
266.1710579882
 30
0.0
 10
657.9559065589
 20
266.175453042
 30
0.0
 10
657.9536246817
 20
266.1807158114
 30
0.0
 10
657.9505869792
 20
266.1877367824
 30
0.0
 10
657.9467882073
 20
266.1965116454
 30
0.0
 10
657.940711091
 20
266.2105521811
 30
0.0
 10
657.9331143804
 20
266.2281025917
 30
0.0
 10
657.9239984628
 20
266.2491631954
 30
0.0
 10
657.914882509
 20
266.2702237695
 30
0.0
 10
657.9027279167
 20
266.2983045453
 30
0.0
 10
657.8875346715
 20
266.3334055111
 30
0.0
 10
657.8723414295
 20
266.3685064797
 30
0.0
 10
657.8601868321
 20
266.3965872509
 30
0.0
 10
657.8510708933
 20
266.4176478386
 30
0.0
 10
657.8419549195
 20
266.4387083911
 30
0.0
 10
657.8343583839
 20
266.4562589611
 30
0.0
 10
657.8282809106
 20
266.4702991718
 30
0.0
 10
657.8244830472
 20
266.4790748621
 30
0.0
 10
657.8214434799
 20
266.4860941349
 30
0.0
 10
657.8191672998
 20
266.4913620925
 30
0.0
 10
657.8172593637
 20
266.4957409134
 30
0.0
 10
657.8159456298
 20
266.4988279575
 30
0.0
 10
657.8151608525
 20
266.5005578354
 30
0.0
 10
657.8146682514
 20
266.5019514374
 30
0.0
 10
657.8138087591
 20
266.5029773385
 30
0.0
 10
657.8127907451
 20
266.5044734649
 30
0.0
 10
657.8109495943
 20
266.5070319281
 30
0.0
 10
657.8083505522
 20
266.5107181176
 30
0.0
 10
657.8052183585
 20
266.5151281725
 30
0.0
 10
657.8010467608
 20
266.5210129164
 30
0.0
 10
657.7958306678
 20
266.528367247
 30
0.0
 10
657.787485811
 20
266.5401350699
 30
0.0
 10
657.7770544339
 20
266.5548445417
 30
0.0
 10
657.7645369126
 20
266.5724960394
 30
0.0
 10
657.7520193561
 20
266.5901475019
 30
0.0
 10
657.7353292932
 20
266.6136827976
 30
0.0
 10
657.71446671
 20
266.6431019124
 30
0.0
 10
657.6936041295
 20
266.6725210309
 30
0.0
 10
657.6769140623
 20
266.6960563207
 30
0.0
 10
657.6643965186
 20
266.7137078008
 30
0.0
 10
657.6518789493
 20
266.7313592324
 30
0.0
 10
657.6414477215
 20
266.7460689098
 30
0.0
 10
657.6331025602
 20
266.7578363135
 30
0.0
 10
657.627887242
 20
266.7651917108
 30
0.0
 10
657.623714054
 20
266.7710742652
 30
0.0
 10
657.6205867186
 20
266.7754910093
 30
0.0
 10
657.6179724762
 20
266.7791562696
 30
0.0
 10
657.6161584605
 20
266.7817520951
 30
0.0
 10
657.6150969693
 20
266.7831883578
 30
0.0
 10
657.614371025
 20
266.7843981409
 30
0.0
 10
657.6133768397
 20
266.7851011127
 30
0.0
 10
657.6121448248
 20
266.7862151899
 30
0.0
 10
657.6099452047
 20
266.7880824593
 30
0.0
 10
657.6068256817
 20
266.7907930488
 30
0.0
 10
657.6030724988
 20
266.7940273243
 30
0.0
 10
657.5980716621
 20
266.7983461296
 30
0.0
 10
657.5918194497
 20
266.8037424318
 30
0.0
 10
657.5818165618
 20
266.8123777474
 30
0.0
 10
657.5693127282
 20
266.8231714691
 30
0.0
 10
657.5543082238
 20
266.8361241164
 30
0.0
 10
657.5393036937
 20
266.8490767151
 30
0.0
 10
657.5192976626
 20
266.8663468639
 30
0.0
 10
657.4942901203
 20
266.8879345434
 30
0.0
 10
657.4692825802
 20
266.9095222272
 30
0.0
 10
657.4492765458
 20
266.926792369
 30
0.0
 10
657.4342720257
 20
266.9397449885
 30
0.0
 10
657.4192674838
 20
266.952697558
 30
0.0
 10
657.4067637667
 20
266.9634915217
 30
0.0
 10
657.3967606413
 20
266.9721263438
 30
0.0
 10
657.3905090333
 20
266.9775239019
 30
0.0
 10
657.3855069558
 20
266.9818401292
 30
0.0
 10
657.3817575639
 20
266.9850822807
 30
0.0
 10
657.3786261795
 20
266.9877682282
 30
0.0
 10
657.3764477342
 20
266.9896794876
 30
0.0
 10
657.375181792
 20
266.9907230818
 30
0.0
 10
657.3742918203
 20
266.991642555
 30
0.0
 10
657.3731744669
 20
266.9920391951
 30
0.0
 10
657.3717639757
 20
266.9927504185
 30
0.0
 10
657.3692586626
 20
266.99391009
 30
0.0
 10
657.3656989635
 20
266.9956111865
 30
0.0
 10
657.3614190552
 20
266.9976334879
 30
0.0
 10
657.3557153991
 20
267.0003365311
 30
0.0
 10
657.34858484
 20
267.0037130612
 30
0.0
 10
657.3371764982
 20
267.0091167801
 30
0.0
 10
657.3229158813
 20
267.0158709927
 30
0.0
 10
657.3058032224
 20
267.0239762348
 30
0.0
 10
657.2886905416
 20
267.0320814269
 30
0.0
 10
657.2658736416
 20
267.0428883672
 30
0.0
 10
657.2373525138
 20
267.0563970359
 30
0.0
 10
657.2088313876
 20
267.0699057092
 30
0.0
 10
657.186014485
 20
267.0807126422
 30
0.0
 10
657.168901812
 20
267.088817856
 30
0.0
 10
657.151789124
 20
267.0969230166
 30
0.0
 10
657.1375285975
 20
267.1036774828
 30
0.0
 10
657.1261200714
 20
267.1090806846
 30
0.0
 10
657.1189899813
 20
267.1124585307
 30
0.0
 10
657.1132853626
 20
267.1151588725
 30
0.0
 10
657.1090083951
 20
267.1171894271
 30
0.0
 10
657.105439495
 20
267.1188647013
 30
0.0
 10
657.1029506073
 20
267.1200704699
 30
0.0
 10
657.1015137984
 20
267.1207078342
 30
0.0
 10
657.1004772846
 20
267.1213313461
 30
0.0
 10
657.0992836929
 20
267.1213987263
 30
0.0
 10
657.0977470279
 20
267.1216825516
 30
0.0
 10
657.0950323362
 20
267.1220888646
 30
0.0
 10
657.0911675515
 20
267.1227165641
 30
0.0
 10
657.0865240972
 20
267.1234495781
 30
0.0
 10
657.0803348201
 20
267.1244339943
 30
0.0
 10
657.0725975405
 20
267.1256620958
 30
0.0
 10
657.0602182751
 20
267.12762841
 30
0.0
 10
657.0447440622
 20
267.1300858389
 30
0.0
 10
657.026175063
 20
267.1330349524
 30
0.0
 10
657.0076060487
 20
267.1359840128
 30
0.0
 10
656.9828473683
 20
267.1399161119
 30
0.0
 10
656.9518990158
 20
267.1448312287
 30
0.0
 10
656.9209506645
 20
267.1497463503
 30
0.0
 10
656.8961919822
 20
267.1536784418
 30
0.0
 10
656.8776229735
 20
267.156627525
 30
0.0
 10
656.8590539535
 20
267.1595765529
 30
0.0
 10
656.8435798053
 20
267.1620342483
 30
0.0
 10
656.8312004079
 20
267.164000019
 30
0.0
 10
656.8234634642
 20
267.1652295036
 30
0.0
 10
656.8172734977
 20
267.1662110807
 30
0.0
 10
656.8126321495
 20
267.1669527687
 30
0.0
 10
656.8087607755
 20
267.1675533291
 30
0.0
 10
656.8060578467
 20
267.16800809
 30
0.0
 10
656.8045023345
 20
267.1682142897
 30
0.0
 10
656.8033666354
 20
267.1685201107
 30
0.0
 10
656.8021126869
 20
267.1682480788
 30
0.0
 10
656.8004820023
 20
267.1680869311
 30
0.0
 10
656.7976090867
 20
267.1677110114
 30
0.0
 10
656.7935149686
 20
267.1672230812
 30
0.0
 10
656.7885977265
 20
267.1666165494
 30
0.0
 10
656.7820429057
 20
267.1658151806
 30
0.0
 10
656.7738488654
 20
267.1648109564
 30
0.0
 10
656.7607386884
 20
267.1632056023
 30
0.0
 10
656.7443508685
 20
267.1611984276
 30
0.0
 10
656.7246855268
 20
267.1587900246
 30
0.0
 10
656.7050201739
 20
267.1563815664
 30
0.0
 10
656.6787997073
 20
267.1531703081
 30
0.0
 10
656.6460241226
 20
267.149156228
 30
0.0
 10
656.6132485384
 20
267.1451421526
 30
0.0
 10
656.5870280712
 20
267.1419308867
 30
0.0
 10
656.5673627199
 20
267.1395224514
 30
0.0
 10
656.5476973721
 20
267.1371139625
 30
0.0
 10
656.5313095713
 20
267.135107055
 30
0.0
 10
656.5181993552
 20
267.1335011561
 30
0.0
 10
656.5100054144
 20
267.1324983183
 30
0.0
 10
656.5034503895
 20
267.1316941035
 30
0.0
 10
656.4985337709
 20
267.1310962668
 30
0.0
 10
656.4944377019
 20
267.1305811319
 30
0.0
 10
656.491568269
 20
267.1302537771
 30
0.0
 10
656.4899320042
 20
267.1300148163
 30
0.0
 10
656.4886951962
 20
267.1299818013
 30
0.0
 10
656.4874951204
 20
267.1293899143
 30
0.0
 10
656.4858822068
 20
267.1287956724
 30
0.0
 10
656.4830655776
 20
267.1276649226
 30
0.0
 10
656.4790387006
 20
267.1260970508
 30
0.0
 10
656.474207784
 20
267.1241952795
 30
0.0
 10
656.4677660954
 20
267.1216666837
 30
0.0
 10
656.4597141443
 20
267.1185035081
 30
0.0
 10
656.4468309333
 20
267.1134437857
 30
0.0
 10
656.4307269502
 20
267.1071186666
 30
0.0
 10
656.4114021574
 20
267.0995287234
 30
0.0
 10
656.3920773681
 20
267.0919387268
 30
0.0
 10
656.3663109811
 20
267.0818187501
 30
0.0
 10
656.3341029978
 20
267.0691687722
 30
0.0
 10
656.3018950141
 20
267.0565187988
 30
0.0
 10
656.2761286279
 20
267.0463988148
 30
0.0
 10
656.2568038362
 20
267.0388088401
 30
0.0
 10
656.2374790521
 20
267.0312188149
 30
0.0
 10
656.2213750418
 20
267.024893951
 30
0.0
 10
656.2084918864
 20
267.0198337081
 30
0.0
 10
656.2004397937
 20
267.0166718572
 30
0.0
 10
656.1939983958
 20
267.0141405422
 30
0.0
 10
656.189166591
 20
267.0122470783
 30
0.0
 10
656.1851424931
 20
267.0106532149
 30
0.0
 10
656.1823209027
 20
267.0095688646
 30
0.0
 10
656.1807159382
 20
267.008900279
 30
0.0
 10
656.1794914452
 20
267.0085367521
 30
0.0
 10
656.1783463441
 20
267.0076460543
 30
0.0
 10
656.1767918499
 20
267.0066423405
 30
0.0
 10
656.1740843876
 20
267.0048001667
 30
0.0
 10
656.1702098386
 20
267.0022132814
 30
0.0
 10
656.1655632672
 20
266.9990898469
 30
0.0
 10
656.1593668301
 20
266.9949319639
 30
0.0
 10
656.1516216291
 20
266.9897323174
 30
0.0
 10
656.1392291145
 20
266.9814141644
 30
0.0
 10
656.1237385375
 20
266.9710160335
 30
0.0
 10
656.1051498167
 20
266.9585384648
 30
0.0
 10
656.0865611035
 20
266.9460608457
 30
0.0
 10
656.0617761499
 20
266.929424038
 30
0.0
 10
656.0307949589
 20
266.9086280217
 30
0.0
 10
655.999813767
 20
266.8878320097
 30
0.0
 10
655.9750288149
 20
266.8711951952
 30
0.0
 10
655.956440097
 20
266.8587175963
 30
0.0
 10
655.9378513939
 20
266.8462399519
 30
0.0
 10
655.9223607616
 20
266.8358420567
 30
0.0
 10
655.9099683597
 20
266.8275234229
 30
0.0
 10
655.9022228719
 20
266.8223249999
 30
0.0
 10
655.8960270236
 20
266.8181646056
 30
0.0
 10
655.8913786535
 20
266.8150488438
 30
0.0
 10
655.8875097323
 20
266.8124379523
 30
0.0
 10
655.8847922234
 20
266.8106386336
 30
0.0
 10
655.8832538262
 20
266.8095662551
 30
0.0
 10
655.8820592802
 20
266.8088864731
 30
0.0
 10
655.881020494
 20
266.8077307819
 30
0.0
 10
655.8795811149
 20
266.8063558627
 30
0.0
 10
655.8770875151
 20
266.8038724105
 30
0.0
 10
655.8735119955
 20
266.8003650579
 30
0.0
 10
655.8692270366
 20
266.7961389267
 30
0.0
 10
655.8635117796
 20
266.7905101305
 30
0.0
 10
655.8563683857
 20
266.7834720652
 30
0.0
 10
655.8449385769
 20
266.7722123178
 30
0.0
 10
655.8306514459
 20
266.7581372365
 30
0.0
 10
655.8135068329
 20
266.7412473091
 30
0.0
 10
655.7963622349
 20
266.7243573362
 30
0.0
 10
655.7735027656
 20
266.7018373883
 30
0.0
 10
655.7449284309
 20
266.6736874474
 30
0.0
 10
655.7163540948
 20
266.6455375104
 30
0.0
 10
655.6934946279
 20
266.6230175563
 30
0.0
 10
655.6763500227
 20
266.606127602
 30
0.0
 10
655.6592054366
 20
266.5892376047
 30
0.0
 10
655.644918222
 20
266.5751627409
 30
0.0
 10
655.6334885836
 20
266.5639025499
 30
0.0
 10
655.6263447562
 20
266.5568656134
 30
0.0
 10
655.620630389
 20
266.5512345002
 30
0.0
 10
655.6163427115
 20
266.5470154477
 30
0.0
 10
655.612775698
 20
266.5434859476
 30
0.0
 10
655.6102669134
 20
266.5410420324
 30
0.0
 10
655.6088518642
 20
266.539603765
 30
0.0
 10
655.6077383442
 20
266.5386426592
 30
0.0
 10
655.6068244856
 20
266.5372320469
 30
0.0
 10
655.6055363633
 20
266.5355080233
 30
0.0
 10
655.6033145978
 20
266.5324179293
 30
0.0
 10
655.6001236827
 20
266.5280417022
 30
0.0
 10
655.5963018458
 20
266.5227738819
 30
0.0
 10
655.5912035271
 20
266.5157558314
 30
0.0
 10
655.5848314971
 20
266.5069813132
 30
0.0
 10
655.5746357638
 20
266.4929431768
 30
0.0
 10
655.5618912637
 20
266.4753951314
 30
0.0
 10
655.5465977923
 20
266.4543376375
 30
0.0
 10
655.5313043396
 20
266.4332801009
 30
0.0
 10
655.5109130646
 20
266.4052033988
 30
0.0
 10
655.4854239594
 20
266.3701075282
 30
0.0
 10
655.454837095
 20
266.3279924299
 30
0.0
 10
655.4293478504
 20
266.2928966836
 30
0.0
 10
655.4089568821
 20
266.2648197081
 30
0.0
 10
655.396211554
 20
266.24727246
 30
0.0
 10
655.3860175197
 20
266.2332326883
 30
0.0
 10
655.3783658932
 20
266.2227082623
 30
0.0
 10
655.3720089454
 20
266.2139207201
 30
0.0
 10
655.3675209949
 20
266.2078031699
 30
0.0
 10
655.3650159217
 20
266.2042547614
 30
0.0
 10
655.3629695888
 20
266.2017418148
 30
0.0
 10
655.3615636327
 20
266.1986617618
 30
0.0
 10
655.3594656539
 20
266.1947528375
 30
0.0
 10
655.3558982635
 20
266.1878200552
 30
0.0
 10
655.3507475812
 20
266.1779642653
 30
0.0
 10
655.3445900518
 20
266.1661166928
 30
0.0
 10
655.3363718781
 20
266.1503271332
 30
0.0
 10
655.3261019464
 20
266.130587717
 30
0.0
 10
655.3096684983
 20
266.0990060302
 30
0.0
 10
655.2891272263
 20
266.059528446
 30
0.0
 10
655.264477453
 20
266.0121555595
 30
0.0
 10
655.2398278064
 20
265.9647825758
 30
0.0
 10
655.2192862177
 20
265.9253052346
 30
0.0
 10
655.202853403
 20
265.8937230618
 30
0.0
 10
655.1925818614
 20
265.8739848808
 30
0.0
 10
655.1843669919
 20
265.8581927862
 30
0.0
 10
655.1781993679
 20
265.8463529585
 30
0.0
 10
655.1730802692
 20
265.8364729369
 30
0.0
 10
655.1694564968
 20
265.8295834123
 30
0.0
 10
655.1674488561
 20
265.8256051782
 30
0.0
 10
655.1657654104
 20
265.8227380226
 30
0.0
 10
655.1647612821
 20
265.8194254689
 30
0.0
 10
655.1631854908
 20
265.8151640904
 30
0.0
 10
655.1605382572
 20
265.8076342932
 30
0.0
 10
655.1566987759
 20
265.7969152836
 30
0.0
 10
655.1521161039
 20
265.7840362738
 30
0.0
 10
655.1459972455
 20
265.7668699185
 30
0.0
 10
655.1383516271
 20
265.7454100371
 30
0.0
 10
655.1261169858
 20
265.7110753098
 30
0.0
 10
655.1108242551
 20
265.6681565278
 30
0.0
 10
655.0924727155
 20
265.6166541549
 30
0.0
 10
655.0741213135
 20
265.5651517167
 30
0.0
 10
655.0588282387
 20
265.5222330977
 30
0.0
 10
655.0465942856
 20
265.4878980444
 30
0.0
 10
655.0389469179
 20
265.4664389916
 30
0.0
 10
655.0328316499
 20
265.4492709357
 30
0.0
 10
655.0282380087
 20
265.4363971214
 30
0.0
 10
655.0244328473
 20
265.4256618566
 30
0.0
 10
655.0217243469
 20
265.4181610775
 30
0.0
 10
655.0202467203
 20
265.4138532047
 30
0.0
 10
655.0189410617
 20
265.410683467
 30
0.0
 10
655.0183901137
 20
265.4072799181
 30
0.0
 10
655.0173922649
 20
265.4028234089
 30
0.0
 10
655.0157686831
 20
265.3949865194
 30
0.0
 10
655.0133851558
 20
265.3838108289
 30
0.0
 10
655.0105523706
 20
265.3703914971
 30
0.0
 10
655.0067657367
 20
265.3525020246
 30
0.0
 10
655.002035727
 20
265.3301391671
 30
0.0
 10
654.9944658762
 20
265.2943591636
 30
0.0
 10
654.9850041968
 20
265.2496339635
 30
0.0
 10
654.9736498906
 20
265.1959638101
 30
0.0
 10
654.9622957337
 20
265.142293623
 30
0.0
 10
654.952833681
 20
265.0975685068
 30
0.0
 10
654.9452645769
 20
265.0617883355
 30
0.0
 10
654.9405326692
 20
265.0394259044
 30
0.0
 10
654.936749931
 20
265.0215355569
 30
0.0
 10
654.933905244
 20
265.0081188985
 30
0.0
 10
654.9315589542
 20
264.9969348435
 30
0.0
 10
654.9298688974
 20
264.989112886
 30
0.0
 10
654.9289775583
 20
264.9846324519
 30
0.0
 10
654.9280994464
 20
264.9813023927
 30
0.0
 10
654.9280225608
 20
264.9778566403
 30
0.0
 10
654.92764057
 20
264.9733026588
 30
0.0
 10
654.9271022995
 20
264.965314389
 30
0.0
 10
654.9262652647
 20
264.9539124051
 30
0.0
 10
654.9252899619
 20
264.9402258168
 30
0.0
 10
654.9239793806
 20
264.9219785021
 30
0.0
 10
654.9223446388
 20
264.8991688554
 30
0.0
 10
654.9197271042
 20
264.862673702
 30
0.0
 10
654.9164558543
 20
264.8170546638
 30
0.0
 10
654.9125300679
 20
264.7623118593
 30
0.0
 10
654.9086043581
 20
264.7075690437
 30
0.0
 10
654.9033700516
 20
264.6345786268
 30
0.0
 10
654.8994443277
 20
264.5798358132
 30
0.0
 10
654.8968271772
 20
264.5433406044
 30
0.0
  0
SPLINE
  5
37C
100
AcDbEntity
  8
0
100
AcDbSpline
 62
2
  6
CONTINUOUS
 70
0
 71
3
 72
243
 73
239
 74
0
 42
0.0000001
 43
0.0000001
 44
0.0000000001
 40
0.0
 40
0.0
 40
0.0
 40
0.0
 40
0.015625
 40
0.03125
 40
0.0390625
 40
0.046875
 40
0.0546875
 40
0.05859375
 40
0.0625
 40
0.06640625
 40
0.068359375
 40
0.0693359375
 40
0.0703125
 40
0.0712890625
 40
0.072265625
 40
0.0732421875
 40
0.07421875
 40
0.078125
 40
0.08203125
 40
0.0859375
 40
0.09375
 40
0.1015625
 40
0.109375
 40
0.1171875
 40
0.125
 40
0.12890625
 40
0.1328125
 40
0.13671875
 40
0.138671875
 40
0.140625
 40
0.1416015625
 40
0.142578125
 40
0.14453125
 40
0.146484375
 40
0.1484375
 40
0.15234375
 40
0.15625
 40
0.1640625
 40
0.171875
 40
0.1875
 40
0.1953125
 40
0.19921875
 40
0.203125
 40
0.20703125
 40
0.2109375
 40
0.212890625
 40
0.2138671875
 40
0.2143554688
 40
0.21484375
 40
0.2158203125
 40
0.216796875
 40
0.21875
 40
0.22265625
 40
0.2265625
 40
0.234375
 40
0.2421875
 40
0.25
 40
0.2578125
 40
0.265625
 40
0.2734375
 40
0.27734375
 40
0.28125
 40
0.283203125
 40
0.2841796875
 40
0.28515625
 40
0.2856445312
 40
0.2861328125
 40
0.287109375
 40
0.2890625
 40
0.29296875
 40
0.296875
 40
0.3046875
 40
0.3125
 40
0.328125
 40
0.3359375
 40
0.34375
 40
0.34765625
 40
0.3515625
 40
0.353515625
 40
0.35546875
 40
0.357421875
 40
0.3583984375
 40
0.359375
 40
0.361328125
 40
0.36328125
 40
0.3671875
 40
0.37109375
 40
0.375
 40
0.3828125
 40
0.390625
 40
0.3984375
 40
0.40625
 40
0.4140625
 40
0.41796875
 40
0.421875
 40
0.42578125
 40
0.4267578125
 40
0.427734375
 40
0.4287109375
 40
0.4296875
 40
0.431640625
 40
0.43359375
 40
0.4375
 40
0.44140625
 40
0.4453125
 40
0.453125
 40
0.46875
 40
0.4765625
 40
0.484375
 40
0.48828125
 40
0.4921875
 40
0.494140625
 40
0.49609375
 40
0.498046875
 40
0.4990234375
 40
0.4995117188
 40
0.5
 40
0.5004882812
 40
0.5009765625
 40
0.501953125
 40
0.50390625
 40
0.505859375
 40
0.5078125
 40
0.51171875
 40
0.515625
 40
0.5234375
 40
0.53125
 40
0.546875
 40
0.5546875
 40
0.55859375
 40
0.5625
 40
0.56640625
 40
0.568359375
 40
0.5703125
 40
0.5708007812
 40
0.5712890625
 40
0.572265625
 40
0.5732421875
 40
0.57421875
 40
0.578125
 40
0.58203125
 40
0.5859375
 40
0.59375
 40
0.6015625
 40
0.609375
 40
0.6171875
 40
0.625
 40
0.62890625
 40
0.6328125
 40
0.63671875
 40
0.638671875
 40
0.640625
 40
0.6416015625
 40
0.642578125
 40
0.64453125
 40
0.646484375
 40
0.6484375
 40
0.65234375
 40
0.65625
 40
0.6640625
 40
0.671875
 40
0.6875
 40
0.6953125
 40
0.69921875
 40
0.703125
 40
0.70703125
 40
0.7109375
 40
0.712890625
 40
0.7138671875
 40
0.7143554688
 40
0.71484375
 40
0.7158203125
 40
0.716796875
 40
0.71875
 40
0.720703125
 40
0.72265625
 40
0.7265625
 40
0.734375
 40
0.7421875
 40
0.75
 40
0.7578125
 40
0.765625
 40
0.7734375
 40
0.77734375
 40
0.779296875
 40
0.78125
 40
0.783203125
 40
0.7841796875
 40
0.78515625
 40
0.7856445312
 40
0.7861328125
 40
0.787109375
 40
0.7890625
 40
0.79296875
 40
0.796875
 40
0.80078125
 40
0.8046875
 40
0.8125
 40
0.828125
 40
0.8359375
 40
0.84375
 40
0.84765625
 40
0.8515625
 40
0.853515625
 40
0.85546875
 40
0.8564453125
 40
0.8569335938
 40
0.8571777344
 40
0.857421875
 40
0.8583984375
 40
0.859375
 40
0.861328125
 40
0.86328125
 40
0.8671875
 40
0.87109375
 40
0.875
 40
0.8828125
 40
0.890625
 40
0.8984375
 40
0.90625
 40
0.9140625
 40
0.921875
 40
0.92578125
 40
0.9267578125
 40
0.927734375
 40
0.9287109375
 40
0.9291992188
 40
0.9296875
 40
0.931640625
 40
0.93359375
 40
0.9375
 40
0.94140625
 40
0.9453125
 40
0.953125
 40
0.9609375
 40
0.96875
 40
0.984375
 40
1.0
 40
1.0
 40
1.0
 40
1.0
 10
646.2531029608
 20
261.9680315115
 30
0.0
 10
646.2666116723
 20
261.9773304863
 30
0.0
 10
646.2936290939
 20
261.99592844
 30
0.0
 10
646.3274008781
 20
262.0191758614
 30
0.0
 10
646.3544182904
 20
262.0377738421
 30
0.0
 10
646.3746813906
 20
262.0517222092
 30
0.0
 10
646.3915671771
 20
262.063346225
 30
0.0
 10
646.4050760985
 20
262.0726445933
 30
0.0
 10
646.4152069911
 20
262.0796206767
 30
0.0
 10
646.4236519415
 20
262.0854267406
 30
0.0
 10
646.4295584223
 20
262.0895053877
 30
0.0
 10
646.432941337
 20
262.091813555
 30
0.0
 10
646.4354565986
 20
262.0936080302
 30
0.0
 10
646.4380556666
 20
262.0951603507
 30
0.0
 10
646.4403414335
 20
262.0976179402
 30
0.0
 10
646.4426603091
 20
262.0999798634
 30
0.0
 10
646.4472810292
 20
262.1047529207
 30
0.0
 10
646.4542192614
 20
262.1118918411
 30
0.0
 10
646.4634661559
 20
262.1214221958
 30
0.0
 10
646.4757967744
 20
262.1341252153
 30
0.0
 10
646.4912095576
 20
262.1500054045
 30
0.0
 10
646.5097051103
 20
262.1690610205
 30
0.0
 10
646.5282005957
 20
262.1881168172
 30
0.0
 10
646.5466961373
 20
262.2071725021
 30
0.0
 10
646.5621089573
 20
262.2230524616
 30
0.0
 10
646.5744395003
 20
262.2357559521
 30
0.0
 10
646.5836866255
 20
262.2452848679
 30
0.0
 10
646.5913950505
 20
262.2532215035
 30
0.0
 10
646.5975562118
 20
262.2595800693
 30
0.0
 10
646.6014196406
 20
262.2635330935
 30
0.0
 10
646.6044812913
 20
262.2667437889
 30
0.0
 10
646.6076491492
 20
262.2697782439
 30
0.0
 10
646.6108487826
 20
262.274832771
 30
0.0
 10
646.6148660623
 20
262.2806032956
 30
0.0
 10
646.6201603616
 20
262.2884003335
 30
0.0
 10
646.6267994896
 20
262.298111362
 30
0.0
 10
646.6374102164
 20
262.3136687179
 30
0.0
 10
646.6506776945
 20
262.3331086611
 30
0.0
 10
646.6719033701
 20
262.3642163608
 30
0.0
 10
646.693129759
 20
262.395322922
 30
0.0
 10
646.7117024791
 20
262.4225416642
 30
0.0
 10
646.7223157401
 20
262.4380949413
 30
0.0
 10
646.7302749574
 20
262.4497606255
 30
0.0
 10
646.7382369491
 20
262.4614235492
 30
0.0
 10
646.7448633015
 20
262.4711512486
 30
0.0
 10
646.7495186798
 20
262.4779437937
 30
0.0
 10
646.7518232397
 20
262.4813630763
 30
0.0
 10
646.7531773623
 20
262.4832799127
 30
0.0
 10
646.7541576809
 20
262.4855686278
 30
0.0
 10
646.7555110524
 20
262.4883022076
 30
0.0
 10
646.7576050256
 20
262.4927469885
 30
0.0
 10
646.7613027509
 20
262.5004922543
 30
0.0
 10
646.7665678556
 20
262.5115741903
 30
0.0
 10
646.7750017259
 20
262.5292956352
 30
0.0
 10
646.7855407325
 20
262.5514507546
 30
0.0
 10
646.7981889765
 20
262.5780354731
 30
0.0
 10
646.810836806
 20
262.6046205897
 30
0.0
 10
646.8234848578
 20
262.6312055387
 30
0.0
 10
646.8361324349
 20
262.6577907598
 30
0.0
 10
646.8466734793
 20
262.6799443435
 30
0.0
 10
646.8551031999
 20
262.6976689157
 30
0.0
 10
646.8603788641
 20
262.7087428939
 30
0.0
 10
646.864057624
 20
262.7165024523
 30
0.0
 10
646.8661819974
 20
262.7209243232
 30
0.0
 10
646.8674575506
 20
262.723716548
 30
0.0
 10
646.8685976694
 20
262.7258848351
 30
0.0
 10
646.8693008271
 20
262.7282922489
 30
0.0
 10
646.8706075151
 20
262.7324635434
 30
0.0
 10
646.8731668254
 20
262.7408357198
 30
0.0
 10
646.8768511916
 20
262.7527805347
 30
0.0
 10
646.8827304145
 20
262.771900865
 30
0.0
 10
646.8900848308
 20
262.7957983271
 30
0.0
 10
646.9018489416
 20
262.8340358988
 30
0.0
 10
646.9136135432
 20
262.8722731189
 30
0.0
 10
646.9253788891
 20
262.9105101696
 30
0.0
 10
646.9327299606
 20
262.9344090429
 30
0.0
 10
646.9386160789
 20
262.9535264638
 30
0.0
 10
646.9422828851
 20
262.9654786881
 30
0.0
 10
646.9452438572
 20
262.97503168
 30
0.0
 10
646.9473892155
 20
262.9822204848
 30
0.0
 10
646.9494167803
 20
262.9881346141
 30
0.0
 10
646.9500542646
 20
262.9931802242
 30
0.0
 10
646.9508636933
 20
262.998170944
 30
0.0
 10
646.9518166051
 20
263.0044281382
 30
0.0
 10
646.9533741689
 20
263.0144291448
 30
0.0
 10
646.9553098341
 20
263.0269340069
 30
0.0
 10
646.9576374646
 20
263.0419382988
 30
0.0
 10
646.9607392838
 20
263.0619445602
 30
0.0
 10
646.9646171391
 20
263.0869522024
 30
0.0
 10
646.9692703072
 20
263.1169614503
 30
0.0
 10
646.9739235781
 20
263.1469706846
 30
0.0
 10
646.978576696
 20
263.176979896
 30
0.0
 10
646.9824547188
 20
263.20198766
 30
0.0
 10
646.9855561945
 20
263.2219936717
 30
0.0
 10
646.987884874
 20
263.2369987264
 30
0.0
 10
646.9896240192
 20
263.2482509543
 30
0.0
 10
646.9907949194
 20
263.2557548742
 30
0.0
 10
646.9913598841
 20
263.2595024859
 30
0.0
 10
646.9920044962
 20
263.2632670038
 30
0.0
 10
646.9918199858
 20
263.2680647594
 30
0.0
 10
646.9919468124
 20
263.2741378306
 30
0.0
 10
646.9919499479
 20
263.283812337
 30
0.0
 10
646.9920224126
 20
263.2959200196
 30
0.0
 10
646.9920800331
 20
263.3104430116
 30
0.0
 10
646.9921670949
 20
263.3298091733
 30
0.0
 10
646.9923146717
 20
263.3636989408
 30
0.0
 10
646.9924854132
 20
263.4024305498
 30
0.0
 10
646.9926553723
 20
263.4411619812
 30
0.0
 10
646.9927618176
 20
263.465369198
 30
0.0
 10
646.9928466393
 20
263.4847348426
 30
0.0
 10
646.9929003789
 20
263.4968386563
 30
0.0
 10
646.9929417117
 20
263.5065210536
 30
0.0
 10
646.9929772522
 20
263.5137846411
 30
0.0
 10
646.9929924242
 20
263.5198319379
 30
0.0
 10
646.9930313926
 20
263.5240762177
 30
0.0
 10
646.9930093972
 20
263.5264840762
 30
0.0
 10
646.9931175905
 20
263.5283391108
 30
0.0
 10
646.9927491561
 20
263.5300063045
 30
0.0
 10
646.9924241633
 20
263.5322947506
 30
0.0
 10
646.9917779656
 20
263.5362690037
 30
0.0
 10
646.9908953232
 20
263.5419624682
 30
0.0
 10
646.9898188182
 20
263.5487877942
 30
0.0
 10
646.9883895326
 20
263.5578906149
 30
0.0
 10
646.9866008528
 20
263.5692683239
 30
0.0
 10
646.9837401228
 20
263.5874731144
 30
0.0
 10
646.980163818
 20
263.6102289492
 30
0.0
 10
646.974441926
 20
263.6466383541
 30
0.0
 10
646.9687201153
 20
263.6830478343
 30
0.0
 10
646.963713189
 20
263.7149058864
 30
0.0
 10
646.9608526338
 20
263.7331108666
 30
0.0
 10
646.9587056786
 20
263.7467635343
 30
0.0
 10
646.9569214514
 20
263.7581441576
 30
0.0
 10
646.9554830737
 20
263.7672410293
 30
0.0
 10
646.9546965212
 20
263.7723736503
 30
0.0
 10
646.9541363127
 20
263.7757705383
 30
0.0
 10
646.9538483987
 20
263.7780944747
 30
0.0
 10
646.952864739
 20
263.7805667415
 30
0.0
 10
646.9518298686
 20
263.7836343972
 30
0.0
 10
646.9496852715
 20
263.7897177872
 30
0.0
 10
646.9464998108
 20
263.798864676
 30
0.0
 10
646.9422345896
 20
263.811048084
 30
0.0
 10
646.9365538948
 20
263.8272969749
 30
0.0
 10
646.929450875
 20
263.847606596
 30
0.0
 10
646.9209281776
 20
263.8719787854
 30
0.0
 10
646.9124052167
 20
263.8963507863
 30
0.0
 10
646.9038823837
 20
263.920722897
 30
0.0
 10
646.8967798161
 20
263.9410327803
 30
0.0
 10
646.8910981941
 20
263.9572811336
 30
0.0
 10
646.8868358057
 20
263.969466184
 30
0.0
 10
646.8832875417
 20
263.9796242553
 30
0.0
 10
646.8804405731
 20
263.9877420492
 30
0.0
 10
646.8786802481
 20
263.992835397
 30
0.0
 10
646.8772284046
 20
263.996864897
 30
0.0
 10
646.8759356705
 20
264.0010593286
 30
0.0
 10
646.8731809121
 20
264.0051218544
 30
0.0
 10
646.8701414441
 20
264.0102728699
 30
0.0
 10
646.8659958273
 20
264.0170444949
 30
0.0
 10
646.8608456469
 20
264.025542032
 30
0.0
 10
646.8525875638
 20
264.0391196456
 30
0.0
 10
646.8422710558
 20
264.0560979821
 30
0.0
 10
646.8257612182
 20
264.0832597669
 30
0.0
 10
646.8092524224
 20
264.1104226511
 30
0.0
 10
646.794806739
 20
264.1341896208
 30
0.0
 10
646.7865523769
 20
264.1477711464
 30
0.0
 10
646.780360802
 20
264.1579562488
 30
0.0
 10
646.7741722834
 20
264.1681453182
 30
0.0
 10
646.7690056664
 20
264.1766238541
 30
0.0
 10
646.7654076856
 20
264.1825830399
 30
0.0
 10
646.7635832171
 20
264.18552956
 30
0.0
 10
646.7625816759
 20
264.1872665232
 30
0.0
 10
646.7611683728
 20
264.1884689849
 30
0.0
 10
646.7595427318
 20
264.190155076
 30
0.0
 10
646.7568629079
 20
264.1927505351
 30
0.0
 10
646.7535401632
 20
264.1960299527
 30
0.0
 10
646.7495412987
 20
264.1999502339
 30
0.0
 10
646.7442135153
 20
264.2051825148
 30
0.0
 10
646.734888014
 20
264.2143365651
 30
0.0
 10
646.7215668529
 20
264.227415057
 30
0.0
 10
646.7055810365
 20
264.2431086964
 30
0.0
 10
646.6895953384
 20
264.2588024957
 30
0.0
 10
646.6736095901
 20
264.2744962064
 30
0.0
 10
646.6576239246
 20
264.2901901118
 30
0.0
 10
646.6443023025
 20
264.303267791
 30
0.0
 10
646.6349776225
 20
264.3124232893
 30
0.0
 10
646.6296485233
 20
264.3176532504
 30
0.0
 10
646.6256537006
 20
264.3215806572
 30
0.0
 10
646.6223183058
 20
264.3248377728
 30
0.0
 10
646.619664291
 20
264.3274787335
 30
0.0
 10
646.6179729671
 20
264.3290490253
 30
0.0
 10
646.616694488
 20
264.3304891823
 30
0.0
 10
646.6151437405
 20
264.3312578919
 30
0.0
 10
646.6124773898
 20
264.3327201692
 30
0.0
 10
646.6071109947
 20
264.3355616313
 30
0.0
 10
646.599462334
 20
264.3396643108
 30
0.0
 10
646.5902763889
 20
264.3445689016
 30
0.0
 10
646.581092464
 20
264.3494784745
 30
0.0
 10
646.5688465259
 20
264.356022833
 30
0.0
 10
646.5474164652
 20
264.3674762785
 30
0.0
 10
646.5229248123
 20
264.3805655374
 30
0.0
 10
646.498433246
 20
264.3936550407
 30
0.0
 10
646.4831259299
 20
264.401835697
 30
0.0
 10
646.4708802644
 20
264.4083808407
 30
0.0
 10
646.4632262985
 20
264.4124701504
 30
0.0
 10
646.457104099
 20
264.4157448158
 30
0.0
 10
646.4532755038
 20
264.4177841401
 30
0.0
 10
646.4505999373
 20
264.4192263806
 30
0.0
 10
646.4492560617
 20
264.4199273577
 30
0.0
 10
646.448497941
 20
264.4203603453
 30
0.0
 10
646.4472080863
 20
264.4205050401
 30
0.0
 10
646.4453372583
 20
264.4209335341
 30
0.0
 10
646.4419636878
 20
264.4215377423
 30
0.0
 10
646.4377630414
 20
264.422346951
 30
0.0
 10
646.4310328877
 20
264.4236115331
 30
0.0
 10
646.4226233245
 20
264.4252026057
 30
0.0
 10
646.4125305093
 20
264.4271074643
 30
0.0
 10
646.3990738907
 20
264.4296488255
 30
0.0
 10
646.3822529529
 20
264.4328249749
 30
0.0
 10
646.3620679151
 20
264.4366366801
 30
0.0
 10
646.3418827903
 20
264.4404479647
 30
0.0
 10
646.3216979261
 20
264.4442606058
 30
0.0
 10
646.3015121067
 20
264.4480682417
 30
0.0
 10
646.2846935572
 20
264.451256825
 30
0.0
 10
646.273756103
 20
264.4533011084
 30
0.0
 10
646.2687137183
 20
264.4542743565
 30
0.0
 10
646.2661820141
 20
264.4547058685
 30
0.0
 10
646.2641063549
 20
264.4552442132
 30
0.0
 10
646.2623055197
 20
264.4549392757
 30
0.0
 10
646.2596403515
 20
264.454671056
 30
0.0
 10
646.2556274834
 20
264.4541894767
 30
0.0
 10
646.24850476
 20
264.4533923927
 30
0.0
 10
646.2395974911
 20
264.4523757755
 30
0.0
 10
646.2289104226
 20
264.4511645078
 30
0.0
 10
646.2146604201
 20
264.4495464546
 30
0.0
 10
646.1968481152
 20
264.4475249276
 30
0.0
 10
646.1754732645
 20
264.4450986503
 30
0.0
 10
646.1469734932
 20
264.4418637693
 30
0.0
 10
646.1113487688
 20
264.4378201144
 30
0.0
 10
646.0828489924
 20
264.4345852068
 30
0.0
 10
646.0685991038
 20
264.432967751
 30
0.0
  0
SPLINE
  5
37D
100
AcDbEntity
  8
0
100
AcDbSpline
 62
2
  6
CONTINUOUS
 70
0
 71
3
 72
195
 73
191
 74
0
 42
0.0000001
 43
0.0000001
 44
0.0000000001
 40
0.0
 40
0.0
 40
0.0
 40
0.0
 40
0.03125
 40
0.046875
 40
0.0625
 40
0.078125
 40
0.0859375
 40
0.09375
 40
0.1015625
 40
0.109375
 40
0.11328125
 40
0.1171875
 40
0.119140625
 40
0.12109375
 40
0.123046875
 40
0.1240234375
 40
0.1245117188
 40
0.125
 40
0.1254882812
 40
0.1259765625
 40
0.126953125
 40
0.12890625
 40
0.130859375
 40
0.1328125
 40
0.13671875
 40
0.140625
 40
0.1484375
 40
0.15625
 40
0.1640625
 40
0.171875
 40
0.1875
 40
0.203125
 40
0.2109375
 40
0.21875
 40
0.2265625
 40
0.234375
 40
0.23828125
 40
0.2421875
 40
0.244140625
 40
0.24609375
 40
0.248046875
 40
0.2490234375
 40
0.2495117188
 40
0.25
 40
0.2504882812
 40
0.2509765625
 40
0.251953125
 40
0.25390625
 40
0.255859375
 40
0.2578125
 40
0.26171875
 40
0.265625
 40
0.2734375
 40
0.28125
 40
0.2890625
 40
0.296875
 40
0.3125
 40
0.328125
 40
0.3359375
 40
0.34375
 40
0.3515625
 40
0.359375
 40
0.36328125
 40
0.3671875
 40
0.369140625
 40
0.37109375
 40
0.373046875
 40
0.3740234375
 40
0.3745117188
 40
0.375
 40
0.3754882812
 40
0.3759765625
 40
0.376953125
 40
0.37890625
 40
0.380859375
 40
0.3828125
 40
0.38671875
 40
0.390625
 40
0.3984375
 40
0.40625
 40
0.4140625
 40
0.421875
 40
0.4375
 40
0.453125
 40
0.4609375
 40
0.46875
 40
0.4765625
 40
0.484375
 40
0.48828125
 40
0.4921875
 40
0.494140625
 40
0.49609375
 40
0.498046875
 40
0.4990234375
 40
0.4995117188
 40
0.5
 40
0.5004882812
 40
0.5009765625
 40
0.501953125
 40
0.50390625
 40
0.505859375
 40
0.5078125
 40
0.51171875
 40
0.515625
 40
0.5234375
 40
0.53125
 40
0.5390625
 40
0.546875
 40
0.5625
 40
0.578125
 40
0.5859375
 40
0.59375
 40
0.6015625
 40
0.609375
 40
0.61328125
 40
0.6171875
 40
0.619140625
 40
0.62109375
 40
0.623046875
 40
0.6240234375
 40
0.6245117188
 40
0.625
 40
0.6254882812
 40
0.6259765625
 40
0.626953125
 40
0.62890625
 40
0.630859375
 40
0.6328125
 40
0.63671875
 40
0.640625
 40
0.6484375
 40
0.65625
 40
0.6640625
 40
0.671875
 40
0.6875
 40
0.703125
 40
0.7109375
 40
0.71875
 40
0.7265625
 40
0.734375
 40
0.73828125
 40
0.7421875
 40
0.744140625
 40
0.74609375
 40
0.748046875
 40
0.7490234375
 40
0.7495117188
 40
0.75
 40
0.7504882812
 40
0.7509765625
 40
0.751953125
 40
0.75390625
 40
0.755859375
 40
0.7578125
 40
0.76171875
 40
0.765625
 40
0.7734375
 40
0.78125
 40
0.7890625
 40
0.796875
 40
0.8125
 40
0.828125
 40
0.8359375
 40
0.84375
 40
0.8515625
 40
0.859375
 40
0.86328125
 40
0.8671875
 40
0.869140625
 40
0.87109375
 40
0.873046875
 40
0.8740234375
 40
0.8745117188
 40
0.875
 40
0.8754882812
 40
0.8759765625
 40
0.876953125
 40
0.87890625
 40
0.880859375
 40
0.8828125
 40
0.88671875
 40
0.890625
 40
0.8984375
 40
0.90625
 40
0.9140625
 40
0.921875
 40
0.9375
 40
0.953125
 40
0.96875
 40
1.0
 40
1.0
 40
1.0
 40
1.0
 10
674.3749673471
 20
272.2445726775
 30
0.0
 10
674.3721617765
 20
272.2829332041
 30
0.0
 10
674.3679534206
 20
272.340473994
 30
0.0
 10
674.3623422795
 20
272.4171950473
 30
0.0
 10
674.3581339232
 20
272.4747358369
 30
0.0
 10
674.3546269614
 20
272.522686496
 30
0.0
 10
674.3518213879
 20
272.561047021
 30
0.0
 10
674.3497172189
 20
272.5898174207
 30
0.0
 10
674.3476130074
 20
272.6185877979
 30
0.0
 10
674.3458596304
 20
272.6425631824
 30
0.0
 10
674.3444566317
 20
272.6617433327
 30
0.0
 10
674.343580434
 20
272.6737312848
 30
0.0
 10
674.3428779265
 20
272.6833208263
 30
0.0
 10
674.3423552879
 20
272.6905152278
 30
0.0
 10
674.3419062613
 20
272.6965034198
 30
0.0
 10
674.3416184252
 20
272.7007091713
 30
0.0
 10
674.3414125972
 20
272.7030905713
 30
0.0
 10
674.3413747104
 20
272.7049382762
 30
0.0
 10
674.3408915619
 20
272.7065503045
 30
0.0
 10
674.3404026762
 20
272.7087818822
 30
0.0
 10
674.3394747634
 20
272.7126488416
 30
0.0
 10
674.3381870058
 20
272.7181930937
 30
0.0
 10
674.3366255033
 20
272.7248376252
 30
0.0
 10
674.334549156
 20
272.7336999943
 30
0.0
 10
674.3319517853
 20
272.7447769305
 30
0.0
 10
674.3277970745
 20
272.7625006014
 30
0.0
 10
674.3226033146
 20
272.7846549934
 30
0.0
 10
674.3163709619
 20
272.8112403481
 30
0.0
 10
674.3101385666
 20
272.8378256803
 30
0.0
 10
674.3018287211
 20
272.8732727977
 30
0.0
 10
674.2914414087
 20
272.9175816915
 30
0.0
 10
674.2810541
 20
272.9618905877
 30
0.0
 10
674.2727442487
 20
272.9973377012
 30
0.0
 10
674.2665118708
 20
273.0239230451
 30
0.0
 10
674.2602794528
 20
273.0505083559
 30
0.0
 10
674.2550858962
 20
273.0726628844
 30
0.0
 10
674.2509307708
 20
273.090386277
 30
0.0
 10
674.248334455
 20
273.1014639214
 30
0.0
 10
674.2462559422
 20
273.1103248369
 30
0.0
 10
674.2447010557
 20
273.1169738093
 30
0.0
 10
674.2433925984
 20
273.1225041669
 30
0.0
 10
674.242501638
 20
273.1263959304
 30
0.0
 10
674.2419535453
 20
273.1285877656
 30
0.0
 10
674.2416522617
 20
273.13032187
 30
0.0
 10
674.2409313209
 20
273.1317110774
 30
0.0
 10
674.2401164476
 20
273.1336836579
 30
0.0
 10
674.2386222176
 20
273.1370796219
 30
0.0
 10
674.23652326
 20
273.1419603035
 30
0.0
 10
674.2339892487
 20
273.1478045783
 30
0.0
 10
674.2306158977
 20
273.1556013257
 30
0.0
 10
674.2263973837
 20
273.1653457598
 30
0.0
 10
674.2196487815
 20
273.1809376929
 30
0.0
 10
674.2112126786
 20
273.2004273215
 30
0.0
 10
674.2010895053
 20
273.2238149992
 30
0.0
 10
674.1909662918
 20
273.2472026438
 30
0.0
 10
674.1774686878
 20
273.2783861817
 30
0.0
 10
674.1605966777
 20
273.3173655995
 30
0.0
 10
674.143724671
 20
273.3563450206
 30
0.0
 10
674.1302270615
 20
273.3875285533
 30
0.0
 10
674.1201038646
 20
273.4109162132
 30
0.0
 10
674.1099806288
 20
273.4343038339
 30
0.0
 10
674.1015447203
 20
273.4537936396
 30
0.0
 10
674.0947957217
 20
273.4693852116
 30
0.0
 10
674.0905782165
 20
273.4791305645
 30
0.0
 10
674.0872027947
 20
273.4869254261
 30
0.0
 10
674.08467511
 20
273.4927754624
 30
0.0
 10
674.0825563581
 20
273.4976381175
 30
0.0
 10
674.0810974642
 20
273.5010662619
 30
0.0
 10
674.0802259737
 20
273.5029872812
 30
0.0
 10
674.079678943
 20
273.5045348681
 30
0.0
 10
674.0787244818
 20
273.5056741253
 30
0.0
 10
674.0775939832
 20
273.5073355649
 30
0.0
 10
674.075549396
 20
273.5101767234
 30
0.0
 10
674.0726631748
 20
273.5142702154
 30
0.0
 10
674.069184892
 20
273.5191675556
 30
0.0
 10
674.064552357
 20
273.5257025294
 30
0.0
 10
674.0587599162
 20
273.5338694707
 30
0.0
 10
674.0494930014
 20
273.5469375694
 30
0.0
 10
674.0379090179
 20
273.5632723521
 30
0.0
 10
674.0240083834
 20
273.5828742373
 30
0.0
 10
674.01010771
 20
273.6024760835
 30
0.0
 10
673.9915734924
 20
273.6286118921
 30
0.0
 10
673.9684057154
 20
273.6612816476
 30
0.0
 10
673.9452379414
 20
273.6939514072
 30
0.0
 10
673.9267037191
 20
273.7200872093
 30
0.0
 10
673.9128030598
 20
273.7396890751
 30
0.0
 10
673.8989023721
 20
273.759290887
 30
0.0
 10
673.8873185544
 20
273.7756258979
 30
0.0
 10
673.8780513015
 20
273.7886935311
 30
0.0
 10
673.872259721
 20
273.796861657
 30
0.0
 10
673.8676254201
 20
273.8033941993
 30
0.0
 10
673.8641525323
 20
273.808298968
 30
0.0
 10
673.8612494314
 20
273.8123692182
 30
0.0
 10
673.8592349775
 20
273.8152518672
 30
0.0
 10
673.8580561977
 20
273.8168468285
 30
0.0
 10
673.8572500408
 20
273.8181902856
 30
0.0
 10
673.8561460038
 20
273.8189709317
 30
0.0
 10
673.8547778584
 20
273.820208108
 30
0.0
 10
673.8523351932
 20
273.8222816998
 30
0.0
 10
673.8488709811
 20
273.8252917935
 30
0.0
 10
673.8447030933
 20
273.8288834377
 30
0.0
 10
673.8391496934
 20
273.8336794457
 30
0.0
 10
673.8322066479
 20
273.8396720079
 30
0.0
 10
673.8210984992
 20
273.8492614755
 30
0.0
 10
673.8072130649
 20
273.8612478405
 30
0.0
 10
673.7905506502
 20
273.8756316798
 30
0.0
 10
673.773888207
 20
273.8900154652
 30
0.0
 10
673.7516716261
 20
273.9091938647
 30
0.0
 10
673.7239008963
 20
273.9331668569
 30
0.0
 10
673.6961301688
 20
273.957139854
 30
0.0
 10
673.6739135842
 20
273.9763182458
 30
0.0
 10
673.6572511521
 20
273.9907020542
 30
0.0
 10
673.6405886958
 20
274.0050858071
 30
0.0
 10
673.6267033908
 20
274.0170724409
 30
0.0
 10
673.6155949784
 20
274.0266613605
 30
0.0
 10
673.6086526042
 20
274.0326553173
 30
0.0
 10
673.6030978263
 20
274.0374484626
 30
0.0
 10
673.5989341485
 20
274.0410488529
 30
0.0
 10
673.5954567643
 20
274.044031582
 30
0.0
 10
673.5930376135
 20
274.0461540244
 30
0.0
 10
673.591631792
 20
274.0473129296
 30
0.0
 10
673.5906434837
 20
274.0483339992
 30
0.0
 10
673.5894026693
 20
274.0487744657
 30
0.0
 10
673.587836327
 20
274.0495642752
 30
0.0
 10
673.5850541914
 20
274.0508520836
 30
0.0
 10
673.5811011663
 20
274.0527411414
 30
0.0
 10
673.5763483531
 20
274.0549868953
 30
0.0
 10
673.5700144762
 20
274.057988609
 30
0.0
 10
673.562096032
 20
274.0617382259
 30
0.0
 10
673.5494271349
 20
274.0677390244
 30
0.0
 10
673.533590803
 20
274.0752395381
 30
0.0
 10
673.514587295
 20
274.0842403621
 30
0.0
 10
673.4955837628
 20
274.0932411307
 30
0.0
 10
673.4702457283
 20
274.1052421749
 30
0.0
 10
673.4385731822
 20
274.1202434727
 30
0.0
 10
673.4069006378
 20
274.1352447756
 30
0.0
 10
673.3815626005
 20
274.1472458118
 30
0.0
 10
673.3625590769
 20
274.1562466044
 30
0.0
 10
673.3435555367
 20
274.165247338
 30
0.0
 10
673.3277193051
 20
274.1727481333
 30
0.0
 10
673.3150502034
 20
274.1787483575
 30
0.0
 10
673.3071322799
 20
274.1824994358
 30
0.0
 10
673.3007973341
 20
274.1854981497
 30
0.0
 10
673.2960477866
 20
274.1877530687
 30
0.0
 10
673.2920845438
 20
274.189613451
 30
0.0
 10
673.2893206486
 20
274.19095245
 30
0.0
 10
673.2877250806
 20
274.1916602393
 30
0.0
 10
673.2865740381
 20
274.1923526456
 30
0.0
 10
673.2852485615
 20
274.192427471
 30
0.0
 10
673.283542104
 20
274.1927426573
 30
0.0
 10
673.2805274547
 20
274.1931938655
 30
0.0
 10
673.2762356338
 20
274.1938909222
 30
0.0
 10
673.2710791049
 20
274.1947049299
 30
0.0
 10
673.2642059487
 20
274.1957981184
 30
0.0
 10
673.2556137449
 20
274.1971619179
 30
0.0
 10
673.2418666428
 20
274.1993454984
 30
0.0
 10
673.2246826196
 20
274.2020744588
 30
0.0
 10
673.2040618542
 20
274.2053494322
 30
0.0
 10
673.1834410722
 20
274.2086243465
 30
0.0
 10
673.1559467019
 20
274.2129909197
 30
0.0
 10
673.1215787369
 20
274.2184491283
 30
0.0
 10
673.0872107732
 20
274.2239073422
 30
0.0
 10
673.0597164009
 20
274.2282739069
 30
0.0
 10
673.039095625
 20
274.2315488465
 30
0.0
 10
673.0184748365
 20
274.2348237248
 30
0.0
 10
673.0012908852
 20
274.2375529812
 30
0.0
 10
672.9875436365
 20
274.2397359581
 30
0.0
 10
672.9789518056
 20
274.2411012937
 30
0.0
 10
672.972077884
 20
274.2421913293
 30
0.0
 10
672.9669236938
 20
274.2430149695
 30
0.0
 10
672.9626245555
 20
274.2436818883
 30
0.0
 10
672.9596229689
 20
274.2441868976
 30
0.0
 10
672.9578955817
 20
274.2444158812
 30
0.0
 10
672.9566343945
 20
274.2447554936
 30
0.0
 10
672.9552418916
 20
274.2444534037
 30
0.0
 10
672.9534310255
 20
274.24427445
 30
0.0
 10
672.9502406687
 20
274.2438569932
 30
0.0
 10
672.9456941735
 20
274.2433151492
 30
0.0
 10
672.9402336036
 20
274.2426415989
 30
0.0
 10
672.9329545117
 20
274.2417516832
 30
0.0
 10
672.9238550757
 20
274.2406364975
 30
0.0
 10
672.9092962973
 20
274.2388537603
 30
0.0
 10
672.8910977148
 20
274.2366248034
 30
0.0
 10
672.8692594628
 20
274.2339502847
 30
0.0
 10
672.8474211981
 20
274.2312757047
 30
0.0
 10
672.8183035164
 20
274.2277096193
 30
0.0
 10
672.7819064127
 20
274.2232520053
 30
0.0
 10
672.7382298888
 20
274.2179028716
 30
0.0
 10
672.6799945235
 20
274.2107706922
 30
0.0
 10
672.6363179996
 20
274.2054215579
 30
0.0
 10
672.607200317
 20
274.2018554683
 30
0.0
  0
SPLINE
  5
37E
100
AcDbEntity
  8
0
100
AcDbSpline
 62
2
  6
CONTINUOUS
 70
0
 71
3
 72
181
 73
177
 74
0
 42
0.0000001
 43
0.0000001
 44
0.0000000001
 40
0.0
 40
0.0
 40
0.0
 40
0.0
 40
0.03125
 40
0.046875
 40
0.0625
 40
0.078125
 40
0.0859375
 40
0.09375
 40
0.1015625
 40
0.109375
 40
0.11328125
 40
0.1171875
 40
0.119140625
 40
0.12109375
 40
0.123046875
 40
0.1240234375
 40
0.1245117188
 40
0.125
 40
0.1254882812
 40
0.1259765625
 40
0.126953125
 40
0.12890625
 40
0.130859375
 40
0.1328125
 40
0.13671875
 40
0.140625
 40
0.1484375
 40
0.15625
 40
0.1640625
 40
0.171875
 40
0.1875
 40
0.203125
 40
0.2109375
 40
0.21875
 40
0.2265625
 40
0.234375
 40
0.23828125
 40
0.2421875
 40
0.244140625
 40
0.24609375
 40
0.248046875
 40
0.2490234375
 40
0.2495117188
 40
0.25
 40
0.2504882812
 40
0.2509765625
 40
0.251953125
 40
0.25390625
 40
0.255859375
 40
0.2578125
 40
0.26171875
 40
0.265625
 40
0.2734375
 40
0.28125
 40
0.2890625
 40
0.296875
 40
0.3125
 40
0.328125
 40
0.3359375
 40
0.34375
 40
0.3515625
 40
0.359375
 40
0.36328125
 40
0.3671875
 40
0.369140625
 40
0.37109375
 40
0.373046875
 40
0.3740234375
 40
0.3745117188
 40
0.375
 40
0.3754882812
 40
0.3759765625
 40
0.376953125
 40
0.37890625
 40
0.380859375
 40
0.3828125
 40
0.38671875
 40
0.390625
 40
0.3984375
 40
0.40625
 40
0.4140625
 40
0.421875
 40
0.4375
 40
0.453125
 40
0.4609375
 40
0.46875
 40
0.4765625
 40
0.484375
 40
0.48828125
 40
0.4921875
 40
0.494140625
 40
0.49609375
 40
0.498046875
 40
0.4990234375
 40
0.5
 40
0.5009765625
 40
0.501953125
 40
0.50390625
 40
0.505859375
 40
0.5078125
 40
0.51171875
 40
0.515625
 40
0.5234375
 40
0.53125
 40
0.5390625
 40
0.546875
 40
0.5625
 40
0.578125
 40
0.5859375
 40
0.59375
 40
0.6015625
 40
0.609375
 40
0.61328125
 40
0.6171875
 40
0.62109375
 40
0.623046875
 40
0.6240234375
 40
0.625
 40
0.6259765625
 40
0.626953125
 40
0.62890625
 40
0.6328125
 40
0.63671875
 40
0.640625
 40
0.6484375
 40
0.65625
 40
0.6640625
 40
0.671875
 40
0.6875
 40
0.703125
 40
0.7109375
 40
0.71875
 40
0.7265625
 40
0.734375
 40
0.73828125
 40
0.7421875
 40
0.74609375
 40
0.748046875
 40
0.7490234375
 40
0.75
 40
0.7509765625
 40
0.751953125
 40
0.75390625
 40
0.7578125
 40
0.76171875
 40
0.765625
 40
0.7734375
 40
0.78125
 40
0.7890625
 40
0.796875
 40
0.8125
 40
0.828125
 40
0.8359375
 40
0.84375
 40
0.8515625
 40
0.859375
 40
0.86328125
 40
0.8671875
 40
0.87109375
 40
0.873046875
 40
0.8740234375
 40
0.875
 40
0.8759765625
 40
0.876953125
 40
0.87890625
 40
0.8828125
 40
0.88671875
 40
0.890625
 40
0.8984375
 40
0.90625
 40
0.9140625
 40
0.921875
 40
0.9375
 40
0.953125
 40
0.96875
 40
1.0
 40
1.0
 40
1.0
 40
1.0
 10
672.6072003942
 20
264.5425972262
 30
0.0
 10
672.6358138165
 20
264.5538354055
 30
0.0
 10
672.6787339499
 20
264.5706926746
 30
0.0
 10
672.7359607945
 20
264.593169033
 30
0.0
 10
672.7788809278
 20
264.6100263026
 30
0.0
 10
672.8146477059
 20
264.6240740249
 30
0.0
 10
672.8432611276
 20
264.635312208
 30
0.0
 10
672.864721196
 20
264.6437408307
 30
0.0
 10
672.8861812561
 20
264.6521695095
 30
0.0
 10
672.9040646657
 20
264.6591932339
 30
0.0
 10
672.9183713346
 20
264.6648126042
 30
0.0
 10
672.9273131366
 20
264.6683238211
 30
0.0
 10
672.9344662714
 20
264.6711348317
 30
0.0
 10
672.9398319625
 20
264.6732375123
 30
0.0
 10
672.9443006997
 20
264.6750074884
 30
0.0
 10
672.9474340595
 20
264.6762116531
 30
0.0
 10
672.9492163632
 20
264.6769541135
 30
0.0
 10
672.9505761555
 20
264.677357808
 30
0.0
 10
672.9518477836
 20
264.6783469226
 30
0.0
 10
672.9535740404
 20
264.679461541
 30
0.0
 10
672.9565806615
 20
264.6815072643
 30
0.0
 10
672.9608833255
 20
264.6843799853
 30
0.0
 10
672.966043316
 20
264.6878485412
 30
0.0
 10
672.9729244232
 20
264.6924658459
 30
0.0
 10
672.9815254238
 20
264.6982400231
 30
0.0
 10
672.995287239
 20
264.7074772835
 30
0.0
 10
673.0124894345
 20
264.7190243473
 30
0.0
 10
673.0331321006
 20
264.7328806145
 30
0.0
 10
673.0537747582
 20
264.7467369377
 30
0.0
 10
673.0812983047
 20
264.7652120157
 30
0.0
 10
673.1157027366
 20
264.7883058706
 30
0.0
 10
673.1501071697
 20
264.8113997207
 30
0.0
 10
673.1776307144
 20
264.8298748062
 30
0.0
 10
673.1982733773
 20
264.843731107
 30
0.0
 10
673.2189160237
 20
264.8575874584
 30
0.0
 10
673.2361182805
 20
264.8691342604
 30
0.0
 10
673.2498799706
 20
264.8783720547
 30
0.0
 10
673.2584812896
 20
264.8841448731
 30
0.0
 10
673.265361743
 20
264.8887649668
 30
0.0
 10
673.270523731
 20
264.8922250021
 30
0.0
 10
673.2748201454
 20
264.8951243819
 30
0.0
 10
673.2778379232
 20
264.8971225148
 30
0.0
 10
673.2795463043
 20
264.8983133849
 30
0.0
 10
673.2808728406
 20
264.8990682788
 30
0.0
 10
673.2820264067
 20
264.9003516672
 30
0.0
 10
673.2836248289
 20
264.9018785069
 30
0.0
 10
673.2863939568
 20
264.9046363661
 30
0.0
 10
673.2903645505
 20
264.9085312608
 30
0.0
 10
673.2951229724
 20
264.9132243548
 30
0.0
 10
673.301469732
 20
264.9194751002
 30
0.0
 10
673.3094024292
 20
264.9272908306
 30
0.0
 10
673.3220951652
 20
264.9397947145
 30
0.0
 10
673.337960941
 20
264.9554250102
 30
0.0
 10
673.3569999337
 20
264.9741811761
 30
0.0
 10
673.3760389099
 20
264.9929373925
 30
0.0
 10
673.4014242173
 20
265.0179456634
 30
0.0
 10
673.4331558493
 20
265.0492060086
 30
0.0
 10
673.464887483
 20
265.0804663495
 30
0.0
 10
673.4902727877
 20
265.1054746273
 30
0.0
 10
673.5093117718
 20
265.1242308231
 30
0.0
 10
673.5283507348
 20
265.1429870666
 30
0.0
 10
673.5442166033
 20
265.1586171208
 30
0.0
 10
673.5569091501
 20
265.1711214973
 30
0.0
 10
673.5648423287
 20
265.1789359742
 30
0.0
 10
673.5711881002
 20
265.1851892926
 30
0.0
 10
673.5759495411
 20
265.1898745257
 30
0.0
 10
673.5799106888
 20
265.1937940151
 30
0.0
 10
673.5826966794
 20
265.1965079686
 30
0.0
 10
673.5842680833
 20
265.1981051561
 30
0.0
 10
673.5855046408
 20
265.1991724586
 30
0.0
 10
673.5865194754
 20
265.2007389354
 30
0.0
 10
673.5879499277
 20
265.2026534535
 30
0.0
 10
673.5904171853
 20
265.2060849848
 30
0.0
 10
673.593960678
 20
265.2109447595
 30
0.0
 10
673.5982048056
 20
265.2167946433
 30
0.0
 10
673.6038664588
 20
265.2245881474
 30
0.0
 10
673.6109425609
 20
265.2343321987
 30
0.0
 10
673.6222648633
 20
265.2499214674
 30
0.0
 10
673.6364175564
 20
265.2694084695
 30
0.0
 10
673.6534008673
 20
265.2927926937
 30
0.0
 10
673.6703841571
 20
265.3161769655
 30
0.0
 10
673.6930285507
 20
265.3473559781
 30
0.0
 10
673.7213340412
 20
265.3863297486
 30
0.0
 10
673.7496395285
 20
265.4253035207
 30
0.0
 10
673.7722839273
 20
265.4564825307
 30
0.0
 10
673.7892672014
 20
265.4798668104
 30
0.0
 10
673.8062505713
 20
265.5032510051
 30
0.0
 10
673.8204030807
 20
265.5227380988
 30
0.0
 10
673.8317257577
 20
265.5383271808
 30
0.0
 10
673.8388009065
 20
265.548071707
 30
0.0
 10
673.8444645166
 20
265.5558642364
 30
0.0
 10
673.8487026657
 20
265.5617170981
 30
0.0
 10
673.8522648634
 20
265.5665675553
 30
0.0
 10
673.8550464246
 20
265.570508315
 30
0.0
 10
673.8573189422
 20
265.5732988594
 30
0.0
 10
673.8588801714
 20
265.5767193085
 30
0.0
 10
673.8612102726
 20
265.5810598734
 30
0.0
 10
673.8640376529
 20
265.586561072
 30
0.0
 10
673.8674669974
 20
265.5931301972
 30
0.0
 10
673.8720267121
 20
265.6019003171
 30
0.0
 10
673.8777307193
 20
265.6128591025
 30
0.0
 10
673.8868546919
 20
265.630395319
 30
0.0
 10
673.8982604945
 20
265.6523148485
 30
0.0
 10
673.911947099
 20
265.6786186016
 30
0.0
 10
673.9256337993
 20
265.7049222697
 30
0.0
 10
673.9438827001
 20
265.7399938565
 30
0.0
 10
673.9666938333
 20
265.7838333327
 30
0.0
 10
673.9895049788
 20
265.8276728018
 30
0.0
 10
674.0077538599
 20
265.8627444
 30
0.0
 10
674.0214406194
 20
265.889048034
 30
0.0
 10
674.0351270018
 20
265.9153519152
 30
0.0
 10
674.0465334952
 20
265.937271046
 30
0.0
 10
674.0556560591
 20
265.9548080755
 30
0.0
 10
674.0625051697
 20
265.967956135
 30
0.0
 10
674.068189899
 20
265.9789278415
 30
0.0
 10
674.072214077
 20
265.9865786184
 30
0.0
 10
674.0744435504
 20
265.9909964241
 30
0.0
 10
674.076313007
 20
265.9941803837
 30
0.0
 10
674.0774280856
 20
265.9978589553
 30
0.0
 10
674.0791779926
 20
266.0025911912
 30
0.0
 10
674.0821177302
 20
266.0109529872
 30
0.0
 10
674.0863814518
 20
266.0228563848
 30
0.0
 10
674.0914704821
 20
266.0371584502
 30
0.0
 10
674.0982654396
 20
266.0562215871
 30
0.0
 10
674.1067558479
 20
266.0800526645
 30
0.0
 10
674.1169457475
 20
266.108649033
 30
0.0
 10
674.1271352699
 20
266.1372456488
 30
0.0
 10
674.1407214322
 20
266.1753743834
 30
0.0
 10
674.157704085
 20
266.2230353327
 30
0.0
 10
674.1746867727
 20
266.2706962655
 30
0.0
 10
674.1882728791
 20
266.3088250265
 30
0.0
 10
674.1984625691
 20
266.3374215629
 30
0.0
 10
674.2086518401
 20
266.3660182292
 30
0.0
 10
674.2171442043
 20
266.3898483801
 30
0.0
 10
674.2239351729
 20
266.4089134064
 30
0.0
 10
674.2290363848
 20
266.4232097021
 30
0.0
 10
674.2332619944
 20
266.435131151
 30
0.0
 10
674.2362697682
 20
266.4434607225
 30
0.0
 10
674.2379106639
 20
266.4482445902
 30
0.0
 10
674.2393605902
 20
266.4517645654
 30
0.0
 10
674.2399724148
 20
266.4555441866
 30
0.0
 10
674.2410805201
 20
266.4604931141
 30
0.0
 10
674.2428834982
 20
266.4691959342
 30
0.0
 10
674.2455303913
 20
266.4816064733
 30
0.0
 10
674.2486761827
 20
266.4965085631
 30
0.0
 10
674.2528812185
 20
266.5163747177
 30
0.0
 10
674.2581338596
 20
266.5412085427
 30
0.0
 10
674.2644385952
 20
266.5710086476
 30
0.0
 10
674.2707429116
 20
266.6008088823
 30
0.0
 10
674.279148814
 20
266.6405424831
 30
0.0
 10
674.2896561365
 20
266.6902095005
 30
0.0
 10
674.3001634969
 20
266.7398765093
 30
0.0
 10
674.3085693386
 20
266.7796101237
 30
0.0
 10
674.314873837
 20
266.8094103176
 30
0.0
 10
674.3211778904
 20
266.8392105757
 30
0.0
 10
674.3264326538
 20
266.864043924
 30
0.0
 10
674.3306333616
 20
266.8839110508
 30
0.0
 10
674.33379237
 20
266.8988101717
 30
0.0
 10
674.3363979112
 20
266.9112299995
 30
0.0
 10
674.3382747094
 20
266.9199162378
 30
0.0
 10
674.3392645363
 20
266.9248917336
 30
0.0
 10
674.3402396744
 20
266.9285897453
 30
0.0
 10
674.3403250554
 20
266.9324162321
 30
0.0
 10
674.3407492539
 20
266.937473401
 30
0.0
 10
674.3413470002
 20
266.946344326
 30
0.0
 10
674.3422765226
 20
266.95900616
 30
0.0
 10
674.3433595904
 20
266.9742050332
 30
0.0
 10
674.3448149843
 20
266.9944685653
 30
0.0
 10
674.346630348
 20
267.0197985405
 30
0.0
 10
674.3488104471
 20
267.0501942707
 30
0.0
 10
674.3509901014
 20
267.0805900651
 30
0.0
 10
674.3538964625
 20
267.1211177685
 30
0.0
 10
674.3575293605
 20
267.1717774055
 30
0.0
 10
674.361888861
 20
267.2325689665
 30
0.0
 10
674.3677015203
 20
267.3136243825
 30
0.0
 10
674.3720610166
 20
267.3744159442
 30
0.0
 10
674.3749673471
 20
267.414943652
 30
0.0
  0
SPLINE
  5
37F
100
AcDbEntity
  8
0
100
AcDbSpline
 62
2
  6
CONTINUOUS
 70
0
 71
3
 72
195
 73
191
 74
0
 42
0.0000001
 43
0.0000001
 44
0.0000000001
 40
0.0
 40
0.0
 40
0.0
 40
0.0
 40
0.03125
 40
0.046875
 40
0.0625
 40
0.078125
 40
0.0859375
 40
0.09375
 40
0.1015625
 40
0.109375
 40
0.11328125
 40
0.1171875
 40
0.119140625
 40
0.12109375
 40
0.123046875
 40
0.1240234375
 40
0.1245117188
 40
0.125
 40
0.1254882812
 40
0.1259765625
 40
0.126953125
 40
0.12890625
 40
0.130859375
 40
0.1328125
 40
0.13671875
 40
0.140625
 40
0.1484375
 40
0.15625
 40
0.1640625
 40
0.171875
 40
0.1875
 40
0.203125
 40
0.2109375
 40
0.21875
 40
0.2265625
 40
0.234375
 40
0.23828125
 40
0.2421875
 40
0.244140625
 40
0.24609375
 40
0.248046875
 40
0.2490234375
 40
0.2495117188
 40
0.25
 40
0.2504882812
 40
0.2509765625
 40
0.251953125
 40
0.25390625
 40
0.255859375
 40
0.2578125
 40
0.26171875
 40
0.265625
 40
0.2734375
 40
0.28125
 40
0.2890625
 40
0.296875
 40
0.3125
 40
0.328125
 40
0.3359375
 40
0.34375
 40
0.3515625
 40
0.359375
 40
0.36328125
 40
0.3671875
 40
0.369140625
 40
0.37109375
 40
0.373046875
 40
0.3740234375
 40
0.3745117188
 40
0.375
 40
0.3754882812
 40
0.3759765625
 40
0.376953125
 40
0.37890625
 40
0.380859375
 40
0.3828125
 40
0.38671875
 40
0.390625
 40
0.3984375
 40
0.40625
 40
0.4140625
 40
0.421875
 40
0.4375
 40
0.453125
 40
0.4609375
 40
0.46875
 40
0.4765625
 40
0.484375
 40
0.48828125
 40
0.4921875
 40
0.494140625
 40
0.49609375
 40
0.498046875
 40
0.4990234375
 40
0.4995117188
 40
0.5
 40
0.5004882812
 40
0.5009765625
 40
0.501953125
 40
0.50390625
 40
0.505859375
 40
0.5078125
 40
0.51171875
 40
0.515625
 40
0.5234375
 40
0.53125
 40
0.5390625
 40
0.546875
 40
0.5625
 40
0.578125
 40
0.5859375
 40
0.59375
 40
0.6015625
 40
0.609375
 40
0.61328125
 40
0.6171875
 40
0.619140625
 40
0.62109375
 40
0.623046875
 40
0.6240234375
 40
0.6245117188
 40
0.625
 40
0.6254882812
 40
0.6259765625
 40
0.626953125
 40
0.62890625
 40
0.630859375
 40
0.6328125
 40
0.63671875
 40
0.640625
 40
0.6484375
 40
0.65625
 40
0.6640625
 40
0.671875
 40
0.6875
 40
0.703125
 40
0.7109375
 40
0.71875
 40
0.7265625
 40
0.734375
 40
0.73828125
 40
0.7421875
 40
0.744140625
 40
0.74609375
 40
0.748046875
 40
0.7490234375
 40
0.7495117188
 40
0.75
 40
0.7504882812
 40
0.7509765625
 40
0.751953125
 40
0.75390625
 40
0.755859375
 40
0.7578125
 40
0.76171875
 40
0.765625
 40
0.7734375
 40
0.78125
 40
0.7890625
 40
0.796875
 40
0.8125
 40
0.828125
 40
0.8359375
 40
0.84375
 40
0.8515625
 40
0.859375
 40
0.86328125
 40
0.8671875
 40
0.869140625
 40
0.87109375
 40
0.873046875
 40
0.8740234375
 40
0.8745117188
 40
0.875
 40
0.8754882812
 40
0.8759765625
 40
0.876953125
 40
0.87890625
 40
0.880859375
 40
0.8828125
 40
0.88671875
 40
0.890625
 40
0.8984375
 40
0.90625
 40
0.9140625
 40
0.921875
 40
0.9375
 40
0.953125
 40
0.96875
 40
1.0
 40
1.0
 40
1.0
 40
1.0
 10
639.01962829
 20
258.2643084524
 30
0.0
 10
639.0224338606
 20
258.2259479258
 30
0.0
 10
639.0266422165
 20
258.1684071359
 30
0.0
 10
639.0322533575
 20
258.0916860827
 30
0.0
 10
639.0364617139
 20
258.034145293
 30
0.0
 10
639.0399686757
 20
257.986194634
 30
0.0
 10
639.0427742492
 20
257.9478341089
 30
0.0
 10
639.0448784182
 20
257.9190637092
 30
0.0
 10
639.0469826297
 20
257.8902933321
 30
0.0
 10
639.0487360067
 20
257.8663179476
 30
0.0
 10
639.0501390054
 20
257.8471377972
 30
0.0
 10
639.0510152031
 20
257.8351498452
 30
0.0
 10
639.0517177106
 20
257.8255603036
 30
0.0
 10
639.0522403491
 20
257.8183659021
 30
0.0
 10
639.0526893758
 20
257.8123777102
 30
0.0
 10
639.0529772119
 20
257.8081719586
 30
0.0
 10
639.0531830399
 20
257.8057905587
 30
0.0
 10
639.0532209267
 20
257.8039428537
 30
0.0
 10
639.0537040752
 20
257.8023308254
 30
0.0
 10
639.0541929609
 20
257.8000992477
 30
0.0
 10
639.0551208737
 20
257.7962322884
 30
0.0
 10
639.0564086313
 20
257.7906880362
 30
0.0
 10
639.0579701338
 20
257.7840435047
 30
0.0
 10
639.060046481
 20
257.7751811357
 30
0.0
 10
639.0626438518
 20
257.7641041994
 30
0.0
 10
639.0667985626
 20
257.7463805285
 30
0.0
 10
639.0719923225
 20
257.7242261365
 30
0.0
 10
639.0782246752
 20
257.6976407818
 30
0.0
 10
639.0844570705
 20
257.6710554497
 30
0.0
 10
639.092766916
 20
257.6356083322
 30
0.0
 10
639.1031542284
 20
257.5912994385
 30
0.0
 10
639.1135415371
 20
257.5469905423
 30
0.0
 10
639.1218513884
 20
257.5115434287
 30
0.0
 10
639.1280837662
 20
257.4849580849
 30
0.0
 10
639.1343161843
 20
257.458372774
 30
0.0
 10
639.1395097409
 20
257.4362182455
 30
0.0
 10
639.1436648663
 20
257.4184948529
 30
0.0
 10
639.146261182
 20
257.4074172085
 30
0.0
 10
639.1483396948
 20
257.3985562931
 30
0.0
 10
639.1498945814
 20
257.3919073207
 30
0.0
 10
639.1512030386
 20
257.3863769631
 30
0.0
 10
639.1520939991
 20
257.3824851996
 30
0.0
 10
639.1526420917
 20
257.3802933643
 30
0.0
 10
639.1529433754
 20
257.3785592599
 30
0.0
 10
639.1536643162
 20
257.3771700525
 30
0.0
 10
639.1544791895
 20
257.3751974721
 30
0.0
 10
639.1559734195
 20
257.3718015081
 30
0.0
 10
639.1580723771
 20
257.3669208264
 30
0.0
 10
639.1606063884
 20
257.3610765517
 30
0.0
 10
639.1639797394
 20
257.3532798043
 30
0.0
 10
639.1681982534
 20
257.3435353701
 30
0.0
 10
639.1749468556
 20
257.3279434371
 30
0.0
 10
639.1833829584
 20
257.3084538084
 30
0.0
 10
639.1935061318
 20
257.2850661308
 30
0.0
 10
639.2036293453
 20
257.2616784861
 30
0.0
 10
639.2171269492
 20
257.2304949483
 30
0.0
 10
639.2339989594
 20
257.1915155304
 30
0.0
 10
639.2508709661
 20
257.1525361094
 30
0.0
 10
639.2643685756
 20
257.1213525766
 30
0.0
 10
639.2744917725
 20
257.0979649168
 30
0.0
 10
639.2846150083
 20
257.074577296
 30
0.0
 10
639.2930509168
 20
257.0550874903
 30
0.0
 10
639.2997999154
 20
257.0394959183
 30
0.0
 10
639.3040174206
 20
257.0297505654
 30
0.0
 10
639.3073928423
 20
257.0219557039
 30
0.0
 10
639.3099205271
 20
257.0161056676
 30
0.0
 10
639.312039279
 20
257.0112430125
 30
0.0
 10
639.3134981728
 20
257.007814868
 30
0.0
 10
639.3143696634
 20
257.0058938488
 30
0.0
 10
639.3149166941
 20
257.0043462618
 30
0.0
 10
639.3158711553
 20
257.0032070046
 30
0.0
 10
639.3170016539
 20
257.001545565
 30
0.0
 10
639.3190462411
 20
256.9987044066
 30
0.0
 10
639.3219324622
 20
256.9946109145
 30
0.0
 10
639.3254107451
 20
256.9897135743
 30
0.0
 10
639.33004328
 20
256.9831786005
 30
0.0
 10
639.3358357209
 20
256.9750116592
 30
0.0
 10
639.3451026357
 20
256.9619435606
 30
0.0
 10
639.3566866192
 20
256.9456087779
 30
0.0
 10
639.3705872536
 20
256.9260068926
 30
0.0
 10
639.3844879271
 20
256.9064050464
 30
0.0
 10
639.4030221447
 20
256.8802692378
 30
0.0
 10
639.4261899217
 20
256.8475994823
 30
0.0
 10
639.4493576957
 20
256.8149297227
 30
0.0
 10
639.467891918
 20
256.7887939206
 30
0.0
 10
639.4817925772
 20
256.7691920549
 30
0.0
 10
639.495693265
 20
256.749590243
 30
0.0
 10
639.5072770827
 20
256.733255232
 30
0.0
 10
639.5165443356
 20
256.7201875988
 30
0.0
 10
639.5223359161
 20
256.712019473
 30
0.0
 10
639.526970217
 20
256.7054869306
 30
0.0
 10
639.5304431048
 20
256.700582162
 30
0.0
 10
639.5333462057
 20
256.6965119118
 30
0.0
 10
639.5353606596
 20
256.6936292628
 30
0.0
 10
639.5365394393
 20
256.6920343014
 30
0.0
 10
639.5373455963
 20
256.6906908444
 30
0.0
 10
639.5384496332
 20
256.6899101982
 30
0.0
 10
639.5398177787
 20
256.688673022
 30
0.0
 10
639.5422604439
 20
256.6865994302
 30
0.0
 10
639.545724656
 20
256.6835893364
 30
0.0
 10
639.5498925438
 20
256.6799976922
 30
0.0
 10
639.5554459437
 20
256.6752016842
 30
0.0
 10
639.5623889892
 20
256.669209122
 30
0.0
 10
639.5734971379
 20
256.6596196544
 30
0.0
 10
639.5873825722
 20
256.6476332894
 30
0.0
 10
639.6040449869
 20
256.6332494501
 30
0.0
 10
639.6207074301
 20
256.6188656647
 30
0.0
 10
639.642924011
 20
256.5996872652
 30
0.0
 10
639.6706947408
 20
256.575714273
 30
0.0
 10
639.6984654683
 20
256.551741276
 30
0.0
 10
639.7206820529
 20
256.5325628842
 30
0.0
 10
639.737344485
 20
256.5181790757
 30
0.0
 10
639.7540069413
 20
256.5037953228
 30
0.0
 10
639.7678922462
 20
256.491808689
 30
0.0
 10
639.7790006587
 20
256.4822197695
 30
0.0
 10
639.7859430329
 20
256.4762258126
 30
0.0
 10
639.7914978108
 20
256.4714326674
 30
0.0
 10
639.7956614886
 20
256.467832277
 30
0.0
 10
639.7991388728
 20
256.464849548
 30
0.0
 10
639.8015580236
 20
256.4627271056
 30
0.0
 10
639.802963845
 20
256.4615682003
 30
0.0
 10
639.8039521534
 20
256.4605471307
 30
0.0
 10
639.8051929678
 20
256.4601066642
 30
0.0
 10
639.8067593101
 20
256.4593168547
 30
0.0
 10
639.8095414457
 20
256.4580290464
 30
0.0
 10
639.8134944708
 20
256.4561399885
 30
0.0
 10
639.818247284
 20
256.4538942346
 30
0.0
 10
639.8245811608
 20
256.4508925209
 30
0.0
 10
639.8324996051
 20
256.447142904
 30
0.0
 10
639.8451685022
 20
256.4411421056
 30
0.0
 10
639.8610048341
 20
256.4336415919
 30
0.0
 10
639.8800083421
 20
256.4246407678
 30
0.0
 10
639.8990118743
 20
256.4156399993
 30
0.0
 10
639.9243499087
 20
256.4036389551
 30
0.0
 10
639.9560224549
 20
256.3886376572
 30
0.0
 10
639.9876949992
 20
256.3736363543
 30
0.0
 10
640.0130330366
 20
256.3616353181
 30
0.0
 10
640.0320365601
 20
256.3526345255
 30
0.0
 10
640.0510401004
 20
256.3436337919
 30
0.0
 10
640.066876332
 20
256.3361329966
 30
0.0
 10
640.0795454337
 20
256.3301327725
 30
0.0
 10
640.0874633572
 20
256.3263816941
 30
0.0
 10
640.093798303
 20
256.3233829803
 30
0.0
 10
640.0985478505
 20
256.3211280612
 30
0.0
 10
640.1025110932
 20
256.3192676789
 30
0.0
 10
640.1052749885
 20
256.3179286799
 30
0.0
 10
640.1068705564
 20
256.3172208906
 30
0.0
 10
640.108021599
 20
256.3165284843
 30
0.0
 10
640.1093470755
 20
256.316453659
 30
0.0
 10
640.1110535331
 20
256.3161384727
 30
0.0
 10
640.1140681824
 20
256.3156872644
 30
0.0
 10
640.1183600033
 20
256.3149902077
 30
0.0
 10
640.1235165322
 20
256.3141762001
 30
0.0
 10
640.1303896883
 20
256.3130830116
 30
0.0
 10
640.1389818922
 20
256.311719212
 30
0.0
 10
640.1527289943
 20
256.3095356316
 30
0.0
 10
640.1699130174
 20
256.3068066711
 30
0.0
 10
640.1905337828
 20
256.3035316977
 30
0.0
 10
640.2111545649
 20
256.3002567834
 30
0.0
 10
640.2386489352
 20
256.2958902103
 30
0.0
 10
640.2730169002
 20
256.2904320017
 30
0.0
 10
640.3073848639
 20
256.2849737878
 30
0.0
 10
640.3348792362
 20
256.2806072231
 30
0.0
 10
640.3555000121
 20
256.2773322834
 30
0.0
 10
640.3761208006
 20
256.2740574052
 30
0.0
 10
640.3933047519
 20
256.2713281487
 30
0.0
 10
640.4070520006
 20
256.2691451718
 30
0.0
 10
640.4156438315
 20
256.2677798363
 30
0.0
 10
640.4225177531
 20
256.2666898007
 30
0.0
 10
640.4276719433
 20
256.2658661605
 30
0.0
 10
640.4319710815
 20
256.2651992416
 30
0.0
 10
640.4349726681
 20
256.2646942324
 30
0.0
 10
640.4367000554
 20
256.2644652487
 30
0.0
 10
640.4379612426
 20
256.2641256363
 30
0.0
 10
640.4393537455
 20
256.2644277263
 30
0.0
 10
640.4411646116
 20
256.2646066799
 30
0.0
 10
640.4443549684
 20
256.2650241367
 30
0.0
 10
640.4489014636
 20
256.2655659807
 30
0.0
 10
640.4543620335
 20
256.266239531
 30
0.0
 10
640.4616411254
 20
256.2671294468
 30
0.0
 10
640.4707405614
 20
256.2682446325
 30
0.0
 10
640.4852993398
 20
256.2700273697
 30
0.0
 10
640.5034979223
 20
256.2722563265
 30
0.0
 10
640.5253361743
 20
256.2749308452
 30
0.0
 10
640.5471744389
 20
256.2776054253
 30
0.0
 10
640.5762921207
 20
256.2811715106
 30
0.0
 10
640.6126892244
 20
256.2856291247
 30
0.0
 10
640.6563657482
 20
256.2909782584
 30
0.0
 10
640.7146011135
 20
256.2981104377
 30
0.0
 10
640.7582776375
 20
256.303459572
 30
0.0
 10
640.7873953201
 20
256.3070256616
 30
0.0
  0
SPLINE
  5
380
100
AcDbEntity
  8
0
100
AcDbSpline
 62
2
  6
CONTINUOUS
 70
0
 71
3
 72
181
 73
177
 74
0
 42
0.0000001
 43
0.0000001
 44
0.0000000001
 40
0.0
 40
0.0
 40
0.0
 40
0.0
 40
0.03125
 40
0.046875
 40
0.0625
 40
0.078125
 40
0.0859375
 40
0.09375
 40
0.1015625
 40
0.109375
 40
0.11328125
 40
0.1171875
 40
0.119140625
 40
0.12109375
 40
0.123046875
 40
0.1240234375
 40
0.1245117188
 40
0.125
 40
0.1254882812
 40
0.1259765625
 40
0.126953125
 40
0.12890625
 40
0.130859375
 40
0.1328125
 40
0.13671875
 40
0.140625
 40
0.1484375
 40
0.15625
 40
0.1640625
 40
0.171875
 40
0.1875
 40
0.203125
 40
0.2109375
 40
0.21875
 40
0.2265625
 40
0.234375
 40
0.23828125
 40
0.2421875
 40
0.244140625
 40
0.24609375
 40
0.248046875
 40
0.2490234375
 40
0.2495117188
 40
0.25
 40
0.2504882812
 40
0.2509765625
 40
0.251953125
 40
0.25390625
 40
0.255859375
 40
0.2578125
 40
0.26171875
 40
0.265625
 40
0.2734375
 40
0.28125
 40
0.2890625
 40
0.296875
 40
0.3125
 40
0.328125
 40
0.3359375
 40
0.34375
 40
0.3515625
 40
0.359375
 40
0.36328125
 40
0.3671875
 40
0.369140625
 40
0.37109375
 40
0.373046875
 40
0.3740234375
 40
0.3745117188
 40
0.375
 40
0.3754882812
 40
0.3759765625
 40
0.376953125
 40
0.37890625
 40
0.380859375
 40
0.3828125
 40
0.38671875
 40
0.390625
 40
0.3984375
 40
0.40625
 40
0.4140625
 40
0.421875
 40
0.4375
 40
0.453125
 40
0.4609375
 40
0.46875
 40
0.4765625
 40
0.484375
 40
0.48828125
 40
0.4921875
 40
0.494140625
 40
0.49609375
 40
0.498046875
 40
0.4990234375
 40
0.5
 40
0.5009765625
 40
0.501953125
 40
0.50390625
 40
0.505859375
 40
0.5078125
 40
0.51171875
 40
0.515625
 40
0.5234375
 40
0.53125
 40
0.5390625
 40
0.546875
 40
0.5625
 40
0.578125
 40
0.5859375
 40
0.59375
 40
0.6015625
 40
0.609375
 40
0.61328125
 40
0.6171875
 40
0.62109375
 40
0.623046875
 40
0.6240234375
 40
0.625
 40
0.6259765625
 40
0.626953125
 40
0.62890625
 40
0.6328125
 40
0.63671875
 40
0.640625
 40
0.6484375
 40
0.65625
 40
0.6640625
 40
0.671875
 40
0.6875
 40
0.703125
 40
0.7109375
 40
0.71875
 40
0.7265625
 40
0.734375
 40
0.73828125
 40
0.7421875
 40
0.74609375
 40
0.748046875
 40
0.7490234375
 40
0.75
 40
0.7509765625
 40
0.751953125
 40
0.75390625
 40
0.7578125
 40
0.76171875
 40
0.765625
 40
0.7734375
 40
0.78125
 40
0.7890625
 40
0.796875
 40
0.8125
 40
0.828125
 40
0.8359375
 40
0.84375
 40
0.8515625
 40
0.859375
 40
0.86328125
 40
0.8671875
 40
0.87109375
 40
0.873046875
 40
0.8740234375
 40
0.875
 40
0.8759765625
 40
0.876953125
 40
0.87890625
 40
0.8828125
 40
0.88671875
 40
0.890625
 40
0.8984375
 40
0.90625
 40
0.9140625
 40
0.921875
 40
0.9375
 40
0.953125
 40
0.96875
 40
1.0
 40
1.0
 40
1.0
 40
1.0
 10
640.7873952428
 20
265.9662839037
 30
0.0
 10
640.7587818206
 20
265.9550457244
 30
0.0
 10
640.7158616872
 20
265.9381884553
 30
0.0
 10
640.6586348426
 20
265.9157120969
 30
0.0
 10
640.6157147093
 20
265.8988548273
 30
0.0
 10
640.5799479312
 20
265.8848071051
 30
0.0
 10
640.5513345095
 20
265.8735689219
 30
0.0
 10
640.529874441
 20
265.8651402992
 30
0.0
 10
640.508414381
 20
265.8567116205
 30
0.0
 10
640.4905309714
 20
265.849687896
 30
0.0
 10
640.4762243025
 20
265.8440685258
 30
0.0
 10
640.4672825005
 20
265.8405573088
 30
0.0
 10
640.4601293657
 20
265.8377462982
 30
0.0
 10
640.4547636746
 20
265.8356436176
 30
0.0
 10
640.4502949374
 20
265.8338736415
 30
0.0
 10
640.4471615776
 20
265.8326694769
 30
0.0
 10
640.4453792739
 20
265.8319270164
 30
0.0
 10
640.4440194816
 20
265.8315233219
 30
0.0
 10
640.4427478535
 20
265.8305342073
 30
0.0
 10
640.4410215967
 20
265.8294195889
 30
0.0
 10
640.4380149756
 20
265.8273738656
 30
0.0
 10
640.4337123115
 20
265.8245011446
 30
0.0
 10
640.4285523211
 20
265.8210325888
 30
0.0
 10
640.4216712139
 20
265.816415284
 30
0.0
 10
640.4130702133
 20
265.8106411068
 30
0.0
 10
640.3993083981
 20
265.8014038465
 30
0.0
 10
640.3821062026
 20
265.7898567827
 30
0.0
 10
640.3614635365
 20
265.7760005154
 30
0.0
 10
640.3408208789
 20
265.7621441922
 30
0.0
 10
640.3132973324
 20
265.7436691142
 30
0.0
 10
640.2788929005
 20
265.7205752594
 30
0.0
 10
640.2444884674
 20
265.6974814092
 30
0.0
 10
640.2169649227
 20
265.6790063237
 30
0.0
 10
640.1963222598
 20
265.6651500229
 30
0.0
 10
640.1756796134
 20
265.6512936716
 30
0.0
 10
640.1584773566
 20
265.6397468696
 30
0.0
 10
640.1447156665
 20
265.6305090753
 30
0.0
 10
640.1361143474
 20
265.6247362568
 30
0.0
 10
640.129233894
 20
265.6201161631
 30
0.0
 10
640.1240719061
 20
265.6166561278
 30
0.0
 10
640.1197754917
 20
265.6137567481
 30
0.0
 10
640.1167577139
 20
265.6117586151
 30
0.0
 10
640.1150493328
 20
265.6105677451
 30
0.0
 10
640.1137227965
 20
265.6098128511
 30
0.0
 10
640.1125692303
 20
265.6085294627
 30
0.0
 10
640.1109708082
 20
265.607002623
 30
0.0
 10
640.1082016803
 20
265.6042447639
 30
0.0
 10
640.1042310866
 20
265.6003498692
 30
0.0
 10
640.0994726647
 20
265.5956567752
 30
0.0
 10
640.0931259051
 20
265.5894060298
 30
0.0
 10
640.0851932079
 20
265.5815902994
 30
0.0
 10
640.0725004719
 20
265.5690864155
 30
0.0
 10
640.0566346961
 20
265.5534561197
 30
0.0
 10
640.0375957034
 20
265.5346999539
 30
0.0
 10
640.0185567272
 20
265.5159437374
 30
0.0
 10
639.9931714198
 20
265.4909354665
 30
0.0
 10
639.9614397878
 20
265.4596751213
 30
0.0
 10
639.9297081541
 20
265.4284147804
 30
0.0
 10
639.9043228494
 20
265.4034065026
 30
0.0
 10
639.8852838653
 20
265.3846503069
 30
0.0
 10
639.8662449023
 20
265.3658940633
 30
0.0
 10
639.8503790338
 20
265.3502640091
 30
0.0
 10
639.837686487
 20
265.3377596327
 30
0.0
 10
639.8297533083
 20
265.3299451558
 30
0.0
 10
639.8234075369
 20
265.3236918374
 30
0.0
 10
639.818646096
 20
265.3190066042
 30
0.0
 10
639.8146849483
 20
265.3150871149
 30
0.0
 10
639.8118989576
 20
265.3123731613
 30
0.0
 10
639.8103275538
 20
265.3107759738
 30
0.0
 10
639.8090909963
 20
265.3097086714
 30
0.0
 10
639.8080761616
 20
265.3081421946
 30
0.0
 10
639.8066457094
 20
265.3062276764
 30
0.0
 10
639.8041784517
 20
265.3027961451
 30
0.0
 10
639.8006349591
 20
265.2979363704
 30
0.0
 10
639.7963908315
 20
265.2920864867
 30
0.0
 10
639.7907291783
 20
265.2842929825
 30
0.0
 10
639.7836530762
 20
265.2745489312
 30
0.0
 10
639.7723307738
 20
265.2589596626
 30
0.0
 10
639.7581780807
 20
265.2394726604
 30
0.0
 10
639.7411947698
 20
265.2160884363
 30
0.0
 10
639.72421148
 20
265.1927041644
 30
0.0
 10
639.7015670864
 20
265.1615251518
 30
0.0
 10
639.6732615959
 20
265.1225513814
 30
0.0
 10
639.6449561086
 20
265.0835776092
 30
0.0
 10
639.6223117097
 20
265.0523985992
 30
0.0
 10
639.6053284357
 20
265.0290143196
 30
0.0
 10
639.5883450657
 20
265.0056301248
 30
0.0
 10
639.5741925564
 20
264.9861430312
 30
0.0
 10
639.5628698794
 20
264.9705539491
 30
0.0
 10
639.5557947306
 20
264.960809423
 30
0.0
 10
639.5501311205
 20
264.9530168936
 30
0.0
 10
639.5458929714
 20
264.9471640318
 30
0.0
 10
639.5423307737
 20
264.9423135746
 30
0.0
 10
639.5395492125
 20
264.9383728149
 30
0.0
 10
639.5372766949
 20
264.9355822705
 30
0.0
 10
639.5357154657
 20
264.9321618214
 30
0.0
 10
639.5333853645
 20
264.9278212565
 30
0.0
 10
639.5305579842
 20
264.9223200579
 30
0.0
 10
639.5271286397
 20
264.9157509327
 30
0.0
 10
639.522568925
 20
264.9069808128
 30
0.0
 10
639.5168649178
 20
264.8960220274
 30
0.0
 10
639.5077409452
 20
264.8784858109
 30
0.0
 10
639.4963351425
 20
264.8565662815
 30
0.0
 10
639.4826485381
 20
264.8302625284
 30
0.0
 10
639.4689618378
 20
264.8039588602
 30
0.0
 10
639.450712937
 20
264.7688872734
 30
0.0
 10
639.4279018038
 20
264.7250477972
 30
0.0
 10
639.4050906583
 20
264.6812083282
 30
0.0
 10
639.3868417772
 20
264.64613673
 30
0.0
 10
639.3731550177
 20
264.619833096
 30
0.0
 10
639.3594686353
 20
264.5935292147
 30
0.0
 10
639.3480621419
 20
264.571610084
 30
0.0
 10
639.338939578
 20
264.5540730544
 30
0.0
 10
639.3320904673
 20
264.5409249949
 30
0.0
 10
639.3264057381
 20
264.5299532884
 30
0.0
 10
639.32238156
 20
264.5223025116
 30
0.0
 10
639.3201520867
 20
264.5178847059
 30
0.0
 10
639.3182826301
 20
264.5147007462
 30
0.0
 10
639.3171675514
 20
264.5110221746
 30
0.0
 10
639.3154176445
 20
264.5062899387
 30
0.0
 10
639.3124779069
 20
264.4979281427
 30
0.0
 10
639.3082141853
 20
264.4860247451
 30
0.0
 10
639.303125155
 20
264.4717226797
 30
0.0
 10
639.2963301975
 20
264.4526595428
 30
0.0
 10
639.2878397892
 20
264.4288284655
 30
0.0
 10
639.2776498896
 20
264.4002320969
 30
0.0
 10
639.2674603672
 20
264.3716354811
 30
0.0
 10
639.2538742049
 20
264.3335067466
 30
0.0
 10
639.2368915521
 20
264.2858457972
 30
0.0
 10
639.2199088644
 20
264.2381848644
 30
0.0
 10
639.206322758
 20
264.2000561035
 30
0.0
 10
639.196133068
 20
264.171459567
 30
0.0
 10
639.185943797
 20
264.1428629007
 30
0.0
 10
639.1774514327
 20
264.1190327498
 30
0.0
 10
639.1706604642
 20
264.0999677236
 30
0.0
 10
639.1655592523
 20
264.0856714278
 30
0.0
 10
639.1613336427
 20
264.0737499789
 30
0.0
 10
639.1583258689
 20
264.0654204075
 30
0.0
 10
639.1566849731
 20
264.0606365398
 30
0.0
 10
639.1552350469
 20
264.0571165645
 30
0.0
 10
639.1546232223
 20
264.0533369434
 30
0.0
 10
639.153515117
 20
264.0483880159
 30
0.0
 10
639.1517121389
 20
264.0396851957
 30
0.0
 10
639.1490652457
 20
264.0272746567
 30
0.0
 10
639.1459194544
 20
264.0123725668
 30
0.0
 10
639.1417144186
 20
263.9925064123
 30
0.0
 10
639.1364617775
 20
263.9676725872
 30
0.0
 10
639.1301570419
 20
263.9378724823
 30
0.0
 10
639.1238527255
 20
263.9080722476
 30
0.0
 10
639.1154468231
 20
263.8683386468
 30
0.0
 10
639.1049395006
 20
263.8186716295
 30
0.0
 10
639.0944321402
 20
263.7690046206
 30
0.0
 10
639.0860262985
 20
263.7292710062
 30
0.0
 10
639.0797218001
 20
263.6994708123
 30
0.0
 10
639.0734177467
 20
263.6696705542
 30
0.0
 10
639.0681629833
 20
263.6448372059
 30
0.0
 10
639.0639622755
 20
263.6249700792
 30
0.0
 10
639.060803267
 20
263.6100709582
 30
0.0
 10
639.0581977259
 20
263.5976511304
 30
0.0
 10
639.0563209277
 20
263.5889648922
 30
0.0
 10
639.0553311008
 20
263.5839893963
 30
0.0
 10
639.0543559627
 20
263.5802913846
 30
0.0
 10
639.0542705817
 20
263.5764648978
 30
0.0
 10
639.0538463832
 20
263.5714077289
 30
0.0
 10
639.0532486369
 20
263.5625368039
 30
0.0
 10
639.0523191145
 20
263.54987497
 30
0.0
 10
639.0512360467
 20
263.5346760968
 30
0.0
 10
639.0497806528
 20
263.5144125646
 30
0.0
 10
639.0479652891
 20
263.4890825894
 30
0.0
 10
639.04578519
 20
263.4586868593
 30
0.0
 10
639.0436055357
 20
263.4282910649
 30
0.0
 10
639.0406991746
 20
263.3877633614
 30
0.0
 10
639.0370662766
 20
263.3371037245
 30
0.0
 10
639.0327067761
 20
263.2763121634
 30
0.0
 10
639.0268941168
 20
263.1952567475
 30
0.0
 10
639.0225346205
 20
263.1344651858
 30
0.0
 10
639.01962829
 20
263.0939374779
 30
0.0
  0
SPLINE
  5
381
100
AcDbEntity
  8
0
100
AcDbSpline
 62
7
  6
CONTINUOUS
 70
0
 71
3
 72
9
 73
5
 74
0
 42
0.0000001
 43
0.0000001
 44
0.0000000001
 40
0.0
 40
0.0
 40
0.0
 40
0.0
 40
0.2649054468
 40
1.0
 40
1.0
 40
1.0
 40
1.0
 10
499.9543518476
 20
406.8863242393
 30
0.0
 10
499.9619723983
 20
406.8843518957
 30
0.0
 10
499.9906639974
 20
406.8766241666
 30
0.0
 10
500.0190571234
 20
406.8677415843
 30
0.0
 10
500.0396063802
 20
406.8603349717
 30
0.0
  0
SPLINE
  5
382
100
AcDbEntity
  8
0
100
AcDbSpline
 62
7
  6
CONTINUOUS
 70
0
 71
3
 72
11
 73
7
 74
0
 42
0.0000001
 43
0.0000001
 44
0.0000000001
 40
0.0
 40
0.0
 40
0.0
 40
0.0
 40
0.1659257477
 40
0.3765257799
 40
0.6528270303
 40
1.0
 40
1.0
 40
1.0
 40
1.0
 10
500.6315941605
 20
406.5429275084
 30
0.0
 10
500.6315977379
 20
406.5604015735
 30
0.0
 10
500.6177294137
 20
406.6000589862
 30
0.0
 10
500.5676535452
 20
406.6488514526
 30
0.0
 10
500.4920215132
 20
406.6942700073
 30
0.0
 10
500.4311028398
 20
406.719326886
 30
0.0
 10
500.3967035016
 20
406.73171404
 30
0.0
  0
SPLINE
  5
383
100
AcDbEntity
  8
0
100
AcDbSpline
 62
7
  6
CONTINUOUS
 70
0
 71
3
 72
12
 73
8
 74
0
 42
0.0000001
 43
0.0000001
 44
0.0000000001
 40
0.0
 40
0.0
 40
0.0
 40
0.0
 40
0.0979291018
 40
0.2143280149
 40
0.482982403
 40
0.7607401275
 40
1.0
 40
1.0
 40
1.0
 40
1.0
 10
498.7237263569
 20
406.8603886855
 30
0.0
 10
498.7619026568
 20
406.8741418943
 30
0.0
 10
498.8477505302
 20
406.897835904
 30
0.0
 10
499.0448539984
 20
406.9332906731
 30
0.0
 10
499.3196345583
 20
406.9530335977
 30
0.0
 10
499.6453312066
 20
406.9423724732
 30
0.0
 10
499.8583742287
 20
406.911165075
 30
0.0
 10
499.9543518476
 20
406.8863242393
 30
0.0
  0
SPLINE
  5
384
100
AcDbEntity
  8
0
100
AcDbSpline
 62
7
  6
CONTINUOUS
 70
0
 71
3
 72
11
 73
7
 74
0
 42
0.0000001
 43
0.0000001
 44
0.0000000001
 40
0.0
 40
0.0
 40
0.0
 40
0.0
 40
0.330560073
 40
0.6000320184
 40
0.8165954331
 40
1.0
 40
1.0
 40
1.0
 40
1.0
 10
500.4837723468
 20
406.3903117703
 30
0.0
 10
500.5058029648
 20
406.4009708951
 30
0.0
 10
500.5449088736
 20
406.4223748262
 30
0.0
 10
500.5928290269
 20
406.4598144909
 30
0.0
 10
500.6237742358
 20
406.4995500942
 30
0.0
 10
500.6315913806
 20
406.5293487366
 30
0.0
 10
500.6315941605
 20
406.5429275084
 30
0.0
  0
SPLINE
  5
385
100
AcDbEntity
  8
0
100
AcDbSpline
 62
7
  6
CONTINUOUS
 70
0
 71
3
 72
18
 73
14
 74
0
 42
0.0000001
 43
0.0000001
 44
0.0000000001
 40
0.0
 40
0.0
 40
0.0
 40
0.0
 40
0.1409552409
 40
0.1970212654
 40
0.2440057381
 40
0.3167374383
 40
0.3504629888
 40
0.3879999189
 40
0.4325705477
 40
0.4859309143
 40
0.6212358436
 40
0.7941260697
 40
1.0
 40
1.0
 40
1.0
 40
1.0
 10
500.0396063802
 20
406.8603349717
 30
0.0
 10
500.0676806306
 20
406.8502161094
 30
0.0
 10
500.1064093419
 20
406.8339868034
 30
0.0
 10
500.1498513422
 20
406.8055558745
 30
0.0
 10
500.1774533586
 20
406.7807927464
 30
0.0
 10
500.1942945506
 20
406.7497074479
 30
0.0
 10
500.1896056188
 20
406.7186645241
 30
0.0
 10
500.177317736
 20
406.6970058437
 30
0.0
 10
500.157118331
 20
406.6763440535
 30
0.0
 10
500.1167152512
 20
406.6476508372
 30
0.0
 10
500.0464086113
 20
406.6160055546
 30
0.0
 10
499.9420300753
 20
406.5847999333
 30
0.0
 10
499.8632808414
 20
406.5690192288
 30
0.0
 10
499.8202882111
 20
406.5618496088
 30
0.0
  0
SPLINE
  5
386
100
AcDbEntity
  8
0
100
AcDbSpline
 62
7
  6
CONTINUOUS
 70
0
 71
3
 72
9
 73
5
 74
0
 42
0.0000001
 43
0.0000001
 44
0.0000000001
 40
0.0
 40
0.0
 40
0.0
 40
0.0
 40
0.2649054468
 40
1.0
 40
1.0
 40
1.0
 40
1.0
 10
558.8033137118
 20
391.6550921244
 30
0.0
 10
558.8109342626
 20
391.6531197807
 30
0.0
 10
558.8396258617
 20
391.6453920516
 30
0.0
 10
558.8680189877
 20
391.6365094694
 30
0.0
 10
558.8885682444
 20
391.6291028567
 30
0.0
  0
SPLINE
  5
387
100
AcDbEntity
  8
0
100
AcDbSpline
 62
7
  6
CONTINUOUS
 70
0
 71
3
 72
11
 73
7
 74
0
 42
0.0000001
 43
0.0000001
 44
0.0000000001
 40
0.0
 40
0.0
 40
0.0
 40
0.0
 40
0.1659257477
 40
0.3765257799
 40
0.6528270303
 40
1.0
 40
1.0
 40
1.0
 40
1.0
 10
559.4805560248
 20
391.3116953934
 30
0.0
 10
559.4805596022
 20
391.3291694585
 30
0.0
 10
559.466691278
 20
391.3688268712
 30
0.0
 10
559.4166154095
 20
391.4176193376
 30
0.0
 10
559.3409833774
 20
391.4630378924
 30
0.0
 10
559.2800647041
 20
391.488094771
 30
0.0
 10
559.2456653658
 20
391.500481925
 30
0.0
  0
SPLINE
  5
388
100
AcDbEntity
  8
0
100
AcDbSpline
 62
7
  6
CONTINUOUS
 70
0
 71
3
 72
12
 73
8
 74
0
 42
0.0000001
 43
0.0000001
 44
0.0000000001
 40
0.0
 40
0.0
 40
0.0
 40
0.0
 40
0.0979291018
 40
0.2143280149
 40
0.482982403
 40
0.7607401275
 40
1.0
 40
1.0
 40
1.0
 40
1.0
 10
557.5726882212
 20
391.6291565705
 30
0.0
 10
557.6108645211
 20
391.6429097793
 30
0.0
 10
557.6967123945
 20
391.666603789
 30
0.0
 10
557.8938158626
 20
391.7020585582
 30
0.0
 10
558.1685964225
 20
391.7218014828
 30
0.0
 10
558.4942930709
 20
391.7111403583
 30
0.0
 10
558.707336093
 20
391.67993296
 30
0.0
 10
558.8033137118
 20
391.6550921244
 30
0.0
  0
SPLINE
  5
389
100
AcDbEntity
  8
0
100
AcDbSpline
 62
7
  6
CONTINUOUS
 70
0
 71
3
 72
11
 73
7
 74
0
 42
0.0000001
 43
0.0000001
 44
0.0000000001
 40
0.0
 40
0.0
 40
0.0
 40
0.0
 40
0.330560073
 40
0.6000320184
 40
0.8165954331
 40
1.0
 40
1.0
 40
1.0
 40
1.0
 10
559.3327342111
 20
391.1590796554
 30
0.0
 10
559.3547648291
 20
391.1697387801
 30
0.0
 10
559.3938707378
 20
391.1911427112
 30
0.0
 10
559.4417908912
 20
391.228582376
 30
0.0
 10
559.4727361001
 20
391.2683179792
 30
0.0
 10
559.4805532449
 20
391.2981166216
 30
0.0
 10
559.4805560248
 20
391.3116953934
 30
0.0
  0
SPLINE
  5
38A
100
AcDbEntity
  8
0
100
AcDbSpline
 62
7
  6
CONTINUOUS
 70
0
 71
3
 72
18
 73
14
 74
0
 42
0.0000001
 43
0.0000001
 44
0.0000000001
 40
0.0
 40
0.0
 40
0.0
 40
0.0
 40
0.1409552409
 40
0.1970212654
 40
0.2440057381
 40
0.3167374383
 40
0.3504629888
 40
0.3879999189
 40
0.4325705477
 40
0.4859309143
 40
0.6212358436
 40
0.7941260697
 40
1.0
 40
1.0
 40
1.0
 40
1.0
 10
558.8885682444
 20
391.6291028567
 30
0.0
 10
558.9166424948
 20
391.6189839944
 30
0.0
 10
558.9553712061
 20
391.6027546884
 30
0.0
 10
558.9988132065
 20
391.5743237595
 30
0.0
 10
559.0264152228
 20
391.5495606314
 30
0.0
 10
559.0432564148
 20
391.5184753329
 30
0.0
 10
559.0385674831
 20
391.4874324092
 30
0.0
 10
559.0262796002
 20
391.4657737287
 30
0.0
 10
559.0060801953
 20
391.4451119385
 30
0.0
 10
558.9656771154
 20
391.4164187222
 30
0.0
 10
558.8953704756
 20
391.3847734396
 30
0.0
 10
558.7909919396
 20
391.3535678183
 30
0.0
 10
558.7122427056
 20
391.3377871139
 30
0.0
 10
558.6692500754
 20
391.3306174938
 30
0.0
  0
SPLINE
  5
38B
100
AcDbEntity
  8
0
100
AcDbSpline
 62
7
  6
CONTINUOUS
 70
0
 71
3
 72
9
 73
5
 74
0
 42
0.0000001
 43
0.0000001
 44
0.0000000001
 40
0.0
 40
0.0
 40
0.0
 40
0.0
 40
0.2649054468
 40
1.0
 40
1.0
 40
1.0
 40
1.0
 10
631.7944111998
 20
372.7636059715
 30
0.0
 10
631.8020317505
 20
372.7616336279
 30
0.0
 10
631.8307233497
 20
372.7539058988
 30
0.0
 10
631.8591164756
 20
372.7450233165
 30
0.0
 10
631.8796657324
 20
372.7376167039
 30
0.0
  0
SPLINE
  5
38C
100
AcDbEntity
  8
0
100
AcDbSpline
 62
7
  6
CONTINUOUS
 70
0
 71
3
 72
11
 73
7
 74
0
 42
0.0000001
 43
0.0000001
 44
0.0000000001
 40
0.0
 40
0.0
 40
0.0
 40
0.0
 40
0.1659257477
 40
0.3765257799
 40
0.6528270303
 40
1.0
 40
1.0
 40
1.0
 40
1.0
 10
632.4716535128
 20
372.4202092406
 30
0.0
 10
632.4716570902
 20
372.4376833057
 30
0.0
 10
632.4577887659
 20
372.4773407184
 30
0.0
 10
632.4077128974
 20
372.5261331848
 30
0.0
 10
632.3320808654
 20
372.5715517395
 30
0.0
 10
632.271162192
 20
372.5966086182
 30
0.0
 10
632.2367628538
 20
372.6089957722
 30
0.0
  0
SPLINE
  5
38D
100
AcDbEntity
  8
0
100
AcDbSpline
 62
7
  6
CONTINUOUS
 70
0
 71
3
 72
12
 73
8
 74
0
 42
0.0000001
 43
0.0000001
 44
0.0000000001
 40
0.0
 40
0.0
 40
0.0
 40
0.0
 40
0.0979291018
 40
0.2143280149
 40
0.482982403
 40
0.7607401275
 40
1.0
 40
1.0
 40
1.0
 40
1.0
 10
630.5637857092
 20
372.7376704177
 30
0.0
 10
630.601962009
 20
372.7514236265
 30
0.0
 10
630.6878098825
 20
372.7751176362
 30
0.0
 10
630.8849133506
 20
372.8105724053
 30
0.0
 10
631.1596939105
 20
372.8303153299
 30
0.0
 10
631.4853905588
 20
372.8196542054
 30
0.0
 10
631.6984335809
 20
372.7884468072
 30
0.0
 10
631.7944111998
 20
372.7636059715
 30
0.0
  0
SPLINE
  5
38E
100
AcDbEntity
  8
0
100
AcDbSpline
 62
7
  6
CONTINUOUS
 70
0
 71
3
 72
11
 73
7
 74
0
 42
0.0000001
 43
0.0000001
 44
0.0000000001
 40
0.0
 40
0.0
 40
0.0
 40
0.0
 40
0.330560073
 40
0.6000320184
 40
0.8165954331
 40
1.0
 40
1.0
 40
1.0
 40
1.0
 10
632.3238316991
 20
372.2675935025
 30
0.0
 10
632.3458623171
 20
372.2782526273
 30
0.0
 10
632.3849682258
 20
372.2996565584
 30
0.0
 10
632.4328883792
 20
372.3370962231
 30
0.0
 10
632.463833588
 20
372.3768318264
 30
0.0
 10
632.4716507329
 20
372.4066304688
 30
0.0
 10
632.4716535128
 20
372.4202092406
 30
0.0
  0
SPLINE
  5
38F
100
AcDbEntity
  8
0
100
AcDbSpline
 62
7
  6
CONTINUOUS
 70
0
 71
3
 72
18
 73
14
 74
0
 42
0.0000001
 43
0.0000001
 44
0.0000000001
 40
0.0
 40
0.0
 40
0.0
 40
0.0
 40
0.1409552409
 40
0.1970212654
 40
0.2440057381
 40
0.3167374383
 40
0.3504629888
 40
0.3879999189
 40
0.4325705477
 40
0.4859309143
 40
0.6212358436
 40
0.7941260697
 40
1.0
 40
1.0
 40
1.0
 40
1.0
 10
631.8796657324
 20
372.7376167039
 30
0.0
 10
631.9077399828
 20
372.7274978416
 30
0.0
 10
631.9464686941
 20
372.7112685356
 30
0.0
 10
631.9899106945
 20
372.6828376067
 30
0.0
 10
632.0175127108
 20
372.6580744786
 30
0.0
 10
632.0343539028
 20
372.62698918
 30
0.0
 10
632.0296649711
 20
372.5959462563
 30
0.0
 10
632.0173770882
 20
372.5742875759
 30
0.0
 10
631.9971776833
 20
372.5536257857
 30
0.0
 10
631.9567746034
 20
372.5249325694
 30
0.0
 10
631.8864679636
 20
372.4932872868
 30
0.0
 10
631.7820894275
 20
372.4620816655
 30
0.0
 10
631.7033401936
 20
372.446300961
 30
0.0
 10
631.6603475634
 20
372.439131341
 30
0.0
  0
SPLINE
  5
390
100
AcDbEntity
  8
0
100
AcDbSpline
 62
7
  6
CONTINUOUS
 70
0
 71
3
 72
14
 73
10
 74
0
 42
0.0000001
 43
0.0000001
 44
0.0000000001
 40
0.0
 40
0.0
 40
0.0
 40
0.0
 40
0.1061898036
 40
0.2150477028
 40
0.3288264141
 40
0.4490914441
 40
0.5766326249
 40
0.7115083685
 40
1.0
 40
1.0
 40
1.0
 40
1.0
 10
905.0278233641
 20
329.3283361288
 30
0.0
 10
905.1613196096
 20
329.2937846158
 30
0.0
 10
905.4246976778
 20
329.1931626048
 30
0.0
 10
905.7837217104
 20
328.9564999722
 30
0.0
 10
906.1008475454
 20
328.6399775401
 30
0.0
 10
906.3691341168
 20
328.2518802531
 30
0.0
 10
906.5833589547
 20
327.8012907215
 30
0.0
 10
906.7957502321
 20
327.1163091354
 30
0.0
 10
906.8539993339
 20
326.5626129364
 30
0.0
 10
906.8539993339
 20
326.1879858365
 30
0.0
  0
SPLINE
  5
391
100
AcDbEntity
  8
0
100
AcDbSpline
 62
7
  6
CONTINUOUS
 70
0
 71
3
 72
16
 73
12
 74
0
 42
0.0000001
 43
0.0000001
 44
0.0000000001
 40
0.0
 40
0.0
 40
0.0
 40
0.0
 40
0.0489389463
 40
0.0986750396
 40
0.2029443355
 40
0.3170169584
 40
0.4418954868
 40
0.5761601
 40
0.716703735
 40
0.8594483551
 40
1.0
 40
1.0
 40
1.0
 40
1.0
 10
903.0233210543
 20
321.583533929
 30
0.0
 10
903.1299909495
 20
321.5559256149
 30
0.0
 10
903.3505412071
 20
321.5193965953
 30
0.0
 10
903.8094091201
 20
321.5242557275
 30
0.0
 10
904.4023267484
 20
321.6854911186
 30
0.0
 10
905.0679217036
 20
322.0938195135
 30
0.0
 10
905.6685418798
 20
322.6905680226
 30
0.0
 10
906.1735018994
 20
323.4415156407
 30
0.0
 10
906.5565637933
 20
324.3049702028
 30
0.0
 10
906.7968617188
 20
325.2326059177
 30
0.0
 10
906.8539993339
 20
325.8715374221
 30
0.0
 10
906.8539993339
 20
326.1879858365
 30
0.0
  0
SPLINE
  5
392
100
AcDbEntity
  8
0
100
AcDbSpline
 62
7
  6
CONTINUOUS
 70
0
 71
3
 72
14
 73
10
 74
0
 42
0.0000001
 43
0.0000001
 44
0.0000000001
 40
0.0
 40
0.0
 40
0.0
 40
0.0
 40
0.1061898036
 40
0.2150477028
 40
0.3288264141
 40
0.4490914441
 40
0.5766326249
 40
0.7115083685
 40
1.0
 40
1.0
 40
1.0
 40
1.0
 10
916.3415318631
 20
332.2565393591
 30
0.0
 10
916.4750281085
 20
332.2219878461
 30
0.0
 10
916.7384061768
 20
332.1213658351
 30
0.0
 10
917.0974302093
 20
331.8847032024
 30
0.0
 10
917.4145560444
 20
331.5681807704
 30
0.0
 10
917.6828426158
 20
331.1800834833
 30
0.0
 10
917.8970674537
 20
330.7294939518
 30
0.0
 10
918.1094587311
 20
330.0445123656
 30
0.0
 10
918.1677078329
 20
329.4908161667
 30
0.0
 10
918.1677078329
 20
329.1161890667
 30
0.0
  0
SPLINE
  5
393
100
AcDbEntity
  8
0
100
AcDbSpline
 62
7
  6
CONTINUOUS
 70
0
 71
3
 72
16
 73
12
 74
0
 42
0.0000001
 43
0.0000001
 44
0.0000000001
 40
0.0
 40
0.0
 40
0.0
 40
0.0
 40
0.0489389463
 40
0.0986750396
 40
0.2029443355
 40
0.3170169584
 40
0.4418954868
 40
0.5761601
 40
0.716703735
 40
0.8594483551
 40
1.0
 40
1.0
 40
1.0
 40
1.0
 10
914.3370295532
 20
324.5117371593
 30
0.0
 10
914.4436994485
 20
324.4841288452
 30
0.0
 10
914.6642497061
 20
324.4475998256
 30
0.0
 10
915.123117619
 20
324.4524589578
 30
0.0
 10
915.7160352474
 20
324.6136943489
 30
0.0
 10
916.3816302026
 20
325.0220227438
 30
0.0
 10
916.9822503788
 20
325.6187712529
 30
0.0
 10
917.4872103984
 20
326.3697188709
 30
0.0
 10
917.8702722923
 20
327.2331734331
 30
0.0
 10
918.1105702177
 20
328.160809148
 30
0.0
 10
918.1677078329
 20
328.7997406524
 30
0.0
 10
918.1677078329
 20
329.1161890667
 30
0.0
  0
SPLINE
  5
394
100
AcDbEntity
  8
0
100
AcDbSpline
 62
7
  6
CONTINUOUS
 70
0
 71
3
 72
14
 73
10
 74
0
 42
0.0000001
 43
0.0000001
 44
0.0000000001
 40
0.0
 40
0.0
 40
0.0
 40
0.0
 40
0.1061898036
 40
0.2150477028
 40
0.3288264141
 40
0.4490914441
 40
0.5766326249
 40
0.7115083685
 40
1.0
 40
1.0
 40
1.0
 40
1.0
 10
927.6552403621
 20
335.1847425894
 30
0.0
 10
927.7887366075
 20
335.1501910764
 30
0.0
 10
928.0521146758
 20
335.0495690653
 30
0.0
 10
928.4111387083
 20
334.8129064327
 30
0.0
 10
928.7282645433
 20
334.4963840007
 30
0.0
 10
928.9965511148
 20
334.1082867136
 30
0.0
 10
929.2107759527
 20
333.657697182
 30
0.0
 10
929.4231672301
 20
332.9727155959
 30
0.0
 10
929.4814163319
 20
332.419019397
 30
0.0
 10
929.4814163319
 20
332.044392297
 30
0.0
  0
SPLINE
  5
395
100
AcDbEntity
  8
0
100
AcDbSpline
 62
7
  6
CONTINUOUS
 70
0
 71
3
 72
16
 73
12
 74
0
 42
0.0000001
 43
0.0000001
 44
0.0000000001
 40
0.0
 40
0.0
 40
0.0
 40
0.0
 40
0.0489389463
 40
0.0986750396
 40
0.2029443355
 40
0.3170169584
 40
0.4418954868
 40
0.5761601
 40
0.716703735
 40
0.8594483551
 40
1.0
 40
1.0
 40
1.0
 40
1.0
 10
925.6507380522
 20
327.4399403895
 30
0.0
 10
925.7574079475
 20
327.4123320755
 30
0.0
 10
925.9779582051
 20
327.3758030559
 30
0.0
 10
926.436826118
 20
327.3806621881
 30
0.0
 10
927.0297437464
 20
327.5418975792
 30
0.0
 10
927.6953387016
 20
327.950225974
 30
0.0
 10
928.2959588778
 20
328.5469744832
 30
0.0
 10
928.8009188973
 20
329.2979221012
 30
0.0
 10
929.1839807913
 20
330.1613766634
 30
0.0
 10
929.4242787167
 20
331.0890123783
 30
0.0
 10
929.4814163319
 20
331.7279438827
 30
0.0
 10
929.4814163319
 20
332.044392297
 30
0.0
  0
SPLINE
  5
396
100
AcDbEntity
  8
0
100
AcDbSpline
 62
7
  6
CONTINUOUS
 70
0
 71
3
 72
14
 73
10
 74
0
 42
0.0000001
 43
0.0000001
 44
0.0000000001
 40
0.0
 40
0.0
 40
0.0
 40
0.0
 40
0.1061898036
 40
0.2150477028
 40
0.3288264141
 40
0.4490914441
 40
0.5766326249
 40
0.7115083685
 40
1.0
 40
1.0
 40
1.0
 40
1.0
 10
938.9689488611
 20
338.1129458196
 30
0.0
 10
939.1024451065
 20
338.0783943067
 30
0.0
 10
939.3658231748
 20
337.9777722956
 30
0.0
 10
939.7248472073
 20
337.741109663
 30
0.0
 10
940.0419730423
 20
337.4245872309
 30
0.0
 10
940.3102596138
 20
337.0364899439
 30
0.0
 10
940.5244844517
 20
336.5859004123
 30
0.0
 10
940.7368757291
 20
335.9009188262
 30
0.0
 10
940.7951248309
 20
335.3472226273
 30
0.0
 10
940.7951248309
 20
334.9725955273
 30
0.0
  0
SPLINE
  5
397
100
AcDbEntity
  8
0
100
AcDbSpline
 62
7
  6
CONTINUOUS
 70
0
 71
3
 72
16
 73
12
 74
0
 42
0.0000001
 43
0.0000001
 44
0.0000000001
 40
0.0
 40
0.0
 40
0.0
 40
0.0
 40
0.0489389463
 40
0.0986750396
 40
0.2029443355
 40
0.3170169584
 40
0.4418954868
 40
0.5761601
 40
0.716703735
 40
0.8594483551
 40
1.0
 40
1.0
 40
1.0
 40
1.0
 10
936.9644465512
 20
330.3681436198
 30
0.0
 10
937.0711164465
 20
330.3405353057
 30
0.0
 10
937.2916667041
 20
330.3040062861
 30
0.0
 10
937.750534617
 20
330.3088654183
 30
0.0
 10
938.3434522454
 20
330.4701008095
 30
0.0
 10
939.0090472005
 20
330.8784292043
 30
0.0
 10
939.6096673768
 20
331.4751777134
 30
0.0
 10
940.1146273963
 20
332.2261253315
 30
0.0
 10
940.4976892903
 20
333.0895798937
 30
0.0
 10
940.7379872157
 20
334.0172156085
 30
0.0
 10
940.7951248309
 20
334.656147113
 30
0.0
 10
940.7951248309
 20
334.9725955273
 30
0.0
  0
SPLINE
  5
398
100
AcDbEntity
  8
0
100
AcDbSpline
 62
7
  6
CONTINUOUS
 70
0
 71
3
 72
14
 73
10
 74
0
 42
0.0000001
 43
0.0000001
 44
0.0000000001
 40
0.0
 40
0.0
 40
0.0
 40
0.0
 40
0.1061898086
 40
0.2150477144
 40
0.3288264316
 40
0.4490914639
 40
0.5766326422
 40
0.7115083822
 40
1.0
 40
1.0
 40
1.0
 40
1.0
 10
950.2826574285
 20
341.0411493143
 30
0.0
 10
950.4161536276
 20
341.0065975892
 30
0.0
 10
950.6795317696
 20
340.9059758017
 30
0.0
 10
951.03855573
 20
340.6693129367
 30
0.0
 10
951.3556815219
 20
340.3527904546
 30
0.0
 10
951.6239680523
 20
339.964693118
 30
0.0
 10
951.8381928829
 20
339.5141035859
 30
0.0
 10
952.0505841803
 20
338.8291220247
 30
0.0
 10
952.1088333299
 20
338.2754258446
 30
0.0
 10
952.1088333299
 20
337.9007987576
 30
0.0
  0
SPLINE
  5
399
100
AcDbEntity
  8
0
100
AcDbSpline
 62
7
  6
CONTINUOUS
 70
0
 71
3
 72
16
 73
12
 74
0
 42
0.0000001
 43
0.0000001
 44
0.0000000001
 40
0.0
 40
0.0
 40
0.0
 40
0.0
 40
0.048938951
 40
0.0986750407
 40
0.2029443359
 40
0.3170169422
 40
0.4418954897
 40
0.5761601003
 40
0.7167037321
 40
0.8594483556
 40
1.0
 40
1.0
 40
1.0
 40
1.0
 10
948.2781549818
 20
333.2963465857
 30
0.0
 10
948.3848248437
 20
333.2687381012
 30
0.0
 10
948.6053752598
 20
333.2322098971
 30
0.0
 10
949.0642431013
 20
333.2370685988
 30
0.0
 10
949.6571606488
 20
333.3983043025
 30
0.0
 10
950.3227559638
 20
333.8066320513
 30
0.0
 10
950.923375685
 20
334.403381114
 30
0.0
 10
951.4283358715
 20
335.1543285629
 30
0.0
 10
951.811397944
 20
336.0177830821
 30
0.0
 10
952.0516956362
 20
336.9454188498
 30
0.0
 10
952.1088333299
 20
337.5843503449
 30
0.0
 10
952.1088333299
 20
337.9007987576
 30
0.0
  0
SPLINE
  5
39A
100
AcDbEntity
  8
0
100
AcDbSpline
 62
7
  6
CONTINUOUS
 70
0
 71
3
 72
16
 73
12
 74
0
 42
0.0000001
 43
0.0000001
 44
0.0000000001
 40
0.0
 40
0.0
 40
0.0
 40
0.0
 40
0.1405516449
 40
0.283296265
 40
0.4238399
 40
0.5581045132
 40
0.6829830416
 40
0.7970556645
 40
0.9013249604
 40
0.9510610537
 40
1.0
 40
1.0
 40
1.0
 40
1.0
 10
935.1382705814
 20
333.5084939122
 30
0.0
 10
935.1382705814
 20
333.8249423265
 30
0.0
 10
935.1954081966
 20
334.4638738309
 30
0.0
 10
935.435706122
 20
335.3915095458
 30
0.0
 10
935.818768016
 20
336.254964108
 30
0.0
 10
936.3237280355
 20
337.005911726
 30
0.0
 10
936.9243482118
 20
337.6026602351
 30
0.0
 10
937.5899431669
 20
338.01098863
 30
0.0
 10
938.1828607953
 20
338.1722240211
 30
0.0
 10
938.6417287082
 20
338.1770831533
 30
0.0
 10
938.8622789658
 20
338.1405541337
 30
0.0
 10
938.9689488611
 20
338.1129458196
 30
0.0
  0
SPLINE
  5
39B
100
AcDbEntity
  8
0
100
AcDbSpline
 62
7
  6
CONTINUOUS
 70
0
 71
3
 72
14
 73
10
 74
0
 42
0.0000001
 43
0.0000001
 44
0.0000000001
 40
0.0
 40
0.0
 40
0.0
 40
0.0
 40
0.2884916315
 40
0.4233673751
 40
0.5509085559
 40
0.6711735859
 40
0.7849522972
 40
0.8938101964
 40
1.0
 40
1.0
 40
1.0
 40
1.0
 10
923.8245620824
 20
330.5802906819
 30
0.0
 10
923.8245620824
 20
330.2056635819
 30
0.0
 10
923.8828111843
 20
329.651967383
 30
0.0
 10
924.0952024616
 20
328.9669857969
 30
0.0
 10
924.3094272995
 20
328.5163962653
 30
0.0
 10
924.577713871
 20
328.1282989782
 30
0.0
 10
924.894839706
 20
327.8117765462
 30
0.0
 10
925.2538637385
 20
327.5751139136
 30
0.0
 10
925.5172418068
 20
327.4744919025
 30
0.0
 10
925.6507380522
 20
327.4399403895
 30
0.0
  0
SPLINE
  5
39C
100
AcDbEntity
  8
0
100
AcDbSpline
 62
7
  6
CONTINUOUS
 70
0
 71
3
 72
16
 73
12
 74
0
 42
0.0000001
 43
0.0000001
 44
0.0000000001
 40
0.0
 40
0.0
 40
0.0
 40
0.0
 40
0.1405516449
 40
0.283296265
 40
0.4238399
 40
0.5581045132
 40
0.6829830416
 40
0.7970556645
 40
0.9013249604
 40
0.9510610537
 40
1.0
 40
1.0
 40
1.0
 40
1.0
 10
923.8245620824
 20
330.5802906819
 30
0.0
 10
923.8245620824
 20
330.8967390962
 30
0.0
 10
923.8816996976
 20
331.5356706006
 30
0.0
 10
924.121997623
 20
332.4633063155
 30
0.0
 10
924.505059517
 20
333.3267608777
 30
0.0
 10
925.0100195366
 20
334.0777084957
 30
0.0
 10
925.6106397128
 20
334.6744570049
 30
0.0
 10
926.276234668
 20
335.0827853997
 30
0.0
 10
926.8691522963
 20
335.2440207908
 30
0.0
 10
927.3280202092
 20
335.248879923
 30
0.0
 10
927.5485704669
 20
335.2123509034
 30
0.0
 10
927.6552403621
 20
335.1847425894
 30
0.0
  0
SPLINE
  5
39D
100
AcDbEntity
  8
0
100
AcDbSpline
 62
7
  6
CONTINUOUS
 70
0
 71
3
 72
14
 73
10
 74
0
 42
0.0000001
 43
0.0000001
 44
0.0000000001
 40
0.0
 40
0.0
 40
0.0
 40
0.0
 40
0.2884916315
 40
0.4233673751
 40
0.5509085559
 40
0.6711735859
 40
0.7849522972
 40
0.8938101964
 40
1.0
 40
1.0
 40
1.0
 40
1.0
 10
912.5108535834
 20
327.6520874516
 30
0.0
 10
912.5108535834
 20
327.2774603516
 30
0.0
 10
912.5691026853
 20
326.7237641527
 30
0.0
 10
912.7814939627
 20
326.0387825666
 30
0.0
 10
912.9957188005
 20
325.588193035
 30
0.0
 10
913.264005372
 20
325.2000957479
 30
0.0
 10
913.581131207
 20
324.8835733159
 30
0.0
 10
913.9401552395
 20
324.6469106833
 30
0.0
 10
914.2035333078
 20
324.5462886722
 30
0.0
 10
914.3370295532
 20
324.5117371593
 30
0.0
  0
SPLINE
  5
39E
100
AcDbEntity
  8
0
100
AcDbSpline
 62
7
  6
CONTINUOUS
 70
0
 71
3
 72
16
 73
12
 74
0
 42
0.0000001
 43
0.0000001
 44
0.0000000001
 40
0.0
 40
0.0
 40
0.0
 40
0.0
 40
0.1405516449
 40
0.283296265
 40
0.4238399
 40
0.5581045132
 40
0.6829830416
 40
0.7970556645
 40
0.9013249604
 40
0.9510610537
 40
1.0
 40
1.0
 40
1.0
 40
1.0
 10
912.5108535834
 20
327.6520874516
 30
0.0
 10
912.5108535834
 20
327.9685358659
 30
0.0
 10
912.5679911986
 20
328.6074673704
 30
0.0
 10
912.808289124
 20
329.5351030852
 30
0.0
 10
913.191351018
 20
330.3985576474
 30
0.0
 10
913.6963110376
 20
331.1495052655
 30
0.0
 10
914.2969312138
 20
331.7462537746
 30
0.0
 10
914.962526169
 20
332.1545821694
 30
0.0
 10
915.5554437973
 20
332.3158175606
 30
0.0
 10
916.0143117102
 20
332.3206766928
 30
0.0
 10
916.2348619679
 20
332.2841476732
 30
0.0
 10
916.3415318631
 20
332.2565393591
 30
0.0
  0
SPLINE
  5
39F
100
AcDbEntity
  8
0
100
AcDbSpline
 62
7
  6
CONTINUOUS
 70
0
 71
3
 72
14
 73
10
 74
0
 42
0.0000001
 43
0.0000001
 44
0.0000000001
 40
0.0
 40
0.0
 40
0.0
 40
0.0
 40
0.2884916315
 40
0.4233673751
 40
0.5509085559
 40
0.6711735859
 40
0.7849522972
 40
0.8938101964
 40
1.0
 40
1.0
 40
1.0
 40
1.0
 10
901.1971450845
 20
324.7238842213
 30
0.0
 10
901.1971450845
 20
324.3492571214
 30
0.0
 10
901.2553941863
 20
323.7955609224
 30
0.0
 10
901.4677854637
 20
323.1105793363
 30
0.0
 10
901.6820103015
 20
322.6599898047
 30
0.0
 10
901.950296873
 20
322.2718925177
 30
0.0
 10
902.267422708
 20
321.9553700856
 30
0.0
 10
902.6264467406
 20
321.718707453
 30
0.0
 10
902.8898248088
 20
321.618085442
 30
0.0
 10
903.0233210543
 20
321.583533929
 30
0.0
  0
SPLINE
  5
3A0
100
AcDbEntity
  8
0
100
AcDbSpline
 62
7
  6
CONTINUOUS
 70
0
 71
3
 72
16
 73
12
 74
0
 42
0.0000001
 43
0.0000001
 44
0.0000000001
 40
0.0
 40
0.0
 40
0.0
 40
0.0
 40
0.1405516449
 40
0.283296265
 40
0.4238399
 40
0.5581045132
 40
0.6829830416
 40
0.7970556645
 40
0.9013249604
 40
0.9510610537
 40
1.0
 40
1.0
 40
1.0
 40
1.0
 10
901.1971450845
 20
324.7238842213
 30
0.0
 10
901.1971450845
 20
325.0403326356
 30
0.0
 10
901.2542826996
 20
325.6792641401
 30
0.0
 10
901.4945806251
 20
326.606899855
 30
0.0
 10
901.877642519
 20
327.4703544171
 30
0.0
 10
902.3826025386
 20
328.2213020352
 30
0.0
 10
902.9832227148
 20
328.8180505443
 30
0.0
 10
903.64881767
 20
329.2263789391
 30
0.0
 10
904.2417352983
 20
329.3876143303
 30
0.0
 10
904.7006032112
 20
329.3924734625
 30
0.0
 10
904.9211534689
 20
329.3559444429
 30
0.0
 10
905.0278233641
 20
329.3283361288
 30
0.0
  0
SPLINE
  5
3A1
100
AcDbEntity
  8
0
100
AcDbSpline
 62
7
  6
CONTINUOUS
 70
0
 71
3
 72
14
 73
10
 74
0
 42
0.0000001
 43
0.0000001
 44
0.0000000001
 40
0.0
 40
0.0
 40
0.0
 40
0.0
 40
0.2884916315
 40
0.4233673751
 40
0.5509085559
 40
0.6711735859
 40
0.7849522972
 40
0.8938101964
 40
1.0
 40
1.0
 40
1.0
 40
1.0
 10
935.1382705814
 20
333.5084939122
 30
0.0
 10
935.1382705814
 20
333.1338668122
 30
0.0
 10
935.1965196832
 20
332.5801706133
 30
0.0
 10
935.4089109606
 20
331.8951890271
 30
0.0
 10
935.6231357985
 20
331.4445994956
 30
0.0
 10
935.89142237
 20
331.0565022085
 30
0.0
 10
936.208548205
 20
330.7399797764
 30
0.0
 10
936.5675722375
 20
330.5033171438
 30
0.0
 10
936.8309503058
 20
330.4026951328
 30
0.0
 10
936.9644465512
 20
330.3681436198
 30
0.0
  0
SPLINE
  5
3A2
100
AcDbEntity
  8
0
100
AcDbSpline
 62
7
  6
CONTINUOUS
 70
0
 71
3
 72
14
 73
10
 74
0
 42
0.0000001
 43
0.0000001
 44
0.0000000001
 40
0.0
 40
0.0
 40
0.0
 40
0.0
 40
0.2884916178
 40
0.4233673578
 40
0.5509085361
 40
0.6711735684
 40
0.7849522856
 40
0.8938101914
 40
1.0
 40
1.0
 40
1.0
 40
1.0
 10
946.4519790804
 20
336.4366971424
 30
0.0
 10
946.4519790804
 20
336.0620700554
 30
0.0
 10
946.5102282299
 20
335.5083738753
 30
0.0
 10
946.7226195274
 20
334.8233923141
 30
0.0
 10
946.936844358
 20
334.372802782
 30
0.0
 10
947.2051308883
 20
333.9847054454
 30
0.0
 10
947.5222566803
 20
333.6681829633
 30
0.0
 10
947.8812806407
 20
333.4315200983
 30
0.0
 10
948.1446587827
 20
333.3308983108
 30
0.0
 10
948.2781549818
 20
333.2963465857
 30
0.0
  0
SPLINE
  5
3A3
100
AcDbEntity
  8
0
100
AcDbSpline
 62
7
  6
CONTINUOUS
 70
0
 71
3
 72
16
 73
12
 74
0
 42
0.0000001
 43
0.0000001
 44
0.0000000001
 40
0.0
 40
0.0
 40
0.0
 40
0.0
 40
0.1405516444
 40
0.2832962679
 40
0.4238398997
 40
0.5581045103
 40
0.6829830578
 40
0.7970556641
 40
0.9013249593
 40
0.951061049
 40
1.0
 40
1.0
 40
1.0
 40
1.0
 10
946.4519790804
 20
336.4366971424
 30
0.0
 10
946.4519790804
 20
336.7531455551
 30
0.0
 10
946.5091167741
 20
337.3920770502
 30
0.0
 10
946.7494144663
 20
338.3197128179
 30
0.0
 10
947.1324765388
 20
339.1831673371
 30
0.0
 10
947.6374367253
 20
339.934114786
 30
0.0
 10
948.2380564465
 20
340.5308638487
 30
0.0
 10
948.9036517615
 20
340.9391915975
 30
0.0
 10
949.4965693089
 20
341.1004273012
 30
0.0
 10
949.9554371505
 20
341.1052860029
 30
0.0
 10
950.1759875666
 20
341.0687577988
 30
0.0
 10
950.2826574285
 20
341.0411493143
 30
0.0
  0
SPLINE
  5
3A4
100
AcDbEntity
  8
0
100
AcDbSpline
 62
7
  6
CONTINUOUS
 70
0
 71
3
 72
9
 73
5
 74
0
 42
0.0000001
 43
0.0000001
 44
0.0000000001
 40
0.0
 40
0.0
 40
0.0
 40
0.0
 40
0.3899710985
 40
1.0
 40
1.0
 40
1.0
 40
1.0
 10
454.0182090144
 20
902.3777227912
 30
0.0
 10
454.0182090144
 20
902.3580979094
 30
0.0
 10
454.0492684478
 20
902.3109352395
 30
0.0
 10
454.0944742019
 20
902.2885833378
 30
0.0
 10
454.1223881194
 20
902.2758065882
 30
0.0
  0
SPLINE
  5
3A5
100
AcDbEntity
  8
0
100
AcDbSpline
 62
7
  6
CONTINUOUS
 70
0
 71
3
 72
9
 73
5
 74
0
 42
0.0000001
 43
0.0000001
 44
0.0000000001
 40
0.0
 40
0.0
 40
0.0
 40
0.0
 40
0.46455881
 40
1.0
 40
1.0
 40
1.0
 40
1.0
 10
454.1223881194
 20
902.2758065882
 30
0.0
 10
454.1417848004
 20
902.2669283454
 30
0.0
 10
454.1847161145
 20
902.2503848404
 30
0.0
 10
454.2288238357
 20
902.2374731779
 30
0.0
 10
454.252626366
 20
902.2313126297
 30
0.0
  0
SPLINE
  5
3A6
100
AcDbEntity
  8
0
100
AcDbSpline
 62
7
  6
CONTINUOUS
 70
0
 71
3
 72
9
 73
5
 74
0
 42
0.0000001
 43
0.0000001
 44
0.0000000001
 40
0.0
 40
0.0
 40
0.0
 40
0.0
 40
0.3899710985
 40
1.0
 40
1.0
 40
1.0
 40
1.0
 10
878.8925337856
 20
911.0891274013
 30
0.0
 10
878.8925337856
 20
911.0695025195
 30
0.0
 10
878.8614743523
 20
911.0223398496
 30
0.0
 10
878.8162685982
 20
910.9999879479
 30
0.0
 10
878.7883546807
 20
910.9872111983
 30
0.0
  0
SPLINE
  5
3A7
100
AcDbEntity
  8
0
100
AcDbSpline
 62
7
  6
CONTINUOUS
 70
0
 71
3
 72
9
 73
5
 74
0
 42
0.0000001
 43
0.0000001
 44
0.0000000001
 40
0.0
 40
0.0
 40
0.0
 40
0.0
 40
0.46455881
 40
1.0
 40
1.0
 40
1.0
 40
1.0
 10
878.7883546807
 20
910.9872111983
 30
0.0
 10
878.7689579996
 20
910.9783329555
 30
0.0
 10
878.7260266856
 20
910.9617894504
 30
0.0
 10
878.6819189644
 20
910.948877788
 30
0.0
 10
878.6581164341
 20
910.9427172398
 30
0.0
  0
SPLINE
  5
3A8
100
AcDbEntity
  8
0
100
AcDbSpline
 62
7
  6
CONTINUOUS
 70
0
 71
3
 72
8
 73
4
 74
0
 42
0.0000001
 43
0.0000001
 44
0.0000000001
 40
0.0
 40
0.0
 40
0.0
 40
0.0
 40
1.0
 40
1.0
 40
1.0
 40
1.0
 10
684.6280156765
 20
957.9769816261
 30
0.0
 10
684.8257163587
 20
957.9258129243
 30
0.0
 10
685.011591568
 20
957.8197010922
 30
0.0
 10
685.1692117767
 20
957.6898563173
 30
0.0
  0
SPLINE
  5
3A9
100
AcDbEntity
  8
0
100
AcDbSpline
 62
7
  6
CONTINUOUS
 70
0
 71
3
 72
8
 73
4
 74
0
 42
0.0000001
 43
0.0000001
 44
0.0000000001
 40
0.0
 40
0.0
 40
0.0
 40
0.0
 40
1.0
 40
1.0
 40
1.0
 40
1.0
 10
685.1692117767
 20
957.6898563173
 30
0.0
 10
685.3510309262
 20
957.5400768777
 30
0.0
 10
685.5045467431
 20
957.3529541433
 30
0.0
 10
685.6280156765
 20
957.1523363322
 30
0.0
  0
SPLINE
  5
3AA
100
AcDbEntity
  8
0
100
AcDbSpline
 62
7
  6
CONTINUOUS
 70
0
 71
3
 72
8
 73
4
 74
0
 42
0.0000001
 43
0.0000001
 44
0.0000000001
 40
0.0
 40
0.0
 40
0.0
 40
0.0
 40
1.0
 40
1.0
 40
1.0
 40
1.0
 10
685.6280156765
 20
957.1523363322
 30
0.0
 10
685.6946260918
 20
957.0441047687
 30
0.0
 10
685.7532324079
 20
956.9306162993
 30
0.0
 10
685.8038569856
 20
956.8140479893
 30
0.0
  0
SPLINE
  5
3AB
100
AcDbEntity
  8
0
100
AcDbSpline
 62
7
  6
CONTINUOUS
 70
0
 71
3
 72
8
 73
4
 74
0
 42
0.0000001
 43
0.0000001
 44
0.0000000001
 40
0.0
 40
0.0
 40
0.0
 40
0.0
 40
1.0
 40
1.0
 40
1.0
 40
1.0
 10
685.8038569856
 20
956.8140479893
 30
0.0
 10
685.9578454133
 20
956.4594737573
 30
0.0
 10
686.0422292389
 20
956.0656732206
 30
0.0
 10
686.0422292389
 20
955.6791045697
 30
0.0
  0
SPLINE
  5
3AC
100
AcDbEntity
  8
0
100
AcDbSpline
 62
7
  6
CONTINUOUS
 70
0
 71
3
 72
8
 73
4
 74
0
 42
0.0000001
 43
0.0000001
 44
0.0000000001
 40
0.0
 40
0.0
 40
0.0
 40
0.0
 40
1.0
 40
1.0
 40
1.0
 40
1.0
 10
677.132683796
 20
959.9169162662
 30
0.0
 10
677.0594603856
 20
959.9358678793
 30
0.0
 10
676.9802483562
 20
959.9574153764
 30
0.0
 10
676.9256285599
 20
960.0097365892
 30
0.0
  0
SPLINE
  5
3AD
100
AcDbEntity
  8
0
100
AcDbSpline
 62
7
  6
CONTINUOUS
 70
0
 71
3
 72
9
 73
5
 74
0
 42
0.0000001
 43
0.0000001
 44
0.0000000001
 40
0.0
 40
0.0
 40
0.0
 40
0.0
 40
0.5464674848
 40
1.0
 40
1.0
 40
1.0
 40
1.0
 10
676.9256285599
 20
960.0097365892
 30
0.0
 10
676.9175461657
 20
960.0174788492
 30
0.0
 10
676.9040662355
 20
960.0334490769
 30
0.0
 10
676.8982664444
 20
960.0540375418
 30
0.0
 10
676.8982664444
 20
960.0633264277
 30
0.0
  0
SPLINE
  5
3AE
100
AcDbEntity
  8
0
100
AcDbSpline
 62
7
  6
CONTINUOUS
 70
0
 71
3
 72
9
 73
5
 74
0
 42
0.0000001
 43
0.0000001
 44
0.0000000001
 40
0.0
 40
0.0
 40
0.0
 40
0.0
 40
0.2166594466
 40
1.0
 40
1.0
 40
1.0
 40
1.0
 10
649.0605445829
 20
851.8113132584
 30
0.0
 10
649.1003788945
 20
851.8010033799
 30
0.0
 10
649.2866541869
 20
851.7630162621
 30
0.0
 10
649.4774618716
 20
851.7506415834
 30
0.0
 10
649.6262300078
 20
851.7506415834
 30
0.0
  0
SPLINE
  5
3AF
100
AcDbEntity
  8
0
100
AcDbSpline
 62
7
  6
CONTINUOUS
 70
0
 71
3
 72
9
 73
5
 74
0
 42
0.0000001
 43
0.0000001
 44
0.0000000001
 40
0.0
 40
0.0
 40
0.0
 40
0.0
 40
0.7833405534
 40
1.0
 40
1.0
 40
1.0
 40
1.0
 10
649.6262300078
 20
851.7506415834
 30
0.0
 10
649.774998144
 20
851.7506415834
 30
0.0
 10
649.9658058287
 20
851.7630162621
 30
0.0
 10
650.1520811211
 20
851.8010033799
 30
0.0
 10
650.1919154328
 20
851.8113132584
 30
0.0
  0
SPLINE
  5
3B0
100
AcDbEntity
  8
0
100
AcDbSpline
 62
7
  6
CONTINUOUS
 70
0
 71
3
 72
8
 73
4
 74
0
 42
0.0000001
 43
0.0000001
 44
0.0000000001
 40
0.0
 40
0.0
 40
0.0
 40
0.0
 40
1.0
 40
1.0
 40
1.0
 40
1.0
 10
878.6581164341
 20
911.2355375628
 30
0.0
 10
878.7313398445
 20
911.2165859497
 30
0.0
 10
878.8105518739
 20
911.1950384526
 30
0.0
 10
878.8651716702
 20
911.1427172398
 30
0.0
  0
SPLINE
  5
3B1
100
AcDbEntity
  8
0
100
AcDbSpline
 62
7
  6
CONTINUOUS
 70
0
 71
3
 72
9
 73
5
 74
0
 42
0.0000001
 43
0.0000001
 44
0.0000000001
 40
0.0
 40
0.0
 40
0.0
 40
0.0
 40
0.5464674848
 40
1.0
 40
1.0
 40
1.0
 40
1.0
 10
878.8651716702
 20
911.1427172398
 30
0.0
 10
878.8732540643
 20
911.1349749798
 30
0.0
 10
878.8867339946
 20
911.1190047521
 30
0.0
 10
878.8925337856
 20
911.0984162872
 30
0.0
 10
878.8925337856
 20
911.0891274013
 30
0.0
  0
SPLINE
  5
3B2
100
AcDbEntity
  8
0
100
AcDbSpline
 62
7
  6
CONTINUOUS
 70
0
 71
3
 72
8
 73
4
 74
0
 42
0.0000001
 43
0.0000001
 44
0.0000000001
 40
0.0
 40
0.0
 40
0.0
 40
0.0
 40
1.0
 40
1.0
 40
1.0
 40
1.0
 10
469.8796862302
 20
899.7321216013
 30
0.0
 10
469.8796862302
 20
900.1186902522
 30
0.0
 10
469.7953024046
 20
900.5124907888
 30
0.0
 10
469.6413139769
 20
900.8670650208
 30
0.0
  0
SPLINE
  5
3B3
100
AcDbEntity
  8
0
100
AcDbSpline
 62
7
  6
CONTINUOUS
 70
0
 71
3
 72
8
 73
4
 74
0
 42
0.0000001
 43
0.0000001
 44
0.0000000001
 40
0.0
 40
0.0
 40
0.0
 40
0.0
 40
1.0
 40
1.0
 40
1.0
 40
1.0
 10
469.6413139769
 20
900.8670650208
 30
0.0
 10
469.5906893991
 20
900.9836333308
 30
0.0
 10
469.5320830831
 20
901.0971218002
 30
0.0
 10
469.4654726678
 20
901.2053533638
 30
0.0
  0
SPLINE
  5
3B4
100
AcDbEntity
  8
0
100
AcDbSpline
 62
7
  6
CONTINUOUS
 70
0
 71
3
 72
9
 73
5
 74
0
 42
0.0000001
 43
0.0000001
 44
0.0000000001
 40
0.0
 40
0.0
 40
0.0
 40
0.0
 40
0.2687304421
 40
1.0
 40
1.0
 40
1.0
 40
1.0
 10
469.4654726678
 20
901.2053533638
 30
0.0
 10
469.4176385009
 20
901.2830764444
 30
0.0
 10
469.2247246953
 20
901.5620462584
 30
0.0
 10
468.965376295
 20
901.8011665135
 30
0.0
 10
468.7464844057
 20
901.9184777768
 30
0.0
  0
SPLINE
  5
3B5
100
AcDbEntity
  8
0
100
AcDbSpline
 62
7
  6
CONTINUOUS
 70
0
 71
3
 72
8
 73
4
 74
0
 42
0.0000001
 43
0.0000001
 44
0.0000000001
 40
0.0
 40
0.0
 40
0.0
 40
0.0
 40
1.0
 40
1.0
 40
1.0
 40
1.0
 10
468.7464844057
 20
901.9184777768
 30
0.0
 10
468.6576593374
 20
901.966082012
 30
0.0
 10
468.5630351673
 20
902.0047476247
 30
0.0
 10
468.4654726678
 20
902.0299986577
 30
0.0
  0
SPLINE
  5
3B6
100
AcDbEntity
  8
0
100
AcDbSpline
 62
7
  6
CONTINUOUS
 70
0
 71
3
 72
9
 73
5
 74
0
 42
0.0000001
 43
0.0000001
 44
0.0000000001
 40
0.0
 40
0.0
 40
0.0
 40
0.0
 40
0.2166594466
 40
1.0
 40
1.0
 40
1.0
 40
1.0
 10
460.9701407872
 20
903.9699332977
 30
0.0
 10
460.9303064756
 20
903.9802431762
 30
0.0
 10
460.7440311832
 20
904.0182302941
 30
0.0
 10
460.5532234985
 20
904.0306049728
 30
0.0
 10
460.4044553623
 20
904.0306049728
 30
0.0
  0
SPLINE
  5
3B7
100
AcDbEntity
  8
0
100
AcDbSpline
 62
7
  6
CONTINUOUS
 70
0
 71
3
 72
9
 73
5
 74
0
 42
0.0000001
 43
0.0000001
 44
0.0000000001
 40
0.0
 40
0.0
 40
0.0
 40
0.0
 40
0.7833405534
 40
1.0
 40
1.0
 40
1.0
 40
1.0
 10
460.4044553623
 20
904.0306049728
 30
0.0
 10
460.255687226
 20
904.0306049728
 30
0.0
 10
460.0648795414
 20
904.0182302941
 30
0.0
 10
459.878604249
 20
903.9802431762
 30
0.0
 10
459.8387699373
 20
903.9699332977
 30
0.0
  0
SPLINE
  5
3B8
100
AcDbEntity
  8
0
100
AcDbSpline
 62
7
  6
CONTINUOUS
 70
0
 71
3
 72
8
 73
4
 74
0
 42
0.0000001
 43
0.0000001
 44
0.0000000001
 40
0.0
 40
0.0
 40
0.0
 40
0.0
 40
1.0
 40
1.0
 40
1.0
 40
1.0
 10
454.252626366
 20
902.5241329528
 30
0.0
 10
454.1794029556
 20
902.5051813396
 30
0.0
 10
454.1001909262
 20
902.4836338425
 30
0.0
 10
454.0455711299
 20
902.4313126297
 30
0.0
  0
SPLINE
  5
3B9
100
AcDbEntity
  8
0
100
AcDbSpline
 62
7
  6
CONTINUOUS
 70
0
 71
3
 72
9
 73
5
 74
0
 42
0.0000001
 43
0.0000001
 44
0.0000000001
 40
0.0
 40
0.0
 40
0.0
 40
0.0
 40
0.5464674848
 40
1.0
 40
1.0
 40
1.0
 40
1.0
 10
454.0455711299
 20
902.4313126297
 30
0.0
 10
454.0374887357
 20
902.4235703698
 30
0.0
 10
454.0240088055
 20
902.407600142
 30
0.0
 10
454.0182090144
 20
902.3870116771
 30
0.0
 10
454.0182090144
 20
902.3777227912
 30
0.0
  0
SPLINE
  5
3BA
100
AcDbEntity
  8
0
100
AcDbSpline
 62
7
  6
CONTINUOUS
 70
0
 71
3
 72
9
 73
5
 74
0
 42
0.0000001
 43
0.0000001
 44
0.0000000001
 40
0.0
 40
0.0
 40
0.0
 40
0.0
 40
0.3899710985
 40
1.0
 40
1.0
 40
1.0
 40
1.0
 10
676.8982664444
 20
960.0633264277
 30
0.0
 10
676.8982664444
 20
960.0829513095
 30
0.0
 10
676.9293258778
 20
960.1301139794
 30
0.0
 10
676.9745316319
 20
960.1524658811
 30
0.0
 10
677.0024455494
 20
960.1652426307
 30
0.0
  0
SPLINE
  5
3BB
100
AcDbEntity
  8
0
100
AcDbSpline
 62
7
  6
CONTINUOUS
 70
0
 71
3
 72
9
 73
5
 74
0
 42
0.0000001
 43
0.0000001
 44
0.0000000001
 40
0.0
 40
0.0
 40
0.0
 40
0.0
 40
0.46455881
 40
1.0
 40
1.0
 40
1.0
 40
1.0
 10
677.0024455494
 20
960.1652426307
 30
0.0
 10
677.0218422304
 20
960.1741208735
 30
0.0
 10
677.0647735445
 20
960.1906643786
 30
0.0
 10
677.1088812657
 20
960.203576041
 30
0.0
 10
677.132683796
 20
960.2097365892
 30
0.0
  0
SPLINE
  5
3BC
100
AcDbEntity
  8
0
100
AcDbSpline
 62
7
  6
CONTINUOUS
 70
0
 71
3
 72
9
 73
5
 74
0
 42
0.0000001
 43
0.0000001
 44
0.0000000001
 40
0.0
 40
0.0
 40
0.0
 40
0.0
 40
0.2166594466
 40
1.0
 40
1.0
 40
1.0
 40
1.0
 10
682.7188273673
 20
961.6555369341
 30
0.0
 10
682.758661679
 20
961.6658468126
 30
0.0
 10
682.9449369714
 20
961.7038339305
 30
0.0
 10
683.135744656
 20
961.7162086092
 30
0.0
 10
683.2845127923
 20
961.7162086092
 30
0.0
  0
SPLINE
  5
3BD
100
AcDbEntity
  8
0
100
AcDbSpline
 62
7
  6
CONTINUOUS
 70
0
 71
3
 72
9
 73
5
 74
0
 42
0.0000001
 43
0.0000001
 44
0.0000000001
 40
0.0
 40
0.0
 40
0.0
 40
0.0
 40
0.7833405534
 40
1.0
 40
1.0
 40
1.0
 40
1.0
 10
683.2845127923
 20
961.7162086092
 30
0.0
 10
683.4332809285
 20
961.7162086092
 30
0.0
 10
683.6240886132
 20
961.7038339305
 30
0.0
 10
683.8103639056
 20
961.6658468126
 30
0.0
 10
683.8501982172
 20
961.6555369341
 30
0.0
  0
SPLINE
  5
3BE
100
AcDbEntity
  8
0
100
AcDbSpline
 62
7
  6
CONTINUOUS
 70
0
 71
3
 72
8
 73
4
 74
0
 42
0.0000001
 43
0.0000001
 44
0.0000000001
 40
0.0
 40
0.0
 40
0.0
 40
0.0
 40
1.0
 40
1.0
 40
1.0
 40
1.0
 10
604.0780078758
 20
275.7219519754
 30
0.0
 10
604.0481511093
 20
275.729131122
 30
0.0
 10
604.0178003997
 20
275.7343373607
 30
0.0
 10
603.9873563871
 20
275.7383534226
 30
0.0
  0
SPLINE
  5
3BF
100
AcDbEntity
  8
0
100
AcDbSpline
 62
7
  6
CONTINUOUS
 70
0
 71
3
 72
9
 73
5
 74
0
 42
0.0000001
 43
0.0000001
 44
0.0000000001
 40
0.0
 40
0.0
 40
0.0
 40
0.0
 40
0.5459109752
 40
1.0
 40
1.0
 40
1.0
 40
1.0
 10
603.9873563871
 20
275.7383534226
 30
0.0
 10
603.8937411042
 20
275.7507028057
 30
0.0
 10
603.7206381718
 20
275.7530258074
 30
0.0
 10
603.5456699708
 20
275.7319095481
 30
0.0
 10
603.4724882031
 20
275.7033864712
 30
0.0
  0
SPLINE
  5
3C0
100
AcDbEntity
  8
0
100
AcDbSpline
 62
7
  6
CONTINUOUS
 70
0
 71
3
 72
9
 73
5
 74
0
 42
0.0000001
 43
0.0000001
 44
0.0000000001
 40
0.0
 40
0.0
 40
0.0
 40
0.0
 40
0.2527372128
 40
1.0
 40
1.0
 40
1.0
 40
1.0
 10
603.5230984297
 20
274.5074097977
 30
0.0
 10
603.4998386608
 20
274.4321194609
 30
0.0
 10
603.4187999275
 20
274.1309730605
 30
0.0
 10
603.3814465182
 20
273.8177652694
 30
0.0
 10
603.3814465182
 20
273.5847750001
 30
0.0
  0
SPLINE
  5
3C1
100
AcDbEntity
  8
0
100
AcDbSpline
 62
7
  6
CONTINUOUS
 70
0
 71
3
 72
9
 73
5
 74
0
 42
0.0000001
 43
0.0000001
 44
0.0000000001
 40
0.0
 40
0.0
 40
0.0
 40
0.0
 40
0.2825484429
 40
1.0
 40
1.0
 40
1.0
 40
1.0
 10
603.6002812628
 20
274.7307796027
 30
0.0
 10
603.5839571078
 20
274.7905123216
 30
0.0
 10
603.5389127908
 20
275.0048993986
 30
0.0
 10
603.537116425
 20
275.2304442112
 30
0.0
 10
603.5700547296
 20
275.3841917463
 30
0.0
  0
SPLINE
  5
3C2
100
AcDbEntity
  8
0
100
AcDbSpline
 62
7
  6
CONTINUOUS
 70
0
 71
3
 72
8
 73
4
 74
0
 42
0.0000001
 43
0.0000001
 44
0.0000000001
 40
0.0
 40
0.0
 40
0.0
 40
0.0
 40
1.0
 40
1.0
 40
1.0
 40
1.0
 10
603.5700543486
 20
275.3841924874
 30
0.0
 10
603.564832547
 20
275.4064473097
 30
0.0
 10
603.5585004134
 20
275.4284931008
 30
0.0
 10
603.5507308877
 20
275.4499914448
 30
0.0
  0
SPLINE
  5
3C3
100
AcDbEntity
  8
0
100
AcDbSpline
 62
7
  6
CONTINUOUS
 70
0
 71
3
 72
9
 73
5
 74
0
 42
0.0000001
 43
0.0000001
 44
0.0000000001
 40
0.0
 40
0.0
 40
0.0
 40
0.0
 40
0.5811621681
 40
1.0
 40
1.0
 40
1.0
 40
1.0
 10
603.3814465182
 20
228.8790485844
 30
0.0
 10
603.3814465182
 20
228.8277563213
 30
0.0
 10
603.3883575792
 20
228.7396799363
 30
0.0
 10
603.4236645278
 20
228.6539761692
 30
0.0
 10
603.4492361715
 20
228.6272822857
 30
0.0
  0
SPLINE
  5
3C4
100
AcDbEntity
  8
0
100
AcDbSpline
 62
7
  6
CONTINUOUS
 70
0
 71
3
 72
9
 73
5
 74
0
 42
0.0000001
 43
0.0000001
 44
0.0000000001
 40
0.0
 40
0.0
 40
0.0
 40
0.0
 40
0.5127347771
 40
1.0
 40
1.0
 40
1.0
 40
1.0
 10
603.6952283838
 20
228.4296669131
 30
0.0
 10
603.6934230506
 20
228.4282589672
 30
0.0
 10
603.6896545238
 20
228.4258062056
 30
0.0
 10
603.6854460712
 20
228.4241962616
 30
0.0
 10
603.6833397551
 20
228.4236511287
 30
0.0
  0
SPLINE
  5
3C5
100
AcDbEntity
  8
0
100
AcDbSpline
 62
7
  6
CONTINUOUS
 70
0
 71
3
 72
9
 73
5
 74
0
 42
0.0000001
 43
0.0000001
 44
0.0000000001
 40
0.0
 40
0.0
 40
0.0
 40
0.0
 40
0.212375464
 40
1.0
 40
1.0
 40
1.0
 40
1.0
 10
603.8415037851
 20
275.3102999559
 30
0.0
 10
603.817076124
 20
275.274120907
 30
0.0
 10
603.7148658195
 20
275.0949419921
 30
0.0
 10
603.6555281335
 20
274.896209476
 30
0.0
 10
603.6048215985
 20
274.7424597223
 30
0.0
  0
LINE
  5
3C6
100
AcDbEntity
  8
0
100
AcDbLine
 62
7
  6
CONTINUOUS
 10
603.6048215985
 20
274.7424597223
 11
603.6010019699
 21
274.7308905387
  0
SPLINE
  5
3C7
100
AcDbEntity
  8
0
100
AcDbSpline
 62
7
  6
CONTINUOUS
 70
0
 71
3
 72
8
 73
4
 74
0
 42
0.0000001
 43
0.0000001
 44
0.0000000001
 40
0.0
 40
0.0
 40
0.0
 40
0.0
 40
1.0
 40
1.0
 40
1.0
 40
1.0
 10
603.6010019699
 20
274.7308905387
 30
0.0
 10
603.5846765698
 20
274.681500853
 30
0.0
 10
603.5680850368
 20
274.6321931466
 30
0.0
 10
603.5507080288
 20
274.5831635705
 30
0.0
  0
SPLINE
  5
3C8
100
AcDbEntity
  8
0
100
AcDbSpline
 62
7
  6
CONTINUOUS
 70
0
 71
3
 72
9
 73
5
 74
0
 42
0.0000001
 43
0.0000001
 44
0.0000000001
 40
0.0
 40
0.0
 40
0.0
 40
0.0
 40
0.1705639177
 40
1.0
 40
1.0
 40
1.0
 40
1.0
 10
676.2981893621
 20
960.0633264277
 30
0.0
 10
676.2981893621
 20
960.0819679199
 30
0.0
 10
676.3367124896
 20
960.190326368
 30
0.0
 10
676.4560217132
 20
960.2344211541
 30
0.0
 10
676.5406829613
 20
960.2668282831
 30
0.0
  0
SPLINE
  5
3C9
100
AcDbEntity
  8
0
100
AcDbSpline
 62
7
  6
CONTINUOUS
 70
0
 71
3
 72
8
 73
4
 74
0
 42
0.0000001
 43
0.0000001
 44
0.0000000001
 40
0.0
 40
0.0
 40
0.0
 40
0.0
 40
1.0
 40
1.0
 40
1.0
 40
1.0
 10
676.5406829613
 20
960.2668282831
 30
0.0
 10
676.5954184166
 20
960.2877802416
 30
0.0
 10
676.6516808317
 20
960.3048591036
 30
0.0
 10
676.7084197272
 20
960.3195442103
 30
0.0
  0
SPLINE
  5
3CA
100
AcDbEntity
  8
0
100
AcDbSpline
 62
7
  6
CONTINUOUS
 70
0
 71
3
 72
9
 73
5
 74
0
 42
0.0000001
 43
0.0000001
 44
0.0000000001
 40
0.0
 40
0.0
 40
0.0
 40
0.0
 40
0.6573954087
 40
1.0
 40
1.0
 40
1.0
 40
1.0
 10
453.4181319321
 20
419.4148096467
 30
0.0
 10
453.4181319321
 20
419.3577330884
 30
0.0
 10
453.4991174432
 20
419.2862305617
 30
0.0
 10
453.5733983073
 20
419.2488362626
 30
0.0
 10
453.6004453658
 20
419.2364562914
 30
0.0
  0
SPLINE
  5
3CB
100
AcDbEntity
  8
0
100
AcDbSpline
 62
7
  6
CONTINUOUS
 70
0
 71
3
 72
8
 73
4
 74
0
 42
0.0000001
 43
0.0000001
 44
0.0000000001
 40
0.0
 40
0.0
 40
0.0
 40
0.0
 40
1.0
 40
1.0
 40
1.0
 40
1.0
 10
453.6004453658
 20
419.2364562914
 30
0.0
 10
453.6734452503
 20
419.2030428071
 30
0.0
 10
453.7506397908
 20
419.178707929
 30
0.0
 10
453.8283622972
 20
419.1585918641
 30
0.0
  0
SPLINE
  5
3CC
100
AcDbEntity
  8
0
100
AcDbSpline
 62
7
  6
CONTINUOUS
 70
0
 71
3
 72
8
 73
4
 74
0
 42
0.0000001
 43
0.0000001
 44
0.0000000001
 40
0.0
 40
0.0
 40
0.0
 40
0.0
 40
1.0
 40
1.0
 40
1.0
 40
1.0
 10
468.8897367365
 20
902.1398062788
 30
0.0
 10
469.0874374186
 20
902.088637577
 30
0.0
 10
469.273312628
 20
901.9825257449
 30
0.0
 10
469.4309328367
 20
901.85268097
 30
0.0
  0
SPLINE
  5
3CD
100
AcDbEntity
  8
0
100
AcDbSpline
 62
7
  6
CONTINUOUS
 70
0
 71
3
 72
8
 73
4
 74
0
 42
0.0000001
 43
0.0000001
 44
0.0000000001
 40
0.0
 40
0.0
 40
0.0
 40
0.0
 40
1.0
 40
1.0
 40
1.0
 40
1.0
 10
469.4309328367
 20
901.85268097
 30
0.0
 10
469.6127519862
 20
901.7029015304
 30
0.0
 10
469.7662678031
 20
901.515778796
 30
0.0
 10
469.8897367365
 20
901.3151609849
 30
0.0
  0
SPLINE
  5
3CE
100
AcDbEntity
  8
0
100
AcDbSpline
 62
7
  6
CONTINUOUS
 70
0
 71
3
 72
8
 73
4
 74
0
 42
0.0000001
 43
0.0000001
 44
0.0000000001
 40
0.0
 40
0.0
 40
0.0
 40
0.0
 40
1.0
 40
1.0
 40
1.0
 40
1.0
 10
469.8897367365
 20
901.3151609849
 30
0.0
 10
469.9563471518
 20
901.2069294214
 30
0.0
 10
470.0149534678
 20
901.093440952
 30
0.0
 10
470.0655780456
 20
900.9768726419
 30
0.0
  0
SPLINE
  5
3CF
100
AcDbEntity
  8
0
100
AcDbSpline
 62
7
  6
CONTINUOUS
 70
0
 71
3
 72
8
 73
4
 74
0
 42
0.0000001
 43
0.0000001
 44
0.0000000001
 40
0.0
 40
0.0
 40
0.0
 40
0.0
 40
1.0
 40
1.0
 40
1.0
 40
1.0
 10
470.0655780456
 20
900.9768726419
 30
0.0
 10
470.2195664733
 20
900.62229841
 30
0.0
 10
470.3039502989
 20
900.2284978733
 30
0.0
 10
470.3039502989
 20
899.8419292224
 30
0.0
  0
SPLINE
  5
3D0
100
AcDbEntity
  8
0
100
AcDbSpline
 62
7
  6
CONTINUOUS
 70
0
 71
3
 72
9
 73
5
 74
0
 42
0.0000001
 43
0.0000001
 44
0.0000000001
 40
0.0
 40
0.0
 40
0.0
 40
0.0
 40
0.6573954087
 40
1.0
 40
1.0
 40
1.0
 40
1.0
 10
879.492610868
 20
428.1262142568
 30
0.0
 10
879.492610868
 20
428.0691376985
 30
0.0
 10
879.4116253569
 20
427.9976351717
 30
0.0
 10
879.3373444928
 20
427.9602408726
 30
0.0
 10
879.3102974343
 20
427.9478609015
 30
0.0
  0
SPLINE
  5
3D1
100
AcDbEntity
  8
0
100
AcDbSpline
 62
7
  6
CONTINUOUS
 70
0
 71
3
 72
8
 73
4
 74
0
 42
0.0000001
 43
0.0000001
 44
0.0000000001
 40
0.0
 40
0.0
 40
0.0
 40
0.0
 40
1.0
 40
1.0
 40
1.0
 40
1.0
 10
879.3102974343
 20
427.9478609015
 30
0.0
 10
879.2372975498
 20
427.9144474171
 30
0.0
 10
879.1601030093
 20
427.890112539
 30
0.0
 10
879.0823805028
 20
427.8699964741
 30
0.0
  0
SPLINE
  5
3D2
100
AcDbEntity
  8
0
100
AcDbSpline
 62
7
  6
CONTINUOUS
 70
0
 71
3
 72
9
 73
5
 74
0
 42
0.0000001
 43
0.0000001
 44
0.0000000001
 40
0.0
 40
0.0
 40
0.0
 40
0.0
 40
0.3130942511
 40
1.0
 40
1.0
 40
1.0
 40
1.0
 10
879.0823805028
 20
911.345345184
 30
0.0
 10
879.1226642595
 20
911.3349189805
 30
0.0
 10
879.2489214234
 20
911.2970371573
 30
0.0
 10
879.3788018612
 20
911.2460605663
 30
0.0
 10
879.444727166
 20
911.1829096187
 30
0.0
  0
SPLINE
  5
3D3
100
AcDbEntity
  8
0
100
AcDbSpline
 62
7
  6
CONTINUOUS
 70
0
 71
3
 72
9
 73
5
 74
0
 42
0.0000001
 43
0.0000001
 44
0.0000000001
 40
0.0
 40
0.0
 40
0.0
 40
0.0
 40
0.5464674848
 40
1.0
 40
1.0
 40
1.0
 40
1.0
 10
879.444727166
 20
911.1829096187
 30
0.0
 10
879.4588713557
 20
911.1693606637
 30
0.0
 10
879.4824612337
 20
911.1414127651
 30
0.0
 10
879.492610868
 20
911.1053829516
 30
0.0
 10
879.492610868
 20
911.0891274013
 30
0.0
  0
SPLINE
  5
3D4
100
AcDbEntity
  8
0
100
AcDbSpline
 62
7
  6
CONTINUOUS
 70
0
 71
3
 72
8
 73
4
 74
0
 42
0.0000001
 43
0.0000001
 44
0.0000000001
 40
0.0
 40
0.0
 40
0.0
 40
0.0
 40
1.0
 40
1.0
 40
1.0
 40
1.0
 10
648.6362805141
 20
368.7385924928
 30
0.0
 10
648.7352119027
 20
368.7129871652
 30
0.0
 10
648.8360114166
 20
368.6944013098
 30
0.0
 10
648.9371255594
 20
368.6796032502
 30
0.0
  0
SPLINE
  5
3D5
100
AcDbEntity
  8
0
100
AcDbSpline
 62
7
  6
CONTINUOUS
 70
0
 71
3
 72
9
 73
5
 74
0
 42
0.0000001
 43
0.0000001
 44
0.0000000001
 40
0.0
 40
0.0
 40
0.0
 40
0.0
 40
0.7798446505
 40
1.0
 40
1.0
 40
1.0
 40
1.0
 10
649.0106604064
 20
368.6695575922
 30
0.0
 10
649.4262610092
 20
368.6167098573
 30
0.0
 10
649.9714733753
 20
368.616993282
 30
0.0
 10
650.5016807377
 20
368.7089580321
 30
0.0
 10
650.6161795015
 20
368.7385924928
 30
0.0
  0
SPLINE
  5
3D6
100
AcDbEntity
  8
0
100
AcDbSpline
 62
7
  6
CONTINUOUS
 70
0
 71
3
 72
9
 73
5
 74
0
 42
0.0000001
 43
0.0000001
 44
0.0000000001
 40
0.0
 40
0.0
 40
0.0
 40
0.0
 40
0.3130942511
 40
1.0
 40
1.0
 40
1.0
 40
1.0
 10
453.8283622972
 20
902.6339405739
 30
0.0
 10
453.7880785406
 20
902.6235143705
 30
0.0
 10
453.6618213766
 20
902.5856325472
 30
0.0
 10
453.5319409389
 20
902.5346559563
 30
0.0
 10
453.4660156341
 20
902.4715050086
 30
0.0
  0
SPLINE
  5
3D7
100
AcDbEntity
  8
0
100
AcDbSpline
 62
7
  6
CONTINUOUS
 70
0
 71
3
 72
9
 73
5
 74
0
 42
0.0000001
 43
0.0000001
 44
0.0000000001
 40
0.0
 40
0.0
 40
0.0
 40
0.0
 40
0.5464674848
 40
1.0
 40
1.0
 40
1.0
 40
1.0
 10
453.4660156341
 20
902.4715050086
 30
0.0
 10
453.4518714444
 20
902.4579560537
 30
0.0
 10
453.4282815664
 20
902.430008155
 30
0.0
 10
453.4181319321
 20
902.3939783415
 30
0.0
 10
453.4181319321
 20
902.3777227912
 30
0.0
  0
SPLINE
  5
3D8
100
AcDbEntity
  8
0
100
AcDbSpline
 62
7
  6
CONTINUOUS
 70
0
 71
3
 72
9
 73
5
 74
0
 42
0.0000001
 43
0.0000001
 44
0.0000000001
 40
0.0
 40
0.0
 40
0.0
 40
0.0
 40
0.2170422625
 40
1.0
 40
1.0
 40
1.0
 40
1.0
 10
461.3944048559
 20
904.0797409188
 30
0.0
 10
461.2992534008
 20
904.1043679276
 30
0.0
 10
460.8533944781
 20
904.1874089293
 30
0.0
 10
460.3958043821
 20
904.1982571441
 30
0.0
 10
460.0421086991
 20
904.1735231362
 30
0.0
  0
SPLINE
  5
3D9
100
AcDbEntity
  8
0
100
AcDbSpline
 62
7
  6
CONTINUOUS
 70
0
 71
3
 72
8
 73
4
 74
0
 42
0.0000001
 43
0.0000001
 44
0.0000000001
 40
0.0
 40
0.0
 40
0.0
 40
0.0
 40
1.0
 40
1.0
 40
1.0
 40
1.0
 10
460.0421086991
 20
904.1735231362
 30
0.0
 10
459.9328405692
 20
904.1658819946
 30
0.0
 10
459.8237313758
 20
904.1545916472
 30
0.0
 10
459.7153509138
 20
904.1387301614
 30
0.0
  0
SPLINE
  5
3DA
100
AcDbEntity
  8
0
100
AcDbSpline
 62
7
  6
CONTINUOUS
 70
0
 71
3
 72
8
 73
4
 74
0
 42
0.0000001
 43
0.0000001
 44
0.0000000001
 40
0.0
 40
0.0
 40
0.0
 40
0.0
 40
1.0
 40
1.0
 40
1.0
 40
1.0
 10
459.7153509138
 20
904.1387301614
 30
0.0
 10
459.614236771
 20
904.1239321018
 30
0.0
 10
459.5134372572
 20
904.1053462464
 30
0.0
 10
459.4145058686
 20
904.0797409188
 30
0.0
  0
SPLINE
  5
3DB
100
AcDbEntity
  8
0
100
AcDbSpline
 62
7
  6
CONTINUOUS
 70
0
 71
3
 72
9
 73
5
 74
0
 42
0.0000001
 43
0.0000001
 44
0.0000000001
 40
0.0
 40
0.0
 40
0.0
 40
0.0
 40
0.2170422625
 40
1.0
 40
1.0
 40
1.0
 40
1.0
 10
682.2945632986
 20
961.7653445553
 30
0.0
 10
682.3897147538
 20
961.789971564
 30
0.0
 10
682.8355736765
 20
961.8730125657
 30
0.0
 10
683.2931637724
 20
961.8838607805
 30
0.0
 10
683.6468594554
 20
961.8591267726
 30
0.0
  0
SPLINE
  5
3DC
100
AcDbEntity
  8
0
100
AcDbSpline
 62
7
  6
CONTINUOUS
 70
0
 71
3
 72
8
 73
4
 74
0
 42
0.0000001
 43
0.0000001
 44
0.0000000001
 40
0.0
 40
0.0
 40
0.0
 40
0.0
 40
1.0
 40
1.0
 40
1.0
 40
1.0
 10
683.6468594554
 20
961.8591267726
 30
0.0
 10
683.7561275853
 20
961.8514856311
 30
0.0
 10
683.8652367788
 20
961.8401952836
 30
0.0
 10
683.9736172407
 20
961.8243337978
 30
0.0
  0
SPLINE
  5
3DD
100
AcDbEntity
  8
0
100
AcDbSpline
 62
7
  6
CONTINUOUS
 70
0
 71
3
 72
8
 73
4
 74
0
 42
0.0000001
 43
0.0000001
 44
0.0000000001
 40
0.0
 40
0.0
 40
0.0
 40
0.0
 40
1.0
 40
1.0
 40
1.0
 40
1.0
 10
683.9736172407
 20
961.8243337978
 30
0.0
 10
684.0747313835
 20
961.8095357382
 30
0.0
 10
684.1755308974
 20
961.7909498828
 30
0.0
 10
684.2744622859
 20
961.7653445553
 30
0.0
  0
SPLINE
  5
3DE
100
AcDbEntity
  8
0
100
AcDbSpline
 62
7
  6
CONTINUOUS
 70
0
 71
3
 72
9
 73
5
 74
0
 42
0.0000001
 43
0.0000001
 44
0.0000000001
 40
0.0
 40
0.0
 40
0.0
 40
0.0
 40
0.1705639177
 40
1.0
 40
1.0
 40
1.0
 40
1.0
 10
453.4181319321
 20
902.3777227912
 30
0.0
 10
453.4181319321
 20
902.3590812991
 30
0.0
 10
453.4566550596
 20
902.250722851
 30
0.0
 10
453.5759642832
 20
902.2066280648
 30
0.0
 10
453.6606255313
 20
902.1742209358
 30
0.0
  0
SPLINE
  5
3DF
100
AcDbEntity
  8
0
100
AcDbSpline
 62
7
  6
CONTINUOUS
 70
0
 71
3
 72
8
 73
4
 74
0
 42
0.0000001
 43
0.0000001
 44
0.0000000001
 40
0.0
 40
0.0
 40
0.0
 40
0.0
 40
1.0
 40
1.0
 40
1.0
 40
1.0
 10
453.6606255313
 20
902.1742209358
 30
0.0
 10
453.7153609866
 20
902.1532689774
 30
0.0
 10
453.7716234017
 20
902.1361901154
 30
0.0
 10
453.8283622972
 20
902.1215050086
 30
0.0
  0
SPLINE
  5
3E0
100
AcDbEntity
  8
0
100
AcDbSpline
 62
7
  6
CONTINUOUS
 70
0
 71
3
 72
9
 73
5
 74
0
 42
0.0000001
 43
0.0000001
 44
0.0000000001
 40
0.0
 40
0.0
 40
0.0
 40
0.0
 40
0.1705639177
 40
1.0
 40
1.0
 40
1.0
 40
1.0
 10
879.492610868
 20
911.0891274013
 30
0.0
 10
879.492610868
 20
911.0704859091
 30
0.0
 10
879.4540877404
 20
910.962127461
 30
0.0
 10
879.3347785168
 20
910.9180326749
 30
0.0
 10
879.2501172687
 20
910.8856255459
 30
0.0
  0
SPLINE
  5
3E1
100
AcDbEntity
  8
0
100
AcDbSpline
 62
7
  6
CONTINUOUS
 70
0
 71
3
 72
8
 73
4
 74
0
 42
0.0000001
 43
0.0000001
 44
0.0000000001
 40
0.0
 40
0.0
 40
0.0
 40
0.0
 40
1.0
 40
1.0
 40
1.0
 40
1.0
 10
879.2501172687
 20
910.8856255459
 30
0.0
 10
879.1953818135
 20
910.8646735874
 30
0.0
 10
879.1391193984
 20
910.8475947254
 30
0.0
 10
879.0823805028
 20
910.8329096187
 30
0.0
  0
SPLINE
  5
3E2
100
AcDbEntity
  8
0
100
AcDbSpline
 62
7
  6
CONTINUOUS
 70
0
 71
3
 72
9
 73
5
 74
0
 42
0.0000001
 43
0.0000001
 44
0.0000000001
 40
0.0
 40
0.0
 40
0.0
 40
0.0
 40
0.2170422625
 40
1.0
 40
1.0
 40
1.0
 40
1.0
 10
648.6362805141
 20
851.7015056373
 30
0.0
 10
648.7314319693
 20
851.6768786285
 30
0.0
 10
649.177290892
 20
851.5938376268
 30
0.0
 10
649.634880988
 20
851.5829894121
 30
0.0
 10
649.9885766709
 20
851.6077234199
 30
0.0
  0
SPLINE
  5
3E3
100
AcDbEntity
  8
0
100
AcDbSpline
 62
7
  6
CONTINUOUS
 70
0
 71
3
 72
8
 73
4
 74
0
 42
0.0000001
 43
0.0000001
 44
0.0000000001
 40
0.0
 40
0.0
 40
0.0
 40
0.0
 40
1.0
 40
1.0
 40
1.0
 40
1.0
 10
649.9885766709
 20
851.6077234199
 30
0.0
 10
650.0978448009
 20
851.6153645615
 30
0.0
 10
650.2069539943
 20
851.6266549089
 30
0.0
 10
650.3153344562
 20
851.6425163947
 30
0.0
  0
SPLINE
  5
3E4
100
AcDbEntity
  8
0
100
AcDbSpline
 62
7
  6
CONTINUOUS
 70
0
 71
3
 72
8
 73
4
 74
0
 42
0.0000001
 43
0.0000001
 44
0.0000000001
 40
0.0
 40
0.0
 40
0.0
 40
0.0
 40
1.0
 40
1.0
 40
1.0
 40
1.0
 10
650.3153344562
 20
851.6425163947
 30
0.0
 10
650.416448599
 20
851.6573144544
 30
0.0
 10
650.5172481129
 20
851.6759003098
 30
0.0
 10
650.6161795015
 20
851.7015056373
 30
0.0
  0
SPLINE
  5
3E5
100
AcDbEntity
  8
0
100
AcDbSpline
 62
7
  6
CONTINUOUS
 70
0
 71
3
 72
9
 73
5
 74
0
 42
0.0000001
 43
0.0000001
 44
0.0000000001
 40
0.0
 40
0.0
 40
0.0
 40
0.0
 40
0.3130942511
 40
1.0
 40
1.0
 40
1.0
 40
1.0
 10
676.7084197272
 20
959.807108645
 30
0.0
 10
676.6681359706
 20
959.8175348485
 30
0.0
 10
676.5418788066
 20
959.8554166717
 30
0.0
 10
676.4119983689
 20
959.9063932627
 30
0.0
 10
676.3460730641
 20
959.9695442103
 30
0.0
  0
SPLINE
  5
3E6
100
AcDbEntity
  8
0
100
AcDbSpline
 62
7
  6
CONTINUOUS
 70
0
 71
3
 72
9
 73
5
 74
0
 42
0.0000001
 43
0.0000001
 44
0.0000000001
 40
0.0
 40
0.0
 40
0.0
 40
0.0
 40
0.5464674848
 40
1.0
 40
1.0
 40
1.0
 40
1.0
 10
676.3460730641
 20
959.9695442103
 30
0.0
 10
676.3319288744
 20
959.9830931653
 30
0.0
 10
676.3083389964
 20
960.0110410639
 30
0.0
 10
676.2981893621
 20
960.0470708774
 30
0.0
 10
676.2981893621
 20
960.0633264277
 30
0.0
  0
SPLINE
  5
3E7
100
AcDbEntity
  8
0
100
AcDbSpline
 62
7
  6
CONTINUOUS
 70
0
 71
3
 72
8
 73
4
 74
0
 42
0.0000001
 43
0.0000001
 44
0.0000000001
 40
0.0
 40
0.0
 40
0.0
 40
0.0
 40
1.0
 40
1.0
 40
1.0
 40
1.0
 10
685.6179651702
 20
955.5692969486
 30
0.0
 10
685.6179651702
 20
955.9558655995
 30
0.0
 10
685.5335813446
 20
956.3496661362
 30
0.0
 10
685.3795929169
 20
956.7042403681
 30
0.0
  0
SPLINE
  5
3E8
100
AcDbEntity
  8
0
100
AcDbSpline
 62
7
  6
CONTINUOUS
 70
0
 71
3
 72
8
 73
4
 74
0
 42
0.0000001
 43
0.0000001
 44
0.0000000001
 40
0.0
 40
0.0
 40
0.0
 40
0.0
 40
1.0
 40
1.0
 40
1.0
 40
1.0
 10
685.3795929169
 20
956.7042403681
 30
0.0
 10
685.3289683391
 20
956.8208086781
 30
0.0
 10
685.2703620231
 20
956.9342971475
 30
0.0
 10
685.2037516078
 20
957.0425287111
 30
0.0
  0
SPLINE
  5
3E9
100
AcDbEntity
  8
0
100
AcDbSpline
 62
7
  6
CONTINUOUS
 70
0
 71
3
 72
9
 73
5
 74
0
 42
0.0000001
 43
0.0000001
 44
0.0000000001
 40
0.0
 40
0.0
 40
0.0
 40
0.0
 40
0.2687304421
 40
1.0
 40
1.0
 40
1.0
 40
1.0
 10
685.2037516078
 20
957.0425287111
 30
0.0
 10
685.1559174409
 20
957.1202517917
 30
0.0
 10
684.9630036353
 20
957.3992216058
 30
0.0
 10
684.703655235
 20
957.6383418608
 30
0.0
 10
684.4847633457
 20
957.7556531241
 30
0.0
  0
SPLINE
  5
3EA
100
AcDbEntity
  8
0
100
AcDbSpline
 62
7
  6
CONTINUOUS
 70
0
 71
3
 72
8
 73
4
 74
0
 42
0.0000001
 43
0.0000001
 44
0.0000000001
 40
0.0
 40
0.0
 40
0.0
 40
0.0
 40
1.0
 40
1.0
 40
1.0
 40
1.0
 10
684.4847633457
 20
957.7556531241
 30
0.0
 10
684.3959382774
 20
957.8032573593
 30
0.0
 10
684.3013141073
 20
957.841922972
 30
0.0
 10
684.2037516078
 20
957.867174005
 30
0.0
  0
SPLINE
  5
3EB
100
AcDbEntity
  8
0
100
AcDbSpline
 62
7
  6
CONTINUOUS
 70
0
 71
3
 72
9
 73
5
 74
0
 42
0.0000001
 43
0.0000001
 44
0.0000000001
 40
0.0
 40
0.0
 40
0.0
 40
0.0
 40
0.6505009548
 40
1.0
 40
1.0
 40
1.0
 40
1.0
 10
880.779693414
 20
428.6568846699
 30
0.0
 10
880.7946976207
 20
428.6607680444
 30
0.0
 10
880.8165006573
 20
428.6664638321
 30
0.0
 10
880.8382720578
 20
428.685160169
 30
0.0
 10
880.8382720578
 20
428.6934872103
 30
0.0
  0
SPLINE
  5
3EC
100
AcDbEntity
  8
0
100
AcDbSpline
 62
7
  6
CONTINUOUS
 70
0
 71
3
 72
9
 73
5
 74
0
 42
0.0000001
 43
0.0000001
 44
0.0000000001
 40
0.0
 40
0.0
 40
0.0
 40
0.0
 40
0.5
 40
1.0
 40
1.0
 40
1.0
 40
1.0
 10
647.2930342662
 20
368.2992955859
 30
0.0
 10
647.3389324608
 20
368.287416259
 30
0.0
 10
647.4344556224
 20
368.2808523755
 30
0.0
 10
647.5299787841
 20
368.287416259
 30
0.0
 10
647.5758769787
 20
368.2992955859
 30
0.0
  0
SPLINE
  5
3ED
100
AcDbEntity
  8
0
100
AcDbSpline
 62
7
  6
CONTINUOUS
 70
0
 71
3
 72
9
 73
5
 74
0
 42
0.0000001
 43
0.0000001
 44
0.0000000001
 40
0.0
 40
0.0
 40
0.0
 40
0.0
 40
0.2616088822
 40
1.0
 40
1.0
 40
1.0
 40
1.0
 10
1238.50475738
 20
437.7471685974
 30
0.0
 10
1238.50475738
 20
437.8224635891
 30
0.0
 10
1238.4936070709
 20
438.1100067907
 30
0.0
 10
1238.4364555893
 20
438.3970182861
 30
0.0
 10
1238.3631054685
 20
438.5964789701
 30
0.0
  0
SPLINE
  5
3EE
100
AcDbEntity
  8
0
100
AcDbSpline
 62
7
  6
CONTINUOUS
 70
0
 71
3
 72
10
 73
6
 74
0
 42
0.0000001
 43
0.0000001
 44
0.0000000001
 40
0.0
 40
0.0
 40
0.0
 40
0.0
 40
0.281327003
 40
0.5437044228
 40
1.0
 40
1.0
 40
1.0
 40
1.0
 10
895.5933238435
 20
326.1190055015
 30
0.0
 10
895.5933238435
 20
325.8139718524
 30
0.0
 10
895.643299186
 20
325.2217357409
 30
0.0
 10
895.9328317742
 20
324.176138561
 30
0.0
 10
896.3971663738
 20
323.4897195103
 30
0.0
 10
896.7946810213
 20
323.1951757176
 30
0.0
  0
SPLINE
  5
3EF
100
AcDbEntity
  8
0
100
AcDbSpline
 62
7
  6
CONTINUOUS
 70
0
 71
3
 72
9
 73
5
 74
0
 42
0.0000001
 43
0.0000001
 44
0.0000000001
 40
0.0
 40
0.0
 40
0.0
 40
0.0
 40
0.2539090075
 40
1.0
 40
1.0
 40
1.0
 40
1.0
 10
896.7946810213
 20
323.1951757176
 30
0.0
 10
896.8318492927
 20
323.1676353899
 30
0.0
 10
896.981621906
 20
323.0638406361
 30
0.0
 10
897.1451544252
 20
322.9797298179
 30
0.0
 10
897.2718766147
 20
322.9305518984
 30
0.0
  0
SPLINE
  5
3F0
100
AcDbEntity
  8
0
100
AcDbSpline
 62
7
  6
CONTINUOUS
 70
0
 71
3
 72
10
 73
6
 74
0
 42
0.0000001
 43
0.0000001
 44
0.0000000001
 40
0.0
 40
0.0
 40
0.0
 40
0.0
 40
0.281327003
 40
0.5437044228
 40
1.0
 40
1.0
 40
1.0
 40
1.0
 10
906.9070323425
 20
329.0472087318
 30
0.0
 10
906.9070323425
 20
328.7421750826
 30
0.0
 10
906.957007685
 20
328.1499389712
 30
0.0
 10
907.2465402732
 20
327.1043417913
 30
0.0
 10
907.7108748728
 20
326.4179227406
 30
0.0
 10
908.1083895203
 20
326.1233789478
 30
0.0
  0
SPLINE
  5
3F1
100
AcDbEntity
  8
0
100
AcDbSpline
 62
7
  6
CONTINUOUS
 70
0
 71
3
 72
9
 73
5
 74
0
 42
0.0000001
 43
0.0000001
 44
0.0000000001
 40
0.0
 40
0.0
 40
0.0
 40
0.0
 40
0.2539090075
 40
1.0
 40
1.0
 40
1.0
 40
1.0
 10
908.1083895203
 20
326.1233789478
 30
0.0
 10
908.1455577917
 20
326.0958386202
 30
0.0
 10
908.295330405
 20
325.9920438664
 30
0.0
 10
908.4588629241
 20
325.9079330482
 30
0.0
 10
908.5855851137
 20
325.8587551287
 30
0.0
  0
SPLINE
  5
3F2
100
AcDbEntity
  8
0
100
AcDbSpline
 62
7
  6
CONTINUOUS
 70
0
 71
3
 72
10
 73
6
 74
0
 42
0.0000001
 43
0.0000001
 44
0.0000000001
 40
0.0
 40
0.0
 40
0.0
 40
0.0
 40
0.281327003
 40
0.5437044228
 40
1.0
 40
1.0
 40
1.0
 40
1.0
 10
918.2207408415
 20
331.9754119621
 30
0.0
 10
918.2207408415
 20
331.6703783129
 30
0.0
 10
918.270716184
 20
331.0781422014
 30
0.0
 10
918.5602487722
 20
330.0325450215
 30
0.0
 10
919.0245833718
 20
329.3461259709
 30
0.0
 10
919.4220980193
 20
329.0515821781
 30
0.0
  0
SPLINE
  5
3F3
100
AcDbEntity
  8
0
100
AcDbSpline
 62
7
  6
CONTINUOUS
 70
0
 71
3
 72
9
 73
5
 74
0
 42
0.0000001
 43
0.0000001
 44
0.0000000001
 40
0.0
 40
0.0
 40
0.0
 40
0.0
 40
0.2539090075
 40
1.0
 40
1.0
 40
1.0
 40
1.0
 10
919.4220980193
 20
329.0515821781
 30
0.0
 10
919.4592662907
 20
329.0240418505
 30
0.0
 10
919.609038904
 20
328.9202470966
 30
0.0
 10
919.7725714231
 20
328.8361362785
 30
0.0
 10
919.8992936127
 20
328.786958359
 30
0.0
  0
SPLINE
  5
3F4
100
AcDbEntity
  8
0
100
AcDbSpline
 62
7
  6
CONTINUOUS
 70
0
 71
3
 72
10
 73
6
 74
0
 42
0.0000001
 43
0.0000001
 44
0.0000000001
 40
0.0
 40
0.0
 40
0.0
 40
0.0
 40
0.281327003
 40
0.5437044228
 40
1.0
 40
1.0
 40
1.0
 40
1.0
 10
929.5344493405
 20
334.9036151924
 30
0.0
 10
929.5344493405
 20
334.5985815432
 30
0.0
 10
929.5844246829
 20
334.0063454317
 30
0.0
 10
929.8739572711
 20
332.9607482518
 30
0.0
 10
930.3382918708
 20
332.2743292011
 30
0.0
 10
930.7358065182
 20
331.9797854084
 30
0.0
  0
SPLINE
  5
3F5
100
AcDbEntity
  8
0
100
AcDbSpline
 62
7
  6
CONTINUOUS
 70
0
 71
3
 72
9
 73
5
 74
0
 42
0.0000001
 43
0.0000001
 44
0.0000000001
 40
0.0
 40
0.0
 40
0.0
 40
0.0
 40
0.2539090075
 40
1.0
 40
1.0
 40
1.0
 40
1.0
 10
930.7358065182
 20
331.9797854084
 30
0.0
 10
930.7729747897
 20
331.9522450807
 30
0.0
 10
930.922747403
 20
331.8484503269
 30
0.0
 10
931.0862799221
 20
331.7643395087
 30
0.0
 10
931.2130021117
 20
331.7151615893
 30
0.0
  0
SPLINE
  5
3F6
100
AcDbEntity
  8
0
100
AcDbSpline
 62
7
  6
CONTINUOUS
 70
0
 71
3
 72
10
 73
6
 74
0
 42
0.0000001
 43
0.0000001
 44
0.0000000001
 40
0.0
 40
0.0
 40
0.0
 40
0.0
 40
0.281327003
 40
0.5437044228
 40
1.0
 40
1.0
 40
1.0
 40
1.0
 10
940.8481578395
 20
337.8318184226
 30
0.0
 10
940.8481578395
 20
337.5267847735
 30
0.0
 10
940.8981331819
 20
336.934548662
 30
0.0
 10
941.1876657701
 20
335.8889514821
 30
0.0
 10
941.6520003698
 20
335.2025324314
 30
0.0
 10
942.0495150172
 20
334.9079886387
 30
0.0
  0
SPLINE
  5
3F7
100
AcDbEntity
  8
0
100
AcDbSpline
 62
7
  6
CONTINUOUS
 70
0
 71
3
 72
9
 73
5
 74
0
 42
0.0000001
 43
0.0000001
 44
0.0000000001
 40
0.0
 40
0.0
 40
0.0
 40
0.0
 40
0.2539090075
 40
1.0
 40
1.0
 40
1.0
 40
1.0
 10
942.0495150172
 20
334.9079886387
 30
0.0
 10
942.0866832887
 20
334.880448311
 30
0.0
 10
942.2364559019
 20
334.7766535572
 30
0.0
 10
942.3999884211
 20
334.692542739
 30
0.0
 10
942.5267106106
 20
334.6433648195
 30
0.0
  0
SPLINE
  5
3F8
100
AcDbEntity
  8
0
100
AcDbSpline
 62
7
  6
CONTINUOUS
 70
0
 71
3
 72
9
 73
5
 74
0
 42
0.0000001
 43
0.0000001
 44
0.0000000001
 40
0.0
 40
0.0
 40
0.0
 40
0.0
 40
0.4679492569
 40
1.0
 40
1.0
 40
1.0
 40
1.0
 10
1236.2420156802
 20
439.9122322586
 30
0.0
 10
1236.3303611522
 20
439.8893667679
 30
0.0
 10
1236.5157363558
 20
439.8312035602
 30
0.0
 10
1236.705174134
 20
439.7745584621
 30
0.0
 10
1236.8087484252
 20
439.7684004424
 30
0.0
  0
SPLINE
  5
3F9
100
AcDbEntity
  8
0
100
AcDbSpline
 62
7
  6
CONTINUOUS
 70
0
 71
3
 72
9
 73
5
 74
0
 42
0.0000001
 43
0.0000001
 44
0.0000000001
 40
0.0
 40
0.0
 40
0.0
 40
0.0
 40
0.2432745098
 40
1.0
 40
1.0
 40
1.0
 40
1.0
 10
1238.3631054685
 20
438.5964789701
 30
0.0
 10
1238.3516118913
 20
438.6418609766
 30
0.0
 10
1238.2941809852
 20
438.8257430856
 30
0.0
 10
1238.1980153609
 20
438.9969924744
 30
0.0
 10
1238.1095120104
 20
439.1126331018
 30
0.0
  0
SPLINE
  5
3FA
100
AcDbEntity
  8
0
100
AcDbSpline
 62
7
  6
CONTINUOUS
 70
0
 71
3
 72
9
 73
5
 74
0
 42
0.0000001
 43
0.0000001
 44
0.0000000001
 40
0.0
 40
0.0
 40
0.0
 40
0.0
 40
0.5033617162
 40
1.0
 40
1.0
 40
1.0
 40
1.0
 10
1238.1095120104
 20
439.1126331018
 30
0.0
 10
1237.9574505819
 20
439.3113202575
 30
0.0
 10
1237.5523104616
 20
439.6347041238
 30
0.0
 10
1237.0551698043
 20
439.7537494351
 30
0.0
 10
1236.8087484252
 20
439.7684004424
 30
0.0
  0
SPLINE
  5
3FB
100
AcDbEntity
  8
0
100
AcDbSpline
 62
7
  6
CONTINUOUS
 70
0
 71
3
 72
8
 73
4
 74
0
 42
0.0000001
 43
0.0000001
 44
0.0000000001
 40
0.0
 40
0.0
 40
0.0
 40
0.0
 40
1.0
 40
1.0
 40
1.0
 40
1.0
 10
604.2207343007
 20
276.0023632603
 30
0.0
 10
604.198239254
 20
275.97150408
 30
0.0
 10
604.1792152456
 20
275.9379193202
 30
0.0
 10
604.163546328
 20
275.9030940254
 30
0.0
  0
SPLINE
  5
3FC
100
AcDbEntity
  8
0
100
AcDbSpline
 62
7
  6
CONTINUOUS
 70
0
 71
3
 72
8
 73
4
 74
0
 42
0.0000001
 43
0.0000001
 44
0.0000000001
 40
0.0
 40
0.0
 40
0.0
 40
0.0
 40
1.0
 40
1.0
 40
1.0
 40
1.0
 10
604.2636576734
 20
276.0536840697
 30
0.0
 10
604.2737555793
 20
276.0642347711
 30
0.0
 10
604.2815680326
 20
276.0775629412
 30
0.0
 10
604.2856231495
 20
276.0915929459
 30
0.0
  0
SPLINE
  5
3FD
100
AcDbEntity
  8
0
100
AcDbSpline
 62
7
  6
CONTINUOUS
 70
0
 71
3
 72
9
 73
5
 74
0
 42
0.0000001
 43
0.0000001
 44
0.0000000001
 40
0.0
 40
0.0
 40
0.0
 40
0.0
 40
0.2179924325
 40
1.0
 40
1.0
 40
1.0
 40
1.0
 10
645.0020800043
 20
368.9860685663
 30
0.0
 10
645.0176569269
 20
368.9820366763
 30
0.0
 10
645.0870442057
 20
368.9544495073
 30
0.0
 10
645.1382563343
 20
368.8953686458
 30
0.0
 10
645.1717139227
 20
368.8483336915
 30
0.0
  0
SPLINE
  5
3FE
100
AcDbEntity
  8
0
100
AcDbSpline
 62
7
  6
CONTINUOUS
 70
0
 71
3
 72
9
 73
5
 74
0
 42
0.0000001
 43
0.0000001
 44
0.0000000001
 40
0.0
 40
0.0
 40
0.0
 40
0.0
 40
0.7415291226
 40
1.0
 40
1.0
 40
1.0
 40
1.0
 10
462.3415677193
 20
416.2620898408
 30
0.0
 10
462.2571140996
 20
416.283956401
 30
0.0
 10
462.1356014337
 20
416.2897583728
 30
0.0
 10
462.0201907661
 20
416.2666743873
 30
0.0
 10
461.9907525088
 20
416.2590552056
 30
0.0
  0
SPLINE
  5
3FF
100
AcDbEntity
  8
0
100
AcDbSpline
 62
7
  6
CONTINUOUS
 70
0
 71
3
 72
9
 73
5
 74
0
 42
0.0000001
 43
0.0000001
 44
0.0000000001
 40
0.0
 40
0.0
 40
0.0
 40
0.0
 40
0.2342207254
 40
1.0
 40
1.0
 40
1.0
 40
1.0
 10
884.872424195
 20
531.0527541355
 30
0.0
 10
884.889559385
 20
531.0571918333
 30
0.0
 10
884.9649253214
 20
531.0682372448
 30
0.0
 10
885.0421832043
 20
531.0440308487
 30
0.0
 10
885.0927881429
 20
531.0159552606
 30
0.0
  0
SPLINE
  5
400
100
AcDbEntity
  8
0
100
AcDbSpline
 62
7
  6
CONTINUOUS
 70
0
 71
3
 72
9
 73
5
 74
0
 42
0.0000001
 43
0.0000001
 44
0.0000000001
 40
0.0
 40
0.0
 40
0.0
 40
0.0
 40
0.5139109359
 40
1.0
 40
1.0
 40
1.0
 40
1.0
 10
1238.1087957978
 20
439.112196801
 30
0.0
 10
1238.0309939418
 20
439.2890711385
 30
0.0
 10
1237.8273693311
 20
439.6142778347
 30
0.0
 10
1237.5161002247
 20
439.8454639439
 30
0.0
 10
1237.3493840797
 20
439.920364419
 30
0.0
  0
SPLINE
  5
401
100
AcDbEntity
  8
0
100
AcDbSpline
 62
7
  6
CONTINUOUS
 70
0
 71
3
 72
9
 73
5
 74
0
 42
0.0000001
 43
0.0000001
 44
0.0000000001
 40
0.0
 40
0.0
 40
0.0
 40
0.0
 40
0.2294613856
 40
1.0
 40
1.0
 40
1.0
 40
1.0
 10
250.1108986374
 20
365.8306883699
 30
0.0
 10
250.159666528
 20
365.9227098994
 30
0.0
 10
250.3976849293
 20
366.3095448047
 30
0.0
 10
250.7347976099
 20
366.6368423104
 30
0.0
 10
251.02935404
 20
366.8253711669
 30
0.0
  0
SPLINE
  5
402
100
AcDbEntity
  8
0
100
AcDbSpline
 62
7
  6
CONTINUOUS
 70
0
 71
3
 72
8
 73
4
 74
0
 42
0.0000001
 43
0.0000001
 44
0.0000000001
 40
0.0
 40
0.0
 40
0.0
 40
0.0
 40
1.0
 40
1.0
 40
1.0
 40
1.0
 10
251.02935404
 20
366.8253711669
 30
0.0
 10
251.1863012964
 20
366.9258241998
 30
0.0
 10
251.355662312
 20
367.00956659
 30
0.0
 10
251.5317369624
 20
367.070566349
 30
0.0
  0
SPLINE
  5
403
100
AcDbEntity
  8
0
100
AcDbSpline
 62
7
  6
CONTINUOUS
 70
0
 71
3
 72
9
 73
5
 74
0
 42
0.0000001
 43
0.0000001
 44
0.0000000001
 40
0.0
 40
0.0
 40
0.0
 40
0.0
 40
0.3425103972
 40
1.0
 40
1.0
 40
1.0
 40
1.0
 10
603.7283667024
 20
227.9093623015
 30
0.0
 10
603.7369104003
 20
227.8975446745
 30
0.0
 10
603.7622464293
 20
227.8654848342
 30
0.0
 10
603.8065931536
 20
227.8357630974
 30
0.0
 10
603.8336902336
 20
227.842788369
 30
0.0
  0
SPLINE
  5
404
100
AcDbEntity
  8
0
100
AcDbSpline
 62
7
  6
CONTINUOUS
 70
0
 71
3
 72
9
 73
5
 74
0
 42
0.0000001
 43
0.0000001
 44
0.0000000001
 40
0.0
 40
0.0
 40
0.0
 40
0.0
 40
0.2554841958
 40
1.0
 40
1.0
 40
1.0
 40
1.0
 10
1238.3225748412
 20
392.5229946549
 30
0.0
 10
1238.3518616312
 20
392.5601267191
 30
0.0
 10
1238.4547543231
 20
392.7143916435
 30
0.0
 10
1238.50475738
 20
392.9036276733
 30
0.0
 10
1238.50475738
 20
393.0414421818
 30
0.0
  0
SPLINE
  5
405
100
AcDbEntity
  8
0
100
AcDbSpline
 62
7
  6
CONTINUOUS
 70
0
 71
3
 72
11
 73
7
 74
0
 42
0.0000001
 43
0.0000001
 44
0.0000000001
 40
0.0
 40
0.0
 40
0.0
 40
0.0
 40
0.2144218252
 40
0.448180674
 40
0.7106732903
 40
1.0
 40
1.0
 40
1.0
 40
1.0
 10
250.7500329206
 20
319.1398763597
 30
0.0
 10
250.6559633497
 20
319.1642326626
 30
0.0
 10
250.4694073706
 20
319.2621585273
 30
0.0
 10
250.2637479355
 20
319.5188552337
 30
0.0
 10
250.1372952956
 20
319.8565407337
 30
0.0
 10
250.1108986374
 20
320.1078724454
 30
0.0
 10
250.1108986374
 20
320.238989369
 30
0.0
  0
SPLINE
  5
406
100
AcDbEntity
  8
0
100
AcDbSpline
 62
7
  6
CONTINUOUS
 70
0
 71
3
 72
9
 73
5
 74
0
 42
0.0000001
 43
0.0000001
 44
0.0000000001
 40
0.0
 40
0.0
 40
0.0
 40
0.0
 40
0.4961944831
 40
1.0
 40
1.0
 40
1.0
 40
1.0
 10
1237.1985030516
 20
391.769664424
 30
0.0
 10
1237.4180976842
 20
391.8265147777
 30
0.0
 10
1237.8433186323
 20
392.020955655
 30
0.0
 10
1238.1799463517
 20
392.342159192
 30
0.0
 10
1238.3225748412
 20
392.5229946549
 30
0.0
  0
SPLINE
  5
407
100
AcDbEntity
  8
0
100
AcDbSpline
 62
7
  6
CONTINUOUS
 70
0
 71
3
 72
9
 73
5
 74
0
 42
0.0000001
 43
0.0000001
 44
0.0000000001
 40
0.0
 40
0.0
 40
0.0
 40
0.0
 40
0.362130645
 40
1.0
 40
1.0
 40
1.0
 40
1.0
 10
603.2625884026
 20
227.9967456562
 30
0.0
 10
603.2553877931
 20
227.9847160487
 30
0.0
 10
603.235482606
 20
227.9543511538
 30
0.0
 10
603.198009016
 20
227.9196135432
 30
0.0
 10
603.1741046515
 20
227.9258134749
 30
0.0
  0
SPLINE
  5
408
100
AcDbEntity
  8
0
100
AcDbSpline
 62
7
  6
CONTINUOUS
 70
0
 71
3
 72
8
 73
4
 74
0
 42
0.0000001
 43
0.0000001
 44
0.0000000001
 40
0.0
 40
0.0
 40
0.0
 40
0.0
 40
1.0
 40
1.0
 40
1.0
 40
1.0
 10
1237.0867048497
 20
440.0070602645
 30
0.0
 10
1237.1759808007
 20
439.9840027909
 30
0.0
 10
1237.2641506897
 20
439.9555371823
 30
0.0
 10
1237.3493846845
 20
439.9203660483
 30
0.0
  0
SPLINE
  5
409
100
AcDbEntity
  8
0
100
AcDbSpline
 62
7
  6
CONTINUOUS
 70
0
 71
3
 72
9
 73
5
 74
0
 42
0.0000001
 43
0.0000001
 44
0.0000000001
 40
0.0
 40
0.0
 40
0.0
 40
0.0
 40
0.1981328976
 40
1.0
 40
1.0
 40
1.0
 40
1.0
 10
885.2153067856
 20
531.0780783646
 30
0.0
 10
885.2062348163
 20
531.0804288723
 30
0.0
 10
885.1573720526
 20
531.0816772335
 30
0.0
 10
885.1174830693
 20
531.0447418669
 30
0.0
 10
885.0927881429
 20
531.0159552606
 30
0.0
  0
SPLINE
  5
40A
100
AcDbEntity
  8
0
100
AcDbSpline
 62
7
  6
CONTINUOUS
 70
0
 71
3
 72
9
 73
5
 74
0
 42
0.0000001
 43
0.0000001
 44
0.0000000001
 40
0.0
 40
0.0
 40
0.0
 40
0.0
 40
0.2556803972
 40
1.0
 40
1.0
 40
1.0
 40
1.0
 10
251.0292756746
 20
366.8254859037
 30
0.0
 10
251.0707103218
 20
366.8647660956
 30
0.0
 10
251.2413027572
 20
367.0090473753
 30
0.0
 10
251.448614009
 20
367.1105969382
 30
0.0
 10
251.6095184067
 20
367.1522535605
 30
0.0
  0
SPLINE
  5
40B
100
AcDbEntity
  8
0
100
AcDbSpline
 62
7
  6
CONTINUOUS
 70
0
 71
3
 72
9
 73
5
 74
0
 42
0.0000001
 43
0.0000001
 44
0.0000000001
 40
0.0
 40
0.0
 40
0.0
 40
0.0
 40
0.2585005303
 40
1.0
 40
1.0
 40
1.0
 40
1.0
 10
452.8384128036
 20
419.1402905939
 30
0.0
 10
452.8089723198
 20
419.1479103518
 30
0.0
 10
452.6935666906
 20
419.1709987114
 30
0.0
 10
452.5720605778
 20
419.16518838
 30
0.0
 10
452.487611701
 20
419.1433310248
 30
0.0
  0
SPLINE
  5
40C
100
AcDbEntity
  8
0
100
AcDbSpline
 62
7
  6
CONTINUOUS
 70
0
 71
3
 72
9
 73
5
 74
0
 42
0.0000001
 43
0.0000001
 44
0.0000000001
 40
0.0
 40
0.0
 40
0.0
 40
0.0
 40
0.746076412
 40
1.0
 40
1.0
 40
1.0
 40
1.0
 10
944.614637255
 20
342.6507592061
 30
0.0
 10
944.477886959
 20
342.6705913366
 30
0.0
 10
944.2910083637
 20
342.6775565401
 30
0.0
 10
944.1066188515
 20
342.6597703436
 30
0.0
 10
944.0599768408
 20
342.6537479145
 30
0.0
  0
SPLINE
  5
40D
100
AcDbEntity
  8
0
100
AcDbSpline
 62
7
  6
CONTINUOUS
 70
0
 71
3
 72
12
 73
8
 74
0
 42
0.0000001
 43
0.0000001
 44
0.0000000001
 40
0.0
 40
0.0
 40
0.0
 40
0.0
 40
0.2096044668
 40
0.3283585481
 40
0.4555241393
 40
0.72613539
 40
1.0
 40
1.0
 40
1.0
 40
1.0
 10
944.0599768408
 20
342.6537479145
 30
0.0
 10
943.6286712088
 20
342.5980576135
 30
0.0
 10
942.9766207636
 20
342.3006552506
 30
0.0
 10
942.2714626051
 20
341.6692747997
 30
0.0
 10
941.6065343627
 20
340.8214443777
 30
0.0
 10
941.0218533848
 20
339.5339739112
 30
0.0
 10
940.8481578395
 20
338.4000311421
 30
0.0
 10
940.8481578395
 20
337.8318184226
 30
0.0
  0
SPLINE
  5
40E
100
AcDbEntity
  8
0
100
AcDbSpline
 62
7
  6
CONTINUOUS
 70
0
 71
3
 72
9
 73
5
 74
0
 42
0.0000001
 43
0.0000001
 44
0.0000000001
 40
0.0
 40
0.0
 40
0.0
 40
0.0
 40
0.746076412
 40
1.0
 40
1.0
 40
1.0
 40
1.0
 10
933.300928756
 20
339.7225559758
 30
0.0
 10
933.16417846
 20
339.7423881063
 30
0.0
 10
932.9772998647
 20
339.7493533098
 30
0.0
 10
932.7929103525
 20
339.7315671134
 30
0.0
 10
932.7462683418
 20
339.7255446842
 30
0.0
  0
SPLINE
  5
40F
100
AcDbEntity
  8
0
100
AcDbSpline
 62
7
  6
CONTINUOUS
 70
0
 71
3
 72
12
 73
8
 74
0
 42
0.0000001
 43
0.0000001
 44
0.0000000001
 40
0.0
 40
0.0
 40
0.0
 40
0.0
 40
0.2096044668
 40
0.3283585481
 40
0.4555241393
 40
0.72613539
 40
1.0
 40
1.0
 40
1.0
 40
1.0
 10
932.7462683418
 20
339.7255446842
 30
0.0
 10
932.3149627098
 20
339.6698543832
 30
0.0
 10
931.6629122646
 20
339.3724520203
 30
0.0
 10
930.9577541061
 20
338.7410715695
 30
0.0
 10
930.2928258638
 20
337.8932411475
 30
0.0
 10
929.7081448858
 20
336.605770681
 30
0.0
 10
929.5344493405
 20
335.4718279119
 30
0.0
 10
929.5344493405
 20
334.9036151924
 30
0.0
  0
SPLINE
  5
410
100
AcDbEntity
  8
0
100
AcDbSpline
 62
7
  6
CONTINUOUS
 70
0
 71
3
 72
9
 73
5
 74
0
 42
0.0000001
 43
0.0000001
 44
0.0000000001
 40
0.0
 40
0.0
 40
0.0
 40
0.0
 40
0.746076412
 40
1.0
 40
1.0
 40
1.0
 40
1.0
 10
921.987220257
 20
336.7943527455
 30
0.0
 10
921.850469961
 20
336.814184876
 30
0.0
 10
921.6635913657
 20
336.8211500796
 30
0.0
 10
921.4792018535
 20
336.8033638831
 30
0.0
 10
921.4325598428
 20
336.7973414539
 30
0.0
  0
SPLINE
  5
411
100
AcDbEntity
  8
0
100
AcDbSpline
 62
7
  6
CONTINUOUS
 70
0
 71
3
 72
12
 73
8
 74
0
 42
0.0000001
 43
0.0000001
 44
0.0000000001
 40
0.0
 40
0.0
 40
0.0
 40
0.0
 40
0.2096044668
 40
0.3283585481
 40
0.4555241393
 40
0.72613539
 40
1.0
 40
1.0
 40
1.0
 40
1.0
 10
921.4325598428
 20
336.7973414539
 30
0.0
 10
921.0012542108
 20
336.741651153
 30
0.0
 10
920.3492037656
 20
336.4442487901
 30
0.0
 10
919.6440456071
 20
335.8128683392
 30
0.0
 10
918.9791173648
 20
334.9650379172
 30
0.0
 10
918.3944363868
 20
333.6775674507
 30
0.0
 10
918.2207408415
 20
332.5436246816
 30
0.0
 10
918.2207408415
 20
331.9754119621
 30
0.0
  0
SPLINE
  5
412
100
AcDbEntity
  8
0
100
AcDbSpline
 62
7
  6
CONTINUOUS
 70
0
 71
3
 72
9
 73
5
 74
0
 42
0.0000001
 43
0.0000001
 44
0.0000000001
 40
0.0
 40
0.0
 40
0.0
 40
0.0
 40
0.746076412
 40
1.0
 40
1.0
 40
1.0
 40
1.0
 10
910.673511758
 20
333.8661495152
 30
0.0
 10
910.536761462
 20
333.8859816458
 30
0.0
 10
910.3498828668
 20
333.8929468493
 30
0.0
 10
910.1654933545
 20
333.8751606528
 30
0.0
 10
910.1188513438
 20
333.8691382236
 30
0.0
  0
SPLINE
  5
413
100
AcDbEntity
  8
0
100
AcDbSpline
 62
7
  6
CONTINUOUS
 70
0
 71
3
 72
12
 73
8
 74
0
 42
0.0000001
 43
0.0000001
 44
0.0000000001
 40
0.0
 40
0.0
 40
0.0
 40
0.0
 40
0.2096044668
 40
0.3283585481
 40
0.4555241393
 40
0.72613539
 40
1.0
 40
1.0
 40
1.0
 40
1.0
 10
910.1188513438
 20
333.8691382236
 30
0.0
 10
909.6875457118
 20
333.8134479227
 30
0.0
 10
909.0354952667
 20
333.5160455598
 30
0.0
 10
908.3303371082
 20
332.8846651089
 30
0.0
 10
907.6654088658
 20
332.0368346869
 30
0.0
 10
907.0807278878
 20
330.7493642204
 30
0.0
 10
906.9070323425
 20
329.6154214513
 30
0.0
 10
906.9070323425
 20
329.0472087318
 30
0.0
  0
SPLINE
  5
414
100
AcDbEntity
  8
0
100
AcDbSpline
 62
7
  6
CONTINUOUS
 70
0
 71
3
 72
9
 73
5
 74
0
 42
0.0000001
 43
0.0000001
 44
0.0000000001
 40
0.0
 40
0.0
 40
0.0
 40
0.0
 40
0.746076412
 40
1.0
 40
1.0
 40
1.0
 40
1.0
 10
899.359803259
 20
330.937946285
 30
0.0
 10
899.2230529631
 20
330.9577784155
 30
0.0
 10
899.0361743678
 20
330.964743619
 30
0.0
 10
898.8517848555
 20
330.9469574225
 30
0.0
 10
898.8051428449
 20
330.9409349934
 30
0.0
  0
SPLINE
  5
415
100
AcDbEntity
  8
0
100
AcDbSpline
 62
7
  6
CONTINUOUS
 70
0
 71
3
 72
12
 73
8
 74
0
 42
0.0000001
 43
0.0000001
 44
0.0000000001
 40
0.0
 40
0.0
 40
0.0
 40
0.0
 40
0.2096044668
 40
0.3283585481
 40
0.4555241393
 40
0.72613539
 40
1.0
 40
1.0
 40
1.0
 40
1.0
 10
898.8051428449
 20
330.9409349934
 30
0.0
 10
898.3738372128
 20
330.8852446924
 30
0.0
 10
897.7217867677
 20
330.5878423295
 30
0.0
 10
897.0166286092
 20
329.9564618786
 30
0.0
 10
896.3517003668
 20
329.1086314566
 30
0.0
 10
895.7670193888
 20
327.8211609901
 30
0.0
 10
895.5933238435
 20
326.687218221
 30
0.0
 10
895.5933238435
 20
326.1190055015
 30
0.0
  0
SPLINE
  5
416
100
AcDbEntity
  8
0
100
AcDbSpline
 62
7
  6
CONTINUOUS
 70
0
 71
3
 72
10
 73
6
 74
0
 42
0.0000001
 43
0.0000001
 44
0.0000000001
 40
0.0
 40
0.0
 40
0.0
 40
0.0
 40
0.1165791416
 40
0.3470881427
 40
1.0
 40
1.0
 40
1.0
 40
1.0
 10
461.8200454535
 20
416.2773564759
 30
0.0
 10
461.8200448853
 20
416.2720146831
 30
0.0
 10
461.8365914519
 20
416.2611741195
 30
0.0
 10
461.8786951347
 20
416.2522468279
 30
0.0
 10
461.9211314976
 20
416.2502346661
 30
0.0
 10
461.9509434844
 20
416.2527413575
 30
0.0
  0
SPLINE
  5
417
100
AcDbEntity
  8
0
100
AcDbSpline
 62
7
  6
CONTINUOUS
 70
0
 71
3
 72
8
 73
4
 74
0
 42
0.0000001
 43
0.0000001
 44
0.0000000001
 40
0.0
 40
0.0
 40
0.0
 40
0.0
 40
1.0
 40
1.0
 40
1.0
 40
1.0
 10
461.9509434844
 20
416.2527413575
 30
0.0
 10
461.9643317779
 20
416.2538670899
 30
0.0
 10
461.9777455599
 20
416.2556887595
 30
0.0
 10
461.9907525088
 20
416.2590552056
 30
0.0
  0
SPLINE
  5
418
100
AcDbEntity
  8
0
100
AcDbSpline
 62
7
  6
CONTINUOUS
 70
0
 71
3
 72
9
 73
5
 74
0
 42
0.0000001
 43
0.0000001
 44
0.0000000001
 40
0.0
 40
0.0
 40
0.0
 40
0.0
 40
0.3494930177
 40
1.0
 40
1.0
 40
1.0
 40
1.0
 10
1236.1248593577
 20
439.9854518374
 30
0.0
 10
1236.1248544905
 20
439.9687967055
 30
0.0
 10
1236.1683906045
 20
439.9313862806
 30
0.0
 10
1236.2120045792
 20
439.9199997032
 30
0.0
 10
1236.2420156802
 20
439.9122322586
 30
0.0
  0
SPLINE
  5
419
100
AcDbEntity
  8
0
100
AcDbSpline
 62
7
  6
CONTINUOUS
 70
0
 71
3
 72
9
 73
5
 74
0
 42
0.0000001
 43
0.0000001
 44
0.0000000001
 40
0.0
 40
0.0
 40
0.0
 40
0.0
 40
0.2527372128
 40
1.0
 40
1.0
 40
1.0
 40
1.0
 10
603.9473624984
 20
274.3976021766
 30
0.0
 10
603.9241027295
 20
274.3223118397
 30
0.0
 10
603.8430639962
 20
274.0211654393
 30
0.0
 10
603.8057105869
 20
273.7079576483
 30
0.0
 10
603.8057105869
 20
273.474967379
 30
0.0
  0
SPLINE
  5
41A
100
AcDbEntity
  8
0
100
AcDbSpline
 62
7
  6
CONTINUOUS
 70
0
 71
3
 72
8
 73
4
 74
0
 42
0.0000001
 43
0.0000001
 44
0.0000000001
 40
0.0
 40
0.0
 40
0.0
 40
0.0
 40
1.0
 40
1.0
 40
1.0
 40
1.0
 10
251.6095184067
 20
367.1522535605
 30
0.0
 10
251.7651408554
 20
367.1925427364
 30
0.0
 10
251.9312036208
 20
367.2022541432
 30
0.0
 10
252.0907976247
 20
367.1829845267
 30
0.0
  0
SPLINE
  5
41B
100
AcDbEntity
  8
0
100
AcDbSpline
 62
7
  6
CONTINUOUS
 70
0
 71
3
 72
8
 73
4
 74
0
 42
0.0000001
 43
0.0000001
 44
0.0000000001
 40
0.0
 40
0.0
 40
0.0
 40
0.0
 40
1.0
 40
1.0
 40
1.0
 40
1.0
 10
1236.6705839341
 20
440.081627052
 30
0.0
 10
1236.8105218647
 20
440.0650499519
 30
0.0
 10
1236.9502655696
 20
440.042298703
 30
0.0
 10
1237.0867048497
 20
440.0070602645
 30
0.0
  0
SPLINE
  5
41C
100
AcDbEntity
  8
0
100
AcDbSpline
 62
7
  6
CONTINUOUS
 70
0
 71
3
 72
9
 73
5
 74
0
 42
0.0000001
 43
0.0000001
 44
0.0000000001
 40
0.0
 40
0.0
 40
0.0
 40
0.0
 40
0.7583426462
 40
1.0
 40
1.0
 40
1.0
 40
1.0
 10
1236.6705839341
 20
440.081627052
 30
0.0
 10
1236.6079283213
 20
440.0890492595
 30
0.0
 10
1236.5243563786
 20
440.0936078609
 30
0.0
 10
1236.4413189144
 20
440.0876089568
 30
0.0
 10
1236.4213307746
 20
440.0854373394
 30
0.0
  0
SPLINE
  5
41D
100
AcDbEntity
  8
0
100
AcDbSpline
 62
7
  6
CONTINUOUS
 70
0
 71
3
 72
9
 73
5
 74
0
 42
0.0000001
 43
0.0000001
 44
0.0000000001
 40
0.0
 40
0.0
 40
0.0
 40
0.0
 40
0.2902294179
 40
1.0
 40
1.0
 40
1.0
 40
1.0
 10
603.4193402564
 20
276.2524666055
 30
0.0
 10
603.4123835389
 20
276.2481773106
 30
0.0
 10
603.389727801
 20
276.2320692863
 30
0.0
 10
603.3731574547
 20
276.2029266442
 30
0.0
 10
603.3751607711
 20
276.1830404068
 30
0.0
  0
SPLINE
  5
41E
100
AcDbEntity
  8
0
100
AcDbSpline
 62
7
  6
CONTINUOUS
 70
0
 71
3
 72
9
 73
5
 74
0
 42
0.0000001
 43
0.0000001
 44
0.0000000001
 40
0.0
 40
0.0
 40
0.0
 40
0.0
 40
0.3011301304
 40
1.0
 40
1.0
 40
1.0
 40
1.0
 10
603.3580525801
 20
275.8313348698
 30
0.0
 10
603.363921339
 20
275.8614547553
 30
0.0
 10
603.3818888126
 20
275.961312792
 30
0.0
 10
603.3961469531
 20
276.0648580391
 30
0.0
 10
603.3855925358
 20
276.1352891321
 30
0.0
  0
SPLINE
  5
41F
100
AcDbEntity
  8
0
100
AcDbSpline
 62
7
  6
CONTINUOUS
 70
0
 71
3
 72
9
 73
5
 74
0
 42
0.0000001
 43
0.0000001
 44
0.0000000001
 40
0.0
 40
0.0
 40
0.0
 40
0.0
 40
0.5355787819
 40
1.0
 40
1.0
 40
1.0
 40
1.0
 10
603.214483723
 20
274.5499650128
 30
0.0
 10
603.1704255968
 20
274.7788286979
 30
0.0
 10
603.1541964794
 20
275.2206998502
 30
0.0
 10
603.2673931195
 20
275.6507086567
 30
0.0
 10
603.3580532281
 20
275.8313335647
 30
0.0
  0
SPLINE
  5
420
100
AcDbEntity
  8
0
100
AcDbSpline
 62
7
  6
CONTINUOUS
 70
0
 71
3
 72
9
 73
5
 74
0
 42
0.0000001
 43
0.0000001
 44
0.0000000001
 40
0.0
 40
0.0
 40
0.0
 40
0.0
 40
0.2548917641
 40
1.0
 40
1.0
 40
1.0
 40
1.0
 10
911.5733399355
 20
333.4910223616
 30
0.0
 10
911.5206928017
 20
333.5299704038
 30
0.0
 10
911.3074611517
 20
333.6734752008
 30
0.0
 10
911.0666405143
 20
333.7763742057
 30
0.0
 10
910.8813100588
 20
333.8243386054
 30
0.0
  0
SPLINE
  5
421
100
AcDbEntity
  8
0
100
AcDbSpline
 62
7
  6
CONTINUOUS
 70
0
 71
3
 72
9
 73
5
 74
0
 42
0.0000001
 43
0.0000001
 44
0.0000000001
 40
0.0
 40
0.0
 40
0.0
 40
0.0
 40
0.556741853
 40
1.0
 40
1.0
 40
1.0
 40
1.0
 10
603.8057105869
 20
228.7692409633
 30
0.0
 10
603.8057105869
 20
228.6831092252
 30
0.0
 10
603.8086756119
 20
228.5290709723
 30
0.0
 10
603.8219257359
 20
228.3728941047
 30
0.0
 10
603.8423021805
 20
228.3074163484
 30
0.0
  0
SPLINE
  5
422
100
AcDbEntity
  8
0
100
AcDbSpline
 62
7
  6
CONTINUOUS
 70
0
 71
3
 72
10
 73
6
 74
0
 42
0.0000001
 43
0.0000001
 44
0.0000000001
 40
0.0
 40
0.0
 40
0.0
 40
0.0
 40
0.1137307006
 40
0.310311063
 40
1.0
 40
1.0
 40
1.0
 40
1.0
 10
603.1741046515
 20
227.9258134749
 30
0.0
 10
603.1601153454
 20
227.9294417973
 30
0.0
 10
603.1342916833
 20
227.9671872687
 30
0.0
 10
603.1254390419
 20
228.0931028318
 30
0.0
 10
603.1489985303
 20
228.2065412208
 30
0.0
 10
603.1739682013
 20
228.290550225
 30
0.0
  0
SPLINE
  5
423
100
AcDbEntity
  8
0
100
AcDbSpline
 62
7
  6
CONTINUOUS
 70
0
 71
3
 72
9
 73
5
 74
0
 42
0.0000001
 43
0.0000001
 44
0.0000000001
 40
0.0
 40
0.0
 40
0.0
 40
0.0
 40
0.2548917641
 40
1.0
 40
1.0
 40
1.0
 40
1.0
 10
922.8870484345
 20
336.4192255918
 30
0.0
 10
922.8344013007
 20
336.458173634
 30
0.0
 10
922.6211696507
 20
336.6016784311
 30
0.0
 10
922.3803490133
 20
336.704577436
 30
0.0
 10
922.1950185578
 20
336.7525418357
 30
0.0
  0
SPLINE
  5
424
100
AcDbEntity
  8
0
100
AcDbSpline
 62
7
  6
CONTINUOUS
 70
0
 71
3
 72
10
 73
6
 74
0
 42
0.0000001
 43
0.0000001
 44
0.0000000001
 40
0.0
 40
0.0
 40
0.0
 40
0.0
 40
0.3164381714
 40
0.6115202174
 40
1.0
 40
1.0
 40
1.0
 40
1.0
 10
603.8336902336
 20
227.842788369
 30
0.0
 10
603.8762352221
 20
227.8538187124
 30
0.0
 10
603.9012440299
 20
227.9647410346
 30
0.0
 10
603.893401969
 20
228.0933444547
 30
0.0
 10
603.874816178
 20
228.1896765639
 30
0.0
 10
603.8611242159
 20
228.241868293
 30
0.0
  0
SPLINE
  5
425
100
AcDbEntity
  8
0
100
AcDbSpline
 62
7
  6
CONTINUOUS
 70
0
 71
3
 72
9
 73
5
 74
0
 42
0.0000001
 43
0.0000001
 44
0.0000000001
 40
0.0
 40
0.0
 40
0.0
 40
0.0
 40
0.4392871461
 40
1.0
 40
1.0
 40
1.0
 40
1.0
 10
603.1992409214
 20
228.3679962227
 30
0.0
 10
603.2225826995
 20
228.4338691801
 30
0.0
 10
603.2367840555
 20
228.5951035551
 30
0.0
 10
603.240025162
 20
228.7532421879
 30
0.0
 10
603.240025162
 20
228.8424460441
 30
0.0
  0
SPLINE
  5
426
100
AcDbEntity
  8
0
100
AcDbSpline
 62
7
  6
CONTINUOUS
 70
0
 71
3
 72
9
 73
5
 74
0
 42
0.0000001
 43
0.0000001
 44
0.0000000001
 40
0.0
 40
0.0
 40
0.0
 40
0.0
 40
0.2548917641
 40
1.0
 40
1.0
 40
1.0
 40
1.0
 10
934.2007569335
 20
339.3474288221
 30
0.0
 10
934.1481097997
 20
339.3863768643
 30
0.0
 10
933.9348781496
 20
339.5298816614
 30
0.0
 10
933.6940575123
 20
339.6327806662
 30
0.0
 10
933.5087270568
 20
339.680745066
 30
0.0
  0
SPLINE
  5
427
100
AcDbEntity
  8
0
100
AcDbSpline
 62
7
  6
CONTINUOUS
 70
0
 71
3
 72
10
 73
6
 74
0
 42
0.0000001
 43
0.0000001
 44
0.0000000001
 40
0.0
 40
0.0
 40
0.0
 40
0.0
 40
0.6320285729
 40
0.8543174718
 40
1.0
 40
1.0
 40
1.0
 40
1.0
 10
1236.4213307746
 20
440.0854373394
 30
0.0
 10
1236.3567706515
 20
440.080960072
 30
0.0
 10
1236.2686060368
 20
440.0699687616
 30
0.0
 10
1236.1722996429
 20
440.0369301592
 30
0.0
 10
1236.1390266369
 20
440.0155054408
 30
0.0
 10
1236.1307304851
 20
440.0031084202
 30
0.0
  0
SPLINE
  5
428
100
AcDbEntity
  8
0
100
AcDbSpline
 62
7
  6
CONTINUOUS
 70
0
 71
3
 72
8
 73
4
 74
0
 42
0.0000001
 43
0.0000001
 44
0.0000000001
 40
0.0
 40
0.0
 40
0.0
 40
0.0
 40
1.0
 40
1.0
 40
1.0
 40
1.0
 10
1236.1307304851
 20
440.0031084202
 30
0.0
 10
1236.1272809727
 20
439.9979537801
 30
0.0
 10
1236.1248611703
 20
439.9916542117
 30
0.0
 10
1236.1248593577
 20
439.9854518374
 30
0.0
  0
SPLINE
  5
429
100
AcDbEntity
  8
0
100
AcDbSpline
 62
7
  6
CONTINUOUS
 70
0
 71
3
 72
10
 73
6
 74
0
 42
0.0000001
 43
0.0000001
 44
0.0000000001
 40
0.0
 40
0.0
 40
0.0
 40
0.0
 40
0.1870582473
 40
0.4225724263
 40
1.0
 40
1.0
 40
1.0
 40
1.0
 10
604.163546328
 20
275.9030940254
 30
0.0
 10
604.1245739048
 20
275.8164750158
 30
0.0
 10
604.080481708
 20
275.6029115115
 30
0.0
 10
604.0469909738
 20
275.0978722922
 30
0.0
 10
604.0114264039
 20
274.6837182896
 30
0.0
 10
603.9473624984
 20
274.3976021766
 30
0.0
  0
SPLINE
  5
42A
100
AcDbEntity
  8
0
100
AcDbSpline
 62
7
  6
CONTINUOUS
 70
0
 71
3
 72
8
 73
4
 74
0
 42
0.0000001
 43
0.0000001
 44
0.0000000001
 40
0.0
 40
0.0
 40
0.0
 40
0.0
 40
1.0
 40
1.0
 40
1.0
 40
1.0
 10
604.2856231495
 20
276.0915929459
 30
0.0
 10
604.2910703825
 20
276.1104394319
 30
0.0
 10
604.2900181457
 20
276.1316502846
 30
0.0
 10
604.2843549661
 20
276.1504330102
 30
0.0
  0
SPLINE
  5
42B
100
AcDbEntity
  8
0
100
AcDbSpline
 62
7
  6
CONTINUOUS
 70
0
 71
3
 72
9
 73
5
 74
0
 42
0.0000001
 43
0.0000001
 44
0.0000000001
 40
0.0
 40
0.0
 40
0.0
 40
0.0
 40
0.2153510362
 40
1.0
 40
1.0
 40
1.0
 40
1.0
 10
604.2843549661
 20
276.1504330102
 30
0.0
 10
604.2791309531
 20
276.1677591785
 30
0.0
 10
604.236810675
 20
276.2427365006
 30
0.0
 10
604.1523863299
 20
276.282355563
 30
0.0
 10
604.0885532994
 20
276.298876767
 30
0.0
  0
SPLINE
  5
42C
100
AcDbEntity
  8
0
100
AcDbSpline
 62
7
  6
CONTINUOUS
 70
0
 71
3
 72
9
 73
5
 74
0
 42
0.0000001
 43
0.0000001
 44
0.0000000001
 40
0.0
 40
0.0
 40
0.0
 40
0.0
 40
0.2548917641
 40
1.0
 40
1.0
 40
1.0
 40
1.0
 10
945.5144654325
 20
342.2756320524
 30
0.0
 10
945.4618182987
 20
342.3145800946
 30
0.0
 10
945.2485866486
 20
342.4580848917
 30
0.0
 10
945.0077660113
 20
342.5609838965
 30
0.0
 10
944.8224355558
 20
342.6089482963
 30
0.0
  0
SPLINE
  5
42D
100
AcDbEntity
  8
0
100
AcDbSpline
 62
7
  6
CONTINUOUS
 70
0
 71
3
 72
9
 73
5
 74
0
 42
0.0000001
 43
0.0000001
 44
0.0000000001
 40
0.0
 40
0.0
 40
0.0
 40
0.0
 40
0.2474720069
 40
1.0
 40
1.0
 40
1.0
 40
1.0
 10
942.7428664071
 20
334.5736939747
 30
0.0
 10
942.8042181383
 20
334.5578158561
 30
0.0
 10
943.0551812383
 20
334.5057447727
 30
0.0
 10
943.3160298759
 20
334.5042904598
 30
0.0
 10
943.5071313057
 20
334.5291283408
 30
0.0
  0
SPLINE
  5
42E
100
AcDbEntity
  8
0
100
AcDbSpline
 62
7
  6
CONTINUOUS
 70
0
 71
3
 72
9
 73
5
 74
0
 42
0.0000001
 43
0.0000001
 44
0.0000000001
 40
0.0
 40
0.0
 40
0.0
 40
0.0
 40
0.2474720069
 40
1.0
 40
1.0
 40
1.0
 40
1.0
 10
931.4291579081
 20
331.6454907444
 30
0.0
 10
931.4905096393
 20
331.6296126258
 30
0.0
 10
931.7414727393
 20
331.5775415424
 30
0.0
 10
932.002321377
 20
331.5760872295
 30
0.0
 10
932.1934228067
 20
331.6009251106
 30
0.0
  0
SPLINE
  5
42F
100
AcDbEntity
  8
0
100
AcDbSpline
 62
7
  6
CONTINUOUS
 70
0
 71
3
 72
9
 73
5
 74
0
 42
0.0000001
 43
0.0000001
 44
0.0000000001
 40
0.0
 40
0.0
 40
0.0
 40
0.0
 40
0.2474720069
 40
1.0
 40
1.0
 40
1.0
 40
1.0
 10
920.1154494091
 20
328.7172875141
 30
0.0
 10
920.1768011403
 20
328.7014093955
 30
0.0
 10
920.4277642403
 20
328.6493383122
 30
0.0
 10
920.688612878
 20
328.6478839993
 30
0.0
 10
920.8797143078
 20
328.6727218803
 30
0.0
  0
SPLINE
  5
430
100
AcDbEntity
  8
0
100
AcDbSpline
 62
7
  6
CONTINUOUS
 70
0
 71
3
 72
9
 73
5
 74
0
 42
0.0000001
 43
0.0000001
 44
0.0000000001
 40
0.0
 40
0.0
 40
0.0
 40
0.0
 40
0.2474720069
 40
1.0
 40
1.0
 40
1.0
 40
1.0
 10
908.8017409101
 20
325.7890842839
 30
0.0
 10
908.8630926413
 20
325.7732061652
 30
0.0
 10
909.1140557413
 20
325.7211350819
 30
0.0
 10
909.374904379
 20
325.719680769
 30
0.0
 10
909.5660058088
 20
325.74451865
 30
0.0
  0
SPLINE
  5
431
100
AcDbEntity
  8
0
100
AcDbSpline
 62
7
  6
CONTINUOUS
 70
0
 71
3
 72
9
 73
5
 74
0
 42
0.0000001
 43
0.0000001
 44
0.0000000001
 40
0.0
 40
0.0
 40
0.0
 40
0.0
 40
0.2474720069
 40
1.0
 40
1.0
 40
1.0
 40
1.0
 10
897.4880324111
 20
322.8608810536
 30
0.0
 10
897.5493841423
 20
322.845002935
 30
0.0
 10
897.8003472423
 20
322.7929318516
 30
0.0
 10
898.06119588
 20
322.7914775387
 30
0.0
 10
898.2522973098
 20
322.8163154197
 30
0.0
  0
SPLINE
  5
432
100
AcDbEntity
  8
0
100
AcDbSpline
 62
7
  6
CONTINUOUS
 70
0
 71
3
 72
11
 73
7
 74
0
 42
0.0000001
 43
0.0000001
 44
0.0000000001
 40
0.0
 40
0.0
 40
0.0
 40
0.0
 40
0.2654066637
 40
0.5685094089
 40
0.833916967
 40
1.0
 40
1.0
 40
1.0
 40
1.0
 10
604.0885532994
 20
276.298876767
 30
0.0
 10
604.030046187
 20
276.314019522
 30
0.0
 10
603.9009795864
 20
276.3301678843
 30
0.0
 10
603.7096502566
 20
276.3307949721
 30
0.0
 10
603.5464806098
 20
276.3079294469
 30
0.0
 10
603.4465412257
 20
276.2787407242
 30
0.0
 10
603.4193402564
 20
276.2524666055
 30
0.0
  0
SPLINE
  5
433
100
AcDbEntity
  8
0
100
AcDbSpline
 62
7
  6
CONTINUOUS
 70
0
 71
3
 72
9
 73
5
 74
0
 42
0.0000001
 43
0.0000001
 44
0.0000000001
 40
0.0
 40
0.0
 40
0.0
 40
0.0
 40
0.2548917641
 40
1.0
 40
1.0
 40
1.0
 40
1.0
 10
900.2596314365
 20
330.5628191313
 30
0.0
 10
900.2069843027
 20
330.6017671735
 30
0.0
 10
899.9937526527
 20
330.7452719706
 30
0.0
 10
899.7529320153
 20
330.8481709754
 30
0.0
 10
899.5676015598
 20
330.8961353752
 30
0.0
  0
SPLINE
  5
434
100
AcDbEntity
  8
0
100
AcDbSpline
 62
7
  6
CONTINUOUS
 70
0
 71
3
 72
9
 73
5
 74
0
 42
0.0000001
 43
0.0000001
 44
0.0000000001
 40
0.0
 40
0.0
 40
0.0
 40
0.0
 40
0.3701915646
 40
1.0
 40
1.0
 40
1.0
 40
1.0
 10
461.8493311526
 20
416.295657746
 30
0.0
 10
461.8451273981
 20
416.2945697343
 30
0.0
 10
461.8348716411
 20
416.291385162
 30
0.0
 10
461.8200462393
 20
416.2847440001
 30
0.0
 10
461.8200454535
 20
416.2773564759
 30
0.0
  0
SPLINE
  5
435
100
AcDbEntity
  8
0
100
AcDbSpline
 62
7
  6
CONTINUOUS
 70
0
 71
3
 72
9
 73
5
 74
0
 42
0.0000001
 43
0.0000001
 44
0.0000000001
 40
0.0
 40
0.0
 40
0.0
 40
0.0
 40
0.3494990452
 40
1.0
 40
1.0
 40
1.0
 40
1.0
 10
880.8382720578
 20
428.6934872103
 30
0.0
 10
880.8382720578
 20
428.7018142516
 30
0.0
 10
880.8165006573
 20
428.7205105885
 30
0.0
 10
880.7946976207
 20
428.7262063762
 30
0.0
 10
880.779693414
 20
428.7300897507
 30
0.0
  0
ENDSEC
  0
SECTION
  2
OBJECTS
  0
DICTIONARY
  5
C
100
AcDbDictionary
280
0
281
1
  3
ACAD_GROUP
350
D
  3
ACAD_MLINESTYLE
350
17
  3
ACAD_LAYOUT
350
1A
  3
ACAD_PLOTSETTINGS
350
19
  3
ACAD_PLOTSTYLENAME
350
E
  0
DICTIONARY
  5
D
102
{ACAD_REACTORS
330
C
102
}
100
AcDbDictionary
280
0
281
1
  0
ACDBDICTIONARYWDFLT
  5
E
102
{ACAD_REACTORS
330
C
102
}
100
AcDbDictionary
281
1
  3
Normal
350
F
100
AcDbDictionaryWithDefault
340
F
  0
DICTIONARY
  5
17
102
{ACAD_REACTORS
330
C
102
}
100
AcDbDictionary
280
0
281
1
  3
Standard
350
18
  0
DICTIONARY
  5
19
102
{ACAD_REACTORS
330
C
102
}
100
AcDbDictionary
281
1
  0
DICTIONARY
  5
1A
102
{ACAD_REACTORS
330
C
102
}
100
AcDbDictionary
281
1
  3
Model
350
436
  3
Layout1
350
437
  0
ACDBPLACEHOLDER
  5
F
102
{ACAD_REACTORS
330
E
102
}
  0
MLINESTYLE
  5
18
102
{ACAD_REACTORS
330
17
102
}
100
AcDbMlineStyle
  2
STANDARD
 70
0
  3

 62
256
 51
90.0
 52
90.0
 71
2
 49
0.5
 62
256
  6
BYLAYER
 49
-0.5
 62
256
  6
BYLAYER
  0
LAYOUT
  5
436
102
{ACAD_REACTORS
330
1A
102
}
100
AcDbPlotSettings
  1

  2
none_device
  4

  6

 40
0.0
 41
0.0
 42
0.0
 43
0.0
 44
1500.0
 45
1100.0
 46
0.0
 47
0.0
 48
0.0
 49
0.0
140
0.0
141
0.0
142
1.0
143
1.0
 70
1024
 72
1
 73
0
 74
0
  7

 75
0
147
1.0
148
0.0
149
0.0
100
AcDbLayout
  1
Model
 70
0
 71
0
 10
0.0
 20
0.0
 11
1500.0
 21
1100.0
 12
0.0
 22
0.0
 32
0.0
 14
0.0
 24
0.0
 34
0.0
 15
0.0
 25
0.0
 35
0.0
146
0.0
 13
0.0
 23
0.0
 33
0.0
 16
1.0
 26
0.0
 36
0.0
 17
0.0
 27
1.0
 37
0.0
 76
0
330
1FF
345
0
346
0
  0
LAYOUT
  5
437
102
{ACAD_REACTORS
330
1A
102
}
100
AcDbPlotSettings
  1

  2
none_device
  4

  6

 40
0.0
 41
0.0
 42
0.0
 43
0.0
 44
1500.0
 45
1100.0
 46
0.0
 47
0.0
 48
0.0
 49
0.0
140
0.0
141
0.0
142
1.0
143
1.0
 70
0
 72
1
 73
0
 74
0
  7

 75
0
147
1.0
148
0.0
149
0.0
100
AcDbLayout
  1
Layout1
 70
0
 71
1
 10
0.0
 20
0.0
 11
1500.0
 21
1100.0
 12
0.0
 22
0.0
 32
0.0
 14
0.0
 24
0.0
 34
0.0
 15
0.0
 25
0.0
 35
0.0
146
0.0
 13
0.0
 23
0.0
 33
0.0
 16
1.0
 26
0.0
 36
0.0
 17
0.0
 27
1.0
 37
0.0
 76
0
330
200
345
0
346
0
  0
ENDSEC
  0
EOF
