999
DXF file: S:\Engenharia\Wildfire\Engenharia\Montagens\Coifas\Coifas_Projetos_TEEC\Dritta\Dritta_60\vista_isometrica_dritta60.dxf
999
Pro/ENGINEER 2013050 by Parametric Technology Corporation
  0
SECTION
  2
HEADER
  9
$ACADVER
  1
AC1021
  9
$DWGCODEPAGE
  3
ANSI_1252
  9
$EXTMAX
 10
1500.0
 20
1100.0
 30
0.0
  9
$EXTMIN
 10
0.0
 20
-0.0
 30
0.0
  9
$LIMMIN
 10
0.0
 20
-0.0
  9
$LIMMAX
 10
1500.0
 20
1100.0
  9
$VIEWCTR
 10
750.0
 20
550.0
  9
$VIEWSIZE
 40
1100.0
  9
$CLAYER
  8
0
  9
$LTSCALE
 40
82.5
  9
$CELTYPE
  6
BYLAYER
  9
$DIMSCALE
 40
1.0
  9
$DIMASZ
 40
3.0
  9
$DIMEXO
 40
0.5
  9
$DIMDLI
 40
57.0
  9
$DIMEXE
 40
0.5
  9
$DIMCEN
 40
13.5
  9
$DIMLFAC
 40
1.0
  9
$DIMBLK
  1
_FILLED
  9
$DIMTXT
 40
1.8
  9
$DIMTOL
 70
1
  9
$DIMLIM
 70
0
  9
$DIMTFAC
 40
1.0
  9
$DIMTP
 40
0.001
  9
$DIMTM
 40
0.001
  9
$DIMGAP
 40
0.625
  9
$DIMDSEP
 70
46
  9
$PDMODE
 70
3
  9
$PDSIZE
 40
1.0
  9
$HANDSEED
  5
40E
  9
$TILEMODE
 70
1
  9
$MEASUREMENT
 70
1
  9
$INSUNITS
 70
4
  0
ENDSEC
  0
SECTION
  2
CLASSES
  0
CLASS
  1
ACDBDICTIONARYWDFLT
  2
AcDbDictionaryWithDefault
  3
AutoCAD 2000
 90
0
 91
1
280
0
281
0
  0
CLASS
  1
ACDBPLACEHOLDER
  2
AcDbPlaceHolder
  3
AutoCAD 2000
 90
0
 91
1
280
0
281
0
  0
CLASS
  1
LAYOUT
  2
AcDbLayout
  3
AutoCAD 2000
 90
0
 91
0
280
0
281
0
  0
ENDSEC
  0
SECTION
  2
TABLES
  0
TABLE
  2
VPORT
  5
8
100
AcDbSymbolTable
 70
2
  0
VPORT
  5
1F4
100
AcDbSymbolTableRecord
100
AcDbViewportTableRecord
  2
*ACTIVE
 70
0
 10
0.0
 20
0.0
 11
1.0
 21
1.0
 12
750.0
 22
550.0
 13
0.0
 23
0.0
 14
1.0
 24
1.0
 15
0.0
 25
0.0
 16
0.0
 26
0.0
 36
1.0
 17
0.0
 27
0.0
 37
0.0
 40
1100.0
 41
1.3636363636
 42
50.0
 43
0.0
 44
0.0
 50
0.0
 51
0.0
 71
0
 72
100
 73
1
 74
1
 75
0
 76
0
 77
0
 78
0
  0
ENDTAB
  0
TABLE
  2
LTYPE
  5
5
100
AcDbSymbolTable
 70
6
  0
LTYPE
  5
14
100
AcDbSymbolTableRecord
100
AcDbLinetypeTableRecord
  2
BYBLOCK
 70
0
  3

 72
65
 73
0
 40
0.0
  0
LTYPE
  5
15
100
AcDbSymbolTableRecord
100
AcDbLinetypeTableRecord
  2
BYLAYER
 70
0
  3

 72
65
 73
0
 40
0.0
  0
LTYPE
  5
16
100
AcDbSymbolTableRecord
100
AcDbLinetypeTableRecord
  2
CONTINUOUS
 70
64
  3
Solid line
 72
65
 73
0
 40
0.0
  0
LTYPE
  5
1F5
100
AcDbSymbolTableRecord
100
AcDbLinetypeTableRecord
  2
CENTER
 70
64
  3
____ _ ____ _ ____ _ ____ _ ____ _ ____ _ ____
 72
65
 73
4
 40
0.6
 49
0.375
 74
0
 49
-0.075
 74
0
 49
0.075
 74
0
 49
-0.075
 74
0
  0
LTYPE
  5
1F6
100
AcDbSymbolTableRecord
100
AcDbLinetypeTableRecord
  2
HIDDEN
 70
64
  3
- - - - - - - - - - - - - - - - - - - -
 72
65
 73
2
 40
0.2
 49
0.1
 74
0
 49
-0.1
 74
0
  0
LTYPE
  5
1F7
100
AcDbSymbolTableRecord
100
AcDbLinetypeTableRecord
  2
PHANTOM
 70
64
  3
_____ _ _ _____ _ _ _____ _ _ _____
 72
65
 73
6
 40
0.8
 49
0.45
 74
0
 49
-0.05
 74
0
 49
0.1
 74
0
 49
-0.05
 74
0
 49
0.1
 74
0
 49
-0.05
 74
0
  0
LTYPE
  5
1F8
100
AcDbSymbolTableRecord
100
AcDbLinetypeTableRecord
  2
DOT
 70
64
  3
. . . . . . . . . . . . . . . . . . . .
 72
65
 73
2
 40
0.2
 49
0.1
 74
0
 49
-0.1
 74
0
  0
LTYPE
  5
1F9
100
AcDbSymbolTableRecord
100
AcDbLinetypeTableRecord
  2
DASHED
 70
64
  3
- - - - - - - - - - - - - - - - - - - -
 72
65
 73
2
 40
0.2
 49
0.1
 74
0
 49
-0.1
 74
0
  0
ENDTAB
  0
TABLE
  2
LAYER
  5
2
100
AcDbSymbolTable
 70
36
  0
LAYER
  5
10
100
AcDbSymbolTableRecord
100
AcDbLayerTableRecord
  2
0
 70
0
 62
7
  6
CONTINUOUS
370
-3
390
F
  0
LAYER
  5
1FA
100
AcDbSymbolTableRecord
100
AcDbLayerTableRecord
  2
DEFAULT_1
 70
0
 62
7
  6
CENTER
370
-3
390
F
  0
LAYER
  5
1FB
100
AcDbSymbolTableRecord
100
AcDbLayerTableRecord
  2
DEFAULT_2
 70
0
 62
8
  6
HIDDEN
370
-3
390
F
  0
LAYER
  5
1FC
100
AcDbSymbolTableRecord
100
AcDbLayerTableRecord
  2
DEFAULT_3
 70
0
 62
7
  6
PHANTOM
370
-3
390
F
  0
ENDTAB
  0
TABLE
  2
STYLE
  5
3
100
AcDbSymbolTable
 70
1
  0
STYLE
  5
11
100
AcDbSymbolTableRecord
100
AcDbTextStyleTableRecord
  2
STANDARD
 70
0
 40
0.0
 41
0.8
 50
0.0
 71
0
 42
0.2
  3
txt
  4

  0
STYLE
  5
1FD
100
AcDbSymbolTableRecord
100
AcDbTextStyleTableRecord
  2
TEXTSTYLE_1
 70
0
 40
0.0
 41
0.8
 50
0.0
 71
0
 42
0.2
  3
gdt
  4

  0
ENDTAB
  0
TABLE
  2
VIEW
  5
6
100
AcDbSymbolTable
 70
0
  0
ENDTAB
  0
TABLE
  2
UCS
  5
7
100
AcDbSymbolTable
 70
0
  0
ENDTAB
  0
TABLE
  2
APPID
  5
9
100
AcDbSymbolTable
 70
1
  0
APPID
  5
1FE
100
AcDbSymbolTableRecord
100
AcDbRegAppTableRecord
  2
ACAD
 70
0
  0
ENDTAB
  0
TABLE
  2
BLOCK_RECORD
  5
1
100
AcDbSymbolTable
 70
0
  0
BLOCK_RECORD
  5
1FF
100
AcDbSymbolTableRecord
100
AcDbBlockTableRecord
  2
*Model_Space
  0
BLOCK_RECORD
  5
200
100
AcDbSymbolTableRecord
100
AcDbBlockTableRecord
  2
*Paper_Space
  0
BLOCK_RECORD
  5
201
100
AcDbSymbolTableRecord
100
AcDbBlockTableRecord
  2
_FILLED
  0
BLOCK_RECORD
  5
202
100
AcDbSymbolTableRecord
100
AcDbBlockTableRecord
  2
*D0
  0
BLOCK_RECORD
  5
203
100
AcDbSymbolTableRecord
100
AcDbBlockTableRecord
  2
*D1
  0
BLOCK_RECORD
  5
204
100
AcDbSymbolTableRecord
100
AcDbBlockTableRecord
  2
*D2
  0
BLOCK_RECORD
  5
205
100
AcDbSymbolTableRecord
100
AcDbBlockTableRecord
  2
*D3
  0
BLOCK_RECORD
  5
206
100
AcDbSymbolTableRecord
100
AcDbBlockTableRecord
  2
*D4
  0
BLOCK_RECORD
  5
207
100
AcDbSymbolTableRecord
100
AcDbBlockTableRecord
  2
*D5
  0
ENDTAB
  0
TABLE
  2
DIMSTYLE
  5
A
100
AcDbSymbolTable
 70
1
100
AcDbDimStyleTable
 71
0
  0
DIMSTYLE
105
208
100
AcDbSymbolTableRecord
100
AcDbDimStyleTableRecord
  2
STANDARD
 70
0
  3

  4

 40
1.0
 41
3.0
 42
0.5
 43
0.38
 44
0.5
 45
0.0
 46
0.0
 47
0.001
 48
0.001
140
1.8
141
0.09
142
0.0
143
25.4
144
1.0
145
0.0
146
1.0
147
0.625
 71
1.0
 72
0.0
 73
0
 74
0
 75
0
 76
0
 77
1
 78
8
170
0
171
2
172
0
173
0
174
0
175
0
176
0
177
0
178
0
270
2
271
3
272
3
273
2
274
2
275
0
280
0
281
0
282
0
283
1
284
8
285
0
286
0
287
3
288
0
340
11
278
46
341
201
342
201
343
201
344
201
  0
DIMSTYLE
105
209
100
AcDbSymbolTableRecord
100
AcDbDimStyleTableRecord
  2
DIMSTYLE_1
 70
0
  3

  4

 40
1.0
 41
3.0
 42
0.5
 43
0.38
 44
0.5
 45
0.0
 46
0.0
 47
0.8
 48
0.8
140
8.0
141
0.09
142
0.0
143
25.4
144
1.0
145
0.0
146
1.0
147
2.0
 71
0.0
 72
0.0
 73
0
 74
0
 75
0
 76
0
 77
1
 78
8
170
0
171
2
172
0
173
0
174
0
175
0
176
0
177
0
178
0
270
2
271
3
272
3
273
2
274
2
275
0
280
0
281
0
282
0
283
1
284
8
285
0
286
0
287
3
288
0
340
11
278
46
341
201
342
201
343
201
344
201
  0
DIMSTYLE
105
20A
100
AcDbSymbolTableRecord
100
AcDbDimStyleTableRecord
  2
DIMSTYLE_2
 70
0
  3

  4

 40
1.0
 41
3.0
 42
0.5
 43
0.38
 44
0.5
 45
0.0
 46
0.0
 47
0.5
 48
0.5
140
8.0
141
0.09
142
0.0
143
25.4
144
1.0
145
0.0
146
1.0
147
2.0
 71
0.0
 72
0.0
 73
0
 74
0
 75
0
 76
0
 77
1
 78
8
170
0
171
2
172
0
173
0
174
0
175
0
176
0
177
0
178
0
270
2
271
3
272
3
273
2
274
2
275
0
280
0
281
0
282
0
283
1
284
8
285
0
286
0
287
3
288
0
340
11
278
46
341
201
342
201
343
201
344
201
  0
ENDTAB
  0
ENDSEC
  0
SECTION
  2
BLOCKS
  0
BLOCK
  5
20
100
AcDbEntity
  8
0
100
AcDbBlockBegin
  2
*Model_Space
 70
0
 10
0.0
 20
0.0
 30
0.0
  3
*Model_Space
  1

  0
ENDBLK
  5
21
100
AcDbEntity
  8
0
100
AcDbBlockEnd
  0
BLOCK
  5
1C
100
AcDbEntity
  8
0
100
AcDbBlockBegin
  2
*Paper_Space
 70
0
 10
0.0
 20
0.0
 30
0.0
  3
*Paper_Space
  1

  0
ENDBLK
  5
1D
100
AcDbEntity
  8
0
100
AcDbBlockEnd
  0
BLOCK
  5
20B
100
AcDbEntity
  8
0
100
AcDbBlockBegin
  2
_FILLED
 70
64
 10
0.0
 20
0.0
  3
_FILLED
  1

  0
SOLID
  5
20C
100
AcDbEntity
  8
0
  6
BYBLOCK
 62
0
100
AcDbTrace
 10
0.0
 20
0.0
 11
-1.0
 21
0.1666666667
 12
-1.0
 22
-0.1666666667
 13
-1.0
 23
-0.1666666667
  0
ENDBLK
  5
20D
100
AcDbEntity
  8
0
  6
BYBLOCK
 62
0
100
AcDbBlockEnd
  0
BLOCK
  5
20E
100
AcDbEntity
  8
0
100
AcDbBlockBegin
 62
2
  6
CONTINUOUS
  2
*D0
 70
65
 10
0.0
 20
0.0
  3
*D0
  1

  0
MTEXT
  5
20F
100
AcDbEntity
  8
0
100
AcDbMText
 62
2
  6
CONTINUOUS
  7
STANDARD
 71
2
 72
1
 10
1043.5308412742
 20
253.1864094495
 30
0.0
 11
0.9681003459
 21
0.2505628071
 31
0.0
 44
0.9
  1
600
 40
8.0
 41
37.0285714286
  0
LINE
  5
210
100
AcDbEntity
  8
0
100
AcDbLine
 62
2
  6
CONTINUOUS
 10
1142.0267655341
 20
326.7448024195
 11
1258.1619670401
 21
296.6812979241
  0
LINE
  5
211
100
AcDbEntity
  8
0
100
AcDbLine
 62
2
  6
CONTINUOUS
 10
719.4597530971
 20
217.3764117687
 11
835.5949546031
 21
187.3129072733
  0
LINE
  5
212
100
AcDbEntity
  8
0
100
AcDbLine
 62
2
  6
CONTINUOUS
 10
1257.6779224308
 20
296.8066008219
 11
1046.3944162123
 21
242.1224054965
  0
LINE
  5
213
100
AcDbEntity
  8
0
100
AcDbLine
 62
2
  6
CONTINUOUS
 10
835.1109099937
 20
187.4382101711
 11
1046.3944162123
 21
242.1224054965
  0
INSERT
  5
214
100
AcDbEntity
  8
0
100
AcDbBlockReference
 62
2
  6
CONTINUOUS
  2
_FILLED
 10
1257.6779224308
 20
296.8066008219
 41
3.0
 42
3.0
 43
3.0
 50
14.5108186991
  0
INSERT
  5
215
100
AcDbEntity
  8
0
100
AcDbBlockReference
 62
2
  6
CONTINUOUS
  2
_FILLED
 10
835.1109099937
 20
187.4382101711
 41
3.0
 42
3.0
 43
3.0
 50
194.5108186991
  0
ENDBLK
  5
216
100
AcDbEntity
  8
0
  6
BYBLOCK
 62
0
100
AcDbBlockEnd
  0
BLOCK
  5
217
100
AcDbEntity
  8
0
100
AcDbBlockBegin
 62
2
  6
CONTINUOUS
  2
*D1
 70
65
 10
0.0
 20
0.0
  3
*D1
  1

  0
MTEXT
  5
218
100
AcDbEntity
  8
0
100
AcDbMText
 62
2
  6
CONTINUOUS
  7
STANDARD
 71
2
 72
1
 10
430.7134239131
 20
244.5585647996
 30
0.0
 11
0.9681003459
 21
-0.2505628071
 31
0.0
 44
0.9
  1
500
 40
8.0
 41
37.0285714286
  0
LINE
  5
219
100
AcDbEntity
  8
0
100
AcDbLine
 62
2
  6
CONTINUOUS
 10
718.4918278029
 20
217.375780228
 11
604.1428597806
 21
187.6154001562
  0
LINE
  5
21A
100
AcDbEntity
  8
0
100
AcDbLine
 62
2
  6
CONTINUOUS
 10
364.7970158534
 20
308.8455286337
 11
250.5890767996
 21
279.1218526598
  0
LINE
  5
21B
100
AcDbEntity
  8
0
100
AcDbLine
 62
2
  6
CONTINUOUS
 10
604.6267404654
 20
187.7413345948
 11
427.849848975
 21
233.4945608466
  0
LINE
  5
21C
100
AcDbEntity
  8
0
100
AcDbLine
 62
2
  6
CONTINUOUS
 10
251.0729574845
 20
279.2477870983
 11
427.849848975
 21
233.4945608466
  0
INSERT
  5
21D
100
AcDbEntity
  8
0
100
AcDbBlockReference
 62
2
  6
CONTINUOUS
  2
_FILLED
 10
604.6267404654
 20
187.7413345948
 41
3.0
 42
3.0
 43
3.0
 50
345.4891813009
  0
INSERT
  5
21E
100
AcDbEntity
  8
0
100
AcDbBlockReference
 62
2
  6
CONTINUOUS
  2
_FILLED
 10
251.0729574845
 20
279.2477870983
 41
3.0
 42
3.0
 43
3.0
 50
165.4891813009
  0
ENDBLK
  5
21F
100
AcDbEntity
  8
0
  6
BYBLOCK
 62
0
100
AcDbBlockEnd
  0
BLOCK
  5
220
100
AcDbEntity
  8
0
100
AcDbBlockBegin
 62
2
  6
CONTINUOUS
  2
*D2
 70
65
 10
0.0
 20
0.0
  3
*D2
  1

  0
MTEXT
  5
221
100
AcDbEntity
  8
0
100
AcDbMText
 62
2
  6
CONTINUOUS
  7
STANDARD
 71
2
 72
1
 10
303.8110786753
 20
580.5428162879
 30
0.0
 11
0.0
 21
1.0
 31
0.0
 44
0.9
  1
490 - 970
 40
8.0
 41
111.0857142857
  0
LINE
  5
222
100
AcDbEntity
  8
0
100
AcDbLine
 62
2
  6
CONTINUOUS
 10
364.7975145427
 20
356.3027178737
 11
314.7562681083
 21
343.0688068568
  0
LINE
  5
223
100
AcDbEntity
  8
0
100
AcDbLine
 62
2
  6
CONTINUOUS
 10
459.5851785607
 20
856.0626175534
 11
314.7562681083
 21
817.7611552562
  0
LINE
  5
224
100
AcDbEntity
  8
0
100
AcDbLine
 62
2
  6
CONTINUOUS
 10
315.2396501039
 20
343.1966420881
 11
315.2396501039
 21
580.5428162879
  0
LINE
  5
225
100
AcDbEntity
  8
0
100
AcDbLine
 62
2
  6
CONTINUOUS
 10
315.2396501039
 20
817.8889904876
 11
315.2396501039
 21
580.5428162879
  0
INSERT
  5
226
100
AcDbEntity
  8
0
100
AcDbBlockReference
 62
2
  6
CONTINUOUS
  2
_FILLED
 10
315.2396501039
 20
343.1966420881
 41
3.0
 42
3.0
 43
3.0
 50
270.0
  0
INSERT
  5
227
100
AcDbEntity
  8
0
100
AcDbBlockReference
 62
2
  6
CONTINUOUS
  2
_FILLED
 10
315.2396501039
 20
817.8889904876
 41
3.0
 42
3.0
 43
3.0
 50
90.0
  0
ENDBLK
  5
228
100
AcDbEntity
  8
0
  6
BYBLOCK
 62
0
100
AcDbBlockEnd
  0
BLOCK
  5
229
100
AcDbEntity
  8
0
100
AcDbBlockBegin
 62
2
  6
CONTINUOUS
  2
*D3
 70
65
 10
0.0
 20
0.0
  3
*D3
  1

  0
MTEXT
  5
22A
100
AcDbEntity
  8
0
100
AcDbMText
 62
2
  6
CONTINUOUS
  7
STANDARD
 71
2
 72
1
 10
239.7200636212
 20
540.1828730579
 30
0.0
 11
0.0
 21
1.0
 31
0.0
 44
0.9
  1
540 - 1020
 40
8.0
 41
123.4285714286
  0
LINE
  5
22B
100
AcDbEntity
  8
0
100
AcDbLine
 62
2
  6
CONTINUOUS
 10
364.7972784266
 20
308.8445240234
 11
250.6650169382
 21
278.8873318168
  0
LINE
  5
22C
100
AcDbEntity
  8
0
100
AcDbLine
 62
2
  6
CONTINUOUS
 10
460.164841432
 20
856.2136026381
 11
250.6650169382
 21
801.2245362011
  0
LINE
  5
22D
100
AcDbEntity
  8
0
100
AcDbLine
 62
2
  6
CONTINUOUS
 10
251.1486350498
 20
279.0142708658
 11
251.1486350498
 21
540.1828730579
  0
LINE
  5
22E
100
AcDbEntity
  8
0
100
AcDbLine
 62
2
  6
CONTINUOUS
 10
251.1486350498
 20
801.35147525
 11
251.1486350498
 21
540.1828730579
  0
INSERT
  5
22F
100
AcDbEntity
  8
0
100
AcDbBlockReference
 62
2
  6
CONTINUOUS
  2
_FILLED
 10
251.1486350498
 20
279.0142708658
 41
3.0
 42
3.0
 43
3.0
 50
270.0
  0
INSERT
  5
230
100
AcDbEntity
  8
0
100
AcDbBlockReference
 62
2
  6
CONTINUOUS
  2
_FILLED
 10
251.1486350498
 20
801.35147525
 41
3.0
 42
3.0
 43
3.0
 50
90.0
  0
ENDBLK
  5
231
100
AcDbEntity
  8
0
  6
BYBLOCK
 62
0
100
AcDbBlockEnd
  0
BLOCK
  5
232
100
AcDbEntity
  8
0
100
AcDbBlockBegin
 62
2
  6
CONTINUOUS
  2
*D4
 70
65
 10
0.0
 20
0.0
  3
*D4
  1

  0
MTEXT
  5
233
100
AcDbEntity
  8
0
100
AcDbMText
 62
2
  6
CONTINUOUS
  7
STANDARD
 71
2
 72
1
 10
872.878050677
 20
922.2908044475
 30
0.0
 11
0.9681003459
 21
-0.2505628071
 31
0.0
 44
0.9
  1
273
 40
8.0
 41
37.0285714286
  0
LINE
  5
234
100
AcDbEntity
  8
0
100
AcDbLine
 62
2
  6
CONTINUOUS
 10
690.9989028045
 20
915.9588292099
 11
772.1048093963
 21
936.8175548413
  0
LINE
  5
235
100
AcDbEntity
  8
0
100
AcDbLine
 62
2
  6
CONTINUOUS
 10
887.7867200087
 20
865.0263942733
 11
968.8926266005
 21
885.8851199047
  0
LINE
  5
236
100
AcDbEntity
  8
0
100
AcDbLine
 62
2
  6
CONTINUOUS
 10
771.6205671368
 20
936.6930179628
 11
870.0144757389
 21
911.2268004945
  0
LINE
  5
237
100
AcDbEntity
  8
0
100
AcDbLine
 62
2
  6
CONTINUOUS
 10
968.408384341
 20
885.7605830262
 11
870.0144757389
 21
911.2268004945
  0
INSERT
  5
238
100
AcDbEntity
  8
0
100
AcDbBlockReference
 62
2
  6
CONTINUOUS
  2
_FILLED
 10
771.6205671368
 20
936.6930179628
 41
3.0
 42
3.0
 43
3.0
 50
165.4891813009
  0
INSERT
  5
239
100
AcDbEntity
  8
0
100
AcDbBlockReference
 62
2
  6
CONTINUOUS
  2
_FILLED
 10
968.408384341
 20
885.7605830262
 41
3.0
 42
3.0
 43
3.0
 50
345.4891813009
  0
ENDBLK
  5
23A
100
AcDbEntity
  8
0
  6
BYBLOCK
 62
0
100
AcDbBlockEnd
  0
BLOCK
  5
23B
100
AcDbEntity
  8
0
100
AcDbBlockBegin
 62
2
  6
CONTINUOUS
  2
*D5
 70
65
 10
0.0
 20
0.0
  3
*D5
  1

  0
MTEXT
  5
23C
100
AcDbEntity
  8
0
100
AcDbMText
 62
2
  6
CONTINUOUS
  7
STANDARD
 71
2
 72
1
 10
504.2775824856
 20
914.7035420133
 30
0.0
 11
0.9681003459
 21
0.2505628071
 31
0.0
 44
0.9
  1
300
 40
8.0
 41
37.0285714286
  0
LINE
  5
23D
100
AcDbEntity
  8
0
100
AcDbLine
 62
2
  6
CONTINUOUS
 10
690.0305906162
 20
915.9594973794
 11
621.8801374892
 21
933.5866628816
  0
LINE
  5
23E
100
AcDbEntity
  8
0
100
AcDbLine
 62
2
  6
CONTINUOUS
 10
459.5844906275
 20
856.3156578327
 11
391.4340375005
 21
873.9428233349
  0
LINE
  5
23F
100
AcDbEntity
  8
0
100
AcDbLine
 62
2
  6
CONTINUOUS
 10
622.364207418
 20
933.4614578337
 11
507.1411574237
 21
903.6395380603
  0
LINE
  5
240
100
AcDbEntity
  8
0
100
AcDbLine
 62
2
  6
CONTINUOUS
 10
391.9181074293
 20
873.817618287
 11
507.1411574237
 21
903.6395380603
  0
INSERT
  5
241
100
AcDbEntity
  8
0
100
AcDbBlockReference
 62
2
  6
CONTINUOUS
  2
_FILLED
 10
622.364207418
 20
933.4614578337
 41
3.0
 42
3.0
 43
3.0
 50
14.5108186991
  0
INSERT
  5
242
100
AcDbEntity
  8
0
100
AcDbBlockReference
 62
2
  6
CONTINUOUS
  2
_FILLED
 10
391.9181074293
 20
873.817618287
 41
3.0
 42
3.0
 43
3.0
 50
194.5108186991
  0
ENDBLK
  5
243
100
AcDbEntity
  8
0
  6
BYBLOCK
 62
0
100
AcDbBlockEnd
  0
ENDSEC
  0
SECTION
  2
ENTITIES
  0
DIMENSION
  5
244
100
AcDbEntity
  8
0
100
AcDbDimension
 62
2
  6
CONTINUOUS
  2
*D0
 10
835.1109099937
 20
187.4382101711
 11
1046.3944162123
 21
242.1224054965
 70
160
 71
2
 42
436.4909218684
  3
DIMSTYLE_1
100
AcDbAlignedDimension
 13
1141.9014841306
 23
327.2288525925
 14
719.3344716935
 24
217.8604619417
 50
194.5108186991
100
AcDbRotatedDimension
  0
DIMENSION
  5
245
100
AcDbEntity
  8
0
100
AcDbDimension
 62
2
  6
CONTINUOUS
  2
*D1
 10
251.0729574845
 20
279.2477870983
 11
427.849848975
 21
233.4945608466
 70
160
 71
2
 42
365.3309867105
  3
DIMSTYLE_2
100
AcDbAlignedDimension
 13
718.6171092064
 23
217.8598304009
 14
364.9222972569
 24
309.3295788066
 50
165.4891813009
100
AcDbRotatedDimension
  0
DIMENSION
  5
246
100
AcDbEntity
  8
0
100
AcDbDimension
 62
2
  6
CONTINUOUS
  2
*D2
 10
315.2396501039
 20
817.8889904876
 11
315.2396501039
 21
580.5428162879
 70
160
 71
2
 42
499.7598996797
  1
<> - 970
  3
DIMSTYLE_1
100
AcDbAlignedDimension
 13
365.2975145427
 23
356.3027178737
 14
460.0851785607
 24
856.0626175534
 50
90.0
100
AcDbRotatedDimension
  0
DIMENSION
  5
247
100
AcDbEntity
  8
0
100
AcDbDimension
 62
2
  6
CONTINUOUS
  2
*D3
 10
251.1486350498
 20
801.35147525
 11
251.1486350498
 21
540.1828730579
 70
160
 71
2
 42
547.3690786147
  1
<> - 1020
  3
DIMSTYLE_1
100
AcDbAlignedDimension
 13
365.2972784266
 23
308.8445240234
 14
460.664841432
 24
856.2136026381
 50
90.0
100
AcDbRotatedDimension
  0
DIMENSION
  5
248
100
AcDbEntity
  8
0
100
AcDbDimension
 62
2
  6
CONTINUOUS
  2
*D4
 10
968.408384341
 20
885.7605830262
 11
870.0144757389
 21
911.2268004945
 70
160
 71
2
 42
203.2721277711
  3
DIMSTYLE_2
100
AcDbAlignedDimension
 13
690.873621401
 23
915.474779037
 14
887.6614386052
 24
864.5423441004
 50
345.4891813009
100
AcDbRotatedDimension
  0
DIMENSION
  5
249
100
AcDbEntity
  8
0
100
AcDbDimension
 62
2
  6
CONTINUOUS
  2
*D5
 10
391.9181074293
 20
873.817618287
 11
507.1411574237
 21
903.6395380603
 70
160
 71
2
 42
238.0394769694
  3
DIMSTYLE_2
100
AcDbAlignedDimension
 13
690.1558720197
 23
915.4754472065
 14
459.709772031
 24
855.8316076598
 50
194.5108186991
100
AcDbRotatedDimension
  0
LINE
  5
24A
100
AcDbEntity
  8
0
100
AcDbLine
 62
7
  6
CONTINUOUS
 10
365.2808965382
 20
355.4968575891
 11
365.2808965382
 21
309.9051585883
  0
LINE
  5
24B
100
AcDbEntity
  8
0
100
AcDbLine
 62
7
  6
CONTINUOUS
 10
1140.4232930313
 20
326.5803760589
 11
718.8168132538
 21
217.4605895538
  0
LINE
  5
24C
100
AcDbEntity
  8
0
100
AcDbLine
 62
7
  6
CONTINUOUS
 10
718.6808283297
 20
218.0987844859
 11
718.6255676938
 21
218.0844819809
  0
LINE
  5
24D
100
AcDbEntity
  8
0
100
AcDbLine
 62
7
  6
CONTINUOUS
 10
1141.5427209248
 20
327.8038008333
 11
718.9757084877
 21
218.4354101825
  0
LINE
  5
24E
100
AcDbEntity
  8
0
100
AcDbLine
 62
7
  6
CONTINUOUS
 10
718.551444419
 20
218.5452178037
 11
718.4100230628
 21
218.5086152633
  0
LINE
  5
24F
100
AcDbEntity
  8
0
100
AcDbLine
 62
7
  6
CONTINUOUS
 10
717.9762492939
 20
217.68718866
 11
365.920058102
 21
308.8060358867
  0
LINE
  5
250
100
AcDbEntity
  8
0
100
AcDbLine
 62
7
  6
CONTINUOUS
 10
718.4100230628
 20
218.5086152633
 11
365.2808965382
 21
309.9051585883
  0
LINE
  5
251
100
AcDbEntity
  8
0
100
AcDbLine
 62
7
  6
CONTINUOUS
 10
718.551444419
 20
218.5452178037
 11
718.9757084877
 21
218.4354101825
  0
LINE
  5
252
100
AcDbEntity
  8
0
100
AcDbLine
 62
7
  6
CONTINUOUS
 10
460.6484595436
 20
381.1134946959
 11
460.6484595436
 21
856.0440426233
  0
LINE
  5
253
100
AcDbEntity
  8
0
100
AcDbLine
 62
7
  6
CONTINUOUS
 10
461.05851005
 20
381.2196235764
 11
461.05851005
 21
855.9342350022
  0
LINE
  5
254
100
AcDbEntity
  8
0
100
AcDbLine
 62
7
  6
CONTINUOUS
 10
461.4827741187
 20
856.0440426233
 11
461.4827741187
 21
856.3368629463
  0
LINE
  5
255
100
AcDbEntity
  8
0
100
AcDbLine
 62
7
  6
CONTINUOUS
 10
467.06891769
 20
854.5982422784
 11
467.06891769
 21
857.7826632913
  0
LINE
  5
256
100
AcDbEntity
  8
0
100
AcDbLine
 62
7
  6
CONTINUOUS
 10
468.2002885399
 20
854.3054219553
 11
468.2002885399
 21
857.7826632913
  0
LINE
  5
257
100
AcDbEntity
  8
0
100
AcDbLine
 62
7
  6
CONTINUOUS
 10
471.3438163055
 20
378.6046752887
 11
471.3438163055
 21
378.5680788468
  0
LINE
  5
258
100
AcDbEntity
  8
0
100
AcDbLine
 62
7
  6
CONTINUOUS
 10
472.3337657992
 20
378.4422924306
 11
472.3337657992
 21
378.8608930714
  0
LINE
  5
259
100
AcDbEntity
  8
0
100
AcDbLine
 62
7
  6
CONTINUOUS
 10
477.1098339829
 20
853.5448515949
 11
477.1098339829
 21
851.9994619115
  0
LINE
  5
25A
100
AcDbEntity
  8
0
100
AcDbLine
 62
7
  6
CONTINUOUS
 10
477.5340980516
 20
853.654659216
 11
477.5340980516
 21
851.8896542903
  0
LINE
  5
25B
100
AcDbEntity
  8
0
100
AcDbLine
 62
2
  6
CONTINUOUS
 10
755.9639792036
 20
245.9708683184
 11
787.783784355
 21
254.206439903
  0
LINE
  5
25C
100
AcDbEntity
  8
0
100
AcDbLine
 62
2
  6
CONTINUOUS
 10
786.9834278671
 20
256.4092773376
 11
786.3046053572
 21
256.2335851437
  0
LINE
  5
25D
100
AcDbEntity
  8
0
100
AcDbLine
 62
2
  6
CONTINUOUS
 10
784.5209285018
 20
255.7719356032
 11
783.8421059919
 21
255.5962434094
  0
LINE
  5
25E
100
AcDbEntity
  8
0
100
AcDbLine
 62
2
  6
CONTINUOUS
 10
765.8365156937
 20
250.936053722
 11
765.1576931838
 21
250.7603615281
  0
LINE
  5
25F
100
AcDbEntity
  8
0
100
AcDbLine
 62
2
  6
CONTINUOUS
 10
763.3740163284
 20
250.2987119877
 11
762.6951938184
 21
250.1230197938
  0
LINE
  5
260
100
AcDbEntity
  8
0
100
AcDbLine
 62
2
  6
CONTINUOUS
 10
758.169710419
 20
248.9517385018
 11
758.8662105985
 21
249.1320060131
  0
LINE
  5
261
100
AcDbEntity
  8
0
100
AcDbLine
 62
2
  6
CONTINUOUS
 10
760.055475816
 20
249.4398105011
 11
760.751092112
 21
249.6198492466
  0
LINE
  5
262
100
AcDbEntity
  8
0
100
AcDbLine
 62
2
  6
CONTINUOUS
 10
761.5969685989
 20
249.8387781912
 11
762.3694827573
 21
250.038719568
  0
LINE
  5
263
100
AcDbEntity
  8
0
100
AcDbLine
 62
2
  6
CONTINUOUS
 10
766.106100154
 20
251.0058273145
 11
766.7859077488
 21
251.1817744671
  0
LINE
  5
264
100
AcDbEntity
  8
0
100
AcDbLine
 62
2
  6
CONTINUOUS
 10
767.813781679
 20
251.4478078162
 11
768.2229394594
 21
251.5537056422
  0
LINE
  5
265
100
AcDbEntity
  8
0
100
AcDbLine
 62
2
  6
CONTINUOUS
 10
769.2594034843
 20
251.8219622714
 11
769.9386189078
 21
251.9977561588
  0
LINE
  5
266
100
AcDbEntity
  8
0
100
AcDbLine
 62
2
  6
CONTINUOUS
 10
773.5687283455
 20
252.937297617
 11
774.2643446414
 21
253.1173363625
  0
LINE
  5
267
100
AcDbEntity
  8
0
100
AcDbLine
 62
2
  6
CONTINUOUS
 10
775.6829776211
 20
253.4845055956
 11
776.378593917
 21
253.6645443411
  0
LINE
  5
268
100
AcDbEntity
  8
0
100
AcDbLine
 62
2
  6
CONTINUOUS
 10
777.5081969999
 20
253.9569071324
 11
778.2046971793
 21
254.1371746437
  0
LINE
  5
269
100
AcDbEntity
  8
0
100
AcDbLine
 62
2
  6
CONTINUOUS
 10
779.3948462803
 20
254.4452078976
 11
780.0904625762
 21
254.625246643
  0
LINE
  5
26A
100
AcDbEntity
  8
0
100
AcDbLine
 62
2
  6
CONTINUOUS
 10
780.6795709132
 20
254.7777191003
 11
781.3751872091
 21
254.9577578457
  0
LINE
  5
26B
100
AcDbEntity
  8
0
100
AcDbLine
 62
2
  6
CONTINUOUS
 10
782.7938201888
 20
255.3249270789
 11
783.4894364847
 21
255.5049658244
  0
LINE
  5
26C
100
AcDbEntity
  8
0
100
AcDbLine
 62
2
  6
CONTINUOUS
 10
786.0540243916
 20
257.0392706683
 11
784.7715094673
 21
256.7073313803
  0
LINE
  5
26D
100
AcDbEntity
  8
0
100
AcDbLine
 62
2
  6
CONTINUOUS
 10
764.9071122182
 20
251.5660470528
 11
763.6245972939
 21
251.2341077647
  0
LINE
  5
26E
100
AcDbEntity
  8
0
100
AcDbLine
 62
2
  6
CONTINUOUS
 10
785.8295179886
 20
257.7635640547
 11
784.9960158703
 21
257.5478378324
  0
LINE
  5
26F
100
AcDbEntity
  8
0
100
AcDbLine
 62
2
  6
CONTINUOUS
 10
764.6826058151
 20
252.2903404391
 11
763.8491036968
 21
252.0746142167
  0
LINE
  5
270
100
AcDbEntity
  8
0
100
AcDbLine
 62
2
  6
CONTINUOUS
 10
760.751092112
 20
252.0322489976
 11
760.9747146315
 21
252.0901267645
  0
LINE
  5
271
100
AcDbEntity
  8
0
100
AcDbLine
 62
2
  6
CONTINUOUS
 10
761.2009888015
 20
253.296935155
 11
760.751092112
 21
253.1804933235
  0
LINE
  5
272
100
AcDbEntity
  8
0
100
AcDbLine
 62
2
  6
CONTINUOUS
 10
757.4232708232
 20
252.3203972025
 11
758.169710419
 21
252.5135899859
  0
LINE
  5
273
100
AcDbEntity
  8
0
100
AcDbLine
 62
2
  6
CONTINUOUS
 10
758.8662105985
 20
252.6938574973
 11
759.6126501943
 21
252.8870502807
  0
LINE
  5
274
100
AcDbEntity
  8
0
100
AcDbLine
 62
2
  6
CONTINUOUS
 10
776.7617574041
 20
257.3255658331
 11
777.5081969999
 21
257.5187586165
  0
LINE
  5
275
100
AcDbEntity
  8
0
100
AcDbLine
 62
2
  6
CONTINUOUS
 10
778.2046971793
 20
257.6990261279
 11
778.9511367752
 21
257.8922189113
  0
LINE
  5
276
100
AcDbEntity
  8
0
100
AcDbLine
 62
2
  6
CONTINUOUS
 10
757.4232708232
 20
253.1076267509
 11
759.6126501943
 21
253.6742798291
  0
LINE
  5
277
100
AcDbEntity
  8
0
100
AcDbLine
 62
2
  6
CONTINUOUS
 10
760.055475816
 20
253.7888915337
 11
761.2451829753
 21
254.0968104046
  0
LINE
  5
278
100
AcDbEntity
  8
0
100
AcDbLine
 62
2
  6
CONTINUOUS
 10
763.9441211706
 20
254.7953470111
 11
764.5875883415
 21
254.9618885698
  0
LINE
  5
279
100
AcDbEntity
  8
0
100
AcDbLine
 62
2
  6
CONTINUOUS
 10
766.6275914051
 20
255.4898802148
 11
767.3320465358
 21
255.672206619
  0
LINE
  5
27A
100
AcDbEntity
  8
0
100
AcDbLine
 62
2
  6
CONTINUOUS
 10
768.7303501956
 20
256.034114237
 11
769.4348053263
 21
256.2164406412
  0
LINE
  5
27B
100
AcDbEntity
  8
0
100
AcDbLine
 62
2
  6
CONTINUOUS
 10
773.5687283455
 20
257.2863786496
 11
774.2643446414
 21
257.4664173951
  0
LINE
  5
27C
100
AcDbEntity
  8
0
100
AcDbLine
 62
2
  6
CONTINUOUS
 10
775.6829776211
 20
257.8335866282
 11
776.378593917
 21
258.0136253737
  0
LINE
  5
27D
100
AcDbEntity
  8
0
100
AcDbLine
 62
2
  6
CONTINUOUS
 10
776.7617574041
 20
258.1127953815
 11
778.9511367752
 21
258.6794484597
  0
LINE
  5
27E
100
AcDbEntity
  8
0
100
AcDbLine
 62
2
  6
CONTINUOUS
 10
779.3948462803
 20
258.7942889301
 11
780.0904625762
 21
258.9743276756
  0
LINE
  5
27F
100
AcDbEntity
  8
0
100
AcDbLine
 62
2
  6
CONTINUOUS
 10
780.6795709132
 20
259.1268001329
 11
781.3751872091
 21
259.3068388783
  0
LINE
  5
280
100
AcDbEntity
  8
0
100
AcDbLine
 62
2
  6
CONTINUOUS
 10
782.7938201888
 20
259.6740081115
 11
783.4894364847
 21
259.8540468569
  0
LINE
  5
281
100
AcDbEntity
  8
0
100
AcDbLine
 62
2
  6
CONTINUOUS
 10
785.0910333441
 20
260.2685706267
 11
785.7345005149
 21
260.4351121854
  0
LINE
  5
282
100
AcDbEntity
  8
0
100
AcDbLine
 62
2
  6
CONTINUOUS
 10
755.9639792036
 20
255.6301265805
 11
787.783784355
 21
263.8656981651
  0
LINE
  5
283
100
AcDbEntity
  8
0
100
AcDbLine
 62
7
  6
CONTINUOUS
 10
718.609510806
 20
263.8244188127
 11
718.4100230628
 21
263.7727875855
  0
LINE
  5
284
100
AcDbEntity
  8
0
100
AcDbLine
 62
7
  6
CONTINUOUS
 10
1141.395407981
 20
373.3573724387
 11
719.1230214316
 21
264.0652365788
  0
LINE
  5
285
100
AcDbEntity
  8
0
100
AcDbLine
 62
7
  6
CONTINUOUS
 10
718.6961866768
 20
264.1849765682
 11
718.3895498579
 21
264.1056131195
  0
LINE
  5
286
100
AcDbEntity
  8
0
100
AcDbLine
 62
7
  6
CONTINUOUS
 10
1139.279979225
 20
374.6745909102
 11
719.2585512002
 21
265.9650459862
  0
LINE
  5
287
100
AcDbEntity
  8
0
100
AcDbLine
 62
7
  6
CONTINUOUS
 10
718.737055557
 20
264.2806199422
 11
718.381307399
 21
264.2329634377
  0
LINE
  5
288
100
AcDbEntity
  8
0
100
AcDbLine
 62
7
  6
CONTINUOUS
 10
718.551444419
 20
263.2342755646
 11
718.9757084877
 21
263.1244679435
  0
LINE
  5
289
100
AcDbEntity
  8
0
100
AcDbLine
 62
7
  6
CONTINUOUS
 10
718.3895498579
 20
264.1056131195
 11
365.2808965382
 21
355.4968575891
  0
LINE
  5
28A
100
AcDbEntity
  8
0
100
AcDbLine
 62
7
  6
CONTINUOUS
 10
718.6987573629
 20
264.1750442
 11
719.1230214316
 21
264.0652365788
  0
LINE
  5
28B
100
AcDbEntity
  8
0
100
AcDbLine
 62
7
  6
CONTINUOUS
 10
718.5893381572
 20
265.9186358247
 11
367.2607955256
 21
356.8491537459
  0
LINE
  5
28C
100
AcDbEntity
  8
0
100
AcDbLine
 62
7
  6
CONTINUOUS
 10
718.9962269713
 20
218.1591550722
 11
718.5820974273
 21
218.3922567091
  0
LINE
  5
28D
100
AcDbEntity
  8
0
100
AcDbLine
 62
7
  6
CONTINUOUS
 10
471.4852376617
 20
378.5680727484
 11
656.7875194191
 21
330.6083131286
  0
LINE
  5
28E
100
AcDbEntity
  8
0
100
AcDbLine
 62
7
  6
CONTINUOUS
 10
471.8360255916
 20
378.5711170758
 11
656.6236739135
 21
330.7445543904
  0
LINE
  5
28F
100
AcDbEntity
  8
0
100
AcDbLine
 62
7
  6
CONTINUOUS
 10
462.3206956544
 20
381.4524663248
 11
472.3337657992
 21
378.8608930714
  0
LINE
  5
290
100
AcDbEntity
  8
0
100
AcDbLine
 62
7
  6
CONTINUOUS
 10
905.6558172978
 20
285.4727409951
 11
911.5085832702
 21
283.9579336949
  0
LINE
  5
291
100
AcDbEntity
  8
0
100
AcDbLine
 62
7
  6
CONTINUOUS
 10
916.9695257968
 20
288.4009442254
 11
922.8222917691
 21
286.8861369252
  0
LINE
  5
292
100
AcDbEntity
  8
0
100
AcDbLine
 62
7
  6
CONTINUOUS
 10
907.7234254528
 20
293.2012108056
 11
913.5130857268
 21
291.702736462
  0
LINE
  5
293
100
AcDbEntity
  8
0
100
AcDbLine
 62
7
  6
CONTINUOUS
 10
928.2832342958
 20
291.3291474556
 11
934.1360002681
 21
289.8143401555
  0
LINE
  5
294
100
AcDbEntity
  8
0
100
AcDbLine
 62
7
  6
CONTINUOUS
 10
919.0371339518
 20
296.1294140359
 11
924.8267942258
 21
294.6309396923
  0
LINE
  5
295
100
AcDbEntity
  8
0
100
AcDbLine
 62
7
  6
CONTINUOUS
 10
718.6255676938
 20
217.5049264851
 11
718.2312027194
 21
217.9634745502
  0
LINE
  5
296
100
AcDbEntity
  8
0
100
AcDbLine
 62
7
  6
CONTINUOUS
 10
718.6255676938
 20
218.0844819809
 11
718.5048928477
 21
218.2247967166
  0
LINE
  5
297
100
AcDbEntity
  8
0
100
AcDbLine
 62
7
  6
CONTINUOUS
 10
657.0703621316
 20
330.6083131286
 11
889.5175743111
 21
390.7700786216
  0
LINE
  5
298
100
AcDbEntity
  8
0
100
AcDbLine
 62
7
  6
CONTINUOUS
 10
657.2342076372
 20
330.7445543904
 11
888.6521529456
 21
390.6399260147
  0
LINE
  5
299
100
AcDbEntity
  8
0
100
AcDbLine
 62
7
  6
CONTINUOUS
 10
939.5969427948
 20
294.2573506859
 11
945.4497087671
 21
292.7425433857
  0
LINE
  5
29A
100
AcDbEntity
  8
0
100
AcDbLine
 62
7
  6
CONTINUOUS
 10
930.3508424508
 20
299.0576172662
 11
936.1405027248
 21
297.5591429226
  0
LINE
  5
29B
100
AcDbEntity
  8
0
100
AcDbLine
 62
7
  6
CONTINUOUS
 10
950.9106512937
 20
297.1855539162
 11
956.7634172661
 21
295.670746616
  0
LINE
  5
29C
100
AcDbEntity
  8
0
100
AcDbLine
 62
7
  6
CONTINUOUS
 10
941.6645509498
 20
301.9858204964
 11
947.4542112238
 21
300.4873461528
  0
LINE
  5
29D
100
AcDbEntity
  8
0
100
AcDbLine
 62
7
  6
CONTINUOUS
 10
952.9782594488
 20
304.9140237267
 11
958.7679197228
 21
303.4155493831
  0
LINE
  5
29E
100
AcDbEntity
  8
0
100
AcDbLine
 62
7
  6
CONTINUOUS
 10
718.7383337983
 20
265.0421671551
 11
718.5214156385
 21
265.4841026883
  0
LINE
  5
29F
100
AcDbEntity
  8
0
100
AcDbLine
 62
7
  6
CONTINUOUS
 10
889.5175743111
 20
390.8432837024
 11
886.7225787619
 21
391.5666817815
  0
LINE
  5
2A0
100
AcDbEntity
  8
0
100
AcDbLine
 62
2
  6
CONTINUOUS
 10
762.3694827573
 20
250.038719568
 11
761.4296869215
 21
251.6318741882
  0
LINE
  5
2A1
100
AcDbEntity
  8
0
100
AcDbLine
 62
2
  6
CONTINUOUS
 10
761.5969685989
 20
249.8387781912
 11
760.751092112
 21
251.2739972239
  0
LINE
  5
2A2
100
AcDbEntity
  8
0
100
AcDbLine
 62
2
  6
CONTINUOUS
 10
774.2643446414
 20
256.0066619902
 11
775.6829776211
 21
253.4845055956
  0
LINE
  5
2A3
100
AcDbEntity
  8
0
100
AcDbLine
 62
2
  6
CONTINUOUS
 10
775.6829776211
 20
254.9442610005
 11
774.2643446414
 21
257.4664173951
  0
LINE
  5
2A4
100
AcDbEntity
  8
0
100
AcDbLine
 62
2
  6
CONTINUOUS
 10
781.3751872091
 20
257.8470834734
 11
782.7938201888
 21
255.3249270789
  0
LINE
  5
2A5
100
AcDbEntity
  8
0
100
AcDbLine
 62
2
  6
CONTINUOUS
 10
782.7938201888
 20
256.7846824838
 11
781.3751872091
 21
259.3068388783
  0
LINE
  5
2A6
100
AcDbEntity
  8
0
100
AcDbLine
 62
7
  6
CONTINUOUS
 10
718.7166672016
 20
265.1184904193
 11
718.6793459669
 21
265.2300804285
  0
LINE
  5
2A7
100
AcDbEntity
  8
0
100
AcDbLine
 62
7
  6
CONTINUOUS
 10
718.6793459669
 20
265.2300804285
 11
718.6357947294
 21
265.3845119669
  0
LINE
  5
2A8
100
AcDbEntity
  8
0
100
AcDbLine
 62
7
  6
CONTINUOUS
 10
655.8664282668
 20
330.9405439856
 11
655.8664282668
 21
805.5142356309
  0
LINE
  5
2A9
100
AcDbEntity
  8
0
100
AcDbLine
 62
7
  6
CONTINUOUS
 10
657.8463272542
 20
330.9029826051
 11
657.8463272542
 21
805.5142356309
  0
LINE
  5
2AA
100
AcDbEntity
  8
0
100
AcDbLine
 62
7
  6
CONTINUOUS
 10
683.5285169736
 20
913.7296462597
 11
683.5285169736
 21
812.3808906925
  0
LINE
  5
2AB
100
AcDbEntity
  8
0
100
AcDbLine
 62
7
  6
CONTINUOUS
 10
683.93856748
 20
913.6198386386
 11
683.93856748
 21
812.487019573
  0
LINE
  5
2AC
100
AcDbEntity
  8
0
100
AcDbLine
 62
7
  6
CONTINUOUS
 10
684.3628315487
 20
914.0224665828
 11
684.3628315487
 21
913.7296462597
  0
LINE
  5
2AD
100
AcDbEntity
  8
0
100
AcDbLine
 62
7
  6
CONTINUOUS
 10
689.94897512
 20
915.4682669277
 11
689.94897512
 21
912.2838459148
  0
LINE
  5
2AE
100
AcDbEntity
  8
0
100
AcDbLine
 62
7
  6
CONTINUOUS
 10
691.0803459699
 20
915.4682669277
 11
691.0803459699
 21
911.9910255918
  0
LINE
  5
2AF
100
AcDbEntity
  8
0
100
AcDbLine
 62
7
  6
CONTINUOUS
 10
692.8481129229
 20
814.7929796168
 11
692.8481129229
 21
909.3820269422
  0
LINE
  5
2B0
100
AcDbEntity
  8
0
100
AcDbLine
 62
7
  6
CONTINUOUS
 10
693.2723769916
 20
814.9027872379
 11
693.2723769916
 21
909.4918345633
  0
LINE
  5
2B1
100
AcDbEntity
  8
0
100
AcDbLine
 62
7
  6
CONTINUOUS
 10
472.3337657992
 20
378.8608930714
 11
471.3438163055
 21
378.6046752887
  0
LINE
  5
2B2
100
AcDbEntity
  8
0
100
AcDbLine
 62
7
  6
CONTINUOUS
 10
367.2607955256
 20
356.8491537459
 11
462.3206956544
 21
381.4524663248
  0
LINE
  5
2B3
100
AcDbEntity
  8
0
100
AcDbLine
 62
7
  6
CONTINUOUS
 10
366.9100075956
 20
356.8521980734
 11
461.9699077245
 21
381.4555106522
  0
LINE
  5
2B4
100
AcDbEntity
  8
0
100
AcDbLine
 62
7
  6
CONTINUOUS
 10
886.7225787619
 20
440.2608713739
 11
1139.4592943195
 21
374.847795991
  0
LINE
  5
2B5
100
AcDbEntity
  8
0
100
AcDbLine
 62
7
  6
CONTINUOUS
 10
886.7225787619
 20
440.3547062984
 11
1139.9136098674
 21
374.8240453992
  0
LINE
  5
2B6
100
AcDbEntity
  8
0
100
AcDbLine
 62
2
  6
CONTINUOUS
 10
765.1576931838
 20
250.7603615281
 11
764.9071122182
 21
251.5660470528
  0
LINE
  5
2B7
100
AcDbEntity
  8
0
100
AcDbLine
 62
2
  6
CONTINUOUS
 10
786.3046053572
 20
256.2335851437
 11
786.0540243916
 21
257.0392706683
  0
LINE
  5
2B8
100
AcDbEntity
  8
0
100
AcDbLine
 62
2
  6
CONTINUOUS
 10
764.6826058151
 20
252.2903404391
 11
764.265854756
 21
253.6313660673
  0
LINE
  5
2B9
100
AcDbEntity
  8
0
100
AcDbLine
 62
2
  6
CONTINUOUS
 10
785.8295179886
 20
257.7635640547
 11
785.4127669295
 21
259.1045896829
  0
LINE
  5
2BA
100
AcDbEntity
  8
0
100
AcDbLine
 62
2
  6
CONTINUOUS
 10
764.5875883415
 20
254.9618885698
 11
765.8365156937
 21
250.936053722
  0
LINE
  5
2BB
100
AcDbEntity
  8
0
100
AcDbLine
 62
2
  6
CONTINUOUS
 10
785.7345005149
 20
260.4351121854
 11
786.9834278671
 21
256.4092773376
  0
LINE
  5
2BC
100
AcDbEntity
  8
0
100
AcDbLine
 62
2
  6
CONTINUOUS
 10
767.813781679
 20
251.4478078162
 11
767.1245780497
 21
254.093837789
  0
LINE
  5
2BD
100
AcDbEntity
  8
0
100
AcDbLine
 62
2
  6
CONTINUOUS
 10
768.0223595309
 20
253.0219175056
 11
767.3320465358
 21
255.672206619
  0
LINE
  5
2BE
100
AcDbEntity
  8
0
100
AcDbLine
 62
7
  6
CONTINUOUS
 10
718.6357947294
 20
265.3845119669
 11
718.5967985481
 21
265.5544635122
  0
LINE
  5
2BF
100
AcDbEntity
  8
0
100
AcDbLine
 62
7
  6
CONTINUOUS
 10
718.5526963492
 20
265.8038218813
 11
718.5436482375
 21
265.8476302275
  0
LINE
  5
2C0
100
AcDbEntity
  8
0
100
AcDbLine
 62
7
  6
CONTINUOUS
 10
718.4100230628
 20
218.5086152633
 11
718.4100230628
 21
263.7727875855
  0
LINE
  5
2C1
100
AcDbEntity
  8
0
100
AcDbLine
 62
7
  6
CONTINUOUS
 10
718.551444419
 20
263.2342755646
 11
718.551444419
 21
218.5452178037
  0
LINE
  5
2C2
100
AcDbEntity
  8
0
100
AcDbLine
 62
7
  6
CONTINUOUS
 10
718.5893381572
 20
265.5953082304
 11
718.5893381572
 21
265.9186358247
  0
LINE
  5
2C3
100
AcDbEntity
  8
0
100
AcDbLine
 62
7
  6
CONTINUOUS
 10
718.6255676938
 20
218.0844819809
 11
718.6255676938
 21
217.5049264851
  0
LINE
  5
2C4
100
AcDbEntity
  8
0
100
AcDbLine
 62
7
  6
CONTINUOUS
 10
718.7282211143
 20
265.3935380645
 11
718.7282211143
 21
265.0827779941
  0
LINE
  5
2C5
100
AcDbEntity
  8
0
100
AcDbLine
 62
7
  6
CONTINUOUS
 10
718.7282211143
 20
264.9841122429
 11
718.7282211143
 21
264.6071558335
  0
LINE
  5
2C6
100
AcDbEntity
  8
0
100
AcDbLine
 62
7
  6
CONTINUOUS
 10
718.9757084877
 20
263.1244679435
 11
718.9757084877
 21
218.4354101825
  0
LINE
  5
2C7
100
AcDbEntity
  8
0
100
AcDbLine
 62
7
  6
CONTINUOUS
 10
719.2585512002
 20
265.3965958305
 11
719.2585512002
 21
265.9650459862
  0
LINE
  5
2C8
100
AcDbEntity
  8
0
100
AcDbLine
 62
2
  6
CONTINUOUS
 10
754.1962122508
 20
247.9281511292
 11
754.1962122508
 21
252.7577802603
  0
LINE
  5
2C9
100
AcDbEntity
  8
0
100
AcDbLine
 62
2
  6
CONTINUOUS
 10
768.9314474262
 20
254.5681032721
 11
769.2594034843
 21
251.8219622714
  0
LINE
  5
2CA
100
AcDbEntity
  8
0
100
AcDbLine
 62
2
  6
CONTINUOUS
 10
769.4348053263
 20
256.2164406412
 11
769.9386189078
 21
251.9977561588
  0
LINE
  5
2CB
100
AcDbEntity
  8
0
100
AcDbLine
 62
2
  6
CONTINUOUS
 10
757.4232708232
 20
252.3203972025
 11
757.4232708232
 21
253.1076267509
  0
LINE
  5
2CC
100
AcDbEntity
  8
0
100
AcDbLine
 62
2
  6
CONTINUOUS
 10
758.169710419
 20
248.9517385018
 11
758.169710419
 21
252.5135899859
  0
LINE
  5
2CD
100
AcDbEntity
  8
0
100
AcDbLine
 62
2
  6
CONTINUOUS
 10
758.8662105985
 20
249.1320060131
 11
758.8662105985
 21
252.6938574973
  0
LINE
  5
2CE
100
AcDbEntity
  8
0
100
AcDbLine
 62
2
  6
CONTINUOUS
 10
759.6126501943
 20
252.8870502807
 11
759.6126501943
 21
253.6742798291
  0
LINE
  5
2CF
100
AcDbEntity
  8
0
100
AcDbLine
 62
2
  6
CONTINUOUS
 10
760.055475816
 20
249.4398105011
 11
760.055475816
 21
253.7888915337
  0
LINE
  5
2D0
100
AcDbEntity
  8
0
100
AcDbLine
 62
2
  6
CONTINUOUS
 10
760.751092112
 20
253.1804933235
 11
760.751092112
 21
252.0322489976
  0
LINE
  5
2D1
100
AcDbEntity
  8
0
100
AcDbLine
 62
2
  6
CONTINUOUS
 10
760.751092112
 20
249.6198492466
 11
760.751092112
 21
251.2739972239
  0
LINE
  5
2D2
100
AcDbEntity
  8
0
100
AcDbLine
 62
2
  6
CONTINUOUS
 10
773.5687283455
 20
257.2863786496
 11
773.5687283455
 21
252.937297617
  0
LINE
  5
2D3
100
AcDbEntity
  8
0
100
AcDbLine
 62
2
  6
CONTINUOUS
 10
774.2643446414
 20
256.0066619902
 11
774.2643446414
 21
253.1173363625
  0
LINE
  5
2D4
100
AcDbEntity
  8
0
100
AcDbLine
 62
2
  6
CONTINUOUS
 10
775.6829776211
 20
257.8335866282
 11
775.6829776211
 21
254.9442610005
  0
LINE
  5
2D5
100
AcDbEntity
  8
0
100
AcDbLine
 62
2
  6
CONTINUOUS
 10
776.378593917
 20
258.0136253737
 11
776.378593917
 21
253.6645443411
  0
LINE
  5
2D6
100
AcDbEntity
  8
0
100
AcDbLine
 62
2
  6
CONTINUOUS
 10
776.7617574041
 20
257.3255658331
 11
776.7617574041
 21
258.1127953815
  0
LINE
  5
2D7
100
AcDbEntity
  8
0
100
AcDbLine
 62
2
  6
CONTINUOUS
 10
777.5081969999
 20
253.9569071324
 11
777.5081969999
 21
257.5187586165
  0
LINE
  5
2D8
100
AcDbEntity
  8
0
100
AcDbLine
 62
2
  6
CONTINUOUS
 10
778.2046971793
 20
254.1371746437
 11
778.2046971793
 21
257.6990261279
  0
LINE
  5
2D9
100
AcDbEntity
  8
0
100
AcDbLine
 62
2
  6
CONTINUOUS
 10
778.9511367752
 20
257.8922189113
 11
778.9511367752
 21
258.6794484597
  0
LINE
  5
2DA
100
AcDbEntity
  8
0
100
AcDbLine
 62
2
  6
CONTINUOUS
 10
779.3948462803
 20
254.4452078976
 11
779.3948462803
 21
258.7942889301
  0
LINE
  5
2DB
100
AcDbEntity
  8
0
100
AcDbLine
 62
2
  6
CONTINUOUS
 10
780.0904625762
 20
254.625246643
 11
780.0904625762
 21
258.9743276756
  0
LINE
  5
2DC
100
AcDbEntity
  8
0
100
AcDbLine
 62
2
  6
CONTINUOUS
 10
780.6795709132
 20
259.1268001329
 11
780.6795709132
 21
254.7777191003
  0
LINE
  5
2DD
100
AcDbEntity
  8
0
100
AcDbLine
 62
2
  6
CONTINUOUS
 10
781.3751872091
 20
257.8470834734
 11
781.3751872091
 21
254.9577578457
  0
LINE
  5
2DE
100
AcDbEntity
  8
0
100
AcDbLine
 62
2
  6
CONTINUOUS
 10
782.7938201888
 20
259.6740081115
 11
782.7938201888
 21
256.7846824838
  0
LINE
  5
2DF
100
AcDbEntity
  8
0
100
AcDbLine
 62
2
  6
CONTINUOUS
 10
783.4894364847
 20
259.8540468569
 11
783.4894364847
 21
255.5049658244
  0
LINE
  5
2E0
100
AcDbEntity
  8
0
100
AcDbLine
 62
2
  6
CONTINUOUS
 10
789.5515513079
 20
257.0787862232
 11
789.5515513079
 21
261.9084153543
  0
LINE
  5
2E1
100
AcDbEntity
  8
0
100
AcDbLine
 62
2
  6
CONTINUOUS
 10
766.106100154
 20
251.0058273145
 11
766.6275914051
 21
255.4898802148
  0
LINE
  5
2E2
100
AcDbEntity
  8
0
100
AcDbLine
 62
2
  6
CONTINUOUS
 10
766.7859077488
 20
251.1817744671
 11
767.1245780497
 21
254.093837789
  0
LINE
  5
2E3
100
AcDbEntity
  8
0
100
AcDbLine
 62
2
  6
CONTINUOUS
 10
768.0223595309
 20
253.0219175056
 11
768.7303501956
 21
256.034114237
  0
LINE
  5
2E4
100
AcDbEntity
  8
0
100
AcDbLine
 62
2
  6
CONTINUOUS
 10
768.2229394594
 20
251.5537056422
 11
768.9314474262
 21
254.5681032721
  0
LINE
  5
2E5
100
AcDbEntity
  8
0
100
AcDbLine
 62
2
  6
CONTINUOUS
 10
762.6951938184
 20
250.1230197938
 11
763.9441211706
 21
254.7953470111
  0
LINE
  5
2E6
100
AcDbEntity
  8
0
100
AcDbLine
 62
2
  6
CONTINUOUS
 10
783.8421059919
 20
255.5962434094
 11
785.0910333441
 21
260.2685706267
  0
LINE
  5
2E7
100
AcDbEntity
  8
0
100
AcDbLine
 62
2
  6
CONTINUOUS
 10
764.265854756
 20
253.6313660673
 11
763.8491036968
 21
252.0746142167
  0
LINE
  5
2E8
100
AcDbEntity
  8
0
100
AcDbLine
 62
2
  6
CONTINUOUS
 10
785.4127669295
 20
259.1045896829
 11
784.9960158703
 21
257.5478378324
  0
LINE
  5
2E9
100
AcDbEntity
  8
0
100
AcDbLine
 62
2
  6
CONTINUOUS
 10
763.3740163284
 20
250.2987119877
 11
763.6245972939
 21
251.2341077647
  0
LINE
  5
2EA
100
AcDbEntity
  8
0
100
AcDbLine
 62
2
  6
CONTINUOUS
 10
784.5209285018
 20
255.7719356032
 11
784.7715094673
 21
256.7073313803
  0
LINE
  5
2EB
100
AcDbEntity
  8
0
100
AcDbLine
 62
7
  6
CONTINUOUS
 10
719.253748666
 20
265.3866080695
 11
719.2477635251
 21
265.3741608584
  0
LINE
  5
2EC
100
AcDbEntity
  8
0
100
AcDbLine
 62
7
  6
CONTINUOUS
 10
719.2477635251
 20
265.3741608584
 11
719.1702747072
 21
265.22699335
  0
LINE
  5
2ED
100
AcDbEntity
  8
0
100
AcDbLine
 62
7
  6
CONTINUOUS
 10
909.0986134907
 20
292.8452859508
 11
909.0967083273
 21
292.8656131765
  0
LINE
  5
2EE
100
AcDbEntity
  8
0
100
AcDbLine
 62
7
  6
CONTINUOUS
 10
920.4123219897
 20
295.7734891811
 11
920.4104168262
 21
295.7938164068
  0
LINE
  5
2EF
100
AcDbEntity
  8
0
100
AcDbLine
 62
7
  6
CONTINUOUS
 10
931.7260304887
 20
298.7016924114
 11
931.7241253252
 21
298.722019637
  0
LINE
  5
2F0
100
AcDbEntity
  8
0
100
AcDbLine
 62
7
  6
CONTINUOUS
 10
885.8882641868
 20
865.0482675564
 11
885.8882641868
 21
864.7554472334
  0
LINE
  5
2F1
100
AcDbEntity
  8
0
100
AcDbLine
 62
7
  6
CONTINUOUS
 10
886.3125282555
 20
864.6456396122
 11
886.3125282555
 21
390.0343865865
  0
LINE
  5
2F2
100
AcDbEntity
  8
0
100
AcDbLine
 62
7
  6
CONTINUOUS
 10
886.7225787619
 20
864.7554472334
 11
886.7225787619
 21
390.140515467
  0
LINE
  5
2F3
100
AcDbEntity
  8
0
100
AcDbLine
 62
7
  6
CONTINUOUS
 10
889.5175743111
 20
390.7700786216
 11
889.5175743111
 21
390.8432837024
  0
LINE
  5
2F4
100
AcDbEntity
  8
0
100
AcDbLine
 62
7
  6
CONTINUOUS
 10
719.1702747072
 20
265.22699335
 11
719.0904595114
 21
265.0896131164
  0
LINE
  5
2F5
100
AcDbEntity
  8
0
100
AcDbLine
 62
7
  6
CONTINUOUS
 10
719.0904595114
 20
265.0896131164
 11
719.0188305309
 21
264.9780640332
  0
LINE
  5
2F6
100
AcDbEntity
  8
0
100
AcDbLine
 62
7
  6
CONTINUOUS
 10
943.0397389876
 20
301.6298956416
 11
943.0378338242
 21
301.6502228673
  0
LINE
  5
2F7
100
AcDbEntity
  8
0
100
AcDbLine
 62
7
  6
CONTINUOUS
 10
718.2312027194
 20
217.9634745502
 11
718.2670101598
 21
218.0038677739
  0
LINE
  5
2F8
100
AcDbEntity
  8
0
100
AcDbLine
 62
7
  6
CONTINUOUS
 10
718.2670101598
 20
218.0038677739
 11
718.3258935356
 21
218.0652312418
  0
LINE
  5
2F9
100
AcDbEntity
  8
0
100
AcDbLine
 62
7
  6
CONTINUOUS
 10
718.3258935356
 20
218.0652312418
 11
718.3893276826
 21
218.126183562
  0
LINE
  5
2FA
100
AcDbEntity
  8
0
100
AcDbLine
 62
7
  6
CONTINUOUS
 10
718.3893276826
 20
218.126183562
 11
718.4571358598
 21
218.1861072135
  0
LINE
  5
2FB
100
AcDbEntity
  8
0
100
AcDbLine
 62
7
  6
CONTINUOUS
 10
718.4571358598
 20
218.1861072135
 11
718.5290720154
 21
218.2443850538
  0
LINE
  5
2FC
100
AcDbEntity
  8
0
100
AcDbLine
 62
7
  6
CONTINUOUS
 10
718.5290720154
 20
218.2443850538
 11
718.5566359163
 21
218.2653809437
  0
LINE
  5
2FD
100
AcDbEntity
  8
0
100
AcDbLine
 62
7
  6
CONTINUOUS
 10
718.3370888178
 20
218.1009730433
 11
718.6199851406
 21
218.3123989324
  0
LINE
  5
2FE
100
AcDbEntity
  8
0
100
AcDbLine
 62
7
  6
CONTINUOUS
 10
655.8664282668
 20
805.5142356309
 11
461.05851005
 21
855.9342350022
  0
LINE
  5
2FF
100
AcDbEntity
  8
0
100
AcDbLine
 62
7
  6
CONTINUOUS
 10
656.2906923356
 20
805.624043252
 11
461.4827741187
 21
856.0440426233
  0
LINE
  5
300
100
AcDbEntity
  8
0
100
AcDbLine
 62
7
  6
CONTINUOUS
 10
657.8463272542
 20
805.5142356309
 11
657.4220631855
 21
805.624043252
  0
LINE
  5
301
100
AcDbEntity
  8
0
100
AcDbLine
 62
7
  6
CONTINUOUS
 10
461.05851005
 20
856.4466705675
 11
461.4827741187
 21
856.3368629463
  0
LINE
  5
302
100
AcDbEntity
  8
0
100
AcDbLine
 62
7
  6
CONTINUOUS
 10
466.6446536213
 20
857.8924709124
 11
467.06891769
 21
857.7826632913
  0
LINE
  5
303
100
AcDbEntity
  8
0
100
AcDbLine
 62
7
  6
CONTINUOUS
 10
468.2002885399
 20
857.7826632913
 11
475.6956204205
 21
855.8427286512
  0
LINE
  5
304
100
AcDbEntity
  8
0
100
AcDbLine
 62
7
  6
CONTINUOUS
 10
468.6245526086
 20
857.8924709124
 11
476.1198844892
 21
855.9525362724
  0
LINE
  5
305
100
AcDbEntity
  8
0
100
AcDbLine
 62
7
  6
CONTINUOUS
 10
886.3125282555
 20
864.6456396122
 11
657.8463272542
 21
805.5142356309
  0
LINE
  5
306
100
AcDbEntity
  8
0
100
AcDbLine
 62
7
  6
CONTINUOUS
 10
885.8882641868
 20
864.7554472334
 11
657.4220631855
 21
805.624043252
  0
LINE
  5
307
100
AcDbEntity
  8
0
100
AcDbLine
 62
7
  6
CONTINUOUS
 10
886.3125282555
 20
865.1580751775
 11
885.8882641868
 21
865.0482675564
  0
LINE
  5
308
100
AcDbEntity
  8
0
100
AcDbLine
 62
7
  6
CONTINUOUS
 10
655.8664282668
 20
805.5142356309
 11
656.2906923356
 21
805.624043252
  0
LINE
  5
309
100
AcDbEntity
  8
0
100
AcDbLine
 62
7
  6
CONTINUOUS
 10
693.2723769916
 20
909.4918345633
 11
692.8481129229
 21
909.3820269422
  0
LINE
  5
30A
100
AcDbEntity
  8
0
100
AcDbLine
 62
7
  6
CONTINUOUS
 10
477.1098339829
 20
853.5448515949
 11
477.5340980516
 21
853.654659216
  0
LINE
  5
30B
100
AcDbEntity
  8
0
100
AcDbLine
 62
7
  6
CONTINUOUS
 10
691.8581634292
 20
911.7897116197
 11
691.4338993605
 21
911.6799039985
  0
LINE
  5
30C
100
AcDbEntity
  8
0
100
AcDbLine
 62
7
  6
CONTINUOUS
 10
475.6956204205
 20
855.8427286512
 11
476.1198844892
 21
855.9525362724
  0
LINE
  5
30D
100
AcDbEntity
  8
0
100
AcDbLine
 62
7
  6
CONTINUOUS
 10
691.5046100386
 20
915.5780745488
 11
691.0803459699
 21
915.4682669277
  0
LINE
  5
30E
100
AcDbEntity
  8
0
100
AcDbLine
 62
7
  6
CONTINUOUS
 10
468.6245526086
 20
857.8924709124
 11
468.2002885399
 21
857.7826632913
  0
LINE
  5
30F
100
AcDbEntity
  8
0
100
AcDbLine
 62
7
  6
CONTINUOUS
 10
461.05851005
 20
855.9342350022
 11
461.4827741187
 21
856.0440426233
  0
LINE
  5
310
100
AcDbEntity
  8
0
100
AcDbLine
 62
7
  6
CONTINUOUS
 10
683.93856748
 20
913.6198386386
 11
684.3628315487
 21
913.7296462597
  0
LINE
  5
311
100
AcDbEntity
  8
0
100
AcDbLine
 62
7
  6
CONTINUOUS
 10
461.4827741187
 20
856.3368629463
 11
467.06891769
 21
857.7826632913
  0
LINE
  5
312
100
AcDbEntity
  8
0
100
AcDbLine
 62
7
  6
CONTINUOUS
 10
684.3628315487
 20
914.0224665828
 11
689.94897512
 21
915.4682669277
  0
LINE
  5
313
100
AcDbEntity
  8
0
100
AcDbLine
 62
7
  6
CONTINUOUS
 10
461.05851005
 20
856.4466705675
 11
466.6446536213
 21
857.8924709124
  0
LINE
  5
314
100
AcDbEntity
  8
0
100
AcDbLine
 62
7
  6
CONTINUOUS
 10
683.93856748
 20
914.1322742039
 11
689.5247110513
 21
915.5780745488
  0
LINE
  5
315
100
AcDbEntity
  8
0
100
AcDbLine
 62
7
  6
CONTINUOUS
 10
691.4338993605
 20
911.6799039985
 11
683.93856748
 21
913.6198386386
  0
LINE
  5
316
100
AcDbEntity
  8
0
100
AcDbLine
 62
7
  6
CONTINUOUS
 10
691.8581634292
 20
911.7897116197
 11
684.3628315487
 21
913.7296462597
  0
LINE
  5
317
100
AcDbEntity
  8
0
100
AcDbLine
 62
7
  6
CONTINUOUS
 10
683.93856748
 20
914.1322742039
 11
684.3628315487
 21
914.0224665828
  0
LINE
  5
318
100
AcDbEntity
  8
0
100
AcDbLine
 62
7
  6
CONTINUOUS
 10
886.3125282555
 20
864.6456396122
 11
885.8882641868
 21
864.7554472334
  0
LINE
  5
319
100
AcDbEntity
  8
0
100
AcDbLine
 62
7
  6
CONTINUOUS
 10
689.5247110513
 20
915.5780745488
 11
689.94897512
 21
915.4682669277
  0
LINE
  5
31A
100
AcDbEntity
  8
0
100
AcDbLine
 62
7
  6
CONTINUOUS
 10
691.0803459699
 20
915.4682669277
 11
885.8882641868
 21
865.0482675564
  0
LINE
  5
31B
100
AcDbEntity
  8
0
100
AcDbLine
 62
7
  6
CONTINUOUS
 10
691.5046100386
 20
915.5780745488
 11
886.3125282555
 21
865.1580751775
  0
LINE
  5
31C
100
AcDbEntity
  8
0
100
AcDbLine
 62
7
  6
CONTINUOUS
 10
1139.4592943195
 20
374.6227398419
 11
1139.4592943195
 21
374.847795991
  0
LINE
  5
31D
100
AcDbEntity
  8
0
100
AcDbLine
 62
7
  6
CONTINUOUS
 10
1141.5427209248
 20
327.8038008333
 11
1141.5427209248
 21
372.4928585943
  0
LINE
  5
31E
100
AcDbEntity
  8
0
100
AcDbLine
 62
7
  6
CONTINUOUS
 10
1139.710168978
 20
374.8440738516
 11
1139.6795337621
 21
374.5581181638
  0
LINE
  5
31F
100
AcDbEntity
  8
0
100
AcDbLine
 62
7
  6
CONTINUOUS
 10
1140.3124333427
 20
374.4421892229
 11
1140.4036561797
 21
374.6752613308
  0
ARC
  5
320
100
AcDbEntity
  8
0
100
AcDbCircle
 62
7
  6
CONTINUOUS
 10
367.4153821797
 20
354.6780183569
 40
2.1789008808
100
AcDbArc
 50
105.3229685192
 51
109.1186998072
  0
ARC
  5
321
100
AcDbEntity
  8
0
100
AcDbCircle
 62
7
  6
CONTINUOUS
 10
717.4380713238
 20
217.7941523209
 40
1.2909394194
100
AcDbArc
 50
24.7749091578
 51
27.600865099
  0
ARC
  5
322
100
AcDbEntity
  8
0
100
AcDbCircle
 62
7
  6
CONTINUOUS
 10
717.539569093
 20
217.8414652166
 40
1.1789567899
100
AcDbArc
 50
23.5192655283
 51
24.754246454
  0
ARC
  5
323
100
AcDbEntity
  8
0
100
AcDbCircle
 62
7
  6
CONTINUOUS
 10
717.6224374857
 20
217.8773648195
 40
1.0886466189
100
AcDbArc
 50
21.7884250646
 51
23.5272636717
  0
ARC
  5
324
100
AcDbEntity
  8
0
100
AcDbCircle
 62
7
  6
CONTINUOUS
 10
711.1219709585
 20
266.9383058117
 40
8.065716572
100
AcDbArc
 50
340.9734000331
 51
341.4912345896
  0
ARC
  5
325
100
AcDbEntity
  8
0
100
AcDbCircle
 62
7
  6
CONTINUOUS
 10
713.59745532
 20
266.0856192993
 40
5.4474927753
100
AcDbArc
 50
340.2721088067
 51
340.9636871661
  0
ARC
  5
326
100
AcDbEntity
  8
0
100
AcDbCircle
 62
7
  6
CONTINUOUS
 10
714.7792595408
 20
265.6608571492
 40
4.1916707048
100
AcDbArc
 50
339.2391598032
 51
340.2010360444
  0
ARC
  5
327
100
AcDbEntity
  8
0
100
AcDbCircle
 62
7
  6
CONTINUOUS
 10
721.4092077996
 20
264.364996161
 40
3.0307777298
100
AcDbArc
 50
182.4968217552
 51
184.9095503061
  0
ARC
  5
328
100
AcDbEntity
  8
0
100
AcDbCircle
 62
7
  6
CONTINUOUS
 10
715.6581751534
 20
263.7705547276
 40
2.7518488153
100
AcDbArc
 50
0.0464899631
 51
6.9935471172
  0
ARC
  5
329
100
AcDbEntity
  8
0
100
AcDbCircle
 62
7
  6
CONTINUOUS
 10
904.4623473149
 20
291.1347895117
 40
4.8064436538
100
AcDbArc
 50
21.3862284513
 51
23.2062320052
  0
ARC
  5
32A
100
AcDbEntity
  8
0
100
AcDbCircle
 62
7
  6
CONTINUOUS
 10
915.7760558138
 20
294.0629927419
 40
4.8064436539
100
AcDbArc
 50
21.3862284512
 51
23.2062320051
  0
ARC
  5
32B
100
AcDbEntity
  8
0
100
AcDbCircle
 62
7
  6
CONTINUOUS
 10
927.0897643134
 20
296.9911959725
 40
4.8064436532
100
AcDbArc
 50
21.3862284511
 51
23.2062320052
  0
ARC
  5
32C
100
AcDbEntity
  8
0
100
AcDbCircle
 62
7
  6
CONTINUOUS
 10
938.4034728119
 20
299.9193992025
 40
4.8064436538
100
AcDbArc
 50
21.3862284512
 51
23.2062320051
  0
ARC
  5
32D
100
AcDbEntity
  8
0
100
AcDbCircle
 62
7
  6
CONTINUOUS
 10
903.9029140532
 20
288.8040870284
 40
4.7534848069
100
AcDbArc
 50
307.0926501135
 51
309.60524025
  0
ARC
  5
32E
100
AcDbEntity
  8
0
100
AcDbCircle
 62
7
  6
CONTINUOUS
 10
915.2166225523
 20
291.7322902586
 40
4.7534848069
100
AcDbArc
 50
307.0926501135
 51
309.60524025
  0
ARC
  5
32F
100
AcDbEntity
  8
0
100
AcDbCircle
 62
7
  6
CONTINUOUS
 10
926.5303310509
 20
294.6604934893
 40
4.7534848075
100
AcDbArc
 50
307.0926501136
 51
309.6052402499
  0
ARC
  5
330
100
AcDbEntity
  8
0
100
AcDbCircle
 62
7
  6
CONTINUOUS
 10
937.8440395504
 20
297.588696719
 40
4.7534848066
100
AcDbArc
 50
307.0926501134
 51
309.6052402501
  0
ARC
  5
331
100
AcDbEntity
  8
0
100
AcDbCircle
 62
7
  6
CONTINUOUS
 10
949.157748049
 20
300.5168999497
 40
4.7534848073
100
AcDbArc
 50
307.0926501136
 51
309.6052402499
  0
ARC
  5
332
100
AcDbEntity
  8
0
100
AcDbCircle
 62
7
  6
CONTINUOUS
 10
907.7447048752
 20
291.307631256
 40
2.0623074276
100
AcDbArc
 50
60.4359880762
 51
65.3719575072
  0
ARC
  5
333
100
AcDbEntity
  8
0
100
AcDbCircle
 62
7
  6
CONTINUOUS
 10
919.0584133742
 20
294.2358344862
 40
2.0623074277
100
AcDbArc
 50
60.4359880763
 51
65.3719575071
  0
ARC
  5
334
100
AcDbEntity
  8
0
100
AcDbCircle
 62
7
  6
CONTINUOUS
 10
930.3721218732
 20
297.1640377165
 40
2.0623074276
100
AcDbArc
 50
60.4359880762
 51
65.3719575072
  0
ARC
  5
335
100
AcDbEntity
  8
0
100
AcDbCircle
 62
7
  6
CONTINUOUS
 10
941.6858303721
 20
300.0922409468
 40
2.0623074277
100
AcDbArc
 50
60.4359880763
 51
65.3719575072
  0
ARC
  5
336
100
AcDbEntity
  8
0
100
AcDbCircle
 62
7
  6
CONTINUOUS
 10
951.9027404444
 20
298.7822519298
 40
2.061748021
100
AcDbArc
 50
265.5612609389
 51
270.4981226496
  0
ARC
  5
337
100
AcDbEntity
  8
0
100
AcDbCircle
 62
7
  6
CONTINUOUS
 10
940.5890319454
 20
295.8540486994
 40
2.061748021
100
AcDbArc
 50
265.5612609388
 51
270.4981226496
  0
ARC
  5
338
100
AcDbEntity
  8
0
100
AcDbCircle
 62
7
  6
CONTINUOUS
 10
929.2753234464
 20
292.9258454692
 40
2.061748021
100
AcDbArc
 50
265.5612609389
 51
270.4981226496
  0
ARC
  5
339
100
AcDbEntity
  8
0
100
AcDbCircle
 62
7
  6
CONTINUOUS
 10
917.9616149474
 20
289.9976422389
 40
2.061748021
100
AcDbArc
 50
265.5612609389
 51
270.4981226496
  0
ARC
  5
33A
100
AcDbEntity
  8
0
100
AcDbCircle
 62
7
  6
CONTINUOUS
 10
906.6479064485
 20
287.0694390086
 40
2.061748021
100
AcDbArc
 50
265.5612609389
 51
270.4981226496
  0
ARC
  5
33B
100
AcDbEntity
  8
0
100
AcDbCircle
 62
7
  6
CONTINUOUS
 10
907.7642307124
 20
291.349330182
 40
2.016264874
100
AcDbArc
 50
65.3825455896
 51
69.1546258637
  0
ARC
  5
33C
100
AcDbEntity
  8
0
100
AcDbCircle
 62
7
  6
CONTINUOUS
 10
919.0779392114
 20
294.2775334123
 40
2.0162648739
100
AcDbArc
 50
65.3825455896
 51
69.1546258637
  0
ARC
  5
33D
100
AcDbEntity
  8
0
100
AcDbCircle
 62
7
  6
CONTINUOUS
 10
930.3916477103
 20
297.2057366425
 40
2.016264874
100
AcDbArc
 50
65.3825455897
 51
69.1546258637
  0
ARC
  5
33E
100
AcDbEntity
  8
0
100
AcDbCircle
 62
7
  6
CONTINUOUS
 10
941.7053562093
 20
300.1339398729
 40
2.0162648739
100
AcDbArc
 50
65.3825455896
 51
69.1546258638
  0
ARC
  5
33F
100
AcDbEntity
  8
0
100
AcDbCircle
 62
7
  6
CONTINUOUS
 10
951.8995742675
 20
298.736628801
 40
2.0160167262
100
AcDbArc
 50
261.8160875808
 51
265.5506250187
  0
ARC
  5
340
100
AcDbEntity
  8
0
100
AcDbCircle
 62
7
  6
CONTINUOUS
 10
940.5858657685
 20
295.8084255707
 40
2.0160167262
100
AcDbArc
 50
261.8160875807
 51
265.5506250187
  0
ARC
  5
341
100
AcDbEntity
  8
0
100
AcDbCircle
 62
7
  6
CONTINUOUS
 10
929.2721572695
 20
292.8802223405
 40
2.0160167262
100
AcDbArc
 50
261.8160875808
 51
265.5506250187
  0
ARC
  5
342
100
AcDbEntity
  8
0
100
AcDbCircle
 62
7
  6
CONTINUOUS
 10
917.9584487706
 20
289.9520191102
 40
2.0160167262
100
AcDbArc
 50
261.8160875808
 51
265.5506250187
  0
ARC
  5
343
100
AcDbEntity
  8
0
100
AcDbCircle
 62
7
  6
CONTINUOUS
 10
906.6447402716
 20
287.0238158799
 40
2.0160167262
100
AcDbArc
 50
261.8160875808
 51
265.5506250187
  0
ARC
  5
344
100
AcDbEntity
  8
0
100
AcDbCircle
 62
7
  6
CONTINUOUS
 10
942.1392643707
 20
300.0477141905
 40
1.9908595601
100
AcDbArc
 50
75.4975863652
 51
81.8151178877
  0
ARC
  5
345
100
AcDbEntity
  8
0
100
AcDbCircle
 62
7
  6
CONTINUOUS
 10
930.8255558717
 20
297.1195109602
 40
1.9908595601
100
AcDbArc
 50
75.4975863652
 51
81.8151178876
  0
ARC
  5
346
100
AcDbEntity
  8
0
100
AcDbCircle
 62
7
  6
CONTINUOUS
 10
919.5118473727
 20
294.1913077299
 40
1.9908595601
100
AcDbArc
 50
75.4975863653
 51
81.8151178876
  0
ARC
  5
347
100
AcDbEntity
  8
0
100
AcDbCircle
 62
7
  6
CONTINUOUS
 10
908.1981388737
 20
291.2631044996
 40
1.9908595601
100
AcDbArc
 50
75.4975863652
 51
81.8151178876
  0
ARC
  5
348
100
AcDbEntity
  8
0
100
AcDbCircle
 62
7
  6
CONTINUOUS
 10
907.066024358
 20
286.888950788
 40
1.9908549707
100
AcDbArc
 50
249.1556801501
 51
255.4806723074
  0
ARC
  5
349
100
AcDbEntity
  8
0
100
AcDbCircle
 62
7
  6
CONTINUOUS
 10
918.379732857
 20
289.8171540182
 40
1.9908549707
100
AcDbArc
 50
249.15568015
 51
255.4806723074
  0
ARC
  5
34A
100
AcDbEntity
  8
0
100
AcDbCircle
 62
7
  6
CONTINUOUS
 10
929.6934413559
 20
292.7453572485
 40
1.9908549707
100
AcDbArc
 50
249.15568015
 51
255.4806723075
  0
ARC
  5
34B
100
AcDbEntity
  8
0
100
AcDbCircle
 62
7
  6
CONTINUOUS
 10
941.0071498549
 20
295.6735604788
 40
1.9908549707
100
AcDbArc
 50
249.1556801501
 51
255.4806723074
  0
ARC
  5
34C
100
AcDbEntity
  8
0
100
AcDbCircle
 62
7
  6
CONTINUOUS
 10
952.3208583539
 20
298.6017637091
 40
1.9908549707
100
AcDbArc
 50
249.1556801501
 51
255.4806723074
  0
ARC
  5
34D
100
AcDbEntity
  8
0
100
AcDbCircle
 62
7
  6
CONTINUOUS
 10
949.7171813114
 20
302.847602433
 40
4.8064436532
100
AcDbArc
 50
21.3862284511
 51
23.2062320053
  0
ARC
  5
34E
100
AcDbEntity
  8
0
100
AcDbCircle
 62
7
  6
CONTINUOUS
 10
889.3408857793
 20
386.1937755133
 40
4.6553960626
100
AcDbArc
 50
98.7798956799
 51
99.4021407002
  0
ARC
  5
34F
100
AcDbEntity
  8
0
100
AcDbCircle
 62
7
  6
CONTINUOUS
 10
889.7130144892
 20
386.5282754819
 40
4.246303185
100
AcDbArc
 50
92.6380251774
 51
104.4685771427
  0
ARC
  5
350
100
AcDbEntity
  8
0
100
AcDbCircle
 62
7
  6
CONTINUOUS
 10
952.9995388711
 20
303.0204441771
 40
2.0623074276
100
AcDbArc
 50
60.4359880762
 51
65.3719575072
  0
ARC
  5
351
100
AcDbEntity
  8
0
100
AcDbCircle
 62
7
  6
CONTINUOUS
 10
953.0190647083
 20
303.0621431032
 40
2.0162648739
100
AcDbArc
 50
65.3825455896
 51
69.1546258638
  0
ARC
  5
352
100
AcDbEntity
  8
0
100
AcDbCircle
 62
7
  6
CONTINUOUS
 10
953.4529728697
 20
302.9759174207
 40
1.9908595601
100
AcDbArc
 50
75.4975863653
 51
81.8151178875
  0
SPLINE
  5
353
100
AcDbEntity
  8
0
100
AcDbSpline
 62
2
  6
CONTINUOUS
 70
0
 71
3
 72
68
 73
64
 74
0
 42
0.0000001
 43
0.0000001
 44
0.0000000001
 40
0.0
 40
0.0
 40
0.0
 40
0.0
 40
0.0625
 40
0.09375
 40
0.125
 40
0.140625
 40
0.15625
 40
0.1640625
 40
0.16796875
 40
0.171875
 40
0.1796875
 40
0.1875
 40
0.203125
 40
0.21875
 40
0.25
 40
0.28125
 40
0.296875
 40
0.3125
 40
0.3203125
 40
0.328125
 40
0.33203125
 40
0.3359375
 40
0.34375
 40
0.359375
 40
0.375
 40
0.40625
 40
0.4375
 40
0.453125
 40
0.46875
 40
0.484375
 40
0.4921875
 40
0.49609375
 40
0.5
 40
0.50390625
 40
0.5078125
 40
0.515625
 40
0.53125
 40
0.546875
 40
0.5625
 40
0.59375
 40
0.625
 40
0.640625
 40
0.65625
 40
0.6640625
 40
0.66796875
 40
0.671875
 40
0.6796875
 40
0.6875
 40
0.71875
 40
0.75
 40
0.78125
 40
0.796875
 40
0.8125
 40
0.8203125
 40
0.828125
 40
0.83203125
 40
0.8359375
 40
0.84375
 40
0.859375
 40
0.875
 40
0.90625
 40
0.9375
 40
1.0
 40
1.0
 40
1.0
 40
1.0
 10
760.9747146315
 20
252.0901267645
 30
0.0
 10
760.9860520568
 20
252.0940626191
 30
0.0
 10
761.0030582476
 20
252.099967439
 30
0.0
 10
761.0257329572
 20
252.1078363802
 30
0.0
 10
761.0399050913
 20
252.1127631184
 30
0.0
 10
761.0512417941
 20
252.1166847871
 30
0.0
 10
761.0583295241
 20
252.1191808099
 30
0.0
 10
761.0632863443
 20
252.1208378822
 30
0.0
 10
761.0661259958
 20
252.1219258187
 30
0.0
 10
761.0689927064
 20
252.1235450664
 30
0.0
 10
761.0725668297
 20
252.1253872057
 30
0.0
 10
761.0782906043
 20
252.128436296
 30
0.0
 10
761.0854435526
 20
252.1322128342
 30
0.0
 10
761.0968892432
 20
252.1382748386
 30
0.0
 10
761.1111961364
 20
252.1458450683
 30
0.0
 10
761.1255026931
 20
252.1534199724
 30
0.0
 10
761.1369489221
 20
252.1594744976
 30
0.0
 10
761.1441005244
 20
252.163269734
 30
0.0
 10
761.1498270582
 20
252.166280493
 30
0.0
 10
761.1533941575
 20
252.1682202138
 30
0.0
 10
761.1562752862
 20
252.1696391565
 30
0.0
 10
761.1590562055
 20
252.1715430377
 30
0.0
 10
761.1638762631
 20
252.1751001039
 30
0.0
 10
761.1707863465
 20
252.1800640937
 30
0.0
 10
761.1818289151
 20
252.1880721419
 30
0.0
 10
761.1956367144
 20
252.1980598511
 30
0.0
 10
761.2094431155
 20
252.2080548838
 30
0.0
 10
761.2204879212
 20
252.2160512145
 30
0.0
 10
761.22877331
 20
252.2220431549
 30
0.0
 10
761.2356719834
 20
252.2270540037
 30
0.0
 10
761.2405124905
 20
252.2305270331
 30
0.0
 10
761.2432606356
 20
252.2325656058
 30
0.0
 10
761.2453720539
 20
252.2339424575
 30
0.0
 10
761.2472911637
 20
252.2359006282
 30
0.0
 10
761.2499170561
 20
252.238308752
 30
0.0
 10
761.254481115
 20
252.2426174418
 30
0.0
 10
761.2610175331
 20
252.2487233322
 30
0.0
 10
761.2688542665
 20
252.2560714894
 30
0.0
 10
761.2793055634
 20
252.2658619055
 30
0.0
 10
761.2923697117
 20
252.2781006545
 30
0.0
 10
761.3054308528
 20
252.2903453964
 30
0.0
 10
761.3158869613
 20
252.3001262238
 30
0.0
 10
761.3224055436
 20
252.3062736598
 30
0.0
 10
761.3270015967
 20
252.3105078592
 30
0.0
 10
761.329576209
 20
252.3130353718
 30
0.0
 10
761.3319560797
 20
252.3159695533
 30
0.0
 10
761.3349974811
 20
252.3194982798
 30
0.0
 10
761.3422420633
 20
252.3280816194
 30
0.0
 10
761.3531318973
 20
252.3409086947
 30
0.0
 10
761.3676387814
 20
252.3580383187
 30
0.0
 10
761.3797300144
 20
252.3723086984
 30
0.0
 10
761.3894042571
 20
252.3837219104
 30
0.0
 10
761.3954464365
 20
252.3908650508
 30
0.0
 10
761.4002899995
 20
252.3965566172
 30
0.0
 10
761.4032947888
 20
252.4001662695
 30
0.0
 10
761.4057500154
 20
252.4029339118
 30
0.0
 10
761.4080176116
 20
252.4061399337
 30
0.0
 10
761.4118987426
 20
252.4119541179
 30
0.0
 10
761.4174886923
 20
252.4201538429
 30
0.0
 10
761.4264071968
 20
252.433332783
 30
0.0
 10
761.4375640333
 20
252.4497861176
 30
0.0
 10
761.4554100842
 20
252.4761228722
 30
0.0
 10
761.468795722
 20
252.4958728689
 30
0.0
 10
761.4777192362
 20
252.5090401043
 30
0.0
  0
SPLINE
  5
354
100
AcDbEntity
  8
0
100
AcDbSpline
 62
2
  6
CONTINUOUS
 70
0
 71
3
 72
146
 73
142
 74
0
 42
0.0000001
 43
0.0000001
 44
0.0000000001
 40
0.0
 40
0.0
 40
0.0
 40
0.0
 40
0.03125
 40
0.046875
 40
0.0625
 40
0.0703125
 40
0.078125
 40
0.08203125
 40
0.083984375
 40
0.0859375
 40
0.08984375
 40
0.09375
 40
0.109375
 40
0.125
 40
0.140625
 40
0.15625
 40
0.16015625
 40
0.1640625
 40
0.166015625
 40
0.16796875
 40
0.171875
 40
0.1796875
 40
0.1875
 40
0.203125
 40
0.21875
 40
0.2265625
 40
0.234375
 40
0.2421875
 40
0.24609375
 40
0.248046875
 40
0.25
 40
0.251953125
 40
0.25390625
 40
0.2578125
 40
0.265625
 40
0.2734375
 40
0.28125
 40
0.296875
 40
0.3125
 40
0.3203125
 40
0.328125
 40
0.33203125
 40
0.333984375
 40
0.3359375
 40
0.33984375
 40
0.34375
 40
0.3515625
 40
0.359375
 40
0.375
 40
0.390625
 40
0.3984375
 40
0.40625
 40
0.41015625
 40
0.4140625
 40
0.416015625
 40
0.41796875
 40
0.421875
 40
0.4296875
 40
0.4375
 40
0.453125
 40
0.46875
 40
0.4765625
 40
0.484375
 40
0.4921875
 40
0.49609375
 40
0.498046875
 40
0.5
 40
0.501953125
 40
0.50390625
 40
0.5078125
 40
0.515625
 40
0.5234375
 40
0.53125
 40
0.546875
 40
0.5546875
 40
0.5625
 40
0.5703125
 40
0.578125
 40
0.58203125
 40
0.583984375
 40
0.5859375
 40
0.58984375
 40
0.59375
 40
0.6015625
 40
0.609375
 40
0.625
 40
0.640625
 40
0.6484375
 40
0.65625
 40
0.66015625
 40
0.6640625
 40
0.666015625
 40
0.66796875
 40
0.669921875
 40
0.671875
 40
0.6796875
 40
0.6875
 40
0.6953125
 40
0.703125
 40
0.71875
 40
0.7265625
 40
0.734375
 40
0.7421875
 40
0.74609375
 40
0.748046875
 40
0.75
 40
0.751953125
 40
0.75390625
 40
0.7578125
 40
0.765625
 40
0.7734375
 40
0.78125
 40
0.796875
 40
0.8046875
 40
0.8125
 40
0.8203125
 40
0.828125
 40
0.830078125
 40
0.83203125
 40
0.833984375
 40
0.8359375
 40
0.83984375
 40
0.84375
 40
0.8515625
 40
0.859375
 40
0.875
 40
0.890625
 40
0.8984375
 40
0.90625
 40
0.91015625
 40
0.9140625
 40
0.916015625
 40
0.91796875
 40
0.919921875
 40
0.921875
 40
0.9296875
 40
0.9375
 40
0.9453125
 40
0.953125
 40
0.96875
 40
1.0
 40
1.0
 40
1.0
 40
1.0
 10
761.4777192268
 20
252.5090400887
 30
0.0
 10
761.4833813385
 20
252.520120019
 30
0.0
 10
761.4918738142
 20
252.5367404808
 30
0.0
 10
761.5031998828
 20
252.5588988311
 30
0.0
 10
761.5102729094
 20
252.5727525197
 30
0.0
 10
761.5159444778
 20
252.5838247098
 30
0.0
 10
761.5194592235
 20
252.5907693706
 30
0.0
 10
761.521979637
 20
252.595581449
 30
0.0
 10
761.5233258547
 20
252.5984081612
 30
0.0
 10
761.5243179511
 20
252.6015247169
 30
0.0
 10
761.5256791149
 20
252.605321341
 30
0.0
 10
761.5288462563
 20
252.6145147863
 30
0.0
 10
761.5336392261
 20
252.6282705866
 30
0.0
 10
761.5400037815
 20
252.6466318533
 30
0.0
 10
761.546382471
 20
252.6649856391
 30
0.0
 10
761.551143639
 20
252.6787582714
 30
0.0
 10
761.5543514159
 20
252.6879302091
 30
0.0
 10
761.5556382285
 20
252.691766186
 30
0.0
 10
761.5567837387
 20
252.6948015424
 30
0.0
 10
761.5575048174
 20
252.6979591303
 30
0.0
 10
761.5585695051
 20
252.7035417005
 30
0.0
 10
761.5601933732
 20
252.7114871693
 30
0.0
 10
761.562734085
 20
252.7242164825
 30
0.0
 10
761.5659295102
 20
252.7401224262
 30
0.0
 10
761.5691186399
 20
252.7560304571
 30
0.0
 10
761.5716694244
 20
252.7687564307
 30
0.0
 10
761.5735878481
 20
252.7783010121
 30
0.0
 10
761.5751689664
 20
252.7862546806
 30
0.0
 10
761.576310308
 20
252.7918225178
 30
0.0
 10
761.57690853
 20
252.7950037223
 30
0.0
 10
761.5775092423
 20
252.7973907991
 30
0.0
 10
761.5775287579
 20
252.7997733904
 30
0.0
 10
761.5777575065
 20
252.8029517433
 30
0.0
 10
761.5780633634
 20
252.8085131326
 30
0.0
 10
761.5785496709
 20
252.8164583503
 30
0.0
 10
761.5791121613
 20
252.8259924721
 30
0.0
 10
761.579869247
 20
252.8387045762
 30
0.0
 10
761.5808150619
 20
252.8545954919
 30
0.0
 10
761.5817541725
 20
252.8704833383
 30
0.0
 10
761.5825219851
 20
252.8832003533
 30
0.0
 10
761.5829639098
 20
252.8911331778
 30
0.0
 10
761.5833493547
 20
252.8967168316
 30
0.0
 10
761.5834505433
 20
252.8998594954
 30
0.0
 10
761.5831031931
 20
252.902821353
 30
0.0
 10
761.5828225845
 20
252.9065855829
 30
0.0
 10
761.5822877818
 20
252.912573753
 30
0.0
 10
761.581648679
 20
252.9200708173
 30
0.0
 10
761.580609609
 20
252.9320594648
 30
0.0
 10
761.57931696
 20
252.9470477831
 30
0.0
 10
761.5780201892
 20
252.9620343847
 30
0.0
 10
761.5769877141
 20
252.9740257788
 30
0.0
 10
761.5763321241
 20
252.9815159764
 30
0.0
 10
761.5758311201
 20
252.9875182233
 30
0.0
 10
761.5754644692
 20
252.9912466173
 30
0.0
 10
761.5752937375
 20
252.9942820352
 30
0.0
 10
761.5746754687
 20
252.9971250503
 30
0.0
 10
761.5733855989
 20
253.002010948
 30
0.0
 10
761.5716513963
 20
253.0090374316
 30
0.0
 10
761.5688160721
 20
253.0202537668
 30
0.0
 10
761.565292542
 20
253.0342829564
 30
0.0
 10
761.5617622614
 20
253.0483096115
 30
0.0
 10
761.5589377381
 20
253.059530002
 30
0.0
 10
761.5568242924
 20
253.0679496163
 30
0.0
 10
761.5550467229
 20
253.074951946
 30
0.0
 10
761.553834626
 20
253.0798811188
 30
0.0
 10
761.5530917056
 20
253.0826547787
 30
0.0
 10
761.5526761958
 20
253.0848561851
 30
0.0
 10
761.5517191107
 20
253.0865944509
 30
0.0
 10
761.5506319048
 20
253.0890736873
 30
0.0
 10
761.5486412787
 20
253.0933370819
 30
0.0
 10
761.5458435459
 20
253.099467001
 30
0.0
 10
761.5424665549
 20
253.1068060421
 30
0.0
 10
761.5379708557
 20
253.1165974017
 30
0.0
 10
761.5334728466
 20
253.1263866562
 30
0.0
 10
761.5289765507
 20
253.1361777473
 30
0.0
 10
761.5256014992
 20
253.1435176611
 30
0.0
 10
761.5222369095
 20
253.1508702747
 30
0.0
 10
761.5194005698
 20
253.1569579569
 30
0.0
 10
761.5174788364
 20
253.1612967196
 30
0.0
 10
761.51628125
 20
253.163655201
 30
0.0
 10
761.514709068
 20
253.1655586386
 30
0.0
 10
761.5128721016
 20
253.1680937421
 30
0.0
 10
761.5098612757
 20
253.1720628337
 30
0.0
 10
761.5061222953
 20
253.177054027
 30
0.0
 10
761.5001261538
 20
253.1850231799
 30
0.0
 10
761.4926360653
 20
253.1949909791
 30
0.0
 10
761.4851428395
 20
253.2049542916
 30
0.0
 10
761.4791517177
 20
253.2129306231
 30
0.0
 10
761.4754001882
 20
253.2179038699
 30
0.0
 10
761.4724150879
 20
253.221909752
 30
0.0
 10
761.470512631
 20
253.2243511969
 30
0.0
 10
761.4690748809
 20
253.226446887
 30
0.0
 10
761.4677659836
 20
253.2276283908
 30
0.0
 10
761.4663924722
 20
253.2287005354
 30
0.0
 10
761.4636786871
 20
253.2309010792
 30
0.0
 10
761.4595940498
 20
253.234178269
 30
0.0
 10
761.4541558426
 20
253.2385613505
 30
0.0
 10
761.4487155125
 20
253.2429408539
 30
0.0
 10
761.4414624262
 20
253.2487812813
 30
0.0
 10
761.434209463
 20
253.2546223275
 30
0.0
 10
761.4269556153
 20
253.2604607003
 30
0.0
 10
761.42151776
 20
253.2648468814
 30
0.0
 10
761.4169781475
 20
253.2684784744
 30
0.0
 10
761.4138162511
 20
253.271066823
 30
0.0
 10
761.4119847319
 20
253.2724736893
 30
0.0
 10
761.4106807326
 20
253.2737321995
 30
0.0
 10
761.4091105336
 20
253.274213363
 30
0.0
 10
761.4071097884
 20
253.2751260616
 30
0.0
 10
761.4035652221
 20
253.2765969517
 30
0.0
 10
761.3985241739
 20
253.2787642709
 30
0.0
 10
761.3924652353
 20
253.281336785
 30
0.0
 10
761.3843900293
 20
253.2847766696
 30
0.0
 10
761.3763139115
 20
253.2882138974
 30
0.0
 10
761.3682379953
 20
253.2916516964
 30
0.0
 10
761.3621813652
 20
253.2942309889
 30
0.0
 10
761.3561234059
 20
253.2968062229
 30
0.0
 10
761.3515836937
 20
253.2987491162
 30
0.0
 10
761.3485513722
 20
253.3000265338
 30
0.0
 10
761.3470456525
 20
253.3006971092
 30
0.0
 10
761.3454993379
 20
253.301243787
 30
0.0
 10
761.3432444277
 20
253.3013831633
 30
0.0
 10
761.3404919267
 20
253.3017592373
 30
0.0
 10
761.3360509645
 20
253.302248148
 30
0.0
 10
761.3305124198
 20
253.3028979293
 30
0.0
 10
761.3216436575
 20
253.3039158793
 30
0.0
 10
761.3105602536
 20
253.3051964962
 30
0.0
 10
761.2994755173
 20
253.3064715209
 30
0.0
 10
761.2906088867
 20
253.3074984184
 30
0.0
 10
761.2850650128
 20
253.3081258311
 30
0.0
 10
761.2806349755
 20
253.3086605976
 30
0.0
 10
761.2778546625
 20
253.3089199349
 30
0.0
 10
761.2756568418
 20
253.3092989359
 30
0.0
 10
761.2739361111
 20
253.3091135281
 30
0.0
 10
761.2721951024
 20
253.3087965131
 30
0.0
 10
761.268723516
 20
253.3082301823
 30
0.0
 10
761.2635117553
 20
253.3073522516
 30
0.0
 10
761.2565652451
 20
253.3061979293
 30
0.0
 10
761.249618065
 20
253.3050392596
 30
0.0
 10
761.240355392
 20
253.3034958836
 30
0.0
 10
761.2241456047
 20
253.3007942644
 30
0.0
 10
761.2102515388
 20
253.2984788346
 30
0.0
 10
761.2009888198
 20
253.2969351606
 30
0.0
  0
SPLINE
  5
355
100
AcDbEntity
  8
0
100
AcDbSpline
 62
2
  6
CONTINUOUS
 70
0
 71
3
 72
307
 73
303
 74
0
 42
0.0000001
 43
0.0000001
 44
0.0000000001
 40
0.0
 40
0.0
 40
0.0
 40
0.0
 40
0.015625
 40
0.0234375
 40
0.03125
 40
0.0390625
 40
0.046875
 40
0.05078125
 40
0.0546875
 40
0.056640625
 40
0.05859375
 40
0.060546875
 40
0.0615234375
 40
0.0620117188
 40
0.0625
 40
0.0629882812
 40
0.0634765625
 40
0.064453125
 40
0.06640625
 40
0.068359375
 40
0.0703125
 40
0.07421875
 40
0.078125
 40
0.0859375
 40
0.09375
 40
0.1015625
 40
0.109375
 40
0.11328125
 40
0.1171875
 40
0.119140625
 40
0.12109375
 40
0.123046875
 40
0.1240234375
 40
0.1245117188
 40
0.125
 40
0.1254882812
 40
0.1259765625
 40
0.126953125
 40
0.12890625
 40
0.130859375
 40
0.1328125
 40
0.13671875
 40
0.140625
 40
0.1484375
 40
0.15625
 40
0.1640625
 40
0.171875
 40
0.17578125
 40
0.1796875
 40
0.181640625
 40
0.18359375
 40
0.185546875
 40
0.1865234375
 40
0.1870117188
 40
0.1875
 40
0.1879882812
 40
0.1884765625
 40
0.189453125
 40
0.19140625
 40
0.193359375
 40
0.1953125
 40
0.19921875
 40
0.203125
 40
0.2109375
 40
0.21875
 40
0.2265625
 40
0.234375
 40
0.23828125
 40
0.2421875
 40
0.244140625
 40
0.24609375
 40
0.248046875
 40
0.2490234375
 40
0.2495117188
 40
0.25
 40
0.2504882812
 40
0.2509765625
 40
0.251953125
 40
0.25390625
 40
0.255859375
 40
0.2578125
 40
0.26171875
 40
0.265625
 40
0.2734375
 40
0.28125
 40
0.2890625
 40
0.296875
 40
0.30078125
 40
0.3046875
 40
0.306640625
 40
0.30859375
 40
0.310546875
 40
0.3115234375
 40
0.3120117188
 40
0.3125
 40
0.3129882812
 40
0.3134765625
 40
0.314453125
 40
0.31640625
 40
0.318359375
 40
0.3203125
 40
0.32421875
 40
0.328125
 40
0.3359375
 40
0.34375
 40
0.3515625
 40
0.359375
 40
0.36328125
 40
0.3671875
 40
0.369140625
 40
0.37109375
 40
0.373046875
 40
0.3740234375
 40
0.3745117188
 40
0.375
 40
0.3754882812
 40
0.3759765625
 40
0.376953125
 40
0.37890625
 40
0.380859375
 40
0.3828125
 40
0.38671875
 40
0.390625
 40
0.3984375
 40
0.40625
 40
0.4140625
 40
0.421875
 40
0.42578125
 40
0.4296875
 40
0.431640625
 40
0.43359375
 40
0.435546875
 40
0.4365234375
 40
0.4370117188
 40
0.4375
 40
0.4379882812
 40
0.4384765625
 40
0.439453125
 40
0.44140625
 40
0.443359375
 40
0.4453125
 40
0.44921875
 40
0.453125
 40
0.4609375
 40
0.46875
 40
0.4765625
 40
0.484375
 40
0.48828125
 40
0.4921875
 40
0.494140625
 40
0.49609375
 40
0.498046875
 40
0.4990234375
 40
0.4995117188
 40
0.5
 40
0.5004882812
 40
0.5009765625
 40
0.501953125
 40
0.50390625
 40
0.505859375
 40
0.5078125
 40
0.51171875
 40
0.515625
 40
0.5234375
 40
0.53125
 40
0.5390625
 40
0.546875
 40
0.55078125
 40
0.5546875
 40
0.556640625
 40
0.55859375
 40
0.560546875
 40
0.5615234375
 40
0.5620117188
 40
0.5625
 40
0.5629882812
 40
0.5634765625
 40
0.564453125
 40
0.56640625
 40
0.568359375
 40
0.5703125
 40
0.57421875
 40
0.578125
 40
0.5859375
 40
0.59375
 40
0.6015625
 40
0.609375
 40
0.61328125
 40
0.6171875
 40
0.619140625
 40
0.62109375
 40
0.623046875
 40
0.6240234375
 40
0.6245117188
 40
0.625
 40
0.6254882812
 40
0.6259765625
 40
0.626953125
 40
0.62890625
 40
0.630859375
 40
0.6328125
 40
0.63671875
 40
0.640625
 40
0.6484375
 40
0.65625
 40
0.6640625
 40
0.671875
 40
0.67578125
 40
0.6796875
 40
0.681640625
 40
0.68359375
 40
0.685546875
 40
0.6865234375
 40
0.6870117188
 40
0.6875
 40
0.6879882812
 40
0.6884765625
 40
0.689453125
 40
0.69140625
 40
0.693359375
 40
0.6953125
 40
0.69921875
 40
0.703125
 40
0.7109375
 40
0.71875
 40
0.7265625
 40
0.734375
 40
0.73828125
 40
0.7421875
 40
0.744140625
 40
0.74609375
 40
0.748046875
 40
0.7490234375
 40
0.7495117188
 40
0.75
 40
0.7504882812
 40
0.7509765625
 40
0.751953125
 40
0.75390625
 40
0.755859375
 40
0.7578125
 40
0.76171875
 40
0.765625
 40
0.7734375
 40
0.78125
 40
0.7890625
 40
0.796875
 40
0.80078125
 40
0.8046875
 40
0.806640625
 40
0.80859375
 40
0.810546875
 40
0.8115234375
 40
0.8125
 40
0.8134765625
 40
0.814453125
 40
0.81640625
 40
0.818359375
 40
0.8203125
 40
0.82421875
 40
0.828125
 40
0.8359375
 40
0.84375
 40
0.8515625
 40
0.859375
 40
0.86328125
 40
0.8671875
 40
0.869140625
 40
0.87109375
 40
0.873046875
 40
0.8740234375
 40
0.875
 40
0.8759765625
 40
0.876953125
 40
0.87890625
 40
0.880859375
 40
0.8828125
 40
0.88671875
 40
0.890625
 40
0.8984375
 40
0.90625
 40
0.9140625
 40
0.921875
 40
0.92578125
 40
0.9296875
 40
0.931640625
 40
0.93359375
 40
0.935546875
 40
0.9365234375
 40
0.9375
 40
0.9384765625
 40
0.939453125
 40
0.94140625
 40
0.943359375
 40
0.9453125
 40
0.94921875
 40
0.953125
 40
0.9609375
 40
0.96875
 40
0.9765625
 40
0.984375
 40
1.0
 40
1.0
 40
1.0
 40
1.0
 10
770.7186460758
 20
254.3741825617
 30
0.0
 10
770.7201484588
 20
254.3536404998
 30
0.0
 10
770.7224020322
 20
254.3228274061
 30
0.0
 10
770.7254068015
 20
254.2817432838
 30
0.0
 10
770.7276603664
 20
254.2509301857
 30
0.0
 10
770.729913977
 20
254.2201171118
 30
0.0
 10
770.7317918438
 20
254.194439475
 30
0.0
 10
770.7332944554
 20
254.173897534
 30
0.0
 10
770.7342328631
 20
254.1610584373
 30
0.0
 10
770.7349852486
 20
254.1507880383
 30
0.0
 10
770.7355449945
 20
254.1430828343
 30
0.0
 10
770.736025902
 20
254.1366694807
 30
0.0
 10
770.7363341746
 20
254.1321651209
 30
0.0
 10
770.7365546164
 20
254.1296146415
 30
0.0
 10
770.7365951931
 20
254.1276357495
 30
0.0
 10
770.7371126451
 20
254.1259092672
 30
0.0
 10
770.7376362417
 20
254.1235192475
 30
0.0
 10
770.7386300363
 20
254.119377734
 30
0.0
 10
770.7400092247
 20
254.1134398399
 30
0.0
 10
770.7416815939
 20
254.1063235467
 30
0.0
 10
770.7439053618
 20
254.0968319495
 30
0.0
 10
770.7466871459
 20
254.0849685508
 30
0.0
 10
770.7511368409
 20
254.065986499
 30
0.0
 10
770.75669936
 20
254.042259147
 30
0.0
 10
770.7633742005
 20
254.0137862246
 30
0.0
 10
770.77004913
 20
253.9853133618
 30
0.0
 10
770.7756114268
 20
253.9615858606
 30
0.0
 10
770.7800615664
 20
253.9426041072
 30
0.0
 10
770.7828422205
 20
253.93073995
 30
0.0
 10
770.7850683077
 20
253.9212499096
 30
0.0
 10
770.7867335912
 20
253.9141288602
 30
0.0
 10
770.7881349489
 20
253.9082058472
 30
0.0
 10
770.7890891676
 20
253.9040377684
 30
0.0
 10
770.7896761748
 20
253.9016903129
 30
0.0
 10
770.7899988496
 20
253.8998330871
 30
0.0
 10
770.7907709772
 20
253.898345246
 30
0.0
 10
770.7916437065
 20
253.8962326123
 30
0.0
 10
770.7932440268
 20
253.8925955349
 30
0.0
 10
770.7954920104
 20
253.8873683248
 30
0.0
 10
770.7982059365
 20
253.8811091066
 30
0.0
 10
770.8018187954
 20
253.8727587901
 30
0.0
 10
770.8063368239
 20
253.8623225012
 30
0.0
 10
770.8135645766
 20
253.8456235406
 30
0.0
 10
770.822599645
 20
253.8247501505
 30
0.0
 10
770.8334415547
 20
253.7997019388
 30
0.0
 10
770.8442835495
 20
253.7746538045
 30
0.0
 10
770.8533184052
 20
253.7537802208
 30
0.0
 10
770.8605465831
 20
253.7370816474
 30
0.0
 10
770.865063531
 20
253.7266443744
 30
0.0
 10
770.8686786077
 20
253.7182960777
 30
0.0
 10
770.8713857581
 20
253.7120306888
 30
0.0
 10
770.8736549414
 20
253.7068227852
 30
0.0
 10
770.8752174167
 20
253.7031512425
 30
0.0
 10
770.8761507831
 20
253.7010938309
 30
0.0
 10
770.876736653
 20
253.6994363653
 30
0.0
 10
770.8777588809
 20
253.6982162208
 30
0.0
 10
770.878969645
 20
253.696436819
 30
0.0
 10
770.8811593978
 20
253.6933939383
 30
0.0
 10
770.8842505407
 20
253.6890098083
 30
0.0
 10
770.8879757816
 20
253.6837647569
 30
0.0
 10
770.8929372265
 20
253.6767658
 30
0.0
 10
770.8991409307
 20
253.6680190059
 30
0.0
 10
770.9090657963
 20
253.6540230719
 30
0.0
 10
770.9214722441
 20
253.6365285226
 30
0.0
 10
770.9363598171
 20
253.6155348912
 30
0.0
 10
770.9512474626
 20
253.5945413596
 30
0.0
 10
770.9636537292
 20
253.5770465607
 30
0.0
 10
770.9735789574
 20
253.5630511258
 30
0.0
 10
770.97978174
 20
253.554303063
 30
0.0
 10
770.9847450763
 20
253.5473067102
 30
0.0
 10
770.9884645391
 20
253.5420537029
 30
0.0
 10
770.9915737602
 20
253.5376944649
 30
0.0
 10
770.9937312403
 20
253.5346071479
 30
0.0
 10
770.9949937134
 20
253.5328989443
 30
0.0
 10
770.9958571075
 20
253.5314601017
 30
0.0
 10
770.9970395311
 20
253.5306240297
 30
0.0
 10
770.9985048148
 20
253.529299014
 30
0.0
 10
771.0011209093
 20
253.5270781972
 30
0.0
 10
771.0048310804
 20
253.5238543867
 30
0.0
 10
771.0092948883
 20
253.5200077358
 30
0.0
 10
771.0152425796
 20
253.5148712112
 30
0.0
 10
771.0226785814
 20
253.5084531772
 30
0.0
 10
771.0345754084
 20
253.498182857
 30
0.0
 10
771.0494467099
 20
253.4853454631
 30
0.0
 10
771.0672921505
 20
253.4699403586
 30
0.0
 10
771.0851376477
 20
253.4545353715
 30
0.0
 10
771.1000088077
 20
253.4416976838
 30
0.0
 10
771.1119059177
 20
253.4314279513
 30
0.0
 10
771.1193412004
 20
253.4250084235
 30
0.0
 10
771.1252903675
 20
253.4198749649
 30
0.0
 10
771.1297496665
 20
253.4160189469
 30
0.0
 10
771.1334739449
 20
253.412824444
 30
0.0
 10
771.1360648555
 20
253.4105513082
 30
0.0
 10
771.1375704902
 20
253.4093101207
 30
0.0
 10
771.1386289685
 20
253.4082165551
 30
0.0
 10
771.1399578807
 20
253.4077448156
 30
0.0
 10
771.1416354332
 20
253.4068989296
 30
0.0
 10
771.1446151005
 20
253.4055196868
 30
0.0
 10
771.1488487903
 20
253.4034965059
 30
0.0
 10
771.1539390533
 20
253.4010913034
 30
0.0
 10
771.1607226354
 20
253.397876468
 30
0.0
 10
771.1692032893
 20
253.3938606284
 30
0.0
 10
771.1827716779
 20
253.3874337729
 30
0.0
 10
771.1997323903
 20
253.3794007259
 30
0.0
 10
771.2200851436
 20
253.3697608298
 30
0.0
 10
771.2404379407
 20
253.3601210569
 30
0.0
 10
771.2573985434
 20
253.352087702
 30
0.0
 10
771.2709671515
 20
253.3456614624
 30
0.0
 10
771.2794472475
 20
253.3416440574
 30
0.0
 10
771.2862319745
 20
253.3384324349
 30
0.0
 10
771.2913187398
 20
253.3360174166
 30
0.0
 10
771.2955633728
 20
253.3340249471
 30
0.0
 10
771.2985235047
 20
253.3325908792
 30
0.0
 10
771.3002323579
 20
253.3318328369
 30
0.0
 10
771.3014651245
 20
253.3310912697
 30
0.0
 10
771.3028847099
 20
253.3310111318
 30
0.0
 10
771.3047123259
 20
253.3306735672
 30
0.0
 10
771.3079410153
 20
253.3301903232
 30
0.0
 10
771.3125375555
 20
253.3294437755
 30
0.0
 10
771.318060198
 20
253.3285719733
 30
0.0
 10
771.3254213482
 20
253.3274011684
 30
0.0
 10
771.3346235985
 20
253.3259405392
 30
0.0
 10
771.3493467448
 20
253.323601924
 30
0.0
 10
771.3677508343
 20
253.3206792108
 30
0.0
 10
771.3898356711
 20
253.3171717002
 30
0.0
 10
771.4119205394
 20
253.3136643191
 30
0.0
 10
771.4303245503
 20
253.3107412822
 30
0.0
 10
771.4450478538
 20
253.3084033144
 30
0.0
 10
771.4542497046
 20
253.3069410399
 30
0.0
 10
771.4616116747
 20
253.3057736118
 30
0.0
 10
771.4671318124
 20
253.3048914932
 30
0.0
 10
771.4717361895
 20
253.304177223
 30
0.0
 10
771.4749508887
 20
253.3036363581
 30
0.0
 10
771.4768009205
 20
253.3033911167
 30
0.0
 10
771.478151652
 20
253.3030273918
 30
0.0
 10
771.4796430222
 20
253.30335093
 30
0.0
 10
771.4815824594
 20
253.3035425893
 30
0.0
 10
771.4849993307
 20
253.3039896853
 30
0.0
 10
771.489868626
 20
253.30457
 30
0.0
 10
771.4957168952
 20
253.305291372
 30
0.0
 10
771.5035128008
 20
253.3062444713
 30
0.0
 10
771.5132582946
 20
253.3074388347
 30
0.0
 10
771.5288507429
 20
253.309348145
 30
0.0
 10
771.5483414202
 20
253.3117353599
 30
0.0
 10
771.5717301839
 20
253.3145997545
 30
0.0
 10
771.5951189568
 20
253.3174642788
 30
0.0
 10
771.6146096109
 20
253.3198511693
 30
0.0
 10
771.6302021056
 20
253.3217611284
 30
0.0
 10
771.6399474812
 20
253.3229538426
 30
0.0
 10
771.6477436296
 20
253.3239103269
 30
0.0
 10
771.6535911571
 20
253.3246213576
 30
0.0
 10
771.6584627727
 20
253.3252340277
 30
0.0
 10
771.661875502
 20
253.3256233637
 30
0.0
 10
771.6638215759
 20
253.3259075691
 30
0.0
 10
771.6652925602
 20
253.3259468351
 30
0.0
 10
771.6667198574
 20
253.3266507896
 30
0.0
 10
771.6686381589
 20
253.3273575448
 30
0.0
 10
771.6719880866
 20
253.32870239
 30
0.0
 10
771.6767774095
 20
253.3305671214
 30
0.0
 10
771.6825230082
 20
253.3328289726
 30
0.0
 10
771.6901843614
 20
253.3358363309
 30
0.0
 10
771.6997608629
 20
253.3395984199
 30
0.0
 10
771.7150833715
 20
253.3456161459
 30
0.0
 10
771.7342364703
 20
253.3531388615
 30
0.0
 10
771.757220207
 20
253.362165866
 30
0.0
 10
771.7802039304
 20
253.3711929945
 30
0.0
 10
771.7993570623
 20
253.3787154001
 30
0.0
 10
771.8146795046
 20
253.3847337461
 30
0.0
 10
771.8242561746
 20
253.3884942594
 30
0.0
 10
771.831917182
 20
253.3915048517
 30
0.0
 10
771.8376638371
 20
253.3937568227
 30
0.0
 10
771.8424498547
 20
253.395652467
 30
0.0
 10
771.845805683
 20
253.3969421274
 30
0.0
 10
771.8477145303
 20
253.3977373025
 30
0.0
 10
771.8491708678
 20
253.3981696593
 30
0.0
 10
771.8505327815
 20
253.3992290011
 30
0.0
 10
771.8523816025
 20
253.4004227574
 30
0.0
 10
771.8556016938
 20
253.402613727
 30
0.0
 10
771.860209847
 20
253.4056904112
 30
0.0
 10
771.8657361967
 20
253.4094052345
 30
0.0
 10
771.8731058626
 20
253.4143503679
 30
0.0
 10
771.8823175342
 20
253.4205345118
 30
0.0
 10
771.8970564384
 20
253.4304276172
 30
0.0
 10
771.9154799888
 20
253.4427945254
 30
0.0
 10
771.9375882879
 20
253.457634576
 30
0.0
 10
771.9596965603
 20
253.4724747411
 30
0.0
 10
771.9781201778
 20
253.484841363
 30
0.0
 10
771.9928589478
 20
253.4947350411
 30
0.0
 10
772.0020709605
 20
253.5009177296
 30
0.0
 10
772.0094399261
 20
253.5058658499
 30
0.0
 10
772.0149684152
 20
253.5095715477
 30
0.0
 10
772.0195698751
 20
253.5126767834
 30
0.0
 10
772.022801915
 20
253.5148167838
 30
0.0
 10
772.0246315912
 20
253.5160922056
 30
0.0
 10
772.0260523116
 20
253.5169006971
 30
0.0
 10
772.027287781
 20
253.518275206
 30
0.0
 10
772.028999691
 20
253.5199104514
 30
0.0
 10
772.0319654271
 20
253.5228641185
 30
0.0
 10
772.0362179329
 20
253.5270355507
 30
0.0
 10
772.0413142027
 20
253.5320618544
 30
0.0
 10
772.0481115823
 20
253.5387564027
 30
0.0
 10
772.056607501
 20
253.54712705
 30
0.0
 10
772.0702014214
 20
253.5605187093
 30
0.0
 10
772.0871936661
 20
253.5772587587
 30
0.0
 10
772.1075844321
 20
253.5973466015
 30
0.0
 10
772.1279751576
 20
253.6174345498
 30
0.0
 10
772.1449675037
 20
253.6341743351
 30
0.0
 10
772.1585612213
 20
253.6475665226
 30
0.0
 10
772.1670576556
 20
253.6559358273
 30
0.0
 10
772.1738539768
 20
253.6626331313
 30
0.0
 10
772.17895348
 20
253.6676510161
 30
0.0
 10
772.1831958692
 20
253.6718487892
 30
0.0
 10
772.1861796652
 20
253.6747554334
 30
0.0
 10
772.1878626388
 20
253.6764660212
 30
0.0
 10
772.1891869918
 20
253.6776091022
 30
0.0
 10
772.1902738797
 20
253.6792867988
 30
0.0
 10
772.1918058941
 20
253.6813372477
 30
0.0
 10
772.194448327
 20
253.6850124177
 30
0.0
 10
772.1982434077
 20
253.6902172365
 30
0.0
 10
772.2027888683
 20
253.696482462
 30
0.0
 10
772.2088524989
 20
253.7048293049
 30
0.0
 10
772.2164310042
 20
253.7152651839
 30
0.0
 10
772.2285571903
 20
253.7319612904
 30
0.0
 10
772.2437147227
 20
253.7528318714
 30
0.0
 10
772.2619038565
 20
253.7778763685
 30
0.0
 10
772.280092931
 20
253.8029209493
 30
0.0
 10
772.2952506117
 20
253.8237913211
 30
0.0
 10
772.3073765011
 20
253.840487846
 30
0.0
 10
772.3149557607
 20
253.8509226614
 30
0.0
 10
772.3210178432
 20
253.8592716873
 30
0.0
 10
772.3255680332
 20
253.8655302438
 30
0.0
 10
772.3293483169
 20
253.8707559282
 30
0.0
 10
772.3320171648
 20
253.8743938495
 30
0.0
 10
772.3335068557
 20
253.8765039803
 30
0.0
 10
772.3347237477
 20
253.8779983533
 30
0.0
 10
772.3355598272
 20
253.8798299673
 30
0.0
 10
772.3368074314
 20
253.8821544858
 30
0.0
 10
772.3389288501
 20
253.8862772009
 30
0.0
 10
772.3419918044
 20
253.8921381398
 30
0.0
 10
772.3456535002
 20
253.8991835313
 30
0.0
 10
772.3505405984
 20
253.9085731029
 30
0.0
 10
772.3566478151
 20
253.920311534
 30
0.0
 10
772.3664202866
 20
253.9390922046
 30
0.0
 10
772.3786355647
 20
253.96256832
 30
0.0
 10
772.3932940048
 20
253.9907395574
 30
0.0
 10
772.4079525177
 20
254.0189107554
 30
0.0
 10
772.4201676137
 20
254.0423869691
 30
0.0
 10
772.4299404495
 20
254.0611674429
 30
0.0
 10
772.4360467402
 20
254.0729063744
 30
0.0
 10
772.440935739
 20
254.0822949191
 30
0.0
 10
772.4445916285
 20
254.0893434477
 30
0.0
 10
772.447672749
 20
254.0951945714
 30
0.0
 10
772.450060165
 20
254.0999262707
 30
0.0
 10
772.4520624405
 20
254.1033362342
 30
0.0
 10
772.4532566023
 20
254.1072760417
 30
0.0
 10
772.4551311026
 20
254.1123440369
 30
0.0
 10
772.4573773775
 20
254.1187425315
 30
0.0
 10
772.4601143625
 20
254.1263935447
 30
0.0
 10
772.4637491964
 20
254.1366043892
 30
0.0
 10
772.4682976967
 20
254.1493646941
 30
0.0
 10
772.4755725253
 20
254.1697829991
 30
0.0
 10
772.4846670191
 20
254.1953052547
 30
0.0
 10
772.4955799706
 20
254.225932239
 30
0.0
 10
772.5064931532
 20
254.2565591139
 30
0.0
 10
772.5155870695
 20
254.282081643
 30
0.0
 10
772.522863053
 20
254.302499401
 30
0.0
 10
772.527408618
 20
254.3152610963
 30
0.0
 10
772.5310494765
 20
254.3254690873
 30
0.0
 10
772.5337680556
 20
254.3331288182
 30
0.0
 10
772.5360719181
 20
254.3395000371
 30
0.0
 10
772.5378289287
 20
254.3446236799
 30
0.0
 10
772.5393818969
 20
254.3483935432
 30
0.0
 10
772.5400370638
 20
254.3524415476
 30
0.0
 10
772.5412242334
 20
254.3577417285
 30
0.0
 10
772.5426005961
 20
254.3644002892
 30
0.0
 10
772.5442982872
 20
254.3723762937
 30
0.0
 10
772.546545789
 20
254.38301595
 30
0.0
 10
772.5493606744
 20
254.396313814
 30
0.0
 10
772.5538614115
 20
254.4175913502
 30
0.0
 10
772.559488397
 20
254.4441879422
 30
0.0
 10
772.5662402913
 20
254.4761039979
 30
0.0
 10
772.5729924362
 20
254.5080199973
 30
0.0
 10
772.5786187951
 20
254.53461673
 30
0.0
 10
772.5831207852
 20
254.5558939847
 30
0.0
 10
772.5859324858
 20
254.5691925641
 30
0.0
 10
772.5881865244
 20
254.5798307521
 30
0.0
 10
772.5898642449
 20
254.5878112426
 30
0.0
 10
772.5913030908
 20
254.5944557678
 30
0.0
 10
772.5923627827
 20
254.5997845836
 30
0.0
 10
772.5934072588
 20
254.6037451389
 30
0.0
 10
772.5934985986
 20
254.6078433224
 30
0.0
 10
772.5939533279
 20
254.6132594917
 30
0.0
 10
772.5944075086
 20
254.6200461978
 30
0.0
 10
772.5950014199
 20
254.628183185
 30
0.0
 10
772.5957762238
 20
254.6390349671
 30
0.0
 10
772.5967505762
 20
254.6525988505
 30
0.0
 10
772.5983062717
 20
254.6743015358
 30
0.0
 10
772.6002520127
 20
254.7014297305
 30
0.0
 10
772.602586421
 20
254.7339836336
 30
0.0
 10
772.6049209581
 20
254.7665375181
 30
0.0
 10
772.608033629
 20
254.8099427039
 30
0.0
 10
772.6103681423
 20
254.8424965918
 30
0.0
 10
772.6119244823
 20
254.8641991841
 30
0.0
  0
SPLINE
  5
356
100
AcDbEntity
  8
0
100
AcDbSpline
 62
2
  6
CONTINUOUS
 70
0
 71
3
 72
307
 73
303
 74
0
 42
0.0000001
 43
0.0000001
 44
0.0000000001
 40
0.0
 40
0.0
 40
0.0
 40
0.0
 40
0.015625
 40
0.0234375
 40
0.03125
 40
0.0390625
 40
0.046875
 40
0.05078125
 40
0.0546875
 40
0.056640625
 40
0.05859375
 40
0.060546875
 40
0.0615234375
 40
0.0620117188
 40
0.0625
 40
0.0629882812
 40
0.0634765625
 40
0.064453125
 40
0.06640625
 40
0.068359375
 40
0.0703125
 40
0.07421875
 40
0.078125
 40
0.0859375
 40
0.09375
 40
0.1015625
 40
0.109375
 40
0.11328125
 40
0.1171875
 40
0.119140625
 40
0.12109375
 40
0.123046875
 40
0.1240234375
 40
0.1245117188
 40
0.125
 40
0.1254882812
 40
0.1259765625
 40
0.126953125
 40
0.12890625
 40
0.130859375
 40
0.1328125
 40
0.13671875
 40
0.140625
 40
0.1484375
 40
0.15625
 40
0.1640625
 40
0.171875
 40
0.17578125
 40
0.1796875
 40
0.181640625
 40
0.18359375
 40
0.185546875
 40
0.1865234375
 40
0.1870117188
 40
0.1875
 40
0.1879882812
 40
0.1884765625
 40
0.189453125
 40
0.19140625
 40
0.193359375
 40
0.1953125
 40
0.19921875
 40
0.203125
 40
0.2109375
 40
0.21875
 40
0.2265625
 40
0.234375
 40
0.23828125
 40
0.2421875
 40
0.244140625
 40
0.24609375
 40
0.248046875
 40
0.2490234375
 40
0.2495117188
 40
0.25
 40
0.2504882812
 40
0.2509765625
 40
0.251953125
 40
0.25390625
 40
0.255859375
 40
0.2578125
 40
0.26171875
 40
0.265625
 40
0.2734375
 40
0.28125
 40
0.2890625
 40
0.296875
 40
0.30078125
 40
0.3046875
 40
0.306640625
 40
0.30859375
 40
0.310546875
 40
0.3115234375
 40
0.3120117188
 40
0.3125
 40
0.3129882812
 40
0.3134765625
 40
0.314453125
 40
0.31640625
 40
0.318359375
 40
0.3203125
 40
0.32421875
 40
0.328125
 40
0.3359375
 40
0.34375
 40
0.3515625
 40
0.359375
 40
0.36328125
 40
0.3671875
 40
0.369140625
 40
0.37109375
 40
0.373046875
 40
0.3740234375
 40
0.3745117188
 40
0.375
 40
0.3754882812
 40
0.3759765625
 40
0.376953125
 40
0.37890625
 40
0.380859375
 40
0.3828125
 40
0.38671875
 40
0.390625
 40
0.3984375
 40
0.40625
 40
0.4140625
 40
0.421875
 40
0.42578125
 40
0.4296875
 40
0.431640625
 40
0.43359375
 40
0.435546875
 40
0.4365234375
 40
0.4370117188
 40
0.4375
 40
0.4379882812
 40
0.4384765625
 40
0.439453125
 40
0.44140625
 40
0.443359375
 40
0.4453125
 40
0.44921875
 40
0.453125
 40
0.4609375
 40
0.46875
 40
0.4765625
 40
0.484375
 40
0.48828125
 40
0.4921875
 40
0.494140625
 40
0.49609375
 40
0.498046875
 40
0.4990234375
 40
0.4995117188
 40
0.5
 40
0.5004882812
 40
0.5009765625
 40
0.501953125
 40
0.50390625
 40
0.505859375
 40
0.5078125
 40
0.51171875
 40
0.515625
 40
0.5234375
 40
0.53125
 40
0.5390625
 40
0.546875
 40
0.55078125
 40
0.5546875
 40
0.556640625
 40
0.55859375
 40
0.560546875
 40
0.5615234375
 40
0.5620117188
 40
0.5625
 40
0.5629882812
 40
0.5634765625
 40
0.564453125
 40
0.56640625
 40
0.568359375
 40
0.5703125
 40
0.57421875
 40
0.578125
 40
0.5859375
 40
0.59375
 40
0.6015625
 40
0.609375
 40
0.61328125
 40
0.6171875
 40
0.619140625
 40
0.62109375
 40
0.623046875
 40
0.6240234375
 40
0.6245117188
 40
0.625
 40
0.6254882812
 40
0.6259765625
 40
0.626953125
 40
0.62890625
 40
0.630859375
 40
0.6328125
 40
0.63671875
 40
0.640625
 40
0.6484375
 40
0.65625
 40
0.6640625
 40
0.671875
 40
0.67578125
 40
0.6796875
 40
0.681640625
 40
0.68359375
 40
0.685546875
 40
0.6865234375
 40
0.6870117188
 40
0.6875
 40
0.6879882812
 40
0.6884765625
 40
0.689453125
 40
0.69140625
 40
0.693359375
 40
0.6953125
 40
0.69921875
 40
0.703125
 40
0.7109375
 40
0.71875
 40
0.7265625
 40
0.734375
 40
0.73828125
 40
0.7421875
 40
0.744140625
 40
0.74609375
 40
0.748046875
 40
0.7490234375
 40
0.7495117188
 40
0.75
 40
0.7504882812
 40
0.7509765625
 40
0.751953125
 40
0.75390625
 40
0.755859375
 40
0.7578125
 40
0.76171875
 40
0.765625
 40
0.7734375
 40
0.78125
 40
0.7890625
 40
0.796875
 40
0.80078125
 40
0.8046875
 40
0.806640625
 40
0.80859375
 40
0.810546875
 40
0.8115234375
 40
0.8125
 40
0.8134765625
 40
0.814453125
 40
0.81640625
 40
0.818359375
 40
0.8203125
 40
0.82421875
 40
0.828125
 40
0.8359375
 40
0.84375
 40
0.8515625
 40
0.859375
 40
0.86328125
 40
0.8671875
 40
0.869140625
 40
0.87109375
 40
0.873046875
 40
0.8740234375
 40
0.875
 40
0.8759765625
 40
0.876953125
 40
0.87890625
 40
0.880859375
 40
0.8828125
 40
0.88671875
 40
0.890625
 40
0.8984375
 40
0.90625
 40
0.9140625
 40
0.921875
 40
0.92578125
 40
0.9296875
 40
0.931640625
 40
0.93359375
 40
0.935546875
 40
0.9365234375
 40
0.9375
 40
0.9384765625
 40
0.939453125
 40
0.94140625
 40
0.943359375
 40
0.9453125
 40
0.94921875
 40
0.953125
 40
0.9609375
 40
0.96875
 40
0.9765625
 40
0.984375
 40
1.0
 40
1.0
 40
1.0
 40
1.0
 10
772.6119244823
 20
254.864199071
 30
0.0
 10
772.6104220992
 20
254.884741133
 30
0.0
 10
772.6081685258
 20
254.9155542267
 30
0.0
 10
772.6051637565
 20
254.956638349
 30
0.0
 10
772.6029101916
 20
254.987451447
 30
0.0
 10
772.600656581
 20
255.018264521
 30
0.0
 10
772.5987787143
 20
255.0439421578
 30
0.0
 10
772.5972761026
 20
255.0644840988
 30
0.0
 10
772.5963376949
 20
255.0773231954
 30
0.0
 10
772.5955853094
 20
255.0875935945
 30
0.0
 10
772.5950255635
 20
255.0952987984
 30
0.0
 10
772.594544656
 20
255.101712152
 30
0.0
 10
772.5942363835
 20
255.1062165119
 30
0.0
 10
772.5940159417
 20
255.1087669913
 30
0.0
 10
772.5939753649
 20
255.1107458833
 30
0.0
 10
772.5934579129
 20
255.1124723656
 30
0.0
 10
772.5929343163
 20
255.1148623853
 30
0.0
 10
772.5919405217
 20
255.1190038988
 30
0.0
 10
772.5905613333
 20
255.1249417929
 30
0.0
 10
772.5888889642
 20
255.1320580861
 30
0.0
 10
772.5866651962
 20
255.1415496833
 30
0.0
 10
772.5838834121
 20
255.153413082
 30
0.0
 10
772.5794337171
 20
255.1723951338
 30
0.0
 10
772.573871198
 20
255.1961224858
 30
0.0
 10
772.5671963575
 20
255.2245954082
 30
0.0
 10
772.560521428
 20
255.253068271
 30
0.0
 10
772.5549591312
 20
255.2767957722
 30
0.0
 10
772.5505089916
 20
255.2957775256
 30
0.0
 10
772.5477283375
 20
255.3076416827
 30
0.0
 10
772.5455022503
 20
255.3171317232
 30
0.0
 10
772.5438369668
 20
255.3242527726
 30
0.0
 10
772.5424356091
 20
255.3301757856
 30
0.0
 10
772.5414813904
 20
255.3343438643
 30
0.0
 10
772.5408943832
 20
255.3366913199
 30
0.0
 10
772.5405717084
 20
255.3385485457
 30
0.0
 10
772.5397995808
 20
255.3400363868
 30
0.0
 10
772.5389268515
 20
255.3421490205
 30
0.0
 10
772.5373265312
 20
255.3457860979
 30
0.0
 10
772.5350785476
 20
255.351013308
 30
0.0
 10
772.5323646215
 20
255.3572725262
 30
0.0
 10
772.5287517626
 20
255.3656228427
 30
0.0
 10
772.5242337341
 20
255.3760591316
 30
0.0
 10
772.5170059814
 20
255.3927580922
 30
0.0
 10
772.5079709131
 20
255.4136314823
 30
0.0
 10
772.4971290033
 20
255.438679694
 30
0.0
 10
772.4862870086
 20
255.4637278283
 30
0.0
 10
772.4772521528
 20
255.484601412
 30
0.0
 10
772.470023975
 20
255.5012999854
 30
0.0
 10
772.465507027
 20
255.5117372584
 30
0.0
 10
772.4618919503
 20
255.5200855551
 30
0.0
 10
772.4591847999
 20
255.526350944
 30
0.0
 10
772.4569156167
 20
255.5315588476
 30
0.0
 10
772.4553531413
 20
255.5352303903
 30
0.0
 10
772.4544197749
 20
255.5372878019
 30
0.0
 10
772.453833905
 20
255.5389452675
 30
0.0
 10
772.4528116771
 20
255.540165412
 30
0.0
 10
772.4516009131
 20
255.5419448138
 30
0.0
 10
772.4494111602
 20
255.5449876945
 30
0.0
 10
772.4463200174
 20
255.5493718245
 30
0.0
 10
772.4425947765
 20
255.5546168758
 30
0.0
 10
772.4376333315
 20
255.5616158328
 30
0.0
 10
772.4314296274
 20
255.5703626268
 30
0.0
 10
772.4215047617
 20
255.5843585609
 30
0.0
 10
772.4090983139
 20
255.6018531102
 30
0.0
 10
772.3942107409
 20
255.6228467416
 30
0.0
 10
772.3793230954
 20
255.6438402732
 30
0.0
 10
772.3669168288
 20
255.6613350721
 30
0.0
 10
772.3569916007
 20
255.675330507
 30
0.0
 10
772.350788818
 20
255.6840785698
 30
0.0
 10
772.3458254817
 20
255.6910749226
 30
0.0
 10
772.3421060189
 20
255.6963279299
 30
0.0
 10
772.3389967978
 20
255.7006871678
 30
0.0
 10
772.3368393178
 20
255.7037744849
 30
0.0
 10
772.3355768446
 20
255.7054826885
 30
0.0
 10
772.3347134506
 20
255.706921531
 30
0.0
 10
772.3335310269
 20
255.707757603
 30
0.0
 10
772.3320657432
 20
255.7090826188
 30
0.0
 10
772.3294496487
 20
255.7113034356
 30
0.0
 10
772.3257394776
 20
255.7145272461
 30
0.0
 10
772.3212756697
 20
255.7183738969
 30
0.0
 10
772.3153279784
 20
255.7235104216
 30
0.0
 10
772.3078919767
 20
255.7299284556
 30
0.0
 10
772.2959951496
 20
255.7401987758
 30
0.0
 10
772.2811238481
 20
255.7530361696
 30
0.0
 10
772.2632784075
 20
255.7684412742
 30
0.0
 10
772.2454329104
 20
255.7838462613
 30
0.0
 10
772.2305617503
 20
255.796683949
 30
0.0
 10
772.2186646404
 20
255.8069536815
 30
0.0
 10
772.2112293577
 20
255.8133732093
 30
0.0
 10
772.2052801905
 20
255.8185066679
 30
0.0
 10
772.2008208915
 20
255.8223626859
 30
0.0
 10
772.1970966131
 20
255.8255571887
 30
0.0
 10
772.1945057026
 20
255.8278303246
 30
0.0
 10
772.1930000678
 20
255.8290715121
 30
0.0
 10
772.1919415896
 20
255.8301650776
 30
0.0
 10
772.1906126773
 20
255.8306368172
 30
0.0
 10
772.1889351248
 20
255.8314827032
 30
0.0
 10
772.1859554575
 20
255.832861946
 30
0.0
 10
772.1817217677
 20
255.8348851269
 30
0.0
 10
772.1766315047
 20
255.8372903293
 30
0.0
 10
772.1698479226
 20
255.8405051648
 30
0.0
 10
772.1613672688
 20
255.8445210044
 30
0.0
 10
772.1477988802
 20
255.8509478599
 30
0.0
 10
772.1308381677
 20
255.8589809068
 30
0.0
 10
772.1104854145
 20
255.8686208029
 30
0.0
 10
772.0901326173
 20
255.8782605759
 30
0.0
 10
772.0731720146
 20
255.8862939307
 30
0.0
 10
772.0596034065
 20
255.8927201704
 30
0.0
 10
772.0511233105
 20
255.8967375754
 30
0.0
 10
772.0443385836
 20
255.8999491979
 30
0.0
 10
772.0392518182
 20
255.9023642162
 30
0.0
 10
772.0350071852
 20
255.9043566857
 30
0.0
 10
772.0320470533
 20
255.9057907536
 30
0.0
 10
772.0303382001
 20
255.9065487959
 30
0.0
 10
772.0291054335
 20
255.907290363
 30
0.0
 10
772.0276858481
 20
255.907370501
 30
0.0
 10
772.0258582321
 20
255.9077080656
 30
0.0
 10
772.0226295427
 20
255.9081913096
 30
0.0
 10
772.0180330025
 20
255.9089378573
 30
0.0
 10
772.01251036
 20
255.9098096595
 30
0.0
 10
772.0051492098
 20
255.9109804644
 30
0.0
 10
771.9959469595
 20
255.9124410936
 30
0.0
 10
771.9812238132
 20
255.9147797088
 30
0.0
 10
771.9628197237
 20
255.917702422
 30
0.0
 10
771.9407348869
 20
255.9212099326
 30
0.0
 10
771.9186500186
 20
255.9247173137
 30
0.0
 10
771.9002460077
 20
255.9276403506
 30
0.0
 10
771.8855227043
 20
255.9299783184
 30
0.0
 10
771.8763208534
 20
255.9314405928
 30
0.0
 10
771.8689588833
 20
255.932608021
 30
0.0
 10
771.8634387456
 20
255.9334901396
 30
0.0
 10
771.8588343686
 20
255.9342044097
 30
0.0
 10
771.8556196693
 20
255.9347452746
 30
0.0
 10
771.8537696375
 20
255.9349905161
 30
0.0
 10
771.852418906
 20
255.935354241
 30
0.0
 10
771.8509275358
 20
255.9350307027
 30
0.0
 10
771.8489880986
 20
255.9348390435
 30
0.0
 10
771.8455712273
 20
255.9343919474
 30
0.0
 10
771.840701932
 20
255.9338116328
 30
0.0
 10
771.8348536629
 20
255.9330902608
 30
0.0
 10
771.8270577572
 20
255.9321371615
 30
0.0
 10
771.8173122634
 20
255.9309427981
 30
0.0
 10
771.8017198152
 20
255.9290334878
 30
0.0
 10
771.7822291378
 20
255.9266462729
 30
0.0
 10
771.7588403742
 20
255.9237818783
 30
0.0
 10
771.7354516012
 20
255.9209173539
 30
0.0
 10
771.7159609471
 20
255.9185304635
 30
0.0
 10
771.7003684524
 20
255.9166205044
 30
0.0
 10
771.6906230769
 20
255.9154277901
 30
0.0
 10
771.6828269284
 20
255.9144713059
 30
0.0
 10
771.6769794009
 20
255.9137602752
 30
0.0
 10
771.6721077853
 20
255.913147605
 30
0.0
 10
771.6686950561
 20
255.9127582691
 30
0.0
 10
771.6667489822
 20
255.9124740636
 30
0.0
 10
771.6652779978
 20
255.9124347977
 30
0.0
 10
771.6638507006
 20
255.9117308432
 30
0.0
 10
771.6619323991
 20
255.911024088
 30
0.0
 10
771.6585824714
 20
255.9096792428
 30
0.0
 10
771.6537931485
 20
255.9078145114
 30
0.0
 10
771.6480475498
 20
255.9055526602
 30
0.0
 10
771.6403861966
 20
255.9025453019
 30
0.0
 10
771.6308096951
 20
255.8987832129
 30
0.0
 10
771.6154871865
 20
255.8927654869
 30
0.0
 10
771.5963340877
 20
255.8852427713
 30
0.0
 10
771.5733503511
 20
255.8762157668
 30
0.0
 10
771.5503666277
 20
255.8671886383
 30
0.0
 10
771.5312134957
 20
255.8596662326
 30
0.0
 10
771.5158910534
 20
255.8536478867
 30
0.0
 10
771.5063143834
 20
255.8498873734
 30
0.0
 10
771.498653376
 20
255.8468767811
 30
0.0
 10
771.4929067209
 20
255.8446248101
 30
0.0
 10
771.4881207033
 20
255.8427291657
 30
0.0
 10
771.484764875
 20
255.8414395054
 30
0.0
 10
771.4828560278
 20
255.8406443302
 30
0.0
 10
771.4813996902
 20
255.8402119734
 30
0.0
 10
771.4800377765
 20
255.8391526317
 30
0.0
 10
771.4781889555
 20
255.8379588754
 30
0.0
 10
771.4749688643
 20
255.8357679057
 30
0.0
 10
771.4703607111
 20
255.8326912215
 30
0.0
 10
771.4648343613
 20
255.8289763982
 30
0.0
 10
771.4574646954
 20
255.8240312648
 30
0.0
 10
771.4482530239
 20
255.817847121
 30
0.0
 10
771.4335141197
 20
255.8079540155
 30
0.0
 10
771.4150905692
 20
255.7955871074
 30
0.0
 10
771.3929822701
 20
255.7807470568
 30
0.0
 10
771.3708739978
 20
255.7659068916
 30
0.0
 10
771.3524503802
 20
255.7535402698
 30
0.0
 10
771.3377116102
 20
255.7436465917
 30
0.0
 10
771.3284995975
 20
255.7374639032
 30
0.0
 10
771.3211306319
 20
255.7325157829
 30
0.0
 10
771.3156021428
 20
255.7288100851
 30
0.0
 10
771.3110006829
 20
255.7257048494
 30
0.0
 10
771.307768643
 20
255.723564849
 30
0.0
 10
771.3059389668
 20
255.7222894271
 30
0.0
 10
771.3045182464
 20
255.7214809357
 30
0.0
 10
771.3032827771
 20
255.7201064268
 30
0.0
 10
771.301570867
 20
255.7184711814
 30
0.0
 10
771.2986051309
 20
255.7155175143
 30
0.0
 10
771.2943526251
 20
255.7113460821
 30
0.0
 10
771.2892563553
 20
255.7063197784
 30
0.0
 10
771.2824589757
 20
255.6996252301
 30
0.0
 10
771.273963057
 20
255.6912545827
 30
0.0
 10
771.2603691366
 20
255.6778629234
 30
0.0
 10
771.243376892
 20
255.6611228741
 30
0.0
 10
771.2229861259
 20
255.6410350313
 30
0.0
 10
771.2025954004
 20
255.6209470829
 30
0.0
 10
771.1856030543
 20
255.6042072977
 30
0.0
 10
771.1720093368
 20
255.5908151101
 30
0.0
 10
771.1635129024
 20
255.5824458055
 30
0.0
 10
771.1567165812
 20
255.5757485014
 30
0.0
 10
771.151617078
 20
255.5707306167
 30
0.0
 10
771.1473746888
 20
255.5665328436
 30
0.0
 10
771.1443908928
 20
255.5636261994
 30
0.0
 10
771.1427079193
 20
255.5619156115
 30
0.0
 10
771.1413835662
 20
255.5607725306
 30
0.0
 10
771.1402966783
 20
255.559094834
 30
0.0
 10
771.1387646639
 20
255.5570443851
 30
0.0
 10
771.136122231
 20
255.553369215
 30
0.0
 10
771.1323271503
 20
255.5481643963
 30
0.0
 10
771.1277816897
 20
255.5418991708
 30
0.0
 10
771.1217180592
 20
255.5335523279
 30
0.0
 10
771.1141395538
 20
255.5231164489
 30
0.0
 10
771.1020133677
 20
255.5064203424
 30
0.0
 10
771.0868558353
 20
255.4855497614
 30
0.0
 10
771.0686667015
 20
255.4605052643
 30
0.0
 10
771.0504776271
 20
255.4354606835
 30
0.0
 10
771.0353199463
 20
255.4145903117
 30
0.0
 10
771.0231940569
 20
255.3978937868
 30
0.0
 10
771.0156147974
 20
255.3874589713
 30
0.0
 10
771.0095527148
 20
255.3791099455
 30
0.0
 10
771.0050025249
 20
255.372851389
 30
0.0
 10
771.0012222411
 20
255.3676257046
 30
0.0
 10
770.9985533932
 20
255.3639877833
 30
0.0
 10
770.9970637023
 20
255.3618776525
 30
0.0
 10
770.9958468103
 20
255.3603832795
 30
0.0
 10
770.9950107309
 20
255.3585516655
 30
0.0
 10
770.9937631266
 20
255.356227147
 30
0.0
 10
770.9916417079
 20
255.3521044319
 30
0.0
 10
770.9885787536
 20
255.346243493
 30
0.0
 10
770.9849170579
 20
255.3391981014
 30
0.0
 10
770.9800299596
 20
255.3298085299
 30
0.0
 10
770.9739227429
 20
255.3180700988
 30
0.0
 10
770.9641502715
 20
255.2992894281
 30
0.0
 10
770.9519349933
 20
255.2758133128
 30
0.0
 10
770.9372765532
 20
255.2476420754
 30
0.0
 10
770.9226180403
 20
255.2194708774
 30
0.0
 10
770.9104029443
 20
255.1959946636
 30
0.0
 10
770.9006301085
 20
255.1772141898
 30
0.0
 10
770.8945238178
 20
255.1654752584
 30
0.0
 10
770.8896348191
 20
255.1560867137
 30
0.0
 10
770.8859789295
 20
255.1490381851
 30
0.0
 10
770.8828978091
 20
255.1431870614
 30
0.0
 10
770.880510393
 20
255.1384553621
 30
0.0
 10
770.8785081175
 20
255.1350453986
 30
0.0
 10
770.8773139557
 20
255.1311055911
 30
0.0
 10
770.8754394555
 20
255.1260375959
 30
0.0
 10
770.8731931805
 20
255.1196391013
 30
0.0
 10
770.8704561955
 20
255.1119880881
 30
0.0
 10
770.8668213616
 20
255.1017772436
 30
0.0
 10
770.8622728613
 20
255.0890169387
 30
0.0
 10
770.8549980327
 20
255.0685986337
 30
0.0
 10
770.8459035389
 20
255.0430763781
 30
0.0
 10
770.8349905874
 20
255.0124493938
 30
0.0
 10
770.8240774048
 20
254.9818225188
 30
0.0
 10
770.8149834885
 20
254.9562999897
 30
0.0
 10
770.8077075051
 20
254.9358822317
 30
0.0
 10
770.8031619401
 20
254.9231205365
 30
0.0
 10
770.7995210815
 20
254.9129125455
 30
0.0
 10
770.7968025024
 20
254.9052528146
 30
0.0
 10
770.7944986399
 20
254.8988815956
 30
0.0
 10
770.7927416293
 20
254.8937579529
 30
0.0
 10
770.7911886611
 20
254.8899880895
 30
0.0
 10
770.7905334942
 20
254.8859400852
 30
0.0
 10
770.7893463246
 20
254.8806399043
 30
0.0
 10
770.7879699619
 20
254.8739813436
 30
0.0
 10
770.7862722708
 20
254.8660053391
 30
0.0
 10
770.784024769
 20
254.8553656828
 30
0.0
 10
770.7812098836
 20
254.8420678188
 30
0.0
 10
770.7767091465
 20
254.8207902825
 30
0.0
 10
770.771082161
 20
254.7941936906
 30
0.0
 10
770.7643302668
 20
254.7622776349
 30
0.0
 10
770.7575781219
 20
254.7303616355
 30
0.0
 10
770.7519517629
 20
254.7037649028
 30
0.0
 10
770.7474497728
 20
254.682487648
 30
0.0
 10
770.7446380722
 20
254.6691890687
 30
0.0
 10
770.7423840336
 20
254.6585508807
 30
0.0
 10
770.7407063131
 20
254.6505703902
 30
0.0
 10
770.7392674672
 20
254.6439258649
 30
0.0
 10
770.7382077753
 20
254.6385970492
 30
0.0
 10
770.7371632993
 20
254.6346364939
 30
0.0
 10
770.7370719594
 20
254.6305383104
 30
0.0
 10
770.7366172301
 20
254.625122141
 30
0.0
 10
770.7361630494
 20
254.618335435
 30
0.0
 10
770.7355691381
 20
254.6101984478
 30
0.0
 10
770.7347943342
 20
254.5993466656
 30
0.0
 10
770.7338199819
 20
254.5857827823
 30
0.0
 10
770.7322642863
 20
254.5640800969
 30
0.0
 10
770.7303185454
 20
254.5369519022
 30
0.0
 10
770.727984137
 20
254.5043979992
 30
0.0
 10
770.7256496
 20
254.4718441147
 30
0.0
 10
770.7225369291
 20
254.4284389289
 30
0.0
 10
770.7202024157
 20
254.395885041
 30
0.0
 10
770.7186460758
 20
254.3741824487
 30
0.0
  0
SPLINE
  5
357
100
AcDbEntity
  8
0
100
AcDbSpline
 62
2
  6
CONTINUOUS
 70
0
 71
3
 72
375
 73
371
 74
0
 42
0.0000001
 43
0.0000001
 44
0.0000000001
 40
0.0
 40
0.0
 40
0.0
 40
0.0
 40
0.015625
 40
0.0234375
 40
0.03125
 40
0.0390625
 40
0.04296875
 40
0.046875
 40
0.05078125
 40
0.0546875
 40
0.056640625
 40
0.05859375
 40
0.060546875
 40
0.0615234375
 40
0.0620117188
 40
0.0625
 40
0.0629882812
 40
0.0634765625
 40
0.064453125
 40
0.06640625
 40
0.068359375
 40
0.0703125
 40
0.07421875
 40
0.078125
 40
0.08203125
 40
0.0859375
 40
0.09375
 40
0.1015625
 40
0.10546875
 40
0.109375
 40
0.11328125
 40
0.1171875
 40
0.119140625
 40
0.12109375
 40
0.1220703125
 40
0.123046875
 40
0.1240234375
 40
0.1245117188
 40
0.1247558594
 40
0.125
 40
0.1252441406
 40
0.1254882812
 40
0.1259765625
 40
0.126953125
 40
0.1279296875
 40
0.12890625
 40
0.130859375
 40
0.1328125
 40
0.13671875
 40
0.140625
 40
0.14453125
 40
0.1484375
 40
0.15625
 40
0.1640625
 40
0.16796875
 40
0.171875
 40
0.17578125
 40
0.1796875
 40
0.181640625
 40
0.18359375
 40
0.1845703125
 40
0.185546875
 40
0.1865234375
 40
0.1870117188
 40
0.1872558594
 40
0.1875
 40
0.1877441406
 40
0.1879882812
 40
0.1884765625
 40
0.189453125
 40
0.1904296875
 40
0.19140625
 40
0.193359375
 40
0.1953125
 40
0.19921875
 40
0.203125
 40
0.20703125
 40
0.2109375
 40
0.21875
 40
0.2265625
 40
0.23046875
 40
0.234375
 40
0.23828125
 40
0.2421875
 40
0.244140625
 40
0.24609375
 40
0.2470703125
 40
0.248046875
 40
0.2490234375
 40
0.2495117188
 40
0.2497558594
 40
0.25
 40
0.2502441406
 40
0.2504882812
 40
0.2509765625
 40
0.251953125
 40
0.2529296875
 40
0.25390625
 40
0.255859375
 40
0.2578125
 40
0.26171875
 40
0.265625
 40
0.26953125
 40
0.2734375
 40
0.28125
 40
0.2890625
 40
0.29296875
 40
0.296875
 40
0.30078125
 40
0.3046875
 40
0.306640625
 40
0.30859375
 40
0.3095703125
 40
0.310546875
 40
0.3115234375
 40
0.3120117188
 40
0.3122558594
 40
0.3125
 40
0.3127441406
 40
0.3129882812
 40
0.3134765625
 40
0.314453125
 40
0.3154296875
 40
0.31640625
 40
0.318359375
 40
0.3203125
 40
0.32421875
 40
0.328125
 40
0.33203125
 40
0.3359375
 40
0.34375
 40
0.3515625
 40
0.35546875
 40
0.359375
 40
0.36328125
 40
0.3671875
 40
0.369140625
 40
0.37109375
 40
0.3720703125
 40
0.373046875
 40
0.3740234375
 40
0.3745117188
 40
0.3747558594
 40
0.375
 40
0.3752441406
 40
0.3754882812
 40
0.3759765625
 40
0.376953125
 40
0.3779296875
 40
0.37890625
 40
0.380859375
 40
0.3828125
 40
0.38671875
 40
0.390625
 40
0.39453125
 40
0.3984375
 40
0.40625
 40
0.4140625
 40
0.41796875
 40
0.421875
 40
0.42578125
 40
0.4296875
 40
0.431640625
 40
0.43359375
 40
0.4345703125
 40
0.435546875
 40
0.4365234375
 40
0.4370117188
 40
0.4372558594
 40
0.4375
 40
0.4377441406
 40
0.4379882812
 40
0.4384765625
 40
0.439453125
 40
0.4404296875
 40
0.44140625
 40
0.443359375
 40
0.4453125
 40
0.44921875
 40
0.453125
 40
0.45703125
 40
0.4609375
 40
0.46875
 40
0.4765625
 40
0.48046875
 40
0.484375
 40
0.48828125
 40
0.4921875
 40
0.494140625
 40
0.49609375
 40
0.4970703125
 40
0.498046875
 40
0.4990234375
 40
0.4995117188
 40
0.4997558594
 40
0.5
 40
0.5002441406
 40
0.5004882812
 40
0.5009765625
 40
0.501953125
 40
0.5029296875
 40
0.50390625
 40
0.505859375
 40
0.5078125
 40
0.51171875
 40
0.515625
 40
0.51953125
 40
0.5234375
 40
0.53125
 40
0.5390625
 40
0.54296875
 40
0.546875
 40
0.55078125
 40
0.5546875
 40
0.556640625
 40
0.55859375
 40
0.5595703125
 40
0.560546875
 40
0.5615234375
 40
0.5620117188
 40
0.5622558594
 40
0.5625
 40
0.5627441406
 40
0.5629882812
 40
0.5634765625
 40
0.564453125
 40
0.5654296875
 40
0.56640625
 40
0.568359375
 40
0.5703125
 40
0.57421875
 40
0.578125
 40
0.58203125
 40
0.5859375
 40
0.59375
 40
0.6015625
 40
0.60546875
 40
0.609375
 40
0.61328125
 40
0.6171875
 40
0.619140625
 40
0.62109375
 40
0.6220703125
 40
0.623046875
 40
0.6240234375
 40
0.6245117188
 40
0.6247558594
 40
0.625
 40
0.6252441406
 40
0.6254882812
 40
0.6259765625
 40
0.626953125
 40
0.6279296875
 40
0.62890625
 40
0.630859375
 40
0.6328125
 40
0.63671875
 40
0.640625
 40
0.64453125
 40
0.6484375
 40
0.65625
 40
0.6640625
 40
0.66796875
 40
0.671875
 40
0.67578125
 40
0.6796875
 40
0.681640625
 40
0.68359375
 40
0.6845703125
 40
0.685546875
 40
0.6865234375
 40
0.6870117188
 40
0.6872558594
 40
0.6875
 40
0.6877441406
 40
0.6879882812
 40
0.6884765625
 40
0.689453125
 40
0.6904296875
 40
0.69140625
 40
0.693359375
 40
0.6953125
 40
0.69921875
 40
0.703125
 40
0.70703125
 40
0.7109375
 40
0.71875
 40
0.7265625
 40
0.734375
 40
0.73828125
 40
0.7421875
 40
0.744140625
 40
0.74609375
 40
0.748046875
 40
0.7490234375
 40
0.7495117188
 40
0.75
 40
0.7504882812
 40
0.7509765625
 40
0.751953125
 40
0.75390625
 40
0.755859375
 40
0.7578125
 40
0.76171875
 40
0.765625
 40
0.7734375
 40
0.78125
 40
0.7890625
 40
0.796875
 40
0.80078125
 40
0.8046875
 40
0.806640625
 40
0.80859375
 40
0.810546875
 40
0.8115234375
 40
0.8120117188
 40
0.8125
 40
0.8129882812
 40
0.8134765625
 40
0.814453125
 40
0.81640625
 40
0.818359375
 40
0.8203125
 40
0.82421875
 40
0.828125
 40
0.8359375
 40
0.84375
 40
0.8515625
 40
0.859375
 40
0.86328125
 40
0.8671875
 40
0.869140625
 40
0.87109375
 40
0.873046875
 40
0.8740234375
 40
0.8745117188
 40
0.875
 40
0.8754882812
 40
0.8759765625
 40
0.876953125
 40
0.87890625
 40
0.880859375
 40
0.8828125
 40
0.88671875
 40
0.890625
 40
0.8984375
 40
0.90625
 40
0.9140625
 40
0.921875
 40
0.92578125
 40
0.9296875
 40
0.931640625
 40
0.93359375
 40
0.935546875
 40
0.9365234375
 40
0.9370117188
 40
0.9375
 40
0.9379882812
 40
0.9384765625
 40
0.939453125
 40
0.94140625
 40
0.943359375
 40
0.9453125
 40
0.94921875
 40
0.953125
 40
0.9609375
 40
0.96875
 40
0.9765625
 40
0.984375
 40
1.0
 40
1.0
 40
1.0
 40
1.0
 10
770.0734111379
 20
254.2071834713
 30
0.0
 10
770.0759375542
 20
254.1726398171
 30
0.0
 10
770.0797271793
 20
254.120824336
 30
0.0
 10
770.0847800104
 20
254.0517370269
 30
0.0
 10
770.0885696392
 20
253.9999215478
 30
0.0
 10
770.0917276461
 20
253.9567419729
 30
0.0
 10
770.09425409
 20
253.9221983333
 30
0.0
 10
770.0961488179
 20
253.896290548
 30
0.0
 10
770.0980439467
 20
253.8703829749
 30
0.0
 10
770.0996219719
 20
253.8487926697
 30
0.0
 10
770.1008871888
 20
253.8315219058
 30
0.0
 10
770.1018284607
 20
253.8185647886
 30
0.0
 10
770.1026371577
 20
253.8077800549
 30
0.0
 10
770.1031555506
 20
253.8002054964
 30
0.0
 10
770.1035262468
 20
253.7959165951
 30
0.0
 10
770.103594481
 20
253.7925888785
 30
0.0
 10
770.1044646313
 20
253.7896856156
 30
0.0
 10
770.1053451144
 20
253.7856665441
 30
0.0
 10
770.1070162854
 20
253.7787021503
 30
0.0
 10
770.1093355368
 20
253.7687169521
 30
0.0
 10
770.1121478029
 20
253.756750151
 30
0.0
 10
770.1158873035
 20
253.7407890239
 30
0.0
 10
770.1205651751
 20
253.7208394653
 30
0.0
 10
770.1261771224
 20
253.6968992019
 30
0.0
 10
770.1317894706
 20
253.6729591506
 30
0.0
 10
770.1392724615
 20
253.6410390081
 30
0.0
 10
770.1486262486
 20
253.6011388559
 30
0.0
 10
770.1579800166
 20
253.5612386929
 30
0.0
 10
770.1654630381
 20
253.5293185674
 30
0.0
 10
770.1710752943
 20
253.5053784652
 30
0.0
 10
770.1766875867
 20
253.4814383928
 30
0.0
 10
770.1813643845
 20
253.4614882399
 30
0.0
 10
770.1851060749
 20
253.4455283249
 30
0.0
 10
770.1874440572
 20
253.4355529061
 30
0.0
 10
770.189315758
 20
253.4275736517
 30
0.0
 10
770.1907159333
 20
253.4215862521
 30
0.0
 10
770.1918941991
 20
253.4166061651
 30
0.0
 10
770.192696509
 20
253.413101632
 30
0.0
 10
770.1931900664
 20
253.4111278844
 30
0.0
 10
770.1934613723
 20
253.4095663234
 30
0.0
 10
770.1941105795
 20
253.4083153421
 30
0.0
 10
770.1948443729
 20
253.4065390334
 30
0.0
 10
770.196189927
 20
253.4034809678
 30
0.0
 10
770.1980800384
 20
253.399085914
 30
0.0
 10
770.2003619155
 20
253.3938231446
 30
0.0
 10
770.2033996181
 20
253.3868021736
 30
0.0
 10
770.2071983899
 20
253.3780273106
 30
0.0
 10
770.2132755062
 20
253.3639867749
 30
0.0
 10
770.2208722169
 20
253.3464363643
 30
0.0
 10
770.2299881345
 20
253.3253757606
 30
0.0
 10
770.2391040882
 20
253.3043151866
 30
0.0
 10
770.2512586806
 20
253.2762344107
 30
0.0
 10
770.2664519257
 20
253.241133445
 30
0.0
 10
770.2816451678
 20
253.2060324763
 30
0.0
 10
770.2937997651
 20
253.1779517051
 30
0.0
 10
770.3029157039
 20
253.1568911174
 30
0.0
 10
770.3120316778
 20
253.1358305649
 30
0.0
 10
770.3196282133
 20
253.1182799949
 30
0.0
 10
770.3257056866
 20
253.1042397842
 30
0.0
 10
770.32950355
 20
253.095464094
 30
0.0
 10
770.3325431173
 20
253.0884448211
 30
0.0
 10
770.3348192974
 20
253.0831768635
 30
0.0
 10
770.3367272335
 20
253.0787980426
 30
0.0
 10
770.3380409674
 20
253.0757109985
 30
0.0
 10
770.3388257447
 20
253.0739811206
 30
0.0
 10
770.3393183458
 20
253.0725875186
 30
0.0
 10
770.3401778382
 20
253.0715616175
 30
0.0
 10
770.3411958522
 20
253.0700654911
 30
0.0
 10
770.3430370029
 20
253.0675070279
 30
0.0
 10
770.345636045
 20
253.0638208384
 30
0.0
 10
770.3487682387
 20
253.0594107835
 30
0.0
 10
770.3529398365
 20
253.0535260396
 30
0.0
 10
770.3581559294
 20
253.046171709
 30
0.0
 10
770.3665007863
 20
253.0344038861
 30
0.0
 10
770.3769321634
 20
253.0196944143
 30
0.0
 10
770.3894496847
 20
253.0020429166
 30
0.0
 10
770.4019672411
 20
252.9843914541
 30
0.0
 10
770.4186573041
 20
252.9608561584
 30
0.0
 10
770.4395198873
 20
252.9314370436
 30
0.0
 10
770.4603824678
 20
252.9020179251
 30
0.0
 10
770.477072535
 20
252.8784826353
 30
0.0
 10
770.4895900786
 20
252.8608311552
 30
0.0
 10
770.5021076479
 20
252.8431797236
 30
0.0
 10
770.5125388757
 20
252.8284700462
 30
0.0
 10
770.520884037
 20
252.8167026425
 30
0.0
 10
770.5260993553
 20
252.8093472452
 30
0.0
 10
770.5302725432
 20
252.8034646908
 30
0.0
 10
770.5333998786
 20
252.7990479467
 30
0.0
 10
770.536014121
 20
252.7953826864
 30
0.0
 10
770.5378281367
 20
252.7927868609
 30
0.0
 10
770.5388896279
 20
252.7913505982
 30
0.0
 10
770.5396155722
 20
252.7901408151
 30
0.0
 10
770.5406097575
 20
252.7894378433
 30
0.0
 10
770.5418417725
 20
252.7883237661
 30
0.0
 10
770.5440413925
 20
252.7864564967
 30
0.0
 10
770.5471609155
 20
252.7837459072
 30
0.0
 10
770.5509140985
 20
252.7805116317
 30
0.0
 10
770.5559149351
 20
252.7761928264
 30
0.0
 10
770.5621671476
 20
252.7707965242
 30
0.0
 10
770.5721700355
 20
252.7621612086
 30
0.0
 10
770.5846738691
 20
252.7513674869
 30
0.0
 10
770.5996783735
 20
252.7384148397
 30
0.0
 10
770.6146829036
 20
252.7254622409
 30
0.0
 10
770.6346889347
 20
252.7081920921
 30
0.0
 10
770.6596964769
 20
252.6866044126
 30
0.0
 10
770.684704017
 20
252.6650167288
 30
0.0
 10
770.7047100515
 20
252.647746587
 30
0.0
 10
770.7197145716
 20
252.6347939675
 30
0.0
 10
770.7347191134
 20
252.621841398
 30
0.0
 10
770.7472228305
 20
252.6110474343
 30
0.0
 10
770.757225956
 20
252.6024126122
 30
0.0
 10
770.7634775639
 20
252.5970150541
 30
0.0
 10
770.7684796414
 20
252.5926988268
 30
0.0
 10
770.7722290333
 20
252.5894566753
 30
0.0
 10
770.7753604178
 20
252.5867707278
 30
0.0
 10
770.7775388631
 20
252.5848594684
 30
0.0
 10
770.7788048053
 20
252.5838158742
 30
0.0
 10
770.779694777
 20
252.582896401
 30
0.0
 10
770.7808121303
 20
252.582499761
 30
0.0
 10
770.7822226215
 20
252.5817885375
 30
0.0
 10
770.7847279347
 20
252.5806288661
 30
0.0
 10
770.7882876337
 20
252.5789277695
 30
0.0
 10
770.7925675421
 20
252.5769054681
 30
0.0
 10
770.7982711981
 20
252.5742024249
 30
0.0
 10
770.8054017572
 20
252.5708258949
 30
0.0
 10
770.816810099
 20
252.5654221759
 30
0.0
 10
770.8310707159
 20
252.5586679633
 30
0.0
 10
770.8481833749
 20
252.5505627212
 30
0.0
 10
770.8652960556
 20
252.5424575291
 30
0.0
 10
770.8881129556
 20
252.5316505889
 30
0.0
 10
770.9166340834
 20
252.5181419201
 30
0.0
 10
770.9451552096
 20
252.5046332468
 30
0.0
 10
770.9679721122
 20
252.4938263138
 30
0.0
 10
770.9850847852
 20
252.4857211
 30
0.0
 10
771.0021974732
 20
252.4776159394
 30
0.0
 10
771.0164579998
 20
252.4708614732
 30
0.0
 10
771.0278665258
 20
252.4654582714
 30
0.0
 10
771.034996616
 20
252.4620804253
 30
0.0
 10
771.0407012346
 20
252.4593800835
 30
0.0
 10
771.0449782022
 20
252.4573495289
 30
0.0
 10
771.0485471023
 20
252.4556742547
 30
0.0
 10
771.05103599
 20
252.4544684861
 30
0.0
 10
771.0524727989
 20
252.4538311218
 30
0.0
 10
771.0535093127
 20
252.4532076099
 30
0.0
 10
771.0547029043
 20
252.4531402297
 30
0.0
 10
771.0562395694
 20
252.4528564044
 30
0.0
 10
771.0589542611
 20
252.4524500914
 30
0.0
 10
771.0628190458
 20
252.4518223919
 30
0.0
 10
771.0674625001
 20
252.4510893779
 30
0.0
 10
771.0736517772
 20
252.4501049617
 30
0.0
 10
771.0813890567
 20
252.4488768602
 30
0.0
 10
771.0937683222
 20
252.446910546
 30
0.0
 10
771.109242535
 20
252.4444531171
 30
0.0
 10
771.1278115343
 20
252.4415040036
 30
0.0
 10
771.1463805485
 20
252.4385549433
 30
0.0
 10
771.171139229
 20
252.4346228441
 30
0.0
 10
771.2020875814
 20
252.4297077273
 30
0.0
 10
771.2330359327
 20
252.4247926057
 30
0.0
 10
771.257794615
 20
252.4208605142
 30
0.0
 10
771.2763636237
 20
252.417911431
 30
0.0
 10
771.2949326438
 20
252.4149624031
 30
0.0
 10
771.3104067919
 20
252.4125047077
 30
0.0
 10
771.3227861893
 20
252.410538937
 30
0.0
 10
771.3305231331
 20
252.4093094524
 30
0.0
 10
771.3367130995
 20
252.4083278753
 30
0.0
 10
771.3413544478
 20
252.4075861873
 30
0.0
 10
771.3452258217
 20
252.4069856269
 30
0.0
 10
771.3479287505
 20
252.406530866
 30
0.0
 10
771.3494842627
 20
252.4063246663
 30
0.0
 10
771.3506199618
 20
252.4060188453
 30
0.0
 10
771.3518739103
 20
252.4062908772
 30
0.0
 10
771.3535045949
 20
252.4064520249
 30
0.0
 10
771.3563775106
 20
252.4068279446
 30
0.0
 10
771.3604716286
 20
252.4073158749
 30
0.0
 10
771.3653888707
 20
252.4079224066
 30
0.0
 10
771.3719436915
 20
252.4087237754
 30
0.0
 10
771.3801377318
 20
252.4097279996
 30
0.0
 10
771.3932479089
 20
252.4113333538
 30
0.0
 10
771.4096357288
 20
252.4133405284
 30
0.0
 10
771.4293010704
 20
252.4157489314
 30
0.0
 10
771.4489664234
 20
252.4181573897
 30
0.0
 10
771.47518689
 20
252.4213686479
 30
0.0
 10
771.5079624746
 20
252.425382728
 30
0.0
 10
771.5407380589
 20
252.4293968034
 30
0.0
 10
771.5669585261
 20
252.4326080693
 30
0.0
 10
771.5866238774
 20
252.4350165047
 30
0.0
 10
771.6062892251
 20
252.4374249935
 30
0.0
 10
771.6226770259
 20
252.439431901
 30
0.0
 10
771.635787242
 20
252.4410377999
 30
0.0
 10
771.6439811829
 20
252.4420406377
 30
0.0
 10
771.6505362078
 20
252.4428448525
 30
0.0
 10
771.6554528264
 20
252.4434426892
 30
0.0
 10
771.6595488953
 20
252.4439578241
 30
0.0
 10
771.6624183283
 20
252.444285179
 30
0.0
 10
771.664054593
 20
252.4445241397
 30
0.0
 10
771.6652914011
 20
252.4445571547
 30
0.0
 10
771.6664914768
 20
252.4451490417
 30
0.0
 10
771.6681043904
 20
252.4457432836
 30
0.0
 10
771.6709210197
 20
252.4468740334
 30
0.0
 10
771.6749478967
 20
252.4484419052
 30
0.0
 10
771.6797788132
 20
252.4503436765
 30
0.0
 10
771.6862205019
 20
252.4528722723
 30
0.0
 10
771.6942724529
 20
252.4560354479
 30
0.0
 10
771.7071556639
 20
252.4610951703
 30
0.0
 10
771.723259647
 20
252.4674202894
 30
0.0
 10
771.7425844399
 20
252.4750102326
 30
0.0
 10
771.7619092292
 20
252.4826002292
 30
0.0
 10
771.7876756162
 20
252.4927202059
 30
0.0
 10
771.8198835994
 20
252.5053701838
 30
0.0
 10
771.8520915832
 20
252.5180201572
 30
0.0
 10
771.8778579694
 20
252.5281401412
 30
0.0
 10
771.897182761
 20
252.5357301159
 30
0.0
 10
771.9165075451
 20
252.5433201411
 30
0.0
 10
771.9326115555
 20
252.549645005
 30
0.0
 10
771.9454947108
 20
252.5547052479
 30
0.0
 10
771.9535468035
 20
252.5578670988
 30
0.0
 10
771.9599882014
 20
252.5603984138
 30
0.0
 10
771.9648200062
 20
252.5622918777
 30
0.0
 10
771.9688441041
 20
252.5638857411
 30
0.0
 10
771.9716656946
 20
252.5649700914
 30
0.0
 10
771.9732706591
 20
252.565638677
 30
0.0
 10
771.974495152
 20
252.5660022039
 30
0.0
 10
771.9756402531
 20
252.5668929017
 30
0.0
 10
771.9771947473
 20
252.5678966155
 30
0.0
 10
771.9799022097
 20
252.5697387893
 30
0.0
 10
771.9837767587
 20
252.5723256746
 30
0.0
 10
771.9884233301
 20
252.5754491092
 30
0.0
 10
771.9946197671
 20
252.5796069921
 30
0.0
 10
772.0023649681
 20
252.5848066386
 30
0.0
 10
772.0147574827
 20
252.5931247916
 30
0.0
 10
772.0302480597
 20
252.6035229226
 30
0.0
 10
772.0488367805
 20
252.6160004912
 30
0.0
 10
772.0674254938
 20
252.6284781103
 30
0.0
 10
772.0922104474
 20
252.645114918
 30
0.0
 10
772.1231916383
 20
252.6659109343
 30
0.0
 10
772.1541728303
 20
252.6867069463
 30
0.0
 10
772.1789577823
 20
252.7033437608
 30
0.0
 10
772.1975465003
 20
252.7158213597
 30
0.0
 10
772.2161352033
 20
252.7282990041
 30
0.0
 10
772.2316258356
 20
252.7386968993
 30
0.0
 10
772.2440182375
 20
252.7470155331
 30
0.0
 10
772.2517637253
 20
252.7522139561
 30
0.0
 10
772.2579595736
 20
252.7563743505
 30
0.0
 10
772.2626079438
 20
252.7594901123
 30
0.0
 10
772.266476865
 20
252.7621010037
 30
0.0
 10
772.2691943738
 20
252.7639003224
 30
0.0
 10
772.270732771
 20
252.7649727009
 30
0.0
 10
772.271927317
 20
252.7656524829
 30
0.0
 10
772.2729661033
 20
252.7668081742
 30
0.0
 10
772.2744054824
 20
252.7681830933
 30
0.0
 10
772.2768990821
 20
252.7706665455
 30
0.0
 10
772.2804746018
 20
252.7741738982
 30
0.0
 10
772.2847595606
 20
252.7784000293
 30
0.0
 10
772.2904748177
 20
252.7840288255
 30
0.0
 10
772.2976182115
 20
252.7910668908
 30
0.0
 10
772.3090480203
 20
252.8023266382
 30
0.0
 10
772.3233351514
 20
252.8164017195
 30
0.0
 10
772.3404797643
 20
252.8332916469
 30
0.0
 10
772.3576243624
 20
252.8501816198
 30
0.0
 10
772.3804838317
 20
252.8727015678
 30
0.0
 10
772.4090581663
 20
252.9008515086
 30
0.0
 10
772.4376325024
 20
252.9290014456
 30
0.0
 10
772.4604919693
 20
252.9515213998
 30
0.0
 10
772.4776365746
 20
252.968411354
 30
0.0
 10
772.4947811607
 20
252.9853013513
 30
0.0
 10
772.5090683753
 20
252.9993762151
 30
0.0
 10
772.5204980137
 20
253.0106364061
 30
0.0
 10
772.5276418411
 20
253.0176733426
 30
0.0
 10
772.5333562082
 20
253.0233044558
 30
0.0
 10
772.5376438858
 20
253.0275235083
 30
0.0
 10
772.5412108993
 20
253.0310530084
 30
0.0
 10
772.5437196839
 20
253.0334969236
 30
0.0
 10
772.5451347331
 20
253.034935191
 30
0.0
 10
772.546248253
 20
253.0358962968
 30
0.0
 10
772.5471621117
 20
253.0373069092
 30
0.0
 10
772.5484502339
 20
253.0390309327
 30
0.0
 10
772.5506719994
 20
253.0421210267
 30
0.0
 10
772.5538629146
 20
253.0464972538
 30
0.0
 10
772.5576847514
 20
253.0517650741
 30
0.0
 10
772.5627830701
 20
253.0587831246
 30
0.0
 10
772.5691551001
 20
253.0675576428
 30
0.0
 10
772.5793508334
 20
253.0815957792
 30
0.0
 10
772.5920953335
 20
253.0991438247
 30
0.0
 10
772.607388805
 20
253.1202013185
 30
0.0
 10
772.6226822577
 20
253.1412588551
 30
0.0
 10
772.6430735327
 20
253.1693355572
 30
0.0
 10
772.6685626379
 20
253.2044314279
 30
0.0
 10
772.6991495022
 20
253.2465465261
 30
0.0
 10
772.7246387468
 20
253.2816422724
 30
0.0
 10
772.7450297151
 20
253.309719248
 30
0.0
 10
772.7577750432
 20
253.327266496
 30
0.0
 10
772.7679690775
 20
253.3413062678
 30
0.0
 10
772.7756207041
 20
253.3518306937
 30
0.0
 10
772.7819776518
 20
253.3606182359
 30
0.0
 10
772.7864656024
 20
253.3667357861
 30
0.0
 10
772.7889706756
 20
253.3702841946
 30
0.0
 10
772.7910170084
 20
253.3727971412
 30
0.0
 10
772.7924229646
 20
253.3758771942
 30
0.0
 10
772.7945209434
 20
253.3797861185
 30
0.0
 10
772.7980883338
 20
253.3867189008
 30
0.0
 10
772.803239016
 20
253.3965746907
 30
0.0
 10
772.8093965454
 20
253.4084222632
 30
0.0
 10
772.8176147191
 20
253.4242118228
 30
0.0
 10
772.8278846509
 20
253.443951239
 30
0.0
 10
772.8443180989
 20
253.4755329258
 30
0.0
 10
772.8648593709
 20
253.51501051
 30
0.0
 10
772.8895091442
 20
253.5623833965
 30
0.0
 10
772.9141587909
 20
253.6097563802
 30
0.0
 10
772.9347003796
 20
253.6492337214
 30
0.0
 10
772.9511331942
 20
253.6808158942
 30
0.0
 10
772.9614047358
 20
253.7005540752
 30
0.0
 10
772.9696196054
 20
253.7163461698
 30
0.0
 10
772.9757872294
 20
253.7281859975
 30
0.0
 10
772.9809063281
 20
253.7380660192
 30
0.0
 10
772.9845301004
 20
253.7449555437
 30
0.0
 10
772.9865377412
 20
253.7489337778
 30
0.0
 10
772.9882211869
 20
253.7518009334
 30
0.0
 10
772.9892253152
 20
253.7551134871
 30
0.0
 10
772.9908011064
 20
253.7593748656
 30
0.0
 10
772.9934483401
 20
253.7669046629
 30
0.0
 10
772.9972878213
 20
253.7776236724
 30
0.0
 10
773.0018704933
 20
253.7905026822
 30
0.0
 10
773.0079893518
 20
253.8076690375
 30
0.0
 10
773.0156349701
 20
253.8291289189
 30
0.0
 10
773.0278696115
 20
253.8634636462
 30
0.0
 10
773.0431623422
 20
253.9063824282
 30
0.0
 10
773.0615138818
 20
253.9578848011
 30
0.0
 10
773.0798652838
 20
254.0093872393
 30
0.0
 10
773.0951583586
 20
254.0523058583
 30
0.0
 10
773.1073923117
 20
254.0866409116
 30
0.0
 10
773.1150396794
 20
254.1080999644
 30
0.0
 10
773.1211549474
 20
254.1252680203
 30
0.0
 10
773.1257485885
 20
254.1381418347
 30
0.0
 10
773.12955375
 20
254.1488770994
 30
0.0
 10
773.1322622503
 20
254.1563778785
 30
0.0
 10
773.1337398769
 20
254.1606857513
 30
0.0
 10
773.1350455355
 20
254.163855489
 30
0.0
 10
773.1355964835
 20
254.1672590379
 30
0.0
 10
773.1365943324
 20
254.1717155471
 30
0.0
 10
773.1382179141
 20
254.1795524366
 30
0.0
 10
773.1406014414
 20
254.1907281271
 30
0.0
 10
773.1434342267
 20
254.2041474589
 30
0.0
 10
773.1472208606
 20
254.2220369314
 30
0.0
 10
773.1519508703
 20
254.2443997889
 30
0.0
 10
773.1595207211
 20
254.2801797924
 30
0.0
 10
773.1689824004
 20
254.3249049925
 30
0.0
 10
773.1803367067
 20
254.378575146
 30
0.0
 10
773.1916908635
 20
254.432245333
 30
0.0
 10
773.2011529163
 20
254.4769704492
 30
0.0
 10
773.2087220203
 20
254.5127506205
 30
0.0
 10
773.2134539281
 20
254.5351130516
 30
0.0
 10
773.2172366663
 20
254.5530033991
 30
0.0
 10
773.2200813532
 20
254.5664200575
 30
0.0
 10
773.2224276431
 20
254.5776041125
 30
0.0
 10
773.2241176999
 20
254.58542607
 30
0.0
 10
773.225009039
 20
254.5899065041
 30
0.0
 10
773.2258871508
 20
254.5932365633
 30
0.0
 10
773.2259640364
 20
254.5966823157
 30
0.0
 10
773.2263460272
 20
254.6012362972
 30
0.0
 10
773.2268842977
 20
254.609224567
 30
0.0
 10
773.2277213326
 20
254.6206265509
 30
0.0
 10
773.2286966353
 20
254.6343131392
 30
0.0
 10
773.2300072167
 20
254.6525604539
 30
0.0
 10
773.2316419585
 20
254.6753701006
 30
0.0
 10
773.2342594931
 20
254.711865254
 30
0.0
 10
773.237530743
 20
254.7574842922
 30
0.0
 10
773.2414565294
 20
254.8122270967
 30
0.0
 10
773.2453822391
 20
254.8669699123
 30
0.0
 10
773.2506165457
 20
254.9399603292
 30
0.0
 10
773.2545422695
 20
254.9947031428
 30
0.0
 10
773.2571594201
 20
255.0311983516
 30
0.0
  0
SPLINE
  5
358
100
AcDbEntity
  8
0
100
AcDbSpline
 62
2
  6
CONTINUOUS
 70
0
 71
3
 72
375
 73
371
 74
0
 42
0.0000001
 43
0.0000001
 44
0.0000000001
 40
0.0
 40
0.0
 40
0.0
 40
0.0
 40
0.015625
 40
0.0234375
 40
0.03125
 40
0.0390625
 40
0.04296875
 40
0.046875
 40
0.05078125
 40
0.0546875
 40
0.056640625
 40
0.05859375
 40
0.060546875
 40
0.0615234375
 40
0.0620117188
 40
0.0625
 40
0.0629882812
 40
0.0634765625
 40
0.064453125
 40
0.06640625
 40
0.068359375
 40
0.0703125
 40
0.07421875
 40
0.078125
 40
0.08203125
 40
0.0859375
 40
0.09375
 40
0.1015625
 40
0.10546875
 40
0.109375
 40
0.11328125
 40
0.1171875
 40
0.119140625
 40
0.12109375
 40
0.1220703125
 40
0.123046875
 40
0.1240234375
 40
0.1245117188
 40
0.1247558594
 40
0.125
 40
0.1252441406
 40
0.1254882812
 40
0.1259765625
 40
0.126953125
 40
0.1279296875
 40
0.12890625
 40
0.130859375
 40
0.1328125
 40
0.13671875
 40
0.140625
 40
0.14453125
 40
0.1484375
 40
0.15625
 40
0.1640625
 40
0.16796875
 40
0.171875
 40
0.17578125
 40
0.1796875
 40
0.181640625
 40
0.18359375
 40
0.1845703125
 40
0.185546875
 40
0.1865234375
 40
0.1870117188
 40
0.1872558594
 40
0.1875
 40
0.1877441406
 40
0.1879882812
 40
0.1884765625
 40
0.189453125
 40
0.1904296875
 40
0.19140625
 40
0.193359375
 40
0.1953125
 40
0.19921875
 40
0.203125
 40
0.20703125
 40
0.2109375
 40
0.21875
 40
0.2265625
 40
0.23046875
 40
0.234375
 40
0.23828125
 40
0.2421875
 40
0.244140625
 40
0.24609375
 40
0.2470703125
 40
0.248046875
 40
0.2490234375
 40
0.2495117188
 40
0.2497558594
 40
0.25
 40
0.2502441406
 40
0.2504882812
 40
0.2509765625
 40
0.251953125
 40
0.2529296875
 40
0.25390625
 40
0.255859375
 40
0.2578125
 40
0.26171875
 40
0.265625
 40
0.26953125
 40
0.2734375
 40
0.28125
 40
0.2890625
 40
0.29296875
 40
0.296875
 40
0.30078125
 40
0.3046875
 40
0.306640625
 40
0.30859375
 40
0.3095703125
 40
0.310546875
 40
0.3115234375
 40
0.3120117188
 40
0.3122558594
 40
0.3125
 40
0.3127441406
 40
0.3129882812
 40
0.3134765625
 40
0.314453125
 40
0.3154296875
 40
0.31640625
 40
0.318359375
 40
0.3203125
 40
0.32421875
 40
0.328125
 40
0.33203125
 40
0.3359375
 40
0.34375
 40
0.3515625
 40
0.35546875
 40
0.359375
 40
0.36328125
 40
0.3671875
 40
0.369140625
 40
0.37109375
 40
0.3720703125
 40
0.373046875
 40
0.3740234375
 40
0.3745117188
 40
0.3747558594
 40
0.375
 40
0.3752441406
 40
0.3754882812
 40
0.3759765625
 40
0.376953125
 40
0.3779296875
 40
0.37890625
 40
0.380859375
 40
0.3828125
 40
0.38671875
 40
0.390625
 40
0.39453125
 40
0.3984375
 40
0.40625
 40
0.4140625
 40
0.41796875
 40
0.421875
 40
0.42578125
 40
0.4296875
 40
0.431640625
 40
0.43359375
 40
0.4345703125
 40
0.435546875
 40
0.4365234375
 40
0.4370117188
 40
0.4372558594
 40
0.4375
 40
0.4377441406
 40
0.4379882812
 40
0.4384765625
 40
0.439453125
 40
0.4404296875
 40
0.44140625
 40
0.443359375
 40
0.4453125
 40
0.44921875
 40
0.453125
 40
0.45703125
 40
0.4609375
 40
0.46875
 40
0.4765625
 40
0.48046875
 40
0.484375
 40
0.48828125
 40
0.4921875
 40
0.494140625
 40
0.49609375
 40
0.4970703125
 40
0.498046875
 40
0.4990234375
 40
0.4995117188
 40
0.4997558594
 40
0.5
 40
0.5002441406
 40
0.5004882812
 40
0.5009765625
 40
0.501953125
 40
0.5029296875
 40
0.50390625
 40
0.505859375
 40
0.5078125
 40
0.51171875
 40
0.515625
 40
0.51953125
 40
0.5234375
 40
0.53125
 40
0.5390625
 40
0.54296875
 40
0.546875
 40
0.55078125
 40
0.5546875
 40
0.556640625
 40
0.55859375
 40
0.5595703125
 40
0.560546875
 40
0.5615234375
 40
0.5620117188
 40
0.5622558594
 40
0.5625
 40
0.5627441406
 40
0.5629882812
 40
0.5634765625
 40
0.564453125
 40
0.5654296875
 40
0.56640625
 40
0.568359375
 40
0.5703125
 40
0.57421875
 40
0.578125
 40
0.58203125
 40
0.5859375
 40
0.59375
 40
0.6015625
 40
0.60546875
 40
0.609375
 40
0.61328125
 40
0.6171875
 40
0.619140625
 40
0.62109375
 40
0.6220703125
 40
0.623046875
 40
0.6240234375
 40
0.6245117188
 40
0.6247558594
 40
0.625
 40
0.6252441406
 40
0.6254882812
 40
0.6259765625
 40
0.626953125
 40
0.6279296875
 40
0.62890625
 40
0.630859375
 40
0.6328125
 40
0.63671875
 40
0.640625
 40
0.64453125
 40
0.6484375
 40
0.65625
 40
0.6640625
 40
0.66796875
 40
0.671875
 40
0.67578125
 40
0.6796875
 40
0.681640625
 40
0.68359375
 40
0.6845703125
 40
0.685546875
 40
0.6865234375
 40
0.6870117188
 40
0.6872558594
 40
0.6875
 40
0.6877441406
 40
0.6879882812
 40
0.6884765625
 40
0.689453125
 40
0.6904296875
 40
0.69140625
 40
0.693359375
 40
0.6953125
 40
0.69921875
 40
0.703125
 40
0.70703125
 40
0.7109375
 40
0.71875
 40
0.7265625
 40
0.734375
 40
0.73828125
 40
0.7421875
 40
0.744140625
 40
0.74609375
 40
0.748046875
 40
0.7490234375
 40
0.7495117188
 40
0.75
 40
0.7504882812
 40
0.7509765625
 40
0.751953125
 40
0.75390625
 40
0.755859375
 40
0.7578125
 40
0.76171875
 40
0.765625
 40
0.7734375
 40
0.78125
 40
0.7890625
 40
0.796875
 40
0.80078125
 40
0.8046875
 40
0.806640625
 40
0.80859375
 40
0.810546875
 40
0.8115234375
 40
0.8120117188
 40
0.8125
 40
0.8129882812
 40
0.8134765625
 40
0.814453125
 40
0.81640625
 40
0.818359375
 40
0.8203125
 40
0.82421875
 40
0.828125
 40
0.8359375
 40
0.84375
 40
0.8515625
 40
0.859375
 40
0.86328125
 40
0.8671875
 40
0.869140625
 40
0.87109375
 40
0.873046875
 40
0.8740234375
 40
0.8745117188
 40
0.875
 40
0.8754882812
 40
0.8759765625
 40
0.876953125
 40
0.87890625
 40
0.880859375
 40
0.8828125
 40
0.88671875
 40
0.890625
 40
0.8984375
 40
0.90625
 40
0.9140625
 40
0.921875
 40
0.92578125
 40
0.9296875
 40
0.931640625
 40
0.93359375
 40
0.935546875
 40
0.9365234375
 40
0.9370117188
 40
0.9375
 40
0.9379882812
 40
0.9384765625
 40
0.939453125
 40
0.94140625
 40
0.943359375
 40
0.9453125
 40
0.94921875
 40
0.953125
 40
0.9609375
 40
0.96875
 40
0.9765625
 40
0.984375
 40
1.0
 40
1.0
 40
1.0
 40
1.0
 10
773.2571594201
 20
255.0311981615
 30
0.0
 10
773.2546330038
 20
255.0657418157
 30
0.0
 10
773.2508433788
 20
255.1175572967
 30
0.0
 10
773.2457905476
 20
255.1866446059
 30
0.0
 10
773.2420009188
 20
255.2384600849
 30
0.0
 10
773.2388429119
 20
255.2816396599
 30
0.0
 10
773.236316468
 20
255.3161832995
 30
0.0
 10
773.2344217401
 20
255.3420910848
 30
0.0
 10
773.2325266113
 20
255.3679986578
 30
0.0
 10
773.2309485861
 20
255.3895889631
 30
0.0
 10
773.2296833693
 20
255.406859727
 30
0.0
 10
773.2287420973
 20
255.4198168441
 30
0.0
 10
773.2279334004
 20
255.4306015778
 30
0.0
 10
773.2274150075
 20
255.4381761363
 30
0.0
 10
773.2270443112
 20
255.4424650377
 30
0.0
 10
773.2269760771
 20
255.4457927543
 30
0.0
 10
773.2261059267
 20
255.4486960172
 30
0.0
 10
773.2252254436
 20
255.4527150887
 30
0.0
 10
773.2235542726
 20
255.4596794825
 30
0.0
 10
773.2212350212
 20
255.4696646807
 30
0.0
 10
773.2184227551
 20
255.4816314818
 30
0.0
 10
773.2146832545
 20
255.4975926089
 30
0.0
 10
773.2100053829
 20
255.5175421675
 30
0.0
 10
773.2043934356
 20
255.5414824309
 30
0.0
 10
773.1987810874
 20
255.5654224821
 30
0.0
 10
773.1912980966
 20
255.5973426246
 30
0.0
 10
773.1819443094
 20
255.6372427769
 30
0.0
 10
773.1725905415
 20
255.6771429398
 30
0.0
 10
773.1651075199
 20
255.7090630653
 30
0.0
 10
773.1594952638
 20
255.7330031675
 30
0.0
 10
773.1538829713
 20
255.7569432399
 30
0.0
 10
773.1492061735
 20
255.7768933928
 30
0.0
 10
773.1454644832
 20
255.7928533079
 30
0.0
 10
773.1431265008
 20
255.8028287267
 30
0.0
 10
773.1412548
 20
255.810807981
 30
0.0
 10
773.1398546247
 20
255.8167953807
 30
0.0
 10
773.1386763589
 20
255.8217754677
 30
0.0
 10
773.137874049
 20
255.8252800007
 30
0.0
 10
773.1373804916
 20
255.8272537484
 30
0.0
 10
773.1371091857
 20
255.8288153094
 30
0.0
 10
773.1364599785
 20
255.8300662906
 30
0.0
 10
773.1357261851
 20
255.8318425994
 30
0.0
 10
773.134380631
 20
255.8349006649
 30
0.0
 10
773.1324905197
 20
255.8392957188
 30
0.0
 10
773.1302086425
 20
255.8445584882
 30
0.0
 10
773.1271709399
 20
255.8515794592
 30
0.0
 10
773.1233721681
 20
255.8603543221
 30
0.0
 10
773.1172950518
 20
255.8743948579
 30
0.0
 10
773.1096983412
 20
255.8919452684
 30
0.0
 10
773.1005824236
 20
255.9130058722
 30
0.0
 10
773.0914664698
 20
255.9340664462
 30
0.0
 10
773.0793118774
 20
255.962147222
 30
0.0
 10
773.0641186323
 20
255.9972481878
 30
0.0
 10
773.0489253902
 20
256.0323491565
 30
0.0
 10
773.0367707929
 20
256.0604299277
 30
0.0
 10
773.0276548541
 20
256.0814905154
 30
0.0
 10
773.0185388803
 20
256.1025510679
 30
0.0
 10
773.0109423447
 20
256.1201016379
 30
0.0
 10
773.0048648714
 20
256.1341418485
 30
0.0
 10
773.001067008
 20
256.1429175388
 30
0.0
 10
772.9980274407
 20
256.1499368116
 30
0.0
 10
772.9957512606
 20
256.1552047693
 30
0.0
 10
772.9938433245
 20
256.1595835902
 30
0.0
 10
772.9925295906
 20
256.1626706343
 30
0.0
 10
772.9917448133
 20
256.1644005121
 30
0.0
 10
772.9912522122
 20
256.1657941142
 30
0.0
 10
772.9903927199
 20
256.1668200153
 30
0.0
 10
772.9893747059
 20
256.1683161416
 30
0.0
 10
772.9875335551
 20
256.1708746049
 30
0.0
 10
772.984934513
 20
256.1745607944
 30
0.0
 10
772.9818023193
 20
256.1789708493
 30
0.0
 10
772.9776307216
 20
256.1848555932
 30
0.0
 10
772.9724146286
 20
256.1922099238
 30
0.0
 10
772.9640697718
 20
256.2039777466
 30
0.0
 10
772.9536383947
 20
256.2186872185
 30
0.0
 10
772.9411208733
 20
256.2363387162
 30
0.0
 10
772.9286033169
 20
256.2539901786
 30
0.0
 10
772.911913254
 20
256.2775254743
 30
0.0
 10
772.8910506708
 20
256.3069445892
 30
0.0
 10
772.8701880903
 20
256.3363637076
 30
0.0
 10
772.853498023
 20
256.3598989975
 30
0.0
 10
772.8409804794
 20
256.3775504776
 30
0.0
 10
772.8284629101
 20
256.3952019092
 30
0.0
 10
772.8180316823
 20
256.4099115865
 30
0.0
 10
772.809686521
 20
256.4216789902
 30
0.0
 10
772.8044712028
 20
256.4290343875
 30
0.0
 10
772.8002980148
 20
256.4349169419
 30
0.0
 10
772.7971706794
 20
256.4393336861
 30
0.0
 10
772.794556437
 20
256.4429989464
 30
0.0
 10
772.7927424213
 20
256.4455947719
 30
0.0
 10
772.7916809301
 20
256.4470310345
 30
0.0
 10
772.7909549858
 20
256.4482408176
 30
0.0
 10
772.7899608005
 20
256.4489437895
 30
0.0
 10
772.7887287855
 20
256.4500578667
 30
0.0
 10
772.7865291655
 20
256.4519251361
 30
0.0
 10
772.7834096425
 20
256.4546357255
 30
0.0
 10
772.7796564595
 20
256.4578700011
 30
0.0
 10
772.7746556229
 20
256.4621888063
 30
0.0
 10
772.7684034104
 20
256.4675851086
 30
0.0
 10
772.7584005226
 20
256.4762204241
 30
0.0
 10
772.7458966889
 20
256.4870141458
 30
0.0
 10
772.7308921845
 20
256.4999667931
 30
0.0
 10
772.7158876544
 20
256.5129193919
 30
0.0
 10
772.6958816233
 20
256.5301895406
 30
0.0
 10
772.6708740811
 20
256.5517772201
 30
0.0
 10
772.645866541
 20
256.573364904
 30
0.0
 10
772.6258605066
 20
256.5906350458
 30
0.0
 10
772.6108559865
 20
256.6035876653
 30
0.0
 10
772.5958514446
 20
256.6165402348
 30
0.0
 10
772.5833477275
 20
256.6273341985
 30
0.0
 10
772.573344602
 20
256.6359690206
 30
0.0
 10
772.5670929941
 20
256.6413665787
 30
0.0
 10
772.5620909166
 20
256.645682806
 30
0.0
 10
772.5583415247
 20
256.6489249575
 30
0.0
 10
772.5552101403
 20
256.651610905
 30
0.0
 10
772.5530316949
 20
256.6535221644
 30
0.0
 10
772.5517657528
 20
256.6545657586
 30
0.0
 10
772.5508757811
 20
256.6554852318
 30
0.0
 10
772.5497584277
 20
256.6558818718
 30
0.0
 10
772.5483479365
 20
256.6565930953
 30
0.0
 10
772.5458426233
 20
256.6577527667
 30
0.0
 10
772.5422829243
 20
256.6594538633
 30
0.0
 10
772.538003016
 20
256.6614761647
 30
0.0
 10
772.5322993599
 20
256.6641792079
 30
0.0
 10
772.5251688008
 20
256.6675557379
 30
0.0
 10
772.513760459
 20
256.6729594569
 30
0.0
 10
772.4994998421
 20
256.6797136695
 30
0.0
 10
772.4823871831
 20
256.6878189116
 30
0.0
 10
772.4652745024
 20
256.6959241036
 30
0.0
 10
772.4424576024
 20
256.7067310439
 30
0.0
 10
772.4139364746
 20
256.7202397127
 30
0.0
 10
772.3854153484
 20
256.7337483859
 30
0.0
 10
772.3625984458
 20
256.744555319
 30
0.0
 10
772.3454857728
 20
256.7526605328
 30
0.0
 10
772.3283730848
 20
256.7607656933
 30
0.0
 10
772.3141125582
 20
256.7675201595
 30
0.0
 10
772.3027040322
 20
256.7729233614
 30
0.0
 10
772.2955739421
 20
256.7763012075
 30
0.0
 10
772.2898693234
 20
256.7790015492
 30
0.0
 10
772.2855923559
 20
256.7810321038
 30
0.0
 10
772.2820234557
 20
256.7827073781
 30
0.0
 10
772.2795345681
 20
256.7839131467
 30
0.0
 10
772.2780977591
 20
256.7845505109
 30
0.0
 10
772.2770612453
 20
256.7851740228
 30
0.0
 10
772.2758676537
 20
256.7852414031
 30
0.0
 10
772.2743309887
 20
256.7855252284
 30
0.0
 10
772.271616297
 20
256.7859315414
 30
0.0
 10
772.2677515122
 20
256.7865592409
 30
0.0
 10
772.2631080579
 20
256.7872922548
 30
0.0
 10
772.2569187809
 20
256.7882766711
 30
0.0
 10
772.2491815013
 20
256.7895047725
 30
0.0
 10
772.2368022358
 20
256.7914710868
 30
0.0
 10
772.221328023
 20
256.7939285157
 30
0.0
 10
772.2027590238
 20
256.7968776292
 30
0.0
 10
772.1841900095
 20
256.7998266895
 30
0.0
 10
772.1594313291
 20
256.8037587886
 30
0.0
 10
772.1284829766
 20
256.8086739055
 30
0.0
 10
772.0975346253
 20
256.8135890271
 30
0.0
 10
772.072775943
 20
256.8175211186
 30
0.0
 10
772.0542069343
 20
256.8204702018
 30
0.0
 10
772.0356379142
 20
256.8234192296
 30
0.0
 10
772.0201637661
 20
256.8258769251
 30
0.0
 10
772.0077843687
 20
256.8278426958
 30
0.0
 10
772.000047425
 20
256.8290721804
 30
0.0
 10
771.9938574585
 20
256.8300537575
 30
0.0
 10
771.9892161103
 20
256.8307954455
 30
0.0
 10
771.9853447363
 20
256.8313960059
 30
0.0
 10
771.9826418075
 20
256.8318507667
 30
0.0
 10
771.9810862953
 20
256.8320569665
 30
0.0
 10
771.9799505962
 20
256.8323627875
 30
0.0
 10
771.9786966477
 20
256.8320907555
 30
0.0
 10
771.9770659631
 20
256.8319296079
 30
0.0
 10
771.9741930475
 20
256.8315536882
 30
0.0
 10
771.9700989294
 20
256.8310657579
 30
0.0
 10
771.9651816873
 20
256.8304592262
 30
0.0
 10
771.9586268665
 20
256.8296578574
 30
0.0
 10
771.9504328262
 20
256.8286536331
 30
0.0
 10
771.9373226492
 20
256.827048279
 30
0.0
 10
771.9209348292
 20
256.8250411044
 30
0.0
 10
771.9012694876
 20
256.8226327014
 30
0.0
 10
771.8816041347
 20
256.8202242431
 30
0.0
 10
771.855383668
 20
256.8170129848
 30
0.0
 10
771.8226080834
 20
256.8129989047
 30
0.0
 10
771.7898324991
 20
256.8089848294
 30
0.0
 10
771.763612032
 20
256.8057735635
 30
0.0
 10
771.7439466807
 20
256.8033651281
 30
0.0
 10
771.7242813329
 20
256.8009566393
 30
0.0
 10
771.7078935321
 20
256.7989497318
 30
0.0
 10
771.694783316
 20
256.7973438328
 30
0.0
 10
771.6865893751
 20
256.7963409951
 30
0.0
 10
771.6800343503
 20
256.7955367803
 30
0.0
 10
771.6751177316
 20
256.7949389436
 30
0.0
 10
771.6710216627
 20
256.7944238087
 30
0.0
 10
771.6681522297
 20
256.7940964538
 30
0.0
 10
771.666515965
 20
256.793857493
 30
0.0
 10
771.665279157
 20
256.7938244781
 30
0.0
 10
771.6640790812
 20
256.793232591
 30
0.0
 10
771.6624661676
 20
256.7926383492
 30
0.0
 10
771.6596495384
 20
256.7915075993
 30
0.0
 10
771.6556226613
 20
256.7899397276
 30
0.0
 10
771.6507917448
 20
256.7880379563
 30
0.0
 10
771.6443500561
 20
256.7855093605
 30
0.0
 10
771.6362981051
 20
256.7823461849
 30
0.0
 10
771.6234148941
 20
256.7772864625
 30
0.0
 10
771.607310911
 20
256.7709613433
 30
0.0
 10
771.5879861182
 20
256.7633714002
 30
0.0
 10
771.5686613288
 20
256.7557814036
 30
0.0
 10
771.5428949418
 20
256.7456614269
 30
0.0
 10
771.5106869586
 20
256.733011449
 30
0.0
 10
771.4784789749
 20
256.7203614756
 30
0.0
 10
771.4527125886
 20
256.7102414916
 30
0.0
 10
771.433387797
 20
256.7026515169
 30
0.0
 10
771.4140630129
 20
256.6950614917
 30
0.0
 10
771.3979590025
 20
256.6887366278
 30
0.0
 10
771.3850758472
 20
256.6836763849
 30
0.0
 10
771.3770237545
 20
256.680514534
 30
0.0
 10
771.3705823566
 20
256.677983219
 30
0.0
 10
771.3657505518
 20
256.6760897551
 30
0.0
 10
771.3617264539
 20
256.6744958916
 30
0.0
 10
771.3589048635
 20
256.6734115413
 30
0.0
 10
771.357299899
 20
256.6727429557
 30
0.0
 10
771.356075406
 20
256.6723794288
 30
0.0
 10
771.3549303049
 20
256.6714887311
 30
0.0
 10
771.3533758107
 20
256.6704850172
 30
0.0
 10
771.3506683483
 20
256.6686428434
 30
0.0
 10
771.3467937994
 20
256.6660559582
 30
0.0
 10
771.3421472279
 20
256.6629325236
 30
0.0
 10
771.3359507909
 20
256.6587746407
 30
0.0
 10
771.3282055899
 20
256.6535749941
 30
0.0
 10
771.3158130753
 20
256.6452568412
 30
0.0
 10
771.3003224983
 20
256.6348587102
 30
0.0
 10
771.2817337775
 20
256.6223811416
 30
0.0
 10
771.2631450643
 20
256.6099035225
 30
0.0
 10
771.2383601106
 20
256.5932667148
 30
0.0
 10
771.2073789197
 20
256.5724706985
 30
0.0
 10
771.1763977277
 20
256.5516746864
 30
0.0
 10
771.1516127757
 20
256.5350378719
 30
0.0
 10
771.1330240577
 20
256.5225602731
 30
0.0
 10
771.1144353547
 20
256.5100826287
 30
0.0
 10
771.0989447224
 20
256.4996847335
 30
0.0
 10
771.0865523205
 20
256.4913660997
 30
0.0
 10
771.0788068327
 20
256.4861676767
 30
0.0
 10
771.0726109844
 20
256.4820072823
 30
0.0
 10
771.0679626143
 20
256.4788915205
 30
0.0
 10
771.0640936931
 20
256.4762806291
 30
0.0
 10
771.0613761842
 20
256.4744813103
 30
0.0
 10
771.059837787
 20
256.4734089319
 30
0.0
 10
771.058643241
 20
256.4727291498
 30
0.0
 10
771.0576044547
 20
256.4715734586
 30
0.0
 10
771.0561650756
 20
256.4701985395
 30
0.0
 10
771.0536714759
 20
256.4677150873
 30
0.0
 10
771.0500959563
 20
256.4642077346
 30
0.0
 10
771.0458109974
 20
256.4599816035
 30
0.0
 10
771.0400957404
 20
256.4543528072
 30
0.0
 10
771.0329523465
 20
256.447314742
 30
0.0
 10
771.0215225377
 20
256.4360549946
 30
0.0
 10
771.0072354067
 20
256.4219799133
 30
0.0
 10
770.9900907937
 20
256.4050899859
 30
0.0
 10
770.9729461957
 20
256.3882000129
 30
0.0
 10
770.9500867264
 20
256.365680065
 30
0.0
 10
770.9215123917
 20
256.3375301241
 30
0.0
 10
770.8929380556
 20
256.3093801872
 30
0.0
 10
770.8700785887
 20
256.286860233
 30
0.0
 10
770.8529339835
 20
256.2699702787
 30
0.0
 10
770.8357893974
 20
256.2530802814
 30
0.0
 10
770.8215021828
 20
256.2390054176
 30
0.0
 10
770.8100725443
 20
256.2277452266
 30
0.0
 10
770.802928717
 20
256.2207082902
 30
0.0
 10
770.7972143498
 20
256.215077177
 30
0.0
 10
770.7929266723
 20
256.2108581245
 30
0.0
 10
770.7893596587
 20
256.2073286243
 30
0.0
 10
770.7868508742
 20
256.2048847092
 30
0.0
 10
770.785435825
 20
256.2034464418
 30
0.0
 10
770.784322305
 20
256.202485336
 30
0.0
 10
770.7834084464
 20
256.2010747236
 30
0.0
 10
770.7821203241
 20
256.1993507001
 30
0.0
 10
770.7798985586
 20
256.1962606061
 30
0.0
 10
770.7767076434
 20
256.1918843789
 30
0.0
 10
770.7728858066
 20
256.1866165586
 30
0.0
 10
770.7677874879
 20
256.1795985082
 30
0.0
 10
770.7614154579
 20
256.17082399
 30
0.0
 10
770.7512197246
 20
256.1567858536
 30
0.0
 10
770.7384752245
 20
256.1392378081
 30
0.0
 10
770.7231817531
 20
256.1181803142
 30
0.0
 10
770.7078883003
 20
256.0971227777
 30
0.0
 10
770.6874970253
 20
256.0690460756
 30
0.0
 10
770.6620079202
 20
256.0339502049
 30
0.0
 10
770.6314210558
 20
255.9918351067
 30
0.0
 10
770.6059318112
 20
255.9567393603
 30
0.0
 10
770.5855408429
 20
255.9286623848
 30
0.0
 10
770.5727955148
 20
255.9111151367
 30
0.0
 10
770.5626014805
 20
255.897075365
 30
0.0
 10
770.5549498539
 20
255.886550939
 30
0.0
 10
770.5485929062
 20
255.8777633969
 30
0.0
 10
770.5441049556
 20
255.8716458467
 30
0.0
 10
770.5415998824
 20
255.8680974382
 30
0.0
 10
770.5395535496
 20
255.8655844916
 30
0.0
 10
770.5381475934
 20
255.8625044385
 30
0.0
 10
770.5360496147
 20
255.8585955142
 30
0.0
 10
770.5324822243
 20
255.851662732
 30
0.0
 10
770.527331542
 20
255.841806942
 30
0.0
 10
770.5211740126
 20
255.8299593695
 30
0.0
 10
770.5129558389
 20
255.8141698099
 30
0.0
 10
770.5026859072
 20
255.7944303938
 30
0.0
 10
770.4862524591
 20
255.7628487069
 30
0.0
 10
770.4657111871
 20
255.7233711228
 30
0.0
 10
770.4410614138
 20
255.6759982363
 30
0.0
 10
770.4164117672
 20
255.6286252526
 30
0.0
 10
770.3958701785
 20
255.5891479114
 30
0.0
 10
770.3794373638
 20
255.5575657386
 30
0.0
 10
770.3691658222
 20
255.5378275576
 30
0.0
 10
770.3609509527
 20
255.5220354629
 30
0.0
 10
770.3547833287
 20
255.5101956353
 30
0.0
 10
770.34966423
 20
255.5003156136
 30
0.0
 10
770.3460404576
 20
255.4934260891
 30
0.0
 10
770.3440328169
 20
255.489447855
 30
0.0
 10
770.3423493712
 20
255.4865806993
 30
0.0
 10
770.3413452429
 20
255.4832681456
 30
0.0
 10
770.3397694516
 20
255.4790067672
 30
0.0
 10
770.337122218
 20
255.4714769699
 30
0.0
 10
770.3332827367
 20
255.4607579604
 30
0.0
 10
770.3287000647
 20
255.4478789506
 30
0.0
 10
770.3225812062
 20
255.4307125953
 30
0.0
 10
770.3149355879
 20
255.4092527139
 30
0.0
 10
770.3027009466
 20
255.3749179866
 30
0.0
 10
770.2874082159
 20
255.3319992046
 30
0.0
 10
770.2690566762
 20
255.2804968316
 30
0.0
 10
770.2507052743
 20
255.2289943935
 30
0.0
 10
770.2354121994
 20
255.1860757745
 30
0.0
 10
770.2231782463
 20
255.1517407212
 30
0.0
 10
770.2155308787
 20
255.1302816684
 30
0.0
 10
770.2094156106
 20
255.1131136125
 30
0.0
 10
770.2048219695
 20
255.1002397981
 30
0.0
 10
770.2010168081
 20
255.0895045334
 30
0.0
 10
770.1983083077
 20
255.0820037543
 30
0.0
 10
770.1968306811
 20
255.0776958814
 30
0.0
 10
770.1955250225
 20
255.0745261437
 30
0.0
 10
770.1949740745
 20
255.0711225949
 30
0.0
 10
770.1939762256
 20
255.0666660857
 30
0.0
 10
770.1923526439
 20
255.0588291961
 30
0.0
 10
770.1899691166
 20
255.0476535057
 30
0.0
 10
770.1871363313
 20
255.0342341738
 30
0.0
 10
770.1833496975
 20
255.0163447014
 30
0.0
 10
770.1786196878
 20
254.9939818439
 30
0.0
 10
770.171049837
 20
254.9582018404
 30
0.0
 10
770.1615881576
 20
254.9134766403
 30
0.0
 10
770.1502338514
 20
254.8598064868
 30
0.0
 10
770.1388796945
 20
254.8061362998
 30
0.0
 10
770.1294176417
 20
254.7614111836
 30
0.0
 10
770.1218485377
 20
254.7256310123
 30
0.0
 10
770.11711663
 20
254.7032685812
 30
0.0
 10
770.1133338917
 20
254.6853782337
 30
0.0
 10
770.1104892048
 20
254.6719615752
 30
0.0
 10
770.1081429149
 20
254.6607775203
 30
0.0
 10
770.1064528581
 20
254.6529555628
 30
0.0
 10
770.105561519
 20
254.6484751287
 30
0.0
 10
770.1046834072
 20
254.6451450694
 30
0.0
 10
770.1046065216
 20
254.641699317
 30
0.0
 10
770.1042245308
 20
254.6371453356
 30
0.0
 10
770.1036862603
 20
254.6291570658
 30
0.0
 10
770.1028492254
 20
254.6177550819
 30
0.0
 10
770.1018739227
 20
254.6040684936
 30
0.0
 10
770.1005633414
 20
254.5858211788
 30
0.0
 10
770.0989285995
 20
254.5630115322
 30
0.0
 10
770.0963110649
 20
254.5265163788
 30
0.0
 10
770.093039815
 20
254.4808973406
 30
0.0
 10
770.0891140286
 20
254.4261545361
 30
0.0
 10
770.0851883189
 20
254.3714117205
 30
0.0
 10
770.0799540124
 20
254.2984213036
 30
0.0
 10
770.0760282885
 20
254.24367849
 30
0.0
 10
770.0734111379
 20
254.2071832812
 30
0.0
  0
SPLINE
  5
359
100
AcDbEntity
  8
0
100
AcDbSpline
 62
2
  6
CONTINUOUS
 70
0
 71
3
 72
243
 73
239
 74
0
 42
0.0000001
 43
0.0000001
 44
0.0000000001
 40
0.0
 40
0.0
 40
0.0
 40
0.0
 40
0.015625
 40
0.03125
 40
0.0390625
 40
0.046875
 40
0.0546875
 40
0.05859375
 40
0.0625
 40
0.06640625
 40
0.068359375
 40
0.0693359375
 40
0.0703125
 40
0.0712890625
 40
0.072265625
 40
0.0732421875
 40
0.07421875
 40
0.078125
 40
0.08203125
 40
0.0859375
 40
0.09375
 40
0.1015625
 40
0.109375
 40
0.1171875
 40
0.125
 40
0.12890625
 40
0.1328125
 40
0.13671875
 40
0.138671875
 40
0.140625
 40
0.1416015625
 40
0.142578125
 40
0.14453125
 40
0.146484375
 40
0.1484375
 40
0.15234375
 40
0.15625
 40
0.1640625
 40
0.171875
 40
0.1875
 40
0.1953125
 40
0.19921875
 40
0.203125
 40
0.20703125
 40
0.2109375
 40
0.212890625
 40
0.2138671875
 40
0.2143554688
 40
0.21484375
 40
0.2158203125
 40
0.216796875
 40
0.21875
 40
0.22265625
 40
0.2265625
 40
0.234375
 40
0.2421875
 40
0.25
 40
0.2578125
 40
0.265625
 40
0.2734375
 40
0.27734375
 40
0.28125
 40
0.283203125
 40
0.2841796875
 40
0.28515625
 40
0.2856445312
 40
0.2861328125
 40
0.287109375
 40
0.2890625
 40
0.29296875
 40
0.296875
 40
0.3046875
 40
0.3125
 40
0.328125
 40
0.3359375
 40
0.34375
 40
0.34765625
 40
0.3515625
 40
0.353515625
 40
0.35546875
 40
0.357421875
 40
0.3583984375
 40
0.359375
 40
0.361328125
 40
0.36328125
 40
0.3671875
 40
0.37109375
 40
0.375
 40
0.3828125
 40
0.390625
 40
0.3984375
 40
0.40625
 40
0.4140625
 40
0.41796875
 40
0.421875
 40
0.42578125
 40
0.4267578125
 40
0.427734375
 40
0.4287109375
 40
0.4296875
 40
0.431640625
 40
0.43359375
 40
0.4375
 40
0.44140625
 40
0.4453125
 40
0.453125
 40
0.46875
 40
0.4765625
 40
0.484375
 40
0.48828125
 40
0.4921875
 40
0.494140625
 40
0.49609375
 40
0.498046875
 40
0.4990234375
 40
0.4995117188
 40
0.5
 40
0.5004882812
 40
0.5009765625
 40
0.501953125
 40
0.50390625
 40
0.505859375
 40
0.5078125
 40
0.51171875
 40
0.515625
 40
0.5234375
 40
0.53125
 40
0.546875
 40
0.5546875
 40
0.55859375
 40
0.5625
 40
0.56640625
 40
0.568359375
 40
0.5703125
 40
0.5708007812
 40
0.5712890625
 40
0.572265625
 40
0.5732421875
 40
0.57421875
 40
0.578125
 40
0.58203125
 40
0.5859375
 40
0.59375
 40
0.6015625
 40
0.609375
 40
0.6171875
 40
0.625
 40
0.62890625
 40
0.6328125
 40
0.63671875
 40
0.638671875
 40
0.640625
 40
0.6416015625
 40
0.642578125
 40
0.64453125
 40
0.646484375
 40
0.6484375
 40
0.65234375
 40
0.65625
 40
0.6640625
 40
0.671875
 40
0.6875
 40
0.6953125
 40
0.69921875
 40
0.703125
 40
0.70703125
 40
0.7109375
 40
0.712890625
 40
0.7138671875
 40
0.7143554688
 40
0.71484375
 40
0.7158203125
 40
0.716796875
 40
0.71875
 40
0.720703125
 40
0.72265625
 40
0.7265625
 40
0.734375
 40
0.7421875
 40
0.75
 40
0.7578125
 40
0.765625
 40
0.7734375
 40
0.77734375
 40
0.779296875
 40
0.78125
 40
0.783203125
 40
0.7841796875
 40
0.78515625
 40
0.7856445312
 40
0.7861328125
 40
0.787109375
 40
0.7890625
 40
0.79296875
 40
0.796875
 40
0.80078125
 40
0.8046875
 40
0.8125
 40
0.828125
 40
0.8359375
 40
0.84375
 40
0.84765625
 40
0.8515625
 40
0.853515625
 40
0.85546875
 40
0.8564453125
 40
0.8569335938
 40
0.8571777344
 40
0.857421875
 40
0.8583984375
 40
0.859375
 40
0.861328125
 40
0.86328125
 40
0.8671875
 40
0.87109375
 40
0.875
 40
0.8828125
 40
0.890625
 40
0.8984375
 40
0.90625
 40
0.9140625
 40
0.921875
 40
0.92578125
 40
0.9267578125
 40
0.927734375
 40
0.9287109375
 40
0.9291992188
 40
0.9296875
 40
0.931640625
 40
0.93359375
 40
0.9375
 40
0.94140625
 40
0.9453125
 40
0.953125
 40
0.9609375
 40
0.96875
 40
0.984375
 40
1.0
 40
1.0
 40
1.0
 40
1.0
 10
761.4296869215
 20
251.6318741882
 30
0.0
 10
761.4431956331
 20
251.641173163
 30
0.0
 10
761.4702130547
 20
251.6597711168
 30
0.0
 10
761.5039848389
 20
251.6830185381
 30
0.0
 10
761.5310022512
 20
251.7016165189
 30
0.0
 10
761.5512653513
 20
251.715564886
 30
0.0
 10
761.5681511379
 20
251.7271889018
 30
0.0
 10
761.5816600593
 20
251.73648727
 30
0.0
 10
761.5917909519
 20
251.7434633535
 30
0.0
 10
761.6002359023
 20
251.7492694173
 30
0.0
 10
761.6061423831
 20
251.7533480645
 30
0.0
 10
761.6095252978
 20
251.7556562318
 30
0.0
 10
761.6120405594
 20
251.757450707
 30
0.0
 10
761.6146396274
 20
251.7590030274
 30
0.0
 10
761.6169253943
 20
251.761460617
 30
0.0
 10
761.6192442699
 20
251.7638225402
 30
0.0
 10
761.62386499
 20
251.7685955974
 30
0.0
 10
761.6308032222
 20
251.7757345179
 30
0.0
 10
761.6400501166
 20
251.7852648725
 30
0.0
 10
761.6523807352
 20
251.7979678921
 30
0.0
 10
761.6677935184
 20
251.8138480813
 30
0.0
 10
761.686289071
 20
251.8329036973
 30
0.0
 10
761.7047845564
 20
251.851959494
 30
0.0
 10
761.723280098
 20
251.8710151789
 30
0.0
 10
761.7386929181
 20
251.8868951384
 30
0.0
 10
761.7510234611
 20
251.8995986289
 30
0.0
 10
761.7602705863
 20
251.9091275447
 30
0.0
 10
761.7679790113
 20
251.9170641803
 30
0.0
 10
761.7741401726
 20
251.923422746
 30
0.0
 10
761.7780036014
 20
251.9273757703
 30
0.0
 10
761.7810652521
 20
251.9305864657
 30
0.0
 10
761.7842331099
 20
251.9336209206
 30
0.0
 10
761.7874327434
 20
251.9386754478
 30
0.0
 10
761.7914500231
 20
251.9444459723
 30
0.0
 10
761.7967443224
 20
251.9522430102
 30
0.0
 10
761.8033834504
 20
251.9619540388
 30
0.0
 10
761.8139941772
 20
251.9775113947
 30
0.0
 10
761.8272616553
 20
251.9969513379
 30
0.0
 10
761.8484873308
 20
252.0280590376
 30
0.0
 10
761.8697137198
 20
252.0591655988
 30
0.0
 10
761.8882864399
 20
252.086384341
 30
0.0
 10
761.8988997008
 20
252.1019376181
 30
0.0
 10
761.9068589182
 20
252.1136033023
 30
0.0
 10
761.9148209099
 20
252.125266226
 30
0.0
 10
761.9214472623
 20
252.1349939253
 30
0.0
 10
761.9261026405
 20
252.1417864705
 30
0.0
 10
761.9284072005
 20
252.1452057531
 30
0.0
 10
761.9297613231
 20
252.1471225895
 30
0.0
 10
761.9307416417
 20
252.1494113046
 30
0.0
 10
761.9320950132
 20
252.1521448843
 30
0.0
 10
761.9341889864
 20
252.1565896652
 30
0.0
 10
761.9378867116
 20
252.1643349311
 30
0.0
 10
761.9431518163
 20
252.1754168671
 30
0.0
 10
761.9515856867
 20
252.193138312
 30
0.0
 10
761.9621246932
 20
252.2152934314
 30
0.0
 10
761.9747729373
 20
252.2418781499
 30
0.0
 10
761.9874207668
 20
252.2684632664
 30
0.0
 10
762.0000688185
 20
252.2950482155
 30
0.0
 10
762.0127163957
 20
252.3216334365
 30
0.0
 10
762.0232574401
 20
252.3437870203
 30
0.0
 10
762.0316871607
 20
252.3615115924
 30
0.0
 10
762.0369628249
 20
252.3725855706
 30
0.0
 10
762.0406415847
 20
252.3803451291
 30
0.0
 10
762.0427659582
 20
252.3847669999
 30
0.0
 10
762.0440415113
 20
252.3875592248
 30
0.0
 10
762.0451816302
 20
252.3897275119
 30
0.0
 10
762.0458847878
 20
252.3921349257
 30
0.0
 10
762.0471914759
 20
252.3963062202
 30
0.0
 10
762.0497507862
 20
252.4046783966
 30
0.0
 10
762.0534351523
 20
252.4166232114
 30
0.0
 10
762.0593143752
 20
252.4357435418
 30
0.0
 10
762.0666687915
 20
252.4596410039
 30
0.0
 10
762.0784329024
 20
252.4978785756
 30
0.0
 10
762.090197504
 20
252.5361157957
 30
0.0
 10
762.1019628499
 20
252.5743528463
 30
0.0
 10
762.1093139214
 20
252.5982517197
 30
0.0
 10
762.1152000396
 20
252.6173691406
 30
0.0
 10
762.1188668459
 20
252.6293213649
 30
0.0
 10
762.121827818
 20
252.6388743568
 30
0.0
 10
762.1239731763
 20
252.6460631615
 30
0.0
 10
762.1260007411
 20
252.6519772908
 30
0.0
 10
762.1266382254
 20
252.657022901
 30
0.0
 10
762.1274476541
 20
252.6620136208
 30
0.0
 10
762.1284005659
 20
252.668270815
 30
0.0
 10
762.1299581297
 20
252.6782718215
 30
0.0
 10
762.1318937948
 20
252.6907766836
 30
0.0
 10
762.1342214254
 20
252.7057809756
 30
0.0
 10
762.1373232445
 20
252.7257872369
 30
0.0
 10
762.1412010999
 20
252.7507948792
 30
0.0
 10
762.145854268
 20
252.7808041271
 30
0.0
 10
762.1505075389
 20
252.8108133614
 30
0.0
 10
762.1551606567
 20
252.8408225727
 30
0.0
 10
762.1590386795
 20
252.8658303368
 30
0.0
 10
762.1621401553
 20
252.8858363484
 30
0.0
 10
762.1644688348
 20
252.9008414032
 30
0.0
 10
762.1662079799
 20
252.9120936311
 30
0.0
 10
762.1673788801
 20
252.919597551
 30
0.0
 10
762.1679438449
 20
252.9233451627
 30
0.0
 10
762.1685884569
 20
252.9271096806
 30
0.0
 10
762.1684039466
 20
252.9319074362
 30
0.0
 10
762.1685307732
 20
252.9379805074
 30
0.0
 10
762.1685339087
 20
252.9476550137
 30
0.0
 10
762.1686063733
 20
252.9597626964
 30
0.0
 10
762.1686639939
 20
252.9742856883
 30
0.0
 10
762.1687510556
 20
252.9936518501
 30
0.0
 10
762.1688986325
 20
253.0275416176
 30
0.0
 10
762.169069374
 20
253.0662732266
 30
0.0
 10
762.1692393331
 20
253.105004658
 30
0.0
 10
762.1693457784
 20
253.1292118747
 30
0.0
 10
762.1694306001
 20
253.1485775194
 30
0.0
 10
762.1694843396
 20
253.1606813331
 30
0.0
 10
762.1695256725
 20
253.1703637304
 30
0.0
 10
762.169561213
 20
253.1776273179
 30
0.0
 10
762.169576385
 20
253.1836746147
 30
0.0
 10
762.1696153534
 20
253.1879188944
 30
0.0
 10
762.169593358
 20
253.1903267529
 30
0.0
 10
762.1697015512
 20
253.1921817875
 30
0.0
 10
762.1693331169
 20
253.1938489813
 30
0.0
 10
762.1690081241
 20
253.1961374273
 30
0.0
 10
762.1683619264
 20
253.2001116804
 30
0.0
 10
762.167479284
 20
253.2058051449
 30
0.0
 10
762.166402779
 20
253.2126304709
 30
0.0
 10
762.1649734934
 20
253.2217332917
 30
0.0
 10
762.1631848135
 20
253.2331110007
 30
0.0
 10
762.1603240836
 20
253.2513157912
 30
0.0
 10
762.1567477788
 20
253.274071626
 30
0.0
 10
762.1510258868
 20
253.3104810309
 30
0.0
 10
762.1453040761
 20
253.346890511
 30
0.0
 10
762.1402971498
 20
253.3787485632
 30
0.0
 10
762.1374365946
 20
253.3969535434
 30
0.0
 10
762.1352896393
 20
253.410606211
 30
0.0
 10
762.1335054122
 20
253.4219868344
 30
0.0
 10
762.1320670345
 20
253.4310837061
 30
0.0
 10
762.131280482
 20
253.436216327
 30
0.0
 10
762.1307202735
 20
253.439613215
 30
0.0
 10
762.1304323595
 20
253.4419371515
 30
0.0
 10
762.1294486998
 20
253.4444094183
 30
0.0
 10
762.1284138294
 20
253.447477074
 30
0.0
 10
762.1262692323
 20
253.453560464
 30
0.0
 10
762.1230837716
 20
253.4627073528
 30
0.0
 10
762.1188185503
 20
253.4748907608
 30
0.0
 10
762.1131378556
 20
253.4911396517
 30
0.0
 10
762.1060348358
 20
253.5114492727
 30
0.0
 10
762.0975121384
 20
253.5358214622
 30
0.0
 10
762.0889891775
 20
253.5601934631
 30
0.0
 10
762.0804663444
 20
253.5845655738
 30
0.0
 10
762.0733637769
 20
253.6048754571
 30
0.0
 10
762.0676821549
 20
253.6211238104
 30
0.0
 10
762.0634197664
 20
253.6333088607
 30
0.0
 10
762.0598715025
 20
253.6434669321
 30
0.0
 10
762.0570245339
 20
253.6515847259
 30
0.0
 10
762.0552642088
 20
253.6566780738
 30
0.0
 10
762.0538123654
 20
253.6607075738
 30
0.0
 10
762.0525196313
 20
253.6649020054
 30
0.0
 10
762.0497648729
 20
253.6689645312
 30
0.0
 10
762.0467254049
 20
253.6741155467
 30
0.0
 10
762.042579788
 20
253.6808871717
 30
0.0
 10
762.0374296076
 20
253.6893847087
 30
0.0
 10
762.0291715245
 20
253.7029623223
 30
0.0
 10
762.0188550165
 20
253.7199406589
 30
0.0
 10
762.002345179
 20
253.7471024436
 30
0.0
 10
761.9858363832
 20
253.7742653279
 30
0.0
 10
761.9713906998
 20
253.7980322976
 30
0.0
 10
761.9631363377
 20
253.8116138232
 30
0.0
 10
761.9569447628
 20
253.8217989256
 30
0.0
 10
761.9507562442
 20
253.831987995
 30
0.0
 10
761.9455896272
 20
253.8404665309
 30
0.0
 10
761.9419916463
 20
253.8464257166
 30
0.0
 10
761.9401671778
 20
253.8493722368
 30
0.0
 10
761.9391656367
 20
253.8511092
 30
0.0
 10
761.9377523336
 20
253.8523116617
 30
0.0
 10
761.9361266926
 20
253.8539977527
 30
0.0
 10
761.9334468687
 20
253.8565932118
 30
0.0
 10
761.9301241239
 20
253.8598726294
 30
0.0
 10
761.9261252594
 20
253.8637929107
 30
0.0
 10
761.9207974761
 20
253.8690251915
 30
0.0
 10
761.9114719748
 20
253.8781792418
 30
0.0
 10
761.8981508137
 20
253.8912577337
 30
0.0
 10
761.8821649973
 20
253.9069513732
 30
0.0
 10
761.8661792992
 20
253.9226451725
 30
0.0
 10
761.8501935509
 20
253.9383388832
 30
0.0
 10
761.8342078853
 20
253.9540327886
 30
0.0
 10
761.8208862632
 20
253.9671104678
 30
0.0
 10
761.8115615833
 20
253.9762659661
 30
0.0
 10
761.8062324841
 20
253.9814959271
 30
0.0
 10
761.8022376613
 20
253.985423334
 30
0.0
 10
761.7989022666
 20
253.9886804496
 30
0.0
 10
761.7962482518
 20
253.9913214102
 30
0.0
 10
761.7945569279
 20
253.992891702
 30
0.0
 10
761.7932784488
 20
253.994331859
 30
0.0
 10
761.7917277013
 20
253.9951005687
 30
0.0
 10
761.7890613506
 20
253.996562846
 30
0.0
 10
761.7836949555
 20
253.999404308
 30
0.0
 10
761.7760462948
 20
254.0035069876
 30
0.0
 10
761.7668603497
 20
254.0084115783
 30
0.0
 10
761.7576764248
 20
254.0133211512
 30
0.0
 10
761.7454304867
 20
254.0198655098
 30
0.0
 10
761.724000426
 20
254.0313189553
 30
0.0
 10
761.6995087731
 20
254.0444082142
 30
0.0
 10
761.6750172067
 20
254.0574977174
 30
0.0
 10
761.6597098906
 20
254.0656783737
 30
0.0
 10
761.6474642252
 20
254.0722235175
 30
0.0
 10
761.6398102593
 20
254.0763128271
 30
0.0
 10
761.6336880597
 20
254.0795874926
 30
0.0
 10
761.6298594645
 20
254.0816268168
 30
0.0
 10
761.627183898
 20
254.0830690574
 30
0.0
 10
761.6258400224
 20
254.0837700345
 30
0.0
 10
761.6250819018
 20
254.084203022
 30
0.0
 10
761.6237920471
 20
254.0843477169
 30
0.0
 10
761.6219212191
 20
254.0847762108
 30
0.0
 10
761.6185476485
 20
254.0853804191
 30
0.0
 10
761.6143470022
 20
254.0861896278
 30
0.0
 10
761.6076168485
 20
254.0874542098
 30
0.0
 10
761.5992072853
 20
254.0890452825
 30
0.0
 10
761.5891144701
 20
254.090950141
 30
0.0
 10
761.5756578515
 20
254.0934915023
 30
0.0
 10
761.5588369137
 20
254.0966676516
 30
0.0
 10
761.5386518759
 20
254.1004793569
 30
0.0
 10
761.5184667511
 20
254.1042906415
 30
0.0
 10
761.4982818868
 20
254.1081032825
 30
0.0
 10
761.4780960674
 20
254.1119109185
 30
0.0
 10
761.461277518
 20
254.1150995018
 30
0.0
 10
761.4503400638
 20
254.1171437852
 30
0.0
 10
761.4452976791
 20
254.1181170333
 30
0.0
 10
761.4427659749
 20
254.1185485452
 30
0.0
 10
761.4406903157
 20
254.11908689
 30
0.0
 10
761.4388894804
 20
254.1187819524
 30
0.0
 10
761.4362243123
 20
254.1185137328
 30
0.0
 10
761.4322114442
 20
254.1180321534
 30
0.0
 10
761.4250887208
 20
254.1172350694
 30
0.0
 10
761.4161814519
 20
254.1162184523
 30
0.0
 10
761.4054943834
 20
254.1150071846
 30
0.0
 10
761.3912443809
 20
254.1133891314
 30
0.0
 10
761.373432076
 20
254.1113676044
 30
0.0
 10
761.3520572253
 20
254.1089413271
 30
0.0
 10
761.3235574539
 20
254.1057064461
 30
0.0
 10
761.2879327296
 20
254.1016627911
 30
0.0
 10
761.2594329532
 20
254.0984278836
 30
0.0
 10
761.2451830646
 20
254.0968104277
 30
0.0
  0
SPLINE
  5
35A
100
AcDbEntity
  8
0
100
AcDbSpline
 62
2
  6
CONTINUOUS
 70
0
 71
3
 72
195
 73
191
 74
0
 42
0.0000001
 43
0.0000001
 44
0.0000000001
 40
0.0
 40
0.0
 40
0.0
 40
0.0
 40
0.03125
 40
0.046875
 40
0.0625
 40
0.078125
 40
0.0859375
 40
0.09375
 40
0.1015625
 40
0.109375
 40
0.11328125
 40
0.1171875
 40
0.119140625
 40
0.12109375
 40
0.123046875
 40
0.1240234375
 40
0.1245117188
 40
0.125
 40
0.1254882812
 40
0.1259765625
 40
0.126953125
 40
0.12890625
 40
0.130859375
 40
0.1328125
 40
0.13671875
 40
0.140625
 40
0.1484375
 40
0.15625
 40
0.1640625
 40
0.171875
 40
0.1875
 40
0.203125
 40
0.2109375
 40
0.21875
 40
0.2265625
 40
0.234375
 40
0.23828125
 40
0.2421875
 40
0.244140625
 40
0.24609375
 40
0.248046875
 40
0.2490234375
 40
0.2495117188
 40
0.25
 40
0.2504882812
 40
0.2509765625
 40
0.251953125
 40
0.25390625
 40
0.255859375
 40
0.2578125
 40
0.26171875
 40
0.265625
 40
0.2734375
 40
0.28125
 40
0.2890625
 40
0.296875
 40
0.3125
 40
0.328125
 40
0.3359375
 40
0.34375
 40
0.3515625
 40
0.359375
 40
0.36328125
 40
0.3671875
 40
0.369140625
 40
0.37109375
 40
0.373046875
 40
0.3740234375
 40
0.3745117188
 40
0.375
 40
0.3754882812
 40
0.3759765625
 40
0.376953125
 40
0.37890625
 40
0.380859375
 40
0.3828125
 40
0.38671875
 40
0.390625
 40
0.3984375
 40
0.40625
 40
0.4140625
 40
0.421875
 40
0.4375
 40
0.453125
 40
0.4609375
 40
0.46875
 40
0.4765625
 40
0.484375
 40
0.48828125
 40
0.4921875
 40
0.494140625
 40
0.49609375
 40
0.498046875
 40
0.4990234375
 40
0.4995117188
 40
0.5
 40
0.5004882812
 40
0.5009765625
 40
0.501953125
 40
0.50390625
 40
0.505859375
 40
0.5078125
 40
0.51171875
 40
0.515625
 40
0.5234375
 40
0.53125
 40
0.5390625
 40
0.546875
 40
0.5625
 40
0.578125
 40
0.5859375
 40
0.59375
 40
0.6015625
 40
0.609375
 40
0.61328125
 40
0.6171875
 40
0.619140625
 40
0.62109375
 40
0.623046875
 40
0.6240234375
 40
0.6245117188
 40
0.625
 40
0.6254882812
 40
0.6259765625
 40
0.626953125
 40
0.62890625
 40
0.630859375
 40
0.6328125
 40
0.63671875
 40
0.640625
 40
0.6484375
 40
0.65625
 40
0.6640625
 40
0.671875
 40
0.6875
 40
0.703125
 40
0.7109375
 40
0.71875
 40
0.7265625
 40
0.734375
 40
0.73828125
 40
0.7421875
 40
0.744140625
 40
0.74609375
 40
0.748046875
 40
0.7490234375
 40
0.7495117188
 40
0.75
 40
0.7504882812
 40
0.7509765625
 40
0.751953125
 40
0.75390625
 40
0.755859375
 40
0.7578125
 40
0.76171875
 40
0.765625
 40
0.7734375
 40
0.78125
 40
0.7890625
 40
0.796875
 40
0.8125
 40
0.828125
 40
0.8359375
 40
0.84375
 40
0.8515625
 40
0.859375
 40
0.86328125
 40
0.8671875
 40
0.869140625
 40
0.87109375
 40
0.873046875
 40
0.8740234375
 40
0.8745117188
 40
0.875
 40
0.8754882812
 40
0.8759765625
 40
0.876953125
 40
0.87890625
 40
0.880859375
 40
0.8828125
 40
0.88671875
 40
0.890625
 40
0.8984375
 40
0.90625
 40
0.9140625
 40
0.921875
 40
0.9375
 40
0.953125
 40
0.96875
 40
1.0
 40
1.0
 40
1.0
 40
1.0
 10
789.5515513079
 20
261.9084153543
 30
0.0
 10
789.5487457373
 20
261.9467758809
 30
0.0
 10
789.5445373813
 20
262.0043166708
 30
0.0
 10
789.5389262403
 20
262.081037724
 30
0.0
 10
789.534717884
 20
262.1385785137
 30
0.0
 10
789.5312109222
 20
262.1865291727
 30
0.0
 10
789.5284053487
 20
262.2248896978
 30
0.0
 10
789.5263011797
 20
262.2536600975
 30
0.0
 10
789.5241969681
 20
262.2824304746
 30
0.0
 10
789.5224435912
 20
262.3064058591
 30
0.0
 10
789.5210405925
 20
262.3255860095
 30
0.0
 10
789.5201643948
 20
262.3375739615
 30
0.0
 10
789.5194618873
 20
262.3471635031
 30
0.0
 10
789.5189392487
 20
262.3543579046
 30
0.0
 10
789.5184902221
 20
262.3603460965
 30
0.0
 10
789.518202386
 20
262.3645518481
 30
0.0
 10
789.5179965579
 20
262.366933248
 30
0.0
 10
789.5179586711
 20
262.368780953
 30
0.0
 10
789.5174755227
 20
262.3703929813
 30
0.0
 10
789.516986637
 20
262.372624559
 30
0.0
 10
789.5160587242
 20
262.3764915183
 30
0.0
 10
789.5147709666
 20
262.3820357705
 30
0.0
 10
789.5132094641
 20
262.388680302
 30
0.0
 10
789.5111331168
 20
262.397542671
 30
0.0
 10
789.5085357461
 20
262.4086196073
 30
0.0
 10
789.5043810353
 20
262.4263432782
 30
0.0
 10
789.4991872753
 20
262.4484976702
 30
0.0
 10
789.4929549226
 20
262.4750830249
 30
0.0
 10
789.4867225274
 20
262.501668357
 30
0.0
 10
789.4784126819
 20
262.5371154745
 30
0.0
 10
789.4680253695
 20
262.5814243683
 30
0.0
 10
789.4576380607
 20
262.6257332644
 30
0.0
 10
789.4493282095
 20
262.661180378
 30
0.0
 10
789.4430958316
 20
262.6877657218
 30
0.0
 10
789.4368634136
 20
262.7143510327
 30
0.0
 10
789.4316698569
 20
262.7365055612
 30
0.0
 10
789.4275147316
 20
262.7542289538
 30
0.0
 10
789.4249184158
 20
262.7653065982
 30
0.0
 10
789.422839903
 20
262.7741675136
 30
0.0
 10
789.4212850165
 20
262.780816486
 30
0.0
 10
789.4199765592
 20
262.7863468436
 30
0.0
 10
789.4190855988
 20
262.7902386072
 30
0.0
 10
789.4185375061
 20
262.7924304424
 30
0.0
 10
789.4182362225
 20
262.7941645468
 30
0.0
 10
789.4175152817
 20
262.7955537542
 30
0.0
 10
789.4167004084
 20
262.7975263346
 30
0.0
 10
789.4152061784
 20
262.8009222986
 30
0.0
 10
789.4131072208
 20
262.8058029803
 30
0.0
 10
789.4105732095
 20
262.811647255
 30
0.0
 10
789.4071998585
 20
262.8194440024
 30
0.0
 10
789.4029813445
 20
262.8291884366
 30
0.0
 10
789.3962327423
 20
262.8447803696
 30
0.0
 10
789.3877966394
 20
262.8642699983
 30
0.0
 10
789.3776734661
 20
262.8876576759
 30
0.0
 10
789.3675502526
 20
262.9110453206
 30
0.0
 10
789.3540526486
 20
262.9422288584
 30
0.0
 10
789.3371806384
 20
262.9812082763
 30
0.0
 10
789.3203086317
 20
263.0201876973
 30
0.0
 10
789.3068110222
 20
263.0513712301
 30
0.0
 10
789.2966878254
 20
263.0747588899
 30
0.0
 10
789.2865645896
 20
263.0981465107
 30
0.0
 10
789.2781286811
 20
263.1176363164
 30
0.0
 10
789.2713796824
 20
263.1332278884
 30
0.0
 10
789.2671621773
 20
263.1429732413
 30
0.0
 10
789.2637867555
 20
263.1507681028
 30
0.0
 10
789.2612590708
 20
263.1566181391
 30
0.0
 10
789.2591403189
 20
263.1614807942
 30
0.0
 10
789.257681425
 20
263.1649089387
 30
0.0
 10
789.2568099344
 20
263.1668299579
 30
0.0
 10
789.2562629037
 20
263.1683775449
 30
0.0
 10
789.2553084425
 20
263.1695168021
 30
0.0
 10
789.2541779439
 20
263.1711782417
 30
0.0
 10
789.2521333567
 20
263.1740194001
 30
0.0
 10
789.2492471356
 20
263.1781128922
 30
0.0
 10
789.2457688528
 20
263.1830102324
 30
0.0
 10
789.2411363178
 20
263.1895452062
 30
0.0
 10
789.235343877
 20
263.1977121475
 30
0.0
 10
789.2260769621
 20
263.2107802461
 30
0.0
 10
789.2144929787
 20
263.2271150288
 30
0.0
 10
789.2005923442
 20
263.2467169141
 30
0.0
 10
789.1866916708
 20
263.2663187603
 30
0.0
 10
789.1681574532
 20
263.2924545689
 30
0.0
 10
789.1449896762
 20
263.3251243244
 30
0.0
 10
789.1218219022
 20
263.357794084
 30
0.0
 10
789.1032876798
 20
263.3839298861
 30
0.0
 10
789.0893870206
 20
263.4035317519
 30
0.0
 10
789.0754863329
 20
263.4231335637
 30
0.0
 10
789.0639025152
 20
263.4394685747
 30
0.0
 10
789.0546352623
 20
263.4525362079
 30
0.0
 10
789.0488436818
 20
263.4607043337
 30
0.0
 10
789.0442093809
 20
263.4672368761
 30
0.0
 10
789.0407364931
 20
263.4721416447
 30
0.0
 10
789.0378333922
 20
263.4762118949
 30
0.0
 10
789.0358189383
 20
263.479094544
 30
0.0
 10
789.0346401585
 20
263.4806895053
 30
0.0
 10
789.0338340016
 20
263.4820329624
 30
0.0
 10
789.0327299646
 20
263.4828136085
 30
0.0
 10
789.0313618192
 20
263.4840507847
 30
0.0
 10
789.028919154
 20
263.4861243765
 30
0.0
 10
789.0254549419
 20
263.4891344703
 30
0.0
 10
789.0212870541
 20
263.4927261145
 30
0.0
 10
789.0157336541
 20
263.4975221225
 30
0.0
 10
789.0087906086
 20
263.5035146847
 30
0.0
 10
788.99768246
 20
263.5131041523
 30
0.0
 10
788.9837970256
 20
263.5250905173
 30
0.0
 10
788.967134611
 20
263.5394743566
 30
0.0
 10
788.9504721678
 20
263.553858142
 30
0.0
 10
788.9282555869
 20
263.5730365415
 30
0.0
 10
788.9004848571
 20
263.5970095337
 30
0.0
 10
788.8727141295
 20
263.6209825307
 30
0.0
 10
788.8504975449
 20
263.6401609225
 30
0.0
 10
788.8338351128
 20
263.654544731
 30
0.0
 10
788.8171726566
 20
263.6689284839
 30
0.0
 10
788.8032873516
 20
263.6809151177
 30
0.0
 10
788.7921789391
 20
263.6905040372
 30
0.0
 10
788.785236565
 20
263.6964979941
 30
0.0
 10
788.7796817871
 20
263.7012911393
 30
0.0
 10
788.7755181092
 20
263.7048915297
 30
0.0
 10
788.7720407251
 20
263.7078742587
 30
0.0
 10
788.7696215742
 20
263.7099967011
 30
0.0
 10
788.7682157528
 20
263.7111556064
 30
0.0
 10
788.7672274444
 20
263.712176676
 30
0.0
 10
788.7659866301
 20
263.7126171425
 30
0.0
 10
788.7644202878
 20
263.713406952
 30
0.0
 10
788.7616381521
 20
263.7146947603
 30
0.0
 10
788.7576851271
 20
263.7165838182
 30
0.0
 10
788.7529323139
 20
263.7188295721
 30
0.0
 10
788.746598437
 20
263.7218312858
 30
0.0
 10
788.7386799927
 20
263.7255809027
 30
0.0
 10
788.7260110957
 20
263.7315817011
 30
0.0
 10
788.7101747638
 20
263.7390822148
 30
0.0
 10
788.6911712557
 20
263.7480830389
 30
0.0
 10
788.6721677236
 20
263.7570838074
 30
0.0
 10
788.6468296891
 20
263.7690848516
 30
0.0
 10
788.615157143
 20
263.7840861495
 30
0.0
 10
788.5834845986
 20
263.7990874524
 30
0.0
 10
788.5581465613
 20
263.8110884886
 30
0.0
 10
788.5391430377
 20
263.8200892812
 30
0.0
 10
788.5201394974
 20
263.8290900148
 30
0.0
 10
788.5043032659
 20
263.8365908101
 30
0.0
 10
788.4916341642
 20
263.8425910342
 30
0.0
 10
788.4837162407
 20
263.8463421126
 30
0.0
 10
788.4773812949
 20
263.8493408264
 30
0.0
 10
788.4726317474
 20
263.8515957455
 30
0.0
 10
788.4686685046
 20
263.8534561278
 30
0.0
 10
788.4659046094
 20
263.8547951268
 30
0.0
 10
788.4643090414
 20
263.8555029161
 30
0.0
 10
788.4631579989
 20
263.8561953224
 30
0.0
 10
788.4618325223
 20
263.8562701477
 30
0.0
 10
788.4601260648
 20
263.856585334
 30
0.0
 10
788.4571114155
 20
263.8570365423
 30
0.0
 10
788.4528195946
 20
263.857733599
 30
0.0
 10
788.4476630656
 20
263.8585476066
 30
0.0
 10
788.4407899095
 20
263.8596407951
 30
0.0
 10
788.4321977057
 20
263.8610045947
 30
0.0
 10
788.4184506036
 20
263.8631881752
 30
0.0
 10
788.4012665804
 20
263.8659171356
 30
0.0
 10
788.380645815
 20
263.869192109
 30
0.0
 10
788.3600250329
 20
263.8724670233
 30
0.0
 10
788.3325306627
 20
263.8768335964
 30
0.0
 10
788.2981626977
 20
263.882291805
 30
0.0
 10
788.263794734
 20
263.8877500189
 30
0.0
 10
788.2363003617
 20
263.8921165836
 30
0.0
 10
788.2156795857
 20
263.8953915233
 30
0.0
 10
788.1950587972
 20
263.8986664015
 30
0.0
 10
788.177874846
 20
263.901395658
 30
0.0
 10
788.1641275973
 20
263.9035786349
 30
0.0
 10
788.1555357664
 20
263.9049439704
 30
0.0
 10
788.1486618448
 20
263.906034006
 30
0.0
 10
788.1435076546
 20
263.9068576462
 30
0.0
 10
788.1392085163
 20
263.9075245651
 30
0.0
 10
788.1362069297
 20
263.9080295743
 30
0.0
 10
788.1344795424
 20
263.908258558
 30
0.0
 10
788.1332183553
 20
263.9085981704
 30
0.0
 10
788.1318258524
 20
263.9082960804
 30
0.0
 10
788.1300149863
 20
263.9081171268
 30
0.0
 10
788.1268246295
 20
263.90769967
 30
0.0
 10
788.1222781343
 20
263.907157826
 30
0.0
 10
788.1168175643
 20
263.9064842757
 30
0.0
 10
788.1095384725
 20
263.9055943599
 30
0.0
 10
788.1004390365
 20
263.9044791742
 30
0.0
 10
788.0858802581
 20
263.902696437
 30
0.0
 10
788.0676816756
 20
263.9004674802
 30
0.0
 10
788.0458434235
 20
263.8977929615
 30
0.0
 10
788.0240051589
 20
263.8951183814
 30
0.0
 10
787.9948874772
 20
263.8915522961
 30
0.0
 10
787.9584903734
 20
263.887094682
 30
0.0
 10
787.9148138496
 20
263.8817455483
 30
0.0
 10
787.8565784843
 20
263.874613369
 30
0.0
 10
787.8129019604
 20
263.8692642347
 30
0.0
 10
787.7837842778
 20
263.8656981451
 30
0.0
  0
SPLINE
  5
35B
100
AcDbEntity
  8
0
100
AcDbSpline
 62
2
  6
CONTINUOUS
 70
0
 71
3
 72
181
 73
177
 74
0
 42
0.0000001
 43
0.0000001
 44
0.0000000001
 40
0.0
 40
0.0
 40
0.0
 40
0.0
 40
0.03125
 40
0.046875
 40
0.0625
 40
0.078125
 40
0.0859375
 40
0.09375
 40
0.1015625
 40
0.109375
 40
0.11328125
 40
0.1171875
 40
0.119140625
 40
0.12109375
 40
0.123046875
 40
0.1240234375
 40
0.1245117188
 40
0.125
 40
0.1254882812
 40
0.1259765625
 40
0.126953125
 40
0.12890625
 40
0.130859375
 40
0.1328125
 40
0.13671875
 40
0.140625
 40
0.1484375
 40
0.15625
 40
0.1640625
 40
0.171875
 40
0.1875
 40
0.203125
 40
0.2109375
 40
0.21875
 40
0.2265625
 40
0.234375
 40
0.23828125
 40
0.2421875
 40
0.244140625
 40
0.24609375
 40
0.248046875
 40
0.2490234375
 40
0.2495117188
 40
0.25
 40
0.2504882812
 40
0.2509765625
 40
0.251953125
 40
0.25390625
 40
0.255859375
 40
0.2578125
 40
0.26171875
 40
0.265625
 40
0.2734375
 40
0.28125
 40
0.2890625
 40
0.296875
 40
0.3125
 40
0.328125
 40
0.3359375
 40
0.34375
 40
0.3515625
 40
0.359375
 40
0.36328125
 40
0.3671875
 40
0.369140625
 40
0.37109375
 40
0.373046875
 40
0.3740234375
 40
0.3745117188
 40
0.375
 40
0.3754882812
 40
0.3759765625
 40
0.376953125
 40
0.37890625
 40
0.380859375
 40
0.3828125
 40
0.38671875
 40
0.390625
 40
0.3984375
 40
0.40625
 40
0.4140625
 40
0.421875
 40
0.4375
 40
0.453125
 40
0.4609375
 40
0.46875
 40
0.4765625
 40
0.484375
 40
0.48828125
 40
0.4921875
 40
0.494140625
 40
0.49609375
 40
0.498046875
 40
0.4990234375
 40
0.5
 40
0.5009765625
 40
0.501953125
 40
0.50390625
 40
0.505859375
 40
0.5078125
 40
0.51171875
 40
0.515625
 40
0.5234375
 40
0.53125
 40
0.5390625
 40
0.546875
 40
0.5625
 40
0.578125
 40
0.5859375
 40
0.59375
 40
0.6015625
 40
0.609375
 40
0.61328125
 40
0.6171875
 40
0.62109375
 40
0.623046875
 40
0.6240234375
 40
0.625
 40
0.6259765625
 40
0.626953125
 40
0.62890625
 40
0.6328125
 40
0.63671875
 40
0.640625
 40
0.6484375
 40
0.65625
 40
0.6640625
 40
0.671875
 40
0.6875
 40
0.703125
 40
0.7109375
 40
0.71875
 40
0.7265625
 40
0.734375
 40
0.73828125
 40
0.7421875
 40
0.74609375
 40
0.748046875
 40
0.7490234375
 40
0.75
 40
0.7509765625
 40
0.751953125
 40
0.75390625
 40
0.7578125
 40
0.76171875
 40
0.765625
 40
0.7734375
 40
0.78125
 40
0.7890625
 40
0.796875
 40
0.8125
 40
0.828125
 40
0.8359375
 40
0.84375
 40
0.8515625
 40
0.859375
 40
0.86328125
 40
0.8671875
 40
0.87109375
 40
0.873046875
 40
0.8740234375
 40
0.875
 40
0.8759765625
 40
0.876953125
 40
0.87890625
 40
0.8828125
 40
0.88671875
 40
0.890625
 40
0.8984375
 40
0.90625
 40
0.9140625
 40
0.921875
 40
0.9375
 40
0.953125
 40
0.96875
 40
1.0
 40
1.0
 40
1.0
 40
1.0
 10
787.783784355
 20
254.206439903
 30
0.0
 10
787.8123977773
 20
254.2176780823
 30
0.0
 10
787.8553179107
 20
254.2345353514
 30
0.0
 10
787.9125447552
 20
254.2570117098
 30
0.0
 10
787.9554648886
 20
254.2738689794
 30
0.0
 10
787.9912316667
 20
254.2879167016
 30
0.0
 10
788.0198450884
 20
254.2991548848
 30
0.0
 10
788.0413051568
 20
254.3075835075
 30
0.0
 10
788.0627652169
 20
254.3160121862
 30
0.0
 10
788.0806486265
 20
254.3230359107
 30
0.0
 10
788.0949552954
 20
254.3286552809
 30
0.0
 10
788.1038970974
 20
254.3321664979
 30
0.0
 10
788.1110502322
 20
254.3349775085
 30
0.0
 10
788.1164159233
 20
254.3370801891
 30
0.0
 10
788.1208846605
 20
254.3388501652
 30
0.0
 10
788.1240180202
 20
254.3400543298
 30
0.0
 10
788.125800324
 20
254.3407967903
 30
0.0
 10
788.1271601162
 20
254.3412004848
 30
0.0
 10
788.1284317444
 20
254.3421895994
 30
0.0
 10
788.1301580011
 20
254.3433042178
 30
0.0
 10
788.1331646223
 20
254.3453499411
 30
0.0
 10
788.1374672863
 20
254.3482226621
 30
0.0
 10
788.1426272768
 20
254.3516912179
 30
0.0
 10
788.149508384
 20
254.3563085227
 30
0.0
 10
788.1581093846
 20
254.3620826999
 30
0.0
 10
788.1718711998
 20
254.3713199602
 30
0.0
 10
788.1890733952
 20
254.382867024
 30
0.0
 10
788.2097160613
 20
254.3967232913
 30
0.0
 10
788.230358719
 20
254.4105796145
 30
0.0
 10
788.2578822655
 20
254.4290546925
 30
0.0
 10
788.2922866974
 20
254.4521485473
 30
0.0
 10
788.3266911304
 20
254.4752423975
 30
0.0
 10
788.3542146752
 20
254.493717483
 30
0.0
 10
788.3748573381
 20
254.5075737838
 30
0.0
 10
788.3954999845
 20
254.5214301352
 30
0.0
 10
788.4127022413
 20
254.5329769371
 30
0.0
 10
788.4264639313
 20
254.5422147314
 30
0.0
 10
788.4350652504
 20
254.5479875499
 30
0.0
 10
788.4419457038
 20
254.5526076436
 30
0.0
 10
788.4471076918
 20
254.5560676789
 30
0.0
 10
788.4514041062
 20
254.5589670586
 30
0.0
 10
788.4544218839
 20
254.5609651916
 30
0.0
 10
788.4561302651
 20
254.5621560616
 30
0.0
 10
788.4574568014
 20
254.5629109556
 30
0.0
 10
788.4586103675
 20
254.564194344
 30
0.0
 10
788.4602087896
 20
254.5657211837
 30
0.0
 10
788.4629779176
 20
254.5684790428
 30
0.0
 10
788.4669485113
 20
254.5723739375
 30
0.0
 10
788.4717069331
 20
254.5770670315
 30
0.0
 10
788.4780536928
 20
254.5833177769
 30
0.0
 10
788.48598639
 20
254.5911335073
 30
0.0
 10
788.498679126
 20
254.6036373912
 30
0.0
 10
788.5145449017
 20
254.619267687
 30
0.0
 10
788.5335838945
 20
254.6380238528
 30
0.0
 10
788.5526228707
 20
254.6567800693
 30
0.0
 10
788.5780081781
 20
254.6817883402
 30
0.0
 10
788.6097398101
 20
254.7130486854
 30
0.0
 10
788.6414714437
 20
254.7443090263
 30
0.0
 10
788.6668567485
 20
254.7693173041
 30
0.0
 10
788.6858957326
 20
254.7880734998
 30
0.0
 10
788.7049346955
 20
254.8068297434
 30
0.0
 10
788.720800564
 20
254.8224597976
 30
0.0
 10
788.7334931109
 20
254.834964174
 30
0.0
 10
788.7414262895
 20
254.8427786509
 30
0.0
 10
788.7477720609
 20
254.8490319693
 30
0.0
 10
788.7525335019
 20
254.8537172025
 30
0.0
 10
788.7564946496
 20
254.8576366918
 30
0.0
 10
788.7592806402
 20
254.8603506454
 30
0.0
 10
788.7608520441
 20
254.8619478329
 30
0.0
 10
788.7620886016
 20
254.8630151354
 30
0.0
 10
788.7631034362
 20
254.8645816121
 30
0.0
 10
788.7645338885
 20
254.8664961303
 30
0.0
 10
788.7670011461
 20
254.8699276616
 30
0.0
 10
788.7705446388
 20
254.8747874363
 30
0.0
 10
788.7747887663
 20
254.88063732
 30
0.0
 10
788.7804504195
 20
254.8884308242
 30
0.0
 10
788.7875265217
 20
254.8981748755
 30
0.0
 10
788.7988488241
 20
254.9137641441
 30
0.0
 10
788.8130015171
 20
254.9332511463
 30
0.0
 10
788.8299848281
 20
254.9566353704
 30
0.0
 10
788.8469681178
 20
254.9800196423
 30
0.0
 10
788.8696125114
 20
255.0111986549
 30
0.0
 10
788.897918002
 20
255.0501724254
 30
0.0
 10
788.9262234893
 20
255.0891461975
 30
0.0
 10
788.9488678881
 20
255.1203252075
 30
0.0
 10
788.9658511621
 20
255.1437094871
 30
0.0
 10
788.9828345321
 20
255.1670936819
 30
0.0
 10
788.9969870415
 20
255.1865807755
 30
0.0
 10
789.0083097185
 20
255.2021698576
 30
0.0
 10
789.0153848673
 20
255.2119143837
 30
0.0
 10
789.0210484773
 20
255.2197069131
 30
0.0
 10
789.0252866265
 20
255.2255597749
 30
0.0
 10
789.0288488242
 20
255.2304102321
 30
0.0
 10
789.0316303854
 20
255.2343509918
 30
0.0
 10
789.033902903
 20
255.2371415362
 30
0.0
 10
789.0354641322
 20
255.2405619853
 30
0.0
 10
789.0377942334
 20
255.2449025502
 30
0.0
 10
789.0406216137
 20
255.2504037488
 30
0.0
 10
789.0440509581
 20
255.256972874
 30
0.0
 10
789.0486106729
 20
255.2657429939
 30
0.0
 10
789.0543146801
 20
255.2767017793
 30
0.0
 10
789.0634386527
 20
255.2942379958
 30
0.0
 10
789.0748444553
 20
255.3161575252
 30
0.0
 10
789.0885310598
 20
255.3424612783
 30
0.0
 10
789.10221776
 20
255.3687649465
 30
0.0
 10
789.1204666608
 20
255.4038365333
 30
0.0
 10
789.1432777941
 20
255.4476760095
 30
0.0
 10
789.1660889396
 20
255.4915154785
 30
0.0
 10
789.1843378207
 20
255.5265870767
 30
0.0
 10
789.1980245802
 20
255.5528907107
 30
0.0
 10
789.2117109626
 20
255.579194592
 30
0.0
 10
789.223117456
 20
255.6011137227
 30
0.0
 10
789.2322400199
 20
255.6186507523
 30
0.0
 10
789.2390891305
 20
255.6317988118
 30
0.0
 10
789.2447738598
 20
255.6427705183
 30
0.0
 10
789.2487980378
 20
255.6504212951
 30
0.0
 10
789.2510275112
 20
255.6548391008
 30
0.0
 10
789.2528969678
 20
255.6580230605
 30
0.0
 10
789.2540120464
 20
255.6617016321
 30
0.0
 10
789.2557619534
 20
255.666433868
 30
0.0
 10
789.2587016909
 20
255.674795664
 30
0.0
 10
789.2629654125
 20
255.6866990616
 30
0.0
 10
789.2680544429
 20
255.701001127
 30
0.0
 10
789.2748494004
 20
255.7200642639
 30
0.0
 10
789.2833398086
 20
255.7438953412
 30
0.0
 10
789.2935297083
 20
255.7724917098
 30
0.0
 10
789.3037192307
 20
255.8010883256
 30
0.0
 10
789.317305393
 20
255.8392170601
 30
0.0
 10
789.3342880458
 20
255.8868780095
 30
0.0
 10
789.3512707334
 20
255.9345389423
 30
0.0
 10
789.3648568398
 20
255.9726677032
 30
0.0
 10
789.3750465299
 20
256.0012642397
 30
0.0
 10
789.3852358008
 20
256.029860906
 30
0.0
 10
789.3937281651
 20
256.0536910569
 30
0.0
 10
789.4005191337
 20
256.0727560831
 30
0.0
 10
789.4056203456
 20
256.0870523789
 30
0.0
 10
789.4098459551
 20
256.0989738278
 30
0.0
 10
789.412853729
 20
256.1073033992
 30
0.0
 10
789.4144946247
 20
256.1120872669
 30
0.0
 10
789.415944551
 20
256.1156072422
 30
0.0
 10
789.4165563755
 20
256.1193868633
 30
0.0
 10
789.4176644809
 20
256.1243357908
 30
0.0
 10
789.4194674589
 20
256.133038611
 30
0.0
 10
789.4221143521
 20
256.14544915
 30
0.0
 10
789.4252601435
 20
256.1603512399
 30
0.0
 10
789.4294651792
 20
256.1802173944
 30
0.0
 10
789.4347178204
 20
256.2050512195
 30
0.0
 10
789.441022556
 20
256.2348513244
 30
0.0
 10
789.4473268724
 20
256.2646515591
 30
0.0
 10
789.4557327748
 20
256.3043851599
 30
0.0
 10
789.4662400973
 20
256.3540521772
 30
0.0
 10
789.4767474577
 20
256.4037191861
 30
0.0
 10
789.4851532994
 20
256.4434528005
 30
0.0
 10
789.4914577977
 20
256.4732529944
 30
0.0
 10
789.4977618511
 20
256.5030532525
 30
0.0
 10
789.5030166146
 20
256.5278866008
 30
0.0
 10
789.5072173224
 20
256.5477537275
 30
0.0
 10
789.5103763308
 20
256.5626528485
 30
0.0
 10
789.512981872
 20
256.5750726763
 30
0.0
 10
789.5148586702
 20
256.5837589145
 30
0.0
 10
789.5158484971
 20
256.5887344104
 30
0.0
 10
789.5168236352
 20
256.5924324221
 30
0.0
 10
789.5169090162
 20
256.5962589089
 30
0.0
 10
789.5173332147
 20
256.6013160778
 30
0.0
 10
789.517930961
 20
256.6101870028
 30
0.0
 10
789.5188604834
 20
256.6228488367
 30
0.0
 10
789.5199435512
 20
256.6380477099
 30
0.0
 10
789.5213989451
 20
256.6583112421
 30
0.0
 10
789.5232143087
 20
256.6836412173
 30
0.0
 10
789.5253944078
 20
256.7140369474
 30
0.0
 10
789.5275740621
 20
256.7444327418
 30
0.0
 10
789.5304804232
 20
256.7849604453
 30
0.0
 10
789.5341133213
 20
256.8356200822
 30
0.0
 10
789.5384728218
 20
256.8964116433
 30
0.0
 10
789.5442854811
 20
256.9774670592
 30
0.0
 10
789.5486449774
 20
257.0382586209
 30
0.0
 10
789.5515513079
 20
257.0787863288
 30
0.0
  0
SPLINE
  5
35C
100
AcDbEntity
  8
0
100
AcDbSpline
 62
2
  6
CONTINUOUS
 70
0
 71
3
 72
195
 73
191
 74
0
 42
0.0000001
 43
0.0000001
 44
0.0000000001
 40
0.0
 40
0.0
 40
0.0
 40
0.0
 40
0.03125
 40
0.046875
 40
0.0625
 40
0.078125
 40
0.0859375
 40
0.09375
 40
0.1015625
 40
0.109375
 40
0.11328125
 40
0.1171875
 40
0.119140625
 40
0.12109375
 40
0.123046875
 40
0.1240234375
 40
0.1245117188
 40
0.125
 40
0.1254882812
 40
0.1259765625
 40
0.126953125
 40
0.12890625
 40
0.130859375
 40
0.1328125
 40
0.13671875
 40
0.140625
 40
0.1484375
 40
0.15625
 40
0.1640625
 40
0.171875
 40
0.1875
 40
0.203125
 40
0.2109375
 40
0.21875
 40
0.2265625
 40
0.234375
 40
0.23828125
 40
0.2421875
 40
0.244140625
 40
0.24609375
 40
0.248046875
 40
0.2490234375
 40
0.2495117188
 40
0.25
 40
0.2504882812
 40
0.2509765625
 40
0.251953125
 40
0.25390625
 40
0.255859375
 40
0.2578125
 40
0.26171875
 40
0.265625
 40
0.2734375
 40
0.28125
 40
0.2890625
 40
0.296875
 40
0.3125
 40
0.328125
 40
0.3359375
 40
0.34375
 40
0.3515625
 40
0.359375
 40
0.36328125
 40
0.3671875
 40
0.369140625
 40
0.37109375
 40
0.373046875
 40
0.3740234375
 40
0.3745117188
 40
0.375
 40
0.3754882812
 40
0.3759765625
 40
0.376953125
 40
0.37890625
 40
0.380859375
 40
0.3828125
 40
0.38671875
 40
0.390625
 40
0.3984375
 40
0.40625
 40
0.4140625
 40
0.421875
 40
0.4375
 40
0.453125
 40
0.4609375
 40
0.46875
 40
0.4765625
 40
0.484375
 40
0.48828125
 40
0.4921875
 40
0.494140625
 40
0.49609375
 40
0.498046875
 40
0.4990234375
 40
0.4995117188
 40
0.5
 40
0.5004882812
 40
0.5009765625
 40
0.501953125
 40
0.50390625
 40
0.505859375
 40
0.5078125
 40
0.51171875
 40
0.515625
 40
0.5234375
 40
0.53125
 40
0.5390625
 40
0.546875
 40
0.5625
 40
0.578125
 40
0.5859375
 40
0.59375
 40
0.6015625
 40
0.609375
 40
0.61328125
 40
0.6171875
 40
0.619140625
 40
0.62109375
 40
0.623046875
 40
0.6240234375
 40
0.6245117188
 40
0.625
 40
0.6254882812
 40
0.6259765625
 40
0.626953125
 40
0.62890625
 40
0.630859375
 40
0.6328125
 40
0.63671875
 40
0.640625
 40
0.6484375
 40
0.65625
 40
0.6640625
 40
0.671875
 40
0.6875
 40
0.703125
 40
0.7109375
 40
0.71875
 40
0.7265625
 40
0.734375
 40
0.73828125
 40
0.7421875
 40
0.744140625
 40
0.74609375
 40
0.748046875
 40
0.7490234375
 40
0.7495117188
 40
0.75
 40
0.7504882812
 40
0.7509765625
 40
0.751953125
 40
0.75390625
 40
0.755859375
 40
0.7578125
 40
0.76171875
 40
0.765625
 40
0.7734375
 40
0.78125
 40
0.7890625
 40
0.796875
 40
0.8125
 40
0.828125
 40
0.8359375
 40
0.84375
 40
0.8515625
 40
0.859375
 40
0.86328125
 40
0.8671875
 40
0.869140625
 40
0.87109375
 40
0.873046875
 40
0.8740234375
 40
0.8745117188
 40
0.875
 40
0.8754882812
 40
0.8759765625
 40
0.876953125
 40
0.87890625
 40
0.880859375
 40
0.8828125
 40
0.88671875
 40
0.890625
 40
0.8984375
 40
0.90625
 40
0.9140625
 40
0.921875
 40
0.9375
 40
0.953125
 40
0.96875
 40
1.0
 40
1.0
 40
1.0
 40
1.0
 10
754.1962122508
 20
247.9281511292
 30
0.0
 10
754.1990178214
 20
247.8897906026
 30
0.0
 10
754.2032261773
 20
247.8322498127
 30
0.0
 10
754.2088373183
 20
247.7555287594
 30
0.0
 10
754.2130456746
 20
247.6979879698
 30
0.0
 10
754.2165526364
 20
247.6500373107
 30
0.0
 10
754.21935821
 20
247.6116767857
 30
0.0
 10
754.2214623789
 20
247.582906386
 30
0.0
 10
754.2235665905
 20
247.5541360088
 30
0.0
 10
754.2253199675
 20
247.5301606243
 30
0.0
 10
754.2267229662
 20
247.510980474
 30
0.0
 10
754.2275991639
 20
247.4989925219
 30
0.0
 10
754.2283016713
 20
247.4894029804
 30
0.0
 10
754.2288243099
 20
247.4822085789
 30
0.0
 10
754.2292733365
 20
247.4762203869
 30
0.0
 10
754.2295611727
 20
247.4720146354
 30
0.0
 10
754.2297670007
 20
247.4696332354
 30
0.0
 10
754.2298048875
 20
247.4677855305
 30
0.0
 10
754.230288036
 20
247.4661735022
 30
0.0
 10
754.2307769216
 20
247.4639419245
 30
0.0
 10
754.2317048345
 20
247.4600749651
 30
0.0
 10
754.2329925921
 20
247.454530713
 30
0.0
 10
754.2345540945
 20
247.4478861815
 30
0.0
 10
754.2366304418
 20
247.4390238124
 30
0.0
 10
754.2392278126
 20
247.4279468762
 30
0.0
 10
754.2433825234
 20
247.4102232053
 30
0.0
 10
754.2485762833
 20
247.3880688133
 30
0.0
 10
754.254808636
 20
247.3614834586
 30
0.0
 10
754.2610410313
 20
247.3348981264
 30
0.0
 10
754.2693508767
 20
247.299451009
 30
0.0
 10
754.2797381891
 20
247.2551421152
 30
0.0
 10
754.2901254979
 20
247.210833219
 30
0.0
 10
754.2984353492
 20
247.1753861055
 30
0.0
 10
754.304667727
 20
247.1488007616
 30
0.0
 10
754.3109001451
 20
247.1222154508
 30
0.0
 10
754.3160937017
 20
247.1000609223
 30
0.0
 10
754.3202488271
 20
247.0823375297
 30
0.0
 10
754.3228451428
 20
247.0712598853
 30
0.0
 10
754.3249236556
 20
247.0623989698
 30
0.0
 10
754.3264785422
 20
247.0557499974
 30
0.0
 10
754.3277869994
 20
247.0502196398
 30
0.0
 10
754.3286779599
 20
247.0463278763
 30
0.0
 10
754.3292260525
 20
247.0441360411
 30
0.0
 10
754.3295273362
 20
247.0424019367
 30
0.0
 10
754.330248277
 20
247.0410127293
 30
0.0
 10
754.3310631503
 20
247.0390401488
 30
0.0
 10
754.3325573802
 20
247.0356441848
 30
0.0
 10
754.3346563379
 20
247.0307635032
 30
0.0
 10
754.3371903492
 20
247.0249192284
 30
0.0
 10
754.3405637001
 20
247.017122481
 30
0.0
 10
754.3447822141
 20
247.0073780469
 30
0.0
 10
754.3515308164
 20
246.9917861138
 30
0.0
 10
754.3599669192
 20
246.9722964852
 30
0.0
 10
754.3700900926
 20
246.9489088075
 30
0.0
 10
754.3802133061
 20
246.9255211629
 30
0.0
 10
754.39371091
 20
246.894337625
 30
0.0
 10
754.4105829202
 20
246.8553582072
 30
0.0
 10
754.4274549269
 20
246.8163787861
 30
0.0
 10
754.4409525364
 20
246.7851952534
 30
0.0
 10
754.4510757332
 20
246.7618075935
 30
0.0
 10
754.4611989691
 20
246.7384199728
 30
0.0
 10
754.4696348775
 20
246.7189301671
 30
0.0
 10
754.4763838762
 20
246.7033385951
 30
0.0
 10
754.4806013813
 20
246.6935932422
 30
0.0
 10
754.4839768031
 20
246.6857983806
 30
0.0
 10
754.4865044879
 20
246.6799483443
 30
0.0
 10
754.4886232397
 20
246.6750856892
 30
0.0
 10
754.4900821336
 20
246.6716575448
 30
0.0
 10
754.4909536242
 20
246.6697365255
 30
0.0
 10
754.4915006549
 20
246.6681889386
 30
0.0
 10
754.4924551161
 20
246.6670496814
 30
0.0
 10
754.4935856147
 20
246.6653882418
 30
0.0
 10
754.4956302019
 20
246.6625470833
 30
0.0
 10
754.498516423
 20
246.6584535913
 30
0.0
 10
754.5019947058
 20
246.6535562511
 30
0.0
 10
754.5066272408
 20
246.6470212773
 30
0.0
 10
754.5124196816
 20
246.638854336
 30
0.0
 10
754.5216865965
 20
246.6257862374
 30
0.0
 10
754.53327058
 20
246.6094514546
 30
0.0
 10
754.5471712144
 20
246.5898495694
 30
0.0
 10
754.5610718879
 20
246.5702477232
 30
0.0
 10
754.5796061054
 20
246.5441119146
 30
0.0
 10
754.6027738824
 20
246.5114421591
 30
0.0
 10
754.6259416565
 20
246.4787723995
 30
0.0
 10
754.6444758788
 20
246.4526365974
 30
0.0
 10
754.658376538
 20
246.4330347316
 30
0.0
 10
754.6722772258
 20
246.4134329197
 30
0.0
 10
754.6838610434
 20
246.3970979088
 30
0.0
 10
754.6931282964
 20
246.3840302756
 30
0.0
 10
754.6989198769
 20
246.3758621497
 30
0.0
 10
754.7035541778
 20
246.3693296074
 30
0.0
 10
754.7070270655
 20
246.3644248387
 30
0.0
 10
754.7099301665
 20
246.3603545885
 30
0.0
 10
754.7119446203
 20
246.3574719395
 30
0.0
 10
754.7131234001
 20
246.3558769782
 30
0.0
 10
754.713929557
 20
246.3545335211
 30
0.0
 10
754.715033594
 20
246.353752875
 30
0.0
 10
754.7164017394
 20
246.3525156987
 30
0.0
 10
754.7188444047
 20
246.3504421069
 30
0.0
 10
754.7223086167
 20
246.3474320132
 30
0.0
 10
754.7264765046
 20
246.343840369
 30
0.0
 10
754.7320299045
 20
246.339044361
 30
0.0
 10
754.73897295
 20
246.3330517988
 30
0.0
 10
754.7500810987
 20
246.3234623312
 30
0.0
 10
754.763966533
 20
246.3114759662
 30
0.0
 10
754.7806289477
 20
246.2970921269
 30
0.0
 10
754.7972913908
 20
246.2827083415
 30
0.0
 10
754.8195079717
 20
246.263529942
 30
0.0
 10
754.8472787016
 20
246.2395569498
 30
0.0
 10
754.8750494291
 20
246.2155839527
 30
0.0
 10
754.8972660137
 20
246.1964055609
 30
0.0
 10
754.9139284458
 20
246.1820217525
 30
0.0
 10
754.9305909021
 20
246.1676379996
 30
0.0
 10
754.944476207
 20
246.1556513658
 30
0.0
 10
754.9555846195
 20
246.1460624462
 30
0.0
 10
754.9625269937
 20
246.1400684894
 30
0.0
 10
754.9680817716
 20
246.1352753441
 30
0.0
 10
754.9722454494
 20
246.1316749538
 30
0.0
 10
754.9757228336
 20
246.1286922247
 30
0.0
 10
754.9781419844
 20
246.1265697823
 30
0.0
 10
754.9795478058
 20
246.1254108771
 30
0.0
 10
754.9805361142
 20
246.1243898075
 30
0.0
 10
754.9817769286
 20
246.123949341
 30
0.0
 10
754.9833432709
 20
246.1231595315
 30
0.0
 10
754.9861254065
 20
246.1218717231
 30
0.0
 10
754.9900784315
 20
246.1199826653
 30
0.0
 10
754.9948312448
 20
246.1177369114
 30
0.0
 10
755.0011651216
 20
246.1147351977
 30
0.0
 10
755.0090835659
 20
246.1109855808
 30
0.0
 10
755.0217524629
 20
246.1049847823
 30
0.0
 10
755.0375887949
 20
246.0974842686
 30
0.0
 10
755.0565923029
 20
246.0884834446
 30
0.0
 10
755.0755958351
 20
246.079482676
 30
0.0
 10
755.1009338695
 20
246.0674816319
 30
0.0
 10
755.1326064157
 20
246.052480334
 30
0.0
 10
755.16427896
 20
246.0374790311
 30
0.0
 10
755.1896169973
 20
246.0254779949
 30
0.0
 10
755.2086205209
 20
246.0164772023
 30
0.0
 10
755.2276240612
 20
246.0074764687
 30
0.0
 10
755.2434602928
 20
245.9999756734
 30
0.0
 10
755.2561293944
 20
245.9939754492
 30
0.0
 10
755.264047318
 20
245.9902243709
 30
0.0
 10
755.2703822637
 20
245.987225657
 30
0.0
 10
755.2751318112
 20
245.984970738
 30
0.0
 10
755.279095054
 20
245.9831103557
 30
0.0
 10
755.2818589493
 20
245.9817713567
 30
0.0
 10
755.2834545172
 20
245.9810635674
 30
0.0
 10
755.2846055598
 20
245.9803711611
 30
0.0
 10
755.2859310363
 20
245.9802963357
 30
0.0
 10
755.2876374939
 20
245.9799811494
 30
0.0
 10
755.2906521432
 20
245.9795299412
 30
0.0
 10
755.2949439641
 20
245.9788328845
 30
0.0
 10
755.300100493
 20
245.9780188768
 30
0.0
 10
755.3069736491
 20
245.9769256883
 30
0.0
 10
755.315565853
 20
245.9755618888
 30
0.0
 10
755.3293129551
 20
245.9733783083
 30
0.0
 10
755.3464969782
 20
245.9706493479
 30
0.0
 10
755.3671177436
 20
245.9673743745
 30
0.0
 10
755.3877385257
 20
245.9640994602
 30
0.0
 10
755.415232896
 20
245.959732887
 30
0.0
 10
755.449600861
 20
245.9542746784
 30
0.0
 10
755.4839688247
 20
245.9488164645
 30
0.0
 10
755.511463197
 20
245.9444498998
 30
0.0
 10
755.5320839729
 20
245.9411749602
 30
0.0
 10
755.5527047614
 20
245.9379000819
 30
0.0
 10
755.5698887127
 20
245.9351708255
 30
0.0
 10
755.5836359613
 20
245.9329878486
 30
0.0
 10
755.5922277922
 20
245.931622513
 30
0.0
 10
755.5991017139
 20
245.9305324774
 30
0.0
 10
755.6042559041
 20
245.9297088372
 30
0.0
 10
755.6085550423
 20
245.9290419184
 30
0.0
 10
755.6115566289
 20
245.9285369091
 30
0.0
 10
755.6132840162
 20
245.9283079255
 30
0.0
 10
755.6145452034
 20
245.9279683131
 30
0.0
 10
755.6159377062
 20
245.928270403
 30
0.0
 10
755.6177485723
 20
245.9284493567
 30
0.0
 10
755.6209389291
 20
245.9288668135
 30
0.0
 10
755.6254854243
 20
245.9294086575
 30
0.0
 10
755.6309459943
 20
245.9300822078
 30
0.0
 10
755.6382250862
 20
245.9309721235
 30
0.0
 10
755.6473245222
 20
245.9320873092
 30
0.0
 10
755.6618833005
 20
245.9338700464
 30
0.0
 10
755.6800818831
 20
245.9360990033
 30
0.0
 10
755.7019201351
 20
245.938773522
 30
0.0
 10
755.7237583997
 20
245.9414481021
 30
0.0
 10
755.7528760815
 20
245.9450141874
 30
0.0
 10
755.7892731852
 20
245.9494718014
 30
0.0
 10
755.832949709
 20
245.9548209351
 30
0.0
 10
755.8911850743
 20
245.9619531145
 30
0.0
 10
755.9348615983
 20
245.9673022488
 30
0.0
 10
755.9639792809
 20
245.9708683384
 30
0.0
  0
SPLINE
  5
35D
100
AcDbEntity
  8
0
100
AcDbSpline
 62
2
  6
CONTINUOUS
 70
0
 71
3
 72
181
 73
177
 74
0
 42
0.0000001
 43
0.0000001
 44
0.0000000001
 40
0.0
 40
0.0
 40
0.0
 40
0.0
 40
0.03125
 40
0.046875
 40
0.0625
 40
0.078125
 40
0.0859375
 40
0.09375
 40
0.1015625
 40
0.109375
 40
0.11328125
 40
0.1171875
 40
0.119140625
 40
0.12109375
 40
0.123046875
 40
0.1240234375
 40
0.1245117188
 40
0.125
 40
0.1254882812
 40
0.1259765625
 40
0.126953125
 40
0.12890625
 40
0.130859375
 40
0.1328125
 40
0.13671875
 40
0.140625
 40
0.1484375
 40
0.15625
 40
0.1640625
 40
0.171875
 40
0.1875
 40
0.203125
 40
0.2109375
 40
0.21875
 40
0.2265625
 40
0.234375
 40
0.23828125
 40
0.2421875
 40
0.244140625
 40
0.24609375
 40
0.248046875
 40
0.2490234375
 40
0.2495117188
 40
0.25
 40
0.2504882812
 40
0.2509765625
 40
0.251953125
 40
0.25390625
 40
0.255859375
 40
0.2578125
 40
0.26171875
 40
0.265625
 40
0.2734375
 40
0.28125
 40
0.2890625
 40
0.296875
 40
0.3125
 40
0.328125
 40
0.3359375
 40
0.34375
 40
0.3515625
 40
0.359375
 40
0.36328125
 40
0.3671875
 40
0.369140625
 40
0.37109375
 40
0.373046875
 40
0.3740234375
 40
0.3745117188
 40
0.375
 40
0.3754882812
 40
0.3759765625
 40
0.376953125
 40
0.37890625
 40
0.380859375
 40
0.3828125
 40
0.38671875
 40
0.390625
 40
0.3984375
 40
0.40625
 40
0.4140625
 40
0.421875
 40
0.4375
 40
0.453125
 40
0.4609375
 40
0.46875
 40
0.4765625
 40
0.484375
 40
0.48828125
 40
0.4921875
 40
0.494140625
 40
0.49609375
 40
0.498046875
 40
0.4990234375
 40
0.5
 40
0.5009765625
 40
0.501953125
 40
0.50390625
 40
0.505859375
 40
0.5078125
 40
0.51171875
 40
0.515625
 40
0.5234375
 40
0.53125
 40
0.5390625
 40
0.546875
 40
0.5625
 40
0.578125
 40
0.5859375
 40
0.59375
 40
0.6015625
 40
0.609375
 40
0.61328125
 40
0.6171875
 40
0.62109375
 40
0.623046875
 40
0.6240234375
 40
0.625
 40
0.6259765625
 40
0.626953125
 40
0.62890625
 40
0.6328125
 40
0.63671875
 40
0.640625
 40
0.6484375
 40
0.65625
 40
0.6640625
 40
0.671875
 40
0.6875
 40
0.703125
 40
0.7109375
 40
0.71875
 40
0.7265625
 40
0.734375
 40
0.73828125
 40
0.7421875
 40
0.74609375
 40
0.748046875
 40
0.7490234375
 40
0.75
 40
0.7509765625
 40
0.751953125
 40
0.75390625
 40
0.7578125
 40
0.76171875
 40
0.765625
 40
0.7734375
 40
0.78125
 40
0.7890625
 40
0.796875
 40
0.8125
 40
0.828125
 40
0.8359375
 40
0.84375
 40
0.8515625
 40
0.859375
 40
0.86328125
 40
0.8671875
 40
0.87109375
 40
0.873046875
 40
0.8740234375
 40
0.875
 40
0.8759765625
 40
0.876953125
 40
0.87890625
 40
0.8828125
 40
0.88671875
 40
0.890625
 40
0.8984375
 40
0.90625
 40
0.9140625
 40
0.921875
 40
0.9375
 40
0.953125
 40
0.96875
 40
1.0
 40
1.0
 40
1.0
 40
1.0
 10
755.9639792036
 20
255.6301265805
 30
0.0
 10
755.9353657813
 20
255.6188884012
 30
0.0
 10
755.892445648
 20
255.6020311321
 30
0.0
 10
755.8352188034
 20
255.5795547737
 30
0.0
 10
755.7922986701
 20
255.5626975041
 30
0.0
 10
755.756531892
 20
255.5486497818
 30
0.0
 10
755.7279184703
 20
255.5374115987
 30
0.0
 10
755.7064584018
 20
255.528982976
 30
0.0
 10
755.6849983418
 20
255.5205542973
 30
0.0
 10
755.6671149321
 20
255.5135305728
 30
0.0
 10
755.6528082633
 20
255.5079112025
 30
0.0
 10
755.6438664613
 20
255.5043999856
 30
0.0
 10
755.6367133264
 20
255.501588975
 30
0.0
 10
755.6313476354
 20
255.4994862944
 30
0.0
 10
755.6268788981
 20
255.4977163183
 30
0.0
 10
755.6237455384
 20
255.4965121536
 30
0.0
 10
755.6219632347
 20
255.4957696932
 30
0.0
 10
755.6206034424
 20
255.4953659987
 30
0.0
 10
755.6193318143
 20
255.4943768841
 30
0.0
 10
755.6176055575
 20
255.4932622657
 30
0.0
 10
755.6145989363
 20
255.4912165424
 30
0.0
 10
755.6102962723
 20
255.4883438214
 30
0.0
 10
755.6051362818
 20
255.4848752655
 30
0.0
 10
755.5982551746
 20
255.4802579608
 30
0.0
 10
755.5896541741
 20
255.4744837836
 30
0.0
 10
755.5758923589
 20
255.4652465232
 30
0.0
 10
755.5586901634
 20
255.4536994594
 30
0.0
 10
755.5380474973
 20
255.4398431922
 30
0.0
 10
755.5174048397
 20
255.425986869
 30
0.0
 10
755.4898812932
 20
255.407511791
 30
0.0
 10
755.4554768612
 20
255.3844179361
 30
0.0
 10
755.4210724282
 20
255.361324086
 30
0.0
 10
755.3935488835
 20
255.3428490005
 30
0.0
 10
755.3729062205
 20
255.3289926997
 30
0.0
 10
755.3522635742
 20
255.3151363483
 30
0.0
 10
755.3350613173
 20
255.3035895463
 30
0.0
 10
755.3212996273
 20
255.294351752
 30
0.0
 10
755.3126983082
 20
255.2885789336
 30
0.0
 10
755.3058178548
 20
255.2839588399
 30
0.0
 10
755.3006558669
 20
255.2804988046
 30
0.0
 10
755.2963594524
 20
255.2775994249
 30
0.0
 10
755.2933416747
 20
255.2756012919
 30
0.0
 10
755.2916332936
 20
255.2744104218
 30
0.0
 10
755.2903067572
 20
255.2736555279
 30
0.0
 10
755.2891531911
 20
255.2723721395
 30
0.0
 10
755.287554769
 20
255.2708452998
 30
0.0
 10
755.284785641
 20
255.2680874406
 30
0.0
 10
755.2808150473
 20
255.2641925459
 30
0.0
 10
755.2760566255
 20
255.2594994519
 30
0.0
 10
755.2697098659
 20
255.2532487065
 30
0.0
 10
755.2617771687
 20
255.2454329761
 30
0.0
 10
755.2490844326
 20
255.2329290922
 30
0.0
 10
755.2332186569
 20
255.2172987965
 30
0.0
 10
755.2141796642
 20
255.1985426306
 30
0.0
 10
755.195140688
 20
255.1797864142
 30
0.0
 10
755.1697553806
 20
255.1547781433
 30
0.0
 10
755.1380237486
 20
255.1235177981
 30
0.0
 10
755.1062921149
 20
255.0922574572
 30
0.0
 10
755.0809068102
 20
255.0672491794
 30
0.0
 10
755.061867826
 20
255.0484929836
 30
0.0
 10
755.0428288631
 20
255.0297367401
 30
0.0
 10
755.0269629946
 20
255.0141066859
 30
0.0
 10
755.0142704478
 20
255.0016023094
 30
0.0
 10
755.0063372691
 20
254.9937878325
 30
0.0
 10
754.9999914977
 20
254.9875345142
 30
0.0
 10
754.9952300568
 20
254.982849281
 30
0.0
 10
754.9912689091
 20
254.9789297916
 30
0.0
 10
754.9884829184
 20
254.9762158381
 30
0.0
 10
754.9869115145
 20
254.9746186506
 30
0.0
 10
754.9856749571
 20
254.9735513481
 30
0.0
 10
754.9846601224
 20
254.9719848713
 30
0.0
 10
754.9832296701
 20
254.9700703532
 30
0.0
 10
754.9807624125
 20
254.9666388219
 30
0.0
 10
754.9772189198
 20
254.9617790472
 30
0.0
 10
754.9729747923
 20
254.9559291634
 30
0.0
 10
754.9673131391
 20
254.9481356593
 30
0.0
 10
754.960237037
 20
254.938391608
 30
0.0
 10
754.9489147346
 20
254.9228023393
 30
0.0
 10
754.9347620415
 20
254.9033153372
 30
0.0
 10
754.9177787306
 20
254.879931113
 30
0.0
 10
754.9007954408
 20
254.8565468412
 30
0.0
 10
754.8781510472
 20
254.8253678286
 30
0.0
 10
754.8498455566
 20
254.7863940581
 30
0.0
 10
754.8215400694
 20
254.747420286
 30
0.0
 10
754.7988956705
 20
254.716241276
 30
0.0
 10
754.7819123965
 20
254.6928569963
 30
0.0
 10
754.7649290265
 20
254.6694728016
 30
0.0
 10
754.7507765172
 20
254.6499857079
 30
0.0
 10
754.7394538401
 20
254.6343966259
 30
0.0
 10
754.7323786913
 20
254.6246520997
 30
0.0
 10
754.7267150813
 20
254.6168595703
 30
0.0
 10
754.7224769322
 20
254.6110067086
 30
0.0
 10
754.7189147345
 20
254.6061562514
 30
0.0
 10
754.7161331733
 20
254.6022154917
 30
0.0
 10
754.7138606556
 20
254.5994249473
 30
0.0
 10
754.7122994265
 20
254.5960044982
 30
0.0
 10
754.7099693253
 20
254.5916639333
 30
0.0
 10
754.707141945
 20
254.5861627347
 30
0.0
 10
754.7037126005
 20
254.5795936095
 30
0.0
 10
754.6991528857
 20
254.5708234896
 30
0.0
 10
754.6934488785
 20
254.5598647042
 30
0.0
 10
754.684324906
 20
254.5423284877
 30
0.0
 10
754.6729191033
 20
254.5204089582
 30
0.0
 10
754.6592324989
 20
254.4941052051
 30
0.0
 10
754.6455457986
 20
254.467801537
 30
0.0
 10
754.6272968978
 20
254.4327299502
 30
0.0
 10
754.6044857646
 20
254.388890474
 30
0.0
 10
754.581674619
 20
254.3450510049
 30
0.0
 10
754.563425738
 20
254.3099794067
 30
0.0
 10
754.5497389785
 20
254.2836757727
 30
0.0
 10
754.5360525961
 20
254.2573718915
 30
0.0
 10
754.5246461026
 20
254.2354527607
 30
0.0
 10
754.5155235388
 20
254.2179157312
 30
0.0
 10
754.5086744281
 20
254.2047676717
 30
0.0
 10
754.5029896989
 20
254.1937959652
 30
0.0
 10
754.4989655208
 20
254.1861451883
 30
0.0
 10
754.4967360475
 20
254.1817273826
 30
0.0
 10
754.4948665909
 20
254.178543423
 30
0.0
 10
754.4937515122
 20
254.1748648514
 30
0.0
 10
754.4920016052
 20
254.1701326155
 30
0.0
 10
754.4890618677
 20
254.1617708195
 30
0.0
 10
754.4847981461
 20
254.1498674219
 30
0.0
 10
754.4797091157
 20
254.1355653565
 30
0.0
 10
754.4729141583
 20
254.1165022196
 30
0.0
 10
754.46442375
 20
254.0926711422
 30
0.0
 10
754.4542338503
 20
254.0640747737
 30
0.0
 10
754.4440443279
 20
254.0354781579
 30
0.0
 10
754.4304581656
 20
253.9973494233
 30
0.0
 10
754.4134755129
 20
253.949688474
 30
0.0
 10
754.3964928252
 20
253.9020275412
 30
0.0
 10
754.3829067188
 20
253.8638987802
 30
0.0
 10
754.3727170287
 20
253.8353022438
 30
0.0
 10
754.3625277578
 20
253.8067055775
 30
0.0
 10
754.3540353935
 20
253.7828754266
 30
0.0
 10
754.3472444249
 20
253.7638104003
 30
0.0
 10
754.342143213
 20
253.7495141046
 30
0.0
 10
754.3379176035
 20
253.7375926557
 30
0.0
 10
754.3349098297
 20
253.7292630842
 30
0.0
 10
754.3332689339
 20
253.7244792165
 30
0.0
 10
754.3318190077
 20
253.7209592413
 30
0.0
 10
754.3312071831
 20
253.7171796201
 30
0.0
 10
754.3300990778
 20
253.7122306926
 30
0.0
 10
754.3282960997
 20
253.7035278725
 30
0.0
 10
754.3256492065
 20
253.6911173334
 30
0.0
 10
754.3225034152
 20
253.6762152436
 30
0.0
 10
754.3182983794
 20
253.656349089
 30
0.0
 10
754.3130457383
 20
253.631515264
 30
0.0
 10
754.3067410027
 20
253.6017151591
 30
0.0
 10
754.3004366862
 20
253.5719149244
 30
0.0
 10
754.2920307839
 20
253.5321813236
 30
0.0
 10
754.2815234614
 20
253.4825143062
 30
0.0
 10
754.271016101
 20
253.4328472974
 30
0.0
 10
754.2626102593
 20
253.393113683
 30
0.0
 10
754.2563057609
 20
253.3633134891
 30
0.0
 10
754.2500017075
 20
253.333513231
 30
0.0
 10
754.244746944
 20
253.3086798827
 30
0.0
 10
754.2405462363
 20
253.2888127559
 30
0.0
 10
754.2373872278
 20
253.273913635
 30
0.0
 10
754.2347816867
 20
253.2614938072
 30
0.0
 10
754.2329048884
 20
253.2528075689
 30
0.0
 10
754.2319150616
 20
253.2478320731
 30
0.0
 10
754.2309399235
 20
253.2441340614
 30
0.0
 10
754.2308545425
 20
253.2403075746
 30
0.0
 10
754.2304303439
 20
253.2352504057
 30
0.0
 10
754.2298325977
 20
253.2263794807
 30
0.0
 10
754.2289030753
 20
253.2137176467
 30
0.0
 10
754.2278200075
 20
253.1985187735
 30
0.0
 10
754.2263646136
 20
253.1782552414
 30
0.0
 10
754.2245492499
 20
253.1529252662
 30
0.0
 10
754.2223691508
 20
253.122529536
 30
0.0
 10
754.2201894965
 20
253.0921337416
 30
0.0
 10
754.2172831354
 20
253.0516060382
 30
0.0
 10
754.2136502374
 20
253.0009464012
 30
0.0
 10
754.2092907369
 20
252.9401548402
 30
0.0
 10
754.2034780775
 20
252.8590994242
 30
0.0
 10
754.1991185812
 20
252.7983078625
 30
0.0
 10
754.1962122508
 20
252.7577801547
 30
0.0
  0
SPLINE
  5
35E
100
AcDbEntity
  8
0
100
AcDbSpline
 62
7
  6
CONTINUOUS
 70
0
 71
3
 72
9
 73
5
 74
0
 42
0.0000001
 43
0.0000001
 44
0.0000000001
 40
0.0
 40
0.0
 40
0.0
 40
0.0
 40
0.2331845957
 40
1.0
 40
1.0
 40
1.0
 40
1.0
 10
952.2125397826
 20
296.8485729222
 30
0.0
 10
952.2185520908
 20
296.8408055599
 30
0.0
 10
952.2454356448
 20
296.8083471395
 30
0.0
 10
952.2762207175
 20
296.7792489532
 30
0.0
 10
952.3010052126
 20
296.7585354221
 30
0.0
  0
SPLINE
  5
35F
100
AcDbEntity
  8
0
100
AcDbSpline
 62
7
  6
CONTINUOUS
 70
0
 71
3
 72
14
 73
10
 74
0
 42
0.0000001
 43
0.0000001
 44
0.0000000001
 40
0.0
 40
0.0
 40
0.0
 40
0.0
 40
0.1061898036
 40
0.2150477028
 40
0.3288264141
 40
0.4490914441
 40
0.5766326249
 40
0.7115083685
 40
1.0
 40
1.0
 40
1.0
 40
1.0
 10
913.5130856534
 20
291.7027361784
 30
0.0
 10
913.6465818989
 20
291.6681846654
 30
0.0
 10
913.9099599671
 20
291.5675626543
 30
0.0
 10
914.2689839997
 20
291.3309000217
 30
0.0
 10
914.5861098347
 20
291.0143775897
 30
0.0
 10
914.8543964062
 20
290.6262803026
 30
0.0
 10
915.068621244
 20
290.175690771
 30
0.0
 10
915.2810125214
 20
289.4907091849
 30
0.0
 10
915.3392616233
 20
288.937012986
 30
0.0
 10
915.3392616233
 20
288.562385886
 30
0.0
  0
SPLINE
  5
360
100
AcDbEntity
  8
0
100
AcDbSpline
 62
7
  6
CONTINUOUS
 70
0
 71
3
 72
16
 73
12
 74
0
 42
0.0000001
 43
0.0000001
 44
0.0000000001
 40
0.0
 40
0.0
 40
0.0
 40
0.0
 40
0.0489389463
 40
0.0986750396
 40
0.2029443355
 40
0.3170169584
 40
0.4418954868
 40
0.5761601
 40
0.716703735
 40
0.8594483551
 40
1.0
 40
1.0
 40
1.0
 40
1.0
 10
911.5085833436
 20
283.9579339785
 30
0.0
 10
911.6152532388
 20
283.9303256645
 30
0.0
 10
911.8358034965
 20
283.8937966449
 30
0.0
 10
912.2946714094
 20
283.8986557771
 30
0.0
 10
912.8875890377
 20
284.0598911682
 30
0.0
 10
913.5531839929
 20
284.4682195631
 30
0.0
 10
914.1538041691
 20
285.0649680722
 30
0.0
 10
914.6587641887
 20
285.8159156902
 30
0.0
 10
915.0418260826
 20
286.6793702524
 30
0.0
 10
915.2821240081
 20
287.6070059673
 30
0.0
 10
915.3392616233
 20
288.2459374717
 30
0.0
 10
915.3392616233
 20
288.562385886
 30
0.0
  0
SPLINE
  5
361
100
AcDbEntity
  8
0
100
AcDbSpline
 62
7
  6
CONTINUOUS
 70
0
 71
3
 72
14
 73
10
 74
0
 42
0.0000001
 43
0.0000001
 44
0.0000000001
 40
0.0
 40
0.0
 40
0.0
 40
0.0
 40
0.1061898036
 40
0.2150477028
 40
0.3288264141
 40
0.4490914441
 40
0.5766326249
 40
0.7115083685
 40
1.0
 40
1.0
 40
1.0
 40
1.0
 10
924.8267941524
 20
294.6309394087
 30
0.0
 10
924.9602903978
 20
294.5963878957
 30
0.0
 10
925.2236684661
 20
294.4957658846
 30
0.0
 10
925.5826924987
 20
294.259103252
 30
0.0
 10
925.8998183337
 20
293.94258082
 30
0.0
 10
926.1681049051
 20
293.5544835329
 30
0.0
 10
926.382329743
 20
293.1038940013
 30
0.0
 10
926.5947210204
 20
292.4189124152
 30
0.0
 10
926.6529701222
 20
291.8652162163
 30
0.0
 10
926.6529701222
 20
291.4905891163
 30
0.0
  0
SPLINE
  5
362
100
AcDbEntity
  8
0
100
AcDbSpline
 62
7
  6
CONTINUOUS
 70
0
 71
3
 72
16
 73
12
 74
0
 42
0.0000001
 43
0.0000001
 44
0.0000000001
 40
0.0
 40
0.0
 40
0.0
 40
0.0
 40
0.0489389463
 40
0.0986750396
 40
0.2029443355
 40
0.3170169584
 40
0.4418954868
 40
0.5761601
 40
0.716703735
 40
0.8594483551
 40
1.0
 40
1.0
 40
1.0
 40
1.0
 10
922.8222918426
 20
286.8861372088
 30
0.0
 10
922.9289617378
 20
286.8585288948
 30
0.0
 10
923.1495119954
 20
286.8219998751
 30
0.0
 10
923.6083799083
 20
286.8268590074
 30
0.0
 10
924.2012975367
 20
286.9880943985
 30
0.0
 10
924.8668924919
 20
287.3964227933
 30
0.0
 10
925.4675126681
 20
287.9931713024
 30
0.0
 10
925.9724726877
 20
288.7441189205
 30
0.0
 10
926.3555345816
 20
289.6075734827
 30
0.0
 10
926.5958325071
 20
290.5352091975
 30
0.0
 10
926.6529701222
 20
291.174140702
 30
0.0
 10
926.6529701222
 20
291.4905891163
 30
0.0
  0
SPLINE
  5
363
100
AcDbEntity
  8
0
100
AcDbSpline
 62
7
  6
CONTINUOUS
 70
0
 71
3
 72
14
 73
10
 74
0
 42
0.0000001
 43
0.0000001
 44
0.0000000001
 40
0.0
 40
0.0
 40
0.0
 40
0.0
 40
0.1061898036
 40
0.2150477028
 40
0.3288264141
 40
0.4490914441
 40
0.5766326249
 40
0.7115083685
 40
1.0
 40
1.0
 40
1.0
 40
1.0
 10
936.1405026514
 20
297.5591426389
 30
0.0
 10
936.2739988968
 20
297.524591126
 30
0.0
 10
936.5373769651
 20
297.4239691149
 30
0.0
 10
936.8964009976
 20
297.1873064823
 30
0.0
 10
937.2135268327
 20
296.8707840502
 30
0.0
 10
937.4818134041
 20
296.4826867632
 30
0.0
 10
937.696038242
 20
296.0320972316
 30
0.0
 10
937.9084295194
 20
295.3471156455
 30
0.0
 10
937.9666786212
 20
294.7934194465
 30
0.0
 10
937.9666786212
 20
294.4187923466
 30
0.0
  0
SPLINE
  5
364
100
AcDbEntity
  8
0
100
AcDbSpline
 62
7
  6
CONTINUOUS
 70
0
 71
3
 72
16
 73
12
 74
0
 42
0.0000001
 43
0.0000001
 44
0.0000000001
 40
0.0
 40
0.0
 40
0.0
 40
0.0
 40
0.0489389463
 40
0.0986750396
 40
0.2029443355
 40
0.3170169584
 40
0.4418954868
 40
0.5761601
 40
0.716703735
 40
0.8594483551
 40
1.0
 40
1.0
 40
1.0
 40
1.0
 10
934.1360003415
 20
289.8143404391
 30
0.0
 10
934.2426702368
 20
289.786732125
 30
0.0
 10
934.4632204944
 20
289.7502031054
 30
0.0
 10
934.9220884073
 20
289.7550622376
 30
0.0
 10
935.5150060357
 20
289.9162976288
 30
0.0
 10
936.1806009909
 20
290.3246260236
 30
0.0
 10
936.7812211671
 20
290.9213745327
 30
0.0
 10
937.2861811867
 20
291.6723221508
 30
0.0
 10
937.6692430806
 20
292.5357767129
 30
0.0
 10
937.909541006
 20
293.4634124278
 30
0.0
 10
937.9666786212
 20
294.1023439323
 30
0.0
 10
937.9666786212
 20
294.4187923466
 30
0.0
  0
SPLINE
  5
365
100
AcDbEntity
  8
0
100
AcDbSpline
 62
7
  6
CONTINUOUS
 70
0
 71
3
 72
14
 73
10
 74
0
 42
0.0000001
 43
0.0000001
 44
0.0000000001
 40
0.0
 40
0.0
 40
0.0
 40
0.0
 40
0.1061898036
 40
0.2150477028
 40
0.3288264141
 40
0.4490914441
 40
0.5766326249
 40
0.7115083685
 40
1.0
 40
1.0
 40
1.0
 40
1.0
 10
947.4542111504
 20
300.4873458692
 30
0.0
 10
947.5877073958
 20
300.4527943562
 30
0.0
 10
947.8510854641
 20
300.3521723452
 30
0.0
 10
948.2101094966
 20
300.1155097126
 30
0.0
 10
948.5272353316
 20
299.7989872805
 30
0.0
 10
948.7955219031
 20
299.4108899935
 30
0.0
 10
949.009746741
 20
298.9603004619
 30
0.0
 10
949.2221380184
 20
298.2753188757
 30
0.0
 10
949.2803871202
 20
297.7216226768
 30
0.0
 10
949.2803871202
 20
297.3469955769
 30
0.0
  0
SPLINE
  5
366
100
AcDbEntity
  8
0
100
AcDbSpline
 62
7
  6
CONTINUOUS
 70
0
 71
3
 72
16
 73
12
 74
0
 42
0.0000001
 43
0.0000001
 44
0.0000000001
 40
0.0
 40
0.0
 40
0.0
 40
0.0
 40
0.0489389463
 40
0.0986750396
 40
0.2029443355
 40
0.3170169584
 40
0.4418954868
 40
0.5761601
 40
0.716703735
 40
0.8594483551
 40
1.0
 40
1.0
 40
1.0
 40
1.0
 10
945.4497088405
 20
292.7425436694
 30
0.0
 10
945.5563787358
 20
292.7149353553
 30
0.0
 10
945.7769289934
 20
292.6784063357
 30
0.0
 10
946.2357969063
 20
292.6832654679
 30
0.0
 10
946.8287145347
 20
292.844500859
 30
0.0
 10
947.4943094899
 20
293.2528292539
 30
0.0
 10
948.0949296661
 20
293.849577763
 30
0.0
 10
948.5998896856
 20
294.600525381
 30
0.0
 10
948.9829515796
 20
295.4639799432
 30
0.0
 10
949.223249505
 20
296.3916156581
 30
0.0
 10
949.2803871202
 20
297.0305471625
 30
0.0
 10
949.2803871202
 20
297.3469955769
 30
0.0
  0
SPLINE
  5
367
100
AcDbEntity
  8
0
100
AcDbSpline
 62
7
  6
CONTINUOUS
 70
0
 71
3
 72
14
 73
10
 74
0
 42
0.0000001
 43
0.0000001
 44
0.0000000001
 40
0.0
 40
0.0
 40
0.0
 40
0.0
 40
0.1061898086
 40
0.2150477144
 40
0.3288264316
 40
0.4490914639
 40
0.5766326422
 40
0.7115083822
 40
1.0
 40
1.0
 40
1.0
 40
1.0
 10
958.7679197178
 20
303.4155493638
 30
0.0
 10
958.9014159169
 20
303.3809976388
 30
0.0
 10
959.1647940589
 20
303.2803758512
 30
0.0
 10
959.5238180193
 20
303.0437129863
 30
0.0
 10
959.8409438112
 20
302.7271905041
 30
0.0
 10
960.1092303416
 20
302.3390931676
 30
0.0
 10
960.3234551722
 20
301.8885036355
 30
0.0
 10
960.5358464696
 20
301.2035220742
 30
0.0
 10
960.5940956192
 20
300.6498258941
 30
0.0
 10
960.5940956192
 20
300.2751988071
 30
0.0
  0
SPLINE
  5
368
100
AcDbEntity
  8
0
100
AcDbSpline
 62
7
  6
CONTINUOUS
 70
0
 71
3
 72
16
 73
12
 74
0
 42
0.0000001
 43
0.0000001
 44
0.0000000001
 40
0.0
 40
0.0
 40
0.0
 40
0.0
 40
0.048938951
 40
0.0986750407
 40
0.2029443359
 40
0.3170169422
 40
0.4418954897
 40
0.5761601003
 40
0.7167037321
 40
0.8594483556
 40
1.0
 40
1.0
 40
1.0
 40
1.0
 10
956.7634172711
 20
295.6707466353
 30
0.0
 10
956.870087133
 20
295.6431381508
 30
0.0
 10
957.0906375491
 20
295.6066099467
 30
0.0
 10
957.5495053906
 20
295.6114686484
 30
0.0
 10
958.1424229381
 20
295.7727043521
 30
0.0
 10
958.8080182531
 20
296.1810321009
 30
0.0
 10
959.4086379743
 20
296.7777811635
 30
0.0
 10
959.9135981608
 20
297.5287286125
 30
0.0
 10
960.2966602333
 20
298.3921831317
 30
0.0
 10
960.5369579255
 20
299.3198188993
 30
0.0
 10
960.5940956192
 20
299.9587503944
 30
0.0
 10
960.5940956192
 20
300.2751988071
 30
0.0
  0
SPLINE
  5
369
100
AcDbEntity
  8
0
100
AcDbSpline
 62
7
  6
CONTINUOUS
 70
0
 71
3
 72
16
 73
12
 74
0
 42
0.0000001
 43
0.0000001
 44
0.0000000001
 40
0.0
 40
0.0
 40
0.0
 40
0.0
 40
0.1405516449
 40
0.283296265
 40
0.4238399
 40
0.5581045132
 40
0.6829830416
 40
0.7970556645
 40
0.9013249604
 40
0.9510610537
 40
1.0
 40
1.0
 40
1.0
 40
1.0
 10
943.6235328707
 20
295.8828939617
 30
0.0
 10
943.6235328707
 20
296.199342376
 30
0.0
 10
943.6806704859
 20
296.8382738805
 30
0.0
 10
943.9209684113
 20
297.7659095954
 30
0.0
 10
944.3040303053
 20
298.6293641575
 30
0.0
 10
944.8089903249
 20
299.3803117756
 30
0.0
 10
945.4096105011
 20
299.9770602847
 30
0.0
 10
946.0752054563
 20
300.3853886795
 30
0.0
 10
946.6681230846
 20
300.5466240707
 30
0.0
 10
947.1269909975
 20
300.5514832029
 30
0.0
 10
947.3475412552
 20
300.5149541833
 30
0.0
 10
947.4542111504
 20
300.4873458692
 30
0.0
  0
SPLINE
  5
36A
100
AcDbEntity
  8
0
100
AcDbSpline
 62
7
  6
CONTINUOUS
 70
0
 71
3
 72
14
 73
10
 74
0
 42
0.0000001
 43
0.0000001
 44
0.0000000001
 40
0.0
 40
0.0
 40
0.0
 40
0.0
 40
0.2884916315
 40
0.4233673751
 40
0.5509085559
 40
0.6711735859
 40
0.7849522972
 40
0.8938101964
 40
1.0
 40
1.0
 40
1.0
 40
1.0
 10
932.3098243717
 20
292.9546907314
 30
0.0
 10
932.3098243717
 20
292.5800636315
 30
0.0
 10
932.3680734736
 20
292.0263674326
 30
0.0
 10
932.580464751
 20
291.3413858464
 30
0.0
 10
932.7946895888
 20
290.8907963148
 30
0.0
 10
933.0629761603
 20
290.5026990278
 30
0.0
 10
933.3801019953
 20
290.1861765957
 30
0.0
 10
933.7391260278
 20
289.9495139631
 30
0.0
 10
934.0025040961
 20
289.8488919521
 30
0.0
 10
934.1360003415
 20
289.8143404391
 30
0.0
  0
SPLINE
  5
36B
100
AcDbEntity
  8
0
100
AcDbSpline
 62
7
  6
CONTINUOUS
 70
0
 71
3
 72
16
 73
12
 74
0
 42
0.0000001
 43
0.0000001
 44
0.0000000001
 40
0.0
 40
0.0
 40
0.0
 40
0.0
 40
0.1405516449
 40
0.283296265
 40
0.4238399
 40
0.5581045132
 40
0.6829830416
 40
0.7970556645
 40
0.9013249604
 40
0.9510610537
 40
1.0
 40
1.0
 40
1.0
 40
1.0
 10
932.3098243717
 20
292.9546907314
 30
0.0
 10
932.3098243717
 20
293.2711391458
 30
0.0
 10
932.3669619869
 20
293.9100706502
 30
0.0
 10
932.6072599123
 20
294.8377063651
 30
0.0
 10
932.9903218063
 20
295.7011609273
 30
0.0
 10
933.4952818259
 20
296.4521085453
 30
0.0
 10
934.0959020021
 20
297.0488570544
 30
0.0
 10
934.7614969573
 20
297.4571854493
 30
0.0
 10
935.3544145856
 20
297.6184208404
 30
0.0
 10
935.8132824985
 20
297.6232799726
 30
0.0
 10
936.0338327562
 20
297.586750953
 30
0.0
 10
936.1405026514
 20
297.5591426389
 30
0.0
  0
SPLINE
  5
36C
100
AcDbEntity
  8
0
100
AcDbSpline
 62
7
  6
CONTINUOUS
 70
0
 71
3
 72
14
 73
10
 74
0
 42
0.0000001
 43
0.0000001
 44
0.0000000001
 40
0.0
 40
0.0
 40
0.0
 40
0.0
 40
0.2884916315
 40
0.4233673751
 40
0.5509085559
 40
0.6711735859
 40
0.7849522972
 40
0.8938101964
 40
1.0
 40
1.0
 40
1.0
 40
1.0
 10
920.9961158727
 20
290.0264875012
 30
0.0
 10
920.9961158727
 20
289.6518604012
 30
0.0
 10
921.0543649746
 20
289.0981642023
 30
0.0
 10
921.266756252
 20
288.4131826162
 30
0.0
 10
921.4809810898
 20
287.9625930846
 30
0.0
 10
921.7492676613
 20
287.5744957975
 30
0.0
 10
922.0663934963
 20
287.2579733655
 30
0.0
 10
922.4254175289
 20
287.0213107329
 30
0.0
 10
922.6887955971
 20
286.9206887218
 30
0.0
 10
922.8222918426
 20
286.8861372088
 30
0.0
  0
SPLINE
  5
36D
100
AcDbEntity
  8
0
100
AcDbSpline
 62
7
  6
CONTINUOUS
 70
0
 71
3
 72
16
 73
12
 74
0
 42
0.0000001
 43
0.0000001
 44
0.0000000001
 40
0.0
 40
0.0
 40
0.0
 40
0.0
 40
0.1405516449
 40
0.283296265
 40
0.4238399
 40
0.5581045132
 40
0.6829830416
 40
0.7970556645
 40
0.9013249604
 40
0.9510610537
 40
1.0
 40
1.0
 40
1.0
 40
1.0
 10
920.9961158727
 20
290.0264875012
 30
0.0
 10
920.9961158727
 20
290.3429359155
 30
0.0
 10
921.0532534879
 20
290.9818674199
 30
0.0
 10
921.2935514134
 20
291.9095031348
 30
0.0
 10
921.6766133073
 20
292.772957697
 30
0.0
 10
922.1815733269
 20
293.523905315
 30
0.0
 10
922.7821935031
 20
294.1206538241
 30
0.0
 10
923.4477884583
 20
294.528982219
 30
0.0
 10
924.0407060866
 20
294.6902176101
 30
0.0
 10
924.4995739995
 20
294.6950767423
 30
0.0
 10
924.7201242572
 20
294.6585477227
 30
0.0
 10
924.8267941524
 20
294.6309394087
 30
0.0
  0
SPLINE
  5
36E
100
AcDbEntity
  8
0
100
AcDbSpline
 62
7
  6
CONTINUOUS
 70
0
 71
3
 72
14
 73
10
 74
0
 42
0.0000001
 43
0.0000001
 44
0.0000000001
 40
0.0
 40
0.0
 40
0.0
 40
0.0
 40
0.2884916315
 40
0.4233673751
 40
0.5509085559
 40
0.6711735859
 40
0.7849522972
 40
0.8938101964
 40
1.0
 40
1.0
 40
1.0
 40
1.0
 10
909.6824073738
 20
287.0982842709
 30
0.0
 10
909.6824073738
 20
286.7236571709
 30
0.0
 10
909.7406564756
 20
286.169960972
 30
0.0
 10
909.953047753
 20
285.4849793859
 30
0.0
 10
910.1672725909
 20
285.0343898543
 30
0.0
 10
910.4355591623
 20
284.6462925672
 30
0.0
 10
910.7526849973
 20
284.3297701352
 30
0.0
 10
911.1117090299
 20
284.0931075026
 30
0.0
 10
911.3750870981
 20
283.9924854915
 30
0.0
 10
911.5085833436
 20
283.9579339785
 30
0.0
  0
SPLINE
  5
36F
100
AcDbEntity
  8
0
100
AcDbSpline
 62
7
  6
CONTINUOUS
 70
0
 71
3
 72
16
 73
12
 74
0
 42
0.0000001
 43
0.0000001
 44
0.0000000001
 40
0.0
 40
0.0
 40
0.0
 40
0.0
 40
0.1405516449
 40
0.283296265
 40
0.4238399
 40
0.5581045132
 40
0.6829830416
 40
0.7970556645
 40
0.9013249604
 40
0.9510610537
 40
1.0
 40
1.0
 40
1.0
 40
1.0
 10
909.6824073738
 20
287.0982842709
 30
0.0
 10
909.6824073738
 20
287.4147326852
 30
0.0
 10
909.7395449889
 20
288.0536641897
 30
0.0
 10
909.9798429144
 20
288.9812999045
 30
0.0
 10
910.3629048083
 20
289.8447544667
 30
0.0
 10
910.8678648279
 20
290.5957020848
 30
0.0
 10
911.4684850041
 20
291.1924505939
 30
0.0
 10
912.1340799593
 20
291.6007789887
 30
0.0
 10
912.7269975876
 20
291.7620143798
 30
0.0
 10
913.1858655006
 20
291.7668735121
 30
0.0
 10
913.4064157582
 20
291.7303444924
 30
0.0
 10
913.5130856534
 20
291.7027361784
 30
0.0
  0
SPLINE
  5
370
100
AcDbEntity
  8
0
100
AcDbSpline
 62
7
  6
CONTINUOUS
 70
0
 71
3
 72
14
 73
10
 74
0
 42
0.0000001
 43
0.0000001
 44
0.0000000001
 40
0.0
 40
0.0
 40
0.0
 40
0.0
 40
0.2884916315
 40
0.4233673751
 40
0.5509085559
 40
0.6711735859
 40
0.7849522972
 40
0.8938101964
 40
1.0
 40
1.0
 40
1.0
 40
1.0
 10
943.6235328707
 20
295.8828939617
 30
0.0
 10
943.6235328707
 20
295.5082668618
 30
0.0
 10
943.6817819726
 20
294.9545706628
 30
0.0
 10
943.8941732499
 20
294.2695890767
 30
0.0
 10
944.1083980878
 20
293.8189995451
 30
0.0
 10
944.3766846593
 20
293.4309022581
 30
0.0
 10
944.6938104943
 20
293.114379826
 30
0.0
 10
945.0528345268
 20
292.8777171934
 30
0.0
 10
945.3162125951
 20
292.7770951823
 30
0.0
 10
945.4497088405
 20
292.7425436694
 30
0.0
  0
SPLINE
  5
371
100
AcDbEntity
  8
0
100
AcDbSpline
 62
7
  6
CONTINUOUS
 70
0
 71
3
 72
14
 73
10
 74
0
 42
0.0000001
 43
0.0000001
 44
0.0000000001
 40
0.0
 40
0.0
 40
0.0
 40
0.0
 40
0.2884916178
 40
0.4233673578
 40
0.5509085361
 40
0.6711735684
 40
0.7849522856
 40
0.8938101914
 40
1.0
 40
1.0
 40
1.0
 40
1.0
 10
954.9372413697
 20
298.811097192
 30
0.0
 10
954.9372413697
 20
298.436470105
 30
0.0
 10
954.9954905192
 20
297.8827739249
 30
0.0
 10
955.2078818167
 20
297.1977923637
 30
0.0
 10
955.4221066473
 20
296.7472028316
 30
0.0
 10
955.6903931777
 20
296.359105495
 30
0.0
 10
956.0075189696
 20
296.0425830129
 30
0.0
 10
956.36654293
 20
295.8059201479
 30
0.0
 10
956.629921072
 20
295.7052983604
 30
0.0
 10
956.7634172711
 20
295.6707466353
 30
0.0
  0
SPLINE
  5
372
100
AcDbEntity
  8
0
100
AcDbSpline
 62
7
  6
CONTINUOUS
 70
0
 71
3
 72
16
 73
12
 74
0
 42
0.0000001
 43
0.0000001
 44
0.0000000001
 40
0.0
 40
0.0
 40
0.0
 40
0.0
 40
0.1405516444
 40
0.2832962679
 40
0.4238398997
 40
0.5581045103
 40
0.6829830578
 40
0.7970556641
 40
0.9013249593
 40
0.951061049
 40
1.0
 40
1.0
 40
1.0
 40
1.0
 10
954.9372413697
 20
298.811097192
 30
0.0
 10
954.9372413697
 20
299.1275456047
 30
0.0
 10
954.9943790634
 20
299.7664770998
 30
0.0
 10
955.2346767556
 20
300.6941128674
 30
0.0
 10
955.6177388281
 20
301.5575673866
 30
0.0
 10
956.1226990146
 20
302.3085148356
 30
0.0
 10
956.7233187358
 20
302.9052638982
 30
0.0
 10
957.3889140508
 20
303.313591647
 30
0.0
 10
957.9818315982
 20
303.4748273507
 30
0.0
 10
958.4406994398
 20
303.4796860524
 30
0.0
 10
958.6612498559
 20
303.4431578483
 30
0.0
 10
958.7679197178
 20
303.4155493638
 30
0.0
  0
SPLINE
  5
373
100
AcDbEntity
  8
0
100
AcDbSpline
 62
7
  6
CONTINUOUS
 70
0
 71
3
 72
9
 73
5
 74
0
 42
0.0000001
 43
0.0000001
 44
0.0000000001
 40
0.0
 40
0.0
 40
0.0
 40
0.0
 40
0.2838507738
 40
1.0
 40
1.0
 40
1.0
 40
1.0
 10
718.551444419
 20
218.5452178037
 30
0.0
 10
718.551444419
 20
218.5303894694
 30
0.0
 10
718.5537829534
 20
218.4783603168
 30
0.0
 10
718.5647796701
 20
218.4254187365
 30
0.0
 10
718.5820974273
 20
218.3922567091
 30
0.0
  0
SPLINE
  5
374
100
AcDbEntity
  8
0
100
AcDbSpline
 62
7
  6
CONTINUOUS
 70
0
 71
3
 72
9
 73
5
 74
0
 42
0.0000001
 43
0.0000001
 44
0.0000000001
 40
0.0
 40
0.0
 40
0.0
 40
0.0
 40
0.2460074858
 40
1.0
 40
1.0
 40
1.0
 40
1.0
 10
951.9206648091
 20
296.7205818254
 30
0.0
 10
951.9638485839
 20
296.7209482656
 30
0.0
 10
952.1393174043
 20
296.7278489437
 30
0.0
 10
952.3137901059
 20
296.7563550377
 30
0.0
 10
952.4422083224
 20
296.7884141277
 30
0.0
  0
SPLINE
  5
375
100
AcDbEntity
  8
0
100
AcDbSpline
 62
7
  6
CONTINUOUS
 70
0
 71
3
 72
9
 73
5
 74
0
 42
0.0000001
 43
0.0000001
 44
0.0000000001
 40
0.0
 40
0.0
 40
0.0
 40
0.0
 40
0.2460074858
 40
1.0
 40
1.0
 40
1.0
 40
1.0
 10
940.6069563101
 20
293.7923785951
 30
0.0
 10
940.6501400849
 20
293.7927450353
 30
0.0
 10
940.8256089053
 20
293.7996457134
 30
0.0
 10
941.0000816069
 20
293.8281518075
 30
0.0
 10
941.1284998234
 20
293.8602108975
 30
0.0
  0
SPLINE
  5
376
100
AcDbEntity
  8
0
100
AcDbSpline
 62
7
  6
CONTINUOUS
 70
0
 71
3
 72
9
 73
5
 74
0
 42
0.0000001
 43
0.0000001
 44
0.0000000001
 40
0.0
 40
0.0
 40
0.0
 40
0.0
 40
0.2460074858
 40
1.0
 40
1.0
 40
1.0
 40
1.0
 10
929.2932478112
 20
290.8641753648
 30
0.0
 10
929.3364315859
 20
290.864541805
 30
0.0
 10
929.5119004063
 20
290.8714424832
 30
0.0
 10
929.6863731079
 20
290.8999485772
 30
0.0
 10
929.8147913244
 20
290.9320076672
 30
0.0
  0
SPLINE
  5
377
100
AcDbEntity
  8
0
100
AcDbSpline
 62
7
  6
CONTINUOUS
 70
0
 71
3
 72
9
 73
5
 74
0
 42
0.0000001
 43
0.0000001
 44
0.0000000001
 40
0.0
 40
0.0
 40
0.0
 40
0.0
 40
0.2460074858
 40
1.0
 40
1.0
 40
1.0
 40
1.0
 10
917.9795393122
 20
287.9359721345
 30
0.0
 10
918.0227230869
 20
287.9363385747
 30
0.0
 10
918.1981919074
 20
287.9432392529
 30
0.0
 10
918.3726646089
 20
287.9717453469
 30
0.0
 10
918.5010828254
 20
288.0038044369
 30
0.0
  0
SPLINE
  5
378
100
AcDbEntity
  8
0
100
AcDbSpline
 62
7
  6
CONTINUOUS
 70
0
 71
3
 72
9
 73
5
 74
0
 42
0.0000001
 43
0.0000001
 44
0.0000000001
 40
0.0
 40
0.0
 40
0.0
 40
0.0
 40
0.2460074858
 40
1.0
 40
1.0
 40
1.0
 40
1.0
 10
906.6658308132
 20
285.0077689043
 30
0.0
 10
906.7090145879
 20
285.0081353445
 30
0.0
 10
906.8844834084
 20
285.0150360226
 30
0.0
 10
907.0589561099
 20
285.0435421166
 30
0.0
 10
907.1873743265
 20
285.0756012066
 30
0.0
  0
SPLINE
  5
379
100
AcDbEntity
  8
0
100
AcDbSpline
 62
7
  6
CONTINUOUS
 70
0
 71
3
 72
8
 73
4
 74
0
 42
0.0000001
 43
0.0000001
 44
0.0000000001
 40
0.0
 40
0.0
 40
0.0
 40
0.0
 40
1.0
 40
1.0
 40
1.0
 40
1.0
 10
719.2585512002
 20
265.3854904905
 30
0.0
 10
719.2371224157
 20
265.391036668
 30
0.0
 10
719.2153872153
 20
265.3954422861
 30
0.0
 10
719.1935586362
 20
265.3991118946
 30
0.0
  0
SPLINE
  5
37A
100
AcDbEntity
  8
0
100
AcDbSpline
 62
7
  6
CONTINUOUS
 70
0
 71
3
 72
10
 73
6
 74
0
 42
0.0000001
 43
0.0000001
 44
0.0000000001
 40
0.0
 40
0.0
 40
0.0
 40
0.0
 40
0.5397649475
 40
0.7981799171
 40
1.0
 40
1.0
 40
1.0
 40
1.0
 10
719.1935586362
 20
265.3991118946
 30
0.0
 10
719.0944948826
 20
265.4157655294
 30
0.0
 10
718.9443458384
 20
265.421011645
 30
0.0
 10
718.7593091204
 20
265.402076988
 30
0.0
 10
718.6751379146
 20
265.3825776869
 30
0.0
 10
718.6402463998
 20
265.3686730239
 30
0.0
  0
SPLINE
  5
37B
100
AcDbEntity
  8
0
100
AcDbSpline
 62
7
  6
CONTINUOUS
 70
0
 71
3
 72
9
 73
5
 74
0
 42
0.0000001
 43
0.0000001
 44
0.0000000001
 40
0.0
 40
0.0
 40
0.0
 40
0.0
 40
0.4455886123
 40
1.0
 40
1.0
 40
1.0
 40
1.0
 10
719.0188151656
 20
264.9780760143
 30
0.0
 10
718.965456054
 20
264.8991399926
 30
0.0
 10
718.8749654379
 20
264.7030340415
 30
0.0
 10
718.8111040365
 20
264.4992982986
 30
0.0
 10
718.7735099713
 20
264.3868688351
 30
0.0
  0
LINE
  5
37C
100
AcDbEntity
  8
0
100
AcDbLine
 62
7
  6
CONTINUOUS
 10
718.7735099713
 20
264.3868688351
 11
718.7704891568
 21
264.3778462456
  0
LINE
  5
37D
100
AcDbEntity
  8
0
100
AcDbLine
 62
7
  6
CONTINUOUS
 10
718.7252147934
 20
264.2467989385
 11
718.7231475709
 21
264.241050647
  0
SPLINE
  5
37E
100
AcDbEntity
  8
0
100
AcDbSpline
 62
7
  6
CONTINUOUS
 70
0
 71
3
 72
9
 73
5
 74
0
 42
0.0000001
 43
0.0000001
 44
0.0000000001
 40
0.0
 40
0.0
 40
0.0
 40
0.0
 40
0.2817547112
 40
1.0
 40
1.0
 40
1.0
 40
1.0
 10
718.7730933057
 20
264.386785344
 30
0.0
 10
718.7563604229
 20
264.4464374402
 30
0.0
 10
718.7097284291
 20
264.6612485651
 30
0.0
 10
718.7065819039
 20
264.8874580483
 30
0.0
 10
718.7383338868
 20
265.0421669254
 30
0.0
  0
SPLINE
  5
37F
100
AcDbEntity
  8
0
100
AcDbSpline
 62
7
  6
CONTINUOUS
 70
0
 71
3
 72
8
 73
4
 74
0
 42
0.0000001
 43
0.0000001
 44
0.0000000001
 40
0.0
 40
0.0
 40
0.0
 40
0.0
 40
1.0
 40
1.0
 40
1.0
 40
1.0
 10
718.7383337366
 20
265.0421672743
 30
0.0
 10
718.7326815152
 20
265.0680024768
 30
0.0
 10
718.7256312725
 20
265.0936096803
 30
0.0
 10
718.7166661584
 20
265.1184900346
 30
0.0
  0
SPLINE
  5
380
100
AcDbEntity
  8
0
100
AcDbSpline
 62
7
  6
CONTINUOUS
 70
0
 71
3
 72
10
 73
6
 74
0
 42
0.0000001
 43
0.0000001
 44
0.0000000001
 40
0.0
 40
0.0
 40
0.0
 40
0.0
 40
0.0941555652
 40
0.2882519902
 40
1.0
 40
1.0
 40
1.0
 40
1.0
 10
718.6664843354
 20
218.0414522226
 30
0.0
 10
718.6740862173
 20
218.0434198647
 30
0.0
 10
718.6842129542
 20
218.0713927194
 30
0.0
 10
718.6777312632
 20
218.1503754886
 30
0.0
 10
718.6553308816
 20
218.2263254244
 30
0.0
 10
718.6333120959
 20
218.2814489487
 30
0.0
  0
SPLINE
  5
381
100
AcDbEntity
  8
0
100
AcDbSpline
 62
7
  6
CONTINUOUS
 70
0
 71
3
 72
9
 73
5
 74
0
 42
0.0000001
 43
0.0000001
 44
0.0000000001
 40
0.0
 40
0.0
 40
0.0
 40
0.0
 40
0.2526883998
 40
1.0
 40
1.0
 40
1.0
 40
1.0
 10
718.6987573629
 20
264.1750442
 30
0.0
 10
718.6745776879
 20
264.0983889354
 30
0.0
 10
718.5903183705
 20
263.7915833282
 30
0.0
 10
718.551444419
 20
263.4719901036
 30
0.0
 10
718.551444419
 20
263.2342755646
 30
0.0
  0
SPLINE
  5
382
100
AcDbEntity
  8
0
100
AcDbSpline
 62
7
  6
CONTINUOUS
 70
0
 71
3
 72
9
 73
5
 74
0
 42
0.0000001
 43
0.0000001
 44
0.0000000001
 40
0.0
 40
0.0
 40
0.0
 40
0.0
 40
0.2539859708
 40
1.0
 40
1.0
 40
1.0
 40
1.0
 10
909.1295478242
 20
292.8391809993
 30
0.0
 10
909.1008013341
 20
292.8644098123
 30
0.0
 10
908.9852308663
 20
292.9609737636
 30
0.0
 10
908.859964576
 20
293.0460285397
 30
0.0
 10
908.7622383484
 20
293.1014365846
 30
0.0
  0
SPLINE
  5
383
100
AcDbEntity
  8
0
100
AcDbSpline
 62
7
  6
CONTINUOUS
 70
0
 71
3
 72
9
 73
5
 74
0
 42
0.0000001
 43
0.0000001
 44
0.0000000001
 40
0.0
 40
0.0
 40
0.0
 40
0.0
 40
0.2539859708
 40
1.0
 40
1.0
 40
1.0
 40
1.0
 10
920.4432563231
 20
295.7673842295
 30
0.0
 10
920.4145098331
 20
295.7926130425
 30
0.0
 10
920.2989393653
 20
295.8891769939
 30
0.0
 10
920.173673075
 20
295.97423177
 30
0.0
 10
920.0759468474
 20
296.0296398149
 30
0.0
  0
SPLINE
  5
384
100
AcDbEntity
  8
0
100
AcDbSpline
 62
7
  6
CONTINUOUS
 70
0
 71
3
 72
9
 73
5
 74
0
 42
0.0000001
 43
0.0000001
 44
0.0000000001
 40
0.0
 40
0.0
 40
0.0
 40
0.0
 40
0.2539859708
 40
1.0
 40
1.0
 40
1.0
 40
1.0
 10
931.7569648221
 20
298.6955874598
 30
0.0
 10
931.7282183321
 20
298.7208162728
 30
0.0
 10
931.6126478643
 20
298.8173802242
 30
0.0
 10
931.487381574
 20
298.9024350003
 30
0.0
 10
931.3896553464
 20
298.9578430451
 30
0.0
  0
SPLINE
  5
385
100
AcDbEntity
  8
0
100
AcDbSpline
 62
7
  6
CONTINUOUS
 70
0
 71
3
 72
9
 73
5
 74
0
 42
0.0000001
 43
0.0000001
 44
0.0000000001
 40
0.0
 40
0.0
 40
0.0
 40
0.0
 40
0.2539859708
 40
1.0
 40
1.0
 40
1.0
 40
1.0
 10
943.0706733211
 20
301.6237906901
 30
0.0
 10
943.0419268311
 20
301.6490195031
 30
0.0
 10
942.9263563633
 20
301.7455834544
 30
0.0
 10
942.801090073
 20
301.8306382305
 30
0.0
 10
942.7033638454
 20
301.8860462754
 30
0.0
  0
SPLINE
  5
386
100
AcDbEntity
  8
0
100
AcDbSpline
 62
7
  6
CONTINUOUS
 70
0
 71
3
 72
9
 73
5
 74
0
 42
0.0000001
 43
0.0000001
 44
0.0000000001
 40
0.0
 40
0.0
 40
0.0
 40
0.0
 40
0.2539859708
 40
1.0
 40
1.0
 40
1.0
 40
1.0
 10
954.3843818201
 20
304.5519939204
 30
0.0
 10
954.3556353301
 20
304.5772227334
 30
0.0
 10
954.2400648622
 20
304.6737866847
 30
0.0
 10
954.1147985719
 20
304.7588414608
 30
0.0
 10
954.0170723444
 20
304.8142495057
 30
0.0
  0
SPLINE
  5
387
100
AcDbEntity
  8
0
100
AcDbSpline
 62
7
  6
CONTINUOUS
 70
0
 71
3
 72
9
 73
5
 74
0
 42
0.0000001
 43
0.0000001
 44
0.0000000001
 40
0.0
 40
0.0
 40
0.0
 40
0.0
 40
0.6636396752
 40
1.0
 40
1.0
 40
1.0
 40
1.0
 10
718.6255676938
 20
218.0844819809
 30
0.0
 10
718.6314641651
 20
218.0722008758
 30
0.0
 10
718.6397891462
 20
218.0547324717
 30
0.0
 10
718.659799775
 20
218.0397220165
 30
0.0
 10
718.6664843354
 20
218.0414522226
 30
0.0
  0
SPLINE
  5
388
100
AcDbEntity
  8
0
100
AcDbSpline
 62
7
  6
CONTINUOUS
 70
0
 71
3
 72
9
 73
5
 74
0
 42
0.0000001
 43
0.0000001
 44
0.0000000001
 40
0.0
 40
0.0
 40
0.0
 40
0.0
 40
0.3899710985
 40
1.0
 40
1.0
 40
1.0
 40
1.0
 10
461.2483567671
 20
856.1904527848
 30
0.0
 10
461.2483567671
 20
856.170827903
 30
0.0
 10
461.2794162005
 20
856.1236652331
 30
0.0
 10
461.3246219546
 20
856.1013133314
 30
0.0
 10
461.3525358721
 20
856.0885365818
 30
0.0
  0
SPLINE
  5
389
100
AcDbEntity
  8
0
100
AcDbSpline
 62
7
  6
CONTINUOUS
 70
0
 71
3
 72
9
 73
5
 74
0
 42
0.0000001
 43
0.0000001
 44
0.0000000001
 40
0.0
 40
0.0
 40
0.0
 40
0.0
 40
0.46455881
 40
1.0
 40
1.0
 40
1.0
 40
1.0
 10
461.3525358721
 20
856.0885365818
 30
0.0
 10
461.3719325531
 20
856.079658339
 30
0.0
 10
461.4148638672
 20
856.0631148339
 30
0.0
 10
461.4589715884
 20
856.0502031714
 30
0.0
 10
461.4827741187
 20
856.0440426233
 30
0.0
  0
SPLINE
  5
38A
100
AcDbEntity
  8
0
100
AcDbSpline
 62
7
  6
CONTINUOUS
 70
0
 71
3
 72
9
 73
5
 74
0
 42
0.0000001
 43
0.0000001
 44
0.0000000001
 40
0.0
 40
0.0
 40
0.0
 40
0.0
 40
0.3899710985
 40
1.0
 40
1.0
 40
1.0
 40
1.0
 10
886.1226815383
 20
864.9018573949
 30
0.0
 10
886.1226815383
 20
864.882232513
 30
0.0
 10
886.091622105
 20
864.8350698431
 30
0.0
 10
886.0464163509
 20
864.8127179414
 30
0.0
 10
886.0185024334
 20
864.7999411918
 30
0.0
  0
SPLINE
  5
38B
100
AcDbEntity
  8
0
100
AcDbSpline
 62
7
  6
CONTINUOUS
 70
0
 71
3
 72
9
 73
5
 74
0
 42
0.0000001
 43
0.0000001
 44
0.0000000001
 40
0.0
 40
0.0
 40
0.0
 40
0.0
 40
0.46455881
 40
1.0
 40
1.0
 40
1.0
 40
1.0
 10
886.0185024334
 20
864.7999411918
 30
0.0
 10
885.9991057524
 20
864.7910629491
 30
0.0
 10
885.9561744383
 20
864.774519444
 30
0.0
 10
885.9120667171
 20
864.7616077815
 30
0.0
 10
885.8882641868
 20
864.7554472334
 30
0.0
  0
SPLINE
  5
38C
100
AcDbEntity
  8
0
100
AcDbSpline
 62
7
  6
CONTINUOUS
 70
0
 71
3
 72
8
 73
4
 74
0
 42
0.0000001
 43
0.0000001
 44
0.0000000001
 40
0.0
 40
0.0
 40
0.0
 40
0.0
 40
1.0
 40
1.0
 40
1.0
 40
1.0
 10
691.8581634292
 20
911.7897116197
 30
0.0
 10
692.0558641114
 20
911.7385429179
 30
0.0
 10
692.2417393207
 20
911.6324310858
 30
0.0
 10
692.3993595294
 20
911.5025863109
 30
0.0
  0
SPLINE
  5
38D
100
AcDbEntity
  8
0
100
AcDbSpline
 62
7
  6
CONTINUOUS
 70
0
 71
3
 72
8
 73
4
 74
0
 42
0.0000001
 43
0.0000001
 44
0.0000000001
 40
0.0
 40
0.0
 40
0.0
 40
0.0
 40
1.0
 40
1.0
 40
1.0
 40
1.0
 10
692.3993595294
 20
911.5025863109
 30
0.0
 10
692.5811786789
 20
911.3528068713
 30
0.0
 10
692.7346944958
 20
911.1656841369
 30
0.0
 10
692.8581634292
 20
910.9650663258
 30
0.0
  0
SPLINE
  5
38E
100
AcDbEntity
  8
0
100
AcDbSpline
 62
7
  6
CONTINUOUS
 70
0
 71
3
 72
8
 73
4
 74
0
 42
0.0000001
 43
0.0000001
 44
0.0000000001
 40
0.0
 40
0.0
 40
0.0
 40
0.0
 40
1.0
 40
1.0
 40
1.0
 40
1.0
 10
692.8581634292
 20
910.9650663258
 30
0.0
 10
692.9247738445
 20
910.8568347622
 30
0.0
 10
692.9833801606
 20
910.7433462928
 30
0.0
 10
693.0340047383
 20
910.6267779828
 30
0.0
  0
SPLINE
  5
38F
100
AcDbEntity
  8
0
100
AcDbSpline
 62
7
  6
CONTINUOUS
 70
0
 71
3
 72
8
 73
4
 74
0
 42
0.0000001
 43
0.0000001
 44
0.0000000001
 40
0.0
 40
0.0
 40
0.0
 40
0.0
 40
1.0
 40
1.0
 40
1.0
 40
1.0
 10
693.0340047383
 20
910.6267779828
 30
0.0
 10
693.1879931661
 20
910.2722037509
 30
0.0
 10
693.2723769916
 20
909.8784032142
 30
0.0
 10
693.2723769916
 20
909.4918345633
 30
0.0
  0
SPLINE
  5
390
100
AcDbEntity
  8
0
100
AcDbSpline
 62
7
  6
CONTINUOUS
 70
0
 71
3
 72
8
 73
4
 74
0
 42
0.0000001
 43
0.0000001
 44
0.0000000001
 40
0.0
 40
0.0
 40
0.0
 40
0.0
 40
1.0
 40
1.0
 40
1.0
 40
1.0
 10
684.3628315487
 20
913.7296462597
 30
0.0
 10
684.2896081383
 20
913.7485978729
 30
0.0
 10
684.2103961089
 20
913.77014537
 30
0.0
 10
684.1557763126
 20
913.8224665828
 30
0.0
  0
SPLINE
  5
391
100
AcDbEntity
  8
0
100
AcDbSpline
 62
7
  6
CONTINUOUS
 70
0
 71
3
 72
9
 73
5
 74
0
 42
0.0000001
 43
0.0000001
 44
0.0000000001
 40
0.0
 40
0.0
 40
0.0
 40
0.0
 40
0.5464674848
 40
1.0
 40
1.0
 40
1.0
 40
1.0
 10
684.1557763126
 20
913.8224665828
 30
0.0
 10
684.1476939185
 20
913.8302088427
 30
0.0
 10
684.1342139882
 20
913.8461790705
 30
0.0
 10
684.1284141971
 20
913.8667675354
 30
0.0
 10
684.1284141971
 20
913.8760564212
 30
0.0
  0
SPLINE
  5
392
100
AcDbEntity
  8
0
100
AcDbSpline
 62
7
  6
CONTINUOUS
 70
0
 71
3
 72
9
 73
5
 74
0
 42
0.0000001
 43
0.0000001
 44
0.0000000001
 40
0.0
 40
0.0
 40
0.0
 40
0.0
 40
0.2166594466
 40
1.0
 40
1.0
 40
1.0
 40
1.0
 10
656.2906923356
 20
805.624043252
 30
0.0
 10
656.3305266472
 20
805.6137333735
 30
0.0
 10
656.5168019396
 20
805.5757462556
 30
0.0
 10
656.7076096243
 20
805.5633715769
 30
0.0
 10
656.8563777605
 20
805.5633715769
 30
0.0
  0
SPLINE
  5
393
100
AcDbEntity
  8
0
100
AcDbSpline
 62
7
  6
CONTINUOUS
 70
0
 71
3
 72
9
 73
5
 74
0
 42
0.0000001
 43
0.0000001
 44
0.0000000001
 40
0.0
 40
0.0
 40
0.0
 40
0.0
 40
0.7833405534
 40
1.0
 40
1.0
 40
1.0
 40
1.0
 10
656.8563777605
 20
805.5633715769
 30
0.0
 10
657.0051458967
 20
805.5633715769
 30
0.0
 10
657.1959535814
 20
805.5757462557
 30
0.0
 10
657.3822288738
 20
805.6137333735
 30
0.0
 10
657.4220631855
 20
805.624043252
 30
0.0
  0
SPLINE
  5
394
100
AcDbEntity
  8
0
100
AcDbSpline
 62
7
  6
CONTINUOUS
 70
0
 71
3
 72
8
 73
4
 74
0
 42
0.0000001
 43
0.0000001
 44
0.0000000001
 40
0.0
 40
0.0
 40
0.0
 40
0.0
 40
1.0
 40
1.0
 40
1.0
 40
1.0
 10
885.8882641868
 20
865.0482675564
 30
0.0
 10
885.9614875972
 20
865.0293159433
 30
0.0
 10
886.0406996266
 20
865.0077684462
 30
0.0
 10
886.0953194229
 20
864.9554472334
 30
0.0
  0
SPLINE
  5
395
100
AcDbEntity
  8
0
100
AcDbSpline
 62
7
  6
CONTINUOUS
 70
0
 71
3
 72
9
 73
5
 74
0
 42
0.0000001
 43
0.0000001
 44
0.0000000001
 40
0.0
 40
0.0
 40
0.0
 40
0.0
 40
0.5464674848
 40
1.0
 40
1.0
 40
1.0
 40
1.0
 10
886.0953194229
 20
864.9554472334
 30
0.0
 10
886.103401817
 20
864.9477049734
 30
0.0
 10
886.1168817473
 20
864.9317347456
 30
0.0
 10
886.1226815383
 20
864.9111462808
 30
0.0
 10
886.1226815383
 20
864.9018573949
 30
0.0
  0
SPLINE
  5
396
100
AcDbEntity
  8
0
100
AcDbSpline
 62
7
  6
CONTINUOUS
 70
0
 71
3
 72
8
 73
4
 74
0
 42
0.0000001
 43
0.0000001
 44
0.0000000001
 40
0.0
 40
0.0
 40
0.0
 40
0.0
 40
1.0
 40
1.0
 40
1.0
 40
1.0
 10
477.1098339829
 20
853.5448515949
 30
0.0
 10
477.1098339829
 20
853.9314202457
 30
0.0
 10
477.0254501573
 20
854.3252207824
 30
0.0
 10
476.8714617296
 20
854.6797950144
 30
0.0
  0
SPLINE
  5
397
100
AcDbEntity
  8
0
100
AcDbSpline
 62
7
  6
CONTINUOUS
 70
0
 71
3
 72
8
 73
4
 74
0
 42
0.0000001
 43
0.0000001
 44
0.0000000001
 40
0.0
 40
0.0
 40
0.0
 40
0.0
 40
1.0
 40
1.0
 40
1.0
 40
1.0
 10
476.8714617296
 20
854.6797950144
 30
0.0
 10
476.8208371518
 20
854.7963633244
 30
0.0
 10
476.7622308358
 20
854.9098517938
 30
0.0
 10
476.6956204205
 20
855.0180833573
 30
0.0
  0
SPLINE
  5
398
100
AcDbEntity
  8
0
100
AcDbSpline
 62
7
  6
CONTINUOUS
 70
0
 71
3
 72
9
 73
5
 74
0
 42
0.0000001
 43
0.0000001
 44
0.0000000001
 40
0.0
 40
0.0
 40
0.0
 40
0.0
 40
0.2687304421
 40
1.0
 40
1.0
 40
1.0
 40
1.0
 10
476.6956204205
 20
855.0180833573
 30
0.0
 10
476.6477862536
 20
855.095806438
 30
0.0
 10
476.454872448
 20
855.374776252
 30
0.0
 10
476.1955240477
 20
855.6138965071
 30
0.0
 10
475.9766321584
 20
855.7312077704
 30
0.0
  0
SPLINE
  5
399
100
AcDbEntity
  8
0
100
AcDbSpline
 62
7
  6
CONTINUOUS
 70
0
 71
3
 72
8
 73
4
 74
0
 42
0.0000001
 43
0.0000001
 44
0.0000000001
 40
0.0
 40
0.0
 40
0.0
 40
0.0
 40
1.0
 40
1.0
 40
1.0
 40
1.0
 10
475.9766321584
 20
855.7312077704
 30
0.0
 10
475.8878070901
 20
855.7788120056
 30
0.0
 10
475.79318292
 20
855.8174776183
 30
0.0
 10
475.6956204205
 20
855.8427286512
 30
0.0
  0
SPLINE
  5
39A
100
AcDbEntity
  8
0
100
AcDbSpline
 62
7
  6
CONTINUOUS
 70
0
 71
3
 72
9
 73
5
 74
0
 42
0.0000001
 43
0.0000001
 44
0.0000000001
 40
0.0
 40
0.0
 40
0.0
 40
0.0
 40
0.2166594466
 40
1.0
 40
1.0
 40
1.0
 40
1.0
 10
468.2002885399
 20
857.7826632913
 30
0.0
 10
468.1604542283
 20
857.7929731698
 30
0.0
 10
467.9741789359
 20
857.8309602876
 30
0.0
 10
467.7833712512
 20
857.8433349664
 30
0.0
 10
467.634603115
 20
857.8433349664
 30
0.0
  0
SPLINE
  5
39B
100
AcDbEntity
  8
0
100
AcDbSpline
 62
7
  6
CONTINUOUS
 70
0
 71
3
 72
9
 73
5
 74
0
 42
0.0000001
 43
0.0000001
 44
0.0000000001
 40
0.0
 40
0.0
 40
0.0
 40
0.0
 40
0.7833405534
 40
1.0
 40
1.0
 40
1.0
 40
1.0
 10
467.634603115
 20
857.8433349664
 30
0.0
 10
467.4858349787
 20
857.8433349664
 30
0.0
 10
467.2950272941
 20
857.8309602876
 30
0.0
 10
467.1087520017
 20
857.7929731698
 30
0.0
 10
467.06891769
 20
857.7826632913
 30
0.0
  0
SPLINE
  5
39C
100
AcDbEntity
  8
0
100
AcDbSpline
 62
7
  6
CONTINUOUS
 70
0
 71
3
 72
8
 73
4
 74
0
 42
0.0000001
 43
0.0000001
 44
0.0000000001
 40
0.0
 40
0.0
 40
0.0
 40
0.0
 40
1.0
 40
1.0
 40
1.0
 40
1.0
 10
461.4827741187
 20
856.3368629463
 30
0.0
 10
461.4095507083
 20
856.3179113332
 30
0.0
 10
461.3303386789
 20
856.2963638361
 30
0.0
 10
461.2757188826
 20
856.2440426233
 30
0.0
  0
SPLINE
  5
39D
100
AcDbEntity
  8
0
100
AcDbSpline
 62
7
  6
CONTINUOUS
 70
0
 71
3
 72
9
 73
5
 74
0
 42
0.0000001
 43
0.0000001
 44
0.0000000001
 40
0.0
 40
0.0
 40
0.0
 40
0.0
 40
0.5464674848
 40
1.0
 40
1.0
 40
1.0
 40
1.0
 10
461.2757188826
 20
856.2440426233
 30
0.0
 10
461.2676364885
 20
856.2363003633
 30
0.0
 10
461.2541565582
 20
856.2203301355
 30
0.0
 10
461.2483567671
 20
856.1997416707
 30
0.0
 10
461.2483567671
 20
856.1904527848
 30
0.0
  0
SPLINE
  5
39E
100
AcDbEntity
  8
0
100
AcDbSpline
 62
7
  6
CONTINUOUS
 70
0
 71
3
 72
9
 73
5
 74
0
 42
0.0000001
 43
0.0000001
 44
0.0000000001
 40
0.0
 40
0.0
 40
0.0
 40
0.0
 40
0.3899710985
 40
1.0
 40
1.0
 40
1.0
 40
1.0
 10
684.1284141971
 20
913.8760564212
 30
0.0
 10
684.1284141971
 20
913.8956813031
 30
0.0
 10
684.1594736305
 20
913.942843973
 30
0.0
 10
684.2046793846
 20
913.9651958747
 30
0.0
 10
684.2325933021
 20
913.9779726243
 30
0.0
  0
SPLINE
  5
39F
100
AcDbEntity
  8
0
100
AcDbSpline
 62
7
  6
CONTINUOUS
 70
0
 71
3
 72
9
 73
5
 74
0
 42
0.0000001
 43
0.0000001
 44
0.0000000001
 40
0.0
 40
0.0
 40
0.0
 40
0.0
 40
0.46455881
 40
1.0
 40
1.0
 40
1.0
 40
1.0
 10
684.2325933021
 20
913.9779726243
 30
0.0
 10
684.2519899831
 20
913.9868508671
 30
0.0
 10
684.2949212972
 20
914.0033943721
 30
0.0
 10
684.3390290184
 20
914.0163060346
 30
0.0
 10
684.3628315487
 20
914.0224665828
 30
0.0
  0
SPLINE
  5
3A0
100
AcDbEntity
  8
0
100
AcDbSpline
 62
7
  6
CONTINUOUS
 70
0
 71
3
 72
9
 73
5
 74
0
 42
0.0000001
 43
0.0000001
 44
0.0000000001
 40
0.0
 40
0.0
 40
0.0
 40
0.0
 40
0.2166594466
 40
1.0
 40
1.0
 40
1.0
 40
1.0
 10
689.94897512
 20
915.4682669277
 30
0.0
 10
689.9888094317
 20
915.4785768062
 30
0.0
 10
690.1750847241
 20
915.5165639241
 30
0.0
 10
690.3658924087
 20
915.5289386028
 30
0.0
 10
690.514660545
 20
915.5289386028
 30
0.0
  0
SPLINE
  5
3A1
100
AcDbEntity
  8
0
100
AcDbSpline
 62
7
  6
CONTINUOUS
 70
0
 71
3
 72
9
 73
5
 74
0
 42
0.0000001
 43
0.0000001
 44
0.0000000001
 40
0.0
 40
0.0
 40
0.0
 40
0.0
 40
0.7833405534
 40
1.0
 40
1.0
 40
1.0
 40
1.0
 10
690.514660545
 20
915.5289386028
 30
0.0
 10
690.6634286812
 20
915.5289386028
 30
0.0
 10
690.8542363659
 20
915.5165639241
 30
0.0
 10
691.0405116583
 20
915.4785768062
 30
0.0
 10
691.0803459699
 20
915.4682669277
 30
0.0
  0
SPLINE
  5
3A2
100
AcDbEntity
  8
0
100
AcDbSpline
 62
7
  6
CONTINUOUS
 70
0
 71
3
 72
9
 73
5
 74
0
 42
0.0000001
 43
0.0000001
 44
0.0000000001
 40
0.0
 40
0.0
 40
0.0
 40
0.0
 40
0.6504854924
 40
1.0
 40
1.0
 40
1.0
 40
1.0
 10
889.5175743111
 20
390.7700786216
 30
0.0
 10
889.5325780446
 20
390.7739618736
 30
0.0
 10
889.5543813732
 20
390.7796569991
 30
0.0
 10
889.5761520205
 20
390.798353817
 30
0.0
 10
889.5761520205
 20
390.806681162
 30
0.0
  0
SPLINE
  5
3A3
100
AcDbEntity
  8
0
100
AcDbSpline
 62
7
  6
CONTINUOUS
 70
0
 71
3
 72
9
 73
5
 74
0
 42
0.0000001
 43
0.0000001
 44
0.0000000001
 40
0.0
 40
0.0
 40
0.0
 40
0.0
 40
0.5
 40
1.0
 40
1.0
 40
1.0
 40
1.0
 10
656.7875194191
 20
330.6083131286
 30
0.0
 10
656.8334176054
 20
330.5964338038
 30
0.0
 10
656.9289407754
 20
330.5898703997
 30
0.0
 10
657.0244639453
 20
330.5964338038
 30
0.0
 10
657.0703621316
 20
330.6083131286
 30
0.0
  0
SPLINE
  5
3A4
100
AcDbEntity
  8
0
100
AcDbSpline
 62
7
  6
CONTINUOUS
 70
0
 71
3
 72
9
 73
5
 74
0
 42
0.0000001
 43
0.0000001
 44
0.0000000001
 40
0.0
 40
0.0
 40
0.0
 40
0.0
 40
0.2619210242
 40
1.0
 40
1.0
 40
1.0
 40
1.0
 10
1141.5427209248
 20
372.4928585943
 30
0.0
 10
1141.5427209248
 20
372.5696480594
 30
0.0
 10
1141.5311407542
 20
372.8625322555
 30
0.0
 10
1141.4717400038
 20
373.1548943107
 30
0.0
 10
1141.395407981
 20
373.3573724387
 30
0.0
  0
SPLINE
  5
3A5
100
AcDbEntity
  8
0
100
AcDbSpline
 62
7
  6
CONTINUOUS
 70
0
 71
3
 72
9
 73
5
 74
0
 42
0.0000001
 43
0.0000001
 44
0.0000000001
 40
0.0
 40
0.0
 40
0.0
 40
0.0
 40
0.5379280964
 40
1.0
 40
1.0
 40
1.0
 40
1.0
 10
904.6265938883
 20
288.298299512
 30
0.0
 10
904.6265938883
 20
287.7480087614
 30
0.0
 10
904.7705018865
 20
286.7156065068
 30
0.0
 10
905.3099318147
 20
285.7946329616
 30
0.0
 10
905.655433342
 20
285.4720408112
 30
0.0
  0
SPLINE
  5
3A6
100
AcDbEntity
  8
0
100
AcDbSpline
 62
7
  6
CONTINUOUS
 70
0
 71
3
 72
9
 73
5
 74
0
 42
0.0000001
 43
0.0000001
 44
0.0000000001
 40
0.0
 40
0.0
 40
0.0
 40
0.0
 40
0.2570537692
 40
1.0
 40
1.0
 40
1.0
 40
1.0
 10
905.655433342
 20
285.4720408112
 30
0.0
 10
905.7076344789
 20
285.4233010063
 30
0.0
 10
905.9188844369
 20
285.2427426388
 30
0.0
 10
906.16470866
 20
285.1018321375
 30
0.0
 10
906.3576184949
 20
285.028395858
 30
0.0
  0
SPLINE
  5
3A7
100
AcDbEntity
  8
0
100
AcDbSpline
 62
7
  6
CONTINUOUS
 70
0
 71
3
 72
9
 73
5
 74
0
 42
0.0000001
 43
0.0000001
 44
0.0000000001
 40
0.0
 40
0.0
 40
0.0
 40
0.0
 40
0.5379280964
 40
1.0
 40
1.0
 40
1.0
 40
1.0
 10
915.9403023873
 20
291.2265027423
 30
0.0
 10
915.9403023873
 20
290.6762119917
 30
0.0
 10
916.0842103855
 20
289.6438097371
 30
0.0
 10
916.6236403137
 20
288.7228361919
 30
0.0
 10
916.9691418409
 20
288.4002440415
 30
0.0
  0
SPLINE
  5
3A8
100
AcDbEntity
  8
0
100
AcDbSpline
 62
7
  6
CONTINUOUS
 70
0
 71
3
 72
9
 73
5
 74
0
 42
0.0000001
 43
0.0000001
 44
0.0000000001
 40
0.0
 40
0.0
 40
0.0
 40
0.0
 40
0.2570537692
 40
1.0
 40
1.0
 40
1.0
 40
1.0
 10
916.9691418409
 20
288.4002440415
 30
0.0
 10
917.0213429779
 20
288.3515042366
 30
0.0
 10
917.2325929359
 20
288.1709458691
 30
0.0
 10
917.478417159
 20
288.0300353678
 30
0.0
 10
917.6713269939
 20
287.9565990883
 30
0.0
  0
SPLINE
  5
3A9
100
AcDbEntity
  8
0
100
AcDbSpline
 62
7
  6
CONTINUOUS
 70
0
 71
3
 72
9
 73
5
 74
0
 42
0.0000001
 43
0.0000001
 44
0.0000000001
 40
0.0
 40
0.0
 40
0.0
 40
0.0
 40
0.5379280964
 40
1.0
 40
1.0
 40
1.0
 40
1.0
 10
927.2540108862
 20
294.1547059726
 30
0.0
 10
927.2540108862
 20
293.604415222
 30
0.0
 10
927.3979188845
 20
292.5720129674
 30
0.0
 10
927.9373488127
 20
291.6510394222
 30
0.0
 10
928.2828503399
 20
291.3284472718
 30
0.0
  0
SPLINE
  5
3AA
100
AcDbEntity
  8
0
100
AcDbSpline
 62
7
  6
CONTINUOUS
 70
0
 71
3
 72
9
 73
5
 74
0
 42
0.0000001
 43
0.0000001
 44
0.0000000001
 40
0.0
 40
0.0
 40
0.0
 40
0.0
 40
0.2570537692
 40
1.0
 40
1.0
 40
1.0
 40
1.0
 10
928.2828503399
 20
291.3284472718
 30
0.0
 10
928.3350514769
 20
291.2797074669
 30
0.0
 10
928.5463014349
 20
291.0991490994
 30
0.0
 10
928.792125658
 20
290.958238598
 30
0.0
 10
928.9850354929
 20
290.8848023186
 30
0.0
  0
SPLINE
  5
3AB
100
AcDbEntity
  8
0
100
AcDbSpline
 62
7
  6
CONTINUOUS
 70
0
 71
3
 72
9
 73
5
 74
0
 42
0.0000001
 43
0.0000001
 44
0.0000000001
 40
0.0
 40
0.0
 40
0.0
 40
0.0
 40
0.5379280964
 40
1.0
 40
1.0
 40
1.0
 40
1.0
 10
938.5677193852
 20
297.0829092029
 30
0.0
 10
938.5677193852
 20
296.5326184522
 30
0.0
 10
938.7116273835
 20
295.5002161977
 30
0.0
 10
939.2510573117
 20
294.5792426525
 30
0.0
 10
939.5965588389
 20
294.256650502
 30
0.0
  0
SPLINE
  5
3AC
100
AcDbEntity
  8
0
100
AcDbSpline
 62
7
  6
CONTINUOUS
 70
0
 71
3
 72
9
 73
5
 74
0
 42
0.0000001
 43
0.0000001
 44
0.0000000001
 40
0.0
 40
0.0
 40
0.0
 40
0.0
 40
0.2570537692
 40
1.0
 40
1.0
 40
1.0
 40
1.0
 10
939.5965588389
 20
294.256650502
 30
0.0
 10
939.6487599758
 20
294.2079106972
 30
0.0
 10
939.8600099339
 20
294.0273523296
 30
0.0
 10
940.105834157
 20
293.8864418283
 30
0.0
 10
940.2987439919
 20
293.8130055488
 30
0.0
  0
SPLINE
  5
3AD
100
AcDbEntity
  8
0
100
AcDbSpline
 62
7
  6
CONTINUOUS
 70
0
 71
3
 72
9
 73
5
 74
0
 42
0.0000001
 43
0.0000001
 44
0.0000000001
 40
0.0
 40
0.0
 40
0.0
 40
0.0
 40
0.5379280964
 40
1.0
 40
1.0
 40
1.0
 40
1.0
 10
949.8814278842
 20
300.0111124331
 30
0.0
 10
949.8814278842
 20
299.4608216825
 30
0.0
 10
950.0253358825
 20
298.4284194279
 30
0.0
 10
950.5647658107
 20
297.5074458827
 30
0.0
 10
950.9102673379
 20
297.1848537323
 30
0.0
  0
SPLINE
  5
3AE
100
AcDbEntity
  8
0
100
AcDbSpline
 62
7
  6
CONTINUOUS
 70
0
 71
3
 72
9
 73
5
 74
0
 42
0.0000001
 43
0.0000001
 44
0.0000000001
 40
0.0
 40
0.0
 40
0.0
 40
0.0
 40
0.2570537692
 40
1.0
 40
1.0
 40
1.0
 40
1.0
 10
950.9102673379
 20
297.1848537323
 30
0.0
 10
950.9624684748
 20
297.1361139274
 30
0.0
 10
951.1737184329
 20
296.9555555599
 30
0.0
 10
951.419542656
 20
296.8146450586
 30
0.0
 10
951.6124524909
 20
296.7412087791
 30
0.0
  0
SPLINE
  5
3AF
100
AcDbEntity
  8
0
100
AcDbSpline
 62
7
  6
CONTINUOUS
 70
0
 71
3
 72
9
 73
5
 74
0
 42
0.0000001
 43
0.0000001
 44
0.0000000001
 40
0.0
 40
0.0
 40
0.0
 40
0.0
 40
0.4676460726
 40
1.0
 40
1.0
 40
1.0
 40
1.0
 10
1139.279979225
 20
374.6745909102
 30
0.0
 10
1139.3689613568
 20
374.6515606398
 30
0.0
 10
1139.555654222
 20
374.5924752784
 30
0.0
 10
1139.7462388943
 20
374.5341867138
 30
0.0
 10
1139.850660092
 20
374.5275441929
 30
0.0
  0
SPLINE
  5
3B0
100
AcDbEntity
  8
0
100
AcDbSpline
 62
7
  6
CONTINUOUS
 70
0
 71
3
 72
9
 73
5
 74
0
 42
0.0000001
 43
0.0000001
 44
0.0000000001
 40
0.0
 40
0.0
 40
0.0
 40
0.0
 40
0.2433587978
 40
1.0
 40
1.0
 40
1.0
 40
1.0
 10
1141.395407981
 20
373.3573724387
 30
0.0
 10
1141.3843057375
 20
373.4006750449
 30
0.0
 10
1141.3294400752
 20
373.5761672208
 30
0.0
 10
1141.2393799036
 20
373.7402072901
 30
0.0
 10
1141.1566873412
 20
373.8519211032
 30
0.0
  0
SPLINE
  5
3B1
100
AcDbEntity
  8
0
100
AcDbSpline
 62
7
  6
CONTINUOUS
 70
0
 71
3
 72
9
 73
5
 74
0
 42
0.0000001
 43
0.0000001
 44
0.0000000001
 40
0.0
 40
0.0
 40
0.0
 40
0.0
 40
0.5029662046
 40
1.0
 40
1.0
 40
1.0
 40
1.0
 10
1141.1566873412
 20
373.8519211032
 30
0.0
 10
1141.0064483349
 20
374.0548870265
 30
0.0
 10
1140.6014251769
 20
374.3874370848
 30
0.0
 10
1140.0996994112
 20
374.5117021138
 30
0.0
 10
1139.850660092
 20
374.5275441929
 30
0.0
  0
SPLINE
  5
3B2
100
AcDbEntity
  8
0
100
AcDbSpline
 62
7
  6
CONTINUOUS
 70
0
 71
3
 72
8
 73
4
 74
0
 42
0.0000001
 43
0.0000001
 44
0.0000000001
 40
0.0
 40
0.0
 40
0.0
 40
0.0
 40
1.0
 40
1.0
 40
1.0
 40
1.0
 10
719.4376036961
 20
265.7166383879
 30
0.0
 10
719.3975404814
 20
265.6740542349
 30
0.0
 10
719.3650906277
 20
265.6234974013
 30
0.0
 10
719.3410552363
 20
265.5701985156
 30
0.0
  0
SPLINE
  5
3B3
100
AcDbEntity
  8
0
100
AcDbSpline
 62
7
  6
CONTINUOUS
 70
0
 71
3
 72
8
 73
4
 74
0
 42
0.0000001
 43
0.0000001
 44
0.0000000001
 40
0.0
 40
0.0
 40
0.0
 40
0.0
 40
1.0
 40
1.0
 40
1.0
 40
1.0
 10
719.4376036961
 20
265.7166383879
 30
0.0
 10
719.4473664467
 20
265.7270154499
 30
0.0
 10
719.4549055649
 20
265.7400202581
 30
0.0
 10
719.4589056011
 20
265.7536948487
 30
0.0
  0
SPLINE
  5
3B4
100
AcDbEntity
  8
0
100
AcDbSpline
 62
7
  6
CONTINUOUS
 70
0
 71
3
 72
9
 73
5
 74
0
 42
0.0000001
 43
0.0000001
 44
0.0000000001
 40
0.0
 40
0.0
 40
0.0
 40
0.0
 40
0.5140023088
 40
1.0
 40
1.0
 40
1.0
 40
1.0
 10
1141.1565772401
 20
373.8518492837
 30
0.0
 10
1141.0805430716
 20
374.0307925499
 30
0.0
 10
1140.8800223928
 20
374.3605383662
 30
0.0
 10
1140.5702805837
 20
374.5976000324
 30
0.0
 10
1140.4036558946
 20
374.6752605688
 30
0.0
  0
SPLINE
  5
3B5
100
AcDbEntity
  8
0
100
AcDbSpline
 62
7
  6
CONTINUOUS
 70
0
 71
3
 72
9
 73
5
 74
0
 42
0.0000001
 43
0.0000001
 44
0.0000000001
 40
0.0
 40
0.0
 40
0.0
 40
0.0
 40
0.229304536
 40
1.0
 40
1.0
 40
1.0
 40
1.0
 10
365.2808965382
 20
355.4968575891
 30
0.0
 10
365.3329987539
 20
355.5951707521
 30
0.0
 10
365.5891993414
 20
356.0076617758
 30
0.0
 10
365.9585042759
 20
356.3521583437
 30
0.0
 10
366.2809369066
 20
356.5415997723
 30
0.0
  0
SPLINE
  5
3B6
100
AcDbEntity
  8
0
100
AcDbSpline
 62
7
  6
CONTINUOUS
 70
0
 71
3
 72
8
 73
4
 74
0
 42
0.0000001
 43
0.0000001
 44
0.0000000001
 40
0.0
 40
0.0
 40
0.0
 40
0.0
 40
1.0
 40
1.0
 40
1.0
 40
1.0
 10
366.2809369066
 20
356.5415997723
 30
0.0
 10
366.4142444518
 20
356.6199230232
 30
0.0
 10
366.5556400017
 20
356.6861220851
 30
0.0
 10
366.7017348633
 20
356.7367355682
 30
0.0
  0
SPLINE
  5
3B7
100
AcDbEntity
  8
0
100
AcDbSpline
 62
7
  6
CONTINUOUS
 70
0
 71
3
 72
8
 73
4
 74
0
 42
0.0000001
 43
0.0000001
 44
0.0000000001
 40
0.0
 40
0.0
 40
0.0
 40
0.0
 40
1.0
 40
1.0
 40
1.0
 40
1.0
 10
366.8395864933
 20
356.7794627116
 30
0.0
 10
366.9768468814
 20
356.8170424961
 30
0.0
 10
367.1187181041
 20
356.8409891481
 30
0.0
 10
367.2607955256
 20
356.8491537459
 30
0.0
  0
SPLINE
  5
3B8
100
AcDbEntity
  8
0
100
AcDbSpline
 62
7
  6
CONTINUOUS
 70
0
 71
3
 72
9
 73
5
 74
0
 42
0.0000001
 43
0.0000001
 44
0.0000000001
 40
0.0
 40
0.0
 40
0.0
 40
0.0
 40
0.2853616722
 40
1.0
 40
1.0
 40
1.0
 40
1.0
 10
718.6255676938
 20
217.5049264851
 30
0.0
 10
718.6413074955
 20
217.4943171698
 30
0.0
 10
718.6984978947
 20
217.4609086933
 30
0.0
 10
718.7708275652
 20
217.448680749
 30
0.0
 10
718.8168448382
 20
217.4606003475
 30
0.0
  0
SPLINE
  5
3B9
100
AcDbEntity
  8
0
100
AcDbSpline
 62
7
  6
CONTINUOUS
 70
0
 71
3
 72
8
 73
4
 74
0
 42
0.0000001
 43
0.0000001
 44
0.0000000001
 40
0.0
 40
0.0
 40
0.0
 40
0.0
 40
1.0
 40
1.0
 40
1.0
 40
1.0
 10
1141.4749079925
 20
327.5046838703
 30
0.0
 10
1141.5188270539
 20
327.5970055276
 30
0.0
 10
1141.5427209248
 20
327.7015649669
 30
0.0
 10
1141.5427209248
 20
327.8038008333
 30
0.0
  0
SPLINE
  5
3BA
100
AcDbEntity
  8
0
100
AcDbSpline
 62
7
  6
CONTINUOUS
 70
0
 71
3
 72
9
 73
5
 74
0
 42
0.0000001
 43
0.0000001
 44
0.0000000001
 40
0.0
 40
0.0
 40
0.0
 40
0.0
 40
0.2458379717
 40
1.0
 40
1.0
 40
1.0
 40
1.0
 10
953.7364071045
 20
304.9464977471
 30
0.0
 10
953.6746789551
 20
304.9553802704
 30
0.0
 10
953.4219671903
 20
304.979844564
 30
0.0
 10
953.1652609751
 20
304.956506574
 30
0.0
 10
952.9783014866
 20
304.91591543
 30
0.0
  0
SPLINE
  5
3BB
100
AcDbEntity
  8
0
100
AcDbSpline
 62
7
  6
CONTINUOUS
 70
0
 71
3
 72
11
 73
7
 74
0
 42
0.0000001
 43
0.0000001
 44
0.0000000001
 40
0.0
 40
0.0
 40
0.0
 40
0.0
 40
0.2125662505
 40
0.4588522508
 40
0.728331199
 40
1.0
 40
1.0
 40
1.0
 40
1.0
 10
952.9783014866
 20
304.91591543
 30
0.0
 10
952.5505478863
 20
304.8230450007
 30
0.0
 10
951.6829785183
 20
304.3596206462
 30
0.0
 10
950.7029317322
 20
303.1932189829
 30
0.0
 10
950.0461181192
 20
301.689525347
 30
0.0
 10
949.8814278842
 20
300.5705363206
 30
0.0
 10
949.8814278842
 20
300.0111124331
 30
0.0
  0
SPLINE
  5
3BC
100
AcDbEntity
  8
0
100
AcDbSpline
 62
7
  6
CONTINUOUS
 70
0
 71
3
 72
9
 73
5
 74
0
 42
0.0000001
 43
0.0000001
 44
0.0000000001
 40
0.0
 40
0.0
 40
0.0
 40
0.0
 40
0.2458379717
 40
1.0
 40
1.0
 40
1.0
 40
1.0
 10
942.4226986055
 20
302.0182945168
 30
0.0
 10
942.3609704561
 20
302.0271770402
 30
0.0
 10
942.1082586913
 20
302.0516413338
 30
0.0
 10
941.8515524761
 20
302.0283033437
 30
0.0
 10
941.6645929876
 20
301.9877121998
 30
0.0
  0
SPLINE
  5
3BD
100
AcDbEntity
  8
0
100
AcDbSpline
 62
7
  6
CONTINUOUS
 70
0
 71
3
 72
11
 73
7
 74
0
 42
0.0000001
 43
0.0000001
 44
0.0000000001
 40
0.0
 40
0.0
 40
0.0
 40
0.0
 40
0.2125662505
 40
0.4588522508
 40
0.728331199
 40
1.0
 40
1.0
 40
1.0
 40
1.0
 10
941.6645929876
 20
301.9877121998
 30
0.0
 10
941.2368393873
 20
301.8948417704
 30
0.0
 10
940.3692700193
 20
301.4314174159
 30
0.0
 10
939.3892232332
 20
300.2650157526
 30
0.0
 10
938.7324096202
 20
298.7613221167
 30
0.0
 10
938.5677193852
 20
297.6423330904
 30
0.0
 10
938.5677193852
 20
297.0829092029
 30
0.0
  0
SPLINE
  5
3BE
100
AcDbEntity
  8
0
100
AcDbSpline
 62
7
  6
CONTINUOUS
 70
0
 71
3
 72
9
 73
5
 74
0
 42
0.0000001
 43
0.0000001
 44
0.0000000001
 40
0.0
 40
0.0
 40
0.0
 40
0.0
 40
0.2458379717
 40
1.0
 40
1.0
 40
1.0
 40
1.0
 10
931.1089901066
 20
299.0900912865
 30
0.0
 10
931.0472619571
 20
299.0989738099
 30
0.0
 10
930.7945501923
 20
299.1234381035
 30
0.0
 10
930.5378439771
 20
299.1001001134
 30
0.0
 10
930.3508844886
 20
299.0595089695
 30
0.0
  0
SPLINE
  5
3BF
100
AcDbEntity
  8
0
100
AcDbSpline
 62
7
  6
CONTINUOUS
 70
0
 71
3
 72
11
 73
7
 74
0
 42
0.0000001
 43
0.0000001
 44
0.0000000001
 40
0.0
 40
0.0
 40
0.0
 40
0.0
 40
0.2125662505
 40
0.4588522508
 40
0.728331199
 40
1.0
 40
1.0
 40
1.0
 40
1.0
 10
930.3508844886
 20
299.0595089695
 30
0.0
 10
929.9231308883
 20
298.9666385401
 30
0.0
 10
929.0555615203
 20
298.5032141857
 30
0.0
 10
928.0755147343
 20
297.3368125223
 30
0.0
 10
927.4187011213
 20
295.8331188864
 30
0.0
 10
927.2540108862
 20
294.7141298601
 30
0.0
 10
927.2540108862
 20
294.1547059726
 30
0.0
  0
SPLINE
  5
3C0
100
AcDbEntity
  8
0
100
AcDbSpline
 62
7
  6
CONTINUOUS
 70
0
 71
3
 72
9
 73
5
 74
0
 42
0.0000001
 43
0.0000001
 44
0.0000000001
 40
0.0
 40
0.0
 40
0.0
 40
0.0
 40
0.2458379717
 40
1.0
 40
1.0
 40
1.0
 40
1.0
 10
919.7952816076
 20
296.1618880562
 30
0.0
 10
919.7335534581
 20
296.1707705796
 30
0.0
 10
919.4808416933
 20
296.1952348732
 30
0.0
 10
919.2241354781
 20
296.1718968832
 30
0.0
 10
919.0371759896
 20
296.1313057392
 30
0.0
  0
SPLINE
  5
3C1
100
AcDbEntity
  8
0
100
AcDbSpline
 62
7
  6
CONTINUOUS
 70
0
 71
3
 72
11
 73
7
 74
0
 42
0.0000001
 43
0.0000001
 44
0.0000000001
 40
0.0
 40
0.0
 40
0.0
 40
0.0
 40
0.2125662505
 40
0.4588522508
 40
0.728331199
 40
1.0
 40
1.0
 40
1.0
 40
1.0
 10
919.0371759896
 20
296.1313057392
 30
0.0
 10
918.6094223893
 20
296.0384353098
 30
0.0
 10
917.7418530213
 20
295.5750109554
 30
0.0
 10
916.7618062353
 20
294.4086092921
 30
0.0
 10
916.1049926223
 20
292.9049156561
 30
0.0
 10
915.9403023873
 20
291.7859266298
 30
0.0
 10
915.9403023873
 20
291.2265027423
 30
0.0
  0
SPLINE
  5
3C2
100
AcDbEntity
  8
0
100
AcDbSpline
 62
7
  6
CONTINUOUS
 70
0
 71
3
 72
9
 73
5
 74
0
 42
0.0000001
 43
0.0000001
 44
0.0000000001
 40
0.0
 40
0.0
 40
0.0
 40
0.0
 40
0.2585040975
 40
1.0
 40
1.0
 40
1.0
 40
1.0
 10
462.3206956544
 20
381.4524663248
 30
0.0
 10
462.2912540524
 20
381.4600863721
 30
0.0
 10
462.1758456892
 20
381.4831757513
 30
0.0
 10
462.0543365146
 20
381.4773634593
 30
0.0
 10
461.9698862379
 20
381.4555047689
 30
0.0
  0
SPLINE
  5
3C3
100
AcDbEntity
  8
0
100
AcDbSpline
 62
7
  6
CONTINUOUS
 70
0
 71
3
 72
9
 73
5
 74
0
 42
0.0000001
 43
0.0000001
 44
0.0000000001
 40
0.0
 40
0.0
 40
0.0
 40
0.0
 40
0.255455331
 40
1.0
 40
1.0
 40
1.0
 40
1.0
 10
366.2807703702
 20
356.5418290199
 30
0.0
 10
366.3180936658
 20
356.5754265932
 30
0.0
 10
366.4711938681
 20
356.6988965937
 30
0.0
 10
366.6540824824
 20
356.7859463402
 30
0.0
 10
366.7957743193
 20
356.8226307668
 30
0.0
  0
SPLINE
  5
3C4
100
AcDbEntity
  8
0
100
AcDbSpline
 62
7
  6
CONTINUOUS
 70
0
 71
3
 72
9
 73
5
 74
0
 42
0.0000001
 43
0.0000001
 44
0.0000000001
 40
0.0
 40
0.0
 40
0.0
 40
0.0
 40
0.2458379717
 40
1.0
 40
1.0
 40
1.0
 40
1.0
 10
908.4815731086
 20
293.233684826
 30
0.0
 10
908.4198449592
 20
293.2425673493
 30
0.0
 10
908.1671331944
 20
293.2670316429
 30
0.0
 10
907.9104269791
 20
293.2436936529
 30
0.0
 10
907.7234674906
 20
293.2031025089
 30
0.0
  0
SPLINE
  5
3C5
100
AcDbEntity
  8
0
100
AcDbSpline
 62
7
  6
CONTINUOUS
 70
0
 71
3
 72
11
 73
7
 74
0
 42
0.0000001
 43
0.0000001
 44
0.0000000001
 40
0.0
 40
0.0
 40
0.0
 40
0.0
 40
0.2125662505
 40
0.4588522508
 40
0.728331199
 40
1.0
 40
1.0
 40
1.0
 40
1.0
 10
907.7234674906
 20
293.2031025089
 30
0.0
 10
907.2957138903
 20
293.1102320796
 30
0.0
 10
906.4281445223
 20
292.6468077251
 30
0.0
 10
905.4480977363
 20
291.4804060618
 30
0.0
 10
904.7912841233
 20
289.9767124259
 30
0.0
 10
904.6265938883
 20
288.8577233995
 30
0.0
 10
904.6265938883
 20
288.298299512
 30
0.0
  0
SPLINE
  5
3C6
100
AcDbEntity
  8
0
100
AcDbSpline
 62
7
  6
CONTINUOUS
 70
0
 71
3
 72
10
 73
6
 74
0
 42
0.0000001
 43
0.0000001
 44
0.0000000001
 40
0.0
 40
0.0
 40
0.0
 40
0.0
 40
0.1164184066
 40
0.3365508247
 40
1.0
 40
1.0
 40
1.0
 40
1.0
 10
471.3145283862
 20
378.5863645501
 30
0.0
 10
471.314530467
 20
378.5819441075
 30
0.0
 10
471.326591887
 20
378.5722764785
 30
0.0
 10
471.3617694898
 20
378.5629717922
 30
0.0
 10
471.3964736711
 20
378.5600923236
 30
0.0
 10
471.4216607251
 20
378.5605586992
 30
0.0
  0
SPLINE
  5
3C7
100
AcDbEntity
  8
0
100
AcDbSpline
 62
7
  6
CONTINUOUS
 70
0
 71
3
 72
9
 73
5
 74
0
 42
0.0000001
 43
0.0000001
 44
0.0000000001
 40
0.0
 40
0.0
 40
0.0
 40
0.0
 40
0.2747868577
 40
1.0
 40
1.0
 40
1.0
 40
1.0
 10
471.4216607251
 20
378.5605586992
 30
0.0
 10
471.4275299979
 20
378.5606673775
 30
0.0
 10
471.4488600211
 20
378.5615769109
 30
0.0
 10
471.4702391273
 20
378.564190842
 30
0.0
 10
471.4852376617
 20
378.5680727484
 30
0.0
  0
SPLINE
  5
3C8
100
AcDbEntity
  8
0
100
AcDbSpline
 62
7
  6
CONTINUOUS
 70
0
 71
3
 72
9
 73
5
 74
0
 42
0.0000001
 43
0.0000001
 44
0.0000000001
 40
0.0
 40
0.0
 40
0.0
 40
0.0
 40
0.3494917942
 40
1.0
 40
1.0
 40
1.0
 40
1.0
 10
1139.1628229111
 20
374.7478109233
 30
0.0
 10
1139.1628177674
 20
374.7311558081
 30
0.0
 10
1139.2063538939
 20
374.6937448348
 30
0.0
 10
1139.2499679924
 20
374.6823583888
 30
0.0
 10
1139.279979225
 20
374.6745909102
 30
0.0
  0
SPLINE
  5
3C9
100
AcDbEntity
  8
0
100
AcDbSpline
 62
7
  6
CONTINUOUS
 70
0
 71
3
 72
9
 73
5
 74
0
 42
0.0000001
 43
0.0000001
 44
0.0000000001
 40
0.0
 40
0.0
 40
0.0
 40
0.0
 40
0.2165324882
 40
1.0
 40
1.0
 40
1.0
 40
1.0
 10
656.6236586666
 20
330.7445575947
 30
0.0
 10
656.6387566902
 20
330.7406496326
 30
0.0
 10
656.7063866176
 20
330.7133853263
 30
0.0
 10
656.7554561894
 20
330.6547474226
 30
0.0
 10
656.7875194191
 20
330.6083131286
 30
0.0
  0
SPLINE
  5
3CA
100
AcDbEntity
  8
0
100
AcDbSpline
 62
7
  6
CONTINUOUS
 70
0
 71
3
 72
9
 73
5
 74
0
 42
0.0000001
 43
0.0000001
 44
0.0000000001
 40
0.0
 40
0.0
 40
0.0
 40
0.0
 40
0.2454954778
 40
1.0
 40
1.0
 40
1.0
 40
1.0
 10
471.8360528722
 20
378.5711073835
 30
0.0
 10
471.8080870173
 20
378.578348246
 30
0.0
 10
471.6922603238
 20
378.6003688121
 30
0.0
 10
471.5711898375
 20
378.5903188084
 30
0.0
 10
471.4852376617
 20
378.5680727484
 30
0.0
  0
SPLINE
  5
3CB
100
AcDbEntity
  8
0
100
AcDbSpline
 62
7
  6
CONTINUOUS
 70
0
 71
3
 72
11
 73
7
 74
0
 42
0.0000001
 43
0.0000001
 44
0.0000000001
 40
0.0
 40
0.0
 40
0.0
 40
0.0
 40
0.2144218252
 40
0.448180674
 40
0.7106732903
 40
1.0
 40
1.0
 40
1.0
 40
1.0
 10
365.9200308214
 20
308.806045579
 30
0.0
 10
365.8259612506
 20
308.8304018819
 30
0.0
 10
365.6394052714
 20
308.9283277465
 30
0.0
 10
365.4337458363
 20
309.185024453
 30
0.0
 10
365.3072931964
 20
309.5227099529
 30
0.0
 10
365.2808965382
 20
309.7740416646
 30
0.0
 10
365.2808965382
 20
309.9051585883
 30
0.0
  0
SPLINE
  5
3CC
100
AcDbEntity
  8
0
100
AcDbSpline
 62
7
  6
CONTINUOUS
 70
0
 71
3
 72
10
 73
6
 74
0
 42
0.0000001
 43
0.0000001
 44
0.0000000001
 40
0.0
 40
0.0
 40
0.0
 40
0.0
 40
0.1110978567
 40
0.3056779976
 40
1.0
 40
1.0
 40
1.0
 40
1.0
 10
717.9762452608
 20
217.6871901194
 30
0.0
 10
717.9851111628
 20
217.684899427
 30
0.0
 10
718.0110889691
 20
217.6965713155
 30
0.0
 10
718.0665515177
 20
217.7554146959
 30
0.0
 10
718.1112984749
 20
217.8147930324
 30
0.0
 10
718.1461042917
 20
217.8602202306
 30
0.0
  0
SPLINE
  5
3CD
100
AcDbEntity
  8
0
100
AcDbSpline
 62
7
  6
CONTINUOUS
 70
0
 71
3
 72
9
 73
5
 74
0
 42
0.0000001
 43
0.0000001
 44
0.0000000001
 40
0.0
 40
0.0
 40
0.0
 40
0.0
 40
0.4877701879
 40
1.0
 40
1.0
 40
1.0
 40
1.0
 10
1140.4233626555
 20
326.580396698
 30
0.0
 10
1140.6491689653
 20
326.6388561533
 30
0.0
 10
1141.0861267635
 20
326.8808222347
 30
0.0
 10
1141.3696820669
 20
327.2834898933
 30
0.0
 10
1141.4749079925
 20
327.5046838703
 30
0.0
  0
SPLINE
  5
3CE
100
AcDbEntity
  8
0
100
AcDbSpline
 62
7
  6
CONTINUOUS
 70
0
 71
3
 72
8
 73
4
 74
0
 42
0.0000001
 43
0.0000001
 44
0.0000000001
 40
0.0
 40
0.0
 40
0.0
 40
0.0
 40
1.0
 40
1.0
 40
1.0
 40
1.0
 10
1140.1210222857
 20
374.7703619887
 30
0.0
 10
1140.2172693091
 20
374.7455187891
 30
0.0
 10
1140.3122606182
 20
374.7143448432
 30
0.0
 10
1140.4036562013
 20
374.6752613243
 30
0.0
  0
SPLINE
  5
3CF
100
AcDbEntity
  8
0
100
AcDbSpline
 62
7
  6
CONTINUOUS
 70
0
 71
3
 72
9
 73
5
 74
0
 42
0.0000001
 43
0.0000001
 44
0.0000000001
 40
0.0
 40
0.0
 40
0.0
 40
0.0
 40
0.2982007544
 40
1.0
 40
1.0
 40
1.0
 40
1.0
 10
657.0703621316
 20
330.6083131286
 30
0.0
 10
657.0825245574
 20
330.6259268768
 30
0.0
 10
657.1250844503
 20
330.6829701072
 30
0.0
 10
657.1854548644
 20
330.731934514
 30
0.0
 10
657.2342228841
 20
330.7445575947
 30
0.0
  0
SPLINE
  5
3D0
100
AcDbEntity
  8
0
100
AcDbSpline
 62
7
  6
CONTINUOUS
 70
0
 71
3
 72
9
 73
5
 74
0
 42
0.0000001
 43
0.0000001
 44
0.0000000001
 40
0.0
 40
0.0
 40
0.0
 40
0.0
 40
0.3703945805
 40
1.0
 40
1.0
 40
1.0
 40
1.0
 10
471.3438163055
 20
378.6046752887
 30
0.0
 10
471.3396091983
 20
378.6035864093
 30
0.0
 10
471.3293505352
 20
378.6004041191
 30
0.0
 10
471.3145249089
 20
378.5937515312
 30
0.0
 10
471.3145283862
 20
378.5863645501
 30
0.0
  0
SPLINE
  5
3D1
100
AcDbEntity
  8
0
100
AcDbSpline
 62
7
  6
CONTINUOUS
 70
0
 71
3
 72
9
 73
5
 74
0
 42
0.0000001
 43
0.0000001
 44
0.0000000001
 40
0.0
 40
0.0
 40
0.0
 40
0.0
 40
0.2140070445
 40
1.0
 40
1.0
 40
1.0
 40
1.0
 10
718.1461042917
 20
217.8602202306
 30
0.0
 10
718.1594374687
 20
217.8776221744
 30
0.0
 10
718.2217279426
 20
217.958942985
 30
0.0
 10
718.2854653216
 20
218.0391841601
 30
0.0
 10
718.3370888178
 20
218.1009730433
 30
0.0
  0
SPLINE
  5
3D2
100
AcDbEntity
  8
0
100
AcDbSpline
 62
7
  6
CONTINUOUS
 70
0
 71
3
 72
9
 73
5
 74
0
 42
0.0000001
 43
0.0000001
 44
0.0000000001
 40
0.0
 40
0.0
 40
0.0
 40
0.0
 40
0.2572567601
 40
1.0
 40
1.0
 40
1.0
 40
1.0
 10
943.4949373898
 20
301.513983069
 30
0.0
 10
943.431885608
 20
301.5693192721
 30
0.0
 10
943.1757578746
 20
301.7713848919
 30
0.0
 10
942.8722966737
 20
301.9144512475
 30
0.0
 10
942.6378169903
 20
301.9751391756
 30
0.0
  0
SPLINE
  5
3D3
100
AcDbEntity
  8
0
100
AcDbSpline
 62
7
  6
CONTINUOUS
 70
0
 71
3
 72
9
 73
5
 74
0
 42
0.0000001
 43
0.0000001
 44
0.0000000001
 40
0.0
 40
0.0
 40
0.0
 40
0.0
 40
0.2572567601
 40
1.0
 40
1.0
 40
1.0
 40
1.0
 10
954.8086458888
 20
304.4421862992
 30
0.0
 10
954.745594107
 20
304.4975225024
 30
0.0
 10
954.4894663736
 20
304.6995881222
 30
0.0
 10
954.1860051727
 20
304.8426544777
 30
0.0
 10
953.9515254893
 20
304.9033424059
 30
0.0
  0
SPLINE
  5
3D4
100
AcDbEntity
  8
0
100
AcDbSpline
 62
7
  6
CONTINUOUS
 70
0
 71
3
 72
9
 73
5
 74
0
 42
0.0000001
 43
0.0000001
 44
0.0000000001
 40
0.0
 40
0.0
 40
0.0
 40
0.0
 40
0.2516078818
 40
1.0
 40
1.0
 40
1.0
 40
1.0
 10
889.5175743111
 20
390.8432837024
 30
0.0
 10
889.4430555291
 20
390.8467305861
 30
0.0
 10
889.1465645185
 20
390.8527362173
 30
0.0
 10
888.8495789847
 20
390.8284877606
 30
0.0
 10
888.6302904501
 20
390.7946196508
 30
0.0
  0
SPLINE
  5
3D5
100
AcDbEntity
  8
0
100
AcDbSpline
 62
7
  6
CONTINUOUS
 70
0
 71
3
 72
9
 73
5
 74
0
 42
0.0000001
 43
0.0000001
 44
0.0000000001
 40
0.0
 40
0.0
 40
0.0
 40
0.0
 40
0.2627483528
 40
1.0
 40
1.0
 40
1.0
 40
1.0
 10
888.5803671377
 20
390.7866312584
 30
0.0
 10
888.4250733958
 20
390.760917115
 30
0.0
 10
887.8389760595
 20
390.6333700135
 30
0.0
 10
887.2789612782
 20
390.3986612258
 30
0.0
 10
886.8924782965
 20
390.1848666058
 30
0.0
  0
SPLINE
  5
3D6
100
AcDbEntity
  8
0
100
AcDbSpline
 62
7
  6
CONTINUOUS
 70
0
 71
3
 72
9
 73
5
 74
0
 42
0.0000001
 43
0.0000001
 44
0.0000000001
 40
0.0
 40
0.0
 40
0.0
 40
0.0
 40
0.1621498681
 40
1.0
 40
1.0
 40
1.0
 40
1.0
 10
889.5761520205
 20
390.806681162
 30
0.0
 10
889.5761520205
 20
390.8097172618
 30
0.0
 10
889.5685453526
 20
390.8280612259
 30
0.0
 10
889.5475239874
 20
390.8340770773
 30
0.0
 10
889.5326043807
 20
390.8389264729
 30
0.0
  0
SPLINE
  5
3D7
100
AcDbEntity
  8
0
100
AcDbSpline
 62
7
  6
CONTINUOUS
 70
0
 71
3
 72
8
 73
4
 74
0
 42
0.0000001
 43
0.0000001
 44
0.0000000001
 40
0.0
 40
0.0
 40
0.0
 40
0.0
 40
1.0
 40
1.0
 40
1.0
 40
1.0
 10
889.5326043807
 20
390.8389264729
 30
0.0
 10
889.5276435491
 20
390.8405389172
 30
0.0
 10
889.5226242167
 20
390.8419766906
 30
0.0
 10
889.5175743111
 20
390.8432837024
 30
0.0
  0
SPLINE
  5
3D8
100
AcDbEntity
  8
0
100
AcDbSpline
 62
7
  6
CONTINUOUS
 70
0
 71
3
 72
8
 73
4
 74
0
 42
0.0000001
 43
0.0000001
 44
0.0000000001
 40
0.0
 40
0.0
 40
0.0
 40
0.0
 40
1.0
 40
1.0
 40
1.0
 40
1.0
 10
1139.710168978
 20
374.8440738516
 30
0.0
 10
1139.8483375576
 20
374.8276798433
 30
0.0
 10
1139.9863001161
 20
374.8051363604
 30
0.0
 10
1140.1210222857
 20
374.7703619887
 30
0.0
  0
SPLINE
  5
3D9
100
AcDbEntity
  8
0
100
AcDbSpline
 62
7
  6
CONTINUOUS
 70
0
 71
3
 72
9
 73
5
 74
0
 42
0.0000001
 43
0.0000001
 44
0.0000000001
 40
0.0
 40
0.0
 40
0.0
 40
0.0
 40
0.2564338997
 40
1.0
 40
1.0
 40
1.0
 40
1.0
 10
1139.710168978
 20
374.8440738516
 30
0.0
 10
1139.6888481474
 20
374.8466036154
 30
0.0
 10
1139.6055280447
 20
374.8546141351
 30
0.0
 10
1139.5211785906
 20
374.8545927981
 30
0.0
 10
1139.4592943195
 20
374.847795991
 30
0.0
  0
SPLINE
  5
3DA
100
AcDbEntity
  8
0
100
AcDbSpline
 62
7
  6
CONTINUOUS
 70
0
 71
3
 72
9
 73
5
 74
0
 42
0.0000001
 43
0.0000001
 44
0.0000000001
 40
0.0
 40
0.0
 40
0.0
 40
0.0
 40
0.2904087661
 40
1.0
 40
1.0
 40
1.0
 40
1.0
 10
718.5893381572
 20
265.9186358247
 30
0.0
 10
718.5821796345
 20
265.9142697496
 30
0.0
 10
718.5588825678
 20
265.8978778198
 30
0.0
 10
718.5416716702
 20
265.8680221151
 30
0.0
 10
718.5437661017
 20
265.847641525
 30
0.0
  0
SPLINE
  5
3DB
100
AcDbEntity
  8
0
100
AcDbSpline
 62
7
  6
CONTINUOUS
 70
0
 71
3
 72
9
 73
5
 74
0
 42
0.0000001
 43
0.0000001
 44
0.0000000001
 40
0.0
 40
0.0
 40
0.0
 40
0.0
 40
0.5689192147
 40
1.0
 40
1.0
 40
1.0
 40
1.0
 10
718.5214156541
 20
265.4841026802
 30
0.0
 10
718.533367608
 20
265.5440344677
 30
0.0
 10
718.553097723
 20
265.6493191517
 30
0.0
 10
718.5596774733
 20
265.7580386076
 30
0.0
 10
718.5529514592
 20
265.8038531789
 30
0.0
  0
SPLINE
  5
3DC
100
AcDbEntity
  8
0
100
AcDbSpline
 62
7
  6
CONTINUOUS
 70
0
 71
3
 72
9
 73
5
 74
0
 42
0.0000001
 43
0.0000001
 44
0.0000000001
 40
0.0
 40
0.0
 40
0.0
 40
0.0
 40
0.5345609584
 40
1.0
 40
1.0
 40
1.0
 40
1.0
 10
718.3813083064
 20
264.2329635812
 30
0.0
 10
718.3401138042
 20
264.4561806768
 30
0.0
 10
718.3257678252
 20
264.887085034
 30
0.0
 10
718.434693134
 20
265.3065096941
 30
0.0
 10
718.5214159302
 20
265.4841020755
 30
0.0
  0
SPLINE
  5
3DD
100
AcDbEntity
  8
0
100
AcDbSpline
 62
7
  6
CONTINUOUS
 70
0
 71
3
 72
11
 73
7
 74
0
 42
0.0000001
 43
0.0000001
 44
0.0000000001
 40
0.0
 40
0.0
 40
0.0
 40
0.0
 40
0.1870814545
 40
0.4225463639
 40
0.7002521152
 40
1.0
 40
1.0
 40
1.0
 40
1.0
 10
719.3410552363
 20
265.5701985156
 30
0.0
 10
719.3019949571
 20
265.4835816878
 30
0.0
 10
719.25790053
 20
265.2700103402
 30
0.0
 10
719.2339151429
 20
264.9161125434
 30
0.0
 10
719.202127606
 20
264.5041115473
 30
0.0
 10
719.1566301295
 20
264.213719317
 30
0.0
 10
719.1230214316
 20
264.0652365788
 30
0.0
  0
SPLINE
  5
3DE
100
AcDbEntity
  8
0
100
AcDbSpline
 62
7
  6
CONTINUOUS
 70
0
 71
3
 72
9
 73
5
 74
0
 42
0.0000001
 43
0.0000001
 44
0.0000000001
 40
0.0
 40
0.0
 40
0.0
 40
0.0
 40
0.2699437396
 40
1.0
 40
1.0
 40
1.0
 40
1.0
 10
718.9757084877
 20
218.4354101825
 30
0.0
 10
718.9757084877
 20
218.4104681725
 30
0.0
 10
718.9772878645
 20
218.3181543754
 30
0.0
 10
718.9832472093
 20
218.225349563
 30
0.0
 10
718.9962269713
 20
218.1591550722
 30
0.0
  0
SPLINE
  5
3DF
100
AcDbEntity
  8
0
100
AcDbSpline
 62
7
  6
CONTINUOUS
 70
0
 71
3
 72
8
 73
4
 74
0
 42
0.0000001
 43
0.0000001
 44
0.0000000001
 40
0.0
 40
0.0
 40
0.0
 40
0.0
 40
1.0
 40
1.0
 40
1.0
 40
1.0
 10
719.4589056011
 20
265.7536948487
 30
0.0
 10
719.4624138997
 20
265.7656883768
 30
0.0
 10
719.463398333
 20
265.7786016698
 30
0.0
 10
719.4621889931
 20
265.7910391282
 30
0.0
  0
SPLINE
  5
3E0
100
AcDbEntity
  8
0
100
AcDbSpline
 62
7
  6
CONTINUOUS
 70
0
 71
3
 72
9
 73
5
 74
0
 42
0.0000001
 43
0.0000001
 44
0.0000000001
 40
0.0
 40
0.0
 40
0.0
 40
0.0
 40
0.2131997047
 40
1.0
 40
1.0
 40
1.0
 40
1.0
 10
719.4621889931
 20
265.7910391282
 30
0.0
 10
719.4602775588
 20
265.8106972772
 30
0.0
 10
719.4253294048
 20
265.9003385342
 30
0.0
 10
719.3291153747
 20
265.946782634
 30
0.0
 10
719.2585512002
 20
265.9650459862
 30
0.0
  0
SPLINE
  5
3E1
100
AcDbEntity
  8
0
100
AcDbSpline
 62
7
  6
CONTINUOUS
 70
0
 71
3
 72
9
 73
5
 74
0
 42
0.0000001
 43
0.0000001
 44
0.0000000001
 40
0.0
 40
0.0
 40
0.0
 40
0.0
 40
0.7464203829
 40
1.0
 40
1.0
 40
1.0
 40
1.0
 10
366.7957743193
 20
356.8226307668
 30
0.0
 10
366.9083564266
 20
356.8517786002
 30
0.0
 10
367.0663676128
 20
356.8680545859
 30
0.0
 10
367.2216363375
 20
356.8543945678
 30
0.0
 10
367.2607955256
 20
356.8491537459
 30
0.0
  0
SPLINE
  5
3E2
100
AcDbEntity
  8
0
100
AcDbSpline
 62
7
  6
CONTINUOUS
 70
0
 71
3
 72
10
 73
6
 74
0
 42
0.0000001
 43
0.0000001
 44
0.0000000001
 40
0.0
 40
0.0
 40
0.0
 40
0.0
 40
0.6682169726
 40
0.8784229033
 40
1.0
 40
1.0
 40
1.0
 40
1.0
 10
1139.4592943195
 20
374.847795991
 30
0.0
 10
1139.3871445591
 20
374.8427923796
 30
0.0
 10
1139.2907414475
 20
374.828854238
 30
0.0
 10
1139.1908744263
 20
374.7918161501
 30
0.0
 10
1139.162826975
 20
374.760969563
 30
0.0
 10
1139.1628229111
 20
374.7478109233
 30
0.0
  0
SPLINE
  5
3E3
100
AcDbEntity
  8
0
100
AcDbSpline
 62
7
  6
CONTINUOUS
 70
0
 71
3
 72
11
 73
7
 74
0
 42
0.0000001
 43
0.0000001
 44
0.0000000001
 40
0.0
 40
0.0
 40
0.0
 40
0.0
 40
0.1660891088
 40
0.3786472656
 40
0.6566846275
 40
1.0
 40
1.0
 40
1.0
 40
1.0
 10
718.8168448382
 20
217.4606003475
 30
0.0
 10
718.858401387
 20
217.4713645095
 30
0.0
 10
718.9431303211
 20
217.5343230789
 30
0.0
 10
719.0096302455
 20
217.6951401205
 30
0.0
 10
719.0319233437
 20
217.911284726
 30
0.0
 10
719.0133013555
 20
218.0720787323
 30
0.0
 10
718.9962269713
 20
218.1591550722
 30
0.0
  0
SPLINE
  5
3E4
100
AcDbEntity
  8
0
100
AcDbSpline
 62
7
  6
CONTINUOUS
 70
0
 71
3
 72
9
 73
5
 74
0
 42
0.0000001
 43
0.0000001
 44
0.0000000001
 40
0.0
 40
0.0
 40
0.0
 40
0.0
 40
0.4303114149
 40
1.0
 40
1.0
 40
1.0
 40
1.0
 10
718.3370888178
 20
218.1009730433
 30
0.0
 10
718.3755283548
 20
218.1469818618
 30
0.0
 10
718.4042535615
 20
218.2931501362
 30
0.0
 10
718.4100230628
 20
218.429243063
 30
0.0
 10
718.4100230628
 20
218.5086152633
 30
0.0
  0
SPLINE
  5
3E5
100
AcDbEntity
  8
0
100
AcDbSpline
 62
7
  6
CONTINUOUS
 70
0
 71
3
 72
11
 73
7
 74
0
 42
0.0000001
 43
0.0000001
 44
0.0000000001
 40
0.0
 40
0.0
 40
0.0
 40
0.0
 40
0.2654071671
 40
0.5685099933
 40
0.8339169974
 40
1.0
 40
1.0
 40
1.0
 40
1.0
 10
719.2585512002
 20
265.9650459862
 30
0.0
 10
719.2000439768
 20
265.9801887699
 30
0.0
 10
719.0709772381
 20
265.996337121
 30
0.0
 10
718.879647901
 20
265.9969641727
 30
0.0
 10
718.7164783692
 20
265.9740986274
 30
0.0
 10
718.6165391215
 20
265.9449099386
 30
0.0
 10
718.5893381572
 20
265.9186358247
 30
0.0
  0
SPLINE
  5
3E6
100
AcDbEntity
  8
0
100
AcDbSpline
 62
7
  6
CONTINUOUS
 70
0
 71
3
 72
9
 73
5
 74
0
 42
0.0000001
 43
0.0000001
 44
0.0000000001
 40
0.0
 40
0.0
 40
0.0
 40
0.0
 40
0.4915723894
 40
1.0
 40
1.0
 40
1.0
 40
1.0
 10
951.8217379192
 20
296.6744904265
 30
0.0
 10
951.9887758474
 20
296.6312577436
 30
0.0
 10
952.3416636437
 20
296.5881671603
 30
0.0
 10
952.6933281287
 20
296.6353817396
 30
0.0
 10
952.8664723911
 20
296.6786065066
 30
0.0
  0
SPLINE
  5
3E7
100
AcDbEntity
  8
0
100
AcDbSpline
 62
7
  6
CONTINUOUS
 70
0
 71
3
 72
9
 73
5
 74
0
 42
0.0000001
 43
0.0000001
 44
0.0000000001
 40
0.0
 40
0.0
 40
0.0
 40
0.0
 40
0.2526883998
 40
1.0
 40
1.0
 40
1.0
 40
1.0
 10
719.1230214316
 20
264.0652365788
 30
0.0
 10
719.0988417566
 20
263.9885813142
 30
0.0
 10
719.0145824392
 20
263.681775707
 30
0.0
 10
718.9757084877
 20
263.3621824825
 30
0.0
 10
718.9757084877
 20
263.1244679435
 30
0.0
  0
SPLINE
  5
3E8
100
AcDbEntity
  8
0
100
AcDbSpline
 62
7
  6
CONTINUOUS
 70
0
 71
3
 72
9
 73
5
 74
0
 42
0.0000001
 43
0.0000001
 44
0.0000000001
 40
0.0
 40
0.0
 40
0.0
 40
0.0
 40
0.4915723894
 40
1.0
 40
1.0
 40
1.0
 40
1.0
 10
940.5080294202
 20
293.7462871962
 30
0.0
 10
940.6750673484
 20
293.7030545133
 30
0.0
 10
941.0279551447
 20
293.65996393
 30
0.0
 10
941.3796196297
 20
293.7071785093
 30
0.0
 10
941.5527638921
 20
293.7504032763
 30
0.0
  0
SPLINE
  5
3E9
100
AcDbEntity
  8
0
100
AcDbSpline
 62
7
  6
CONTINUOUS
 70
0
 71
3
 72
9
 73
5
 74
0
 42
0.0000001
 43
0.0000001
 44
0.0000000001
 40
0.0
 40
0.0
 40
0.0
 40
0.0
 40
0.2572567601
 40
1.0
 40
1.0
 40
1.0
 40
1.0
 10
909.5538118929
 20
292.7293733781
 30
0.0
 10
909.4907601111
 20
292.7847095813
 30
0.0
 10
909.2346323777
 20
292.9867752011
 30
0.0
 10
908.9311711768
 20
293.1298415566
 30
0.0
 10
908.6966914934
 20
293.1905294848
 30
0.0
  0
SPLINE
  5
3EA
100
AcDbEntity
  8
0
100
AcDbSpline
 62
7
  6
CONTINUOUS
 70
0
 71
3
 72
9
 73
5
 74
0
 42
0.0000001
 43
0.0000001
 44
0.0000000001
 40
0.0
 40
0.0
 40
0.0
 40
0.0
 40
0.4915723894
 40
1.0
 40
1.0
 40
1.0
 40
1.0
 10
929.1943209212
 20
290.8180839659
 30
0.0
 10
929.3613588494
 20
290.7748512831
 30
0.0
 10
929.7142466457
 20
290.7317606997
 30
0.0
 10
930.0659111307
 20
290.778975279
 30
0.0
 10
930.2390553931
 20
290.822200046
 30
0.0
  0
SPLINE
  5
3EB
100
AcDbEntity
  8
0
100
AcDbSpline
 62
7
  6
CONTINUOUS
 70
0
 71
3
 72
9
 73
5
 74
0
 42
0.0000001
 43
0.0000001
 44
0.0000000001
 40
0.0
 40
0.0
 40
0.0
 40
0.0
 40
0.4915723894
 40
1.0
 40
1.0
 40
1.0
 40
1.0
 10
917.8806124222
 20
287.8898807356
 30
0.0
 10
918.0476503504
 20
287.8466480528
 30
0.0
 10
918.4005381467
 20
287.8035574694
 30
0.0
 10
918.7522026317
 20
287.8507720487
 30
0.0
 10
918.9253468942
 20
287.8939968158
 30
0.0
  0
SPLINE
  5
3EC
100
AcDbEntity
  8
0
100
AcDbSpline
 62
7
  6
CONTINUOUS
 70
0
 71
3
 72
9
 73
5
 74
0
 42
0.0000001
 43
0.0000001
 44
0.0000000001
 40
0.0
 40
0.0
 40
0.0
 40
0.0
 40
0.4915723894
 40
1.0
 40
1.0
 40
1.0
 40
1.0
 10
906.5669039233
 20
284.9616775054
 30
0.0
 10
906.7339418515
 20
284.9184448225
 30
0.0
 10
907.0868296477
 20
284.8753542392
 30
0.0
 10
907.4384941327
 20
284.9225688185
 30
0.0
 10
907.6116383952
 20
284.9657935855
 30
0.0
  0
SPLINE
  5
3ED
100
AcDbEntity
  8
0
100
AcDbSpline
 62
7
  6
CONTINUOUS
 70
0
 71
3
 72
9
 73
5
 74
0
 42
0.0000001
 43
0.0000001
 44
0.0000000001
 40
0.0
 40
0.0
 40
0.0
 40
0.0
 40
0.2572567601
 40
1.0
 40
1.0
 40
1.0
 40
1.0
 10
920.8675203919
 20
295.6575766084
 30
0.0
 10
920.80446861
 20
295.7129128115
 30
0.0
 10
920.5483408767
 20
295.9149784313
 30
0.0
 10
920.2448796757
 20
296.0580447869
 30
0.0
 10
920.0103999924
 20
296.1187327151
 30
0.0
  0
SPLINE
  5
3EE
100
AcDbEntity
  8
0
100
AcDbSpline
 62
7
  6
CONTINUOUS
 70
0
 71
3
 72
9
 73
5
 74
0
 42
0.0000001
 43
0.0000001
 44
0.0000000001
 40
0.0
 40
0.0
 40
0.0
 40
0.0
 40
0.2572567601
 40
1.0
 40
1.0
 40
1.0
 40
1.0
 10
932.1812288908
 20
298.5857798387
 30
0.0
 10
932.118177109
 20
298.6411160418
 30
0.0
 10
931.8620493757
 20
298.8431816616
 30
0.0
 10
931.5585881747
 20
298.9862480172
 30
0.0
 10
931.3241084913
 20
299.0469359454
 30
0.0
  0
SPLINE
  5
3EF
100
AcDbEntity
  8
0
100
AcDbSpline
 62
7
  6
CONTINUOUS
 70
0
 71
3
 72
9
 73
5
 74
0
 42
0.0000001
 43
0.0000001
 44
0.0000000001
 40
0.0
 40
0.0
 40
0.0
 40
0.0
 40
0.1705639177
 40
1.0
 40
1.0
 40
1.0
 40
1.0
 10
683.5283371148
 20
913.8760564212
 30
0.0
 10
683.5283371148
 20
913.8946979134
 30
0.0
 10
683.5668602424
 20
914.0030563615
 30
0.0
 10
683.686169466
 20
914.0471511477
 30
0.0
 10
683.7708307141
 20
914.0795582766
 30
0.0
  0
SPLINE
  5
3F0
100
AcDbEntity
  8
0
100
AcDbSpline
 62
7
  6
CONTINUOUS
 70
0
 71
3
 72
8
 73
4
 74
0
 42
0.0000001
 43
0.0000001
 44
0.0000000001
 40
0.0
 40
0.0
 40
0.0
 40
0.0
 40
1.0
 40
1.0
 40
1.0
 40
1.0
 10
683.7708307141
 20
914.0795582766
 30
0.0
 10
683.8255661693
 20
914.1005102351
 30
0.0
 10
683.8818285844
 20
914.1175890971
 30
0.0
 10
683.93856748
 20
914.1322742039
 30
0.0
  0
SPLINE
  5
3F1
100
AcDbEntity
  8
0
100
AcDbSpline
 62
7
  6
CONTINUOUS
 70
0
 71
3
 72
8
 73
4
 74
0
 42
0.0000001
 43
0.0000001
 44
0.0000000001
 40
0.0
 40
0.0
 40
0.0
 40
0.0
 40
1.0
 40
1.0
 40
1.0
 40
1.0
 10
476.1198844892
 20
855.9525362724
 30
0.0
 10
476.3175851713
 20
855.9013675706
 30
0.0
 10
476.5034603807
 20
855.7952557385
 30
0.0
 10
476.6610805894
 20
855.6654109636
 30
0.0
  0
SPLINE
  5
3F2
100
AcDbEntity
  8
0
100
AcDbSpline
 62
7
  6
CONTINUOUS
 70
0
 71
3
 72
8
 73
4
 74
0
 42
0.0000001
 43
0.0000001
 44
0.0000000001
 40
0.0
 40
0.0
 40
0.0
 40
0.0
 40
1.0
 40
1.0
 40
1.0
 40
1.0
 10
476.6610805894
 20
855.6654109636
 30
0.0
 10
476.8428997389
 20
855.515631524
 30
0.0
 10
476.9964155558
 20
855.3285087896
 30
0.0
 10
477.1198844892
 20
855.1278909785
 30
0.0
  0
SPLINE
  5
3F3
100
AcDbEntity
  8
0
100
AcDbSpline
 62
7
  6
CONTINUOUS
 70
0
 71
3
 72
8
 73
4
 74
0
 42
0.0000001
 43
0.0000001
 44
0.0000000001
 40
0.0
 40
0.0
 40
0.0
 40
0.0
 40
1.0
 40
1.0
 40
1.0
 40
1.0
 10
477.1198844892
 20
855.1278909785
 30
0.0
 10
477.1864949045
 20
855.0196594149
 30
0.0
 10
477.2451012205
 20
854.9061709455
 30
0.0
 10
477.2957257983
 20
854.7896026355
 30
0.0
  0
SPLINE
  5
3F4
100
AcDbEntity
  8
0
100
AcDbSpline
 62
7
  6
CONTINUOUS
 70
0
 71
3
 72
8
 73
4
 74
0
 42
0.0000001
 43
0.0000001
 44
0.0000000001
 40
0.0
 40
0.0
 40
0.0
 40
0.0
 40
1.0
 40
1.0
 40
1.0
 40
1.0
 10
477.2957257983
 20
854.7896026355
 30
0.0
 10
477.449714226
 20
854.4350284035
 30
0.0
 10
477.5340980516
 20
854.0412278669
 30
0.0
 10
477.5340980516
 20
853.654659216
 30
0.0
  0
SPLINE
  5
3F5
100
AcDbEntity
  8
0
100
AcDbSpline
 62
7
  6
CONTINUOUS
 70
0
 71
3
 72
9
 73
5
 74
0
 42
0.0000001
 43
0.0000001
 44
0.0000000001
 40
0.0
 40
0.0
 40
0.0
 40
0.0
 40
0.3130942511
 40
1.0
 40
1.0
 40
1.0
 40
1.0
 10
886.3125282555
 20
865.1580751775
 30
0.0
 10
886.3528120122
 20
865.1476489741
 30
0.0
 10
886.4790691761
 20
865.1097671508
 30
0.0
 10
886.6089496139
 20
865.0587905599
 30
0.0
 10
886.6748749187
 20
864.9956396122
 30
0.0
  0
SPLINE
  5
3F6
100
AcDbEntity
  8
0
100
AcDbSpline
 62
7
  6
CONTINUOUS
 70
0
 71
3
 72
9
 73
5
 74
0
 42
0.0000001
 43
0.0000001
 44
0.0000000001
 40
0.0
 40
0.0
 40
0.0
 40
0.0
 40
0.5464674848
 40
1.0
 40
1.0
 40
1.0
 40
1.0
 10
886.6748749187
 20
864.9956396122
 30
0.0
 10
886.6890191084
 20
864.9820906573
 30
0.0
 10
886.7126089864
 20
864.9541427587
 30
0.0
 10
886.7227586207
 20
864.9181129452
 30
0.0
 10
886.7227586207
 20
864.9018573949
 30
0.0
  0
SPLINE
  5
3F7
100
AcDbEntity
  8
0
100
AcDbSpline
 62
7
  6
CONTINUOUS
 70
0
 71
3
 72
9
 73
5
 74
0
 42
0.0000001
 43
0.0000001
 44
0.0000000001
 40
0.0
 40
0.0
 40
0.0
 40
0.0
 40
0.3130942511
 40
1.0
 40
1.0
 40
1.0
 40
1.0
 10
461.05851005
 20
856.4466705675
 30
0.0
 10
461.0182262933
 20
856.436244364
 30
0.0
 10
460.8919691294
 20
856.3983625407
 30
0.0
 10
460.7620886916
 20
856.3473859498
 30
0.0
 10
460.6961633868
 20
856.2842350022
 30
0.0
  0
SPLINE
  5
3F8
100
AcDbEntity
  8
0
100
AcDbSpline
 62
7
  6
CONTINUOUS
 70
0
 71
3
 72
9
 73
5
 74
0
 42
0.0000001
 43
0.0000001
 44
0.0000000001
 40
0.0
 40
0.0
 40
0.0
 40
0.0
 40
0.5464674848
 40
1.0
 40
1.0
 40
1.0
 40
1.0
 10
460.6961633868
 20
856.2842350022
 30
0.0
 10
460.6820191971
 20
856.2706860472
 30
0.0
 10
460.6584293191
 20
856.2427381486
 30
0.0
 10
460.6482796848
 20
856.2067083351
 30
0.0
 10
460.6482796848
 20
856.1904527848
 30
0.0
  0
SPLINE
  5
3F9
100
AcDbEntity
  8
0
100
AcDbSpline
 62
7
  6
CONTINUOUS
 70
0
 71
3
 72
9
 73
5
 74
0
 42
0.0000001
 43
0.0000001
 44
0.0000000001
 40
0.0
 40
0.0
 40
0.0
 40
0.0
 40
0.2170422625
 40
1.0
 40
1.0
 40
1.0
 40
1.0
 10
468.6245526086
 20
857.8924709124
 30
0.0
 10
468.5294011535
 20
857.9170979212
 30
0.0
 10
468.0835422308
 20
858.0001389229
 30
0.0
 10
467.6259521348
 20
858.0109871376
 30
0.0
 10
467.2722564518
 20
857.9862531298
 30
0.0
  0
SPLINE
  5
3FA
100
AcDbEntity
  8
0
100
AcDbSpline
 62
7
  6
CONTINUOUS
 70
0
 71
3
 72
8
 73
4
 74
0
 42
0.0000001
 43
0.0000001
 44
0.0000000001
 40
0.0
 40
0.0
 40
0.0
 40
0.0
 40
1.0
 40
1.0
 40
1.0
 40
1.0
 10
467.2722564518
 20
857.9862531298
 30
0.0
 10
467.1629883219
 20
857.9786119882
 30
0.0
 10
467.0538791285
 20
857.9673216408
 30
0.0
 10
466.9454986665
 20
857.951460155
 30
0.0
  0
SPLINE
  5
3FB
100
AcDbEntity
  8
0
100
AcDbSpline
 62
7
  6
CONTINUOUS
 70
0
 71
3
 72
8
 73
4
 74
0
 42
0.0000001
 43
0.0000001
 44
0.0000000001
 40
0.0
 40
0.0
 40
0.0
 40
0.0
 40
1.0
 40
1.0
 40
1.0
 40
1.0
 10
466.9454986665
 20
857.951460155
 30
0.0
 10
466.8443845238
 20
857.9366620954
 30
0.0
 10
466.7435850099
 20
857.9180762399
 30
0.0
 10
466.6446536213
 20
857.8924709124
 30
0.0
  0
SPLINE
  5
3FC
100
AcDbEntity
  8
0
100
AcDbSpline
 62
7
  6
CONTINUOUS
 70
0
 71
3
 72
9
 73
5
 74
0
 42
0.0000001
 43
0.0000001
 44
0.0000000001
 40
0.0
 40
0.0
 40
0.0
 40
0.0
 40
0.2170422625
 40
1.0
 40
1.0
 40
1.0
 40
1.0
 10
689.5247110513
 20
915.5780745488
 30
0.0
 10
689.6198625065
 20
915.6027015576
 30
0.0
 10
690.0657214292
 20
915.6857425593
 30
0.0
 10
690.5233115252
 20
915.6965907741
 30
0.0
 10
690.8770072081
 20
915.6718567662
 30
0.0
  0
SPLINE
  5
3FD
100
AcDbEntity
  8
0
100
AcDbSpline
 62
7
  6
CONTINUOUS
 70
0
 71
3
 72
8
 73
4
 74
0
 42
0.0000001
 43
0.0000001
 44
0.0000000001
 40
0.0
 40
0.0
 40
0.0
 40
0.0
 40
1.0
 40
1.0
 40
1.0
 40
1.0
 10
690.8770072081
 20
915.6718567662
 30
0.0
 10
690.9862753381
 20
915.6642156246
 30
0.0
 10
691.0953845315
 20
915.6529252772
 30
0.0
 10
691.2037649934
 20
915.6370637914
 30
0.0
  0
SPLINE
  5
3FE
100
AcDbEntity
  8
0
100
AcDbSpline
 62
7
  6
CONTINUOUS
 70
0
 71
3
 72
8
 73
4
 74
0
 42
0.0000001
 43
0.0000001
 44
0.0000000001
 40
0.0
 40
0.0
 40
0.0
 40
0.0
 40
1.0
 40
1.0
 40
1.0
 40
1.0
 10
691.2037649934
 20
915.6370637914
 30
0.0
 10
691.3048791362
 20
915.6222657318
 30
0.0
 10
691.4056786501
 20
915.6036798764
 30
0.0
 10
691.5046100386
 20
915.5780745488
 30
0.0
  0
SPLINE
  5
3FF
100
AcDbEntity
  8
0
100
AcDbSpline
 62
7
  6
CONTINUOUS
 70
0
 71
3
 72
9
 73
5
 74
0
 42
0.0000001
 43
0.0000001
 44
0.0000000001
 40
0.0
 40
0.0
 40
0.0
 40
0.0
 40
0.1705639177
 40
1.0
 40
1.0
 40
1.0
 40
1.0
 10
460.6482796848
 20
856.1904527848
 30
0.0
 10
460.6482796848
 20
856.1718112926
 30
0.0
 10
460.6868028124
 20
856.0634528445
 30
0.0
 10
460.806112036
 20
856.0193580583
 30
0.0
 10
460.8907732841
 20
855.9869509294
 30
0.0
  0
SPLINE
  5
400
100
AcDbEntity
  8
0
100
AcDbSpline
 62
7
  6
CONTINUOUS
 70
0
 71
3
 72
8
 73
4
 74
0
 42
0.0000001
 43
0.0000001
 44
0.0000000001
 40
0.0
 40
0.0
 40
0.0
 40
0.0
 40
1.0
 40
1.0
 40
1.0
 40
1.0
 10
460.8907732841
 20
855.9869509294
 30
0.0
 10
460.9455087393
 20
855.9659989709
 30
0.0
 10
461.0017711544
 20
855.9489201089
 30
0.0
 10
461.05851005
 20
855.9342350022
 30
0.0
  0
SPLINE
  5
401
100
AcDbEntity
  8
0
100
AcDbSpline
 62
7
  6
CONTINUOUS
 70
0
 71
3
 72
9
 73
5
 74
0
 42
0.0000001
 43
0.0000001
 44
0.0000000001
 40
0.0
 40
0.0
 40
0.0
 40
0.0
 40
0.1705639177
 40
1.0
 40
1.0
 40
1.0
 40
1.0
 10
886.7227586207
 20
864.9018573949
 30
0.0
 10
886.7227586207
 20
864.8832159027
 30
0.0
 10
886.6842354931
 20
864.7748574546
 30
0.0
 10
886.5649262695
 20
864.7307626684
 30
0.0
 10
886.4802650214
 20
864.6983555395
 30
0.0
  0
SPLINE
  5
402
100
AcDbEntity
  8
0
100
AcDbSpline
 62
7
  6
CONTINUOUS
 70
0
 71
3
 72
8
 73
4
 74
0
 42
0.0000001
 43
0.0000001
 44
0.0000000001
 40
0.0
 40
0.0
 40
0.0
 40
0.0
 40
1.0
 40
1.0
 40
1.0
 40
1.0
 10
886.4802650214
 20
864.6983555395
 30
0.0
 10
886.4255295662
 20
864.677403581
 30
0.0
 10
886.3692671511
 20
864.660324719
 30
0.0
 10
886.3125282555
 20
864.6456396122
 30
0.0
  0
SPLINE
  5
403
100
AcDbEntity
  8
0
100
AcDbSpline
 62
7
  6
CONTINUOUS
 70
0
 71
3
 72
9
 73
5
 74
0
 42
0.0000001
 43
0.0000001
 44
0.0000000001
 40
0.0
 40
0.0
 40
0.0
 40
0.0
 40
0.2170422625
 40
1.0
 40
1.0
 40
1.0
 40
1.0
 10
655.8664282668
 20
805.5142356309
 30
0.0
 10
655.961579722
 20
805.4896086221
 30
0.0
 10
656.4074386447
 20
805.4065676204
 30
0.0
 10
656.8650287407
 20
805.3957194057
 30
0.0
 10
657.2187244237
 20
805.4204534135
 30
0.0
  0
SPLINE
  5
404
100
AcDbEntity
  8
0
100
AcDbSpline
 62
7
  6
CONTINUOUS
 70
0
 71
3
 72
8
 73
4
 74
0
 42
0.0000001
 43
0.0000001
 44
0.0000000001
 40
0.0
 40
0.0
 40
0.0
 40
0.0
 40
1.0
 40
1.0
 40
1.0
 40
1.0
 10
657.2187244237
 20
805.4204534135
 30
0.0
 10
657.3279925536
 20
805.4280945551
 30
0.0
 10
657.437101747
 20
805.4393849025
 30
0.0
 10
657.545482209
 20
805.4552463883
 30
0.0
  0
SPLINE
  5
405
100
AcDbEntity
  8
0
100
AcDbSpline
 62
7
  6
CONTINUOUS
 70
0
 71
3
 72
8
 73
4
 74
0
 42
0.0000001
 43
0.0000001
 44
0.0000000001
 40
0.0
 40
0.0
 40
0.0
 40
0.0
 40
1.0
 40
1.0
 40
1.0
 40
1.0
 10
657.545482209
 20
805.4552463883
 30
0.0
 10
657.6465963517
 20
805.4700444479
 30
0.0
 10
657.7473958656
 20
805.4886303033
 30
0.0
 10
657.8463272542
 20
805.5142356309
 30
0.0
  0
SPLINE
  5
406
100
AcDbEntity
  8
0
100
AcDbSpline
 62
7
  6
CONTINUOUS
 70
0
 71
3
 72
9
 73
5
 74
0
 42
0.0000001
 43
0.0000001
 44
0.0000000001
 40
0.0
 40
0.0
 40
0.0
 40
0.0
 40
0.3130942511
 40
1.0
 40
1.0
 40
1.0
 40
1.0
 10
683.93856748
 20
913.6198386386
 30
0.0
 10
683.8982837233
 20
913.630264842
 30
0.0
 10
683.7720265594
 20
913.6681466653
 30
0.0
 10
683.6421461216
 20
913.7191232562
 30
0.0
 10
683.5762208168
 20
913.7822742039
 30
0.0
  0
SPLINE
  5
407
100
AcDbEntity
  8
0
100
AcDbSpline
 62
7
  6
CONTINUOUS
 70
0
 71
3
 72
9
 73
5
 74
0
 42
0.0000001
 43
0.0000001
 44
0.0000000001
 40
0.0
 40
0.0
 40
0.0
 40
0.0
 40
0.5464674848
 40
1.0
 40
1.0
 40
1.0
 40
1.0
 10
683.5762208168
 20
913.7822742039
 30
0.0
 10
683.5620766271
 20
913.7958231588
 30
0.0
 10
683.5384867491
 20
913.8237710575
 30
0.0
 10
683.5283371148
 20
913.859800871
 30
0.0
 10
683.5283371148
 20
913.8760564212
 30
0.0
  0
SPLINE
  5
408
100
AcDbEntity
  8
0
100
AcDbSpline
 62
7
  6
CONTINUOUS
 70
0
 71
3
 72
8
 73
4
 74
0
 42
0.0000001
 43
0.0000001
 44
0.0000000001
 40
0.0
 40
0.0
 40
0.0
 40
0.0
 40
1.0
 40
1.0
 40
1.0
 40
1.0
 10
692.8481129229
 20
909.3820269422
 30
0.0
 10
692.8481129229
 20
909.7685955931
 30
0.0
 10
692.7637290973
 20
910.1623961297
 30
0.0
 10
692.6097406696
 20
910.5169703617
 30
0.0
  0
SPLINE
  5
409
100
AcDbEntity
  8
0
100
AcDbSpline
 62
7
  6
CONTINUOUS
 70
0
 71
3
 72
8
 73
4
 74
0
 42
0.0000001
 43
0.0000001
 44
0.0000000001
 40
0.0
 40
0.0
 40
0.0
 40
0.0
 40
1.0
 40
1.0
 40
1.0
 40
1.0
 10
692.6097406696
 20
910.5169703617
 30
0.0
 10
692.5591160919
 20
910.6335386717
 30
0.0
 10
692.5005097758
 20
910.7470271411
 30
0.0
 10
692.4338993605
 20
910.8552587046
 30
0.0
  0
SPLINE
  5
40A
100
AcDbEntity
  8
0
100
AcDbSpline
 62
7
  6
CONTINUOUS
 70
0
 71
3
 72
9
 73
5
 74
0
 42
0.0000001
 43
0.0000001
 44
0.0000000001
 40
0.0
 40
0.0
 40
0.0
 40
0.0
 40
0.2687304421
 40
1.0
 40
1.0
 40
1.0
 40
1.0
 10
692.4338993605
 20
910.8552587046
 30
0.0
 10
692.3860651936
 20
910.9329817853
 30
0.0
 10
692.193151388
 20
911.2119515993
 30
0.0
 10
691.9338029877
 20
911.4510718544
 30
0.0
 10
691.7149110984
 20
911.5683831177
 30
0.0
  0
SPLINE
  5
40B
100
AcDbEntity
  8
0
100
AcDbSpline
 62
7
  6
CONTINUOUS
 70
0
 71
3
 72
8
 73
4
 74
0
 42
0.0000001
 43
0.0000001
 44
0.0000000001
 40
0.0
 40
0.0
 40
0.0
 40
0.0
 40
1.0
 40
1.0
 40
1.0
 40
1.0
 10
691.7149110984
 20
911.5683831177
 30
0.0
 10
691.6260860301
 20
911.6159873529
 30
0.0
 10
691.53146186
 20
911.6546529656
 30
0.0
 10
691.4338993605
 20
911.6799039985
 30
0.0
  0
ENDSEC
  0
SECTION
  2
OBJECTS
  0
DICTIONARY
  5
C
100
AcDbDictionary
280
0
281
1
  3
ACAD_GROUP
350
D
  3
ACAD_MLINESTYLE
350
17
  3
ACAD_LAYOUT
350
1A
  3
ACAD_PLOTSETTINGS
350
19
  3
ACAD_PLOTSTYLENAME
350
E
  0
DICTIONARY
  5
D
102
{ACAD_REACTORS
330
C
102
}
100
AcDbDictionary
280
0
281
1
  0
ACDBDICTIONARYWDFLT
  5
E
102
{ACAD_REACTORS
330
C
102
}
100
AcDbDictionary
281
1
  3
Normal
350
F
100
AcDbDictionaryWithDefault
340
F
  0
DICTIONARY
  5
17
102
{ACAD_REACTORS
330
C
102
}
100
AcDbDictionary
280
0
281
1
  3
Standard
350
18
  0
DICTIONARY
  5
19
102
{ACAD_REACTORS
330
C
102
}
100
AcDbDictionary
281
1
  0
DICTIONARY
  5
1A
102
{ACAD_REACTORS
330
C
102
}
100
AcDbDictionary
281
1
  3
Model
350
40C
  3
Layout1
350
40D
  0
ACDBPLACEHOLDER
  5
F
102
{ACAD_REACTORS
330
E
102
}
  0
MLINESTYLE
  5
18
102
{ACAD_REACTORS
330
17
102
}
100
AcDbMlineStyle
  2
STANDARD
 70
0
  3

 62
256
 51
90.0
 52
90.0
 71
2
 49
0.5
 62
256
  6
BYLAYER
 49
-0.5
 62
256
  6
BYLAYER
  0
LAYOUT
  5
40C
102
{ACAD_REACTORS
330
1A
102
}
100
AcDbPlotSettings
  1

  2
none_device
  4

  6

 40
0.0
 41
0.0
 42
0.0
 43
0.0
 44
1500.0
 45
1100.0
 46
0.0
 47
0.0
 48
0.0
 49
0.0
140
0.0
141
0.0
142
1.0
143
1.0
 70
1024
 72
1
 73
0
 74
0
  7

 75
0
147
1.0
148
0.0
149
0.0
100
AcDbLayout
  1
Model
 70
0
 71
0
 10
0.0
 20
0.0
 11
1500.0
 21
1100.0
 12
0.0
 22
0.0
 32
0.0
 14
0.0
 24
0.0
 34
0.0
 15
0.0
 25
0.0
 35
0.0
146
0.0
 13
0.0
 23
0.0
 33
0.0
 16
1.0
 26
0.0
 36
0.0
 17
0.0
 27
1.0
 37
0.0
 76
0
330
1FF
345
0
346
0
  0
LAYOUT
  5
40D
102
{ACAD_REACTORS
330
1A
102
}
100
AcDbPlotSettings
  1

  2
none_device
  4

  6

 40
0.0
 41
0.0
 42
0.0
 43
0.0
 44
1500.0
 45
1100.0
 46
0.0
 47
0.0
 48
0.0
 49
0.0
140
0.0
141
0.0
142
1.0
143
1.0
 70
0
 72
1
 73
0
 74
0
  7

 75
0
147
1.0
148
0.0
149
0.0
100
AcDbLayout
  1
Layout1
 70
0
 71
1
 10
0.0
 20
0.0
 11
1500.0
 21
1100.0
 12
0.0
 22
0.0
 32
0.0
 14
0.0
 24
0.0
 34
0.0
 15
0.0
 25
0.0
 35
0.0
146
0.0
 13
0.0
 23
0.0
 33
0.0
 16
1.0
 26
0.0
 36
0.0
 17
0.0
 27
1.0
 37
0.0
 76
0
330
200
345
0
346
0
  0
ENDSEC
  0
EOF
