999
DXF file: S:\Engenharia\Wildfire\Engenharia\Montagens\Fornos\Forno_Arçelik_F12\Desenhos_manual_ilustrativos\94879_220.dxf
999
Pro/ENGINEER 2013050 by Parametric Technology Corporation
  0
SECTION
  2
HEADER
  9
$ACADVER
  1
AC1021
  9
$DWGCODEPAGE
  3
ANSI_1252
  9
$EXTMAX
 10
1600.0
 20
841.0
 30
0.0
  9
$EXTMIN
 10
0.0
 20
0.0
 30
0.0
  9
$LIMMIN
 10
0.0
 20
0.0
  9
$LIMMAX
 10
1600.0
 20
841.0
  9
$VIEWCTR
 10
800.0
 20
420.5
  9
$VIEWSIZE
 40
841.0
  9
$CLAYER
  8
0
  9
$LTSCALE
 40
88.0
  9
$CELTYPE
  6
BYLAYER
  9
$DIMSCALE
 40
1.0
  9
$DIMASZ
 40
3.0
  9
$DIMEXO
 40
0.5
  9
$DIMDLI
 40
60.8
  9
$DIMEXE
 40
0.5
  9
$DIMCEN
 40
14.4
  9
$DIMLFAC
 40
1.0
  9
$DIMBLK
  1
_FILLED
  9
$DIMTXT
 40
1.8
  9
$DIMTOL
 70
1
  9
$DIMLIM
 70
0
  9
$DIMTFAC
 40
1.0
  9
$DIMTP
 40
0.001
  9
$DIMTM
 40
0.001
  9
$DIMGAP
 40
0.625
  9
$DIMDSEP
 70
46
  9
$PDMODE
 70
3
  9
$PDSIZE
 40
1.0
  9
$HANDSEED
  5
742
  9
$TILEMODE
 70
1
  9
$MEASUREMENT
 70
1
  9
$INSUNITS
 70
4
  0
ENDSEC
  0
SECTION
  2
CLASSES
  0
CLASS
  1
ACDBDICTIONARYWDFLT
  2
AcDbDictionaryWithDefault
  3
AutoCAD 2000
 90
0
 91
1
280
0
281
0
  0
CLASS
  1
ACDBPLACEHOLDER
  2
AcDbPlaceHolder
  3
AutoCAD 2000
 90
0
 91
1
280
0
281
0
  0
CLASS
  1
LAYOUT
  2
AcDbLayout
  3
AutoCAD 2000
 90
0
 91
0
280
0
281
0
  0
ENDSEC
  0
SECTION
  2
TABLES
  0
TABLE
  2
VPORT
  5
8
100
AcDbSymbolTable
 70
2
  0
VPORT
  5
1F4
100
AcDbSymbolTableRecord
100
AcDbViewportTableRecord
  2
*ACTIVE
 70
0
 10
0.0
 20
0.0
 11
1.0
 21
1.0
 12
800.0
 22
420.5
 13
0.0
 23
0.0
 14
1.0
 24
1.0
 15
0.0
 25
0.0
 16
0.0
 26
0.0
 36
1.0
 17
0.0
 27
0.0
 37
0.0
 40
841.0
 41
1.9024970273
 42
50.0
 43
0.0
 44
0.0
 50
0.0
 51
0.0
 71
0
 72
100
 73
1
 74
1
 75
0
 76
0
 77
0
 78
0
  0
ENDTAB
  0
TABLE
  2
LTYPE
  5
5
100
AcDbSymbolTable
 70
6
  0
LTYPE
  5
14
100
AcDbSymbolTableRecord
100
AcDbLinetypeTableRecord
  2
BYBLOCK
 70
0
  3

 72
65
 73
0
 40
0.0
  0
LTYPE
  5
15
100
AcDbSymbolTableRecord
100
AcDbLinetypeTableRecord
  2
BYLAYER
 70
0
  3

 72
65
 73
0
 40
0.0
  0
LTYPE
  5
16
100
AcDbSymbolTableRecord
100
AcDbLinetypeTableRecord
  2
CONTINUOUS
 70
64
  3
Solid line
 72
65
 73
0
 40
0.0
  0
LTYPE
  5
1F5
100
AcDbSymbolTableRecord
100
AcDbLinetypeTableRecord
  2
CENTER
 70
64
  3
____ _ ____ _ ____ _ ____ _ ____ _ ____ _ ____
 72
65
 73
4
 40
0.6
 49
0.375
 74
0
 49
-0.075
 74
0
 49
0.075
 74
0
 49
-0.075
 74
0
  0
LTYPE
  5
1F6
100
AcDbSymbolTableRecord
100
AcDbLinetypeTableRecord
  2
HIDDEN
 70
64
  3
- - - - - - - - - - - - - - - - - - - -
 72
65
 73
2
 40
0.2
 49
0.1
 74
0
 49
-0.1
 74
0
  0
LTYPE
  5
1F7
100
AcDbSymbolTableRecord
100
AcDbLinetypeTableRecord
  2
PHANTOM
 70
64
  3
_____ _ _ _____ _ _ _____ _ _ _____
 72
65
 73
6
 40
0.8
 49
0.45
 74
0
 49
-0.05
 74
0
 49
0.1
 74
0
 49
-0.05
 74
0
 49
0.1
 74
0
 49
-0.05
 74
0
  0
LTYPE
  5
1F8
100
AcDbSymbolTableRecord
100
AcDbLinetypeTableRecord
  2
DOT
 70
64
  3
. . . . . . . . . . . . . . . . . . . .
 72
65
 73
2
 40
0.2
 49
0.1
 74
0
 49
-0.1
 74
0
  0
LTYPE
  5
1F9
100
AcDbSymbolTableRecord
100
AcDbLinetypeTableRecord
  2
DASHED
 70
64
  3
- - - - - - - - - - - - - - - - - - - -
 72
65
 73
2
 40
0.2
 49
0.1
 74
0
 49
-0.1
 74
0
  0
ENDTAB
  0
TABLE
  2
LAYER
  5
2
100
AcDbSymbolTable
 70
36
  0
LAYER
  5
10
100
AcDbSymbolTableRecord
100
AcDbLayerTableRecord
  2
0
 70
0
 62
7
  6
CONTINUOUS
370
-3
390
F
  0
LAYER
  5
1FA
100
AcDbSymbolTableRecord
100
AcDbLayerTableRecord
  2
DEFAULT_1
 70
0
 62
7
  6
CENTER
370
-3
390
F
  0
LAYER
  5
1FB
100
AcDbSymbolTableRecord
100
AcDbLayerTableRecord
  2
DEFAULT_2
 70
0
 62
8
  6
HIDDEN
370
-3
390
F
  0
LAYER
  5
1FC
100
AcDbSymbolTableRecord
100
AcDbLayerTableRecord
  2
DEFAULT_3
 70
0
 62
7
  6
PHANTOM
370
-3
390
F
  0
ENDTAB
  0
TABLE
  2
STYLE
  5
3
100
AcDbSymbolTable
 70
1
  0
STYLE
  5
11
100
AcDbSymbolTableRecord
100
AcDbTextStyleTableRecord
  2
STANDARD
 70
0
 40
0.0
 41
0.8
 50
0.0
 71
0
 42
0.2
  3
txt
  4

  0
STYLE
  5
1FD
100
AcDbSymbolTableRecord
100
AcDbTextStyleTableRecord
  2
TEXTSTYLE_1
 70
0
 40
0.0
 41
0.8
 50
0.0
 71
0
 42
0.2
  3
gdt
  4

  0
ENDTAB
  0
TABLE
  2
VIEW
  5
6
100
AcDbSymbolTable
 70
0
  0
ENDTAB
  0
TABLE
  2
UCS
  5
7
100
AcDbSymbolTable
 70
0
  0
ENDTAB
  0
TABLE
  2
APPID
  5
9
100
AcDbSymbolTable
 70
1
  0
APPID
  5
1FE
100
AcDbSymbolTableRecord
100
AcDbRegAppTableRecord
  2
ACAD
 70
0
  0
ENDTAB
  0
TABLE
  2
BLOCK_RECORD
  5
1
100
AcDbSymbolTable
 70
0
  0
BLOCK_RECORD
  5
1FF
100
AcDbSymbolTableRecord
100
AcDbBlockTableRecord
  2
*Model_Space
  0
BLOCK_RECORD
  5
200
100
AcDbSymbolTableRecord
100
AcDbBlockTableRecord
  2
*Paper_Space
  0
BLOCK_RECORD
  5
201
100
AcDbSymbolTableRecord
100
AcDbBlockTableRecord
  2
_FILLED
  0
BLOCK_RECORD
  5
202
100
AcDbSymbolTableRecord
100
AcDbBlockTableRecord
  2
*D0
  0
BLOCK_RECORD
  5
203
100
AcDbSymbolTableRecord
100
AcDbBlockTableRecord
  2
*D1
  0
BLOCK_RECORD
  5
204
100
AcDbSymbolTableRecord
100
AcDbBlockTableRecord
  2
*D2
  0
ENDTAB
  0
TABLE
  2
DIMSTYLE
  5
A
100
AcDbSymbolTable
 70
1
100
AcDbDimStyleTable
 71
0
  0
DIMSTYLE
105
205
100
AcDbSymbolTableRecord
100
AcDbDimStyleTableRecord
  2
STANDARD
 70
0
  3

  4

 40
1.0
 41
3.0
 42
0.5
 43
0.38
 44
0.5
 45
0.0
 46
0.0
 47
0.001
 48
0.001
140
1.8
141
0.09
142
0.0
143
25.4
144
1.0
145
0.0
146
1.0
147
0.625
 71
1.0
 72
0.0
 73
0
 74
0
 75
0
 76
0
 77
1
 78
8
170
0
171
2
172
0
173
0
174
0
175
0
176
0
177
0
178
0
270
2
271
3
272
3
273
2
274
2
275
0
280
0
281
0
282
0
283
1
284
8
285
0
286
0
287
3
288
0
340
11
278
46
341
201
342
201
343
201
344
201
  0
DIMSTYLE
105
206
100
AcDbSymbolTableRecord
100
AcDbDimStyleTableRecord
  2
DIMSTYLE_1
 70
0
  3

  4

 40
1.0
 41
3.0
 42
0.5
 43
0.38
 44
0.5
 45
0.0
 46
0.0
 47
0.8
 48
0.8
140
8.0
141
0.09
142
0.0
143
25.4
144
1.0
145
0.0
146
1.0
147
2.0
 71
0.0
 72
0.0
 73
0
 74
0
 75
0
 76
0
 77
1
 78
8
170
0
171
2
172
0
173
0
174
0
175
0
176
0
177
0
178
0
270
2
271
3
272
3
273
2
274
2
275
0
280
0
281
0
282
0
283
1
284
8
285
0
286
0
287
3
288
0
340
11
278
46
341
201
342
201
343
201
344
201
  0
ENDTAB
  0
ENDSEC
  0
SECTION
  2
BLOCKS
  0
BLOCK
  5
20
100
AcDbEntity
  8
0
100
AcDbBlockBegin
  2
*Model_Space
 70
0
 10
0.0
 20
0.0
 30
0.0
  3
*Model_Space
  1

  0
ENDBLK
  5
21
100
AcDbEntity
  8
0
100
AcDbBlockEnd
  0
BLOCK
  5
1C
100
AcDbEntity
  8
0
100
AcDbBlockBegin
  2
*Paper_Space
 70
0
 10
0.0
 20
0.0
 30
0.0
  3
*Paper_Space
  1

  0
ENDBLK
  5
1D
100
AcDbEntity
  8
0
100
AcDbBlockEnd
  0
BLOCK
  5
207
100
AcDbEntity
  8
0
100
AcDbBlockBegin
  2
_FILLED
 70
64
 10
0.0
 20
0.0
  3
_FILLED
  1

  0
SOLID
  5
208
100
AcDbEntity
  8
0
  6
BYBLOCK
 62
0
100
AcDbTrace
 10
0.0
 20
0.0
 11
-1.0
 21
0.1666666667
 12
-1.0
 22
-0.1666666667
 13
-1.0
 23
-0.1666666667
  0
ENDBLK
  5
209
100
AcDbEntity
  8
0
  6
BYBLOCK
 62
0
100
AcDbBlockEnd
  0
BLOCK
  5
20A
100
AcDbEntity
  8
0
100
AcDbBlockBegin
 62
2
  6
CONTINUOUS
  2
*D0
 70
65
 10
0.0
 20
0.0
  3
*D0
  1

  0
MTEXT
  5
20B
100
AcDbEntity
  8
0
100
AcDbMText
 62
2
  6
CONTINUOUS
  7
STANDARD
 71
2
 72
1
 10
438.9040234243
 20
108.2398258206
 30
0.0
 11
1.0
 21
0.0
 31
0.0
 44
0.9
  1
594
 40
8.0
 41
37.0285714286
  0
LINE
  5
20C
100
AcDbEntity
  8
0
100
AcDbLine
 62
2
  6
CONTINUOUS
 10
141.9040234243
 20
139.9160126828
 11
141.9040234243
 21
96.3112543921
  0
LINE
  5
20D
100
AcDbEntity
  8
0
100
AcDbLine
 62
2
  6
CONTINUOUS
 10
735.9040234243
 20
139.9160126828
 11
735.9040234243
 21
96.3112543921
  0
LINE
  5
20E
100
AcDbEntity
  8
0
100
AcDbLine
 62
2
  6
CONTINUOUS
 10
141.9040234243
 20
96.8112543921
 11
438.9040234243
 21
96.8112543921
  0
LINE
  5
20F
100
AcDbEntity
  8
0
100
AcDbLine
 62
2
  6
CONTINUOUS
 10
735.9040234243
 20
96.8112543921
 11
438.9040234243
 21
96.8112543921
  0
INSERT
  5
210
100
AcDbEntity
  8
0
100
AcDbBlockReference
 62
2
  6
CONTINUOUS
  2
_FILLED
 10
141.9040234243
 20
96.8112543921
 41
3.0
 42
3.0
 43
3.0
 50
180.0
  0
INSERT
  5
211
100
AcDbEntity
  8
0
100
AcDbBlockReference
 62
2
  6
CONTINUOUS
  2
_FILLED
 10
735.9040234243
 20
96.8112543921
 41
3.0
 42
3.0
 43
3.0
  0
ENDBLK
  5
212
100
AcDbEntity
  8
0
  6
BYBLOCK
 62
0
100
AcDbBlockEnd
  0
BLOCK
  5
213
100
AcDbEntity
  8
0
100
AcDbBlockBegin
 62
2
  6
CONTINUOUS
  2
*D1
 70
65
 10
0.0
 20
0.0
  3
*D1
  1

  0
MTEXT
  5
214
100
AcDbEntity
  8
0
100
AcDbMText
 62
2
  6
CONTINUOUS
  7
STANDARD
 71
2
 72
1
 10
1170.870241926
 20
101.7937708591
 30
0.0
 11
1.0
 21
0.0
 31
0.0
 44
0.9
  1
567
 40
8.0
 41
37.0285714286
  0
LINE
  5
215
100
AcDbEntity
  8
0
100
AcDbLine
 62
2
  6
CONTINUOUS
 10
1454.3704112809
 20
140.8553525111
 11
1454.3704112809
 21
89.8651994305
  0
LINE
  5
216
100
AcDbEntity
  8
0
100
AcDbLine
 62
2
  6
CONTINUOUS
 10
887.3700725712
 20
244.493739572
 11
887.3700725712
 21
89.8651994305
  0
LINE
  5
217
100
AcDbEntity
  8
0
100
AcDbLine
 62
2
  6
CONTINUOUS
 10
1454.3704112809
 20
90.3651994305
 11
1170.870241926
 21
90.3651994305
  0
LINE
  5
218
100
AcDbEntity
  8
0
100
AcDbLine
 62
2
  6
CONTINUOUS
 10
887.3700725712
 20
90.3651994305
 11
1170.870241926
 21
90.3651994305
  0
INSERT
  5
219
100
AcDbEntity
  8
0
100
AcDbBlockReference
 62
2
  6
CONTINUOUS
  2
_FILLED
 10
1454.3704112809
 20
90.3651994305
 41
3.0
 42
3.0
 43
3.0
  0
INSERT
  5
21A
100
AcDbEntity
  8
0
100
AcDbBlockReference
 62
2
  6
CONTINUOUS
  2
_FILLED
 10
887.3700725712
 20
90.3651994305
 41
3.0
 42
3.0
 43
3.0
 50
180.0
  0
ENDBLK
  5
21B
100
AcDbEntity
  8
0
  6
BYBLOCK
 62
0
100
AcDbBlockEnd
  0
BLOCK
  5
21C
100
AcDbEntity
  8
0
100
AcDbBlockBegin
 62
2
  6
CONTINUOUS
  2
*D2
 70
65
 10
0.0
 20
0.0
  3
*D2
  1

  0
MTEXT
  5
21D
100
AcDbEntity
  8
0
100
AcDbMText
 62
2
  6
CONTINUOUS
  7
STANDARD
 71
2
 72
1
 10
104.0057589871
 20
424.3553984151
 30
0.0
 11
0.0
 21
1.0
 31
0.0
 44
0.9
  1
595
 40
8.0
 41
37.0285714286
  0
LINE
  5
21E
100
AcDbEntity
  8
0
100
AcDbLine
 62
2
  6
CONTINUOUS
 10
166.704427766
 20
126.8554443191
 11
114.9343304156
 21
126.8554443191
  0
LINE
  5
21F
100
AcDbEntity
  8
0
100
AcDbLine
 62
2
  6
CONTINUOUS
 10
144.1717903773
 20
721.8553525111
 11
114.9343304156
 21
721.8553525111
  0
LINE
  5
220
100
AcDbEntity
  8
0
100
AcDbLine
 62
2
  6
CONTINUOUS
 10
115.4343304156
 20
126.8554443191
 11
115.4343304156
 21
424.3553984151
  0
LINE
  5
221
100
AcDbEntity
  8
0
100
AcDbLine
 62
2
  6
CONTINUOUS
 10
115.4343304156
 20
721.8553525111
 11
115.4343304156
 21
424.3553984151
  0
INSERT
  5
222
100
AcDbEntity
  8
0
100
AcDbBlockReference
 62
2
  6
CONTINUOUS
  2
_FILLED
 10
115.4343304156
 20
126.8554443191
 41
3.0
 42
3.0
 43
3.0
 50
270.0
  0
INSERT
  5
223
100
AcDbEntity
  8
0
100
AcDbBlockReference
 62
2
  6
CONTINUOUS
  2
_FILLED
 10
115.4343304156
 20
721.8553525111
 41
3.0
 42
3.0
 43
3.0
 50
90.0
  0
ENDBLK
  5
224
100
AcDbEntity
  8
0
  6
BYBLOCK
 62
0
100
AcDbBlockEnd
  0
ENDSEC
  0
SECTION
  2
ENTITIES
  0
DIMENSION
  5
225
100
AcDbEntity
  8
0
100
AcDbDimension
 62
2
  6
CONTINUOUS
  2
*D0
 10
735.9040234243
 20
96.8112543921
 11
438.9040234243
 21
96.8112543921
 70
160
 71
2
 42
594.0
  3
DIMSTYLE_1
100
AcDbAlignedDimension
 13
141.9040234243
 23
140.4160126828
 14
735.9040234243
 24
140.4160126828
100
AcDbRotatedDimension
  0
DIMENSION
  5
226
100
AcDbEntity
  8
0
100
AcDbDimension
 62
2
  6
CONTINUOUS
  2
*D1
 10
887.3700725712
 20
90.3651994305
 11
1170.870241926
 21
90.3651994305
 70
160
 71
2
 42
567.0003387097
  3
DIMSTYLE_1
100
AcDbAlignedDimension
 13
1454.3704112809
 23
141.3553525111
 14
887.3700725712
 24
244.993739572
 50
180.0
100
AcDbRotatedDimension
  0
DIMENSION
  5
227
100
AcDbEntity
  8
0
100
AcDbDimension
 62
2
  6
CONTINUOUS
  2
*D2
 10
115.4343304156
 20
721.8553525111
 11
115.4343304156
 21
424.3553984151
 70
160
 71
2
 42
594.9999081919
  3
DIMSTYLE_1
100
AcDbAlignedDimension
 13
167.204427766
 23
126.8554443191
 14
144.6717903773
 24
721.8553525111
 50
90.0
100
AcDbRotatedDimension
  0
LINE
  5
228
100
AcDbEntity
  8
0
100
AcDbLine
 62
7
  6
CONTINUOUS
 10
143.6717903773
 20
646.8553525111
 11
144.500217502
 21
648.8553525111
  0
LINE
  5
229
100
AcDbEntity
  8
0
100
AcDbLine
 62
7
  6
CONTINUOUS
 10
141.9040234243
 20
720.0875855581
 11
143.6717903773
 21
721.8553525111
  0
LINE
  5
22A
100
AcDbEntity
  8
0
100
AcDbLine
 62
7
  6
CONTINUOUS
 10
144.500217502
 20
719.8553525111
 11
143.9040234243
 21
719.2591584334
  0
LINE
  5
22B
100
AcDbEntity
  8
0
100
AcDbLine
 62
7
  6
CONTINUOUS
 10
141.9040234243
 20
140.4160126828
 11
142.9646835961
 21
139.3553525111
  0
LINE
  5
22C
100
AcDbEntity
  8
0
100
AcDbLine
 62
7
  6
CONTINUOUS
 10
141.9040234243
 20
140.4160126828
 11
141.9040234243
 21
720.0875855581
  0
LINE
  5
22D
100
AcDbEntity
  8
0
100
AcDbLine
 62
7
  6
CONTINUOUS
 10
143.6717903773
 20
646.8553525111
 11
143.6717903773
 21
639.4845915102
  0
LINE
  5
22E
100
AcDbEntity
  8
0
100
AcDbLine
 62
7
  6
CONTINUOUS
 10
143.9040234243
 20
719.2591584334
 11
143.9040234243
 21
649.4515465888
  0
LINE
  5
22F
100
AcDbEntity
  8
0
100
AcDbLine
 62
7
  6
CONTINUOUS
 10
143.9040234243
 20
637.3553525111
 11
143.9040234243
 21
141.3553525111
  0
LINE
  5
230
100
AcDbEntity
  8
0
100
AcDbLine
 62
7
  6
CONTINUOUS
 10
153.812520876
 20
646.8553525111
 11
153.812520876
 21
639.3553525111
  0
LINE
  5
231
100
AcDbEntity
  8
0
100
AcDbLine
 62
7
  6
CONTINUOUS
 10
155.698333375
 20
646.8553525111
 11
155.698333375
 21
639.4845915102
  0
LINE
  5
232
100
AcDbEntity
  8
0
100
AcDbLine
 62
7
  6
CONTINUOUS
 10
166.404427766
 20
127.6554443191
 11
166.404427766
 21
139.3553525111
  0
LINE
  5
233
100
AcDbEntity
  8
0
100
AcDbLine
 62
7
  6
CONTINUOUS
 10
168.904427766
 20
139.3553525111
 11
168.904427766
 21
134.8554443191
  0
LINE
  5
234
100
AcDbEntity
  8
0
100
AcDbLine
 62
7
  6
CONTINUOUS
 10
171.404427766
 20
139.3553525111
 11
171.404427766
 21
137.9554443191
  0
LINE
  5
235
100
AcDbEntity
  8
0
100
AcDbLine
 62
7
  6
CONTINUOUS
 10
172.404427766
 20
126.8554443191
 11
172.404427766
 21
139.3553525111
  0
LINE
  5
236
100
AcDbEntity
  8
0
100
AcDbLine
 62
7
  6
CONTINUOUS
 10
172.804427766
 20
139.3553525111
 11
172.804427766
 21
134.8554443191
  0
LINE
  5
237
100
AcDbEntity
  8
0
100
AcDbLine
 62
7
  6
CONTINUOUS
 10
142.9646835961
 20
639.3553525111
 11
141.9040234243
 21
638.2946923393
  0
LINE
  5
238
100
AcDbEntity
  8
0
100
AcDbLine
 62
7
  6
CONTINUOUS
 10
201.2592249204
 20
622.0557535506
 11
201.2592249204
 21
596.6557535507
  0
LINE
  5
239
100
AcDbEntity
  8
0
100
AcDbLine
 62
7
  6
CONTINUOUS
 10
212.9040234243
 20
563.3553525111
 11
212.9040234243
 21
229.3553525111
  0
LINE
  5
23A
100
AcDbEntity
  8
0
100
AcDbLine
 62
7
  6
CONTINUOUS
 10
278.504427766
 20
134.8554443191
 11
278.504427766
 21
138.2554443191
  0
LINE
  5
23B
100
AcDbEntity
  8
0
100
AcDbLine
 62
7
  6
CONTINUOUS
 10
283.904427766
 20
134.8554443191
 11
283.904427766
 21
138.2554443191
  0
LINE
  5
23C
100
AcDbEntity
  8
0
100
AcDbLine
 62
2
  6
CONTINUOUS
 10
367.2410234243
 20
695.8093525111
 11
367.3140234243
 21
695.8823525111
  0
LINE
  5
23D
100
AcDbEntity
  8
0
100
AcDbLine
 62
2
  6
CONTINUOUS
 10
364.1737032288
 20
698.7603956914
 11
361.6010234243
 21
696.3093525111
  0
LINE
  5
23E
100
AcDbEntity
  8
0
100
AcDbLine
 62
2
  6
CONTINUOUS
 10
363.8900234243
 20
699.1803525111
 11
361.0320234243
 21
696.4583525111
  0
LINE
  5
23F
100
AcDbEntity
  8
0
100
AcDbLine
 62
7
  6
CONTINUOUS
 10
327.5580176045
 20
139.2554443191
 11
328.0198978198
 21
138.4554443191
  0
LINE
  5
240
100
AcDbEntity
  8
0
100
AcDbLine
 62
7
  6
CONTINUOUS
 10
340.5580176045
 20
139.2554443191
 11
341.0198978198
 21
138.4554443191
  0
LINE
  5
241
100
AcDbEntity
  8
0
100
AcDbLine
 62
7
  6
CONTINUOUS
 10
353.5580176045
 20
139.2554443191
 11
354.0198978198
 21
138.4554443191
  0
LINE
  5
242
100
AcDbEntity
  8
0
100
AcDbLine
 62
7
  6
CONTINUOUS
 10
366.5580176045
 20
139.2554443191
 11
367.0198978198
 21
138.4554443191
  0
LINE
  5
243
100
AcDbEntity
  8
0
100
AcDbLine
 62
7
  6
CONTINUOUS
 10
379.5580176045
 20
139.2554443191
 11
380.0198978198
 21
138.4554443191
  0
LINE
  5
244
100
AcDbEntity
  8
0
100
AcDbLine
 62
2
  6
CONTINUOUS
 10
339.2530234243
 20
675.5843525111
 11
339.2530234243
 21
681.8953525111
  0
LINE
  5
245
100
AcDbEntity
  8
0
100
AcDbLine
 62
2
  6
CONTINUOUS
 10
339.7530234243
 20
681.8953525111
 11
339.7530234243
 21
675.5843525111
  0
LINE
  5
246
100
AcDbEntity
  8
0
100
AcDbLine
 62
2
  6
CONTINUOUS
 10
361.2130234243
 20
679.3193525111
 11
361.1400234243
 21
679.2463525111
  0
LINE
  5
247
100
AcDbEntity
  8
0
100
AcDbLine
 62
2
  6
CONTINUOUS
 10
364.2810628432
 20
676.3688232754
 11
366.8530234243
 21
678.8193525111
  0
LINE
  5
248
100
AcDbEntity
  8
0
100
AcDbLine
 62
2
  6
CONTINUOUS
 10
364.5650234243
 20
675.9483525111
 11
367.4220234243
 21
678.6703525111
  0
LINE
  5
249
100
AcDbEntity
  8
0
100
AcDbLine
 62
7
  6
CONTINUOUS
 10
141.9040234243
 20
648.623119464
 11
143.9040234243
 21
649.4515465888
  0
LINE
  5
24A
100
AcDbEntity
  8
0
100
AcDbLine
 62
7
  6
CONTINUOUS
 10
392.5580176045
 20
139.2554443191
 11
393.0198978198
 21
138.4554443191
  0
LINE
  5
24B
100
AcDbEntity
  8
0
100
AcDbLine
 62
7
  6
CONTINUOUS
 10
405.5580176045
 20
139.2554443191
 11
406.0198978198
 21
138.4554443191
  0
LINE
  5
24C
100
AcDbEntity
  8
0
100
AcDbLine
 62
7
  6
CONTINUOUS
 10
418.5580176045
 20
139.2554443191
 11
419.0198978198
 21
138.4554443191
  0
LINE
  5
24D
100
AcDbEntity
  8
0
100
AcDbLine
 62
7
  6
CONTINUOUS
 10
431.5580176045
 20
139.2554443191
 11
432.0198978198
 21
138.4554443191
  0
LINE
  5
24E
100
AcDbEntity
  8
0
100
AcDbLine
 62
7
  6
CONTINUOUS
 10
451.0580176045
 20
139.2554443191
 11
451.5198978198
 21
138.4554443191
  0
LINE
  5
24F
100
AcDbEntity
  8
0
100
AcDbLine
 62
7
  6
CONTINUOUS
 10
143.6717903773
 20
721.8553525111
 11
144.500217502
 21
719.8553525111
  0
LINE
  5
250
100
AcDbEntity
  8
0
100
AcDbLine
 62
2
  6
CONTINUOUS
 10
362.7490234243
 20
684.3553525111
 11
362.7490234243
 21
690.8553525111
  0
LINE
  5
251
100
AcDbEntity
  8
0
100
AcDbLine
 62
2
  6
CONTINUOUS
 10
363.5880234243
 20
690.1513525111
 11
363.5880234243
 21
687.9913525111
  0
LINE
  5
252
100
AcDbEntity
  8
0
100
AcDbLine
 62
2
  6
CONTINUOUS
 10
363.5880234243
 20
687.2973525111
 11
363.5880234243
 21
684.3553525111
  0
LINE
  5
253
100
AcDbEntity
  8
0
100
AcDbLine
 62
2
  6
CONTINUOUS
 10
366.0470234243
 20
687.9913525111
 11
366.0470234243
 21
687.2973525111
  0
LINE
  5
254
100
AcDbEntity
  8
0
100
AcDbLine
 62
2
  6
CONTINUOUS
 10
366.2500234243
 20
690.8553525111
 11
366.2500234243
 21
690.1513525111
  0
LINE
  5
255
100
AcDbEntity
  8
0
100
AcDbLine
 62
2
  6
CONTINUOUS
 10
378.6710234243
 20
670.6513525111
 11
378.6710234243
 21
704.7873525111
  0
LINE
  5
256
100
AcDbEntity
  8
0
100
AcDbLine
 62
2
  6
CONTINUOUS
 10
413.9030234243
 20
191.3573525111
 11
413.9030234243
 21
197.3563525111
  0
LINE
  5
257
100
AcDbEntity
  8
0
100
AcDbLine
 62
2
  6
CONTINUOUS
 10
425.4540444661
 20
191.8573525111
 11
424.1239960532
 21
193.7573525111
  0
LINE
  5
258
100
AcDbEntity
  8
0
100
AcDbLine
 62
2
  6
CONTINUOUS
 10
424.3620444661
 20
191.8573525111
 11
423.1660234243
 21
193.5673525111
  0
LINE
  5
259
100
AcDbEntity
  8
0
100
AcDbLine
 62
2
  6
CONTINUOUS
 10
442.1780234243
 20
196.3553525111
 11
444.1820234243
 21
193.3683525111
  0
LINE
  5
25A
100
AcDbEntity
  8
0
100
AcDbLine
 62
2
  6
CONTINUOUS
 10
452.2260234243
 20
196.3563525111
 11
454.2300234243
 21
193.3693525111
  0
LINE
  5
25B
100
AcDbEntity
  8
0
100
AcDbLine
 62
2
  6
CONTINUOUS
 10
444.1820234243
 20
191.8563525111
 11
442.1780234243
 21
194.8443525111
  0
LINE
  5
25C
100
AcDbEntity
  8
0
100
AcDbLine
 62
2
  6
CONTINUOUS
 10
454.2300234243
 20
191.8573525111
 11
452.2260234243
 21
194.8453525111
  0
LINE
  5
25D
100
AcDbEntity
  8
0
100
AcDbLine
 62
7
  6
CONTINUOUS
 10
464.0580176045
 20
139.2554443191
 11
464.5198978198
 21
138.4554443191
  0
LINE
  5
25E
100
AcDbEntity
  8
0
100
AcDbLine
 62
7
  6
CONTINUOUS
 10
477.0580176045
 20
139.2554443191
 11
477.5198978198
 21
138.4554443191
  0
LINE
  5
25F
100
AcDbEntity
  8
0
100
AcDbLine
 62
7
  6
CONTINUOUS
 10
490.0580176045
 20
139.2554443191
 11
490.5198978198
 21
138.4554443191
  0
LINE
  5
260
100
AcDbEntity
  8
0
100
AcDbLine
 62
7
  6
CONTINUOUS
 10
503.0580176045
 20
139.2554443191
 11
503.5198978198
 21
138.4554443191
  0
LINE
  5
261
100
AcDbEntity
  8
0
100
AcDbLine
 62
7
  6
CONTINUOUS
 10
516.0580176045
 20
139.2554443191
 11
516.5198978198
 21
138.4554443191
  0
LINE
  5
262
100
AcDbEntity
  8
0
100
AcDbLine
 62
2
  6
CONTINUOUS
 10
458.5200234243
 20
193.5653525111
 11
457.9306759499
 21
195.0652586712
  0
LINE
  5
263
100
AcDbEntity
  8
0
100
AcDbLine
 62
2
  6
CONTINUOUS
 10
459.1896465519
 20
191.8573525111
 11
458.8365175403
 21
192.7563525111
  0
LINE
  5
264
100
AcDbEntity
  8
0
100
AcDbLine
 62
2
  6
CONTINUOUS
 10
429.3078309398
 20
191.8573525111
 11
428.955118426
 21
192.7563525111
  0
LINE
  5
265
100
AcDbEntity
  8
0
100
AcDbLine
 62
2
  6
CONTINUOUS
 10
428.6390038862
 20
193.5663525111
 11
428.0506564118
 21
195.0662586712
  0
LINE
  5
266
100
AcDbEntity
  8
0
100
AcDbLine
 62
2
  6
CONTINUOUS
 10
428.5024271821
 20
196.3563525111
 11
430.2678309398
 21
191.8573525111
  0
LINE
  5
267
100
AcDbEntity
  8
0
100
AcDbLine
 62
2
  6
CONTINUOUS
 10
458.3845146276
 20
196.3563525111
 11
460.1496465519
 21
191.8573525111
  0
LINE
  5
268
100
AcDbEntity
  8
0
100
AcDbLine
 62
2
  6
CONTINUOUS
 10
433.0692457933
 20
191.8573525111
 11
432.0845912913
 21
194.7652190475
  0
LINE
  5
269
100
AcDbEntity
  8
0
100
AcDbLine
 62
2
  6
CONTINUOUS
 10
432.3678848674
 20
196.3573525111
 11
433.3562819002
 21
193.4293525111
  0
LINE
  5
26A
100
AcDbEntity
  8
0
100
AcDbLine
 62
2
  6
CONTINUOUS
 10
435.3283620997
 20
196.3573525111
 11
436.0650234243
 21
191.8573525111
  0
LINE
  5
26B
100
AcDbEntity
  8
0
100
AcDbLine
 62
2
  6
CONTINUOUS
 10
435.1020234243
 20
191.8573525111
 11
434.6279434198
 21
194.7673525111
  0
LINE
  5
26C
100
AcDbEntity
  8
0
100
AcDbLine
 62
2
  6
CONTINUOUS
 10
418.4630234243
 20
195.5413525111
 11
418.4630234243
 21
196.3553525111
  0
LINE
  5
26D
100
AcDbEntity
  8
0
100
AcDbLine
 62
2
  6
CONTINUOUS
 10
419.5180234243
 20
191.8573525111
 11
419.5180234243
 21
195.5413525111
  0
LINE
  5
26E
100
AcDbEntity
  8
0
100
AcDbLine
 62
2
  6
CONTINUOUS
 10
420.5010234243
 20
195.5413525111
 11
420.5010234243
 21
191.8573525111
  0
LINE
  5
26F
100
AcDbEntity
  8
0
100
AcDbLine
 62
2
  6
CONTINUOUS
 10
421.5570234243
 20
196.3553525111
 11
421.5570234243
 21
195.5413525111
  0
LINE
  5
270
100
AcDbEntity
  8
0
100
AcDbLine
 62
2
  6
CONTINUOUS
 10
422.1830234243
 20
196.3563525111
 11
422.1830234243
 21
191.8573525111
  0
LINE
  5
271
100
AcDbEntity
  8
0
100
AcDbLine
 62
2
  6
CONTINUOUS
 10
423.1650234243
 20
194.3523525111
 11
423.1650234243
 21
195.5413525111
  0
LINE
  5
272
100
AcDbEntity
  8
0
100
AcDbLine
 62
2
  6
CONTINUOUS
 10
423.1660234243
 20
193.5673525111
 11
423.1660234243
 21
191.8573525111
  0
LINE
  5
273
100
AcDbEntity
  8
0
100
AcDbLine
 62
2
  6
CONTINUOUS
 10
441.1940234243
 20
191.8563525111
 11
441.1940234243
 21
196.3553525111
  0
LINE
  5
274
100
AcDbEntity
  8
0
100
AcDbLine
 62
2
  6
CONTINUOUS
 10
442.1780234243
 20
194.8443525111
 11
442.1780234243
 21
191.8563525111
  0
LINE
  5
275
100
AcDbEntity
  8
0
100
AcDbLine
 62
2
  6
CONTINUOUS
 10
444.1820234243
 20
193.3683525111
 11
444.1820234243
 21
196.3553525111
  0
LINE
  5
276
100
AcDbEntity
  8
0
100
AcDbLine
 62
2
  6
CONTINUOUS
 10
445.1650234243
 20
196.3553525111
 11
445.1650234243
 21
191.8563525111
  0
LINE
  5
277
100
AcDbEntity
  8
0
100
AcDbLine
 62
2
  6
CONTINUOUS
 10
445.7910234243
 20
195.5413525111
 11
445.7910234243
 21
196.3563525111
  0
LINE
  5
278
100
AcDbEntity
  8
0
100
AcDbLine
 62
2
  6
CONTINUOUS
 10
446.8460234243
 20
191.8573525111
 11
446.8460234243
 21
195.5413525111
  0
LINE
  5
279
100
AcDbEntity
  8
0
100
AcDbLine
 62
2
  6
CONTINUOUS
 10
447.8280234243
 20
195.5413525111
 11
447.8280234243
 21
191.8573525111
  0
LINE
  5
27A
100
AcDbEntity
  8
0
100
AcDbLine
 62
2
  6
CONTINUOUS
 10
448.8840234243
 20
196.3563525111
 11
448.8840234243
 21
195.5413525111
  0
LINE
  5
27B
100
AcDbEntity
  8
0
100
AcDbLine
 62
2
  6
CONTINUOUS
 10
449.5100234243
 20
191.8573525111
 11
449.5100234243
 21
196.3563525111
  0
LINE
  5
27C
100
AcDbEntity
  8
0
100
AcDbLine
 62
2
  6
CONTINUOUS
 10
450.4930234243
 20
196.3563525111
 11
450.4930234243
 21
191.8573525111
  0
LINE
  5
27D
100
AcDbEntity
  8
0
100
AcDbLine
 62
2
  6
CONTINUOUS
 10
451.2420234243
 20
191.8573525111
 11
451.2420234243
 21
196.3563525111
  0
LINE
  5
27E
100
AcDbEntity
  8
0
100
AcDbLine
 62
2
  6
CONTINUOUS
 10
452.2260234243
 20
194.8453525111
 11
452.2260234243
 21
191.8573525111
  0
LINE
  5
27F
100
AcDbEntity
  8
0
100
AcDbLine
 62
2
  6
CONTINUOUS
 10
454.2300234243
 20
193.3693525111
 11
454.2300234243
 21
196.3563525111
  0
LINE
  5
280
100
AcDbEntity
  8
0
100
AcDbLine
 62
2
  6
CONTINUOUS
 10
455.2130234243
 20
196.3563525111
 11
455.2130234243
 21
191.8573525111
  0
LINE
  5
281
100
AcDbEntity
  8
0
100
AcDbLine
 62
2
  6
CONTINUOUS
 10
463.9060234243
 20
197.3563525111
 11
463.9060234243
 21
191.3573525111
  0
LINE
  5
282
100
AcDbEntity
  8
0
100
AcDbLine
 62
2
  6
CONTINUOUS
 10
430.6482235428
 20
191.8573525111
 11
431.3848848674
 21
196.3573525111
  0
LINE
  5
283
100
AcDbEntity
  8
0
100
AcDbLine
 62
2
  6
CONTINUOUS
 10
537.1159270892
 20
677.3584095533
 11
537.3280234243
 21
677.5706762386
  0
LINE
  5
284
100
AcDbEntity
  8
0
100
AcDbLine
 62
7
  6
CONTINUOUS
 10
529.0580176045
 20
139.2554443191
 11
529.5198978198
 21
138.4554443191
  0
LINE
  5
285
100
AcDbEntity
  8
0
100
AcDbLine
 62
7
  6
CONTINUOUS
 10
542.0580176045
 20
139.2554443191
 11
542.5198978198
 21
138.4554443191
  0
LINE
  5
286
100
AcDbEntity
  8
0
100
AcDbLine
 62
7
  6
CONTINUOUS
 10
555.0580176045
 20
139.2554443191
 11
555.5198978198
 21
138.4554443191
  0
LINE
  5
287
100
AcDbEntity
  8
0
100
AcDbLine
 62
7
  6
CONTINUOUS
 10
568.0580176045
 20
139.2554443191
 11
568.5198978198
 21
138.4554443191
  0
LINE
  5
288
100
AcDbEntity
  8
0
100
AcDbLine
 62
2
  6
CONTINUOUS
 10
500.2580234243
 20
704.7863525111
 11
500.2580234243
 21
670.6513525111
  0
LINE
  5
289
100
AcDbEntity
  8
0
100
AcDbLine
 62
2
  6
CONTINUOUS
 10
511.2630234243
 20
697.2113525111
 11
511.2630234243
 21
696.7113525111
  0
LINE
  5
28A
100
AcDbEntity
  8
0
100
AcDbLine
 62
2
  6
CONTINUOUS
 10
511.2630234243
 20
678.6783525111
 11
511.2630234243
 21
678.1783525111
  0
LINE
  5
28B
100
AcDbEntity
  8
0
100
AcDbLine
 62
2
  6
CONTINUOUS
 10
514.2630234243
 20
700.2113525111
 11
514.2630234243
 21
697.2113525111
  0
LINE
  5
28C
100
AcDbEntity
  8
0
100
AcDbLine
 62
2
  6
CONTINUOUS
 10
514.2630234243
 20
696.7113525111
 11
514.2630234243
 21
693.7113525111
  0
LINE
  5
28D
100
AcDbEntity
  8
0
100
AcDbLine
 62
2
  6
CONTINUOUS
 10
514.7630234243
 20
693.7113525111
 11
514.7630234243
 21
696.7113525111
  0
LINE
  5
28E
100
AcDbEntity
  8
0
100
AcDbLine
 62
2
  6
CONTINUOUS
 10
514.7630234243
 20
697.2113525111
 11
514.7630234243
 21
700.2113525111
  0
LINE
  5
28F
100
AcDbEntity
  8
0
100
AcDbLine
 62
2
  6
CONTINUOUS
 10
517.7630234243
 20
678.1783525111
 11
517.7630234243
 21
678.6783525111
  0
LINE
  5
290
100
AcDbEntity
  8
0
100
AcDbLine
 62
2
  6
CONTINUOUS
 10
517.7630234243
 20
696.7113525111
 11
517.7630234243
 21
697.2113525111
  0
LINE
  5
291
100
AcDbEntity
  8
0
100
AcDbLine
 62
2
  6
CONTINUOUS
 10
432.0845912913
 20
194.7652190475
 11
431.6112235428
 21
191.8573525111
  0
LINE
  5
292
100
AcDbEntity
  8
0
100
AcDbLine
 62
2
  6
CONTINUOUS
 10
544.1930234243
 20
679.1503525111
 11
544.3260234243
 21
679.6013525111
  0
LINE
  5
293
100
AcDbEntity
  8
0
100
AcDbLine
 62
2
  6
CONTINUOUS
 10
433.3562819002
 20
193.4293525111
 11
434.3453620997
 21
196.3573525111
  0
LINE
  5
294
100
AcDbEntity
  8
0
100
AcDbLine
 62
2
  6
CONTINUOUS
 10
434.6279434198
 20
194.7673525111
 11
433.6432457933
 21
191.8573525111
  0
LINE
  5
295
100
AcDbEntity
  8
0
100
AcDbLine
 62
7
  6
CONTINUOUS
 10
322.2508379275
 20
139.2554443191
 11
321.7889577121
 21
138.4554443191
  0
LINE
  5
296
100
AcDbEntity
  8
0
100
AcDbLine
 62
7
  6
CONTINUOUS
 10
735.9040234243
 20
720.0875855581
 11
733.9040234243
 21
719.2591584334
  0
LINE
  5
297
100
AcDbEntity
  8
0
100
AcDbLine
 62
7
  6
CONTINUOUS
 10
980.9704112809
 20
126.8553525111
 11
1347.9704112809
 21
126.8553525111
  0
LINE
  5
298
100
AcDbEntity
  8
0
100
AcDbLine
 62
7
  6
CONTINUOUS
 10
1407.9704112809
 20
126.8553525111
 11
1427.1704112809
 21
126.8553525111
  0
LINE
  5
299
100
AcDbEntity
  8
0
100
AcDbLine
 62
7
  6
CONTINUOUS
 10
167.204427766
 20
126.8554443191
 11
710.604427766
 21
126.8554443191
  0
LINE
  5
29A
100
AcDbEntity
  8
0
100
AcDbLine
 62
7
  6
CONTINUOUS
 10
980.9704112809
 20
127.6553525111
 11
1347.9704112809
 21
127.6553525111
  0
LINE
  5
29B
100
AcDbEntity
  8
0
100
AcDbLine
 62
7
  6
CONTINUOUS
 10
1407.9704112809
 20
127.6553525111
 11
1427.9704112809
 21
127.6553525111
  0
LINE
  5
29C
100
AcDbEntity
  8
0
100
AcDbLine
 62
7
  6
CONTINUOUS
 10
166.404427766
 20
127.6554443191
 11
711.404427766
 21
127.6554443191
  0
LINE
  5
29D
100
AcDbEntity
  8
0
100
AcDbLine
 62
7
  6
CONTINUOUS
 10
988.7704112809
 20
127.8553525111
 11
973.2759647803
 21
127.8553525111
  0
LINE
  5
29E
100
AcDbEntity
  8
0
100
AcDbLine
 62
7
  6
CONTINUOUS
 10
988.7704112809
 20
129.5553525111
 11
973.2759647803
 21
129.5553525111
  0
LINE
  5
29F
100
AcDbEntity
  8
0
100
AcDbLine
 62
7
  6
CONTINUOUS
 10
1428.8704112809
 20
129.9553525111
 11
1427.9704112809
 21
129.9553525111
  0
LINE
  5
2A0
100
AcDbEntity
  8
0
100
AcDbLine
 62
7
  6
CONTINUOUS
 10
948.7704112809
 20
132.8553525111
 11
988.3704112809
 21
132.8553525111
  0
LINE
  5
2A1
100
AcDbEntity
  8
0
100
AcDbLine
 62
7
  6
CONTINUOUS
 10
1348.3704112809
 20
132.8553525111
 11
1407.5704112809
 21
132.8553525111
  0
LINE
  5
2A2
100
AcDbEntity
  8
0
100
AcDbLine
 62
7
  6
CONTINUOUS
 10
1291.7204112809
 20
133.8553525111
 11
1290.2204112809
 21
133.8553525111
  0
LINE
  5
2A3
100
AcDbEntity
  8
0
100
AcDbLine
 62
7
  6
CONTINUOUS
 10
948.5704112809
 20
134.4553525111
 11
948.1704112809
 21
134.4553525111
  0
LINE
  5
2A4
100
AcDbEntity
  8
0
100
AcDbLine
 62
7
  6
CONTINUOUS
 10
948.5704112809
 20
134.8553525111
 11
947.7704112809
 21
134.8553525111
  0
LINE
  5
2A5
100
AcDbEntity
  8
0
100
AcDbLine
 62
7
  6
CONTINUOUS
 10
1409.2184112809
 20
134.8553525111
 11
1427.9704112809
 21
134.8553525111
  0
LINE
  5
2A6
100
AcDbEntity
  8
0
100
AcDbLine
 62
7
  6
CONTINUOUS
 10
166.404427766
 20
134.8554443191
 11
711.404427766
 21
134.8554443191
  0
LINE
  5
2A7
100
AcDbEntity
  8
0
100
AcDbLine
 62
7
  6
CONTINUOUS
 10
1406.2184112809
 20
137.8553525111
 11
1388.9704112809
 21
137.8553525111
  0
LINE
  5
2A8
100
AcDbEntity
  8
0
100
AcDbLine
 62
7
  6
CONTINUOUS
 10
171.404427766
 20
137.9554443191
 11
168.904427766
 21
137.9554443191
  0
LINE
  5
2A9
100
AcDbEntity
  8
0
100
AcDbLine
 62
7
  6
CONTINUOUS
 10
706.404427766
 20
137.9554443191
 11
708.904427766
 21
137.9554443191
  0
LINE
  5
2AA
100
AcDbEntity
  8
0
100
AcDbLine
 62
7
  6
CONTINUOUS
 10
1099.3652415237
 20
138.2553525111
 11
1098.5755810381
 21
138.2553525111
  0
LINE
  5
2AB
100
AcDbEntity
  8
0
100
AcDbLine
 62
7
  6
CONTINUOUS
 10
1025.1652415237
 20
138.2553525111
 11
1024.3755810381
 21
138.2553525111
  0
LINE
  5
2AC
100
AcDbEntity
  8
0
100
AcDbLine
 62
7
  6
CONTINUOUS
 10
975.1652415237
 20
138.2553525111
 11
974.3755810381
 21
138.2553525111
  0
LINE
  5
2AD
100
AcDbEntity
  8
0
100
AcDbLine
 62
7
  6
CONTINUOUS
 10
599.304427766
 20
138.2554443191
 11
278.504427766
 21
138.2554443191
  0
LINE
  5
2AE
100
AcDbEntity
  8
0
100
AcDbLine
 62
7
  6
CONTINUOUS
 10
568.5198978198
 20
138.4554443191
 11
562.2889577121
 21
138.4554443191
  0
LINE
  5
2AF
100
AcDbEntity
  8
0
100
AcDbLine
 62
7
  6
CONTINUOUS
 10
555.5198978198
 20
138.4554443191
 11
549.2889577121
 21
138.4554443191
  0
LINE
  5
2B0
100
AcDbEntity
  8
0
100
AcDbLine
 62
7
  6
CONTINUOUS
 10
542.5198978198
 20
138.4554443191
 11
536.2889577121
 21
138.4554443191
  0
LINE
  5
2B1
100
AcDbEntity
  8
0
100
AcDbLine
 62
7
  6
CONTINUOUS
 10
529.5198978198
 20
138.4554443191
 11
523.2889577121
 21
138.4554443191
  0
LINE
  5
2B2
100
AcDbEntity
  8
0
100
AcDbLine
 62
7
  6
CONTINUOUS
 10
516.5198978198
 20
138.4554443191
 11
510.2889577121
 21
138.4554443191
  0
LINE
  5
2B3
100
AcDbEntity
  8
0
100
AcDbLine
 62
7
  6
CONTINUOUS
 10
503.5198978198
 20
138.4554443191
 11
497.2889577121
 21
138.4554443191
  0
LINE
  5
2B4
100
AcDbEntity
  8
0
100
AcDbLine
 62
7
  6
CONTINUOUS
 10
490.5198978198
 20
138.4554443191
 11
484.2889577121
 21
138.4554443191
  0
LINE
  5
2B5
100
AcDbEntity
  8
0
100
AcDbLine
 62
7
  6
CONTINUOUS
 10
477.5198978198
 20
138.4554443191
 11
471.2889577121
 21
138.4554443191
  0
LINE
  5
2B6
100
AcDbEntity
  8
0
100
AcDbLine
 62
7
  6
CONTINUOUS
 10
464.5198978198
 20
138.4554443191
 11
458.2889577121
 21
138.4554443191
  0
LINE
  5
2B7
100
AcDbEntity
  8
0
100
AcDbLine
 62
7
  6
CONTINUOUS
 10
451.5198978198
 20
138.4554443191
 11
445.2889577121
 21
138.4554443191
  0
LINE
  5
2B8
100
AcDbEntity
  8
0
100
AcDbLine
 62
7
  6
CONTINUOUS
 10
432.0198978198
 20
138.4554443191
 11
425.7889577121
 21
138.4554443191
  0
LINE
  5
2B9
100
AcDbEntity
  8
0
100
AcDbLine
 62
7
  6
CONTINUOUS
 10
419.0198978198
 20
138.4554443191
 11
412.7889577121
 21
138.4554443191
  0
LINE
  5
2BA
100
AcDbEntity
  8
0
100
AcDbLine
 62
7
  6
CONTINUOUS
 10
406.0198978198
 20
138.4554443191
 11
399.7889577121
 21
138.4554443191
  0
LINE
  5
2BB
100
AcDbEntity
  8
0
100
AcDbLine
 62
7
  6
CONTINUOUS
 10
393.0198978198
 20
138.4554443191
 11
386.7889577121
 21
138.4554443191
  0
LINE
  5
2BC
100
AcDbEntity
  8
0
100
AcDbLine
 62
7
  6
CONTINUOUS
 10
380.0198978198
 20
138.4554443191
 11
373.7889577121
 21
138.4554443191
  0
LINE
  5
2BD
100
AcDbEntity
  8
0
100
AcDbLine
 62
7
  6
CONTINUOUS
 10
367.0198978198
 20
138.4554443191
 11
360.7889577121
 21
138.4554443191
  0
LINE
  5
2BE
100
AcDbEntity
  8
0
100
AcDbLine
 62
7
  6
CONTINUOUS
 10
354.0198978198
 20
138.4554443191
 11
347.7889577121
 21
138.4554443191
  0
LINE
  5
2BF
100
AcDbEntity
  8
0
100
AcDbLine
 62
7
  6
CONTINUOUS
 10
341.0198978198
 20
138.4554443191
 11
334.7889577121
 21
138.4554443191
  0
LINE
  5
2C0
100
AcDbEntity
  8
0
100
AcDbLine
 62
7
  6
CONTINUOUS
 10
328.0198978198
 20
138.4554443191
 11
321.7889577121
 21
138.4554443191
  0
LINE
  5
2C1
100
AcDbEntity
  8
0
100
AcDbLine
 62
7
  6
CONTINUOUS
 10
1368.4704112809
 20
138.8553525111
 11
1366.9704112809
 21
138.8553525111
  0
LINE
  5
2C2
100
AcDbEntity
  8
0
100
AcDbLine
 62
7
  6
CONTINUOUS
 10
1290.2204112809
 20
138.8553525111
 11
1291.7204112809
 21
138.8553525111
  0
LINE
  5
2C3
100
AcDbEntity
  8
0
100
AcDbLine
 62
7
  6
CONTINUOUS
 10
327.5580176045
 20
139.2554443191
 11
322.2508379275
 21
139.2554443191
  0
LINE
  5
2C4
100
AcDbEntity
  8
0
100
AcDbLine
 62
7
  6
CONTINUOUS
 10
335.2508379275
 20
139.2554443191
 11
340.5580176045
 21
139.2554443191
  0
LINE
  5
2C5
100
AcDbEntity
  8
0
100
AcDbLine
 62
7
  6
CONTINUOUS
 10
348.2508379275
 20
139.2554443191
 11
353.5580176045
 21
139.2554443191
  0
LINE
  5
2C6
100
AcDbEntity
  8
0
100
AcDbLine
 62
7
  6
CONTINUOUS
 10
361.2508379275
 20
139.2554443191
 11
366.5580176045
 21
139.2554443191
  0
LINE
  5
2C7
100
AcDbEntity
  8
0
100
AcDbLine
 62
7
  6
CONTINUOUS
 10
374.2508379275
 20
139.2554443191
 11
379.5580176045
 21
139.2554443191
  0
LINE
  5
2C8
100
AcDbEntity
  8
0
100
AcDbLine
 62
7
  6
CONTINUOUS
 10
387.2508379275
 20
139.2554443191
 11
392.5580176045
 21
139.2554443191
  0
LINE
  5
2C9
100
AcDbEntity
  8
0
100
AcDbLine
 62
7
  6
CONTINUOUS
 10
400.2508379275
 20
139.2554443191
 11
405.5580176045
 21
139.2554443191
  0
LINE
  5
2CA
100
AcDbEntity
  8
0
100
AcDbLine
 62
7
  6
CONTINUOUS
 10
413.2508379275
 20
139.2554443191
 11
418.5580176045
 21
139.2554443191
  0
LINE
  5
2CB
100
AcDbEntity
  8
0
100
AcDbLine
 62
7
  6
CONTINUOUS
 10
426.2508379275
 20
139.2554443191
 11
431.5580176045
 21
139.2554443191
  0
LINE
  5
2CC
100
AcDbEntity
  8
0
100
AcDbLine
 62
7
  6
CONTINUOUS
 10
445.7508379275
 20
139.2554443191
 11
451.0580176045
 21
139.2554443191
  0
LINE
  5
2CD
100
AcDbEntity
  8
0
100
AcDbLine
 62
7
  6
CONTINUOUS
 10
458.7508379275
 20
139.2554443191
 11
464.0580176045
 21
139.2554443191
  0
LINE
  5
2CE
100
AcDbEntity
  8
0
100
AcDbLine
 62
7
  6
CONTINUOUS
 10
471.7508379275
 20
139.2554443191
 11
477.0580176045
 21
139.2554443191
  0
LINE
  5
2CF
100
AcDbEntity
  8
0
100
AcDbLine
 62
7
  6
CONTINUOUS
 10
484.7508379275
 20
139.2554443191
 11
490.0580176045
 21
139.2554443191
  0
LINE
  5
2D0
100
AcDbEntity
  8
0
100
AcDbLine
 62
7
  6
CONTINUOUS
 10
497.7508379275
 20
139.2554443191
 11
503.0580176045
 21
139.2554443191
  0
LINE
  5
2D1
100
AcDbEntity
  8
0
100
AcDbLine
 62
7
  6
CONTINUOUS
 10
510.7508379275
 20
139.2554443191
 11
516.0580176045
 21
139.2554443191
  0
LINE
  5
2D2
100
AcDbEntity
  8
0
100
AcDbLine
 62
7
  6
CONTINUOUS
 10
523.7508379275
 20
139.2554443191
 11
529.0580176045
 21
139.2554443191
  0
LINE
  5
2D3
100
AcDbEntity
  8
0
100
AcDbLine
 62
7
  6
CONTINUOUS
 10
536.7508379275
 20
139.2554443191
 11
542.0580176045
 21
139.2554443191
  0
LINE
  5
2D4
100
AcDbEntity
  8
0
100
AcDbLine
 62
7
  6
CONTINUOUS
 10
549.7508379275
 20
139.2554443191
 11
555.0580176045
 21
139.2554443191
  0
LINE
  5
2D5
100
AcDbEntity
  8
0
100
AcDbLine
 62
7
  6
CONTINUOUS
 10
562.7508379275
 20
139.2554443191
 11
568.0580176045
 21
139.2554443191
  0
LINE
  5
2D6
100
AcDbEntity
  8
0
100
AcDbLine
 62
7
  6
CONTINUOUS
 10
143.9646835961
 20
139.3553525111
 11
168.874043272
 21
139.3553525111
  0
LINE
  5
2D7
100
AcDbEntity
  8
0
100
AcDbLine
 62
7
  6
CONTINUOUS
 10
168.904427766
 20
139.3553525111
 11
708.904427766
 21
139.3553525111
  0
LINE
  5
2D8
100
AcDbEntity
  8
0
100
AcDbLine
 62
7
  6
CONTINUOUS
 10
708.9348122599
 20
139.3553525111
 11
733.8433632525
 21
139.3553525111
  0
LINE
  5
2D9
100
AcDbEntity
  8
0
100
AcDbLine
 62
7
  6
CONTINUOUS
 10
1450.3704112809
 20
141.3553525111
 11
1450.1704112809
 21
141.3553525111
  0
LINE
  5
2DA
100
AcDbEntity
  8
0
100
AcDbLine
 62
7
  6
CONTINUOUS
 10
144.9040234243
 20
141.3553525111
 11
732.9040234243
 21
141.3553525111
  0
LINE
  5
2DB
100
AcDbEntity
  8
0
100
AcDbLine
 62
7
  6
CONTINUOUS
 10
1262.9704112809
 20
143.3553525111
 11
1231.9704112809
 21
143.3553525111
  0
LINE
  5
2DC
100
AcDbEntity
  8
0
100
AcDbLine
 62
7
  6
CONTINUOUS
 10
1017.7704112809
 20
143.3553525111
 11
986.7704112809
 21
143.3553525111
  0
LINE
  5
2DD
100
AcDbEntity
  8
0
100
AcDbLine
 62
7
  6
CONTINUOUS
 10
1366.9704112809
 20
143.8553525111
 11
1368.4704112809
 21
143.8553525111
  0
LINE
  5
2DE
100
AcDbEntity
  8
0
100
AcDbLine
 62
7
  6
CONTINUOUS
 10
1434.3704112809
 20
145.4553525111
 11
1428.6967631032
 21
145.4553525111
  0
LINE
  5
2DF
100
AcDbEntity
  8
0
100
AcDbLine
 62
7
  6
CONTINUOUS
 10
142.4343535102
 20
638.8250224252
 11
143.9040234243
 21
637.3553525111
  0
LINE
  5
2E0
100
AcDbEntity
  8
0
100
AcDbLine
 62
7
  6
CONTINUOUS
 10
143.6717903773
 20
646.8553525111
 11
141.9040234243
 21
648.623119464
  0
LINE
  5
2E1
100
AcDbEntity
  8
0
100
AcDbLine
 62
7
  6
CONTINUOUS
 10
143.9040234243
 20
649.4515465888
 11
144.500217502
 21
648.8553525111
  0
LINE
  5
2E2
100
AcDbEntity
  8
0
100
AcDbLine
 62
2
  6
CONTINUOUS
 10
536.1860234243
 20
679.4813525111
 11
536.1860234243
 21
678.2893525111
  0
LINE
  5
2E3
100
AcDbEntity
  8
0
100
AcDbLine
 62
2
  6
CONTINUOUS
 10
536.4860234243
 20
678.4133525111
 11
536.4860234243
 21
679.4813525111
  0
LINE
  5
2E4
100
AcDbEntity
  8
0
100
AcDbLine
 62
2
  6
CONTINUOUS
 10
539.2470234243
 20
674.6803525111
 11
539.2470234243
 21
682.0213525111
  0
LINE
  5
2E5
100
AcDbEntity
  8
0
100
AcDbLine
 62
2
  6
CONTINUOUS
 10
539.4470234243
 20
682.0213525111
 11
539.4470234243
 21
674.6803525111
  0
LINE
  5
2E6
100
AcDbEntity
  8
0
100
AcDbLine
 62
2
  6
CONTINUOUS
 10
425.8280234243
 20
191.8573525111
 11
427.5934271821
 21
196.3563525111
  0
LINE
  5
2E7
100
AcDbEntity
  8
0
100
AcDbLine
 62
2
  6
CONTINUOUS
 10
428.0506564118
 20
195.0662586712
 11
427.4620038862
 21
193.5663525111
  0
LINE
  5
2E8
100
AcDbEntity
  8
0
100
AcDbLine
 62
2
  6
CONTINUOUS
 10
457.9306759499
 20
195.0652586712
 11
457.3420234243
 21
193.5653525111
  0
LINE
  5
2E9
100
AcDbEntity
  8
0
100
AcDbLine
 62
2
  6
CONTINUOUS
 10
455.7100234243
 20
191.8573525111
 11
457.4765146276
 21
196.3563525111
  0
LINE
  5
2EA
100
AcDbEntity
  8
0
100
AcDbLine
 62
2
  6
CONTINUOUS
 10
457.0235175403
 20
192.7563525111
 11
456.6700234243
 21
191.8573525111
  0
LINE
  5
2EB
100
AcDbEntity
  8
0
100
AcDbLine
 62
2
  6
CONTINUOUS
 10
427.142118426
 20
192.7563525111
 11
426.7880234243
 21
191.8573525111
  0
LINE
  5
2EC
100
AcDbEntity
  8
0
100
AcDbLine
 62
7
  6
CONTINUOUS
 10
335.2508379275
 20
139.2554443191
 11
334.7889577121
 21
138.4554443191
  0
LINE
  5
2ED
100
AcDbEntity
  8
0
100
AcDbLine
 62
7
  6
CONTINUOUS
 10
348.2508379275
 20
139.2554443191
 11
347.7889577121
 21
138.4554443191
  0
LINE
  5
2EE
100
AcDbEntity
  8
0
100
AcDbLine
 62
7
  6
CONTINUOUS
 10
361.2508379275
 20
139.2554443191
 11
360.7889577121
 21
138.4554443191
  0
LINE
  5
2EF
100
AcDbEntity
  8
0
100
AcDbLine
 62
7
  6
CONTINUOUS
 10
374.2508379275
 20
139.2554443191
 11
373.7889577121
 21
138.4554443191
  0
LINE
  5
2F0
100
AcDbEntity
  8
0
100
AcDbLine
 62
7
  6
CONTINUOUS
 10
387.2508379275
 20
139.2554443191
 11
386.7889577121
 21
138.4554443191
  0
LINE
  5
2F1
100
AcDbEntity
  8
0
100
AcDbLine
 62
7
  6
CONTINUOUS
 10
142.4343535102
 20
139.885682597
 11
143.9040234243
 21
141.3553525111
  0
LINE
  5
2F2
100
AcDbEntity
  8
0
100
AcDbLine
 62
7
  6
CONTINUOUS
 10
948.7704112809
 20
153.3553525111
 11
986.7704112809
 21
153.3553525111
  0
LINE
  5
2F3
100
AcDbEntity
  8
0
100
AcDbLine
 62
7
  6
CONTINUOUS
 10
1009.9704112809
 20
153.3553525111
 11
1231.9704112809
 21
153.3553525111
  0
LINE
  5
2F4
100
AcDbEntity
  8
0
100
AcDbLine
 62
7
  6
CONTINUOUS
 10
1262.9704112809
 20
153.3553525111
 11
1283.4704112809
 21
153.3553525111
  0
LINE
  5
2F5
100
AcDbEntity
  8
0
100
AcDbLine
 62
7
  6
CONTINUOUS
 10
1298.4704112809
 20
153.3553525111
 11
1388.9704112809
 21
153.3553525111
  0
LINE
  5
2F6
100
AcDbEntity
  8
0
100
AcDbLine
 62
7
  6
CONTINUOUS
 10
1434.3704112809
 20
157.3553525111
 11
1448.3704112809
 21
157.3553525111
  0
LINE
  5
2F7
100
AcDbEntity
  8
0
100
AcDbLine
 62
7
  6
CONTINUOUS
 10
997.7704112809
 20
166.5553525111
 11
962.7704112809
 21
166.5553525111
  0
LINE
  5
2F8
100
AcDbEntity
  8
0
100
AcDbLine
 62
7
  6
CONTINUOUS
 10
997.7704112809
 20
166.9553525111
 11
962.7704112809
 21
166.9553525111
  0
LINE
  5
2F9
100
AcDbEntity
  8
0
100
AcDbLine
 62
7
  6
CONTINUOUS
 10
1341.2394711732
 20
167.0666773765
 11
1287.7013513886
 21
167.0666773765
  0
LINE
  5
2FA
100
AcDbEntity
  8
0
100
AcDbLine
 62
7
  6
CONTINUOUS
 10
1341.2394711732
 20
167.1532799168
 11
1287.7013513886
 21
167.1532799168
  0
LINE
  5
2FB
100
AcDbEntity
  8
0
100
AcDbLine
 62
7
  6
CONTINUOUS
 10
1288.105496577
 20
167.5574251053
 11
1340.8353259848
 21
167.5574251053
  0
LINE
  5
2FC
100
AcDbEntity
  8
0
100
AcDbLine
 62
7
  6
CONTINUOUS
 10
1287.1817361463
 20
167.5862926187
 11
1287.2683386867
 21
167.5862926187
  0
LINE
  5
2FD
100
AcDbEntity
  8
0
100
AcDbLine
 62
7
  6
CONTINUOUS
 10
1341.6724838751
 20
167.5862926187
 11
1341.7590864155
 21
167.5862926187
  0
LINE
  5
2FE
100
AcDbEntity
  8
0
100
AcDbLine
 62
7
  6
CONTINUOUS
 10
1287.6724838751
 20
167.9904378072
 11
1341.2683386867
 21
167.9904378072
  0
LINE
  5
2FF
100
AcDbEntity
  8
0
100
AcDbLine
 62
7
  6
CONTINUOUS
 10
960.9704112809
 20
168.3553525111
 11
999.5704112809
 21
168.3553525111
  0
LINE
  5
300
100
AcDbEntity
  8
0
100
AcDbLine
 62
7
  6
CONTINUOUS
 10
1151.9704112809
 20
168.5009406048
 11
1119.9704112809
 21
168.5009406048
  0
LINE
  5
301
100
AcDbEntity
  8
0
100
AcDbLine
 62
7
  6
CONTINUOUS
 10
1277.5447401719
 20
168.6465286985
 11
1252.3960823899
 21
168.6465286985
  0
LINE
  5
302
100
AcDbEntity
  8
0
100
AcDbLine
 62
7
  6
CONTINUOUS
 10
1151.8248231872
 20
168.6465286985
 11
1151.5895610272
 21
168.6465286985
  0
LINE
  5
303
100
AcDbEntity
  8
0
100
AcDbLine
 62
7
  6
CONTINUOUS
 10
1120.1159993746
 20
168.6465286985
 11
1120.3512615346
 21
168.6465286985
  0
LINE
  5
304
100
AcDbEntity
  8
0
100
AcDbLine
 62
7
  6
CONTINUOUS
 10
1027.3447401719
 20
168.7810236201
 11
1007.6960823899
 21
168.7810236201
  0
LINE
  5
305
100
AcDbEntity
  8
0
100
AcDbLine
 62
7
  6
CONTINUOUS
 10
1277.3991520782
 20
168.7921167922
 11
1277.1638899182
 21
168.7921167922
  0
LINE
  5
306
100
AcDbEntity
  8
0
100
AcDbLine
 62
7
  6
CONTINUOUS
 10
1252.5416704836
 20
168.7921167922
 11
1252.7769326435
 21
168.7921167922
  0
LINE
  5
307
100
AcDbEntity
  8
0
100
AcDbLine
 62
7
  6
CONTINUOUS
 10
1027.1991520782
 20
168.9266117138
 11
1026.9638899182
 21
168.9266117138
  0
LINE
  5
308
100
AcDbEntity
  8
0
100
AcDbLine
 62
7
  6
CONTINUOUS
 10
1007.8416704836
 20
168.9266117138
 11
1008.0769326435
 21
168.9266117138
  0
LINE
  5
309
100
AcDbEntity
  8
0
100
AcDbLine
 62
7
  6
CONTINUOUS
 10
1120.2504942962
 20
169.0752694958
 11
1019.6903282656
 21
169.0752694958
  0
LINE
  5
30A
100
AcDbEntity
  8
0
100
AcDbLine
 62
7
  6
CONTINUOUS
 10
1151.6903282656
 20
169.0752694958
 11
1252.2504942962
 21
169.0752694958
  0
LINE
  5
30B
100
AcDbEntity
  8
0
100
AcDbLine
 62
7
  6
CONTINUOUS
 10
1122.0255246122
 20
170.3207917761
 11
1149.9152979496
 21
170.3207917761
  0
LINE
  5
30C
100
AcDbEntity
  8
0
100
AcDbLine
 62
7
  6
CONTINUOUS
 10
1254.3056076275
 20
170.3207917761
 11
1275.6352149343
 21
170.3207917761
  0
LINE
  5
30D
100
AcDbEntity
  8
0
100
AcDbLine
 62
7
  6
CONTINUOUS
 10
1025.4352149343
 20
170.4552866977
 11
1009.6056076275
 21
170.4552866977
  0
LINE
  5
30E
100
AcDbEntity
  8
0
100
AcDbLine
 62
7
  6
CONTINUOUS
 10
1250.612628242
 20
170.71313555
 11
1153.3281943198
 21
170.71313555
  0
LINE
  5
30F
100
AcDbEntity
  8
0
100
AcDbLine
 62
7
  6
CONTINUOUS
 10
1118.612628242
 20
170.71313555
 11
1021.3281943198
 21
170.71313555
  0
LINE
  5
310
100
AcDbEntity
  8
0
100
AcDbLine
 62
2
  6
CONTINUOUS
 10
461.9060234243
 20
189.3553525111
 11
415.9040234243
 21
189.3553525111
  0
LINE
  5
311
100
AcDbEntity
  8
0
100
AcDbLine
 62
2
  6
CONTINUOUS
 10
445.1650234243
 20
191.8563525111
 11
444.1820234243
 21
191.8563525111
  0
LINE
  5
312
100
AcDbEntity
  8
0
100
AcDbLine
 62
2
  6
CONTINUOUS
 10
442.1780234243
 20
191.8563525111
 11
441.1940234243
 21
191.8563525111
  0
LINE
  5
313
100
AcDbEntity
  8
0
100
AcDbLine
 62
2
  6
CONTINUOUS
 10
460.1496465519
 20
191.8573525111
 11
459.1896465519
 21
191.8573525111
  0
LINE
  5
314
100
AcDbEntity
  8
0
100
AcDbLine
 62
2
  6
CONTINUOUS
 10
456.6700234243
 20
191.8573525111
 11
455.7100234243
 21
191.8573525111
  0
LINE
  5
315
100
AcDbEntity
  8
0
100
AcDbLine
 62
2
  6
CONTINUOUS
 10
455.2130234243
 20
191.8573525111
 11
454.2300234243
 21
191.8573525111
  0
LINE
  5
316
100
AcDbEntity
  8
0
100
AcDbLine
 62
2
  6
CONTINUOUS
 10
452.2260234243
 20
191.8573525111
 11
451.2420234243
 21
191.8573525111
  0
LINE
  5
317
100
AcDbEntity
  8
0
100
AcDbLine
 62
2
  6
CONTINUOUS
 10
450.4930234243
 20
191.8573525111
 11
449.5100234243
 21
191.8573525111
  0
LINE
  5
318
100
AcDbEntity
  8
0
100
AcDbLine
 62
2
  6
CONTINUOUS
 10
447.8280234243
 20
191.8573525111
 11
446.8460234243
 21
191.8573525111
  0
LINE
  5
319
100
AcDbEntity
  8
0
100
AcDbLine
 62
2
  6
CONTINUOUS
 10
436.0650234243
 20
191.8573525111
 11
435.1020234243
 21
191.8573525111
  0
LINE
  5
31A
100
AcDbEntity
  8
0
100
AcDbLine
 62
2
  6
CONTINUOUS
 10
433.6432457933
 20
191.8573525111
 11
433.0692457933
 21
191.8573525111
  0
LINE
  5
31B
100
AcDbEntity
  8
0
100
AcDbLine
 62
2
  6
CONTINUOUS
 10
431.6112235428
 20
191.8573525111
 11
430.6482235428
 21
191.8573525111
  0
LINE
  5
31C
100
AcDbEntity
  8
0
100
AcDbLine
 62
2
  6
CONTINUOUS
 10
430.2678309398
 20
191.8573525111
 11
429.3078309398
 21
191.8573525111
  0
LINE
  5
31D
100
AcDbEntity
  8
0
100
AcDbLine
 62
2
  6
CONTINUOUS
 10
426.7880234243
 20
191.8573525111
 11
425.8280234243
 21
191.8573525111
  0
LINE
  5
31E
100
AcDbEntity
  8
0
100
AcDbLine
 62
2
  6
CONTINUOUS
 10
425.4540444661
 20
191.8573525111
 11
424.3620444661
 21
191.8573525111
  0
LINE
  5
31F
100
AcDbEntity
  8
0
100
AcDbLine
 62
2
  6
CONTINUOUS
 10
423.1660234243
 20
191.8573525111
 11
422.1830234243
 21
191.8573525111
  0
LINE
  5
320
100
AcDbEntity
  8
0
100
AcDbLine
 62
2
  6
CONTINUOUS
 10
420.5010234243
 20
191.8573525111
 11
419.5180234243
 21
191.8573525111
  0
LINE
  5
321
100
AcDbEntity
  8
0
100
AcDbLine
 62
2
  6
CONTINUOUS
 10
458.8365175403
 20
192.7563525111
 11
457.0235175403
 21
192.7563525111
  0
LINE
  5
322
100
AcDbEntity
  8
0
100
AcDbLine
 62
2
  6
CONTINUOUS
 10
428.955118426
 20
192.7563525111
 11
427.142118426
 21
192.7563525111
  0
LINE
  5
323
100
AcDbEntity
  8
0
100
AcDbLine
 62
2
  6
CONTINUOUS
 10
457.3420234243
 20
193.5653525111
 11
458.5200234243
 21
193.5653525111
  0
LINE
  5
324
100
AcDbEntity
  8
0
100
AcDbLine
 62
2
  6
CONTINUOUS
 10
427.4620038862
 20
193.5663525111
 11
428.6390038862
 21
193.5663525111
  0
LINE
  5
325
100
AcDbEntity
  8
0
100
AcDbLine
 62
2
  6
CONTINUOUS
 10
423.5440234243
 20
194.3523525111
 11
423.1650234243
 21
194.3523525111
  0
LINE
  5
326
100
AcDbEntity
  8
0
100
AcDbLine
 62
2
  6
CONTINUOUS
 10
448.8840234243
 20
195.5413525111
 11
447.8280234243
 21
195.5413525111
  0
LINE
  5
327
100
AcDbEntity
  8
0
100
AcDbLine
 62
2
  6
CONTINUOUS
 10
446.8460234243
 20
195.5413525111
 11
445.7910234243
 21
195.5413525111
  0
LINE
  5
328
100
AcDbEntity
  8
0
100
AcDbLine
 62
2
  6
CONTINUOUS
 10
421.5570234243
 20
195.5413525111
 11
420.5010234243
 21
195.5413525111
  0
LINE
  5
329
100
AcDbEntity
  8
0
100
AcDbLine
 62
2
  6
CONTINUOUS
 10
419.5180234243
 20
195.5413525111
 11
418.4630234243
 21
195.5413525111
  0
LINE
  5
32A
100
AcDbEntity
  8
0
100
AcDbLine
 62
2
  6
CONTINUOUS
 10
423.1650234243
 20
195.5413525111
 11
423.5440234243
 21
195.5413525111
  0
LINE
  5
32B
100
AcDbEntity
  8
0
100
AcDbLine
 62
2
  6
CONTINUOUS
 10
418.4630234243
 20
196.3553525111
 11
421.5570234243
 21
196.3553525111
  0
LINE
  5
32C
100
AcDbEntity
  8
0
100
AcDbLine
 62
2
  6
CONTINUOUS
 10
441.1940234243
 20
196.3553525111
 11
442.1780234243
 21
196.3553525111
  0
LINE
  5
32D
100
AcDbEntity
  8
0
100
AcDbLine
 62
2
  6
CONTINUOUS
 10
444.1820234243
 20
196.3553525111
 11
445.1650234243
 21
196.3553525111
  0
LINE
  5
32E
100
AcDbEntity
  8
0
100
AcDbLine
 62
2
  6
CONTINUOUS
 10
423.8640234243
 20
196.3563525111
 11
422.1830234243
 21
196.3563525111
  0
LINE
  5
32F
100
AcDbEntity
  8
0
100
AcDbLine
 62
2
  6
CONTINUOUS
 10
427.5934271821
 20
196.3563525111
 11
428.5024271821
 21
196.3563525111
  0
LINE
  5
330
100
AcDbEntity
  8
0
100
AcDbLine
 62
2
  6
CONTINUOUS
 10
445.7910234243
 20
196.3563525111
 11
448.8840234243
 21
196.3563525111
  0
LINE
  5
331
100
AcDbEntity
  8
0
100
AcDbLine
 62
2
  6
CONTINUOUS
 10
449.5100234243
 20
196.3563525111
 11
450.4930234243
 21
196.3563525111
  0
LINE
  5
332
100
AcDbEntity
  8
0
100
AcDbLine
 62
2
  6
CONTINUOUS
 10
451.2420234243
 20
196.3563525111
 11
452.2260234243
 21
196.3563525111
  0
LINE
  5
333
100
AcDbEntity
  8
0
100
AcDbLine
 62
2
  6
CONTINUOUS
 10
454.2300234243
 20
196.3563525111
 11
455.2130234243
 21
196.3563525111
  0
LINE
  5
334
100
AcDbEntity
  8
0
100
AcDbLine
 62
2
  6
CONTINUOUS
 10
457.4765146276
 20
196.3563525111
 11
458.3845146276
 21
196.3563525111
  0
LINE
  5
335
100
AcDbEntity
  8
0
100
AcDbLine
 62
2
  6
CONTINUOUS
 10
431.3848848674
 20
196.3573525111
 11
432.3678848674
 21
196.3573525111
  0
LINE
  5
336
100
AcDbEntity
  8
0
100
AcDbLine
 62
2
  6
CONTINUOUS
 10
434.3453620997
 20
196.3573525111
 11
435.3283620997
 21
196.3573525111
  0
LINE
  5
337
100
AcDbEntity
  8
0
100
AcDbLine
 62
2
  6
CONTINUOUS
 10
415.9050234243
 20
199.3563525111
 11
461.9070234243
 21
199.3563525111
  0
LINE
  5
338
100
AcDbEntity
  8
0
100
AcDbLine
 62
7
  6
CONTINUOUS
 10
1450.1704112809
 20
200.3553525111
 11
1448.3704112809
 21
200.3553525111
  0
LINE
  5
339
100
AcDbEntity
  8
0
100
AcDbLine
 62
7
  6
CONTINUOUS
 10
735.3736933384
 20
139.885682597
 11
733.9040234243
 21
141.3553525111
  0
LINE
  5
33A
100
AcDbEntity
  8
0
100
AcDbLine
 62
7
  6
CONTINUOUS
 10
593.904427766
 20
134.8554443191
 11
593.904427766
 21
138.2554443191
  0
LINE
  5
33B
100
AcDbEntity
  8
0
100
AcDbLine
 62
7
  6
CONTINUOUS
 10
599.304427766
 20
138.2554443191
 11
599.304427766
 21
134.8554443191
  0
LINE
  5
33C
100
AcDbEntity
  8
0
100
AcDbLine
 62
7
  6
CONTINUOUS
 10
734.1362564714
 20
721.8553525111
 11
733.3078293466
 21
719.8553525111
  0
LINE
  5
33D
100
AcDbEntity
  8
0
100
AcDbLine
 62
7
  6
CONTINUOUS
 10
400.2508379275
 20
139.2554443191
 11
399.7889577121
 21
138.4554443191
  0
LINE
  5
33E
100
AcDbEntity
  8
0
100
AcDbLine
 62
7
  6
CONTINUOUS
 10
413.2508379275
 20
139.2554443191
 11
412.7889577121
 21
138.4554443191
  0
LINE
  5
33F
100
AcDbEntity
  8
0
100
AcDbLine
 62
7
  6
CONTINUOUS
 10
426.2508379275
 20
139.2554443191
 11
425.7889577121
 21
138.4554443191
  0
LINE
  5
340
100
AcDbEntity
  8
0
100
AcDbLine
 62
7
  6
CONTINUOUS
 10
445.7508379275
 20
139.2554443191
 11
445.2889577121
 21
138.4554443191
  0
LINE
  5
341
100
AcDbEntity
  8
0
100
AcDbLine
 62
7
  6
CONTINUOUS
 10
733.3078293466
 20
648.8553525111
 11
733.9040234243
 21
649.4515465888
  0
LINE
  5
342
100
AcDbEntity
  8
0
100
AcDbLine
 62
7
  6
CONTINUOUS
 10
735.9040234243
 20
648.623119464
 11
734.1362564714
 21
646.8553525111
  0
LINE
  5
343
100
AcDbEntity
  8
0
100
AcDbLine
 62
7
  6
CONTINUOUS
 10
735.1796718872
 20
638.6310009739
 11
733.9040234243
 21
637.3553525111
  0
LINE
  5
344
100
AcDbEntity
  8
0
100
AcDbLine
 62
7
  6
CONTINUOUS
 10
212.9040234243
 20
229.3553525111
 11
664.9040234243
 21
229.3553525111
  0
LINE
  5
345
100
AcDbEntity
  8
0
100
AcDbLine
 62
7
  6
CONTINUOUS
 10
887.3700725712
 20
244.993739572
 11
889.4593538167
 21
244.993739572
  0
LINE
  5
346
100
AcDbEntity
  8
0
100
AcDbLine
 62
7
  6
CONTINUOUS
 10
891.3700725712
 20
245.5710898412
 11
889.4534059045
 21
245.5710898412
  0
LINE
  5
347
100
AcDbEntity
  8
0
100
AcDbLine
 62
2
  6
CONTINUOUS
 10
544.3120234243
 20
676.6113525111
 11
544.2130234243
 21
677.0483525111
  0
LINE
  5
348
100
AcDbEntity
  8
0
100
AcDbLine
 62
7
  6
CONTINUOUS
 10
664.9040234243
 20
229.3553525111
 11
664.9040234243
 21
563.3553525111
  0
LINE
  5
349
100
AcDbEntity
  8
0
100
AcDbLine
 62
7
  6
CONTINUOUS
 10
676.5480911278
 20
596.6557535507
 11
676.5480911278
 21
622.0557535506
  0
LINE
  5
34A
100
AcDbEntity
  8
0
100
AcDbLine
 62
7
  6
CONTINUOUS
 10
458.7508379275
 20
139.2554443191
 11
458.2889577121
 21
138.4554443191
  0
LINE
  5
34B
100
AcDbEntity
  8
0
100
AcDbLine
 62
7
  6
CONTINUOUS
 10
471.7508379275
 20
139.2554443191
 11
471.2889577121
 21
138.4554443191
  0
LINE
  5
34C
100
AcDbEntity
  8
0
100
AcDbLine
 62
7
  6
CONTINUOUS
 10
484.7508379275
 20
139.2554443191
 11
484.2889577121
 21
138.4554443191
  0
LINE
  5
34D
100
AcDbEntity
  8
0
100
AcDbLine
 62
7
  6
CONTINUOUS
 10
497.7508379275
 20
139.2554443191
 11
497.2889577121
 21
138.4554443191
  0
LINE
  5
34E
100
AcDbEntity
  8
0
100
AcDbLine
 62
7
  6
CONTINUOUS
 10
510.7508379275
 20
139.2554443191
 11
510.2889577121
 21
138.4554443191
  0
LINE
  5
34F
100
AcDbEntity
  8
0
100
AcDbLine
 62
7
  6
CONTINUOUS
 10
896.3700725712
 20
271.5518519547
 11
891.3700725712
 21
271.5518519547
  0
LINE
  5
350
100
AcDbEntity
  8
0
100
AcDbLine
 62
7
  6
CONTINUOUS
 10
889.8700725712
 20
240.6636125531
 11
947.3704112809
 21
207.4657765206
  0
LINE
  5
351
100
AcDbEntity
  8
0
100
AcDbLine
 62
2
  6
CONTINUOUS
 10
361.1440234243
 20
678.6663525111
 11
363.9930234243
 21
675.9523525111
  0
LINE
  5
352
100
AcDbEntity
  8
0
100
AcDbLine
 62
2
  6
CONTINUOUS
 10
361.7080234243
 20
678.8193525111
 11
364.2810628432
 21
676.3688232754
  0
LINE
  5
353
100
AcDbEntity
  8
0
100
AcDbLine
 62
2
  6
CONTINUOUS
 10
367.4220234243
 20
679.2463525111
 11
367.3480234243
 21
679.3193525111
  0
LINE
  5
354
100
AcDbEntity
  8
0
100
AcDbLine
 62
2
  6
CONTINUOUS
 10
361.0320234243
 20
695.8823525111
 11
361.1060234243
 21
695.8093525111
  0
LINE
  5
355
100
AcDbEntity
  8
0
100
AcDbLine
 62
7
  6
CONTINUOUS
 10
705.404427766
 20
126.8554443191
 11
705.404427766
 21
139.3553525111
  0
LINE
  5
356
100
AcDbEntity
  8
0
100
AcDbLine
 62
7
  6
CONTINUOUS
 10
706.404427766
 20
139.3553525111
 11
706.404427766
 21
137.9554443191
  0
LINE
  5
357
100
AcDbEntity
  8
0
100
AcDbLine
 62
7
  6
CONTINUOUS
 10
708.904427766
 20
139.3553525111
 11
708.904427766
 21
134.8554443191
  0
LINE
  5
358
100
AcDbEntity
  8
0
100
AcDbLine
 62
7
  6
CONTINUOUS
 10
708.9348122599
 20
139.3553525111
 11
708.9348122599
 21
134.8554443191
  0
LINE
  5
359
100
AcDbEntity
  8
0
100
AcDbLine
 62
7
  6
CONTINUOUS
 10
711.404427766
 20
127.6554443191
 11
711.404427766
 21
139.3553525111
  0
LINE
  5
35A
100
AcDbEntity
  8
0
100
AcDbLine
 62
7
  6
CONTINUOUS
 10
722.0146882331
 20
639.3553525111
 11
722.0146882331
 21
646.8553525111
  0
LINE
  5
35B
100
AcDbEntity
  8
0
100
AcDbLine
 62
7
  6
CONTINUOUS
 10
723.8394115787
 20
646.8609277068
 11
723.8394115787
 21
639.4901667059
  0
LINE
  5
35C
100
AcDbEntity
  8
0
100
AcDbLine
 62
7
  6
CONTINUOUS
 10
733.9040234243
 20
141.3553525111
 11
733.9040234243
 21
637.3553525111
  0
LINE
  5
35D
100
AcDbEntity
  8
0
100
AcDbLine
 62
7
  6
CONTINUOUS
 10
733.9040234243
 20
649.4515465888
 11
733.9040234243
 21
719.2591584334
  0
LINE
  5
35E
100
AcDbEntity
  8
0
100
AcDbLine
 62
7
  6
CONTINUOUS
 10
733.9801420774
 20
646.8609277068
 11
733.9801420774
 21
639.3609277068
  0
LINE
  5
35F
100
AcDbEntity
  8
0
100
AcDbLine
 62
7
  6
CONTINUOUS
 10
735.893119582
 20
721.8553525111
 11
735.893119582
 21
720.0875855581
  0
LINE
  5
360
100
AcDbEntity
  8
0
100
AcDbLine
 62
7
  6
CONTINUOUS
 10
735.9040234243
 20
140.4160126828
 11
735.9040234243
 21
720.0875855581
  0
LINE
  5
361
100
AcDbEntity
  8
0
100
AcDbLine
 62
7
  6
CONTINUOUS
 10
523.7508379275
 20
139.2554443191
 11
523.2889577121
 21
138.4554443191
  0
LINE
  5
362
100
AcDbEntity
  8
0
100
AcDbLine
 62
7
  6
CONTINUOUS
 10
536.7508379275
 20
139.2554443191
 11
536.2889577121
 21
138.4554443191
  0
LINE
  5
363
100
AcDbEntity
  8
0
100
AcDbLine
 62
7
  6
CONTINUOUS
 10
549.7508379275
 20
139.2554443191
 11
549.2889577121
 21
138.4554443191
  0
LINE
  5
364
100
AcDbEntity
  8
0
100
AcDbLine
 62
7
  6
CONTINUOUS
 10
562.7508379275
 20
139.2554443191
 11
562.2889577121
 21
138.4554443191
  0
LINE
  5
365
100
AcDbEntity
  8
0
100
AcDbLine
 62
7
  6
CONTINUOUS
 10
972.7865321112
 20
670.1965344417
 11
997.5789386795
 21
695.0031364906
  0
LINE
  5
366
100
AcDbEntity
  8
0
100
AcDbLine
 62
7
  6
CONTINUOUS
 10
947.0115181762
 20
638.7482884465
 11
1017.2334606482
 21
709.0104381579
  0
LINE
  5
367
100
AcDbEntity
  8
0
100
AcDbLine
 62
7
  6
CONTINUOUS
 10
947.2944418281
 20
638.4655266966
 11
947.7670986994
 21
638.9384541988
  0
LINE
  5
368
100
AcDbEntity
  8
0
100
AcDbLine
 62
7
  6
CONTINUOUS
 10
1014.6887668009
 20
705.8984398893
 11
1017.5163843001
 21
708.727676408
  0
LINE
  5
369
100
AcDbEntity
  8
0
100
AcDbLine
 62
7
  6
CONTINUOUS
 10
1014.9716904528
 20
705.6156781394
 11
948.0500223513
 21
638.6556924489
  0
LINE
  5
36A
100
AcDbEntity
  8
0
100
AcDbLine
 62
7
  6
CONTINUOUS
 10
1017.6532539934
 20
706.6381952235
 11
1014.9721651442
 21
703.9571063744
  0
LINE
  5
36B
100
AcDbEntity
  8
0
100
AcDbLine
 62
7
  6
CONTINUOUS
 10
948.8606187153
 20
637.8455599455
 11
947.8875685684
 21
636.8725097986
  0
LINE
  5
36C
100
AcDbEntity
  8
0
100
AcDbLine
 62
7
  6
CONTINUOUS
 10
922.9519587181
 20
599.2925768602
 11
925.7897948122
 21
600.931002293
  0
LINE
  5
36D
100
AcDbEntity
  8
0
100
AcDbLine
 62
7
  6
CONTINUOUS
 10
934.8700725712
 20
601.7960990936
 11
921.3700725712
 21
594.0018704595
  0
LINE
  5
36E
100
AcDbEntity
  8
0
100
AcDbLine
 62
7
  6
CONTINUOUS
 10
934.8700725712
 20
567.1550829422
 11
921.3700725712
 21
559.3608543082
  0
LINE
  5
36F
100
AcDbEntity
  8
0
100
AcDbLine
 62
7
  6
CONTINUOUS
 10
906.3700725712
 20
541.8997288044
 11
896.3700725712
 21
536.1262261125
  0
LINE
  5
370
100
AcDbEntity
  8
0
100
AcDbLine
 62
7
  6
CONTINUOUS
 10
1172.2006756413
 20
595.5497695181
 11
1172.4879655803
 21
595.63801798
  0
LINE
  5
371
100
AcDbEntity
  8
0
100
AcDbLine
 62
7
  6
CONTINUOUS
 10
887.3700725712
 20
331.3334855342
 11
891.3700725712
 21
331.3334799558
  0
LINE
  5
372
100
AcDbEntity
  8
0
100
AcDbLine
 62
7
  6
CONTINUOUS
 10
887.3700725712
 20
339.993739572
 11
889.8700725712
 21
339.993739572
  0
LINE
  5
373
100
AcDbEntity
  8
0
100
AcDbLine
 62
7
  6
CONTINUOUS
 10
934.8700725712
 20
249.3238665909
 11
896.3700725712
 21
271.5518519547
  0
LINE
  5
374
100
AcDbEntity
  8
0
100
AcDbLine
 62
2
  6
CONTINUOUS
 10
367.3100234243
 20
696.4623525111
 11
364.4600234243
 21
699.1773525111
  0
LINE
  5
375
100
AcDbEntity
  8
0
100
AcDbLine
 62
2
  6
CONTINUOUS
 10
366.7460234243
 20
696.3093525111
 11
364.1737032288
 21
698.7603956914
  0
LINE
  5
376
100
AcDbEntity
  8
0
100
AcDbLine
 62
7
  6
CONTINUOUS
 10
918.7992612092
 20
592.5106187326
 11
918.6378742163
 21
592.2630746314
  0
LINE
  5
377
100
AcDbEntity
  8
0
100
AcDbLine
 62
7
  6
CONTINUOUS
 10
918.788176965
 20
592.4922858781
 11
918.6241017354
 21
592.2437027415
  0
LINE
  5
378
100
AcDbEntity
  8
0
100
AcDbLine
 62
7
  6
CONTINUOUS
 10
918.6378742163
 20
592.2630746314
 11
918.4586605285
 21
592.0281304851
  0
LINE
  5
379
100
AcDbEntity
  8
0
100
AcDbLine
 62
7
  6
CONTINUOUS
 10
918.6241017354
 20
592.2437027415
 11
918.4422073779
 21
592.0082856297
  0
LINE
  5
37A
100
AcDbEntity
  8
0
100
AcDbLine
 62
7
  6
CONTINUOUS
 10
922.9519587181
 20
599.2925761534
 11
921.3700725712
 21
597.4659720747
  0
LINE
  5
37B
100
AcDbEntity
  8
0
100
AcDbLine
 62
7
  6
CONTINUOUS
 10
918.4586605285
 20
592.0281304851
 11
918.2626034337
 21
591.8070698969
  0
LINE
  5
37C
100
AcDbEntity
  8
0
100
AcDbLine
 62
7
  6
CONTINUOUS
 10
918.4422073779
 20
592.0082856297
 11
918.2436460442
 21
591.7873765129
  0
LINE
  5
37D
100
AcDbEntity
  8
0
100
AcDbLine
 62
7
  6
CONTINUOUS
 10
958.5175498625
 20
630.4562493092
 11
1014.5085382101
 21
686.4792966257
  0
LINE
  5
37E
100
AcDbEntity
  8
0
100
AcDbLine
 62
7
  6
CONTINUOUS
 10
1018.0278543322
 20
706.2127955624
 11
1017.9828498631
 21
706.1677910933
  0
LINE
  5
37F
100
AcDbEntity
  8
0
100
AcDbLine
 62
7
  6
CONTINUOUS
 10
948.3579726986
 20
636.5429139288
 11
948.3129682296
 21
636.4979094598
  0
LINE
  5
380
100
AcDbEntity
  8
0
100
AcDbLine
 62
7
  6
CONTINUOUS
 10
948.5704112809
 20
636.4239816612
 11
949.4264660422
 21
637.2800364225
  0
LINE
  5
381
100
AcDbEntity
  8
0
100
AcDbLine
 62
7
  6
CONTINUOUS
 10
1014.9724888554
 20
702.8260592357
 11
1018.1017821308
 21
705.9553525111
  0
LINE
  5
382
100
AcDbEntity
  8
0
100
AcDbLine
 62
7
  6
CONTINUOUS
 10
1026.9638899182
 20
664.6840933084
 11
1025.4352149343
 21
663.1554183244
  0
LINE
  5
383
100
AcDbEntity
  8
0
100
AcDbLine
 62
7
  6
CONTINUOUS
 10
1027.1991520782
 20
664.6840933084
 11
1027.3447401719
 21
664.8296814021
  0
LINE
  5
384
100
AcDbEntity
  8
0
100
AcDbLine
 62
7
  6
CONTINUOUS
 10
1027.1991520782
 20
664.4488311484
 11
1025.6704770943
 21
662.9201561645
  0
LINE
  5
385
100
AcDbEntity
  8
0
100
AcDbLine
 62
7
  6
CONTINUOUS
 10
918.2626034337
 20
591.8070698969
 11
918.0507745046
 21
591.6010956174
  0
LINE
  5
386
100
AcDbEntity
  8
0
100
AcDbLine
 62
7
  6
CONTINUOUS
 10
918.2436460442
 20
591.7873765129
 11
918.0367453344
 21
591.5885076734
  0
LINE
  5
387
100
AcDbEntity
  8
0
100
AcDbLine
 62
7
  6
CONTINUOUS
 10
918.0507745046
 20
591.6010956174
 11
918.0450002441
 21
591.5958952395
  0
LINE
  5
388
100
AcDbEntity
  8
0
100
AcDbLine
 62
7
  6
CONTINUOUS
 10
906.3700725712
 20
524.5792207287
 11
896.3700725712
 21
518.8057180368
  0
LINE
  5
389
100
AcDbEntity
  8
0
100
AcDbLine
 62
7
  6
CONTINUOUS
 10
1171.9160876637
 20
595.4192215825
 11
1172.2006756413
 21
595.5497695181
  0
LINE
  5
38A
100
AcDbEntity
  8
0
100
AcDbLine
 62
7
  6
CONTINUOUS
 10
896.3700725712
 20
336.2409628223
 11
889.8700725712
 21
339.993739572
  0
LINE
  5
38B
100
AcDbEntity
  8
0
100
AcDbLine
 62
7
  6
CONTINUOUS
 10
1026.9638899182
 20
168.9266117138
 11
1025.4352149343
 21
170.4552866977
  0
LINE
  5
38C
100
AcDbEntity
  8
0
100
AcDbLine
 62
7
  6
CONTINUOUS
 10
1027.1991520782
 20
168.9266117138
 11
1027.3447401719
 21
168.7810236201
  0
LINE
  5
38D
100
AcDbEntity
  8
0
100
AcDbLine
 62
7
  6
CONTINUOUS
 10
1027.1991520782
 20
169.1618738737
 11
1025.6704770943
 21
170.6905488576
  0
LINE
  5
38E
100
AcDbEntity
  8
0
100
AcDbLine
 62
2
  6
CONTINUOUS
 10
536.1860234243
 20
678.2893525111
 11
537.1159270892
 21
677.3584095533
  0
LINE
  5
38F
100
AcDbEntity
  8
0
100
AcDbLine
 62
2
  6
CONTINUOUS
 10
537.3280234243
 20
677.5706762386
 11
536.4860234243
 21
678.4133525111
  0
LINE
  5
390
100
AcDbEntity
  8
0
100
AcDbLine
 62
7
  6
CONTINUOUS
 10
891.3700725712
 20
332.1963040962
 11
891.3778944831
 21
332.1881150943
  0
LINE
  5
391
100
AcDbEntity
  8
0
100
AcDbLine
 62
7
  6
CONTINUOUS
 10
970.3314784075
 20
129.5553525111
 11
968.4262225192
 21
132.8553525111
  0
LINE
  5
392
100
AcDbEntity
  8
0
100
AcDbLine
 62
7
  6
CONTINUOUS
 10
973.2759647803
 20
129.5553525111
 11
971.370708892
 21
132.8553525111
  0
LINE
  5
393
100
AcDbEntity
  8
0
100
AcDbLine
 62
7
  6
CONTINUOUS
 10
919.1681350168
 20
593.3150271087
 11
919.0651198577
 21
593.038036317
  0
LINE
  5
394
100
AcDbEntity
  8
0
100
AcDbLine
 62
7
  6
CONTINUOUS
 10
919.4054737265
 20
593.9427864884
 11
919.3024585674
 21
593.6657956966
  0
LINE
  5
395
100
AcDbEntity
  8
0
100
AcDbLine
 62
7
  6
CONTINUOUS
 10
919.1639859112
 20
593.3025442256
 11
919.0589452487
 21
593.0232353611
  0
LINE
  5
396
100
AcDbEntity
  8
0
100
AcDbLine
 62
7
  6
CONTINUOUS
 10
919.4013246208
 20
593.9303036052
 11
919.2962839584
 21
593.6509947408
  0
LINE
  5
397
100
AcDbEntity
  8
0
100
AcDbLine
 62
7
  6
CONTINUOUS
 10
919.0651198577
 20
593.038036317
 11
918.9419370242
 21
592.7694107066
  0
LINE
  5
398
100
AcDbEntity
  8
0
100
AcDbLine
 62
7
  6
CONTINUOUS
 10
919.0589452487
 20
593.0232353611
 11
918.9334216993
 21
592.75262758
  0
LINE
  5
399
100
AcDbEntity
  8
0
100
AcDbLine
 62
7
  6
CONTINUOUS
 10
918.9419370242
 20
592.7694107066
 11
918.7992612092
 21
592.5106187326
  0
LINE
  5
39A
100
AcDbEntity
  8
0
100
AcDbLine
 62
7
  6
CONTINUOUS
 10
918.9334216993
 20
592.75262758
 11
918.788176965
 21
592.4922858781
  0
LINE
  5
39B
100
AcDbEntity
  8
0
100
AcDbLine
 62
7
  6
CONTINUOUS
 10
891.3778944831
 20
444.2908344389
 11
891.3700725712
 21
444.282645437
  0
LINE
  5
39C
100
AcDbEntity
  8
0
100
AcDbLine
 62
7
  6
CONTINUOUS
 10
1120.2504942962
 20
666.5354355263
 11
1118.612628242
 21
664.8975694722
  0
LINE
  5
39D
100
AcDbEntity
  8
0
100
AcDbLine
 62
7
  6
CONTINUOUS
 10
1171.6421450343
 20
595.2498545806
 11
1171.9160876637
 21
595.4192215825
  0
LINE
  5
39E
100
AcDbEntity
  8
0
100
AcDbLine
 62
7
  6
CONTINUOUS
 10
889.8700725712
 20
436.4852099611
 11
896.3700725712
 21
440.2379867109
  0
LINE
  5
39F
100
AcDbEntity
  8
0
100
AcDbLine
 62
7
  6
CONTINUOUS
 10
887.3700725712
 20
436.4852099611
 11
889.8700725712
 21
436.4852099611
  0
LINE
  5
3A0
100
AcDbEntity
  8
0
100
AcDbLine
 62
7
  6
CONTINUOUS
 10
1238.2657376658
 20
437.121080942
 11
1239.6659649235
 21
437.1180212446
  0
LINE
  5
3A1
100
AcDbEntity
  8
0
100
AcDbLine
 62
7
  6
CONTINUOUS
 10
141.9040234243
 20
720.0875855581
 11
143.9040234243
 21
719.2591584334
  0
LINE
  5
3A2
100
AcDbEntity
  8
0
100
AcDbLine
 62
7
  6
CONTINUOUS
 10
1120.2504942962
 20
169.0752694958
 11
1118.612628242
 21
170.71313555
  0
LINE
  5
3A3
100
AcDbEntity
  8
0
100
AcDbLine
 62
7
  6
CONTINUOUS
 10
734.1362564714
 20
646.8553525111
 11
733.3078293466
 21
648.8553525111
  0
LINE
  5
3A4
100
AcDbEntity
  8
0
100
AcDbLine
 62
7
  6
CONTINUOUS
 10
887.3700725712
 20
244.993739572
 11
887.3700725712
 21
462.852721105
  0
LINE
  5
3A5
100
AcDbEntity
  8
0
100
AcDbLine
 62
7
  6
CONTINUOUS
 10
889.4534059998
 20
335.7066473373
 11
889.4534059178
 21
335.9325752521
  0
LINE
  5
3A6
100
AcDbEntity
  8
0
100
AcDbLine
 62
7
  6
CONTINUOUS
 10
889.4534061246
 20
440.5463744288
 11
889.4534059045
 21
466.913887731
  0
LINE
  5
3A7
100
AcDbEntity
  8
0
100
AcDbLine
 62
7
  6
CONTINUOUS
 10
889.4534059045
 20
245.5710898412
 11
889.4534060027
 21
332.9743707102
  0
LINE
  5
3A8
100
AcDbEntity
  8
0
100
AcDbLine
 62
7
  6
CONTINUOUS
 10
889.8700725712
 20
339.993739572
 11
889.8700725712
 21
436.4852099611
  0
LINE
  5
3A9
100
AcDbEntity
  8
0
100
AcDbLine
 62
7
  6
CONTINUOUS
 10
891.3700725712
 20
527.4659720747
 11
891.3700725712
 21
444.282645437
  0
LINE
  5
3AA
100
AcDbEntity
  8
0
100
AcDbLine
 62
7
  6
CONTINUOUS
 10
891.3700725712
 20
332.1963040962
 11
891.3700725712
 21
245.5710898412
  0
LINE
  5
3AB
100
AcDbEntity
  8
0
100
AcDbLine
 62
7
  6
CONTINUOUS
 10
896.3700725712
 20
518.8057180368
 11
896.3700725712
 21
440.2379867109
  0
LINE
  5
3AC
100
AcDbEntity
  8
0
100
AcDbLine
 62
7
  6
CONTINUOUS
 10
896.3700725712
 20
336.2409628223
 11
896.3700725712
 21
271.5518519547
  0
LINE
  5
3AD
100
AcDbEntity
  8
0
100
AcDbLine
 62
7
  6
CONTINUOUS
 10
911.3700725712
 20
550.5599828423
 11
911.3700725712
 21
576.6813623839
  0
LINE
  5
3AE
100
AcDbEntity
  8
0
100
AcDbLine
 62
7
  6
CONTINUOUS
 10
919.3700725712
 20
594.5695495627
 11
919.3689662941
 21
594.4758364978
  0
LINE
  5
3AF
100
AcDbEntity
  8
0
100
AcDbLine
 62
7
  6
CONTINUOUS
 10
919.6074112809
 20
595.1973089423
 11
919.6063050038
 21
595.1035958774
  0
LINE
  5
3B0
100
AcDbEntity
  8
0
100
AcDbLine
 62
7
  6
CONTINUOUS
 10
919.3689365954
 20
594.4753459397
 11
919.3689157201
 21
594.4736120517
  0
LINE
  5
3B1
100
AcDbEntity
  8
0
100
AcDbLine
 62
7
  6
CONTINUOUS
 10
919.6062753051
 20
595.1031053193
 11
919.6062544298
 21
595.1013714313
  0
LINE
  5
3B2
100
AcDbEntity
  8
0
100
AcDbLine
 62
7
  6
CONTINUOUS
 10
919.3689662941
 20
594.4758364978
 11
919.3506515957
 21
594.1762010381
  0
LINE
  5
3B3
100
AcDbEntity
  8
0
100
AcDbLine
 62
7
  6
CONTINUOUS
 10
919.6063050038
 20
595.1035958774
 11
919.5879903054
 21
594.8039604178
  0
LINE
  5
3B4
100
AcDbEntity
  8
0
100
AcDbLine
 62
7
  6
CONTINUOUS
 10
919.3511085372
 20
594.180865443
 11
919.3115209667
 21
593.8880084339
  0
LINE
  5
3B5
100
AcDbEntity
  8
0
100
AcDbLine
 62
7
  6
CONTINUOUS
 10
919.5884472468
 20
594.8086248227
 11
919.5488596764
 21
594.5157678135
  0
LINE
  5
3B6
100
AcDbEntity
  8
0
100
AcDbLine
 62
7
  6
CONTINUOUS
 10
919.3506515957
 20
594.1762010381
 11
919.3102532458
 21
593.8807171072
  0
LINE
  5
3B7
100
AcDbEntity
  8
0
100
AcDbLine
 62
7
  6
CONTINUOUS
 10
919.5879903054
 20
594.8039604178
 11
919.5475919555
 21
594.5084764868
  0
LINE
  5
3B8
100
AcDbEntity
  8
0
100
AcDbLine
 62
7
  6
CONTINUOUS
 10
919.3115209667
 20
593.8880084339
 11
919.2504186698
 21
593.5988685558
  0
LINE
  5
3B9
100
AcDbEntity
  8
0
100
AcDbLine
 62
7
  6
CONTINUOUS
 10
919.5488596764
 20
594.5157678135
 11
919.4877573795
 21
594.2266279355
  0
LINE
  5
3BA
100
AcDbEntity
  8
0
100
AcDbLine
 62
7
  6
CONTINUOUS
 10
919.3102532458
 20
593.8807171072
 11
919.2479173049
 21
593.5889290881
  0
LINE
  5
3BB
100
AcDbEntity
  8
0
100
AcDbLine
 62
7
  6
CONTINUOUS
 10
919.5475919555
 20
594.5084764868
 11
919.4852560145
 21
594.2166884678
  0
LINE
  5
3BC
100
AcDbEntity
  8
0
100
AcDbLine
 62
7
  6
CONTINUOUS
 10
919.2504186698
 20
593.5988685558
 11
919.1681350168
 21
593.3150271087
  0
LINE
  5
3BD
100
AcDbEntity
  8
0
100
AcDbLine
 62
7
  6
CONTINUOUS
 10
919.4877573795
 20
594.2266279355
 11
919.4054737265
 21
593.9427864884
  0
LINE
  5
3BE
100
AcDbEntity
  8
0
100
AcDbLine
 62
7
  6
CONTINUOUS
 10
919.2479173049
 20
593.5889290881
 11
919.1639859112
 21
593.3025442256
  0
LINE
  5
3BF
100
AcDbEntity
  8
0
100
AcDbLine
 62
7
  6
CONTINUOUS
 10
919.4852560145
 20
594.2166884678
 11
919.4013246208
 21
593.9303036052
  0
LINE
  5
3C0
100
AcDbEntity
  8
0
100
AcDbLine
 62
7
  6
CONTINUOUS
 10
1151.5895610272
 20
664.9641763237
 11
1149.9152979496
 21
663.289913246
  0
LINE
  5
3C1
100
AcDbEntity
  8
0
100
AcDbLine
 62
7
  6
CONTINUOUS
 10
1151.6903282656
 20
664.5944192421
 11
1150.1505601095
 21
663.0546510861
  0
LINE
  5
3C2
100
AcDbEntity
  8
0
100
AcDbLine
 62
7
  6
CONTINUOUS
 10
1171.3801484725
 20
595.0429084803
 11
1171.6421450343
 21
595.2498545806
  0
LINE
  5
3C3
100
AcDbEntity
  8
0
100
AcDbLine
 62
7
  6
CONTINUOUS
 10
1431.3798928446
 20
712.2323355428
 11
1427.1570977579
 21
709.4316124243
  0
LINE
  5
3C4
100
AcDbEntity
  8
0
100
AcDbLine
 62
7
  6
CONTINUOUS
 10
1427.9366579736
 20
709.564530426
 11
1431.5568244351
 21
711.9655666338
  0
LINE
  5
3C5
100
AcDbEntity
  8
0
100
AcDbLine
 62
7
  6
CONTINUOUS
 10
1172.4879655803
 20
595.63801798
 11
1172.7718375805
 21
595.6841355792
  0
LINE
  5
3C6
100
AcDbEntity
  8
0
100
AcDbLine
 62
7
  6
CONTINUOUS
 10
896.3700725712
 20
518.8057180368
 11
891.3700725712
 21
518.8057180368
  0
LINE
  5
3C7
100
AcDbEntity
  8
0
100
AcDbLine
 62
7
  6
CONTINUOUS
 10
1264.2089354985
 20
486.8645102269
 11
1268.7089140118
 21
486.8546771283
  0
LINE
  5
3C8
100
AcDbEntity
  8
0
100
AcDbLine
 62
7
  6
CONTINUOUS
 10
1151.5895610272
 20
168.6465286985
 11
1149.9152979496
 21
170.3207917761
  0
LINE
  5
3C9
100
AcDbEntity
  8
0
100
AcDbLine
 62
7
  6
CONTINUOUS
 10
1151.9704112809
 20
168.5009406048
 11
1151.8248231872
 21
168.6465286985
  0
LINE
  5
3CA
100
AcDbEntity
  8
0
100
AcDbLine
 62
7
  6
CONTINUOUS
 10
1151.8248231872
 20
168.8817908584
 11
1150.1505601095
 21
170.5560539361
  0
LINE
  5
3CB
100
AcDbEntity
  8
0
100
AcDbLine
 62
7
  6
CONTINUOUS
 10
735.9040234243
 20
638.2946923393
 11
734.8433632525
 21
639.3553525111
  0
LINE
  5
3CC
100
AcDbEntity
  8
0
100
AcDbLine
 62
7
  6
CONTINUOUS
 10
946.7812775416
 20
624.5139073925
 11
946.7773655127
 21
638.1825359828
  0
LINE
  5
3CD
100
AcDbEntity
  8
0
100
AcDbLine
 62
7
  6
CONTINUOUS
 10
947.1812775252
 20
624.5140218744
 11
947.1773654963
 21
638.1826504647
  0
LINE
  5
3CE
100
AcDbEntity
  8
0
100
AcDbLine
 62
7
  6
CONTINUOUS
 10
919.3700725712
 20
600.6327337006
 11
919.3700725712
 21
594.5699062093
  0
LINE
  5
3CF
100
AcDbEntity
  8
0
100
AcDbLine
 62
7
  6
CONTINUOUS
 10
919.6074112809
 20
601.2604930802
 11
919.6074112809
 21
595.197665589
  0
LINE
  5
3D0
100
AcDbEntity
  8
0
100
AcDbLine
 62
7
  6
CONTINUOUS
 10
921.3700725712
 20
550.5599828423
 11
921.3700725712
 21
559.3608543082
  0
LINE
  5
3D1
100
AcDbEntity
  8
0
100
AcDbLine
 62
7
  6
CONTINUOUS
 10
922.9519587181
 20
600.6327337006
 11
922.9519587181
 21
599.2925768602
  0
LINE
  5
3D2
100
AcDbEntity
  8
0
100
AcDbLine
 62
7
  6
CONTINUOUS
 10
934.8700725712
 20
249.3238665909
 11
934.8700725712
 21
567.1550829422
  0
LINE
  5
3D3
100
AcDbEntity
  8
0
100
AcDbLine
 62
7
  6
CONTINUOUS
 10
944.3704112809
 20
177.5793721004
 11
944.3704112809
 21
158.3550961921
  0
LINE
  5
3D4
100
AcDbEntity
  8
0
100
AcDbLine
 62
7
  6
CONTINUOUS
 10
947.3704112809
 20
153.3672341462
 11
947.3704112809
 21
631.8672341462
  0
LINE
  5
3D5
100
AcDbEntity
  8
0
100
AcDbLine
 62
7
  6
CONTINUOUS
 10
947.7704112809
 20
636.5896670861
 11
947.7704112809
 21
134.8520142103
  0
LINE
  5
3D6
100
AcDbEntity
  8
0
100
AcDbLine
 62
7
  6
CONTINUOUS
 10
948.1704112809
 20
134.8553525111
 11
948.1704112809
 21
134.4553525111
  0
LINE
  5
3D7
100
AcDbEntity
  8
0
100
AcDbLine
 62
7
  6
CONTINUOUS
 10
948.5704112809
 20
134.8897304602
 11
948.5704112809
 21
636.4239816612
  0
LINE
  5
3D8
100
AcDbEntity
  8
0
100
AcDbLine
 62
7
  6
CONTINUOUS
 10
948.7704112809
 20
132.8553525111
 11
948.7704112809
 21
134.3553525111
  0
LINE
  5
3D9
100
AcDbEntity
  8
0
100
AcDbLine
 62
7
  6
CONTINUOUS
 10
954.7704112809
 20
132.8553525111
 11
954.7704112809
 21
153.3553525111
  0
LINE
  5
3DA
100
AcDbEntity
  8
0
100
AcDbLine
 62
7
  6
CONTINUOUS
 10
960.9704112809
 20
168.3841522393
 11
960.9704112809
 21
630.2553525111
  0
LINE
  5
3DB
100
AcDbEntity
  8
0
100
AcDbLine
 62
7
  6
CONTINUOUS
 10
961.3704112809
 20
168.3841522393
 11
961.3704112809
 21
630.2553525111
  0
LINE
  5
3DC
100
AcDbEntity
  8
0
100
AcDbLine
 62
7
  6
CONTINUOUS
 10
962.7704112809
 20
168.3841522393
 11
962.7704112809
 21
632.0553525111
  0
LINE
  5
3DD
100
AcDbEntity
  8
0
100
AcDbLine
 62
7
  6
CONTINUOUS
 10
973.2759647803
 20
129.5553525111
 11
973.2759647803
 21
127.8553525111
  0
LINE
  5
3DE
100
AcDbEntity
  8
0
100
AcDbLine
 62
7
  6
CONTINUOUS
 10
1170.9045441909
 20
594.5273005233
 11
1171.1335636019
 21
594.8013483132
  0
LINE
  5
3DF
100
AcDbEntity
  8
0
100
AcDbLine
 62
7
  6
CONTINUOUS
 10
1252.2504942962
 20
666.5354355263
 11
1250.612628242
 21
664.8975694722
  0
LINE
  5
3E0
100
AcDbEntity
  8
0
100
AcDbLine
 62
7
  6
CONTINUOUS
 10
734.8433632525
 20
139.3553525111
 11
735.9040234243
 21
140.4160126828
  0
LINE
  5
3E1
100
AcDbEntity
  8
0
100
AcDbLine
 62
7
  6
CONTINUOUS
 10
1277.1638899182
 20
664.8185882299
 11
1275.6352149343
 21
663.289913246
  0
LINE
  5
3E2
100
AcDbEntity
  8
0
100
AcDbLine
 62
7
  6
CONTINUOUS
 10
1277.5447401719
 20
664.9641763237
 11
1277.3991520782
 21
664.8185882299
  0
LINE
  5
3E3
100
AcDbEntity
  8
0
100
AcDbLine
 62
7
  6
CONTINUOUS
 10
1277.3991520782
 20
664.58332607
 11
1275.8704770943
 21
663.0546510861
  0
LINE
  5
3E4
100
AcDbEntity
  8
0
100
AcDbLine
 62
7
  6
CONTINUOUS
 10
1171.1335636019
 20
594.8013483132
 11
1171.3801484725
 21
595.0429084803
  0
LINE
  5
3E5
100
AcDbEntity
  8
0
100
AcDbLine
 62
7
  6
CONTINUOUS
 10
925.7897948122
 20
600.931002293
 11
922.9519587181
 21
600.6327337006
  0
LINE
  5
3E6
100
AcDbEntity
  8
0
100
AcDbLine
 62
7
  6
CONTINUOUS
 10
933.7881864243
 20
605.7497547082
 11
922.9519587181
 21
604.610821282
  0
LINE
  5
3E7
100
AcDbEntity
  8
0
100
AcDbLine
 62
7
  6
CONTINUOUS
 10
923.1892974278
 20
605.2385806617
 11
947.3704112809
 21
607.7801181411
  0
LINE
  5
3E8
100
AcDbEntity
  8
0
100
AcDbLine
 62
7
  6
CONTINUOUS
 10
1172.7718375805
 20
595.6841355792
 11
1172.9580550873
 21
595.6927174576
  0
LINE
  5
3E9
100
AcDbEntity
  8
0
100
AcDbLine
 62
7
  6
CONTINUOUS
 10
911.3700725712
 20
550.5599828423
 11
921.3700725712
 21
550.5599828424
  0
LINE
  5
3EA
100
AcDbEntity
  8
0
100
AcDbLine
 62
7
  6
CONTINUOUS
 10
911.3700725712
 20
559.3608543082
 11
921.3700725712
 21
559.3608543082
  0
LINE
  5
3EB
100
AcDbEntity
  8
0
100
AcDbLine
 62
7
  6
CONTINUOUS
 10
664.9040234243
 20
563.3553525111
 11
212.9040234243
 21
563.3553525111
  0
LINE
  5
3EC
100
AcDbEntity
  8
0
100
AcDbLine
 62
7
  6
CONTINUOUS
 10
1240.4580552335
 20
569.2006519727
 11
1170.4580552335
 21
569.2006519727
  0
LINE
  5
3ED
100
AcDbEntity
  8
0
100
AcDbLine
 62
7
  6
CONTINUOUS
 10
1172.9580552325
 20
573.8981947986
 11
1237.9580552439
 21
573.8981947986
  0
LINE
  5
3EE
100
AcDbEntity
  8
0
100
AcDbLine
 62
7
  6
CONTINUOUS
 10
1172.9580552335
 20
575.9562718712
 11
1237.9580552335
 21
575.9562718712
  0
LINE
  5
3EF
100
AcDbEntity
  8
0
100
AcDbLine
 62
7
  6
CONTINUOUS
 10
1169.9580552335
 20
580.5791885202
 11
1167.4580552335
 21
580.5791885202
  0
LINE
  5
3F0
100
AcDbEntity
  8
0
100
AcDbLine
 62
7
  6
CONTINUOUS
 10
1240.9580552335
 20
580.5791885202
 11
1243.4580552335
 21
580.5791885202
  0
LINE
  5
3F1
100
AcDbEntity
  8
0
100
AcDbLine
 62
7
  6
CONTINUOUS
 10
1169.9580552335
 20
591.5117237008
 11
1167.4580552335
 21
591.5117237008
  0
LINE
  5
3F2
100
AcDbEntity
  8
0
100
AcDbLine
 62
7
  6
CONTINUOUS
 10
1240.9580552335
 20
591.5117237008
 11
1243.4580552335
 21
591.5117237008
  0
LINE
  5
3F3
100
AcDbEntity
  8
0
100
AcDbLine
 62
7
  6
CONTINUOUS
 10
1494.0703902705
 20
594.3557535507
 11
1454.3704112809
 21
594.3557535507
  0
LINE
  5
3F4
100
AcDbEntity
  8
0
100
AcDbLine
 62
7
  6
CONTINUOUS
 10
669.7519979109
 20
594.3557535507
 11
208.0553900537
 21
594.3557535507
  0
LINE
  5
3F5
100
AcDbEntity
  8
0
100
AcDbLine
 62
7
  6
CONTINUOUS
 10
1252.2504942962
 20
169.0752694958
 11
1250.612628242
 21
170.71313555
  0
LINE
  5
3F6
100
AcDbEntity
  8
0
100
AcDbLine
 62
7
  6
CONTINUOUS
 10
1277.1638899182
 20
168.7921167922
 11
1275.6352149343
 21
170.3207917761
  0
LINE
  5
3F7
100
AcDbEntity
  8
0
100
AcDbLine
 62
7
  6
CONTINUOUS
 10
1277.5447401719
 20
168.6465286985
 11
1277.3991520782
 21
168.7921167922
  0
LINE
  5
3F8
100
AcDbEntity
  8
0
100
AcDbLine
 62
7
  6
CONTINUOUS
 10
1277.3991520782
 20
169.0273789522
 11
1275.8704770943
 21
170.5560539361
  0
LINE
  5
3F9
100
AcDbEntity
  8
0
100
AcDbLine
 62
7
  6
CONTINUOUS
 10
733.9040234243
 20
719.2591584334
 11
733.3078293466
 21
719.8553525111
  0
LINE
  5
3FA
100
AcDbEntity
  8
0
100
AcDbLine
 62
7
  6
CONTINUOUS
 10
734.1362564714
 20
721.8553525111
 11
735.9040234243
 21
720.0875855581
  0
LINE
  5
3FB
100
AcDbEntity
  8
0
100
AcDbLine
 62
7
  6
CONTINUOUS
 10
1014.9768435371
 20
687.6108015532
 11
1014.9716904528
 21
705.6156781394
  0
LINE
  5
3FC
100
AcDbEntity
  8
0
100
AcDbLine
 62
7
  6
CONTINUOUS
 10
1017.799078988
 20
709.2449146253
 11
1017.79919347
 21
708.8449146417
  0
LINE
  5
3FD
100
AcDbEntity
  8
0
100
AcDbLine
 62
7
  6
CONTINUOUS
 10
1018.8012131354
 20
701.7883468862
 11
1018.7990783081
 21
709.2474332284
  0
LINE
  5
3FE
100
AcDbEntity
  8
0
100
AcDbLine
 62
7
  6
CONTINUOUS
 10
986.7704112809
 20
153.3553525111
 11
986.7704112809
 21
143.3553525111
  0
LINE
  5
3FF
100
AcDbEntity
  8
0
100
AcDbLine
 62
7
  6
CONTINUOUS
 10
988.7704112809
 20
126.8553525111
 11
988.7704112809
 21
132.4553525111
  0
LINE
  5
400
100
AcDbEntity
  8
0
100
AcDbLine
 62
7
  6
CONTINUOUS
 10
997.7704112809
 20
168.3841522393
 11
997.7704112809
 21
632.0553525111
  0
LINE
  5
401
100
AcDbEntity
  8
0
100
AcDbLine
 62
7
  6
CONTINUOUS
 10
999.1704112809
 20
630.2553525111
 11
999.1704112809
 21
168.3841522393
  0
LINE
  5
402
100
AcDbEntity
  8
0
100
AcDbLine
 62
7
  6
CONTINUOUS
 10
999.5704112809
 20
630.2553525111
 11
999.5704112809
 21
180.2553525111
  0
LINE
  5
403
100
AcDbEntity
  8
0
100
AcDbLine
 62
7
  6
CONTINUOUS
 10
1007.6960823899
 20
168.8098233483
 11
1007.6960823899
 21
664.8296814021
  0
LINE
  5
404
100
AcDbEntity
  8
0
100
AcDbLine
 62
7
  6
CONTINUOUS
 10
1007.8416704836
 20
664.6840933084
 11
1007.8416704836
 21
664.4488311484
  0
LINE
  5
405
100
AcDbEntity
  8
0
100
AcDbLine
 62
7
  6
CONTINUOUS
 10
1007.8416704836
 20
168.9266117138
 11
1007.8416704836
 21
169.1618738737
  0
LINE
  5
406
100
AcDbEntity
  8
0
100
AcDbLine
 62
7
  6
CONTINUOUS
 10
1008.2416704836
 20
664.2840933084
 11
1008.2416704836
 21
664.0488311484
  0
LINE
  5
407
100
AcDbEntity
  8
0
100
AcDbLine
 62
7
  6
CONTINUOUS
 10
1009.3703454675
 20
170.7193485859
 11
1009.3703454675
 21
662.9201561645
  0
LINE
  5
408
100
AcDbEntity
  8
0
100
AcDbLine
 62
7
  6
CONTINUOUS
 10
1017.7704112809
 20
153.3553525111
 11
1017.7704112809
 21
143.3553525111
  0
LINE
  5
409
100
AcDbEntity
  8
0
100
AcDbLine
 62
7
  6
CONTINUOUS
 10
1017.9360967058
 20
706.3553525111
 11
1017.9360967058
 21
706.7553525111
  0
LINE
  5
40A
100
AcDbEntity
  8
0
100
AcDbLine
 62
7
  6
CONTINUOUS
 10
1025.6704770943
 20
170.7193485859
 11
1025.6704770943
 21
662.9201561645
  0
LINE
  5
40B
100
AcDbEntity
  8
0
100
AcDbLine
 62
7
  6
CONTINUOUS
 10
1027.1991520782
 20
664.6840933084
 11
1027.1991520782
 21
664.4488311484
  0
LINE
  5
40C
100
AcDbEntity
  8
0
100
AcDbLine
 62
7
  6
CONTINUOUS
 10
1027.1991520782
 20
168.9266117138
 11
1027.1991520782
 21
169.1618738737
  0
LINE
  5
40D
100
AcDbEntity
  8
0
100
AcDbLine
 62
7
  6
CONTINUOUS
 10
1027.3447401719
 20
664.8296814021
 11
1027.3447401719
 21
170.7393330495
  0
LINE
  5
40E
100
AcDbEntity
  8
0
100
AcDbLine
 62
7
  6
CONTINUOUS
 10
1027.4903282656
 20
180.9752694958
 11
1027.4903282656
 21
664.6560502848
  0
LINE
  5
40F
100
AcDbEntity
  8
0
100
AcDbLine
 62
7
  6
CONTINUOUS
 10
1027.9159993746
 20
666.1097644174
 11
1027.9159993746
 21
665.8745022574
  0
LINE
  5
410
100
AcDbEntity
  8
0
100
AcDbLine
 62
7
  6
CONTINUOUS
 10
1028.1704112809
 20
665.6200903511
 11
1028.1704112809
 21
665.8553525111
  0
LINE
  5
411
100
AcDbEntity
  8
0
100
AcDbLine
 62
7
  6
CONTINUOUS
 10
1028.3159993746
 20
665.7097644174
 11
1028.3159993746
 21
665.4745022574
  0
LINE
  5
412
100
AcDbEntity
  8
0
100
AcDbLine
 62
7
  6
CONTINUOUS
 10
1029.1281943198
 20
170.7419352782
 11
1029.1281943198
 21
663.0181842306
  0
LINE
  5
413
100
AcDbEntity
  8
0
100
AcDbLine
 62
7
  6
CONTINUOUS
 10
999.5704112809
 20
180.2553525111
 11
999.1704112809
 21
168.3841522393
  0
LINE
  5
414
100
AcDbEntity
  8
0
100
AcDbLine
 62
7
  6
CONTINUOUS
 10
1170.6951898704
 20
594.222929479
 11
1170.9045441909
 21
594.5273005233
  0
LINE
  5
415
100
AcDbEntity
  8
0
100
AcDbLine
 62
7
  6
CONTINUOUS
 10
1341.2394711732
 20
671.4574251053
 11
1340.8353259848
 21
671.0532799168
  0
LINE
  5
416
100
AcDbEntity
  8
0
100
AcDbLine
 62
7
  6
CONTINUOUS
 10
1341.6724838751
 20
671.0244124034
 11
1341.2683386867
 21
670.620267215
  0
LINE
  5
417
100
AcDbEntity
  8
0
100
AcDbLine
 62
7
  6
CONTINUOUS
 10
1427.9366579736
 20
709.564530426
 11
1427.1560179891
 21
709.430894267
  0
LINE
  5
418
100
AcDbEntity
  8
0
100
AcDbLine
 62
7
  6
CONTINUOUS
 10
946.7773655127
 20
638.1825359828
 11
947.1773654963
 21
638.1826504647
  0
LINE
  5
419
100
AcDbEntity
  8
0
100
AcDbLine
 62
7
  6
CONTINUOUS
 10
1237.9580552335
 20
595.6927174223
 11
1172.9580550884
 21
595.6927174223
  0
LINE
  5
41A
100
AcDbEntity
  8
0
100
AcDbLine
 62
7
  6
CONTINUOUS
 10
1496.3704112809
 20
596.6557535507
 11
1454.3704112809
 21
596.6557535507
  0
LINE
  5
41B
100
AcDbEntity
  8
0
100
AcDbLine
 62
7
  6
CONTINUOUS
 10
676.5480911278
 20
596.6557535507
 11
201.2592249204
 21
596.6557535507
  0
LINE
  5
41C
100
AcDbEntity
  8
0
100
AcDbLine
 62
7
  6
CONTINUOUS
 10
1237.9580552373
 20
598.1927174223
 11
1172.9580552097
 21
598.1927174223
  0
LINE
  5
41D
100
AcDbEntity
  8
0
100
AcDbLine
 62
7
  6
CONTINUOUS
 10
919.3700725712
 20
600.6327337006
 11
922.9519587181
 21
600.6327337006
  0
LINE
  5
41E
100
AcDbEntity
  8
0
100
AcDbLine
 62
7
  6
CONTINUOUS
 10
1240.4580552335
 20
602.2006519727
 11
1170.4580552335
 21
602.2006519727
  0
LINE
  5
41F
100
AcDbEntity
  8
0
100
AcDbLine
 62
7
  6
CONTINUOUS
 10
1450.1704112809
 20
604.3553525111
 11
1448.3704112809
 21
604.3553525111
  0
LINE
  5
420
100
AcDbEntity
  8
0
100
AcDbLine
 62
7
  6
CONTINUOUS
 10
1273.4704112809
 20
608.847076418
 11
1261.4704112809
 21
608.847076418
  0
LINE
  5
421
100
AcDbEntity
  8
0
100
AcDbLine
 62
7
  6
CONTINUOUS
 10
1143.4704112809
 20
608.847076418
 11
1131.4704112809
 21
608.847076418
  0
LINE
  5
422
100
AcDbEntity
  8
0
100
AcDbLine
 62
7
  6
CONTINUOUS
 10
1131.4704112809
 20
613.5553525111
 11
1143.4704112809
 21
613.5553525111
  0
LINE
  5
423
100
AcDbEntity
  8
0
100
AcDbLine
 62
7
  6
CONTINUOUS
 10
1261.4704112809
 20
613.5553525111
 11
1273.4704112809
 21
613.5553525111
  0
LINE
  5
424
100
AcDbEntity
  8
0
100
AcDbLine
 62
7
  6
CONTINUOUS
 10
1131.8704112809
 20
615.447076418
 11
1143.4704112809
 21
615.447076418
  0
LINE
  5
425
100
AcDbEntity
  8
0
100
AcDbLine
 62
7
  6
CONTINUOUS
 10
1131.4704112809
 20
615.847076418
 11
1143.4704112809
 21
615.847076418
  0
LINE
  5
426
100
AcDbEntity
  8
0
100
AcDbLine
 62
7
  6
CONTINUOUS
 10
1261.4704112809
 20
615.847076418
 11
1273.4704112809
 21
615.847076418
  0
LINE
  5
427
100
AcDbEntity
  8
0
100
AcDbLine
 62
7
  6
CONTINUOUS
 10
201.2592249204
 20
622.0557535507
 11
676.5480911278
 21
622.0557535507
  0
LINE
  5
428
100
AcDbEntity
  8
0
100
AcDbLine
 62
7
  6
CONTINUOUS
 10
1454.3704112809
 20
622.0557535507
 11
1496.3704112809
 21
622.0557535507
  0
LINE
  5
429
100
AcDbEntity
  8
0
100
AcDbLine
 62
7
  6
CONTINUOUS
 10
208.0554508139
 20
624.3557535507
 11
669.7519372989
 21
624.3557535507
  0
LINE
  5
42A
100
AcDbEntity
  8
0
100
AcDbLine
 62
7
  6
CONTINUOUS
 10
1454.3704112809
 20
624.3557535507
 11
1494.0704617481
 21
624.3557535507
  0
LINE
  5
42B
100
AcDbEntity
  8
0
100
AcDbLine
 62
7
  6
CONTINUOUS
 10
960.9704112809
 20
630.2553525111
 11
999.5704112809
 21
630.2553525111
  0
LINE
  5
42C
100
AcDbEntity
  8
0
100
AcDbLine
 62
7
  6
CONTINUOUS
 10
962.7704112809
 20
631.6553525111
 11
997.7704112809
 21
631.6553525111
  0
LINE
  5
42D
100
AcDbEntity
  8
0
100
AcDbLine
 62
7
  6
CONTINUOUS
 10
947.3704112809
 20
631.8672341462
 11
947.7704112809
 21
631.8672341462
  0
LINE
  5
42E
100
AcDbEntity
  8
0
100
AcDbLine
 62
7
  6
CONTINUOUS
 10
962.7704112809
 20
632.0553525111
 11
997.7704112809
 21
632.0553525111
  0
LINE
  5
42F
100
AcDbEntity
  8
0
100
AcDbLine
 62
7
  6
CONTINUOUS
 10
948.1704112809
 20
636.5896670861
 11
947.7704112809
 21
636.5896670861
  0
LINE
  5
430
100
AcDbEntity
  8
0
100
AcDbLine
 62
7
  6
CONTINUOUS
 10
1450.3704112809
 20
637.3553525111
 11
1450.1704112809
 21
637.3553525111
  0
LINE
  5
431
100
AcDbEntity
  8
0
100
AcDbLine
 62
7
  6
CONTINUOUS
 10
732.9040234243
 20
637.3553525111
 11
144.9040234243
 21
637.3553525111
  0
LINE
  5
432
100
AcDbEntity
  8
0
100
AcDbLine
 62
7
  6
CONTINUOUS
 10
733.8433632525
 20
639.3553525111
 11
143.9646835961
 21
639.3553525111
  0
LINE
  5
433
100
AcDbEntity
  8
0
100
AcDbLine
 62
7
  6
CONTINUOUS
 10
733.1362564714
 20
646.8553525111
 11
144.6717903773
 21
646.8553525111
  0
LINE
  5
434
100
AcDbEntity
  8
0
100
AcDbLine
 62
7
  6
CONTINUOUS
 10
145.500217502
 20
648.8553525111
 11
732.3078293466
 21
648.8553525111
  0
LINE
  5
435
100
AcDbEntity
  8
0
100
AcDbLine
 62
7
  6
CONTINUOUS
 10
1237.9580552335
 20
595.6927174535
 11
1238.1523091934
 21
595.6834000326
  0
LINE
  5
436
100
AcDbEntity
  8
0
100
AcDbLine
 62
7
  6
CONTINUOUS
 10
733.9040234243
 20
649.4515465888
 11
735.9040234243
 21
648.623119464
  0
LINE
  5
437
100
AcDbEntity
  8
0
100
AcDbLine
 62
7
  6
CONTINUOUS
 10
1341.2394711732
 20
167.1532799168
 11
1340.8353259848
 21
167.5574251053
  0
LINE
  5
438
100
AcDbEntity
  8
0
100
AcDbLine
 62
7
  6
CONTINUOUS
 10
1341.6724838751
 20
167.5862926187
 11
1341.2683386867
 21
167.9904378072
  0
LINE
  5
439
100
AcDbEntity
  8
0
100
AcDbLine
 62
7
  6
CONTINUOUS
 10
1409.2184112809
 20
134.8553525111
 11
1406.2184112809
 21
137.8553525111
  0
LINE
  5
43A
100
AcDbEntity
  8
0
100
AcDbLine
 62
7
  6
CONTINUOUS
 10
972.7045497724
 20
665.8706496887
 11
972.166029915
 21
667.8781347728
  0
LINE
  5
43B
100
AcDbEntity
  8
0
100
AcDbLine
 62
7
  6
CONTINUOUS
 10
1170.343403577
 20
593.5305780692
 11
1170.5075117291
 21
593.8901720006
  0
LINE
  5
43C
100
AcDbEntity
  8
0
100
AcDbLine
 62
7
  6
CONTINUOUS
 10
1170.5075117291
 20
593.8901720006
 11
1170.6951898704
 21
594.222929479
  0
LINE
  5
43D
100
AcDbEntity
  8
0
100
AcDbLine
 62
7
  6
CONTINUOUS
 10
1424.7401930468
 20
695.8322441697
 11
1430.4013138101
 21
701.4966063421
  0
LINE
  5
43E
100
AcDbEntity
  8
0
100
AcDbLine
 62
7
  6
CONTINUOUS
 10
1025.3439982613
 20
695.2493058434
 11
1130.4420398257
 21
695.2793854202
  0
LINE
  5
43F
100
AcDbEntity
  8
0
100
AcDbLine
 62
7
  6
CONTINUOUS
 10
1145.3013797139
 20
695.2836382364
 11
1423.6089563672
 21
695.3632912349
  0
LINE
  5
440
100
AcDbEntity
  8
0
100
AcDbLine
 62
7
  6
CONTINUOUS
 10
1418.0039388318
 20
655.8553525111
 11
1421.4793066238
 21
655.8553525111
  0
LINE
  5
441
100
AcDbEntity
  8
0
100
AcDbLine
 62
7
  6
CONTINUOUS
 10
1025.4352149343
 20
663.1554183244
 11
1009.6056076275
 21
663.1554183244
  0
LINE
  5
442
100
AcDbEntity
  8
0
100
AcDbLine
 62
7
  6
CONTINUOUS
 10
1275.6352149343
 20
663.289913246
 11
1254.3056076275
 21
663.289913246
  0
LINE
  5
443
100
AcDbEntity
  8
0
100
AcDbLine
 62
7
  6
CONTINUOUS
 10
1122.0255246122
 20
663.289913246
 11
1149.9152979496
 21
663.289913246
  0
LINE
  5
444
100
AcDbEntity
  8
0
100
AcDbLine
 62
7
  6
CONTINUOUS
 10
1008.2416704836
 20
664.2840933084
 11
1008.4769326435
 21
664.2840933084
  0
LINE
  5
445
100
AcDbEntity
  8
0
100
AcDbLine
 62
7
  6
CONTINUOUS
 10
1252.9416704836
 20
664.4185882299
 11
1253.1769326435
 21
664.4185882299
  0
LINE
  5
446
100
AcDbEntity
  8
0
100
AcDbLine
 62
7
  6
CONTINUOUS
 10
1120.5159993746
 20
664.5641763237
 11
1120.7512615346
 21
664.5641763237
  0
LINE
  5
447
100
AcDbEntity
  8
0
100
AcDbLine
 62
7
  6
CONTINUOUS
 10
1027.1991520782
 20
664.6840933084
 11
1026.9638899182
 21
664.6840933084
  0
LINE
  5
448
100
AcDbEntity
  8
0
100
AcDbLine
 62
7
  6
CONTINUOUS
 10
1007.8416704836
 20
664.6840933084
 11
1008.0769326435
 21
664.6840933084
  0
LINE
  5
449
100
AcDbEntity
  8
0
100
AcDbLine
 62
7
  6
CONTINUOUS
 10
1277.3991520782
 20
664.8185882299
 11
1277.1638899182
 21
664.8185882299
  0
LINE
  5
44A
100
AcDbEntity
  8
0
100
AcDbLine
 62
7
  6
CONTINUOUS
 10
1252.5416704836
 20
664.8185882299
 11
1252.7769326435
 21
664.8185882299
  0
LINE
  5
44B
100
AcDbEntity
  8
0
100
AcDbLine
 62
7
  6
CONTINUOUS
 10
1007.6960823899
 20
664.8296814021
 11
1027.3447401719
 21
664.8296814021
  0
LINE
  5
44C
100
AcDbEntity
  8
0
100
AcDbLine
 62
7
  6
CONTINUOUS
 10
1023.2075795614
 20
664.8975694722
 11
1118.612628242
 21
664.8975694722
  0
LINE
  5
44D
100
AcDbEntity
  8
0
100
AcDbLine
 62
7
  6
CONTINUOUS
 10
1155.2075795614
 20
664.8975694722
 11
1250.612628242
 21
664.8975694722
  0
LINE
  5
44E
100
AcDbEntity
  8
0
100
AcDbLine
 62
7
  6
CONTINUOUS
 10
1151.7141147191
 20
664.9641763237
 11
1151.5895610272
 21
664.9641763237
  0
LINE
  5
44F
100
AcDbEntity
  8
0
100
AcDbLine
 62
7
  6
CONTINUOUS
 10
1120.2504942962
 20
664.9641763237
 11
1120.3512615346
 21
664.9641763237
  0
LINE
  5
450
100
AcDbEntity
  8
0
100
AcDbLine
 62
7
  6
CONTINUOUS
 10
1252.3960823899
 20
664.9641763237
 11
1277.5447401719
 21
664.9641763237
  0
LINE
  5
451
100
AcDbEntity
  8
0
100
AcDbLine
 62
7
  6
CONTINUOUS
 10
1151.7412654875
 20
665.1097644174
 11
1120.2504942962
 21
665.1097644174
  0
LINE
  5
452
100
AcDbEntity
  8
0
100
AcDbLine
 62
7
  6
CONTINUOUS
 10
1028.3159993746
 20
665.7097644174
 11
1028.5512615346
 21
665.7097644174
  0
LINE
  5
453
100
AcDbEntity
  8
0
100
AcDbLine
 62
7
  6
CONTINUOUS
 10
1152.5159993746
 20
665.7097644174
 11
1152.7512615346
 21
665.7097644174
  0
LINE
  5
454
100
AcDbEntity
  8
0
100
AcDbLine
 62
7
  6
CONTINUOUS
 10
1028.1704112809
 20
665.8553525111
 11
1028.4056734408
 21
665.8553525111
  0
LINE
  5
455
100
AcDbEntity
  8
0
100
AcDbLine
 62
7
  6
CONTINUOUS
 10
1152.3704112809
 20
665.8553525111
 11
1152.6056734408
 21
665.8553525111
  0
LINE
  5
456
100
AcDbEntity
  8
0
100
AcDbLine
 62
7
  6
CONTINUOUS
 10
1027.9159993746
 20
666.1097644174
 11
1028.1512615346
 21
666.1097644174
  0
LINE
  5
457
100
AcDbEntity
  8
0
100
AcDbLine
 62
7
  6
CONTINUOUS
 10
1152.1159993746
 20
666.1097644174
 11
1152.3512615346
 21
666.1097644174
  0
LINE
  5
458
100
AcDbEntity
  8
0
100
AcDbLine
 62
7
  6
CONTINUOUS
 10
1021.5697135072
 20
666.5354355263
 11
1120.2504942962
 21
666.5354355263
  0
LINE
  5
459
100
AcDbEntity
  8
0
100
AcDbLine
 62
7
  6
CONTINUOUS
 10
1153.5697135072
 20
666.5354355263
 11
1252.2504942962
 21
666.5354355263
  0
LINE
  5
45A
100
AcDbEntity
  8
0
100
AcDbLine
 62
2
  6
CONTINUOUS
 10
499.2590234243
 20
669.6523525111
 11
379.6710234243
 21
669.6523525111
  0
LINE
  5
45B
100
AcDbEntity
  8
0
100
AcDbLine
 62
7
  6
CONTINUOUS
 10
1287.6724838751
 20
670.620267215
 11
1294.6551987518
 21
670.620267215
  0
LINE
  5
45C
100
AcDbEntity
  8
0
100
AcDbLine
 62
7
  6
CONTINUOUS
 10
1295.78562381
 20
670.620267215
 11
1302.6551987518
 21
670.620267215
  0
LINE
  5
45D
100
AcDbEntity
  8
0
100
AcDbLine
 62
7
  6
CONTINUOUS
 10
1303.78562381
 20
670.620267215
 11
1310.6551987518
 21
670.620267215
  0
LINE
  5
45E
100
AcDbEntity
  8
0
100
AcDbLine
 62
7
  6
CONTINUOUS
 10
1311.78562381
 20
670.620267215
 11
1318.6551987518
 21
670.620267215
  0
LINE
  5
45F
100
AcDbEntity
  8
0
100
AcDbLine
 62
7
  6
CONTINUOUS
 10
1319.78562381
 20
670.620267215
 11
1326.6551987518
 21
670.620267215
  0
LINE
  5
460
100
AcDbEntity
  8
0
100
AcDbLine
 62
7
  6
CONTINUOUS
 10
1327.78562381
 20
670.620267215
 11
1334.6551987518
 21
670.620267215
  0
LINE
  5
461
100
AcDbEntity
  8
0
100
AcDbLine
 62
7
  6
CONTINUOUS
 10
1335.78562381
 20
670.620267215
 11
1341.2683386867
 21
670.620267215
  0
LINE
  5
462
100
AcDbEntity
  8
0
100
AcDbLine
 62
7
  6
CONTINUOUS
 10
1433.4706478376
 20
670.8553525111
 11
1433.29699966
 21
670.8553525111
  0
LINE
  5
463
100
AcDbEntity
  8
0
100
AcDbLine
 62
7
  6
CONTINUOUS
 10
1287.2683386867
 20
671.0244124034
 11
1287.1817361463
 21
671.0244124034
  0
LINE
  5
464
100
AcDbEntity
  8
0
100
AcDbLine
 62
7
  6
CONTINUOUS
 10
1341.6724838751
 20
671.0244124034
 11
1341.7590864155
 21
671.0244124034
  0
LINE
  5
465
100
AcDbEntity
  8
0
100
AcDbLine
 62
7
  6
CONTINUOUS
 10
1288.105496577
 20
671.0532799168
 11
1340.8353259848
 21
671.0532799168
  0
LINE
  5
466
100
AcDbEntity
  8
0
100
AcDbLine
 62
7
  6
CONTINUOUS
 10
1287.7013513886
 20
671.4574251053
 11
1341.2394711732
 21
671.4574251053
  0
LINE
  5
467
100
AcDbEntity
  8
0
100
AcDbLine
 62
7
  6
CONTINUOUS
 10
1287.7013513886
 20
671.5440276457
 11
1341.2394711732
 21
671.5440276457
  0
LINE
  5
468
100
AcDbEntity
  8
0
100
AcDbLine
 62
7
  6
CONTINUOUS
 10
1433.4706478376
 20
672.8553525111
 11
1433.29699966
 21
672.8553525111
  0
LINE
  5
469
100
AcDbEntity
  8
0
100
AcDbLine
 62
2
  6
CONTINUOUS
 10
539.4470234243
 20
674.6803525111
 11
539.2470234243
 21
674.6803525111
  0
LINE
  5
46A
100
AcDbEntity
  8
0
100
AcDbLine
 62
2
  6
CONTINUOUS
 10
339.7530234243
 20
675.5843525111
 11
339.2530234243
 21
675.5843525111
  0
LINE
  5
46B
100
AcDbEntity
  8
0
100
AcDbLine
 62
2
  6
CONTINUOUS
 10
511.2630234243
 20
678.1783525111
 11
517.7630234243
 21
678.1783525111
  0
LINE
  5
46C
100
AcDbEntity
  8
0
100
AcDbLine
 62
2
  6
CONTINUOUS
 10
517.7630234243
 20
678.6783525111
 11
511.2630234243
 21
678.6783525111
  0
LINE
  5
46D
100
AcDbEntity
  8
0
100
AcDbLine
 62
2
  6
CONTINUOUS
 10
366.8530234243
 20
678.8193525111
 11
361.7080234243
 21
678.8193525111
  0
LINE
  5
46E
100
AcDbEntity
  8
0
100
AcDbLine
 62
2
  6
CONTINUOUS
 10
367.3480234243
 20
679.3193525111
 11
361.2130234243
 21
679.3193525111
  0
LINE
  5
46F
100
AcDbEntity
  8
0
100
AcDbLine
 62
2
  6
CONTINUOUS
 10
536.4860234243
 20
679.4813525111
 11
536.1860234243
 21
679.4813525111
  0
LINE
  5
470
100
AcDbEntity
  8
0
100
AcDbLine
 62
2
  6
CONTINUOUS
 10
339.2530234243
 20
681.8953525111
 11
339.7530234243
 21
681.8953525111
  0
LINE
  5
471
100
AcDbEntity
  8
0
100
AcDbLine
 62
2
  6
CONTINUOUS
 10
539.2470234243
 20
682.0213525111
 11
539.4470234243
 21
682.0213525111
  0
LINE
  5
472
100
AcDbEntity
  8
0
100
AcDbLine
 62
2
  6
CONTINUOUS
 10
363.5880234243
 20
684.3553525111
 11
362.7490234243
 21
684.3553525111
  0
LINE
  5
473
100
AcDbEntity
  8
0
100
AcDbLine
 62
2
  6
CONTINUOUS
 10
366.0470234243
 20
687.2973525111
 11
363.5880234243
 21
687.2973525111
  0
LINE
  5
474
100
AcDbEntity
  8
0
100
AcDbLine
 62
2
  6
CONTINUOUS
 10
363.5880234243
 20
687.9913525111
 11
366.0470234243
 21
687.9913525111
  0
LINE
  5
475
100
AcDbEntity
  8
0
100
AcDbLine
 62
2
  6
CONTINUOUS
 10
366.2500234243
 20
690.1513525111
 11
363.5880234243
 21
690.1513525111
  0
LINE
  5
476
100
AcDbEntity
  8
0
100
AcDbLine
 62
2
  6
CONTINUOUS
 10
362.7490234243
 20
690.8553525111
 11
366.2500234243
 21
690.8553525111
  0
LINE
  5
477
100
AcDbEntity
  8
0
100
AcDbLine
 62
2
  6
CONTINUOUS
 10
514.2630234243
 20
693.7113525111
 11
514.7630234243
 21
693.7113525111
  0
LINE
  5
478
100
AcDbEntity
  8
0
100
AcDbLine
 62
7
  6
CONTINUOUS
 10
1418.0039388318
 20
693.8553525111
 11
1421.4793066238
 21
693.8553525111
  0
LINE
  5
479
100
AcDbEntity
  8
0
100
AcDbLine
 62
2
  6
CONTINUOUS
 10
361.1060234243
 20
695.8093525111
 11
367.2410234243
 21
695.8093525111
  0
LINE
  5
47A
100
AcDbEntity
  8
0
100
AcDbLine
 62
2
  6
CONTINUOUS
 10
361.6010234243
 20
696.3093525111
 11
366.7460234243
 21
696.3093525111
  0
LINE
  5
47B
100
AcDbEntity
  8
0
100
AcDbLine
 62
2
  6
CONTINUOUS
 10
511.2630234243
 20
696.7113525111
 11
514.2630234243
 21
696.7113525111
  0
LINE
  5
47C
100
AcDbEntity
  8
0
100
AcDbLine
 62
2
  6
CONTINUOUS
 10
514.7630234243
 20
696.7113525111
 11
517.7630234243
 21
696.7113525111
  0
LINE
  5
47D
100
AcDbEntity
  8
0
100
AcDbLine
 62
2
  6
CONTINUOUS
 10
517.7630234243
 20
697.2113525111
 11
514.7630234243
 21
697.2113525111
  0
LINE
  5
47E
100
AcDbEntity
  8
0
100
AcDbLine
 62
2
  6
CONTINUOUS
 10
514.2630234243
 20
697.2113525111
 11
511.2630234243
 21
697.2113525111
  0
LINE
  5
47F
100
AcDbEntity
  8
0
100
AcDbLine
 62
2
  6
CONTINUOUS
 10
514.7630234243
 20
700.2113525111
 11
514.2630234243
 21
700.2113525111
  0
LINE
  5
480
100
AcDbEntity
  8
0
100
AcDbLine
 62
2
  6
CONTINUOUS
 10
379.6710234243
 20
705.7873525111
 11
499.2590234243
 21
705.7873525111
  0
LINE
  5
481
100
AcDbEntity
  8
0
100
AcDbLine
 62
7
  6
CONTINUOUS
 10
1018.1017821308
 20
705.9553525111
 11
1018.8000205178
 21
705.9553525111
  0
LINE
  5
482
100
AcDbEntity
  8
0
100
AcDbLine
 62
7
  6
CONTINUOUS
 10
1018.7997915539
 20
706.7553525111
 11
1017.9360967058
 21
706.7553525111
  0
LINE
  5
483
100
AcDbEntity
  8
0
100
AcDbLine
 62
7
  6
CONTINUOUS
 10
1430.8684092799
 20
706.8553525111
 11
1434.1967631032
 21
706.8553525111
  0
LINE
  5
484
100
AcDbEntity
  8
0
100
AcDbLine
 62
7
  6
CONTINUOUS
 10
1238.1523091934
 20
595.6834000326
 11
1238.4361152076
 21
595.636137964
  0
LINE
  5
485
100
AcDbEntity
  8
0
100
AcDbLine
 62
7
  6
CONTINUOUS
 10
947.0115181762
 20
638.7482884465
 11
947.2944418281
 21
638.4655266966
  0
LINE
  5
486
100
AcDbEntity
  8
0
100
AcDbLine
 62
7
  6
CONTINUOUS
 10
947.4841750476
 20
639.2212159487
 11
956.2548082554
 21
630.4556017014
  0
LINE
  5
487
100
AcDbEntity
  8
0
100
AcDbLine
 62
7
  6
CONTINUOUS
 10
948.1704112809
 20
636.5896670861
 11
947.8875685684
 21
636.8725097986
  0
LINE
  5
488
100
AcDbEntity
  8
0
100
AcDbLine
 62
7
  6
CONTINUOUS
 10
1118.612628242
 20
664.8975694722
 11
1118.612628242
 21
182.61313555
  0
LINE
  5
489
100
AcDbEntity
  8
0
100
AcDbLine
 62
7
  6
CONTINUOUS
 10
1119.9704112809
 20
168.5009406048
 11
1119.9704112809
 21
169.0752694958
  0
LINE
  5
48A
100
AcDbEntity
  8
0
100
AcDbLine
 62
7
  6
CONTINUOUS
 10
1120.1159993746
 20
168.6465286985
 11
1120.1159993746
 21
168.8817908584
  0
LINE
  5
48B
100
AcDbEntity
  8
0
100
AcDbLine
 62
7
  6
CONTINUOUS
 10
1120.2504942962
 20
180.9752694958
 11
1120.2504942962
 21
666.5354355263
  0
LINE
  5
48C
100
AcDbEntity
  8
0
100
AcDbLine
 62
7
  6
CONTINUOUS
 10
1120.3704112809
 20
664.4745022574
 11
1120.3704112809
 21
664.9450265773
  0
LINE
  5
48D
100
AcDbEntity
  8
0
100
AcDbLine
 62
7
  6
CONTINUOUS
 10
1120.5159993746
 20
664.5641763237
 11
1120.5159993746
 21
664.3289141637
  0
LINE
  5
48E
100
AcDbEntity
  8
0
100
AcDbLine
 62
7
  6
CONTINUOUS
 10
1120.6504942962
 20
664.1944192421
 11
1120.6504942962
 21
664.5641763237
  0
LINE
  5
48F
100
AcDbEntity
  8
0
100
AcDbLine
 62
7
  6
CONTINUOUS
 10
1121.7902624522
 20
663.0546510861
 11
1121.7902624522
 21
182.4560539361
  0
LINE
  5
490
100
AcDbEntity
  8
0
100
AcDbLine
 62
7
  6
CONTINUOUS
 10
1131.4704112809
 20
608.847076418
 11
1131.4704112809
 21
615.847076418
  0
LINE
  5
491
100
AcDbEntity
  8
0
100
AcDbLine
 62
7
  6
CONTINUOUS
 10
1131.8704112809
 20
613.5553525111
 11
1131.8704112809
 21
615.447076418
  0
LINE
  5
492
100
AcDbEntity
  8
0
100
AcDbLine
 62
7
  6
CONTINUOUS
 10
1170.0144004994
 20
592.303781619
 11
1170.0943367341
 21
592.7361869142
  0
LINE
  5
493
100
AcDbEntity
  8
0
100
AcDbLine
 62
7
  6
CONTINUOUS
 10
1170.0943367341
 20
592.7361869142
 11
1170.2049101923
 21
593.1455502133
  0
LINE
  5
494
100
AcDbEntity
  8
0
100
AcDbLine
 62
7
  6
CONTINUOUS
 10
1170.2049101923
 20
593.1455502133
 11
1170.343403577
 21
593.5305780692
  0
LINE
  5
495
100
AcDbEntity
  8
0
100
AcDbLine
 62
7
  6
CONTINUOUS
 10
1007.8416704836
 20
169.1618738737
 11
1009.3703454675
 21
170.6905488576
  0
LINE
  5
496
100
AcDbEntity
  8
0
100
AcDbLine
 62
7
  6
CONTINUOUS
 10
1007.8416704836
 20
168.9266117138
 11
1007.6960823899
 21
168.7810236201
  0
LINE
  5
497
100
AcDbEntity
  8
0
100
AcDbLine
 62
7
  6
CONTINUOUS
 10
1008.0769326435
 20
168.9266117138
 11
1009.6056076275
 21
170.4552866977
  0
LINE
  5
498
100
AcDbEntity
  8
0
100
AcDbLine
 62
7
  6
CONTINUOUS
 10
1027.4903282656
 20
169.0752694958
 11
1029.1281943198
 21
170.71313555
  0
LINE
  5
499
100
AcDbEntity
  8
0
100
AcDbLine
 62
7
  6
CONTINUOUS
 10
1430.8679198647
 20
708.5653693266
 11
1018.799307272
 21
708.4474332612
  0
LINE
  5
49A
100
AcDbEntity
  8
0
100
AcDbLine
 62
7
  6
CONTINUOUS
 10
1017.79919347
 20
708.8449146417
 11
1018.799193429
 21
708.8452008466
  0
LINE
  5
49B
100
AcDbEntity
  8
0
100
AcDbLine
 62
7
  6
CONTINUOUS
 10
1430.8678053827
 20
708.9653693102
 11
1431.8678053418
 21
708.9656555152
  0
LINE
  5
49C
100
AcDbEntity
  8
0
100
AcDbLine
 62
7
  6
CONTINUOUS
 10
1018.7990783081
 20
709.2474332284
 11
1431.8676908598
 21
709.3656554988
  0
LINE
  5
49D
100
AcDbEntity
  8
0
100
AcDbLine
 62
7
  6
CONTINUOUS
 10
1432.000199043
 20
709.5656934315
 11
1427.9366579736
 21
709.564530426
  0
LINE
  5
49E
100
AcDbEntity
  8
0
100
AcDbLine
 62
7
  6
CONTINUOUS
 10
1432.2675763614
 20
709.7657699644
 11
1434.1675762836
 21
709.7663137537
  0
LINE
  5
49F
100
AcDbEntity
  8
0
100
AcDbLine
 62
7
  6
CONTINUOUS
 10
1431.9995121512
 20
711.9656933332
 11
1431.5568244351
 21
711.9655666338
  0
LINE
  5
4A0
100
AcDbEntity
  8
0
100
AcDbLine
 62
7
  6
CONTINUOUS
 10
1431.8668322451
 20
712.3656553759
 11
1431.8218408015
 21
712.3656424991
  0
LINE
  5
4A1
100
AcDbEntity
  8
0
100
AcDbLine
 62
7
  6
CONTINUOUS
 10
1434.1641704452
 20
721.6663132663
 11
1432.264170523
 21
721.665769477
  0
LINE
  5
4A2
100
AcDbEntity
  8
0
100
AcDbLine
 62
7
  6
CONTINUOUS
 10
1433.0640560083
 20
722.0659984245
 11
1435.7640558977
 21
722.0667711778
  0
LINE
  5
4A3
100
AcDbEntity
  8
0
100
AcDbLine
 62
7
  6
CONTINUOUS
 10
1433.0639415263
 20
722.4659984081
 11
1435.7639414157
 21
722.4667711614
  0
LINE
  5
4A4
100
AcDbEntity
  8
0
100
AcDbLine
 62
7
  6
CONTINUOUS
 10
732.3078293466
 20
719.8553525111
 11
145.500217502
 21
719.8553525111
  0
LINE
  5
4A5
100
AcDbEntity
  8
0
100
AcDbLine
 62
7
  6
CONTINUOUS
 10
144.6717903773
 20
721.8553525111
 11
733.1362564714
 21
721.8553525111
  0
LINE
  5
4A6
100
AcDbEntity
  8
0
100
AcDbLine
 62
7
  6
CONTINUOUS
 10
734.1362564714
 20
721.8553525111
 11
735.893119582
 21
721.8553525111
  0
LINE
  5
4A7
100
AcDbEntity
  8
0
100
AcDbLine
 62
7
  6
CONTINUOUS
 10
1434.1967631032
 20
721.8553525111
 11
1448.3704112809
 21
721.8553525111
  0
LINE
  5
4A8
100
AcDbEntity
  8
0
100
AcDbLine
 62
7
  6
CONTINUOUS
 10
1001.9047757963
 20
695.0875949948
 11
999.8969827869
 21
695.6249656599
  0
LINE
  5
4A9
100
AcDbEntity
  8
0
100
AcDbLine
 62
7
  6
CONTINUOUS
 10
1238.4361152076
 20
595.636137964
 11
1238.7232890126
 21
595.5467541423
  0
LINE
  5
4AA
100
AcDbEntity
  8
0
100
AcDbLine
 62
7
  6
CONTINUOUS
 10
1007.8416704836
 20
664.4488311484
 11
1009.3703454675
 21
662.9201561645
  0
LINE
  5
4AB
100
AcDbEntity
  8
0
100
AcDbLine
 62
7
  6
CONTINUOUS
 10
1007.8416704836
 20
664.6840933084
 11
1007.6960823899
 21
664.8296814021
  0
LINE
  5
4AC
100
AcDbEntity
  8
0
100
AcDbLine
 62
7
  6
CONTINUOUS
 10
1008.0769326435
 20
664.6840933084
 11
1009.6056076275
 21
663.1554183244
  0
LINE
  5
4AD
100
AcDbEntity
  8
0
100
AcDbLine
 62
7
  6
CONTINUOUS
 10
1029.1281943198
 20
663.0181842306
 11
1027.4903282656
 21
664.6560502848
  0
LINE
  5
4AE
100
AcDbEntity
  8
0
100
AcDbLine
 62
7
  6
CONTINUOUS
 10
1029.4082773351
 20
664.3822242969
 11
1027.9159993746
 21
665.8745022574
  0
LINE
  5
4AF
100
AcDbEntity
  8
0
100
AcDbLine
 62
7
  6
CONTINUOUS
 10
1028.1704112809
 20
665.8553525111
 11
1028.3159993746
 21
665.7097644174
  0
LINE
  5
4B0
100
AcDbEntity
  8
0
100
AcDbLine
 62
7
  6
CONTINUOUS
 10
1029.643539495
 20
664.6174864569
 11
1028.1512615346
 21
666.1097644174
  0
LINE
  5
4B1
100
AcDbEntity
  8
0
100
AcDbLine
 62
7
  6
CONTINUOUS
 10
1031.0075795614
 20
664.8975694722
 11
1029.3697135072
 21
666.5354355263
  0
LINE
  5
4B2
100
AcDbEntity
  8
0
100
AcDbLine
 62
7
  6
CONTINUOUS
 10
1143.4704112809
 20
615.847076418
 11
1143.4704112809
 21
608.847076418
  0
LINE
  5
4B3
100
AcDbEntity
  8
0
100
AcDbLine
 62
7
  6
CONTINUOUS
 10
1150.1505601095
 20
663.0546510861
 11
1150.1505601095
 21
182.4560539361
  0
LINE
  5
4B4
100
AcDbEntity
  8
0
100
AcDbLine
 62
7
  6
CONTINUOUS
 10
1151.6903282656
 20
180.9752694958
 11
1151.6903282656
 21
664.6560502848
  0
LINE
  5
4B5
100
AcDbEntity
  8
0
100
AcDbLine
 62
7
  6
CONTINUOUS
 10
1151.8248231872
 20
168.6465286985
 11
1151.8248231872
 21
168.8817908584
  0
LINE
  5
4B6
100
AcDbEntity
  8
0
100
AcDbLine
 62
7
  6
CONTINUOUS
 10
1151.9704112809
 20
169.0752694958
 11
1151.9704112809
 21
168.5009406048
  0
LINE
  5
4B7
100
AcDbEntity
  8
0
100
AcDbLine
 62
7
  6
CONTINUOUS
 10
1152.1159993746
 20
666.1097644174
 11
1152.1159993746
 21
665.8745022574
  0
LINE
  5
4B8
100
AcDbEntity
  8
0
100
AcDbLine
 62
7
  6
CONTINUOUS
 10
1152.3704112809
 20
665.8553525111
 11
1152.3704112809
 21
665.6200903511
  0
LINE
  5
4B9
100
AcDbEntity
  8
0
100
AcDbLine
 62
7
  6
CONTINUOUS
 10
1152.5159993746
 20
665.7097644174
 11
1152.5159993746
 21
665.4745022574
  0
LINE
  5
4BA
100
AcDbEntity
  8
0
100
AcDbLine
 62
7
  6
CONTINUOUS
 10
1153.3281943198
 20
182.61313555
 11
1153.3281943198
 21
663.0181842306
  0
LINE
  5
4BB
100
AcDbEntity
  8
0
100
AcDbLine
 62
7
  6
CONTINUOUS
 10
1163.4580552335
 20
576.2006519727
 11
1163.4580552335
 21
595.2006519727
  0
LINE
  5
4BC
100
AcDbEntity
  8
0
100
AcDbLine
 62
7
  6
CONTINUOUS
 10
1167.4580552335
 20
591.5117237005
 11
1167.4580552335
 21
580.5791885221
  0
LINE
  5
4BD
100
AcDbEntity
  8
0
100
AcDbLine
 62
7
  6
CONTINUOUS
 10
1169.9580552465
 20
591.5121558045
 11
1169.9580552335
 21
591.5117237008
  0
LINE
  5
4BE
100
AcDbEntity
  8
0
100
AcDbLine
 62
7
  6
CONTINUOUS
 10
1169.9580552335
 20
591.5117237008
 11
1169.9580552335
 21
580.5791885202
  0
LINE
  5
4BF
100
AcDbEntity
  8
0
100
AcDbLine
 62
7
  6
CONTINUOUS
 10
1169.9580552799
 20
591.5122533059
 11
1169.9682164466
 21
591.8490802652
  0
LINE
  5
4C0
100
AcDbEntity
  8
0
100
AcDbLine
 62
7
  6
CONTINUOUS
 10
1169.9682164466
 20
591.8490802652
 11
1170.0144004994
 21
592.303781619
  0
LINE
  5
4C1
100
AcDbEntity
  8
0
100
AcDbLine
 62
7
  6
CONTINUOUS
 10
1238.7232890126
 20
595.5467541423
 11
1239.0077004788
 21
595.4150971802
  0
LINE
  5
4C2
100
AcDbEntity
  8
0
100
AcDbLine
 62
7
  6
CONTINUOUS
 10
1239.0077004788
 20
595.4150971802
 11
1239.2812840166
 21
595.2446981372
  0
LINE
  5
4C3
100
AcDbEntity
  8
0
100
AcDbLine
 62
7
  6
CONTINUOUS
 10
1014.9716904528
 20
705.6156781394
 11
1014.405843149
 21
706.1812016393
  0
LINE
  5
4C4
100
AcDbEntity
  8
0
100
AcDbLine
 62
7
  6
CONTINUOUS
 10
1018.8012131354
 20
701.7883468862
 11
1025.3439982613
 21
695.2493058434
  0
LINE
  5
4C5
100
AcDbEntity
  8
0
100
AcDbLine
 62
7
  6
CONTINUOUS
 10
1017.2334606482
 20
709.0104381579
 11
1017.5163843001
 21
708.727676408
  0
LINE
  5
4C6
100
AcDbEntity
  8
0
100
AcDbLine
 62
7
  6
CONTINUOUS
 10
1017.9360967058
 20
706.3553525111
 11
1017.6532539934
 21
706.6381952235
  0
LINE
  5
4C7
100
AcDbEntity
  8
0
100
AcDbLine
 62
7
  6
CONTINUOUS
 10
1240.9485934068
 20
591.8372806724
 11
1240.9580552037
 21
591.5121500329
  0
LINE
  5
4C8
100
AcDbEntity
  8
0
100
AcDbLine
 62
7
  6
CONTINUOUS
 10
1231.9704112809
 20
153.3553525111
 11
1231.9704112809
 21
143.3553525111
  0
LINE
  5
4C9
100
AcDbEntity
  8
0
100
AcDbLine
 62
7
  6
CONTINUOUS
 10
1240.9580552335
 20
580.5791885202
 11
1240.9580552335
 21
591.5117237008
  0
LINE
  5
4CA
100
AcDbEntity
  8
0
100
AcDbLine
 62
7
  6
CONTINUOUS
 10
1240.9580552335
 20
591.5117237008
 11
1240.9580552257
 21
591.5120574024
  0
LINE
  5
4CB
100
AcDbEntity
  8
0
100
AcDbLine
 62
7
  6
CONTINUOUS
 10
1243.4580552335
 20
580.5791885204
 11
1243.4580552335
 21
591.5117236989
  0
LINE
  5
4CC
100
AcDbEntity
  8
0
100
AcDbLine
 62
7
  6
CONTINUOUS
 10
1247.4580552335
 20
576.2006519727
 11
1247.4580552335
 21
595.2006519727
  0
LINE
  5
4CD
100
AcDbEntity
  8
0
100
AcDbLine
 62
7
  6
CONTINUOUS
 10
1250.612628242
 20
664.8975694722
 11
1250.612628242
 21
170.7434472829
  0
LINE
  5
4CE
100
AcDbEntity
  8
0
100
AcDbLine
 62
7
  6
CONTINUOUS
 10
1252.2504942962
 20
666.5354355263
 11
1252.2504942962
 21
180.9752694958
  0
LINE
  5
4CF
100
AcDbEntity
  8
0
100
AcDbLine
 62
7
  6
CONTINUOUS
 10
1252.3960823899
 20
180.5465286985
 11
1252.3960823899
 21
664.9641763237
  0
LINE
  5
4D0
100
AcDbEntity
  8
0
100
AcDbLine
 62
7
  6
CONTINUOUS
 10
1252.5416704836
 20
664.8185882299
 11
1252.5416704836
 21
664.58332607
  0
LINE
  5
4D1
100
AcDbEntity
  8
0
100
AcDbLine
 62
7
  6
CONTINUOUS
 10
1252.5416704836
 20
168.7921167922
 11
1252.5416704836
 21
169.0273789522
  0
LINE
  5
4D2
100
AcDbEntity
  8
0
100
AcDbLine
 62
7
  6
CONTINUOUS
 10
1252.9416704836
 20
664.4185882299
 11
1252.9416704836
 21
664.18332607
  0
LINE
  5
4D3
100
AcDbEntity
  8
0
100
AcDbLine
 62
7
  6
CONTINUOUS
 10
1254.0703454675
 20
170.586365669
 11
1254.0703454675
 21
663.0546510861
  0
LINE
  5
4D4
100
AcDbEntity
  8
0
100
AcDbLine
 62
7
  6
CONTINUOUS
 10
1120.1159993746
 20
168.8817908584
 11
1121.7902624522
 21
170.5560539361
  0
LINE
  5
4D5
100
AcDbEntity
  8
0
100
AcDbLine
 62
7
  6
CONTINUOUS
 10
1119.9704112809
 20
168.5009406048
 11
1120.1159993746
 21
168.6465286985
  0
LINE
  5
4D6
100
AcDbEntity
  8
0
100
AcDbLine
 62
7
  6
CONTINUOUS
 10
1120.3512615346
 20
168.6465286985
 11
1122.0255246122
 21
170.3207917761
  0
LINE
  5
4D7
100
AcDbEntity
  8
0
100
AcDbLine
 62
7
  6
CONTINUOUS
 10
1151.6903282656
 20
169.0752694958
 11
1153.3281943198
 21
170.71313555
  0
LINE
  5
4D8
100
AcDbEntity
  8
0
100
AcDbLine
 62
7
  6
CONTINUOUS
 10
1239.2812840166
 20
595.2446981372
 11
1239.5428630428
 21
595.0368150787
  0
LINE
  5
4D9
100
AcDbEntity
  8
0
100
AcDbLine
 62
7
  6
CONTINUOUS
 10
1239.5428630428
 20
595.0368150787
 11
1239.7889408153
 21
594.7943965939
  0
LINE
  5
4DA
100
AcDbEntity
  8
0
100
AcDbLine
 62
7
  6
CONTINUOUS
 10
1120.2504942962
 20
664.5944192421
 11
1121.7902624522
 21
663.0546510861
  0
LINE
  5
4DB
100
AcDbEntity
  8
0
100
AcDbLine
 62
7
  6
CONTINUOUS
 10
1120.3512615346
 20
664.9641763237
 11
1122.0255246122
 21
663.289913246
  0
LINE
  5
4DC
100
AcDbEntity
  8
0
100
AcDbLine
 62
7
  6
CONTINUOUS
 10
1153.3281943198
 20
663.0181842306
 11
1151.6903282656
 21
664.6560502848
  0
LINE
  5
4DD
100
AcDbEntity
  8
0
100
AcDbLine
 62
7
  6
CONTINUOUS
 10
1153.6082773351
 20
664.3822242969
 11
1152.1159993746
 21
665.8745022574
  0
LINE
  5
4DE
100
AcDbEntity
  8
0
100
AcDbLine
 62
7
  6
CONTINUOUS
 10
1152.3704112809
 20
665.8553525111
 11
1152.5159993746
 21
665.7097644174
  0
LINE
  5
4DF
100
AcDbEntity
  8
0
100
AcDbLine
 62
7
  6
CONTINUOUS
 10
1153.843539495
 20
664.6174864569
 11
1152.3512615346
 21
666.1097644174
  0
LINE
  5
4E0
100
AcDbEntity
  8
0
100
AcDbLine
 62
7
  6
CONTINUOUS
 10
1155.2075795614
 20
664.8975694722
 11
1153.5697135072
 21
666.5354355263
  0
LINE
  5
4E1
100
AcDbEntity
  8
0
100
AcDbLine
 62
7
  6
CONTINUOUS
 10
1239.7889408153
 20
594.7943965939
 11
1240.017436424
 21
594.5195467241
  0
LINE
  5
4E2
100
AcDbEntity
  8
0
100
AcDbLine
 62
7
  6
CONTINUOUS
 10
1240.9033282527
 20
592.2924285919
 11
1240.9485934068
 21
591.8372806724
  0
LINE
  5
4E3
100
AcDbEntity
  8
0
100
AcDbLine
 62
7
  6
CONTINUOUS
 10
1261.4704112809
 20
608.847076418
 11
1261.4704112809
 21
615.847076418
  0
LINE
  5
4E4
100
AcDbEntity
  8
0
100
AcDbLine
 62
7
  6
CONTINUOUS
 10
1262.9704112809
 20
153.3553525111
 11
1262.9704112809
 21
143.3553525111
  0
LINE
  5
4E5
100
AcDbEntity
  8
0
100
AcDbLine
 62
7
  6
CONTINUOUS
 10
1273.4704112809
 20
615.847076418
 11
1273.4704112809
 21
608.847076418
  0
LINE
  5
4E6
100
AcDbEntity
  8
0
100
AcDbLine
 62
7
  6
CONTINUOUS
 10
1275.8704770943
 20
170.586365669
 11
1275.8704770943
 21
663.0546510861
  0
LINE
  5
4E7
100
AcDbEntity
  8
0
100
AcDbLine
 62
7
  6
CONTINUOUS
 10
1277.3991520782
 20
664.8185882299
 11
1277.3991520782
 21
664.58332607
  0
LINE
  5
4E8
100
AcDbEntity
  8
0
100
AcDbLine
 62
7
  6
CONTINUOUS
 10
1277.3991520782
 20
168.7921167922
 11
1277.3991520782
 21
169.0273789522
  0
LINE
  5
4E9
100
AcDbEntity
  8
0
100
AcDbLine
 62
7
  6
CONTINUOUS
 10
1277.5447401719
 20
664.9641763237
 11
1277.5447401719
 21
168.6768404314
  0
LINE
  5
4EA
100
AcDbEntity
  8
0
100
AcDbLine
 62
7
  6
CONTINUOUS
 10
1287.1817361463
 20
167.6166043516
 11
1287.1817361463
 21
671.0244124034
  0
LINE
  5
4EB
100
AcDbEntity
  8
0
100
AcDbLine
 62
7
  6
CONTINUOUS
 10
1287.2683386867
 20
179.4862926187
 11
1287.2683386867
 21
671.0244124034
  0
LINE
  5
4EC
100
AcDbEntity
  8
0
100
AcDbLine
 62
7
  6
CONTINUOUS
 10
1287.6724838751
 20
179.8904378072
 11
1287.6724838751
 21
670.620267215
  0
LINE
  5
4ED
100
AcDbEntity
  8
0
100
AcDbLine
 62
7
  6
CONTINUOUS
 10
1287.7013513886
 20
671.5440276457
 11
1287.7013513886
 21
671.4574251053
  0
LINE
  5
4EE
100
AcDbEntity
  8
0
100
AcDbLine
 62
7
  6
CONTINUOUS
 10
1287.7013513886
 20
167.1532799168
 11
1287.7013513886
 21
167.0666773765
  0
LINE
  5
4EF
100
AcDbEntity
  8
0
100
AcDbLine
 62
7
  6
CONTINUOUS
 10
1288.105496577
 20
168.0757241779
 11
1288.105496577
 21
671.0532799168
  0
LINE
  5
4F0
100
AcDbEntity
  8
0
100
AcDbLine
 62
7
  6
CONTINUOUS
 10
1293.9704112809
 20
693.5053525111
 11
1293.9704112809
 21
677.0053525111
  0
LINE
  5
4F1
100
AcDbEntity
  8
0
100
AcDbLine
 62
7
  6
CONTINUOUS
 10
1293.9704112809
 20
669.5053525111
 11
1293.9704112809
 21
653.0053525111
  0
LINE
  5
4F2
100
AcDbEntity
  8
0
100
AcDbLine
 62
7
  6
CONTINUOUS
 10
1293.9704112809
 20
645.5053525111
 11
1293.9704112809
 21
629.0053525111
  0
LINE
  5
4F3
100
AcDbEntity
  8
0
100
AcDbLine
 62
7
  6
CONTINUOUS
 10
1296.4704112809
 20
629.0053525111
 11
1296.4704112809
 21
645.5053525111
  0
LINE
  5
4F4
100
AcDbEntity
  8
0
100
AcDbLine
 62
7
  6
CONTINUOUS
 10
1296.4704112809
 20
653.0053525111
 11
1296.4704112809
 21
669.5053525111
  0
LINE
  5
4F5
100
AcDbEntity
  8
0
100
AcDbLine
 62
7
  6
CONTINUOUS
 10
1296.4704112809
 20
677.0053525111
 11
1296.4704112809
 21
693.5053525111
  0
LINE
  5
4F6
100
AcDbEntity
  8
0
100
AcDbLine
 62
7
  6
CONTINUOUS
 10
1301.9704112809
 20
693.5053525111
 11
1301.9704112809
 21
677.0053525111
  0
LINE
  5
4F7
100
AcDbEntity
  8
0
100
AcDbLine
 62
7
  6
CONTINUOUS
 10
1301.9704112809
 20
669.5053525111
 11
1301.9704112809
 21
653.0053525111
  0
LINE
  5
4F8
100
AcDbEntity
  8
0
100
AcDbLine
 62
7
  6
CONTINUOUS
 10
1301.9704112809
 20
645.5053525111
 11
1301.9704112809
 21
629.0053525111
  0
LINE
  5
4F9
100
AcDbEntity
  8
0
100
AcDbLine
 62
7
  6
CONTINUOUS
 10
1304.4704112809
 20
629.0053525111
 11
1304.4704112809
 21
645.5053525111
  0
LINE
  5
4FA
100
AcDbEntity
  8
0
100
AcDbLine
 62
7
  6
CONTINUOUS
 10
1304.4704112809
 20
653.0053525111
 11
1304.4704112809
 21
669.5053525111
  0
LINE
  5
4FB
100
AcDbEntity
  8
0
100
AcDbLine
 62
7
  6
CONTINUOUS
 10
1304.4704112809
 20
677.0053525111
 11
1304.4704112809
 21
693.5053525111
  0
LINE
  5
4FC
100
AcDbEntity
  8
0
100
AcDbLine
 62
7
  6
CONTINUOUS
 10
1254.0703454675
 20
170.5560539361
 11
1252.5416704836
 21
169.0273789522
  0
LINE
  5
4FD
100
AcDbEntity
  8
0
100
AcDbLine
 62
7
  6
CONTINUOUS
 10
1252.3960823899
 20
168.6465286985
 11
1252.5416704836
 21
168.7921167922
  0
LINE
  5
4FE
100
AcDbEntity
  8
0
100
AcDbLine
 62
7
  6
CONTINUOUS
 10
1252.7769326435
 20
168.7921167922
 11
1254.3056076275
 21
170.3207917761
  0
LINE
  5
4FF
100
AcDbEntity
  8
0
100
AcDbLine
 62
7
  6
CONTINUOUS
 10
1252.5416704836
 20
664.58332607
 11
1254.0703454675
 21
663.0546510861
  0
LINE
  5
500
100
AcDbEntity
  8
0
100
AcDbLine
 62
7
  6
CONTINUOUS
 10
1252.3960823899
 20
664.9641763237
 11
1252.5416704836
 21
664.8185882299
  0
LINE
  5
501
100
AcDbEntity
  8
0
100
AcDbLine
 62
7
  6
CONTINUOUS
 10
1252.7769326435
 20
664.8185882299
 11
1254.3056076275
 21
663.289913246
  0
LINE
  5
502
100
AcDbEntity
  8
0
100
AcDbLine
 62
7
  6
CONTINUOUS
 10
1240.017436424
 20
594.5195467241
 11
1240.2261787783
 21
594.2144753982
  0
LINE
  5
503
100
AcDbEntity
  8
0
100
AcDbLine
 62
7
  6
CONTINUOUS
 10
1240.2261787783
 20
594.2144753982
 11
1240.4132421138
 21
593.8810197065
  0
LINE
  5
504
100
AcDbEntity
  8
0
100
AcDbLine
 62
7
  6
CONTINUOUS
 10
1240.4132421138
 20
593.8810197065
 11
1240.5766708535
 21
593.5208094307
  0
LINE
  5
505
100
AcDbEntity
  8
0
100
AcDbLine
 62
7
  6
CONTINUOUS
 10
1240.5766708535
 20
593.5208094307
 11
1240.7144414138
 21
593.1351826561
  0
LINE
  5
506
100
AcDbEntity
  8
0
100
AcDbLine
 62
7
  6
CONTINUOUS
 10
1240.7144414138
 20
593.1351826561
 11
1240.8242355381
 21
592.7253043268
  0
LINE
  5
507
100
AcDbEntity
  8
0
100
AcDbLine
 62
7
  6
CONTINUOUS
 10
1240.8242355381
 20
592.7253043268
 11
1240.9033282527
 21
592.2924285919
  0
LINE
  5
508
100
AcDbEntity
  8
0
100
AcDbLine
 62
7
  6
CONTINUOUS
 10
1309.9704112809
 20
693.5053525111
 11
1309.9704112809
 21
677.0053525111
  0
LINE
  5
509
100
AcDbEntity
  8
0
100
AcDbLine
 62
7
  6
CONTINUOUS
 10
1309.9704112809
 20
669.5053525111
 11
1309.9704112809
 21
653.0053525111
  0
LINE
  5
50A
100
AcDbEntity
  8
0
100
AcDbLine
 62
7
  6
CONTINUOUS
 10
1309.9704112809
 20
645.5053525111
 11
1309.9704112809
 21
629.0053525111
  0
LINE
  5
50B
100
AcDbEntity
  8
0
100
AcDbLine
 62
7
  6
CONTINUOUS
 10
1312.4704112809
 20
629.0053525111
 11
1312.4704112809
 21
645.5053525111
  0
LINE
  5
50C
100
AcDbEntity
  8
0
100
AcDbLine
 62
7
  6
CONTINUOUS
 10
1312.4704112809
 20
653.0053525111
 11
1312.4704112809
 21
669.5053525111
  0
LINE
  5
50D
100
AcDbEntity
  8
0
100
AcDbLine
 62
7
  6
CONTINUOUS
 10
1312.4704112809
 20
677.0053525111
 11
1312.4704112809
 21
693.5053525111
  0
LINE
  5
50E
100
AcDbEntity
  8
0
100
AcDbLine
 62
7
  6
CONTINUOUS
 10
1317.9704112809
 20
693.5053525111
 11
1317.9704112809
 21
677.0053525111
  0
LINE
  5
50F
100
AcDbEntity
  8
0
100
AcDbLine
 62
7
  6
CONTINUOUS
 10
1317.9704112809
 20
669.5053525111
 11
1317.9704112809
 21
653.0053525111
  0
LINE
  5
510
100
AcDbEntity
  8
0
100
AcDbLine
 62
7
  6
CONTINUOUS
 10
1317.9704112809
 20
645.5053525111
 11
1317.9704112809
 21
629.0053525111
  0
LINE
  5
511
100
AcDbEntity
  8
0
100
AcDbLine
 62
7
  6
CONTINUOUS
 10
1320.4704112809
 20
629.0053525111
 11
1320.4704112809
 21
645.5053525111
  0
LINE
  5
512
100
AcDbEntity
  8
0
100
AcDbLine
 62
7
  6
CONTINUOUS
 10
1320.4704112809
 20
653.0053525111
 11
1320.4704112809
 21
669.5053525111
  0
LINE
  5
513
100
AcDbEntity
  8
0
100
AcDbLine
 62
7
  6
CONTINUOUS
 10
1320.4704112809
 20
677.0053525111
 11
1320.4704112809
 21
693.5053525111
  0
LINE
  5
514
100
AcDbEntity
  8
0
100
AcDbLine
 62
7
  6
CONTINUOUS
 10
1325.9704112809
 20
693.5053525111
 11
1325.9704112809
 21
677.0053525111
  0
LINE
  5
515
100
AcDbEntity
  8
0
100
AcDbLine
 62
7
  6
CONTINUOUS
 10
1325.9704112809
 20
669.5053525111
 11
1325.9704112809
 21
653.0053525111
  0
LINE
  5
516
100
AcDbEntity
  8
0
100
AcDbLine
 62
7
  6
CONTINUOUS
 10
1325.9704112809
 20
645.5053525111
 11
1325.9704112809
 21
629.0053525111
  0
LINE
  5
517
100
AcDbEntity
  8
0
100
AcDbLine
 62
7
  6
CONTINUOUS
 10
1328.4704112809
 20
629.0053525111
 11
1328.4704112809
 21
645.5053525111
  0
LINE
  5
518
100
AcDbEntity
  8
0
100
AcDbLine
 62
7
  6
CONTINUOUS
 10
1328.4704112809
 20
653.0053525111
 11
1328.4704112809
 21
669.5053525111
  0
LINE
  5
519
100
AcDbEntity
  8
0
100
AcDbLine
 62
7
  6
CONTINUOUS
 10
1328.4704112809
 20
677.0053525111
 11
1328.4704112809
 21
693.5053525111
  0
LINE
  5
51A
100
AcDbEntity
  8
0
100
AcDbLine
 62
7
  6
CONTINUOUS
 10
1333.9704112809
 20
693.5053525111
 11
1333.9704112809
 21
677.0053525111
  0
LINE
  5
51B
100
AcDbEntity
  8
0
100
AcDbLine
 62
7
  6
CONTINUOUS
 10
1333.9704112809
 20
669.5053525111
 11
1333.9704112809
 21
653.0053525111
  0
LINE
  5
51C
100
AcDbEntity
  8
0
100
AcDbLine
 62
7
  6
CONTINUOUS
 10
1333.9704112809
 20
645.5053525111
 11
1333.9704112809
 21
629.0053525111
  0
LINE
  5
51D
100
AcDbEntity
  8
0
100
AcDbLine
 62
7
  6
CONTINUOUS
 10
1336.4704112809
 20
629.0053525111
 11
1336.4704112809
 21
645.5053525111
  0
LINE
  5
51E
100
AcDbEntity
  8
0
100
AcDbLine
 62
7
  6
CONTINUOUS
 10
1336.4704112809
 20
653.0053525111
 11
1336.4704112809
 21
669.5053525111
  0
LINE
  5
51F
100
AcDbEntity
  8
0
100
AcDbLine
 62
7
  6
CONTINUOUS
 10
1336.4704112809
 20
677.0053525111
 11
1336.4704112809
 21
693.5053525111
  0
LINE
  5
520
100
AcDbEntity
  8
0
100
AcDbLine
 62
7
  6
CONTINUOUS
 10
1340.8353259848
 20
168.0040714843
 11
1340.8353259848
 21
671.0532799168
  0
LINE
  5
521
100
AcDbEntity
  8
0
100
AcDbLine
 62
7
  6
CONTINUOUS
 10
1341.2394711732
 20
167.0666773765
 11
1341.2394711732
 21
167.1532799168
  0
LINE
  5
522
100
AcDbEntity
  8
0
100
AcDbLine
 62
7
  6
CONTINUOUS
 10
1341.2394711732
 20
671.4574251053
 11
1341.2394711732
 21
671.5440276457
  0
LINE
  5
523
100
AcDbEntity
  8
0
100
AcDbLine
 62
7
  6
CONTINUOUS
 10
1341.2683386867
 20
179.8904378072
 11
1341.2683386867
 21
670.620267215
  0
LINE
  5
524
100
AcDbEntity
  8
0
100
AcDbLine
 62
7
  6
CONTINUOUS
 10
1341.6724838751
 20
671.0244124034
 11
1341.6724838751
 21
179.4862926187
  0
LINE
  5
525
100
AcDbEntity
  8
0
100
AcDbLine
 62
7
  6
CONTINUOUS
 10
1341.7590864155
 20
671.0244124034
 11
1341.7590864155
 21
167.6118224845
  0
LINE
  5
526
100
AcDbEntity
  8
0
100
AcDbLine
 62
7
  6
CONTINUOUS
 10
1341.9704112809
 20
693.5053525111
 11
1341.9704112809
 21
677.0053525111
  0
LINE
  5
527
100
AcDbEntity
  8
0
100
AcDbLine
 62
7
  6
CONTINUOUS
 10
1341.9704112809
 20
669.5053525111
 11
1341.9704112809
 21
653.0053525111
  0
LINE
  5
528
100
AcDbEntity
  8
0
100
AcDbLine
 62
7
  6
CONTINUOUS
 10
1344.4704112809
 20
653.0053525111
 11
1344.4704112809
 21
669.5053525111
  0
LINE
  5
529
100
AcDbEntity
  8
0
100
AcDbLine
 62
7
  6
CONTINUOUS
 10
1344.4704112809
 20
677.0053525111
 11
1344.4704112809
 21
693.5053525111
  0
LINE
  5
52A
100
AcDbEntity
  8
0
100
AcDbLine
 62
7
  6
CONTINUOUS
 10
1347.9704112809
 20
126.8553525111
 11
1347.9704112809
 21
132.4553525111
  0
LINE
  5
52B
100
AcDbEntity
  8
0
100
AcDbLine
 62
7
  6
CONTINUOUS
 10
1349.9704112809
 20
693.5053525111
 11
1349.9704112809
 21
677.0053525111
  0
LINE
  5
52C
100
AcDbEntity
  8
0
100
AcDbLine
 62
7
  6
CONTINUOUS
 10
1349.9704112809
 20
669.5053525111
 11
1349.9704112809
 21
653.0053525111
  0
LINE
  5
52D
100
AcDbEntity
  8
0
100
AcDbLine
 62
7
  6
CONTINUOUS
 10
1352.4704112809
 20
653.0053525111
 11
1352.4704112809
 21
669.5053525111
  0
LINE
  5
52E
100
AcDbEntity
  8
0
100
AcDbLine
 62
7
  6
CONTINUOUS
 10
1352.4704112809
 20
677.0053525111
 11
1352.4704112809
 21
693.5053525111
  0
LINE
  5
52F
100
AcDbEntity
  8
0
100
AcDbLine
 62
7
  6
CONTINUOUS
 10
1357.9704112809
 20
693.5053525111
 11
1357.9704112809
 21
677.0053525111
  0
LINE
  5
530
100
AcDbEntity
  8
0
100
AcDbLine
 62
7
  6
CONTINUOUS
 10
1357.9704112809
 20
669.5053525111
 11
1357.9704112809
 21
653.0053525111
  0
LINE
  5
531
100
AcDbEntity
  8
0
100
AcDbLine
 62
7
  6
CONTINUOUS
 10
1360.4704112809
 20
653.0053525111
 11
1360.4704112809
 21
669.5053525111
  0
LINE
  5
532
100
AcDbEntity
  8
0
100
AcDbLine
 62
7
  6
CONTINUOUS
 10
1360.4704112809
 20
677.0053525111
 11
1360.4704112809
 21
693.5053525111
  0
LINE
  5
533
100
AcDbEntity
  8
0
100
AcDbLine
 62
7
  6
CONTINUOUS
 10
1287.2683386867
 20
167.5862926187
 11
1287.6724838751
 21
167.9904378072
  0
LINE
  5
534
100
AcDbEntity
  8
0
100
AcDbLine
 62
7
  6
CONTINUOUS
 10
1287.7013513886
 20
167.1532799168
 11
1288.105496577
 21
167.5574251053
  0
LINE
  5
535
100
AcDbEntity
  8
0
100
AcDbLine
 62
7
  6
CONTINUOUS
 10
1287.2683386867
 20
671.0244124034
 11
1287.6724838751
 21
670.620267215
  0
LINE
  5
536
100
AcDbEntity
  8
0
100
AcDbLine
 62
7
  6
CONTINUOUS
 10
1287.7013513886
 20
671.4574251053
 11
1288.105496577
 21
671.0532799168
  0
LINE
  5
537
100
AcDbEntity
  8
0
100
AcDbLine
 62
7
  6
CONTINUOUS
 10
1365.9704112809
 20
693.5053525111
 11
1365.9704112809
 21
677.0053525111
  0
LINE
  5
538
100
AcDbEntity
  8
0
100
AcDbLine
 62
7
  6
CONTINUOUS
 10
1365.9704112809
 20
669.5053525111
 11
1365.9704112809
 21
653.0053525111
  0
LINE
  5
539
100
AcDbEntity
  8
0
100
AcDbLine
 62
7
  6
CONTINUOUS
 10
1368.4704112809
 20
653.0053525111
 11
1368.4704112809
 21
669.5053525111
  0
LINE
  5
53A
100
AcDbEntity
  8
0
100
AcDbLine
 62
7
  6
CONTINUOUS
 10
1368.4704112809
 20
677.0053525111
 11
1368.4704112809
 21
693.5053525111
  0
LINE
  5
53B
100
AcDbEntity
  8
0
100
AcDbLine
 62
7
  6
CONTINUOUS
 10
1373.9704112809
 20
693.5053525111
 11
1373.9704112809
 21
677.0053525111
  0
LINE
  5
53C
100
AcDbEntity
  8
0
100
AcDbLine
 62
7
  6
CONTINUOUS
 10
1373.9704112809
 20
669.5053525111
 11
1373.9704112809
 21
653.0053525111
  0
LINE
  5
53D
100
AcDbEntity
  8
0
100
AcDbLine
 62
7
  6
CONTINUOUS
 10
1376.4704112809
 20
653.0053525111
 11
1376.4704112809
 21
669.5053525111
  0
LINE
  5
53E
100
AcDbEntity
  8
0
100
AcDbLine
 62
7
  6
CONTINUOUS
 10
1376.4704112809
 20
677.0053525111
 11
1376.4704112809
 21
693.5053525111
  0
LINE
  5
53F
100
AcDbEntity
  8
0
100
AcDbLine
 62
7
  6
CONTINUOUS
 10
1388.9704112809
 20
153.3553525111
 11
1388.9704112809
 21
137.8553525111
  0
LINE
  5
540
100
AcDbEntity
  8
0
100
AcDbLine
 62
7
  6
CONTINUOUS
 10
1389.4704112809
 20
164.8553525111
 11
1389.4704112809
 21
175.8553525111
  0
LINE
  5
541
100
AcDbEntity
  8
0
100
AcDbLine
 62
7
  6
CONTINUOUS
 10
1389.4704112809
 20
629.2553525111
 11
1389.4704112809
 21
650.2553525111
  0
LINE
  5
542
100
AcDbEntity
  8
0
100
AcDbLine
 62
7
  6
CONTINUOUS
 10
1392.3704112809
 20
691.8881933609
 11
1392.3704112809
 21
681.6225116597
  0
LINE
  5
543
100
AcDbEntity
  8
0
100
AcDbLine
 62
7
  6
CONTINUOUS
 10
1392.3704112809
 20
655.3881933609
 11
1392.3704112809
 21
631.9260667253
  0
LINE
  5
544
100
AcDbEntity
  8
0
100
AcDbLine
 62
7
  6
CONTINUOUS
 10
1392.3704112809
 20
352.8881933609
 11
1392.3704112809
 21
342.6225116597
  0
LINE
  5
545
100
AcDbEntity
  8
0
100
AcDbLine
 62
7
  6
CONTINUOUS
 10
1401.4704112809
 20
650.2553525111
 11
1401.4704112809
 21
629.2553525111
  0
LINE
  5
546
100
AcDbEntity
  8
0
100
AcDbLine
 62
7
  6
CONTINUOUS
 10
1401.4704112809
 20
175.8553525111
 11
1401.4704112809
 21
164.8553525111
  0
LINE
  5
547
100
AcDbEntity
  8
0
100
AcDbLine
 62
7
  6
CONTINUOUS
 10
1404.9704112809
 20
695.3579567916
 11
1404.9704112809
 21
149.7553525111
  0
LINE
  5
548
100
AcDbEntity
  8
0
100
AcDbLine
 62
7
  6
CONTINUOUS
 10
1405.4704112809
 20
695.358099894
 11
1405.4704112809
 21
149.7553525111
  0
LINE
  5
549
100
AcDbEntity
  8
0
100
AcDbLine
 62
7
  6
CONTINUOUS
 10
1407.9704112809
 20
126.8553525111
 11
1407.9704112809
 21
132.4553525111
  0
LINE
  5
54A
100
AcDbEntity
  8
0
100
AcDbLine
 62
7
  6
CONTINUOUS
 10
1410.7423548454
 20
695.3596087502
 11
1410.7423548454
 21
146.7553525111
  0
LINE
  5
54B
100
AcDbEntity
  8
0
100
AcDbLine
 62
7
  6
CONTINUOUS
 10
1410.9160030231
 20
695.3596584492
 11
1410.9160030231
 21
146.7553525111
  0
LINE
  5
54C
100
AcDbEntity
  8
0
100
AcDbLine
 62
7
  6
CONTINUOUS
 10
1418.0039388318
 20
693.8553525111
 11
1418.0039388318
 21
655.8553525111
  0
LINE
  5
54D
100
AcDbEntity
  8
0
100
AcDbLine
 62
7
  6
CONTINUOUS
 10
1420.3208506931
 20
693.8553525111
 11
1420.3208506931
 21
655.8553525111
  0
LINE
  5
54E
100
AcDbEntity
  8
0
100
AcDbLine
 62
7
  6
CONTINUOUS
 10
1421.4793066238
 20
693.8553525111
 11
1421.4793066238
 21
655.8553525111
  0
LINE
  5
54F
100
AcDbEntity
  8
0
100
AcDbLine
 62
7
  6
CONTINUOUS
 10
1430.8696191372
 20
702.6281112696
 11
1430.8676909007
 21
709.3653692939
  0
LINE
  5
550
100
AcDbEntity
  8
0
100
AcDbLine
 62
7
  6
CONTINUOUS
 10
1431.8678053418
 20
708.9656555152
 11
1431.8676908598
 21
709.3656554988
  0
LINE
  5
551
100
AcDbEntity
  8
0
100
AcDbLine
 62
7
  6
CONTINUOUS
 10
1432.000199043
 20
709.5656934315
 11
1431.9995121512
 21
711.9656933332
  0
LINE
  5
552
100
AcDbEntity
  8
0
100
AcDbLine
 62
7
  6
CONTINUOUS
 10
1432.264170523
 20
721.665769477
 11
1432.2675763614
 21
709.7657699644
  0
LINE
  5
553
100
AcDbEntity
  8
0
100
AcDbLine
 62
7
  6
CONTINUOUS
 10
1433.0639415263
 20
722.4659984081
 11
1433.0640560083
 21
722.0659984245
  0
LINE
  5
554
100
AcDbEntity
  8
0
100
AcDbLine
 62
7
  6
CONTINUOUS
 10
1433.0641704902
 20
721.6659984409
 11
1433.0675763287
 21
709.7659989283
  0
LINE
  5
555
100
AcDbEntity
  8
0
100
AcDbLine
 62
7
  6
CONTINUOUS
 10
1434.1640559632
 20
722.0663132499
 11
1434.1639414813
 21
722.4663132335
  0
LINE
  5
556
100
AcDbEntity
  8
0
100
AcDbLine
 62
7
  6
CONTINUOUS
 10
1435.7640558977
 20
722.0667711778
 11
1435.7639414157
 21
722.4667711614
  0
LINE
  5
557
100
AcDbEntity
  8
0
100
AcDbLine
 62
7
  6
CONTINUOUS
 10
1421.9704112809
 20
126.8553525111
 11
1421.9704112809
 21
134.8553525111
  0
LINE
  5
558
100
AcDbEntity
  8
0
100
AcDbLine
 62
7
  6
CONTINUOUS
 10
1427.9704112809
 20
127.6553525111
 11
1427.9704112809
 21
129.9553525111
  0
LINE
  5
559
100
AcDbEntity
  8
0
100
AcDbLine
 62
7
  6
CONTINUOUS
 10
1428.6967631032
 20
129.9553525111
 11
1428.6967631032
 21
145.4553525111
  0
LINE
  5
55A
100
AcDbEntity
  8
0
100
AcDbLine
 62
7
  6
CONTINUOUS
 10
1428.8704112809
 20
129.9553525111
 11
1428.8704112809
 21
145.4553525111
  0
LINE
  5
55B
100
AcDbEntity
  8
0
100
AcDbLine
 62
7
  6
CONTINUOUS
 10
1429.5010323316
 20
672.8553525111
 11
1429.5010323316
 21
670.8553525111
  0
LINE
  5
55C
100
AcDbEntity
  8
0
100
AcDbLine
 62
7
  6
CONTINUOUS
 10
1429.5314168256
 20
670.8553525111
 11
1429.5314168256
 21
672.8553525111
  0
LINE
  5
55D
100
AcDbEntity
  8
0
100
AcDbLine
 62
7
  6
CONTINUOUS
 10
1433.29699966
 20
672.8553525111
 11
1433.29699966
 21
670.8553525111
  0
LINE
  5
55E
100
AcDbEntity
  8
0
100
AcDbLine
 62
7
  6
CONTINUOUS
 10
1433.4706478376
 20
672.8553525111
 11
1433.4706478376
 21
670.8553525111
  0
LINE
  5
55F
100
AcDbEntity
  8
0
100
AcDbLine
 62
7
  6
CONTINUOUS
 10
1433.5010323316
 20
670.8553525111
 11
1433.5010323316
 21
672.8553525111
  0
LINE
  5
560
100
AcDbEntity
  8
0
100
AcDbLine
 62
7
  6
CONTINUOUS
 10
1434.1967631032
 20
721.8553525111
 11
1434.1967631032
 21
721.6663132663
  0
LINE
  5
561
100
AcDbEntity
  8
0
100
AcDbLine
 62
7
  6
CONTINUOUS
 10
1434.1967631032
 20
709.7663137537
 11
1434.1967631032
 21
706.8553525111
  0
LINE
  5
562
100
AcDbEntity
  8
0
100
AcDbLine
 62
7
  6
CONTINUOUS
 10
1434.3704112809
 20
721.8553525111
 11
1434.3704112809
 21
145.4553525111
  0
LINE
  5
563
100
AcDbEntity
  8
0
100
AcDbLine
 62
7
  6
CONTINUOUS
 10
1446.3704112809
 20
721.8553525111
 11
1446.3704112809
 21
157.3553525111
  0
LINE
  5
564
100
AcDbEntity
  8
0
100
AcDbLine
 62
7
  6
CONTINUOUS
 10
1448.3704112809
 20
721.8553525111
 11
1448.3704112809
 21
157.3553525111
  0
LINE
  5
565
100
AcDbEntity
  8
0
100
AcDbLine
 62
7
  6
CONTINUOUS
 10
1449.3702798388
 20
597.3306392595
 11
1449.3702798388
 21
587.327611883
  0
LINE
  5
566
100
AcDbEntity
  8
0
100
AcDbLine
 62
7
  6
CONTINUOUS
 10
1450.1704112809
 20
141.3553525111
 11
1450.1704112809
 21
637.3553525111
  0
LINE
  5
567
100
AcDbEntity
  8
0
100
AcDbLine
 62
7
  6
CONTINUOUS
 10
1450.3704112809
 20
141.3553525111
 11
1450.3704112809
 21
637.3553525111
  0
LINE
  5
568
100
AcDbEntity
  8
0
100
AcDbLine
 62
7
  6
CONTINUOUS
 10
1450.3704112809
 20
648.8553525111
 11
1450.3704112809
 21
719.8553525111
  0
LINE
  5
569
100
AcDbEntity
  8
0
100
AcDbLine
 62
7
  6
CONTINUOUS
 10
1454.3704112809
 20
719.8553525111
 11
1454.3704112809
 21
648.8553525111
  0
LINE
  5
56A
100
AcDbEntity
  8
0
100
AcDbLine
 62
7
  6
CONTINUOUS
 10
1454.3704112809
 20
637.3553525111
 11
1454.3704112809
 21
141.3553525111
  0
LINE
  5
56B
100
AcDbEntity
  8
0
100
AcDbLine
 62
7
  6
CONTINUOUS
 10
1496.3704112809
 20
622.0557535507
 11
1496.3704112809
 21
596.6557535507
  0
LINE
  5
56C
100
AcDbEntity
  8
0
100
AcDbLine
 62
7
  6
CONTINUOUS
 10
1431.3798928446
 20
712.2323355428
 11
1431.5568244351
 21
711.9655666338
  0
ARC
  5
56D
100
AcDbEntity
  8
0
100
AcDbCircle
 62
7
  6
CONTINUOUS
 10
167.204427766
 20
127.6554443191
 40
0.8
100
AcDbArc
 50
180.0
 51
270.0
  0
ARC
  5
56E
100
AcDbEntity
  8
0
100
AcDbCircle
 62
7
  6
CONTINUOUS
 10
373.4425475506
 20
138.6554443191
 40
0.4
100
AcDbArc
 50
270.0
 51
330.0
  0
ARC
  5
56F
100
AcDbEntity
  8
0
100
AcDbCircle
 62
7
  6
CONTINUOUS
 10
360.4425475506
 20
138.6554443191
 40
0.4
100
AcDbArc
 50
270.0
 51
330.0
  0
ARC
  5
570
100
AcDbEntity
  8
0
100
AcDbCircle
 62
7
  6
CONTINUOUS
 10
367.3663079813
 20
138.6554443191
 40
0.4
100
AcDbArc
 50
210.0
 51
270.0
  0
ARC
  5
571
100
AcDbEntity
  8
0
100
AcDbCircle
 62
7
  6
CONTINUOUS
 10
347.4425475506
 20
138.6554443191
 40
0.4
100
AcDbArc
 50
270.0
 51
330.0
  0
ARC
  5
572
100
AcDbEntity
  8
0
100
AcDbCircle
 62
7
  6
CONTINUOUS
 10
354.3663079813
 20
138.6554443191
 40
0.4
100
AcDbArc
 50
210.0
 51
270.0
  0
ARC
  5
573
100
AcDbEntity
  8
0
100
AcDbCircle
 62
7
  6
CONTINUOUS
 10
334.4425475506
 20
138.6554443191
 40
0.4
100
AcDbArc
 50
270.0
 51
330.0
  0
ARC
  5
574
100
AcDbEntity
  8
0
100
AcDbCircle
 62
7
  6
CONTINUOUS
 10
341.3663079813
 20
138.6554443191
 40
0.4
100
AcDbArc
 50
210.0
 51
270.0
  0
ARC
  5
575
100
AcDbEntity
  8
0
100
AcDbCircle
 62
7
  6
CONTINUOUS
 10
321.4425475506
 20
138.6554443191
 40
0.4
100
AcDbArc
 50
270.0
 51
330.0
  0
ARC
  5
576
100
AcDbEntity
  8
0
100
AcDbCircle
 62
7
  6
CONTINUOUS
 10
328.3663079813
 20
138.6554443191
 40
0.4
100
AcDbArc
 50
210.0
 51
270.0
  0
ARC
  5
577
100
AcDbEntity
  8
0
100
AcDbCircle
 62
7
  6
CONTINUOUS
 10
453.3674186812
 20
141.2554443191
 40
3.0
100
AcDbArc
 50
219.2987460104
 51
265.7142857143
  0
ARC
  5
578
100
AcDbEntity
  8
0
100
AcDbCircle
 62
7
  6
CONTINUOUS
 10
583.3674186812
 20
141.2554443191
 40
3.0
100
AcDbArc
 50
219.2987460105
 51
265.7142857143
  0
ARC
  5
579
100
AcDbEntity
  8
0
100
AcDbCircle
 62
7
  6
CONTINUOUS
 10
412.4425475506
 20
138.6554443191
 40
0.4
100
AcDbArc
 50
270.0
 51
330.0
  0
ARC
  5
57A
100
AcDbEntity
  8
0
100
AcDbCircle
 62
7
  6
CONTINUOUS
 10
419.3663079813
 20
138.6554443191
 40
0.4
100
AcDbArc
 50
210.0
 51
270.0
  0
ARC
  5
57B
100
AcDbEntity
  8
0
100
AcDbCircle
 62
7
  6
CONTINUOUS
 10
399.4425475506
 20
138.6554443191
 40
0.4
100
AcDbArc
 50
270.0
 51
330.0
  0
ARC
  5
57C
100
AcDbEntity
  8
0
100
AcDbCircle
 62
7
  6
CONTINUOUS
 10
406.3663079813
 20
138.6554443191
 40
0.4
100
AcDbArc
 50
210.0
 51
270.0
  0
ARC
  5
57D
100
AcDbEntity
  8
0
100
AcDbCircle
 62
7
  6
CONTINUOUS
 10
386.4425475506
 20
138.6554443191
 40
0.4
100
AcDbArc
 50
270.0
 51
330.0
  0
ARC
  5
57E
100
AcDbEntity
  8
0
100
AcDbCircle
 62
7
  6
CONTINUOUS
 10
393.3663079813
 20
138.6554443191
 40
0.4
100
AcDbArc
 50
210.0
 51
270.0
  0
ARC
  5
57F
100
AcDbEntity
  8
0
100
AcDbCircle
 62
7
  6
CONTINUOUS
 10
380.3663079813
 20
138.6554443191
 40
0.4
100
AcDbArc
 50
210.0
 51
270.0
  0
ARC
  5
580
100
AcDbEntity
  8
0
100
AcDbCircle
 62
7
  6
CONTINUOUS
 10
432.3663079813
 20
138.6554443191
 40
0.4
100
AcDbArc
 50
210.0
 51
270.0
  0
ARC
  5
581
100
AcDbEntity
  8
0
100
AcDbCircle
 62
7
  6
CONTINUOUS
 10
425.4425475506
 20
138.6554443191
 40
0.4
100
AcDbArc
 50
270.0
 51
330.0
  0
ARC
  5
582
100
AcDbEntity
  8
0
100
AcDbCircle
 62
7
  6
CONTINUOUS
 10
496.9425475506
 20
138.6554443191
 40
0.4
100
AcDbArc
 50
270.0
 51
330.0
  0
ARC
  5
583
100
AcDbEntity
  8
0
100
AcDbCircle
 62
7
  6
CONTINUOUS
 10
503.8663079813
 20
138.6554443191
 40
0.4
100
AcDbArc
 50
210.0
 51
270.0
  0
ARC
  5
584
100
AcDbEntity
  8
0
100
AcDbCircle
 62
7
  6
CONTINUOUS
 10
483.9425475506
 20
138.6554443191
 40
0.4
100
AcDbArc
 50
270.0
 51
330.0
  0
ARC
  5
585
100
AcDbEntity
  8
0
100
AcDbCircle
 62
7
  6
CONTINUOUS
 10
490.8663079813
 20
138.6554443191
 40
0.4
100
AcDbArc
 50
210.0
 51
270.0
  0
ARC
  5
586
100
AcDbEntity
  8
0
100
AcDbCircle
 62
7
  6
CONTINUOUS
 10
470.9425475506
 20
138.6554443191
 40
0.4
100
AcDbArc
 50
270.0
 51
330.0
  0
ARC
  5
587
100
AcDbEntity
  8
0
100
AcDbCircle
 62
7
  6
CONTINUOUS
 10
477.8663079813
 20
138.6554443191
 40
0.4
100
AcDbArc
 50
210.0
 51
270.0
  0
ARC
  5
588
100
AcDbEntity
  8
0
100
AcDbCircle
 62
7
  6
CONTINUOUS
 10
457.9425475506
 20
138.6554443191
 40
0.4
100
AcDbArc
 50
270.0
 51
330.0
  0
ARC
  5
589
100
AcDbEntity
  8
0
100
AcDbCircle
 62
7
  6
CONTINUOUS
 10
464.8663079813
 20
138.6554443191
 40
0.4
100
AcDbArc
 50
210.0
 51
270.0
  0
ARC
  5
58A
100
AcDbEntity
  8
0
100
AcDbCircle
 62
7
  6
CONTINUOUS
 10
451.8663079813
 20
138.6554443191
 40
0.4
100
AcDbArc
 50
210.0
 51
270.0
  0
ARC
  5
58B
100
AcDbEntity
  8
0
100
AcDbCircle
 62
7
  6
CONTINUOUS
 10
444.9425475506
 20
138.6554443191
 40
0.4
100
AcDbArc
 50
270.0
 51
330.0
  0
ARC
  5
58C
100
AcDbEntity
  8
0
100
AcDbCircle
 62
7
  6
CONTINUOUS
 10
561.9425475506
 20
138.6554443191
 40
0.4
100
AcDbArc
 50
270.0
 51
330.0
  0
ARC
  5
58D
100
AcDbEntity
  8
0
100
AcDbCircle
 62
7
  6
CONTINUOUS
 10
568.8663079813
 20
138.6554443191
 40
0.4
100
AcDbArc
 50
210.0
 51
270.0
  0
ARC
  5
58E
100
AcDbEntity
  8
0
100
AcDbCircle
 62
7
  6
CONTINUOUS
 10
548.9425475506
 20
138.6554443191
 40
0.4
100
AcDbArc
 50
270.0
 51
330.0
  0
ARC
  5
58F
100
AcDbEntity
  8
0
100
AcDbCircle
 62
7
  6
CONTINUOUS
 10
555.8663079813
 20
138.6554443191
 40
0.4
100
AcDbArc
 50
210.0
 51
270.0
  0
ARC
  5
590
100
AcDbEntity
  8
0
100
AcDbCircle
 62
7
  6
CONTINUOUS
 10
535.9425475506
 20
138.6554443191
 40
0.4
100
AcDbArc
 50
270.0
 51
330.0
  0
ARC
  5
591
100
AcDbEntity
  8
0
100
AcDbCircle
 62
7
  6
CONTINUOUS
 10
542.8663079813
 20
138.6554443191
 40
0.4
100
AcDbArc
 50
210.0
 51
270.0
  0
ARC
  5
592
100
AcDbEntity
  8
0
100
AcDbCircle
 62
7
  6
CONTINUOUS
 10
522.9425475506
 20
138.6554443191
 40
0.4
100
AcDbArc
 50
270.0
 51
330.0
  0
ARC
  5
593
100
AcDbEntity
  8
0
100
AcDbCircle
 62
7
  6
CONTINUOUS
 10
529.8663079813
 20
138.6554443191
 40
0.4
100
AcDbArc
 50
210.0
 51
270.0
  0
ARC
  5
594
100
AcDbEntity
  8
0
100
AcDbCircle
 62
7
  6
CONTINUOUS
 10
509.9425475506
 20
138.6554443191
 40
0.4
100
AcDbArc
 50
270.0
 51
330.0
  0
ARC
  5
595
100
AcDbEntity
  8
0
100
AcDbCircle
 62
7
  6
CONTINUOUS
 10
516.8663079813
 20
138.6554443191
 40
0.4
100
AcDbArc
 50
210.0
 51
270.0
  0
ARC
  5
596
100
AcDbEntity
  8
0
100
AcDbCircle
 62
2
  6
CONTINUOUS
 10
415.9040231744
 20
191.3563525111
 40
2.001
100
AcDbArc
 50
179.9713664258
 51
270.0000071548
  0
ARC
  5
597
100
AcDbEntity
  8
0
100
AcDbCircle
 62
2
  6
CONTINUOUS
 10
461.9050236743
 20
191.3563522613
 40
2.001
100
AcDbArc
 50
270.0286264158
 51
0.0286407254
  0
ARC
  5
598
100
AcDbEntity
  8
0
100
AcDbCircle
 62
2
  6
CONTINUOUS
 10
415.9030234243
 20
197.3563535111
 40
2.0
100
AcDbArc
 50
89.9427042109
 51
180.0000286479
  0
ARC
  5
599
100
AcDbEntity
  8
0
100
AcDbCircle
 62
2
  6
CONTINUOUS
 10
423.8640234243
 20
195.0443525111
 40
1.312
100
AcDbArc
 50
281.2029592932
 51
90.0
  0
ARC
  5
59A
100
AcDbEntity
  8
0
100
AcDbCircle
 62
7
  6
CONTINUOUS
 10
-99.7853720083
 20
3657.6031174175
 40
3224.1353630518
100
AcDbArc
 50
288.5476418919
 51
288.6908725549
  0
ARC
  5
59B
100
AcDbEntity
  8
0
100
AcDbCircle
 62
7
  6
CONTINUOUS
 10
917.4710849212
 20
245.571024611
 40
28.0176790168
100
AcDbArc
 50
179.9998666051
 51
181.1806237437
  0
ARC
  5
59C
100
AcDbEntity
  8
0
100
AcDbCircle
 62
7
  6
CONTINUOUS
 10
901.3700725712
 20
245.5710898412
 40
10.0
100
AcDbArc
 50
180.0
 51
240.0
  0
ARC
  5
59D
100
AcDbEntity
  8
0
100
AcDbCircle
 62
7
  6
CONTINUOUS
 10
897.0637656045
 20
245.2950432758
 40
7.6103786082
100
AcDbArc
 50
182.2689992975
 51
188.8064791337
  0
ARC
  5
59E
100
AcDbEntity
  8
0
100
AcDbCircle
 62
7
  6
CONTINUOUS
 10
892.3700725712
 20
244.993739572
 40
5.0
100
AcDbArc
 50
180.0
 51
240.0
  0
ARC
  5
59F
100
AcDbEntity
  8
0
100
AcDbCircle
 62
7
  6
CONTINUOUS
 10
892.3700725712
 20
339.993739572
 40
5.0
100
AcDbArc
 50
180.0
 51
234.3985356558
  0
ARC
  5
5A0
100
AcDbEntity
  8
0
100
AcDbCircle
 62
7
  6
CONTINUOUS
 10
948.9704112809
 20
177.5793721004
 40
4.6
100
AcDbArc
 50
132.3697985694
 51
180.0
  0
ARC
  5
5A1
100
AcDbEntity
  8
0
100
AcDbCircle
 62
7
  6
CONTINUOUS
 10
948.9704112809
 20
158.3550961921
 40
4.6
100
AcDbArc
 50
180.0
 51
227.6302014306
  0
ARC
  5
5A2
100
AcDbEntity
  8
0
100
AcDbCircle
 62
7
  6
CONTINUOUS
 10
942.7704112809
 20
151.5580380049
 40
4.6
100
AcDbArc
 50
0.0
 51
47.6302014306
  0
ARC
  5
5A3
100
AcDbEntity
  8
0
100
AcDbCircle
 62
7
  6
CONTINUOUS
 10
942.7704112809
 20
184.3764302876
 40
4.6
100
AcDbArc
 50
312.3697985695
 51
359.9999999995
  0
ARC
  5
5A4
100
AcDbEntity
  8
0
100
AcDbCircle
 62
7
  6
CONTINUOUS
 10
886.7700725712
 20
332.1963040962
 40
4.6
100
AcDbArc
 50
0.0
 51
54.3146652873
  0
ARC
  5
5A5
100
AcDbEntity
  8
0
100
AcDbCircle
 62
7
  6
CONTINUOUS
 10
886.7850096729
 20
332.194342687
 40
4.5928890323
100
AcDbArc
 50
359.9223114495
 51
54.3889843636
  0
ARC
  5
5A6
100
AcDbEntity
  8
0
100
AcDbCircle
 62
7
  6
CONTINUOUS
 10
973.2759647803
 20
131.2553525111
 40
3.4
100
AcDbArc
 50
210.0
 51
270.0
  0
CIRCLE
  5
5A7
100
AcDbEntity
  8
0
100
AcDbCircle
 62
7
  6
CONTINUOUS
 10
1036.7704112809
 20
182.3553525111
 40
2.25
  0
ARC
  5
5A8
100
AcDbEntity
  8
0
100
AcDbCircle
 62
7
  6
CONTINUOUS
 10
962.7704112809
 20
168.3553525111
 40
1.8
100
AcDbArc
 50
180.0
 51
270.0
  0
ARC
  5
5A9
100
AcDbEntity
  8
0
100
AcDbCircle
 62
7
  6
CONTINUOUS
 10
997.7704112809
 20
168.3553525111
 40
1.8
100
AcDbArc
 50
270.0
 51
360.0
  0
CIRCLE
  5
5AA
100
AcDbEntity
  8
0
100
AcDbCircle
 62
7
  6
CONTINUOUS
 10
974.7704112809
 20
139.8553525111
 40
1.65
  0
CIRCLE
  5
5AB
100
AcDbEntity
  8
0
100
AcDbCircle
 62
7
  6
CONTINUOUS
 10
1024.7704112809
 20
139.8553525111
 40
1.65
  0
CIRCLE
  5
5AC
100
AcDbEntity
  8
0
100
AcDbCircle
 62
7
  6
CONTINUOUS
 10
1098.9704112809
 20
139.8553525111
 40
1.65
  0
ARC
  5
5AD
100
AcDbEntity
  8
0
100
AcDbCircle
 62
7
  6
CONTINUOUS
 10
962.7704112809
 20
168.3553525111
 40
1.4
100
AcDbArc
 50
180.0
 51
270.0
  0
ARC
  5
5AE
100
AcDbEntity
  8
0
100
AcDbCircle
 62
7
  6
CONTINUOUS
 10
997.7704112809
 20
168.3553525111
 40
1.4
100
AcDbArc
 50
270.0
 51
360.0
  0
ARC
  5
5AF
100
AcDbEntity
  8
0
100
AcDbCircle
 62
7
  6
CONTINUOUS
 10
710.604427766
 20
127.6554443191
 40
0.8
100
AcDbArc
 50
270.0
 51
360.0
  0
ARC
  5
5B0
100
AcDbEntity
  8
0
100
AcDbCircle
 62
7
  6
CONTINUOUS
 10
988.3704112809
 20
132.4553525111
 40
0.4
100
AcDbArc
 50
0.0
 51
90.0
  0
ARC
  5
5B1
100
AcDbEntity
  8
0
100
AcDbCircle
 62
7
  6
CONTINUOUS
 10
891.3700661852
 20
550.5599865292
 40
30.000006386
100
AcDbArc
 50
300.0000070416
 51
359.9999929584
  0
ARC
  5
5B2
100
AcDbEntity
  8
0
100
AcDbCircle
 62
7
  6
CONTINUOUS
 10
931.3700725712
 20
576.6813623839
 40
20.0
100
AcDbArc
 50
120.0
 51
180.0
  0
ARC
  5
5B3
100
AcDbEntity
  8
0
100
AcDbCircle
 62
7
  6
CONTINUOUS
 10
901.3700725712
 20
527.4659720747
 40
10.0
100
AcDbArc
 50
120.0
 51
180.0
  0
ARC
  5
5B4
100
AcDbEntity
  8
0
100
AcDbCircle
 62
7
  6
CONTINUOUS
 10
901.3700725712
 20
550.5599828423
 40
10.0
100
AcDbArc
 50
300.0001508381
 51
360.0
  0
ARC
  5
5B5
100
AcDbEntity
  8
0
100
AcDbCircle
 62
7
  6
CONTINUOUS
 10
892.3700725712
 20
436.4852099611
 40
5.0
100
AcDbArc
 50
125.6014643442
 51
180.0
  0
ARC
  5
5B6
100
AcDbEntity
  8
0
100
AcDbCircle
 62
7
  6
CONTINUOUS
 10
892.3700725712
 20
462.8527234206
 40
5.0
100
AcDbArc
 50
125.6853347127
 51
180.0
  0
ARC
  5
5B7
100
AcDbEntity
  8
0
100
AcDbCircle
 62
7
  6
CONTINUOUS
 10
886.7700725712
 20
444.282645437
 40
4.6
100
AcDbArc
 50
305.6853347127
 51
360.0
  0
ARC
  5
5B8
100
AcDbEntity
  8
0
100
AcDbCircle
 62
7
  6
CONTINUOUS
 10
886.7700725712
 20
470.6501588965
 40
4.6
100
AcDbArc
 50
305.6853347127
 51
360.0
  0
ARC
  5
5B9
100
AcDbEntity
  8
0
100
AcDbCircle
 62
7
  6
CONTINUOUS
 10
886.7850096789
 20
444.2846068431
 40
4.5928890263
100
AcDbArc
 50
305.6110155983
 51
0.0776885885
  0
ARC
  5
5BA
100
AcDbEntity
  8
0
100
AcDbCircle
 62
7
  6
CONTINUOUS
 10
889.4232650349
 20
444.6005675153
 40
1.9472655942
100
AcDbArc
 50
346.0109312867
 51
352.9264697646
  0
ARC
  5
5BB
100
AcDbEntity
  8
0
100
AcDbCircle
 62
7
  6
CONTINUOUS
 10
964.6909640905
 20
698.9443601488
 40
53.8690031246
100
AcDbArc
 50
7.4781976835
 51
7.6692050437
  0
ARC
  5
5BC
100
AcDbEntity
  8
0
100
AcDbCircle
 62
7
  6
CONTINUOUS
 10
955.581403642
 20
689.834799693
 40
53.8690031161
100
AcDbArc
 50
262.3307949563
 51
262.5218023165
  0
ARC
  5
5BD
100
AcDbEntity
  8
0
100
AcDbCircle
 62
7
  6
CONTINUOUS
 10
927.4498897262
 20
608.966073524
 40
34.6412059549
100
AcDbArc
 50
52.4326484792
 51
52.8735936773
  0
ARC
  5
5BE
100
AcDbEntity
  8
0
100
AcDbCircle
 62
7
  6
CONTINUOUS
 10
950.4823091596
 20
651.9934984533
 40
15.6856978151
100
AcDbArc
 50
261.7196484012
 51
262.34331608
  0
ARC
  5
5BF
100
AcDbEntity
  8
0
100
AcDbCircle
 62
7
  6
CONTINUOUS
 10
940.622773427
 20
626.3427647996
 40
12.8358468948
100
AcDbArc
 50
52.939084502
 51
53.3128162731
  0
ARC
  5
5C0
100
AcDbEntity
  8
0
100
AcDbCircle
 62
7
  6
CONTINUOUS
 10
949.5600115943
 20
645.6133393514
 40
9.2392260373
100
AcDbArc
 50
261.3463007898
 51
261.6814007616
  0
ARC
  5
5C1
100
AcDbEntity
  8
0
100
AcDbCircle
 62
7
  6
CONTINUOUS
 10
942.7723072436
 20
629.2263714421
 40
9.2392260239
100
AcDbArc
 50
53.3185992381
 51
53.6536992105
  0
ARC
  5
5C2
100
AcDbEntity
  8
0
100
AcDbCircle
 62
7
  6
CONTINUOUS
 10
932.3700725712
 20
606.1262261125
 40
5.0
100
AcDbArc
 50
300.0
 51
360.0
  0
ARC
  5
5C3
100
AcDbEntity
  8
0
100
AcDbCircle
 62
7
  6
CONTINUOUS
 10
923.6074112809
 20
601.2604930802
 40
4.0
100
AcDbArc
 50
96.0
 51
180.0
  0
ARC
  5
5C4
100
AcDbEntity
  8
0
100
AcDbCircle
 62
7
  6
CONTINUOUS
 10
923.3700725712
 20
600.6327337006
 40
4.0
100
AcDbArc
 50
96.0
 51
180.0
  0
ARC
  5
5C5
100
AcDbEntity
  8
0
100
AcDbCircle
 62
7
  6
CONTINUOUS
 10
949.3704112809
 20
631.8672341462
 40
2.0
100
AcDbArc
 50
143.1966920425
 51
180.0
  0
ARC
  5
5C6
100
AcDbEntity
  8
0
100
AcDbCircle
 62
7
  6
CONTINUOUS
 10
962.7704112809
 20
630.2553525111
 40
1.8
100
AcDbArc
 50
90.0
 51
180.0
  0
ARC
  5
5C7
100
AcDbEntity
  8
0
100
AcDbCircle
 62
7
  6
CONTINUOUS
 10
957.385855255
 20
631.5872963088
 40
1.6
100
AcDbArc
 50
225.016398334
 51
315.016398334
  0
ARC
  5
5C8
100
AcDbEntity
  8
0
100
AcDbCircle
 62
7
  6
CONTINUOUS
 10
962.7704112809
 20
630.2553525111
 40
1.4
100
AcDbArc
 50
90.0
 51
180.0
  0
ARC
  5
5C9
100
AcDbEntity
  8
0
100
AcDbCircle
 62
7
  6
CONTINUOUS
 10
947.57736548
 20
638.1827649467
 40
0.8
100
AcDbArc
 50
135.016398334
 51
180.016398334
  0
ARC
  5
5CA
100
AcDbEntity
  8
0
100
AcDbCircle
 62
7
  6
CONTINUOUS
 10
947.57736548
 20
638.1827649467
 40
0.4
100
AcDbArc
 50
135.016398334
 51
180.016398334
  0
CIRCLE
  5
5CB
100
AcDbEntity
  8
0
100
AcDbCircle
 62
7
  6
CONTINUOUS
 10
1036.7704112809
 20
439.2553525111
 40
2.25
  0
ARC
  5
5CC
100
AcDbEntity
  8
0
100
AcDbCircle
 62
7
  6
CONTINUOUS
 10
1045.559690272
 20
727.0758740689
 40
34.6412059601
100
AcDbArc
 50
217.1264063228
 51
217.5673515208
  0
ARC
  5
5CD
100
AcDbEntity
  8
0
100
AcDbCircle
 62
7
  6
CONTINUOUS
 10
1002.5322653387
 20
704.0434546324
 40
15.6856978151
100
AcDbArc
 50
7.65668392
 51
8.2803515988
  0
ARC
  5
5CE
100
AcDbEntity
  8
0
100
AcDbCircle
 62
7
  6
CONTINUOUS
 10
1028.1829990114
 20
713.9029903793
 40
12.8358469187
100
AcDbArc
 50
216.6871837272
 51
217.0609154976
  0
ARC
  5
5CF
100
AcDbEntity
  8
0
100
AcDbCircle
 62
7
  6
CONTINUOUS
 10
1008.9124244197
 20
704.9657521945
 40
9.2392260583
100
AcDbArc
 50
8.3185992386
 51
8.6536992097
  0
ARC
  5
5D0
100
AcDbEntity
  8
0
100
AcDbCircle
 62
7
  6
CONTINUOUS
 10
1025.2993923738
 20
711.7534565661
 40
9.2392260537
100
AcDbArc
 50
216.3463007901
 51
216.6814007614
  0
ARC
  5
5D1
100
AcDbEntity
  8
0
100
AcDbCircle
 62
7
  6
CONTINUOUS
 10
974.4840740224
 20
668.4999639422
 40
2.4
100
AcDbArc
 50
135.016398334
 51
195.016398334
  0
ARC
  5
5D2
100
AcDbEntity
  8
0
100
AcDbCircle
 62
7
  6
CONTINUOUS
 10
999.2764805907
 20
693.3065659911
 40
2.4
100
AcDbArc
 50
75.016398334
 51
135.016398334
  0
CIRCLE
  5
5D3
100
AcDbEntity
  8
0
100
AcDbCircle
 62
7
  6
CONTINUOUS
 10
989.3145830153
 20
667.6366992439
 40
2.25
  0
CIRCLE
  5
5D4
100
AcDbEntity
  8
0
100
AcDbCircle
 62
7
  6
CONTINUOUS
 10
1036.7704112809
 20
654.2553525111
 40
2.25
  0
CIRCLE
  5
5D5
100
AcDbEntity
  8
0
100
AcDbCircle
 62
7
  6
CONTINUOUS
 10
1027.9074255338
 20
699.755753202
 40
2.25
  0
ARC
  5
5D6
100
AcDbEntity
  8
0
100
AcDbCircle
 62
7
  6
CONTINUOUS
 10
970.7728463495
 20
665.3524587142
 40
2.0
100
AcDbArc
 50
315.016398334
 51
15.016398334
  0
ARC
  5
5D7
100
AcDbEntity
  8
0
100
AcDbCircle
 62
7
  6
CONTINUOUS
 10
1002.4218609598
 20
697.0195947188
 40
2.0
100
AcDbArc
 50
255.016398334
 51
309.4614073519
  0
ARC
  5
5D8
100
AcDbEntity
  8
0
100
AcDbCircle
 62
7
  6
CONTINUOUS
 10
997.7704112809
 20
630.2553525111
 40
1.8
100
AcDbArc
 50
0.0
 51
90.0
  0
ARC
  5
5D9
100
AcDbEntity
  8
0
100
AcDbCircle
 62
7
  6
CONTINUOUS
 10
1013.3768436026
 20
687.6103436254
 40
1.6
100
AcDbArc
 50
315.016398334
 51
0.0163983337
  0
ARC
  5
5DA
100
AcDbEntity
  8
0
100
AcDbCircle
 62
7
  6
CONTINUOUS
 10
997.7704112809
 20
630.2553525111
 40
1.4
100
AcDbArc
 50
0.0
 51
90.0
  0
ARC
  5
5DB
100
AcDbEntity
  8
0
100
AcDbCircle
 62
7
  6
CONTINUOUS
 10
1017.7993079519
 20
708.4449146581
 40
0.8
100
AcDbArc
 50
90.0163983337
 51
135.0163983337
  0
ARC
  5
5DC
100
AcDbEntity
  8
0
100
AcDbCircle
 62
7
  6
CONTINUOUS
 10
1017.7993079519
 20
708.4449146581
 40
0.4
100
AcDbArc
 50
90.0163983337
 51
135.0163983337
  0
ARC
  5
5DD
100
AcDbEntity
  8
0
100
AcDbCircle
 62
7
  6
CONTINUOUS
 10
1290.9704112809
 20
153.3553525111
 40
7.5
100
AcDbArc
 50
180.0
 51
360.0
  0
CIRCLE
  5
5DE
100
AcDbEntity
  8
0
100
AcDbCircle
 62
7
  6
CONTINUOUS
 10
1395.4704112809
 20
148.8553525111
 40
6.0
  0
ARC
  5
5DF
100
AcDbEntity
  8
0
100
AcDbCircle
 62
7
  6
CONTINUOUS
 10
1395.4704112809
 20
175.8553525111
 40
6.0
100
AcDbArc
 50
0.0
 51
180.0
  0
ARC
  5
5E0
100
AcDbEntity
  8
0
100
AcDbCircle
 62
7
  6
CONTINUOUS
 10
1395.4704112809
 20
164.8553525111
 40
6.0
100
AcDbArc
 50
180.0
 51
360.0
  0
CIRCLE
  5
5E1
100
AcDbEntity
  8
0
100
AcDbCircle
 62
7
  6
CONTINUOUS
 10
1395.4704112809
 20
347.7553525111
 40
6.0
  0
CIRCLE
  5
5E2
100
AcDbEntity
  8
0
100
AcDbCircle
 62
7
  6
CONTINUOUS
 10
1395.4704112809
 20
326.7553525111
 40
6.0
  0
CIRCLE
  5
5E3
100
AcDbEntity
  8
0
100
AcDbCircle
 62
7
  6
CONTINUOUS
 10
1395.4704112809
 20
275.7553525111
 40
6.0
  0
CIRCLE
  5
5E4
100
AcDbEntity
  8
0
100
AcDbCircle
 62
7
  6
CONTINUOUS
 10
1291.4704112809
 20
152.3553525111
 40
5.5
  0
ARC
  5
5E5
100
AcDbEntity
  8
0
100
AcDbCircle
 62
7
  6
CONTINUOUS
 10
1290.2204112809
 20
136.3553525111
 40
2.5
100
AcDbArc
 50
90.0
 51
270.0
  0
ARC
  5
5E6
100
AcDbEntity
  8
0
100
AcDbCircle
 62
7
  6
CONTINUOUS
 10
1291.7204112809
 20
136.3553525111
 40
2.5
100
AcDbArc
 50
270.0
 51
90.0
  0
ARC
  5
5E7
100
AcDbEntity
  8
0
100
AcDbCircle
 62
7
  6
CONTINUOUS
 10
1366.9704112809
 20
141.3553525111
 40
2.5
100
AcDbArc
 50
90.0
 51
270.0
  0
ARC
  5
5E8
100
AcDbEntity
  8
0
100
AcDbCircle
 62
7
  6
CONTINUOUS
 10
1368.4704112809
 20
141.3553525111
 40
2.5
100
AcDbArc
 50
270.0
 51
90.0
  0
CIRCLE
  5
5E9
100
AcDbEntity
  8
0
100
AcDbCircle
 62
7
  6
CONTINUOUS
 10
1134.4586969733
 20
286.7553525111
 40
2.25
  0
CIRCLE
  5
5EA
100
AcDbEntity
  8
0
100
AcDbCircle
 62
7
  6
CONTINUOUS
 10
1238.9704112809
 20
182.3553525111
 40
2.25
  0
CIRCLE
  5
5EB
100
AcDbEntity
  8
0
100
AcDbCircle
 62
7
  6
CONTINUOUS
 10
1266.4586969733
 20
286.7553525111
 40
2.25
  0
CIRCLE
  5
5EC
100
AcDbEntity
  8
0
100
AcDbCircle
 62
7
  6
CONTINUOUS
 10
1395.4704112809
 20
294.7553525111
 40
2.25
  0
ARC
  5
5ED
100
AcDbEntity
  8
0
100
AcDbCircle
 62
7
  6
CONTINUOUS
 10
1452.3704112809
 20
141.3553525111
 40
2.0
100
AcDbArc
 50
180.0
 51
360.0
  0
CIRCLE
  5
5EE
100
AcDbEntity
  8
0
100
AcDbCircle
 62
7
  6
CONTINUOUS
 10
1395.8704112809
 20
167.9553525111
 40
1.75
  0
CIRCLE
  5
5EF
100
AcDbEntity
  8
0
100
AcDbCircle
 62
7
  6
CONTINUOUS
 10
1180.9704112809
 20
139.8553525111
 40
1.65
  0
CIRCLE
  5
5F0
100
AcDbEntity
  8
0
100
AcDbCircle
 62
7
  6
CONTINUOUS
 10
1384.9704112809
 20
139.8553525111
 40
1.65
  0
CIRCLE
  5
5F1
100
AcDbEntity
  8
0
100
AcDbCircle
 62
7
  6
CONTINUOUS
 10
1395.8704112809
 20
350.8553525111
 40
1.25
  0
ARC
  5
5F2
100
AcDbEntity
  8
0
100
AcDbCircle
 62
7
  6
CONTINUOUS
 10
1427.1704112809
 20
127.6553525111
 40
0.8
100
AcDbArc
 50
270.0
 51
360.0
  0
ARC
  5
5F3
100
AcDbEntity
  8
0
100
AcDbCircle
 62
7
  6
CONTINUOUS
 10
1348.3704112809
 20
132.4553525111
 40
0.4
100
AcDbArc
 50
90.0
 51
180.0
  0
ARC
  5
5F4
100
AcDbEntity
  8
0
100
AcDbCircle
 62
7
  6
CONTINUOUS
 10
1407.5704112809
 20
132.4553525111
 40
0.4
100
AcDbArc
 50
0.0
 51
90.0
  0
ARC
  5
5F5
100
AcDbEntity
  8
0
100
AcDbCircle
 62
7
  6
CONTINUOUS
 10
1170.4580552335
 20
576.2006519727
 40
7.0
100
AcDbArc
 50
180.0
 51
270.0
  0
ARC
  5
5F6
100
AcDbEntity
  8
0
100
AcDbCircle
 62
7
  6
CONTINUOUS
 10
1240.4580552335
 20
576.2006519727
 40
7.0
100
AcDbArc
 50
270.0
 51
360.0
  0
CIRCLE
  5
5F7
100
AcDbEntity
  8
0
100
AcDbCircle
 62
7
  6
CONTINUOUS
 10
1134.4586969733
 20
486.7553525111
 40
2.25
  0
ARC
  5
5F8
100
AcDbEntity
  8
0
100
AcDbCircle
 62
7
  6
CONTINUOUS
 10
1266.8586969733
 20
486.3553525111
 40
2.25
100
AcDbArc
 50
52.2340889557
 51
166.9387165583
  0
ARC
  5
5F9
100
AcDbEntity
  8
0
100
AcDbCircle
 62
7
  6
CONTINUOUS
 10
1239.3704112809
 20
438.8553525111
 40
2.25
100
AcDbArc
 50
52.2340889557
 51
217.7834114758
  0
CIRCLE
  5
5FA
100
AcDbEntity
  8
0
100
AcDbCircle
 62
7
  6
CONTINUOUS
 10
1238.9704112809
 20
439.2553525111
 40
2.25
  0
CIRCLE
  5
5FB
100
AcDbEntity
  8
0
100
AcDbCircle
 62
7
  6
CONTINUOUS
 10
1266.4586969733
 20
486.7553525111
 40
2.25
  0
ARC
  5
5FC
100
AcDbEntity
  8
0
100
AcDbCircle
 62
7
  6
CONTINUOUS
 10
1170.4580552335
 20
595.2006519727
 40
7.0
100
AcDbArc
 50
90.0
 51
180.0
  0
ARC
  5
5FD
100
AcDbEntity
  8
0
100
AcDbCircle
 62
7
  6
CONTINUOUS
 10
1240.4580552335
 20
595.2006519727
 40
7.0
100
AcDbArc
 50
0.0
 51
90.0
  0
ARC
  5
5FE
100
AcDbEntity
  8
0
100
AcDbCircle
 62
7
  6
CONTINUOUS
 10
1137.8717097698
 20
695.2815118283
 40
6.0
100
AcDbArc
 50
12.1695958027
 51
167.8632008647
  0
CIRCLE
  5
5FF
100
AcDbEntity
  8
0
100
AcDbCircle
 62
7
  6
CONTINUOUS
 10
1290.8704155813
 20
699.8253009954
 40
2.25
  0
CIRCLE
  5
600
100
AcDbEntity
  8
0
100
AcDbCircle
 62
7
  6
CONTINUOUS
 10
1238.9704112809
 20
654.2553525111
 40
2.25
  0
ARC
  5
601
100
AcDbEntity
  8
0
100
AcDbCircle
 62
7
  6
CONTINUOUS
 10
1130.4415818978
 20
696.8793853547
 40
1.6
100
AcDbArc
 50
270.0163983337
 51
347.8632008647
  0
ARC
  5
602
100
AcDbEntity
  8
0
100
AcDbCircle
 62
7
  6
CONTINUOUS
 10
1145.300921786
 20
696.8836381709
 40
1.6
100
AcDbArc
 50
192.1695958027
 51
270.0163983337
  0
ARC
  5
603
100
AcDbEntity
  8
0
100
AcDbCircle
 62
7
  6
CONTINUOUS
 10
1295.2204112809
 20
629.0053525111
 40
1.25
100
AcDbArc
 50
180.0
 51
360.0
  0
ARC
  5
604
100
AcDbEntity
  8
0
100
AcDbCircle
 62
7
  6
CONTINUOUS
 10
1295.2204112809
 20
645.5053525111
 40
1.25
100
AcDbArc
 50
0.0
 51
180.0
  0
ARC
  5
605
100
AcDbEntity
  8
0
100
AcDbCircle
 62
7
  6
CONTINUOUS
 10
1295.2204112809
 20
677.0053525111
 40
1.25
100
AcDbArc
 50
180.0
 51
360.0
  0
ARC
  5
606
100
AcDbEntity
  8
0
100
AcDbCircle
 62
7
  6
CONTINUOUS
 10
1295.2204112809
 20
693.5053525111
 40
1.25
100
AcDbArc
 50
0.0
 51
180.0
  0
ARC
  5
607
100
AcDbEntity
  8
0
100
AcDbCircle
 62
7
  6
CONTINUOUS
 10
1295.2204112809
 20
653.0053525111
 40
1.25
100
AcDbArc
 50
180.0
 51
360.0
  0
ARC
  5
608
100
AcDbEntity
  8
0
100
AcDbCircle
 62
7
  6
CONTINUOUS
 10
1295.2204112809
 20
669.5053525111
 40
1.25
100
AcDbArc
 50
0.0
 51
180.0
  0
ARC
  5
609
100
AcDbEntity
  8
0
100
AcDbCircle
 62
7
  6
CONTINUOUS
 10
1311.2204112809
 20
629.0053525111
 40
1.25
100
AcDbArc
 50
180.0
 51
360.0
  0
ARC
  5
60A
100
AcDbEntity
  8
0
100
AcDbCircle
 62
7
  6
CONTINUOUS
 10
1311.2204112809
 20
645.5053525111
 40
1.25
100
AcDbArc
 50
0.0
 51
180.0
  0
ARC
  5
60B
100
AcDbEntity
  8
0
100
AcDbCircle
 62
7
  6
CONTINUOUS
 10
1303.2204112809
 20
629.0053525111
 40
1.25
100
AcDbArc
 50
180.0
 51
360.0
  0
ARC
  5
60C
100
AcDbEntity
  8
0
100
AcDbCircle
 62
7
  6
CONTINUOUS
 10
1303.2204112809
 20
645.5053525111
 40
1.25
100
AcDbArc
 50
0.0
 51
180.0
  0
ARC
  5
60D
100
AcDbEntity
  8
0
100
AcDbCircle
 62
7
  6
CONTINUOUS
 10
1303.2204112809
 20
653.0053525111
 40
1.25
100
AcDbArc
 50
180.0
 51
360.0
  0
ARC
  5
60E
100
AcDbEntity
  8
0
100
AcDbCircle
 62
7
  6
CONTINUOUS
 10
1311.2204112809
 20
653.0053525111
 40
1.25
100
AcDbArc
 50
180.0
 51
360.0
  0
ARC
  5
60F
100
AcDbEntity
  8
0
100
AcDbCircle
 62
7
  6
CONTINUOUS
 10
1311.2204112809
 20
669.5053525111
 40
1.25
100
AcDbArc
 50
0.0
 51
180.0
  0
ARC
  5
610
100
AcDbEntity
  8
0
100
AcDbCircle
 62
7
  6
CONTINUOUS
 10
1303.2204112809
 20
669.5053525111
 40
1.25
100
AcDbArc
 50
0.0
 51
180.0
  0
ARC
  5
611
100
AcDbEntity
  8
0
100
AcDbCircle
 62
7
  6
CONTINUOUS
 10
1311.2204112809
 20
677.0053525111
 40
1.25
100
AcDbArc
 50
180.0
 51
360.0
  0
ARC
  5
612
100
AcDbEntity
  8
0
100
AcDbCircle
 62
7
  6
CONTINUOUS
 10
1311.2204112809
 20
693.5053525111
 40
1.25
100
AcDbArc
 50
0.0
 51
180.0
  0
ARC
  5
613
100
AcDbEntity
  8
0
100
AcDbCircle
 62
7
  6
CONTINUOUS
 10
1303.2204112809
 20
677.0053525111
 40
1.25
100
AcDbArc
 50
180.0
 51
360.0
  0
ARC
  5
614
100
AcDbEntity
  8
0
100
AcDbCircle
 62
7
  6
CONTINUOUS
 10
1303.2204112809
 20
693.5053525111
 40
1.25
100
AcDbArc
 50
0.0
 51
180.0
  0
CIRCLE
  5
615
100
AcDbEntity
  8
0
100
AcDbCircle
 62
7
  6
CONTINUOUS
 10
1395.4704112809
 20
557.7553525111
 40
6.0
  0
ARC
  5
616
100
AcDbEntity
  8
0
100
AcDbCircle
 62
7
  6
CONTINUOUS
 10
1395.8704112809
 20
449.3553525111
 40
2.0
100
AcDbArc
 50
60.3648900252
 51
119.6351099765
  0
CIRCLE
  5
617
100
AcDbEntity
  8
0
100
AcDbCircle
 62
7
  6
CONTINUOUS
 10
1395.4704112809
 20
449.7553525111
 40
2.0
  0
ARC
  5
618
100
AcDbEntity
  8
0
100
AcDbCircle
 62
7
  6
CONTINUOUS
 10
1395.8704112809
 20
451.8553525111
 40
1.25
100
AcDbArc
 50
192.815042723
 51
325.6144737379
  0
CIRCLE
  5
619
100
AcDbEntity
  8
0
100
AcDbCircle
 62
7
  6
CONTINUOUS
 10
1395.4704112809
 20
590.7553525111
 40
6.0
  0
ARC
  5
61A
100
AcDbEntity
  8
0
100
AcDbCircle
 62
7
  6
CONTINUOUS
 10
1395.4704112809
 20
629.2553525111
 40
6.0
100
AcDbArc
 50
180.0
 51
360.0
  0
ARC
  5
61B
100
AcDbEntity
  8
0
100
AcDbCircle
 62
7
  6
CONTINUOUS
 10
1395.4704112809
 20
650.2553525111
 40
6.0
100
AcDbArc
 50
0.0
 51
180.0
  0
CIRCLE
  5
61C
100
AcDbEntity
  8
0
100
AcDbCircle
 62
7
  6
CONTINUOUS
 10
1395.8703108861
 20
590.3553599648
 40
4.9999226283
  0
CIRCLE
  5
61D
100
AcDbEntity
  8
0
100
AcDbCircle
 62
7
  6
CONTINUOUS
 10
1395.8703108861
 20
628.3553599648
 40
4.9999226283
  0
CIRCLE
  5
61E
100
AcDbEntity
  8
0
100
AcDbCircle
 62
7
  6
CONTINUOUS
 10
1395.4704112809
 20
602.7553525111
 40
2.25
  0
ARC
  5
61F
100
AcDbEntity
  8
0
100
AcDbCircle
 62
7
  6
CONTINUOUS
 10
1395.8704112809
 20
602.3553525111
 40
1.75
100
AcDbArc
 50
346.5588097568
 51
283.4101694539
  0
CIRCLE
  5
620
100
AcDbEntity
  8
0
100
AcDbCircle
 62
7
  6
CONTINUOUS
 10
1395.8704112809
 20
642.3553525111
 40
1.75
  0
CIRCLE
  5
621
100
AcDbEntity
  8
0
100
AcDbCircle
 62
7
  6
CONTINUOUS
 10
1395.8704112809
 20
652.3553525111
 40
1.75
  0
ARC
  5
622
100
AcDbEntity
  8
0
100
AcDbCircle
 62
7
  6
CONTINUOUS
 10
1335.2204112809
 20
629.0053525111
 40
1.25
100
AcDbArc
 50
180.0
 51
360.0
  0
ARC
  5
623
100
AcDbEntity
  8
0
100
AcDbCircle
 62
7
  6
CONTINUOUS
 10
1335.2204112809
 20
645.5053525111
 40
1.25
100
AcDbArc
 50
0.0
 51
180.0
  0
ARC
  5
624
100
AcDbEntity
  8
0
100
AcDbCircle
 62
7
  6
CONTINUOUS
 10
1327.2204112809
 20
629.0053525111
 40
1.25
100
AcDbArc
 50
180.0
 51
360.0
  0
ARC
  5
625
100
AcDbEntity
  8
0
100
AcDbCircle
 62
7
  6
CONTINUOUS
 10
1327.2204112809
 20
645.5053525111
 40
1.25
100
AcDbArc
 50
0.0
 51
180.0
  0
ARC
  5
626
100
AcDbEntity
  8
0
100
AcDbCircle
 62
7
  6
CONTINUOUS
 10
1319.2204112809
 20
629.0053525111
 40
1.25
100
AcDbArc
 50
180.0
 51
360.0
  0
ARC
  5
627
100
AcDbEntity
  8
0
100
AcDbCircle
 62
7
  6
CONTINUOUS
 10
1319.2204112809
 20
645.5053525111
 40
1.25
100
AcDbArc
 50
0.0
 51
180.0
  0
ARC
  5
628
100
AcDbEntity
  8
0
100
AcDbCircle
 62
7
  6
CONTINUOUS
 10
1319.2204112809
 20
653.0053525111
 40
1.25
100
AcDbArc
 50
180.0
 51
360.0
  0
ARC
  5
629
100
AcDbEntity
  8
0
100
AcDbCircle
 62
7
  6
CONTINUOUS
 10
1327.2204112809
 20
653.0053525111
 40
1.25
100
AcDbArc
 50
180.0
 51
360.0
  0
ARC
  5
62A
100
AcDbEntity
  8
0
100
AcDbCircle
 62
7
  6
CONTINUOUS
 10
1359.2204112809
 20
653.0053525111
 40
1.25
100
AcDbArc
 50
180.0
 51
360.0
  0
ARC
  5
62B
100
AcDbEntity
  8
0
100
AcDbCircle
 62
7
  6
CONTINUOUS
 10
1351.2204112809
 20
653.0053525111
 40
1.25
100
AcDbArc
 50
180.0
 51
360.0
  0
ARC
  5
62C
100
AcDbEntity
  8
0
100
AcDbCircle
 62
7
  6
CONTINUOUS
 10
1343.2204112809
 20
653.0053525111
 40
1.25
100
AcDbArc
 50
180.0
 51
360.0
  0
ARC
  5
62D
100
AcDbEntity
  8
0
100
AcDbCircle
 62
7
  6
CONTINUOUS
 10
1335.2204112809
 20
653.0053525111
 40
1.25
100
AcDbArc
 50
180.0
 51
360.0
  0
ARC
  5
62E
100
AcDbEntity
  8
0
100
AcDbCircle
 62
7
  6
CONTINUOUS
 10
1375.2204112809
 20
653.0053525111
 40
1.25
100
AcDbArc
 50
180.0
 51
360.0
  0
ARC
  5
62F
100
AcDbEntity
  8
0
100
AcDbCircle
 62
7
  6
CONTINUOUS
 10
1367.2204112809
 20
653.0053525111
 40
1.25
100
AcDbArc
 50
180.0
 51
360.0
  0
CIRCLE
  5
630
100
AcDbEntity
  8
0
100
AcDbCircle
 62
7
  6
CONTINUOUS
 10
1395.4704112809
 20
686.7553525111
 40
6.0
  0
CIRCLE
  5
631
100
AcDbEntity
  8
0
100
AcDbCircle
 62
7
  6
CONTINUOUS
 10
1395.8704112809
 20
699.8553525111
 40
2.25
  0
ARC
  5
632
100
AcDbEntity
  8
0
100
AcDbCircle
 62
7
  6
CONTINUOUS
 10
1395.4704112809
 20
699.7553525111
 40
2.25
100
AcDbArc
 50
289.2899255187
 51
98.7630242902
  0
CIRCLE
  5
633
100
AcDbEntity
  8
0
100
AcDbCircle
 62
7
  6
CONTINUOUS
 10
1395.8704112809
 20
687.3553525111
 40
1.75
  0
CIRCLE
  5
634
100
AcDbEntity
  8
0
100
AcDbCircle
 62
7
  6
CONTINUOUS
 10
1395.8704112809
 20
699.8553525111
 40
1.75
  0
ARC
  5
635
100
AcDbEntity
  8
0
100
AcDbCircle
 62
7
  6
CONTINUOUS
 10
1327.2204112809
 20
669.5053525111
 40
1.25
100
AcDbArc
 50
0.0
 51
180.0
  0
ARC
  5
636
100
AcDbEntity
  8
0
100
AcDbCircle
 62
7
  6
CONTINUOUS
 10
1319.2204112809
 20
669.5053525111
 40
1.25
100
AcDbArc
 50
0.0
 51
180.0
  0
ARC
  5
637
100
AcDbEntity
  8
0
100
AcDbCircle
 62
7
  6
CONTINUOUS
 10
1327.2204112809
 20
677.0053525111
 40
1.25
100
AcDbArc
 50
180.0
 51
360.0
  0
ARC
  5
638
100
AcDbEntity
  8
0
100
AcDbCircle
 62
7
  6
CONTINUOUS
 10
1327.2204112809
 20
693.5053525111
 40
1.25
100
AcDbArc
 50
0.0
 51
180.0
  0
ARC
  5
639
100
AcDbEntity
  8
0
100
AcDbCircle
 62
7
  6
CONTINUOUS
 10
1319.2204112809
 20
677.0053525111
 40
1.25
100
AcDbArc
 50
180.0
 51
360.0
  0
ARC
  5
63A
100
AcDbEntity
  8
0
100
AcDbCircle
 62
7
  6
CONTINUOUS
 10
1319.2204112809
 20
693.5053525111
 40
1.25
100
AcDbArc
 50
0.0
 51
180.0
  0
ARC
  5
63B
100
AcDbEntity
  8
0
100
AcDbCircle
 62
7
  6
CONTINUOUS
 10
1359.2204112809
 20
669.5053525111
 40
1.25
100
AcDbArc
 50
0.0
 51
180.0
  0
ARC
  5
63C
100
AcDbEntity
  8
0
100
AcDbCircle
 62
7
  6
CONTINUOUS
 10
1351.2204112809
 20
669.5053525111
 40
1.25
100
AcDbArc
 50
0.0
 51
180.0
  0
ARC
  5
63D
100
AcDbEntity
  8
0
100
AcDbCircle
 62
7
  6
CONTINUOUS
 10
1343.2204112809
 20
669.5053525111
 40
1.25
100
AcDbArc
 50
0.0
 51
180.0
  0
ARC
  5
63E
100
AcDbEntity
  8
0
100
AcDbCircle
 62
7
  6
CONTINUOUS
 10
1335.2204112809
 20
669.5053525111
 40
1.25
100
AcDbArc
 50
0.0
 51
180.0
  0
ARC
  5
63F
100
AcDbEntity
  8
0
100
AcDbCircle
 62
7
  6
CONTINUOUS
 10
1359.2204112809
 20
677.0053525111
 40
1.25
100
AcDbArc
 50
180.0
 51
360.0
  0
ARC
  5
640
100
AcDbEntity
  8
0
100
AcDbCircle
 62
7
  6
CONTINUOUS
 10
1359.2204112809
 20
693.5053525111
 40
1.25
100
AcDbArc
 50
0.0
 51
180.0
  0
ARC
  5
641
100
AcDbEntity
  8
0
100
AcDbCircle
 62
7
  6
CONTINUOUS
 10
1351.2204112809
 20
677.0053525111
 40
1.25
100
AcDbArc
 50
180.0
 51
360.0
  0
ARC
  5
642
100
AcDbEntity
  8
0
100
AcDbCircle
 62
7
  6
CONTINUOUS
 10
1351.2204112809
 20
693.5053525111
 40
1.25
100
AcDbArc
 50
0.0
 51
180.0
  0
ARC
  5
643
100
AcDbEntity
  8
0
100
AcDbCircle
 62
7
  6
CONTINUOUS
 10
1343.2204112809
 20
677.0053525111
 40
1.25
100
AcDbArc
 50
180.0
 51
360.0
  0
ARC
  5
644
100
AcDbEntity
  8
0
100
AcDbCircle
 62
7
  6
CONTINUOUS
 10
1343.2204112809
 20
693.5053525111
 40
1.25
100
AcDbArc
 50
0.0
 51
180.0
  0
ARC
  5
645
100
AcDbEntity
  8
0
100
AcDbCircle
 62
7
  6
CONTINUOUS
 10
1335.2204112809
 20
677.0053525111
 40
1.25
100
AcDbArc
 50
180.0
 51
360.0
  0
ARC
  5
646
100
AcDbEntity
  8
0
100
AcDbCircle
 62
7
  6
CONTINUOUS
 10
1335.2204112809
 20
693.5053525111
 40
1.25
100
AcDbArc
 50
0.0
 51
180.0
  0
ARC
  5
647
100
AcDbEntity
  8
0
100
AcDbCircle
 62
7
  6
CONTINUOUS
 10
1375.2204112809
 20
677.0053525111
 40
1.25
100
AcDbArc
 50
180.0
 51
360.0
  0
ARC
  5
648
100
AcDbEntity
  8
0
100
AcDbCircle
 62
7
  6
CONTINUOUS
 10
1375.2204112809
 20
693.5053525111
 40
1.25
100
AcDbArc
 50
0.0
 51
180.0
  0
ARC
  5
649
100
AcDbEntity
  8
0
100
AcDbCircle
 62
7
  6
CONTINUOUS
 10
1367.2204112809
 20
677.0053525111
 40
1.25
100
AcDbArc
 50
180.0
 51
360.0
  0
ARC
  5
64A
100
AcDbEntity
  8
0
100
AcDbCircle
 62
7
  6
CONTINUOUS
 10
1367.2204112809
 20
693.5053525111
 40
1.25
100
AcDbArc
 50
0.0
 51
180.0
  0
ARC
  5
64B
100
AcDbEntity
  8
0
100
AcDbCircle
 62
7
  6
CONTINUOUS
 10
1375.2204112809
 20
669.5053525111
 40
1.25
100
AcDbArc
 50
0.0
 51
180.0
  0
ARC
  5
64C
100
AcDbEntity
  8
0
100
AcDbCircle
 62
7
  6
CONTINUOUS
 10
1367.2204112809
 20
669.5053525111
 40
1.25
100
AcDbArc
 50
0.0
 51
180.0
  0
ARC
  5
64D
100
AcDbEntity
  8
0
100
AcDbCircle
 62
7
  6
CONTINUOUS
 10
1452.3704112809
 20
653.2026585994
 40
4.5809155888
100
AcDbArc
 50
260.7414791944
 51
279.2585208056
  0
ARC
  5
64E
100
AcDbEntity
  8
0
100
AcDbCircle
 62
7
  6
CONTINUOUS
 10
1494.0704112809
 20
596.6557535507
 40
2.3
100
AcDbArc
 50
270.0
 51
360.0
  0
ARC
  5
64F
100
AcDbEntity
  8
0
100
AcDbCircle
 62
7
  6
CONTINUOUS
 10
1494.0704112809
 20
622.0557535507
 40
2.3
100
AcDbArc
 50
0.0000000001
 51
90.0
  0
ARC
  5
650
100
AcDbEntity
  8
0
100
AcDbCircle
 62
7
  6
CONTINUOUS
 10
1452.3704112809
 20
648.8553525111
 40
2.0
100
AcDbArc
 50
180.0
 51
360.0
  0
ARC
  5
651
100
AcDbEntity
  8
0
100
AcDbCircle
 62
7
  6
CONTINUOUS
 10
1452.3704112809
 20
637.3553525111
 40
2.0
100
AcDbArc
 50
0.0
 51
180.0
  0
ARC
  5
652
100
AcDbEntity
  8
0
100
AcDbCircle
 62
7
  6
CONTINUOUS
 10
1448.3702709454
 20
597.3275824201
 40
1.0000102478
100
AcDbArc
 50
0.0006276717
 51
89.9994904522
  0
ARC
  5
653
100
AcDbEntity
  8
0
100
AcDbCircle
 62
7
  6
CONTINUOUS
 10
1448.3702798388
 20
587.3276036833
 40
1.0
100
AcDbArc
 50
270.0
 51
360.0
  0
ARC
  5
654
100
AcDbEntity
  8
0
100
AcDbCircle
 62
7
  6
CONTINUOUS
 10
1448.3702798388
 20
597.3306495677
 40
1.0
100
AcDbArc
 50
0.0
 51
90.0
  0
ARC
  5
655
100
AcDbEntity
  8
0
100
AcDbCircle
 62
7
  6
CONTINUOUS
 10
1431.1427645922
 20
655.5427779259
 40
10.6874310463
100
AcDbArc
 50
270.0588180743
 51
287.5871517211
  0
ARC
  5
656
100
AcDbEntity
  8
0
100
AcDbCircle
 62
7
  6
CONTINUOUS
 10
1431.5627669042
 20
672.8551425561
 40
2.0313500895
100
AcDbArc
 50
174.4296259542
 51
179.9940780588
  0
ARC
  5
657
100
AcDbEntity
  8
0
100
AcDbCircle
 62
7
  6
CONTINUOUS
 10
1431.5627669042
 20
670.8555624661
 40
2.0313500895
100
AcDbArc
 50
180.0059219412
 51
185.5703740458
  0
ARC
  5
658
100
AcDbEntity
  8
0
100
AcDbCircle
 62
7
  6
CONTINUOUS
 10
1431.4392977591
 20
670.8555624661
 40
2.0313500894
100
AcDbArc
 50
354.4296259541
 51
359.9940780589
  0
ARC
  5
659
100
AcDbEntity
  8
0
100
AcDbCircle
 62
7
  6
CONTINUOUS
 10
1431.4392977591
 20
672.8551425561
 40
2.0313500894
100
AcDbArc
 50
0.0059219411
 51
5.5703740459
  0
ARC
  5
65A
100
AcDbEntity
  8
0
100
AcDbCircle
 62
7
  6
CONTINUOUS
 10
1431.5010323316
 20
670.8553525111
 40
2.0
100
AcDbArc
 50
180.0
 51
360.0
  0
ARC
  5
65B
100
AcDbEntity
  8
0
100
AcDbCircle
 62
7
  6
CONTINUOUS
 10
1431.5010323316
 20
672.8553525111
 40
2.0
100
AcDbArc
 50
0.0
 51
180.0
  0
CIRCLE
  5
65C
100
AcDbEntity
  8
0
100
AcDbCircle
 62
7
  6
CONTINUOUS
 10
1431.5010323316
 20
682.8553525111
 40
2.0
  0
CIRCLE
  5
65D
100
AcDbEntity
  8
0
100
AcDbCircle
 62
7
  6
CONTINUOUS
 10
1431.5010323316
 20
655.8553525111
 40
2.0
  0
ARC
  5
65E
100
AcDbEntity
  8
0
100
AcDbCircle
 62
7
  6
CONTINUOUS
 10
1431.5015444331
 20
682.9108686939
 40
1.9444941699
100
AcDbArc
 50
92.5774061482
 51
95.7403545826
  0
ARC
  5
65F
100
AcDbEntity
  8
0
100
AcDbCircle
 62
7
  6
CONTINUOUS
 10
1431.5015444331
 20
655.9108686939
 40
1.9444941698
100
AcDbArc
 50
92.5774061482
 51
95.7403545826
  0
ARC
  5
660
100
AcDbEntity
  8
0
100
AcDbCircle
 62
7
  6
CONTINUOUS
 10
1431.5010629085
 20
670.7926678093
 40
1.9373152985
100
AcDbArc
 50
267.4273182319
 51
269.9990956931
  0
ARC
  5
661
100
AcDbEntity
  8
0
100
AcDbCircle
 62
7
  6
CONTINUOUS
 10
1431.5010849241
 20
682.9210619815
 40
1.9342905303
100
AcDbArc
 50
90.0015578448
 51
92.577386548
  0
ARC
  5
662
100
AcDbEntity
  8
0
100
AcDbCircle
 62
7
  6
CONTINUOUS
 10
1431.5010849241
 20
682.7896430406
 40
1.9342905303
100
AcDbArc
 50
267.422613452
 51
269.9984421552
  0
ARC
  5
663
100
AcDbEntity
  8
0
100
AcDbCircle
 62
7
  6
CONTINUOUS
 10
1431.5010849241
 20
655.9210619815
 40
1.9342905303
100
AcDbArc
 50
90.0015578448
 51
92.577386548
  0
ARC
  5
664
100
AcDbEntity
  8
0
100
AcDbCircle
 62
7
  6
CONTINUOUS
 10
1431.5010849241
 20
655.7896430406
 40
1.9342905303
100
AcDbArc
 50
267.422613452
 51
269.9984421552
  0
ARC
  5
665
100
AcDbEntity
  8
0
100
AcDbCircle
 62
7
  6
CONTINUOUS
 10
1431.2154745212
 20
693.854634543
 40
13.2115357089
100
AcDbArc
 50
173.4489883374
 51
179.9968863165
  0
ARC
  5
666
100
AcDbEntity
  8
0
100
AcDbCircle
 62
7
  6
CONTINUOUS
 10
1430.7961667493
 20
694.1698073651
 40
12.6855982212
100
AcDbArc
 50
73.6281577952
 51
89.6736671915
  0
ARC
  5
667
100
AcDbEntity
  8
0
100
AcDbCircle
 62
7
  6
CONTINUOUS
 10
1431.500312047
 20
693.8545954166
 40
11.1794613795
100
AcDbArc
 50
172.2459967612
 51
179.9961198205
  0
ARC
  5
668
100
AcDbEntity
  8
0
100
AcDbCircle
 62
7
  6
CONTINUOUS
 10
1431.1427644252
 20
694.1679261408
 40
10.6874320019
100
AcDbArc
 50
72.4128552569
 51
89.9411810357
  0
ARC
  5
669
100
AcDbEntity
  8
0
100
AcDbCircle
 62
7
  6
CONTINUOUS
 10
1431.1537726587
 20
694.1922055225
 40
10.6631469886
100
AcDbArc
 50
90.000197104
 51
91.5311091689
  0
ARC
  5
66A
100
AcDbEntity
  8
0
100
AcDbCircle
 62
7
  6
CONTINUOUS
 10
1431.6442026789
 20
693.8544428855
 40
10.1648960958
100
AcDbArc
 50
171.4629353277
 51
179.9948727754
  0
ARC
  5
66B
100
AcDbEntity
  8
0
100
AcDbCircle
 62
7
  6
CONTINUOUS
 10
1431.3264383898
 20
694.1424382441
 40
9.7128472962
100
AcDbArc
 50
71.7294199891
 51
92.6990074707
  0
ARC
  5
66C
100
AcDbEntity
  8
0
100
AcDbCircle
 62
7
  6
CONTINUOUS
 10
1429.3538497374
 20
711.6734369099
 40
2.6617557034
100
AcDbArc
 50
6.3036923073
 51
6.5759290382
  0
ARC
  5
66D
100
AcDbEntity
  8
0
100
AcDbCircle
 62
7
  6
CONTINUOUS
 10
1429.4191850864
 20
711.6809630925
 40
2.595988301
100
AcDbArc
 50
6.5760509578
 51
6.8162959721
  0
CIRCLE
  5
66E
100
AcDbEntity
  8
0
100
AcDbCircle
 62
7
  6
CONTINUOUS
 10
1431.5010323316
 20
697.8553525111
 40
2.0
  0
ARC
  5
66F
100
AcDbEntity
  8
0
100
AcDbCircle
 62
7
  6
CONTINUOUS
 10
1431.5015444331
 20
697.9108686939
 40
1.9444941698
100
AcDbArc
 50
92.5774061482
 51
95.7403545826
  0
ARC
  5
670
100
AcDbEntity
  8
0
100
AcDbCircle
 62
7
  6
CONTINUOUS
 10
1431.5010849241
 20
697.9210619815
 40
1.9342905303
100
AcDbArc
 50
90.0015578448
 51
92.577386548
  0
ARC
  5
671
100
AcDbEntity
  8
0
100
AcDbCircle
 62
7
  6
CONTINUOUS
 10
1431.5010849241
 20
697.7896430406
 40
1.9342905303
100
AcDbArc
 50
267.422613452
 51
269.9984421552
  0
ARC
  5
672
100
AcDbEntity
  8
0
100
AcDbCircle
 62
7
  6
CONTINUOUS
 10
1429.2696192027
 20
702.6276533417
 40
1.6
100
AcDbArc
 50
315.0163983337
 51
0.0163983337
  0
ARC
  5
673
100
AcDbEntity
  8
0
100
AcDbCircle
 62
7
  6
CONTINUOUS
 10
1423.6084984393
 20
696.9632911694
 40
1.6
100
AcDbArc
 50
270.0163983337
 51
315.0163983337
  0
ARC
  5
674
100
AcDbEntity
  8
0
100
AcDbCircle
 62
7
  6
CONTINUOUS
 10
1434.1671183558
 20
711.3663136882
 40
1.6
100
AcDbArc
 50
270.0163983337
 51
277.3109980633
  0
ARC
  5
675
100
AcDbEntity
  8
0
100
AcDbCircle
 62
7
  6
CONTINUOUS
 10
1434.164628373
 20
720.0663133318
 40
1.6
100
AcDbArc
 50
82.5986682531
 51
90.0163983337
  0
ARC
  5
676
100
AcDbEntity
  8
0
100
AcDbCircle
 62
7
  6
CONTINUOUS
 10
1433.0641704902
 20
721.6659984409
 40
0.8
100
AcDbArc
 50
90.0163983337
 51
180.0163983337
  0
ARC
  5
677
100
AcDbEntity
  8
0
100
AcDbCircle
 62
7
  6
CONTINUOUS
 10
1431.8675763778
 20
709.7656554824
 40
0.8
100
AcDbArc
 50
270.0163983337
 51
0.0163983337
  0
ARC
  5
678
100
AcDbEntity
  8
0
100
AcDbCircle
 62
7
  6
CONTINUOUS
 10
1431.8675763778
 20
709.7656554824
 40
0.4
100
AcDbArc
 50
270.0163983337
 51
0.0163983337
  0
ARC
  5
679
100
AcDbEntity
  8
0
100
AcDbCircle
 62
7
  6
CONTINUOUS
 10
1431.8667177631
 20
712.7656553595
 40
0.4
100
AcDbArc
 50
270.0163983337
 51
353.5878269052
  0
ARC
  5
67A
100
AcDbEntity
  8
0
100
AcDbCircle
 62
7
  6
CONTINUOUS
 10
1433.0641704902
 20
721.6659984409
 40
0.4
100
AcDbArc
 50
90.0163983337
 51
180.0163983337
  0
ARC
  5
67B
100
AcDbEntity
  8
0
100
AcDbCircle
 62
7
  6
CONTINUOUS
 10
1452.3704112809
 20
715.5080464228
 40
4.5809155888
100
AcDbArc
 50
80.7414791943
 51
99.2585208057
  0
ARC
  5
67C
100
AcDbEntity
  8
0
100
AcDbCircle
 62
7
  6
CONTINUOUS
 10
1452.3704112809
 20
719.8553525111
 40
2.0
100
AcDbArc
 50
0.0
 51
180.0
  0
SPLINE
  5
67D
100
AcDbEntity
  8
0
100
AcDbSpline
 62
2
  6
CONTINUOUS
 70
0
 71
3
 72
11
 73
7
 74
0
 42
0.0000001
 43
0.0000001
 44
0.0000000001
 40
0.0
 40
0.0
 40
0.0
 40
0.0
 40
0.2384087006
 40
0.4768174013
 40
0.7384087006
 40
1.0
 40
1.0
 40
1.0
 40
1.0
 10
540.5310234243
 20
679.5303525111
 30
0.0
 10
540.5321343229
 20
679.6356781093
 30
0.0
 10
540.5908977094
 20
679.8992703754
 30
0.0
 10
540.9781693939
 20
680.0781178864
 30
0.0
 10
541.3484530431
 20
679.884777945
 30
0.0
 10
541.4009620752
 20
679.6566593459
 30
0.0
 10
541.398153958
 20
679.5525733769
 30
0.0
  0
SPLINE
  5
67E
100
AcDbEntity
  8
0
100
AcDbSpline
 62
2
  6
CONTINUOUS
 70
0
 71
3
 72
10
 73
6
 74
0
 42
0.0000001
 43
0.0000001
 44
0.0000000001
 40
0.0
 40
0.0
 40
0.0
 40
0.0
 40
0.428004318
 40
0.714002159
 40
1.0
 40
1.0
 40
1.0
 40
1.0
 10
541.3518342544
 20
679.3482138819
 30
0.0
 10
541.2765876376
 20
679.1812489249
 30
0.0
 10
541.0162074061
 20
678.9994565157
 30
0.0
 10
540.6407706969
 20
679.1879225919
 30
0.0
 10
540.5294426368
 20
679.3804761933
 30
0.0
 10
540.5310234243
 20
679.5303525111
 30
0.0
  0
SPLINE
  5
67F
100
AcDbEntity
  8
0
100
AcDbSpline
 62
2
  6
CONTINUOUS
 70
0
 71
3
 72
11
 73
7
 74
0
 42
0.0000001
 43
0.0000001
 44
0.0000000001
 40
0.0
 40
0.0
 40
0.0
 40
0.0
 40
0.2499636364
 40
0.4999272727
 40
0.7500363425
 40
1.0
 40
1.0
 40
1.0
 40
1.0
 10
536.3360234243
 20
680.4993525111
 30
0.0
 10
535.7751551602
 20
680.4993920619
 30
0.0
 10
534.6534887423
 20
680.0331295643
 30
0.0
 10
533.9542146954
 20
678.3507454513
 30
0.0
 10
534.6534209752
 20
676.6689108733
 30
0.0
 10
535.774525711
 20
676.2026887065
 30
0.0
 10
536.3350452052
 20
676.2024573345
 30
0.0
  0
SPLINE
  5
680
100
AcDbEntity
  8
0
100
AcDbSpline
 62
2
  6
CONTINUOUS
 70
0
 71
3
 72
8
 73
4
 74
0
 42
0.0000001
 43
0.0000001
 44
0.0000000001
 40
0.0
 40
0.0
 40
0.0
 40
0.0
 40
1.0
 40
1.0
 40
1.0
 40
1.0
 10
543.5170234243
 20
679.3033525111
 30
0.0
 10
543.7480561215
 20
679.3032895398
 30
0.0
 10
543.9927227744
 20
679.2654861759
 30
0.0
 10
544.1930234243
 20
679.1503525111
 30
0.0
  0
SPLINE
  5
681
100
AcDbEntity
  8
0
100
AcDbSpline
 62
2
  6
CONTINUOUS
 70
0
 71
3
 72
11
 73
7
 74
0
 42
0.0000001
 43
0.0000001
 44
0.0000000001
 40
0.0
 40
0.0
 40
0.0
 40
0.0
 40
0.2501817547
 40
0.5002180972
 40
0.7501090486
 40
1.0
 40
1.0
 40
1.0
 40
1.0
 10
536.3350452052
 20
676.2024573345
 30
0.0
 10
536.8960537616
 20
676.2022257606
 30
0.0
 10
538.0180056223
 20
676.6682247364
 30
0.0
 10
538.7174899356
 20
678.3507454429
 30
0.0
 10
538.0182090148
 20
680.0331634605
 30
0.0
 10
536.8967285979
 20
680.4993129718
 30
0.0
 10
536.3360234243
 20
680.4993525111
 30
0.0
  0
SPLINE
  5
682
100
AcDbEntity
  8
0
100
AcDbSpline
 62
2
  6
CONTINUOUS
 70
0
 71
3
 72
13
 73
9
 74
0
 42
0.0000001
 43
0.0000001
 44
0.0000000001
 40
0.0
 40
0.0
 40
0.0
 40
0.0
 40
0.0808175705
 40
0.1895242019
 40
0.4099270944
 40
0.6499369442
 40
0.8825295835
 40
1.0
 40
1.0
 40
1.0
 40
1.0
 10
544.2130234243
 20
677.0483525111
 30
0.0
 10
544.1169186421
 20
677.0062875842
 30
0.0
 10
543.8853379469
 20
676.9190912163
 30
0.0
 10
543.3556727216
 20
676.8443563538
 30
0.0
 10
542.5714633339
 20
677.1282694725
 30
0.0
 10
542.2913763969
 20
678.0814831591
 30
0.0
 10
542.511882359
 20
678.8842853448
 30
0.0
 10
542.9126684234
 20
679.1492970675
 30
0.0
 10
543.0592586055
 20
679.2100453219
 30
0.0
  0
SPLINE
  5
683
100
AcDbEntity
  8
0
100
AcDbSpline
 62
2
  6
CONTINUOUS
 70
0
 71
3
 72
11
 73
7
 74
0
 42
0.0000001
 43
0.0000001
 44
0.0000000001
 40
0.0
 40
0.0
 40
0.0
 40
0.0
 40
0.250168976
 40
0.500168976
 40
0.750084488
 40
1.0
 40
1.0
 40
1.0
 40
1.0
 10
534.4870916537
 20
678.3503742711
 30
0.0
 10
534.486860073
 20
678.8331356235
 30
0.0
 10
534.8877920906
 20
679.7985500361
 30
0.0
 10
536.3355315832
 20
680.4001181226
 30
0.0
 10
537.7829920386
 20
679.7987194359
 30
0.0
 10
538.1839839001
 20
678.8337991588
 30
0.0
 10
538.1840234243
 20
678.3513525111
 30
0.0
  0
SPLINE
  5
684
100
AcDbEntity
  8
0
100
AcDbSpline
 62
2
  6
CONTINUOUS
 70
0
 71
3
 72
11
 73
7
 74
0
 42
0.0000001
 43
0.0000001
 44
0.0000000001
 40
0.0
 40
0.0
 40
0.0
 40
0.0
 40
0.2499999857
 40
0.4999999714
 40
0.7500844737
 40
1.0
 40
1.0
 40
1.0
 40
1.0
 10
538.1840234243
 20
678.3513525111
 30
0.0
 10
538.1840629619
 20
677.8687427919
 30
0.0
 10
537.7829581559
 20
676.9035503535
 30
0.0
 10
536.3355315836
 20
676.3020293679
 30
0.0
 10
534.8884781623
 20
676.9034487401
 30
0.0
 10
534.4873229997
 20
677.8681020112
 30
0.0
 10
534.4870916537
 20
678.3503742711
 30
0.0
  0
SPLINE
  5
685
100
AcDbEntity
  8
0
100
AcDbSpline
 62
2
  6
CONTINUOUS
 70
0
 71
3
 72
8
 73
4
 74
0
 42
0.0000001
 43
0.0000001
 44
0.0000000001
 40
0.0
 40
0.0
 40
0.0
 40
0.0
 40
1.0
 40
1.0
 40
1.0
 40
1.0
 10
543.3910234243
 20
676.4263525111
 30
0.0
 10
543.7041555909
 20
676.4261974955
 30
0.0
 10
544.0344400536
 20
676.4664413311
 30
0.0
 10
544.3120234243
 20
676.6113525111
 30
0.0
  0
SPLINE
  5
686
100
AcDbEntity
  8
0
100
AcDbSpline
 62
2
  6
CONTINUOUS
 70
0
 71
3
 72
14
 73
10
 74
0
 42
0.0000001
 43
0.0000001
 44
0.0000000001
 40
0.0
 40
0.0
 40
0.0
 40
0.0
 40
0.155995896
 40
0.4099673216
 40
0.5311660585
 40
0.662289784
 40
0.7906716766
 40
0.9057934677
 40
1.0
 40
1.0
 40
1.0
 40
1.0
 10
544.3260234243
 20
679.6013525111
 30
0.0
 10
544.0799713999
 20
679.7244093321
 30
0.0
 10
543.3468065569
 20
679.8519804582
 30
0.0
 10
542.3560117573
 20
679.5278680431
 30
0.0
 10
541.8665515849
 20
678.744492146
 30
0.0
 10
541.7575150116
 20
678.0686268775
 30
0.0
 10
541.8589768911
 20
677.4030461199
 30
0.0
 10
542.1726595717
 20
676.8753873502
 30
0.0
 10
542.4904338008
 20
676.6622455154
 30
0.0
 10
542.646139012
 20
676.5899744306
 30
0.0
  0
SPLINE
  5
687
100
AcDbEntity
  8
0
100
AcDbSpline
 62
2
  6
CONTINUOUS
 70
0
 71
3
 72
13
 73
9
 74
0
 42
0.0000001
 43
0.0000001
 44
0.0000000001
 40
0.0
 40
0.0
 40
0.0
 40
0.0
 40
0.1115513837
 40
0.3698889186
 40
0.6282264535
 40
0.8570101744
 40
0.9714020349
 40
1.0
 40
1.0
 40
1.0
 40
1.0
 10
540.2656691896
 20
679.760451513
 30
0.0
 10
540.2432496495
 20
679.6864442979
 30
0.0
 10
540.2056864514
 20
679.4276515957
 30
0.0
 10
540.3709227102
 20
678.9776790337
 30
0.0
 10
540.9258542083
 20
678.7368381552
 30
0.0
 10
541.4108319054
 20
678.9371313183
 30
0.0
 10
541.6062226604
 20
679.1767583282
 30
0.0
 10
541.650227455
 20
679.3033519555
 30
0.0
 10
541.6578588709
 20
679.3292643848
 30
0.0
  0
SPLINE
  5
688
100
AcDbEntity
  8
0
100
AcDbSpline
 62
2
  6
CONTINUOUS
 70
0
 71
3
 72
12
 73
8
 74
0
 42
0.0000001
 43
0.0000001
 44
0.0000000001
 40
0.0
 40
0.0
 40
0.0
 40
0.0
 40
0.1448940216
 40
0.2897880433
 40
0.5795760865
 40
0.8411566244
 40
1.0
 40
1.0
 40
1.0
 40
1.0
 10
541.6970234243
 20
679.5573525111
 30
0.0
 10
541.7041786395
 20
679.6807096528
 30
0.0
 10
541.6615497243
 20
679.8210938961
 30
0.0
 10
541.471880925
 20
680.1541497837
 30
0.0
 10
540.9982079189
 20
680.3540684483
 30
0.0
 10
540.4622528406
 20
680.1521702206
 30
0.0
 10
540.3003323568
 20
679.8748751121
 30
0.0
 10
540.2656691896
 20
679.760451513
 30
0.0
  0
SPLINE
  5
689
100
AcDbEntity
  8
0
100
AcDbSpline
 62
2
  6
CONTINUOUS
 70
0
 71
3
 72
8
 73
4
 74
0
 42
0.0000001
 43
0.0000001
 44
0.0000000001
 40
0.0
 40
0.0
 40
0.0
 40
0.0
 40
1.0
 40
1.0
 40
1.0
 40
1.0
 10
361.0320234243
 20
696.4583525111
 30
0.0
 10
360.8961115926
 20
696.3227354989
 30
0.0
 10
360.8961115926
 20
696.0179695232
 30
0.0
 10
361.0320234243
 20
695.8823525111
 30
0.0
  0
SPLINE
  5
68A
100
AcDbEntity
  8
0
100
AcDbSpline
 62
2
  6
CONTINUOUS
 70
0
 71
3
 72
8
 73
4
 74
0
 42
0.0000001
 43
0.0000001
 44
0.0000000001
 40
0.0
 40
0.0
 40
0.0
 40
0.0
 40
1.0
 40
1.0
 40
1.0
 40
1.0
 10
367.3140234243
 20
695.8823525111
 30
0.0
 10
367.4508810111
 20
696.0189158901
 30
0.0
 10
367.4466611219
 20
696.3255691234
 30
0.0
 10
367.3100234243
 20
696.4623525111
 30
0.0
  0
SPLINE
  5
68B
100
AcDbEntity
  8
0
100
AcDbSpline
 62
2
  6
CONTINUOUS
 70
0
 71
3
 72
8
 73
4
 74
0
 42
0.0000001
 43
0.0000001
 44
0.0000000001
 40
0.0
 40
0.0
 40
0.0
 40
0.0
 40
1.0
 40
1.0
 40
1.0
 40
1.0
 10
364.4600234243
 20
699.1773525111
 30
0.0
 10
364.3249203846
 20
699.3109495494
 30
0.0
 10
364.0241259418
 20
699.314953829
 30
0.0
 10
363.8900234243
 20
699.1803525111
 30
0.0
  0
SPLINE
  5
68C
100
AcDbEntity
  8
0
100
AcDbSpline
 62
2
  6
CONTINUOUS
 70
0
 71
3
 72
8
 73
4
 74
0
 42
0.0000001
 43
0.0000001
 44
0.0000000001
 40
0.0
 40
0.0
 40
0.0
 40
0.0
 40
1.0
 40
1.0
 40
1.0
 40
1.0
 10
361.1400234243
 20
679.2463525111
 30
0.0
 10
361.0032736568
 20
679.1096811657
 30
0.0
 10
361.0074986772
 20
678.8032486359
 30
0.0
 10
361.1440234243
 20
678.6663525111
 30
0.0
  0
SPLINE
  5
68D
100
AcDbEntity
  8
0
100
AcDbSpline
 62
2
  6
CONTINUOUS
 70
0
 71
3
 72
8
 73
4
 74
0
 42
0.0000001
 43
0.0000001
 44
0.0000000001
 40
0.0
 40
0.0
 40
0.0
 40
0.0
 40
1.0
 40
1.0
 40
1.0
 40
1.0
 10
363.9930234243
 20
675.9523525111
 30
0.0
 10
364.0666125658
 20
675.8790443758
 30
0.0
 10
364.1771512064
 20
675.8332701278
 30
0.0
 10
364.2810234243
 20
675.8333525111
 30
0.0
  0
SPLINE
  5
68E
100
AcDbEntity
  8
0
100
AcDbSpline
 62
2
  6
CONTINUOUS
 70
0
 71
3
 72
8
 73
4
 74
0
 42
0.0000001
 43
0.0000001
 44
0.0000000001
 40
0.0
 40
0.0
 40
0.0
 40
0.0
 40
1.0
 40
1.0
 40
1.0
 40
1.0
 10
364.2810234243
 20
675.8333525111
 30
0.0
 10
364.3831567677
 20
675.8334014821
 30
0.0
 10
364.4928388724
 20
675.8760987036
 30
0.0
 10
364.5650234243
 20
675.9483525111
 30
0.0
  0
SPLINE
  5
68F
100
AcDbEntity
  8
0
100
AcDbSpline
 62
2
  6
CONTINUOUS
 70
0
 71
3
 72
8
 73
4
 74
0
 42
0.0000001
 43
0.0000001
 44
0.0000000001
 40
0.0
 40
0.0
 40
0.0
 40
0.0
 40
1.0
 40
1.0
 40
1.0
 40
1.0
 10
367.4220234243
 20
678.6703525111
 30
0.0
 10
367.5577142414
 20
678.806190658
 30
0.0
 10
367.5579354161
 20
679.1107356593
 30
0.0
 10
367.4220234243
 20
679.2463525111
 30
0.0
  0
SPLINE
  5
690
100
AcDbEntity
  8
0
100
AcDbSpline
 62
2
  6
CONTINUOUS
 70
0
 71
3
 72
15
 73
11
 74
0
 42
0.0000001
 43
0.0000001
 44
0.0000000001
 40
0.0
 40
0.0
 40
0.0
 40
0.0
 40
0.1250041112
 40
0.2500082223
 40
0.3750123335
 40
0.5000164447
 40
0.6250041144
 40
0.7499917842
 40
0.8749794539
 40
1.0
 40
1.0
 40
1.0
 40
1.0
 10
339.5030234243
 20
683.4903525111
 30
0.0
 10
340.1402974583
 20
683.4903474258
 30
0.0
 10
341.4148327525
 20
683.2224011299
 30
0.0
 10
342.9402767464
 20
682.1777913567
 30
0.0
 10
343.9877411673
 20
680.6516942636
 30
0.0
 10
344.3863253126
 20
678.740379636
 30
0.0
 10
343.9877511205
 20
676.8289029675
 30
0.0
 10
342.9402718851
 20
675.3038043254
 30
0.0
 10
341.4147084964
 20
674.2564275614
 30
0.0
 10
340.1399653665
 20
673.9907813934
 30
0.0
 10
339.5025205423
 20
673.9908462436
 30
0.0
  0
SPLINE
  5
691
100
AcDbEntity
  8
0
100
AcDbSpline
 62
2
  6
CONTINUOUS
 70
0
 71
3
 72
15
 73
11
 74
0
 42
0.0000001
 43
0.0000001
 44
0.0000000001
 40
0.0
 40
0.0
 40
0.0
 40
0.0
 40
0.1249630119
 40
0.2499589002
 40
0.3749547885
 40
0.4999506768
 40
0.6249630076
 40
0.7499753384
 40
0.8749876692
 40
1.0
 40
1.0
 40
1.0
 40
1.0
 10
339.5025205423
 20
673.9908462436
 30
0.0
 10
338.8653690687
 20
673.990911064
 30
0.0
 10
337.590919588
 20
674.2566158852
 30
0.0
 10
336.065446748
 20
675.3038030773
 30
0.0
 10
335.0178219853
 20
676.8289032793
 30
0.0
 10
334.6191832606
 20
678.7403796368
 30
0.0
 10
335.0178319401
 20
680.6516939483
 30
0.0
 10
336.0654418862
 20
682.1777926168
 30
0.0
 10
337.5910628353
 20
683.2223964049
 30
0.0
 10
338.8657074865
 20
683.4903575966
 30
0.0
 10
339.5030234243
 20
683.4903525111
 30
0.0
  0
SPLINE
  5
692
100
AcDbEntity
  8
0
100
AcDbSpline
 62
2
  6
CONTINUOUS
 70
0
 71
3
 72
15
 73
11
 74
0
 42
0.0000001
 43
0.0000001
 44
0.0000000001
 40
0.0
 40
0.0
 40
0.0
 40
0.0
 40
0.1249925617
 40
0.2499851235
 40
0.3749776852
 40
0.499970247
 40
0.6249776852
 40
0.7499851235
 40
0.8749925617
 40
1.0
 40
1.0
 40
1.0
 40
1.0
 10
339.5030234243
 20
673.4893525111
 30
0.0
 10
340.207364375
 20
673.4893525111
 30
0.0
 10
341.6160139787
 20
673.7855079941
 30
0.0
 10
343.3021253926
 20
674.9400240867
 30
0.0
 10
344.4599661369
 20
676.6266394665
 30
0.0
 10
344.9005592516
 20
678.7390233433
 30
0.0
 10
344.4599575814
 20
680.8517878808
 30
0.0
 10
343.3021246573
 20
682.5377735851
 30
0.0
 10
341.6160254756
 20
683.6955843128
 30
0.0
 10
340.2073682073
 20
683.989314531
 30
0.0
 10
339.5030234243
 20
683.989314531
 30
0.0
  0
SPLINE
  5
693
100
AcDbEntity
  8
0
100
AcDbSpline
 62
2
  6
CONTINUOUS
 70
0
 71
3
 72
15
 73
11
 74
0
 42
0.0000001
 43
0.0000001
 44
0.0000000001
 40
0.0
 40
0.0
 40
0.0
 40
0.0
 40
0.1250074383
 40
0.2500148765
 40
0.3750223148
 40
0.500029753
 40
0.6250223148
 40
0.7500148765
 40
0.8750074383
 40
1.0
 40
1.0
 40
1.0
 40
1.0
 10
339.5030234243
 20
683.989314531
 30
0.0
 10
338.7986786413
 20
683.989314531
 30
0.0
 10
337.3899567776
 20
683.6955843128
 30
0.0
 10
335.7036638089
 20
682.5377735851
 30
0.0
 10
334.5456370995
 20
680.8517878808
 30
0.0
 10
334.1049385349
 20
678.7390233433
 30
0.0
 10
334.5456285419
 20
676.6266394665
 30
0.0
 10
335.703663074
 20
674.9400240867
 30
0.0
 10
337.3899682746
 20
673.7855079941
 30
0.0
 10
338.7986824736
 20
673.4893525111
 30
0.0
 10
339.5030234243
 20
673.4893525111
 30
0.0
  0
SPLINE
  5
694
100
AcDbEntity
  8
0
100
AcDbSpline
 62
2
  6
CONTINUOUS
 70
0
 71
3
 72
8
 73
4
 74
0
 42
0.0000001
 43
0.0000001
 44
0.0000000001
 40
0.0
 40
0.0
 40
0.0
 40
0.0
 40
1.0
 40
1.0
 40
1.0
 40
1.0
 10
379.6710234243
 20
705.7873525111
 30
0.0
 10
379.1996189665
 20
705.7875961309
 30
0.0
 10
378.6712670442
 20
705.2587569689
 30
0.0
 10
378.6710234243
 20
704.7873525111
 30
0.0
  0
SPLINE
  5
695
100
AcDbEntity
  8
0
100
AcDbSpline
 62
2
  6
CONTINUOUS
 70
0
 71
3
 72
8
 73
4
 74
0
 42
0.0000001
 43
0.0000001
 44
0.0000000001
 40
0.0
 40
0.0
 40
0.0
 40
0.0
 40
1.0
 40
1.0
 40
1.0
 40
1.0
 10
378.6710234243
 20
670.6513525111
 30
0.0
 10
378.6712591266
 20
670.1801836925
 30
0.0
 10
379.1998546058
 20
669.6521168088
 30
0.0
 10
379.6710234243
 20
669.6523525111
 30
0.0
  0
SPLINE
  5
696
100
AcDbEntity
  8
0
100
AcDbSpline
 62
2
  6
CONTINUOUS
 70
0
 71
3
 72
8
 73
4
 74
0
 42
0.0000001
 43
0.0000001
 44
0.0000000001
 40
0.0
 40
0.0
 40
0.0
 40
0.0
 40
1.0
 40
1.0
 40
1.0
 40
1.0
 10
499.2590234243
 20
669.6523525111
 30
0.0
 10
499.7299565406
 20
669.6523525111
 30
0.0
 10
500.2580234243
 20
670.1804193948
 30
0.0
 10
500.2580234243
 20
670.6513525111
 30
0.0
  0
SPLINE
  5
697
100
AcDbEntity
  8
0
100
AcDbSpline
 62
2
  6
CONTINUOUS
 70
0
 71
3
 72
8
 73
4
 74
0
 42
0.0000001
 43
0.0000001
 44
0.0000000001
 40
0.0
 40
0.0
 40
0.0
 40
0.0
 40
1.0
 40
1.0
 40
1.0
 40
1.0
 10
500.2580234243
 20
704.7863525111
 30
0.0
 10
500.2582512089
 20
705.2577572125
 30
0.0
 10
499.7304281258
 20
705.7871247265
 30
0.0
 10
499.2590234243
 20
705.7873525111
 30
0.0
  0
SPLINE
  5
698
100
AcDbEntity
  8
0
100
AcDbSpline
 62
2
  6
CONTINUOUS
 70
0
 71
3
 72
8
 73
4
 74
0
 42
0.0000001
 43
0.0000001
 44
0.0000000001
 40
0.0
 40
0.0
 40
0.0
 40
0.0
 40
1.0
 40
1.0
 40
1.0
 40
1.0
 10
543.0592586055
 20
679.2100453219
 30
0.0
 10
543.2058487877
 20
679.2707935764
 30
0.0
 10
543.3645376507
 20
679.3033602856
 30
0.0
 10
543.5170234243
 20
679.3033525111
 30
0.0
  0
SPLINE
  5
699
100
AcDbEntity
  8
0
100
AcDbSpline
 62
2
  6
CONTINUOUS
 70
0
 71
3
 72
8
 73
4
 74
0
 42
0.0000001
 43
0.0000001
 44
0.0000000001
 40
0.0
 40
0.0
 40
0.0
 40
0.0
 40
1.0
 40
1.0
 40
1.0
 40
1.0
 10
542.646139012
 20
676.5899744306
 30
0.0
 10
542.8796968287
 20
676.4815678033
 30
0.0
 10
543.1418149513
 20
676.4263774731
 30
0.0
 10
543.3910234243
 20
676.4263525111
 30
0.0
  0
SPLINE
  5
69A
100
AcDbEntity
  8
0
100
AcDbSpline
 62
2
  6
CONTINUOUS
 70
0
 71
3
 72
8
 73
4
 74
0
 42
0.0000001
 43
0.0000001
 44
0.0000000001
 40
0.0
 40
0.0
 40
0.0
 40
0.0
 40
1.0
 40
1.0
 40
1.0
 40
1.0
 10
541.6578588709
 20
679.3292643848
 30
0.0
 10
541.6807531185
 20
679.4070016727
 30
0.0
 10
541.6931214786
 20
679.490082295
 30
0.0
 10
541.6970234243
 20
679.5573525111
 30
0.0
  0
SPLINE
  5
69B
100
AcDbEntity
  8
0
100
AcDbSpline
 62
2
  6
CONTINUOUS
 70
0
 71
3
 72
8
 73
4
 74
0
 42
0.0000001
 43
0.0000001
 44
0.0000000001
 40
0.0
 40
0.0
 40
0.0
 40
0.0
 40
1.0
 40
1.0
 40
1.0
 40
1.0
 10
541.398153958
 20
679.5525733769
 30
0.0
 10
541.3961551326
 20
679.4784847069
 30
0.0
 10
541.3794313453
 20
679.4094491548
 30
0.0
 10
541.3518342544
 20
679.3482138819
 30
0.0
  0
SPLINE
  5
69C
100
AcDbEntity
  8
0
100
AcDbSpline
 62
2
  6
CONTINUOUS
 70
0
 71
3
 72
16
 73
12
 74
0
 42
0.0000001
 43
0.0000001
 44
0.0000000001
 40
0.0
 40
0.0
 40
0.0
 40
0.0
 40
0.1246039482
 40
0.2482153856
 40
0.371460304
 40
0.4947052224
 40
0.6183166536
 40
0.7431262291
 40
0.8681956041
 40
0.9938293063
 40
1.0
 40
1.0
 40
1.0
 40
1.0
 10
440.6460234243
 20
193.2103525111
 30
0.0
 10
440.5304634267
 20
192.9292587021
 30
0.0
 10
440.1885868324
 20
192.4100134085
 30
0.0
 10
439.417637203
 20
191.8879658915
 30
0.0
 10
438.5066338043
 20
191.7039738608
 30
0.0
 10
437.5957698193
 20
191.8877997317
 30
0.0
 10
436.8240948356
 20
192.4115787741
 30
0.0
 10
436.3113025616
 20
193.1879549805
 30
0.0
 10
436.1318232092
 20
194.1081629272
 30
0.0
 10
436.2546895337
 20
194.7339321662
 30
0.0
 10
436.3790675023
 20
195.0295697767
 30
0.0
 10
436.3850234243
 20
195.0433525111
 30
0.0
  0
SPLINE
  5
69D
100
AcDbEntity
  8
0
100
AcDbSpline
 62
2
  6
CONTINUOUS
 70
0
 71
3
 72
15
 73
11
 74
0
 42
0.0000001
 43
0.0000001
 44
0.0000000001
 40
0.0
 40
0.0
 40
0.0
 40
0.0
 40
0.1201751378
 40
0.2438086783
 40
0.3679087606
 40
0.4936687451
 40
0.6197548182
 40
0.7466254017
 40
0.8739615606
 40
1.0
 40
1.0
 40
1.0
 40
1.0
 10
437.5250234243
 20
193.0783525111
 30
0.0
 10
437.6517471396
 20
192.9513830913
 30
0.0
 10
437.9573696064
 20
192.7434747211
 30
0.0
 10
438.502202167
 20
192.6329539757
 30
0.0
 10
439.0538863978
 20
192.7463365229
 30
0.0
 10
439.5151270611
 20
193.0648216493
 30
0.0
 10
439.8269943906
 20
193.544600482
 30
0.0
 10
439.9354681262
 20
194.1062134392
 30
0.0
 10
439.8271306177
 20
194.6667452518
 30
0.0
 10
439.6185776699
 20
194.9871798128
 30
0.0
 10
439.4890234243
 20
195.1203525111
 30
0.0
  0
SPLINE
  5
69E
100
AcDbEntity
  8
0
100
AcDbSpline
 62
2
  6
CONTINUOUS
 70
0
 71
3
 72
16
 73
12
 74
0
 42
0.0000001
 43
0.0000001
 44
0.0000000001
 40
0.0
 40
0.0
 40
0.0
 40
0.0
 40
0.125437477
 40
0.2494018158
 40
0.3729001233
 40
0.4965804733
 40
0.6209116106
 40
0.7464491072
 40
0.8715267594
 40
0.9961780609
 40
1.0
 40
1.0
 40
1.0
 40
1.0
 10
439.4890234243
 20
195.1203525111
 30
0.0
 10
439.3600869049
 20
195.2528902301
 30
0.0
 10
439.0528957687
 20
195.4647651695
 30
0.0
 10
438.5016554372
 20
195.5790207643
 30
0.0
 10
437.9517313522
 20
195.4659784552
 30
0.0
 10
437.4856523609
 20
195.1452327014
 30
0.0
 10
437.175488022
 20
194.66645015
 30
0.0
 10
437.0684543061
 20
194.105787261
 30
0.0
 10
437.1752719558
 20
193.5431360939
 30
0.0
 10
437.3863324774
 20
193.2189598286
 30
0.0
 10
437.5209932204
 20
193.0823905293
 30
0.0
 10
437.5250234243
 20
193.0783525111
 30
0.0
  0
SPLINE
  5
69F
100
AcDbEntity
  8
0
100
AcDbSpline
 62
2
  6
CONTINUOUS
 70
0
 71
3
 72
8
 73
4
 74
0
 42
0.0000001
 43
0.0000001
 44
0.0000000001
 40
0.0
 40
0.0
 40
0.0
 40
0.0
 40
1.0
 40
1.0
 40
1.0
 40
1.0
 10
463.3200234243
 20
198.7703525111
 30
0.0
 10
462.9595597578
 20
199.1309936848
 30
0.0
 10
462.4169215623
 20
199.3563525111
 30
0.0
 10
461.9070234243
 20
199.3563525111
 30
0.0
  0
SPLINE
  5
6A0
100
AcDbEntity
  8
0
100
AcDbSpline
 62
2
  6
CONTINUOUS
 70
0
 71
3
 72
8
 73
4
 74
0
 42
0.0000001
 43
0.0000001
 44
0.0000000001
 40
0.0
 40
0.0
 40
0.0
 40
0.0
 40
1.0
 40
1.0
 40
1.0
 40
1.0
 10
463.9060234243
 20
197.3563525111
 30
0.0
 10
463.9060234243
 20
197.8665585696
 30
0.0
 10
463.6805826256
 20
198.409371508
 30
0.0
 10
463.3200234243
 20
198.7703525111
 30
0.0
  0
SPLINE
  5
6A1
100
AcDbEntity
  8
0
100
AcDbSpline
 62
2
  6
CONTINUOUS
 70
0
 71
3
 72
9
 73
5
 74
0
 42
0.0000001
 43
0.0000001
 44
0.0000000001
 40
0.0
 40
0.0
 40
0.0
 40
0.0
 40
0.7152050076
 40
1.0
 40
1.0
 40
1.0
 40
1.0
 10
424.2030234243
 20
195.1423525111
 30
0.0
 10
424.1601089798
 20
195.329840711
 30
0.0
 10
423.8881842728
 20
195.5494663091
 30
0.0
 10
423.6206120656
 20
195.5413525111
 30
0.0
 10
423.5440234243
 20
195.5413525111
 30
0.0
  0
SPLINE
  5
6A2
100
AcDbEntity
  8
0
100
AcDbSpline
 62
2
  6
CONTINUOUS
 70
0
 71
3
 72
10
 73
6
 74
0
 42
0.0000001
 43
0.0000001
 44
0.0000000001
 40
0.0
 40
0.0
 40
0.0
 40
0.0
 40
0.3903136959
 40
0.8323849806
 40
1.0
 40
1.0
 40
1.0
 40
1.0
 10
423.5440234243
 20
194.3523525111
 30
0.0
 10
423.6968811447
 20
194.3523525111
 30
0.0
 10
424.0394926163
 20
194.4385281672
 30
0.0
 10
424.2543834959
 20
194.8396661536
 30
0.0
 10
424.2176653562
 20
195.0783636093
 30
0.0
 10
424.2030234243
 20
195.1423525111
 30
0.0
  0
SPLINE
  5
6A3
100
AcDbEntity
  8
0
100
AcDbSpline
 62
2
  6
CONTINUOUS
 70
0
 71
3
 72
10
 73
6
 74
0
 42
0.0000001
 43
0.0000001
 44
0.0000000001
 40
0.0
 40
0.0
 40
0.0
 40
0.0
 40
0.4526728609
 40
0.7263732343
 40
1.0
 40
1.0
 40
1.0
 40
1.0
 10
423.8640234243
 20
196.3563525111
 30
0.0
 10
424.417987953
 20
196.3563525111
 30
0.0
 10
425.3698460835
 20
195.5655390146
 30
0.0
 10
425.0714686903
 20
194.2415134473
 30
0.0
 10
424.4521700059
 20
193.8239059495
 30
0.0
 10
424.1239960532
 20
193.7573525111
 30
0.0
  0
SPLINE
  5
6A4
100
AcDbEntity
  8
0
100
AcDbSpline
 62
2
  6
CONTINUOUS
 70
0
 71
3
 72
15
 73
11
 74
0
 42
0.0000001
 43
0.0000001
 44
0.0000000001
 40
0.0
 40
0.0
 40
0.0
 40
0.0
 40
0.1194630086
 40
0.2448949024
 40
0.3700644384
 40
0.4952339743
 40
0.6207757467
 40
0.7471261176
 40
0.8738476656
 40
1.0
 40
1.0
 40
1.0
 40
1.0
 10
436.3850234243
 20
195.0433525111
 30
0.0
 10
436.5003285125
 20
195.3101826274
 30
0.0
 10
436.8388194395
 20
195.8124982695
 30
0.0
 10
437.5965110696
 20
196.3242115213
 30
0.0
 10
438.5068394675
 20
196.5082823899
 30
0.0
 10
439.417931697
 20
196.324159692
 30
0.0
 10
440.1882652114
 20
195.8020071202
 30
0.0
 10
440.7023352208
 20
195.0235137658
 30
0.0
 10
440.8823525025
 20
194.107379561
 30
0.0
 10
440.7630194237
 20
193.4949393215
 30
0.0
 10
440.6460234243
 20
193.2103525111
 30
0.0
  0
SPLINE
  5
6A5
100
AcDbEntity
  8
0
100
AcDbSpline
 62
7
  6
CONTINUOUS
 70
0
 71
3
 72
11
 73
7
 74
0
 42
0.0000001
 43
0.0000001
 44
0.0000000001
 40
0.0
 40
0.0
 40
0.0
 40
0.0
 40
0.2418942071
 40
0.3683575227
 40
0.4948568202
 40
1.0
 40
1.0
 40
1.0
 40
1.0
 10
676.5480911278
 20
622.0557535506
 30
0.0
 10
676.5480911278
 20
622.6598455115
 30
0.0
 10
675.5526862001
 20
623.3309879167
 30
0.0
 10
674.4453202637
 20
623.7407875449
 30
0.0
 10
672.5942504467
 20
624.2322979327
 30
0.0
 10
671.0133792559
 20
624.3557414514
 30
0.0
 10
669.7518652345
 20
624.3557535507
 30
0.0
  0
SPLINE
  5
6A6
100
AcDbEntity
  8
0
100
AcDbSpline
 62
7
  6
CONTINUOUS
 70
0
 71
3
 72
11
 73
7
 74
0
 42
0.0000001
 43
0.0000001
 44
0.0000000001
 40
0.0
 40
0.0
 40
0.0
 40
0.0
 40
0.5051377505
 40
0.6316359769
 40
0.7580968846
 40
1.0
 40
1.0
 40
1.0
 40
1.0
 10
669.7518652343
 20
594.3557535507
 30
0.0
 10
671.0133646693
 20
594.3557535507
 30
0.0
 10
672.5942077236
 20
594.4792457208
 30
0.0
 10
674.4452732004
 20
594.9706838493
 30
0.0
 10
675.5526387591
 20
595.3805161737
 30
0.0
 10
676.5480911278
 20
596.0516398351
 30
0.0
 10
676.5480911278
 20
596.6557535507
 30
0.0
  0
SPLINE
  5
6A7
100
AcDbEntity
  8
0
100
AcDbSpline
 62
7
  6
CONTINUOUS
 70
0
 71
3
 72
11
 73
7
 74
0
 42
0.0000001
 43
0.0000001
 44
0.0000000001
 40
0.0
 40
0.0
 40
0.0
 40
0.0
 40
0.2419015501
 40
0.3683641609
 40
0.4948630404
 40
1.0
 40
1.0
 40
1.0
 40
1.0
 10
201.2592249204
 20
622.0557535506
 30
0.0
 10
201.2592249204
 20
622.6598650524
 30
0.0
 10
202.2546574208
 20
623.331002256
 30
0.0
 10
203.3620199358
 20
623.74086638
 30
0.0
 10
205.2131072586
 20
624.23226038
 30
0.0
 10
206.7939498138
 20
624.3557535507
 30
0.0
 10
208.0554508137
 20
624.3557535507
 30
0.0
  0
SPLINE
  5
6A8
100
AcDbEntity
  8
0
100
AcDbSpline
 62
7
  6
CONTINUOUS
 70
0
 71
3
 72
11
 73
7
 74
0
 42
0.0000001
 43
0.0000001
 44
0.0000000001
 40
0.0
 40
0.0
 40
0.0
 40
0.0
 40
0.5051311002
 40
0.6316295897
 40
0.7580894414
 40
1.0
 40
1.0
 40
1.0
 40
1.0
 10
208.0554508139
 20
594.3557535507
 30
0.0
 10
206.7939656417
 20
594.3557645828
 30
0.0
 10
205.2131585028
 20
594.4793111583
 30
0.0
 10
203.3620631984
 20
594.9705911602
 30
0.0
 10
202.254709295
 20
595.380512585
 30
0.0
 10
201.2592249204
 20
596.0516201235
 30
0.0
 10
201.2592249204
 20
596.6557535507
 30
0.0
  0
SPLINE
  5
6A9
100
AcDbEntity
  8
0
100
AcDbSpline
 62
7
  6
CONTINUOUS
 70
0
 71
3
 72
9
 73
5
 74
0
 42
0.0000001
 43
0.0000001
 44
0.0000000001
 40
0.0
 40
0.0
 40
0.0
 40
0.0
 40
0.1888327103
 40
1.0
 40
1.0
 40
1.0
 40
1.0
 10
1450.3704112809
 20
649.4515465888
 30
0.0
 10
1450.3704112809
 20
649.3954646322
 30
0.0
 10
1450.4538018879
 20
649.0975213617
 30
0.0
 10
1450.7632708916
 20
648.9418985866
 30
0.0
 10
1450.9872488348
 20
648.8531747536
 30
0.0
  0
SPLINE
  5
6AA
100
AcDbEntity
  8
0
100
AcDbSpline
 62
7
  6
CONTINUOUS
 70
0
 71
3
 72
9
 73
5
 74
0
 42
0.0000001
 43
0.0000001
 44
0.0000000001
 40
0.0
 40
0.0
 40
0.0
 40
0.0
 40
0.2289378585
 40
1.0
 40
1.0
 40
1.0
 40
1.0
 10
1450.9872488348
 20
648.8531747536
 30
0.0
 10
1451.0347353195
 20
648.8343640489
 30
0.0
 10
1451.2449485359
 20
648.7592868529
 30
0.0
 10
1451.4636359934
 20
648.7092796531
 30
0.0
 10
1451.6333907673
 20
648.6814211146
 30
0.0
  0
SPLINE
  5
6AB
100
AcDbEntity
  8
0
100
AcDbSpline
 62
7
  6
CONTINUOUS
 70
0
 71
3
 72
9
 73
5
 74
0
 42
0.0000001
 43
0.0000001
 44
0.0000000001
 40
0.0
 40
0.0
 40
0.0
 40
0.0
 40
0.6341375654
 40
1.0
 40
1.0
 40
1.0
 40
1.0
 10
1453.1074317944
 20
648.6814211146
 30
0.0
 10
1453.4301398837
 20
648.7343808961
 30
0.0
 10
1453.9240654586
 20
648.8354874587
 30
0.0
 10
1454.3704112809
 20
649.262871272
 30
0.0
 10
1454.3704112809
 20
649.4515465888
 30
0.0
  0
SPLINE
  5
6AC
100
AcDbEntity
  8
0
100
AcDbSpline
 62
7
  6
CONTINUOUS
 70
0
 71
3
 72
9
 73
5
 74
0
 42
0.0000001
 43
0.0000001
 44
0.0000000001
 40
0.0
 40
0.0
 40
0.0
 40
0.0
 40
0.1888327103
 40
1.0
 40
1.0
 40
1.0
 40
1.0
 10
1450.3704112809
 20
719.2591584334
 30
0.0
 10
1450.3704112809
 20
719.3152403899
 30
0.0
 10
1450.4538018879
 20
719.6131836604
 30
0.0
 10
1450.7632708916
 20
719.7688064356
 30
0.0
 10
1450.9872488348
 20
719.8575302685
 30
0.0
  0
SPLINE
  5
6AD
100
AcDbEntity
  8
0
100
AcDbSpline
 62
7
  6
CONTINUOUS
 70
0
 71
3
 72
9
 73
5
 74
0
 42
0.0000001
 43
0.0000001
 44
0.0000000001
 40
0.0
 40
0.0
 40
0.0
 40
0.0
 40
0.2289378585
 40
1.0
 40
1.0
 40
1.0
 40
1.0
 10
1450.9872488348
 20
719.8575302685
 30
0.0
 10
1451.0347353195
 20
719.8763409732
 30
0.0
 10
1451.2449485359
 20
719.9514181692
 30
0.0
 10
1451.4636359934
 20
720.001425369
 30
0.0
 10
1451.6333907673
 20
720.0292839076
 30
0.0
  0
SPLINE
  5
6AE
100
AcDbEntity
  8
0
100
AcDbSpline
 62
7
  6
CONTINUOUS
 70
0
 71
3
 72
9
 73
5
 74
0
 42
0.0000001
 43
0.0000001
 44
0.0000000001
 40
0.0
 40
0.0
 40
0.0
 40
0.0
 40
0.6341375654
 40
1.0
 40
1.0
 40
1.0
 40
1.0
 10
1453.1074317944
 20
720.0292839076
 30
0.0
 10
1453.4301398837
 20
719.976324126
 30
0.0
 10
1453.9240654586
 20
719.8752175634
 30
0.0
 10
1454.3704112809
 20
719.4478337501
 30
0.0
 10
1454.3704112809
 20
719.2591584334
 30
0.0
  0
SPLINE
  5
6AF
100
AcDbEntity
  8
0
100
AcDbSpline
 62
7
  6
CONTINUOUS
 70
0
 71
3
 72
12
 73
8
 74
0
 42
0.0000001
 43
0.0000001
 44
0.0000000001
 40
0.0
 40
0.0
 40
0.0
 40
0.0
 40
0.1252578967
 40
0.2505395404
 40
0.4998797583
 40
0.749815319
 40
1.0
 40
1.0
 40
1.0
 40
1.0
 10
1172.9580552097
 20
598.1927174223
 30
0.0
 10
1172.5595351247
 20
598.1926852257
 30
0.0
 10
1171.7584932008
 20
598.0853803428
 30
0.0
 10
1170.2741922761
 20
597.4750284019
 30
0.0
 10
1168.7607316883
 20
596.0873534454
 30
0.0
 10
1167.6936955709
 20
593.9095230174
 30
0.0
 10
1167.4580868946
 20
592.3077104068
 30
0.0
 10
1167.4580552335
 20
591.5117237005
 30
0.0
  0
SPLINE
  5
6B0
100
AcDbEntity
  8
0
100
AcDbSpline
 62
7
  6
CONTINUOUS
 70
0
 71
3
 72
12
 73
8
 74
0
 42
0.0000001
 43
0.0000001
 44
0.0000000001
 40
0.0
 40
0.0
 40
0.0
 40
0.0
 40
0.2501829217
 40
0.5001175068
 40
0.7494584139
 40
0.8747396142
 40
1.0
 40
1.0
 40
1.0
 40
1.0
 10
1167.4580552335
 20
580.5791885221
 30
0.0
 10
1167.4580847323
 20
579.7832073299
 30
0.0
 10
1167.6937015634
 20
578.181405867
 30
0.0
 10
1168.7607038733
 20
576.0035696096
 30
0.0
 10
1170.2741727817
 20
574.6158904855
 30
0.0
 10
1171.7584795205
 20
574.0055568454
 30
0.0
 10
1172.559527185
 20
573.8981976586
 30
0.0
 10
1172.9580552325
 20
573.8981947986
 30
0.0
  0
SPLINE
  5
6B1
100
AcDbEntity
  8
0
100
AcDbSpline
 62
7
  6
CONTINUOUS
 70
0
 71
3
 72
12
 73
8
 74
0
 42
0.0000001
 43
0.0000001
 44
0.0000000001
 40
0.0
 40
0.0
 40
0.0
 40
0.0
 40
0.1252564676
 40
0.2505371111
 40
0.499878341
 40
0.749814899
 40
1.0
 40
1.0
 40
1.0
 40
1.0
 10
1237.9580552439
 20
573.8981947986
 30
0.0
 10
1238.3565707017
 20
573.8982088964
 30
0.0
 10
1239.1576040819
 20
574.0055416681
 30
0.0
 10
1240.6419030239
 20
574.6158706569
 30
0.0
 10
1242.1553719071
 20
576.0035492736
 30
0.0
 10
1243.2224138956
 20
578.1813833286
 30
0.0
 10
1243.4580235723
 20
579.7832006408
 30
0.0
 10
1243.4580552335
 20
580.5791885204
 30
0.0
  0
SPLINE
  5
6B2
100
AcDbEntity
  8
0
100
AcDbSpline
 62
7
  6
CONTINUOUS
 70
0
 71
3
 72
12
 73
8
 74
0
 42
0.0000001
 43
0.0000001
 44
0.0000000001
 40
0.0
 40
0.0
 40
0.0
 40
0.0
 40
0.2501830512
 40
0.5001179473
 40
0.7494580549
 40
0.8747392256
 40
1.0
 40
1.0
 40
1.0
 40
1.0
 10
1243.4580552335
 20
591.5117236989
 30
0.0
 10
1243.4580257346
 20
592.3077050268
 30
0.0
 10
1243.2224123943
 20
593.9095095685
 30
0.0
 10
1242.1553872949
 20
596.0873328797
 30
0.0
 10
1240.6419355219
 20
597.4750153013
 30
0.0
 10
1239.1576350264
 20
598.0853720989
 30
0.0
 10
1238.3565843825
 20
598.1927066865
 30
0.0
 10
1237.9580552373
 20
598.1927174223
 30
0.0
  0
SPLINE
  5
6B3
100
AcDbEntity
  8
0
100
AcDbSpline
 62
7
  6
CONTINUOUS
 70
0
 71
3
 72
13
 73
9
 74
0
 42
0.0000001
 43
0.0000001
 44
0.0000000001
 40
0.0
 40
0.0
 40
0.0
 40
0.0
 40
0.1282971682
 40
0.2554569903
 40
0.3813077185
 40
0.5061521318
 40
0.7535183171
 40
1.0
 40
1.0
 40
1.0
 40
1.0
 10
1237.9580552335
 20
575.9562718712
 30
0.0
 10
1238.2162528871
 20
575.956291132
 30
0.0
 10
1238.7348470768
 20
576.06373609
 30
0.0
 10
1239.3946169805
 20
576.4773648698
 30
0.0
 10
1239.9177844922
 20
577.0379733096
 30
0.0
 10
1240.4487305477
 20
577.8935300922
 30
0.0
 10
1240.8552781576
 20
579.0866916424
 30
0.0
 10
1240.958042247
 20
580.0831448957
 30
0.0
 10
1240.9580552335
 20
580.5791885202
 30
0.0
  0
SPLINE
  5
6B4
100
AcDbEntity
  8
0
100
AcDbSpline
 62
7
  6
CONTINUOUS
 70
0
 71
3
 72
13
 73
9
 74
0
 42
0.0000001
 43
0.0000001
 44
0.0000000001
 40
0.0
 40
0.0
 40
0.0
 40
0.0
 40
0.246561494
 40
0.4939594453
 40
0.6188025629
 40
0.7446228342
 40
0.8717193321
 40
1.0
 40
1.0
 40
1.0
 40
1.0
 10
1169.9580552335
 20
580.5791885202
 30
0.0
 10
1169.9580674189
 20
580.0829815385
 30
0.0
 10
1170.0608385836
 20
579.0862880727
 30
0.0
 10
1170.4676270668
 20
577.8929514249
 30
0.0
 10
1170.9986969475
 20
577.0374694328
 30
0.0
 10
1171.5218023938
 20
576.4770546019
 30
0.0
 10
1172.1814537039
 20
576.0636680512
 30
0.0
 10
1172.6998893617
 20
575.9562773203
 30
0.0
 10
1172.9580552335
 20
575.9562718712
 30
0.0
  0
SPLINE
  5
6B5
100
AcDbEntity
  8
0
100
AcDbSpline
 62
7
  6
CONTINUOUS
 70
0
 71
3
 72
11
 73
7
 74
0
 42
0.0000001
 43
0.0000001
 44
0.0000000001
 40
0.0
 40
0.0
 40
0.0
 40
0.0
 40
0.2482521684
 40
0.497614838
 40
0.7483454918
 40
1.0
 40
1.0
 40
1.0
 40
1.0
 10
1431.5204394796
 20
668.8649908292
 30
0.0
 10
1431.7598791334
 20
668.8889373697
 30
0.0
 10
1432.2353717899
 20
669.028826703
 30
0.0
 10
1432.8213322172
 20
669.4832856738
 30
0.0
 10
1433.207470019
 20
670.1198651087
 30
0.0
 10
1433.29699966
 20
670.6114204476
 30
0.0
 10
1433.29699966
 20
670.8553525111
 30
0.0
  0
SPLINE
  5
6B6
100
AcDbEntity
  8
0
100
AcDbSpline
 62
7
  6
CONTINUOUS
 70
0
 71
3
 72
15
 73
11
 74
0
 42
0.0000001
 43
0.0000001
 44
0.0000000001
 40
0.0
 40
0.0
 40
0.0
 40
0.0
 40
0.1241553306
 40
0.2488811774
 40
0.3742372733
 40
0.5
 40
0.6257627267
 40
0.7511188226
 40
0.8758446694
 40
1.0
 40
1.0
 40
1.0
 40
1.0
 10
1431.7116370773
 20
653.8937819503
 30
0.0
 10
1431.9321247808
 20
653.9382968318
 30
0.0
 10
1432.3620135169
 20
654.106732659
 30
0.0
 10
1432.8811466267
 20
654.5627446339
 30
0.0
 10
1433.2190678203
 20
655.1693125919
 30
0.0
 10
1433.3360286764
 20
655.8553525111
 30
0.0
 10
1433.2190678203
 20
656.5413924303
 30
0.0
 10
1432.8811466267
 20
657.1479603883
 30
0.0
 10
1432.3620135169
 20
657.6039723632
 30
0.0
 10
1431.9321247808
 20
657.7724081903
 30
0.0
 10
1431.7116370773
 20
657.8169230719
 30
0.0
  0
SPLINE
  5
6B7
100
AcDbEntity
  8
0
100
AcDbSpline
 62
7
  6
CONTINUOUS
 70
0
 71
3
 72
15
 73
11
 74
0
 42
0.0000001
 43
0.0000001
 44
0.0000000001
 40
0.0
 40
0.0
 40
0.0
 40
0.0
 40
0.1241553306
 40
0.2488811774
 40
0.3742372733
 40
0.5
 40
0.6257627267
 40
0.7511188226
 40
0.8758446694
 40
1.0
 40
1.0
 40
1.0
 40
1.0
 10
1431.7116370773
 20
680.8937819503
 30
0.0
 10
1431.9321247808
 20
680.9382968318
 30
0.0
 10
1432.3620135169
 20
681.106732659
 30
0.0
 10
1432.8811466267
 20
681.5627446339
 30
0.0
 10
1433.2190678203
 20
682.1693125919
 30
0.0
 10
1433.3360286764
 20
682.8553525111
 30
0.0
 10
1433.2190678203
 20
683.5413924303
 30
0.0
 10
1432.8811466267
 20
684.1479603883
 30
0.0
 10
1432.3620135169
 20
684.6039723632
 30
0.0
 10
1431.9321247808
 20
684.7724081903
 30
0.0
 10
1431.7116370773
 20
684.8169230719
 30
0.0
  0
SPLINE
  5
6B8
100
AcDbEntity
  8
0
100
AcDbSpline
 62
7
  6
CONTINUOUS
 70
0
 71
3
 72
15
 73
11
 74
0
 42
0.0000001
 43
0.0000001
 44
0.0000000001
 40
0.0
 40
0.0
 40
0.0
 40
0.0
 40
0.1241553306
 40
0.2488811774
 40
0.3742372733
 40
0.5
 40
0.6257627267
 40
0.7511188226
 40
0.8758446694
 40
1.0
 40
1.0
 40
1.0
 40
1.0
 10
1431.7116370773
 20
695.8937819503
 30
0.0
 10
1431.9321247808
 20
695.9382968318
 30
0.0
 10
1432.3620135169
 20
696.106732659
 30
0.0
 10
1432.8811466267
 20
696.5627446339
 30
0.0
 10
1433.2190678203
 20
697.1693125919
 30
0.0
 10
1433.3360286764
 20
697.8553525111
 30
0.0
 10
1433.2190678203
 20
698.5413924303
 30
0.0
 10
1432.8811466267
 20
699.1479603883
 30
0.0
 10
1432.3620135169
 20
699.6039723632
 30
0.0
 10
1431.9321247808
 20
699.7724081903
 30
0.0
 10
1431.7116370773
 20
699.8169230719
 30
0.0
  0
SPLINE
  5
6B9
100
AcDbEntity
  8
0
100
AcDbSpline
 62
7
  6
CONTINUOUS
 70
0
 71
3
 72
11
 73
7
 74
0
 42
0.0000001
 43
0.0000001
 44
0.0000000001
 40
0.0
 40
0.0
 40
0.0
 40
0.0
 40
0.2516665
 40
0.5023984545
 40
0.7517518762
 40
1.0
 40
1.0
 40
1.0
 40
1.0
 10
1433.29699966
 20
672.8553525111
 30
0.0
 10
1433.29699966
 20
673.100932826
 30
0.0
 10
1433.2062322895
 20
673.5958627277
 30
0.0
 10
1432.8149844209
 20
674.2354466255
 30
0.0
 10
1432.2220474225
 20
674.6893688024
 30
0.0
 10
1431.7419525498
 20
674.825945166
 30
0.0
 10
1431.5006767676
 20
674.8475887942
 30
0.0
  0
SPLINE
  5
6BA
100
AcDbEntity
  8
0
100
AcDbSpline
 62
7
  6
CONTINUOUS
 70
0
 71
3
 72
11
 73
7
 74
0
 42
0.0000001
 43
0.0000001
 44
0.0000000001
 40
0.0
 40
0.0
 40
0.0
 40
0.0
 40
0.1739766978
 40
0.3592733264
 40
0.6245743992
 40
1.0
 40
1.0
 40
1.0
 40
1.0
 10
935.1074112809
 20
215.3106098192
 30
0.0
 10
935.1236054791
 20
215.3012608534
 30
0.0
 10
935.1648372786
 20
215.2900110281
 30
0.0
 10
935.2259431042
 20
215.3283183753
 30
0.0
 10
935.2748541631
 20
215.4030848234
 30
0.0
 10
935.3020148036
 20
215.4666977826
 30
0.0
 10
935.3159440647
 20
215.504568189
 30
0.0
  0
SPLINE
  5
6BB
100
AcDbEntity
  8
0
100
AcDbSpline
 62
7
  6
CONTINUOUS
 70
0
 71
3
 72
9
 73
5
 74
0
 42
0.0000001
 43
0.0000001
 44
0.0000000001
 40
0.0
 40
0.0
 40
0.0
 40
0.0
 40
0.2211289615
 40
1.0
 40
1.0
 40
1.0
 40
1.0
 10
935.3159440647
 20
215.504568189
 30
0.0
 10
935.3212019255
 20
215.5188630842
 30
0.0
 10
935.3437240731
 20
215.5839702345
 30
0.0
 10
935.3619548433
 20
215.6504947361
 30
0.0
 10
935.3748096107
 20
215.702579913
 30
0.0
  0
SPLINE
  5
6BC
100
AcDbEntity
  8
0
100
AcDbSpline
 62
7
  6
CONTINUOUS
 70
0
 71
3
 72
15
 73
11
 74
0
 42
0.0000001
 43
0.0000001
 44
0.0000000001
 40
0.0
 40
0.0
 40
0.0
 40
0.0
 40
0.1260709958
 40
0.2519456384
 40
0.3774706176
 40
0.5025636589
 40
0.6272334991
 40
0.751578633
 40
0.8757669414
 40
1.0
 40
1.0
 40
1.0
 40
1.0
 10
1418.0039388318
 20
655.8553525111
 30
0.0
 10
1418.0039388318
 20
654.8540573359
 30
0.0
 10
1418.2334972998
 20
652.8455314983
 30
0.0
 10
1419.2486503999
 20
649.9980091408
 30
0.0
 10
1420.8809043295
 20
647.4606628445
 30
0.0
 10
1423.0438748915
 20
645.3711458927
 30
0.0
 10
1425.6224063938
 20
643.8410498491
 30
0.0
 10
1428.4793517646
 20
642.9531920786
 30
0.0
 10
1431.459609703
 20
642.7549836484
 30
0.0
 10
1433.4256611462
 20
643.091055411
 30
0.0
 10
1434.3721795392
 20
643.3697582866
 30
0.0
  0
SPLINE
  5
6BD
100
AcDbEntity
  8
0
100
AcDbSpline
 62
7
  6
CONTINUOUS
 70
0
 71
3
 72
11
 73
7
 74
0
 42
0.0000001
 43
0.0000001
 44
0.0000000001
 40
0.0
 40
0.0
 40
0.0
 40
0.0
 40
0.251765435
 40
0.5025001377
 40
0.7517704429
 40
1.0
 40
1.0
 40
1.0
 40
1.0
 10
1420.3208506931
 20
655.8553525111
 30
0.0
 10
1420.3208506931
 20
654.4255108678
 30
0.0
 10
1420.8816253672
 20
651.5410947117
 30
0.0
 10
1423.2861037116
 20
647.8853168863
 30
0.0
 10
1426.8869865522
 20
645.4308846862
 30
0.0
 10
1429.743975507
 20
644.8553525111
 30
0.0
 10
1431.1537359763
 20
644.8553525111
 30
0.0
  0
SPLINE
  5
6BE
100
AcDbEntity
  8
0
100
AcDbSpline
 62
7
  6
CONTINUOUS
 70
0
 71
3
 72
15
 73
11
 74
0
 42
0.0000001
 43
0.0000001
 44
0.0000000001
 40
0.0
 40
0.0
 40
0.0
 40
0.0
 40
0.1260817612
 40
0.2519601332
 40
0.3774788087
 40
0.5025563744
 40
0.6272076789
 40
0.751541082
 40
0.8757352804
 40
1.0
 40
1.0
 40
1.0
 40
1.0
 10
1421.4793066238
 20
655.8553525111
 30
0.0
 10
1421.4793066238
 20
655.071889729
 30
0.0
 10
1421.6620578552
 20
653.5001597002
 30
0.0
 10
1422.4697371436
 20
651.2763534287
 30
0.0
 10
1423.7667561365
 20
649.303413983
 30
0.0
 10
1425.4821065893
 20
647.6921160541
 30
0.0
 10
1427.5212910851
 20
646.5315314159
 30
0.0
 10
1429.7720448735
 20
645.886722981
 30
0.0
 10
1432.107911968
 20
645.7932598628
 30
0.0
 10
1433.6381970345
 20
646.103066303
 30
0.0
 10
1434.371463685
 20
646.3450773323
 30
0.0
  0
SPLINE
  5
6BF
100
AcDbEntity
  8
0
100
AcDbSpline
 62
7
  6
CONTINUOUS
 70
0
 71
3
 72
8
 73
4
 74
0
 42
0.0000001
 43
0.0000001
 44
0.0000000001
 40
0.0
 40
0.0
 40
0.0
 40
0.0
 40
1.0
 40
1.0
 40
1.0
 40
1.0
 10
1431.3801400617
 20
712.2324894996
 30
0.0
 10
1431.508327957
 20
712.3174339497
 30
0.0
 10
1431.6680627336
 20
712.3655984871
 30
0.0
 10
1431.8218408015
 20
712.3656424991
 30
0.0
  0
SPLINE
  5
6C0
100
AcDbEntity
  8
0
100
AcDbSpline
 62
7
  6
CONTINUOUS
 70
0
 71
3
 72
10
 73
6
 74
0
 42
0.0000001
 43
0.0000001
 44
0.0000000001
 40
0.0
 40
0.0
 40
0.0
 40
0.0
 40
0.1883611066
 40
0.5417570076
 40
1.0
 40
1.0
 40
1.0
 40
1.0
 10
1432.2675763614
 20
709.7657699644
 30
0.0
 10
1432.2675827555
 20
709.7434291119
 30
0.0
 10
1432.2461574987
 20
709.6788740967
 30
0.0
 10
1432.1463744702
 20
709.6041423517
 30
0.0
 10
1432.0536288815
 20
709.5756553724
 30
0.0
 10
1432.000199043
 20
709.5656934315
 30
0.0
  0
SPLINE
  5
6C1
100
AcDbEntity
  8
0
100
AcDbSpline
 62
7
  6
CONTINUOUS
 70
0
 71
3
 72
9
 73
5
 74
0
 42
0.0000001
 43
0.0000001
 44
0.0000000001
 40
0.0
 40
0.0
 40
0.0
 40
0.0
 40
0.3734442381
 40
1.0
 40
1.0
 40
1.0
 40
1.0
 10
1431.8676908598
 20
709.3656554988
 30
0.0
 10
1431.8988356347
 20
709.3656644126
 30
0.0
 10
1431.968946916
 20
709.4358105993
 30
0.0
 10
1431.9889404091
 20
709.5146667803
 30
0.0
 10
1432.000199043
 20
709.5656934315
 30
0.0
  0
SPLINE
  5
6C2
100
AcDbEntity
  8
0
100
AcDbSpline
 62
7
  6
CONTINUOUS
 70
0
 71
3
 72
10
 73
6
 74
0
 42
0.0000001
 43
0.0000001
 44
0.0000000001
 40
0.0
 40
0.0
 40
0.0
 40
0.0
 40
0.1885511498
 40
0.5417895034
 40
1.0
 40
1.0
 40
1.0
 40
1.0
 10
1432.2668894697
 20
712.1657698661
 30
0.0
 10
1432.2668958629
 20
712.1434050119
 30
0.0
 10
1432.2455190782
 20
712.0788184229
 30
0.0
 10
1432.1456472831
 20
712.0041550532
 30
0.0
 10
1432.0529412728
 20
711.9756574672
 30
0.0
 10
1431.9995121512
 20
711.9656933332
 30
0.0
  0
SPLINE
  5
6C3
100
AcDbEntity
  8
0
100
AcDbSpline
 62
7
  6
CONTINUOUS
 70
0
 71
3
 72
9
 73
5
 74
0
 42
0.0000001
 43
0.0000001
 44
0.0000000001
 40
0.0
 40
0.0
 40
0.0
 40
0.0
 40
0.3438634724
 40
1.0
 40
1.0
 40
1.0
 40
1.0
 10
1431.8668322451
 20
712.3656553759
 30
0.0
 10
1431.8836810428
 20
712.3656591643
 30
0.0
 10
1431.9234590286
 20
712.3233216961
 30
0.0
 10
1431.9371962067
 20
712.2786671569
 30
0.0
 10
1431.9467928112
 20
712.2479831347
 30
0.0
  0
SPLINE
  5
6C4
100
AcDbEntity
  8
0
100
AcDbSpline
 62
7
  6
CONTINUOUS
 70
0
 71
3
 72
8
 73
4
 74
0
 42
0.0000001
 43
0.0000001
 44
0.0000000001
 40
0.0
 40
0.0
 40
0.0
 40
0.0
 40
1.0
 40
1.0
 40
1.0
 40
1.0
 10
1431.9467928112
 20
712.2479831347
 30
0.0
 10
1431.952810254
 20
712.2287430637
 30
0.0
 10
1431.9580062407
 20
712.2092399095
 30
0.0
 10
1431.9626866593
 20
712.1896316553
 30
0.0
  0
SPLINE
  5
6C5
100
AcDbEntity
  8
0
100
AcDbSpline
 62
7
  6
CONTINUOUS
 70
0
 71
3
 72
9
 73
5
 74
0
 42
0.0000001
 43
0.0000001
 44
0.0000000001
 40
0.0
 40
0.0
 40
0.0
 40
0.0
 40
0.2181763312
 40
1.0
 40
1.0
 40
1.0
 40
1.0
 10
1431.9626866593
 20
712.1896316553
 30
0.0
 10
1431.9661228931
 20
712.1752358181
 30
0.0
 10
1431.9805524233
 20
712.1089386382
 30
0.0
 10
1431.990529309
 20
712.0417326146
 30
0.0
 10
1431.9968244013
 20
711.9890715495
 30
0.0
  0
SPLINE
  5
6C6
100
AcDbEntity
  8
0
100
AcDbSpline
 62
7
  6
CONTINUOUS
 70
0
 71
3
 72
9
 73
5
 74
0
 42
0.0000001
 43
0.0000001
 44
0.0000000001
 40
0.0
 40
0.0
 40
0.0
 40
0.0
 40
0.626559609
 40
1.0
 40
1.0
 40
1.0
 40
1.0
 10
1427.9366579736
 20
709.564530426
 30
0.0
 10
1427.9253988778
 20
709.5135036951
 30
0.0
 10
1427.9054039898
 20
709.4346488237
 30
0.0
 10
1427.8352941589
 20
709.3645014069
 30
0.0
 10
1427.8041497904
 20
709.3644924933
 30
0.0
  0
SPLINE
  5
6C7
100
AcDbEntity
  8
0
100
AcDbSpline
 62
7
  6
CONTINUOUS
 70
0
 71
3
 72
10
 73
6
 74
0
 42
0.0000001
 43
0.0000001
 44
0.0000000001
 40
0.0
 40
0.0
 40
0.0
 40
0.0
 40
0.3442495577
 40
0.6274715568
 40
1.0
 40
1.0
 40
1.0
 40
1.0
 10
1431.5568244351
 20
711.9655666338
 30
0.0
 10
1431.5692263785
 20
712.02177502
 30
0.0
 10
1431.598981734
 20
712.1241002326
 30
0.0
 10
1431.6652188493
 20
712.2724225871
 30
0.0
 10
1431.7595521028
 20
712.3656246718
 30
0.0
 10
1431.8218408015
 20
712.3656424991
 30
0.0
  0
SPLINE
  5
6C8
100
AcDbEntity
  8
0
100
AcDbSpline
 62
7
  6
CONTINUOUS
 70
0
 71
3
 72
11
 73
7
 74
0
 42
0.0000001
 43
0.0000001
 44
0.0000000001
 40
0.0
 40
0.0
 40
0.0
 40
0.0
 40
0.1162358013
 40
0.3334878457
 40
0.6414725545
 40
1.0
 40
1.0
 40
1.0
 40
1.0
 10
948.1704112809
 20
636.5896670861
 30
0.0
 10
948.1704112809
 20
636.5725300542
 30
0.0
 10
948.2140473699
 20
636.5338464493
 30
0.0
 10
948.2985276552
 20
636.5018982733
 30
0.0
 10
948.4246552279
 20
636.4618877279
 30
0.0
 10
948.5192995695
 20
636.4374596428
 30
0.0
 10
948.5704112809
 20
636.4239816612
 30
0.0
  0
SPLINE
  5
6C9
100
AcDbEntity
  8
0
100
AcDbSpline
 62
7
  6
CONTINUOUS
 70
0
 71
3
 72
11
 73
7
 74
0
 42
0.0000001
 43
0.0000001
 44
0.0000000001
 40
0.0
 40
0.0
 40
0.0
 40
0.0
 40
0.1162358013
 40
0.3334878457
 40
0.6414725545
 40
1.0
 40
1.0
 40
1.0
 40
1.0
 10
1017.9360967058
 20
706.3553525111
 30
0.0
 10
1017.9532337378
 20
706.3553525111
 30
0.0
 10
1017.9919173426
 20
706.311716422
 30
0.0
 10
1018.0238655187
 20
706.2272361368
 30
0.0
 10
1018.0638760641
 20
706.101108564
 30
0.0
 10
1018.0883041491
 20
706.0064642225
 30
0.0
 10
1018.1017821308
 20
705.9553525111
 30
0.0
  0
SPLINE
  5
6CA
100
AcDbEntity
  8
0
100
AcDbSpline
 62
7
  6
CONTINUOUS
 70
0
 71
3
 72
11
 73
7
 74
0
 42
0.0000001
 43
0.0000001
 44
0.0000000001
 40
0.0
 40
0.0
 40
0.0
 40
0.0
 40
0.1162358013
 40
0.3334878457
 40
0.6414725545
 40
1.0
 40
1.0
 40
1.0
 40
1.0
 10
1017.9360967058
 20
706.3553525111
 30
0.0
 10
1017.9239789943
 20
706.3432347996
 30
0.0
 10
1017.9274809295
 20
706.2850259858
 30
0.0
 10
1017.9646267401
 20
706.2026986313
 30
0.0
 10
1018.0255206742
 20
706.0852212413
 30
0.0
 10
1018.0751710653
 20
706.001024321
 30
0.0
 10
1018.1017821308
 20
705.9553525111
 30
0.0
  0
SPLINE
  5
6CB
100
AcDbEntity
  8
0
100
AcDbSpline
 62
7
  6
CONTINUOUS
 70
0
 71
3
 72
11
 73
7
 74
0
 42
0.0000001
 43
0.0000001
 44
0.0000000001
 40
0.0
 40
0.0
 40
0.0
 40
0.0
 40
0.1162358013
 40
0.3334878457
 40
0.6414725545
 40
1.0
 40
1.0
 40
1.0
 40
1.0
 10
948.1704112809
 20
636.5896670861
 30
0.0
 10
948.1825289924
 20
636.6017847976
 30
0.0
 10
948.2407378062
 20
636.5982828624
 30
0.0
 10
948.3230651607
 20
636.5611370518
 30
0.0
 10
948.4405425506
 20
636.5002431178
 30
0.0
 10
948.5247394709
 20
636.4505927267
 30
0.0
 10
948.5704112809
 20
636.4239816612
 30
0.0
  0
SPLINE
  5
6CC
100
AcDbEntity
  8
0
100
AcDbSpline
 62
7
  6
CONTINUOUS
 70
0
 71
3
 72
9
 73
5
 74
0
 42
0.0000001
 43
0.0000001
 44
0.0000000001
 40
0.0
 40
0.0
 40
0.0
 40
0.0
 40
0.2352866872
 40
1.0
 40
1.0
 40
1.0
 40
1.0
 10
1318.6551987518
 20
670.620267215
 30
0.0
 10
1318.7434790662
 20
670.6292180593
 30
0.0
 10
1319.1196837526
 20
670.6560240797
 30
0.0
 10
1319.4987009395
 20
670.6493586604
 30
0.0
 10
1319.78562381
 20
670.620267215
 30
0.0
  0
SPLINE
  5
6CD
100
AcDbEntity
  8
0
100
AcDbSpline
 62
7
  6
CONTINUOUS
 70
0
 71
3
 72
15
 73
11
 74
0
 42
0.0000001
 43
0.0000001
 44
0.0000000001
 40
0.0
 40
0.0
 40
0.0
 40
0.0
 40
0.124159194
 40
0.2488756
 40
0.3742853696
 40
0.5001413707
 40
0.6259596337
 40
0.7512760536
 40
0.8758929229
 40
1.0
 40
1.0
 40
1.0
 40
1.0
 10
1431.3070550316
 20
699.8456119454
 30
0.0
 10
1431.0632955437
 20
699.8211108969
 30
0.0
 10
1430.5792695848
 20
699.6766382741
 30
0.0
 10
1429.9871806507
 20
699.2074471694
 30
0.0
 10
1429.6049104696
 20
698.5513928531
 30
0.0
 10
1429.4856593605
 20
697.7996930908
 30
0.0
 10
1429.6449835072
 20
697.0556235794
 30
0.0
 10
1430.0619302099
 20
696.4215347201
 30
0.0
 10
1430.6784653447
 20
695.9856967276
 30
0.0
 10
1431.1694649633
 20
695.8683161431
 30
0.0
 10
1431.4141023708
 20
695.8573092468
 30
0.0
  0
SPLINE
  5
6CE
100
AcDbEntity
  8
0
100
AcDbSpline
 62
7
  6
CONTINUOUS
 70
0
 71
3
 72
15
 73
11
 74
0
 42
0.0000001
 43
0.0000001
 44
0.0000000001
 40
0.0
 40
0.0
 40
0.0
 40
0.0
 40
0.124159194
 40
0.2488756
 40
0.3742853696
 40
0.5001413707
 40
0.6259596337
 40
0.7512760536
 40
0.8758929229
 40
1.0
 40
1.0
 40
1.0
 40
1.0
 10
1431.3070550316
 20
684.8456119454
 30
0.0
 10
1431.0632955437
 20
684.8211108969
 30
0.0
 10
1430.5792695848
 20
684.6766382741
 30
0.0
 10
1429.9871806507
 20
684.2074471694
 30
0.0
 10
1429.6049104696
 20
683.5513928531
 30
0.0
 10
1429.4856593605
 20
682.7996930908
 30
0.0
 10
1429.6449835072
 20
682.0556235794
 30
0.0
 10
1430.0619302099
 20
681.4215347201
 30
0.0
 10
1430.6784653447
 20
680.9856967276
 30
0.0
 10
1431.1694649633
 20
680.8683161431
 30
0.0
 10
1431.4141023708
 20
680.8573092468
 30
0.0
  0
SPLINE
  5
6CF
100
AcDbEntity
  8
0
100
AcDbSpline
 62
7
  6
CONTINUOUS
 70
0
 71
3
 72
15
 73
11
 74
0
 42
0.0000001
 43
0.0000001
 44
0.0000000001
 40
0.0
 40
0.0
 40
0.0
 40
0.0
 40
0.124159194
 40
0.2488756
 40
0.3742853696
 40
0.5001413707
 40
0.6259596337
 40
0.7512760536
 40
0.8758929229
 40
1.0
 40
1.0
 40
1.0
 40
1.0
 10
1431.3070550316
 20
657.8456119454
 30
0.0
 10
1431.0632955437
 20
657.8211108969
 30
0.0
 10
1430.5792695848
 20
657.6766382741
 30
0.0
 10
1429.9871806507
 20
657.2074471694
 30
0.0
 10
1429.6049104696
 20
656.5513928531
 30
0.0
 10
1429.4856593605
 20
655.7996930908
 30
0.0
 10
1429.6449835072
 20
655.0556235794
 30
0.0
 10
1430.0619302099
 20
654.4215347201
 30
0.0
 10
1430.6784653447
 20
653.9856967276
 30
0.0
 10
1431.1694649633
 20
653.8683161431
 30
0.0
 10
1431.4141023708
 20
653.8573092468
 30
0.0
  0
SPLINE
  5
6D0
100
AcDbEntity
  8
0
100
AcDbSpline
 62
7
  6
CONTINUOUS
 70
0
 71
3
 72
11
 73
7
 74
0
 42
0.0000001
 43
0.0000001
 44
0.0000000001
 40
0.0
 40
0.0
 40
0.0
 40
0.0
 40
0.2517215396
 40
0.5023617769
 40
0.7516643034
 40
1.0
 40
1.0
 40
1.0
 40
1.0
 10
1429.5410094102
 20
670.6583827986
 30
0.0
 10
1429.5639543726
 20
670.4230072784
 30
0.0
 10
1429.693804401
 20
669.9572270687
 30
0.0
 10
1430.116433601
 20
669.3734505745
 30
0.0
 10
1430.7135200943
 20
668.975066265
 30
0.0
 10
1431.1810280498
 20
668.867775322
 30
0.0
 10
1431.4141032553
 20
668.85730516
 30
0.0
  0
SPLINE
  5
6D1
100
AcDbEntity
  8
0
100
AcDbSpline
 62
7
  6
CONTINUOUS
 70
0
 71
3
 72
15
 73
11
 74
0
 42
0.0000001
 43
0.0000001
 44
0.0000000001
 40
0.0
 40
0.0
 40
0.0
 40
0.0
 40
0.1241147697
 40
0.2487499337
 40
0.3741173588
 40
0.5
 40
0.6258826412
 40
0.7512500663
 40
0.8758852303
 40
1.0
 40
1.0
 40
1.0
 40
1.0
 10
1431.5010323316
 20
653.8553525111
 30
0.0
 10
1431.7573524694
 20
653.8553525111
 30
0.0
 10
1432.276805185
 20
653.9600504181
 30
0.0
 10
1432.9315120509
 20
654.4060556146
 30
0.0
 10
1433.3686892261
 20
655.0716855845
 30
0.0
 10
1433.5217316821
 20
655.8553525111
 30
0.0
 10
1433.3686892261
 20
656.6390194376
 30
0.0
 10
1432.9315120509
 20
657.3046494076
 30
0.0
 10
1432.276805185
 20
657.7506546041
 30
0.0
 10
1431.7573524694
 20
657.8553525111
 30
0.0
 10
1431.5010323316
 20
657.8553525111
 30
0.0
  0
SPLINE
  5
6D2
100
AcDbEntity
  8
0
100
AcDbSpline
 62
7
  6
CONTINUOUS
 70
0
 71
3
 72
15
 73
11
 74
0
 42
0.0000001
 43
0.0000001
 44
0.0000000001
 40
0.0
 40
0.0
 40
0.0
 40
0.0
 40
0.1241147697
 40
0.2487499337
 40
0.3741173588
 40
0.5
 40
0.6258826412
 40
0.7512500663
 40
0.8758852303
 40
1.0
 40
1.0
 40
1.0
 40
1.0
 10
1431.5010323316
 20
680.8553525111
 30
0.0
 10
1431.7573524694
 20
680.8553525111
 30
0.0
 10
1432.276805185
 20
680.9600504181
 30
0.0
 10
1432.9315120509
 20
681.4060556146
 30
0.0
 10
1433.3686892261
 20
682.0716855845
 30
0.0
 10
1433.5217316821
 20
682.8553525111
 30
0.0
 10
1433.3686892261
 20
683.6390194376
 30
0.0
 10
1432.9315120509
 20
684.3046494076
 30
0.0
 10
1432.276805185
 20
684.7506546041
 30
0.0
 10
1431.7573524694
 20
684.8553525111
 30
0.0
 10
1431.5010323316
 20
684.8553525111
 30
0.0
  0
SPLINE
  5
6D3
100
AcDbEntity
  8
0
100
AcDbSpline
 62
7
  6
CONTINUOUS
 70
0
 71
3
 72
15
 73
11
 74
0
 42
0.0000001
 43
0.0000001
 44
0.0000000001
 40
0.0
 40
0.0
 40
0.0
 40
0.0
 40
0.1241147697
 40
0.2487499337
 40
0.3741173588
 40
0.5
 40
0.6258826412
 40
0.7512500663
 40
0.8758852303
 40
1.0
 40
1.0
 40
1.0
 40
1.0
 10
1431.5010323316
 20
695.8553525111
 30
0.0
 10
1431.7573524694
 20
695.8553525111
 30
0.0
 10
1432.276805185
 20
695.9600504181
 30
0.0
 10
1432.9315120509
 20
696.4060556146
 30
0.0
 10
1433.3686892261
 20
697.0716855845
 30
0.0
 10
1433.5217316821
 20
697.8553525111
 30
0.0
 10
1433.3686892261
 20
698.6390194376
 30
0.0
 10
1432.9315120509
 20
699.3046494076
 30
0.0
 10
1432.276805185
 20
699.7506546041
 30
0.0
 10
1431.7573524694
 20
699.8553525111
 30
0.0
 10
1431.5010323316
 20
699.8553525111
 30
0.0
  0
SPLINE
  5
6D4
100
AcDbEntity
  8
0
100
AcDbSpline
 62
7
  6
CONTINUOUS
 70
0
 71
3
 72
11
 73
7
 74
0
 42
0.0000001
 43
0.0000001
 44
0.0000000001
 40
0.0
 40
0.0
 40
0.0
 40
0.0
 40
0.2517668059
 40
0.5024031935
 40
0.7516663445
 40
1.0
 40
1.0
 40
1.0
 40
1.0
 10
1433.4610552531
 20
673.0523222236
 30
0.0
 10
1433.4374099223
 20
673.294882308
 30
0.0
 10
1433.3008416227
 20
673.7748383807
 30
0.0
 10
1432.854959397
 20
674.3698501361
 30
0.0
 10
1432.227829721
 20
674.763643998
 30
0.0
 10
1431.7414189084
 20
674.8553525111
 30
0.0
 10
1431.5010323316
 20
674.8553525111
 30
0.0
  0
SPLINE
  5
6D5
100
AcDbEntity
  8
0
100
AcDbSpline
 62
7
  6
CONTINUOUS
 70
0
 71
3
 72
9
 73
5
 74
0
 42
0.0000001
 43
0.0000001
 44
0.0000000001
 40
0.0
 40
0.0
 40
0.0
 40
0.0
 40
0.4467749698
 40
1.0
 40
1.0
 40
1.0
 40
1.0
 10
970.3314784075
 20
129.5553525111
 30
0.0
 10
970.4039608678
 20
129.4298092071
 30
0.0
 10
970.6664890921
 20
129.2058546917
 30
0.0
 10
970.9915720799
 20
129.1355276031
 30
0.0
 10
971.1701224971
 20
129.1170425154
 30
0.0
  0
SPLINE
  5
6D6
100
AcDbEntity
  8
0
100
AcDbSpline
 62
7
  6
CONTINUOUS
 70
0
 71
3
 72
9
 73
5
 74
0
 42
0.0000001
 43
0.0000001
 44
0.0000000001
 40
0.0
 40
0.0
 40
0.0
 40
0.0
 40
0.4492683997
 40
1.0
 40
1.0
 40
1.0
 40
1.0
 10
971.1701224971
 20
129.1170425154
 30
0.0
 10
971.4928740689
 20
129.0836284737
 30
0.0
 10
972.2243046649
 20
129.1640693792
 30
0.0
 10
972.9109581774
 20
129.3973000157
 30
0.0
 10
973.2759647803
 20
129.5553525111
 30
0.0
  0
SPLINE
  5
6D7
100
AcDbEntity
  8
0
100
AcDbSpline
 62
7
  6
CONTINUOUS
 70
0
 71
3
 72
9
 73
5
 74
0
 42
0.0000001
 43
0.0000001
 44
0.0000000001
 40
0.0
 40
0.0
 40
0.0
 40
0.0
 40
0.2986683735
 40
1.0
 40
1.0
 40
1.0
 40
1.0
 10
1017.9360967058
 20
706.7553525111
 30
0.0
 10
1017.9551766558
 20
706.7553525111
 30
0.0
 10
1017.9852981117
 20
706.6760089001
 30
0.0
 10
1017.9978351099
 20
706.6246517322
 30
0.0
 10
1018.0071047451
 20
706.580817697
 30
0.0
  0
SPLINE
  5
6D8
100
AcDbEntity
  8
0
100
AcDbSpline
 62
7
  6
CONTINUOUS
 70
0
 71
3
 72
9
 73
5
 74
0
 42
0.0000001
 43
0.0000001
 44
0.0000000001
 40
0.0
 40
0.0
 40
0.0
 40
0.0
 40
0.2196977867
 40
1.0
 40
1.0
 40
1.0
 40
1.0
 10
1018.0071047451
 20
706.580817697
 30
0.0
 10
1018.0105646051
 20
706.5644567915
 30
0.0
 10
1018.0253809432
 20
706.4897896586
 30
0.0
 10
1018.0375254027
 20
706.4146213212
 30
0.0
 10
1018.0464692631
 20
706.3559043283
 30
0.0
  0
SPLINE
  5
6D9
100
AcDbEntity
  8
0
100
AcDbSpline
 62
7
  6
CONTINUOUS
 70
0
 71
3
 72
9
 73
5
 74
0
 42
0.0000001
 43
0.0000001
 44
0.0000000001
 40
0.0
 40
0.0
 40
0.0
 40
0.0
 40
0.2986683735
 40
1.0
 40
1.0
 40
1.0
 40
1.0
 10
947.7704112809
 20
636.5896670861
 30
0.0
 10
947.7704112809
 20
636.5705871361
 30
0.0
 10
947.8497548919
 20
636.5404656803
 30
0.0
 10
947.9011120597
 20
636.5279286821
 30
0.0
 10
947.9449460949
 20
636.5186590469
 30
0.0
  0
SPLINE
  5
6DA
100
AcDbEntity
  8
0
100
AcDbSpline
 62
7
  6
CONTINUOUS
 70
0
 71
3
 72
9
 73
5
 74
0
 42
0.0000001
 43
0.0000001
 44
0.0000000001
 40
0.0
 40
0.0
 40
0.0
 40
0.0
 40
0.2196977867
 40
1.0
 40
1.0
 40
1.0
 40
1.0
 10
947.9449460949
 20
636.5186590469
 30
0.0
 10
947.9613070005
 20
636.5151991868
 30
0.0
 10
948.0359741333
 20
636.5003828488
 30
0.0
 10
948.1111424708
 20
636.4882383893
 30
0.0
 10
948.1698594636
 20
636.4792945288
 30
0.0
  0
SPLINE
  5
6DB
100
AcDbEntity
  8
0
100
AcDbSpline
 62
7
  6
CONTINUOUS
 70
0
 71
3
 72
9
 73
5
 74
0
 42
0.0000001
 43
0.0000001
 44
0.0000000001
 40
0.0
 40
0.0
 40
0.0
 40
0.0
 40
0.3095283689
 40
1.0
 40
1.0
 40
1.0
 40
1.0
 10
1017.6532539934
 20
706.6381952235
 30
0.0
 10
1017.6431075178
 20
706.628048748
 30
0.0
 10
1017.661001171
 20
706.5715092173
 30
0.0
 10
1017.681596217
 20
706.5370580851
 30
0.0
 10
1017.6981211863
 20
706.5096442581
 30
0.0
  0
SPLINE
  5
6DC
100
AcDbEntity
  8
0
100
AcDbSpline
 62
7
  6
CONTINUOUS
 70
0
 71
3
 72
9
 73
5
 74
0
 42
0.0000001
 43
0.0000001
 44
0.0000000001
 40
0.0
 40
0.0
 40
0.0
 40
0.0
 40
0.2057400617
 40
1.0
 40
1.0
 40
1.0
 40
1.0
 10
1017.6981211863
 20
706.5096442581
 30
0.0
 10
1017.7080903397
 20
706.4931060944
 30
0.0
 10
1017.7584848405
 20
706.4138953036
 30
0.0
 10
1017.8134867395
 20
706.3377477979
 30
0.0
 10
1017.8576613284
 20
706.2776975211
 30
0.0
  0
SPLINE
  5
6DD
100
AcDbEntity
  8
0
100
AcDbSpline
 62
7
  6
CONTINUOUS
 70
0
 71
3
 72
9
 73
5
 74
0
 42
0.0000001
 43
0.0000001
 44
0.0000000001
 40
0.0
 40
0.0
 40
0.0
 40
0.0
 40
0.3095283689
 40
1.0
 40
1.0
 40
1.0
 40
1.0
 10
947.8875685684
 20
636.8725097986
 30
0.0
 10
947.8977150439
 20
636.8826562741
 30
0.0
 10
947.9542545747
 20
636.8647626209
 30
0.0
 10
947.9887057068
 20
636.8441675749
 30
0.0
 10
948.0161195338
 20
636.8276426057
 30
0.0
  0
SPLINE
  5
6DE
100
AcDbEntity
  8
0
100
AcDbSpline
 62
7
  6
CONTINUOUS
 70
0
 71
3
 72
9
 73
5
 74
0
 42
0.0000001
 43
0.0000001
 44
0.0000000001
 40
0.0
 40
0.0
 40
0.0
 40
0.0
 40
0.2057400617
 40
1.0
 40
1.0
 40
1.0
 40
1.0
 10
948.0161195338
 20
636.8276426057
 30
0.0
 10
948.0326576976
 20
636.8176734523
 30
0.0
 10
948.1118684884
 20
636.7672789514
 30
0.0
 10
948.1880159941
 20
636.7122770524
 30
0.0
 10
948.2480662709
 20
636.6681024636
 30
0.0
  0
SPLINE
  5
6DF
100
AcDbEntity
  8
0
100
AcDbSpline
 62
7
  6
CONTINUOUS
 70
0
 71
3
 72
9
 73
5
 74
0
 42
0.0000001
 43
0.0000001
 44
0.0000000001
 40
0.0
 40
0.0
 40
0.0
 40
0.0
 40
0.5
 40
1.0
 40
1.0
 40
1.0
 40
1.0
 10
1288.105496577
 20
167.5574251053
 30
0.0
 10
1288.0030671537
 20
167.5830324611
 30
0.0
 10
1287.8127041734
 20
167.6976454036
 30
0.0
 10
1287.6980912309
 20
167.8880083839
 30
0.0
 10
1287.6724838751
 20
167.9904378072
 30
0.0
  0
SPLINE
  5
6E0
100
AcDbEntity
  8
0
100
AcDbSpline
 62
7
  6
CONTINUOUS
 70
0
 71
3
 72
9
 73
5
 74
0
 42
0.0000001
 43
0.0000001
 44
0.0000000001
 40
0.0
 40
0.0
 40
0.0
 40
0.0
 40
0.5
 40
1.0
 40
1.0
 40
1.0
 40
1.0
 10
1341.2683386867
 20
167.9904378072
 30
0.0
 10
1341.2427313308
 20
167.8880083839
 30
0.0
 10
1341.1281183883
 20
167.6976454036
 30
0.0
 10
1340.937755408
 20
167.5830324611
 30
0.0
 10
1340.8353259848
 20
167.5574251053
 30
0.0
  0
SPLINE
  5
6E1
100
AcDbEntity
  8
0
100
AcDbSpline
 62
7
  6
CONTINUOUS
 70
0
 71
3
 72
9
 73
5
 74
0
 42
0.0000001
 43
0.0000001
 44
0.0000000001
 40
0.0
 40
0.0
 40
0.0
 40
0.0
 40
0.5
 40
1.0
 40
1.0
 40
1.0
 40
1.0
 10
1340.8353259848
 20
671.0532799168
 30
0.0
 10
1340.937755408
 20
671.027672561
 30
0.0
 10
1341.1281183883
 20
670.9130596185
 30
0.0
 10
1341.2427313308
 20
670.7226966382
 30
0.0
 10
1341.2683386867
 20
670.620267215
 30
0.0
  0
SPLINE
  5
6E2
100
AcDbEntity
  8
0
100
AcDbSpline
 62
7
  6
CONTINUOUS
 70
0
 71
3
 72
9
 73
5
 74
0
 42
0.0000001
 43
0.0000001
 44
0.0000000001
 40
0.0
 40
0.0
 40
0.0
 40
0.0
 40
0.5
 40
1.0
 40
1.0
 40
1.0
 40
1.0
 10
1287.6724838751
 20
670.620267215
 30
0.0
 10
1287.6980912309
 20
670.7226966382
 30
0.0
 10
1287.8127041734
 20
670.9130596185
 30
0.0
 10
1288.0030671537
 20
671.027672561
 30
0.0
 10
1288.105496577
 20
671.0532799168
 30
0.0
  0
SPLINE
  5
6E3
100
AcDbEntity
  8
0
100
AcDbSpline
 62
7
  6
CONTINUOUS
 70
0
 71
3
 72
9
 73
5
 74
0
 42
0.0000001
 43
0.0000001
 44
0.0000000001
 40
0.0
 40
0.0
 40
0.0
 40
0.0
 40
0.5000000397
 40
1.0
 40
1.0
 40
1.0
 40
1.0
 10
1341.6724838751
 20
167.5862926187
 30
0.0
 10
1341.6768220616
 20
167.4733043456
 30
0.0
 10
1341.6037919309
 20
167.2219717711
 30
0.0
 10
1341.3524594332
 20
167.1489418577
 30
0.0
 10
1341.2394711732
 20
167.1532799168
 30
0.0
  0
SPLINE
  5
6E4
100
AcDbEntity
  8
0
100
AcDbSpline
 62
7
  6
CONTINUOUS
 70
0
 71
3
 72
9
 73
5
 74
0
 42
0.0000001
 43
0.0000001
 44
0.0000000001
 40
0.0
 40
0.0
 40
0.0
 40
0.0
 40
0.4999999189
 40
1.0
 40
1.0
 40
1.0
 40
1.0
 10
1341.7590864155
 20
167.5862926187
 30
0.0
 10
1341.7590755531
 20
167.4524130539
 30
0.0
 10
1341.661751061
 20
167.1640125851
 30
0.0
 10
1341.3733507815
 20
167.0666886398
 30
0.0
 10
1341.2394711732
 20
167.0666773765
 30
0.0
  0
SPLINE
  5
6E5
100
AcDbEntity
  8
0
100
AcDbSpline
 62
7
  6
CONTINUOUS
 70
0
 71
3
 72
9
 73
5
 74
0
 42
0.0000001
 43
0.0000001
 44
0.0000000001
 40
0.0
 40
0.0
 40
0.0
 40
0.0
 40
0.5000000397
 40
1.0
 40
1.0
 40
1.0
 40
1.0
 10
1287.7013513886
 20
167.1532799168
 30
0.0
 10
1287.5883631154
 20
167.1489417304
 30
0.0
 10
1287.3370305409
 20
167.2219718611
 30
0.0
 10
1287.2640006275
 20
167.4733043587
 30
0.0
 10
1287.2683386867
 20
167.5862926187
 30
0.0
  0
SPLINE
  5
6E6
100
AcDbEntity
  8
0
100
AcDbSpline
 62
7
  6
CONTINUOUS
 70
0
 71
3
 72
9
 73
5
 74
0
 42
0.0000001
 43
0.0000001
 44
0.0000000001
 40
0.0
 40
0.0
 40
0.0
 40
0.0
 40
0.4999999189
 40
1.0
 40
1.0
 40
1.0
 40
1.0
 10
1287.7013513886
 20
167.0666773765
 30
0.0
 10
1287.5674718237
 20
167.0666882389
 30
0.0
 10
1287.2790713549
 20
167.164012731
 30
0.0
 10
1287.1817474096
 20
167.4524130105
 30
0.0
 10
1287.1817361463
 20
167.5862926187
 30
0.0
  0
SPLINE
  5
6E7
100
AcDbEntity
  8
0
100
AcDbSpline
 62
7
  6
CONTINUOUS
 70
0
 71
3
 72
9
 73
5
 74
0
 42
0.0000001
 43
0.0000001
 44
0.0000000001
 40
0.0
 40
0.0
 40
0.0
 40
0.0
 40
0.5000000397
 40
1.0
 40
1.0
 40
1.0
 40
1.0
 10
1287.2683386867
 20
671.0244124034
 30
0.0
 10
1287.2640005002
 20
671.1374006765
 30
0.0
 10
1287.3370306309
 20
671.388733251
 30
0.0
 10
1287.5883631285
 20
671.4617631645
 30
0.0
 10
1287.7013513886
 20
671.4574251053
 30
0.0
  0
SPLINE
  5
6E8
100
AcDbEntity
  8
0
100
AcDbSpline
 62
7
  6
CONTINUOUS
 70
0
 71
3
 72
9
 73
5
 74
0
 42
0.0000001
 43
0.0000001
 44
0.0000000001
 40
0.0
 40
0.0
 40
0.0
 40
0.0
 40
0.4999999189
 40
1.0
 40
1.0
 40
1.0
 40
1.0
 10
1287.1817361463
 20
671.0244124034
 30
0.0
 10
1287.1817470087
 20
671.1582919683
 30
0.0
 10
1287.2790715008
 20
671.4466924371
 30
0.0
 10
1287.5674717803
 20
671.5440163824
 30
0.0
 10
1287.7013513886
 20
671.5440276457
 30
0.0
  0
SPLINE
  5
6E9
100
AcDbEntity
  8
0
100
AcDbSpline
 62
7
  6
CONTINUOUS
 70
0
 71
3
 72
9
 73
5
 74
0
 42
0.0000001
 43
0.0000001
 44
0.0000000001
 40
0.0
 40
0.0
 40
0.0
 40
0.0
 40
0.5000000397
 40
1.0
 40
1.0
 40
1.0
 40
1.0
 10
1341.2394711732
 20
671.4574251053
 30
0.0
 10
1341.3524594463
 20
671.4617632918
 30
0.0
 10
1341.6037920209
 20
671.388733161
 30
0.0
 10
1341.6768219343
 20
671.1374006634
 30
0.0
 10
1341.6724838751
 20
671.0244124034
 30
0.0
  0
SPLINE
  5
6EA
100
AcDbEntity
  8
0
100
AcDbSpline
 62
7
  6
CONTINUOUS
 70
0
 71
3
 72
9
 73
5
 74
0
 42
0.0000001
 43
0.0000001
 44
0.0000000001
 40
0.0
 40
0.0
 40
0.0
 40
0.0
 40
0.4999999189
 40
1.0
 40
1.0
 40
1.0
 40
1.0
 10
1341.2394711732
 20
671.5440276457
 30
0.0
 10
1341.3733507381
 20
671.5440167832
 30
0.0
 10
1341.6617512069
 20
671.4466922912
 30
0.0
 10
1341.7590751522
 20
671.1582920116
 30
0.0
 10
1341.7590864155
 20
671.0244124034
 30
0.0
  0
SPLINE
  5
6EB
100
AcDbEntity
  8
0
100
AcDbSpline
 62
7
  6
CONTINUOUS
 70
0
 71
3
 72
11
 73
7
 74
0
 42
0.0000001
 43
0.0000001
 44
0.0000000001
 40
0.0
 40
0.0
 40
0.0
 40
0.0
 40
0.3144572094
 40
0.5921581302
 40
0.8208713524
 40
1.0
 40
1.0
 40
1.0
 40
1.0
 10
889.8700725712
 20
436.4852099611
 30
0.0
 10
889.6958568608
 20
436.8875439104
 30
0.0
 10
889.4141494897
 20
437.6667711309
 30
0.0
 10
889.1933194101
 20
438.7960505144
 30
0.0
 10
889.2005706823
 20
439.7588697288
 30
0.0
 10
889.3954576445
 20
440.3164001306
 30
0.0
 10
889.5431051778
 20
440.5178342254
 30
0.0
  0
SPLINE
  5
6EC
100
AcDbEntity
  8
0
100
AcDbSpline
 62
7
  6
CONTINUOUS
 70
0
 71
3
 72
12
 73
8
 74
0
 42
0.0000001
 43
0.0000001
 44
0.0000000001
 40
0.0
 40
0.0
 40
0.0
 40
0.0
 40
0.3070206008
 40
0.5830922694
 40
0.8186497646
 40
0.9170898351
 40
1.0
 40
1.0
 40
1.0
 40
1.0
 10
896.3700725712
 20
440.2379867109
 30
0.0
 10
895.6718558567
 20
440.2953201117
 30
0.0
 10
894.3461799835
 20
440.4097493989
 30
0.0
 10
892.4841198448
 20
440.5548517298
 30
0.0
 10
891.0924464947
 20
440.6237542202
 30
0.0
 10
890.141177022
 20
440.6015202582
 30
0.0
 10
889.72839636
 20
440.5560264373
 30
0.0
 10
889.5431051778
 20
440.5178342254
 30
0.0
  0
SPLINE
  5
6ED
100
AcDbEntity
  8
0
100
AcDbSpline
 62
7
  6
CONTINUOUS
 70
0
 71
3
 72
11
 73
7
 74
0
 42
0.0000001
 43
0.0000001
 44
0.0000000001
 40
0.0
 40
0.0
 40
0.0
 40
0.0
 40
0.1791286474
 40
0.4078418696
 40
0.6855427905
 40
1.0
 40
1.0
 40
1.0
 40
1.0
 10
889.5431051778
 20
335.9611153078
 30
0.0
 10
889.3954576447
 20
336.1625494023
 30
0.0
 10
889.2005706824
 20
336.7200798039
 30
0.0
 10
889.19331941
 20
337.6828990181
 30
0.0
 10
889.4141494896
 20
338.8121784019
 30
0.0
 10
889.6958568607
 20
339.5914056226
 30
0.0
 10
889.8700725712
 20
339.993739572
 30
0.0
  0
SPLINE
  5
6EE
100
AcDbEntity
  8
0
100
AcDbSpline
 62
7
  6
CONTINUOUS
 70
0
 71
3
 72
12
 73
8
 74
0
 42
0.0000001
 43
0.0000001
 44
0.0000000001
 40
0.0
 40
0.0
 40
0.0
 40
0.0
 40
0.0829053376
 40
0.1813436466
 40
0.4169047185
 40
0.6929795252
 40
1.0
 40
1.0
 40
1.0
 40
1.0
 10
889.5431051778
 20
335.9611153078
 30
0.0
 10
889.7283850947
 20
335.9229229928
 30
0.0
 10
890.1411516553
 20
335.8774374772
 30
0.0
 10
891.0924131761
 20
335.8551832736
 30
0.0
 10
892.4840986282
 20
335.9240974128
 30
0.0
 10
894.3461729392
 20
336.0692030782
 30
0.0
 10
895.6718569826
 20
336.1836191114
 30
0.0
 10
896.3700725712
 20
336.2409628223
 30
0.0
  0
SPLINE
  5
6EF
100
AcDbEntity
  8
0
100
AcDbSpline
 62
7
  6
CONTINUOUS
 70
0
 71
3
 72
10
 73
6
 74
0
 42
0.0000001
 43
0.0000001
 44
0.0000000001
 40
0.0
 40
0.0
 40
0.0
 40
0.0
 40
0.5780591316
 40
0.809398197
 40
1.0
 40
1.0
 40
1.0
 40
1.0
 10
889.4534049203
 20
332.9743774585
 30
0.0
 10
889.5873612767
 20
333.4927149701
 30
0.0
 10
889.7169715531
 20
334.2429181428
 30
0.0
 10
889.6515335836
 20
335.1703244766
 30
0.0
 10
889.5355545166
 20
335.5504014012
 30
0.0
 10
889.4534073633
 20
335.7066478904
 30
0.0
  0
SPLINE
  5
6F0
100
AcDbEntity
  8
0
100
AcDbSpline
 62
7
  6
CONTINUOUS
 70
0
 71
3
 72
12
 73
8
 74
0
 42
0.0000001
 43
0.0000001
 44
0.0000000001
 40
0.0
 40
0.0
 40
0.0
 40
0.0
 40
0.3610770092
 40
0.6698303788
 40
0.7894814979
 40
0.8821387824
 40
1.0
 40
1.0
 40
1.0
 40
1.0
 10
889.4534049203
 20
332.9743774585
 30
0.0
 10
889.3829171167
 20
333.304901212
 30
0.0
 10
889.2694767466
 20
333.9220904078
 30
0.0
 10
889.196032701
 20
334.6584867446
 30
0.0
 10
889.2163072275
 20
335.149057834
 30
0.0
 10
889.267717071
 20
335.4494235367
 30
0.0
 10
889.3608203212
 20
335.6466739242
 30
0.0
 10
889.4534073633
 20
335.7066478904
 30
0.0
  0
SPLINE
  5
6F1
100
AcDbEntity
  8
0
100
AcDbSpline
 62
7
  6
CONTINUOUS
 70
0
 71
3
 72
9
 73
5
 74
0
 42
0.0000001
 43
0.0000001
 44
0.0000000001
 40
0.0
 40
0.0
 40
0.0
 40
0.0
 40
0.4604045161
 40
1.0
 40
1.0
 40
1.0
 40
1.0
 10
889.8700725712
 20
240.6636125531
 30
0.0
 10
889.7205793509
 20
240.7499225041
 30
0.0
 10
889.4463794045
 20
241.0299174377
 30
0.0
 10
889.3189506016
 20
241.3915460568
 30
0.0
 10
889.2748481651
 20
241.5889915801
 30
0.0
  0
SPLINE
  5
6F2
100
AcDbEntity
  8
0
100
AcDbSpline
 62
7
  6
CONTINUOUS
 70
0
 71
3
 72
9
 73
5
 74
0
 42
0.0000001
 43
0.0000001
 44
0.0000000001
 40
0.0
 40
0.0
 40
0.0
 40
0.0
 40
0.4446585631
 40
1.0
 40
1.0
 40
1.0
 40
1.0
 10
889.2748481651
 20
241.5889915801
 30
0.0
 10
889.1916344037
 20
241.9615375427
 30
0.0
 10
889.1956738381
 20
242.8380280876
 30
0.0
 10
889.3965866997
 20
243.6762414953
 30
0.0
 10
889.5431051778
 20
244.1299126796
 30
0.0
  0
SPLINE
  5
6F3
100
AcDbEntity
  8
0
100
AcDbSpline
 62
7
  6
CONTINUOUS
 70
0
 71
3
 72
8
 73
4
 74
0
 42
0.0000001
 43
0.0000001
 44
0.0000000001
 40
0.0
 40
0.0
 40
0.0
 40
0.0
 40
1.0
 40
1.0
 40
1.0
 40
1.0
 10
896.3700725712
 20
236.9108358034
 30
0.0
 10
895.251598731
 20
237.5566570959
 30
0.0
 10
894.1918258412
 20
238.3190612075
 30
0.0
 10
893.2309348659
 20
239.1820544906
 30
0.0
  0
SPLINE
  5
6F4
100
AcDbEntity
  8
0
100
AcDbSpline
 62
7
  6
CONTINUOUS
 70
0
 71
3
 72
9
 73
5
 74
0
 42
0.0000001
 43
0.0000001
 44
0.0000000001
 40
0.0
 40
0.0
 40
0.0
 40
0.0
 40
0.7495844524
 40
1.0
 40
1.0
 40
1.0
 40
1.0
 10
893.2309348659
 20
239.1820544906
 30
0.0
 10
892.0784875029
 20
240.217087974
 30
0.0
 10
890.7010141517
 20
241.8156998759
 30
0.0
 10
889.7486619662
 20
243.6550091713
 30
0.0
 10
889.5431051778
 20
244.1299126796
 30
0.0
  0
SPLINE
  5
6F5
100
AcDbEntity
  8
0
100
AcDbSpline
 62
7
  6
CONTINUOUS
 70
0
 71
3
 72
16
 73
12
 74
0
 42
0.0000001
 43
0.0000001
 44
0.0000000001
 40
0.0
 40
0.0
 40
0.0
 40
0.0
 40
0.1762061803
 40
0.3490377611
 40
0.5132031481
 40
0.6621712752
 40
0.7891999195
 40
0.8890143418
 40
0.9591310667
 40
0.9830962777
 40
1.0
 40
1.0
 40
1.0
 40
1.0
 10
934.8700725712
 20
567.1550829422
 30
0.0
 10
934.9549352939
 20
569.1640295413
 30
0.0
 10
935.1120179735
 20
573.1439272267
 30
0.0
 10
935.3058283776
 20
578.9970624747
 30
0.0
 10
935.447386668
 20
584.5408277601
 30
0.0
 10
935.5272245215
 20
589.5630380058
 30
0.0
 10
935.54116114
 20
593.8518572962
 30
0.0
 10
935.4865006184
 20
597.2399330827
 30
0.0
 10
935.3885907545
 20
599.4517648478
 30
0.0
 10
935.2633186583
 20
600.7120477431
 30
0.0
 10
935.1912410671
 20
601.1736724791
 30
0.0
 10
935.1476505866
 20
601.3615757159
 30
0.0
  0
SPLINE
  5
6F6
100
AcDbEntity
  8
0
100
AcDbSpline
 62
7
  6
CONTINUOUS
 70
0
 71
3
 72
9
 73
5
 74
0
 42
0.0000001
 43
0.0000001
 44
0.0000000001
 40
0.0
 40
0.0
 40
0.0
 40
0.0
 40
0.2798481451
 40
1.0
 40
1.0
 40
1.0
 40
1.0
 10
935.1476505866
 20
601.3615757159
 30
0.0
 10
935.142830899
 20
601.3823516949
 30
0.0
 10
935.1248825673
 20
601.4564101982
 30
0.0
 10
935.1039836241
 20
601.5298353537
 30
0.0
 10
935.0859317437
 20
601.5816656663
 30
0.0
  0
SPLINE
  5
6F7
100
AcDbEntity
  8
0
100
AcDbSpline
 62
7
  6
CONTINUOUS
 70
0
 71
3
 72
11
 73
7
 74
0
 42
0.0000001
 43
0.0000001
 44
0.0000000001
 40
0.0
 40
0.0
 40
0.0
 40
0.0
 40
0.3805913049
 40
0.6480071881
 40
0.8313208442
 40
1.0
 40
1.0
 40
1.0
 40
1.0
 10
935.0859317437
 20
601.5816656663
 30
0.0
 10
935.0715784856
 20
601.622876545
 30
0.0
 10
935.0435793033
 20
601.6921097522
 30
0.0
 10
934.9934250047
 20
601.7735234117
 30
0.0
 10
934.9304114619
 20
601.8169188014
 30
0.0
 10
934.8868226403
 20
601.805768883
 30
0.0
 10
934.8700725712
 20
601.7960990936
 30
0.0
  0
SPLINE
  5
6F8
100
AcDbEntity
  8
0
100
AcDbSpline
 62
7
  6
CONTINUOUS
 70
0
 71
3
 72
13
 73
9
 74
0
 42
0.0000001
 43
0.0000001
 44
0.0000000001
 40
0.0
 40
0.0
 40
0.0
 40
0.0
 40
0.330159929
 40
0.6115139285
 40
0.729121817
 40
0.8309513956
 40
0.9194432128
 40
1.0
 40
1.0
 40
1.0
 40
1.0
 10
921.3700725712
 20
597.4659720747
 30
0.0
 10
921.5320427802
 20
597.0919176989
 30
0.0
 10
921.7824468913
 20
596.376489518
 30
0.0
 10
921.9228980299
 20
595.4778392675
 30
0.0
 10
921.881693804
 20
594.8582391585
 30
0.0
 10
921.7842392677
 20
594.4875965778
 30
0.0
 10
921.6177638018
 20
594.1921213379
 30
0.0
 10
921.4562036569
 20
594.051598265
 30
0.0
 10
921.3700725718
 20
594.0018704599
 30
0.0
  0
SPLINE
  5
6F9
100
AcDbEntity
  8
0
100
AcDbSpline
 62
7
  6
CONTINUOUS
 70
0
 71
3
 72
9
 73
5
 74
0
 42
0.0000001
 43
0.0000001
 44
0.0000000001
 40
0.0
 40
0.0
 40
0.0
 40
0.0
 40
0.2736639373
 40
1.0
 40
1.0
 40
1.0
 40
1.0
 10
921.3700725712
 20
597.4659720747
 30
0.0
 10
921.2069452599
 20
597.2775736202
 30
0.0
 10
920.6293093309
 20
596.5731736959
 30
0.0
 10
920.1147111855
 20
595.8185910493
 30
0.0
 10
919.7698855495
 20
595.254161924
 30
0.0
  0
SPLINE
  5
6FA
100
AcDbEntity
  8
0
100
AcDbSpline
 62
7
  6
CONTINUOUS
 70
0
 71
3
 72
13
 73
9
 74
0
 42
0.0000001
 43
0.0000001
 44
0.0000000001
 40
0.0
 40
0.0
 40
0.0
 40
0.0
 40
0.3920066693
 40
0.7101766864
 40
0.8322055696
 40
0.9237200551
 40
0.9806352431
 40
1.0
 40
1.0
 40
1.0
 40
1.0
 10
919.7698855495
 20
595.254161924
 30
0.0
 10
919.7158954805
 20
595.1657880787
 30
0.0
 10
919.6196149606
 20
595.0048191267
 30
0.0
 10
919.5082923367
 20
594.815028124
 30
0.0
 10
919.4398980521
 20
594.6926015016
 30
0.0
 10
919.4025953845
 20
594.6311255629
 30
0.0
 10
919.3848743043
 20
594.591120729
 30
0.0
 10
919.3708129379
 20
594.5749681634
 30
0.0
 10
919.3700725712
 20
594.5699062093
 30
0.0
  0
SPLINE
  5
6FB
100
AcDbEntity
  8
0
100
AcDbSpline
 62
7
  6
CONTINUOUS
 70
0
 71
3
 72
17
 73
13
 74
0
 42
0.0000001
 43
0.0000001
 44
0.0000000001
 40
0.0
 40
0.0
 40
0.0
 40
0.0
 40
0.1843762332
 40
0.3603379095
 40
0.5226408696
 40
0.6663196324
 40
0.787235999
 40
0.8382650564
 40
0.8827547609
 40
0.9207329563
 40
0.9524718881
 40
1.0
 40
1.0
 40
1.0
 40
1.0
 10
921.3700725712
 20
559.3608543082
 30
0.0
 10
920.9583506412
 20
561.5000029841
 30
0.0
 10
920.2241393289
 20
565.6947038747
 30
0.0
 10
919.3875824117
 20
571.8143255535
 30
0.0
 10
918.8614612385
 20
577.4865123475
 30
0.0
 10
918.6663897079
 20
582.529094591
 30
0.0
 10
918.7850130474
 20
586.2618451866
 30
0.0
 10
919.081379442
 20
588.8038279709
 30
0.0
 10
919.3721834681
 20
590.3545589958
 30
0.0
 10
919.7442545724
 20
591.6578594063
 30
0.0
 10
920.2826917492
 20
592.9258325133
 30
0.0
 10
920.883761133
 20
593.7210945962
 30
0.0
 10
921.3700725712
 20
594.0018704595
 30
0.0
  0
SPLINE
  5
6FC
100
AcDbEntity
  8
0
100
AcDbSpline
 62
7
  6
CONTINUOUS
 70
0
 71
3
 72
11
 73
7
 74
0
 42
0.0000001
 43
0.0000001
 44
0.0000000001
 40
0.0
 40
0.0
 40
0.0
 40
0.0
 40
0.2180051749
 40
0.4519171798
 40
0.7117432586
 40
1.0
 40
1.0
 40
1.0
 40
1.0
 10
887.3700725712
 20
439.6016075187
 30
0.0
 10
887.3700725713
 20
439.8563958447
 30
0.0
 10
887.4729811077
 20
440.3887085163
 30
0.0
 10
887.9089741308
 20
441.1127942766
 30
0.0
 10
888.5869456083
 20
441.7397697238
 30
0.0
 10
889.1473121265
 20
442.0606341702
 30
0.0
 10
889.4534059046
 20
442.2013594387
 30
0.0
  0
SPLINE
  5
6FD
100
AcDbEntity
  8
0
100
AcDbSpline
 62
7
  6
CONTINUOUS
 70
0
 71
3
 72
17
 73
13
 74
0
 42
0.0000001
 43
0.0000001
 44
0.0000000001
 40
0.0
 40
0.0
 40
0.0
 40
0.0
 40
0.1913916452
 40
0.3753528749
 40
0.545322542
 40
0.6945381147
 40
0.817098932
 40
0.9090399642
 40
0.943016225
 40
0.9690952674
 40
0.9877119104
 40
1.0
 40
1.0
 40
1.0
 40
1.0
 10
896.3700725712
 20
271.5518519547
 30
0.0
 10
896.167867848
 20
269.3338967089
 30
0.0
 10
895.8045652055
 20
264.9809768125
 30
0.0
 10
895.3856484218
 20
258.6487052691
 30
0.0
 10
895.1189463507
 20
252.7994900357
 30
0.0
 10
895.0172034032
 20
247.658888357
 30
0.0
 10
895.0863909416
 20
243.4268427993
 30
0.0
 10
895.2857199129
 20
240.537852466
 30
0.0
 10
895.5558233036
 20
238.78960129
 30
0.0
 10
895.7740100436
 20
237.8967980962
 30
0.0
 10
896.0149986933
 20
237.2806918083
 30
0.0
 10
896.2462391758
 20
236.9823339275
 30
0.0
 10
896.3700725712
 20
236.9108358034
 30
0.0
  0
SPLINE
  5
6FE
100
AcDbEntity
  8
0
100
AcDbSpline
 62
7
  6
CONTINUOUS
 70
0
 71
3
 72
11
 73
7
 74
0
 42
0.0000001
 43
0.0000001
 44
0.0000000001
 40
0.0
 40
0.0
 40
0.0
 40
0.0
 40
0.1739766978
 40
0.3592733264
 40
0.6245743992
 40
1.0
 40
1.0
 40
1.0
 40
1.0
 10
934.8700725712
 20
214.6828504396
 30
0.0
 10
934.8862667694
 20
214.6735014737
 30
0.0
 10
934.9274985689
 20
214.6622516484
 30
0.0
 10
934.9886043945
 20
214.7005589956
 30
0.0
 10
935.0375154534
 20
214.7753254437
 30
0.0
 10
935.0646760939
 20
214.8389384029
 30
0.0
 10
935.078605355
 20
214.8768088094
 30
0.0
  0
SPLINE
  5
6FF
100
AcDbEntity
  8
0
100
AcDbSpline
 62
7
  6
CONTINUOUS
 70
0
 71
3
 72
9
 73
5
 74
0
 42
0.0000001
 43
0.0000001
 44
0.0000000001
 40
0.0
 40
0.0
 40
0.0
 40
0.0
 40
0.2211289615
 40
1.0
 40
1.0
 40
1.0
 40
1.0
 10
935.078605355
 20
214.8768088094
 30
0.0
 10
935.0838632158
 20
214.8911037046
 30
0.0
 10
935.1063853634
 20
214.9562108549
 30
0.0
 10
935.1246161336
 20
215.0227353565
 30
0.0
 10
935.137470901
 20
215.0748205334
 30
0.0
  0
SPLINE
  5
700
100
AcDbEntity
  8
0
100
AcDbSpline
 62
7
  6
CONTINUOUS
 70
0
 71
3
 72
17
 73
13
 74
0
 42
0.0000001
 43
0.0000001
 44
0.0000000001
 40
0.0
 40
0.0
 40
0.0
 40
0.0
 40
0.0163382387
 40
0.0397803454
 40
0.070631846
 40
0.1090513453
 40
0.2083664079
 40
0.3353101364
 40
0.4845856707
 40
0.6493523455
 40
0.8229557686
 40
1.0
 40
1.0
 40
1.0
 40
1.0
 10
935.137470901
 20
215.0748205334
 30
0.0
 10
935.1822016833
 20
215.2560615188
 30
0.0
 10
935.2554629624
 20
215.7056362174
 30
0.0
 10
935.3389102468
 20
216.5082812751
 30
0.0
 10
935.4094069141
 20
217.5655476192
 30
0.0
 10
935.4915355307
 20
219.4901000127
 30
0.0
 10
935.5397866671
 20
222.5143713362
 30
0.0
 10
935.5287462779
 20
226.8052524237
 30
0.0
 10
935.4493767158
 20
231.8434292736
 30
0.0
 10
935.3079618613
 20
237.4134855259
 30
0.0
 10
935.1133831146
 20
243.2993967221
 30
0.0
 10
934.9554480343
 20
247.3027776405
 30
0.0
 10
934.8700725712
 20
249.3238665909
 30
0.0
  0
SPLINE
  5
701
100
AcDbEntity
  8
0
100
AcDbSpline
 62
7
  6
CONTINUOUS
 70
0
 71
3
 72
9
 73
5
 74
0
 42
0.0000001
 43
0.0000001
 44
0.0000000001
 40
0.0
 40
0.0
 40
0.0
 40
0.0
 40
0.6773670321
 40
1.0
 40
1.0
 40
1.0
 40
1.0
 10
889.5431051778
 20
440.5178342254
 30
0.0
 10
889.5259474877
 20
440.5295224703
 30
0.0
 10
889.5027631446
 20
440.5449409179
 30
0.0
 10
889.4673939246
 20
440.5563957835
 30
0.0
 10
889.4593538167
 20
440.5506393766
 30
0.0
  0
SPLINE
  5
702
100
AcDbEntity
  8
0
100
AcDbSpline
 62
7
  6
CONTINUOUS
 70
0
 71
3
 72
9
 73
5
 74
0
 42
0.0000001
 43
0.0000001
 44
0.0000000001
 40
0.0
 40
0.0
 40
0.0
 40
0.0
 40
0.3226323767
 40
1.0
 40
1.0
 40
1.0
 40
1.0
 10
889.4593538167
 20
335.9283101565
 30
0.0
 10
889.467393908
 20
335.9225537572
 30
0.0
 10
889.5027631309
 20
335.9340085973
 30
0.0
 10
889.5259474719
 20
335.949427053
 30
0.0
 10
889.5431051778
 20
335.9611153078
 30
0.0
  0
SPLINE
  5
703
100
AcDbEntity
  8
0
100
AcDbSpline
 62
7
  6
CONTINUOUS
 70
0
 71
3
 72
9
 73
5
 74
0
 42
0.0000001
 43
0.0000001
 44
0.0000000001
 40
0.0
 40
0.0
 40
0.0
 40
0.0
 40
0.4995500364
 40
1.0
 40
1.0
 40
1.0
 40
1.0
 10
891.4880332593
 20
444.2278485485
 30
0.0
 10
891.4765820994
 20
443.511109187
 30
0.0
 10
891.1092047737
 20
442.0622307046
 30
0.0
 10
890.1264431236
 20
440.936661533
 30
0.0
 10
889.5431051778
 20
440.5178342254
 30
0.0
  0
SPLINE
  5
704
100
AcDbEntity
  8
0
100
AcDbSpline
 62
7
  6
CONTINUOUS
 70
0
 71
3
 72
9
 73
5
 74
0
 42
0.0000001
 43
0.0000001
 44
0.0000000001
 40
0.0
 40
0.0
 40
0.0
 40
0.0
 40
0.4995500386
 40
1.0
 40
1.0
 40
1.0
 40
1.0
 10
891.4880332593
 20
332.2511009847
 30
0.0
 10
891.4765821657
 20
332.9678403582
 30
0.0
 10
891.1092049005
 20
334.4167189027
 30
0.0
 10
890.1264431588
 20
335.542288041
 30
0.0
 10
889.5431051778
 20
335.9611153078
 30
0.0
  0
SPLINE
  5
705
100
AcDbEntity
  8
0
100
AcDbSpline
 62
7
  6
CONTINUOUS
 70
0
 71
3
 72
12
 73
8
 74
0
 42
0.0000001
 43
0.0000001
 44
0.0000000001
 40
0.0
 40
0.0
 40
0.0
 40
0.0
 40
0.0327085308
 40
0.0886263401
 40
0.2861302784
 40
0.5949383613
 40
1.0
 40
1.0
 40
1.0
 40
1.0
 10
891.4880332593
 20
244.0396529216
 30
0.0
 10
891.4847254278
 20
244.0609976609
 30
0.0
 10
891.4357982555
 20
244.1061816231
 30
0.0
 10
891.2558951741
 20
244.1574397692
 30
0.0
 10
890.8811629036
 20
244.1880502462
 30
0.0
 10
890.2810302291
 20
244.1806223775
 30
0.0
 10
889.8097587626
 20
244.1510246018
 30
0.0
 10
889.5431051778
 20
244.1299126797
 30
0.0
  0
SPLINE
  5
706
100
AcDbEntity
  8
0
100
AcDbSpline
 62
7
  6
CONTINUOUS
 70
0
 71
3
 72
16
 73
12
 74
0
 42
0.0000001
 43
0.0000001
 44
0.0000000001
 40
0.0
 40
0.0
 40
0.0
 40
0.0
 40
0.005798011
 40
0.0189878093
 40
0.0696806206
 40
0.1527065569
 40
0.2670503056
 40
0.4111591577
 40
0.5830002064
 40
0.7802439065
 40
1.0
 40
1.0
 40
1.0
 40
1.0
 10
891.3778944831
 20
245.1756444513
 30
0.0
 10
891.3780421126
 20
245.1719141256
 30
0.0
 10
891.364620939
 20
245.1641606849
 30
0.0
 10
891.3251300905
 20
245.1525968701
 30
0.0
 10
891.2281615625
 20
245.1354070807
 30
0.0
 10
891.0718030982
 20
245.1159538124
 30
0.0
 10
890.8521185324
 20
245.0935288316
 30
0.0
 10
890.5764293256
 20
245.0697873311
 30
0.0
 10
890.2468158141
 20
245.0447155066
 30
0.0
 10
889.868590819
 20
245.0188835887
 30
0.0
 10
889.600598376
 20
245.0021947996
 30
0.0
 10
889.4593538167
 20
244.993739572
 30
0.0
  0
SPLINE
  5
707
100
AcDbEntity
  8
0
100
AcDbSpline
 62
7
  6
CONTINUOUS
 70
0
 71
3
 72
9
 73
5
 74
0
 42
0.0000001
 43
0.0000001
 44
0.0000000001
 40
0.0
 40
0.0
 40
0.0
 40
0.0
 40
0.4959990645
 40
1.0
 40
1.0
 40
1.0
 40
1.0
 10
891.3694865748
 20
332.1962200547
 30
0.0
 10
891.3581384393
 20
332.8765862134
 30
0.0
 10
890.9909359248
 20
334.2626340089
 30
0.0
 10
890.022976068
 20
335.3146301977
 30
0.0
 10
889.4534061641
 20
335.7066472874
 30
0.0
  0
SPLINE
  5
708
100
AcDbEntity
  8
0
100
AcDbSpline
 62
7
  6
CONTINUOUS
 70
0
 71
3
 72
8
 73
4
 74
0
 42
0.0000001
 43
0.0000001
 44
0.0000000001
 40
0.0
 40
0.0
 40
0.0
 40
0.0
 40
1.0
 40
1.0
 40
1.0
 40
1.0
 10
891.3557099034
 20
332.0110691388
 30
0.0
 10
891.3457708083
 20
332.0469216338
 30
0.0
 10
891.3309003311
 20
332.0816033449
 30
0.0
 10
891.3127785141
 20
332.1140962175
 30
0.0
  0
SPLINE
  5
709
100
AcDbEntity
  8
0
100
AcDbSpline
 62
7
  6
CONTINUOUS
 70
0
 71
3
 72
9
 73
5
 74
0
 42
0.0000001
 43
0.0000001
 44
0.0000000001
 40
0.0
 40
0.0
 40
0.0
 40
0.0
 40
0.2279355988
 40
1.0
 40
1.0
 40
1.0
 40
1.0
 10
891.3127785141
 20
332.1140962175
 30
0.0
 10
891.3029813967
 20
332.1316626949
 30
0.0
 10
891.2556768377
 20
332.2063326065
 30
0.0
 10
891.1936363789
 20
332.2708225889
 30
0.0
 10
891.1423234744
 20
332.3156401896
 30
0.0
  0
SPLINE
  5
70A
100
AcDbEntity
  8
0
100
AcDbSpline
 62
7
  6
CONTINUOUS
 70
0
 71
3
 72
10
 73
6
 74
0
 42
0.0000001
 43
0.0000001
 44
0.0000000001
 40
0.0
 40
0.0
 40
0.0
 40
0.0
 40
0.1853087592
 40
0.4152348424
 40
1.0
 40
1.0
 40
1.0
 40
1.0
 10
891.1423234744
 20
332.3156401896
 30
0.0
 10
891.05730848
 20
332.3898937934
 30
0.0
 10
890.8434559467
 20
332.5291256548
 30
0.0
 10
890.2863376608
 20
332.7779120752
 30
0.0
 10
889.8023388106
 20
332.9028167949
 30
0.0
 10
889.4534035108
 20
332.974372321
 30
0.0
  0
SPLINE
  5
70B
100
AcDbEntity
  8
0
100
AcDbSpline
 62
7
  6
CONTINUOUS
 70
0
 71
3
 72
14
 73
10
 74
0
 42
0.0000001
 43
0.0000001
 44
0.0000000001
 40
0.0
 40
0.0
 40
0.0
 40
0.0
 40
0.0258367498
 40
0.0838935628
 40
0.1754997267
 40
0.2980396154
 40
0.4473733226
 40
0.6182773812
 40
1.0
 40
1.0
 40
1.0
 40
1.0
 10
924.5338448651
 20
595.8284752451
 30
0.0
 10
924.5624838512
 20
595.8450099714
 30
0.0
 10
924.5573056452
 20
595.9813140507
 30
0.0
 10
924.4996389164
 20
596.176841406
 30
0.0
 10
924.3757540749
 20
596.5143555865
 30
0.0
 10
924.1891848637
 20
596.935844968
 30
0.0
 10
923.9440192555
 20
597.4486296315
 30
0.0
 10
923.5353643235
 20
598.2481076015
 30
0.0
 10
923.1942393843
 20
598.8682986887
 30
0.0
 10
922.9519587181
 20
599.2925768602
 30
0.0
  0
SPLINE
  5
70C
100
AcDbEntity
  8
0
100
AcDbSpline
 62
7
  6
CONTINUOUS
 70
0
 71
3
 72
14
 73
10
 74
0
 42
0.0000001
 43
0.0000001
 44
0.0000000001
 40
0.0
 40
0.0
 40
0.0
 40
0.0
 40
0.0805186514
 40
0.1689671305
 40
0.2707474463
 40
0.3882986655
 40
0.5218202212
 40
0.6699994431
 40
1.0
 40
1.0
 40
1.0
 40
1.0
 10
906.3700725712
 20
541.8997288044
 30
0.0
 10
905.939413085
 20
541.6510874341
 30
0.0
 10
905.1316286781
 20
540.9484695789
 30
0.0
 10
904.2991705198
 20
539.4710934346
 30
0.0
 10
903.812284479
 20
537.61787332
 30
0.0
 10
903.6652640863
 20
535.4340499016
 30
0.0
 10
903.8547122438
 20
532.9687045219
 30
0.0
 10
904.5752054283
 20
529.2544022641
 30
0.0
 10
905.5602211264
 20
526.4494926926
 30
0.0
 10
906.3700725712
 20
524.5792207287
 30
0.0
  0
SPLINE
  5
70D
100
AcDbEntity
  8
0
100
AcDbSpline
 62
7
  6
CONTINUOUS
 70
0
 71
3
 72
15
 73
11
 74
0
 42
0.0000001
 43
0.0000001
 44
0.0000000001
 40
0.0
 40
0.0
 40
0.0
 40
0.0
 40
0.0475327553
 40
0.0792747208
 40
0.117256123
 40
0.212724638
 40
0.3336557178
 40
0.4773531784
 40
0.6396785042
 40
1.0
 40
1.0
 40
1.0
 40
1.0
 10
896.3700725712
 20
536.1262261125
 30
0.0
 10
896.1269242569
 20
535.9858410227
 30
0.0
 10
895.8264359502
 20
535.5882262963
 30
0.0
 10
895.5570775322
 20
534.9542619942
 30
0.0
 10
895.288836465
 20
534.0118435468
 30
0.0
 10
895.0876722467
 20
532.5181696421
 30
0.0
 10
895.0176212993
 20
530.3902558545
 30
0.0
 10
895.115886556
 20
527.8684982459
 30
0.0
 10
895.4797467718
 20
523.948232729
 30
0.0
 10
895.9678023668
 20
520.8956934393
 30
0.0
 10
896.3700725712
 20
518.8057180368
 30
0.0
  0
SPLINE
  5
70E
100
AcDbEntity
  8
0
100
AcDbSpline
 62
7
  6
CONTINUOUS
 70
0
 71
3
 72
9
 73
5
 74
0
 42
0.0000001
 43
0.0000001
 44
0.0000000001
 40
0.0
 40
0.0
 40
0.0
 40
0.0
 40
0.2977942058
 40
1.0
 40
1.0
 40
1.0
 40
1.0
 10
891.3778944831
 20
332.1881150943
 30
0.0
 10
891.3869269673
 20
332.1786737988
 30
0.0
 10
891.4417653517
 20
332.2000042428
 30
0.0
 10
891.4661875834
 20
332.229374549
 30
0.0
 10
891.4880332593
 20
332.2511009847
 30
0.0
  0
SPLINE
  5
70F
100
AcDbEntity
  8
0
100
AcDbSpline
 62
7
  6
CONTINUOUS
 70
0
 71
3
 72
9
 73
5
 74
0
 42
0.0000001
 43
0.0000001
 44
0.0000000001
 40
0.0
 40
0.0
 40
0.0
 40
0.0
 40
0.3719922254
 40
1.0
 40
1.0
 40
1.0
 40
1.0
 10
891.4880332593
 20
332.2511009847
 30
0.0
 10
892.0429662442
 20
332.8028705507
 30
0.0
 10
893.5994549083
 20
334.2212835995
 30
0.0
 10
895.280589252
 20
335.4936763863
 30
0.0
 10
896.3700725712
 20
336.2409628223
 30
0.0
  0
SPLINE
  5
710
100
AcDbEntity
  8
0
100
AcDbSpline
 62
7
  6
CONTINUOUS
 70
0
 71
3
 72
9
 73
5
 74
0
 42
0.0000001
 43
0.0000001
 44
0.0000000001
 40
0.0
 40
0.0
 40
0.0
 40
0.0
 40
0.4561257763
 40
1.0
 40
1.0
 40
1.0
 40
1.0
 10
891.3127783616
 20
444.1298418174
 30
0.0
 10
891.2119850682
 20
443.7247472574
 30
0.0
 10
890.6965810517
 20
442.9093699224
 30
0.0
 10
889.9056527839
 20
442.4092921653
 30
0.0
 10
889.4534059046
 20
442.2013721331
 30
0.0
  0
SPLINE
  5
711
100
AcDbEntity
  8
0
100
AcDbSpline
 62
7
  6
CONTINUOUS
 70
0
 71
3
 72
14
 73
10
 74
0
 42
0.0000001
 43
0.0000001
 44
0.0000000001
 40
0.0
 40
0.0
 40
0.0
 40
0.0
 40
0.3817226187
 40
0.5526266773
 40
0.7019603845
 40
0.8245002732
 40
0.9161064372
 40
0.9741632502
 40
1.0
 40
1.0
 40
1.0
 40
1.0
 10
925.7897948122
 20
600.931002293
 30
0.0
 10
926.0320754793
 20
600.506724122
 30
0.0
 10
926.3732004193
 20
599.8865330352
 30
0.0
 10
926.7818553515
 20
599.0870550653
 30
0.0
 10
927.0270209595
 20
598.5742704017
 30
0.0
 10
927.2135901704
 20
598.1527810199
 30
0.0
 10
927.3374750113
 20
597.8152668392
 30
0.0
 10
927.3951417397
 20
597.6197394836
 30
0.0
 10
927.4003199454
 20
597.4834354043
 30
0.0
 10
927.3716809591
 20
597.4669006779
 30
0.0
  0
SPLINE
  5
712
100
AcDbEntity
  8
0
100
AcDbSpline
 62
7
  6
CONTINUOUS
 70
0
 71
3
 72
12
 73
8
 74
0
 42
0.0000001
 43
0.0000001
 44
0.0000000001
 40
0.0
 40
0.0
 40
0.0
 40
0.0
 40
0.0315858117
 40
0.0879969306
 40
0.2890103611
 40
0.6002149001
 40
1.0
 40
1.0
 40
1.0
 40
1.0
 10
934.8700725705
 20
601.7960990932
 30
0.0
 10
934.8493594536
 20
601.7841403696
 30
0.0
 10
934.7741221726
 20
601.7999893055
 30
0.0
 10
934.6039240846
 20
601.9312260489
 30
0.0
 10
934.310184309
 20
602.2548330924
 30
0.0
 10
933.8965912443
 20
602.8047550197
 30
0.0
 10
933.5934976809
 20
603.2509844484
 30
0.0
 10
933.4277918461
 20
603.50433098
 30
0.0
  0
SPLINE
  5
713
100
AcDbEntity
  8
0
100
AcDbSpline
 62
7
  6
CONTINUOUS
 70
0
 71
3
 72
9
 73
5
 74
0
 42
0.0000001
 43
0.0000001
 44
0.0000000001
 40
0.0
 40
0.0
 40
0.0
 40
0.0
 40
0.7308900132
 40
1.0
 40
1.0
 40
1.0
 40
1.0
 10
933.9457625598
 20
603.9655085389
 30
0.0
 10
933.9396418192
 20
603.7931308467
 30
0.0
 10
933.6995086616
 20
603.6084396531
 30
0.0
 10
933.4879520001
 20
603.5246803436
 30
0.0
 10
933.4277918461
 20
603.50433098
 30
0.0
  0
SPLINE
  5
714
100
AcDbEntity
  8
0
100
AcDbSpline
 62
7
  6
CONTINUOUS
 70
0
 71
3
 72
13
 73
9
 74
0
 42
0.0000001
 43
0.0000001
 44
0.0000000001
 40
0.0
 40
0.0
 40
0.0
 40
0.0
 40
0.0897024229
 40
0.1856075044
 40
0.2921807549
 40
0.4115645656
 40
0.6873271217
 40
1.0
 40
1.0
 40
1.0
 40
1.0
 10
937.3700725712
 20
606.1262261126
 30
0.0
 10
937.3700725712
 20
605.9954231096
 30
0.0
 10
937.3238341814
 20
605.7230603902
 30
0.0
 10
937.1248859692
 20
605.3402239642
 30
0.0
 10
936.8085540119
 20
604.9880913689
 30
0.0
 10
936.2178665911
 20
604.5501302566
 30
0.0
 10
935.2514129202
 20
604.1496496324
 30
0.0
 10
934.4002684049
 20
604.0015910291
 30
0.0
 10
933.9457625598
 20
603.9655085389
 30
0.0
  0
SPLINE
  5
715
100
AcDbEntity
  8
0
100
AcDbSpline
 62
7
  6
CONTINUOUS
 70
0
 71
3
 72
10
 73
6
 74
0
 42
0.0000001
 43
0.0000001
 44
0.0000000001
 40
0.0
 40
0.0
 40
0.0
 40
0.0
 40
0.3205106063
 40
0.6088996769
 40
1.0
 40
1.0
 40
1.0
 40
1.0
 10
933.7881882473
 20
605.7497548999
 30
0.0
 10
933.8143393025
 20
605.752504431
 30
0.0
 10
933.8557500824
 20
605.7027286118
 30
0.0
 10
933.8800124438
 20
605.6289626711
 30
0.0
 10
933.8938503774
 20
605.5736121879
 30
0.0
 10
933.9000987044
 20
605.5421399537
 30
0.0
  0
SPLINE
  5
716
100
AcDbEntity
  8
0
100
AcDbSpline
 62
7
  6
CONTINUOUS
 70
0
 71
3
 72
9
 73
5
 74
0
 42
0.0000001
 43
0.0000001
 44
0.0000000001
 40
0.0
 40
0.0
 40
0.0
 40
0.0
 40
0.223348007
 40
1.0
 40
1.0
 40
1.0
 40
1.0
 10
933.9000987044
 20
605.5421399537
 30
0.0
 10
933.9026811946
 20
605.5291321939
 30
0.0
 10
933.9133795358
 20
605.4707206173
 30
0.0
 10
933.9211368878
 20
605.4118017309
 30
0.0
 10
933.9262173215
 20
605.365967505
 30
0.0
  0
SPLINE
  5
717
100
AcDbEntity
  8
0
100
AcDbSpline
 62
7
  6
CONTINUOUS
 70
0
 71
3
 72
9
 73
5
 74
0
 42
0.0000001
 43
0.0000001
 44
0.0000000001
 40
0.0
 40
0.0
 40
0.0
 40
0.0
 40
0.2321493085
 40
1.0
 40
1.0
 40
1.0
 40
1.0
 10
933.9262173215
 20
605.365967505
 30
0.0
 10
933.9278822337
 20
605.3509471409
 30
0.0
 10
933.9345857021
 20
605.286193987
 30
0.0
 10
933.9395950279
 20
605.221272391
 30
0.0
 10
933.9427839104
 20
605.1713890036
 30
0.0
  0
SPLINE
  5
718
100
AcDbEntity
  8
0
100
AcDbSpline
 62
7
  6
CONTINUOUS
 70
0
 71
3
 72
9
 73
5
 74
0
 42
0.0000001
 43
0.0000001
 44
0.0000000001
 40
0.0
 40
0.0
 40
0.0
 40
0.0
 40
0.2052707175
 40
1.0
 40
1.0
 40
1.0
 40
1.0
 10
933.9427839104
 20
605.1713890036
 30
0.0
 10
933.9480490433
 20
605.0890270254
 30
0.0
 10
933.9648094568
 20
604.6872333244
 30
0.0
 10
933.957142199
 20
604.284830639
 30
0.0
 10
933.9457625598
 20
603.9655085389
 30
0.0
  0
SPLINE
  5
719
100
AcDbEntity
  8
0
100
AcDbSpline
 62
7
  6
CONTINUOUS
 70
0
 71
3
 72
10
 73
6
 74
0
 42
0.0000001
 43
0.0000001
 44
0.0000000001
 40
0.0
 40
0.0
 40
0.0
 40
0.0
 40
0.5725995151
 40
0.8122200141
 40
1.0
 40
1.0
 40
1.0
 40
1.0
 10
922.9519587181
 20
600.6327337006
 30
0.0
 10
922.8851789102
 20
601.2751199723
 30
0.0
 10
922.8110349137
 20
602.1890061772
 30
0.0
 10
922.7769681943
 20
603.3164944071
 30
0.0
 10
922.7843048125
 20
603.7989785223
 30
0.0
 10
922.798024406
 20
604.0103350247
 30
0.0
  0
SPLINE
  5
71A
100
AcDbEntity
  8
0
100
AcDbSpline
 62
7
  6
CONTINUOUS
 70
0
 71
3
 72
9
 73
5
 74
0
 42
0.0000001
 43
0.0000001
 44
0.0000000001
 40
0.0
 40
0.0
 40
0.0
 40
0.0
 40
0.2649204031
 40
1.0
 40
1.0
 40
1.0
 40
1.0
 10
922.798024406
 20
604.0103350247
 30
0.0
 10
922.7990447377
 20
604.026053694
 30
0.0
 10
922.8031469442
 20
604.0853701011
 30
0.0
 10
922.8082833874
 20
604.144619551
 30
0.0
 10
922.8128639854
 20
604.1880855343
 30
0.0
  0
SPLINE
  5
71B
100
AcDbEntity
  8
0
100
AcDbSpline
 62
7
  6
CONTINUOUS
 70
0
 71
3
 72
10
 73
6
 74
0
 42
0.0000001
 43
0.0000001
 44
0.0000000001
 40
0.0
 40
0.0
 40
0.0
 40
0.0
 40
0.6872878489
 40
0.8830940848
 40
1.0
 40
1.0
 40
1.0
 40
1.0
 10
922.8128639854
 20
604.1880855343
 30
0.0
 10
922.8238976351
 20
604.2927854966
 30
0.0
 10
922.8428713599
 20
604.4289717366
 30
0.0
 10
922.894485731
 20
604.5720278882
 30
0.0
 10
922.9341490031
 20
604.6089494055
 30
0.0
 10
922.9519587181
 20
604.610821282
 30
0.0
  0
SPLINE
  5
71C
100
AcDbEntity
  8
0
100
AcDbSpline
 62
7
  6
CONTINUOUS
 70
0
 71
3
 72
9
 73
5
 74
0
 42
0.0000001
 43
0.0000001
 44
0.0000000001
 40
0.0
 40
0.0
 40
0.0
 40
0.0
 40
0.628001161
 40
1.0
 40
1.0
 40
1.0
 40
1.0
 10
896.3700725712
 20
440.2379867109
 30
0.0
 10
895.2806074463
 20
440.9852750741
 30
0.0
 10
893.5994539869
 20
442.2576444099
 30
0.0
 10
892.0429885025
 20
443.6760816367
 30
0.0
 10
891.4880332593
 20
444.2278485485
 30
0.0
  0
SPLINE
  5
71D
100
AcDbEntity
  8
0
100
AcDbSpline
 62
7
  6
CONTINUOUS
 70
0
 71
3
 72
9
 73
5
 74
0
 42
0.0000001
 43
0.0000001
 44
0.0000000001
 40
0.0
 40
0.0
 40
0.0
 40
0.0
 40
0.7022048806
 40
1.0
 40
1.0
 40
1.0
 40
1.0
 10
891.4880332593
 20
444.2278485485
 30
0.0
 10
891.4661876232
 20
444.2495749641
 30
0.0
 10
891.4417653687
 20
444.278945219
 30
0.0
 10
891.386927002
 20
444.3002757552
 30
0.0
 10
891.3778944831
 20
444.2908344389
 30
0.0
  0
ELLIPSE
  5
71E
100
AcDbEntity
  8
0
100
AcDbEllipse
 62
7
  6
CONTINUOUS
 10
1452.3704112809
 20
640.2946923393
 30
0.0
 11
-0.0
 21
2.0
 31
0.0
 40
1.0
 41
-3.8869656694
 42
-2.3962196378
  0
ELLIPSE
  5
71F
100
AcDbEntity
  8
0
100
AcDbEllipse
 62
7
  6
CONTINUOUS
 10
1452.3704112809
 20
138.4160126828
 30
0.0
 11
2.0
 21
-0.0
 31
0.0
 40
1.0
 41
0.825423311
 42
2.3161693426
  0
ELLIPSE
  5
720
100
AcDbEntity
  8
0
100
AcDbEllipse
 62
7
  6
CONTINUOUS
 10
1024.2222045646
 20
171.9035592273
 30
0.0
 11
1.5905650964
 21
-1.5905650963
 31
0.0
 40
0.8891264907
 41
-0.0832913608
 42
0.0832915491
  0
ELLIPSE
  5
721
100
AcDbEntity
  8
0
100
AcDbEllipse
 62
7
  6
CONTINUOUS
 10
1148.7022875799
 20
171.7690643058
 30
0.0
 11
-1.5905650963
 21
1.5905650964
 31
0.0
 40
0.8891264907
 41
-3.2248840143
 42
-3.0583011045
  0
ELLIPSE
  5
722
100
AcDbEntity
  8
0
100
AcDbEllipse
 62
7
  6
CONTINUOUS
 10
1274.4222045646
 20
171.7690643058
 30
0.0
 11
-1.5905650964
 21
1.5905650964
 31
0.0
 40
0.8891264907
 41
-3.2248840143
 42
-3.0583011045
  0
ELLIPSE
  5
723
100
AcDbEntity
  8
0
100
AcDbEllipse
 62
7
  6
CONTINUOUS
 10
1025.8964676422
 20
662.5814088724
 30
0.0
 11
-1.5905650964
 21
-1.5905650964
 31
0.0
 40
0.8891264907
 41
3.3428006558
 42
3.5166473218
  0
ELLIPSE
  5
724
100
AcDbEntity
  8
0
100
AcDbEllipse
 62
7
  6
CONTINUOUS
 10
1009.9443549195
 20
170.2292961497
 30
0.0
 11
1.5905650964
 21
1.5905650964
 31
0.0
 40
0.8891264907
 41
9.0497233729
 42
9.2235699417
  0
ELLIPSE
  5
725
100
AcDbEntity
  8
0
100
AcDbEllipse
 62
7
  6
CONTINUOUS
 10
1122.2186838105
 20
169.9492131344
 30
0.0
 11
1.5905650964
 21
1.5905650964
 31
0.0
 40
0.8891264907
 41
9.0497233729
 42
9.2235699417
  0
ELLIPSE
  5
726
100
AcDbEntity
  8
0
100
AcDbEllipse
 62
7
  6
CONTINUOUS
 10
1276.0964676422
 20
662.715903794
 30
0.0
 11
-1.5905650964
 21
-1.5905650964
 31
0.0
 40
0.8891264907
 41
3.3428006558
 42
3.5166473218
  0
ELLIPSE
  5
727
100
AcDbEntity
  8
0
100
AcDbEllipse
 62
7
  6
CONTINUOUS
 10
1150.5221387512
 20
662.8614918877
 30
0.0
 11
-1.5905650964
 21
-1.5905650964
 31
0.0
 40
0.8891264907
 41
3.402694809
 42
3.5165541276
  0
ELLIPSE
  5
728
100
AcDbEntity
  8
0
100
AcDbEllipse
 62
7
  6
CONTINUOUS
 10
1254.6443549195
 20
170.0948012281
 30
0.0
 11
1.5905650964
 21
1.5905650964
 31
0.0
 40
0.8891264907
 41
9.0497233729
 42
9.2235699417
  0
ELLIPSE
  5
729
100
AcDbEntity
  8
0
100
AcDbEllipse
 62
7
  6
CONTINUOUS
 10
1155.310961771
 20
662.9148020209
 30
0.0
 11
1.5905650964
 21
-1.5905650964
 31
0.0
 40
0.8891264907
 41
3.0583187081
 42
3.2248665991
  0
ELLIPSE
  5
72A
100
AcDbEntity
  8
0
100
AcDbEllipse
 62
7
  6
CONTINUOUS
 10
1031.110961771
 20
662.9148020209
 30
0.0
 11
1.5905650964
 21
-1.5905650964
 31
0.0
 40
0.8891264907
 41
3.0583187081
 42
3.2248665991
  0
ELLIPSE
  5
72B
100
AcDbEntity
  8
0
100
AcDbEllipse
 62
7
  6
CONTINUOUS
 10
1024.3677926583
 20
171.7579711336
 30
0.0
 11
1.5905650964
 21
-1.5905650964
 31
0.0
 40
0.8891264907
 41
-0.0832739455
 42
0.0832739455
  0
ELLIPSE
  5
72C
100
AcDbEntity
  8
0
100
AcDbEllipse
 62
7
  6
CONTINUOUS
 10
1148.8478756736
 20
171.6234762121
 30
0.0
 11
1.5905650964
 21
-1.5905650964
 31
0.0
 40
0.8891264907
 41
-0.0832739455
 42
0.0832739455
  0
ELLIPSE
  5
72D
100
AcDbEntity
  8
0
100
AcDbEllipse
 62
7
  6
CONTINUOUS
 10
1274.5677926583
 20
171.6234762121
 30
0.0
 11
1.5905650964
 21
-1.5905650964
 31
0.0
 40
0.8891264907
 41
-0.0832739455
 42
0.0832739455
  0
ELLIPSE
  5
72E
100
AcDbEntity
  8
0
100
AcDbEllipse
 62
7
  6
CONTINUOUS
 10
1024.1704112809
 20
139.4553525111
 30
0.0
 11
2.25
 21
0.0
 31
0.0
 40
1.0
 41
0.9181086487
 42
1.0820002796
  0
ELLIPSE
  5
72F
100
AcDbEntity
  8
0
100
AcDbEllipse
 62
7
  6
CONTINUOUS
 10
1178.8704112809
 20
139.4553525111
 30
0.0
 11
-0.0
 21
2.25
 31
0.0
 40
1.0
 41
-0.6526876781
 42
-0.6133209575
  0
ELLIPSE
  5
730
100
AcDbEntity
  8
0
100
AcDbEllipse
 62
7
  6
CONTINUOUS
 10
1011.0730299035
 20
172.1579711336
 30
0.0
 11
1.5905650964
 21
1.5905650964
 31
0.0
 40
0.8891264907
 41
3.0583187081
 42
3.2248665991
  0
ELLIPSE
  5
731
100
AcDbEntity
  8
0
100
AcDbEllipse
 62
7
  6
CONTINUOUS
 10
1011.0730299035
 20
661.4527338885
 30
0.0
 11
1.5905650964
 21
-1.5905650963
 31
0.0
 40
0.8891264907
 41
3.0583187081
 42
3.2248665991
  0
ELLIPSE
  5
732
100
AcDbEntity
  8
0
100
AcDbEllipse
 62
7
  6
CONTINUOUS
 10
1023.9677926583
 20
661.4527338885
 30
0.0
 11
1.5905650964
 21
1.5905650964
 31
0.0
 40
0.8891264907
 41
-0.0832739455
 42
0.0832739455
  0
ELLIPSE
  5
733
100
AcDbEntity
  8
0
100
AcDbEllipse
 62
7
  6
CONTINUOUS
 10
1023.9677926583
 20
172.1579711336
 30
0.0
 11
1.5905650964
 21
-1.5905650964
 31
0.0
 40
0.8891264907
 41
-0.0832739455
 42
0.0832739455
  0
ELLIPSE
  5
734
100
AcDbEntity
  8
0
100
AcDbEllipse
 62
7
  6
CONTINUOUS
 10
1148.4478756736
 20
172.0234762121
 30
0.0
 11
1.5905650964
 21
-1.5905650964
 31
0.0
 40
0.8891264907
 41
-0.0832739455
 42
0.0832739455
  0
ELLIPSE
  5
735
100
AcDbEntity
  8
0
100
AcDbEllipse
 62
7
  6
CONTINUOUS
 10
1123.4929468882
 20
172.0234762121
 30
0.0
 11
1.5905650964
 21
1.5905650964
 31
0.0
 40
0.8891264907
 41
3.0583187081
 42
3.2248665991
  0
ELLIPSE
  5
736
100
AcDbEntity
  8
0
100
AcDbEllipse
 62
7
  6
CONTINUOUS
 10
1123.4929468882
 20
661.5872288101
 30
0.0
 11
1.5905650964
 21
-1.5905650963
 31
0.0
 40
0.8891264907
 41
3.0583187081
 42
3.2248665991
  0
ELLIPSE
  5
737
100
AcDbEntity
  8
0
100
AcDbEllipse
 62
7
  6
CONTINUOUS
 10
1148.4478756736
 20
661.5872288101
 30
0.0
 11
1.5905650964
 21
1.5905650963
 31
0.0
 40
0.8891264907
 41
-0.0832739455
 42
0.0832739455
  0
ELLIPSE
  5
738
100
AcDbEntity
  8
0
100
AcDbEllipse
 62
7
  6
CONTINUOUS
 10
1255.7730299035
 20
172.0234762121
 30
0.0
 11
1.5905650964
 21
1.5905650964
 31
0.0
 40
0.8891264907
 41
3.0583187081
 42
3.2248665991
  0
ELLIPSE
  5
739
100
AcDbEntity
  8
0
100
AcDbEllipse
 62
7
  6
CONTINUOUS
 10
1255.7730299035
 20
661.5872288101
 30
0.0
 11
1.5905650964
 21
-1.5905650964
 31
0.0
 40
0.8891264907
 41
3.0583187081
 42
3.2248665991
  0
ELLIPSE
  5
73A
100
AcDbEntity
  8
0
100
AcDbEllipse
 62
7
  6
CONTINUOUS
 10
1274.1677926583
 20
661.5872288101
 30
0.0
 11
1.5905650964
 21
1.5905650964
 31
0.0
 40
0.8891264907
 41
-0.0832739455
 42
0.0832739455
  0
ELLIPSE
  5
73B
100
AcDbEntity
  8
0
100
AcDbEllipse
 62
7
  6
CONTINUOUS
 10
1274.1677926583
 20
172.0234762121
 30
0.0
 11
1.5905650964
 21
-1.5905650964
 31
0.0
 40
0.8891264907
 41
-0.0832739455
 42
0.0832739455
  0
ELLIPSE
  5
73C
100
AcDbEntity
  8
0
100
AcDbEllipse
 62
7
  6
CONTINUOUS
 10
1153.8186838105
 20
664.4070799814
 30
0.0
 11
1.5905650964
 21
-1.5905650964
 31
0.0
 40
0.8891264907
 41
-3.0583187081
 42
-2.634037771
  0
ELLIPSE
  5
73D
100
AcDbEntity
  8
0
100
AcDbEllipse
 62
7
  6
CONTINUOUS
 10
1029.6186838105
 20
664.4070799814
 30
0.0
 11
1.5905650964
 21
-1.5905650964
 31
0.0
 40
0.8891264907
 41
-3.0583187081
 42
-2.4148175993
  0
ELLIPSE
  5
73E
100
AcDbEntity
  8
0
100
AcDbEllipse
 62
7
  6
CONTINUOUS
 10
1031.2565498647
 20
662.7692139272
 30
0.0
 11
1.5905650964
 21
-1.5905650964
 31
0.0
 40
0.8891264907
 41
2.4148175993
 42
3.8683677079
  0
ELLIPSE
  5
73F
100
AcDbEntity
  8
0
100
AcDbEllipse
 62
7
  6
CONTINUOUS
 10
1155.4565498647
 20
662.7692139272
 30
0.0
 11
1.5905650964
 21
-1.5905650964
 31
0.0
 40
0.8891264907
 41
2.4148175993
 42
3.8683677079
  0
ENDSEC
  0
SECTION
  2
OBJECTS
  0
DICTIONARY
  5
C
100
AcDbDictionary
280
0
281
1
  3
ACAD_GROUP
350
D
  3
ACAD_MLINESTYLE
350
17
  3
ACAD_LAYOUT
350
1A
  3
ACAD_PLOTSETTINGS
350
19
  3
ACAD_PLOTSTYLENAME
350
E
  0
DICTIONARY
  5
D
102
{ACAD_REACTORS
330
C
102
}
100
AcDbDictionary
280
0
281
1
  0
ACDBDICTIONARYWDFLT
  5
E
102
{ACAD_REACTORS
330
C
102
}
100
AcDbDictionary
281
1
  3
Normal
350
F
100
AcDbDictionaryWithDefault
340
F
  0
DICTIONARY
  5
17
102
{ACAD_REACTORS
330
C
102
}
100
AcDbDictionary
280
0
281
1
  3
Standard
350
18
  0
DICTIONARY
  5
19
102
{ACAD_REACTORS
330
C
102
}
100
AcDbDictionary
281
1
  0
DICTIONARY
  5
1A
102
{ACAD_REACTORS
330
C
102
}
100
AcDbDictionary
281
1
  3
Model
350
740
  3
Layout1
350
741
  0
ACDBPLACEHOLDER
  5
F
102
{ACAD_REACTORS
330
E
102
}
  0
MLINESTYLE
  5
18
102
{ACAD_REACTORS
330
17
102
}
100
AcDbMlineStyle
  2
STANDARD
 70
0
  3

 62
256
 51
90.0
 52
90.0
 71
2
 49
0.5
 62
256
  6
BYLAYER
 49
-0.5
 62
256
  6
BYLAYER
  0
LAYOUT
  5
740
102
{ACAD_REACTORS
330
1A
102
}
100
AcDbPlotSettings
  1

  2
none_device
  4

  6

 40
0.0
 41
0.0
 42
0.0
 43
0.0
 44
1600.0
 45
841.0
 46
0.0
 47
0.0
 48
0.0
 49
0.0
140
0.0
141
0.0
142
1.0
143
1.0
 70
1024
 72
1
 73
0
 74
0
  7

 75
0
147
1.0
148
0.0
149
0.0
100
AcDbLayout
  1
Model
 70
0
 71
0
 10
0.0
 20
0.0
 11
1600.0
 21
841.0
 12
0.0
 22
0.0
 32
0.0
 14
0.0
 24
0.0
 34
0.0
 15
0.0
 25
0.0
 35
0.0
146
0.0
 13
0.0
 23
0.0
 33
0.0
 16
1.0
 26
0.0
 36
0.0
 17
0.0
 27
1.0
 37
0.0
 76
0
330
1FF
345
0
346
0
  0
LAYOUT
  5
741
102
{ACAD_REACTORS
330
1A
102
}
100
AcDbPlotSettings
  1

  2
none_device
  4

  6

 40
0.0
 41
0.0
 42
0.0
 43
0.0
 44
1600.0
 45
841.0
 46
0.0
 47
0.0
 48
0.0
 49
0.0
140
0.0
141
0.0
142
1.0
143
1.0
 70
0
 72
1
 73
0
 74
0
  7

 75
0
147
1.0
148
0.0
149
0.0
100
AcDbLayout
  1
Layout1
 70
0
 71
1
 10
0.0
 20
0.0
 11
1600.0
 21
841.0
 12
0.0
 22
0.0
 32
0.0
 14
0.0
 24
0.0
 34
0.0
 15
0.0
 25
0.0
 35
0.0
146
0.0
 13
0.0
 23
0.0
 33
0.0
 16
1.0
 26
0.0
 36
0.0
 17
0.0
 27
1.0
 37
0.0
 76
0
330
200
345
0
346
0
  0
ENDSEC
  0
EOF
