999
DXF file: W:\Engenharia\Montagens\Fornos\Glass Brasil B 60 f3\forno_f3.dxf
999
Pro/ENGINEER 2013050 by Parametric Technology Corporation
  0
SECTION
  2
HEADER
  9
$ACADVER
  1
AC1021
  9
$DWGCODEPAGE
  3
ANSI_1252
  9
$EXTMAX
 10
1500.0
 20
1200.0
 30
0.0
  9
$EXTMIN
 10
0.0
 20
0.0
 30
0.0
  9
$LIMMIN
 10
0.0
 20
0.0
  9
$LIMMAX
 10
1500.0
 20
1200.0
  9
$VIEWCTR
 10
750.0
 20
600.0
  9
$VIEWSIZE
 40
1200.0
  9
$CLAYER
  8
0
  9
$LTSCALE
 40
82.5
  9
$CELTYPE
  6
BYLAYER
  9
$DIMSCALE
 40
1.0
  9
$DIMASZ
 40
3.0
  9
$DIMEXO
 40
0.5
  9
$DIMDLI
 40
57.0
  9
$DIMEXE
 40
0.5
  9
$DIMCEN
 40
13.5
  9
$DIMLFAC
 40
1.0
  9
$DIMBLK
  1
_FILLED
  9
$DIMTXT
 40
1.8
  9
$DIMTOL
 70
1
  9
$DIMLIM
 70
0
  9
$DIMTFAC
 40
1.0
  9
$DIMTP
 40
0.001
  9
$DIMTM
 40
0.001
  9
$DIMGAP
 40
0.625
  9
$DIMDSEP
 70
46
  9
$PDMODE
 70
3
  9
$PDSIZE
 40
1.0
  9
$HANDSEED
  5
67B
  9
$TILEMODE
 70
1
  9
$MEASUREMENT
 70
1
  9
$INSUNITS
 70
4
  0
ENDSEC
  0
SECTION
  2
CLASSES
  0
CLASS
  1
ACDBDICTIONARYWDFLT
  2
AcDbDictionaryWithDefault
  3
AutoCAD 2000
 90
0
 91
1
280
0
281
0
  0
CLASS
  1
ACDBPLACEHOLDER
  2
AcDbPlaceHolder
  3
AutoCAD 2000
 90
0
 91
1
280
0
281
0
  0
CLASS
  1
LAYOUT
  2
AcDbLayout
  3
AutoCAD 2000
 90
0
 91
0
280
0
281
0
  0
ENDSEC
  0
SECTION
  2
TABLES
  0
TABLE
  2
VPORT
  5
8
100
AcDbSymbolTable
 70
2
  0
VPORT
  5
1F4
100
AcDbSymbolTableRecord
100
AcDbViewportTableRecord
  2
*ACTIVE
 70
0
 10
0.0
 20
0.0
 11
1.0
 21
1.0
 12
750.0
 22
600.0
 13
0.0
 23
0.0
 14
1.0
 24
1.0
 15
0.0
 25
0.0
 16
0.0
 26
0.0
 36
1.0
 17
0.0
 27
0.0
 37
0.0
 40
1200.0
 41
1.25
 42
50.0
 43
0.0
 44
0.0
 50
0.0
 51
0.0
 71
0
 72
100
 73
1
 74
1
 75
0
 76
0
 77
0
 78
0
  0
ENDTAB
  0
TABLE
  2
LTYPE
  5
5
100
AcDbSymbolTable
 70
6
  0
LTYPE
  5
14
100
AcDbSymbolTableRecord
100
AcDbLinetypeTableRecord
  2
BYBLOCK
 70
0
  3

 72
65
 73
0
 40
0.0
  0
LTYPE
  5
15
100
AcDbSymbolTableRecord
100
AcDbLinetypeTableRecord
  2
BYLAYER
 70
0
  3

 72
65
 73
0
 40
0.0
  0
LTYPE
  5
16
100
AcDbSymbolTableRecord
100
AcDbLinetypeTableRecord
  2
CONTINUOUS
 70
64
  3
Solid line
 72
65
 73
0
 40
0.0
  0
LTYPE
  5
1F5
100
AcDbSymbolTableRecord
100
AcDbLinetypeTableRecord
  2
CENTER
 70
64
  3
____ _ ____ _ ____ _ ____ _ ____ _ ____ _ ____
 72
65
 73
4
 40
0.6
 49
0.375
 74
0
 49
-0.075
 74
0
 49
0.075
 74
0
 49
-0.075
 74
0
  0
LTYPE
  5
1F6
100
AcDbSymbolTableRecord
100
AcDbLinetypeTableRecord
  2
HIDDEN
 70
64
  3
- - - - - - - - - - - - - - - - - - - -
 72
65
 73
2
 40
0.2
 49
0.1
 74
0
 49
-0.1
 74
0
  0
LTYPE
  5
1F7
100
AcDbSymbolTableRecord
100
AcDbLinetypeTableRecord
  2
PHANTOM
 70
64
  3
_____ _ _ _____ _ _ _____ _ _ _____
 72
65
 73
6
 40
0.8
 49
0.45
 74
0
 49
-0.05
 74
0
 49
0.1
 74
0
 49
-0.05
 74
0
 49
0.1
 74
0
 49
-0.05
 74
0
  0
LTYPE
  5
1F8
100
AcDbSymbolTableRecord
100
AcDbLinetypeTableRecord
  2
DOT
 70
64
  3
. . . . . . . . . . . . . . . . . . . .
 72
65
 73
2
 40
0.2
 49
0.1
 74
0
 49
-0.1
 74
0
  0
LTYPE
  5
1F9
100
AcDbSymbolTableRecord
100
AcDbLinetypeTableRecord
  2
DASHED
 70
64
  3
- - - - - - - - - - - - - - - - - - - -
 72
65
 73
2
 40
0.2
 49
0.1
 74
0
 49
-0.1
 74
0
  0
ENDTAB
  0
TABLE
  2
LAYER
  5
2
100
AcDbSymbolTable
 70
36
  0
LAYER
  5
10
100
AcDbSymbolTableRecord
100
AcDbLayerTableRecord
  2
0
 70
0
 62
7
  6
CONTINUOUS
370
-3
390
F
  0
LAYER
  5
1FA
100
AcDbSymbolTableRecord
100
AcDbLayerTableRecord
  2
DEFAULT_1
 70
0
 62
7
  6
CENTER
370
-3
390
F
  0
LAYER
  5
1FB
100
AcDbSymbolTableRecord
100
AcDbLayerTableRecord
  2
DEFAULT_2
 70
0
 62
8
  6
HIDDEN
370
-3
390
F
  0
LAYER
  5
1FC
100
AcDbSymbolTableRecord
100
AcDbLayerTableRecord
  2
DEFAULT_3
 70
0
 62
7
  6
PHANTOM
370
-3
390
F
  0
LAYER
  5
1FD
100
AcDbSymbolTableRecord
100
AcDbLayerTableRecord
  2
01_ALL_DTM_PLN
 70
0
 62
7
  6
CONTINUOUS
370
-3
390
F
  0
LAYER
  5
1FE
100
AcDbSymbolTableRecord
100
AcDbLayerTableRecord
  2
01__ASM_ALL_DTM_PLN
 70
0
 62
7
  6
CONTINUOUS
370
-3
390
F
  0
LAYER
  5
1FF
100
AcDbSymbolTableRecord
100
AcDbLayerTableRecord
  2
01__ASM_DEF_DTM_PLN
 70
0
 62
7
  6
CONTINUOUS
370
-3
390
F
  0
LAYER
  5
200
100
AcDbSymbolTableRecord
100
AcDbLayerTableRecord
  2
01___PRT_ALL_DTM_PLN
 70
0
 62
7
  6
CONTINUOUS
370
-3
390
F
  0
LAYER
  5
201
100
AcDbSymbolTableRecord
100
AcDbLayerTableRecord
  2
01___PRT_DEF_DTM_PLN
 70
0
 62
7
  6
CONTINUOUS
370
-3
390
F
  0
LAYER
  5
202
100
AcDbSymbolTableRecord
100
AcDbLayerTableRecord
  2
02_ALL_AXES
 70
0
 62
7
  6
CONTINUOUS
370
-3
390
F
  0
LAYER
  5
203
100
AcDbSymbolTableRecord
100
AcDbLayerTableRecord
  2
02__ASM_ALL_AXES
 70
0
 62
7
  6
CONTINUOUS
370
-3
390
F
  0
LAYER
  5
204
100
AcDbSymbolTableRecord
100
AcDbLayerTableRecord
  2
02___PRT_ALL_AXES
 70
0
 62
7
  6
CONTINUOUS
370
-3
390
F
  0
LAYER
  5
205
100
AcDbSymbolTableRecord
100
AcDbLayerTableRecord
  2
03_ALL_CURVES
 70
0
 62
7
  6
CONTINUOUS
370
-3
390
F
  0
LAYER
  5
206
100
AcDbSymbolTableRecord
100
AcDbLayerTableRecord
  2
03__ASM_ALL_CURVES
 70
0
 62
7
  6
CONTINUOUS
370
-3
390
F
  0
LAYER
  5
207
100
AcDbSymbolTableRecord
100
AcDbLayerTableRecord
  2
03___PRT_ALL_CURVES
 70
0
 62
7
  6
CONTINUOUS
370
-3
390
F
  0
LAYER
  5
208
100
AcDbSymbolTableRecord
100
AcDbLayerTableRecord
  2
04_ALL_DTM_PNT
 70
0
 62
7
  6
CONTINUOUS
370
-3
390
F
  0
LAYER
  5
209
100
AcDbSymbolTableRecord
100
AcDbLayerTableRecord
  2
04__ASM_ALL_DTM_PNT
 70
0
 62
7
  6
CONTINUOUS
370
-3
390
F
  0
LAYER
  5
20A
100
AcDbSymbolTableRecord
100
AcDbLayerTableRecord
  2
04___PRT_ALL_DTM_PNT
 70
0
 62
7
  6
CONTINUOUS
370
-3
390
F
  0
LAYER
  5
20B
100
AcDbSymbolTableRecord
100
AcDbLayerTableRecord
  2
05_ALL_DTM_CSYS
 70
0
 62
7
  6
CONTINUOUS
370
-3
390
F
  0
LAYER
  5
20C
100
AcDbSymbolTableRecord
100
AcDbLayerTableRecord
  2
05__ASM_ALL_DTM_CSYS
 70
0
 62
7
  6
CONTINUOUS
370
-3
390
F
  0
LAYER
  5
20D
100
AcDbSymbolTableRecord
100
AcDbLayerTableRecord
  2
05__ASM_DEF_DTM_CSYS
 70
0
 62
7
  6
CONTINUOUS
370
-3
390
F
  0
LAYER
  5
20E
100
AcDbSymbolTableRecord
100
AcDbLayerTableRecord
  2
05___PRT_ALL_DTM_CSYS
 70
0
 62
7
  6
CONTINUOUS
370
-3
390
F
  0
LAYER
  5
20F
100
AcDbSymbolTableRecord
100
AcDbLayerTableRecord
  2
05___PRT_DEF_DTM_CSYS
 70
0
 62
7
  6
CONTINUOUS
370
-3
390
F
  0
LAYER
  5
210
100
AcDbSymbolTableRecord
100
AcDbLayerTableRecord
  2
06_ALL_SURFS
 70
0
 62
7
  6
CONTINUOUS
370
-3
390
F
  0
LAYER
  5
211
100
AcDbSymbolTableRecord
100
AcDbLayerTableRecord
  2
06__ASM_ALL_SURFS
 70
0
 62
7
  6
CONTINUOUS
370
-3
390
F
  0
LAYER
  5
212
100
AcDbSymbolTableRecord
100
AcDbLayerTableRecord
  2
06___PRT_ALL_SURFS
 70
0
 62
7
  6
CONTINUOUS
370
-3
390
F
  0
LAYER
  5
213
100
AcDbSymbolTableRecord
100
AcDbLayerTableRecord
  2
07__ASM_ALL_SKELETONS
 70
0
 62
7
  6
CONTINUOUS
370
-3
390
F
  0
ENDTAB
  0
TABLE
  2
STYLE
  5
3
100
AcDbSymbolTable
 70
1
  0
STYLE
  5
11
100
AcDbSymbolTableRecord
100
AcDbTextStyleTableRecord
  2
STANDARD
 70
0
 40
0.0
 41
0.8
 50
0.0
 71
0
 42
0.2
  3
txt
  4

  0
STYLE
  5
214
100
AcDbSymbolTableRecord
100
AcDbTextStyleTableRecord
  2
TEXTSTYLE_1
 70
0
 40
0.0
 41
0.8
 50
0.0
 71
0
 42
0.2
  3
gdt
  4

  0
ENDTAB
  0
TABLE
  2
VIEW
  5
6
100
AcDbSymbolTable
 70
0
  0
ENDTAB
  0
TABLE
  2
UCS
  5
7
100
AcDbSymbolTable
 70
0
  0
ENDTAB
  0
TABLE
  2
APPID
  5
9
100
AcDbSymbolTable
 70
1
  0
APPID
  5
215
100
AcDbSymbolTableRecord
100
AcDbRegAppTableRecord
  2
ACAD
 70
0
  0
ENDTAB
  0
TABLE
  2
BLOCK_RECORD
  5
1
100
AcDbSymbolTable
 70
0
  0
BLOCK_RECORD
  5
216
100
AcDbSymbolTableRecord
100
AcDbBlockTableRecord
  2
*Model_Space
  0
BLOCK_RECORD
  5
217
100
AcDbSymbolTableRecord
100
AcDbBlockTableRecord
  2
*Paper_Space
  0
BLOCK_RECORD
  5
218
100
AcDbSymbolTableRecord
100
AcDbBlockTableRecord
  2
_FILLED
  0
BLOCK_RECORD
  5
219
100
AcDbSymbolTableRecord
100
AcDbBlockTableRecord
  2
*D0
  0
BLOCK_RECORD
  5
21A
100
AcDbSymbolTableRecord
100
AcDbBlockTableRecord
  2
*D1
  0
BLOCK_RECORD
  5
21B
100
AcDbSymbolTableRecord
100
AcDbBlockTableRecord
  2
*D2
  0
ENDTAB
  0
TABLE
  2
DIMSTYLE
  5
A
100
AcDbSymbolTable
 70
1
100
AcDbDimStyleTable
 71
0
  0
DIMSTYLE
105
21C
100
AcDbSymbolTableRecord
100
AcDbDimStyleTableRecord
  2
STANDARD
 70
0
  3

  4

 40
1.0
 41
3.0
 42
0.5
 43
0.38
 44
0.5
 45
0.0
 46
0.0
 47
0.001
 48
0.001
140
1.8
141
0.09
142
0.0
143
25.4
144
1.0
145
0.0
146
1.0
147
0.625
 71
1.0
 72
0.0
 73
0
 74
0
 75
0
 76
0
 77
1
 78
8
170
0
171
2
172
0
173
0
174
0
175
0
176
0
177
0
178
0
270
2
271
3
272
3
273
2
274
2
275
0
280
0
281
0
282
0
283
1
284
8
285
0
286
0
287
3
288
0
340
11
278
46
341
218
342
218
343
218
344
218
  0
DIMSTYLE
105
21D
100
AcDbSymbolTableRecord
100
AcDbDimStyleTableRecord
  2
DIMSTYLE_1
 70
0
  3

  4

 40
1.0
 41
3.0
 42
0.5
 43
0.38
 44
0.5
 45
0.0
 46
0.0
 47
0.001
 48
0.001
140
10.0
141
0.09
142
0.0
143
25.4
144
1.0
145
0.0
146
1.0
147
2.5
 71
0.0
 72
0.0
 73
0
 74
0
 75
0
 76
0
 77
1
 78
8
170
0
171
2
172
0
173
0
174
0
175
0
176
0
177
0
178
0
270
2
271
3
272
3
273
2
274
2
275
0
280
0
281
0
282
0
283
1
284
8
285
0
286
0
287
3
288
0
340
11
278
46
341
218
342
218
343
218
344
218
  0
ENDTAB
  0
ENDSEC
  0
SECTION
  2
BLOCKS
  0
BLOCK
  5
20
100
AcDbEntity
  8
0
100
AcDbBlockBegin
  2
*Model_Space
 70
0
 10
0.0
 20
0.0
 30
0.0
  3
*Model_Space
  1

  0
ENDBLK
  5
21
100
AcDbEntity
  8
0
100
AcDbBlockEnd
  0
BLOCK
  5
1C
100
AcDbEntity
  8
0
100
AcDbBlockBegin
  2
*Paper_Space
 70
0
 10
0.0
 20
0.0
 30
0.0
  3
*Paper_Space
  1

  0
ENDBLK
  5
1D
100
AcDbEntity
  8
0
100
AcDbBlockEnd
  0
BLOCK
  5
21E
100
AcDbEntity
  8
0
100
AcDbBlockBegin
  2
_FILLED
 70
64
 10
0.0
 20
0.0
  3
_FILLED
  1

  0
SOLID
  5
21F
100
AcDbEntity
  8
0
  6
BYBLOCK
 62
0
100
AcDbTrace
 10
0.0
 20
0.0
 11
-1.0
 21
0.1666666667
 12
-1.0
 22
-0.1666666667
 13
-1.0
 23
-0.1666666667
  0
ENDBLK
  5
220
100
AcDbEntity
  8
0
  6
BYBLOCK
 62
0
100
AcDbBlockEnd
  0
BLOCK
  5
221
100
AcDbEntity
  8
0
100
AcDbBlockBegin
 62
2
  6
CONTINUOUS
  2
*D0
 70
65
 10
0.0
 20
0.0
  3
*D0
  1

  0
MTEXT
  5
222
100
AcDbEntity
  8
0
100
AcDbMText
 62
2
  6
CONTINUOUS
  7
STANDARD
 71
2
 72
1
 10
431.4699497678
 20
976.742177152
 30
0.0
 11
1.0
 21
0.0
 31
0.0
 44
0.9
  1
595
 40
10.0
 41
46.2857142857
  0
LINE
  5
223
100
AcDbEntity
  8
0
100
AcDbLine
 62
2
  6
CONTINUOUS
 10
729.2141354393
 20
908.5893290555
 11
729.2141354393
 21
962.9564628663
  0
LINE
  5
224
100
AcDbEntity
  8
0
100
AcDbLine
 62
2
  6
CONTINUOUS
 10
132.7141354393
 20
908.5893290555
 11
132.7141354393
 21
962.9564628663
  0
LINE
  5
225
100
AcDbEntity
  8
0
100
AcDbLine
 62
2
  6
CONTINUOUS
 10
729.2141354393
 20
962.4564628663
 11
430.9641354393
 21
962.4564628663
  0
LINE
  5
226
100
AcDbEntity
  8
0
100
AcDbLine
 62
2
  6
CONTINUOUS
 10
132.7141354393
 20
962.4564628663
 11
430.9641354393
 21
962.4564628663
  0
INSERT
  5
227
100
AcDbEntity
  8
0
100
AcDbBlockReference
 62
2
  6
CONTINUOUS
  2
_FILLED
 10
729.2141354393
 20
962.4564628663
 41
3.0
 42
3.0
 43
3.0
  0
INSERT
  5
228
100
AcDbEntity
  8
0
100
AcDbBlockReference
 62
2
  6
CONTINUOUS
  2
_FILLED
 10
132.7141354393
 20
962.4564628663
 41
3.0
 42
3.0
 43
3.0
 50
180.0
  0
ENDBLK
  5
229
100
AcDbEntity
  8
0
  6
BYBLOCK
 62
0
100
AcDbBlockEnd
  0
BLOCK
  5
22A
100
AcDbEntity
  8
0
100
AcDbBlockBegin
 62
2
  6
CONTINUOUS
  2
*D1
 70
65
 10
0.0
 20
0.0
  3
*D1
  1

  0
MTEXT
  5
22B
100
AcDbEntity
  8
0
100
AcDbMText
 62
2
  6
CONTINUOUS
  7
STANDARD
 71
2
 72
1
 10
71.6796404754
 20
615.9643290555
 30
0.0
 11
0.0
 21
1.0
 31
0.0
 44
0.9
  1
590
 40
10.0
 41
46.2857142857
  0
LINE
  5
22C
100
AcDbEntity
  8
0
100
AcDbLine
 62
2
  6
CONTINUOUS
 10
132.4641354393
 20
320.8393290555
 11
85.4653547611
 21
320.8393290555
  0
LINE
  5
22D
100
AcDbEntity
  8
0
100
AcDbLine
 62
2
  6
CONTINUOUS
 10
135.2141354393
 20
911.0893290555
 11
85.4653547611
 21
911.0893290555
  0
LINE
  5
22E
100
AcDbEntity
  8
0
100
AcDbLine
 62
2
  6
CONTINUOUS
 10
85.9653547611
 20
320.8393290555
 11
85.9653547611
 21
615.9643290555
  0
LINE
  5
22F
100
AcDbEntity
  8
0
100
AcDbLine
 62
2
  6
CONTINUOUS
 10
85.9653547611
 20
911.0893290555
 11
85.9653547611
 21
615.9643290555
  0
INSERT
  5
230
100
AcDbEntity
  8
0
100
AcDbBlockReference
 62
2
  6
CONTINUOUS
  2
_FILLED
 10
85.9653547611
 20
320.8393290555
 41
3.0
 42
3.0
 43
3.0
 50
270.0
  0
INSERT
  5
231
100
AcDbEntity
  8
0
100
AcDbBlockReference
 62
2
  6
CONTINUOUS
  2
_FILLED
 10
85.9653547611
 20
911.0893290555
 41
3.0
 42
3.0
 43
3.0
 50
90.0
  0
ENDBLK
  5
232
100
AcDbEntity
  8
0
  6
BYBLOCK
 62
0
100
AcDbBlockEnd
  0
BLOCK
  5
233
100
AcDbEntity
  8
0
100
AcDbBlockBegin
 62
2
  6
CONTINUOUS
  2
*D2
 70
65
 10
0.0
 20
0.0
  3
*D2
  1

  0
MTEXT
  5
234
100
AcDbEntity
  8
0
100
AcDbMText
 62
2
  6
CONTINUOUS
  7
STANDARD
 71
2
 72
1
 10
1112.2595308138
 20
977.3713818783
 30
0.0
 11
1.0
 21
0.0
 31
0.0
 44
0.9
  1
507
 40
10.0
 41
46.2857142857
  0
LINE
  5
235
100
AcDbEntity
  8
0
100
AcDbLine
 62
2
  6
CONTINUOUS
 10
857.6345308138
 20
740.7963387674
 11
857.6345308138
 21
963.5856675926
  0
LINE
  5
236
100
AcDbEntity
  8
0
100
AcDbLine
 62
2
  6
CONTINUOUS
 10
1366.8845308138
 20
908.5893290555
 11
1366.8845308138
 21
963.5856675926
  0
LINE
  5
237
100
AcDbEntity
  8
0
100
AcDbLine
 62
2
  6
CONTINUOUS
 10
857.6345308138
 20
963.0856675926
 11
1112.2595308138
 21
963.0856675926
  0
LINE
  5
238
100
AcDbEntity
  8
0
100
AcDbLine
 62
2
  6
CONTINUOUS
 10
1366.8845308138
 20
963.0856675926
 11
1112.2595308138
 21
963.0856675926
  0
INSERT
  5
239
100
AcDbEntity
  8
0
100
AcDbBlockReference
 62
2
  6
CONTINUOUS
  2
_FILLED
 10
857.6345308138
 20
963.0856675926
 41
3.0
 42
3.0
 43
3.0
 50
180.0
  0
INSERT
  5
23A
100
AcDbEntity
  8
0
100
AcDbBlockReference
 62
2
  6
CONTINUOUS
  2
_FILLED
 10
1366.8845308138
 20
963.0856675926
 41
3.0
 42
3.0
 43
3.0
  0
ENDBLK
  5
23B
100
AcDbEntity
  8
0
  6
BYBLOCK
 62
0
100
AcDbBlockEnd
  0
ENDSEC
  0
SECTION
  2
ENTITIES
  0
DIMENSION
  5
23C
100
AcDbEntity
  8
0
100
AcDbDimension
 62
2
  6
CONTINUOUS
  2
*D0
 10
132.7141354393
 20
962.4564628663
 11
431.4699497678
 21
962.4564628663
 70
160
 71
2
 42
596.5
  3
DIMSTYLE_1
100
AcDbAlignedDimension
 13
729.2141354393
 23
908.0893290555
 14
132.7141354393
 24
908.0893290555
 50
180.0
100
AcDbRotatedDimension
  0
DIMENSION
  5
23D
100
AcDbEntity
  8
0
100
AcDbDimension
 62
2
  6
CONTINUOUS
  2
*D1
 10
85.9653547611
 20
911.0893290555
 11
85.9653547611
 21
615.9643290555
 70
160
 71
2
 42
590.25
  3
DIMSTYLE_1
100
AcDbAlignedDimension
 13
132.9641354393
 23
320.8393290555
 14
135.7141354393
 24
911.0893290555
 50
90.0
100
AcDbRotatedDimension
  0
DIMENSION
  5
23E
100
AcDbEntity
  8
0
100
AcDbDimension
 62
2
  6
CONTINUOUS
  2
*D2
 10
1366.8845308138
 20
963.0856675926
 11
1112.2595308138
 21
963.0856675926
 70
160
 71
2
 42
509.25
  3
DIMSTYLE_1
100
AcDbAlignedDimension
 13
857.6345308138
 23
740.2963387674
 14
1366.8845308138
 24
908.0893290555
100
AcDbRotatedDimension
  0
LINE
  5
23F
100
AcDbEntity
  8
0
100
AcDbLine
 62
7
  6
CONTINUOUS
 10
132.7141354393
 20
338.8393290555
 11
132.7141354393
 21
355.8393290555
  0
LINE
  5
240
100
AcDbEntity
  8
0
100
AcDbLine
 62
7
  6
CONTINUOUS
 10
132.7141354393
 20
791.8393290555
 11
132.7141354393
 21
807.8393290555
  0
LINE
  5
241
100
AcDbEntity
  8
0
100
AcDbLine
 62
7
  6
CONTINUOUS
 10
132.7141354393
 20
891.8393290555
 11
132.7141354393
 21
908.0893290555
  0
LINE
  5
242
100
AcDbEntity
  8
0
100
AcDbLine
 62
7
  6
CONTINUOUS
 10
132.9641354393
 20
891.8393290555
 11
132.9641354393
 21
807.8393290555
  0
LINE
  5
243
100
AcDbEntity
  8
0
100
AcDbLine
 62
7
  6
CONTINUOUS
 10
132.9641354393
 20
320.8393290555
 11
132.9641354393
 21
337.6507957901
  0
LINE
  5
244
100
AcDbEntity
  8
0
100
AcDbLine
 62
7
  6
CONTINUOUS
 10
132.9641354393
 20
355.8393290555
 11
132.9641354393
 21
790.6510664669
  0
LINE
  5
245
100
AcDbEntity
  8
0
100
AcDbLine
 62
7
  6
CONTINUOUS
 10
133.7141354393
 20
338.8393290555
 11
133.7141354393
 21
355.8393290555
  0
LINE
  5
246
100
AcDbEntity
  8
0
100
AcDbLine
 62
7
  6
CONTINUOUS
 10
133.7141354393
 20
891.8393290555
 11
133.7141354393
 21
908.0893290555
  0
LINE
  5
247
100
AcDbEntity
  8
0
100
AcDbLine
 62
7
  6
CONTINUOUS
 10
133.9641354393
 20
776.8393290555
 11
133.9641354393
 21
355.8393290555
  0
LINE
  5
248
100
AcDbEntity
  8
0
100
AcDbLine
 62
7
  6
CONTINUOUS
 10
135.7141354393
 20
911.0893290555
 11
135.7141354393
 21
910.0893290555
  0
LINE
  5
249
100
AcDbEntity
  8
0
100
AcDbLine
 62
7
  6
CONTINUOUS
 10
135.7141354393
 20
335.8393290555
 11
135.7141354393
 21
336.8393290555
  0
LINE
  5
24A
100
AcDbEntity
  8
0
100
AcDbLine
 62
7
  6
CONTINUOUS
 10
135.9641354393
 20
778.8393290555
 11
135.9641354393
 21
779.8393290555
  0
LINE
  5
24B
100
AcDbEntity
  8
0
100
AcDbLine
 62
7
  6
CONTINUOUS
 10
173.4641354393
 20
319.8393290555
 11
688.4641354393
 21
319.8393290555
  0
LINE
  5
24C
100
AcDbEntity
  8
0
100
AcDbLine
 62
7
  6
CONTINUOUS
 10
132.9641354393
 20
320.8393290555
 11
727.9641354393
 21
320.8393290555
  0
LINE
  5
24D
100
AcDbEntity
  8
0
100
AcDbLine
 62
7
  6
CONTINUOUS
 10
132.9641354393
 20
321.8393290555
 11
728.9641354393
 21
321.8393290555
  0
LINE
  5
24E
100
AcDbEntity
  8
0
100
AcDbLine
 62
7
  6
CONTINUOUS
 10
726.2141354393
 20
335.8393290555
 11
135.7141354393
 21
335.8393290555
  0
LINE
  5
24F
100
AcDbEntity
  8
0
100
AcDbLine
 62
7
  6
CONTINUOUS
 10
726.2141354393
 20
336.8393290555
 11
135.7141354393
 21
336.8393290555
  0
LINE
  5
250
100
AcDbEntity
  8
0
100
AcDbLine
 62
7
  6
CONTINUOUS
 10
729.2141354393
 20
338.8393290555
 11
728.2141354393
 21
338.8393290555
  0
LINE
  5
251
100
AcDbEntity
  8
0
100
AcDbLine
 62
7
  6
CONTINUOUS
 10
132.7141354393
 20
338.8393290555
 11
133.7141354393
 21
338.8393290555
  0
LINE
  5
252
100
AcDbEntity
  8
0
100
AcDbLine
 62
7
  6
CONTINUOUS
 10
172.9641354393
 20
719.3393290555
 11
172.9641354393
 21
746.3393290555
  0
LINE
  5
253
100
AcDbEntity
  8
0
100
AcDbLine
 62
7
  6
CONTINUOUS
 10
173.4641354393
 20
319.8393290555
 11
173.4641354393
 21
320.8393290555
  0
LINE
  5
254
100
AcDbEntity
  8
0
100
AcDbLine
 62
7
  6
CONTINUOUS
 10
177.4641354393
 20
319.8393290555
 11
177.4641354393
 21
320.8393290555
  0
LINE
  5
255
100
AcDbEntity
  8
0
100
AcDbLine
 62
7
  6
CONTINUOUS
 10
132.7141354393
 20
355.8393290555
 11
729.2141354393
 21
355.8393290555
  0
LINE
  5
256
100
AcDbEntity
  8
0
100
AcDbLine
 62
7
  6
CONTINUOUS
 10
683.966309343
 20
717.8393290555
 11
177.9619615356
 21
717.8393290555
  0
LINE
  5
257
100
AcDbEntity
  8
0
100
AcDbLine
 62
7
  6
CONTINUOUS
 10
172.9641354393
 20
719.3393290555
 11
688.9641354393
 21
719.3393290555
  0
LINE
  5
258
100
AcDbEntity
  8
0
100
AcDbLine
 62
7
  6
CONTINUOUS
 10
688.9641354393
 20
746.3393290555
 11
172.9641354393
 21
746.3393290555
  0
LINE
  5
259
100
AcDbEntity
  8
0
100
AcDbLine
 62
7
  6
CONTINUOUS
 10
177.9619615356
 20
747.8393290555
 11
683.966309343
 21
747.8393290555
  0
LINE
  5
25A
100
AcDbEntity
  8
0
100
AcDbLine
 62
7
  6
CONTINUOUS
 10
133.9641354393
 20
776.8393290555
 11
132.9641354393
 21
776.8393290555
  0
LINE
  5
25B
100
AcDbEntity
  8
0
100
AcDbLine
 62
7
  6
CONTINUOUS
 10
727.9641354393
 20
776.8393290555
 11
728.9641354393
 21
776.8393290556
  0
LINE
  5
25C
100
AcDbEntity
  8
0
100
AcDbLine
 62
7
  6
CONTINUOUS
 10
725.9641354393
 20
778.8393290555
 11
135.9641354393
 21
778.8393290555
  0
LINE
  5
25D
100
AcDbEntity
  8
0
100
AcDbLine
 62
7
  6
CONTINUOUS
 10
725.9641354393
 20
779.8393290555
 11
135.9641354393
 21
779.8393290555
  0
LINE
  5
25E
100
AcDbEntity
  8
0
100
AcDbLine
 62
7
  6
CONTINUOUS
 10
135.7141354393
 20
788.8393290555
 11
726.2141354393
 21
788.8393290555
  0
LINE
  5
25F
100
AcDbEntity
  8
0
100
AcDbLine
 62
7
  6
CONTINUOUS
 10
729.2141354393
 20
807.8393290555
 11
132.7141354393
 21
807.8393290555
  0
LINE
  5
260
100
AcDbEntity
  8
0
100
AcDbLine
 62
7
  6
CONTINUOUS
 10
684.4641354393
 20
320.8393290555
 11
684.4641354393
 21
319.8393290555
  0
LINE
  5
261
100
AcDbEntity
  8
0
100
AcDbLine
 62
7
  6
CONTINUOUS
 10
688.4641354393
 20
320.8393290555
 11
688.4641354393
 21
319.8393290555
  0
LINE
  5
262
100
AcDbEntity
  8
0
100
AcDbLine
 62
7
  6
CONTINUOUS
 10
688.9641354393
 20
719.3393290555
 11
688.9641354393
 21
746.3393290555
  0
LINE
  5
263
100
AcDbEntity
  8
0
100
AcDbLine
 62
7
  6
CONTINUOUS
 10
729.2141354393
 20
891.8393290555
 11
728.9641354393
 21
891.8393290555
  0
LINE
  5
264
100
AcDbEntity
  8
0
100
AcDbLine
 62
7
  6
CONTINUOUS
 10
133.0039316133
 20
891.8393290555
 11
132.7141354393
 21
891.8393290555
  0
LINE
  5
265
100
AcDbEntity
  8
0
100
AcDbLine
 62
7
  6
CONTINUOUS
 10
133.0526976115
 20
891.8393290555
 11
728.952892523
 21
891.8393290555
  0
LINE
  5
266
100
AcDbEntity
  8
0
100
AcDbLine
 62
7
  6
CONTINUOUS
 10
725.9641354393
 20
778.8393290555
 11
725.9641354393
 21
779.8393290555
  0
LINE
  5
267
100
AcDbEntity
  8
0
100
AcDbLine
 62
7
  6
CONTINUOUS
 10
726.2141354393
 20
911.0893290555
 11
726.2141354393
 21
910.0893290555
  0
LINE
  5
268
100
AcDbEntity
  8
0
100
AcDbLine
 62
7
  6
CONTINUOUS
 10
726.2141354393
 20
335.8393290555
 11
726.2141354393
 21
336.8393290555
  0
LINE
  5
269
100
AcDbEntity
  8
0
100
AcDbLine
 62
7
  6
CONTINUOUS
 10
727.9641354393
 20
320.8393290555
 11
727.9641354393
 21
336.4132730058
  0
LINE
  5
26A
100
AcDbEntity
  8
0
100
AcDbLine
 62
7
  6
CONTINUOUS
 10
727.9641354393
 20
355.8393290555
 11
727.9641354393
 21
776.8393290555
  0
LINE
  5
26B
100
AcDbEntity
  8
0
100
AcDbLine
 62
7
  6
CONTINUOUS
 10
727.9641354393
 20
779.0602144319
 11
727.9641354393
 21
789.4150063617
  0
LINE
  5
26C
100
AcDbEntity
  8
0
100
AcDbLine
 62
7
  6
CONTINUOUS
 10
728.2141354393
 20
908.0893290555
 11
728.2141354393
 21
891.8393290555
  0
LINE
  5
26D
100
AcDbEntity
  8
0
100
AcDbLine
 62
7
  6
CONTINUOUS
 10
728.2141354393
 20
355.8393290555
 11
728.2141354393
 21
338.8393290555
  0
LINE
  5
26E
100
AcDbEntity
  8
0
100
AcDbLine
 62
7
  6
CONTINUOUS
 10
728.9641354393
 20
321.8393290555
 11
728.9641354393
 21
337.6507971024
  0
LINE
  5
26F
100
AcDbEntity
  8
0
100
AcDbLine
 62
7
  6
CONTINUOUS
 10
728.9641354393
 20
355.8393290555
 11
728.9641354393
 21
790.6510664669
  0
LINE
  5
270
100
AcDbEntity
  8
0
100
AcDbLine
 62
7
  6
CONTINUOUS
 10
728.9641354393
 20
807.8393290555
 11
728.9641354393
 21
891.8393290555
  0
LINE
  5
271
100
AcDbEntity
  8
0
100
AcDbLine
 62
7
  6
CONTINUOUS
 10
729.2141354393
 20
908.0893290555
 11
729.2141354393
 21
891.8393290555
  0
LINE
  5
272
100
AcDbEntity
  8
0
100
AcDbLine
 62
7
  6
CONTINUOUS
 10
729.2141354393
 20
807.8393290555
 11
729.2141354393
 21
791.8393290555
  0
LINE
  5
273
100
AcDbEntity
  8
0
100
AcDbLine
 62
7
  6
CONTINUOUS
 10
729.2141354393
 20
355.8393290555
 11
729.2141354393
 21
338.8393290555
  0
LINE
  5
274
100
AcDbEntity
  8
0
100
AcDbLine
 62
7
  6
CONTINUOUS
 10
729.2141354393
 20
908.0893290555
 11
728.2141354393
 21
908.0893290555
  0
LINE
  5
275
100
AcDbEntity
  8
0
100
AcDbLine
 62
7
  6
CONTINUOUS
 10
132.7141354393
 20
908.0893290555
 11
133.7141354393
 21
908.0893290555
  0
LINE
  5
276
100
AcDbEntity
  8
0
100
AcDbLine
 62
7
  6
CONTINUOUS
 10
135.7141354393
 20
910.0893290555
 11
726.2141354393
 21
910.0893290555
  0
LINE
  5
277
100
AcDbEntity
  8
0
100
AcDbLine
 62
7
  6
CONTINUOUS
 10
135.7141354393
 20
911.0893290555
 11
726.2141354393
 21
911.0893290555
  0
LINE
  5
278
100
AcDbEntity
  8
0
100
AcDbLine
 62
7
  6
CONTINUOUS
 10
879.0838850339
 20
331.2139943678
 11
859.2667719945
 21
354.889306406
  0
LINE
  5
279
100
AcDbEntity
  8
0
100
AcDbLine
 62
7
  6
CONTINUOUS
 10
879.0838850339
 20
335.7070073054
 11
859.2667719945
 21
359.3823193437
  0
LINE
  5
27A
100
AcDbEntity
  8
0
100
AcDbLine
 62
7
  6
CONTINUOUS
 10
879.0838850339
 20
768.4646637433
 11
859.2667719945
 21
744.789351705
  0
LINE
  5
27B
100
AcDbEntity
  8
0
100
AcDbLine
 62
7
  6
CONTINUOUS
 10
880.6345308138
 20
319.8393290555
 11
1318.6345308138
 21
319.8393290555
  0
LINE
  5
27C
100
AcDbEntity
  8
0
100
AcDbLine
 62
7
  6
CONTINUOUS
 10
1347.6345308138
 20
320.8393290555
 11
1351.6345308138
 21
320.8393290555
  0
LINE
  5
27D
100
AcDbEntity
  8
0
100
AcDbLine
 62
7
  6
CONTINUOUS
 10
857.6345308138
 20
359.3823193437
 11
857.6345308138
 21
740.2963387674
  0
LINE
  5
27E
100
AcDbEntity
  8
0
100
AcDbLine
 62
7
  6
CONTINUOUS
 10
859.2667719945
 20
359.3823193437
 11
859.2667719945
 21
740.2963387674
  0
LINE
  5
27F
100
AcDbEntity
  8
0
100
AcDbLine
 62
7
  6
CONTINUOUS
 10
879.0838850339
 20
763.9716508056
 11
859.2667719945
 21
740.2963387674
  0
LINE
  5
280
100
AcDbEntity
  8
0
100
AcDbLine
 62
7
  6
CONTINUOUS
 10
1327.1345308138
 20
330.8393290555
 11
1345.6345308138
 21
330.8393290555
  0
LINE
  5
281
100
AcDbEntity
  8
0
100
AcDbLine
 62
7
  6
CONTINUOUS
 10
1362.6345308138
 20
335.8393290555
 11
1365.8845308138
 21
335.8393290555
  0
LINE
  5
282
100
AcDbEntity
  8
0
100
AcDbLine
 62
7
  6
CONTINUOUS
 10
1353.6345308138
 20
337.8393290555
 11
1361.6345308138
 21
337.8393290555
  0
LINE
  5
283
100
AcDbEntity
  8
0
100
AcDbLine
 62
7
  6
CONTINUOUS
 10
1323.1345308138
 20
338.8393290555
 11
1346.6345308138
 21
338.8393290555
  0
LINE
  5
284
100
AcDbEntity
  8
0
100
AcDbLine
 62
7
  6
CONTINUOUS
 10
1362.6345308138
 20
338.8393290555
 11
1366.8845308138
 21
338.8393290555
  0
LINE
  5
285
100
AcDbEntity
  8
0
100
AcDbLine
 62
7
  6
CONTINUOUS
 10
1352.6345308138
 20
340.8393290555
 11
1362.6345308138
 21
340.8393290555
  0
LINE
  5
286
100
AcDbEntity
  8
0
100
AcDbLine
 62
7
  6
CONTINUOUS
 10
879.0838850339
 20
763.9716508056
 11
879.0838850339
 21
335.7070073054
  0
LINE
  5
287
100
AcDbEntity
  8
0
100
AcDbLine
 62
7
  6
CONTINUOUS
 10
880.6345308138
 20
885.8393290555
 11
880.6345308138
 21
319.8393290555
  0
LINE
  5
288
100
AcDbEntity
  8
0
100
AcDbLine
 62
7
  6
CONTINUOUS
 10
884.6345308138
 20
319.8393290555
 11
884.6345308138
 21
889.8393290555
  0
LINE
  5
289
100
AcDbEntity
  8
0
100
AcDbLine
 62
7
  6
CONTINUOUS
 10
1332.1902978663
 20
407.17428114
 11
1332.1898757459
 21
407.1741974623
  0
LINE
  5
28A
100
AcDbEntity
  8
0
100
AcDbLine
 62
7
  6
CONTINUOUS
 10
1362.6345308138
 20
355.8393290555
 11
1366.8845308138
 21
355.8393290555
  0
LINE
  5
28B
100
AcDbEntity
  8
0
100
AcDbLine
 62
7
  6
CONTINUOUS
 10
859.2667719945
 20
359.3823193437
 11
857.6345308138
 21
359.3823193437
  0
LINE
  5
28C
100
AcDbEntity
  8
0
100
AcDbLine
 62
7
  6
CONTINUOUS
 10
1343.0584792255
 20
410.2404362498
 11
1343.0477589082
 21
410.239318087
  0
LWPOLYLINE
  5
28D
100
AcDbEntity
  8
0
100
AcDbPolyline
 62
7
  6
CONTINUOUS
 90
5
 70
0
 10
1332.1750311003
 20
407.1721312258
 10
1332.178591732
 20
407.1724746029
 10
1332.1837105941
 20
407.1731358284
 10
1332.1888025403
 20
407.1739916348
 10
1332.1898757459
 20
407.1741974623
  0
LINE
  5
28E
100
AcDbEntity
  8
0
100
AcDbLine
 62
7
  6
CONTINUOUS
 10
1338.553445026
 20
410.239679977
 11
1338.5473294386
 21
410.2393243881
  0
LINE
  5
28F
100
AcDbEntity
  8
0
100
AcDbLine
 62
7
  6
CONTINUOUS
 10
1335.553453732
 20
410.2396816173
 11
1335.5473312035
 21
410.2393251343
  0
LINE
  5
290
100
AcDbEntity
  8
0
100
AcDbLine
 62
7
  6
CONTINUOUS
 10
1340.0534213568
 20
410.2396807266
 11
1340.0473097502
 21
410.2393260831
  0
LINE
  5
291
100
AcDbEntity
  8
0
100
AcDbLine
 62
7
  6
CONTINUOUS
 10
1334.0534087801
 20
410.2396724955
 11
1334.0473192817
 21
410.2393202592
  0
LINE
  5
292
100
AcDbEntity
  8
0
100
AcDbLine
 62
7
  6
CONTINUOUS
 10
1341.553369487
 20
410.2396752409
 11
1341.5472849355
 21
410.2393245731
  0
LINE
  5
293
100
AcDbEntity
  8
0
100
AcDbLine
 62
7
  6
CONTINUOUS
 10
1337.0533704591
 20
410.239667848
 11
1337.0473056092
 21
410.2393188445
  0
LINE
  5
294
100
AcDbEntity
  8
0
100
AcDbLine
 62
7
  6
CONTINUOUS
 10
1048.8771715009
 20
799.9103968674
 11
1029.2203172514
 21
780.2535426179
  0
LINE
  5
295
100
AcDbEntity
  8
0
100
AcDbLine
 62
7
  6
CONTINUOUS
 10
1053.4629579386
 20
798.8393290555
 11
1032.0487443762
 21
777.4251154931
  0
LINE
  5
296
100
AcDbEntity
  8
0
100
AcDbLine
 62
7
  6
CONTINUOUS
 10
1336.2968519563
 20
407.4393290619
 11
1336.2973171559
 21
407.4393319802
  0
LINE
  5
297
100
AcDbEntity
  8
0
100
AcDbLine
 62
7
  6
CONTINUOUS
 10
1342.2968687708
 20
407.4393290748
 11
1342.2972953888
 21
407.4393317252
  0
LINE
  5
298
100
AcDbEntity
  8
0
100
AcDbLine
 62
7
  6
CONTINUOUS
 10
1339.2968561836
 20
407.4393290645
 11
1339.2973062598
 21
407.4393318511
  0
LINE
  5
299
100
AcDbEntity
  8
0
100
AcDbLine
 62
7
  6
CONTINUOUS
 10
1334.7968290006
 20
407.4393290555
 11
1334.7973147037
 21
407.4393319509
  0
LINE
  5
29A
100
AcDbEntity
  8
0
100
AcDbLine
 62
7
  6
CONTINUOUS
 10
1343.7968198418
 20
407.4393290566
 11
1343.7973146452
 21
407.4393319503
  0
LINE
  5
29B
100
AcDbEntity
  8
0
100
AcDbLine
 62
7
  6
CONTINUOUS
 10
1340.7968223228
 20
407.4393290561
 11
1340.797297085
 21
407.4393317446
  0
LINE
  5
29C
100
AcDbEntity
  8
02___PRT_ALL_AXES
100
AcDbLine
 62
7
  6
CONTINUOUS
 10
1346.6345308138
 20
404.3393290555
 11
1344.3345308138
 21
404.3393290555
  0
LINE
  5
29D
100
AcDbEntity
  8
02___PRT_ALL_AXES
100
AcDbLine
 62
7
  6
CONTINUOUS
 10
1343.7968291638
 20
407.4393290555
 11
1342.9330898183
 21
407.4393290555
  0
LINE
  5
29E
100
AcDbEntity
  8
02___PRT_ALL_AXES
100
AcDbLine
 62
7
  6
CONTINUOUS
 10
1342.2968291721
 20
407.4393290555
 11
1341.4330898191
 21
407.4393290555
  0
LINE
  5
29F
100
AcDbEntity
  8
02___PRT_ALL_AXES
100
AcDbLine
 62
7
  6
CONTINUOUS
 10
1340.7968291739
 20
407.4393290555
 11
1339.9330898177
 21
407.4393290555
  0
LINE
  5
2A0
100
AcDbEntity
  8
02___PRT_ALL_AXES
100
AcDbLine
 62
7
  6
CONTINUOUS
 10
1339.2968291723
 20
407.4393290555
 11
1338.4330898207
 21
407.4393290555
  0
LINE
  5
2A1
100
AcDbEntity
  8
02___PRT_ALL_AXES
100
AcDbLine
 62
7
  6
CONTINUOUS
 10
1337.7968291737
 20
407.4393290555
 11
1336.9330898196
 21
407.4393290555
  0
LINE
  5
2A2
100
AcDbEntity
  8
02___PRT_ALL_AXES
100
AcDbLine
 62
7
  6
CONTINUOUS
 10
1336.2968291753
 20
407.4393290555
 11
1335.433089819
 21
407.4393290555
  0
LINE
  5
2A3
100
AcDbEntity
  8
02___PRT_ALL_AXES
100
AcDbLine
 62
7
  6
CONTINUOUS
 10
1334.7968291733
 20
407.4393290555
 11
1333.9330898188
 21
407.4393290555
  0
LINE
  5
2A4
100
AcDbEntity
  8
02___PRT_ALL_AXES
100
AcDbLine
 62
7
  6
CONTINUOUS
 10
1333.2968291794
 20
407.4393290555
 11
1332.6345308138
 21
407.4393290555
  0
LINE
  5
2A5
100
AcDbEntity
  8
02___PRT_ALL_AXES
100
AcDbLine
 62
7
  6
CONTINUOUS
 10
1344.1345308138
 20
410.2393290555
 11
1343.6830898155
 21
410.2393290555
  0
LINE
  5
2A6
100
AcDbEntity
  8
02___PRT_ALL_AXES
100
AcDbLine
 62
7
  6
CONTINUOUS
 10
1343.0468291736
 20
410.2393290555
 11
1342.1830898223
 21
410.2393290555
  0
LINE
  5
2A7
100
AcDbEntity
  8
02___PRT_ALL_AXES
100
AcDbLine
 62
7
  6
CONTINUOUS
 10
1341.5468291746
 20
410.2393290555
 11
1340.6830898217
 21
410.2393290555
  0
LINE
  5
2A8
100
AcDbEntity
  8
02___PRT_ALL_AXES
100
AcDbLine
 62
7
  6
CONTINUOUS
 10
1340.0468291745
 20
410.2393290555
 11
1339.1830898229
 21
410.2393290555
  0
LINE
  5
2A9
100
AcDbEntity
  8
02___PRT_ALL_AXES
100
AcDbLine
 62
7
  6
CONTINUOUS
 10
1338.5468291727
 20
410.2393290555
 11
1337.6830898213
 21
410.2393290555
  0
LINE
  5
2AA
100
AcDbEntity
  8
02___PRT_ALL_AXES
100
AcDbLine
 62
7
  6
CONTINUOUS
 10
1337.0468291743
 20
410.2393290555
 11
1336.1830898175
 21
410.2393290555
  0
LINE
  5
2AB
100
AcDbEntity
  8
02___PRT_ALL_AXES
100
AcDbLine
 62
7
  6
CONTINUOUS
 10
1335.5468291723
 20
410.2393290555
 11
1334.6830898205
 21
410.2393290555
  0
LINE
  5
2AC
100
AcDbEntity
  8
02___PRT_ALL_AXES
100
AcDbLine
 62
7
  6
CONTINUOUS
 10
1334.0468291727
 20
410.2393290555
 11
1333.1830898199
 21
410.2393290555
  0
LINE
  5
2AD
100
AcDbEntity
  8
02___PRT_ALL_AXES
100
AcDbLine
 62
7
  6
CONTINUOUS
 10
1346.6345308138
 20
413.3393290555
 11
1344.3345308138
 21
413.3393290555
  0
LINE
  5
2AE
100
AcDbEntity
  8
0
100
AcDbLine
 62
7
  6
CONTINUOUS
 10
1337.0468256885
 20
410.2393290554
 11
1337.0472984226
 21
410.2393263511
  0
LINE
  5
2AF
100
AcDbEntity
  8
0
100
AcDbLine
 62
7
  6
CONTINUOUS
 10
1334.046829721
 20
410.2393290555
 11
1334.0473046904
 21
410.2393262783
  0
LINE
  5
2B0
100
AcDbEntity
  8
0
100
AcDbLine
 62
7
  6
CONTINUOUS
 10
1341.5468353356
 20
410.2393290551
 11
1341.5473007799
 21
410.2393263238
  0
LINE
  5
2B1
100
AcDbEntity
  8
0
100
AcDbLine
 62
7
  6
CONTINUOUS
 10
1338.5468303092
 20
410.2393290555
 11
1338.5473134191
 21
410.2393261754
  0
LINE
  5
2B2
100
AcDbEntity
  8
0
100
AcDbLine
 62
7
  6
CONTINUOUS
 10
1340.0468290071
 20
410.2393290555
 11
1340.0473143201
 21
410.2393261647
  0
LINE
  5
2B3
100
AcDbEntity
  8
0
100
AcDbLine
 62
7
  6
CONTINUOUS
 10
1335.5468704926
 20
410.2393290345
 11
1335.5473166445
 21
410.2393261369
  0
LINE
  5
2B4
100
AcDbEntity
  8
0
100
AcDbLine
 62
7
  6
CONTINUOUS
 10
1338.4330904927
 20
407.4393290555
 11
1338.4323892439
 21
407.4393350837
  0
LINE
  5
2B5
100
AcDbEntity
  8
0
100
AcDbLine
 62
7
  6
CONTINUOUS
 10
1343.0467892379
 20
410.2393290359
 11
1343.0477481914
 21
410.2393186821
  0
LINE
  5
2B6
100
AcDbEntity
  8
0
100
AcDbLine
 62
7
  6
CONTINUOUS
 10
1336.9331034998
 20
407.4393290578
 11
1336.9317112799
 21
407.4393523962
  0
LINE
  5
2B7
100
AcDbEntity
  8
0
100
AcDbLine
 62
7
  6
CONTINUOUS
 10
1341.4330965749
 20
407.4393290561
 11
1341.4317128201
 21
407.439352344
  0
LINE
  5
2B8
100
AcDbEntity
  8
0
100
AcDbLine
 62
7
  6
CONTINUOUS
 10
1335.4330830084
 20
407.4393290561
 11
1335.431712858
 21
407.4393523427
  0
LINE
  5
2B9
100
AcDbEntity
  8
0
100
AcDbLine
 62
7
  6
CONTINUOUS
 10
1333.933053074
 20
407.4393290721
 11
1333.9317016502
 21
407.4393527234
  0
LINE
  5
2BA
100
AcDbEntity
  8
0
100
AcDbLine
 62
7
  6
CONTINUOUS
 10
1339.9330405552
 20
407.4393290853
 11
1339.9316953166
 21
407.4393529398
  0
LINE
  5
2BB
100
AcDbEntity
  8
0
100
AcDbLine
 62
7
  6
CONTINUOUS
 10
1342.9330328959
 20
407.4393290953
 11
1342.9317026201
 21
407.4393526903
  0
LWPOLYLINE
  5
2BC
100
AcDbEntity
  8
0
100
AcDbPolyline
 62
7
  6
CONTINUOUS
 90
3
 70
0
 10
1333.2972934058
 20
407.4393372744
 10
1333.3033543693
 20
407.4389891811
 10
1333.3191032028
 20
407.4350871633
  0
LWPOLYLINE
  5
2BD
100
AcDbEntity
  8
0
100
AcDbPolyline
 62
7
  6
CONTINUOUS
 90
3
 70
0
 10
1340.7973014056
 20
407.4393386742
 10
1340.8033671507
 20
407.4389897381
 10
1340.8191048472
 20
407.4350884816
  0
LWPOLYLINE
  5
2BE
100
AcDbEntity
  8
0
100
AcDbPolyline
 62
7
  6
CONTINUOUS
 90
3
 70
0
 10
1342.297297611
 20
407.439339249
 10
1342.3033556959
 20
407.4389912992
 10
1342.3190993124
 20
407.4350905368
  0
LWPOLYLINE
  5
2BF
100
AcDbEntity
  8
0
100
AcDbPolyline
 62
7
  6
CONTINUOUS
 90
3
 70
0
 10
1339.2973227626
 20
407.4393381502
 10
1339.3034175966
 20
407.4389851723
 10
1339.3191169042
 20
407.4350874464
  0
LWPOLYLINE
  5
2C0
100
AcDbEntity
  8
0
100
AcDbPolyline
 62
7
  6
CONTINUOUS
 90
3
 70
0
 10
1334.7973074136
 20
407.4393321419
 10
1334.8034240491
 20
407.4389769918
 10
1334.8191307236
 20
407.4350801845
  0
LWPOLYLINE
  5
2C1
100
AcDbEntity
  8
0
100
AcDbPolyline
 62
7
  6
CONTINUOUS
 90
3
 70
0
 10
1336.297326354
 20
407.439332306
 10
1336.30344849
 20
407.4389759881
 10
1336.3191373621
 20
407.4350790324
  0
LWPOLYLINE
  5
2C2
100
AcDbEntity
  8
0
100
AcDbPolyline
 62
7
  6
CONTINUOUS
 90
3
 70
0
 10
1343.7973135045
 20
407.4393319379
 10
1343.8034280019
 20
407.438976914
 10
1343.819128552
 20
407.4350807288
  0
LWPOLYLINE
  5
2C3
100
AcDbEntity
  8
0
100
AcDbPolyline
 62
7
  6
CONTINUOUS
 90
3
 70
0
 10
1343.68239471
 20
410.2393225615
 10
1343.6746000988
 20
410.2399115328
 10
1343.6644450206
 20
410.2427974138
  0
LWPOLYLINE
  5
2C4
100
AcDbEntity
  8
0
100
AcDbPolyline
 62
7
  6
CONTINUOUS
 90
3
 70
0
 10
1333.1823158607
 20
410.239321702
 10
1333.1733622609
 20
410.240097859
 10
1333.1644403887
 20
410.2428099786
  0
LWPOLYLINE
  5
2C5
100
AcDbEntity
  8
0
100
AcDbPolyline
 62
7
  6
CONTINUOUS
 90
3
 70
0
 10
1337.7976496079
 20
407.4393389079
 10
1337.8069776896
 20
407.4384939676
 10
1337.8220120076
 20
407.433802268
  0
LWPOLYLINE
  5
2C6
100
AcDbEntity
  8
0
100
AcDbPolyline
 62
7
  6
CONTINUOUS
 90
3
 70
0
 10
1334.6816902177
 20
410.2393046213
 10
1334.6665825921
 20
410.2415887552
 10
1334.6645741367
 20
410.2424471621
  0
LWPOLYLINE
  5
2C7
100
AcDbEntity
  8
0
100
AcDbPolyline
 62
7
  6
CONTINUOUS
 90
3
 70
0
 10
1337.6816941837
 20
410.2393048848
 10
1337.6665791973
 20
410.2415910432
 10
1337.6645735916
 20
410.2424486405
  0
LWPOLYLINE
  5
2C8
100
AcDbEntity
  8
0
100
AcDbPolyline
 62
7
  6
CONTINUOUS
 90
3
 70
0
 10
1339.1816993676
 20
410.2393015974
 10
1339.1665657421
 20
410.2415927222
 10
1339.1645747628
 20
410.2424454636
  0
LWPOLYLINE
  5
2C9
100
AcDbEntity
  8
0
100
AcDbPolyline
 62
7
  6
CONTINUOUS
 90
3
 70
0
 10
1342.1816908935
 20
410.2393050826
 10
1342.1664846927
 20
410.2416187042
 10
1342.1645779852
 20
410.2424367221
  0
LWPOLYLINE
  5
2CA
100
AcDbEntity
  8
0
100
AcDbPolyline
 62
7
  6
CONTINUOUS
 90
3
 70
0
 10
1336.1816917077
 20
410.2393051036
 10
1336.1664803058
 20
410.241620384
 10
1336.1645779397
 20
410.2424368456
  0
LWPOLYLINE
  5
2CB
100
AcDbEntity
  8
0
100
AcDbPolyline
 62
7
  6
CONTINUOUS
 90
3
 70
0
 10
1340.6816911967
 20
410.2393049244
 10
1340.6664391363
 20
410.2416323175
 10
1340.6645799513
 20
410.2424313887
  0
LINE
  5
2CC
100
AcDbEntity
  8
0
100
AcDbLine
 62
7
  6
CONTINUOUS
 10
1022.6345308138
 20
772.8393290555
 11
1022.6345308138
 21
862.8393290555
  0
LINE
  5
2CD
100
AcDbEntity
  8
0
100
AcDbLine
 62
7
  6
CONTINUOUS
 10
1174.1492494396
 20
836.5966883684
 11
1193.8061036891
 21
856.2535426179
  0
LINE
  5
2CE
100
AcDbEntity
  8
0
100
AcDbLine
 62
7
  6
CONTINUOUS
 10
1176.6345308138
 20
830.5966883684
 11
1196.8771715009
 21
850.8393290555
  0
LINE
  5
2CF
100
AcDbEntity
  8
02___PRT_ALL_AXES
100
AcDbLine
 62
7
  6
CONTINUOUS
 10
1332.6345308138
 20
407.4393290555
 11
1332.3401315781
 21
407.5570887498
  0
LINE
  5
2D0
100
AcDbEntity
  8
02___PRT_ALL_AXES
100
AcDbLine
 62
7
  6
CONTINUOUS
 10
1331.7559598071
 20
407.7907574582
 11
1330.730490551
 21
408.2009451606
  0
LINE
  5
2D1
100
AcDbEntity
  8
02___PRT_ALL_AXES
100
AcDbLine
 62
7
  6
CONTINUOUS
 10
1330.455297797
 20
408.3110222622
 11
1329.2446361644
 21
408.7952869153
  0
LINE
  5
2D2
100
AcDbEntity
  8
0
100
AcDbLine
 62
7
  6
CONTINUOUS
 10
1028.6345308138
 20
777.6825293678
 11
1028.6345308138
 21
855.5819334581
  0
LINE
  5
2D3
100
AcDbEntity
  8
0
100
AcDbLine
 62
7
  6
CONTINUOUS
 10
1029.2203172514
 20
852.0109019308
 11
1029.2203172514
 21
780.2535426179
  0
LINE
  5
2D4
100
AcDbEntity
  8
0
100
AcDbLine
 62
7
  6
CONTINUOUS
 10
1048.8771715009
 20
799.9103968674
 11
1048.8771715009
 21
832.3540476813
  0
LINE
  5
2D5
100
AcDbEntity
  8
0
100
AcDbLine
 62
7
  6
CONTINUOUS
 10
1053.1198121881
 20
798.853816519
 11
1053.1198121881
 21
836.5966883684
  0
LINE
  5
2D6
100
AcDbEntity
  8
0
100
AcDbLine
 62
7
  6
CONTINUOUS
 10
1334.8191307236
 20
407.4350801845
 11
1334.8244987288
 21
407.4323100866
  0
LINE
  5
2D7
100
AcDbEntity
  8
0
100
AcDbLine
 62
7
  6
CONTINUOUS
 10
1343.819128552
 20
407.4350807288
 11
1343.8245023324
 21
407.4323074666
  0
LINE
  5
2D8
100
AcDbEntity
  8
0
100
AcDbLine
 62
7
  6
CONTINUOUS
 10
1333.3191032028
 20
407.4350871633
 11
1333.3245047384
 21
407.432298655
  0
LINE
  5
2D9
100
AcDbEntity
  8
0
100
AcDbLine
 62
7
  6
CONTINUOUS
 10
1336.3191373621
 20
407.4350790324
 11
1336.3244978881
 21
407.4323116862
  0
LINE
  5
2DA
100
AcDbEntity
  8
0
100
AcDbLine
 62
7
  6
CONTINUOUS
 10
1339.3191169042
 20
407.4350874464
 11
1339.3245030857
 21
407.4323060306
  0
LINE
  5
2DB
100
AcDbEntity
  8
0
100
AcDbLine
 62
7
  6
CONTINUOUS
 10
1342.3190993124
 20
407.4350905368
 11
1342.3245071574
 21
407.4322982688
  0
LINE
  5
2DC
100
AcDbEntity
  8
0
100
AcDbLine
 62
7
  6
CONTINUOUS
 10
1340.8191048472
 20
407.4350884816
 11
1340.8245069534
 21
407.4322986577
  0
LINE
  5
2DD
100
AcDbEntity
  8
0
100
AcDbLine
 62
7
  6
CONTINUOUS
 10
1337.8220120076
 20
407.433802268
 11
1337.824399325
 21
407.4325038276
  0
LINE
  5
2DE
100
AcDbEntity
  8
0
100
AcDbLine
 62
7
  6
CONTINUOUS
 10
1332.1902978663
 20
737.17428114
 11
1332.2131849982
 21
737.1809526573
  0
LWPOLYLINE
  5
2DF
100
AcDbEntity
  8
0
100
AcDbPolyline
 62
7
  6
CONTINUOUS
 90
3
 70
0
 10
1338.4088462568
 20
737.4342449157
 10
1338.4243850971
 20
737.4387142447
 10
1338.4323909022
 20
737.4393350922
  0
LWPOLYLINE
  5
2E0
100
AcDbEntity
  8
0
100
AcDbPolyline
 62
7
  6
CONTINUOUS
 90
3
 70
0
 10
1339.9039312117
 20
737.4316378375
 10
1339.916331306
 20
737.4369919309
 10
1339.9317107672
 20
737.4393591388
  0
LWPOLYLINE
  5
2E1
100
AcDbEntity
  8
0
100
AcDbPolyline
 62
7
  6
CONTINUOUS
 90
3
 70
0
 10
1333.9039591634
 20
737.4316542473
 10
1333.9163983092
 20
737.4370121161
 10
1333.9317130529
 20
737.4393595451
  0
LWPOLYLINE
  5
2E2
100
AcDbEntity
  8
0
100
AcDbPolyline
 62
7
  6
CONTINUOUS
 90
3
 70
0
 10
1342.9039640604
 20
737.4316571892
 10
1342.9164104002
 20
737.4370157722
 10
1342.9317138964
 20
737.4393597686
  0
LWPOLYLINE
  5
2E3
100
AcDbEntity
  8
0
100
AcDbPolyline
 62
7
  6
CONTINUOUS
 90
3
 70
0
 10
1335.4039799593
 20
737.4316651375
 10
1335.4164688977
 20
737.4370376218
 10
1335.4317024014
 20
737.4393595494
  0
LWPOLYLINE
  5
2E4
100
AcDbEntity
  8
0
100
AcDbPolyline
 62
7
  6
CONTINUOUS
 90
3
 70
0
 10
1341.4039817533
 20
737.4316661285
 10
1341.4164723106
 20
737.4370383529
 10
1341.4317033618
 20
737.4393596126
  0
LWPOLYLINE
  5
2E5
100
AcDbEntity
  8
0
100
AcDbPolyline
 62
7
  6
CONTINUOUS
 90
3
 70
0
 10
1336.9039865612
 20
737.4316688663
 10
1336.9164758286
 20
737.4370370239
 10
1336.9317068446
 20
737.4393584139
  0
LINE
  5
2E6
100
AcDbEntity
  8
02___PRT_ALL_AXES
100
AcDbLine
 62
7
  6
CONTINUOUS
 10
1332.623857875
 20
740.23505988
 11
1331.6281531717
 21
739.8367779987
  0
LINE
  5
2E7
100
AcDbEntity
  8
02___PRT_ALL_AXES
100
AcDbLine
 62
7
  6
CONTINUOUS
 10
1331.1406368218
 20
739.6417714587
 11
1329.2446361644
 21
738.8833711958
  0
LINE
  5
2E8
100
AcDbEntity
  8
02___PRT_ALL_AXES
100
AcDbLine
 62
7
  6
CONTINUOUS
 10
1354.0900008334
 20
414.1190157091
 11
1352.7900008334
 21
414.9856823758
  0
LWPOLYLINE
  5
2E9
100
AcDbEntity
  8
0
100
AcDbPolyline
 62
7
  6
CONTINUOUS
 90
3
 70
0
 10
1334.0785359827
 20
740.2488104232
 10
1334.0691140651
 20
740.2435704408
 10
1334.0534087801
 20
740.2396724955
  0
LWPOLYLINE
  5
2EA
100
AcDbEntity
  8
0
100
AcDbPolyline
 62
7
  6
CONTINUOUS
 90
3
 70
0
 10
1335.5785347087
 20
740.248804136
 10
1335.5691379793
 20
740.2435787269
 10
1335.553453732
 20
740.2396816173
  0
LWPOLYLINE
  5
2EB
100
AcDbEntity
  8
0
100
AcDbPolyline
 62
7
  6
CONTINUOUS
 90
3
 70
0
 10
1337.0785488698
 20
740.2488210542
 10
1337.0691011945
 20
740.2435669621
 10
1337.0533704591
 20
740.239667848
  0
LWPOLYLINE
  5
2EC
100
AcDbEntity
  8
0
100
AcDbPolyline
 62
7
  6
CONTINUOUS
 90
3
 70
0
 10
1338.5785332062
 20
740.2488054267
 10
1338.5691322978
 20
740.243577348
 10
1338.553445026
 20
740.239679977
  0
LWPOLYLINE
  5
2ED
100
AcDbEntity
  8
0
100
AcDbPolyline
 62
7
  6
CONTINUOUS
 90
3
 70
0
 10
1340.0785434604
 20
740.2488108033
 10
1340.0691260194
 20
740.2435765107
 10
1340.0534213568
 20
740.2396807266
  0
LWPOLYLINE
  5
2EE
100
AcDbEntity
  8
0
100
AcDbPolyline
 62
7
  6
CONTINUOUS
 90
3
 70
0
 10
1341.5785535613
 20
740.2488184467
 10
1341.5691049968
 20
740.2435701264
 10
1341.553369487
 20
740.2396752409
  0
LWPOLYLINE
  5
2EF
100
AcDbEntity
  8
0
100
AcDbPolyline
 62
7
  6
CONTINUOUS
 90
4
 70
0
 10
1332.2131849982
 20
737.1809526573
 10
1332.2433279155
 20
737.1968846616
 10
1332.2678158197
 20
737.2172155463
 10
1332.2880619737
 20
737.2404921479
  0
LWPOLYLINE
  5
2F0
100
AcDbEntity
  8
0
100
AcDbPolyline
 62
7
  6
CONTINUOUS
 90
3
 70
0
 10
1330.7621367898
 20
738.1491041423
 10
1330.8033368975
 20
738.1697941934
 10
1330.8050153344
 20
738.1711352473
  0
LINE
  5
2F1
100
AcDbEntity
  8
02___PRT_ALL_AXES
100
AcDbLine
 62
7
  6
CONTINUOUS
 10
1354.0900008334
 20
733.5596424019
 11
1352.7900008334
 21
732.6929757353
  0
LWPOLYLINE
  5
2F2
100
AcDbEntity
  8
0
100
AcDbPolyline
 62
7
  6
CONTINUOUS
 90
3
 70
0
 10
1343.0794412252
 20
740.2495566866
 10
1343.0729226396
 20
740.2453075045
 10
1343.0584792255
 20
740.2404362498
  0
LINE
  5
2F3
100
AcDbEntity
  8
02___PRT_ALL_AXES
100
AcDbLine
 62
7
  6
CONTINUOUS
 10
1354.7903642008
 20
405.197262333
 11
1354.1345308138
 21
405.8793290555
  0
LINE
  5
2F4
100
AcDbEntity
  8
0
100
AcDbLine
 62
7
  6
CONTINUOUS
 10
1176.6345308138
 20
830.5966883684
 11
1176.6345308138
 21
801.6677561803
  0
LWPOLYLINE
  5
2F5
100
AcDbEntity
  8
0
100
AcDbPolyline
 62
7
  6
CONTINUOUS
 90
8
 70
0
 10
1330.4621254948
 20
408.3005821935
 10
1330.5033829121
 20
408.2466341355
 10
1330.5488242201
 20
408.1998436655
 10
1330.5954856094
 20
408.1659664996
 10
1330.6382822116
 20
408.1467866058
 10
1330.6803004982
 20
408.1381207892
 10
1330.7214182341
 20
408.1389625023
 10
1330.7621367898
 20
408.1491041423
  0
LWPOLYLINE
  5
2F6
100
AcDbEntity
  8
0
100
AcDbPolyline
 62
7
  6
CONTINUOUS
 90
7
 70
0
 10
1332.0119318804
 20
407.2802190285
 10
1332.0390362732
 20
407.2396139828
 10
1332.0669985421
 20
407.2099948671
 10
1332.0976822412
 20
407.1886630446
 10
1332.1306504123
 20
407.1758203762
 10
1332.1642724088
 20
407.1716753906
 10
1332.173213467
 20
407.1719972558
  0
LINE
  5
2F7
100
AcDbEntity
  8
0
100
AcDbLine
 62
7
  6
CONTINUOUS
 10
1330.423189497
 20
408.3601182927
 11
1330.4621254948
 21
408.3005821935
  0
LINE
  5
2F8
100
AcDbEntity
  8
0
100
AcDbLine
 62
7
  6
CONTINUOUS
 10
1195.2203172514
 20
776.8393290555
 11
1195.2203172514
 21
777.4251154931
  0
LINE
  5
2F9
100
AcDbEntity
  8
0
100
AcDbLine
 62
7
  6
CONTINUOUS
 10
1196.8771715009
 20
781.4251154931
 11
1196.8771715009
 21
850.8393290555
  0
LINE
  5
2FA
100
AcDbEntity
  8
0
100
AcDbLine
 62
7
  6
CONTINUOUS
 10
1198.6345308138
 20
857.182474806
 11
1198.6345308138
 21
776.8393290555
  0
LINE
  5
2FB
100
AcDbEntity
  8
0
100
AcDbLine
 62
7
  6
CONTINUOUS
 10
1202.6345308138
 20
862.8393290555
 11
1202.6345308138
 21
772.8393290555
  0
LWPOLYLINE
  5
2FC
100
AcDbEntity
  8
0
100
AcDbPolyline
 62
7
  6
CONTINUOUS
 90
3
 70
0
 10
1334.0759347766
 20
740.2453678182
 10
1334.0783607645
 20
740.2483877937
 10
1334.0785359827
 20
740.2488104232
  0
LWPOLYLINE
  5
2FD
100
AcDbEntity
  8
0
100
AcDbPolyline
 62
7
  6
CONTINUOUS
 90
3
 70
0
 10
1338.5759337229
 20
740.2453695573
 10
1338.5783582174
 20
740.2483872742
 10
1338.5785332062
 20
740.2488054267
  0
LWPOLYLINE
  5
2FE
100
AcDbEntity
  8
0
100
AcDbPolyline
 62
7
  6
CONTINUOUS
 90
3
 70
0
 10
1335.5759349457
 20
740.2453725269
 10
1335.5783593191
 20
740.2483881995
 10
1335.5785347087
 20
740.248804136
  0
LWPOLYLINE
  5
2FF
100
AcDbEntity
  8
0
100
AcDbPolyline
 62
7
  6
CONTINUOUS
 90
3
 70
0
 10
1337.0759393307
 20
740.2453727158
 10
1337.0783692978
 20
740.2483956005
 10
1337.0785488698
 20
740.2488210542
  0
LWPOLYLINE
  5
300
100
AcDbEntity
  8
0
100
AcDbPolyline
 62
7
  6
CONTINUOUS
 90
3
 70
0
 10
1340.0759386106
 20
740.2453778815
 10
1340.078365642
 20
740.2483942274
 10
1340.0785434604
 20
740.2488108033
  0
LINE
  5
301
100
AcDbEntity
  8
0
100
AcDbLine
 62
7
  6
CONTINUOUS
 10
1343.0762351151
 20
740.2457654067
 11
1343.0794412252
 21
740.2495566866
  0
LINE
  5
302
100
AcDbEntity
  8
02___PRT_ALL_AXES
100
AcDbLine
 62
7
  6
CONTINUOUS
 10
1354.7903642008
 20
742.481395778
 11
1354.1345308138
 21
741.7993290555
  0
LINE
  5
303
100
AcDbEntity
  8
0
100
AcDbLine
 62
7
  6
CONTINUOUS
 10
1332.1902978663
 20
737.17428114
 11
1332.1898757459
 21
737.1741974623
  0
LINE
  5
304
100
AcDbEntity
  8
0
100
AcDbLine
 62
7
  6
CONTINUOUS
 10
1330.4028641346
 20
408.3938524002
 11
1330.423189497
 21
408.3601182927
  0
LINE
  5
305
100
AcDbEntity
  8
0
100
AcDbLine
 62
7
  6
CONTINUOUS
 10
1330.3886465184
 20
408.4178886516
 11
1330.4028638585
 21
408.3938528247
  0
LINE
  5
306
100
AcDbEntity
  8
0
100
AcDbLine
 62
7
  6
CONTINUOUS
 10
1331.9984242254
 20
407.3055693908
 11
1332.0119318804
 21
407.2802190285
  0
LWPOLYLINE
  5
307
100
AcDbEntity
  8
0
100
AcDbPolyline
 62
7
  6
CONTINUOUS
 90
15
 70
0
 10
1337.9882675823
 20
407.1181085593
 10
1337.9921043478
 20
407.1108766378
 10
1338.0110057538
 20
407.0798802982
 10
1338.0326467859
 20
407.0527670916
 10
1338.0591690925
 20
407.0292632269
 10
1338.0908070849
 20
407.0118074653
 10
1338.1272794556
 20
407.0027466555
 10
1338.1655596393
 20
407.0042958585
 10
1338.2023198989
 20
407.016739821
 10
1338.2342875011
 20
407.0381516113
 10
1338.2598885386
 20
407.0647816336
 10
1338.2815417919
 20
407.0960121957
 10
1338.3004858529
 20
407.1313514049
 10
1338.3178519484
 20
407.1711557514
 10
1338.3280090462
 20
407.1979009501
  0
LWPOLYLINE
  5
308
100
AcDbEntity
  8
0
100
AcDbPolyline
 62
7
  6
CONTINUOUS
 90
15
 70
0
 10
1336.4883035903
 20
407.1180310367
 10
1336.4916467919
 20
407.1117129931
 10
1336.5105544011
 20
407.0805329263
 10
1336.5322229466
 20
407.0532251371
 10
1336.5588556727
 20
407.0294839738
 10
1336.5905307928
 20
407.0119105836
 10
1336.6267438507
 20
407.0027979533
 10
1336.6645185226
 20
407.0041036227
 10
1336.7005361026
 20
407.0158610668
 10
1336.7317678556
 20
407.0360315755
 10
1336.7566250447
 20
407.0608134708
 10
1336.7774879719
 20
407.0894608694
 10
1336.7954441616
 20
407.1211537488
 10
1336.8120777669
 20
407.157099816
 10
1336.8285568793
 20
407.1994092156
  0
LWPOLYLINE
  5
309
100
AcDbEntity
  8
0
100
AcDbPolyline
 62
7
  6
CONTINUOUS
 90
15
 70
0
 10
1334.9881948538
 20
407.1182462498
 10
1334.9915486307
 20
407.1119019192
 10
1335.0103826217
 20
407.0807899295
 10
1335.0319470977
 20
407.0535242351
 10
1335.0584463084
 20
407.0297806585
 10
1335.089976568
 20
407.012138899
 10
1335.1260633854
 20
407.002879855
 10
1335.1638007052
 20
407.003983953
 10
1335.1999377489
 20
407.0155756484
 10
1335.2313241837
 20
407.0356652565
 10
1335.2562860048
 20
407.0604160761
 10
1335.2772275464
 20
407.0890606517
 10
1335.2952483287
 20
407.1207705417
 10
1335.3119360735
 20
407.1567640371
 10
1335.3284837404
 20
407.1992136725
  0
LWPOLYLINE
  5
30A
100
AcDbEntity
  8
0
100
AcDbPolyline
 62
7
  6
CONTINUOUS
 90
15
 70
0
 10
1333.4882368015
 20
407.1181611285
 10
1333.4914550676
 20
407.1120705915
 10
1333.5102232767
 20
407.0810163603
 10
1333.5316906302
 20
407.0537993383
 10
1333.5580044234
 20
407.030104114
 10
1333.5893256767
 20
407.0124032713
 10
1333.6253091318
 20
407.002959689
 10
1333.6630487838
 20
407.003847993
 10
1333.6992829377
 20
407.0152639267
 10
1333.7308091386
 20
407.0352478621
 10
1333.7559024041
 20
407.0599584438
 10
1333.7769458874
 20
407.0886125469
 10
1333.7950350522
 20
407.1203529847
 10
1333.8117811036
 20
407.1563983085
 10
1333.8285276189
 20
407.1993299506
  0
LINE
  5
30B
100
AcDbEntity
  8
0
100
AcDbLine
 62
7
  6
CONTINUOUS
 10
1336.3119730311
 20
407.4561454988
 11
1336.3344317722
 21
407.4134082974
  0
LINE
  5
30C
100
AcDbEntity
  8
0
100
AcDbLine
 62
7
  6
CONTINUOUS
 10
1333.3119734736
 20
407.4561446579
 11
1333.4177940389
 21
407.2538825648
  0
LINE
  5
30D
100
AcDbEntity
  8
0
100
AcDbLine
 62
7
  6
CONTINUOUS
 10
1334.8119730464
 20
407.4561454697
 11
1334.9177940389
 21
407.2538825648
  0
LINE
  5
30E
100
AcDbEntity
  8
0
100
AcDbLine
 62
7
  6
CONTINUOUS
 10
1333.4177940389
 20
407.2538825648
 11
1333.4881192859
 21
407.1183864104
  0
LINE
  5
30F
100
AcDbEntity
  8
0
100
AcDbLine
 62
7
  6
CONTINUOUS
 10
1334.9177940389
 20
407.2538825648
 11
1334.9881172682
 21
407.1183903083
  0
LINE
  5
310
100
AcDbEntity
  8
0
100
AcDbLine
 62
7
  6
CONTINUOUS
 10
1331.7959551514
 20
407.6991603923
 11
1331.9314608596
 21
407.4361414849
  0
LINE
  5
311
100
AcDbEntity
  8
0
100
AcDbLine
 62
7
  6
CONTINUOUS
 10
1331.9314608596
 20
407.4361414849
 11
1332.0013463999
 21
407.2995038034
  0
LINE
  5
312
100
AcDbEntity
  8
0
100
AcDbLine
 62
7
  6
CONTINUOUS
 10
1331.2654763411
 20
739.9279134793
 11
1331.2265654493
 21
739.8629476631
  0
LWPOLYLINE
  5
313
100
AcDbEntity
  8
0
100
AcDbPolyline
 62
7
  6
CONTINUOUS
 90
4
 70
0
 10
1339.9110117246
 20
737.4438135285
 10
1339.9082547916
 20
737.4394191641
 10
1339.901155207
 20
737.4298222827
 10
1339.9039312117
 20
737.4316378375
  0
LWPOLYLINE
  5
314
100
AcDbEntity
  8
0
100
AcDbPolyline
 62
7
  6
CONTINUOUS
 90
4
 70
0
 10
1333.9109912222
 20
737.443780067
 10
1333.9082352161
 20
737.4393895835
 10
1333.9011452805
 20
737.4298108667
 10
1333.9039591634
 20
737.4316542473
  0
LWPOLYLINE
  5
315
100
AcDbEntity
  8
0
100
AcDbPolyline
 62
7
  6
CONTINUOUS
 90
4
 70
0
 10
1335.4109702985
 20
737.4437503214
 10
1335.4082128759
 20
737.4393595203
 10
1335.4011241116
 20
737.4297845517
 10
1335.4039799593
 20
737.4316651375
  0
LWPOLYLINE
  5
316
100
AcDbEntity
  8
0
100
AcDbPolyline
 62
7
  6
CONTINUOUS
 90
4
 70
0
 10
1336.9109663215
 20
737.4437410898
 10
1336.9082103592
 20
737.4393534721
 10
1336.9011278611
 20
737.429789869
 10
1336.9039865612
 20
737.4316688663
  0
LWPOLYLINE
  5
317
100
AcDbEntity
  8
0
100
AcDbPolyline
 62
7
  6
CONTINUOUS
 90
3
 70
0
 10
1332.2880619737
 20
737.2404921479
 10
1332.305207368
 20
737.2659032967
 10
1332.3205779117
 20
737.2938928965
  0
LWPOLYLINE
  5
318
100
AcDbEntity
  8
0
100
AcDbPolyline
 62
7
  6
CONTINUOUS
 90
4
 70
0
 10
1338.4050547609
 20
737.4347358455
 10
1338.4028595548
 20
737.4318360965
 10
1338.4006747342
 20
737.4292792664
 10
1338.4088462568
 20
737.4342449157
  0
LWPOLYLINE
  5
319
100
AcDbEntity
  8
0
100
AcDbPolyline
 62
7
  6
CONTINUOUS
 90
3
 70
0
 10
1341.5759401337
 20
740.2453787873
 10
1341.5783715905
 20
740.2483987459
 10
1341.5785535613
 20
740.2488184467
  0
LINE
  5
31A
100
AcDbEntity
  8
0
100
AcDbLine
 62
7
  6
CONTINUOUS
 10
1343.0584792255
 20
740.2404362498
 11
1343.0477589082
 21
740.239318087
  0
LWPOLYLINE
  5
31B
100
AcDbEntity
  8
0
100
AcDbPolyline
 62
7
  6
CONTINUOUS
 90
5
 70
0
 10
1332.1750311003
 20
737.1721312258
 10
1332.178591732
 20
737.1724746029
 10
1332.1837105941
 20
737.1731358284
 10
1332.1888025403
 20
737.1739916348
 10
1332.1898757459
 20
737.1741974623
  0
LINE
  5
31C
100
AcDbEntity
  8
0
100
AcDbLine
 62
7
  6
CONTINUOUS
 10
1366.6345308138
 20
717.8393290555
 11
1405.1345308138
 21
717.8393290555
  0
LINE
  5
31D
100
AcDbEntity
  8
0
100
AcDbLine
 62
7
  6
CONTINUOUS
 10
1366.6345308138
 20
719.3393290555
 11
1406.6345308138
 21
719.3393290555
  0
LINE
  5
31E
100
AcDbEntity
  8
0
100
AcDbLine
 62
7
  6
CONTINUOUS
 10
1048.8771715009
 20
832.3540476813
 11
1029.2203172514
 21
852.0109019308
  0
LINE
  5
31F
100
AcDbEntity
  8
0
100
AcDbLine
 62
7
  6
CONTINUOUS
 10
1053.1198121881
 20
836.5966883684
 11
1033.4629579386
 21
856.2535426179
  0
LWPOLYLINE
  5
320
100
AcDbEntity
  8
0
100
AcDbPolyline
 62
7
  6
CONTINUOUS
 90
15
 70
0
 10
1342.4883302501
 20
407.1179796791
 10
1342.4923186798
 20
407.1104737456
 10
1342.5113685921
 20
407.0793578356
 10
1342.5332221624
 20
407.0521623531
 10
1342.5600650407
 20
407.0286248378
 10
1342.5920620469
 20
407.0113028854
 10
1342.6288388182
 20
407.0025875316
 10
1342.6671582742
 20
407.0046089218
 10
1342.7034671744
 20
407.0173299948
 10
1342.734920472
 20
407.0386952588
 10
1342.7601853842
 20
407.0651420146
 10
1342.7815952207
 20
407.096103097
 10
1342.8003700116
 20
407.1311182441
 10
1342.8176547001
 20
407.170657079
 10
1342.8279585659
 20
407.1977545112
  0
LWPOLYLINE
  5
321
100
AcDbEntity
  8
0
100
AcDbPolyline
 62
7
  6
CONTINUOUS
 90
15
 70
0
 10
1340.9882312049
 20
407.1181717269
 10
1340.9922602856
 20
407.1105838105
 10
1341.0112632253
 20
407.0795123266
 10
1341.0330518998
 20
407.0523412244
 10
1341.0598277325
 20
407.028789093
 10
1341.0917527874
 20
407.0114250521
 10
1341.1284321767
 20
407.0026290409
 10
1341.1667198165
 20
407.0045222298
 10
1341.2031596162
 20
407.0171684964
 10
1341.2347601551
 20
407.0385527144
 10
1341.2601078515
 20
407.0650488771
 10
1341.2815774601
 20
407.0960734214
 10
1341.3004011714
 20
407.1311763698
 10
1341.3177118883
 20
407.1708003182
 10
1341.3279334744
 20
407.1976896237
  0
LWPOLYLINE
  5
322
100
AcDbEntity
  8
0
100
AcDbPolyline
 62
7
  6
CONTINUOUS
 90
15
 70
0
 10
1339.4882368476
 20
407.1181672579
 10
1339.4921574893
 20
407.110778849
 10
1339.511091952
 20
407.0797581738
 10
1339.5327823396
 20
407.0526229115
 10
1339.5594029113
 20
407.0290930287
 10
1339.5911537729
 20
407.0116677002
 10
1339.6276944673
 20
407.0027048542
 10
1339.665970795
 20
407.0043756701
 10
1339.7026261013
 20
407.0168941013
 10
1339.734468878
 20
407.0383047711
 10
1339.759972289
 20
407.0648851585
 10
1339.7815538902
 20
407.0960345317
 10
1339.8004552696
 20
407.1312873574
 10
1339.8178033317
 20
407.171032705
 10
1339.8279376628
 20
407.1977048547
  0
LWPOLYLINE
  5
323
100
AcDbEntity
  8
0
100
AcDbPolyline
 62
7
  6
CONTINUOUS
 90
8
 70
0
 10
1343.9883014132
 20
407.1180368751
 10
1343.9913714378
 20
407.1122250768
 10
1344.0095985491
 20
407.0819317326
 10
1344.0304416249
 20
407.0551724383
 10
1344.0561013665
 20
407.0315174147
 10
1344.0871269731
 20
407.0133302175
 10
1344.1241661652
 20
407.0031018801
 10
1344.1345308138
 20
407.0033127479
  0
LINE
  5
324
100
AcDbEntity
  8
0
100
AcDbLine
 62
7
  6
CONTINUOUS
 10
1337.8119753291
 20
407.4561411319
 11
1337.8915219071
 21
407.3042980149
  0
LINE
  5
325
100
AcDbEntity
  8
0
100
AcDbLine
 62
7
  6
CONTINUOUS
 10
1339.3119752697
 20
407.4561412448
 11
1339.3915219071
 21
407.3042980149
  0
LINE
  5
326
100
AcDbEntity
  8
0
100
AcDbLine
 62
7
  6
CONTINUOUS
 10
1340.8119755061
 20
407.4561407957
 11
1340.8915219071
 21
407.3042980149
  0
LINE
  5
327
100
AcDbEntity
  8
0
100
AcDbLine
 62
7
  6
CONTINUOUS
 10
1342.311975508
 20
407.4561407921
 11
1342.3915219071
 21
407.3042980149
  0
LINE
  5
328
100
AcDbEntity
  8
0
100
AcDbLine
 62
7
  6
CONTINUOUS
 10
1343.8119752043
 20
407.4561413691
 11
1343.8915219064
 21
407.3042980162
  0
LWPOLYLINE
  5
329
100
AcDbEntity
  8
0
100
AcDbPolyline
 62
7
  6
CONTINUOUS
 90
3
 70
0
 10
1336.3344317722
 20
407.4134082974
 10
1336.4621991124
 20
407.1684129724
 10
1336.4881201484
 20
407.1183847443
  0
LINE
  5
32A
100
AcDbEntity
  8
0
100
AcDbLine
 62
7
  6
CONTINUOUS
 10
1334.9881199015
 20
407.1183852213
 11
1334.988211164
 21
407.1182090393
  0
LINE
  5
32B
100
AcDbEntity
  8
0
100
AcDbLine
 62
7
  6
CONTINUOUS
 10
1337.8915219071
 20
407.3042980149
 11
1337.9881151217
 21
407.1183944551
  0
LINE
  5
32C
100
AcDbEntity
  8
0
100
AcDbLine
 62
7
  6
CONTINUOUS
 10
1339.3915219071
 20
407.3042980149
 11
1339.4881152936
 21
407.118394123
  0
LINE
  5
32D
100
AcDbEntity
  8
0
100
AcDbLine
 62
7
  6
CONTINUOUS
 10
1340.8915219071
 20
407.3042980149
 11
1340.9881180858
 21
407.1183887288
  0
LINE
  5
32E
100
AcDbEntity
  8
0
100
AcDbLine
 62
7
  6
CONTINUOUS
 10
1342.3915219071
 20
407.3042980149
 11
1342.4881189964
 21
407.1183869697
  0
LINE
  5
32F
100
AcDbEntity
  8
0
100
AcDbLine
 62
7
  6
CONTINUOUS
 10
1343.8915219064
 20
407.3042980162
 11
1343.9881182959
 21
407.118388323
  0
LINE
  5
330
100
AcDbEntity
  8
0
100
AcDbLine
 62
7
  6
CONTINUOUS
 10
1331.9988668577
 20
407.3044484367
 11
1332.0014605577
 21
407.2992801846
  0
LWPOLYLINE
  5
331
100
AcDbEntity
  8
0
100
AcDbPolyline
 62
7
  6
CONTINUOUS
 90
11
 70
0
 10
1331.6374010512
 20
409.8137221194
 10
1331.6152573178
 20
409.8637495265
 10
1331.5781334006
 20
409.9290114985
 10
1331.5416990595
 20
409.9731432092
 10
1331.5034927371
 20
410.0027444813
 10
1331.4644320753
 20
410.0195508655
 10
1331.4241817364
 20
410.0252661613
 10
1331.3838239729
 20
410.0200565344
 10
1331.3441467131
 20
410.0036060907
 10
1331.3040446023
 20
409.9733239429
 10
1331.2654763411
 20
409.9279134793
  0
LWPOLYLINE
  5
332
100
AcDbEntity
  8
0
100
AcDbPolyline
 62
7
  6
CONTINUOUS
 90
3
 70
0
 10
1331.7155558788
 20
409.6288885362
 10
1331.689141401
 20
409.6901567985
 10
1331.65364825
 20
409.7744551975
  0
LINE
  5
333
100
AcDbEntity
  8
0
100
AcDbLine
 62
7
  6
CONTINUOUS
 10
1331.65364825
 20
409.7744551975
 11
1331.6361839388
 21
409.8167010809
  0
LINE
  5
334
100
AcDbEntity
  8
0
100
AcDbLine
 62
7
  6
CONTINUOUS
 10
1332.3205779117
 20
737.2938928965
 11
1332.33507279
 21
737.3252890791
  0
LINE
  5
335
100
AcDbEntity
  8
0
100
AcDbLine
 62
7
  6
CONTINUOUS
 10
1340.2381187518
 20
740.5602706686
 11
1340.2382351216
 21
740.5604952802
  0
LINE
  5
336
100
AcDbEntity
  8
0
100
AcDbLine
 62
7
  6
CONTINUOUS
 10
1332.7382443664
 20
740.5605131066
 11
1332.6252044791
 21
740.3431095714
  0
LINE
  5
337
100
AcDbEntity
  8
0
100
AcDbLine
 62
7
  6
CONTINUOUS
 10
1334.2382308197
 20
740.5604869841
 11
1334.1252044791
 21
740.3431095714
  0
LINE
  5
338
100
AcDbEntity
  8
0
100
AcDbLine
 62
7
  6
CONTINUOUS
 10
1335.7381978317
 20
740.5604233494
 11
1335.6252044791
 21
740.3431095714
  0
LINE
  5
339
100
AcDbEntity
  8
0
100
AcDbLine
 62
7
  6
CONTINUOUS
 10
1337.2381201374
 20
740.5602733455
 11
1337.1252044791
 21
740.3431095714
  0
LWPOLYLINE
  5
33A
100
AcDbEntity
  8
0
100
AcDbPolyline
 62
7
  6
CONTINUOUS
 90
3
 70
0
 10
1338.7381175418
 20
740.5602683311
 10
1338.6057772872
 20
740.30596945
 10
1338.574660176
 20
740.2466515384
  0
LWPOLYLINE
  5
33B
100
AcDbEntity
  8
0
100
AcDbPolyline
 62
7
  6
CONTINUOUS
 90
3
 70
0
 10
1340.2381165555
 20
740.5602664258
 10
1340.1057772872
 20
740.30596945
 10
1340.0746608445
 20
740.2466528128
  0
LWPOLYLINE
  5
33C
100
AcDbEntity
  8
0
100
AcDbPolyline
 62
7
  6
CONTINUOUS
 90
3
 70
0
 10
1341.7381181716
 20
740.5602695479
 10
1341.6057772872
 20
740.30596945
 10
1341.5746633444
 20
740.2466575783
  0
LWPOLYLINE
  5
33D
100
AcDbEntity
  8
0
100
AcDbPolyline
 62
7
  6
CONTINUOUS
 90
3
 70
0
 10
1343.2381148464
 20
740.5602631241
 10
1343.1057772863
 20
740.3059694482
 10
1343.0744916446
 20
740.2463302705
  0
LINE
  5
33E
100
AcDbEntity
  8
0
100
AcDbLine
 62
7
  6
CONTINUOUS
 10
1331.227750194
 20
739.8652271987
 11
1331.2012039497
 21
739.8145060025
  0
LINE
  5
33F
100
AcDbEntity
  8
0
100
AcDbLine
 62
7
  6
CONTINUOUS
 10
1334.1252044791
 20
740.3431095714
 11
1334.0746599217
 21
740.2466547589
  0
LINE
  5
340
100
AcDbEntity
  8
0
100
AcDbLine
 62
7
  6
CONTINUOUS
 10
1335.6252044791
 20
740.3431095714
 11
1335.5746559505
 21
740.2466472048
  0
LINE
  5
341
100
AcDbEntity
  8
0
100
AcDbLine
 62
7
  6
CONTINUOUS
 10
1337.1252044791
 20
740.3431095714
 11
1337.0746625603
 21
740.2466597789
  0
LINE
  5
342
100
AcDbEntity
  8
0
100
AcDbLine
 62
7
  6
CONTINUOUS
 10
1332.6252044791
 20
740.3431095714
 11
1332.5538124524
 21
740.207041711
  0
LINE
  5
343
100
AcDbEntity
  8
0
100
AcDbLine
 62
7
  6
CONTINUOUS
 10
1331.2012039497
 20
739.8145060025
 11
1331.1055700044
 21
739.6338255875
  0
LINE
  5
344
100
AcDbEntity
  8
0
100
AcDbLine
 62
7
  6
CONTINUOUS
 10
1331.1055700044
 20
739.6338255875
 11
1331.1013958813
 21
739.6260750825
  0
LWPOLYLINE
  5
345
100
AcDbEntity
  8
0
100
AcDbPolyline
 62
7
  6
CONTINUOUS
 90
4
 70
0
 10
1342.9109880557
 20
737.4437750683
 10
1342.9082320365
 20
737.4393850023
 10
1342.9011433406
 20
737.4298088382
 10
1342.9039640604
 20
737.4316571892
  0
LWPOLYLINE
  5
346
100
AcDbEntity
  8
0
100
AcDbPolyline
 62
7
  6
CONTINUOUS
 90
4
 70
0
 10
1341.4109693461
 20
737.443748556
 10
1341.4082120405
 20
737.4393581325
 10
1341.4011240527
 20
737.4297847391
 10
1341.4039817533
 20
737.4316661285
  0
LINE
  5
347
100
AcDbEntity
  8
0
100
AcDbLine
 62
7
  6
CONTINUOUS
 10
1338.553445026
 20
740.239679977
 11
1338.5473294386
 21
740.2393243881
  0
LINE
  5
348
100
AcDbEntity
  8
0
100
AcDbLine
 62
7
  6
CONTINUOUS
 10
1335.553453732
 20
740.2396816173
 11
1335.5473312035
 21
740.2393251343
  0
LINE
  5
349
100
AcDbEntity
  8
0
100
AcDbLine
 62
7
  6
CONTINUOUS
 10
1340.0534213568
 20
740.2396807266
 11
1340.0473097502
 21
740.2393260831
  0
LINE
  5
34A
100
AcDbEntity
  8
0
100
AcDbLine
 62
7
  6
CONTINUOUS
 10
1334.0534087801
 20
740.2396724955
 11
1334.0473192817
 21
740.2393202592
  0
LINE
  5
34B
100
AcDbEntity
  8
0
100
AcDbLine
 62
7
  6
CONTINUOUS
 10
1341.553369487
 20
740.2396752409
 11
1341.5472849355
 21
740.2393245731
  0
LINE
  5
34C
100
AcDbEntity
  8
0
100
AcDbLine
 62
7
  6
CONTINUOUS
 10
1337.0533704591
 20
740.239667848
 11
1337.0473056092
 21
740.2393188445
  0
LINE
  5
34D
100
AcDbEntity
  8
0
100
AcDbLine
 62
7
  6
CONTINUOUS
 10
1336.2968519563
 20
737.4393290619
 11
1336.2973171559
 21
737.4393319802
  0
LINE
  5
34E
100
AcDbEntity
  8
0
100
AcDbLine
 62
7
  6
CONTINUOUS
 10
1342.2968687708
 20
737.4393290748
 11
1342.2972953888
 21
737.4393317252
  0
LINE
  5
34F
100
AcDbEntity
  8
0
100
AcDbLine
 62
7
  6
CONTINUOUS
 10
1339.2968561836
 20
737.4393290645
 11
1339.2973062598
 21
737.4393318511
  0
LINE
  5
350
100
AcDbEntity
  8
0
100
AcDbLine
 62
7
  6
CONTINUOUS
 10
1334.7968290006
 20
737.4393290555
 11
1334.7973147037
 21
737.4393319509
  0
LINE
  5
351
100
AcDbEntity
  8
0
100
AcDbLine
 62
7
  6
CONTINUOUS
 10
1343.7968198418
 20
737.4393290566
 11
1343.7973146452
 21
737.4393319503
  0
LINE
  5
352
100
AcDbEntity
  8
0
100
AcDbLine
 62
7
  6
CONTINUOUS
 10
1340.7968223228
 20
737.4393290561
 11
1340.797297085
 21
737.4393317446
  0
LINE
  5
353
100
AcDbEntity
  8
02___PRT_ALL_AXES
100
AcDbLine
 62
7
  6
CONTINUOUS
 10
1346.6345308138
 20
734.3393290555
 11
1344.3345308138
 21
734.3393290555
  0
LINE
  5
354
100
AcDbEntity
  8
02___PRT_ALL_AXES
100
AcDbLine
 62
7
  6
CONTINUOUS
 10
1343.7968291638
 20
737.4393290555
 11
1342.9330898183
 21
737.4393290555
  0
LINE
  5
355
100
AcDbEntity
  8
02___PRT_ALL_AXES
100
AcDbLine
 62
7
  6
CONTINUOUS
 10
1342.2968291721
 20
737.4393290555
 11
1341.4330898191
 21
737.4393290555
  0
LINE
  5
356
100
AcDbEntity
  8
02___PRT_ALL_AXES
100
AcDbLine
 62
7
  6
CONTINUOUS
 10
1340.7968291739
 20
737.4393290555
 11
1339.9330898177
 21
737.4393290555
  0
LINE
  5
357
100
AcDbEntity
  8
02___PRT_ALL_AXES
100
AcDbLine
 62
7
  6
CONTINUOUS
 10
1339.2968291723
 20
737.4393290555
 11
1338.4330898207
 21
737.4393290555
  0
LINE
  5
358
100
AcDbEntity
  8
02___PRT_ALL_AXES
100
AcDbLine
 62
7
  6
CONTINUOUS
 10
1337.7968291737
 20
737.4393290555
 11
1336.9330898196
 21
737.4393290555
  0
LINE
  5
359
100
AcDbEntity
  8
02___PRT_ALL_AXES
100
AcDbLine
 62
7
  6
CONTINUOUS
 10
1336.2968291753
 20
737.4393290555
 11
1335.433089819
 21
737.4393290555
  0
LINE
  5
35A
100
AcDbEntity
  8
02___PRT_ALL_AXES
100
AcDbLine
 62
7
  6
CONTINUOUS
 10
1334.7968291733
 20
737.4393290555
 11
1333.9330898188
 21
737.4393290555
  0
LINE
  5
35B
100
AcDbEntity
  8
02___PRT_ALL_AXES
100
AcDbLine
 62
7
  6
CONTINUOUS
 10
1333.2968291794
 20
737.4393290555
 11
1332.6345308138
 21
737.4393290555
  0
LINE
  5
35C
100
AcDbEntity
  8
02___PRT_ALL_AXES
100
AcDbLine
 62
7
  6
CONTINUOUS
 10
1344.1345308138
 20
740.2393290555
 11
1343.6830898155
 21
740.2393290555
  0
LINE
  5
35D
100
AcDbEntity
  8
02___PRT_ALL_AXES
100
AcDbLine
 62
7
  6
CONTINUOUS
 10
1343.0468291736
 20
740.2393290555
 11
1342.1830898223
 21
740.2393290555
  0
LINE
  5
35E
100
AcDbEntity
  8
02___PRT_ALL_AXES
100
AcDbLine
 62
7
  6
CONTINUOUS
 10
1341.5468291746
 20
740.2393290555
 11
1340.6830898217
 21
740.2393290555
  0
LINE
  5
35F
100
AcDbEntity
  8
02___PRT_ALL_AXES
100
AcDbLine
 62
7
  6
CONTINUOUS
 10
1340.0468291745
 20
740.2393290555
 11
1339.1830898229
 21
740.2393290555
  0
LINE
  5
360
100
AcDbEntity
  8
02___PRT_ALL_AXES
100
AcDbLine
 62
7
  6
CONTINUOUS
 10
1338.5468291727
 20
740.2393290555
 11
1337.6830898213
 21
740.2393290555
  0
LINE
  5
361
100
AcDbEntity
  8
02___PRT_ALL_AXES
100
AcDbLine
 62
7
  6
CONTINUOUS
 10
1337.0468291743
 20
740.2393290555
 11
1336.1830898175
 21
740.2393290555
  0
LINE
  5
362
100
AcDbEntity
  8
02___PRT_ALL_AXES
100
AcDbLine
 62
7
  6
CONTINUOUS
 10
1335.5468291723
 20
740.2393290555
 11
1334.6830898205
 21
740.2393290555
  0
LINE
  5
363
100
AcDbEntity
  8
02___PRT_ALL_AXES
100
AcDbLine
 62
7
  6
CONTINUOUS
 10
1334.0468291727
 20
740.2393290555
 11
1333.1830898199
 21
740.2393290555
  0
LINE
  5
364
100
AcDbEntity
  8
0
100
AcDbLine
 62
7
  6
CONTINUOUS
 10
857.6345308138
 20
740.2963387674
 11
859.2667719945
 21
740.2963387674
  0
LINE
  5
365
100
AcDbEntity
  8
02___PRT_ALL_AXES
100
AcDbLine
 62
7
  6
CONTINUOUS
 10
1346.6345308138
 20
743.3393290555
 11
1344.3345308138
 21
743.3393290555
  0
LINE
  5
366
100
AcDbEntity
  8
0
100
AcDbLine
 62
7
  6
CONTINUOUS
 10
1406.6345308138
 20
746.3393290555
 11
1366.6345308138
 21
746.3393290555
  0
LINE
  5
367
100
AcDbEntity
  8
0
100
AcDbLine
 62
7
  6
CONTINUOUS
 10
1366.6345308138
 20
747.8393290555
 11
1405.1345308138
 21
747.8393290555
  0
LINE
  5
368
100
AcDbEntity
  8
0
100
AcDbLine
 62
7
  6
CONTINUOUS
 10
1337.0468256885
 20
740.2393290554
 11
1337.0472984226
 21
740.2393263511
  0
LINE
  5
369
100
AcDbEntity
  8
0
100
AcDbLine
 62
7
  6
CONTINUOUS
 10
1334.046829721
 20
740.2393290555
 11
1334.0473046904
 21
740.2393262783
  0
LINE
  5
36A
100
AcDbEntity
  8
0
100
AcDbLine
 62
7
  6
CONTINUOUS
 10
1341.5468353356
 20
740.2393290551
 11
1341.5473007799
 21
740.2393263238
  0
LINE
  5
36B
100
AcDbEntity
  8
0
100
AcDbLine
 62
7
  6
CONTINUOUS
 10
1338.5468303092
 20
740.2393290555
 11
1338.5473134191
 21
740.2393261754
  0
LINE
  5
36C
100
AcDbEntity
  8
0
100
AcDbLine
 62
7
  6
CONTINUOUS
 10
1340.0468290071
 20
740.2393290555
 11
1340.0473143201
 21
740.2393261647
  0
LINE
  5
36D
100
AcDbEntity
  8
0
100
AcDbLine
 62
7
  6
CONTINUOUS
 10
1335.5468704926
 20
740.2393290346
 11
1335.5473166445
 21
740.2393261369
  0
LINE
  5
36E
100
AcDbEntity
  8
0
100
AcDbLine
 62
7
  6
CONTINUOUS
 10
1338.4330904927
 20
737.4393290555
 11
1338.4323892439
 21
737.4393350837
  0
LINE
  5
36F
100
AcDbEntity
  8
0
100
AcDbLine
 62
7
  6
CONTINUOUS
 10
1343.0467892379
 20
740.2393290359
 11
1343.0477481914
 21
740.2393186821
  0
LINE
  5
370
100
AcDbEntity
  8
0
100
AcDbLine
 62
7
  6
CONTINUOUS
 10
1336.9331034998
 20
737.4393290578
 11
1336.9317112799
 21
737.4393523962
  0
LINE
  5
371
100
AcDbEntity
  8
0
100
AcDbLine
 62
7
  6
CONTINUOUS
 10
1341.4330965749
 20
737.4393290561
 11
1341.4317128201
 21
737.439352344
  0
LINE
  5
372
100
AcDbEntity
  8
0
100
AcDbLine
 62
7
  6
CONTINUOUS
 10
1335.4330830084
 20
737.4393290561
 11
1335.431712858
 21
737.4393523427
  0
LINE
  5
373
100
AcDbEntity
  8
0
100
AcDbLine
 62
7
  6
CONTINUOUS
 10
1333.933053074
 20
737.4393290721
 11
1333.9317016502
 21
737.4393527234
  0
LINE
  5
374
100
AcDbEntity
  8
0
100
AcDbLine
 62
7
  6
CONTINUOUS
 10
1339.9330405552
 20
737.4393290853
 11
1339.9316953166
 21
737.4393529398
  0
LINE
  5
375
100
AcDbEntity
  8
0
100
AcDbLine
 62
7
  6
CONTINUOUS
 10
1342.9330328959
 20
737.4393290953
 11
1342.9317026201
 21
737.4393526903
  0
LWPOLYLINE
  5
376
100
AcDbEntity
  8
0
100
AcDbPolyline
 62
7
  6
CONTINUOUS
 90
3
 70
0
 10
1333.2972934058
 20
737.4393372744
 10
1333.3033543693
 20
737.4389891811
 10
1333.3191032028
 20
737.4350871633
  0
LWPOLYLINE
  5
377
100
AcDbEntity
  8
0
100
AcDbPolyline
 62
7
  6
CONTINUOUS
 90
3
 70
0
 10
1340.7973014056
 20
737.4393386742
 10
1340.8033671507
 20
737.4389897381
 10
1340.8191048472
 20
737.4350884816
  0
LWPOLYLINE
  5
378
100
AcDbEntity
  8
0
100
AcDbPolyline
 62
7
  6
CONTINUOUS
 90
3
 70
0
 10
1342.297297611
 20
737.439339249
 10
1342.3033556959
 20
737.4389912992
 10
1342.3190993124
 20
737.4350905368
  0
LWPOLYLINE
  5
379
100
AcDbEntity
  8
0
100
AcDbPolyline
 62
7
  6
CONTINUOUS
 90
3
 70
0
 10
1339.2973227626
 20
737.4393381502
 10
1339.3034175966
 20
737.4389851723
 10
1339.3191169042
 20
737.4350874464
  0
LWPOLYLINE
  5
37A
100
AcDbEntity
  8
0
100
AcDbPolyline
 62
7
  6
CONTINUOUS
 90
3
 70
0
 10
1334.7973074136
 20
737.4393321419
 10
1334.8034240491
 20
737.4389769918
 10
1334.8191307236
 20
737.4350801845
  0
LWPOLYLINE
  5
37B
100
AcDbEntity
  8
0
100
AcDbPolyline
 62
7
  6
CONTINUOUS
 90
3
 70
0
 10
1336.297326354
 20
737.439332306
 10
1336.30344849
 20
737.4389759881
 10
1336.3191373621
 20
737.4350790324
  0
LWPOLYLINE
  5
37C
100
AcDbEntity
  8
0
100
AcDbPolyline
 62
7
  6
CONTINUOUS
 90
3
 70
0
 10
1343.7973135045
 20
737.4393319379
 10
1343.8034280019
 20
737.438976914
 10
1343.819128552
 20
737.4350807288
  0
LWPOLYLINE
  5
37D
100
AcDbEntity
  8
0
100
AcDbPolyline
 62
7
  6
CONTINUOUS
 90
15
 70
0
 10
1336.0784582361
 20
410.4795178852
 10
1336.0634317115
 20
410.5183396282
 10
1336.0466659689
 20
410.5550851555
 10
1336.0286634894
 20
410.5873262416
 10
1336.0083266844
 20
410.6158010169
 10
1335.9840691551
 20
410.6406983312
 10
1335.9529377306
 20
410.6616013184
 10
1335.9162434898
 20
410.67422698
 10
1335.8761191687
 20
410.6757864072
 10
1335.8379097733
 20
410.6656620452
 10
1335.8064515764
 20
410.647405073
 10
1335.7806606985
 20
410.6237240495
 10
1335.7598662756
 20
410.5971117458
 10
1335.7417247879
 20
410.5670856838
 10
1335.7381819777
 20
410.5603904087
  0
LWPOLYLINE
  5
37E
100
AcDbEntity
  8
0
100
AcDbPolyline
 62
7
  6
CONTINUOUS
 90
15
 70
0
 10
1337.578444973
 20
410.4795581032
 10
1337.5634028618
 20
410.5184065756
 10
1337.5466417306
 20
410.5551289825
 10
1337.5286436942
 20
410.5873587844
 10
1337.5082956775
 20
410.6158417243
 10
1337.4840159133
 20
410.6407406626
 10
1337.4528616163
 20
410.6616364747
 10
1337.4161447704
 20
410.6742465175
 10
1337.3759863596
 20
410.6757751607
 10
1337.337771563
 20
410.6656050954
 10
1337.3063728931
 20
410.6473423263
 10
1337.2806334642
 20
410.6236916312
 10
1337.2598451939
 20
410.5970832943
 10
1337.2417041333
 20
410.5670509057
 10
1337.2382602185
 20
410.5605436688
  0
LWPOLYLINE
  5
37F
100
AcDbEntity
  8
0
100
AcDbPolyline
 62
7
  6
CONTINUOUS
 90
15
 70
0
 10
1343.5786097626
 20
410.4790973689
 10
1343.5633148721
 20
410.5186157309
 10
1343.5465574382
 20
410.5553054275
 10
1343.5285259103
 20
410.5875482434
 10
1343.5080962382
 20
410.6160760198
 10
1343.4839395539
 20
410.6408052097
 10
1343.4537049552
 20
410.6612152623
 10
1343.4181679545
 20
410.6738477707
 10
1343.3788141617
 20
410.676062297
 10
1343.3407513979
 20
410.6668291388
 10
1343.3084956305
 20
410.6489099418
 10
1343.2818863087
 20
410.6250708826
 10
1343.2608151205
 20
410.5984999467
 10
1343.2425456092
 20
410.5685910956
 10
1343.2382507173
 20
410.5605164178
  0
LWPOLYLINE
  5
380
100
AcDbEntity
  8
0
100
AcDbPolyline
 62
7
  6
CONTINUOUS
 90
15
 70
0
 10
1334.5785422724
 20
410.4792809473
 10
1334.5634574464
 20
410.5182737801
 10
1334.5466778367
 20
410.5550653454
 10
1334.5286606361
 20
410.5873317106
 10
1334.508325354
 20
410.6157972569
 10
1334.4840797949
 20
410.6406854954
 10
1334.452956683
 20
410.6615969567
 10
1334.4162694609
 20
410.6742265464
 10
1334.3761636024
 20
410.6757897496
 10
1334.3379659952
 20
410.6656795283
 10
1334.306497479
 20
410.6474376577
 10
1334.2806921357
 20
410.6237651524
 10
1334.2598892813
 20
410.5971480022
 10
1334.2417432393
 20
410.5671144445
 10
1334.2382210125
 20
410.560459554
  0
LWPOLYLINE
  5
381
100
AcDbEntity
  8
0
100
AcDbPolyline
 62
7
  6
CONTINUOUS
 90
15
 70
0
 10
1333.0786172591
 20
410.4790732077
 10
1333.0634980681
 20
410.5181742474
 10
1333.0467180283
 20
410.5549852424
 10
1333.028701684
 20
410.5872683074
 10
1333.0083692041
 20
410.6157434772
 10
1332.9841398083
 20
410.6406315785
 10
1332.953076928
 20
410.6615352821
 10
1332.9164539466
 20
410.6741935849
 10
1332.8763566049
 20
410.6758133071
 10
1332.8381358989
 20
410.6657513044
 10
1332.8066349802
 20
410.6475387875
 10
1332.7807958027
 20
410.6238801224
 10
1332.7599659995
 20
410.597264662
 10
1332.7418008306
 20
410.5672258596
 10
1332.7382373248
 20
410.5604957505
  0
LWPOLYLINE
  5
382
100
AcDbEntity
  8
0
100
AcDbPolyline
 62
7
  6
CONTINUOUS
 90
15
 70
0
 10
1340.578010888
 20
410.480753268
 10
1340.5665276363
 20
410.5108031686
 10
1340.5495724047
 20
410.5491967292
 10
1340.5315722857
 20
410.5825910231
 10
1340.5115114147
 20
410.6118414261
 10
1340.4878163914
 20
410.6374063561
 10
1340.4576009356
 20
410.6591339645
 10
1340.4216707679
 20
410.6730692676
 10
1340.3814668853
 20
410.6762808107
 10
1340.3424692176
 20
410.6675078129
 10
1340.3097701224
 20
410.6498287697
 10
1340.282881523
 20
410.626138137
 10
1340.2614634919
 20
410.5994339523
 10
1340.2429015587
 20
410.5692448652
 10
1340.2382178391
 20
410.5604573014
  0
LWPOLYLINE
  5
383
100
AcDbEntity
  8
0
100
AcDbPolyline
 62
7
  6
CONTINUOUS
 90
15
 70
0
 10
1339.0781224841
 20
410.4804481008
 10
1339.0665135742
 20
410.5108378093
 10
1339.0495463165
 20
410.5492523472
 10
1339.031525617
 20
410.5826736879
 10
1339.0114178431
 20
410.6119655718
 10
1338.9876773116
 20
410.6375321294
 10
1338.9574845514
 20
410.6591975409
 10
1338.9216102606
 20
410.6730887558
 10
1338.8814387198
 20
410.6762878456
 10
1338.8424744145
 20
410.6675137492
 10
1338.8098259859
 20
410.6498653351
 10
1338.7829610089
 20
410.6262254408
 10
1338.7615205542
 20
410.5995250605
 10
1338.7429364466
 20
410.5693120152
 10
1338.7383133481
 20
410.5606428812
  0
LWPOLYLINE
  5
384
100
AcDbEntity
  8
0
100
AcDbPolyline
 62
7
  6
CONTINUOUS
 90
15
 70
0
 10
1342.0780841041
 20
410.4805555393
 10
1342.066574828
 20
410.5106880868
 10
1342.0496578149
 20
410.5490206269
 10
1342.0317062528
 20
410.5823750346
 10
1342.0117032316
 20
410.6116043488
 10
1341.988093064
 20
410.6371542163
 10
1341.9580482448
 20
410.6588854459
 10
1341.9222761236
 20
410.6729332041
 10
1341.8820442856
 20
410.6763296833
 10
1341.8429275509
 20
410.6676854913
 10
1341.8101178951
 20
410.650073397
 10
1341.783128349
 20
410.6264054682
 10
1341.761630642
 20
410.5996809193
 10
1341.7430138525
 20
410.5694538945
 10
1341.738275756
 20
410.5605722158
  0
LINE
  5
385
100
AcDbEntity
  8
0
100
AcDbLine
 62
7
  6
CONTINUOUS
 10
1333.1952189653
 20
410.1594099602
 11
1333.1644403887
 21
410.2428099786
  0
LINE
  5
386
100
AcDbEntity
  8
0
100
AcDbLine
 62
7
  6
CONTINUOUS
 10
1343.6952189614
 20
410.1594099709
 11
1343.6644450206
 21
410.2427974138
  0
LINE
  5
387
100
AcDbEntity
  8
0
100
AcDbLine
 62
7
  6
CONTINUOUS
 10
1334.6953969922
 20
410.1589295601
 11
1334.6397425119
 21
410.3102779624
  0
LINE
  5
388
100
AcDbEntity
  8
0
100
AcDbLine
 62
7
  6
CONTINUOUS
 10
1336.1953994939
 20
410.1589228039
 11
1336.1397425119
 21
410.3102779624
  0
LINE
  5
389
100
AcDbEntity
  8
0
100
AcDbLine
 62
7
  6
CONTINUOUS
 10
1337.6953924819
 20
410.1589417399
 11
1337.6397425119
 21
410.3102779624
  0
LINE
  5
38A
100
AcDbEntity
  8
0
100
AcDbLine
 62
7
  6
CONTINUOUS
 10
1339.1953603896
 20
410.1590283911
 11
1339.1397425122
 21
410.3102779615
  0
LINE
  5
38B
100
AcDbEntity
  8
0
100
AcDbLine
 62
7
  6
CONTINUOUS
 10
1340.6953716997
 20
410.1589978559
 11
1340.6397425122
 21
410.3102779615
  0
LINE
  5
38C
100
AcDbEntity
  8
0
100
AcDbLine
 62
7
  6
CONTINUOUS
 10
1342.1953845321
 20
410.158963207
 11
1342.1397425122
 21
410.3102779615
  0
LWPOLYLINE
  5
38D
100
AcDbEntity
  8
0
100
AcDbPolyline
 62
7
  6
CONTINUOUS
 90
3
 70
0
 10
1333.1642829223
 20
410.2432371359
 10
1333.0886332971
 20
410.4512591856
 10
1333.0787767842
 20
410.4786381849
  0
LWPOLYLINE
  5
38E
100
AcDbEntity
  8
0
100
AcDbPolyline
 62
7
  6
CONTINUOUS
 90
3
 70
0
 10
1343.6642829215
 20
410.2432371381
 10
1343.5886332969
 20
410.4512591863
 10
1343.5787755817
 20
410.4786415287
  0
LINE
  5
38F
100
AcDbEntity
  8
0
100
AcDbLine
 62
7
  6
CONTINUOUS
 10
1334.5785431581
 20
410.4792870634
 11
1334.5787741605
 21
410.4786454807
  0
LINE
  5
390
100
AcDbEntity
  8
0
100
AcDbLine
 62
7
  6
CONTINUOUS
 10
1334.6397425119
 20
410.3102779624
 11
1334.5787768371
 21
410.4786380379
  0
LINE
  5
391
100
AcDbEntity
  8
0
100
AcDbLine
 62
7
  6
CONTINUOUS
 10
1336.1397425119
 20
410.3102779624
 11
1336.0784681499
 21
410.4794950598
  0
LINE
  5
392
100
AcDbEntity
  8
0
100
AcDbLine
 62
7
  6
CONTINUOUS
 10
1337.6397425119
 20
410.3102779624
 11
1337.5784574382
 21
410.4795247501
  0
LINE
  5
393
100
AcDbEntity
  8
0
100
AcDbLine
 62
7
  6
CONTINUOUS
 10
1339.1397425122
 20
410.3102779615
 11
1339.078122979
 21
410.4804501259
  0
LINE
  5
394
100
AcDbEntity
  8
0
100
AcDbLine
 62
7
  6
CONTINUOUS
 10
1340.6397425122
 20
410.3102779615
 11
1340.5780227825
 21
410.4807267209
  0
LINE
  5
395
100
AcDbEntity
  8
0
100
AcDbLine
 62
7
  6
CONTINUOUS
 10
1342.1397425122
 20
410.3102779615
 11
1342.0780904581
 21
410.4805399325
  0
LINE
  5
396
100
AcDbEntity
  8
0
100
AcDbLine
 62
7
  6
CONTINUOUS
 10
1332.2641616162
 20
737.2394271225
 11
1332.3114399188
 21
737.3803164686
  0
LINE
  5
397
100
AcDbEntity
  8
0
100
AcDbLine
 62
7
  6
CONTINUOUS
 10
1333.8285346369
 20
737.1993474104
 11
1333.8287738179
 21
737.2000116777
  0
LINE
  5
398
100
AcDbEntity
  8
0
100
AcDbLine
 62
7
  6
CONTINUOUS
 10
1336.8285602829
 20
737.199418557
 11
1336.8287737257
 21
737.2000114214
  0
LWPOLYLINE
  5
399
100
AcDbEntity
  8
0
100
AcDbPolyline
 62
7
  6
CONTINUOUS
 90
3
 70
0
 10
1333.8287743776
 20
737.200013234
 10
1333.8897425119
 20
737.3683801486
 10
1333.9142829223
 20
737.4354209752
  0
LWPOLYLINE
  5
39A
100
AcDbEntity
  8
0
100
AcDbPolyline
 62
7
  6
CONTINUOUS
 90
3
 70
0
 10
1335.3284937527
 20
737.1992340291
 10
1335.3897425119
 20
737.3683801486
 10
1335.4142829223
 20
737.4354209752
  0
LWPOLYLINE
  5
39B
100
AcDbEntity
  8
0
100
AcDbPolyline
 62
7
  6
CONTINUOUS
 90
3
 70
0
 10
1336.8287737157
 20
737.2000113936
 10
1336.8897425119
 20
737.3683801486
 10
1336.9142829223
 20
737.4354209752
  0
LWPOLYLINE
  5
39C
100
AcDbEntity
  8
0
100
AcDbPolyline
 62
7
  6
CONTINUOUS
 90
3
 70
0
 10
1338.3280059222
 20
737.1978848754
 10
1338.3897425122
 20
737.3683801495
 10
1338.4142829228
 20
737.4354209763
  0
LWPOLYLINE
  5
39D
100
AcDbEntity
  8
0
100
AcDbPolyline
 62
7
  6
CONTINUOUS
 90
3
 70
0
 10
1339.8279422745
 20
737.1977093552
 10
1339.8897425122
 20
737.3683801495
 10
1339.9142829228
 20
737.4354209763
  0
LWPOLYLINE
  5
39E
100
AcDbEntity
  8
0
100
AcDbPolyline
 62
7
  6
CONTINUOUS
 90
3
 70
0
 10
1341.3279401824
 20
737.1977035879
 10
1341.3897425122
 20
737.3683801495
 10
1341.4142829228
 20
737.4354209763
  0
LWPOLYLINE
  5
39F
100
AcDbEntity
  8
0
100
AcDbPolyline
 62
7
  6
CONTINUOUS
 90
3
 70
0
 10
1342.8279659591
 20
737.1977746563
 10
1342.8897425122
 20
737.3683801495
 10
1342.9142829228
 20
737.4354209763
  0
LINE
  5
3A0
100
AcDbEntity
  8
0
100
AcDbLine
 62
7
  6
CONTINUOUS
 10
1332.3484449902
 20
737.358830798
 11
1332.4096437939
 21
737.5210769582
  0
LINE
  5
3A1
100
AcDbEntity
  8
0
100
AcDbLine
 62
7
  6
CONTINUOUS
 10
1332.33507279
 20
737.3252890791
 11
1332.3484666944
 21
737.358888902
  0
LINE
  5
3A2
100
AcDbEntity
  8
0
100
AcDbLine
 62
7
  6
CONTINUOUS
 10
1352.6345308138
 20
759.8393290555
 11
1362.6345308138
 21
759.8393290555
  0
LINE
  5
3A3
100
AcDbEntity
  8
0
100
AcDbLine
 62
7
  6
CONTINUOUS
 10
1361.6345308138
 20
762.8393290555
 11
1353.6345308138
 21
762.8393290555
  0
LINE
  5
3A4
100
AcDbEntity
  8
0
100
AcDbLine
 62
7
  6
CONTINUOUS
 10
1323.1345308138
 20
768.8393290555
 11
1346.6345308138
 21
768.8393290555
  0
LINE
  5
3A5
100
AcDbEntity
  8
0
100
AcDbLine
 62
7
  6
CONTINUOUS
 10
1202.6345308138
 20
772.8393290555
 11
1022.6345308138
 21
772.8393290555
  0
LINE
  5
3A6
100
AcDbEntity
  8
0
100
AcDbLine
 62
7
  6
CONTINUOUS
 10
1314.6345308138
 20
772.8393290555
 11
1318.6345308138
 21
772.8393290555
  0
LINE
  5
3A7
100
AcDbEntity
  8
0
100
AcDbLine
 62
7
  6
CONTINUOUS
 10
1366.6345308138
 20
776.8393290555
 11
1362.6345308138
 21
776.8393290555
  0
LINE
  5
3A8
100
AcDbEntity
  8
0
100
AcDbLine
 62
7
  6
CONTINUOUS
 10
1198.6345308138
 20
776.8393290555
 11
1028.2913850633
 21
776.8393290555
  0
LINE
  5
3A9
100
AcDbEntity
  8
0
100
AcDbLine
 62
7
  6
CONTINUOUS
 10
1321.5627340441
 20
776.8393290555
 11
1345.6345308138
 21
776.8393290555
  0
LINE
  5
3AA
100
AcDbEntity
  8
0
100
AcDbLine
 62
7
  6
CONTINUOUS
 10
1032.0487443762
 20
777.4251154931
 11
1195.2203172514
 21
777.4251154931
  0
LINE
  5
3AB
100
AcDbEntity
  8
0
100
AcDbLine
 62
7
  6
CONTINUOUS
 10
1365.6345308138
 20
779.8393290555
 11
1362.6345308138
 21
779.8393290555
  0
LINE
  5
3AC
100
AcDbEntity
  8
0
100
AcDbLine
 62
7
  6
CONTINUOUS
 10
1028.6345308138
 20
780.2535426179
 11
1029.2203172514
 21
780.2535426179
  0
LWPOLYLINE
  5
3AD
100
AcDbEntity
  8
0
100
AcDbPolyline
 62
7
  6
CONTINUOUS
 90
3
 70
0
 10
1343.68239471
 20
740.2393225615
 10
1343.6746000988
 20
740.2399115328
 10
1343.6644450206
 20
740.2427974138
  0
LWPOLYLINE
  5
3AE
100
AcDbEntity
  8
0
100
AcDbPolyline
 62
7
  6
CONTINUOUS
 90
3
 70
0
 10
1333.1823158607
 20
740.239321702
 10
1333.1733622609
 20
740.240097859
 10
1333.1644403887
 20
740.2428099786
  0
LWPOLYLINE
  5
3AF
100
AcDbEntity
  8
0
100
AcDbPolyline
 62
7
  6
CONTINUOUS
 90
3
 70
0
 10
1337.7976496079
 20
737.4393389079
 10
1337.8069776896
 20
737.4384939676
 10
1337.8220120076
 20
737.433802268
  0
LWPOLYLINE
  5
3B0
100
AcDbEntity
  8
0
100
AcDbPolyline
 62
7
  6
CONTINUOUS
 90
3
 70
0
 10
1334.6816902177
 20
740.2393046213
 10
1334.6665825921
 20
740.2415887552
 10
1334.6645741367
 20
740.2424471621
  0
LWPOLYLINE
  5
3B1
100
AcDbEntity
  8
0
100
AcDbPolyline
 62
7
  6
CONTINUOUS
 90
3
 70
0
 10
1337.6816941837
 20
740.2393048848
 10
1337.6665791973
 20
740.2415910432
 10
1337.6645735916
 20
740.2424486405
  0
LWPOLYLINE
  5
3B2
100
AcDbEntity
  8
0
100
AcDbPolyline
 62
7
  6
CONTINUOUS
 90
3
 70
0
 10
1339.1816993676
 20
740.2393015974
 10
1339.1665657421
 20
740.2415927222
 10
1339.1645747628
 20
740.2424454636
  0
LWPOLYLINE
  5
3B3
100
AcDbEntity
  8
0
100
AcDbPolyline
 62
7
  6
CONTINUOUS
 90
3
 70
0
 10
1342.1816908935
 20
740.2393050826
 10
1342.1664846927
 20
740.2416187042
 10
1342.1645779852
 20
740.2424367221
  0
LWPOLYLINE
  5
3B4
100
AcDbEntity
  8
0
100
AcDbPolyline
 62
7
  6
CONTINUOUS
 90
3
 70
0
 10
1336.1816917077
 20
740.2393051036
 10
1336.1664803058
 20
740.241620384
 10
1336.1645779397
 20
740.2424368456
  0
LWPOLYLINE
  5
3B5
100
AcDbEntity
  8
0
100
AcDbPolyline
 62
7
  6
CONTINUOUS
 90
3
 70
0
 10
1340.6816911967
 20
740.2393049244
 10
1340.6664391363
 20
740.2416323175
 10
1340.6645799513
 20
740.2424313887
  0
LINE
  5
3B6
100
AcDbEntity
  8
0
100
AcDbLine
 62
7
  6
CONTINUOUS
 10
1173.8061036891
 20
798.8393290555
 11
1195.2203172514
 21
777.4251154931
  0
LINE
  5
3B7
100
AcDbEntity
  8
0
100
AcDbLine
 62
7
  6
CONTINUOUS
 10
1176.6345308138
 20
801.6677561803
 11
1196.8771715009
 21
781.4251154931
  0
LINE
  5
3B8
100
AcDbEntity
  8
0
100
AcDbLine
 62
7
  6
CONTINUOUS
 10
1314.6345308138
 20
319.8393290555
 11
1314.6345308138
 21
772.8393290555
  0
LINE
  5
3B9
100
AcDbEntity
  8
0
100
AcDbLine
 62
7
  6
CONTINUOUS
 10
1318.6345308138
 20
319.8393290555
 11
1318.6345308138
 21
772.8393290555
  0
LINE
  5
3BA
100
AcDbEntity
  8
0
100
AcDbLine
 62
7
  6
CONTINUOUS
 10
1323.1345308138
 20
334.8393290555
 11
1323.1345308138
 21
772.8393290555
  0
LINE
  5
3BB
100
AcDbEntity
  8
0
100
AcDbLine
 62
7
  6
CONTINUOUS
 10
1363.6345308138
 20
788.8393290555
 11
1366.8845308138
 21
788.8393290555
  0
LINE
  5
3BC
100
AcDbEntity
  8
0
100
AcDbLine
 62
7
  6
CONTINUOUS
 10
1363.6345308138
 20
791.8393290555
 11
1366.8845308138
 21
791.8393290555
  0
LINE
  5
3BD
100
AcDbEntity
  8
0
100
AcDbLine
 62
7
  6
CONTINUOUS
 10
1353.6345308138
 20
793.8393290555
 11
1362.6345308138
 21
793.8393290555
  0
LINE
  5
3BE
100
AcDbEntity
  8
0
100
AcDbLine
 62
7
  6
CONTINUOUS
 10
1353.6345308138
 20
796.8393290555
 11
1362.6345308138
 21
796.8393290555
  0
LINE
  5
3BF
100
AcDbEntity
  8
0
100
AcDbLine
 62
7
  6
CONTINUOUS
 10
1173.8061036891
 20
798.8393290555
 11
1053.4629579386
 21
798.8393290555
  0
LINE
  5
3C0
100
AcDbEntity
  8
02___PRT_ALL_AXES
100
AcDbLine
 62
7
  6
CONTINUOUS
 10
1332.6345308138
 20
737.4393290555
 11
1332.3401315781
 21
737.5570887498
  0
LINE
  5
3C1
100
AcDbEntity
  8
02___PRT_ALL_AXES
100
AcDbLine
 62
7
  6
CONTINUOUS
 10
1331.7559598071
 20
737.7907574582
 11
1330.730490551
 21
738.2009451606
  0
LINE
  5
3C2
100
AcDbEntity
  8
02___PRT_ALL_AXES
100
AcDbLine
 62
7
  6
CONTINUOUS
 10
1330.455297797
 20
738.3110222622
 11
1329.2446361644
 21
738.7952869153
  0
LINE
  5
3C3
100
AcDbEntity
  8
0
100
AcDbLine
 62
7
  6
CONTINUOUS
 10
1327.1345308138
 20
330.8393290555
 11
1327.1345308138
 21
776.8393290555
  0
LINE
  5
3C4
100
AcDbEntity
  8
02___PRT_ALL_AXES
100
AcDbLine
 62
7
  6
CONTINUOUS
 10
1329.2446361644
 20
408.7952869153
 11
1329.2446361644
 21
408.8833711958
  0
LINE
  5
3C5
100
AcDbEntity
  8
02___PRT_ALL_AXES
100
AcDbLine
 62
7
  6
CONTINUOUS
 10
1329.2446361644
 20
738.7952869153
 11
1329.2446361644
 21
738.8833711958
  0
LINE
  5
3C6
100
AcDbEntity
  8
0
100
AcDbLine
 62
7
  6
CONTINUOUS
 10
1332.6345308138
 20
407.4393290555
 11
1332.6345308166
 21
410.1459174171
  0
LINE
  5
3C7
100
AcDbEntity
  8
0
100
AcDbLine
 62
7
  6
CONTINUOUS
 10
1332.6345308138
 20
737.4393290555
 11
1332.6345308166
 21
740.1459174171
  0
LINE
  5
3C8
100
AcDbEntity
  8
0
100
AcDbLine
 62
7
  6
CONTINUOUS
 10
1342.6345308138
 20
889.8393290555
 11
1342.6345308138
 21
776.8393290555
  0
LINE
  5
3C9
100
AcDbEntity
  8
0
100
AcDbLine
 62
7
  6
CONTINUOUS
 10
1344.1345308138
 20
404.5393290555
 11
1344.1345308138
 21
413.1392789704
  0
LINE
  5
3CA
100
AcDbEntity
  8
0
100
AcDbLine
 62
7
  6
CONTINUOUS
 10
1344.1345308138
 20
734.5393290555
 11
1344.1345308138
 21
743.1392789704
  0
LINE
  5
3CB
100
AcDbEntity
  8
0
100
AcDbLine
 62
7
  6
CONTINUOUS
 10
1344.3345308138
 20
404.3393290555
 11
1344.3345308138
 21
413.3393290555
  0
LINE
  5
3CC
100
AcDbEntity
  8
0
100
AcDbLine
 62
7
  6
CONTINUOUS
 10
1344.3345308138
 20
734.3393290555
 11
1344.3345308138
 21
743.3393290555
  0
LINE
  5
3CD
100
AcDbEntity
  8
0
100
AcDbLine
 62
7
  6
CONTINUOUS
 10
1345.6345308138
 20
776.8393290555
 11
1345.6345308138
 21
743.3393290555
  0
LINE
  5
3CE
100
AcDbEntity
  8
0
100
AcDbLine
 62
7
  6
CONTINUOUS
 10
1345.6345308138
 20
734.3393290555
 11
1345.6345308138
 21
413.3393290555
  0
LINE
  5
3CF
100
AcDbEntity
  8
0
100
AcDbLine
 62
7
  6
CONTINUOUS
 10
1345.6345308138
 20
404.3393290555
 11
1345.6345308138
 21
330.8393290555
  0
LINE
  5
3D0
100
AcDbEntity
  8
0
100
AcDbLine
 62
7
  6
CONTINUOUS
 10
1346.6345308138
 20
321.8393290555
 11
1346.6345308138
 21
909.8393290555
  0
LINE
  5
3D1
100
AcDbEntity
  8
0
100
AcDbLine
 62
7
  6
CONTINUOUS
 10
1347.6345308138
 20
320.8393290555
 11
1347.6345308138
 21
910.8393290555
  0
LINE
  5
3D2
100
AcDbEntity
  8
0
100
AcDbLine
 62
7
  6
CONTINUOUS
 10
1366.8845308138
 20
807.8393290555
 11
1363.6345308138
 21
807.8393290555
  0
LINE
  5
3D3
100
AcDbEntity
  8
02___PRT_ALL_AXES
100
AcDbLine
 62
7
  6
CONTINUOUS
 10
1366.6345308138
 20
825.8393290555
 11
1385.6345308138
 21
825.8393290555
  0
LINE
  5
3D4
100
AcDbEntity
  8
0
100
AcDbLine
 62
7
  6
CONTINUOUS
 10
1048.8771715009
 20
832.3540476813
 11
1176.3454018623
 21
832.3540476813
  0
LINE
  5
3D5
100
AcDbEntity
  8
0
100
AcDbLine
 62
7
  6
CONTINUOUS
 10
1334.8191307236
 20
737.4350801845
 11
1334.8244987288
 21
737.4323100866
  0
LINE
  5
3D6
100
AcDbEntity
  8
0
100
AcDbLine
 62
7
  6
CONTINUOUS
 10
1343.819128552
 20
737.4350807288
 11
1343.8245023324
 21
737.4323074666
  0
LINE
  5
3D7
100
AcDbEntity
  8
0
100
AcDbLine
 62
7
  6
CONTINUOUS
 10
1333.3191032028
 20
737.4350871633
 11
1333.3245047384
 21
737.432298655
  0
LINE
  5
3D8
100
AcDbEntity
  8
0
100
AcDbLine
 62
7
  6
CONTINUOUS
 10
1336.3191373621
 20
737.4350790324
 11
1336.3244978881
 21
737.4323116862
  0
LINE
  5
3D9
100
AcDbEntity
  8
0
100
AcDbLine
 62
7
  6
CONTINUOUS
 10
1339.3191169042
 20
737.4350874464
 11
1339.3245030857
 21
737.4323060306
  0
LINE
  5
3DA
100
AcDbEntity
  8
0
100
AcDbLine
 62
7
  6
CONTINUOUS
 10
1342.3190993124
 20
737.4350905368
 11
1342.3245071574
 21
737.4322982688
  0
LINE
  5
3DB
100
AcDbEntity
  8
0
100
AcDbLine
 62
7
  6
CONTINUOUS
 10
1340.8191048472
 20
737.4350884816
 11
1340.8245069534
 21
737.4322986577
  0
LINE
  5
3DC
100
AcDbEntity
  8
0
100
AcDbLine
 62
7
  6
CONTINUOUS
 10
1337.8220120076
 20
737.433802268
 11
1337.824399325
 21
737.4325038276
  0
LINE
  5
3DD
100
AcDbEntity
  8
0
100
AcDbLine
 62
7
  6
CONTINUOUS
 10
1352.6345308138
 20
321.8393290555
 11
1352.6345308138
 21
794.1935777445
  0
LINE
  5
3DE
100
AcDbEntity
  8
0
100
AcDbLine
 62
7
  6
CONTINUOUS
 10
1352.7900008334
 20
402.6929757353
 11
1352.7900008334
 21
414.9856823758
  0
LINE
  5
3DF
100
AcDbEntity
  8
0
100
AcDbLine
 62
7
  6
CONTINUOUS
 10
1352.7900008334
 20
732.6929757353
 11
1352.7900008334
 21
744.9856823758
  0
LINE
  5
3E0
100
AcDbEntity
  8
0
100
AcDbLine
 62
7
  6
CONTINUOUS
 10
1353.6345308138
 20
762.8393290555
 11
1353.6345308138
 21
744.4226623889
  0
LINE
  5
3E1
100
AcDbEntity
  8
0
100
AcDbLine
 62
7
  6
CONTINUOUS
 10
1353.6345308138
 20
733.2559957222
 11
1353.6345308138
 21
414.4226623889
  0
LINE
  5
3E2
100
AcDbEntity
  8
0
100
AcDbLine
 62
7
  6
CONTINUOUS
 10
1353.6345308138
 20
403.2559957222
 11
1353.6345308138
 21
337.8393290555
  0
LINE
  5
3E3
100
AcDbEntity
  8
0
100
AcDbLine
 62
7
  6
CONTINUOUS
 10
1353.6345308138
 20
793.8393290555
 11
1353.6345308138
 21
796.8393290555
  0
LINE
  5
3E4
100
AcDbEntity
  8
0
100
AcDbLine
 62
7
  6
CONTINUOUS
 10
1354.0900008334
 20
403.5596424019
 11
1354.0900008334
 21
414.1190157091
  0
LINE
  5
3E5
100
AcDbEntity
  8
0
100
AcDbLine
 62
7
  6
CONTINUOUS
 10
1354.0900008334
 20
733.5596424019
 11
1354.0900008334
 21
744.1190157091
  0
LINE
  5
3E6
100
AcDbEntity
  8
0
100
AcDbLine
 62
7
  6
CONTINUOUS
 10
1354.1345308138
 20
403.6428474314
 11
1354.1345308138
 21
414.0358106797
  0
LINE
  5
3E7
100
AcDbEntity
  8
0
100
AcDbLine
 62
7
  6
CONTINUOUS
 10
1354.1345308138
 20
733.6428474314
 11
1354.1345308138
 21
744.0358106797
  0
LINE
  5
3E8
100
AcDbEntity
  8
0
100
AcDbLine
 62
7
  6
CONTINUOUS
 10
1354.7903642008
 20
405.197262333
 11
1354.7903642008
 21
412.481395778
  0
LINE
  5
3E9
100
AcDbEntity
  8
0
100
AcDbLine
 62
7
  6
CONTINUOUS
 10
1354.7903642008
 20
735.197262333
 11
1354.7903642008
 21
742.481395778
  0
LINE
  5
3EA
100
AcDbEntity
  8
0
100
AcDbLine
 62
7
  6
CONTINUOUS
 10
1355.1345308138
 20
405.3358840763
 11
1355.1345308138
 21
412.3427740348
  0
LINE
  5
3EB
100
AcDbEntity
  8
0
100
AcDbLine
 62
7
  6
CONTINUOUS
 10
1355.1345308138
 20
735.3358840763
 11
1355.1345308138
 21
742.3427740348
  0
LINE
  5
3EC
100
AcDbEntity
  8
0
100
AcDbLine
 62
7
  6
CONTINUOUS
 10
1361.6345308138
 20
762.8393290555
 11
1361.6345308138
 21
337.8393290555
  0
LINE
  5
3ED
100
AcDbEntity
  8
0
100
AcDbLine
 62
7
  6
CONTINUOUS
 10
1362.6345308138
 20
796.8393290555
 11
1362.6345308138
 21
793.8393290555
  0
LINE
  5
3EE
100
AcDbEntity
  8
0
100
AcDbLine
 62
7
  6
CONTINUOUS
 10
1362.6345308138
 20
335.8393290555
 11
1362.6345308138
 21
779.8393290555
  0
LINE
  5
3EF
100
AcDbEntity
  8
0
100
AcDbLine
 62
7
  6
CONTINUOUS
 10
1363.6345308138
 20
788.8393290555
 11
1363.6345308138
 21
807.8393290555
  0
LINE
  5
3F0
100
AcDbEntity
  8
0
100
AcDbLine
 62
7
  6
CONTINUOUS
 10
1363.6345308138
 20
891.8393290555
 11
1363.6345308138
 21
911.0893290555
  0
LINE
  5
3F1
100
AcDbEntity
  8
0
100
AcDbLine
 62
7
  6
CONTINUOUS
 10
1365.6345308138
 20
779.8393290555
 11
1365.6345308138
 21
355.8393290555
  0
LINE
  5
3F2
100
AcDbEntity
  8
0
100
AcDbLine
 62
7
  6
CONTINUOUS
 10
1365.8845308138
 20
335.8393290555
 11
1365.8845308138
 21
355.8393290555
  0
LINE
  5
3F3
100
AcDbEntity
  8
0
100
AcDbLine
 62
7
  6
CONTINUOUS
 10
1365.8845308138
 20
891.8393290555
 11
1365.8845308138
 21
911.0893290555
  0
LINE
  5
3F4
100
AcDbEntity
  8
0
100
AcDbLine
 62
7
  6
CONTINUOUS
 10
1366.6345308138
 20
891.8393290555
 11
1366.6345308138
 21
807.8393290555
  0
LINE
  5
3F5
100
AcDbEntity
  8
0
100
AcDbLine
 62
7
  6
CONTINUOUS
 10
1366.6345308138
 20
778.8393290555
 11
1366.6345308138
 21
355.8393290555
  0
LINE
  5
3F6
100
AcDbEntity
  8
0
100
AcDbLine
 62
7
  6
CONTINUOUS
 10
1366.8845308138
 20
336.8393290555
 11
1366.8845308138
 21
355.8393290555
  0
LINE
  5
3F7
100
AcDbEntity
  8
0
100
AcDbLine
 62
7
  6
CONTINUOUS
 10
1366.8845308138
 20
788.8393290555
 11
1366.8845308138
 21
807.8393290555
  0
LINE
  5
3F8
100
AcDbEntity
  8
0
100
AcDbLine
 62
7
  6
CONTINUOUS
 10
1366.8845308138
 20
891.8393290555
 11
1366.8845308138
 21
910.0893290555
  0
LINE
  5
3F9
100
AcDbEntity
  8
0
100
AcDbLine
 62
7
  6
CONTINUOUS
 10
1053.1198121881
 20
836.5966883684
 11
1174.1492494396
 21
836.5966883684
  0
LINE
  5
3FA
100
AcDbEntity
  8
0
100
AcDbLine
 62
7
  6
CONTINUOUS
 10
1193.8061036891
 20
856.2535426179
 11
1033.4629579386
 21
856.2535426179
  0
LINE
  5
3FB
100
AcDbEntity
  8
0
100
AcDbLine
 62
7
  6
CONTINUOUS
 10
1029.8919264113
 20
856.8393290555
 11
1197.3771352164
 21
856.8393290555
  0
LINE
  5
3FC
100
AcDbEntity
  8
02___PRT_ALL_AXES
100
AcDbLine
 62
7
  6
CONTINUOUS
 10
1366.6345308138
 20
860.8393290555
 11
1385.6345308138
 21
860.8393290555
  0
LINE
  5
3FD
100
AcDbEntity
  8
02___PRT_ALL_AXES
100
AcDbLine
 62
7
  6
CONTINUOUS
 10
1354.0900008334
 20
744.1190157091
 11
1352.7900008334
 21
744.9856823758
  0
LINE
  5
3FE
100
AcDbEntity
  8
02___PRT_ALL_AXES
100
AcDbLine
 62
7
  6
CONTINUOUS
 10
1354.7903642008
 20
735.197262333
 11
1354.1345308138
 21
735.8793290555
  0
LWPOLYLINE
  5
3FF
100
AcDbEntity
  8
0
100
AcDbPolyline
 62
7
  6
CONTINUOUS
 90
8
 70
0
 10
1330.4621254948
 20
738.3005821935
 10
1330.5033829121
 20
738.2466341355
 10
1330.5488242201
 20
738.1998436655
 10
1330.5954856094
 20
738.1659664996
 10
1330.6382822116
 20
738.1467866058
 10
1330.6803004982
 20
738.1381207892
 10
1330.7214182341
 20
738.1389625023
 10
1330.7621367898
 20
738.1491041423
  0
LWPOLYLINE
  5
400
100
AcDbEntity
  8
0
100
AcDbPolyline
 62
7
  6
CONTINUOUS
 90
7
 70
0
 10
1332.0119318804
 20
737.2802190285
 10
1332.0390362732
 20
737.2396139828
 10
1332.0669985421
 20
737.2099948671
 10
1332.0976822412
 20
737.1886630446
 10
1332.1306504123
 20
737.1758203762
 10
1332.1642724088
 20
737.1716753906
 10
1332.173213467
 20
737.1719972558
  0
LINE
  5
401
100
AcDbEntity
  8
0
100
AcDbLine
 62
7
  6
CONTINUOUS
 10
1330.423189497
 20
738.3601182927
 11
1330.4621254948
 21
738.3005821935
  0
LINE
  5
402
100
AcDbEntity
  8
0
100
AcDbLine
 62
7
  6
CONTINUOUS
 10
1330.4028641346
 20
738.3938524002
 11
1330.423189497
 21
738.3601182927
  0
LINE
  5
403
100
AcDbEntity
  8
0
100
AcDbLine
 62
7
  6
CONTINUOUS
 10
1330.3886465184
 20
738.4178886516
 11
1330.4028638585
 21
738.3938528247
  0
LINE
  5
404
100
AcDbEntity
  8
0
100
AcDbLine
 62
7
  6
CONTINUOUS
 10
1331.9984242254
 20
737.3055693908
 11
1332.0119318804
 21
737.2802190285
  0
LWPOLYLINE
  5
405
100
AcDbEntity
  8
0
100
AcDbPolyline
 62
7
  6
CONTINUOUS
 90
15
 70
0
 10
1342.4883302501
 20
737.1179796791
 10
1342.4923186798
 20
737.1104737456
 10
1342.5113685921
 20
737.0793578356
 10
1342.5332221624
 20
737.0521623531
 10
1342.5600650407
 20
737.0286248378
 10
1342.5920620469
 20
737.0113028854
 10
1342.6288388182
 20
737.0025875316
 10
1342.6671582742
 20
737.0046089218
 10
1342.7034671744
 20
737.0173299948
 10
1342.734920472
 20
737.0386952588
 10
1342.7601853842
 20
737.0651420146
 10
1342.7815952207
 20
737.096103097
 10
1342.8003700116
 20
737.1311182441
 10
1342.8176547001
 20
737.170657079
 10
1342.8279585659
 20
737.1977545112
  0
LWPOLYLINE
  5
406
100
AcDbEntity
  8
0
100
AcDbPolyline
 62
7
  6
CONTINUOUS
 90
15
 70
0
 10
1340.9882312049
 20
737.1181717269
 10
1340.9922602856
 20
737.1105838105
 10
1341.0112632253
 20
737.0795123266
 10
1341.0330518998
 20
737.0523412244
 10
1341.0598277325
 20
737.028789093
 10
1341.0917527874
 20
737.0114250521
 10
1341.1284321767
 20
737.0026290409
 10
1341.1667198165
 20
737.0045222298
 10
1341.2031596162
 20
737.0171684964
 10
1341.2347601551
 20
737.0385527144
 10
1341.2601078515
 20
737.0650488771
 10
1341.2815774601
 20
737.0960734214
 10
1341.3004011714
 20
737.1311763698
 10
1341.3177118883
 20
737.1708003182
 10
1341.3279334744
 20
737.1976896237
  0
LWPOLYLINE
  5
407
100
AcDbEntity
  8
0
100
AcDbPolyline
 62
7
  6
CONTINUOUS
 90
15
 70
0
 10
1337.9882675823
 20
737.1181085593
 10
1337.9921043478
 20
737.1108766378
 10
1338.0110057538
 20
737.0798802982
 10
1338.0326467859
 20
737.0527670916
 10
1338.0591690925
 20
737.0292632269
 10
1338.0908070849
 20
737.0118074653
 10
1338.1272794556
 20
737.0027466555
 10
1338.1655596393
 20
737.0042958585
 10
1338.2023198989
 20
737.016739821
 10
1338.2342875011
 20
737.0381516113
 10
1338.2598885386
 20
737.0647816336
 10
1338.2815417919
 20
737.0960121957
 10
1338.3004858529
 20
737.1313514049
 10
1338.3178519484
 20
737.1711557514
 10
1338.3280090462
 20
737.1979009501
  0
LWPOLYLINE
  5
408
100
AcDbEntity
  8
0
100
AcDbPolyline
 62
7
  6
CONTINUOUS
 90
15
 70
0
 10
1339.4882368476
 20
737.1181672579
 10
1339.4921574893
 20
737.110778849
 10
1339.511091952
 20
737.0797581738
 10
1339.5327823396
 20
737.0526229115
 10
1339.5594029113
 20
737.0290930287
 10
1339.5911537729
 20
737.0116677002
 10
1339.6276944673
 20
737.0027048542
 10
1339.665970795
 20
737.0043756701
 10
1339.7026261013
 20
737.0168941013
 10
1339.734468878
 20
737.0383047711
 10
1339.759972289
 20
737.0648851585
 10
1339.7815538902
 20
737.0960345317
 10
1339.8004552696
 20
737.1312873574
 10
1339.8178033317
 20
737.171032705
 10
1339.8279376628
 20
737.1977048547
  0
LWPOLYLINE
  5
409
100
AcDbEntity
  8
0
100
AcDbPolyline
 62
7
  6
CONTINUOUS
 90
15
 70
0
 10
1336.4883035903
 20
737.1180310367
 10
1336.4916467919
 20
737.1117129931
 10
1336.5105544011
 20
737.0805329263
 10
1336.5322229466
 20
737.0532251371
 10
1336.5588556727
 20
737.0294839738
 10
1336.5905307928
 20
737.0119105836
 10
1336.6267438507
 20
737.0027979533
 10
1336.6645185226
 20
737.0041036227
 10
1336.7005361026
 20
737.0158610668
 10
1336.7317678556
 20
737.0360315755
 10
1336.7566250447
 20
737.0608134708
 10
1336.7774879719
 20
737.0894608694
 10
1336.7954441616
 20
737.1211537488
 10
1336.8120777669
 20
737.157099816
 10
1336.8285568793
 20
737.1994092156
  0
LWPOLYLINE
  5
40A
100
AcDbEntity
  8
0
100
AcDbPolyline
 62
7
  6
CONTINUOUS
 90
15
 70
0
 10
1334.9881948538
 20
737.1182462498
 10
1334.9915486307
 20
737.1119019192
 10
1335.0103826217
 20
737.0807899295
 10
1335.0319470977
 20
737.0535242351
 10
1335.0584463084
 20
737.0297806585
 10
1335.089976568
 20
737.012138899
 10
1335.1260633854
 20
737.002879855
 10
1335.1638007052
 20
737.003983953
 10
1335.1999377489
 20
737.0155756484
 10
1335.2313241837
 20
737.0356652565
 10
1335.2562860048
 20
737.0604160761
 10
1335.2772275464
 20
737.0890606517
 10
1335.2952483287
 20
737.1207705417
 10
1335.3119360735
 20
737.1567640371
 10
1335.3284837404
 20
737.1992136725
  0
LWPOLYLINE
  5
40B
100
AcDbEntity
  8
0
100
AcDbPolyline
 62
7
  6
CONTINUOUS
 90
15
 70
0
 10
1333.4882368015
 20
737.1181611285
 10
1333.4914550676
 20
737.1120705915
 10
1333.5102232767
 20
737.0810163603
 10
1333.5316906302
 20
737.0537993383
 10
1333.5580044234
 20
737.030104114
 10
1333.5893256767
 20
737.0124032713
 10
1333.6253091318
 20
737.002959689
 10
1333.6630487838
 20
737.003847993
 10
1333.6992829377
 20
737.0152639267
 10
1333.7308091386
 20
737.0352478621
 10
1333.7559024041
 20
737.0599584438
 10
1333.7769458874
 20
737.0886125469
 10
1333.7950350522
 20
737.1203529847
 10
1333.8117811036
 20
737.1563983085
 10
1333.8285276189
 20
737.1993299506
  0
LWPOLYLINE
  5
40C
100
AcDbEntity
  8
0
100
AcDbPolyline
 62
7
  6
CONTINUOUS
 90
8
 70
0
 10
1343.9883014132
 20
737.1180368751
 10
1343.9913714378
 20
737.1122250768
 10
1344.0095985491
 20
737.0819317326
 10
1344.0304416249
 20
737.0551724383
 10
1344.0561013665
 20
737.0315174147
 10
1344.0871269731
 20
737.0133302175
 10
1344.1241661652
 20
737.0031018801
 10
1344.1345308138
 20
737.0033127479
  0
LINE
  5
40D
100
AcDbEntity
  8
0
100
AcDbLine
 62
7
  6
CONTINUOUS
 10
1337.8119753291
 20
737.4561411319
 11
1337.8915219071
 21
737.3042980149
  0
LINE
  5
40E
100
AcDbEntity
  8
0
100
AcDbLine
 62
7
  6
CONTINUOUS
 10
1339.3119752697
 20
737.4561412448
 11
1339.3915219071
 21
737.3042980149
  0
LINE
  5
40F
100
AcDbEntity
  8
0
100
AcDbLine
 62
7
  6
CONTINUOUS
 10
1340.8119755061
 20
737.4561407957
 11
1340.8915219071
 21
737.3042980149
  0
LINE
  5
410
100
AcDbEntity
  8
0
100
AcDbLine
 62
7
  6
CONTINUOUS
 10
1342.311975508
 20
737.4561407921
 11
1342.3915219071
 21
737.3042980149
  0
LINE
  5
411
100
AcDbEntity
  8
0
100
AcDbLine
 62
7
  6
CONTINUOUS
 10
1343.8119752043
 20
737.4561413691
 11
1343.8915219064
 21
737.3042980162
  0
LINE
  5
412
100
AcDbEntity
  8
0
100
AcDbLine
 62
7
  6
CONTINUOUS
 10
1333.3119734736
 20
737.4561446579
 11
1333.4177940389
 21
737.2538825648
  0
LINE
  5
413
100
AcDbEntity
  8
0
100
AcDbLine
 62
7
  6
CONTINUOUS
 10
1334.8119730464
 20
737.4561454697
 11
1334.9177940389
 21
737.2538825648
  0
LINE
  5
414
100
AcDbEntity
  8
0
100
AcDbLine
 62
7
  6
CONTINUOUS
 10
1336.3119730311
 20
737.4561454988
 11
1336.4177940389
 21
737.2538825648
  0
LINE
  5
415
100
AcDbEntity
  8
0
100
AcDbLine
 62
7
  6
CONTINUOUS
 10
1333.4177940389
 20
737.2538825648
 11
1333.4881192859
 21
737.1183864104
  0
LINE
  5
416
100
AcDbEntity
  8
0
100
AcDbLine
 62
7
  6
CONTINUOUS
 10
1334.9177940389
 20
737.2538825648
 11
1334.9881172682
 21
737.1183903083
  0
LINE
  5
417
100
AcDbEntity
  8
0
100
AcDbLine
 62
7
  6
CONTINUOUS
 10
1336.4177940389
 20
737.2538825648
 11
1336.4881201484
 21
737.1183847443
  0
LINE
  5
418
100
AcDbEntity
  8
0
100
AcDbLine
 62
7
  6
CONTINUOUS
 10
1337.8915219071
 20
737.3042980149
 11
1337.9881151217
 21
737.1183944551
  0
LINE
  5
419
100
AcDbEntity
  8
0
100
AcDbLine
 62
7
  6
CONTINUOUS
 10
1339.3915219071
 20
737.3042980149
 11
1339.4881152936
 21
737.118394123
  0
LINE
  5
41A
100
AcDbEntity
  8
0
100
AcDbLine
 62
7
  6
CONTINUOUS
 10
1340.8915219071
 20
737.3042980149
 11
1340.9881180858
 21
737.1183887288
  0
LINE
  5
41B
100
AcDbEntity
  8
0
100
AcDbLine
 62
7
  6
CONTINUOUS
 10
1342.3915219071
 20
737.3042980149
 11
1342.4881189964
 21
737.1183869697
  0
LINE
  5
41C
100
AcDbEntity
  8
0
100
AcDbLine
 62
7
  6
CONTINUOUS
 10
1343.8915219064
 20
737.3042980162
 11
1343.9881182959
 21
737.118388323
  0
LINE
  5
41D
100
AcDbEntity
  8
0
100
AcDbLine
 62
7
  6
CONTINUOUS
 10
1331.7959551514
 20
737.6991603923
 11
1331.9314608596
 21
737.4361414849
  0
LINE
  5
41E
100
AcDbEntity
  8
0
100
AcDbLine
 62
7
  6
CONTINUOUS
 10
1331.9314608596
 20
737.4361414849
 11
1332.0013463999
 21
737.2995038034
  0
LINE
  5
41F
100
AcDbEntity
  8
0
100
AcDbLine
 62
7
  6
CONTINUOUS
 10
1331.9988668577
 20
737.3044484367
 11
1332.0014605577
 21
737.2992801846
  0
LWPOLYLINE
  5
420
100
AcDbEntity
  8
0
100
AcDbPolyline
 62
7
  6
CONTINUOUS
 90
11
 70
0
 10
1331.6374010512
 20
739.8137221194
 10
1331.6152573178
 20
739.8637495265
 10
1331.5781334006
 20
739.9290114985
 10
1331.5416990595
 20
739.9731432092
 10
1331.5034927371
 20
740.0027444813
 10
1331.4644320753
 20
740.0195508655
 10
1331.4241817364
 20
740.0252661613
 10
1331.3838239729
 20
740.0200565344
 10
1331.3441467131
 20
740.0036060907
 10
1331.3040446023
 20
739.9733239429
 10
1331.2654763411
 20
739.9279134793
  0
LWPOLYLINE
  5
421
100
AcDbEntity
  8
0
100
AcDbPolyline
 62
7
  6
CONTINUOUS
 90
3
 70
0
 10
1331.7155558788
 20
739.6288885362
 10
1331.689141401
 20
739.6901567985
 10
1331.65364825
 20
739.7744551975
  0
LINE
  5
422
100
AcDbEntity
  8
0
100
AcDbLine
 62
7
  6
CONTINUOUS
 10
1331.65364825
 20
739.7744551975
 11
1331.6361839388
 21
739.8167010809
  0
LWPOLYLINE
  5
423
100
AcDbEntity
  8
0
100
AcDbPolyline
 62
7
  6
CONTINUOUS
 90
15
 70
0
 10
1336.0784582361
 20
740.4795178852
 10
1336.0634317115
 20
740.5183396282
 10
1336.0466659689
 20
740.5550851555
 10
1336.0286634894
 20
740.5873262416
 10
1336.0083266844
 20
740.6158010169
 10
1335.9840691551
 20
740.6406983312
 10
1335.9529377306
 20
740.6616013184
 10
1335.9162434898
 20
740.67422698
 10
1335.8761191687
 20
740.6757864072
 10
1335.8379097733
 20
740.6656620452
 10
1335.8064515764
 20
740.647405073
 10
1335.7806606985
 20
740.6237240495
 10
1335.7598662756
 20
740.5971117458
 10
1335.7417247879
 20
740.5670856838
 10
1335.7381819777
 20
740.5603904087
  0
LWPOLYLINE
  5
424
100
AcDbEntity
  8
0
100
AcDbPolyline
 62
7
  6
CONTINUOUS
 90
15
 70
0
 10
1337.578444973
 20
740.4795581032
 10
1337.5634028618
 20
740.5184065756
 10
1337.5466417306
 20
740.5551289825
 10
1337.5286436942
 20
740.5873587844
 10
1337.5082956775
 20
740.6158417243
 10
1337.4840159133
 20
740.6407406626
 10
1337.4528616163
 20
740.6616364747
 10
1337.4161447704
 20
740.6742465175
 10
1337.3759863596
 20
740.6757751607
 10
1337.337771563
 20
740.6656050954
 10
1337.3063728931
 20
740.6473423263
 10
1337.2806334642
 20
740.6236916312
 10
1337.2598451939
 20
740.5970832943
 10
1337.2417041333
 20
740.5670509057
 10
1337.2382602185
 20
740.5605436688
  0
LWPOLYLINE
  5
425
100
AcDbEntity
  8
0
100
AcDbPolyline
 62
7
  6
CONTINUOUS
 90
15
 70
0
 10
1343.5786097626
 20
740.4790973689
 10
1343.5633148721
 20
740.5186157309
 10
1343.5465574382
 20
740.5553054275
 10
1343.5285259103
 20
740.5875482434
 10
1343.5080962382
 20
740.6160760198
 10
1343.4839395539
 20
740.6408052097
 10
1343.4537049552
 20
740.6612152623
 10
1343.4181679545
 20
740.6738477707
 10
1343.3788141617
 20
740.676062297
 10
1343.3407513979
 20
740.6668291388
 10
1343.3084956305
 20
740.6489099418
 10
1343.2818863087
 20
740.6250708826
 10
1343.2608151205
 20
740.5984999467
 10
1343.2425456092
 20
740.5685910956
 10
1343.2382507173
 20
740.5605164178
  0
LWPOLYLINE
  5
426
100
AcDbEntity
  8
0
100
AcDbPolyline
 62
7
  6
CONTINUOUS
 90
15
 70
0
 10
1334.5785422724
 20
740.4792809473
 10
1334.5634574464
 20
740.5182737801
 10
1334.5466778367
 20
740.5550653454
 10
1334.5286606361
 20
740.5873317106
 10
1334.508325354
 20
740.6157972569
 10
1334.4840797949
 20
740.6406854954
 10
1334.452956683
 20
740.6615969567
 10
1334.4162694609
 20
740.6742265464
 10
1334.3761636024
 20
740.6757897496
 10
1334.3379659952
 20
740.6656795283
 10
1334.306497479
 20
740.6474376577
 10
1334.2806921357
 20
740.6237651524
 10
1334.2598892813
 20
740.5971480022
 10
1334.2417432393
 20
740.5671144445
 10
1334.2382210125
 20
740.560459554
  0
LWPOLYLINE
  5
427
100
AcDbEntity
  8
0
100
AcDbPolyline
 62
7
  6
CONTINUOUS
 90
15
 70
0
 10
1333.0786172591
 20
740.4790732077
 10
1333.0634980681
 20
740.5181742474
 10
1333.0467180283
 20
740.5549852424
 10
1333.028701684
 20
740.5872683074
 10
1333.0083692041
 20
740.6157434772
 10
1332.9841398083
 20
740.6406315785
 10
1332.953076928
 20
740.6615352821
 10
1332.9164539466
 20
740.6741935849
 10
1332.8763566049
 20
740.6758133071
 10
1332.8381358989
 20
740.6657513044
 10
1332.8066349802
 20
740.6475387875
 10
1332.7807958027
 20
740.6238801224
 10
1332.7599659995
 20
740.597264662
 10
1332.7418008306
 20
740.5672258596
 10
1332.7382373248
 20
740.5604957505
  0
LWPOLYLINE
  5
428
100
AcDbEntity
  8
0
100
AcDbPolyline
 62
7
  6
CONTINUOUS
 90
15
 70
0
 10
1340.578010888
 20
740.480753268
 10
1340.5665276363
 20
740.5108031686
 10
1340.5495724047
 20
740.5491967292
 10
1340.5315722857
 20
740.5825910231
 10
1340.5115114147
 20
740.6118414261
 10
1340.4878163914
 20
740.6374063561
 10
1340.4576009356
 20
740.6591339645
 10
1340.4216707679
 20
740.6730692676
 10
1340.3814668853
 20
740.6762808107
 10
1340.3424692176
 20
740.6675078129
 10
1340.3097701224
 20
740.6498287697
 10
1340.282881523
 20
740.626138137
 10
1340.2614634919
 20
740.5994339523
 10
1340.2429015587
 20
740.5692448652
 10
1340.2382178391
 20
740.5604573014
  0
LWPOLYLINE
  5
429
100
AcDbEntity
  8
0
100
AcDbPolyline
 62
7
  6
CONTINUOUS
 90
15
 70
0
 10
1339.0781224841
 20
740.4804481008
 10
1339.0665135742
 20
740.5108378093
 10
1339.0495463165
 20
740.5492523472
 10
1339.031525617
 20
740.5826736879
 10
1339.0114178431
 20
740.6119655718
 10
1338.9876773116
 20
740.6375321294
 10
1338.9574845514
 20
740.6591975409
 10
1338.9216102606
 20
740.6730887558
 10
1338.8814387198
 20
740.6762878456
 10
1338.8424744145
 20
740.6675137492
 10
1338.8098259859
 20
740.6498653351
 10
1338.7829610089
 20
740.6262254408
 10
1338.7615205542
 20
740.5995250605
 10
1338.7429364466
 20
740.5693120152
 10
1338.7383133481
 20
740.5606428812
  0
LWPOLYLINE
  5
42A
100
AcDbEntity
  8
0
100
AcDbPolyline
 62
7
  6
CONTINUOUS
 90
15
 70
0
 10
1342.0780841041
 20
740.4805555393
 10
1342.066574828
 20
740.5106880868
 10
1342.0496578149
 20
740.5490206269
 10
1342.0317062528
 20
740.5823750346
 10
1342.0117032316
 20
740.6116043488
 10
1341.988093064
 20
740.6371542163
 10
1341.9580482448
 20
740.6588854459
 10
1341.9222761236
 20
740.6729332041
 10
1341.8820442856
 20
740.6763296833
 10
1341.8429275509
 20
740.6676854913
 10
1341.8101178951
 20
740.650073397
 10
1341.783128349
 20
740.6264054682
 10
1341.761630642
 20
740.5996809193
 10
1341.7430138525
 20
740.5694538945
 10
1341.738275756
 20
740.5605722158
  0
LINE
  5
42B
100
AcDbEntity
  8
0
100
AcDbLine
 62
7
  6
CONTINUOUS
 10
1333.1952189653
 20
740.1594099602
 11
1333.1644403887
 21
740.2428099786
  0
LINE
  5
42C
100
AcDbEntity
  8
0
100
AcDbLine
 62
7
  6
CONTINUOUS
 10
1343.6952189614
 20
740.1594099709
 11
1343.6644450206
 21
740.2427974138
  0
LINE
  5
42D
100
AcDbEntity
  8
0
100
AcDbLine
 62
7
  6
CONTINUOUS
 10
1334.6953969922
 20
740.1589295601
 11
1334.6397425119
 21
740.3102779624
  0
LINE
  5
42E
100
AcDbEntity
  8
0
100
AcDbLine
 62
7
  6
CONTINUOUS
 10
1336.1953994939
 20
740.1589228039
 11
1336.1397425119
 21
740.3102779624
  0
LINE
  5
42F
100
AcDbEntity
  8
0
100
AcDbLine
 62
7
  6
CONTINUOUS
 10
1337.6953924819
 20
740.1589417399
 11
1337.6397425119
 21
740.3102779624
  0
LINE
  5
430
100
AcDbEntity
  8
0
100
AcDbLine
 62
7
  6
CONTINUOUS
 10
1339.1953603896
 20
740.1590283911
 11
1339.1397425122
 21
740.3102779615
  0
LINE
  5
431
100
AcDbEntity
  8
0
100
AcDbLine
 62
7
  6
CONTINUOUS
 10
1340.6953716997
 20
740.1589978559
 11
1340.6397425122
 21
740.3102779615
  0
LINE
  5
432
100
AcDbEntity
  8
0
100
AcDbLine
 62
7
  6
CONTINUOUS
 10
1342.1953845321
 20
740.158963207
 11
1342.1397425122
 21
740.3102779615
  0
LWPOLYLINE
  5
433
100
AcDbEntity
  8
0
100
AcDbPolyline
 62
7
  6
CONTINUOUS
 90
3
 70
0
 10
1333.1642829223
 20
740.2432371359
 10
1333.0886332971
 20
740.4512591856
 10
1333.0787767842
 20
740.4786381849
  0
LWPOLYLINE
  5
434
100
AcDbEntity
  8
0
100
AcDbPolyline
 62
7
  6
CONTINUOUS
 90
3
 70
0
 10
1343.6642829215
 20
740.2432371381
 10
1343.5886332969
 20
740.4512591863
 10
1343.5787755817
 20
740.4786415287
  0
LINE
  5
435
100
AcDbEntity
  8
0
100
AcDbLine
 62
7
  6
CONTINUOUS
 10
1334.6397425119
 20
740.3102779624
 11
1334.5787768371
 21
740.4786380379
  0
LINE
  5
436
100
AcDbEntity
  8
0
100
AcDbLine
 62
7
  6
CONTINUOUS
 10
1334.5785431581
 20
740.4792870634
 11
1334.5787741605
 21
740.4786454807
  0
LINE
  5
437
100
AcDbEntity
  8
0
100
AcDbLine
 62
7
  6
CONTINUOUS
 10
1336.1397425119
 20
740.3102779624
 11
1336.0784681499
 21
740.4794950598
  0
LINE
  5
438
100
AcDbEntity
  8
0
100
AcDbLine
 62
7
  6
CONTINUOUS
 10
1337.6397425119
 20
740.3102779624
 11
1337.5784574382
 21
740.4795247501
  0
LINE
  5
439
100
AcDbEntity
  8
0
100
AcDbLine
 62
7
  6
CONTINUOUS
 10
1339.1397425122
 20
740.3102779615
 11
1339.078122979
 21
740.4804501259
  0
LINE
  5
43A
100
AcDbEntity
  8
0
100
AcDbLine
 62
7
  6
CONTINUOUS
 10
1340.6397425122
 20
740.3102779615
 11
1340.5780227825
 21
740.4807267209
  0
LINE
  5
43B
100
AcDbEntity
  8
0
100
AcDbLine
 62
7
  6
CONTINUOUS
 10
1342.1397425122
 20
740.3102779615
 11
1342.0780904581
 21
740.4805399325
  0
LINE
  5
43C
100
AcDbEntity
  8
0
100
AcDbLine
 62
7
  6
CONTINUOUS
 10
1385.6345308138
 20
860.8393290555
 11
1385.6345308138
 21
825.8393290555
  0
LINE
  5
43D
100
AcDbEntity
  8
0
100
AcDbLine
 62
7
  6
CONTINUOUS
 10
1386.6345308138
 20
859.8393290555
 11
1386.6345308138
 21
826.8393290555
  0
LINE
  5
43E
100
AcDbEntity
  8
0
100
AcDbLine
 62
7
  6
CONTINUOUS
 10
1332.2641616162
 20
407.2394271225
 11
1332.3114399188
 21
407.3803164686
  0
LWPOLYLINE
  5
43F
100
AcDbEntity
  8
0
100
AcDbPolyline
 62
7
  6
CONTINUOUS
 90
3
 70
0
 10
1333.8285346369
 20
407.1993474104
 10
1333.8897425119
 20
407.3683801486
 10
1333.9142829223
 20
407.4354209752
  0
LWPOLYLINE
  5
440
100
AcDbEntity
  8
0
100
AcDbPolyline
 62
7
  6
CONTINUOUS
 90
3
 70
0
 10
1335.3284937527
 20
407.1992340291
 10
1335.3897425119
 20
407.3683801486
 10
1335.4142829223
 20
407.4354209752
  0
LWPOLYLINE
  5
441
100
AcDbEntity
  8
0
100
AcDbPolyline
 62
7
  6
CONTINUOUS
 90
3
 70
0
 10
1336.8287737157
 20
407.2000113936
 10
1336.8897425119
 20
407.3683801486
 10
1336.9142829223
 20
407.4354209752
  0
LWPOLYLINE
  5
442
100
AcDbEntity
  8
0
100
AcDbPolyline
 62
7
  6
CONTINUOUS
 90
3
 70
0
 10
1338.3280059222
 20
407.1978848754
 10
1338.3897425122
 20
407.3683801495
 10
1338.4142829228
 20
407.4354209763
  0
LWPOLYLINE
  5
443
100
AcDbEntity
  8
0
100
AcDbPolyline
 62
7
  6
CONTINUOUS
 90
3
 70
0
 10
1339.8279422745
 20
407.1977093552
 10
1339.8897425122
 20
407.3683801495
 10
1339.9142829228
 20
407.4354209763
  0
LWPOLYLINE
  5
444
100
AcDbEntity
  8
0
100
AcDbPolyline
 62
7
  6
CONTINUOUS
 90
3
 70
0
 10
1341.3279401824
 20
407.1977035879
 10
1341.3897425122
 20
407.3683801495
 10
1341.4142829228
 20
407.4354209763
  0
LWPOLYLINE
  5
445
100
AcDbEntity
  8
0
100
AcDbPolyline
 62
7
  6
CONTINUOUS
 90
3
 70
0
 10
1342.8279659591
 20
407.1977746563
 10
1342.8897425122
 20
407.3683801495
 10
1342.9142829228
 20
407.4354209763
  0
LINE
  5
446
100
AcDbEntity
  8
0
100
AcDbLine
 62
7
  6
CONTINUOUS
 10
1332.3484449902
 20
407.358830798
 11
1332.4096437939
 21
407.5210769582
  0
LINE
  5
447
100
AcDbEntity
  8
0
100
AcDbLine
 62
7
  6
CONTINUOUS
 10
1332.33507279
 20
407.3252890791
 11
1332.3484666944
 21
407.358888902
  0
LINE
  5
448
100
AcDbEntity
  8
0
100
AcDbLine
 62
7
  6
CONTINUOUS
 10
1332.3205779117
 20
407.2938928965
 11
1332.33507279
 21
407.3252890791
  0
LINE
  5
449
100
AcDbEntity
  8
0
100
AcDbLine
 62
7
  6
CONTINUOUS
 10
1332.7381182997
 20
410.5602697954
 11
1332.6677940389
 21
410.4247755463
  0
LINE
  5
44A
100
AcDbEntity
  8
0
100
AcDbLine
 62
7
  6
CONTINUOUS
 10
1331.227750194
 20
409.8652271987
 11
1331.2012039497
 21
409.8145060025
  0
LINE
  5
44B
100
AcDbEntity
  8
0
100
AcDbLine
 62
7
  6
CONTINUOUS
 10
1331.2012039497
 20
409.8145060025
 11
1331.1055700044
 21
409.6338255875
  0
LWPOLYLINE
  5
44C
100
AcDbEntity
  8
0
100
AcDbPolyline
 62
7
  6
CONTINUOUS
 90
3
 70
0
 10
1333.9039591634
 20
407.4316542473
 10
1333.9163983092
 20
407.4370121161
 10
1333.9317130529
 20
407.4393595451
  0
LWPOLYLINE
  5
44D
100
AcDbEntity
  8
0
100
AcDbPolyline
 62
7
  6
CONTINUOUS
 90
3
 70
0
 10
1335.4039799593
 20
407.4316651375
 10
1335.4164688977
 20
407.4370376218
 10
1335.4317024014
 20
407.4393595494
  0
LWPOLYLINE
  5
44E
100
AcDbEntity
  8
0
100
AcDbPolyline
 62
7
  6
CONTINUOUS
 90
3
 70
0
 10
1336.9039865612
 20
407.4316688663
 10
1336.9164758286
 20
407.4370370239
 10
1336.9317068446
 20
407.4393584139
  0
LINE
  5
44F
100
AcDbEntity
  8
02___PRT_ALL_AXES
100
AcDbLine
 62
7
  6
CONTINUOUS
 10
1332.623857875
 20
410.23505988
 11
1331.6281531717
 21
409.8367779987
  0
LINE
  5
450
100
AcDbEntity
  8
02___PRT_ALL_AXES
100
AcDbLine
 62
7
  6
CONTINUOUS
 10
1331.1406368218
 20
409.6417714587
 11
1329.2446361644
 21
408.8833711958
  0
LINE
  5
451
100
AcDbEntity
  8
0
100
AcDbLine
 62
7
  6
CONTINUOUS
 10
1332.1902978663
 20
407.17428114
 11
1332.2131849982
 21
407.1809526573
  0
LWPOLYLINE
  5
452
100
AcDbEntity
  8
0
100
AcDbPolyline
 62
7
  6
CONTINUOUS
 90
3
 70
0
 10
1338.4088462568
 20
407.4342449157
 10
1338.4243850971
 20
407.4387142447
 10
1338.4323909022
 20
407.4393350922
  0
LINE
  5
453
100
AcDbEntity
  8
0
100
AcDbLine
 62
7
  6
CONTINUOUS
 10
1022.6345308138
 20
862.8393290555
 11
1202.6345308138
 21
862.8393290555
  0
LINE
  5
454
100
AcDbEntity
  8
0
100
AcDbLine
 62
7
  6
CONTINUOUS
 10
880.6345308138
 20
885.8393290555
 11
1346.6345308138
 21
885.8393290555
  0
LINE
  5
455
100
AcDbEntity
  8
0
100
AcDbLine
 62
7
  6
CONTINUOUS
 10
1406.6345308138
 20
719.3393290555
 11
1406.6345308138
 21
746.3393290555
  0
LINE
  5
456
100
AcDbEntity
  8
0
100
AcDbLine
 62
7
  6
CONTINUOUS
 10
1334.2381198164
 20
410.5602727253
 11
1334.2382308197
 21
410.5604869841
  0
LINE
  5
457
100
AcDbEntity
  8
0
100
AcDbLine
 62
7
  6
CONTINUOUS
 10
1334.2381161962
 20
410.5602657317
 11
1334.1252044791
 21
410.3431095714
  0
LINE
  5
458
100
AcDbEntity
  8
0
100
AcDbLine
 62
7
  6
CONTINUOUS
 10
1335.7381978317
 20
410.5604233494
 11
1335.6252044791
 21
410.3431095714
  0
LINE
  5
459
100
AcDbEntity
  8
0
100
AcDbLine
 62
7
  6
CONTINUOUS
 10
1337.2381201374
 20
410.5602733455
 11
1337.1252044791
 21
410.3431095714
  0
LWPOLYLINE
  5
45A
100
AcDbEntity
  8
0
100
AcDbPolyline
 62
7
  6
CONTINUOUS
 90
3
 70
0
 10
1338.7381175418
 20
410.5602683311
 10
1338.6057772872
 20
410.30596945
 10
1338.574660176
 20
410.2466515384
  0
LWPOLYLINE
  5
45B
100
AcDbEntity
  8
0
100
AcDbPolyline
 62
7
  6
CONTINUOUS
 90
3
 70
0
 10
1340.2382351216
 20
410.5604952802
 10
1340.1057772872
 20
410.30596945
 10
1340.0746608445
 20
410.2466528128
  0
LWPOLYLINE
  5
45C
100
AcDbEntity
  8
0
100
AcDbPolyline
 62
7
  6
CONTINUOUS
 90
3
 70
0
 10
1341.7381181716
 20
410.5602695479
 10
1341.6057772872
 20
410.30596945
 10
1341.5746633444
 20
410.2466575783
  0
LWPOLYLINE
  5
45D
100
AcDbEntity
  8
0
100
AcDbPolyline
 62
7
  6
CONTINUOUS
 90
3
 70
0
 10
1343.2381148464
 20
410.5602631241
 10
1343.1057772863
 20
410.3059694482
 10
1343.0744916446
 20
410.2463302705
  0
LINE
  5
45E
100
AcDbEntity
  8
0
100
AcDbLine
 62
7
  6
CONTINUOUS
 10
1334.1252044791
 20
410.3431095714
 11
1334.0746599217
 21
410.2466547589
  0
LINE
  5
45F
100
AcDbEntity
  8
0
100
AcDbLine
 62
7
  6
CONTINUOUS
 10
1335.6252044791
 20
410.3431095714
 11
1335.5746559505
 21
410.2466472048
  0
LINE
  5
460
100
AcDbEntity
  8
0
100
AcDbLine
 62
7
  6
CONTINUOUS
 10
1337.1252044791
 20
410.3431095714
 11
1337.0746625603
 21
410.2466597789
  0
LINE
  5
461
100
AcDbEntity
  8
0
100
AcDbLine
 62
7
  6
CONTINUOUS
 10
1332.6677940389
 20
410.4247755463
 11
1332.5538124524
 21
410.207041711
  0
LINE
  5
462
100
AcDbEntity
  8
0
100
AcDbLine
 62
7
  6
CONTINUOUS
 10
1331.1055700044
 20
409.6338255875
 11
1331.1013958813
 21
409.6260750825
  0
LINE
  5
463
100
AcDbEntity
  8
0
100
AcDbLine
 62
7
  6
CONTINUOUS
 10
1331.2654763411
 20
409.9279134793
 11
1331.2265654493
 21
409.8629476631
  0
LWPOLYLINE
  5
464
100
AcDbEntity
  8
0
100
AcDbPolyline
 62
7
  6
CONTINUOUS
 90
4
 70
0
 10
1339.9110117246
 20
407.4438135285
 10
1339.9082547916
 20
407.4394191641
 10
1339.901155207
 20
407.4298222827
 10
1339.9039312117
 20
407.4316378375
  0
LWPOLYLINE
  5
465
100
AcDbEntity
  8
0
100
AcDbPolyline
 62
7
  6
CONTINUOUS
 90
4
 70
0
 10
1333.9109912222
 20
407.443780067
 10
1333.9082352161
 20
407.4393895835
 10
1333.9011452805
 20
407.4298108667
 10
1333.9039591634
 20
407.4316542473
  0
LWPOLYLINE
  5
466
100
AcDbEntity
  8
0
100
AcDbPolyline
 62
7
  6
CONTINUOUS
 90
4
 70
0
 10
1342.9109880557
 20
407.4437750683
 10
1342.9082320365
 20
407.4393850023
 10
1342.9011433406
 20
407.4298088382
 10
1342.9039640604
 20
407.4316571892
  0
LWPOLYLINE
  5
467
100
AcDbEntity
  8
0
100
AcDbPolyline
 62
7
  6
CONTINUOUS
 90
4
 70
0
 10
1335.4109702985
 20
407.4437503214
 10
1335.4082128759
 20
407.4393595203
 10
1335.4011241116
 20
407.4297845517
 10
1335.4039799593
 20
407.4316651375
  0
LWPOLYLINE
  5
468
100
AcDbEntity
  8
0
100
AcDbPolyline
 62
7
  6
CONTINUOUS
 90
4
 70
0
 10
1341.4109693461
 20
407.443748556
 10
1341.4082120405
 20
407.4393581325
 10
1341.4011240527
 20
407.4297847391
 10
1341.4039817533
 20
407.4316661285
  0
LWPOLYLINE
  5
469
100
AcDbEntity
  8
0
100
AcDbPolyline
 62
7
  6
CONTINUOUS
 90
4
 70
0
 10
1336.9109663215
 20
407.4437410898
 10
1336.9082103592
 20
407.4393534721
 10
1336.9011278611
 20
407.429789869
 10
1336.9039865612
 20
407.4316688663
  0
LWPOLYLINE
  5
46A
100
AcDbEntity
  8
0
100
AcDbPolyline
 62
7
  6
CONTINUOUS
 90
3
 70
0
 10
1332.2880619737
 20
407.2404921479
 10
1332.305207368
 20
407.2659032967
 10
1332.3205779117
 20
407.2938928965
  0
LWPOLYLINE
  5
46B
100
AcDbEntity
  8
0
100
AcDbPolyline
 62
7
  6
CONTINUOUS
 90
4
 70
0
 10
1338.4050547609
 20
407.4347358455
 10
1338.4028595548
 20
407.4318360965
 10
1338.4006747342
 20
407.4292792664
 10
1338.4088462568
 20
407.4342449157
  0
LWPOLYLINE
  5
46C
100
AcDbEntity
  8
0
100
AcDbPolyline
 62
7
  6
CONTINUOUS
 90
3
 70
0
 10
1334.0759347766
 20
410.2453678182
 10
1334.0783607645
 20
410.2483877937
 10
1334.0785359827
 20
410.2488104232
  0
LWPOLYLINE
  5
46D
100
AcDbEntity
  8
0
100
AcDbPolyline
 62
7
  6
CONTINUOUS
 90
3
 70
0
 10
1338.5759337229
 20
410.2453695573
 10
1338.5783582174
 20
410.2483872742
 10
1338.5785332062
 20
410.2488054267
  0
LWPOLYLINE
  5
46E
100
AcDbEntity
  8
0
100
AcDbPolyline
 62
7
  6
CONTINUOUS
 90
3
 70
0
 10
1335.5759349457
 20
410.2453725269
 10
1335.5783593191
 20
410.2483881995
 10
1335.5785347087
 20
410.248804136
  0
LWPOLYLINE
  5
46F
100
AcDbEntity
  8
0
100
AcDbPolyline
 62
7
  6
CONTINUOUS
 90
3
 70
0
 10
1337.0759393307
 20
410.2453727158
 10
1337.0783692978
 20
410.2483956005
 10
1337.0785488698
 20
410.2488210542
  0
LWPOLYLINE
  5
470
100
AcDbEntity
  8
0
100
AcDbPolyline
 62
7
  6
CONTINUOUS
 90
3
 70
0
 10
1340.0759386106
 20
410.2453778815
 10
1340.078365642
 20
410.2483942274
 10
1340.0785434604
 20
410.2488108033
  0
LWPOLYLINE
  5
471
100
AcDbEntity
  8
0
100
AcDbPolyline
 62
7
  6
CONTINUOUS
 90
3
 70
0
 10
1341.5759401337
 20
410.2453787873
 10
1341.5783715905
 20
410.2483987459
 10
1341.5785535613
 20
410.2488184467
  0
LINE
  5
472
100
AcDbEntity
  8
0
100
AcDbLine
 62
7
  6
CONTINUOUS
 10
1343.0762351151
 20
410.2457654067
 11
1343.0794412252
 21
410.2495566866
  0
LINE
  5
473
100
AcDbEntity
  8
02___PRT_ALL_AXES
100
AcDbLine
 62
7
  6
CONTINUOUS
 10
1354.0900008334
 20
403.5596424019
 11
1352.7900008334
 21
402.6929757353
  0
LWPOLYLINE
  5
474
100
AcDbEntity
  8
0
100
AcDbPolyline
 62
7
  6
CONTINUOUS
 90
3
 70
0
 10
1343.0794412252
 20
410.2495566866
 10
1343.0729226396
 20
410.2453075045
 10
1343.0584792255
 20
410.2404362498
  0
LWPOLYLINE
  5
475
100
AcDbEntity
  8
0
100
AcDbPolyline
 62
7
  6
CONTINUOUS
 90
3
 70
0
 10
1334.0785359827
 20
410.2488104232
 10
1334.0691140651
 20
410.2435704408
 10
1334.0534087801
 20
410.2396724955
  0
LWPOLYLINE
  5
476
100
AcDbEntity
  8
0
100
AcDbPolyline
 62
7
  6
CONTINUOUS
 90
3
 70
0
 10
1335.5785347087
 20
410.248804136
 10
1335.5691379793
 20
410.2435787269
 10
1335.553453732
 20
410.2396816173
  0
LWPOLYLINE
  5
477
100
AcDbEntity
  8
0
100
AcDbPolyline
 62
7
  6
CONTINUOUS
 90
3
 70
0
 10
1337.0785488698
 20
410.2488210542
 10
1337.0691011945
 20
410.2435669621
 10
1337.0533704591
 20
410.239667848
  0
LWPOLYLINE
  5
478
100
AcDbEntity
  8
0
100
AcDbPolyline
 62
7
  6
CONTINUOUS
 90
3
 70
0
 10
1338.5785332062
 20
410.2488054267
 10
1338.5691322978
 20
410.243577348
 10
1338.553445026
 20
410.239679977
  0
LWPOLYLINE
  5
479
100
AcDbEntity
  8
0
100
AcDbPolyline
 62
7
  6
CONTINUOUS
 90
3
 70
0
 10
1340.0785434604
 20
410.2488108033
 10
1340.0691260194
 20
410.2435765107
 10
1340.0534213568
 20
410.2396807266
  0
LWPOLYLINE
  5
47A
100
AcDbEntity
  8
0
100
AcDbPolyline
 62
7
  6
CONTINUOUS
 90
3
 70
0
 10
1341.5785535613
 20
410.2488184467
 10
1341.5691049968
 20
410.2435701264
 10
1341.553369487
 20
410.2396752409
  0
LWPOLYLINE
  5
47B
100
AcDbEntity
  8
0
100
AcDbPolyline
 62
7
  6
CONTINUOUS
 90
4
 70
0
 10
1332.2131849982
 20
407.1809526573
 10
1332.2433279155
 20
407.1968846616
 10
1332.2678158197
 20
407.2172155463
 10
1332.2880619737
 20
407.2404921479
  0
LWPOLYLINE
  5
47C
100
AcDbEntity
  8
0
100
AcDbPolyline
 62
7
  6
CONTINUOUS
 90
3
 70
0
 10
1330.7621367898
 20
408.1491041423
 10
1330.8033368975
 20
408.1697941934
 10
1330.8050153344
 20
408.1711352473
  0
LWPOLYLINE
  5
47D
100
AcDbEntity
  8
0
100
AcDbPolyline
 62
7
  6
CONTINUOUS
 90
3
 70
0
 10
1339.9039312117
 20
407.4316378375
 10
1339.916331306
 20
407.4369919309
 10
1339.9317107672
 20
407.4393591388
  0
LWPOLYLINE
  5
47E
100
AcDbEntity
  8
0
100
AcDbPolyline
 62
7
  6
CONTINUOUS
 90
3
 70
0
 10
1342.9039640604
 20
407.4316571892
 10
1342.9164104002
 20
407.4370157722
 10
1342.9317138964
 20
407.4393597686
  0
LWPOLYLINE
  5
47F
100
AcDbEntity
  8
0
100
AcDbPolyline
 62
7
  6
CONTINUOUS
 90
3
 70
0
 10
1341.4039817533
 20
407.4316661285
 10
1341.4164723106
 20
407.4370383529
 10
1341.4317033618
 20
407.4393596126
  0
LINE
  5
480
100
AcDbEntity
  8
0
100
AcDbLine
 62
7
  6
CONTINUOUS
 10
884.6345308138
 20
889.8393290555
 11
1342.6345308138
 21
889.8393290555
  0
LINE
  5
481
100
AcDbEntity
  8
0
100
AcDbLine
 62
7
  6
CONTINUOUS
 10
1366.8845308138
 20
891.8393290555
 11
1366.6345308138
 21
891.8393290555
  0
LINE
  5
482
100
AcDbEntity
  8
0
100
AcDbLine
 62
7
  6
CONTINUOUS
 10
1363.6345308138
 20
891.8393290555
 11
1366.6224299219
 21
891.8393290555
  0
LINE
  5
483
100
AcDbEntity
  8
0
100
AcDbLine
 62
7
  6
CONTINUOUS
 10
1346.6345308138
 20
907.8393290555
 11
1363.6345308138
 21
907.8393290555
  0
LINE
  5
484
100
AcDbEntity
  8
0
100
AcDbLine
 62
7
  6
CONTINUOUS
 10
1363.6345308138
 20
908.0893290555
 11
1366.8845308138
 21
908.0893290555
  0
LINE
  5
485
100
AcDbEntity
  8
0
100
AcDbLine
 62
7
  6
CONTINUOUS
 10
1347.6345308138
 20
910.8393290555
 11
1363.6345308138
 21
910.8393290555
  0
LINE
  5
486
100
AcDbEntity
  8
0
100
AcDbLine
 62
7
  6
CONTINUOUS
 10
1363.6345308138
 20
911.0893290555
 11
1365.8845308138
 21
911.0893290555
  0
LINE
  5
487
100
AcDbEntity
  8
02___PRT_ALL_AXES
100
AcDbLine
 62
7
  6
CONTINUOUS
 10
1354.7903642008
 20
412.481395778
 11
1354.1345308138
 21
411.7993290555
  0
ARC
  5
488
100
AcDbEntity
  8
0
100
AcDbCircle
 62
7
  6
CONTINUOUS
 10
135.7141354393
 20
338.8393290555
 40
3.0
100
AcDbArc
 50
180.0
 51
270.0
  0
ARC
  5
489
100
AcDbEntity
  8
0
100
AcDbCircle
 62
7
  6
CONTINUOUS
 10
135.7141354393
 20
338.8393290555
 40
2.0
100
AcDbArc
 50
180.0
 51
270.0
  0
CIRCLE
  5
48A
100
AcDbEntity
  8
0
100
AcDbCircle
 62
7
  6
CONTINUOUS
 10
430.9641354393
 20
843.3393290555
 40
17.5
  0
CIRCLE
  5
48B
100
AcDbEntity
  8
0
100
AcDbCircle
 62
7
  6
CONTINUOUS
 10
310.9641354393
 20
843.3393290555
 40
17.5
  0
CIRCLE
  5
48C
100
AcDbEntity
  8
0
100
AcDbCircle
 62
7
  6
CONTINUOUS
 10
310.9641354393
 20
843.3393290555
 40
16.5
  0
CIRCLE
  5
48D
100
AcDbEntity
  8
0
100
AcDbCircle
 62
7
  6
CONTINUOUS
 10
430.9641354393
 20
843.3393290555
 40
16.5
  0
ARC
  5
48E
100
AcDbEntity
  8
0
100
AcDbCircle
 62
7
  6
CONTINUOUS
 10
135.7141354393
 20
908.0893290555
 40
3.0
100
AcDbArc
 50
90.0
 51
180.0
  0
ARC
  5
48F
100
AcDbEntity
  8
0
100
AcDbCircle
 62
7
  6
CONTINUOUS
 10
135.9641354393
 20
776.8393290555
 40
3.0
100
AcDbArc
 50
90.0
 51
180.0
  0
ARC
  5
490
100
AcDbEntity
  8
0
100
AcDbCircle
 62
7
  6
CONTINUOUS
 10
135.7141354393
 20
791.8393290555
 40
3.0
100
AcDbArc
 50
180.0
 51
270.0
  0
ARC
  5
491
100
AcDbEntity
  8
0
100
AcDbCircle
 62
7
  6
CONTINUOUS
 10
135.9641354393
 20
776.8393290555
 40
2.0
100
AcDbArc
 50
90.0
 51
180.0
  0
ARC
  5
492
100
AcDbEntity
  8
0
100
AcDbCircle
 62
7
  6
CONTINUOUS
 10
135.7141354393
 20
908.0893290555
 40
2.0
100
AcDbArc
 50
90.0
 51
180.0
  0
ARC
  5
493
100
AcDbEntity
  8
0
100
AcDbCircle
 62
7
  6
CONTINUOUS
 10
726.2141354393
 20
338.8393290555
 40
3.0
100
AcDbArc
 50
270.0
 51
360.0
  0
ARC
  5
494
100
AcDbEntity
  8
0
100
AcDbCircle
 62
7
  6
CONTINUOUS
 10
726.2141354393
 20
338.8393290555
 40
2.0
100
AcDbArc
 50
270.0
 51
360.0
  0
ARC
  5
495
100
AcDbEntity
  8
0
100
AcDbCircle
 62
7
  6
CONTINUOUS
 10
727.9641354393
 20
321.8393290555
 40
1.0
100
AcDbArc
 50
270.0
 51
360.0
  0
CIRCLE
  5
496
100
AcDbEntity
  8
0
100
AcDbCircle
 62
7
  6
CONTINUOUS
 10
550.9641354393
 20
843.3393290555
 40
17.5
  0
CIRCLE
  5
497
100
AcDbEntity
  8
0
100
AcDbCircle
 62
7
  6
CONTINUOUS
 10
550.9641354393
 20
843.3393290555
 40
16.5
  0
ARC
  5
498
100
AcDbEntity
  8
0
100
AcDbCircle
 62
7
  6
CONTINUOUS
 10
725.9641354393
 20
776.8393290555
 40
3.0
100
AcDbArc
 50
0.0
 51
90.0
  0
ARC
  5
499
100
AcDbEntity
  8
0
100
AcDbCircle
 62
7
  6
CONTINUOUS
 10
726.2141354393
 20
908.0893290555
 40
3.0
100
AcDbArc
 50
0.0
 51
90.0
  0
ARC
  5
49A
100
AcDbEntity
  8
0
100
AcDbCircle
 62
7
  6
CONTINUOUS
 10
726.2141354393
 20
791.8393290555
 40
3.0
100
AcDbArc
 50
270.0
 51
360.0
  0
ARC
  5
49B
100
AcDbEntity
  8
0
100
AcDbCircle
 62
7
  6
CONTINUOUS
 10
725.9641354393
 20
776.8393290555
 40
2.0
100
AcDbArc
 50
0.0
 51
90.0
  0
ARC
  5
49C
100
AcDbEntity
  8
0
100
AcDbCircle
 62
7
  6
CONTINUOUS
 10
726.2141354393
 20
908.0893290555
 40
2.0
100
AcDbArc
 50
0.0
 51
90.0
  0
ARC
  5
49D
100
AcDbEntity
  8
0
100
AcDbCircle
 62
7
  6
CONTINUOUS
 10
884.4516438532
 20
335.7070073054
 40
7.0
100
AcDbArc
 50
219.9305798674
 51
236.95470571
  0
ARC
  5
49E
100
AcDbEntity
  8
0
100
AcDbCircle
 62
7
  6
CONTINUOUS
 10
864.6345308138
 20
359.3823193437
 40
7.0
100
AcDbArc
 50
180.0
 51
219.9305798674
  0
ARC
  5
49F
100
AcDbEntity
  8
0
100
AcDbCircle
 62
7
  6
CONTINUOUS
 10
1083.0511609527
 20
845.0060675929
 40
54.2879648426
100
AcDbArc
 50
168.6868254653
 51
170.5920236359
  0
ARC
  5
4A0
100
AcDbEntity
  8
0
100
AcDbCircle
 62
7
  6
CONTINUOUS
 10
1040.4207847244
 20
802.6675695804
 40
54.0386306066
100
AcDbArc
 50
99.3577944004
 51
101.3152341175
  0
ARC
  5
4A1
100
AcDbEntity
  8
0
100
AcDbCircle
 62
7
  6
CONTINUOUS
 10
1040.1096501298
 20
804.5317914621
 40
52.1486273221
100
AcDbArc
 50
98.8526242132
 51
99.353538992
  0
ARC
  5
4A2
100
AcDbEntity
  8
0
100
AcDbCircle
 62
7
  6
CONTINUOUS
 10
1080.8386146144
 20
845.3765778491
 40
52.0446138591
100
AcDbArc
 50
170.5962692898
 51
170.975604326
  0
ARC
  5
4A3
100
AcDbEntity
  8
0
100
AcDbCircle
 62
7
  6
CONTINUOUS
 10
1075.1492249387
 20
846.2458630017
 40
46.2893101612
100
AcDbArc
 50
170.9336631003
 51
172.8455979743
  0
ARC
  5
4A4
100
AcDbEntity
  8
0
100
AcDbCircle
 62
7
  6
CONTINUOUS
 10
1039.1268990461
 20
811.0882281342
 40
45.5190714018
100
AcDbArc
 50
97.1478440748
 51
98.9003907468
  0
ARC
  5
4A5
100
AcDbEntity
  8
0
100
AcDbCircle
 62
7
  6
CONTINUOUS
 10
1003.0666785226
 20
855.585691787
 40
25.5678525674
100
AcDbArc
 50
359.9915778462
 51
0.5234581882
  0
ARC
  5
4A6
100
AcDbEntity
  8
0
100
AcDbCircle
 62
7
  6
CONTINUOUS
 10
1048.3409822486
 20
784.1993618877
 40
19.5256016241
100
AcDbArc
 50
195.4929344598
 51
198.4411105281
  0
ARC
  5
4A7
100
AcDbEntity
  8
0
100
AcDbCircle
 62
7
  6
CONTINUOUS
 10
1047.4608689498
 20
783.9675735494
 40
18.61555715
100
AcDbArc
 50
192.7584274476
 51
195.5290361031
  0
ARC
  5
4A8
100
AcDbEntity
  8
0
100
AcDbCircle
 62
7
  6
CONTINUOUS
 10
1044.9398891645
 20
783.3960471065
 40
16.0306043427
100
AcDbArc
 50
191.304991159
 51
192.7559972312
  0
ARC
  5
4A9
100
AcDbEntity
  8
0
100
AcDbCircle
 62
7
  6
CONTINUOUS
 10
1029.5462522587
 20
869.5639063044
 40
12.7181837327
100
AcDbArc
 50
265.6984293732
 51
266.5719326252
  0
ARC
  5
4AA
100
AcDbEntity
  8
0
100
AcDbCircle
 62
7
  6
CONTINUOUS
 10
884.4516438532
 20
763.9716508056
 40
7.0
100
AcDbArc
 50
123.04529429
 51
140.0694201326
  0
ARC
  5
4AB
100
AcDbEntity
  8
0
100
AcDbCircle
 62
7
  6
CONTINUOUS
 10
864.6345308138
 20
740.2963387674
 40
7.0
100
AcDbArc
 50
140.0694201326
 51
180.0
  0
ARC
  5
4AC
100
AcDbEntity
  8
0
100
AcDbCircle
 62
7
  6
CONTINUOUS
 10
884.6345308138
 20
885.8393290555
 40
4.0
100
AcDbArc
 50
90.0
 51
180.0
  0
ARC
  5
4AD
100
AcDbEntity
  8
0
100
AcDbCircle
 62
7
  6
CONTINUOUS
 10
1026.1328307035
 20
779.7934366637
 40
3.85783864
100
AcDbArc
 50
313.9448493804
 51
315.0319700014
  0
ARC
  5
4AE
100
AcDbEntity
  8
0
100
AcDbCircle
 62
7
  6
CONTINUOUS
 10
1029.5263484904
 20
777.6832046423
 40
0.8918179322
100
AcDbArc
 50
180.0433837252
 51
190.3532603352
  0
ARC
  5
4AF
100
AcDbEntity
  8
0
100
AcDbCircle
 62
7
  6
CONTINUOUS
 10
1327.1345308138
 20
334.8393290555
 40
4.0
100
AcDbArc
 50
180.0
 51
270.0
  0
ARC
  5
4B0
100
AcDbEntity
  8
0
100
AcDbCircle
 62
7
  6
CONTINUOUS
 10
1345.6345308138
 20
329.8393290555
 40
1.0
100
AcDbArc
 50
0.0
 51
90.0
  0
ARC
  5
4B1
100
AcDbEntity
  8
0
100
AcDbCircle
 62
7
  6
CONTINUOUS
 10
1336.2096044224
 20
408.6403539262
 40
4.4288575002
100
AcDbArc
 50
193.3460618648
 51
193.4599200695
  0
ARC
  5
4B2
100
AcDbEntity
  8
0
100
AcDbCircle
 62
7
  6
CONTINUOUS
 10
1336.0510874889
 20
407.4794339018
 40
0.8263609796
100
AcDbArc
 50
339.1976934431
 51
340.192969744
  0
ARC
  5
4B3
100
AcDbEntity
  8
0
100
AcDbCircle
 62
7
  6
CONTINUOUS
 10
1333.6084833573
 20
407.6011833443
 40
0.3423816245
100
AcDbArc
 50
330.46598067
 51
330.7928200374
  0
ARC
  5
4B4
100
AcDbEntity
  8
0
100
AcDbCircle
 62
7
  6
CONTINUOUS
 10
1332.2341560675
 20
407.4879281487
 40
0.1324879895
100
AcDbArc
 50
305.6849038071
 51
309.9546227721
  0
ARC
  5
4B5
100
AcDbEntity
  8
0
100
AcDbCircle
 62
7
  6
CONTINUOUS
 10
1332.1651902509
 20
407.2715916689
 40
0.1004699239
100
AcDbArc
 50
327.7062054024
 51
341.1322804602
  0
ARC
  5
4B6
100
AcDbEntity
  8
0
100
AcDbCircle
 62
7
  6
CONTINUOUS
 10
1332.1669138164
 20
407.2703538705
 40
0.0985352845
100
AcDbArc
 50
274.7242822119
 51
283.7009657907
  0
ARC
  5
4B7
100
AcDbEntity
  8
02___PRT_ALL_AXES
100
AcDbCircle
 62
7
  6
CONTINUOUS
 10
1329.2757944943
 20
408.8054753712
 40
0.0838963707
100
AcDbArc
 50
111.8014094862
 51
156.2017177809
  0
ARC
  5
4B8
100
AcDbEntity
  8
0
100
AcDbCircle
 62
7
  6
CONTINUOUS
 10
1332.2593679802
 20
407.2732981932
 40
0.0342086009
100
AcDbArc
 50
271.4970480346
 51
278.0553431101
  0
ARC
  5
4B9
100
AcDbEntity
  8
0
100
AcDbCircle
 62
7
  6
CONTINUOUS
 10
1328.4346409993
 20
409.2024204719
 40
4.8220352823
100
AcDbArc
 50
11.381342469
 51
12.2225093436
  0
ARC
  5
4BA
100
AcDbEntity
  8
0
100
AcDbCircle
 62
7
  6
CONTINUOUS
 10
1329.1855530194
 20
409.3648661105
 40
4.0537526734
100
AcDbArc
 50
12.3412798733
 51
12.5633097109
  0
ARC
  5
4BB
100
AcDbEntity
  8
0
100
AcDbCircle
 62
7
  6
CONTINUOUS
 10
1335.1997477712
 20
409.3680984601
 40
4.0391949235
100
AcDbArc
 50
12.3584257529
 51
12.5762174854
  0
ARC
  5
4BC
100
AcDbEntity
  8
0
100
AcDbCircle
 62
7
  6
CONTINUOUS
 10
1332.2027415984
 20
409.3686597687
 40
4.0361500339
100
AcDbArc
 50
12.3614521067
 51
12.5889607476
  0
ARC
  5
4BD
100
AcDbEntity
  8
0
100
AcDbCircle
 62
7
  6
CONTINUOUS
 10
1330.709114795
 20
409.3700402236
 40
4.0296289286
100
AcDbArc
 50
12.3647730367
 51
12.5951278684
  0
ARC
  5
4BE
100
AcDbEntity
  8
0
100
AcDbCircle
 62
7
  6
CONTINUOUS
 10
1335.4289369988
 20
409.4192145293
 40
3.8043746638
100
AcDbArc
 50
12.576422041
 51
12.7762248654
  0
ARC
  5
4BF
100
AcDbEntity
  8
0
100
AcDbCircle
 62
7
  6
CONTINUOUS
 10
1331.5195736396
 20
409.7288858624
 40
0.3212803869
100
AcDbArc
 50
145.3425748893
 51
146.3050864868
  0
ARC
  5
4C0
100
AcDbEntity
  8
0
100
AcDbCircle
 62
7
  6
CONTINUOUS
 10
1334.514724119
 20
410.4172414857
 40
0.3113928399
100
AcDbArc
 50
150.8572777548
 51
152.613553588
  0
ARC
  5
4C1
100
AcDbEntity
  8
0
100
AcDbCircle
 62
7
  6
CONTINUOUS
 10
1333.0124045768
 20
410.4184861405
 40
0.3087628478
100
AcDbArc
 50
150.7015048132
 51
152.6144264709
  0
ARC
  5
4C2
100
AcDbEntity
  8
0
100
AcDbCircle
 62
7
  6
CONTINUOUS
 10
1334.4789530544
 20
410.4371008797
 40
0.270478806
100
AcDbArc
 50
149.7156866507
 51
150.8414635561
  0
ARC
  5
4C3
100
AcDbEntity
  8
0
100
AcDbCircle
 62
7
  6
CONTINUOUS
 10
1332.9722985357
 20
410.4409126266
 40
0.26281248
100
AcDbArc
 50
149.2709380831
 51
150.6865631824
  0
ARC
  5
4C4
100
AcDbEntity
  8
0
100
AcDbCircle
 62
7
  6
CONTINUOUS
 10
1334.288628767
 20
410.1101850313
 40
0.252711702
100
AcDbArc
 50
146.9135927088
 51
147.254748409
  0
ARC
  5
4C5
100
AcDbEntity
  8
02___PRT_ALL_AXES
100
AcDbCircle
 62
7
  6
CONTINUOUS
 10
1329.2757944943
 20
408.8731827399
 40
0.0838963707
100
AcDbArc
 50
203.7982822191
 51
248.1985905138
  0
ARC
  5
4C6
100
AcDbEntity
  8
0
100
AcDbCircle
 62
7
  6
CONTINUOUS
 10
1332.6019156967
 20
410.178075145
 40
0.0628670376
100
AcDbArc
 50
58.7485297642
 51
60.9455155015
  0
ARC
  5
4C7
100
AcDbEntity
  8
0
100
AcDbCircle
 62
7
  6
CONTINUOUS
 10
1337.5457951906
 20
407.4813566953
 40
0.8319890152
100
AcDbArc
 50
339.3511594151
 51
340.0800492338
  0
ARC
  5
4C8
100
AcDbEntity
  8
0
100
AcDbCircle
 62
7
  6
CONTINUOUS
 10
1342.0563566398
 20
407.477440868
 40
0.8207276571
100
AcDbArc
 50
339.2382659216
 51
340.0772227246
  0
ARC
  5
4C9
100
AcDbEntity
  8
0
100
AcDbCircle
 62
7
  6
CONTINUOUS
 10
1340.843071854
 20
407.3620335299
 40
0.5116123947
100
AcDbArc
 50
335.9128506664
 51
336.4261093396
  0
ARC
  5
4CA
100
AcDbEntity
  8
0
100
AcDbCircle
 62
7
  6
CONTINUOUS
 10
1344.3345308138
 20
404.5393290555
 40
0.2
100
AcDbArc
 50
180.0
 51
270.0
  0
ARC
  5
4CB
100
AcDbEntity
  8
0
100
AcDbCircle
 62
7
  6
CONTINUOUS
 10
1337.613707587
 20
408.9656172811
 40
5.8701270763
100
AcDbArc
 50
192.0130216052
 51
193.27156119
  0
ARC
  5
4CC
100
AcDbEntity
  8
0
100
AcDbCircle
 62
7
  6
CONTINUOUS
 10
1337.3741916667
 20
409.1889321046
 40
4.8839684676
100
AcDbArc
 50
11.1552737575
 51
12.3201642941
  0
ARC
  5
4CD
100
AcDbEntity
  8
0
100
AcDbCircle
 62
7
  6
CONTINUOUS
 10
1339.0214801962
 20
409.2204647928
 40
4.7333432011
100
AcDbArc
 50
11.3680857196
 51
12.3460042244
  0
ARC
  5
4CE
100
AcDbEntity
  8
0
100
AcDbCircle
 62
7
  6
CONTINUOUS
 10
1339.6867647993
 20
409.3652377623
 40
4.052489307
100
AcDbArc
 50
12.3576362086
 51
12.5550028435
  0
ARC
  5
4CF
100
AcDbEntity
  8
0
100
AcDbCircle
 62
7
  6
CONTINUOUS
 10
1338.1900504284
 20
409.3658940428
 40
4.0491395513
100
AcDbArc
 50
12.3370967826
 51
12.5757879249
  0
ARC
  5
4D0
100
AcDbEntity
  8
0
100
AcDbCircle
 62
7
  6
CONTINUOUS
 10
1336.7003054892
 20
409.3681290072
 40
4.0386424451
100
AcDbArc
 50
12.3684012841
 51
12.5858117937
  0
ARC
  5
4D1
100
AcDbEntity
  8
0
100
AcDbCircle
 62
7
  6
CONTINUOUS
 10
1339.9380101253
 20
409.4212360067
 40
3.7950790991
100
AcDbArc
 50
12.5543338438
 51
12.8158264289
  0
ARC
  5
4D2
100
AcDbEntity
  8
0
100
AcDbCircle
 62
7
  6
CONTINUOUS
 10
1336.9991612658
 20
409.4349650461
 40
3.7324042723
100
AcDbArc
 50
12.5841404345
 51
12.9328262517
  0
ARC
  5
4D3
100
AcDbEntity
  8
0
100
AcDbCircle
 62
7
  6
CONTINUOUS
 10
1343.5117219101
 20
410.4188425937
 40
0.3079904088
100
AcDbArc
 50
150.6431856014
 51
152.6093864968
  0
ARC
  5
4D4
100
AcDbEntity
  8
0
100
AcDbCircle
 62
7
  6
CONTINUOUS
 10
1343.4814468177
 20
410.4357046399
 40
0.2733366076
100
AcDbArc
 50
150.1617025652
 51
150.6126677291
  0
ARC
  5
4D5
100
AcDbEntity
  8
0
100
AcDbCircle
 62
7
  6
CONTINUOUS
 10
1340.2820336326
 20
410.1145147911
 40
0.2448256026
100
AcDbArc
 50
146.4273047316
 51
147.0426712549
  0
ARC
  5
4D6
100
AcDbEntity
  8
0
100
AcDbCircle
 62
7
  6
CONTINUOUS
 10
1338.7785093738
 20
410.1168314152
 40
0.2406061776
100
AcDbArc
 50
146.2298980753
 51
146.7700329821
  0
ARC
  5
4D7
100
AcDbEntity
  8
0
100
AcDbCircle
 62
7
  6
CONTINUOUS
 10
1341.7767592957
 20
410.1179644539
 40
0.2385242758
100
AcDbArc
 50
146.0185394563
 51
146.8724189447
  0
ARC
  5
4D8
100
AcDbEntity
  8
0
100
AcDbCircle
 62
7
  6
CONTINUOUS
 10
1337.270104902
 20
410.1223726417
 40
0.2305381845
100
AcDbArc
 50
145.180332084
 51
146.7470105664
  0
ARC
  5
4D9
100
AcDbEntity
  8
0
100
AcDbCircle
 62
7
  6
CONTINUOUS
 10
1341.9381468191
 20
410.4613454851
 40
0.2230151045
100
AcDbArc
 50
147.3486278786
 51
148.943554154
  0
ARC
  5
4DA
100
AcDbEntity
  8
0
100
AcDbCircle
 62
7
  6
CONTINUOUS
 10
1340.2533057925
 20
410.1338766522
 40
0.2101831409
100
AcDbArc
 50
143.195105237
 51
146.4942743996
  0
ARC
  5
4DB
100
AcDbEntity
  8
0
100
AcDbCircle
 62
7
  6
CONTINUOUS
 10
1344.3345308138
 20
413.1393290555
 40
0.2
100
AcDbArc
 50
90.0
 51
180.0
  0
ARC
  5
4DC
100
AcDbEntity
  8
0
100
AcDbCircle
 62
7
  6
CONTINUOUS
 10
1340.4136625104
 20
410.4770700963
 40
0.1939124228
100
AcDbArc
 50
146.1919559082
 51
146.7157386247
  0
ARC
  5
4DD
100
AcDbEntity
  8
0
100
AcDbCircle
 62
7
  6
CONTINUOUS
 10
1347.6345308138
 20
321.8393290555
 40
1.0
100
AcDbArc
 50
180.0
 51
270.0
  0
ARC
  5
4DE
100
AcDbEntity
  8
0
100
AcDbCircle
 62
7
  6
CONTINUOUS
 10
1351.6345308138
 20
321.8393290555
 40
1.0
100
AcDbArc
 50
270.0
 51
360.0
  0
ARC
  5
4DF
100
AcDbEntity
  8
0
100
AcDbCircle
 62
7
  6
CONTINUOUS
 10
1365.8845308138
 20
336.8393290555
 40
1.0
100
AcDbArc
 50
270.0
 51
360.0
  0
ARC
  5
4E0
100
AcDbEntity
  8
0
100
AcDbCircle
 62
7
  6
CONTINUOUS
 10
1361.6345308138
 20
336.8393290555
 40
1.0
100
AcDbArc
 50
30.000000002
 51
90.0
  0
ARC
  5
4E1
100
AcDbEntity
  8
0
100
AcDbCircle
 62
7
  6
CONTINUOUS
 10
1353.6345308138
 20
336.8393290555
 40
1.0
100
AcDbArc
 50
90.0
 51
149.9999999996
  0
ARC
  5
4E2
100
AcDbEntity
  8
0
100
AcDbCircle
 62
7
  6
CONTINUOUS
 10
1354.9345308138
 20
405.3358840763
 40
0.2
100
AcDbArc
 50
223.8766972859
 51
360.0
  0
ARC
  5
4E3
100
AcDbEntity
  8
0
100
AcDbCircle
 62
7
  6
CONTINUOUS
 10
1354.9345308138
 20
412.3427740348
 40
0.2
100
AcDbArc
 50
0.0
 51
136.1233027141
  0
ARC
  5
4E4
100
AcDbEntity
  8
0
100
AcDbCircle
 62
7
  6
CONTINUOUS
 10
1354.0345308138
 20
403.6428474314
 40
0.1
100
AcDbArc
 50
303.690067526
 51
360.0
  0
ARC
  5
4E5
100
AcDbEntity
  8
0
100
AcDbCircle
 62
7
  6
CONTINUOUS
 10
1354.0345308138
 20
414.0358106797
 40
0.1
100
AcDbArc
 50
0.0
 51
56.309932474
  0
ARC
  5
4E6
100
AcDbEntity
  8
0
100
AcDbCircle
 62
7
  6
CONTINUOUS
 10
1186.8450837324
 20
802.6581523264
 40
54.0485168831
100
AcDbArc
 50
77.8464487014
 51
80.5532510719
  0
ARC
  5
4E7
100
AcDbEntity
  8
0
100
AcDbCircle
 62
7
  6
CONTINUOUS
 10
1187.1405571673
 20
804.443223107
 40
52.2391579205
100
AcDbArc
 50
80.5515852175
 51
80.8741783281
  0
ARC
  5
4E8
100
AcDbEntity
  8
0
100
AcDbCircle
 62
7
  6
CONTINUOUS
 10
1187.9988056986
 20
810.0146050659
 40
46.6021893894
100
AcDbArc
 50
80.8296065222
 51
82.8415188642
  0
ARC
  5
4E9
100
AcDbEntity
  8
0
100
AcDbCircle
 62
7
  6
CONTINUOUS
 10
1191.339965508
 20
796.3368425316
 40
19.3067622503
100
AcDbArc
 50
285.5277753013
 51
290.1691349079
  0
ARC
  5
4EA
100
AcDbEntity
  8
0
100
AcDbCircle
 62
7
  6
CONTINUOUS
 10
1197.4005505301
 20
878.8539855114
 40
22.0146689084
100
AcDbArc
 50
269.9390588652
 51
271.5449332912
  0
ARC
  5
4EB
100
AcDbEntity
  8
0
100
AcDbCircle
 62
7
  6
CONTINUOUS
 10
1197.6021070572
 20
871.5188048732
 40
14.6767210162
100
AcDbArc
 50
271.5304103741
 51
274.0337632583
  0
ARC
  5
4EC
100
AcDbEntity
  8
0
100
AcDbCircle
 62
7
  6
CONTINUOUS
 10
1203.6347393902
 20
854.2706651991
 40
5.5503083046
100
AcDbArc
 50
161.4719833694
 51
164.0725801471
  0
ARC
  5
4ED
100
AcDbEntity
  8
0
100
AcDbCircle
 62
7
  6
CONTINUOUS
 10
1336.2096043835
 20
738.640353917
 40
4.4288574602
100
AcDbArc
 50
193.3460618643
 51
193.45992007
  0
ARC
  5
4EE
100
AcDbEntity
  8
0
100
AcDbCircle
 62
7
  6
CONTINUOUS
 10
1337.5457951994
 20
737.4813566921
 40
0.8319890059
100
AcDbArc
 50
339.3511594113
 51
340.0800492382
  0
ARC
  5
4EF
100
AcDbEntity
  8
0
100
AcDbCircle
 62
7
  6
CONTINUOUS
 10
1336.0510874918
 20
737.4794339007
 40
0.8263609765
100
AcDbArc
 50
339.1976934413
 51
340.1929697458
  0
ARC
  5
4F0
100
AcDbEntity
  8
0
100
AcDbCircle
 62
7
  6
CONTINUOUS
 10
1340.843071839
 20
737.3620335365
 40
0.5116124111
100
AcDbArc
 50
335.912850677
 51
336.4261093337
  0
ARC
  5
4F1
100
AcDbEntity
  8
0
100
AcDbCircle
 62
7
  6
CONTINUOUS
 10
1333.6084833593
 20
737.6011833432
 40
0.3423816222
100
AcDbArc
 50
330.4659806732
 51
330.7928200428
  0
ARC
  5
4F2
100
AcDbEntity
  8
0
100
AcDbCircle
 62
7
  6
CONTINUOUS
 10
1332.2341560676
 20
737.4879281487
 40
0.1324879895
100
AcDbArc
 50
305.6849038059
 51
309.9546227725
  0
ARC
  5
4F3
100
AcDbEntity
  8
0
100
AcDbCircle
 62
7
  6
CONTINUOUS
 10
1332.1651902509
 20
737.2715916689
 40
0.1004699239
100
AcDbArc
 50
327.7062054019
 51
341.1322804591
  0
ARC
  5
4F4
100
AcDbEntity
  8
0
100
AcDbCircle
 62
7
  6
CONTINUOUS
 10
1332.1669138164
 20
737.2703538705
 40
0.0985352845
100
AcDbArc
 50
274.7242822118
 51
283.7009657911
  0
ARC
  5
4F5
100
AcDbEntity
  8
02___PRT_ALL_AXES
100
AcDbCircle
 62
7
  6
CONTINUOUS
 10
1329.2757944943
 20
738.8054753712
 40
0.0838963707
100
AcDbArc
 50
111.8014094862
 51
156.2017177809
  0
ARC
  5
4F6
100
AcDbEntity
  8
0
100
AcDbCircle
 62
7
  6
CONTINUOUS
 10
1332.2593679802
 20
737.2732981932
 40
0.0342086009
100
AcDbArc
 50
271.4970480334
 51
278.0553431138
  0
ARC
  5
4F7
100
AcDbEntity
  8
0
100
AcDbCircle
 62
7
  6
CONTINUOUS
 10
1337.6137075867
 20
738.9656172811
 40
5.8701270761
100
AcDbArc
 50
192.0130216052
 51
193.27156119
  0
ARC
  5
4F8
100
AcDbEntity
  8
0
100
AcDbCircle
 62
7
  6
CONTINUOUS
 10
1337.3741916681
 20
739.1889321049
 40
4.8839684662
100
AcDbArc
 50
11.1552737573
 51
12.3201642942
  0
ARC
  5
4F9
100
AcDbEntity
  8
0
100
AcDbCircle
 62
7
  6
CONTINUOUS
 10
1328.434641008
 20
739.2024204737
 40
4.8220352735
100
AcDbArc
 50
11.3813424683
 51
12.2225093444
  0
ARC
  5
4FA
100
AcDbEntity
  8
0
100
AcDbCircle
 62
7
  6
CONTINUOUS
 10
1339.021480196
 20
739.2204647928
 40
4.7333432014
100
AcDbArc
 50
11.3680857196
 51
12.3460042244
  0
ARC
  5
4FB
100
AcDbEntity
  8
0
100
AcDbCircle
 62
7
  6
CONTINUOUS
 10
1329.1855530341
 20
739.3648661138
 40
4.0537526585
100
AcDbArc
 50
12.3412798723
 51
12.5633097107
  0
ARC
  5
4FC
100
AcDbEntity
  8
0
100
AcDbCircle
 62
7
  6
CONTINUOUS
 10
1339.6867647566
 20
739.3652377529
 40
4.0524893507
100
AcDbArc
 50
12.357636209
 51
12.5550028418
  0
ARC
  5
4FD
100
AcDbEntity
  8
0
100
AcDbCircle
 62
7
  6
CONTINUOUS
 10
1338.1900504742
 20
739.3658940529
 40
4.0491395045
100
AcDbArc
 50
12.3370967817
 51
12.5757879268
  0
ARC
  5
4FE
100
AcDbEntity
  8
0
100
AcDbCircle
 62
7
  6
CONTINUOUS
 10
1335.1997477563
 20
739.3680984568
 40
4.0391949387
100
AcDbArc
 50
12.3584257534
 51
12.576217485
  0
ARC
  5
4FF
100
AcDbEntity
  8
0
100
AcDbCircle
 62
7
  6
CONTINUOUS
 10
1336.7003054991
 20
739.3681290094
 40
4.0386424349
100
AcDbArc
 50
12.3684012837
 51
12.5858117938
  0
ARC
  5
500
100
AcDbEntity
  8
0
100
AcDbCircle
 62
7
  6
CONTINUOUS
 10
1332.2027415938
 20
739.3686597677
 40
4.0361500386
100
AcDbArc
 50
12.3614521067
 51
12.5889607474
  0
ARC
  5
501
100
AcDbEntity
  8
0
100
AcDbCircle
 62
7
  6
CONTINUOUS
 10
1330.7091147862
 20
739.3700402217
 40
4.0296289376
100
AcDbArc
 50
12.3647730371
 51
12.5951278683
  0
ARC
  5
502
100
AcDbEntity
  8
0
100
AcDbCircle
 62
7
  6
CONTINUOUS
 10
1335.4289370461
 20
739.4192145399
 40
3.8043746153
100
AcDbArc
 50
12.5764220404
 51
12.7762248673
  0
ARC
  5
503
100
AcDbEntity
  8
0
100
AcDbCircle
 62
7
  6
CONTINUOUS
 10
1339.9380101182
 20
739.4212360051
 40
3.7950791063
100
AcDbArc
 50
12.554333844
 51
12.8158264286
  0
ARC
  5
504
100
AcDbEntity
  8
0
100
AcDbCircle
 62
7
  6
CONTINUOUS
 10
1336.9991612638
 20
739.4349650457
 40
3.7324042743
100
AcDbArc
 50
12.5841404346
 51
12.9328262516
  0
ARC
  5
505
100
AcDbEntity
  8
0
100
AcDbCircle
 62
7
  6
CONTINUOUS
 10
1331.519573639
 20
739.7288858628
 40
0.3212803862
100
AcDbArc
 50
145.3425748878
 51
146.3050864873
  0
ARC
  5
506
100
AcDbEntity
  8
0
100
AcDbCircle
 62
7
  6
CONTINUOUS
 10
1334.5147241166
 20
740.417241487
 40
0.3113928373
100
AcDbArc
 50
150.8572777469
 51
152.6135535947
  0
ARC
  5
507
100
AcDbEntity
  8
0
100
AcDbCircle
 62
7
  6
CONTINUOUS
 10
1333.0124045756
 20
740.4184861411
 40
0.3087628464
100
AcDbArc
 50
150.7015048102
 51
152.6144264762
  0
ARC
  5
508
100
AcDbEntity
  8
0
100
AcDbCircle
 62
7
  6
CONTINUOUS
 10
1334.4789530481
 20
740.4371008833
 40
0.2704787987
100
AcDbArc
 50
149.7156866326
 51
150.8414635686
  0
ARC
  5
509
100
AcDbEntity
  8
0
100
AcDbCircle
 62
7
  6
CONTINUOUS
 10
1332.9722985381
 20
740.4409126253
 40
0.2628124828
100
AcDbArc
 50
149.2709380879
 51
150.6865631729
  0
ARC
  5
50A
100
AcDbEntity
  8
0
100
AcDbCircle
 62
7
  6
CONTINUOUS
 10
1334.2886287766
 20
740.1101850251
 40
0.2527117134
100
AcDbArc
 50
146.9135927274
 51
147.2547484122
  0
ARC
  5
50B
100
AcDbEntity
  8
0
100
AcDbCircle
 62
7
  6
CONTINUOUS
 10
1340.2820336243
 20
740.1145147965
 40
0.2448255927
100
AcDbArc
 50
146.4273047235
 51
147.0426712715
  0
ARC
  5
50C
100
AcDbEntity
  8
0
100
AcDbCircle
 62
7
  6
CONTINUOUS
 10
1338.7785093666
 20
740.1168314199
 40
0.240606169
100
AcDbArc
 50
146.2298980609
 51
146.7700329871
  0
ARC
  5
50D
100
AcDbEntity
  8
0
100
AcDbCircle
 62
7
  6
CONTINUOUS
 10
1337.2701049026
 20
740.1223726412
 40
0.2305381852
100
AcDbArc
 50
145.1803320879
 51
146.7470105652
  0
ARC
  5
50E
100
AcDbEntity
  8
0
100
AcDbCircle
 62
7
  6
CONTINUOUS
 10
1340.2533057927
 20
740.133876652
 40
0.2101831411
100
AcDbArc
 50
143.1951052378
 51
146.4942743969
  0
ARC
  5
50F
100
AcDbEntity
  8
0
100
AcDbCircle
 62
7
  6
CONTINUOUS
 10
1340.4136625162
 20
740.4770700924
 40
0.1939124298
100
AcDbArc
 50
146.1919559067
 51
146.7157386046
  0
ARC
  5
510
100
AcDbEntity
  8
02___PRT_ALL_AXES
100
AcDbCircle
 62
7
  6
CONTINUOUS
 10
1329.2757944943
 20
738.8731827399
 40
0.0838963707
100
AcDbArc
 50
203.7982822191
 51
248.1985905138
  0
ARC
  5
511
100
AcDbEntity
  8
0
100
AcDbCircle
 62
7
  6
CONTINUOUS
 10
1332.6019156968
 20
740.1780751451
 40
0.0628670376
100
AcDbArc
 50
58.7485297674
 51
60.9455155059
  0
ARC
  5
512
100
AcDbEntity
  8
0
100
AcDbCircle
 62
7
  6
CONTINUOUS
 10
1342.0563566426
 20
737.4774408669
 40
0.8207276542
100
AcDbArc
 50
339.2382659211
 51
340.0772227272
  0
ARC
  5
513
100
AcDbEntity
  8
0
100
AcDbCircle
 62
7
  6
CONTINUOUS
 10
1344.3345308138
 20
734.5393290555
 40
0.2
100
AcDbArc
 50
180.0
 51
270.0
  0
ARC
  5
514
100
AcDbEntity
  8
0
100
AcDbCircle
 62
7
  6
CONTINUOUS
 10
1354.9345308138
 20
735.3358840763
 40
0.2
100
AcDbArc
 50
223.8766972859
 51
360.0
  0
ARC
  5
515
100
AcDbEntity
  8
0
100
AcDbCircle
 62
7
  6
CONTINUOUS
 10
1354.0345308138
 20
733.6428474314
 40
0.1
100
AcDbArc
 50
303.690067526
 51
360.0
  0
ARC
  5
516
100
AcDbEntity
  8
0
100
AcDbCircle
 62
7
  6
CONTINUOUS
 10
1343.5117219102
 20
740.4188425936
 40
0.307990409
100
AcDbArc
 50
150.643185602
 51
152.6093864966
  0
ARC
  5
517
100
AcDbEntity
  8
0
100
AcDbCircle
 62
7
  6
CONTINUOUS
 10
1343.4814468153
 20
740.4357046413
 40
0.2733366049
100
AcDbArc
 50
150.1617025641
 51
150.6126677325
  0
ARC
  5
518
100
AcDbEntity
  8
0
100
AcDbCircle
 62
7
  6
CONTINUOUS
 10
1341.7767592978
 20
740.1179644525
 40
0.2385242783
100
AcDbArc
 50
146.0185394601
 51
146.8724189394
  0
ARC
  5
519
100
AcDbEntity
  8
0
100
AcDbCircle
 62
7
  6
CONTINUOUS
 10
1341.9381468193
 20
740.461345485
 40
0.2230151047
100
AcDbArc
 50
147.348627879
 51
148.9435541527
  0
ARC
  5
51A
100
AcDbEntity
  8
0
100
AcDbCircle
 62
7
  6
CONTINUOUS
 10
1344.3345308138
 20
743.1393290555
 40
0.2
100
AcDbArc
 50
90.0
 51
180.0
  0
ARC
  5
51B
100
AcDbEntity
  8
0
100
AcDbCircle
 62
7
  6
CONTINUOUS
 10
1354.9345308138
 20
742.3427740348
 40
0.2
100
AcDbArc
 50
0.0
 51
136.1233027141
  0
ARC
  5
51C
100
AcDbEntity
  8
0
100
AcDbCircle
 62
7
  6
CONTINUOUS
 10
1354.0345308138
 20
744.0358106797
 40
0.1
100
AcDbArc
 50
0.0
 51
56.309932474
  0
ARC
  5
51D
100
AcDbEntity
  8
0
100
AcDbCircle
 62
7
  6
CONTINUOUS
 10
1327.1345308138
 20
772.8393290555
 40
4.0
100
AcDbArc
 50
90.0
 51
180.0
  0
ARC
  5
51E
100
AcDbEntity
  8
0
100
AcDbCircle
 62
7
  6
CONTINUOUS
 10
1342.6345308138
 20
780.8393290555
 40
4.0
100
AcDbArc
 50
287.0713383564
 51
360.0
  0
ARC
  5
51F
100
AcDbEntity
  8
0
100
AcDbCircle
 62
7
  6
CONTINUOUS
 10
1322.6345308138
 20
772.8393290555
 40
4.0
100
AcDbArc
 50
101.25
 51
180.0
  0
ARC
  5
520
100
AcDbEntity
  8
0
100
AcDbCircle
 62
7
  6
CONTINUOUS
 10
1353.6345308138
 20
792.8393290555
 40
1.0
100
AcDbArc
 50
90.0
 51
164.9999999945
  0
ARC
  5
521
100
AcDbEntity
  8
0
100
AcDbCircle
 62
7
  6
CONTINUOUS
 10
1361.6345308138
 20
763.8393290555
 40
1.0
100
AcDbArc
 50
270.0
 51
360.0
  0
ARC
  5
522
100
AcDbEntity
  8
0
100
AcDbCircle
 62
7
  6
CONTINUOUS
 10
1353.6345308138
 20
763.8393290555
 40
1.0
100
AcDbArc
 50
180.0
 51
270.0
  0
ARC
  5
523
100
AcDbEntity
  8
0
100
AcDbCircle
 62
7
  6
CONTINUOUS
 10
1345.6345308138
 20
777.8393290555
 40
1.0
100
AcDbArc
 50
270.0
 51
360.0
  0
ARC
  5
524
100
AcDbEntity
  8
0
100
AcDbCircle
 62
7
  6
CONTINUOUS
 10
1362.6345308138
 20
792.8393290555
 40
1.0
100
AcDbArc
 50
0.0
 51
90.0
  0
ARC
  5
525
100
AcDbEntity
  8
0
100
AcDbCircle
 62
7
  6
CONTINUOUS
 10
1405.1345308138
 20
719.3393290555
 40
1.5
100
AcDbArc
 50
270.0
 51
360.0
  0
ARC
  5
526
100
AcDbEntity
  8
0
100
AcDbCircle
 62
7
  6
CONTINUOUS
 10
1405.1345308138
 20
746.3393290555
 40
1.5
100
AcDbArc
 50
0.0
 51
90.0
  0
ARC
  5
527
100
AcDbEntity
  8
0
100
AcDbCircle
 62
7
  6
CONTINUOUS
 10
1365.6345308138
 20
778.8393290555
 40
1.0
100
AcDbArc
 50
0.0
 51
90.0
  0
ARC
  5
528
100
AcDbEntity
  8
0
100
AcDbCircle
 62
7
  6
CONTINUOUS
 10
1342.6345308138
 20
885.8393290555
 40
4.0
100
AcDbArc
 50
0.0
 51
90.0
  0
ARC
  5
529
100
AcDbEntity
  8
0
100
AcDbCircle
 62
7
  6
CONTINUOUS
 10
1385.6345308138
 20
826.8393290555
 40
1.0
100
AcDbArc
 50
270.0
 51
360.0
  0
ARC
  5
52A
100
AcDbEntity
  8
0
100
AcDbCircle
 62
7
  6
CONTINUOUS
 10
1385.6345308138
 20
859.8393290555
 40
1.0
100
AcDbArc
 50
0.0
 51
90.0
  0
ARC
  5
52B
100
AcDbEntity
  8
0
100
AcDbCircle
 62
7
  6
CONTINUOUS
 10
1365.8845308138
 20
910.0893290555
 40
1.0
100
AcDbArc
 50
0.0
 51
90.0
  0
ARC
  5
52C
100
AcDbEntity
  8
0
100
AcDbCircle
 62
7
  6
CONTINUOUS
 10
1347.6345308138
 20
909.8393290555
 40
1.0
100
AcDbArc
 50
90.0
 51
180.0
  0
SPLINE
  5
52D
100
AcDbEntity
  8
0
100
AcDbSpline
 62
7
  6
CONTINUOUS
 70
0
 71
3
 72
10
 73
6
 74
0
 42
0.0000001
 43
0.0000001
 44
0.0000000001
 40
0.0
 40
0.0
 40
0.0
 40
0.0
 40
0.2415763477
 40
0.4943821196
 40
1.0
 40
1.0
 40
1.0
 40
1.0
 10
688.9641354393
 20
719.3393290555
 30
0.0
 10
688.9641354393
 20
718.9039079174
 30
0.0
 10
687.9247295316
 20
718.3567667418
 30
0.0
 10
686.3002152261
 20
717.9584051122
 30
0.0
 10
684.8776432343
 20
717.8393290555
 30
0.0
 10
683.966309343
 20
717.8393290555
 30
0.0
  0
SPLINE
  5
52E
100
AcDbEntity
  8
0
100
AcDbSpline
 62
7
  6
CONTINUOUS
 70
0
 71
3
 72
10
 73
6
 74
0
 42
0.0000001
 43
0.0000001
 44
0.0000000001
 40
0.0
 40
0.0
 40
0.0
 40
0.0
 40
0.5055197368
 40
0.758287132
 40
1.0
 40
1.0
 40
1.0
 40
1.0
 10
177.9619615356
 20
717.8393290555
 30
0.0
 10
177.0508052646
 20
717.8393290555
 30
0.0
 10
175.6285058141
 20
717.9584176311
 30
0.0
 10
174.003940486
 20
718.3565178812
 30
0.0
 10
172.9641354393
 20
718.9036621973
 30
0.0
 10
172.9641354393
 20
719.3393290555
 30
0.0
  0
SPLINE
  5
52F
100
AcDbEntity
  8
0
100
AcDbSpline
 62
7
  6
CONTINUOUS
 70
0
 71
3
 72
10
 73
6
 74
0
 42
0.0000001
 43
0.0000001
 44
0.0000000001
 40
0.0
 40
0.0
 40
0.0
 40
0.0
 40
0.5055197578
 40
0.7582872072
 40
1.0
 40
1.0
 40
1.0
 40
1.0
 10
683.966309343
 20
747.8393290555
 30
0.0
 10
684.8774655618
 20
747.8393290555
 30
0.0
 10
686.2997654977
 20
747.7202416719
 30
0.0
 10
687.9243293799
 20
747.3221383986
 30
0.0
 10
688.9641354393
 20
746.7749957351
 30
0.0
 10
688.9641354393
 20
746.3393290555
 30
0.0
  0
SPLINE
  5
530
100
AcDbEntity
  8
0
100
AcDbSpline
 62
7
  6
CONTINUOUS
 70
0
 71
3
 72
10
 73
6
 74
0
 42
0.0000001
 43
0.0000001
 44
0.0000000001
 40
0.0
 40
0.0
 40
0.0
 40
0.0
 40
0.2417283664
 40
0.4944912136
 40
1.0
 40
1.0
 40
1.0
 40
1.0
 10
172.9641354393
 20
746.3393290555
 30
0.0
 10
172.9641354393
 20
746.775023791
 30
0.0
 10
174.0039856226
 20
747.3221680581
 30
0.0
 10
175.6285567009
 20
747.7202383175
 30
0.0
 10
177.0508251213
 20
747.8393290555
 30
0.0
 10
177.9619615356
 20
747.8393290555
 30
0.0
  0
SPLINE
  5
531
100
AcDbEntity
  8
0
100
AcDbSpline
 62
7
  6
CONTINUOUS
 70
0
 71
3
 72
8
 73
4
 74
0
 42
0.0000001
 43
0.0000001
 44
0.0000000001
 40
0.0
 40
0.0
 40
0.0
 40
0.0
 40
1.0
 40
1.0
 40
1.0
 40
1.0
 10
1332.6324465145
 20
740.2330308871
 30
0.0
 10
1332.6297025573
 20
740.2345545426
 30
0.0
 10
1332.6268268818
 20
740.2358712609
 30
0.0
 10
1332.6238593023
 20
740.2368931702
 30
0.0
  0
SPLINE
  5
532
100
AcDbEntity
  8
0
100
AcDbSpline
 62
7
  6
CONTINUOUS
 70
0
 71
3
 72
8
 73
4
 74
0
 42
0.0000001
 43
0.0000001
 44
0.0000000001
 40
0.0
 40
0.0
 40
0.0
 40
0.0
 40
1.0
 40
1.0
 40
1.0
 40
1.0
 10
1332.6238593023
 20
740.2368931702
 30
0.0
 10
1332.619361261
 20
740.2384421062
 30
0.0
 10
1332.6145513139
 20
740.2393134751
 30
0.0
 10
1332.6097940482
 20
740.239312432
 30
0.0
  0
SPLINE
  5
533
100
AcDbEntity
  8
0
100
AcDbSpline
 62
7
  6
CONTINUOUS
 70
0
 71
3
 72
9
 73
5
 74
0
 42
0.0000001
 43
0.0000001
 44
0.0000000001
 40
0.0
 40
0.0
 40
0.0
 40
0.0
 40
0.2241413852
 40
1.0
 40
1.0
 40
1.0
 40
1.0
 10
1331.7959551606
 20
737.6991611087
 30
0.0
 10
1331.7925247473
 20
737.7057791305
 30
0.0
 10
1331.7778211444
 20
737.7356170665
 30
0.0
 10
1331.765152811
 20
737.7664205783
 30
0.0
 10
1331.7559650609
 20
737.7905320651
 30
0.0
  0
SPLINE
  5
534
100
AcDbEntity
  8
0
100
AcDbSpline
 62
7
  6
CONTINUOUS
 70
0
 71
3
 72
13
 73
9
 74
0
 42
0.0000001
 43
0.0000001
 44
0.0000000001
 40
0.0
 40
0.0
 40
0.0
 40
0.0
 40
0.093103506
 40
0.2069843556
 40
0.4783023992
 40
0.7637595849
 40
0.8920896536
 40
1.0
 40
1.0
 40
1.0
 40
1.0
 10
1331.7559650609
 20
737.7905320651
 30
0.0
 10
1331.7373462975
 20
737.8393934364
 30
0.0
 10
1331.7016396234
 20
737.9501520885
 30
0.0
 10
1331.6315023864
 20
738.2094798218
 30
0.0
 10
1331.5470618639
 20
738.5765846973
 30
0.0
 10
1331.4599358106
 20
738.9514681606
 30
0.0
 10
1331.3803943198
 20
739.2334737072
 30
0.0
 10
1331.3366265802
 20
739.3590047167
 30
0.0
 10
1331.3126002526
 20
739.4146430096
 30
0.0
  0
SPLINE
  5
535
100
AcDbEntity
  8
0
100
AcDbSpline
 62
7
  6
CONTINUOUS
 70
0
 71
3
 72
9
 73
5
 74
0
 42
0.0000001
 43
0.0000001
 44
0.0000000001
 40
0.0
 40
0.0
 40
0.0
 40
0.0
 40
0.2389802223
 40
1.0
 40
1.0
 40
1.0
 40
1.0
 10
1332.3904677011
 20
737.4835890065
 30
0.0
 10
1332.3922652772
 20
737.4869717225
 30
0.0
 10
1332.3996678274
 20
737.5011898551
 30
0.0
 10
1332.4066206957
 20
737.5156399521
 30
0.0
 10
1332.4117120882
 20
737.5267252057
 30
0.0
  0
SPLINE
  5
536
100
AcDbEntity
  8
0
100
AcDbSpline
 62
7
  6
CONTINUOUS
 70
0
 71
3
 72
15
 73
11
 74
0
 42
0.0000001
 43
0.0000001
 44
0.0000000001
 40
0.0
 40
0.0
 40
0.0
 40
0.0
 40
0.3692268704
 40
0.5366959259
 40
0.6843191402
 40
0.8068359356
 40
0.9003303942
 40
0.9355746107
 40
0.9632885477
 40
1.0
 40
1.0
 40
1.0
 40
1.0
 10
1335.9218291743
 20
738.8393290555
 30
0.0
 10
1335.9522897709
 20
738.6606970916
 30
0.0
 10
1335.9963745017
 20
738.4009969872
 30
0.0
 10
1336.0595467246
 20
738.0711165324
 30
0.0
 10
1336.1050063911
 20
737.8611877249
 30
0.0
 10
1336.150360554
 20
737.6884523651
 30
0.0
 10
1336.1896717319
 20
737.5715202127
 30
0.0
 10
1336.224032029
 20
737.502163676
 30
0.0
 10
1336.2501284112
 20
737.4619766434
 30
0.0
 10
1336.2788345461
 20
737.4393240389
 30
0.0
 10
1336.2968519196
 20
737.4393295034
 30
0.0
  0
SPLINE
  5
537
100
AcDbEntity
  8
0
100
AcDbSpline
 62
7
  6
CONTINUOUS
 70
0
 71
3
 72
9
 73
5
 74
0
 42
0.0000001
 43
0.0000001
 44
0.0000000001
 40
0.0
 40
0.0
 40
0.0
 40
0.0
 40
0.2650981453
 40
1.0
 40
1.0
 40
1.0
 40
1.0
 10
1337.4218291743
 20
738.8393290555
 30
0.0
 10
1337.4340753432
 20
738.7675134721
 30
0.0
 10
1337.4803596192
 20
738.4966406651
 30
0.0
 10
1337.5279972766
 20
738.2258951111
 30
0.0
 10
1337.5693543796
 20
738.0282149335
 30
0.0
  0
SPLINE
  5
538
100
AcDbEntity
  8
0
100
AcDbSpline
 62
7
  6
CONTINUOUS
 70
0
 71
3
 72
13
 73
9
 74
0
 42
0.0000001
 43
0.0000001
 44
0.0000000001
 40
0.0
 40
0.0
 40
0.0
 40
0.0
 40
0.3907127311
 40
0.5536445302
 40
0.6923194633
 40
0.805523188
 40
0.892944884
 40
1.0
 40
1.0
 40
1.0
 40
1.0
 10
1337.5693543796
 20
738.0282149335
 30
0.0
 10
1337.5866107753
 20
737.9457325359
 30
0.0
 10
1337.6125918456
 20
737.8291698172
 30
0.0
 10
1337.6524504924
 20
737.6851048413
 30
0.0
 10
1337.6800985632
 20
737.6002676928
 30
0.0
 10
1337.7084222049
 20
737.5318085451
 30
0.0
 10
1337.7386596347
 20
737.4753242967
 30
0.0
 10
1337.7737420301
 20
737.439339335
 30
0.0
 10
1337.7968314777
 20
737.4393313136
 30
0.0
  0
SPLINE
  5
539
100
AcDbEntity
  8
0
100
AcDbSpline
 62
7
  6
CONTINUOUS
 70
0
 71
3
 72
9
 73
5
 74
0
 42
0.0000001
 43
0.0000001
 44
0.0000000001
 40
0.0
 40
0.0
 40
0.0
 40
0.0
 40
0.2304361511
 40
1.0
 40
1.0
 40
1.0
 40
1.0
 10
1338.2008794423
 20
738.051008155
 30
0.0
 10
1338.1884430063
 20
738.1112784637
 30
0.0
 10
1338.1372101209
 20
738.3733924573
 30
0.0
 10
1338.0926366426
 20
738.6367345614
 30
0.0
 10
1338.0580898181
 20
738.8393290555
 30
0.0
  0
SPLINE
  5
53A
100
AcDbEntity
  8
0
100
AcDbSpline
 62
7
  6
CONTINUOUS
 70
0
 71
3
 72
15
 73
11
 74
0
 42
0.0000001
 43
0.0000001
 44
0.0000000001
 40
0.0
 40
0.0
 40
0.0
 40
0.0
 40
0.3691762301
 40
0.5366077012
 40
0.6842274382
 40
0.8067741691
 40
0.900302485
 40
0.9355601185
 40
0.9632803478
 40
1.0
 40
1.0
 40
1.0
 40
1.0
 10
1338.9218291743
 20
738.8393290555
 30
0.0
 10
1338.9522856179
 20
738.660721711
 30
0.0
 10
1338.996363188
 20
738.4010645151
 30
0.0
 10
1339.0595236846
 20
738.0712278246
 30
0.0
 10
1339.1049783936
 20
737.8613038104
 30
0.0
 10
1339.1503329209
 20
737.6885378247
 30
0.0
 10
1339.1896528642
 20
737.5715691534
 30
0.0
 10
1339.2240175724
 20
737.5021852772
 30
0.0
 10
1339.2501218447
 20
737.461986805
 30
0.0
 10
1339.278834706
 20
737.4393306592
 30
0.0
 10
1339.2968560927
 20
737.4393355508
 30
0.0
  0
SPLINE
  5
53B
100
AcDbEntity
  8
0
100
AcDbSpline
 62
7
  6
CONTINUOUS
 70
0
 71
3
 72
15
 73
11
 74
0
 42
0.0000001
 43
0.0000001
 44
0.0000000001
 40
0.0
 40
0.0
 40
0.0
 40
0.0
 40
0.3691589836
 40
0.536573412
 40
0.6841784276
 40
0.806725973
 40
0.9002700445
 40
0.9355425494
 40
0.963268023
 40
1.0
 40
1.0
 40
1.0
 40
1.0
 10
1340.4218291743
 20
738.8393290555
 30
0.0
 10
1340.4522835817
 20
738.6607340285
 30
0.0
 10
1340.496357555
 20
738.4010993391
 30
0.0
 10
1340.5595106453
 20
738.0712930457
 30
0.0
 10
1340.6049599604
 20
737.8613889323
 30
0.0
 10
1340.6503059551
 20
737.6886223145
 30
0.0
 10
1340.6896320554
 20
737.5716454742
 30
0.0
 10
1340.7239824731
 20
737.5022347583
 30
0.0
 10
1340.7500961512
 20
737.4620280777
 30
0.0
 10
1340.7787952705
 20
737.4393406011
 30
0.0
 10
1340.7968223061
 20
737.4393360327
 30
0.0
  0
SPLINE
  5
53C
100
AcDbEntity
  8
0
100
AcDbSpline
 62
7
  6
CONTINUOUS
 70
0
 71
3
 72
15
 73
11
 74
0
 42
0.0000001
 43
0.0000001
 44
0.0000000001
 40
0.0
 40
0.0
 40
0.0
 40
0.0
 40
0.3692133934
 40
0.5366628978
 40
0.6842876557
 40
0.8068197976
 40
0.9003268581
 40
0.9355802139
 40
0.9632883521
 40
1.0
 40
1.0
 40
1.0
 40
1.0
 10
1341.9218291743
 20
738.8393290555
 30
0.0
 10
1341.9522888737
 20
738.6607024098
 30
0.0
 10
1341.9963716316
 20
738.4010167428
 30
0.0
 10
1342.0595390876
 20
738.0711485318
 30
0.0
 10
1342.1049989677
 20
737.8612202659
 30
0.0
 10
1342.1503519957
 20
737.6884667642
 30
0.0
 10
1342.1896794487
 20
737.5715228471
 30
0.0
 10
1342.2240309608
 20
737.5021504399
 30
0.0
 10
1342.250142201
 20
737.4619729534
 30
0.0
 10
1342.2788511649
 20
737.439319721
 30
0.0
 10
1342.2968687486
 20
737.4393366192
 30
0.0
  0
SPLINE
  5
53D
100
AcDbEntity
  8
0
100
AcDbSpline
 62
7
  6
CONTINUOUS
 70
0
 71
3
 72
15
 73
11
 74
0
 42
0.0000001
 43
0.0000001
 44
0.0000000001
 40
0.0
 40
0.0
 40
0.0
 40
0.0
 40
0.3694211355
 40
0.5368664985
 40
0.6844199724
 40
0.8068733741
 40
0.9003334118
 40
0.9355713428
 40
0.9632830347
 40
1.0
 40
1.0
 40
1.0
 40
1.0
 10
1343.4218291743
 20
738.8393290555
 30
0.0
 10
1343.4523049079
 20
738.6606065723
 30
0.0
 10
1343.4964025814
 20
738.4008290128
 30
0.0
 10
1343.5595884804
 20
738.0709073934
 30
0.0
 10
1343.605036773
 20
737.8610594243
 30
0.0
 10
1343.6503732099
 20
737.6884075082
 30
0.0
 10
1343.6896717574
 20
737.5715288987
 30
0.0
 10
1343.7240153924
 20
737.5021887511
 30
0.0
 10
1343.7501097061
 20
737.4620049634
 30
0.0
 10
1343.7788001073
 20
737.4393334408
 30
0.0
 10
1343.7968198322
 20
737.4393290406
 30
0.0
  0
SPLINE
  5
53E
100
AcDbEntity
  8
0
100
AcDbSpline
 62
7
  6
CONTINUOUS
 70
0
 71
3
 72
9
 73
5
 74
0
 42
0.0000001
 43
0.0000001
 44
0.0000000001
 40
0.0
 40
0.0
 40
0.0
 40
0.0
 40
0.4664498611
 40
1.0
 40
1.0
 40
1.0
 40
1.0
 10
1344.1345307557
 20
737.8674966065
 30
0.0
 10
1344.1025098485
 20
738.0151948581
 30
0.0
 10
1344.0441564849
 20
738.3340164222
 30
0.0
 10
1343.9920675921
 20
738.6537766245
 30
0.0
 10
1343.9643297597
 20
738.8244066788
 30
0.0
  0
SPLINE
  5
53F
100
AcDbEntity
  8
0
100
AcDbSpline
 62
7
  6
CONTINUOUS
 70
0
 71
3
 72
9
 73
5
 74
0
 42
0.0000001
 43
0.0000001
 44
0.0000000001
 40
0.0
 40
0.0
 40
0.0
 40
0.0
 40
0.2107432271
 40
1.0
 40
1.0
 40
1.0
 40
1.0
 10
1343.5787739789
 20
740.4786411886
 30
0.0
 10
1343.5840945617
 20
740.4638472685
 30
0.0
 10
1343.6074980087
 20
740.3929862846
 30
0.0
 10
1343.6254846124
 20
740.3204642611
 30
0.0
 10
1343.6385466702
 20
740.2630522859
 30
0.0
  0
SPLINE
  5
540
100
AcDbEntity
  8
0
100
AcDbSpline
 62
7
  6
CONTINUOUS
 70
0
 71
3
 72
14
 73
10
 74
0
 42
0.0000001
 43
0.0000001
 44
0.0000000001
 40
0.0
 40
0.0
 40
0.0
 40
0.0
 40
0.1131683628
 40
0.2463039461
 40
0.5401754699
 40
0.6833582555
 40
0.8125433748
 40
0.9201203516
 40
1.0
 40
1.0
 40
1.0
 40
1.0
 10
1343.6619605028
 20
740.1534601754
 30
0.0
 10
1343.6840518943
 20
740.0439282501
 30
0.0
 10
1343.7256170003
 20
739.8042438964
 30
0.0
 10
1343.8042087142
 20
739.2767167147
 30
0.0
 10
1343.8774010394
 20
738.7184822412
 30
0.0
 10
1343.9544118354
 20
738.1647486789
 30
0.0
 10
1344.0111703921
 20
737.7938520891
 30
0.0
 10
1344.0674283694
 20
737.486382255
 30
0.0
 10
1344.1101830995
 20
737.3058942673
 30
0.0
 10
1344.1345315676
 20
737.2308770713
 30
0.0
  0
SPLINE
  5
541
100
AcDbEntity
  8
0
100
AcDbSpline
 62
7
  6
CONTINUOUS
 70
0
 71
3
 72
27
 73
23
 74
0
 42
0.0000001
 43
0.0000001
 44
0.0000000001
 40
0.0
 40
0.0
 40
0.0
 40
0.0
 40
0.0668983447
 40
0.1017270075
 40
0.1373024564
 40
0.1734338295
 40
0.1916152278
 40
0.2097677814
 40
0.227620461
 40
0.236461259
 40
0.2449312546
 40
0.2813676221
 40
0.3205940013
 40
0.3598936662
 40
0.3989593598
 40
0.437627919
 40
0.5132688077
 40
0.5859361838
 40
0.7194949331
 40
0.8338606105
 40
0.9269421625
 40
1.0
 40
1.0
 40
1.0
 40
1.0
 10
1330.3533483866
 20
738.4818400844
 30
0.0
 10
1330.3445213756
 20
738.4988839881
 30
0.0
 10
1330.3319102285
 20
738.5252368372
 30
0.0
 10
1330.3168341918
 20
738.5616415283
 30
0.0
 10
1330.3064305484
 20
738.590394789
 30
0.0
 10
1330.2991808963
 20
738.6151799145
 30
0.0
 10
1330.2950147583
 20
738.6355694815
 30
0.0
 10
1330.2932578926
 20
738.6510353531
 30
0.0
 10
1330.2937951347
 20
738.6640182728
 30
0.0
 10
1330.2971604343
 20
738.6737469714
 30
0.0
 10
1330.3097936012
 20
738.6844580524
 30
0.0
 10
1330.3363095725
 20
738.6682709107
 30
0.0
 10
1330.358669974
 20
738.6474225175
 30
0.0
 10
1330.3816969502
 20
738.6218078832
 30
0.0
 10
1330.402550169
 20
738.595704616
 30
0.0
 10
1330.4289348517
 20
738.5604092332
 30
0.0
 10
1330.4596234256
 20
738.516429374
 30
0.0
 10
1330.504839359
 20
738.4493676549
 30
0.0
 10
1330.5562256438
 20
738.3730918096
 30
0.0
 10
1330.6151615088
 20
738.2948221293
 30
0.0
 10
1330.6705505992
 20
738.2362128295
 30
0.0
 10
1330.7107355166
 20
738.208917953
 30
0.0
 10
1330.7301736446
 20
738.2010735892
 30
0.0
  0
SPLINE
  5
542
100
AcDbEntity
  8
0
100
AcDbSpline
 62
7
  6
CONTINUOUS
 70
0
 71
3
 72
9
 73
5
 74
0
 42
0.0000001
 43
0.0000001
 44
0.0000000001
 40
0.0
 40
0.0
 40
0.0
 40
0.0
 40
0.2617061726
 40
1.0
 40
1.0
 40
1.0
 40
1.0
 10
1330.3533483866
 20
738.4818400844
 30
0.0
 10
1330.356278862
 20
738.4761816725
 30
0.0
 10
1330.3676001648
 20
738.4546255072
 30
0.0
 10
1330.379454152
 20
738.4333431988
 30
0.0
 10
1330.3886463679
 20
738.4178945732
 30
0.0
  0
SPLINE
  5
543
100
AcDbEntity
  8
0
100
AcDbSpline
 62
7
  6
CONTINUOUS
 70
0
 71
3
 72
13
 73
9
 74
0
 42
0.0000001
 43
0.0000001
 44
0.0000000001
 40
0.0
 40
0.0
 40
0.0
 40
0.0
 40
0.3375430272
 40
0.636960752
 40
0.7616289802
 40
0.8649928053
 40
0.9447027425
 40
1.0
 40
1.0
 40
1.0
 40
1.0
 10
1333.5580898181
 20
738.8393290555
 30
0.0
 10
1333.5312651694
 20
738.9966392844
 30
0.0
 10
1333.4806127255
 20
739.2934564026
 30
0.0
 10
1333.413552166
 20
739.647382545
 30
0.0
 10
1333.3566873373
 20
739.8901581124
 30
0.0
 10
1333.3170132476
 20
740.0303696613
 30
0.0
 10
1333.2779151129
 20
740.1358760579
 30
0.0
 10
1333.2470728735
 20
740.1929063877
 30
0.0
 10
1333.2298427083
 20
740.2125679704
 30
0.0
  0
SPLINE
  5
544
100
AcDbEntity
  8
0
100
AcDbSpline
 62
7
  6
CONTINUOUS
 70
0
 71
3
 72
9
 73
5
 74
0
 42
0.0000001
 43
0.0000001
 44
0.0000000001
 40
0.0
 40
0.0
 40
0.0
 40
0.0
 40
0.3021586122
 40
1.0
 40
1.0
 40
1.0
 40
1.0
 10
1333.2298427083
 20
740.2125679704
 30
0.0
 10
1333.2262114553
 20
740.216711644
 30
0.0
 10
1333.2136840998
 20
740.229697787
 30
0.0
 10
1333.1958062504
 20
740.239329158
 30
0.0
 10
1333.1830816479
 20
740.239328838
 30
0.0
  0
SPLINE
  5
545
100
AcDbEntity
  8
0
100
AcDbSpline
 62
7
  6
CONTINUOUS
 70
0
 71
3
 72
13
 73
9
 74
0
 42
0.0000001
 43
0.0000001
 44
0.0000000001
 40
0.0
 40
0.0
 40
0.0
 40
0.0
 40
0.3377935493
 40
0.6373758882
 40
0.7620576367
 40
0.8653559037
 40
0.9449161195
 40
1.0
 40
1.0
 40
1.0
 40
1.0
 10
1335.0580898181
 20
738.8393290555
 30
0.0
 10
1335.0312304611
 20
738.9968424426
 30
0.0
 10
1334.9805162081
 20
739.2940152778
 30
0.0
 10
1334.9133665102
 20
739.6483344347
 30
0.0
 10
1334.8564045374
 20
739.8912807358
 30
0.0
 10
1334.8166685543
 20
740.0314643327
 30
0.0
 10
1334.7775172307
 20
740.1367915091
 30
0.0
 10
1334.7466032903
 20
740.1936552928
 30
0.0
 10
1334.7293232315
 20
740.2131575075
 30
0.0
  0
SPLINE
  5
546
100
AcDbEntity
  8
0
100
AcDbSpline
 62
7
  6
CONTINUOUS
 70
0
 71
3
 72
9
 73
5
 74
0
 42
0.0000001
 43
0.0000001
 44
0.0000000001
 40
0.0
 40
0.0
 40
0.0
 40
0.0
 40
0.3013745444
 40
1.0
 40
1.0
 40
1.0
 40
1.0
 10
1334.7293232315
 20
740.2131575075
 30
0.0
 10
1334.7257284779
 20
740.217214534
 30
0.0
 10
1334.7132931254
 20
740.2299571165
 30
0.0
 10
1334.6956279449
 20
740.2393310961
 30
0.0
 10
1334.683062542
 20
740.2393276889
 30
0.0
  0
SPLINE
  5
547
100
AcDbEntity
  8
0
100
AcDbSpline
 62
7
  6
CONTINUOUS
 70
0
 71
3
 72
20
 73
16
 74
0
 42
0.0000001
 43
0.0000001
 44
0.0000000001
 40
0.0
 40
0.0
 40
0.0
 40
0.0
 40
0.029528033
 40
0.0504796747
 40
0.0675290923
 40
0.0883937048
 40
0.1178075376
 40
0.157263845
 40
0.2069934402
 40
0.2667082693
 40
0.3358153469
 40
0.41353103
 40
0.5908478166
 40
0.7897440373
 40
1.0
 40
1.0
 40
1.0
 40
1.0
 10
1342.9061268628
 20
737.4319690805
 30
0.0
 10
1342.8982445033
 20
737.4181061054
 30
0.0
 10
1342.8833456268
 20
737.3953947438
 30
0.0
 10
1342.8543805542
 20
737.370375632
 30
0.0
 10
1342.8198234284
 20
737.3702121032
 30
0.0
 10
1342.7907807393
 20
737.394990035
 30
0.0
 10
1342.7641535393
 20
737.4353691948
 30
0.0
 10
1342.7372700463
 20
737.4938296656
 30
0.0
 10
1342.7103170424
 20
737.5695973695
 30
0.0
 10
1342.6831837009
 20
737.6621886625
 30
0.0
 10
1342.6559551653
 20
737.7703712889
 30
0.0
 10
1342.6178706451
 20
737.9412549078
 30
0.0
 10
1342.5716785283
 20
738.1820576345
 30
0.0
 10
1342.51803094
 20
738.4942194841
 30
0.0
 10
1342.4825501571
 20
738.7123249963
 30
0.0
 10
1342.4643297592
 20
738.8244066787
 30
0.0
  0
SPLINE
  5
548
100
AcDbEntity
  8
0
100
AcDbSpline
 62
7
  6
CONTINUOUS
 70
0
 71
3
 72
20
 73
16
 74
0
 42
0.0000001
 43
0.0000001
 44
0.0000000001
 40
0.0
 40
0.0
 40
0.0
 40
0.0
 40
0.0291571492
 40
0.0498497808
 40
0.0668859367
 40
0.0879437636
 40
0.11759386
 40
0.1572852468
 40
0.2072118823
 40
0.2670811452
 40
0.3362875884
 40
0.4140433365
 40
0.5913027526
 40
0.7899822941
 40
1.0
 40
1.0
 40
1.0
 40
1.0
 10
1341.4050939883
 20
737.4301710647
 30
0.0
 10
1341.3972337215
 20
737.4165493947
 30
0.0
 10
1341.3824059061
 20
737.3942293983
 30
0.0
 10
1341.3532686874
 20
737.3699253847
 30
0.0
 10
1341.318820596
 20
737.370677941
 30
0.0
 10
1341.2900580077
 20
737.3959217456
 30
0.0
 10
1341.2634425378
 20
737.4366625051
 30
0.0
 10
1341.236633919
 20
737.495459909
 30
0.0
 10
1341.2097187989
 20
737.5714659879
 30
0.0
 10
1341.1826452429
 20
737.6641999002
 30
0.0
 10
1341.1554762368
 20
737.7724138356
 30
0.0
 10
1341.1174935263
 20
737.9431367722
 30
0.0
 10
1341.0714215035
 20
738.1835152555
 30
0.0
 10
1341.017902499
 20
738.4950093091
 30
0.0
 10
1340.98250603
 20
738.7125946176
 30
0.0
 10
1340.9643297596
 20
738.8244066787
 30
0.0
  0
SPLINE
  5
549
100
AcDbEntity
  8
0
100
AcDbSpline
 62
7
  6
CONTINUOUS
 70
0
 71
3
 72
13
 73
9
 74
0
 42
0.0000001
 43
0.0000001
 44
0.0000000001
 40
0.0
 40
0.0
 40
0.0
 40
0.0
 40
0.3373558895
 40
0.6366897053
 40
0.7613732438
 40
0.8647905083
 40
0.9445896203
 40
1.0
 40
1.0
 40
1.0
 40
1.0
 10
1336.5580898181
 20
738.8393290555
 30
0.0
 10
1336.5312872696
 20
738.9965095693
 30
0.0
 10
1336.4806700877
 20
739.2931204749
 30
0.0
 10
1336.4136606922
 20
739.6468330499
 30
0.0
 10
1336.3568423862
 20
739.889543751
 30
0.0
 10
1336.3171934202
 20
740.0297964136
 30
0.0
 10
1336.2781164163
 20
740.1354112534
 30
0.0
 10
1336.2473053325
 20
740.1925344418
 30
0.0
 10
1336.2300971373
 20
740.2122768498
 30
0.0
  0
SPLINE
  5
54A
100
AcDbEntity
  8
0
100
AcDbSpline
 62
7
  6
CONTINUOUS
 70
0
 71
3
 72
9
 73
5
 74
0
 42
0.0000001
 43
0.0000001
 44
0.0000000001
 40
0.0
 40
0.0
 40
0.0
 40
0.0
 40
0.3025440195
 40
1.0
 40
1.0
 40
1.0
 40
1.0
 10
1336.2300971373
 20
740.2122768498
 30
0.0
 10
1336.2264482178
 20
740.2164631377
 30
0.0
 10
1336.2138765021
 20
740.2295686083
 30
0.0
 10
1336.1958959454
 20
740.2393257071
 30
0.0
 10
1336.1830938008
 20
740.2393288952
 30
0.0
  0
SPLINE
  5
54B
100
AcDbEntity
  8
0
100
AcDbSpline
 62
7
  6
CONTINUOUS
 70
0
 71
3
 72
13
 73
9
 74
0
 42
0.0000001
 43
0.0000001
 44
0.0000000001
 40
0.0
 40
0.0
 40
0.0
 40
0.0
 40
0.3399235431
 40
0.6405509098
 40
0.7651142487
 40
0.86781517
 40
0.9463096201
 40
1.0
 40
1.0
 40
1.0
 40
1.0
 10
1338.0580898181
 20
738.8393290555
 30
0.0
 10
1338.0309729257
 20
738.9983533698
 30
0.0
 10
1337.9798379746
 20
739.2979777841
 30
0.0
 10
1337.9120765749
 20
739.6548714131
 30
0.0
 10
1337.8545313307
 20
739.8986665762
 30
0.0
 10
1337.814461969
 20
740.038407204
 30
0.0
 10
1337.7750429487
 20
740.1424175537
 30
0.0
 10
1337.7437130003
 20
740.1981364266
 30
0.0
 10
1337.7261603268
 20
740.21660651
 30
0.0
  0
SPLINE
  5
54C
100
AcDbEntity
  8
0
100
AcDbSpline
 62
7
  6
CONTINUOUS
 70
0
 71
3
 72
9
 73
5
 74
0
 42
0.0000001
 43
0.0000001
 44
0.0000000001
 40
0.0
 40
0.0
 40
0.0
 40
0.0
 40
0.2964797177
 40
1.0
 40
1.0
 40
1.0
 40
1.0
 10
1337.7261603268
 20
740.21660651
 30
0.0
 10
1337.7227977758
 20
740.2201448083
 30
0.0
 10
1337.7109716619
 20
740.231409868
 30
0.0
 10
1337.6946691044
 20
740.2393252328
 30
0.0
 10
1337.6830864004
 20
740.2393280118
 30
0.0
  0
SPLINE
  5
54D
100
AcDbEntity
  8
0
100
AcDbSpline
 62
7
  6
CONTINUOUS
 70
0
 71
3
 72
9
 73
5
 74
0
 42
0.0000001
 43
0.0000001
 44
0.0000000001
 40
0.0
 40
0.0
 40
0.0
 40
0.0
 40
0.2090387147
 40
1.0
 40
1.0
 40
1.0
 40
1.0
 10
1342.078773845
 20
740.4786441324
 30
0.0
 10
1342.0844261277
 20
740.4629256509
 30
0.0
 10
1342.1093719595
 20
740.3869800667
 30
0.0
 10
1342.1282835754
 20
740.3092039679
 30
0.0
 10
1342.1420464972
 20
740.247516512
 30
0.0
  0
SPLINE
  5
54E
100
AcDbEntity
  8
0
100
AcDbSpline
 62
7
  6
CONTINUOUS
 70
0
 71
3
 72
23
 73
19
 74
0
 42
0.0000001
 43
0.0000001
 44
0.0000000001
 40
0.0
 40
0.0
 40
0.0
 40
0.0
 40
0.1488662922
 40
0.3264138331
 40
0.5122578552
 40
0.601547043
 40
0.6849320066
 40
0.7600162435
 40
0.8246745555
 40
0.8771464533
 40
0.8983993578
 40
0.91619493
 40
0.9305165673
 40
0.9414824263
 40
0.9495341485
 40
0.9558794497
 40
0.9717256456
 40
1.0
 40
1.0
 40
1.0
 40
1.0
 10
1342.165884777
 20
740.1338263471
 30
0.0
 10
1342.1976063802
 20
739.9736953742
 30
0.0
 10
1342.2547270079
 20
739.6201921419
 30
0.0
 10
1342.332128838
 20
739.0638557372
 30
0.0
 10
1342.3975967212
 20
738.5717827686
 30
0.0
 10
1342.4522969392
 20
738.1824628449
 30
0.0
 10
1342.492695129
 20
737.9137928093
 30
0.0
 10
1342.532921922
 20
737.6724251418
 30
0.0
 10
1342.5729406018
 20
737.4654615879
 30
0.0
 10
1342.6078495148
 20
737.3176795145
 30
0.0
 10
1342.6369374154
 20
737.2215768355
 30
0.0
 10
1342.6571240673
 20
737.166624024
 30
0.0
 10
1342.6771707336
 20
737.1236732439
 30
0.0
 10
1342.6973109984
 20
737.0931134928
 30
0.0
 10
1342.7180399669
 20
737.0734573432
 30
0.0
 10
1342.7531431897
 20
737.0668408138
 30
0.0
 10
1342.7957786107
 20
737.1147726721
 30
0.0
 10
1342.8127932286
 20
737.1575174267
 30
0.0
 10
1342.8237884029
 20
737.1865072396
 30
0.0
  0
SPLINE
  5
54F
100
AcDbEntity
  8
0
100
AcDbSpline
 62
7
  6
CONTINUOUS
 70
0
 71
3
 72
9
 73
5
 74
0
 42
0.0000001
 43
0.0000001
 44
0.0000000001
 40
0.0
 40
0.0
 40
0.0
 40
0.0
 40
0.2115695764
 40
1.0
 40
1.0
 40
1.0
 40
1.0
 10
1340.5787741141
 20
740.4786387583
 30
0.0
 10
1340.5839369402
 20
740.4642804851
 30
0.0
 10
1340.6066122345
 20
740.3957944334
 30
0.0
 10
1340.624157413
 20
740.325727132
 30
0.0
 10
1340.636886118
 20
740.2703090177
 30
0.0
  0
SPLINE
  5
550
100
AcDbEntity
  8
0
100
AcDbSpline
 62
7
  6
CONTINUOUS
 70
0
 71
3
 72
21
 73
17
 74
0
 42
0.0000001
 43
0.0000001
 44
0.0000000001
 40
0.0
 40
0.0
 40
0.0
 40
0.0
 40
0.1378277711
 40
0.3087825032
 40
0.4928767897
 40
0.6684313789
 40
0.8148640251
 40
0.8717236965
 40
0.9155393303
 40
0.94551114
 40
0.9555058809
 40
0.9628164664
 40
0.969007745
 40
0.9764215395
 40
0.9865652495
 40
1.0
 40
1.0
 40
1.0
 40
1.0
 10
1340.6452132913
 20
740.2331927225
 30
0.0
 10
1340.6782437211
 20
740.0825797246
 30
0.0
 10
1340.7364342356
 20
739.7418223254
 30
0.0
 10
1340.8144151361
 20
739.1960229715
 30
0.0
 10
1340.8926478193
 20
738.6075806635
 30
0.0
 10
1340.9708120322
 20
738.0468102739
 30
0.0
 10
1341.0387273252
 20
737.6284252965
 30
0.0
 10
1341.0971262005
 20
737.357904252
 30
0.0
 10
1341.1367635829
 20
737.2174907137
 30
0.0
 10
1341.1717073986
 20
737.1293622011
 30
0.0
 10
1341.202869632
 20
737.0864755388
 30
0.0
 10
1341.2249501714
 20
737.0701576479
 30
0.0
 10
1341.2500697945
 20
737.0706289698
 30
0.0
 10
1341.2719427832
 20
737.0875710606
 30
0.0
 10
1341.2921680155
 20
737.1157932204
 30
0.0
 10
1341.3040012414
 20
737.1395104762
 30
0.0
 10
1341.3101359767
 20
737.1532313562
 30
0.0
  0
SPLINE
  5
551
100
AcDbEntity
  8
0
100
AcDbSpline
 62
7
  6
CONTINUOUS
 70
0
 71
3
 72
9
 73
5
 74
0
 42
0.0000001
 43
0.0000001
 44
0.0000000001
 40
0.0
 40
0.0
 40
0.0
 40
0.0
 40
0.2350815948
 40
1.0
 40
1.0
 40
1.0
 40
1.0
 10
1341.3119876727
 20
737.1574236635
 30
0.0
 10
1341.3133458128
 20
737.1605357858
 30
0.0
 10
1341.3189951506
 20
737.1738300804
 30
0.0
 10
1341.3241728258
 20
737.1873219334
 30
0.0
 10
1341.3279402219
 20
737.1977084092
 30
0.0
  0
SPLINE
  5
552
100
AcDbEntity
  8
0
100
AcDbSpline
 62
7
  6
CONTINUOUS
 70
0
 71
3
 72
14
 73
10
 74
0
 42
0.0000001
 43
0.0000001
 44
0.0000000001
 40
0.0
 40
0.0
 40
0.0
 40
0.0
 40
0.3447625976
 40
0.5040059617
 40
0.6479307185
 40
0.7722760422
 40
0.8735904097
 40
0.9495608499
 40
1.0
 40
1.0
 40
1.0
 40
1.0
 10
1339.5580898181
 20
738.8393290555
 30
0.0
 10
1339.5303886034
 20
739.0017794821
 30
0.0
 10
1339.4899983118
 20
739.2392972831
 30
0.0
 10
1339.4329392876
 20
739.5437018394
 30
0.0
 10
1339.3914174373
 20
739.7438434434
 30
0.0
 10
1339.3501793788
 20
739.9155628767
 30
0.0
 10
1339.3093031069
 20
740.0542199522
 30
0.0
 10
1339.2692906063
 20
740.1549922211
 30
0.0
 10
1339.2368662121
 20
740.2079569333
 30
0.0
 10
1339.2186874622
 20
740.2237939954
 30
0.0
  0
SPLINE
  5
553
100
AcDbEntity
  8
0
100
AcDbSpline
 62
7
  6
CONTINUOUS
 70
0
 71
3
 72
9
 73
5
 74
0
 42
0.0000001
 43
0.0000001
 44
0.0000000001
 40
0.0
 40
0.0
 40
0.0
 40
0.0
 40
0.2848553338
 40
1.0
 40
1.0
 40
1.0
 40
1.0
 10
1339.2186874622
 20
740.2237939954
 30
0.0
 10
1339.2158783736
 20
740.2262412325
 30
0.0
 10
1339.2056189046
 20
740.2342697417
 30
0.0
 10
1339.1924940545
 20
740.2393087497
 30
0.0
 10
1339.1831407971
 20
740.2393241391
 30
0.0
  0
SPLINE
  5
554
100
AcDbEntity
  8
0
100
AcDbSpline
 62
7
  6
CONTINUOUS
 70
0
 71
3
 72
9
 73
5
 74
0
 42
0.0000001
 43
0.0000001
 44
0.0000000001
 40
0.0
 40
0.0
 40
0.0
 40
0.0
 40
0.2104463332
 40
1.0
 40
1.0
 40
1.0
 40
1.0
 10
1339.0787738944
 20
740.4786428175
 30
0.0
 10
1339.0841481232
 20
740.4636987541
 30
0.0
 10
1339.1078031526
 20
740.3920114029
 30
0.0
 10
1339.12594265
 20
740.3186356891
 30
0.0
 10
1339.139119922
 20
740.2605285363
 30
0.0
  0
SPLINE
  5
555
100
AcDbEntity
  8
0
100
AcDbSpline
 62
7
  6
CONTINUOUS
 70
0
 71
3
 72
26
 73
22
 74
0
 42
0.0000001
 43
0.0000001
 44
0.0000000001
 40
0.0
 40
0.0
 40
0.0
 40
0.0
 40
0.1400495726
 40
0.3139731125
 40
0.407053073
 40
0.5003707474
 40
0.5910084865
 40
0.6761337803
 40
0.7531028737
 40
0.819560515
 40
0.8482185774
 40
0.8735502807
 40
0.895397418
 40
0.913656642
 40
0.9282933561
 40
0.9394317538
 40
0.9475160716
 40
0.9538590226
 40
0.9608866243
 40
0.9705086614
 40
1.0
 40
1.0
 40
1.0
 40
1.0
 10
1339.1453458025
 20
740.2325935758
 30
0.0
 10
1339.1793547236
 20
740.0773900506
 30
0.0
 10
1339.2389602305
 20
739.7259449432
 30
0.0
 10
1339.3039029511
 20
739.2687923019
 30
0.0
 10
1339.3586462284
 20
738.8636803967
 30
0.0
 10
1339.4006421315
 20
738.5522047146
 30
0.0
 10
1339.4426049439
 20
738.2498293353
 30
0.0
 10
1339.4844788236
 20
737.9661717925
 30
0.0
 10
1339.5262188456
 20
737.7102514165
 30
0.0
 10
1339.5623052208
 20
737.51834287
 30
0.0
 10
1339.5919582311
 20
737.384936626
 30
0.0
 10
1339.6130401534
 20
737.3015095471
 30
0.0
 10
1339.6340542131
 20
737.2302697627
 30
0.0
 10
1339.6549635515
 20
737.1717667848
 30
0.0
 10
1339.6757701274
 20
737.1261756397
 30
0.0
 10
1339.6965617728
 20
737.0938215325
 30
0.0
 10
1339.7181910257
 20
737.0732647493
 30
0.0
 10
1339.7439424756
 20
737.0685209202
 30
0.0
 10
1339.7675885751
 20
737.082802567
 30
0.0
 10
1339.7997643535
 20
737.1243527092
 30
0.0
 10
1339.8165336489
 20
737.1662650833
 30
0.0
 10
1339.8279422989
 20
737.1977177635
 30
0.0
  0
SPLINE
  5
556
100
AcDbEntity
  8
0
100
AcDbSpline
 62
7
  6
CONTINUOUS
 70
0
 71
3
 72
9
 73
5
 74
0
 42
0.0000001
 43
0.0000001
 44
0.0000000001
 40
0.0
 40
0.0
 40
0.0
 40
0.0
 40
0.7282055711
 40
1.0
 40
1.0
 40
1.0
 40
1.0
 10
1332.6097940482
 20
740.239312432
 30
0.0
 10
1332.6028961727
 20
740.2393109196
 30
0.0
 10
1332.5933269207
 20
740.2367042544
 30
0.0
 10
1332.5851541453
 20
740.2319344202
 30
0.0
 10
1332.5830016662
 20
740.2305219191
 30
0.0
  0
SPLINE
  5
557
100
AcDbEntity
  8
0
100
AcDbSpline
 62
7
  6
CONTINUOUS
 70
0
 71
3
 72
9
 73
5
 74
0
 42
0.0000001
 43
0.0000001
 44
0.0000000001
 40
0.0
 40
0.0
 40
0.0
 40
0.0
 40
0.2275500353
 40
1.0
 40
1.0
 40
1.0
 40
1.0
 10
1332.5830016662
 20
740.2305219191
 30
0.0
 10
1332.5812220002
 20
740.2293540657
 30
0.0
 10
1332.5736364363
 20
740.2238617227
 30
0.0
 10
1332.5669917311
 20
740.2171556046
 30
0.0
 10
1332.5622733104
 20
740.2116828676
 30
0.0
  0
SPLINE
  5
558
100
AcDbEntity
  8
0
100
AcDbSpline
 62
7
  6
CONTINUOUS
 70
0
 71
3
 72
13
 73
9
 74
0
 42
0.0000001
 43
0.0000001
 44
0.0000000001
 40
0.0
 40
0.0
 40
0.0
 40
0.0
 40
0.3354837241
 40
0.633849169
 40
0.7586079363
 40
0.8625432897
 40
0.9433017351
 40
1.0
 40
1.0
 40
1.0
 40
1.0
 10
1341.0580898181
 20
738.8393290555
 30
0.0
 10
1341.0315210115
 20
738.9951382085
 30
0.0
 10
1340.9812925864
 20
739.289486354
 30
0.0
 10
1340.9148464478
 20
739.640797756
 30
0.0
 10
1340.8585745478
 20
739.8826455357
 30
0.0
 10
1340.8192414773
 20
740.0232357414
 30
0.0
 10
1340.7804314194
 20
740.1299960253
 30
0.0
 10
1340.7499926591
 20
740.1881456787
 30
0.0
 10
1340.7330433828
 20
740.2087922843
 30
0.0
  0
SPLINE
  5
559
100
AcDbEntity
  8
0
100
AcDbSpline
 62
7
  6
CONTINUOUS
 70
0
 71
3
 72
9
 73
5
 74
0
 42
0.0000001
 43
0.0000001
 44
0.0000000001
 40
0.0
 40
0.0
 40
0.0
 40
0.0
 40
0.307005213
 40
1.0
 40
1.0
 40
1.0
 40
1.0
 10
1340.7330433828
 20
740.2087922843
 30
0.0
 10
1340.7291804967
 20
740.2134978236
 30
0.0
 10
1340.7160755579
 20
740.22803998
 30
0.0
 10
1340.6968343641
 20
740.2393273997
 30
0.0
 10
1340.6830920365
 20
740.2393290334
 30
0.0
  0
SPLINE
  5
55A
100
AcDbEntity
  8
0
100
AcDbSpline
 62
7
  6
CONTINUOUS
 70
0
 71
3
 72
9
 73
5
 74
0
 42
0.0000001
 43
0.0000001
 44
0.0000000001
 40
0.0
 40
0.0
 40
0.0
 40
0.0
 40
0.5013597561
 40
1.0
 40
1.0
 40
1.0
 40
1.0
 10
1332.2641616154
 20
737.23942712
 30
0.0
 10
1332.2586697996
 20
737.2232987915
 30
0.0
 10
1332.2390245032
 20
737.1934328869
 30
0.0
 10
1332.2069147678
 20
737.1776009515
 30
0.0
 10
1332.1902956811
 20
737.1742921194
 30
0.0
  0
SPLINE
  5
55B
100
AcDbEntity
  8
0
100
AcDbSpline
 62
7
  6
CONTINUOUS
 70
0
 71
3
 72
8
 73
4
 74
0
 42
0.0000001
 43
0.0000001
 44
0.0000000001
 40
0.0
 40
0.0
 40
0.0
 40
0.0
 40
1.0
 40
1.0
 40
1.0
 40
1.0
 10
1332.2501194569
 20
737.2179145269
 30
0.0
 10
1332.2369741962
 20
737.197089598
 30
0.0
 10
1332.2141762966
 20
737.1804636312
 30
0.0
 10
1332.1902523442
 20
737.1746223949
 30
0.0
  0
SPLINE
  5
55C
100
AcDbEntity
  8
0
100
AcDbSpline
 62
7
  6
CONTINUOUS
 70
0
 71
3
 72
9
 73
5
 74
0
 42
0.0000001
 43
0.0000001
 44
0.0000000001
 40
0.0
 40
0.0
 40
0.0
 40
0.0
 40
0.2669972511
 40
1.0
 40
1.0
 40
1.0
 40
1.0
 10
1336.905339202
 20
737.430593509
 30
0.0
 10
1336.9040478505
 20
737.4283477949
 30
0.0
 10
1336.8991112167
 20
737.4199958525
 30
0.0
 10
1336.8937529931
 20
737.4118846754
 30
0.0
 10
1336.8895089212
 20
737.4061779071
 30
0.0
  0
SPLINE
  5
55D
100
AcDbEntity
  8
0
100
AcDbSpline
 62
7
  6
CONTINUOUS
 70
0
 71
3
 72
18
 73
14
 74
0
 42
0.0000001
 43
0.0000001
 44
0.0000000001
 40
0.0
 40
0.0
 40
0.0
 40
0.0
 40
0.0237769034
 40
0.0413951725
 40
0.082216578
 40
0.1152991682
 40
0.1580591394
 40
0.2104665169
 40
0.2721368429
 40
0.4206917582
 40
0.597182289
 40
0.7933780136
 40
1.0
 40
1.0
 40
1.0
 40
1.0
 10
1336.8895089212
 20
737.4061779071
 30
0.0
 10
1336.8819985127
 20
737.3960790771
 30
0.0
 10
1336.8676912792
 20
737.3790264075
 30
0.0
 10
1336.823365502
 20
737.362510776
 30
0.0
 10
1336.7818767871
 20
737.4044052816
 30
0.0
 10
1336.7537403302
 20
737.4567129249
 30
0.0
 10
1336.72716335
 20
737.5201696488
 30
0.0
 10
1336.701333276
 20
737.59881086
 30
0.0
 10
1336.6639885939
 20
737.7328805849
 30
0.0
 10
1336.6193373291
 20
737.9326712514
 30
0.0
 10
1336.5678257824
 20
738.2037579023
 30
0.0
 10
1336.516124232
 20
738.5060067235
 30
0.0
 10
1336.4818783307
 20
738.7164561352
 30
0.0
 10
1336.4643297598
 20
738.8244066788
 30
0.0
  0
SPLINE
  5
55E
100
AcDbEntity
  8
0
100
AcDbSpline
 62
7
  6
CONTINUOUS
 70
0
 71
3
 72
20
 73
16
 74
0
 42
0.0000001
 43
0.0000001
 44
0.0000000001
 40
0.0
 40
0.0
 40
0.0
 40
0.0
 40
0.0291676791
 40
0.0498669881
 40
0.0669035522
 40
0.087956684
 40
0.1176003885
 40
0.1572849133
 40
0.2072055807
 40
0.2670698336
 40
0.336273846
 40
0.4140286938
 40
0.5912895977
 40
0.7899742153
 40
1.0
 40
1.0
 40
1.0
 40
1.0
 10
1335.4051215407
 20
737.4302191217
 30
0.0
 10
1335.3972605402
 20
737.4165906991
 30
0.0
 10
1335.3824314398
 20
737.3942593012
 30
0.0
 10
1335.3532975584
 20
737.3699375049
 30
0.0
 10
1335.318846069
 20
737.3706648658
 30
0.0
 10
1335.290076779
 20
737.3958982331
 30
0.0
 10
1335.2634607659
 20
737.4366286248
 30
0.0
 10
1335.2366506818
 20
737.4954166958
 30
0.0
 10
1335.209735156
 20
737.5714152991
 30
0.0
 10
1335.1826598633
 20
737.6641446292
 30
0.0
 10
1335.1554895707
 20
737.772357531
 30
0.0
 10
1335.1175037838
 20
737.9430848722
 30
0.0
 10
1335.0714287778
 20
738.1834744084
 30
0.0
 10
1335.0179061429
 20
738.4949867753
 30
0.0
 10
1334.982507353
 20
738.7125865073
 30
0.0
 10
1334.9643297597
 20
738.8244066788
 30
0.0
  0
SPLINE
  5
55F
100
AcDbEntity
  8
0
100
AcDbSpline
 62
7
  6
CONTINUOUS
 70
0
 71
3
 72
20
 73
16
 74
0
 42
0.0000001
 43
0.0000001
 44
0.0000000001
 40
0.0
 40
0.0
 40
0.0
 40
0.0
 40
0.0296262234
 40
0.0506440001
 40
0.0677031907
 40
0.0885367835
 40
0.1179155551
 40
0.1573437842
 40
0.2070528887
 40
0.2667485814
 40
0.3358372976
 40
0.4135284204
 40
0.5908034331
 40
0.7896814023
 40
1.0
 40
1.0
 40
1.0
 40
1.0
 10
1333.9063769976
 20
737.432409662
 30
0.0
 10
1333.8984871733
 20
737.4184842271
 30
0.0
 10
1333.883570054
 20
737.3956700302
 30
0.0
 10
1333.8546309218
 20
737.3704807748
 30
0.0
 10
1333.8200344949
 20
737.3701105808
 30
0.0
 10
1333.7909214018
 20
737.3948100209
 30
0.0
 10
1333.7642805604
 20
737.4351356343
 30
0.0
 10
1333.7373749429
 20
737.4935599796
 30
0.0
 10
1333.7104086419
 20
737.5693106639
 30
0.0
 10
1333.6832608995
 20
737.6618965136
 30
0.0
 10
1333.6560244975
 20
737.7700784021
 30
0.0
 10
1333.6179274622
 20
737.9409681321
 30
0.0
 10
1333.5717247167
 20
738.1818000265
 30
0.0
 10
1333.5180568524
 20
738.4940597286
 30
0.0
 10
1333.4825609863
 20
738.7122567036
 30
0.0
 10
1333.4643297599
 20
738.8244066788
 30
0.0
  0
SPLINE
  5
560
100
AcDbEntity
  8
0
100
AcDbSpline
 62
7
  6
CONTINUOUS
 70
0
 71
3
 72
13
 73
9
 74
0
 42
0.0000001
 43
0.0000001
 44
0.0000000001
 40
0.0
 40
0.0
 40
0.0
 40
0.0
 40
0.0729181257
 40
0.1719622876
 40
0.2927274181
 40
0.4295126403
 40
0.7243347199
 40
1.0
 40
1.0
 40
1.0
 40
1.0
 10
1337.5787738323
 20
740.4786449566
 30
0.0
 10
1337.6006945176
 20
740.417680938
 30
0.0
 10
1337.6393751915
 20
740.2694586877
 30
0.0
 10
1337.6901247833
 20
740.0144381599
 30
0.0
 10
1337.7413604498
 20
739.7017051959
 30
0.0
 10
1337.8120006397
 20
739.2160571966
 30
0.0
 10
1337.8943616869
 20
738.5930984747
 30
0.0
 10
1337.9643772488
 20
738.0910258797
 30
0.0
 10
1338.0037521354
 20
737.8492925741
 30
0.0
  0
SPLINE
  5
561
100
AcDbEntity
  8
0
100
AcDbSpline
 62
7
  6
CONTINUOUS
 70
0
 71
3
 72
9
 73
5
 74
0
 42
0.0000001
 43
0.0000001
 44
0.0000000001
 40
0.0
 40
0.0
 40
0.0
 40
0.0
 40
0.2091437183
 40
1.0
 40
1.0
 40
1.0
 40
1.0
 10
1336.0787740073
 20
740.4786410683
 30
0.0
 10
1336.0844084998
 20
740.4629714859
 30
0.0
 10
1336.1092710895
 20
740.3873029498
 30
0.0
 10
1336.1281322919
 20
740.3098128138
 30
0.0
 10
1336.1418576362
 20
740.2483596816
 30
0.0
  0
SPLINE
  5
562
100
AcDbEntity
  8
0
100
AcDbSpline
 62
7
  6
CONTINUOUS
 70
0
 71
3
 72
24
 73
20
 74
0
 42
0.0000001
 43
0.0000001
 44
0.0000000001
 40
0.0
 40
0.0
 40
0.0
 40
0.0
 40
0.1396722881
 40
0.3130414649
 40
0.4990104902
 40
0.5895860786
 40
0.6748078346
 40
0.7520671074
 40
0.8190306512
 40
0.8737414113
 40
0.8960321883
 40
0.9147756607
 40
0.9299329065
 40
0.9415856505
 40
0.9501033512
 40
0.9565791733
 40
0.9719439884
 40
0.9842063811
 40
1.0
 40
1.0
 40
1.0
 40
1.0
 10
1336.1453196633
 20
740.2327114446
 30
0.0
 10
1336.1791109238
 20
740.0785411196
 30
0.0
 10
1336.238388196
 20
739.7295440998
 30
0.0
 10
1336.3177827654
 20
739.1713420944
 30
0.0
 10
1336.3847191191
 20
738.667341581
 30
0.0
 10
1336.4408201332
 20
738.2624123251
 30
0.0
 10
1336.4824447481
 20
737.9794987516
 30
0.0
 10
1336.5239041144
 20
737.7235426477
 30
0.0
 10
1336.565151295
 20
737.5025450739
 30
0.0
 10
1336.6011085723
 20
737.3437898281
 30
0.0
 10
1336.6310235072
 20
737.2397701975
 30
0.0
 10
1336.6518479217
 20
737.1797613454
 30
0.0
 10
1336.6724777917
 20
737.1324620774
 30
0.0
 10
1336.6932516745
 20
737.0982797855
 30
0.0
 10
1336.7141508847
 20
737.0758488565
 30
0.0
 10
1336.7496164058
 20
737.065047376
 30
0.0
 10
1336.7818480493
 20
737.0981524525
 30
0.0
 10
1336.8046490571
 20
737.1396120413
 30
0.0
 10
1336.8172373377
 20
737.1692742061
 30
0.0
 10
1336.8235791367
 20
737.185956266
 30
0.0
  0
SPLINE
  5
563
100
AcDbEntity
  8
0
100
AcDbSpline
 62
7
  6
CONTINUOUS
 70
0
 71
3
 72
9
 73
5
 74
0
 42
0.0000001
 43
0.0000001
 44
0.0000000001
 40
0.0
 40
0.0
 40
0.0
 40
0.0
 40
0.2091552169
 40
1.0
 40
1.0
 40
1.0
 40
1.0
 10
1334.5787741585
 20
740.4786369049
 30
0.0
 10
1334.5844001648
 20
740.4629926193
 30
0.0
 10
1334.6092275901
 20
740.3874514763
 30
0.0
 10
1334.6280629099
 20
740.3100910686
 30
0.0
 10
1334.6417719452
 20
740.2487421304
 30
0.0
  0
SPLINE
  5
564
100
AcDbEntity
  8
0
100
AcDbSpline
 62
7
  6
CONTINUOUS
 70
0
 71
3
 72
26
 73
22
 74
0
 42
0.0000001
 43
0.0000001
 44
0.0000000001
 40
0.0
 40
0.0
 40
0.0
 40
0.0
 40
0.1401365178
 40
0.3141799471
 40
0.4073072822
 40
0.5006507005
 40
0.5912854943
 40
0.6763794085
 40
0.7532902649
 40
0.8196634037
 40
0.8735372592
 40
0.8953199335
 40
0.9135113928
 40
0.9280772855
 40
0.9391461864
 40
0.9471758839
 40
0.9535059412
 40
0.9605779665
 40
0.9702765215
 40
0.9833387383
 40
1.0
 40
1.0
 40
1.0
 40
1.0
 10
1334.6452729293
 20
740.2329240189
 30
0.0
 10
1334.6793414784
 20
740.0775319907
 30
0.0
 10
1334.739007734
 20
739.7256340705
 30
0.0
 10
1334.8040256134
 20
739.267913151
 30
0.0
 10
1334.8588269296
 20
738.8623328412
 30
0.0
 10
1334.9008626657
 20
738.5505864721
 30
0.0
 10
1334.9428574547
 20
738.2480337645
 30
0.0
 10
1334.9847730826
 20
737.9643130367
 30
0.0
 10
1335.0265093825
 20
737.7084187781
 30
0.0
 10
1335.0680301766
 20
737.4884715584
 30
0.0
 10
1335.1042352256
 20
737.3312494436
 30
0.0
 10
1335.1344493552
 20
737.229034893
 30
0.0
 10
1335.1553737955
 20
737.1707418724
 30
0.0
 10
1335.1761957423
 20
737.1253774111
 30
0.0
 10
1335.1969979707
 20
737.0932730836
 30
0.0
 10
1335.2187120192
 20
737.0729473811
 30
0.0
 10
1335.2445412096
 20
737.0686537752
 30
0.0
 10
1335.2680873402
 20
737.0833094196
 30
0.0
 10
1335.2888089979
 20
737.1102403576
 30
0.0
 10
1335.3097034988
 20
737.1500280124
 30
0.0
 10
1335.3220774567
 20
737.1814494111
 30
0.0
 10
1335.3284938054
 20
737.1992416595
 30
0.0
  0
SPLINE
  5
565
100
AcDbEntity
  8
0
100
AcDbSpline
 62
7
  6
CONTINUOUS
 70
0
 71
3
 72
9
 73
5
 74
0
 42
0.0000001
 43
0.0000001
 44
0.0000000001
 40
0.0
 40
0.0
 40
0.0
 40
0.0
 40
0.2089406611
 40
1.0
 40
1.0
 40
1.0
 40
1.0
 10
1333.0787741178
 20
740.4786374572
 30
0.0
 10
1333.0844457445
 20
740.4628676363
 30
0.0
 10
1333.1094819716
 20
740.386635571
 30
0.0
 10
1333.1284410372
 20
740.3085611208
 30
0.0
 10
1333.1422436662
 20
740.246631308
 30
0.0
  0
LINE
  5
566
100
AcDbEntity
  8
0
100
AcDbLine
 62
7
  6
CONTINUOUS
 10
1333.1456309231
 20
740.2312919492
 11
1333.1473742307
 21
740.2232876297
  0
SPLINE
  5
567
100
AcDbEntity
  8
0
100
AcDbSpline
 62
7
  6
CONTINUOUS
 70
0
 71
3
 72
24
 73
20
 74
0
 42
0.0000001
 43
0.0000001
 44
0.0000000001
 40
0.0
 40
0.0
 40
0.0
 40
0.0
 40
0.1461836221
 40
0.3216862942
 40
0.5065990482
 40
0.5959724615
 40
0.6798490569
 40
0.7558422523
 40
0.8218205781
 40
0.8759949854
 40
0.8982237355
 40
0.917055414
 40
0.9324472922
 40
0.9444624732
 40
0.9597477291
 40
0.966129525
 40
0.9743487508
 40
0.9855094261
 40
1.0
 40
1.0
 40
1.0
 40
1.0
 10
1333.1618533055
 20
740.1539918441
 30
0.0
 10
1333.193554699
 20
739.9968808117
 30
0.0
 10
1333.2504927934
 20
739.6486406443
 30
0.0
 10
1333.3274763445
 20
739.098595609
 30
0.0
 10
1333.3924924616
 20
738.6097337493
 30
0.0
 10
1333.4467828702
 20
738.2208097897
 30
0.0
 10
1333.4869670202
 20
737.9505008672
 30
0.0
 10
1333.5269914898
 20
737.7061216058
 30
0.0
 10
1333.5668447435
 20
737.4947539895
 30
0.0
 10
1333.6015104896
 20
737.3424974186
 30
0.0
 10
1333.6303868568
 20
737.2420385575
 30
0.0
 10
1333.6503487546
 20
737.1836047485
 30
0.0
 10
1333.6707080682
 20
737.136530769
 30
0.0
 10
1333.6930074457
 20
737.0970671982
 30
0.0
 10
1333.7236259084
 20
737.0658609189
 30
0.0
 10
1333.7577394785
 20
737.0747594812
 30
0.0
 10
1333.7781331621
 20
737.0951397132
 30
0.0
 10
1333.7981713693
 20
737.1264935049
 30
0.0
 10
1333.8098992932
 20
737.1521574323
 30
0.0
 10
1333.8159902336
 20
737.166831129
 30
0.0
  0
SPLINE
  5
568
100
AcDbEntity
  8
0
100
AcDbSpline
 62
7
  6
CONTINUOUS
 70
0
 71
3
 72
8
 73
4
 74
0
 42
0.0000001
 43
0.0000001
 44
0.0000000001
 40
0.0
 40
0.0
 40
0.0
 40
0.0
 40
1.0
 40
1.0
 40
1.0
 40
1.0
 10
1333.8159902336
 20
737.166831129
 30
0.0
 10
1333.8204443117
 20
737.1775614574
 30
0.0
 10
1333.8245947152
 20
737.1884199526
 30
0.0
 10
1333.8285346587
 20
737.1993495274
 30
0.0
  0
SPLINE
  5
569
100
AcDbEntity
  8
0
100
AcDbSpline
 62
7
  6
CONTINUOUS
 70
0
 71
3
 72
9
 73
5
 74
0
 42
0.0000001
 43
0.0000001
 44
0.0000000001
 40
0.0
 40
0.0
 40
0.0
 40
0.0
 40
0.5774550212
 40
1.0
 40
1.0
 40
1.0
 40
1.0
 10
1332.4043895741
 20
737.511395607
 30
0.0
 10
1332.3928571239
 20
737.4855882148
 30
0.0
 10
1332.3708943924
 20
737.4418468964
 30
0.0
 10
1332.340389011
 20
737.4023497503
 30
0.0
 10
1332.3243306322
 20
737.3893131125
 30
0.0
  0
SPLINE
  5
56A
100
AcDbEntity
  8
0
100
AcDbSpline
 62
7
  6
CONTINUOUS
 70
0
 71
3
 72
8
 73
4
 74
0
 42
0.0000001
 43
0.0000001
 44
0.0000000001
 40
0.0
 40
0.0
 40
0.0
 40
0.0
 40
1.0
 40
1.0
 40
1.0
 40
1.0
 10
1332.3243306322
 20
737.3893131125
 30
0.0
 10
1332.3202625252
 20
737.3860105102
 30
0.0
 10
1332.3159645019
 20
737.3829593505
 30
0.0
 10
1332.3114399188
 20
737.3803164686
 30
0.0
  0
SPLINE
  5
56B
100
AcDbEntity
  8
0
100
AcDbSpline
 62
7
  6
CONTINUOUS
 70
0
 71
3
 72
9
 73
5
 74
0
 42
0.0000001
 43
0.0000001
 44
0.0000000001
 40
0.0
 40
0.0
 40
0.0
 40
0.0
 40
0.2683226349
 40
1.0
 40
1.0
 40
1.0
 40
1.0
 10
1331.2277502549
 20
739.8652267917
 30
0.0
 10
1331.2297616002
 20
739.8690756811
 30
0.0
 10
1331.2374094598
 20
739.8833383839
 30
0.0
 10
1331.2456965137
 20
739.8972708977
 30
0.0
 10
1331.2522672731
 20
739.9071227651
 30
0.0
  0
SPLINE
  5
56C
100
AcDbEntity
  8
0
100
AcDbSpline
 62
7
  6
CONTINUOUS
 70
0
 71
3
 72
20
 73
16
 74
0
 42
0.0000001
 43
0.0000001
 44
0.0000000001
 40
0.0
 40
0.0
 40
0.0
 40
0.0
 40
0.0148712436
 40
0.0268052717
 40
0.0365816565
 40
0.0455745004
 40
0.0672438818
 40
0.0997802886
 40
0.1445257729
 40
0.2008035343
 40
0.3419246605
 40
0.5084501499
 40
0.6839041684
 40
0.852380837
 40
1.0
 40
1.0
 40
1.0
 40
1.0
 10
1331.2552990502
 20
739.9115878834
 30
0.0
 10
1331.2621072738
 20
739.9214333963
 30
0.0
 10
1331.2753932208
 20
739.9385590671
 30
0.0
 10
1331.2977530099
 20
739.958105612
 30
0.0
 10
1331.3209887029
 20
739.9682403798
 30
0.0
 10
1331.3547635501
 20
739.9664916605
 30
0.0
 10
1331.3955548648
 20
739.9301393508
 30
0.0
 10
1331.4340511032
 20
739.8609161925
 30
0.0
 10
1331.4735718565
 20
739.7603707121
 30
0.0
 10
1331.5292464944
 20
739.5736266807
 30
0.0
 10
1331.5927987881
 20
739.2873247514
 30
0.0
 10
1331.6637201515
 20
738.9050487042
 30
0.0
 10
1331.7328491782
 20
738.4999976028
 30
0.0
 10
1331.8000368423
 20
738.1101002245
 30
0.0
 10
1331.8473581508
 20
737.8600546405
 30
0.0
 10
1331.8721343951
 20
737.7438443172
 30
0.0
  0
SPLINE
  5
56D
100
AcDbEntity
  8
0
100
AcDbSpline
 62
7
  6
CONTINUOUS
 70
0
 71
3
 72
9
 73
5
 74
0
 42
0.0000001
 43
0.0000001
 44
0.0000000001
 40
0.0
 40
0.0
 40
0.0
 40
0.0
 40
0.2940528922
 40
1.0
 40
1.0
 40
1.0
 40
1.0
 10
1331.9023944231
 20
737.6094704318
 30
0.0
 10
1331.9085315598
 20
737.5838290642
 30
0.0
 10
1331.9302932392
 20
737.4968915126
 30
0.0
 10
1331.9550453071
 20
737.4103846378
 30
0.0
 10
1331.9782838096
 20
737.3515076377
 30
0.0
  0
SPLINE
  5
56E
100
AcDbEntity
  8
0
100
AcDbSpline
 62
7
  6
CONTINUOUS
 70
0
 71
3
 72
9
 73
5
 74
0
 42
0.0000001
 43
0.0000001
 44
0.0000000001
 40
0.0
 40
0.0
 40
0.0
 40
0.0
 40
0.2684262087
 40
1.0
 40
1.0
 40
1.0
 40
1.0
 10
1331.9782838096
 20
737.3515076377
 30
0.0
 10
1331.9799647457
 20
737.347248823
 30
0.0
 10
1331.9863622822
 20
737.3314377479
 30
0.0
 10
1331.9933238104
 20
737.3158471403
 30
0.0
 10
1331.9988720526
 20
737.3046699948
 30
0.0
  0
SPLINE
  5
56F
100
AcDbEntity
  8
0
100
AcDbSpline
 62
7
  6
CONTINUOUS
 70
0
 71
3
 72
16
 73
12
 74
0
 42
0.0000001
 43
0.0000001
 44
0.0000000001
 40
0.0
 40
0.0
 40
0.0
 40
0.0
 40
0.1189870117
 40
0.26812233
 40
0.4324308059
 40
0.5961111395
 40
0.7445063578
 40
0.8655478467
 40
0.9510412962
 40
0.9796388504
 40
1.0
 40
1.0
 40
1.0
 40
1.0
 10
1331.7155564144
 20
739.6288837718
 30
0.0
 10
1331.7500930727
 20
739.5496370853
 30
0.0
 10
1331.8102229762
 20
739.3637015632
 30
0.0
 10
1331.8884353045
 20
739.0595484177
 30
0.0
 10
1331.96523842
 20
738.7214369656
 30
0.0
 10
1332.0404594284
 20
738.3836963152
 30
0.0
 10
1332.1133776378
 20
738.0773568675
 30
0.0
 10
1332.1840083381
 20
737.8297544886
 30
0.0
 10
1332.2450266901
 20
737.668651427
 30
0.0
 10
1332.2983112632
 20
737.5866174125
 30
0.0
 10
1332.3264061841
 20
737.5625810868
 30
0.0
 10
1332.3401402499
 20
737.5570859176
 30
0.0
  0
SPLINE
  5
570
100
AcDbEntity
  8
0
100
AcDbSpline
 62
7
  6
CONTINUOUS
 70
0
 71
3
 72
27
 73
23
 74
0
 42
0.0000001
 43
0.0000001
 44
0.0000000001
 40
0.0
 40
0.0
 40
0.0
 40
0.0
 40
0.0108299002
 40
0.0184419826
 40
0.0247837823
 40
0.0328266209
 40
0.0442435787
 40
0.0595668513
 40
0.0789036499
 40
0.1021971986
 40
0.1292936702
 40
0.1599836197
 40
0.231052448
 40
0.3128818392
 40
0.4024825056
 40
0.4965455975
 40
0.5915844631
 40
0.7705854164
 40
0.8479438004
 40
0.9133448304
 40
0.9645244788
 40
1.0
 40
1.0
 40
1.0
 40
1.0
 10
1343.2443456039
 20
740.5717043292
 30
0.0
 10
1343.2509435653
 20
740.5832064351
 30
0.0
 10
1343.2633187101
 20
740.6019750776
 30
0.0
 10
1343.2882288302
 20
740.6222418413
 30
0.0
 10
1343.3175086757
 20
740.6202024083
 30
0.0
 10
1343.3414337368
 20
740.5974838974
 30
0.0
 10
1343.363904079
 20
740.561433147
 30
0.0
 10
1343.3865088609
 20
740.5094680109
 30
0.0
 10
1343.4092372619
 20
740.4422537802
 30
0.0
 10
1343.4320965086
 20
740.3599471132
 30
0.0
 10
1343.4550430171
 20
740.2633511549
 30
0.0
 10
1343.4873057034
 20
740.1088974358
 30
0.0
 10
1343.526509036
 20
739.8875157012
 30
0.0
 10
1343.5718851653
 20
739.5940786237
 30
0.0
 10
1343.6174090063
 20
739.2722063225
 30
0.0
 10
1343.6630023296
 20
738.9340195756
 30
0.0
 10
1343.7227105453
 20
738.4872973616
 30
0.0
 10
1343.7814583367
 20
738.0610096111
 30
0.0
 10
1343.8449257725
 20
737.6722172167
 30
0.0
 10
1343.8896653649
 20
737.4388393382
 30
0.0
 10
1343.9339308771
 20
737.2581767594
 30
0.0
 10
1343.9681535019
 20
737.1569648643
 30
0.0
 10
1343.9881188676
 20
737.1183890251
 30
0.0
  0
SPLINE
  5
571
100
AcDbEntity
  8
0
100
AcDbSpline
 62
7
  6
CONTINUOUS
 70
0
 71
3
 72
16
 73
12
 74
0
 42
0.0000001
 43
0.0000001
 44
0.0000000001
 40
0.0
 40
0.0
 40
0.0
 40
0.0
 40
0.1032808956
 40
0.1617551367
 40
0.214581238
 40
0.2669267406
 40
0.3315612708
 40
0.3868144875
 40
0.4939738718
 40
0.7268918526
 40
1.0
 40
1.0
 40
1.0
 40
1.0
 10
1332.6345308162
 20
740.1459175943
 30
0.0
 10
1332.6345308722
 20
740.1540541507
 30
0.0
 10
1332.6351323071
 20
740.166912172
 30
0.0
 10
1332.6416352744
 20
740.1830674136
 30
0.0
 10
1332.6525821833
 20
740.1911877399
 30
0.0
 10
1332.6663272849
 20
740.1925176606
 30
0.0
 10
1332.6796402503
 20
740.1890085822
 30
0.0
 10
1332.6955424713
 20
740.1806432731
 30
0.0
 10
1332.7195281969
 20
740.1603182398
 30
0.0
 10
1332.7475896874
 20
740.1203813727
 30
0.0
 10
1332.7651389622
 20
740.0845313122
 30
0.0
 10
1332.7737304563
 20
740.0648054105
 30
0.0
  0
SPLINE
  5
572
100
AcDbEntity
  8
0
100
AcDbSpline
 62
7
  6
CONTINUOUS
 70
0
 71
3
 72
27
 73
23
 74
0
 42
0.0000001
 43
0.0000001
 44
0.0000000001
 40
0.0
 40
0.0
 40
0.0
 40
0.0
 40
0.0118268162
 40
0.0201568263
 40
0.0265553965
 40
0.03401145
 40
0.0446329178
 40
0.0591362506
 40
0.0776991459
 40
0.100287211
 40
0.1267640043
 40
0.1569246395
 40
0.2272229413
 40
0.3086625551
 40
0.3982266715
 40
0.4925586004
 40
0.5881057555
 40
0.7685186655
 40
0.8466012099
 40
0.9126288609
 40
0.9642711681
 40
1.0
 40
1.0
 40
1.0
 40
1.0
 10
1338.7383138517
 20
740.5606440009
 30
0.0
 10
1338.7450094362
 20
740.5735396845
 30
0.0
 10
1338.7577241738
 20
740.5946948036
 30
0.0
 10
1338.7813859369
 20
740.6189031288
 30
0.0
 10
1338.810811656
 20
740.6230905565
 30
0.0
 10
1338.8364146917
 20
740.6038516151
 30
0.0
 10
1338.8588400843
 20
740.5707984765
 30
0.0
 10
1338.8816942307
 20
740.5219306086
 30
0.0
 10
1338.9045044927
 20
740.4574639429
 30
0.0
 10
1338.9275315503
 20
740.3775792812
 30
0.0
 10
1338.9506294516
 20
740.2830109427
 30
0.0
 10
1338.9832060652
 20
740.130481102
 30
0.0
 10
1339.0227299489
 20
739.910478947
 30
0.0
 10
1339.0684382928
 20
739.6175535535
 30
0.0
 10
1339.1143086444
 20
739.294802104
 30
0.0
 10
1339.1602627433
 20
738.954568306
 30
0.0
 10
1339.2205023543
 20
738.5036487062
 30
0.0
 10
1339.2797252129
 20
738.0726615188
 30
0.0
 10
1339.3436939632
 20
737.6791489102
 30
0.0
 10
1339.3888006852
 20
737.4427414013
 30
0.0
 10
1339.4334379862
 20
737.2598260574
 30
0.0
 10
1339.4679367308
 20
737.1573762078
 30
0.0
 10
1339.488118719
 20
737.1183947954
 30
0.0
  0
SPLINE
  5
573
100
AcDbEntity
  8
0
100
AcDbSpline
 62
7
  6
CONTINUOUS
 70
0
 71
3
 72
9
 73
5
 74
0
 42
0.0000001
 43
0.0000001
 44
0.0000000001
 40
0.0
 40
0.0
 40
0.0
 40
0.0
 40
0.2665496682
 40
1.0
 40
1.0
 40
1.0
 40
1.0
 10
1340.2382352015
 20
740.5604910702
 30
0.0
 10
1340.2393228049
 20
740.5625877941
 30
0.0
 10
1340.2434853504
 20
740.5704102902
 30
0.0
 10
1340.2479928198
 20
740.5780547719
 30
0.0
 10
1340.2515598419
 20
740.583487917
 30
0.0
  0
SPLINE
  5
574
100
AcDbEntity
  8
0
100
AcDbSpline
 62
7
  6
CONTINUOUS
 70
0
 71
3
 72
25
 73
21
 74
0
 42
0.0000001
 43
0.0000001
 44
0.0000000001
 40
0.0
 40
0.0
 40
0.0
 40
0.0
 40
0.0159632705
 40
0.0225140449
 40
0.0314430391
 40
0.043919506
 40
0.0602907843
 40
0.0806032118
 40
0.1047682717
 40
0.1639462386
 40
0.2359208559
 40
0.3181763152
 40
0.4077670906
 40
0.5014544446
 40
0.5958388828
 40
0.7730973543
 40
0.8495738591
 40
0.9142140694
 40
0.964831733
 40
1.0
 40
1.0
 40
1.0
 40
1.0
 10
1340.2525394451
 20
740.5849653489
 30
0.0
 10
1340.2633649467
 20
740.6011302505
 30
0.0
 10
1340.2862047899
 20
740.6280109465
 30
0.0
 10
1340.325769165
 20
740.6146396859
 30
0.0
 10
1340.3480711713
 20
740.5880679196
 30
0.0
 10
1340.3705564563
 20
740.5478403239
 30
0.0
 10
1340.3928521678
 20
740.492069545
 30
0.0
 10
1340.4154170672
 20
740.4214127284
 30
0.0
 10
1340.4478111939
 20
740.299259568
 30
0.0
 10
1340.4867118756
 20
740.1139181439
 30
0.0
 10
1340.5313792361
 20
739.8576780695
 30
0.0
 10
1340.5762728336
 20
739.5639199406
 30
0.0
 10
1340.6213415099
 20
739.2434572621
 30
0.0
 10
1340.66645845
 20
738.9080788247
 30
0.0
 10
1340.7254890646
 20
738.4667807522
 30
0.0
 10
1340.7836330886
 20
738.0464540428
 30
0.0
 10
1340.8464712646
 20
737.6635854989
 30
0.0
 10
1340.8907466058
 20
737.4339784355
 30
0.0
 10
1340.9345573724
 20
737.2561283995
 30
0.0
 10
1340.9684129063
 20
737.1564502634
 30
0.0
 10
1340.9881189243
 20
737.1183882844
 30
0.0
  0
SPLINE
  5
575
100
AcDbEntity
  8
0
100
AcDbSpline
 62
7
  6
CONTINUOUS
 70
0
 71
3
 72
13
 73
9
 74
0
 42
0.0000001
 43
0.0000001
 44
0.0000000001
 40
0.0
 40
0.0
 40
0.0
 40
0.0
 40
0.3363756725
 40
0.6352256405
 40
0.759955924
 40
0.8636390381
 40
0.9439269106
 40
1.0
 40
1.0
 40
1.0
 40
1.0
 10
1342.5580898181
 20
738.8393290555
 30
0.0
 10
1342.531408692
 20
738.9957969024
 30
0.0
 10
1342.4809913098
 20
739.2912442085
 30
0.0
 10
1342.4142719219
 20
739.6437263402
 30
0.0
 10
1342.3577319955
 20
739.8860055128
 30
0.0
 10
1342.3182467017
 20
740.0264350838
 30
0.0
 10
1342.2793068514
 20
740.1326402795
 30
0.0
 10
1342.2486916856
 20
740.1902917547
 30
0.0
 10
1342.2316174676
 20
740.2105048185
 30
0.0
  0
SPLINE
  5
576
100
AcDbEntity
  8
0
100
AcDbSpline
 62
7
  6
CONTINUOUS
 70
0
 71
3
 72
9
 73
5
 74
0
 42
0.0000001
 43
0.0000001
 44
0.0000000001
 40
0.0
 40
0.0
 40
0.0
 40
0.0
 40
0.3048358414
 40
1.0
 40
1.0
 40
1.0
 40
1.0
 10
1342.2316174676
 20
740.2105048185
 30
0.0
 10
1342.2278588299
 20
740.2149544269
 30
0.0
 10
1342.2150109241
 20
740.2287930778
 30
0.0
 10
1342.1963848818
 20
740.2393226938
 30
0.0
 10
1342.1831020705
 20
740.2393288819
 30
0.0
  0
SPLINE
  5
577
100
AcDbEntity
  8
0
100
AcDbSpline
 62
7
  6
CONTINUOUS
 70
0
 71
3
 72
8
 73
4
 74
0
 42
0.0000001
 43
0.0000001
 44
0.0000000001
 40
0.0
 40
0.0
 40
0.0
 40
0.0
 40
1.0
 40
1.0
 40
1.0
 40
1.0
 10
1341.7382831809
 20
740.5605866273
 30
0.0
 10
1341.7410625912
 20
740.5659417363
 30
0.0
 10
1341.74398463
 20
740.5712274171
 30
0.0
 10
1341.7470988142
 20
740.5763950249
 30
0.0
  0
SPLINE
  5
578
100
AcDbEntity
  8
0
100
AcDbSpline
 62
7
  6
CONTINUOUS
 70
0
 71
3
 72
26
 73
22
 74
0
 42
0.0000001
 43
0.0000001
 44
0.0000000001
 40
0.0
 40
0.0
 40
0.0
 40
0.0
 40
0.0165050391
 40
0.0229648758
 40
0.0316369016
 40
0.0438177278
 40
0.0598934539
 40
0.0799290042
 40
0.1038438012
 40
0.131477919
 40
0.1626159537
 40
0.2343139737
 40
0.31643409
 40
0.4060323546
 40
0.4998523736
 40
0.5944589394
 40
0.7722870704
 40
0.8490477773
 40
0.9139326025
 40
0.9647312449
 40
1.0
 40
1.0
 40
1.0
 40
1.0
 10
1341.7503750169
 20
740.5816679149
 30
0.0
 10
1341.7612452258
 20
740.5986197408
 30
0.0
 10
1341.7829194261
 20
740.6269340244
 30
0.0
 10
1341.8236135823
 20
740.6163562224
 30
0.0
 10
1341.846254028
 20
740.5907390843
 30
0.0
 10
1341.8687303284
 20
740.5517199
 30
0.0
 10
1341.8910942672
 20
740.4970038383
 30
0.0
 10
1341.9136904209
 20
740.42733593
 30
0.0
 10
1341.9363689786
 20
740.3429510719
 30
0.0
 10
1341.9591388565
 20
740.2446587346
 30
0.0
 10
1341.9910801845
 20
740.0886957676
 30
0.0
 10
1342.0299495481
 20
739.8663676358
 30
0.0
 10
1342.0749886606
 20
739.5728040039
 30
0.0
 10
1342.1201748013
 20
739.2519843699
 30
0.0
 10
1342.1654305107
 20
738.9157984904
 30
0.0
 10
1342.2246610139
 20
738.4728878039
 30
0.0
 10
1342.2829855935
 20
738.0507832875
 30
0.0
 10
1342.346010806
 20
737.6661490012
 30
0.0
 10
1342.3904258233
 20
737.4354205879
 30
0.0
 10
1342.4343680933
 20
737.2567329782
 30
0.0
 10
1342.4683395456
 20
737.1566032425
 30
0.0
 10
1342.4881189209
 20
737.1183873397
 30
0.0
  0
SPLINE
  5
579
100
AcDbEntity
  8
0
100
AcDbSpline
 62
7
  6
CONTINUOUS
 70
0
 71
3
 72
13
 73
9
 74
0
 42
0.0000001
 43
0.0000001
 44
0.0000000001
 40
0.0
 40
0.0
 40
0.0
 40
0.0
 40
0.3381459348
 40
0.6379147861
 40
0.7625711435
 40
0.8657639507
 40
0.9451457464
 40
1.0
 40
1.0
 40
1.0
 40
1.0
 10
1344.0580898181
 20
738.8393290555
 30
0.0
 10
1344.031187984
 20
738.997091291
 30
0.0
 10
1343.9804036384
 20
739.2946742606
 30
0.0
 10
1343.9131520485
 20
739.6494205916
 30
0.0
 10
1343.8560943493
 20
739.8925072227
 30
0.0
 10
1343.8163064291
 20
740.0326105564
 30
0.0
 10
1343.777113661
 20
740.1377186568
 30
0.0
 10
1343.7461355309
 20
740.1943934911
 30
0.0
 10
1343.7288126023
 20
740.2137306668
 30
0.0
  0
SPLINE
  5
57A
100
AcDbEntity
  8
0
100
AcDbSpline
 62
7
  6
CONTINUOUS
 70
0
 71
3
 72
9
 73
5
 74
0
 42
0.0000001
 43
0.0000001
 44
0.0000000001
 40
0.0
 40
0.0
 40
0.0
 40
0.0
 40
0.3005817501
 40
1.0
 40
1.0
 40
1.0
 40
1.0
 10
1343.7288126023
 20
740.2137306668
 30
0.0
 10
1343.7252558713
 20
740.2177009615
 30
0.0
 10
1343.7129188458
 20
740.2301990757
 30
0.0
 10
1343.6954785115
 20
740.2393281694
 30
0.0
 10
1343.6830752102
 20
740.2393280405
 30
0.0
  0
SPLINE
  5
57B
100
AcDbEntity
  8
0
100
AcDbSpline
 62
7
  6
CONTINUOUS
 70
0
 71
3
 72
27
 73
23
 74
0
 42
0.0000001
 43
0.0000001
 44
0.0000000001
 40
0.0
 40
0.0
 40
0.0
 40
0.0
 40
0.0104926324
 40
0.0178859546
 40
0.0242482657
 40
0.0325007762
 40
0.0441796991
 40
0.0597700212
 40
0.0793577105
 40
0.102880611
 40
0.1301798643
 40
0.161040658
 40
0.2323555025
 40
0.3143026098
 40
0.4039033615
 40
0.4978680379
 40
0.5927334417
 40
0.7712675803
 40
0.8483880037
 40
0.9135834959
 40
0.9646101721
 40
1.0
 40
1.0
 40
1.0
 40
1.0
 10
1332.7463867149
 20
740.5752042827
 30
0.0
 10
1332.7529471454
 20
740.5862337416
 30
0.0
 10
1332.7652290483
 20
740.6042518308
 30
0.0
 10
1332.7905920762
 20
740.6230362685
 30
0.0
 10
1332.8196197177
 20
740.6189733708
 30
0.0
 10
1332.8430772494
 20
740.595262591
 30
0.0
 10
1332.8655649592
 20
740.5581791792
 30
0.0
 10
1332.8880886851
 20
740.5052336449
 30
0.0
 10
1332.9107891739
 20
740.4371246995
 30
0.0
 10
1332.933595646
 20
740.3540372924
 30
0.0
 10
1332.9564922763
 20
740.2567838043
 30
0.0
 10
1332.9886561493
 20
740.1017131452
 30
0.0
 10
1333.027752335
 20
739.8799005365
 30
0.0
 10
1333.0730183645
 20
739.5863263584
 30
0.0
 10
1333.1184263773
 20
739.2647744621
 30
0.0
 10
1333.1638998876
 20
738.927285092
 30
0.0
 10
1333.2234336553
 20
738.4819503555
 30
0.0
 10
1333.2820258322
 20
738.0572021955
 30
0.0
 10
1333.3453312137
 20
737.669949355
 30
0.0
 10
1333.3899490547
 20
737.4375573545
 30
0.0
 10
1333.434096833
 20
737.2576339021
 30
0.0
 10
1333.4682206556
 20
737.1568245304
 30
0.0
 10
1333.4881200811
 20
737.1183862802
 30
0.0
  0
SPLINE
  5
57C
100
AcDbEntity
  8
0
100
AcDbSpline
 62
7
  6
CONTINUOUS
 70
0
 71
3
 72
27
 73
23
 74
0
 42
0.0000001
 43
0.0000001
 44
0.0000000001
 40
0.0
 40
0.0
 40
0.0
 40
0.0
 40
0.0106547753
 40
0.0181516389
 40
0.0244977216
 40
0.0326376596
 40
0.0441752341
 40
0.0596176638
 40
0.0790650908
 40
0.1024554748
 40
0.1296386012
 40
0.160397505
 40
0.2315677193
 40
0.3134462651
 40
0.4030483626
 40
0.4970733337
 40
0.5920434196
 40
0.7708583072
 40
0.8481214114
 40
0.913440123
 40
0.9645583239
 40
1.0
 40
1.0
 40
1.0
 40
1.0
 10
1334.2453855039
 20
740.5735009671
 30
0.0
 10
1334.2519625977
 20
740.5847589031
 30
0.0
 10
1334.2642836971
 20
740.6031373559
 30
0.0
 10
1334.2894073973
 20
740.6226557137
 30
0.0
 10
1334.3185515943
 20
740.6196087574
 30
0.0
 10
1334.342228061
 20
740.5964168326
 30
0.0
 10
1334.3646949883
 20
740.5598893361
 30
0.0
 10
1334.3872526391
 20
740.5074837523
 30
0.0
 10
1334.4099553806
 20
740.4398795808
 30
0.0
 10
1334.4327855503
 20
740.3572429309
 30
0.0
 10
1334.4556977733
 20
740.260378797
 30
0.0
 10
1334.4879122465
 20
740.1056849912
 30
0.0
 10
1334.527058511
 20
739.8841494683
 30
0.0
 10
1334.5723816964
 20
739.5906854307
 30
0.0
 10
1334.6178512814
 20
739.2689750469
 30
0.0
 10
1334.6633906568
 20
738.931105207
 30
0.0
 10
1334.7230224927
 20
738.4849906155
 30
0.0
 10
1334.7817026004
 20
738.0593704483
 30
0.0
 10
1334.8451013652
 20
737.6712426867
 30
0.0
 10
1334.8897869627
 20
737.4382883117
 30
0.0
 10
1334.934006652
 20
737.2579466752
 30
0.0
 10
1334.9681784004
 20
737.1569044102
 30
0.0
 10
1334.9881199815
 20
737.1183904437
 30
0.0
  0
SPLINE
  5
57D
100
AcDbEntity
  8
0
100
AcDbSpline
 62
7
  6
CONTINUOUS
 70
0
 71
3
 72
27
 73
23
 74
0
 42
0.0000001
 43
0.0000001
 44
0.0000000001
 40
0.0
 40
0.0
 40
0.0
 40
0.0
 40
0.0118536009
 40
0.0202035648
 40
0.0266092291
 40
0.0340677863
 40
0.0446977135
 40
0.0592129217
 40
0.0777945632
 40
0.1004028592
 40
0.1269052424
 40
0.1570897019
 40
0.2274381842
 40
0.3089195797
 40
0.3985093565
 40
0.4928459591
 40
0.588373928
 40
0.7686906807
 40
0.8467156382
 40
0.9126919387
 40
0.9642948477
 40
1.0
 40
1.0
 40
1.0
 40
1.0
 10
1335.7381978958
 20
740.5604212783
 30
0.0
 10
1335.7449008476
 20
740.5733513391
 30
0.0
 10
1335.7576362214
 20
740.5945586983
 30
0.0
 10
1335.7812974732
 20
740.6188675597
 30
0.0
 10
1335.810761446
 20
740.6231024767
 30
0.0
 10
1335.8364086898
 20
740.6038739567
 30
0.0
 10
1335.85884218
 20
740.5707851191
 30
0.0
 10
1335.8817218077
 20
740.5218740677
 30
0.0
 10
1335.9045422025
 20
740.45733849
 30
0.0
 10
1335.9275893295
 20
740.3773716299
 30
0.0
 10
1335.9506962616
 20
740.2827102754
 30
0.0
 10
1335.9832928476
 20
740.1300487829
 30
0.0
 10
1336.0228284193
 20
739.9098884321
 30
0.0
 10
1336.0685506855
 20
739.6167984475
 30
0.0
 10
1336.1144279902
 20
739.2939358551
 30
0.0
 10
1336.1603833731
 20
738.9536646313
 30
0.0
 10
1336.2206101537
 20
738.5028489526
 30
0.0
 10
1336.2798162601
 20
738.0720438883
 30
0.0
 10
1336.343762535
 20
737.6787548212
 30
0.0
 10
1336.3888512867
 20
737.4425133544
 30
0.0
 10
1336.4334641228
 20
737.2597218283
 30
0.0
 10
1336.467954337
 20
737.1573454389
 30
0.0
 10
1336.4881201211
 20
737.1183850047
 30
0.0
  0
SPLINE
  5
57E
100
AcDbEntity
  8
0
100
AcDbSpline
 62
7
  6
CONTINUOUS
 70
0
 71
3
 72
21
 73
17
 74
0
 42
0.0000001
 43
0.0000001
 44
0.0000000001
 40
0.0
 40
0.0
 40
0.0
 40
0.0
 40
0.0118624737
 40
0.0209634833
 40
0.0279102146
 40
0.0340627629
 40
0.0412646838
 40
0.0507515396
 40
0.078324206
 40
0.1180818083
 40
0.1696242496
 40
0.3038443798
 40
0.4695285267
 40
0.6518145254
 40
0.8341451616
 40
1.0
 40
1.0
 40
1.0
 40
1.0
 10
1337.2382603037
 20
740.5605438335
 30
0.0
 10
1337.2436538938
 20
740.5709406856
 30
0.0
 10
1337.2541232298
 20
740.5889058033
 30
0.0
 10
1337.2720771573
 20
740.6100130331
 30
0.0
 10
1337.2915746531
 20
740.6217873346
 30
0.0
 10
1337.3127732564
 20
740.6207262725
 30
0.0
 10
1337.3319000476
 20
740.6074468045
 30
0.0
 10
1337.359169321
 20
740.573027083
 30
0.0
 10
1337.3900468302
 20
740.5028350004
 30
0.0
 10
1337.424913772
 20
740.3909134924
 30
0.0
 10
1337.4764794016
 20
740.1740462571
 30
0.0
 10
1337.5366412306
 20
739.83219965
 30
0.0
 10
1337.6057707323
 20
739.3611234806
 30
0.0
 10
1337.6752388545
 20
738.8421461937
 30
0.0
 10
1337.7448035641
 20
738.3230244307
 30
0.0
 10
1337.794455031
 20
737.9828050365
 30
0.0
 10
1337.8208449926
 20
737.8211858124
 30
0.0
  0
SPLINE
  5
57F
100
AcDbEntity
  8
0
100
AcDbSpline
 62
7
  6
CONTINUOUS
 70
0
 71
3
 72
9
 73
5
 74
0
 42
0.0000001
 43
0.0000001
 44
0.0000000001
 40
0.0
 40
0.0
 40
0.0
 40
0.0
 40
0.2388825433
 40
1.0
 40
1.0
 40
1.0
 40
1.0
 10
1331.6374133051
 20
739.813693582
 30
0.0
 10
1331.6390604488
 20
739.8096444223
 30
0.0
 10
1331.6458344668
 20
739.7926447468
 30
0.0
 10
1331.6521565203
 20
739.7754667352
 30
0.0
 10
1331.6567731714
 20
739.7623262935
 30
0.0
  0
SPLINE
  5
580
100
AcDbEntity
  8
0
100
AcDbSpline
 62
7
  6
CONTINUOUS
 70
0
 71
3
 72
9
 73
5
 74
0
 42
0.0000001
 43
0.0000001
 44
0.0000000001
 40
0.0
 40
0.0
 40
0.0
 40
0.0
 40
0.2368551855
 40
1.0
 40
1.0
 40
1.0
 40
1.0
 10
1331.6567731714
 20
739.7623262935
 30
0.0
 10
1331.6591059384
 20
739.7556865046
 30
0.0
 10
1331.6687416839
 20
739.7275785283
 30
0.0
 10
1331.677600682
 20
739.6992078531
 30
0.0
 10
1331.6840484533
 20
739.6774686445
 30
0.0
  0
SPLINE
  5
581
100
AcDbEntity
  8
0
100
AcDbSpline
 62
7
  6
CONTINUOUS
 70
0
 71
3
 72
11
 73
7
 74
0
 42
0.0000001
 43
0.0000001
 44
0.0000000001
 40
0.0
 40
0.0
 40
0.0
 40
0.0
 40
0.2168990358
 40
0.4802353596
 40
0.7528139248
 40
1.0
 40
1.0
 40
1.0
 40
1.0
 10
1331.6840484533
 20
739.6774686445
 30
0.0
 10
1331.7220656457
 20
739.54929045
 30
0.0
 10
1331.7859929925
 20
739.2597750805
 30
0.0
 10
1331.8691397908
 20
738.8033733633
 30
0.0
 10
1331.949783148
 20
738.3274211311
 30
0.0
 10
1332.0062139869
 20
738.0120121043
 30
0.0
 10
1332.0361030665
 20
737.8626061891
 30
0.0
  0
SPLINE
  5
582
100
AcDbEntity
  8
0
100
AcDbSpline
 62
7
  6
CONTINUOUS
 70
0
 71
3
 72
9
 73
5
 74
0
 42
0.0000001
 43
0.0000001
 44
0.0000000001
 40
0.0
 40
0.0
 40
0.0
 40
0.0
 40
0.2641248073
 40
1.0
 40
1.0
 40
1.0
 40
1.0
 10
1332.0361030665
 20
737.8626061891
 30
0.0
 10
1332.0396692138
 20
737.8447801638
 30
0.0
 10
1332.0533544686
 20
737.7773266304
 30
0.0
 10
1332.0678430382
 20
737.7100319739
 30
0.0
 10
1332.0792197721
 20
737.6606772624
 30
0.0
  0
SPLINE
  5
583
100
AcDbEntity
  8
0
100
AcDbSpline
 62
7
  6
CONTINUOUS
 70
0
 71
3
 72
12
 73
8
 74
0
 42
0.0000001
 43
0.0000001
 44
0.0000000001
 40
0.0
 40
0.0
 40
0.0
 40
0.0
 40
0.3961620041
 40
0.694097694
 40
0.8048434729
 40
0.8908045119
 40
1.0
 40
1.0
 40
1.0
 40
1.0
 10
1332.0792197721
 20
737.6606772624
 30
0.0
 10
1332.0932132797
 20
737.5999704255
 30
0.0
 10
1332.1197409179
 20
737.493966533
 30
0.0
 10
1332.1579281711
 20
737.373388872
 30
0.0
 10
1332.1913166605
 20
737.3022856577
 30
0.0
 10
1332.2157638107
 20
737.2624055364
 30
0.0
 10
1332.2430956621
 20
737.2386630133
 30
0.0
 10
1332.2602616951
 20
737.2391012686
 30
0.0
  0
SPLINE
  5
584
100
AcDbEntity
  8
0
100
AcDbSpline
 62
7
  6
CONTINUOUS
 70
0
 71
3
 72
15
 73
11
 74
0
 42
0.0000001
 43
0.0000001
 44
0.0000000001
 40
0.0
 40
0.0
 40
0.0
 40
0.0
 40
0.0371520362
 40
0.0651735222
 40
0.1007044816
 40
0.1945885118
 40
0.3171976649
 40
0.4646261321
 40
0.6316890729
 40
1.0
 40
1.0
 40
1.0
 40
1.0
 10
1333.9317015987
 20
737.4393595348
 30
0.0
 10
1333.9134951618
 20
737.4399855547
 30
0.0
 10
1333.8852257372
 20
737.4634579652
 30
0.0
 10
1333.8591291555
 20
737.5041906601
 30
0.0
 10
1333.8249756798
 20
737.5741049149
 30
0.0
 10
1333.7857713648
 20
737.691333496
 30
0.0
 10
1333.7405982556
 20
737.8641013771
 30
0.0
 10
1333.6953083841
 20
738.073610188
 30
0.0
 10
1333.6323879412
 20
738.4024748241
 30
0.0
 10
1333.5884474447
 20
738.6613005731
 30
0.0
 10
1333.5580898181
 20
738.8393290555
 30
0.0
  0
SPLINE
  5
585
100
AcDbEntity
  8
0
100
AcDbSpline
 62
7
  6
CONTINUOUS
 70
0
 71
3
 72
15
 73
11
 74
0
 42
0.0000001
 43
0.0000001
 44
0.0000000001
 40
0.0
 40
0.0
 40
0.0
 40
0.0
 40
0.0371426115
 40
0.0651534115
 40
0.1006848636
 40
0.1945747908
 40
0.3172057534
 40
0.464659085
 40
0.6317378275
 40
1.0
 40
1.0
 40
1.0
 40
1.0
 10
1335.4317129155
 20
737.4393595588
 30
0.0
 10
1335.4135104674
 20
737.4399704788
 30
0.0
 10
1335.3852459847
 20
737.4634453985
 30
0.0
 10
1335.3591417374
 20
737.5041579357
 30
0.0
 10
1335.3249938325
 20
737.5740758848
 30
0.0
 10
1335.285774473
 20
737.6913122892
 30
0.0
 10
1335.2405972846
 20
737.8641084936
 30
0.0
 10
1335.1953004566
 20
738.0736480557
 30
0.0
 10
1335.1323818504
 20
738.4025115293
 30
0.0
 10
1335.0884435783
 20
738.6613229383
 30
0.0
 10
1335.0580898181
 20
738.8393290555
 30
0.0
  0
SPLINE
  5
586
100
AcDbEntity
  8
0
100
AcDbSpline
 62
7
  6
CONTINUOUS
 70
0
 71
3
 72
15
 73
11
 74
0
 42
0.0000001
 43
0.0000001
 44
0.0000000001
 40
0.0
 40
0.0
 40
0.0
 40
0.0
 40
0.0371447926
 40
0.0651579949
 40
0.1006894137
 40
0.1945718081
 40
0.3171840835
 40
0.4646179811
 40
0.6316849879
 40
1.0
 40
1.0
 40
1.0
 40
1.0
 10
1336.9317113076
 20
737.4393584195
 30
0.0
 10
1336.9135079133
 20
737.4399728186
 30
0.0
 10
1336.8852423489
 20
737.4634470696
 30
0.0
 10
1336.8591390069
 20
737.5041638015
 30
0.0
 10
1336.8249916537
 20
737.5740785639
 30
0.0
 10
1336.7857775983
 20
737.6913035871
 30
0.0
 10
1336.7406044295
 20
737.8640773436
 30
0.0
 10
1336.6953116213
 20
738.0735927869
 30
0.0
 10
1336.6323895178
 20
738.4024662441
 30
0.0
 10
1336.588447969
 20
738.661297471
 30
0.0
 10
1336.5580898181
 20
738.8393290555
 30
0.0
  0
SPLINE
  5
587
100
AcDbEntity
  8
0
100
AcDbSpline
 62
7
  6
CONTINUOUS
 70
0
 71
3
 72
8
 73
4
 74
0
 42
0.0000001
 43
0.0000001
 44
0.0000000001
 40
0.0
 40
0.0
 40
0.0
 40
0.0
 40
1.0
 40
1.0
 40
1.0
 40
1.0
 10
1338.4048972616
 20
737.4298300912
 30
0.0
 10
1338.4004320598
 20
737.4221098068
 30
0.0
 10
1338.395648449
 20
737.4145515721
 30
0.0
 10
1338.3903817332
 20
737.4073541751
 30
0.0
  0
SPLINE
  5
588
100
AcDbEntity
  8
0
100
AcDbSpline
 62
7
  6
CONTINUOUS
 70
0
 71
3
 72
18
 73
14
 74
0
 42
0.0000001
 43
0.0000001
 44
0.0000000001
 40
0.0
 40
0.0
 40
0.0
 40
0.0
 40
0.035610434
 40
0.0641307968
 40
0.0882357335
 40
0.1122465455
 40
0.1405266878
 40
0.1758247452
 40
0.2719329878
 40
0.4042357137
 40
0.5717035671
 40
0.771598322
 40
1.0
 40
1.0
 40
1.0
 40
1.0
 10
1338.3903817332
 20
737.4073541751
 30
0.0
 10
1338.3850889348
 20
737.4001211343
 30
0.0
 10
1338.3746572577
 20
737.3876794299
 30
0.0
 10
1338.3565985142
 20
737.3742061847
 30
0.0
 10
1338.337295956
 20
737.3691219626
 30
0.0
 10
1338.3179560879
 20
737.3738332884
 30
0.0
 10
1338.2998453352
 20
737.3869958363
 30
0.0
 10
1338.2737235939
 20
737.4178184341
 30
0.0
 10
1338.2433848637
 20
737.4775289479
 30
0.0
 10
1338.2092597077
 20
737.5711120181
 30
0.0
 10
1338.1748549733
 20
737.6922044911
 30
0.0
 10
1338.1401877028
 20
737.838094781
 30
0.0
 10
1338.1182896837
 20
737.9436619706
 30
0.0
 10
1338.1071193811
 20
738.0000523155
 30
0.0
  0
SPLINE
  5
589
100
AcDbEntity
  8
0
100
AcDbSpline
 62
7
  6
CONTINUOUS
 70
0
 71
3
 72
13
 73
9
 74
0
 42
0.0000001
 43
0.0000001
 44
0.0000000001
 40
0.0
 40
0.0
 40
0.0
 40
0.0
 40
0.1067828222
 40
0.1945230049
 40
0.3080662148
 40
0.447037918
 40
0.6100717957
 40
1.0
 40
1.0
 40
1.0
 40
1.0
 10
1338.4323892406
 20
737.439335092
 30
0.0
 10
1338.4085596726
 20
737.4397462007
 30
0.0
 10
1338.3731363942
 20
737.477869366
 30
0.0
 10
1338.3423933878
 20
737.5366101489
 30
0.0
 10
1338.3135825076
 20
737.6079170709
 30
0.0
 10
1338.2854495049
 20
737.6960224656
 30
0.0
 10
1338.2449311642
 20
737.8452204541
 30
0.0
 10
1338.218466929
 20
737.9657747755
 30
0.0
 10
1338.2008794423
 20
738.051008155
 30
0.0
  0
LINE
  5
58A
100
AcDbEntity
  8
0
100
AcDbLine
 62
7
  6
CONTINUOUS
 10
1339.9064634679
 20
737.4325623131
 11
1339.9059177384
 21
737.4316015556
  0
SPLINE
  5
58B
100
AcDbEntity
  8
0
100
AcDbSpline
 62
7
  6
CONTINUOUS
 70
0
 71
3
 72
20
 73
16
 74
0
 42
0.0000001
 43
0.0000001
 44
0.0000000001
 40
0.0
 40
0.0
 40
0.0
 40
0.0
 40
0.0294512227
 40
0.0503512861
 40
0.067397202
 40
0.088298581
 40
0.1177615762
 40
0.1572630745
 40
0.207034864
 40
0.2667827262
 40
0.3359110706
 40
0.4136352274
 40
0.5909276096
 40
0.789745812
 40
1.0
 40
1.0
 40
1.0
 40
1.0
 10
1339.9059177384
 20
737.4316015556
 30
0.0
 10
1339.8980410221
 20
737.4177878592
 30
0.0
 10
1339.883152866
 20
737.3951608506
 30
0.0
 10
1339.8541573729
 20
737.3702773339
 30
0.0
 10
1339.8196217091
 20
737.3703092607
 30
0.0
 10
1339.7906323925
 20
737.3951731027
 30
0.0
 10
1339.7640138614
 20
737.435629814
 30
0.0
 10
1339.7371401464
 20
737.4941553224
 30
0.0
 10
1339.7101977249
 20
737.5699739499
 30
0.0
 10
1339.6830742632
 20
737.6625959376
 30
0.0
 10
1339.6558573526
 20
737.7707865825
 30
0.0
 10
1339.6177958345
 20
737.9416315915
 30
0.0
 10
1339.5716317921
 20
738.182323061
 30
0.0
 10
1339.5180099475
 20
738.4943487532
 30
0.0
 10
1339.4825451588
 20
738.7123550452
 30
0.0
 10
1339.4643297597
 20
738.8244066788
 30
0.0
  0
SPLINE
  5
58C
100
AcDbEntity
  8
0
100
AcDbSpline
 62
7
  6
CONTINUOUS
 70
0
 71
3
 72
15
 73
11
 74
0
 42
0.0000001
 43
0.0000001
 44
0.0000000001
 40
0.0
 40
0.0
 40
0.0
 40
0.0
 40
0.0371389775
 40
0.0651495801
 40
0.1006655299
 40
0.1945302191
 40
0.3171451802
 40
0.4645972635
 40
0.6316800695
 40
1.0
 40
1.0
 40
1.0
 40
1.0
 10
1339.9316952348
 20
737.4393591221
 30
0.0
 10
1339.9134954107
 20
737.4399895931
 30
0.0
 10
1339.8852355506
 20
737.4634453859
 30
0.0
 10
1339.8591468762
 20
737.504162874
 30
0.0
 10
1339.8249949748
 20
737.5740517621
 30
0.0
 10
1339.7857912084
 20
737.6912665895
 30
0.0
 10
1339.7406125804
 20
737.8640371557
 30
0.0
 10
1339.6953166845
 20
738.0735689814
 30
0.0
 10
1339.6323908728
 20
738.4024577344
 30
0.0
 10
1339.5884478922
 20
738.6612966958
 30
0.0
 10
1339.5580898181
 20
738.8393290555
 30
0.0
  0
SPLINE
  5
58D
100
AcDbEntity
  8
0
100
AcDbSpline
 62
7
  6
CONTINUOUS
 70
0
 71
3
 72
12
 73
8
 74
0
 42
0.0000001
 43
0.0000001
 44
0.0000000001
 40
0.0
 40
0.0
 40
0.0
 40
0.0
 40
0.320558752
 40
0.6112142404
 40
0.8444634168
 40
0.9328000213
 40
1.0
 40
1.0
 40
1.0
 40
1.0
 10
1343.5103248819
 20
738.8534135848
 30
0.0
 10
1343.5350956976
 20
738.7023697931
 30
0.0
 10
1343.5821742529
 20
738.4143179957
 30
0.0
 10
1343.6535915308
 20
738.017547625
 30
0.0
 10
1343.7156651632
 20
737.7315082141
 30
0.0
 10
1343.7693483671
 20
737.5537741408
 30
0.0
 10
1343.7970322239
 20
737.4845416802
 30
0.0
 10
1343.8119751994
 20
737.4561466964
 30
0.0
  0
SPLINE
  5
58E
100
AcDbEntity
  8
0
100
AcDbSpline
 62
7
  6
CONTINUOUS
 70
0
 71
3
 72
11
 73
7
 74
0
 42
0.0000001
 43
0.0000001
 44
0.0000000001
 40
0.0
 40
0.0
 40
0.0
 40
0.0
 40
0.3039423792
 40
0.5855577825
 40
0.8233742416
 40
1.0
 40
1.0
 40
1.0
 40
1.0
 10
1343.9643297597
 20
738.8244066788
 30
0.0
 10
1343.9421717061
 20
738.9607181168
 30
0.0
 10
1343.899532213
 20
739.2233177271
 30
0.0
 10
1343.8352850647
 20
739.5919652395
 30
0.0
 10
1343.7715804921
 20
739.9016324448
 30
0.0
 10
1343.7231208254
 20
740.0841614656
 30
0.0
 10
1343.6952190358
 20
740.1594074038
 30
0.0
  0
SPLINE
  5
58F
100
AcDbEntity
  8
0
100
AcDbSpline
 62
7
  6
CONTINUOUS
 70
0
 71
3
 72
15
 73
11
 74
0
 42
0.0000001
 43
0.0000001
 44
0.0000000001
 40
0.0
 40
0.0
 40
0.0
 40
0.0
 40
0.0371425046
 40
0.0651537086
 40
0.1006862205
 40
0.1945788728
 40
0.3172109
 40
0.464663633
 40
0.6317415759
 40
1.0
 40
1.0
 40
1.0
 40
1.0
 10
1341.4317128716
 20
737.4393596211
 30
0.0
 10
1341.4135104929
 20
737.4399710108
 30
0.0
 10
1341.3852458365
 20
737.4634453434
 30
0.0
 10
1341.3591413665
 20
737.5041587253
 30
0.0
 10
1341.3249927741
 20
737.5740785486
 30
0.0
 10
1341.2857728306
 20
737.6913173134
 30
0.0
 10
1341.2405957325
 20
737.8641151262
 30
0.0
 10
1341.1952991713
 20
738.0736545689
 30
0.0
 10
1341.13238116
 20
738.4025155641
 30
0.0
 10
1341.0884432713
 20
738.6613247611
 30
0.0
 10
1341.0580898181
 20
738.8393290555
 30
0.0
  0
SPLINE
  5
590
100
AcDbEntity
  8
0
100
AcDbSpline
 62
7
  6
CONTINUOUS
 70
0
 71
3
 72
15
 73
11
 74
0
 42
0.0000001
 43
0.0000001
 44
0.0000000001
 40
0.0
 40
0.0
 40
0.0
 40
0.0
 40
0.0371358984
 40
0.0651421764
 40
0.1006552588
 40
0.1945073885
 40
0.3171134794
 40
0.4645717781
 40
0.6316823344
 40
1.0
 40
1.0
 40
1.0
 40
1.0
 10
1342.9317025619
 20
737.4393597556
 30
0.0
 10
1342.9135039928
 20
737.4399850155
 30
0.0
 10
1342.885244055
 20
737.4634382391
 30
0.0
 10
1342.8591534637
 20
737.504147982
 30
0.0
 10
1342.8250060736
 20
737.5740292106
 30
0.0
 10
1342.7858011734
 20
737.6912309986
 30
0.0
 10
1342.7406230512
 20
737.8639951395
 30
0.0
 10
1342.6953223135
 20
738.0735392893
 30
0.0
 10
1342.6323932963
 20
738.4024447566
 30
0.0
 10
1342.5884481236
 20
738.6612970981
 30
0.0
 10
1342.5580898181
 20
738.8393290555
 30
0.0
  0
SPLINE
  5
591
100
AcDbEntity
  8
0
100
AcDbSpline
 62
7
  6
CONTINUOUS
 70
0
 71
3
 72
9
 73
5
 74
0
 42
0.0000001
 43
0.0000001
 44
0.0000000001
 40
0.0
 40
0.0
 40
0.0
 40
0.0
 40
0.244459894
 40
1.0
 40
1.0
 40
1.0
 40
1.0
 10
1344.1345314358
 20
738.3986730571
 30
0.0
 10
1344.1280872773
 20
738.4345427268
 30
0.0
 10
1344.1020695808
 20
738.5813347645
 30
0.0
 10
1344.0770232495
 20
738.7282962962
 30
0.0
 10
1344.0580898181
 20
738.8393290555
 30
0.0
  0
SPLINE
  5
592
100
AcDbEntity
  8
0
100
AcDbSpline
 62
7
  6
CONTINUOUS
 70
0
 71
3
 72
12
 73
8
 74
0
 42
0.0000001
 43
0.0000001
 44
0.0000000001
 40
0.0
 40
0.0
 40
0.0
 40
0.0
 40
0.3203286081
 40
0.6109816615
 40
0.8443680032
 40
0.9327627181
 40
1.0
 40
1.0
 40
1.0
 40
1.0
 10
1342.010324886
 20
738.8534135855
 30
0.0
 10
1342.0350790903
 20
738.7024778977
 30
0.0
 10
1342.082138398
 20
738.4145344329
 30
0.0
 10
1342.1535411098
 20
738.017806645
 30
0.0
 10
1342.2156219452
 20
737.7316728939
 30
0.0
 10
1342.269330527
 20
737.5538305812
 30
0.0
 10
1342.2970227441
 20
737.4845513147
 30
0.0
 10
1342.3119755438
 20
737.4561412494
 30
0.0
  0
SPLINE
  5
593
100
AcDbEntity
  8
0
100
AcDbSpline
 62
7
  6
CONTINUOUS
 70
0
 71
3
 72
12
 73
8
 74
0
 42
0.0000001
 43
0.0000001
 44
0.0000000001
 40
0.0
 40
0.0
 40
0.0
 40
0.0
 40
0.320324514
 40
0.6109477875
 40
0.8443323698
 40
0.9327461335
 40
1.0
 40
1.0
 40
1.0
 40
1.0
 10
1340.5103248858
 20
738.8534135855
 30
0.0
 10
1340.5350789911
 20
738.7024798674
 30
0.0
 10
1340.5821352088
 20
738.414552295
 30
0.0
 10
1340.6535348469
 20
738.0178412541
 30
0.0
 10
1340.7156119025
 20
737.7317128601
 30
0.0
 10
1340.7693220103
 20
737.5538542073
 30
0.0
 10
1340.7970190098
 20
737.4845583544
 30
0.0
 10
1340.8119755448
 20
737.4561413074
 30
0.0
  0
SPLINE
  5
594
100
AcDbEntity
  8
0
100
AcDbSpline
 62
7
  6
CONTINUOUS
 70
0
 71
3
 72
12
 73
8
 74
0
 42
0.0000001
 43
0.0000001
 44
0.0000000001
 40
0.0
 40
0.0
 40
0.0
 40
0.0
 40
0.3203129277
 40
0.6109481459
 40
0.8443476775
 40
0.9327526531
 40
1.0
 40
1.0
 40
1.0
 40
1.0
 10
1339.0103248828
 20
738.8534135849
 30
0.0
 10
1339.0350778771
 20
738.7024857963
 30
0.0
 10
1339.0821336032
 20
738.4145588564
 30
0.0
 10
1339.1535365892
 20
738.0178425998
 30
0.0
 10
1339.2156103806
 20
737.731705162
 30
0.0
 10
1339.26932548
 20
737.5538490016
 30
0.0
 10
1339.2970191882
 20
737.4845598676
 30
0.0
 10
1339.3119753667
 20
737.4561462693
 30
0.0
  0
SPLINE
  5
595
100
AcDbEntity
  8
0
100
AcDbSpline
 62
7
  6
CONTINUOUS
 70
0
 71
3
 72
10
 73
6
 74
0
 42
0.0000001
 43
0.0000001
 44
0.0000000001
 40
0.0
 40
0.0
 40
0.0
 40
0.0
 40
0.600791217
 40
0.8279018111
 40
1.0
 40
1.0
 40
1.0
 40
1.0
 10
1337.6578500814
 20
738.007473964
 30
0.0
 10
1337.6803653407
 20
737.8948079129
 30
0.0
 10
1337.7134691262
 20
737.7397200322
 30
0.0
 10
1337.7683509214
 20
737.5565139071
 30
0.0
 10
1337.7966466636
 20
737.4852685771
 30
0.0
 10
1337.8119754631
 20
737.4561446665
 30
0.0
  0
LINE
  5
596
100
AcDbEntity
  8
0
100
AcDbLine
 62
7
  6
CONTINUOUS
 10
1337.820844988
 20
737.8211858177
 11
1337.8242256115
 21
737.8005841828
  0
SPLINE
  5
597
100
AcDbEntity
  8
0
100
AcDbSpline
 62
7
  6
CONTINUOUS
 70
0
 71
3
 72
11
 73
7
 74
0
 42
0.0000001
 43
0.0000001
 44
0.0000000001
 40
0.0
 40
0.0
 40
0.0
 40
0.0
 40
0.3348231764
 40
0.6175967737
 40
0.8409067291
 40
1.0
 40
1.0
 40
1.0
 40
1.0
 10
1337.8242256115
 20
737.8005841828
 30
0.0
 10
1337.8369977063
 20
737.723140703
 30
0.0
 10
1337.8618333399
 20
737.5805152287
 30
0.0
 10
1337.9014731969
 20
737.3872912524
 30
0.0
 10
1337.9407128592
 20
737.2364590035
 30
0.0
 10
1337.9709729942
 20
737.1515155182
 30
0.0
 10
1337.9881186267
 20
737.1183955753
 30
0.0
  0
SPLINE
  5
598
100
AcDbEntity
  8
0
100
AcDbSpline
 62
7
  6
CONTINUOUS
 70
0
 71
3
 72
11
 73
7
 74
0
 42
0.0000001
 43
0.0000001
 44
0.0000000001
 40
0.0
 40
0.0
 40
0.0
 40
0.0
 40
0.3039312932
 40
0.5855268466
 40
0.8233303101
 40
1.0
 40
1.0
 40
1.0
 40
1.0
 10
1339.4643297597
 20
738.8244066788
 30
0.0
 10
1339.4421794211
 20
738.9606723123
 30
0.0
 10
1339.3995542967
 20
739.2231792984
 30
0.0
 10
1339.3353332873
 20
739.5916967512
 30
0.0
 10
1339.2716601435
 20
739.9012796945
 30
0.0
 10
1339.2232333394
 20
740.083770823
 30
0.0
 10
1339.1953604104
 20
740.1590230727
 30
0.0
  0
SPLINE
  5
599
100
AcDbEntity
  8
0
100
AcDbSpline
 62
7
  6
CONTINUOUS
 70
0
 71
3
 72
11
 73
7
 74
0
 42
0.0000001
 43
0.0000001
 44
0.0000000001
 40
0.0
 40
0.0
 40
0.0
 40
0.0
 40
0.3038690672
 40
0.5854364198
 40
0.8232689141
 40
1.0
 40
1.0
 40
1.0
 40
1.0
 10
1340.9643297596
 20
738.8244066787
 30
0.0
 10
1340.9421841222
 20
738.9606415253
 30
0.0
 10
1340.8995672811
 20
739.22310264
 30
0.0
 10
1340.835353427
 20
739.5915850712
 30
0.0
 10
1340.7716801806
 20
739.9011901025
 30
0.0
 10
1340.7232500209
 20
740.0837186999
 30
0.0
 10
1340.6953717533
 20
740.1589969268
 30
0.0
  0
SPLINE
  5
59A
100
AcDbEntity
  8
0
100
AcDbSpline
 62
7
  6
CONTINUOUS
 70
0
 71
3
 72
13
 73
9
 74
0
 42
0.0000001
 43
0.0000001
 44
0.0000000001
 40
0.0
 40
0.0
 40
0.0
 40
0.0
 40
0.0731711487
 40
0.1469333091
 40
0.2335517281
 40
0.340245069
 40
0.6236175299
 40
1.0
 40
1.0
 40
1.0
 40
1.0
 10
1331.1406744956
 20
739.6417805751
 30
0.0
 10
1331.1476686088
 20
739.6445718386
 30
0.0
 10
1331.1630844568
 20
739.647625634
 30
0.0
 10
1331.1868702269
 20
739.6406853616
 30
0.0
 10
1331.2090406383
 20
739.6237923815
 30
0.0
 10
1331.2405045034
 20
739.5858473684
 30
0.0
 10
1331.2765884365
 20
739.5149675768
 30
0.0
 10
1331.3002319725
 20
739.4513513521
 30
0.0
 10
1331.3126002526
 20
739.4146430096
 30
0.0
  0
SPLINE
  5
59B
100
AcDbEntity
  8
0
100
AcDbSpline
 62
7
  6
CONTINUOUS
 70
0
 71
3
 72
11
 73
7
 74
0
 42
0.0000001
 43
0.0000001
 44
0.0000000001
 40
0.0
 40
0.0
 40
0.0
 40
0.0
 40
0.3038601075
 40
0.5854308331
 40
0.8232772382
 40
1.0
 40
1.0
 40
1.0
 40
1.0
 10
1342.4643297592
 20
738.8244066787
 30
0.0
 10
1342.4421854021
 20
738.9606337618
 30
0.0
 10
1342.3995701067
 20
739.2230851614
 30
0.0
 10
1342.3353577956
 20
739.5915611732
 30
0.0
 10
1342.2716866144
 20
739.9011620887
 30
0.0
 10
1342.223257731
 20
740.0836879003
 30
0.0
 10
1342.1953845891
 20
740.1589616375
 30
0.0
  0
SPLINE
  5
59C
100
AcDbEntity
  8
0
100
AcDbSpline
 62
7
  6
CONTINUOUS
 70
0
 71
3
 72
19
 73
15
 74
0
 42
0.0000001
 43
0.0000001
 44
0.0000000001
 40
0.0
 40
0.0
 40
0.0
 40
0.0
 40
0.2384240207
 40
0.4421692573
 40
0.6061851981
 40
0.6721489096
 40
0.7270626882
 40
0.7709932247
 40
0.8044997067
 40
0.8293262824
 40
0.8499790098
 40
0.8735938244
 40
0.9053133173
 40
1.0
 40
1.0
 40
1.0
 40
1.0
 10
1338.0071327576
 20
737.8286390813
 30
0.0
 10
1338.0195406337
 20
737.7532057222
 30
0.0
 10
1338.0437065692
 20
737.6134868148
 30
0.0
 10
1338.0822716732
 20
737.4229678796
 30
0.0
 10
1338.1159507626
 20
737.2879204644
 30
0.0
 10
1338.1440629283
 20
737.2009552955
 30
0.0
 10
1338.1635093808
 20
737.1517854268
 30
0.0
 10
1338.1829057047
 20
737.1138746599
 30
0.0
 10
1338.2022986501
 20
737.087323735
 30
0.0
 10
1338.223001192
 20
737.0712527053
 30
0.0
 10
1338.2466040775
 20
737.0696641669
 30
0.0
 10
1338.2679403574
 20
737.0835656233
 30
0.0
 10
1338.2977856298
 20
737.1215287363
 30
0.0
 10
1338.313627261
 20
737.1595562906
 30
0.0
 10
1338.3243366289
 20
737.1879645509
 30
0.0
  0
SPLINE
  5
59D
100
AcDbEntity
  8
0
100
AcDbSpline
 62
7
  6
CONTINUOUS
 70
0
 71
3
 72
9
 73
5
 74
0
 42
0.0000001
 43
0.0000001
 44
0.0000000001
 40
0.0
 40
0.0
 40
0.0
 40
0.0
 40
0.2645347023
 40
1.0
 40
1.0
 40
1.0
 40
1.0
 10
1337.5103248839
 20
738.8534135852
 30
0.0
 10
1337.5225798642
 20
738.7786913614
 30
0.0
 10
1337.5689599541
 20
738.4962461221
 30
0.0
 10
1337.6165942417
 20
738.2139117463
 30
0.0
 10
1337.6578500897
 20
738.0074739545
 30
0.0
  0
SPLINE
  5
59E
100
AcDbEntity
  8
0
100
AcDbSpline
 62
7
  6
CONTINUOUS
 70
0
 71
3
 72
12
 73
8
 74
0
 42
0.0000001
 43
0.0000001
 44
0.0000000001
 40
0.0
 40
0.0
 40
0.0
 40
0.0
 40
0.3203427407
 40
0.6110270313
 40
0.8444007067
 40
0.9327778805
 40
1.0
 40
1.0
 40
1.0
 40
1.0
 10
1336.0103248818
 20
738.8534135848
 30
0.0
 10
1336.0350797423
 20
738.7024724802
 30
0.0
 10
1336.0821419373
 20
738.4145101245
 30
0.0
 10
1336.1535488985
 20
738.0177703534
 30
0.0
 10
1336.2156308975
 20
737.7316397233
 30
0.0
 10
1336.2693308977
 20
737.5538180649
 30
0.0
 10
1336.2970260776
 20
737.4845582243
 30
0.0
 10
1336.3119730145
 20
737.4561535622
 30
0.0
  0
SPLINE
  5
59F
100
AcDbEntity
  8
0
100
AcDbSpline
 62
7
  6
CONTINUOUS
 70
0
 71
3
 72
12
 73
8
 74
0
 42
0.0000001
 43
0.0000001
 44
0.0000000001
 40
0.0
 40
0.0
 40
0.0
 40
0.0
 40
0.3203344386
 40
0.6110023832
 40
0.8443829482
 40
0.9327726385
 40
1.0
 40
1.0
 40
1.0
 40
1.0
 10
1334.5103248821
 20
738.8534135848
 30
0.0
 10
1334.5350791779
 20
738.7024763258
 30
0.0
 10
1334.5821401674
 20
738.4145256528
 30
0.0
 10
1334.6535424593
 20
738.0177930942
 30
0.0
 10
1334.7156285478
 20
737.7316623662
 30
0.0
 10
1334.7693251302
 20
737.5538268449
 30
0.0
 10
1334.7970263735
 20
737.4845604794
 30
0.0
 10
1334.8119729809
 20
737.4561527972
 30
0.0
  0
SPLINE
  5
5A0
100
AcDbEntity
  8
0
100
AcDbSpline
 62
7
  6
CONTINUOUS
 70
0
 71
3
 72
12
 73
8
 74
0
 42
0.0000001
 43
0.0000001
 44
0.0000000001
 40
0.0
 40
0.0
 40
0.0
 40
0.0
 40
0.3203299236
 40
0.6109931301
 40
0.844375048
 40
0.9327672202
 40
1.0
 40
1.0
 40
1.0
 40
1.0
 10
1333.0103248823
 20
738.8534135849
 30
0.0
 10
1333.0350790841
 20
738.7024776962
 30
0.0
 10
1333.0821396388
 20
738.4145298276
 30
0.0
 10
1333.1535410708
 20
738.017799148
 30
0.0
 10
1333.2156263018
 20
737.7316664203
 30
0.0
 10
1333.2693286132
 20
737.5538277364
 30
0.0
 10
1333.2970245308
 20
737.4845543881
 30
0.0
 10
1333.3119734562
 20
737.4561448152
 30
0.0
  0
SPLINE
  5
5A1
100
AcDbEntity
  8
0
100
AcDbSpline
 62
7
  6
CONTINUOUS
 70
0
 71
3
 72
10
 73
6
 74
0
 42
0.0000001
 43
0.0000001
 44
0.0000000001
 40
0.0
 40
0.0
 40
0.0
 40
0.0
 40
0.1924515964
 40
0.4328510721
 40
1.0
 40
1.0
 40
1.0
 40
1.0
 10
1332.7737301375
 20
740.0648055165
 30
0.0
 10
1332.7967633164
 20
739.9890092732
 30
0.0
 10
1332.8390986426
 20
739.8157320987
 30
0.0
 10
1332.9192594687
 20
739.411987053
 30
0.0
 10
1332.97254112
 20
739.0837907034
 30
0.0
 10
1333.0103248823
 20
738.8534135849
 30
0.0
  0
SPLINE
  5
5A2
100
AcDbEntity
  8
0
100
AcDbSpline
 62
7
  6
CONTINUOUS
 70
0
 71
3
 72
10
 73
6
 74
0
 42
0.0000001
 43
0.0000001
 44
0.0000000001
 40
0.0
 40
0.0
 40
0.0
 40
0.0
 40
0.3474229303
 40
0.6253774241
 40
1.0
 40
1.0
 40
1.0
 40
1.0
 10
1332.7737304563
 20
740.0648054105
 30
0.0
 10
1332.7633873579
 20
740.088552355
 30
0.0
 10
1332.7428733868
 20
740.1309628562
 30
0.0
 10
1332.7039532245
 20
740.1928121152
 30
0.0
 10
1332.6623542771
 20
740.2293884681
 30
0.0
 10
1332.6345308138
 20
740.2318200849
 30
0.0
  0
SPLINE
  5
5A3
100
AcDbEntity
  8
0
100
AcDbSpline
 62
7
  6
CONTINUOUS
 70
0
 71
3
 72
11
 73
7
 74
0
 42
0.0000001
 43
0.0000001
 44
0.0000000001
 40
0.0
 40
0.0
 40
0.0
 40
0.0
 40
0.3039906174
 40
0.585601624
 40
0.8233917937
 40
1.0
 40
1.0
 40
1.0
 40
1.0
 10
1333.4643297599
 20
738.8244066788
 30
0.0
 10
1333.4421682785
 20
738.9607397605
 30
0.0
 10
1333.3995253434
 20
739.2233589803
 30
0.0
 10
1333.335276218
 20
739.5920142382
 30
0.0
 10
1333.2715740424
 20
739.9016595905
 30
0.0
 10
1333.2231182539
 20
740.0841689264
 30
0.0
 10
1333.1952190299
 20
740.1594073075
 30
0.0
  0
SPLINE
  5
5A4
100
AcDbEntity
  8
0
100
AcDbSpline
 62
7
  6
CONTINUOUS
 70
0
 71
3
 72
11
 73
7
 74
0
 42
0.0000001
 43
0.0000001
 44
0.0000000001
 40
0.0
 40
0.0
 40
0.0
 40
0.0
 40
0.3038455946
 40
0.5853866162
 40
0.8232403751
 40
1.0
 40
1.0
 40
1.0
 40
1.0
 10
1334.9643297597
 20
738.8244066788
 30
0.0
 10
1334.9421870259
 20
738.9606236371
 30
0.0
 10
1334.8995762261
 20
739.2230482891
 30
0.0
 10
1334.8353688939
 20
739.5914980286
 30
0.0
 10
1334.7717016014
 20
739.9010979822
 30
0.0
 10
1334.7232721381
 20
740.0836390749
 30
0.0
 10
1334.6953970666
 20
740.1589276802
 30
0.0
  0
SPLINE
  5
5A5
100
AcDbEntity
  8
0
100
AcDbSpline
 62
7
  6
CONTINUOUS
 70
0
 71
3
 72
11
 73
7
 74
0
 42
0.0000001
 43
0.0000001
 44
0.0000000001
 40
0.0
 40
0.0
 40
0.0
 40
0.0
 40
0.303884507
 40
0.5854414425
 40
0.8232677892
 40
1.0
 40
1.0
 40
1.0
 40
1.0
 10
1336.4643297598
 20
738.8244066788
 30
0.0
 10
1336.4421843838
 20
738.9606403209
 30
0.0
 10
1336.3995696053
 20
739.2230880317
 30
0.0
 10
1336.3353600229
 20
739.5915478469
 30
0.0
 10
1336.2716946276
 20
739.9011284535
 30
0.0
 10
1336.2232696108
 20
740.0836436036
 30
0.0
 10
1336.1953995658
 20
740.1589203074
 30
0.0
  0
SPLINE
  5
5A6
100
AcDbEntity
  8
0
100
AcDbSpline
 62
7
  6
CONTINUOUS
 70
0
 71
3
 72
11
 73
7
 74
0
 42
0.0000001
 43
0.0000001
 44
0.0000000001
 40
0.0
 40
0.0
 40
0.0
 40
0.0
 40
0.3039476119
 40
0.5855099657
 40
0.8233040821
 40
1.0
 40
1.0
 40
1.0
 40
1.0
 10
1337.9643297607
 20
738.824406679
 30
0.0
 10
1337.9421796851
 20
738.9606705304
 30
0.0
 10
1337.8995588412
 20
739.2231525063
 30
0.0
 10
1337.8353443276
 20
739.5916334774
 30
0.0
 10
1337.771680654
 20
739.9011896558
 30
0.0
 10
1337.7232593609
 20
740.0836763056
 30
0.0
 10
1337.6953925396
 20
740.1589378096
 30
0.0
  0
SPLINE
  5
5A7
100
AcDbEntity
  8
0
100
AcDbSpline
 62
7
  6
CONTINUOUS
 70
0
 71
3
 72
9
 73
5
 74
0
 42
0.0000001
 43
0.0000001
 44
0.0000000001
 40
0.0
 40
0.0
 40
0.0
 40
0.0
 40
0.2297714333
 40
1.0
 40
1.0
 40
1.0
 40
1.0
 10
1338.1071193835
 20
738.0000523197
 30
0.0
 10
1338.0946684371
 20
738.062911133
 30
0.0
 10
1338.043299728
 20
738.3370411708
 30
0.0
 10
1337.9987960848
 20
738.6123837177
 30
0.0
 10
1337.9643297607
 20
738.824406679
 30
0.0
  0
LINE
  5
5A8
100
AcDbEntity
  8
0
100
AcDbLine
 62
7
  6
CONTINUOUS
 10
1338.0037521354
 20
737.8492925741
 11
1338.0071327585
 21
737.8286390828
  0
SPLINE
  5
5A9
100
AcDbEntity
  8
0
100
AcDbSpline
 62
7
  6
CONTINUOUS
 70
0
 71
3
 72
8
 73
4
 74
0
 42
0.0000001
 43
0.0000001
 44
0.0000000001
 40
0.0
 40
0.0
 40
0.0
 40
0.0
 40
1.0
 40
1.0
 40
1.0
 40
1.0
 10
1343.0783909727
 20
740.2504141622
 30
0.0
 10
1343.0827820734
 20
740.2569919079
 30
0.0
 10
1343.0875060335
 20
740.26337825
 30
0.0
 10
1343.0927204009
 20
740.269324583
 30
0.0
  0
SPLINE
  5
5AA
100
AcDbEntity
  8
0
100
AcDbSpline
 62
7
  6
CONTINUOUS
 70
0
 71
3
 72
18
 73
14
 74
0
 42
0.0000001
 43
0.0000001
 44
0.0000000001
 40
0.0
 40
0.0
 40
0.0
 40
0.0
 40
0.0214633504
 40
0.0383160077
 40
0.0570996692
 40
0.0828640868
 40
0.1175429349
 40
0.1616221212
 40
0.277273572
 40
0.4260511468
 40
0.6015723115
 40
0.7958654793
 40
1.0
 40
1.0
 40
1.0
 40
1.0
 10
1343.0927204009
 20
740.269324583
 30
0.0
 10
1343.1001053382
 20
740.2777461791
 30
0.0
 10
1343.1150614206
 20
740.2921088066
 30
0.0
 10
1343.1466612972
 20
740.2976033559
 30
0.0
 10
1343.1754946421
 20
740.2797373283
 30
0.0
 10
1343.2008074164
 20
740.2468778334
 30
0.0
 10
1343.2263192868
 20
740.1984038976
 30
0.0
 10
1343.2637054261
 20
740.1040090886
 30
0.0
 10
1343.3077080429
 20
739.9488258184
 30
0.0
 10
1343.3579390479
 20
739.7248024987
 30
0.0
 10
1343.4085251685
 20
739.4588879035
 30
0.0
 10
1343.459407375
 20
739.1637209074
 30
0.0
 10
1343.4930826462
 20
738.9585391319
 30
0.0
 10
1343.5103248819
 20
738.8534135848
 30
0.0
  0
SPLINE
  5
5AB
100
AcDbEntity
  8
0
100
AcDbSpline
 62
7
  6
CONTINUOUS
 70
0
 71
3
 72
15
 73
11
 74
0
 42
0.0000001
 43
0.0000001
 44
0.0000000001
 40
0.0
 40
0.0
 40
0.0
 40
0.0
 40
0.0369815668
 40
0.0648818288
 40
0.1002940258
 40
0.1940081052
 40
0.3165723633
 40
0.4640871052
 40
0.6313371839
 40
1.0
 40
1.0
 40
1.0
 40
1.0
 10
1343.0477481553
 20
740.2393180793
 30
0.0
 10
1343.0658827426
 20
740.2389134941
 30
0.0
 10
1343.0942826071
 20
740.2157196705
 30
0.0
 10
1343.1203694139
 20
740.1752036165
 30
0.0
 10
1343.1545857451
 20
740.1055150082
 30
0.0
 10
1343.1938237212
 20
739.9884249455
 30
0.0
 10
1343.2390617283
 20
739.8156847071
 30
0.0
 10
1343.284418631
 20
739.6060081166
 30
0.0
 10
1343.347436617
 20
739.2767468851
 30
0.0
 10
1343.3914332998
 20
739.0175815886
 30
0.0
 10
1343.4218291743
 20
738.8393290555
 30
0.0
  0
SPLINE
  5
5AC
100
AcDbEntity
  8
0
100
AcDbSpline
 62
7
  6
CONTINUOUS
 70
0
 71
3
 72
9
 73
5
 74
0
 42
0.0000001
 43
0.0000001
 44
0.0000000001
 40
0.0
 40
0.0
 40
0.0
 40
0.0
 40
0.3603924183
 40
1.0
 40
1.0
 40
1.0
 40
1.0
 10
1332.2641616154
 20
737.23942712
 30
0.0
 10
1332.2819644738
 20
737.2419455118
 30
0.0
 10
1332.3197959503
 20
737.2842223519
 30
0.0
 10
1332.3372785461
 20
737.3289380709
 30
0.0
 10
1332.3484449871
 20
737.358830782
 30
0.0
  0
SPLINE
  5
5AD
100
AcDbEntity
  8
0
100
AcDbSpline
 62
7
  6
CONTINUOUS
 70
0
 71
3
 72
19
 73
15
 74
0
 42
0.0000001
 43
0.0000001
 44
0.0000000001
 40
0.0
 40
0.0
 40
0.0
 40
0.0
 40
0.0436412845
 40
0.0610520965
 40
0.0840027744
 40
0.1157967979
 40
0.1573963583
 40
0.2088681721
 40
0.2698691299
 40
0.3397978028
 40
0.4178905033
 40
0.5947696966
 40
0.7919847688
 40
1.0
 40
1.0
 40
1.0
 40
1.0
 10
1341.5789705608
 20
740.2512815438
 30
0.0
 10
1341.5918733477
 20
740.2704204357
 30
0.0
 10
1341.6176620012
 20
740.301645874
 30
0.0
 10
1341.6643280761
 20
740.2898432243
 30
0.0
 10
1341.6910228564
 20
740.2612745206
 30
0.0
 10
1341.717328853
 20
740.2176110928
 30
0.0
 10
1341.7435244706
 20
740.1567722773
 30
0.0
 10
1341.7699546031
 20
740.0796740652
 30
0.0
 10
1341.7964771104
 20
739.9868755993
 30
0.0
 10
1341.8231025513
 20
739.8795654434
 30
0.0
 10
1341.8602235328
 20
739.7117665886
 30
0.0
 10
1341.9053400135
 20
739.4768619848
 30
0.0
 10
1341.9578066097
 20
739.1734823442
 30
0.0
 10
1341.9925177734
 20
738.9619828372
 30
0.0
 10
1342.010324886
 20
738.8534135855
 30
0.0
  0
SPLINE
  5
5AE
100
AcDbEntity
  8
0
100
AcDbSpline
 62
7
  6
CONTINUOUS
 70
0
 71
3
 72
9
 73
5
 74
0
 42
0.0000001
 43
0.0000001
 44
0.0000000001
 40
0.0
 40
0.0
 40
0.0
 40
0.0
 40
0.2605977718
 40
1.0
 40
1.0
 40
1.0
 40
1.0
 10
1330.3533484262
 20
738.4818400068
 30
0.0
 10
1330.3574640622
 20
738.4742804763
 30
0.0
 10
1330.3733212863
 20
738.445307648
 30
0.0
 10
1330.3895264289
 20
738.4165205292
 30
0.0
 10
1330.4019103683
 20
738.3954716512
 30
0.0
  0
SPLINE
  5
5AF
100
AcDbEntity
  8
0
100
AcDbSpline
 62
7
  6
CONTINUOUS
 70
0
 71
3
 72
15
 73
11
 74
0
 42
0.0000001
 43
0.0000001
 44
0.0000000001
 40
0.0
 40
0.0
 40
0.0
 40
0.0
 40
0.0368484822
 40
0.0646563455
 40
0.0999830617
 40
0.1935804308
 40
0.316105689
 40
0.4636496694
 40
0.6309622063
 40
1.0
 40
1.0
 40
1.0
 40
1.0
 10
1341.5473008406
 20
740.2393245775
 30
0.0
 10
1341.5653784991
 20
740.2391081252
 30
0.0
 10
1341.5939214933
 20
740.2161842843
 30
0.0
 10
1341.6200103654
 20
740.1758279203
 30
0.0
 10
1341.6542933539
 20
740.1063094645
 30
0.0
 10
1341.6935627911
 20
739.9893101124
 30
0.0
 10
1341.7388525999
 20
739.8165976801
 30
0.0
 10
1341.7842520072
 20
739.6068400851
 30
0.0
 10
1341.8473502891
 20
739.2772646269
 30
0.0
 10
1341.8913941264
 20
739.0178136158
 30
0.0
 10
1341.9218291743
 20
738.8393290555
 30
0.0
  0
SPLINE
  5
5B0
100
AcDbEntity
  8
0
100
AcDbSpline
 62
7
  6
CONTINUOUS
 70
0
 71
3
 72
9
 73
5
 74
0
 42
0.0000001
 43
0.0000001
 44
0.0000000001
 40
0.0
 40
0.0
 40
0.0
 40
0.0
 40
0.2046223113
 40
1.0
 40
1.0
 40
1.0
 40
1.0
 10
1332.3192372993
 20
737.3863690459
 30
0.0
 10
1332.3255676091
 20
737.3916601701
 30
0.0
 10
1332.3542808227
 20
737.4201731752
 30
0.0
 10
1332.3754187289
 20
737.4552695378
 30
0.0
 10
1332.3904677011
 20
737.4835890065
 30
0.0
  0
SPLINE
  5
5B1
100
AcDbEntity
  8
0
100
AcDbSpline
 62
7
  6
CONTINUOUS
 70
0
 71
3
 72
18
 73
14
 74
0
 42
0.0000001
 43
0.0000001
 44
0.0000000001
 40
0.0
 40
0.0
 40
0.0
 40
0.0
 40
0.023843803
 40
0.041581511
 40
0.0825718927
 40
0.1156728896
 40
0.1584192489
 40
0.2108022772
 40
0.2724477464
 40
0.420963006
 40
0.5974380403
 40
0.7935666256
 40
1.0
 40
1.0
 40
1.0
 40
1.0
 10
1340.0850163146
 20
740.2597956909
 30
0.0
 10
1340.0925333352
 20
740.2698164578
 30
0.0
 10
1340.1069033398
 20
740.286724121
 30
0.0
 10
1340.1510675591
 20
740.3030904125
 30
0.0
 10
1340.1925676233
 20
740.2617266805
 30
0.0
 10
1340.2207607452
 20
740.2097933434
 30
0.0
 10
1340.247339637
 20
740.1469222341
 30
0.0
 10
1340.2731806774
 20
740.0689608243
 30
0.0
 10
1340.3105430679
 20
739.9360233735
 30
0.0
 10
1340.3552298613
 20
739.7378428452
 30
0.0
 10
1340.4067782264
 20
739.4689213953
 30
0.0
 10
1340.4585096736
 20
739.1691391201
 30
0.0
 10
1340.4927713084
 20
738.9604375736
 30
0.0
 10
1340.5103248858
 20
738.8534135855
 30
0.0
  0
SPLINE
  5
5B2
100
AcDbEntity
  8
0
100
AcDbSpline
 62
7
  6
CONTINUOUS
 70
0
 71
3
 72
15
 73
11
 74
0
 42
0.0000001
 43
0.0000001
 44
0.0000000001
 40
0.0
 40
0.0
 40
0.0
 40
0.0
 40
0.0368546846
 40
0.0646681219
 40
0.1000004157
 40
0.1936088159
 40
0.3161439889
 40
0.4637014996
 40
0.631052001
 40
1.0
 40
1.0
 40
1.0
 40
1.0
 10
1340.0473143338
 20
740.2393260846
 30
0.0
 10
1340.0653948779
 20
740.2391085885
 30
0.0
 10
1340.0939349685
 20
740.21616688
 30
0.0
 10
1340.1200241881
 20
740.1758037206
 30
0.0
 10
1340.1543072627
 20
740.1062728447
 30
0.0
 10
1340.1935766737
 20
739.9892616559
 30
0.0
 10
1340.2388673852
 20
739.8165331289
 30
0.0
 10
1340.2842706713
 20
739.6067474384
 30
0.0
 10
1340.347362096
 20
739.2771924904
 30
0.0
 10
1340.391401394
 20
739.0177686897
 30
0.0
 10
1340.4218291743
 20
738.8393290555
 30
0.0
  0
SPLINE
  5
5B3
100
AcDbEntity
  8
0
100
AcDbSpline
 62
7
  6
CONTINUOUS
 70
0
 71
3
 72
9
 73
5
 74
0
 42
0.0000001
 43
0.0000001
 44
0.0000000001
 40
0.0
 40
0.0
 40
0.0
 40
0.0
 40
0.2674731959
 40
1.0
 40
1.0
 40
1.0
 40
1.0
 10
1338.5784995596
 20
740.250575226
 30
0.0
 10
1338.5797468092
 20
740.2524403089
 30
0.0
 10
1338.5845092227
 20
740.2593448117
 30
0.0
 10
1338.5896937503
 20
740.2659696201
 30
0.0
 10
1338.5937999048
 20
740.2705410459
 30
0.0
  0
SPLINE
  5
5B4
100
AcDbEntity
  8
0
100
AcDbSpline
 62
7
  6
CONTINUOUS
 70
0
 71
3
 72
17
 73
13
 74
0
 42
0.0000001
 43
0.0000001
 44
0.0000000001
 40
0.0
 40
0.0
 40
0.0
 40
0.0
 40
0.0211692778
 40
0.0379514371
 40
0.056909289
 40
0.0829375323
 40
0.1620801132
 40
0.2780461769
 40
0.4268863431
 40
0.6022463038
 40
0.7962401349
 40
1.0
 40
1.0
 40
1.0
 40
1.0
 10
1338.5937999048
 20
740.2705410459
 30
0.0
 10
1338.6011736735
 20
740.2787503418
 30
0.0
 10
1338.6162394342
 20
740.2927693225
 30
0.0
 10
1338.6478438739
 20
740.2972946901
 30
0.0
 10
1338.6764003928
 20
740.2788181511
 30
0.0
 10
1338.7154896347
 20
740.2270114675
 30
0.0
 10
1338.7590809267
 20
740.1187619713
 30
0.0
 10
1338.8084139633
 20
739.946783616
 30
0.0
 10
1338.8583230005
 20
739.7225468095
 30
0.0
 10
1338.9088358622
 20
739.4572525755
 30
0.0
 10
1338.9595490063
 20
739.1628147056
 30
0.0
 10
1338.9931348628
 20
738.9582253477
 30
0.0
 10
1339.0103248828
 20
738.8534135849
 30
0.0
  0
SPLINE
  5
5B5
100
AcDbEntity
  8
0
100
AcDbSpline
 62
7
  6
CONTINUOUS
 70
0
 71
3
 72
15
 73
11
 74
0
 42
0.0000001
 43
0.0000001
 44
0.0000000001
 40
0.0
 40
0.0
 40
0.0
 40
0.0
 40
0.0368849253
 40
0.0647234489
 40
0.1000940241
 40
0.1937679541
 40
0.3163329015
 40
0.4638706297
 40
0.6311634032
 40
1.0
 40
1.0
 40
1.0
 40
1.0
 10
1338.5473133558
 20
740.2393243817
 30
0.0
 10
1338.565408809
 20
740.2391162553
 30
0.0
 10
1338.593965083
 20
740.2161263434
 30
0.0
 10
1338.6200724819
 20
740.1757281745
 30
0.0
 10
1338.6543603036
 20
740.1061256159
 30
0.0
 10
1338.6936407361
 20
739.9890528961
 30
0.0
 10
1338.7389253301
 20
739.8162832928
 30
0.0
 10
1338.784316459
 20
739.6065201142
 30
0.0
 10
1338.8473852347
 20
739.2770557008
 30
0.0
 10
1338.8914104133
 20
739.0177143852
 30
0.0
 10
1338.9218291743
 20
738.8393290555
 30
0.0
  0
SPLINE
  5
5B6
100
AcDbEntity
  8
0
100
AcDbSpline
 62
7
  6
CONTINUOUS
 70
0
 71
3
 72
19
 73
15
 74
0
 42
0.0000001
 43
0.0000001
 44
0.0000000001
 40
0.0
 40
0.0
 40
0.0
 40
0.0
 40
0.0426274837
 40
0.0601687054
 40
0.0835177611
 40
0.115742506
 40
0.1577412132
 40
0.2095402529
 40
0.2707885567
 40
0.3408742751
 40
0.4190258263
 40
0.5957801457
 40
0.7926251848
 40
1.0
 40
1.0
 40
1.0
 40
1.0
 10
1337.0808438297
 20
740.2540088868
 30
0.0
 10
1337.0936952353
 20
740.2724748505
 30
0.0
 10
1337.1202879249
 20
740.3024303155
 30
0.0
 10
1337.1659903409
 20
740.2885958167
 30
0.0
 10
1337.1923648576
 20
740.2593878735
 30
0.0
 10
1337.2186175467
 20
740.215013293
 30
0.0
 10
1337.2446988203
 20
740.15364255
 30
0.0
 10
1337.271042709
 20
740.0761492232
 30
0.0
 10
1337.29746029
 20
739.9831366515
 30
0.0
 10
1337.3239775128
 20
739.8757900658
 30
0.0
 10
1337.3609225649
 20
739.7082786995
 30
0.0
 10
1337.4058330511
 20
739.4740883475
 30
0.0
 10
1337.458059051
 20
739.1719407632
 30
0.0
 10
1337.4926110902
 20
738.9614181787
 30
0.0
 10
1337.5103248839
 20
738.8534135852
 30
0.0
  0
SPLINE
  5
5B7
100
AcDbEntity
  8
0
100
AcDbSpline
 62
7
  6
CONTINUOUS
 70
0
 71
3
 72
15
 73
11
 74
0
 42
0.0000001
 43
0.0000001
 44
0.0000000001
 40
0.0
 40
0.0
 40
0.0
 40
0.0
 40
0.0368682643
 40
0.0646888968
 40
0.1000498611
 40
0.1937159302
 40
0.3163045438
 40
0.4638715936
 40
0.6311802953
 40
1.0
 40
1.0
 40
1.0
 40
1.0
 10
1337.0472983862
 20
740.2393188436
 30
0.0
 10
1337.0653858269
 20
740.2391135463
 30
0.0
 10
1337.0939364022
 20
740.2161527734
 30
0.0
 10
1337.1200478275
 20
740.1757793226
 30
0.0
 10
1337.1543288409
 20
740.1061925665
 30
0.0
 10
1337.1936227562
 20
739.9891204192
 30
0.0
 10
1337.2389145053
 20
739.8163280249
 30
0.0
 10
1337.2843147169
 20
739.6065307768
 30
0.0
 10
1337.3473858849
 20
739.2770501241
 30
0.0
 10
1337.3914116602
 20
739.0177075099
 30
0.0
 10
1337.4218291743
 20
738.8393290555
 30
0.0
  0
SPLINE
  5
5B8
100
AcDbEntity
  8
0
100
AcDbSpline
 62
7
  6
CONTINUOUS
 70
0
 71
3
 72
12
 73
8
 74
0
 42
0.0000001
 43
0.0000001
 44
0.0000000001
 40
0.0
 40
0.0
 40
0.0
 40
0.0
 40
0.0723989902
 40
0.1641768885
 40
0.3990849046
 40
0.6858949301
 40
1.0
 40
1.0
 40
1.0
 40
1.0
 10
1332.6345308166
 20
740.1459174171
 30
0.0
 10
1332.6484015673
 20
740.116702649
 30
0.0
 10
1332.6745562298
 20
740.0479901482
 30
0.0
 10
1332.7253881648
 20
739.8770772812
 30
0.0
 10
1332.7848387583
 20
739.6092923843
 30
0.0
 10
1332.8531876113
 20
739.2422792896
 30
0.0
 10
1332.8982436177
 20
738.977642196
 30
0.0
 10
1332.9218291743
 20
738.8393290555
 30
0.0
  0
SPLINE
  5
5B9
100
AcDbEntity
  8
0
100
AcDbSpline
 62
7
  6
CONTINUOUS
 70
0
 71
3
 72
9
 73
5
 74
0
 42
0.0000001
 43
0.0000001
 44
0.0000000001
 40
0.0
 40
0.0
 40
0.0
 40
0.0
 40
0.275660403
 40
1.0
 40
1.0
 40
1.0
 40
1.0
 10
1335.5651759275
 20
740.2284665672
 30
0.0
 10
1335.5671097007
 20
740.2319908948
 30
0.0
 10
1335.5743338911
 20
740.2446538016
 30
0.0
 10
1335.5824534896
 20
740.2568514423
 30
0.0
 10
1335.589114642
 20
740.2650495619
 30
0.0
  0
SPLINE
  5
5BA
100
AcDbEntity
  8
0
100
AcDbSpline
 62
7
  6
CONTINUOUS
 70
0
 71
3
 72
18
 73
14
 74
0
 42
0.0000001
 43
0.0000001
 44
0.0000000001
 40
0.0
 40
0.0
 40
0.0
 40
0.0
 40
0.0225686488
 40
0.0397926201
 40
0.0822832353
 40
0.1162919504
 40
0.1598203943
 40
0.212808422
 40
0.2748617358
 40
0.4235976669
 40
0.5995947378
 40
0.794769193
 40
1.0
 40
1.0
 40
1.0
 40
1.0
 10
1335.589114642
 20
740.2650495619
 30
0.0
 10
1335.5965613418
 20
740.2742144827
 30
0.0
 10
1335.6111716612
 20
740.2898864686
 30
0.0
 10
1335.6563613833
 20
740.3013254535
 30
0.0
 10
1335.6951654373
 20
740.2572886619
 30
0.0
 10
1335.7236577971
 20
740.2039176913
 30
0.0
 10
1335.749841997
 20
740.1398807291
 30
0.0
 10
1335.7755187277
 20
740.0612369306
 30
0.0
 10
1335.8124389352
 20
739.9280862583
 30
0.0
 10
1335.856703638
 20
739.7305829424
 30
0.0
 10
1335.9077628415
 20
739.4633414809
 30
0.0
 10
1335.9590047098
 20
739.1661256754
 30
0.0
 10
1335.9929449915
 20
738.9593831276
 30
0.0
 10
1336.0103248818
 20
738.8534135848
 30
0.0
  0
SPLINE
  5
5BB
100
AcDbEntity
  8
0
100
AcDbSpline
 62
7
  6
CONTINUOUS
 70
0
 71
3
 72
15
 73
11
 74
0
 42
0.0000001
 43
0.0000001
 44
0.0000000001
 40
0.0
 40
0.0
 40
0.0
 40
0.0
 40
0.0368943471
 40
0.0647374852
 40
0.1001098817
 40
0.1937803864
 40
0.3163399665
 40
0.463871882
 40
0.6311614317
 40
1.0
 40
1.0
 40
1.0
 40
1.0
 10
1335.5473165819
 20
740.2393251283
 30
0.0
 10
1335.5654165945
 20
740.2391148694
 30
0.0
 10
1335.5939750597
 20
740.2161146252
 30
0.0
 10
1335.6200837348
 20
740.1757088834
 30
0.0
 10
1335.6543690421
 20
740.1061034943
 30
0.0
 10
1335.6936463717
 20
739.9890338928
 30
0.0
 10
1335.7389277582
 20
739.8162711847
 30
0.0
 10
1335.784317516
 20
739.6065154567
 30
0.0
 10
1335.8473852046
 20
739.2770550758
 30
0.0
 10
1335.8914103011
 20
739.0177149535
 30
0.0
 10
1335.9218291743
 20
738.8393290555
 30
0.0
  0
SPLINE
  5
5BC
100
AcDbEntity
  8
0
100
AcDbSpline
 62
7
  6
CONTINUOUS
 70
0
 71
3
 72
15
 73
11
 74
0
 42
0.0000001
 43
0.0000001
 44
0.0000000001
 40
0.0
 40
0.0
 40
0.0
 40
0.0
 40
0.3693509328
 40
0.5368500929
 40
0.6844920613
 40
0.8070056638
 40
0.9004608631
 40
0.9356791378
 40
0.9633458416
 40
1.0
 40
1.0
 40
1.0
 40
1.0
 10
1332.9218291743
 20
738.8393290555
 30
0.0
 10
1332.9523036218
 20
738.6606161241
 30
0.0
 10
1332.9964061609
 20
738.4008110056
 30
0.0
 10
1333.0596069146
 20
738.0708092791
 30
0.0
 10
1333.105088106
 20
737.8608367164
 30
0.0
 10
1333.1504611682
 20
737.6880954534
 30
0.0
 10
1333.1898044611
 20
737.5711951005
 30
0.0
 10
1333.2241773826
 20
737.5018934111
 30
0.0
 10
1333.2502913847
 20
737.4617886017
 30
0.0
 10
1333.2790500742
 20
737.4392407634
 30
0.0
 10
1333.2970411913
 20
737.4393351572
 30
0.0
  0
SPLINE
  5
5BD
100
AcDbEntity
  8
0
100
AcDbSpline
 62
7
  6
CONTINUOUS
 70
0
 71
3
 72
20
 73
16
 74
0
 42
0.0000001
 43
0.0000001
 44
0.0000000001
 40
0.0
 40
0.0
 40
0.0
 40
0.0
 40
0.0265595607
 40
0.0456872916
 40
0.0629867765
 40
0.0855431668
 40
0.116897344
 40
0.1581104546
 40
0.2092625856
 40
0.2700115612
 40
0.3397593703
 40
0.4177264092
 40
0.5945387125
 40
0.7918826099
 40
1.0
 40
1.0
 40
1.0
 40
1.0
 10
1334.07689471
 20
740.2481411599
 30
0.0
 10
1334.0845887563
 20
740.2599495596
 30
0.0
 10
1334.0991197871
 20
740.2794214656
 30
0.0
 10
1334.1294296708
 20
740.2981096017
 30
0.0
 10
1334.1625179612
 20
740.290990898
 30
0.0
 10
1334.189660161
 20
740.263210322
 30
0.0
 10
1334.2160411468
 20
740.2201558554
 30
0.0
 10
1334.2423822591
 20
740.1597954503
 30
0.0
 10
1334.2689253732
 20
740.0829878456
 30
0.0
 10
1334.2955736811
 20
739.990307936
 30
0.0
 10
1334.3223131743
 20
739.8829546126
 30
0.0
 10
1334.3596157298
 20
739.7148169824
 30
0.0
 10
1334.4049288731
 20
739.4791788043
 30
0.0
 10
1334.4576041542
 20
739.1747144528
 30
0.0
 10
1334.4924509495
 20
738.9623952261
 30
0.0
 10
1334.5103248821
 20
738.8534135848
 30
0.0
  0
SPLINE
  5
5BE
100
AcDbEntity
  8
0
100
AcDbSpline
 62
7
  6
CONTINUOUS
 70
0
 71
3
 72
15
 73
11
 74
0
 42
0.0000001
 43
0.0000001
 44
0.0000000001
 40
0.0
 40
0.0
 40
0.0
 40
0.0
 40
0.0368830179
 40
0.0647163015
 40
0.1000914462
 40
0.1937706878
 40
0.3163422221
 40
0.463882942
 40
0.6311763423
 40
1.0
 40
1.0
 40
1.0
 40
1.0
 10
1334.0473046154
 20
740.2393202541
 30
0.0
 10
1334.0653992266
 20
740.2391153844
 30
0.0
 10
1334.0939549098
 20
740.2161305179
 30
0.0
 10
1334.1200713629
 20
740.1757394457
 30
0.0
 10
1334.1543525042
 20
740.1061300133
 30
0.0
 10
1334.1936429245
 20
739.989053108
 30
0.0
 10
1334.2389262476
 20
739.8162741782
 30
0.0
 10
1334.284319884
 20
739.6065060829
 30
0.0
 10
1334.3473866205
 20
739.2770447022
 30
0.0
 10
1334.3914113985
 20
739.0177086887
 30
0.0
 10
1334.4218291743
 20
738.8393290555
 30
0.0
  0
SPLINE
  5
5BF
100
AcDbEntity
  8
0
100
AcDbSpline
 62
7
  6
CONTINUOUS
 70
0
 71
3
 72
15
 73
11
 74
0
 42
0.0000001
 43
0.0000001
 44
0.0000000001
 40
0.0
 40
0.0
 40
0.0
 40
0.0
 40
0.3691936475
 40
0.536646011
 40
0.6842644157
 40
0.8067925784
 40
0.900304055
 40
0.9355586814
 40
0.9632782966
 40
1.0
 40
1.0
 40
1.0
 40
1.0
 10
1334.4218291743
 20
738.8393290555
 30
0.0
 10
1334.4522865262
 20
738.6607158349
 30
0.0
 10
1334.4963668656
 20
738.4010439284
 30
0.0
 10
1334.559530768
 20
738.0711941819
 30
0.0
 10
1334.6049872568
 20
737.8612735038
 30
0.0
 10
1334.6503377866
 20
737.6885269547
 30
0.0
 10
1334.6896528537
 20
737.5715802337
 30
0.0
 10
1334.7240070937
 20
737.5022018756
 30
0.0
 10
1334.7501085363
 20
737.4620076735
 30
0.0
 10
1334.778806884
 20
737.4393267178
 30
0.0
 10
1334.796829019
 20
737.4393291666
 30
0.0
  0
SPLINE
  5
5C0
100
AcDbEntity
  8
0
100
AcDbSpline
 62
7
  6
CONTINUOUS
 70
0
 71
3
 72
8
 73
4
 74
0
 42
0.0000001
 43
0.0000001
 44
0.0000000001
 40
0.0
 40
0.0
 40
0.0
 40
0.0
 40
1.0
 40
1.0
 40
1.0
 40
1.0
 10
1332.6324465145
 20
410.2330308871
 30
0.0
 10
1332.6297025573
 20
410.2345545426
 30
0.0
 10
1332.6268268818
 20
410.2358712609
 30
0.0
 10
1332.6238593023
 20
410.2368931702
 30
0.0
  0
SPLINE
  5
5C1
100
AcDbEntity
  8
0
100
AcDbSpline
 62
7
  6
CONTINUOUS
 70
0
 71
3
 72
8
 73
4
 74
0
 42
0.0000001
 43
0.0000001
 44
0.0000000001
 40
0.0
 40
0.0
 40
0.0
 40
0.0
 40
1.0
 40
1.0
 40
1.0
 40
1.0
 10
1332.6238593023
 20
410.2368931702
 30
0.0
 10
1332.619361261
 20
410.2384421062
 30
0.0
 10
1332.6145513139
 20
410.2393134751
 30
0.0
 10
1332.6097940482
 20
410.239312432
 30
0.0
  0
SPLINE
  5
5C2
100
AcDbEntity
  8
0
100
AcDbSpline
 62
7
  6
CONTINUOUS
 70
0
 71
3
 72
9
 73
5
 74
0
 42
0.0000001
 43
0.0000001
 44
0.0000000001
 40
0.0
 40
0.0
 40
0.0
 40
0.0
 40
0.2241413852
 40
1.0
 40
1.0
 40
1.0
 40
1.0
 10
1331.7959551606
 20
407.6991611087
 30
0.0
 10
1331.7925247473
 20
407.7057791305
 30
0.0
 10
1331.7778211444
 20
407.7356170665
 30
0.0
 10
1331.765152811
 20
407.7664205783
 30
0.0
 10
1331.7559650609
 20
407.7905320651
 30
0.0
  0
SPLINE
  5
5C3
100
AcDbEntity
  8
0
100
AcDbSpline
 62
7
  6
CONTINUOUS
 70
0
 71
3
 72
13
 73
9
 74
0
 42
0.0000001
 43
0.0000001
 44
0.0000000001
 40
0.0
 40
0.0
 40
0.0
 40
0.0
 40
0.093103506
 40
0.2069843556
 40
0.4783023992
 40
0.7637595849
 40
0.8920896536
 40
1.0
 40
1.0
 40
1.0
 40
1.0
 10
1331.7559650609
 20
407.7905320651
 30
0.0
 10
1331.7373462975
 20
407.8393934364
 30
0.0
 10
1331.7016396234
 20
407.9501520885
 30
0.0
 10
1331.6315023864
 20
408.2094798218
 30
0.0
 10
1331.5470618639
 20
408.5765846973
 30
0.0
 10
1331.4599358106
 20
408.9514681606
 30
0.0
 10
1331.3803943198
 20
409.2334737072
 30
0.0
 10
1331.3366265802
 20
409.3590047167
 30
0.0
 10
1331.3126002526
 20
409.4146430096
 30
0.0
  0
SPLINE
  5
5C4
100
AcDbEntity
  8
0
100
AcDbSpline
 62
7
  6
CONTINUOUS
 70
0
 71
3
 72
9
 73
5
 74
0
 42
0.0000001
 43
0.0000001
 44
0.0000000001
 40
0.0
 40
0.0
 40
0.0
 40
0.0
 40
0.2389802223
 40
1.0
 40
1.0
 40
1.0
 40
1.0
 10
1332.3904677011
 20
407.4835890065
 30
0.0
 10
1332.3922652772
 20
407.4869717225
 30
0.0
 10
1332.3996678274
 20
407.5011898551
 30
0.0
 10
1332.4066206957
 20
407.5156399521
 30
0.0
 10
1332.4117120882
 20
407.5267252057
 30
0.0
  0
SPLINE
  5
5C5
100
AcDbEntity
  8
0
100
AcDbSpline
 62
7
  6
CONTINUOUS
 70
0
 71
3
 72
15
 73
11
 74
0
 42
0.0000001
 43
0.0000001
 44
0.0000000001
 40
0.0
 40
0.0
 40
0.0
 40
0.0
 40
0.3692268704
 40
0.5366959259
 40
0.6843191402
 40
0.8068359356
 40
0.9003303942
 40
0.9355746107
 40
0.9632885477
 40
1.0
 40
1.0
 40
1.0
 40
1.0
 10
1335.9218291743
 20
408.8393290555
 30
0.0
 10
1335.9522897709
 20
408.6606970916
 30
0.0
 10
1335.9963745017
 20
408.4009969872
 30
0.0
 10
1336.0595467246
 20
408.0711165324
 30
0.0
 10
1336.1050063911
 20
407.8611877249
 30
0.0
 10
1336.150360554
 20
407.6884523651
 30
0.0
 10
1336.1896717319
 20
407.5715202127
 30
0.0
 10
1336.224032029
 20
407.502163676
 30
0.0
 10
1336.2501284112
 20
407.4619766434
 30
0.0
 10
1336.2788345461
 20
407.4393240389
 30
0.0
 10
1336.2968519196
 20
407.4393295034
 30
0.0
  0
SPLINE
  5
5C6
100
AcDbEntity
  8
0
100
AcDbSpline
 62
7
  6
CONTINUOUS
 70
0
 71
3
 72
9
 73
5
 74
0
 42
0.0000001
 43
0.0000001
 44
0.0000000001
 40
0.0
 40
0.0
 40
0.0
 40
0.0
 40
0.2650981453
 40
1.0
 40
1.0
 40
1.0
 40
1.0
 10
1337.4218291743
 20
408.8393290555
 30
0.0
 10
1337.4340753432
 20
408.7675134721
 30
0.0
 10
1337.4803596192
 20
408.4966406651
 30
0.0
 10
1337.5279972766
 20
408.2258951111
 30
0.0
 10
1337.5693543796
 20
408.0282149335
 30
0.0
  0
SPLINE
  5
5C7
100
AcDbEntity
  8
0
100
AcDbSpline
 62
7
  6
CONTINUOUS
 70
0
 71
3
 72
13
 73
9
 74
0
 42
0.0000001
 43
0.0000001
 44
0.0000000001
 40
0.0
 40
0.0
 40
0.0
 40
0.0
 40
0.3907127311
 40
0.5536445302
 40
0.6923194633
 40
0.805523188
 40
0.892944884
 40
1.0
 40
1.0
 40
1.0
 40
1.0
 10
1337.5693543796
 20
408.0282149335
 30
0.0
 10
1337.5866107753
 20
407.9457325359
 30
0.0
 10
1337.6125918456
 20
407.8291698172
 30
0.0
 10
1337.6524504924
 20
407.6851048413
 30
0.0
 10
1337.6800985632
 20
407.6002676928
 30
0.0
 10
1337.7084222049
 20
407.5318085451
 30
0.0
 10
1337.7386596347
 20
407.4753242967
 30
0.0
 10
1337.7737420301
 20
407.439339335
 30
0.0
 10
1337.7968314777
 20
407.4393313136
 30
0.0
  0
SPLINE
  5
5C8
100
AcDbEntity
  8
0
100
AcDbSpline
 62
7
  6
CONTINUOUS
 70
0
 71
3
 72
9
 73
5
 74
0
 42
0.0000001
 43
0.0000001
 44
0.0000000001
 40
0.0
 40
0.0
 40
0.0
 40
0.0
 40
0.2304361511
 40
1.0
 40
1.0
 40
1.0
 40
1.0
 10
1338.2008794423
 20
408.051008155
 30
0.0
 10
1338.1884430063
 20
408.1112784637
 30
0.0
 10
1338.1372101209
 20
408.3733924573
 30
0.0
 10
1338.0926366426
 20
408.6367345614
 30
0.0
 10
1338.0580898181
 20
408.8393290555
 30
0.0
  0
SPLINE
  5
5C9
100
AcDbEntity
  8
0
100
AcDbSpline
 62
7
  6
CONTINUOUS
 70
0
 71
3
 72
15
 73
11
 74
0
 42
0.0000001
 43
0.0000001
 44
0.0000000001
 40
0.0
 40
0.0
 40
0.0
 40
0.0
 40
0.3691762301
 40
0.5366077012
 40
0.6842274382
 40
0.8067741691
 40
0.900302485
 40
0.9355601185
 40
0.9632803478
 40
1.0
 40
1.0
 40
1.0
 40
1.0
 10
1338.9218291743
 20
408.8393290555
 30
0.0
 10
1338.9522856179
 20
408.660721711
 30
0.0
 10
1338.996363188
 20
408.4010645151
 30
0.0
 10
1339.0595236846
 20
408.0712278246
 30
0.0
 10
1339.1049783936
 20
407.8613038104
 30
0.0
 10
1339.1503329209
 20
407.6885378247
 30
0.0
 10
1339.1896528642
 20
407.5715691534
 30
0.0
 10
1339.2240175724
 20
407.5021852772
 30
0.0
 10
1339.2501218447
 20
407.461986805
 30
0.0
 10
1339.278834706
 20
407.4393306592
 30
0.0
 10
1339.2968560927
 20
407.4393355508
 30
0.0
  0
SPLINE
  5
5CA
100
AcDbEntity
  8
0
100
AcDbSpline
 62
7
  6
CONTINUOUS
 70
0
 71
3
 72
15
 73
11
 74
0
 42
0.0000001
 43
0.0000001
 44
0.0000000001
 40
0.0
 40
0.0
 40
0.0
 40
0.0
 40
0.3691589836
 40
0.536573412
 40
0.6841784276
 40
0.806725973
 40
0.9002700445
 40
0.9355425494
 40
0.963268023
 40
1.0
 40
1.0
 40
1.0
 40
1.0
 10
1340.4218291743
 20
408.8393290555
 30
0.0
 10
1340.4522835817
 20
408.6607340285
 30
0.0
 10
1340.496357555
 20
408.4010993391
 30
0.0
 10
1340.5595106453
 20
408.0712930457
 30
0.0
 10
1340.6049599604
 20
407.8613889323
 30
0.0
 10
1340.6503059551
 20
407.6886223145
 30
0.0
 10
1340.6896320554
 20
407.5716454742
 30
0.0
 10
1340.7239824731
 20
407.5022347583
 30
0.0
 10
1340.7500961512
 20
407.4620280777
 30
0.0
 10
1340.7787952705
 20
407.4393406011
 30
0.0
 10
1340.7968223061
 20
407.4393360327
 30
0.0
  0
SPLINE
  5
5CB
100
AcDbEntity
  8
0
100
AcDbSpline
 62
7
  6
CONTINUOUS
 70
0
 71
3
 72
15
 73
11
 74
0
 42
0.0000001
 43
0.0000001
 44
0.0000000001
 40
0.0
 40
0.0
 40
0.0
 40
0.0
 40
0.3692133934
 40
0.5366628978
 40
0.6842876557
 40
0.8068197976
 40
0.9003268581
 40
0.9355802139
 40
0.9632883521
 40
1.0
 40
1.0
 40
1.0
 40
1.0
 10
1341.9218291743
 20
408.8393290555
 30
0.0
 10
1341.9522888737
 20
408.6607024098
 30
0.0
 10
1341.9963716316
 20
408.4010167428
 30
0.0
 10
1342.0595390876
 20
408.0711485318
 30
0.0
 10
1342.1049989677
 20
407.8612202659
 30
0.0
 10
1342.1503519957
 20
407.6884667642
 30
0.0
 10
1342.1896794487
 20
407.5715228471
 30
0.0
 10
1342.2240309608
 20
407.5021504399
 30
0.0
 10
1342.250142201
 20
407.4619729534
 30
0.0
 10
1342.2788511649
 20
407.439319721
 30
0.0
 10
1342.2968687486
 20
407.4393366192
 30
0.0
  0
SPLINE
  5
5CC
100
AcDbEntity
  8
0
100
AcDbSpline
 62
7
  6
CONTINUOUS
 70
0
 71
3
 72
15
 73
11
 74
0
 42
0.0000001
 43
0.0000001
 44
0.0000000001
 40
0.0
 40
0.0
 40
0.0
 40
0.0
 40
0.3694211355
 40
0.5368664985
 40
0.6844199724
 40
0.8068733741
 40
0.9003334118
 40
0.9355713428
 40
0.9632830347
 40
1.0
 40
1.0
 40
1.0
 40
1.0
 10
1343.4218291743
 20
408.8393290555
 30
0.0
 10
1343.4523049079
 20
408.6606065723
 30
0.0
 10
1343.4964025814
 20
408.4008290128
 30
0.0
 10
1343.5595884804
 20
408.0709073934
 30
0.0
 10
1343.605036773
 20
407.8610594243
 30
0.0
 10
1343.6503732099
 20
407.6884075082
 30
0.0
 10
1343.6896717574
 20
407.5715288987
 30
0.0
 10
1343.7240153924
 20
407.5021887511
 30
0.0
 10
1343.7501097061
 20
407.4620049634
 30
0.0
 10
1343.7788001073
 20
407.4393334408
 30
0.0
 10
1343.7968198322
 20
407.4393290406
 30
0.0
  0
SPLINE
  5
5CD
100
AcDbEntity
  8
0
100
AcDbSpline
 62
7
  6
CONTINUOUS
 70
0
 71
3
 72
9
 73
5
 74
0
 42
0.0000001
 43
0.0000001
 44
0.0000000001
 40
0.0
 40
0.0
 40
0.0
 40
0.0
 40
0.4664498611
 40
1.0
 40
1.0
 40
1.0
 40
1.0
 10
1344.1345307557
 20
407.8674966065
 30
0.0
 10
1344.1025098485
 20
408.0151948581
 30
0.0
 10
1344.0441564849
 20
408.3340164222
 30
0.0
 10
1343.9920675921
 20
408.6537766245
 30
0.0
 10
1343.9643297597
 20
408.8244066788
 30
0.0
  0
SPLINE
  5
5CE
100
AcDbEntity
  8
0
100
AcDbSpline
 62
7
  6
CONTINUOUS
 70
0
 71
3
 72
9
 73
5
 74
0
 42
0.0000001
 43
0.0000001
 44
0.0000000001
 40
0.0
 40
0.0
 40
0.0
 40
0.0
 40
0.2107432271
 40
1.0
 40
1.0
 40
1.0
 40
1.0
 10
1343.5787739789
 20
410.4786411886
 30
0.0
 10
1343.5840945617
 20
410.4638472685
 30
0.0
 10
1343.6074980087
 20
410.3929862846
 30
0.0
 10
1343.6254846124
 20
410.3204642611
 30
0.0
 10
1343.6385466702
 20
410.2630522859
 30
0.0
  0
SPLINE
  5
5CF
100
AcDbEntity
  8
0
100
AcDbSpline
 62
7
  6
CONTINUOUS
 70
0
 71
3
 72
14
 73
10
 74
0
 42
0.0000001
 43
0.0000001
 44
0.0000000001
 40
0.0
 40
0.0
 40
0.0
 40
0.0
 40
0.1131683628
 40
0.2463039461
 40
0.5401754699
 40
0.6833582555
 40
0.8125433748
 40
0.9201203516
 40
1.0
 40
1.0
 40
1.0
 40
1.0
 10
1343.6619605028
 20
410.1534601754
 30
0.0
 10
1343.6840518943
 20
410.0439282501
 30
0.0
 10
1343.7256170003
 20
409.8042438964
 30
0.0
 10
1343.8042087142
 20
409.2767167147
 30
0.0
 10
1343.8774010394
 20
408.7184822412
 30
0.0
 10
1343.9544118354
 20
408.1647486789
 30
0.0
 10
1344.0111703921
 20
407.7938520891
 30
0.0
 10
1344.0674283694
 20
407.486382255
 30
0.0
 10
1344.1101830995
 20
407.3058942673
 30
0.0
 10
1344.1345315676
 20
407.2308770713
 30
0.0
  0
SPLINE
  5
5D0
100
AcDbEntity
  8
0
100
AcDbSpline
 62
7
  6
CONTINUOUS
 70
0
 71
3
 72
27
 73
23
 74
0
 42
0.0000001
 43
0.0000001
 44
0.0000000001
 40
0.0
 40
0.0
 40
0.0
 40
0.0
 40
0.0668983447
 40
0.1017270075
 40
0.1373024564
 40
0.1734338295
 40
0.1916152278
 40
0.2097677814
 40
0.227620461
 40
0.236461259
 40
0.2449312546
 40
0.2813676221
 40
0.3205940013
 40
0.3598936662
 40
0.3989593598
 40
0.437627919
 40
0.5132688077
 40
0.5859361838
 40
0.7194949331
 40
0.8338606105
 40
0.9269421625
 40
1.0
 40
1.0
 40
1.0
 40
1.0
 10
1330.3533483866
 20
408.4818400844
 30
0.0
 10
1330.3445213756
 20
408.4988839881
 30
0.0
 10
1330.3319102285
 20
408.5252368372
 30
0.0
 10
1330.3168341918
 20
408.5616415283
 30
0.0
 10
1330.3064305484
 20
408.590394789
 30
0.0
 10
1330.2991808963
 20
408.6151799145
 30
0.0
 10
1330.2950147583
 20
408.6355694815
 30
0.0
 10
1330.2932578926
 20
408.6510353531
 30
0.0
 10
1330.2937951347
 20
408.6640182728
 30
0.0
 10
1330.2971604343
 20
408.6737469714
 30
0.0
 10
1330.3097936012
 20
408.6844580524
 30
0.0
 10
1330.3363095725
 20
408.6682709107
 30
0.0
 10
1330.358669974
 20
408.6474225175
 30
0.0
 10
1330.3816969502
 20
408.6218078832
 30
0.0
 10
1330.402550169
 20
408.595704616
 30
0.0
 10
1330.4289348517
 20
408.5604092332
 30
0.0
 10
1330.4596234256
 20
408.516429374
 30
0.0
 10
1330.504839359
 20
408.4493676549
 30
0.0
 10
1330.5562256438
 20
408.3730918096
 30
0.0
 10
1330.6151615088
 20
408.2948221293
 30
0.0
 10
1330.6705505992
 20
408.2362128295
 30
0.0
 10
1330.7107355166
 20
408.208917953
 30
0.0
 10
1330.7301736446
 20
408.2010735892
 30
0.0
  0
SPLINE
  5
5D1
100
AcDbEntity
  8
0
100
AcDbSpline
 62
7
  6
CONTINUOUS
 70
0
 71
3
 72
9
 73
5
 74
0
 42
0.0000001
 43
0.0000001
 44
0.0000000001
 40
0.0
 40
0.0
 40
0.0
 40
0.0
 40
0.2617061726
 40
1.0
 40
1.0
 40
1.0
 40
1.0
 10
1330.3533483866
 20
408.4818400844
 30
0.0
 10
1330.356278862
 20
408.4761816725
 30
0.0
 10
1330.3676001648
 20
408.4546255072
 30
0.0
 10
1330.379454152
 20
408.4333431988
 30
0.0
 10
1330.3886463679
 20
408.4178945732
 30
0.0
  0
SPLINE
  5
5D2
100
AcDbEntity
  8
0
100
AcDbSpline
 62
7
  6
CONTINUOUS
 70
0
 71
3
 72
13
 73
9
 74
0
 42
0.0000001
 43
0.0000001
 44
0.0000000001
 40
0.0
 40
0.0
 40
0.0
 40
0.0
 40
0.3375430272
 40
0.636960752
 40
0.7616289802
 40
0.8649928053
 40
0.9447027425
 40
1.0
 40
1.0
 40
1.0
 40
1.0
 10
1333.5580898181
 20
408.8393290555
 30
0.0
 10
1333.5312651694
 20
408.9966392844
 30
0.0
 10
1333.4806127255
 20
409.2934564026
 30
0.0
 10
1333.413552166
 20
409.647382545
 30
0.0
 10
1333.3566873373
 20
409.8901581124
 30
0.0
 10
1333.3170132476
 20
410.0303696613
 30
0.0
 10
1333.2779151129
 20
410.1358760579
 30
0.0
 10
1333.2470728735
 20
410.1929063877
 30
0.0
 10
1333.2298427083
 20
410.2125679704
 30
0.0
  0
SPLINE
  5
5D3
100
AcDbEntity
  8
0
100
AcDbSpline
 62
7
  6
CONTINUOUS
 70
0
 71
3
 72
9
 73
5
 74
0
 42
0.0000001
 43
0.0000001
 44
0.0000000001
 40
0.0
 40
0.0
 40
0.0
 40
0.0
 40
0.3021586122
 40
1.0
 40
1.0
 40
1.0
 40
1.0
 10
1333.2298427083
 20
410.2125679704
 30
0.0
 10
1333.2262114553
 20
410.216711644
 30
0.0
 10
1333.2136840998
 20
410.229697787
 30
0.0
 10
1333.1958062504
 20
410.239329158
 30
0.0
 10
1333.1830816479
 20
410.239328838
 30
0.0
  0
SPLINE
  5
5D4
100
AcDbEntity
  8
0
100
AcDbSpline
 62
7
  6
CONTINUOUS
 70
0
 71
3
 72
13
 73
9
 74
0
 42
0.0000001
 43
0.0000001
 44
0.0000000001
 40
0.0
 40
0.0
 40
0.0
 40
0.0
 40
0.3377935493
 40
0.6373758882
 40
0.7620576367
 40
0.8653559037
 40
0.9449161195
 40
1.0
 40
1.0
 40
1.0
 40
1.0
 10
1335.0580898181
 20
408.8393290555
 30
0.0
 10
1335.0312304611
 20
408.9968424426
 30
0.0
 10
1334.9805162081
 20
409.2940152778
 30
0.0
 10
1334.9133665102
 20
409.6483344347
 30
0.0
 10
1334.8564045374
 20
409.8912807358
 30
0.0
 10
1334.8166685543
 20
410.0314643327
 30
0.0
 10
1334.7775172307
 20
410.1367915091
 30
0.0
 10
1334.7466032903
 20
410.1936552928
 30
0.0
 10
1334.7293232315
 20
410.2131575075
 30
0.0
  0
SPLINE
  5
5D5
100
AcDbEntity
  8
0
100
AcDbSpline
 62
7
  6
CONTINUOUS
 70
0
 71
3
 72
9
 73
5
 74
0
 42
0.0000001
 43
0.0000001
 44
0.0000000001
 40
0.0
 40
0.0
 40
0.0
 40
0.0
 40
0.3013745444
 40
1.0
 40
1.0
 40
1.0
 40
1.0
 10
1334.7293232315
 20
410.2131575075
 30
0.0
 10
1334.7257284779
 20
410.217214534
 30
0.0
 10
1334.7132931254
 20
410.2299571165
 30
0.0
 10
1334.6956279449
 20
410.2393310961
 30
0.0
 10
1334.683062542
 20
410.2393276889
 30
0.0
  0
SPLINE
  5
5D6
100
AcDbEntity
  8
0
100
AcDbSpline
 62
7
  6
CONTINUOUS
 70
0
 71
3
 72
20
 73
16
 74
0
 42
0.0000001
 43
0.0000001
 44
0.0000000001
 40
0.0
 40
0.0
 40
0.0
 40
0.0
 40
0.029528033
 40
0.0504796747
 40
0.0675290923
 40
0.0883937048
 40
0.1178075376
 40
0.157263845
 40
0.2069934402
 40
0.2667082693
 40
0.3358153469
 40
0.41353103
 40
0.5908478166
 40
0.7897440373
 40
1.0
 40
1.0
 40
1.0
 40
1.0
 10
1342.9061268628
 20
407.4319690805
 30
0.0
 10
1342.8982445033
 20
407.4181061054
 30
0.0
 10
1342.8833456268
 20
407.3953947438
 30
0.0
 10
1342.8543805542
 20
407.370375632
 30
0.0
 10
1342.8198234284
 20
407.3702121032
 30
0.0
 10
1342.7907807393
 20
407.394990035
 30
0.0
 10
1342.7641535393
 20
407.4353691948
 30
0.0
 10
1342.7372700463
 20
407.4938296656
 30
0.0
 10
1342.7103170424
 20
407.5695973695
 30
0.0
 10
1342.6831837009
 20
407.6621886625
 30
0.0
 10
1342.6559551653
 20
407.7703712889
 30
0.0
 10
1342.6178706451
 20
407.9412549078
 30
0.0
 10
1342.5716785283
 20
408.1820576345
 30
0.0
 10
1342.51803094
 20
408.4942194841
 30
0.0
 10
1342.4825501571
 20
408.7123249963
 30
0.0
 10
1342.4643297592
 20
408.8244066787
 30
0.0
  0
SPLINE
  5
5D7
100
AcDbEntity
  8
0
100
AcDbSpline
 62
7
  6
CONTINUOUS
 70
0
 71
3
 72
20
 73
16
 74
0
 42
0.0000001
 43
0.0000001
 44
0.0000000001
 40
0.0
 40
0.0
 40
0.0
 40
0.0
 40
0.0291571492
 40
0.0498497808
 40
0.0668859367
 40
0.0879437636
 40
0.11759386
 40
0.1572852468
 40
0.2072118823
 40
0.2670811452
 40
0.3362875884
 40
0.4140433365
 40
0.5913027526
 40
0.7899822941
 40
1.0
 40
1.0
 40
1.0
 40
1.0
 10
1341.4050939883
 20
407.4301710647
 30
0.0
 10
1341.3972337215
 20
407.4165493947
 30
0.0
 10
1341.3824059061
 20
407.3942293983
 30
0.0
 10
1341.3532686874
 20
407.3699253847
 30
0.0
 10
1341.318820596
 20
407.370677941
 30
0.0
 10
1341.2900580077
 20
407.3959217456
 30
0.0
 10
1341.2634425378
 20
407.4366625051
 30
0.0
 10
1341.236633919
 20
407.495459909
 30
0.0
 10
1341.2097187989
 20
407.5714659879
 30
0.0
 10
1341.1826452429
 20
407.6641999002
 30
0.0
 10
1341.1554762368
 20
407.7724138356
 30
0.0
 10
1341.1174935263
 20
407.9431367722
 30
0.0
 10
1341.0714215035
 20
408.1835152555
 30
0.0
 10
1341.017902499
 20
408.4950093091
 30
0.0
 10
1340.98250603
 20
408.7125946176
 30
0.0
 10
1340.9643297596
 20
408.8244066787
 30
0.0
  0
SPLINE
  5
5D8
100
AcDbEntity
  8
0
100
AcDbSpline
 62
7
  6
CONTINUOUS
 70
0
 71
3
 72
13
 73
9
 74
0
 42
0.0000001
 43
0.0000001
 44
0.0000000001
 40
0.0
 40
0.0
 40
0.0
 40
0.0
 40
0.3373558895
 40
0.6366897053
 40
0.7613732438
 40
0.8647905083
 40
0.9445896203
 40
1.0
 40
1.0
 40
1.0
 40
1.0
 10
1336.5580898181
 20
408.8393290555
 30
0.0
 10
1336.5312872696
 20
408.9965095693
 30
0.0
 10
1336.4806700877
 20
409.2931204749
 30
0.0
 10
1336.4136606922
 20
409.6468330499
 30
0.0
 10
1336.3568423862
 20
409.889543751
 30
0.0
 10
1336.3171934202
 20
410.0297964136
 30
0.0
 10
1336.2781164163
 20
410.1354112534
 30
0.0
 10
1336.2473053325
 20
410.1925344418
 30
0.0
 10
1336.2300971373
 20
410.2122768498
 30
0.0
  0
SPLINE
  5
5D9
100
AcDbEntity
  8
0
100
AcDbSpline
 62
7
  6
CONTINUOUS
 70
0
 71
3
 72
9
 73
5
 74
0
 42
0.0000001
 43
0.0000001
 44
0.0000000001
 40
0.0
 40
0.0
 40
0.0
 40
0.0
 40
0.3025440195
 40
1.0
 40
1.0
 40
1.0
 40
1.0
 10
1336.2300971373
 20
410.2122768498
 30
0.0
 10
1336.2264482178
 20
410.2164631377
 30
0.0
 10
1336.2138765021
 20
410.2295686083
 30
0.0
 10
1336.1958959454
 20
410.2393257071
 30
0.0
 10
1336.1830938008
 20
410.2393288952
 30
0.0
  0
SPLINE
  5
5DA
100
AcDbEntity
  8
0
100
AcDbSpline
 62
7
  6
CONTINUOUS
 70
0
 71
3
 72
13
 73
9
 74
0
 42
0.0000001
 43
0.0000001
 44
0.0000000001
 40
0.0
 40
0.0
 40
0.0
 40
0.0
 40
0.3399235431
 40
0.6405509098
 40
0.7651142487
 40
0.86781517
 40
0.9463096201
 40
1.0
 40
1.0
 40
1.0
 40
1.0
 10
1338.0580898181
 20
408.8393290555
 30
0.0
 10
1338.0309729257
 20
408.9983533698
 30
0.0
 10
1337.9798379746
 20
409.2979777841
 30
0.0
 10
1337.9120765749
 20
409.6548714131
 30
0.0
 10
1337.8545313307
 20
409.8986665762
 30
0.0
 10
1337.814461969
 20
410.038407204
 30
0.0
 10
1337.7750429487
 20
410.1424175537
 30
0.0
 10
1337.7437130003
 20
410.1981364266
 30
0.0
 10
1337.7261603268
 20
410.21660651
 30
0.0
  0
SPLINE
  5
5DB
100
AcDbEntity
  8
0
100
AcDbSpline
 62
7
  6
CONTINUOUS
 70
0
 71
3
 72
9
 73
5
 74
0
 42
0.0000001
 43
0.0000001
 44
0.0000000001
 40
0.0
 40
0.0
 40
0.0
 40
0.0
 40
0.2964797177
 40
1.0
 40
1.0
 40
1.0
 40
1.0
 10
1337.7261603268
 20
410.21660651
 30
0.0
 10
1337.7227977758
 20
410.2201448083
 30
0.0
 10
1337.7109716619
 20
410.231409868
 30
0.0
 10
1337.6946691044
 20
410.2393252328
 30
0.0
 10
1337.6830864004
 20
410.2393280118
 30
0.0
  0
SPLINE
  5
5DC
100
AcDbEntity
  8
0
100
AcDbSpline
 62
7
  6
CONTINUOUS
 70
0
 71
3
 72
9
 73
5
 74
0
 42
0.0000001
 43
0.0000001
 44
0.0000000001
 40
0.0
 40
0.0
 40
0.0
 40
0.0
 40
0.2090387147
 40
1.0
 40
1.0
 40
1.0
 40
1.0
 10
1342.078773845
 20
410.4786441324
 30
0.0
 10
1342.0844261277
 20
410.4629256509
 30
0.0
 10
1342.1093719595
 20
410.3869800667
 30
0.0
 10
1342.1282835754
 20
410.3092039679
 30
0.0
 10
1342.1420464972
 20
410.247516512
 30
0.0
  0
SPLINE
  5
5DD
100
AcDbEntity
  8
0
100
AcDbSpline
 62
7
  6
CONTINUOUS
 70
0
 71
3
 72
23
 73
19
 74
0
 42
0.0000001
 43
0.0000001
 44
0.0000000001
 40
0.0
 40
0.0
 40
0.0
 40
0.0
 40
0.1488662922
 40
0.3264138331
 40
0.5122578552
 40
0.601547043
 40
0.6849320066
 40
0.7600162435
 40
0.8246745555
 40
0.8771464533
 40
0.8983993578
 40
0.91619493
 40
0.9305165673
 40
0.9414824263
 40
0.9495341485
 40
0.9558794497
 40
0.9717256456
 40
1.0
 40
1.0
 40
1.0
 40
1.0
 10
1342.165884777
 20
410.1338263471
 30
0.0
 10
1342.1976063802
 20
409.9736953742
 30
0.0
 10
1342.2547270079
 20
409.6201921419
 30
0.0
 10
1342.332128838
 20
409.0638557372
 30
0.0
 10
1342.3975967212
 20
408.5717827686
 30
0.0
 10
1342.4522969392
 20
408.1824628449
 30
0.0
 10
1342.492695129
 20
407.9137928093
 30
0.0
 10
1342.532921922
 20
407.6724251418
 30
0.0
 10
1342.5729406018
 20
407.4654615879
 30
0.0
 10
1342.6078495148
 20
407.3176795145
 30
0.0
 10
1342.6369374154
 20
407.2215768355
 30
0.0
 10
1342.6571240673
 20
407.166624024
 30
0.0
 10
1342.6771707336
 20
407.1236732439
 30
0.0
 10
1342.6973109984
 20
407.0931134928
 30
0.0
 10
1342.7180399669
 20
407.0734573432
 30
0.0
 10
1342.7531431897
 20
407.0668408138
 30
0.0
 10
1342.7957786107
 20
407.1147726721
 30
0.0
 10
1342.8127932286
 20
407.1575174267
 30
0.0
 10
1342.8237884029
 20
407.1865072396
 30
0.0
  0
SPLINE
  5
5DE
100
AcDbEntity
  8
0
100
AcDbSpline
 62
7
  6
CONTINUOUS
 70
0
 71
3
 72
9
 73
5
 74
0
 42
0.0000001
 43
0.0000001
 44
0.0000000001
 40
0.0
 40
0.0
 40
0.0
 40
0.0
 40
0.2115695764
 40
1.0
 40
1.0
 40
1.0
 40
1.0
 10
1340.5787741141
 20
410.4786387583
 30
0.0
 10
1340.5839369402
 20
410.4642804851
 30
0.0
 10
1340.6066122345
 20
410.3957944334
 30
0.0
 10
1340.624157413
 20
410.325727132
 30
0.0
 10
1340.636886118
 20
410.2703090177
 30
0.0
  0
SPLINE
  5
5DF
100
AcDbEntity
  8
0
100
AcDbSpline
 62
7
  6
CONTINUOUS
 70
0
 71
3
 72
21
 73
17
 74
0
 42
0.0000001
 43
0.0000001
 44
0.0000000001
 40
0.0
 40
0.0
 40
0.0
 40
0.0
 40
0.1378277711
 40
0.3087825032
 40
0.4928767897
 40
0.6684313789
 40
0.8148640251
 40
0.8717236965
 40
0.9155393303
 40
0.94551114
 40
0.9555058809
 40
0.9628164664
 40
0.969007745
 40
0.9764215395
 40
0.9865652495
 40
1.0
 40
1.0
 40
1.0
 40
1.0
 10
1340.6452132913
 20
410.2331927225
 30
0.0
 10
1340.6782437211
 20
410.0825797246
 30
0.0
 10
1340.7364342356
 20
409.7418223254
 30
0.0
 10
1340.8144151361
 20
409.1960229715
 30
0.0
 10
1340.8926478193
 20
408.6075806635
 30
0.0
 10
1340.9708120322
 20
408.0468102739
 30
0.0
 10
1341.0387273252
 20
407.6284252965
 30
0.0
 10
1341.0971262005
 20
407.357904252
 30
0.0
 10
1341.1367635829
 20
407.2174907137
 30
0.0
 10
1341.1717073986
 20
407.1293622011
 30
0.0
 10
1341.202869632
 20
407.0864755388
 30
0.0
 10
1341.2249501714
 20
407.0701576479
 30
0.0
 10
1341.2500697945
 20
407.0706289698
 30
0.0
 10
1341.2719427832
 20
407.0875710606
 30
0.0
 10
1341.2921680155
 20
407.1157932204
 30
0.0
 10
1341.3040012414
 20
407.1395104762
 30
0.0
 10
1341.3101359767
 20
407.1532313562
 30
0.0
  0
SPLINE
  5
5E0
100
AcDbEntity
  8
0
100
AcDbSpline
 62
7
  6
CONTINUOUS
 70
0
 71
3
 72
9
 73
5
 74
0
 42
0.0000001
 43
0.0000001
 44
0.0000000001
 40
0.0
 40
0.0
 40
0.0
 40
0.0
 40
0.2350815948
 40
1.0
 40
1.0
 40
1.0
 40
1.0
 10
1341.3119876727
 20
407.1574236635
 30
0.0
 10
1341.3133458128
 20
407.1605357858
 30
0.0
 10
1341.3189951506
 20
407.1738300804
 30
0.0
 10
1341.3241728258
 20
407.1873219334
 30
0.0
 10
1341.3279402219
 20
407.1977084092
 30
0.0
  0
SPLINE
  5
5E1
100
AcDbEntity
  8
0
100
AcDbSpline
 62
7
  6
CONTINUOUS
 70
0
 71
3
 72
14
 73
10
 74
0
 42
0.0000001
 43
0.0000001
 44
0.0000000001
 40
0.0
 40
0.0
 40
0.0
 40
0.0
 40
0.3447625976
 40
0.5040059617
 40
0.6479307185
 40
0.7722760422
 40
0.8735904097
 40
0.9495608499
 40
1.0
 40
1.0
 40
1.0
 40
1.0
 10
1339.5580898181
 20
408.8393290555
 30
0.0
 10
1339.5303886034
 20
409.0017794821
 30
0.0
 10
1339.4899983118
 20
409.2392972831
 30
0.0
 10
1339.4329392876
 20
409.5437018393
 30
0.0
 10
1339.3914174373
 20
409.7438434434
 30
0.0
 10
1339.3501793788
 20
409.9155628767
 30
0.0
 10
1339.3093031069
 20
410.0542199522
 30
0.0
 10
1339.2692906063
 20
410.1549922211
 30
0.0
 10
1339.2368662121
 20
410.2079569333
 30
0.0
 10
1339.2186874622
 20
410.2237939954
 30
0.0
  0
SPLINE
  5
5E2
100
AcDbEntity
  8
0
100
AcDbSpline
 62
7
  6
CONTINUOUS
 70
0
 71
3
 72
9
 73
5
 74
0
 42
0.0000001
 43
0.0000001
 44
0.0000000001
 40
0.0
 40
0.0
 40
0.0
 40
0.0
 40
0.2848553338
 40
1.0
 40
1.0
 40
1.0
 40
1.0
 10
1339.2186874622
 20
410.2237939954
 30
0.0
 10
1339.2158783736
 20
410.2262412325
 30
0.0
 10
1339.2056189046
 20
410.2342697417
 30
0.0
 10
1339.1924940545
 20
410.2393087497
 30
0.0
 10
1339.1831407971
 20
410.2393241391
 30
0.0
  0
SPLINE
  5
5E3
100
AcDbEntity
  8
0
100
AcDbSpline
 62
7
  6
CONTINUOUS
 70
0
 71
3
 72
9
 73
5
 74
0
 42
0.0000001
 43
0.0000001
 44
0.0000000001
 40
0.0
 40
0.0
 40
0.0
 40
0.0
 40
0.2104463332
 40
1.0
 40
1.0
 40
1.0
 40
1.0
 10
1339.0787738944
 20
410.4786428175
 30
0.0
 10
1339.0841481232
 20
410.4636987541
 30
0.0
 10
1339.1078031526
 20
410.3920114029
 30
0.0
 10
1339.12594265
 20
410.3186356891
 30
0.0
 10
1339.139119922
 20
410.2605285363
 30
0.0
  0
SPLINE
  5
5E4
100
AcDbEntity
  8
0
100
AcDbSpline
 62
7
  6
CONTINUOUS
 70
0
 71
3
 72
26
 73
22
 74
0
 42
0.0000001
 43
0.0000001
 44
0.0000000001
 40
0.0
 40
0.0
 40
0.0
 40
0.0
 40
0.1400495726
 40
0.3139731125
 40
0.407053073
 40
0.5003707474
 40
0.5910084865
 40
0.6761337803
 40
0.7531028737
 40
0.819560515
 40
0.8482185774
 40
0.8735502807
 40
0.895397418
 40
0.913656642
 40
0.9282933561
 40
0.9394317538
 40
0.9475160716
 40
0.9538590226
 40
0.9608866243
 40
0.9705086614
 40
1.0
 40
1.0
 40
1.0
 40
1.0
 10
1339.1453458025
 20
410.2325935758
 30
0.0
 10
1339.1793547236
 20
410.0773900506
 30
0.0
 10
1339.2389602305
 20
409.7259449432
 30
0.0
 10
1339.3039029511
 20
409.2687923019
 30
0.0
 10
1339.3586462284
 20
408.8636803967
 30
0.0
 10
1339.4006421315
 20
408.5522047146
 30
0.0
 10
1339.4426049439
 20
408.2498293353
 30
0.0
 10
1339.4844788236
 20
407.9661717925
 30
0.0
 10
1339.5262188456
 20
407.7102514165
 30
0.0
 10
1339.5623052208
 20
407.51834287
 30
0.0
 10
1339.5919582311
 20
407.384936626
 30
0.0
 10
1339.6130401534
 20
407.3015095471
 30
0.0
 10
1339.6340542131
 20
407.2302697627
 30
0.0
 10
1339.6549635515
 20
407.1717667848
 30
0.0
 10
1339.6757701274
 20
407.1261756397
 30
0.0
 10
1339.6965617728
 20
407.0938215325
 30
0.0
 10
1339.7181910257
 20
407.0732647493
 30
0.0
 10
1339.7439424756
 20
407.0685209202
 30
0.0
 10
1339.7675885751
 20
407.082802567
 30
0.0
 10
1339.7997643535
 20
407.1243527092
 30
0.0
 10
1339.8165336489
 20
407.1662650833
 30
0.0
 10
1339.8279422989
 20
407.1977177635
 30
0.0
  0
SPLINE
  5
5E5
100
AcDbEntity
  8
0
100
AcDbSpline
 62
7
  6
CONTINUOUS
 70
0
 71
3
 72
9
 73
5
 74
0
 42
0.0000001
 43
0.0000001
 44
0.0000000001
 40
0.0
 40
0.0
 40
0.0
 40
0.0
 40
0.7282055711
 40
1.0
 40
1.0
 40
1.0
 40
1.0
 10
1332.6097940482
 20
410.239312432
 30
0.0
 10
1332.6028961727
 20
410.2393109196
 30
0.0
 10
1332.5933269207
 20
410.2367042544
 30
0.0
 10
1332.5851541453
 20
410.2319344202
 30
0.0
 10
1332.5830016662
 20
410.2305219191
 30
0.0
  0
SPLINE
  5
5E6
100
AcDbEntity
  8
0
100
AcDbSpline
 62
7
  6
CONTINUOUS
 70
0
 71
3
 72
9
 73
5
 74
0
 42
0.0000001
 43
0.0000001
 44
0.0000000001
 40
0.0
 40
0.0
 40
0.0
 40
0.0
 40
0.2275500353
 40
1.0
 40
1.0
 40
1.0
 40
1.0
 10
1332.5830016662
 20
410.2305219191
 30
0.0
 10
1332.5812220002
 20
410.2293540657
 30
0.0
 10
1332.5736364363
 20
410.2238617227
 30
0.0
 10
1332.5669917311
 20
410.2171556046
 30
0.0
 10
1332.5622733104
 20
410.2116828676
 30
0.0
  0
SPLINE
  5
5E7
100
AcDbEntity
  8
0
100
AcDbSpline
 62
7
  6
CONTINUOUS
 70
0
 71
3
 72
13
 73
9
 74
0
 42
0.0000001
 43
0.0000001
 44
0.0000000001
 40
0.0
 40
0.0
 40
0.0
 40
0.0
 40
0.3354837241
 40
0.633849169
 40
0.7586079363
 40
0.8625432897
 40
0.9433017351
 40
1.0
 40
1.0
 40
1.0
 40
1.0
 10
1341.0580898181
 20
408.8393290555
 30
0.0
 10
1341.0315210115
 20
408.9951382085
 30
0.0
 10
1340.9812925864
 20
409.289486354
 30
0.0
 10
1340.9148464478
 20
409.640797756
 30
0.0
 10
1340.8585745478
 20
409.8826455357
 30
0.0
 10
1340.8192414773
 20
410.0232357414
 30
0.0
 10
1340.7804314194
 20
410.1299960253
 30
0.0
 10
1340.7499926591
 20
410.1881456787
 30
0.0
 10
1340.7330433828
 20
410.2087922843
 30
0.0
  0
SPLINE
  5
5E8
100
AcDbEntity
  8
0
100
AcDbSpline
 62
7
  6
CONTINUOUS
 70
0
 71
3
 72
9
 73
5
 74
0
 42
0.0000001
 43
0.0000001
 44
0.0000000001
 40
0.0
 40
0.0
 40
0.0
 40
0.0
 40
0.307005213
 40
1.0
 40
1.0
 40
1.0
 40
1.0
 10
1340.7330433828
 20
410.2087922843
 30
0.0
 10
1340.7291804967
 20
410.2134978236
 30
0.0
 10
1340.7160755579
 20
410.22803998
 30
0.0
 10
1340.6968343641
 20
410.2393273997
 30
0.0
 10
1340.6830920365
 20
410.2393290334
 30
0.0
  0
SPLINE
  5
5E9
100
AcDbEntity
  8
0
100
AcDbSpline
 62
7
  6
CONTINUOUS
 70
0
 71
3
 72
9
 73
5
 74
0
 42
0.0000001
 43
0.0000001
 44
0.0000000001
 40
0.0
 40
0.0
 40
0.0
 40
0.0
 40
0.5013597561
 40
1.0
 40
1.0
 40
1.0
 40
1.0
 10
1332.2641616154
 20
407.23942712
 30
0.0
 10
1332.2586697996
 20
407.2232987915
 30
0.0
 10
1332.2390245032
 20
407.1934328869
 30
0.0
 10
1332.2069147678
 20
407.1776009515
 30
0.0
 10
1332.1902956811
 20
407.1742921194
 30
0.0
  0
SPLINE
  5
5EA
100
AcDbEntity
  8
0
100
AcDbSpline
 62
7
  6
CONTINUOUS
 70
0
 71
3
 72
8
 73
4
 74
0
 42
0.0000001
 43
0.0000001
 44
0.0000000001
 40
0.0
 40
0.0
 40
0.0
 40
0.0
 40
1.0
 40
1.0
 40
1.0
 40
1.0
 10
1332.2501194569
 20
407.2179145269
 30
0.0
 10
1332.2369741962
 20
407.197089598
 30
0.0
 10
1332.2141762966
 20
407.1804636312
 30
0.0
 10
1332.1902523442
 20
407.1746223949
 30
0.0
  0
SPLINE
  5
5EB
100
AcDbEntity
  8
0
100
AcDbSpline
 62
7
  6
CONTINUOUS
 70
0
 71
3
 72
9
 73
5
 74
0
 42
0.0000001
 43
0.0000001
 44
0.0000000001
 40
0.0
 40
0.0
 40
0.0
 40
0.0
 40
0.2669972511
 40
1.0
 40
1.0
 40
1.0
 40
1.0
 10
1336.905339202
 20
407.430593509
 30
0.0
 10
1336.9040478505
 20
407.4283477949
 30
0.0
 10
1336.8991112167
 20
407.4199958525
 30
0.0
 10
1336.8937529931
 20
407.4118846754
 30
0.0
 10
1336.8895089212
 20
407.4061779071
 30
0.0
  0
SPLINE
  5
5EC
100
AcDbEntity
  8
0
100
AcDbSpline
 62
7
  6
CONTINUOUS
 70
0
 71
3
 72
18
 73
14
 74
0
 42
0.0000001
 43
0.0000001
 44
0.0000000001
 40
0.0
 40
0.0
 40
0.0
 40
0.0
 40
0.0237769034
 40
0.0413951725
 40
0.082216578
 40
0.1152991682
 40
0.1580591394
 40
0.2104665169
 40
0.2721368429
 40
0.4206917582
 40
0.597182289
 40
0.7933780136
 40
1.0
 40
1.0
 40
1.0
 40
1.0
 10
1336.8895089212
 20
407.4061779071
 30
0.0
 10
1336.8819985127
 20
407.3960790771
 30
0.0
 10
1336.8676912792
 20
407.3790264075
 30
0.0
 10
1336.823365502
 20
407.362510776
 30
0.0
 10
1336.7818767871
 20
407.4044052816
 30
0.0
 10
1336.7537403302
 20
407.4567129249
 30
0.0
 10
1336.72716335
 20
407.5201696488
 30
0.0
 10
1336.701333276
 20
407.59881086
 30
0.0
 10
1336.6639885939
 20
407.7328805849
 30
0.0
 10
1336.6193373291
 20
407.9326712514
 30
0.0
 10
1336.5678257824
 20
408.2037579023
 30
0.0
 10
1336.516124232
 20
408.5060067235
 30
0.0
 10
1336.4818783307
 20
408.7164561352
 30
0.0
 10
1336.4643297598
 20
408.8244066788
 30
0.0
  0
SPLINE
  5
5ED
100
AcDbEntity
  8
0
100
AcDbSpline
 62
7
  6
CONTINUOUS
 70
0
 71
3
 72
20
 73
16
 74
0
 42
0.0000001
 43
0.0000001
 44
0.0000000001
 40
0.0
 40
0.0
 40
0.0
 40
0.0
 40
0.0291676791
 40
0.0498669881
 40
0.0669035522
 40
0.087956684
 40
0.1176003885
 40
0.1572849133
 40
0.2072055807
 40
0.2670698336
 40
0.336273846
 40
0.4140286938
 40
0.5912895977
 40
0.7899742153
 40
1.0
 40
1.0
 40
1.0
 40
1.0
 10
1335.4051215407
 20
407.4302191217
 30
0.0
 10
1335.3972605402
 20
407.4165906991
 30
0.0
 10
1335.3824314398
 20
407.3942593012
 30
0.0
 10
1335.3532975584
 20
407.3699375049
 30
0.0
 10
1335.318846069
 20
407.3706648658
 30
0.0
 10
1335.290076779
 20
407.3958982331
 30
0.0
 10
1335.2634607659
 20
407.4366286248
 30
0.0
 10
1335.2366506818
 20
407.4954166958
 30
0.0
 10
1335.209735156
 20
407.5714152991
 30
0.0
 10
1335.1826598633
 20
407.6641446292
 30
0.0
 10
1335.1554895707
 20
407.772357531
 30
0.0
 10
1335.1175037838
 20
407.9430848722
 30
0.0
 10
1335.0714287778
 20
408.1834744084
 30
0.0
 10
1335.0179061429
 20
408.4949867753
 30
0.0
 10
1334.982507353
 20
408.7125865073
 30
0.0
 10
1334.9643297597
 20
408.8244066788
 30
0.0
  0
SPLINE
  5
5EE
100
AcDbEntity
  8
0
100
AcDbSpline
 62
7
  6
CONTINUOUS
 70
0
 71
3
 72
20
 73
16
 74
0
 42
0.0000001
 43
0.0000001
 44
0.0000000001
 40
0.0
 40
0.0
 40
0.0
 40
0.0
 40
0.0296262234
 40
0.0506440001
 40
0.0677031907
 40
0.0885367835
 40
0.1179155551
 40
0.1573437842
 40
0.2070528887
 40
0.2667485814
 40
0.3358372976
 40
0.4135284204
 40
0.5908034331
 40
0.7896814023
 40
1.0
 40
1.0
 40
1.0
 40
1.0
 10
1333.9063769976
 20
407.432409662
 30
0.0
 10
1333.8984871733
 20
407.4184842271
 30
0.0
 10
1333.883570054
 20
407.3956700302
 30
0.0
 10
1333.8546309218
 20
407.3704807748
 30
0.0
 10
1333.8200344949
 20
407.3701105808
 30
0.0
 10
1333.7909214018
 20
407.3948100209
 30
0.0
 10
1333.7642805604
 20
407.4351356343
 30
0.0
 10
1333.7373749429
 20
407.4935599796
 30
0.0
 10
1333.7104086419
 20
407.5693106639
 30
0.0
 10
1333.6832608995
 20
407.6618965136
 30
0.0
 10
1333.6560244975
 20
407.7700784021
 30
0.0
 10
1333.6179274622
 20
407.9409681321
 30
0.0
 10
1333.5717247167
 20
408.1818000265
 30
0.0
 10
1333.5180568524
 20
408.4940597286
 30
0.0
 10
1333.4825609863
 20
408.7122567036
 30
0.0
 10
1333.4643297599
 20
408.8244066788
 30
0.0
  0
SPLINE
  5
5EF
100
AcDbEntity
  8
0
100
AcDbSpline
 62
7
  6
CONTINUOUS
 70
0
 71
3
 72
13
 73
9
 74
0
 42
0.0000001
 43
0.0000001
 44
0.0000000001
 40
0.0
 40
0.0
 40
0.0
 40
0.0
 40
0.0729181257
 40
0.1719622876
 40
0.2927274181
 40
0.4295126403
 40
0.7243347199
 40
1.0
 40
1.0
 40
1.0
 40
1.0
 10
1337.5787738323
 20
410.4786449566
 30
0.0
 10
1337.6006945176
 20
410.417680938
 30
0.0
 10
1337.6393751915
 20
410.2694586877
 30
0.0
 10
1337.6901247833
 20
410.0144381599
 30
0.0
 10
1337.7413604498
 20
409.7017051959
 30
0.0
 10
1337.8120006397
 20
409.2160571966
 30
0.0
 10
1337.8943616869
 20
408.5930984747
 30
0.0
 10
1337.9643772488
 20
408.0910258797
 30
0.0
 10
1338.0037521354
 20
407.8492925741
 30
0.0
  0
SPLINE
  5
5F0
100
AcDbEntity
  8
0
100
AcDbSpline
 62
7
  6
CONTINUOUS
 70
0
 71
3
 72
9
 73
5
 74
0
 42
0.0000001
 43
0.0000001
 44
0.0000000001
 40
0.0
 40
0.0
 40
0.0
 40
0.0
 40
0.2091437183
 40
1.0
 40
1.0
 40
1.0
 40
1.0
 10
1336.0787740073
 20
410.4786410683
 30
0.0
 10
1336.0844084998
 20
410.4629714859
 30
0.0
 10
1336.1092710895
 20
410.3873029498
 30
0.0
 10
1336.1281322919
 20
410.3098128138
 30
0.0
 10
1336.1418576362
 20
410.2483596816
 30
0.0
  0
SPLINE
  5
5F1
100
AcDbEntity
  8
0
100
AcDbSpline
 62
7
  6
CONTINUOUS
 70
0
 71
3
 72
24
 73
20
 74
0
 42
0.0000001
 43
0.0000001
 44
0.0000000001
 40
0.0
 40
0.0
 40
0.0
 40
0.0
 40
0.1396722881
 40
0.3130414649
 40
0.4990104902
 40
0.5895860786
 40
0.6748078346
 40
0.7520671074
 40
0.8190306512
 40
0.8737414113
 40
0.8960321883
 40
0.9147756607
 40
0.9299329065
 40
0.9415856505
 40
0.9501033512
 40
0.9565791733
 40
0.9719439884
 40
0.9842063811
 40
1.0
 40
1.0
 40
1.0
 40
1.0
 10
1336.1453196633
 20
410.2327114446
 30
0.0
 10
1336.1791109238
 20
410.0785411196
 30
0.0
 10
1336.238388196
 20
409.7295440998
 30
0.0
 10
1336.3177827654
 20
409.1713420944
 30
0.0
 10
1336.3847191191
 20
408.667341581
 30
0.0
 10
1336.4408201332
 20
408.2624123251
 30
0.0
 10
1336.4824447481
 20
407.9794987516
 30
0.0
 10
1336.5239041144
 20
407.7235426477
 30
0.0
 10
1336.565151295
 20
407.5025450739
 30
0.0
 10
1336.6011085723
 20
407.3437898281
 30
0.0
 10
1336.6310235072
 20
407.2397701975
 30
0.0
 10
1336.6518479217
 20
407.1797613454
 30
0.0
 10
1336.6724777917
 20
407.1324620774
 30
0.0
 10
1336.6932516745
 20
407.0982797855
 30
0.0
 10
1336.7141508847
 20
407.0758488565
 30
0.0
 10
1336.7496164058
 20
407.065047376
 30
0.0
 10
1336.7818480493
 20
407.0981524525
 30
0.0
 10
1336.8046490571
 20
407.1396120413
 30
0.0
 10
1336.8172373377
 20
407.1692742061
 30
0.0
 10
1336.8235791367
 20
407.185956266
 30
0.0
  0
SPLINE
  5
5F2
100
AcDbEntity
  8
0
100
AcDbSpline
 62
7
  6
CONTINUOUS
 70
0
 71
3
 72
9
 73
5
 74
0
 42
0.0000001
 43
0.0000001
 44
0.0000000001
 40
0.0
 40
0.0
 40
0.0
 40
0.0
 40
0.2091552169
 40
1.0
 40
1.0
 40
1.0
 40
1.0
 10
1334.5787741585
 20
410.4786369049
 30
0.0
 10
1334.5844001648
 20
410.4629926193
 30
0.0
 10
1334.6092275901
 20
410.3874514763
 30
0.0
 10
1334.6280629099
 20
410.3100910686
 30
0.0
 10
1334.6417719452
 20
410.2487421304
 30
0.0
  0
SPLINE
  5
5F3
100
AcDbEntity
  8
0
100
AcDbSpline
 62
7
  6
CONTINUOUS
 70
0
 71
3
 72
26
 73
22
 74
0
 42
0.0000001
 43
0.0000001
 44
0.0000000001
 40
0.0
 40
0.0
 40
0.0
 40
0.0
 40
0.1401365178
 40
0.3141799471
 40
0.4073072822
 40
0.5006507005
 40
0.5912854943
 40
0.6763794085
 40
0.7532902649
 40
0.8196634037
 40
0.8735372592
 40
0.8953199335
 40
0.9135113928
 40
0.9280772855
 40
0.9391461864
 40
0.9471758839
 40
0.9535059412
 40
0.9605779665
 40
0.9702765215
 40
0.9833387383
 40
1.0
 40
1.0
 40
1.0
 40
1.0
 10
1334.6452729293
 20
410.2329240189
 30
0.0
 10
1334.6793414784
 20
410.0775319907
 30
0.0
 10
1334.739007734
 20
409.7256340705
 30
0.0
 10
1334.8040256134
 20
409.267913151
 30
0.0
 10
1334.8588269296
 20
408.8623328412
 30
0.0
 10
1334.9008626657
 20
408.5505864721
 30
0.0
 10
1334.9428574547
 20
408.2480337645
 30
0.0
 10
1334.9847730826
 20
407.9643130367
 30
0.0
 10
1335.0265093825
 20
407.7084187781
 30
0.0
 10
1335.0680301766
 20
407.4884715584
 30
0.0
 10
1335.1042352256
 20
407.3312494436
 30
0.0
 10
1335.1344493552
 20
407.229034893
 30
0.0
 10
1335.1553737955
 20
407.1707418724
 30
0.0
 10
1335.1761957423
 20
407.1253774111
 30
0.0
 10
1335.1969979707
 20
407.0932730836
 30
0.0
 10
1335.2187120192
 20
407.0729473811
 30
0.0
 10
1335.2445412096
 20
407.0686537752
 30
0.0
 10
1335.2680873402
 20
407.0833094196
 30
0.0
 10
1335.2888089979
 20
407.1102403576
 30
0.0
 10
1335.3097034988
 20
407.1500280124
 30
0.0
 10
1335.3220774567
 20
407.1814494111
 30
0.0
 10
1335.3284938054
 20
407.1992416595
 30
0.0
  0
SPLINE
  5
5F4
100
AcDbEntity
  8
0
100
AcDbSpline
 62
7
  6
CONTINUOUS
 70
0
 71
3
 72
9
 73
5
 74
0
 42
0.0000001
 43
0.0000001
 44
0.0000000001
 40
0.0
 40
0.0
 40
0.0
 40
0.0
 40
0.2089406611
 40
1.0
 40
1.0
 40
1.0
 40
1.0
 10
1333.0787741178
 20
410.4786374572
 30
0.0
 10
1333.0844457445
 20
410.4628676363
 30
0.0
 10
1333.1094819716
 20
410.386635571
 30
0.0
 10
1333.1284410372
 20
410.3085611208
 30
0.0
 10
1333.1422436662
 20
410.246631308
 30
0.0
  0
LINE
  5
5F5
100
AcDbEntity
  8
0
100
AcDbLine
 62
7
  6
CONTINUOUS
 10
1333.1456309231
 20
410.2312919492
 11
1333.1473742307
 21
410.2232876297
  0
SPLINE
  5
5F6
100
AcDbEntity
  8
0
100
AcDbSpline
 62
7
  6
CONTINUOUS
 70
0
 71
3
 72
24
 73
20
 74
0
 42
0.0000001
 43
0.0000001
 44
0.0000000001
 40
0.0
 40
0.0
 40
0.0
 40
0.0
 40
0.1461836221
 40
0.3216862942
 40
0.5065990482
 40
0.5959724615
 40
0.6798490569
 40
0.7558422523
 40
0.8218205781
 40
0.8759949854
 40
0.8982237355
 40
0.917055414
 40
0.9324472922
 40
0.9444624732
 40
0.9597477291
 40
0.966129525
 40
0.9743487508
 40
0.9855094261
 40
1.0
 40
1.0
 40
1.0
 40
1.0
 10
1333.1618533055
 20
410.1539918441
 30
0.0
 10
1333.193554699
 20
409.9968808117
 30
0.0
 10
1333.2504927934
 20
409.6486406443
 30
0.0
 10
1333.3274763445
 20
409.098595609
 30
0.0
 10
1333.3924924616
 20
408.6097337493
 30
0.0
 10
1333.4467828702
 20
408.2208097897
 30
0.0
 10
1333.4869670202
 20
407.9505008672
 30
0.0
 10
1333.5269914898
 20
407.7061216058
 30
0.0
 10
1333.5668447435
 20
407.4947539895
 30
0.0
 10
1333.6015104896
 20
407.3424974186
 30
0.0
 10
1333.6303868568
 20
407.2420385575
 30
0.0
 10
1333.6503487546
 20
407.1836047485
 30
0.0
 10
1333.6707080682
 20
407.136530769
 30
0.0
 10
1333.6930074457
 20
407.0970671982
 30
0.0
 10
1333.7236259084
 20
407.0658609189
 30
0.0
 10
1333.7577394785
 20
407.0747594812
 30
0.0
 10
1333.7781331621
 20
407.0951397132
 30
0.0
 10
1333.7981713693
 20
407.1264935049
 30
0.0
 10
1333.8098992932
 20
407.1521574323
 30
0.0
 10
1333.8159902336
 20
407.166831129
 30
0.0
  0
SPLINE
  5
5F7
100
AcDbEntity
  8
0
100
AcDbSpline
 62
7
  6
CONTINUOUS
 70
0
 71
3
 72
8
 73
4
 74
0
 42
0.0000001
 43
0.0000001
 44
0.0000000001
 40
0.0
 40
0.0
 40
0.0
 40
0.0
 40
1.0
 40
1.0
 40
1.0
 40
1.0
 10
1333.8159902336
 20
407.166831129
 30
0.0
 10
1333.8204443117
 20
407.1775614574
 30
0.0
 10
1333.8245947152
 20
407.1884199526
 30
0.0
 10
1333.8285346587
 20
407.1993495274
 30
0.0
  0
SPLINE
  5
5F8
100
AcDbEntity
  8
0
100
AcDbSpline
 62
7
  6
CONTINUOUS
 70
0
 71
3
 72
9
 73
5
 74
0
 42
0.0000001
 43
0.0000001
 44
0.0000000001
 40
0.0
 40
0.0
 40
0.0
 40
0.0
 40
0.5774550212
 40
1.0
 40
1.0
 40
1.0
 40
1.0
 10
1332.4043895741
 20
407.511395607
 30
0.0
 10
1332.3928571239
 20
407.4855882148
 30
0.0
 10
1332.3708943924
 20
407.4418468964
 30
0.0
 10
1332.340389011
 20
407.4023497503
 30
0.0
 10
1332.3243306322
 20
407.3893131125
 30
0.0
  0
SPLINE
  5
5F9
100
AcDbEntity
  8
0
100
AcDbSpline
 62
7
  6
CONTINUOUS
 70
0
 71
3
 72
8
 73
4
 74
0
 42
0.0000001
 43
0.0000001
 44
0.0000000001
 40
0.0
 40
0.0
 40
0.0
 40
0.0
 40
1.0
 40
1.0
 40
1.0
 40
1.0
 10
1332.3243306322
 20
407.3893131125
 30
0.0
 10
1332.3202625252
 20
407.3860105102
 30
0.0
 10
1332.3159645019
 20
407.3829593505
 30
0.0
 10
1332.3114399188
 20
407.3803164686
 30
0.0
  0
SPLINE
  5
5FA
100
AcDbEntity
  8
0
100
AcDbSpline
 62
7
  6
CONTINUOUS
 70
0
 71
3
 72
9
 73
5
 74
0
 42
0.0000001
 43
0.0000001
 44
0.0000000001
 40
0.0
 40
0.0
 40
0.0
 40
0.0
 40
0.2683226349
 40
1.0
 40
1.0
 40
1.0
 40
1.0
 10
1331.2277502549
 20
409.8652267917
 30
0.0
 10
1331.2297616002
 20
409.8690756811
 30
0.0
 10
1331.2374094598
 20
409.8833383839
 30
0.0
 10
1331.2456965137
 20
409.8972708977
 30
0.0
 10
1331.2522672731
 20
409.9071227651
 30
0.0
  0
SPLINE
  5
5FB
100
AcDbEntity
  8
0
100
AcDbSpline
 62
7
  6
CONTINUOUS
 70
0
 71
3
 72
20
 73
16
 74
0
 42
0.0000001
 43
0.0000001
 44
0.0000000001
 40
0.0
 40
0.0
 40
0.0
 40
0.0
 40
0.0148712436
 40
0.0268052717
 40
0.0365816565
 40
0.0455745004
 40
0.0672438818
 40
0.0997802886
 40
0.1445257729
 40
0.2008035343
 40
0.3419246605
 40
0.5084501499
 40
0.6839041684
 40
0.852380837
 40
1.0
 40
1.0
 40
1.0
 40
1.0
 10
1331.2552990502
 20
409.9115878834
 30
0.0
 10
1331.2621072738
 20
409.9214333963
 30
0.0
 10
1331.2753932208
 20
409.9385590671
 30
0.0
 10
1331.2977530099
 20
409.958105612
 30
0.0
 10
1331.3209887029
 20
409.9682403798
 30
0.0
 10
1331.3547635501
 20
409.9664916605
 30
0.0
 10
1331.3955548648
 20
409.9301393508
 30
0.0
 10
1331.4340511032
 20
409.8609161925
 30
0.0
 10
1331.4735718565
 20
409.7603707121
 30
0.0
 10
1331.5292464944
 20
409.5736266807
 30
0.0
 10
1331.5927987881
 20
409.2873247514
 30
0.0
 10
1331.6637201515
 20
408.9050487042
 30
0.0
 10
1331.7328491782
 20
408.4999976028
 30
0.0
 10
1331.8000368423
 20
408.1101002245
 30
0.0
 10
1331.8473581508
 20
407.8600546405
 30
0.0
 10
1331.8721343951
 20
407.7438443172
 30
0.0
  0
SPLINE
  5
5FC
100
AcDbEntity
  8
0
100
AcDbSpline
 62
7
  6
CONTINUOUS
 70
0
 71
3
 72
9
 73
5
 74
0
 42
0.0000001
 43
0.0000001
 44
0.0000000001
 40
0.0
 40
0.0
 40
0.0
 40
0.0
 40
0.2940528922
 40
1.0
 40
1.0
 40
1.0
 40
1.0
 10
1331.9023944231
 20
407.6094704318
 30
0.0
 10
1331.9085315598
 20
407.5838290642
 30
0.0
 10
1331.9302932392
 20
407.4968915126
 30
0.0
 10
1331.9550453071
 20
407.4103846378
 30
0.0
 10
1331.9782838096
 20
407.3515076377
 30
0.0
  0
SPLINE
  5
5FD
100
AcDbEntity
  8
0
100
AcDbSpline
 62
7
  6
CONTINUOUS
 70
0
 71
3
 72
9
 73
5
 74
0
 42
0.0000001
 43
0.0000001
 44
0.0000000001
 40
0.0
 40
0.0
 40
0.0
 40
0.0
 40
0.2684262087
 40
1.0
 40
1.0
 40
1.0
 40
1.0
 10
1331.9782838096
 20
407.3515076377
 30
0.0
 10
1331.9799647457
 20
407.347248823
 30
0.0
 10
1331.9863622822
 20
407.3314377479
 30
0.0
 10
1331.9933238104
 20
407.3158471403
 30
0.0
 10
1331.9988720526
 20
407.3046699948
 30
0.0
  0
SPLINE
  5
5FE
100
AcDbEntity
  8
0
100
AcDbSpline
 62
7
  6
CONTINUOUS
 70
0
 71
3
 72
16
 73
12
 74
0
 42
0.0000001
 43
0.0000001
 44
0.0000000001
 40
0.0
 40
0.0
 40
0.0
 40
0.0
 40
0.1189870117
 40
0.26812233
 40
0.4324308059
 40
0.5961111395
 40
0.7445063578
 40
0.8655478467
 40
0.9510412962
 40
0.9796388504
 40
1.0
 40
1.0
 40
1.0
 40
1.0
 10
1331.7155564144
 20
409.6288837718
 30
0.0
 10
1331.7500930727
 20
409.5496370853
 30
0.0
 10
1331.8102229762
 20
409.3637015632
 30
0.0
 10
1331.8884353045
 20
409.0595484177
 30
0.0
 10
1331.96523842
 20
408.7214369656
 30
0.0
 10
1332.0404594284
 20
408.3836963152
 30
0.0
 10
1332.1133776378
 20
408.0773568675
 30
0.0
 10
1332.1840083381
 20
407.8297544886
 30
0.0
 10
1332.2450266901
 20
407.668651427
 30
0.0
 10
1332.2983112632
 20
407.5866174125
 30
0.0
 10
1332.3264061841
 20
407.5625810868
 30
0.0
 10
1332.3401402499
 20
407.5570859176
 30
0.0
  0
SPLINE
  5
5FF
100
AcDbEntity
  8
0
100
AcDbSpline
 62
7
  6
CONTINUOUS
 70
0
 71
3
 72
27
 73
23
 74
0
 42
0.0000001
 43
0.0000001
 44
0.0000000001
 40
0.0
 40
0.0
 40
0.0
 40
0.0
 40
0.0108299002
 40
0.0184419826
 40
0.0247837823
 40
0.0328266209
 40
0.0442435787
 40
0.0595668513
 40
0.0789036499
 40
0.1021971986
 40
0.1292936702
 40
0.1599836197
 40
0.231052448
 40
0.3128818392
 40
0.4024825056
 40
0.4965455975
 40
0.5915844631
 40
0.7705854164
 40
0.8479438004
 40
0.9133448304
 40
0.9645244788
 40
1.0
 40
1.0
 40
1.0
 40
1.0
 10
1343.2443456039
 20
410.5717043292
 30
0.0
 10
1343.2509435653
 20
410.5832064351
 30
0.0
 10
1343.2633187101
 20
410.6019750776
 30
0.0
 10
1343.2882288302
 20
410.6222418413
 30
0.0
 10
1343.3175086757
 20
410.6202024083
 30
0.0
 10
1343.3414337368
 20
410.5974838974
 30
0.0
 10
1343.363904079
 20
410.561433147
 30
0.0
 10
1343.3865088609
 20
410.5094680109
 30
0.0
 10
1343.4092372619
 20
410.4422537802
 30
0.0
 10
1343.4320965086
 20
410.3599471132
 30
0.0
 10
1343.4550430171
 20
410.2633511549
 30
0.0
 10
1343.4873057034
 20
410.1088974358
 30
0.0
 10
1343.526509036
 20
409.8875157012
 30
0.0
 10
1343.5718851653
 20
409.5940786237
 30
0.0
 10
1343.6174090063
 20
409.2722063225
 30
0.0
 10
1343.6630023296
 20
408.9340195756
 30
0.0
 10
1343.7227105453
 20
408.4872973616
 30
0.0
 10
1343.7814583367
 20
408.0610096111
 30
0.0
 10
1343.8449257725
 20
407.6722172167
 30
0.0
 10
1343.8896653649
 20
407.4388393382
 30
0.0
 10
1343.9339308771
 20
407.2581767594
 30
0.0
 10
1343.9681535019
 20
407.1569648643
 30
0.0
 10
1343.9881188676
 20
407.1183890251
 30
0.0
  0
SPLINE
  5
600
100
AcDbEntity
  8
0
100
AcDbSpline
 62
7
  6
CONTINUOUS
 70
0
 71
3
 72
16
 73
12
 74
0
 42
0.0000001
 43
0.0000001
 44
0.0000000001
 40
0.0
 40
0.0
 40
0.0
 40
0.0
 40
0.1032808956
 40
0.1617551367
 40
0.214581238
 40
0.2669267406
 40
0.3315612708
 40
0.3868144875
 40
0.4939738718
 40
0.7268918526
 40
1.0
 40
1.0
 40
1.0
 40
1.0
 10
1332.6345308162
 20
410.1459175943
 30
0.0
 10
1332.6345308722
 20
410.1540541507
 30
0.0
 10
1332.6351323071
 20
410.166912172
 30
0.0
 10
1332.6416352744
 20
410.1830674136
 30
0.0
 10
1332.6525821833
 20
410.1911877399
 30
0.0
 10
1332.6663272849
 20
410.1925176606
 30
0.0
 10
1332.6796402503
 20
410.1890085822
 30
0.0
 10
1332.6955424713
 20
410.1806432731
 30
0.0
 10
1332.7195281969
 20
410.1603182398
 30
0.0
 10
1332.7475896874
 20
410.1203813727
 30
0.0
 10
1332.7651389622
 20
410.0845313122
 30
0.0
 10
1332.7737304563
 20
410.0648054105
 30
0.0
  0
SPLINE
  5
601
100
AcDbEntity
  8
0
100
AcDbSpline
 62
7
  6
CONTINUOUS
 70
0
 71
3
 72
27
 73
23
 74
0
 42
0.0000001
 43
0.0000001
 44
0.0000000001
 40
0.0
 40
0.0
 40
0.0
 40
0.0
 40
0.0118268162
 40
0.0201568263
 40
0.0265553965
 40
0.03401145
 40
0.0446329178
 40
0.0591362506
 40
0.0776991459
 40
0.100287211
 40
0.1267640043
 40
0.1569246395
 40
0.2272229413
 40
0.3086625551
 40
0.3982266715
 40
0.4925586004
 40
0.5881057555
 40
0.7685186655
 40
0.8466012099
 40
0.9126288609
 40
0.9642711681
 40
1.0
 40
1.0
 40
1.0
 40
1.0
 10
1338.7383138517
 20
410.5606440009
 30
0.0
 10
1338.7450094362
 20
410.5735396845
 30
0.0
 10
1338.7577241738
 20
410.5946948036
 30
0.0
 10
1338.7813859369
 20
410.6189031288
 30
0.0
 10
1338.810811656
 20
410.6230905565
 30
0.0
 10
1338.8364146917
 20
410.6038516151
 30
0.0
 10
1338.8588400843
 20
410.5707984765
 30
0.0
 10
1338.8816942307
 20
410.5219306086
 30
0.0
 10
1338.9045044927
 20
410.4574639429
 30
0.0
 10
1338.9275315503
 20
410.3775792812
 30
0.0
 10
1338.9506294516
 20
410.2830109427
 30
0.0
 10
1338.9832060652
 20
410.130481102
 30
0.0
 10
1339.0227299489
 20
409.910478947
 30
0.0
 10
1339.0684382928
 20
409.6175535535
 30
0.0
 10
1339.1143086444
 20
409.294802104
 30
0.0
 10
1339.1602627433
 20
408.954568306
 30
0.0
 10
1339.2205023543
 20
408.5036487062
 30
0.0
 10
1339.2797252129
 20
408.0726615188
 30
0.0
 10
1339.3436939632
 20
407.6791489102
 30
0.0
 10
1339.3888006852
 20
407.4427414013
 30
0.0
 10
1339.4334379862
 20
407.2598260574
 30
0.0
 10
1339.4679367308
 20
407.1573762078
 30
0.0
 10
1339.488118719
 20
407.1183947954
 30
0.0
  0
SPLINE
  5
602
100
AcDbEntity
  8
0
100
AcDbSpline
 62
7
  6
CONTINUOUS
 70
0
 71
3
 72
9
 73
5
 74
0
 42
0.0000001
 43
0.0000001
 44
0.0000000001
 40
0.0
 40
0.0
 40
0.0
 40
0.0
 40
0.2665496682
 40
1.0
 40
1.0
 40
1.0
 40
1.0
 10
1340.2382352015
 20
410.5604910702
 30
0.0
 10
1340.2393228049
 20
410.5625877941
 30
0.0
 10
1340.2434853504
 20
410.5704102902
 30
0.0
 10
1340.2479928198
 20
410.5780547719
 30
0.0
 10
1340.2515598419
 20
410.583487917
 30
0.0
  0
SPLINE
  5
603
100
AcDbEntity
  8
0
100
AcDbSpline
 62
7
  6
CONTINUOUS
 70
0
 71
3
 72
25
 73
21
 74
0
 42
0.0000001
 43
0.0000001
 44
0.0000000001
 40
0.0
 40
0.0
 40
0.0
 40
0.0
 40
0.0159632705
 40
0.0225140449
 40
0.0314430391
 40
0.043919506
 40
0.0602907843
 40
0.0806032118
 40
0.1047682717
 40
0.1639462386
 40
0.2359208559
 40
0.3181763152
 40
0.4077670906
 40
0.5014544446
 40
0.5958388828
 40
0.7730973543
 40
0.8495738591
 40
0.9142140694
 40
0.964831733
 40
1.0
 40
1.0
 40
1.0
 40
1.0
 10
1340.2525394451
 20
410.5849653489
 30
0.0
 10
1340.2633649467
 20
410.6011302505
 30
0.0
 10
1340.2862047899
 20
410.6280109465
 30
0.0
 10
1340.325769165
 20
410.6146396859
 30
0.0
 10
1340.3480711713
 20
410.5880679196
 30
0.0
 10
1340.3705564563
 20
410.5478403239
 30
0.0
 10
1340.3928521678
 20
410.492069545
 30
0.0
 10
1340.4154170672
 20
410.4214127284
 30
0.0
 10
1340.4478111939
 20
410.299259568
 30
0.0
 10
1340.4867118756
 20
410.1139181439
 30
0.0
 10
1340.5313792361
 20
409.8576780695
 30
0.0
 10
1340.5762728336
 20
409.5639199406
 30
0.0
 10
1340.6213415099
 20
409.2434572621
 30
0.0
 10
1340.66645845
 20
408.9080788247
 30
0.0
 10
1340.7254890646
 20
408.4667807522
 30
0.0
 10
1340.7836330886
 20
408.0464540428
 30
0.0
 10
1340.8464712646
 20
407.6635854989
 30
0.0
 10
1340.8907466058
 20
407.4339784355
 30
0.0
 10
1340.9345573724
 20
407.2561283995
 30
0.0
 10
1340.9684129063
 20
407.1564502634
 30
0.0
 10
1340.9881189243
 20
407.1183882844
 30
0.0
  0
SPLINE
  5
604
100
AcDbEntity
  8
0
100
AcDbSpline
 62
7
  6
CONTINUOUS
 70
0
 71
3
 72
13
 73
9
 74
0
 42
0.0000001
 43
0.0000001
 44
0.0000000001
 40
0.0
 40
0.0
 40
0.0
 40
0.0
 40
0.3363756725
 40
0.6352256405
 40
0.759955924
 40
0.8636390381
 40
0.9439269106
 40
1.0
 40
1.0
 40
1.0
 40
1.0
 10
1342.5580898181
 20
408.8393290555
 30
0.0
 10
1342.531408692
 20
408.9957969024
 30
0.0
 10
1342.4809913098
 20
409.2912442085
 30
0.0
 10
1342.4142719219
 20
409.6437263402
 30
0.0
 10
1342.3577319955
 20
409.8860055128
 30
0.0
 10
1342.3182467017
 20
410.0264350838
 30
0.0
 10
1342.2793068514
 20
410.1326402795
 30
0.0
 10
1342.2486916856
 20
410.1902917547
 30
0.0
 10
1342.2316174676
 20
410.2105048185
 30
0.0
  0
SPLINE
  5
605
100
AcDbEntity
  8
0
100
AcDbSpline
 62
7
  6
CONTINUOUS
 70
0
 71
3
 72
9
 73
5
 74
0
 42
0.0000001
 43
0.0000001
 44
0.0000000001
 40
0.0
 40
0.0
 40
0.0
 40
0.0
 40
0.3048358414
 40
1.0
 40
1.0
 40
1.0
 40
1.0
 10
1342.2316174676
 20
410.2105048185
 30
0.0
 10
1342.2278588299
 20
410.2149544269
 30
0.0
 10
1342.2150109241
 20
410.2287930778
 30
0.0
 10
1342.1963848818
 20
410.2393226938
 30
0.0
 10
1342.1831020705
 20
410.2393288819
 30
0.0
  0
SPLINE
  5
606
100
AcDbEntity
  8
0
100
AcDbSpline
 62
7
  6
CONTINUOUS
 70
0
 71
3
 72
8
 73
4
 74
0
 42
0.0000001
 43
0.0000001
 44
0.0000000001
 40
0.0
 40
0.0
 40
0.0
 40
0.0
 40
1.0
 40
1.0
 40
1.0
 40
1.0
 10
1341.7382831809
 20
410.5605866273
 30
0.0
 10
1341.7410625912
 20
410.5659417363
 30
0.0
 10
1341.74398463
 20
410.5712274171
 30
0.0
 10
1341.7470988142
 20
410.5763950249
 30
0.0
  0
SPLINE
  5
607
100
AcDbEntity
  8
0
100
AcDbSpline
 62
7
  6
CONTINUOUS
 70
0
 71
3
 72
26
 73
22
 74
0
 42
0.0000001
 43
0.0000001
 44
0.0000000001
 40
0.0
 40
0.0
 40
0.0
 40
0.0
 40
0.0165050391
 40
0.0229648758
 40
0.0316369016
 40
0.0438177278
 40
0.0598934539
 40
0.0799290042
 40
0.1038438012
 40
0.131477919
 40
0.1626159537
 40
0.2343139737
 40
0.31643409
 40
0.4060323546
 40
0.4998523736
 40
0.5944589394
 40
0.7722870704
 40
0.8490477773
 40
0.9139326025
 40
0.9647312449
 40
1.0
 40
1.0
 40
1.0
 40
1.0
 10
1341.7503750169
 20
410.5816679149
 30
0.0
 10
1341.7612452258
 20
410.5986197408
 30
0.0
 10
1341.7829194261
 20
410.6269340245
 30
0.0
 10
1341.8236135823
 20
410.6163562224
 30
0.0
 10
1341.846254028
 20
410.5907390843
 30
0.0
 10
1341.8687303284
 20
410.5517199
 30
0.0
 10
1341.8910942672
 20
410.4970038383
 30
0.0
 10
1341.9136904209
 20
410.42733593
 30
0.0
 10
1341.9363689786
 20
410.3429510719
 30
0.0
 10
1341.9591388565
 20
410.2446587346
 30
0.0
 10
1341.9910801845
 20
410.0886957676
 30
0.0
 10
1342.0299495481
 20
409.8663676358
 30
0.0
 10
1342.0749886606
 20
409.5728040039
 30
0.0
 10
1342.1201748013
 20
409.2519843699
 30
0.0
 10
1342.1654305107
 20
408.9157984904
 30
0.0
 10
1342.2246610139
 20
408.4728878039
 30
0.0
 10
1342.2829855935
 20
408.0507832875
 30
0.0
 10
1342.346010806
 20
407.6661490012
 30
0.0
 10
1342.3904258233
 20
407.4354205879
 30
0.0
 10
1342.4343680933
 20
407.2567329782
 30
0.0
 10
1342.4683395456
 20
407.1566032425
 30
0.0
 10
1342.4881189209
 20
407.1183873397
 30
0.0
  0
SPLINE
  5
608
100
AcDbEntity
  8
0
100
AcDbSpline
 62
7
  6
CONTINUOUS
 70
0
 71
3
 72
13
 73
9
 74
0
 42
0.0000001
 43
0.0000001
 44
0.0000000001
 40
0.0
 40
0.0
 40
0.0
 40
0.0
 40
0.3381459348
 40
0.6379147861
 40
0.7625711435
 40
0.8657639507
 40
0.9451457464
 40
1.0
 40
1.0
 40
1.0
 40
1.0
 10
1344.0580898181
 20
408.8393290555
 30
0.0
 10
1344.031187984
 20
408.997091291
 30
0.0
 10
1343.9804036384
 20
409.2946742606
 30
0.0
 10
1343.9131520485
 20
409.6494205916
 30
0.0
 10
1343.8560943493
 20
409.8925072227
 30
0.0
 10
1343.8163064291
 20
410.0326105564
 30
0.0
 10
1343.777113661
 20
410.1377186568
 30
0.0
 10
1343.7461355309
 20
410.1943934911
 30
0.0
 10
1343.7288126023
 20
410.2137306668
 30
0.0
  0
SPLINE
  5
609
100
AcDbEntity
  8
0
100
AcDbSpline
 62
7
  6
CONTINUOUS
 70
0
 71
3
 72
9
 73
5
 74
0
 42
0.0000001
 43
0.0000001
 44
0.0000000001
 40
0.0
 40
0.0
 40
0.0
 40
0.0
 40
0.3005817501
 40
1.0
 40
1.0
 40
1.0
 40
1.0
 10
1343.7288126023
 20
410.2137306668
 30
0.0
 10
1343.7252558713
 20
410.2177009615
 30
0.0
 10
1343.7129188458
 20
410.2301990757
 30
0.0
 10
1343.6954785115
 20
410.2393281694
 30
0.0
 10
1343.6830752102
 20
410.2393280405
 30
0.0
  0
SPLINE
  5
60A
100
AcDbEntity
  8
0
100
AcDbSpline
 62
7
  6
CONTINUOUS
 70
0
 71
3
 72
27
 73
23
 74
0
 42
0.0000001
 43
0.0000001
 44
0.0000000001
 40
0.0
 40
0.0
 40
0.0
 40
0.0
 40
0.0104926324
 40
0.0178859546
 40
0.0242482657
 40
0.0325007762
 40
0.0441796991
 40
0.0597700212
 40
0.0793577105
 40
0.102880611
 40
0.1301798643
 40
0.161040658
 40
0.2323555025
 40
0.3143026098
 40
0.4039033615
 40
0.4978680379
 40
0.5927334417
 40
0.7712675803
 40
0.8483880037
 40
0.9135834959
 40
0.9646101721
 40
1.0
 40
1.0
 40
1.0
 40
1.0
 10
1332.7463867149
 20
410.5752042827
 30
0.0
 10
1332.7529471454
 20
410.5862337416
 30
0.0
 10
1332.7652290483
 20
410.6042518308
 30
0.0
 10
1332.7905920762
 20
410.6230362685
 30
0.0
 10
1332.8196197177
 20
410.6189733708
 30
0.0
 10
1332.8430772494
 20
410.595262591
 30
0.0
 10
1332.8655649592
 20
410.5581791792
 30
0.0
 10
1332.8880886851
 20
410.5052336449
 30
0.0
 10
1332.9107891739
 20
410.4371246995
 30
0.0
 10
1332.933595646
 20
410.3540372924
 30
0.0
 10
1332.9564922763
 20
410.2567838043
 30
0.0
 10
1332.9886561493
 20
410.1017131452
 30
0.0
 10
1333.027752335
 20
409.8799005365
 30
0.0
 10
1333.0730183645
 20
409.5863263584
 30
0.0
 10
1333.1184263773
 20
409.2647744621
 30
0.0
 10
1333.1638998876
 20
408.927285092
 30
0.0
 10
1333.2234336553
 20
408.4819503555
 30
0.0
 10
1333.2820258322
 20
408.0572021955
 30
0.0
 10
1333.3453312137
 20
407.669949355
 30
0.0
 10
1333.3899490547
 20
407.4375573545
 30
0.0
 10
1333.434096833
 20
407.2576339021
 30
0.0
 10
1333.4682206557
 20
407.1568245304
 30
0.0
 10
1333.4881200811
 20
407.1183862802
 30
0.0
  0
SPLINE
  5
60B
100
AcDbEntity
  8
0
100
AcDbSpline
 62
7
  6
CONTINUOUS
 70
0
 71
3
 72
27
 73
23
 74
0
 42
0.0000001
 43
0.0000001
 44
0.0000000001
 40
0.0
 40
0.0
 40
0.0
 40
0.0
 40
0.0106547753
 40
0.0181516389
 40
0.0244977216
 40
0.0326376596
 40
0.0441752341
 40
0.0596176638
 40
0.0790650908
 40
0.1024554748
 40
0.1296386012
 40
0.160397505
 40
0.2315677193
 40
0.3134462651
 40
0.4030483626
 40
0.4970733337
 40
0.5920434196
 40
0.7708583072
 40
0.8481214114
 40
0.913440123
 40
0.9645583239
 40
1.0
 40
1.0
 40
1.0
 40
1.0
 10
1334.2453855039
 20
410.5735009671
 30
0.0
 10
1334.2519625977
 20
410.5847589031
 30
0.0
 10
1334.2642836971
 20
410.6031373559
 30
0.0
 10
1334.2894073973
 20
410.6226557137
 30
0.0
 10
1334.3185515943
 20
410.6196087574
 30
0.0
 10
1334.342228061
 20
410.5964168326
 30
0.0
 10
1334.3646949883
 20
410.5598893361
 30
0.0
 10
1334.3872526391
 20
410.5074837523
 30
0.0
 10
1334.4099553806
 20
410.4398795808
 30
0.0
 10
1334.4327855503
 20
410.3572429309
 30
0.0
 10
1334.4556977733
 20
410.260378797
 30
0.0
 10
1334.4879122465
 20
410.1056849912
 30
0.0
 10
1334.527058511
 20
409.8841494683
 30
0.0
 10
1334.5723816964
 20
409.5906854307
 30
0.0
 10
1334.6178512814
 20
409.2689750469
 30
0.0
 10
1334.6633906568
 20
408.931105207
 30
0.0
 10
1334.7230224927
 20
408.4849906155
 30
0.0
 10
1334.7817026004
 20
408.0593704483
 30
0.0
 10
1334.8451013652
 20
407.6712426867
 30
0.0
 10
1334.8897869627
 20
407.4382883117
 30
0.0
 10
1334.934006652
 20
407.2579466752
 30
0.0
 10
1334.9681784004
 20
407.1569044102
 30
0.0
 10
1334.9881199815
 20
407.1183904437
 30
0.0
  0
SPLINE
  5
60C
100
AcDbEntity
  8
0
100
AcDbSpline
 62
7
  6
CONTINUOUS
 70
0
 71
3
 72
27
 73
23
 74
0
 42
0.0000001
 43
0.0000001
 44
0.0000000001
 40
0.0
 40
0.0
 40
0.0
 40
0.0
 40
0.0118536009
 40
0.0202035648
 40
0.0266092291
 40
0.0340677863
 40
0.0446977135
 40
0.0592129217
 40
0.0777945632
 40
0.1004028592
 40
0.1269052424
 40
0.1570897019
 40
0.2274381842
 40
0.3089195797
 40
0.3985093565
 40
0.4928459591
 40
0.588373928
 40
0.7686906807
 40
0.8467156382
 40
0.9126919387
 40
0.9642948477
 40
1.0
 40
1.0
 40
1.0
 40
1.0
 10
1335.7381978958
 20
410.5604212783
 30
0.0
 10
1335.7449008476
 20
410.5733513391
 30
0.0
 10
1335.7576362214
 20
410.5945586983
 30
0.0
 10
1335.7812974732
 20
410.6188675597
 30
0.0
 10
1335.810761446
 20
410.6231024767
 30
0.0
 10
1335.8364086898
 20
410.6038739567
 30
0.0
 10
1335.85884218
 20
410.5707851191
 30
0.0
 10
1335.8817218077
 20
410.5218740677
 30
0.0
 10
1335.9045422025
 20
410.45733849
 30
0.0
 10
1335.9275893295
 20
410.3773716299
 30
0.0
 10
1335.9506962616
 20
410.2827102754
 30
0.0
 10
1335.9832928476
 20
410.1300487829
 30
0.0
 10
1336.0228284193
 20
409.9098884321
 30
0.0
 10
1336.0685506855
 20
409.6167984475
 30
0.0
 10
1336.1144279902
 20
409.2939358551
 30
0.0
 10
1336.1603833731
 20
408.9536646313
 30
0.0
 10
1336.2206101537
 20
408.5028489526
 30
0.0
 10
1336.2798162601
 20
408.0720438883
 30
0.0
 10
1336.343762535
 20
407.6787548212
 30
0.0
 10
1336.3888512867
 20
407.4425133544
 30
0.0
 10
1336.4334641228
 20
407.2597218283
 30
0.0
 10
1336.467954337
 20
407.1573454389
 30
0.0
 10
1336.4881201211
 20
407.1183850047
 30
0.0
  0
SPLINE
  5
60D
100
AcDbEntity
  8
0
100
AcDbSpline
 62
7
  6
CONTINUOUS
 70
0
 71
3
 72
21
 73
17
 74
0
 42
0.0000001
 43
0.0000001
 44
0.0000000001
 40
0.0
 40
0.0
 40
0.0
 40
0.0
 40
0.0118624737
 40
0.0209634833
 40
0.0279102146
 40
0.0340627629
 40
0.0412646838
 40
0.0507515396
 40
0.078324206
 40
0.1180818083
 40
0.1696242496
 40
0.3038443798
 40
0.4695285267
 40
0.6518145254
 40
0.8341451616
 40
1.0
 40
1.0
 40
1.0
 40
1.0
 10
1337.2382603037
 20
410.5605438335
 30
0.0
 10
1337.2436538938
 20
410.5709406856
 30
0.0
 10
1337.2541232298
 20
410.5889058033
 30
0.0
 10
1337.2720771573
 20
410.6100130331
 30
0.0
 10
1337.2915746531
 20
410.6217873346
 30
0.0
 10
1337.3127732564
 20
410.6207262725
 30
0.0
 10
1337.3319000476
 20
410.6074468045
 30
0.0
 10
1337.359169321
 20
410.573027083
 30
0.0
 10
1337.3900468302
 20
410.5028350004
 30
0.0
 10
1337.424913772
 20
410.3909134924
 30
0.0
 10
1337.4764794016
 20
410.1740462571
 30
0.0
 10
1337.5366412306
 20
409.83219965
 30
0.0
 10
1337.6057707323
 20
409.3611234806
 30
0.0
 10
1337.6752388545
 20
408.8421461937
 30
0.0
 10
1337.7448035641
 20
408.3230244307
 30
0.0
 10
1337.794455031
 20
407.9828050365
 30
0.0
 10
1337.8208449926
 20
407.8211858124
 30
0.0
  0
SPLINE
  5
60E
100
AcDbEntity
  8
0
100
AcDbSpline
 62
7
  6
CONTINUOUS
 70
0
 71
3
 72
9
 73
5
 74
0
 42
0.0000001
 43
0.0000001
 44
0.0000000001
 40
0.0
 40
0.0
 40
0.0
 40
0.0
 40
0.2388825433
 40
1.0
 40
1.0
 40
1.0
 40
1.0
 10
1331.6374133051
 20
409.813693582
 30
0.0
 10
1331.6390604488
 20
409.8096444223
 30
0.0
 10
1331.6458344668
 20
409.7926447468
 30
0.0
 10
1331.6521565203
 20
409.7754667352
 30
0.0
 10
1331.6567731714
 20
409.7623262935
 30
0.0
  0
SPLINE
  5
60F
100
AcDbEntity
  8
0
100
AcDbSpline
 62
7
  6
CONTINUOUS
 70
0
 71
3
 72
9
 73
5
 74
0
 42
0.0000001
 43
0.0000001
 44
0.0000000001
 40
0.0
 40
0.0
 40
0.0
 40
0.0
 40
0.2368551855
 40
1.0
 40
1.0
 40
1.0
 40
1.0
 10
1331.6567731714
 20
409.7623262935
 30
0.0
 10
1331.6591059384
 20
409.7556865046
 30
0.0
 10
1331.6687416839
 20
409.7275785283
 30
0.0
 10
1331.677600682
 20
409.6992078531
 30
0.0
 10
1331.6840484533
 20
409.6774686445
 30
0.0
  0
SPLINE
  5
610
100
AcDbEntity
  8
0
100
AcDbSpline
 62
7
  6
CONTINUOUS
 70
0
 71
3
 72
11
 73
7
 74
0
 42
0.0000001
 43
0.0000001
 44
0.0000000001
 40
0.0
 40
0.0
 40
0.0
 40
0.0
 40
0.2168990358
 40
0.4802353596
 40
0.7528139248
 40
1.0
 40
1.0
 40
1.0
 40
1.0
 10
1331.6840484533
 20
409.6774686445
 30
0.0
 10
1331.7220656457
 20
409.54929045
 30
0.0
 10
1331.7859929925
 20
409.2597750805
 30
0.0
 10
1331.8691397908
 20
408.8033733633
 30
0.0
 10
1331.949783148
 20
408.3274211311
 30
0.0
 10
1332.0062139869
 20
408.0120121043
 30
0.0
 10
1332.0361030665
 20
407.8626061891
 30
0.0
  0
SPLINE
  5
611
100
AcDbEntity
  8
0
100
AcDbSpline
 62
7
  6
CONTINUOUS
 70
0
 71
3
 72
9
 73
5
 74
0
 42
0.0000001
 43
0.0000001
 44
0.0000000001
 40
0.0
 40
0.0
 40
0.0
 40
0.0
 40
0.2641248073
 40
1.0
 40
1.0
 40
1.0
 40
1.0
 10
1332.0361030665
 20
407.8626061891
 30
0.0
 10
1332.0396692138
 20
407.8447801638
 30
0.0
 10
1332.0533544686
 20
407.7773266304
 30
0.0
 10
1332.0678430382
 20
407.7100319739
 30
0.0
 10
1332.0792197721
 20
407.6606772624
 30
0.0
  0
SPLINE
  5
612
100
AcDbEntity
  8
0
100
AcDbSpline
 62
7
  6
CONTINUOUS
 70
0
 71
3
 72
12
 73
8
 74
0
 42
0.0000001
 43
0.0000001
 44
0.0000000001
 40
0.0
 40
0.0
 40
0.0
 40
0.0
 40
0.3961620041
 40
0.694097694
 40
0.8048434729
 40
0.8908045119
 40
1.0
 40
1.0
 40
1.0
 40
1.0
 10
1332.0792197721
 20
407.6606772624
 30
0.0
 10
1332.0932132797
 20
407.5999704255
 30
0.0
 10
1332.1197409179
 20
407.493966533
 30
0.0
 10
1332.1579281711
 20
407.373388872
 30
0.0
 10
1332.1913166605
 20
407.3022856577
 30
0.0
 10
1332.2157638107
 20
407.2624055364
 30
0.0
 10
1332.2430956621
 20
407.2386630133
 30
0.0
 10
1332.2602616951
 20
407.2391012686
 30
0.0
  0
SPLINE
  5
613
100
AcDbEntity
  8
0
100
AcDbSpline
 62
7
  6
CONTINUOUS
 70
0
 71
3
 72
15
 73
11
 74
0
 42
0.0000001
 43
0.0000001
 44
0.0000000001
 40
0.0
 40
0.0
 40
0.0
 40
0.0
 40
0.0371520362
 40
0.0651735222
 40
0.1007044816
 40
0.1945885118
 40
0.3171976649
 40
0.4646261321
 40
0.6316890729
 40
1.0
 40
1.0
 40
1.0
 40
1.0
 10
1333.9317015987
 20
407.4393595348
 30
0.0
 10
1333.9134951618
 20
407.4399855547
 30
0.0
 10
1333.8852257372
 20
407.4634579652
 30
0.0
 10
1333.8591291555
 20
407.5041906601
 30
0.0
 10
1333.8249756798
 20
407.5741049149
 30
0.0
 10
1333.7857713648
 20
407.691333496
 30
0.0
 10
1333.7405982556
 20
407.8641013771
 30
0.0
 10
1333.6953083841
 20
408.073610188
 30
0.0
 10
1333.6323879412
 20
408.4024748241
 30
0.0
 10
1333.5884474447
 20
408.6613005731
 30
0.0
 10
1333.5580898181
 20
408.8393290555
 30
0.0
  0
SPLINE
  5
614
100
AcDbEntity
  8
0
100
AcDbSpline
 62
7
  6
CONTINUOUS
 70
0
 71
3
 72
15
 73
11
 74
0
 42
0.0000001
 43
0.0000001
 44
0.0000000001
 40
0.0
 40
0.0
 40
0.0
 40
0.0
 40
0.0371426115
 40
0.0651534115
 40
0.1006848636
 40
0.1945747908
 40
0.3172057534
 40
0.464659085
 40
0.6317378275
 40
1.0
 40
1.0
 40
1.0
 40
1.0
 10
1335.4317129155
 20
407.4393595588
 30
0.0
 10
1335.4135104674
 20
407.4399704788
 30
0.0
 10
1335.3852459847
 20
407.4634453985
 30
0.0
 10
1335.3591417374
 20
407.5041579357
 30
0.0
 10
1335.3249938325
 20
407.5740758848
 30
0.0
 10
1335.285774473
 20
407.6913122892
 30
0.0
 10
1335.2405972846
 20
407.8641084936
 30
0.0
 10
1335.1953004566
 20
408.0736480557
 30
0.0
 10
1335.1323818504
 20
408.4025115293
 30
0.0
 10
1335.0884435783
 20
408.6613229383
 30
0.0
 10
1335.0580898181
 20
408.8393290555
 30
0.0
  0
SPLINE
  5
615
100
AcDbEntity
  8
0
100
AcDbSpline
 62
7
  6
CONTINUOUS
 70
0
 71
3
 72
15
 73
11
 74
0
 42
0.0000001
 43
0.0000001
 44
0.0000000001
 40
0.0
 40
0.0
 40
0.0
 40
0.0
 40
0.0371447926
 40
0.0651579949
 40
0.1006894137
 40
0.1945718081
 40
0.3171840835
 40
0.4646179811
 40
0.6316849879
 40
1.0
 40
1.0
 40
1.0
 40
1.0
 10
1336.9317113076
 20
407.4393584195
 30
0.0
 10
1336.9135079133
 20
407.4399728186
 30
0.0
 10
1336.8852423489
 20
407.4634470696
 30
0.0
 10
1336.8591390069
 20
407.5041638015
 30
0.0
 10
1336.8249916537
 20
407.5740785639
 30
0.0
 10
1336.7857775983
 20
407.6913035871
 30
0.0
 10
1336.7406044295
 20
407.8640773436
 30
0.0
 10
1336.6953116213
 20
408.0735927869
 30
0.0
 10
1336.6323895178
 20
408.4024662441
 30
0.0
 10
1336.588447969
 20
408.661297471
 30
0.0
 10
1336.5580898181
 20
408.8393290555
 30
0.0
  0
SPLINE
  5
616
100
AcDbEntity
  8
0
100
AcDbSpline
 62
7
  6
CONTINUOUS
 70
0
 71
3
 72
8
 73
4
 74
0
 42
0.0000001
 43
0.0000001
 44
0.0000000001
 40
0.0
 40
0.0
 40
0.0
 40
0.0
 40
1.0
 40
1.0
 40
1.0
 40
1.0
 10
1338.4048972616
 20
407.4298300912
 30
0.0
 10
1338.4004320598
 20
407.4221098068
 30
0.0
 10
1338.395648449
 20
407.4145515721
 30
0.0
 10
1338.3903817332
 20
407.4073541751
 30
0.0
  0
SPLINE
  5
617
100
AcDbEntity
  8
0
100
AcDbSpline
 62
7
  6
CONTINUOUS
 70
0
 71
3
 72
18
 73
14
 74
0
 42
0.0000001
 43
0.0000001
 44
0.0000000001
 40
0.0
 40
0.0
 40
0.0
 40
0.0
 40
0.035610434
 40
0.0641307968
 40
0.0882357335
 40
0.1122465455
 40
0.1405266878
 40
0.1758247452
 40
0.2719329878
 40
0.4042357137
 40
0.5717035671
 40
0.771598322
 40
1.0
 40
1.0
 40
1.0
 40
1.0
 10
1338.3903817332
 20
407.4073541751
 30
0.0
 10
1338.3850889348
 20
407.4001211343
 30
0.0
 10
1338.3746572577
 20
407.3876794299
 30
0.0
 10
1338.3565985142
 20
407.3742061847
 30
0.0
 10
1338.337295956
 20
407.3691219626
 30
0.0
 10
1338.3179560879
 20
407.3738332884
 30
0.0
 10
1338.2998453352
 20
407.3869958363
 30
0.0
 10
1338.2737235939
 20
407.4178184341
 30
0.0
 10
1338.2433848637
 20
407.4775289479
 30
0.0
 10
1338.2092597077
 20
407.5711120181
 30
0.0
 10
1338.1748549733
 20
407.6922044911
 30
0.0
 10
1338.1401877028
 20
407.838094781
 30
0.0
 10
1338.1182896837
 20
407.9436619706
 30
0.0
 10
1338.1071193811
 20
408.0000523155
 30
0.0
  0
SPLINE
  5
618
100
AcDbEntity
  8
0
100
AcDbSpline
 62
7
  6
CONTINUOUS
 70
0
 71
3
 72
13
 73
9
 74
0
 42
0.0000001
 43
0.0000001
 44
0.0000000001
 40
0.0
 40
0.0
 40
0.0
 40
0.0
 40
0.1067828222
 40
0.1945230049
 40
0.3080662148
 40
0.447037918
 40
0.6100717957
 40
1.0
 40
1.0
 40
1.0
 40
1.0
 10
1338.4323892406
 20
407.439335092
 30
0.0
 10
1338.4085596726
 20
407.4397462007
 30
0.0
 10
1338.3731363942
 20
407.477869366
 30
0.0
 10
1338.3423933878
 20
407.5366101489
 30
0.0
 10
1338.3135825076
 20
407.6079170709
 30
0.0
 10
1338.2854495049
 20
407.6960224656
 30
0.0
 10
1338.2449311642
 20
407.8452204541
 30
0.0
 10
1338.218466929
 20
407.9657747755
 30
0.0
 10
1338.2008794423
 20
408.051008155
 30
0.0
  0
LINE
  5
619
100
AcDbEntity
  8
0
100
AcDbLine
 62
7
  6
CONTINUOUS
 10
1339.9064634679
 20
407.4325623131
 11
1339.9059177384
 21
407.4316015556
  0
SPLINE
  5
61A
100
AcDbEntity
  8
0
100
AcDbSpline
 62
7
  6
CONTINUOUS
 70
0
 71
3
 72
20
 73
16
 74
0
 42
0.0000001
 43
0.0000001
 44
0.0000000001
 40
0.0
 40
0.0
 40
0.0
 40
0.0
 40
0.0294512227
 40
0.0503512861
 40
0.067397202
 40
0.088298581
 40
0.1177615762
 40
0.1572630745
 40
0.207034864
 40
0.2667827262
 40
0.3359110706
 40
0.4136352274
 40
0.5909276096
 40
0.789745812
 40
1.0
 40
1.0
 40
1.0
 40
1.0
 10
1339.9059177384
 20
407.4316015556
 30
0.0
 10
1339.8980410221
 20
407.4177878592
 30
0.0
 10
1339.883152866
 20
407.3951608506
 30
0.0
 10
1339.8541573729
 20
407.3702773339
 30
0.0
 10
1339.8196217091
 20
407.3703092607
 30
0.0
 10
1339.7906323925
 20
407.3951731027
 30
0.0
 10
1339.7640138614
 20
407.435629814
 30
0.0
 10
1339.7371401464
 20
407.4941553224
 30
0.0
 10
1339.7101977249
 20
407.5699739499
 30
0.0
 10
1339.6830742632
 20
407.6625959376
 30
0.0
 10
1339.6558573526
 20
407.7707865825
 30
0.0
 10
1339.6177958345
 20
407.9416315915
 30
0.0
 10
1339.5716317921
 20
408.182323061
 30
0.0
 10
1339.5180099475
 20
408.4943487532
 30
0.0
 10
1339.4825451588
 20
408.7123550452
 30
0.0
 10
1339.4643297597
 20
408.8244066788
 30
0.0
  0
SPLINE
  5
61B
100
AcDbEntity
  8
0
100
AcDbSpline
 62
7
  6
CONTINUOUS
 70
0
 71
3
 72
15
 73
11
 74
0
 42
0.0000001
 43
0.0000001
 44
0.0000000001
 40
0.0
 40
0.0
 40
0.0
 40
0.0
 40
0.0371389775
 40
0.0651495801
 40
0.1006655299
 40
0.1945302191
 40
0.3171451802
 40
0.4645972635
 40
0.6316800695
 40
1.0
 40
1.0
 40
1.0
 40
1.0
 10
1339.9316952348
 20
407.4393591221
 30
0.0
 10
1339.9134954107
 20
407.4399895931
 30
0.0
 10
1339.8852355506
 20
407.4634453859
 30
0.0
 10
1339.8591468762
 20
407.504162874
 30
0.0
 10
1339.8249949748
 20
407.5740517621
 30
0.0
 10
1339.7857912084
 20
407.6912665895
 30
0.0
 10
1339.7406125804
 20
407.8640371557
 30
0.0
 10
1339.6953166845
 20
408.0735689814
 30
0.0
 10
1339.6323908728
 20
408.4024577344
 30
0.0
 10
1339.5884478922
 20
408.6612966958
 30
0.0
 10
1339.5580898181
 20
408.8393290555
 30
0.0
  0
SPLINE
  5
61C
100
AcDbEntity
  8
0
100
AcDbSpline
 62
7
  6
CONTINUOUS
 70
0
 71
3
 72
12
 73
8
 74
0
 42
0.0000001
 43
0.0000001
 44
0.0000000001
 40
0.0
 40
0.0
 40
0.0
 40
0.0
 40
0.320558752
 40
0.6112142404
 40
0.8444634168
 40
0.9328000213
 40
1.0
 40
1.0
 40
1.0
 40
1.0
 10
1343.5103248819
 20
408.8534135848
 30
0.0
 10
1343.5350956976
 20
408.7023697931
 30
0.0
 10
1343.5821742529
 20
408.4143179957
 30
0.0
 10
1343.6535915308
 20
408.017547625
 30
0.0
 10
1343.7156651632
 20
407.7315082141
 30
0.0
 10
1343.7693483671
 20
407.5537741408
 30
0.0
 10
1343.7970322239
 20
407.4845416802
 30
0.0
 10
1343.8119751994
 20
407.4561466964
 30
0.0
  0
SPLINE
  5
61D
100
AcDbEntity
  8
0
100
AcDbSpline
 62
7
  6
CONTINUOUS
 70
0
 71
3
 72
11
 73
7
 74
0
 42
0.0000001
 43
0.0000001
 44
0.0000000001
 40
0.0
 40
0.0
 40
0.0
 40
0.0
 40
0.3039423792
 40
0.5855577825
 40
0.8233742416
 40
1.0
 40
1.0
 40
1.0
 40
1.0
 10
1343.9643297597
 20
408.8244066788
 30
0.0
 10
1343.9421717061
 20
408.9607181168
 30
0.0
 10
1343.899532213
 20
409.2233177271
 30
0.0
 10
1343.8352850647
 20
409.5919652395
 30
0.0
 10
1343.7715804921
 20
409.9016324448
 30
0.0
 10
1343.7231208254
 20
410.0841614656
 30
0.0
 10
1343.6952190358
 20
410.1594074038
 30
0.0
  0
SPLINE
  5
61E
100
AcDbEntity
  8
0
100
AcDbSpline
 62
7
  6
CONTINUOUS
 70
0
 71
3
 72
15
 73
11
 74
0
 42
0.0000001
 43
0.0000001
 44
0.0000000001
 40
0.0
 40
0.0
 40
0.0
 40
0.0
 40
0.0371425046
 40
0.0651537086
 40
0.1006862205
 40
0.1945788728
 40
0.3172109
 40
0.464663633
 40
0.6317415759
 40
1.0
 40
1.0
 40
1.0
 40
1.0
 10
1341.4317128716
 20
407.4393596211
 30
0.0
 10
1341.4135104929
 20
407.4399710108
 30
0.0
 10
1341.3852458365
 20
407.4634453434
 30
0.0
 10
1341.3591413665
 20
407.5041587253
 30
0.0
 10
1341.3249927741
 20
407.5740785486
 30
0.0
 10
1341.2857728306
 20
407.6913173134
 30
0.0
 10
1341.2405957325
 20
407.8641151262
 30
0.0
 10
1341.1952991713
 20
408.0736545689
 30
0.0
 10
1341.13238116
 20
408.4025155641
 30
0.0
 10
1341.0884432713
 20
408.6613247611
 30
0.0
 10
1341.0580898181
 20
408.8393290555
 30
0.0
  0
SPLINE
  5
61F
100
AcDbEntity
  8
0
100
AcDbSpline
 62
7
  6
CONTINUOUS
 70
0
 71
3
 72
15
 73
11
 74
0
 42
0.0000001
 43
0.0000001
 44
0.0000000001
 40
0.0
 40
0.0
 40
0.0
 40
0.0
 40
0.0371358984
 40
0.0651421764
 40
0.1006552588
 40
0.1945073885
 40
0.3171134794
 40
0.4645717781
 40
0.6316823344
 40
1.0
 40
1.0
 40
1.0
 40
1.0
 10
1342.9317025619
 20
407.4393597556
 30
0.0
 10
1342.9135039928
 20
407.4399850155
 30
0.0
 10
1342.885244055
 20
407.4634382391
 30
0.0
 10
1342.8591534637
 20
407.504147982
 30
0.0
 10
1342.8250060736
 20
407.5740292106
 30
0.0
 10
1342.7858011734
 20
407.6912309986
 30
0.0
 10
1342.7406230512
 20
407.8639951395
 30
0.0
 10
1342.6953223135
 20
408.0735392893
 30
0.0
 10
1342.6323932963
 20
408.4024447566
 30
0.0
 10
1342.5884481236
 20
408.6612970981
 30
0.0
 10
1342.5580898181
 20
408.8393290555
 30
0.0
  0
SPLINE
  5
620
100
AcDbEntity
  8
0
100
AcDbSpline
 62
7
  6
CONTINUOUS
 70
0
 71
3
 72
9
 73
5
 74
0
 42
0.0000001
 43
0.0000001
 44
0.0000000001
 40
0.0
 40
0.0
 40
0.0
 40
0.0
 40
0.244459894
 40
1.0
 40
1.0
 40
1.0
 40
1.0
 10
1344.1345314358
 20
408.3986730571
 30
0.0
 10
1344.1280872773
 20
408.4345427268
 30
0.0
 10
1344.1020695808
 20
408.5813347645
 30
0.0
 10
1344.0770232495
 20
408.7282962962
 30
0.0
 10
1344.0580898181
 20
408.8393290555
 30
0.0
  0
SPLINE
  5
621
100
AcDbEntity
  8
0
100
AcDbSpline
 62
7
  6
CONTINUOUS
 70
0
 71
3
 72
12
 73
8
 74
0
 42
0.0000001
 43
0.0000001
 44
0.0000000001
 40
0.0
 40
0.0
 40
0.0
 40
0.0
 40
0.3203286081
 40
0.6109816615
 40
0.8443680032
 40
0.9327627181
 40
1.0
 40
1.0
 40
1.0
 40
1.0
 10
1342.010324886
 20
408.8534135855
 30
0.0
 10
1342.0350790903
 20
408.7024778977
 30
0.0
 10
1342.082138398
 20
408.4145344329
 30
0.0
 10
1342.1535411098
 20
408.017806645
 30
0.0
 10
1342.2156219452
 20
407.7316728939
 30
0.0
 10
1342.269330527
 20
407.5538305812
 30
0.0
 10
1342.2970227441
 20
407.4845513147
 30
0.0
 10
1342.3119755438
 20
407.4561412494
 30
0.0
  0
SPLINE
  5
622
100
AcDbEntity
  8
0
100
AcDbSpline
 62
7
  6
CONTINUOUS
 70
0
 71
3
 72
12
 73
8
 74
0
 42
0.0000001
 43
0.0000001
 44
0.0000000001
 40
0.0
 40
0.0
 40
0.0
 40
0.0
 40
0.320324514
 40
0.6109477875
 40
0.8443323698
 40
0.9327461335
 40
1.0
 40
1.0
 40
1.0
 40
1.0
 10
1340.5103248858
 20
408.8534135855
 30
0.0
 10
1340.5350789911
 20
408.7024798674
 30
0.0
 10
1340.5821352088
 20
408.414552295
 30
0.0
 10
1340.6535348469
 20
408.0178412541
 30
0.0
 10
1340.7156119025
 20
407.7317128601
 30
0.0
 10
1340.7693220103
 20
407.5538542073
 30
0.0
 10
1340.7970190098
 20
407.4845583544
 30
0.0
 10
1340.8119755448
 20
407.4561413074
 30
0.0
  0
SPLINE
  5
623
100
AcDbEntity
  8
0
100
AcDbSpline
 62
7
  6
CONTINUOUS
 70
0
 71
3
 72
12
 73
8
 74
0
 42
0.0000001
 43
0.0000001
 44
0.0000000001
 40
0.0
 40
0.0
 40
0.0
 40
0.0
 40
0.3203129277
 40
0.6109481459
 40
0.8443476775
 40
0.9327526531
 40
1.0
 40
1.0
 40
1.0
 40
1.0
 10
1339.0103248828
 20
408.8534135849
 30
0.0
 10
1339.0350778771
 20
408.7024857963
 30
0.0
 10
1339.0821336032
 20
408.4145588564
 30
0.0
 10
1339.1535365892
 20
408.0178425998
 30
0.0
 10
1339.2156103806
 20
407.731705162
 30
0.0
 10
1339.26932548
 20
407.5538490016
 30
0.0
 10
1339.2970191882
 20
407.4845598676
 30
0.0
 10
1339.3119753667
 20
407.4561462693
 30
0.0
  0
SPLINE
  5
624
100
AcDbEntity
  8
0
100
AcDbSpline
 62
7
  6
CONTINUOUS
 70
0
 71
3
 72
10
 73
6
 74
0
 42
0.0000001
 43
0.0000001
 44
0.0000000001
 40
0.0
 40
0.0
 40
0.0
 40
0.0
 40
0.600791217
 40
0.8279018111
 40
1.0
 40
1.0
 40
1.0
 40
1.0
 10
1337.6578500814
 20
408.007473964
 30
0.0
 10
1337.6803653407
 20
407.8948079129
 30
0.0
 10
1337.7134691262
 20
407.7397200322
 30
0.0
 10
1337.7683509214
 20
407.5565139071
 30
0.0
 10
1337.7966466636
 20
407.4852685771
 30
0.0
 10
1337.8119754631
 20
407.4561446665
 30
0.0
  0
LINE
  5
625
100
AcDbEntity
  8
0
100
AcDbLine
 62
7
  6
CONTINUOUS
 10
1337.820844988
 20
407.8211858177
 11
1337.8242256115
 21
407.8005841828
  0
SPLINE
  5
626
100
AcDbEntity
  8
0
100
AcDbSpline
 62
7
  6
CONTINUOUS
 70
0
 71
3
 72
11
 73
7
 74
0
 42
0.0000001
 43
0.0000001
 44
0.0000000001
 40
0.0
 40
0.0
 40
0.0
 40
0.0
 40
0.3348231764
 40
0.6175967737
 40
0.8409067291
 40
1.0
 40
1.0
 40
1.0
 40
1.0
 10
1337.8242256115
 20
407.8005841828
 30
0.0
 10
1337.8369977063
 20
407.723140703
 30
0.0
 10
1337.8618333399
 20
407.5805152287
 30
0.0
 10
1337.9014731969
 20
407.3872912524
 30
0.0
 10
1337.9407128592
 20
407.2364590035
 30
0.0
 10
1337.9709729942
 20
407.1515155182
 30
0.0
 10
1337.9881186267
 20
407.1183955753
 30
0.0
  0
SPLINE
  5
627
100
AcDbEntity
  8
0
100
AcDbSpline
 62
7
  6
CONTINUOUS
 70
0
 71
3
 72
11
 73
7
 74
0
 42
0.0000001
 43
0.0000001
 44
0.0000000001
 40
0.0
 40
0.0
 40
0.0
 40
0.0
 40
0.3039312932
 40
0.5855268466
 40
0.8233303101
 40
1.0
 40
1.0
 40
1.0
 40
1.0
 10
1339.4643297597
 20
408.8244066788
 30
0.0
 10
1339.4421794211
 20
408.9606723123
 30
0.0
 10
1339.3995542967
 20
409.2231792984
 30
0.0
 10
1339.3353332873
 20
409.5916967512
 30
0.0
 10
1339.2716601435
 20
409.9012796945
 30
0.0
 10
1339.2232333394
 20
410.083770823
 30
0.0
 10
1339.1953604104
 20
410.1590230727
 30
0.0
  0
SPLINE
  5
628
100
AcDbEntity
  8
0
100
AcDbSpline
 62
7
  6
CONTINUOUS
 70
0
 71
3
 72
11
 73
7
 74
0
 42
0.0000001
 43
0.0000001
 44
0.0000000001
 40
0.0
 40
0.0
 40
0.0
 40
0.0
 40
0.3038690672
 40
0.5854364198
 40
0.8232689141
 40
1.0
 40
1.0
 40
1.0
 40
1.0
 10
1340.9643297596
 20
408.8244066787
 30
0.0
 10
1340.9421841222
 20
408.9606415253
 30
0.0
 10
1340.8995672811
 20
409.22310264
 30
0.0
 10
1340.835353427
 20
409.5915850712
 30
0.0
 10
1340.7716801806
 20
409.9011901025
 30
0.0
 10
1340.7232500209
 20
410.0837186999
 30
0.0
 10
1340.6953717533
 20
410.1589969268
 30
0.0
  0
SPLINE
  5
629
100
AcDbEntity
  8
0
100
AcDbSpline
 62
7
  6
CONTINUOUS
 70
0
 71
3
 72
13
 73
9
 74
0
 42
0.0000001
 43
0.0000001
 44
0.0000000001
 40
0.0
 40
0.0
 40
0.0
 40
0.0
 40
0.0731711487
 40
0.1469333091
 40
0.2335517281
 40
0.340245069
 40
0.6236175299
 40
1.0
 40
1.0
 40
1.0
 40
1.0
 10
1331.1406744956
 20
409.6417805751
 30
0.0
 10
1331.1476686088
 20
409.6445718386
 30
0.0
 10
1331.1630844568
 20
409.647625634
 30
0.0
 10
1331.1868702269
 20
409.6406853616
 30
0.0
 10
1331.2090406383
 20
409.6237923815
 30
0.0
 10
1331.2405045034
 20
409.5858473684
 30
0.0
 10
1331.2765884365
 20
409.5149675768
 30
0.0
 10
1331.3002319725
 20
409.4513513521
 30
0.0
 10
1331.3126002526
 20
409.4146430096
 30
0.0
  0
SPLINE
  5
62A
100
AcDbEntity
  8
0
100
AcDbSpline
 62
7
  6
CONTINUOUS
 70
0
 71
3
 72
11
 73
7
 74
0
 42
0.0000001
 43
0.0000001
 44
0.0000000001
 40
0.0
 40
0.0
 40
0.0
 40
0.0
 40
0.3038601075
 40
0.5854308331
 40
0.8232772382
 40
1.0
 40
1.0
 40
1.0
 40
1.0
 10
1342.4643297592
 20
408.8244066787
 30
0.0
 10
1342.4421854021
 20
408.9606337618
 30
0.0
 10
1342.3995701067
 20
409.2230851614
 30
0.0
 10
1342.3353577956
 20
409.5915611732
 30
0.0
 10
1342.2716866144
 20
409.9011620887
 30
0.0
 10
1342.223257731
 20
410.0836879003
 30
0.0
 10
1342.1953845891
 20
410.1589616375
 30
0.0
  0
SPLINE
  5
62B
100
AcDbEntity
  8
0
100
AcDbSpline
 62
7
  6
CONTINUOUS
 70
0
 71
3
 72
19
 73
15
 74
0
 42
0.0000001
 43
0.0000001
 44
0.0000000001
 40
0.0
 40
0.0
 40
0.0
 40
0.0
 40
0.2384240207
 40
0.4421692573
 40
0.6061851981
 40
0.6721489096
 40
0.7270626882
 40
0.7709932247
 40
0.8044997067
 40
0.8293262824
 40
0.8499790098
 40
0.8735938244
 40
0.9053133173
 40
1.0
 40
1.0
 40
1.0
 40
1.0
 10
1338.0071327576
 20
407.8286390813
 30
0.0
 10
1338.0195406337
 20
407.7532057222
 30
0.0
 10
1338.0437065692
 20
407.6134868148
 30
0.0
 10
1338.0822716732
 20
407.4229678796
 30
0.0
 10
1338.1159507626
 20
407.2879204644
 30
0.0
 10
1338.1440629283
 20
407.2009552955
 30
0.0
 10
1338.1635093808
 20
407.1517854268
 30
0.0
 10
1338.1829057047
 20
407.1138746599
 30
0.0
 10
1338.2022986501
 20
407.087323735
 30
0.0
 10
1338.223001192
 20
407.0712527053
 30
0.0
 10
1338.2466040775
 20
407.0696641669
 30
0.0
 10
1338.2679403574
 20
407.0835656233
 30
0.0
 10
1338.2977856298
 20
407.1215287363
 30
0.0
 10
1338.313627261
 20
407.1595562906
 30
0.0
 10
1338.3243366289
 20
407.1879645509
 30
0.0
  0
SPLINE
  5
62C
100
AcDbEntity
  8
0
100
AcDbSpline
 62
7
  6
CONTINUOUS
 70
0
 71
3
 72
9
 73
5
 74
0
 42
0.0000001
 43
0.0000001
 44
0.0000000001
 40
0.0
 40
0.0
 40
0.0
 40
0.0
 40
0.2645347023
 40
1.0
 40
1.0
 40
1.0
 40
1.0
 10
1337.5103248839
 20
408.8534135852
 30
0.0
 10
1337.5225798642
 20
408.7786913614
 30
0.0
 10
1337.5689599541
 20
408.4962461221
 30
0.0
 10
1337.6165942417
 20
408.2139117463
 30
0.0
 10
1337.6578500897
 20
408.0074739545
 30
0.0
  0
SPLINE
  5
62D
100
AcDbEntity
  8
0
100
AcDbSpline
 62
7
  6
CONTINUOUS
 70
0
 71
3
 72
12
 73
8
 74
0
 42
0.0000001
 43
0.0000001
 44
0.0000000001
 40
0.0
 40
0.0
 40
0.0
 40
0.0
 40
0.3203427407
 40
0.6110270313
 40
0.8444007067
 40
0.9327778805
 40
1.0
 40
1.0
 40
1.0
 40
1.0
 10
1336.0103248818
 20
408.8534135848
 30
0.0
 10
1336.0350797423
 20
408.7024724802
 30
0.0
 10
1336.0821419373
 20
408.4145101245
 30
0.0
 10
1336.1535488985
 20
408.0177703534
 30
0.0
 10
1336.2156308975
 20
407.7316397233
 30
0.0
 10
1336.2693308977
 20
407.5538180649
 30
0.0
 10
1336.2970260776
 20
407.4845582243
 30
0.0
 10
1336.3119730145
 20
407.4561535622
 30
0.0
  0
SPLINE
  5
62E
100
AcDbEntity
  8
0
100
AcDbSpline
 62
7
  6
CONTINUOUS
 70
0
 71
3
 72
12
 73
8
 74
0
 42
0.0000001
 43
0.0000001
 44
0.0000000001
 40
0.0
 40
0.0
 40
0.0
 40
0.0
 40
0.3203344386
 40
0.6110023832
 40
0.8443829482
 40
0.9327726385
 40
1.0
 40
1.0
 40
1.0
 40
1.0
 10
1334.5103248821
 20
408.8534135848
 30
0.0
 10
1334.5350791779
 20
408.7024763258
 30
0.0
 10
1334.5821401674
 20
408.4145256528
 30
0.0
 10
1334.6535424593
 20
408.0177930942
 30
0.0
 10
1334.7156285478
 20
407.7316623662
 30
0.0
 10
1334.7693251302
 20
407.5538268449
 30
0.0
 10
1334.7970263735
 20
407.4845604794
 30
0.0
 10
1334.8119729809
 20
407.4561527972
 30
0.0
  0
SPLINE
  5
62F
100
AcDbEntity
  8
0
100
AcDbSpline
 62
7
  6
CONTINUOUS
 70
0
 71
3
 72
12
 73
8
 74
0
 42
0.0000001
 43
0.0000001
 44
0.0000000001
 40
0.0
 40
0.0
 40
0.0
 40
0.0
 40
0.3203299236
 40
0.6109931301
 40
0.844375048
 40
0.9327672202
 40
1.0
 40
1.0
 40
1.0
 40
1.0
 10
1333.0103248823
 20
408.8534135849
 30
0.0
 10
1333.0350790841
 20
408.7024776962
 30
0.0
 10
1333.0821396388
 20
408.4145298276
 30
0.0
 10
1333.1535410708
 20
408.017799148
 30
0.0
 10
1333.2156263018
 20
407.7316664203
 30
0.0
 10
1333.2693286132
 20
407.5538277364
 30
0.0
 10
1333.2970245308
 20
407.4845543881
 30
0.0
 10
1333.3119734562
 20
407.4561448152
 30
0.0
  0
SPLINE
  5
630
100
AcDbEntity
  8
0
100
AcDbSpline
 62
7
  6
CONTINUOUS
 70
0
 71
3
 72
10
 73
6
 74
0
 42
0.0000001
 43
0.0000001
 44
0.0000000001
 40
0.0
 40
0.0
 40
0.0
 40
0.0
 40
0.1924515964
 40
0.4328510721
 40
1.0
 40
1.0
 40
1.0
 40
1.0
 10
1332.7737301375
 20
410.0648055165
 30
0.0
 10
1332.7967633164
 20
409.9890092732
 30
0.0
 10
1332.8390986426
 20
409.8157320987
 30
0.0
 10
1332.9192594687
 20
409.411987053
 30
0.0
 10
1332.97254112
 20
409.0837907034
 30
0.0
 10
1333.0103248823
 20
408.8534135849
 30
0.0
  0
SPLINE
  5
631
100
AcDbEntity
  8
0
100
AcDbSpline
 62
7
  6
CONTINUOUS
 70
0
 71
3
 72
10
 73
6
 74
0
 42
0.0000001
 43
0.0000001
 44
0.0000000001
 40
0.0
 40
0.0
 40
0.0
 40
0.0
 40
0.3474229303
 40
0.6253774241
 40
1.0
 40
1.0
 40
1.0
 40
1.0
 10
1332.7737304563
 20
410.0648054105
 30
0.0
 10
1332.7633873579
 20
410.088552355
 30
0.0
 10
1332.7428733868
 20
410.1309628562
 30
0.0
 10
1332.7039532245
 20
410.1928121152
 30
0.0
 10
1332.6623542771
 20
410.2293884681
 30
0.0
 10
1332.6345308138
 20
410.2318200849
 30
0.0
  0
SPLINE
  5
632
100
AcDbEntity
  8
0
100
AcDbSpline
 62
7
  6
CONTINUOUS
 70
0
 71
3
 72
11
 73
7
 74
0
 42
0.0000001
 43
0.0000001
 44
0.0000000001
 40
0.0
 40
0.0
 40
0.0
 40
0.0
 40
0.3039906174
 40
0.585601624
 40
0.8233917937
 40
1.0
 40
1.0
 40
1.0
 40
1.0
 10
1333.4643297599
 20
408.8244066788
 30
0.0
 10
1333.4421682785
 20
408.9607397605
 30
0.0
 10
1333.3995253434
 20
409.2233589803
 30
0.0
 10
1333.335276218
 20
409.5920142382
 30
0.0
 10
1333.2715740424
 20
409.9016595905
 30
0.0
 10
1333.2231182539
 20
410.0841689264
 30
0.0
 10
1333.1952190299
 20
410.1594073075
 30
0.0
  0
SPLINE
  5
633
100
AcDbEntity
  8
0
100
AcDbSpline
 62
7
  6
CONTINUOUS
 70
0
 71
3
 72
11
 73
7
 74
0
 42
0.0000001
 43
0.0000001
 44
0.0000000001
 40
0.0
 40
0.0
 40
0.0
 40
0.0
 40
0.3038455946
 40
0.5853866162
 40
0.8232403751
 40
1.0
 40
1.0
 40
1.0
 40
1.0
 10
1334.9643297597
 20
408.8244066788
 30
0.0
 10
1334.9421870259
 20
408.9606236371
 30
0.0
 10
1334.8995762261
 20
409.2230482891
 30
0.0
 10
1334.8353688939
 20
409.5914980286
 30
0.0
 10
1334.7717016014
 20
409.9010979822
 30
0.0
 10
1334.7232721381
 20
410.0836390749
 30
0.0
 10
1334.6953970666
 20
410.1589276802
 30
0.0
  0
SPLINE
  5
634
100
AcDbEntity
  8
0
100
AcDbSpline
 62
7
  6
CONTINUOUS
 70
0
 71
3
 72
11
 73
7
 74
0
 42
0.0000001
 43
0.0000001
 44
0.0000000001
 40
0.0
 40
0.0
 40
0.0
 40
0.0
 40
0.303884507
 40
0.5854414425
 40
0.8232677892
 40
1.0
 40
1.0
 40
1.0
 40
1.0
 10
1336.4643297598
 20
408.8244066788
 30
0.0
 10
1336.4421843838
 20
408.9606403209
 30
0.0
 10
1336.3995696053
 20
409.2230880317
 30
0.0
 10
1336.3353600229
 20
409.5915478469
 30
0.0
 10
1336.2716946276
 20
409.9011284535
 30
0.0
 10
1336.2232696108
 20
410.0836436036
 30
0.0
 10
1336.1953995658
 20
410.1589203074
 30
0.0
  0
SPLINE
  5
635
100
AcDbEntity
  8
0
100
AcDbSpline
 62
7
  6
CONTINUOUS
 70
0
 71
3
 72
11
 73
7
 74
0
 42
0.0000001
 43
0.0000001
 44
0.0000000001
 40
0.0
 40
0.0
 40
0.0
 40
0.0
 40
0.3039476119
 40
0.5855099657
 40
0.8233040821
 40
1.0
 40
1.0
 40
1.0
 40
1.0
 10
1337.9643297607
 20
408.824406679
 30
0.0
 10
1337.9421796851
 20
408.9606705304
 30
0.0
 10
1337.8995588412
 20
409.2231525063
 30
0.0
 10
1337.8353443276
 20
409.5916334774
 30
0.0
 10
1337.771680654
 20
409.9011896558
 30
0.0
 10
1337.7232593609
 20
410.0836763056
 30
0.0
 10
1337.6953925396
 20
410.1589378096
 30
0.0
  0
SPLINE
  5
636
100
AcDbEntity
  8
0
100
AcDbSpline
 62
7
  6
CONTINUOUS
 70
0
 71
3
 72
9
 73
5
 74
0
 42
0.0000001
 43
0.0000001
 44
0.0000000001
 40
0.0
 40
0.0
 40
0.0
 40
0.0
 40
0.2297714333
 40
1.0
 40
1.0
 40
1.0
 40
1.0
 10
1338.1071193835
 20
408.0000523197
 30
0.0
 10
1338.0946684371
 20
408.062911133
 30
0.0
 10
1338.043299728
 20
408.3370411708
 30
0.0
 10
1337.9987960848
 20
408.6123837177
 30
0.0
 10
1337.9643297607
 20
408.824406679
 30
0.0
  0
LINE
  5
637
100
AcDbEntity
  8
0
100
AcDbLine
 62
7
  6
CONTINUOUS
 10
1338.0037521354
 20
407.8492925741
 11
1338.0071327585
 21
407.8286390828
  0
SPLINE
  5
638
100
AcDbEntity
  8
0
100
AcDbSpline
 62
7
  6
CONTINUOUS
 70
0
 71
3
 72
8
 73
4
 74
0
 42
0.0000001
 43
0.0000001
 44
0.0000000001
 40
0.0
 40
0.0
 40
0.0
 40
0.0
 40
1.0
 40
1.0
 40
1.0
 40
1.0
 10
1343.0783909727
 20
410.2504141622
 30
0.0
 10
1343.0827820734
 20
410.2569919079
 30
0.0
 10
1343.0875060335
 20
410.26337825
 30
0.0
 10
1343.0927204009
 20
410.269324583
 30
0.0
  0
SPLINE
  5
639
100
AcDbEntity
  8
0
100
AcDbSpline
 62
7
  6
CONTINUOUS
 70
0
 71
3
 72
18
 73
14
 74
0
 42
0.0000001
 43
0.0000001
 44
0.0000000001
 40
0.0
 40
0.0
 40
0.0
 40
0.0
 40
0.0214633504
 40
0.0383160077
 40
0.0570996692
 40
0.0828640868
 40
0.1175429349
 40
0.1616221212
 40
0.277273572
 40
0.4260511468
 40
0.6015723115
 40
0.7958654793
 40
1.0
 40
1.0
 40
1.0
 40
1.0
 10
1343.0927204009
 20
410.269324583
 30
0.0
 10
1343.1001053382
 20
410.2777461791
 30
0.0
 10
1343.1150614206
 20
410.2921088066
 30
0.0
 10
1343.1466612972
 20
410.2976033559
 30
0.0
 10
1343.1754946421
 20
410.2797373283
 30
0.0
 10
1343.2008074164
 20
410.2468778334
 30
0.0
 10
1343.2263192868
 20
410.1984038976
 30
0.0
 10
1343.2637054261
 20
410.1040090886
 30
0.0
 10
1343.3077080429
 20
409.9488258184
 30
0.0
 10
1343.3579390479
 20
409.7248024987
 30
0.0
 10
1343.4085251685
 20
409.4588879035
 30
0.0
 10
1343.459407375
 20
409.1637209074
 30
0.0
 10
1343.4930826462
 20
408.9585391319
 30
0.0
 10
1343.5103248819
 20
408.8534135848
 30
0.0
  0
SPLINE
  5
63A
100
AcDbEntity
  8
0
100
AcDbSpline
 62
7
  6
CONTINUOUS
 70
0
 71
3
 72
15
 73
11
 74
0
 42
0.0000001
 43
0.0000001
 44
0.0000000001
 40
0.0
 40
0.0
 40
0.0
 40
0.0
 40
0.0369815668
 40
0.0648818288
 40
0.1002940258
 40
0.1940081052
 40
0.3165723633
 40
0.4640871052
 40
0.6313371839
 40
1.0
 40
1.0
 40
1.0
 40
1.0
 10
1343.0477481553
 20
410.2393180793
 30
0.0
 10
1343.0658827426
 20
410.2389134941
 30
0.0
 10
1343.0942826071
 20
410.2157196705
 30
0.0
 10
1343.1203694139
 20
410.1752036165
 30
0.0
 10
1343.1545857451
 20
410.1055150082
 30
0.0
 10
1343.1938237212
 20
409.9884249455
 30
0.0
 10
1343.2390617283
 20
409.8156847071
 30
0.0
 10
1343.284418631
 20
409.6060081166
 30
0.0
 10
1343.347436617
 20
409.2767468851
 30
0.0
 10
1343.3914332998
 20
409.0175815886
 30
0.0
 10
1343.4218291743
 20
408.8393290555
 30
0.0
  0
SPLINE
  5
63B
100
AcDbEntity
  8
0
100
AcDbSpline
 62
7
  6
CONTINUOUS
 70
0
 71
3
 72
9
 73
5
 74
0
 42
0.0000001
 43
0.0000001
 44
0.0000000001
 40
0.0
 40
0.0
 40
0.0
 40
0.0
 40
0.3603924183
 40
1.0
 40
1.0
 40
1.0
 40
1.0
 10
1332.2641616154
 20
407.23942712
 30
0.0
 10
1332.2819644738
 20
407.2419455118
 30
0.0
 10
1332.3197959503
 20
407.2842223519
 30
0.0
 10
1332.3372785461
 20
407.3289380709
 30
0.0
 10
1332.3484449871
 20
407.358830782
 30
0.0
  0
SPLINE
  5
63C
100
AcDbEntity
  8
0
100
AcDbSpline
 62
7
  6
CONTINUOUS
 70
0
 71
3
 72
19
 73
15
 74
0
 42
0.0000001
 43
0.0000001
 44
0.0000000001
 40
0.0
 40
0.0
 40
0.0
 40
0.0
 40
0.0436412845
 40
0.0610520965
 40
0.0840027744
 40
0.1157967979
 40
0.1573963583
 40
0.2088681721
 40
0.2698691299
 40
0.3397978028
 40
0.4178905033
 40
0.5947696966
 40
0.7919847688
 40
1.0
 40
1.0
 40
1.0
 40
1.0
 10
1341.5789705608
 20
410.2512815438
 30
0.0
 10
1341.5918733477
 20
410.2704204357
 30
0.0
 10
1341.6176620012
 20
410.301645874
 30
0.0
 10
1341.6643280761
 20
410.2898432243
 30
0.0
 10
1341.6910228564
 20
410.2612745206
 30
0.0
 10
1341.717328853
 20
410.2176110928
 30
0.0
 10
1341.7435244706
 20
410.1567722773
 30
0.0
 10
1341.7699546031
 20
410.0796740652
 30
0.0
 10
1341.7964771104
 20
409.9868755993
 30
0.0
 10
1341.8231025513
 20
409.8795654434
 30
0.0
 10
1341.8602235328
 20
409.7117665886
 30
0.0
 10
1341.9053400135
 20
409.4768619848
 30
0.0
 10
1341.9578066097
 20
409.1734823442
 30
0.0
 10
1341.9925177734
 20
408.9619828372
 30
0.0
 10
1342.010324886
 20
408.8534135855
 30
0.0
  0
SPLINE
  5
63D
100
AcDbEntity
  8
0
100
AcDbSpline
 62
7
  6
CONTINUOUS
 70
0
 71
3
 72
9
 73
5
 74
0
 42
0.0000001
 43
0.0000001
 44
0.0000000001
 40
0.0
 40
0.0
 40
0.0
 40
0.0
 40
0.2605977718
 40
1.0
 40
1.0
 40
1.0
 40
1.0
 10
1330.3533484262
 20
408.4818400068
 30
0.0
 10
1330.3574640622
 20
408.4742804763
 30
0.0
 10
1330.3733212863
 20
408.445307648
 30
0.0
 10
1330.3895264289
 20
408.4165205292
 30
0.0
 10
1330.4019103683
 20
408.3954716512
 30
0.0
  0
SPLINE
  5
63E
100
AcDbEntity
  8
0
100
AcDbSpline
 62
7
  6
CONTINUOUS
 70
0
 71
3
 72
15
 73
11
 74
0
 42
0.0000001
 43
0.0000001
 44
0.0000000001
 40
0.0
 40
0.0
 40
0.0
 40
0.0
 40
0.0368484822
 40
0.0646563455
 40
0.0999830617
 40
0.1935804308
 40
0.316105689
 40
0.4636496694
 40
0.6309622063
 40
1.0
 40
1.0
 40
1.0
 40
1.0
 10
1341.5473008406
 20
410.2393245775
 30
0.0
 10
1341.5653784991
 20
410.2391081252
 30
0.0
 10
1341.5939214933
 20
410.2161842843
 30
0.0
 10
1341.6200103654
 20
410.1758279203
 30
0.0
 10
1341.6542933539
 20
410.1063094645
 30
0.0
 10
1341.6935627911
 20
409.9893101124
 30
0.0
 10
1341.7388525999
 20
409.8165976801
 30
0.0
 10
1341.7842520072
 20
409.6068400851
 30
0.0
 10
1341.8473502891
 20
409.2772646269
 30
0.0
 10
1341.8913941264
 20
409.0178136158
 30
0.0
 10
1341.9218291743
 20
408.8393290555
 30
0.0
  0
SPLINE
  5
63F
100
AcDbEntity
  8
0
100
AcDbSpline
 62
7
  6
CONTINUOUS
 70
0
 71
3
 72
9
 73
5
 74
0
 42
0.0000001
 43
0.0000001
 44
0.0000000001
 40
0.0
 40
0.0
 40
0.0
 40
0.0
 40
0.2046223113
 40
1.0
 40
1.0
 40
1.0
 40
1.0
 10
1332.3192372993
 20
407.3863690459
 30
0.0
 10
1332.3255676091
 20
407.3916601701
 30
0.0
 10
1332.3542808227
 20
407.4201731752
 30
0.0
 10
1332.3754187289
 20
407.4552695378
 30
0.0
 10
1332.3904677011
 20
407.4835890065
 30
0.0
  0
SPLINE
  5
640
100
AcDbEntity
  8
0
100
AcDbSpline
 62
7
  6
CONTINUOUS
 70
0
 71
3
 72
18
 73
14
 74
0
 42
0.0000001
 43
0.0000001
 44
0.0000000001
 40
0.0
 40
0.0
 40
0.0
 40
0.0
 40
0.023843803
 40
0.041581511
 40
0.0825718927
 40
0.1156728896
 40
0.1584192489
 40
0.2108022772
 40
0.2724477464
 40
0.420963006
 40
0.5974380403
 40
0.7935666256
 40
1.0
 40
1.0
 40
1.0
 40
1.0
 10
1340.0850163146
 20
410.2597956909
 30
0.0
 10
1340.0925333352
 20
410.2698164578
 30
0.0
 10
1340.1069033398
 20
410.286724121
 30
0.0
 10
1340.1510675591
 20
410.3030904125
 30
0.0
 10
1340.1925676233
 20
410.2617266805
 30
0.0
 10
1340.2207607452
 20
410.2097933434
 30
0.0
 10
1340.247339637
 20
410.1469222341
 30
0.0
 10
1340.2731806774
 20
410.0689608243
 30
0.0
 10
1340.3105430679
 20
409.9360233735
 30
0.0
 10
1340.3552298613
 20
409.7378428452
 30
0.0
 10
1340.4067782264
 20
409.4689213953
 30
0.0
 10
1340.4585096736
 20
409.1691391201
 30
0.0
 10
1340.4927713084
 20
408.9604375736
 30
0.0
 10
1340.5103248858
 20
408.8534135855
 30
0.0
  0
SPLINE
  5
641
100
AcDbEntity
  8
0
100
AcDbSpline
 62
7
  6
CONTINUOUS
 70
0
 71
3
 72
15
 73
11
 74
0
 42
0.0000001
 43
0.0000001
 44
0.0000000001
 40
0.0
 40
0.0
 40
0.0
 40
0.0
 40
0.0368546846
 40
0.0646681219
 40
0.1000004157
 40
0.1936088159
 40
0.3161439889
 40
0.4637014996
 40
0.631052001
 40
1.0
 40
1.0
 40
1.0
 40
1.0
 10
1340.0473143338
 20
410.2393260846
 30
0.0
 10
1340.0653948779
 20
410.2391085885
 30
0.0
 10
1340.0939349685
 20
410.21616688
 30
0.0
 10
1340.1200241881
 20
410.1758037206
 30
0.0
 10
1340.1543072627
 20
410.1062728447
 30
0.0
 10
1340.1935766737
 20
409.9892616559
 30
0.0
 10
1340.2388673852
 20
409.8165331289
 30
0.0
 10
1340.2842706713
 20
409.6067474384
 30
0.0
 10
1340.347362096
 20
409.2771924904
 30
0.0
 10
1340.391401394
 20
409.0177686897
 30
0.0
 10
1340.4218291743
 20
408.8393290555
 30
0.0
  0
SPLINE
  5
642
100
AcDbEntity
  8
0
100
AcDbSpline
 62
7
  6
CONTINUOUS
 70
0
 71
3
 72
9
 73
5
 74
0
 42
0.0000001
 43
0.0000001
 44
0.0000000001
 40
0.0
 40
0.0
 40
0.0
 40
0.0
 40
0.2674731959
 40
1.0
 40
1.0
 40
1.0
 40
1.0
 10
1338.5784995596
 20
410.250575226
 30
0.0
 10
1338.5797468092
 20
410.2524403089
 30
0.0
 10
1338.5845092227
 20
410.2593448117
 30
0.0
 10
1338.5896937503
 20
410.2659696201
 30
0.0
 10
1338.5937999048
 20
410.2705410459
 30
0.0
  0
SPLINE
  5
643
100
AcDbEntity
  8
0
100
AcDbSpline
 62
7
  6
CONTINUOUS
 70
0
 71
3
 72
17
 73
13
 74
0
 42
0.0000001
 43
0.0000001
 44
0.0000000001
 40
0.0
 40
0.0
 40
0.0
 40
0.0
 40
0.0211692778
 40
0.0379514371
 40
0.056909289
 40
0.0829375323
 40
0.1620801132
 40
0.2780461769
 40
0.4268863431
 40
0.6022463038
 40
0.7962401349
 40
1.0
 40
1.0
 40
1.0
 40
1.0
 10
1338.5937999048
 20
410.2705410459
 30
0.0
 10
1338.6011736735
 20
410.2787503418
 30
0.0
 10
1338.6162394342
 20
410.2927693225
 30
0.0
 10
1338.6478438739
 20
410.2972946901
 30
0.0
 10
1338.6764003928
 20
410.2788181511
 30
0.0
 10
1338.7154896347
 20
410.2270114675
 30
0.0
 10
1338.7590809267
 20
410.1187619713
 30
0.0
 10
1338.8084139633
 20
409.946783616
 30
0.0
 10
1338.8583230005
 20
409.7225468095
 30
0.0
 10
1338.9088358622
 20
409.4572525755
 30
0.0
 10
1338.9595490063
 20
409.1628147056
 30
0.0
 10
1338.9931348628
 20
408.9582253477
 30
0.0
 10
1339.0103248828
 20
408.8534135849
 30
0.0
  0
SPLINE
  5
644
100
AcDbEntity
  8
0
100
AcDbSpline
 62
7
  6
CONTINUOUS
 70
0
 71
3
 72
15
 73
11
 74
0
 42
0.0000001
 43
0.0000001
 44
0.0000000001
 40
0.0
 40
0.0
 40
0.0
 40
0.0
 40
0.0368849253
 40
0.0647234489
 40
0.1000940241
 40
0.1937679541
 40
0.3163329015
 40
0.4638706297
 40
0.6311634032
 40
1.0
 40
1.0
 40
1.0
 40
1.0
 10
1338.5473133558
 20
410.2393243817
 30
0.0
 10
1338.565408809
 20
410.2391162553
 30
0.0
 10
1338.593965083
 20
410.2161263434
 30
0.0
 10
1338.6200724819
 20
410.1757281745
 30
0.0
 10
1338.6543603036
 20
410.1061256159
 30
0.0
 10
1338.6936407361
 20
409.9890528961
 30
0.0
 10
1338.7389253301
 20
409.8162832928
 30
0.0
 10
1338.784316459
 20
409.6065201142
 30
0.0
 10
1338.8473852347
 20
409.2770557008
 30
0.0
 10
1338.8914104133
 20
409.0177143852
 30
0.0
 10
1338.9218291743
 20
408.8393290555
 30
0.0
  0
SPLINE
  5
645
100
AcDbEntity
  8
0
100
AcDbSpline
 62
7
  6
CONTINUOUS
 70
0
 71
3
 72
19
 73
15
 74
0
 42
0.0000001
 43
0.0000001
 44
0.0000000001
 40
0.0
 40
0.0
 40
0.0
 40
0.0
 40
0.0426274837
 40
0.0601687054
 40
0.0835177611
 40
0.115742506
 40
0.1577412132
 40
0.2095402529
 40
0.2707885567
 40
0.3408742751
 40
0.4190258263
 40
0.5957801457
 40
0.7926251848
 40
1.0
 40
1.0
 40
1.0
 40
1.0
 10
1337.0808438297
 20
410.2540088868
 30
0.0
 10
1337.0936952353
 20
410.2724748505
 30
0.0
 10
1337.1202879249
 20
410.3024303155
 30
0.0
 10
1337.1659903409
 20
410.2885958167
 30
0.0
 10
1337.1923648576
 20
410.2593878735
 30
0.0
 10
1337.2186175467
 20
410.215013293
 30
0.0
 10
1337.2446988203
 20
410.15364255
 30
0.0
 10
1337.271042709
 20
410.0761492232
 30
0.0
 10
1337.29746029
 20
409.9831366515
 30
0.0
 10
1337.3239775128
 20
409.8757900658
 30
0.0
 10
1337.3609225649
 20
409.7082786995
 30
0.0
 10
1337.4058330511
 20
409.4740883475
 30
0.0
 10
1337.458059051
 20
409.1719407632
 30
0.0
 10
1337.4926110902
 20
408.9614181787
 30
0.0
 10
1337.5103248839
 20
408.8534135852
 30
0.0
  0
SPLINE
  5
646
100
AcDbEntity
  8
0
100
AcDbSpline
 62
7
  6
CONTINUOUS
 70
0
 71
3
 72
15
 73
11
 74
0
 42
0.0000001
 43
0.0000001
 44
0.0000000001
 40
0.0
 40
0.0
 40
0.0
 40
0.0
 40
0.0368682643
 40
0.0646888968
 40
0.1000498611
 40
0.1937159302
 40
0.3163045438
 40
0.4638715936
 40
0.6311802953
 40
1.0
 40
1.0
 40
1.0
 40
1.0
 10
1337.0472983862
 20
410.2393188436
 30
0.0
 10
1337.0653858269
 20
410.2391135463
 30
0.0
 10
1337.0939364022
 20
410.2161527734
 30
0.0
 10
1337.1200478275
 20
410.1757793226
 30
0.0
 10
1337.1543288409
 20
410.1061925665
 30
0.0
 10
1337.1936227562
 20
409.9891204192
 30
0.0
 10
1337.2389145053
 20
409.8163280249
 30
0.0
 10
1337.2843147169
 20
409.6065307768
 30
0.0
 10
1337.3473858849
 20
409.2770501241
 30
0.0
 10
1337.3914116602
 20
409.0177075099
 30
0.0
 10
1337.4218291743
 20
408.8393290555
 30
0.0
  0
SPLINE
  5
647
100
AcDbEntity
  8
0
100
AcDbSpline
 62
7
  6
CONTINUOUS
 70
0
 71
3
 72
12
 73
8
 74
0
 42
0.0000001
 43
0.0000001
 44
0.0000000001
 40
0.0
 40
0.0
 40
0.0
 40
0.0
 40
0.0723989902
 40
0.1641768885
 40
0.3990849046
 40
0.6858949301
 40
1.0
 40
1.0
 40
1.0
 40
1.0
 10
1332.6345308166
 20
410.1459174171
 30
0.0
 10
1332.6484015673
 20
410.116702649
 30
0.0
 10
1332.6745562298
 20
410.0479901482
 30
0.0
 10
1332.7253881648
 20
409.8770772812
 30
0.0
 10
1332.7848387583
 20
409.6092923843
 30
0.0
 10
1332.8531876113
 20
409.2422792896
 30
0.0
 10
1332.8982436177
 20
408.977642196
 30
0.0
 10
1332.9218291743
 20
408.8393290555
 30
0.0
  0
SPLINE
  5
648
100
AcDbEntity
  8
0
100
AcDbSpline
 62
7
  6
CONTINUOUS
 70
0
 71
3
 72
9
 73
5
 74
0
 42
0.0000001
 43
0.0000001
 44
0.0000000001
 40
0.0
 40
0.0
 40
0.0
 40
0.0
 40
0.275660403
 40
1.0
 40
1.0
 40
1.0
 40
1.0
 10
1335.5651759275
 20
410.2284665672
 30
0.0
 10
1335.5671097007
 20
410.2319908948
 30
0.0
 10
1335.5743338911
 20
410.2446538016
 30
0.0
 10
1335.5824534896
 20
410.2568514423
 30
0.0
 10
1335.589114642
 20
410.2650495619
 30
0.0
  0
SPLINE
  5
649
100
AcDbEntity
  8
0
100
AcDbSpline
 62
7
  6
CONTINUOUS
 70
0
 71
3
 72
18
 73
14
 74
0
 42
0.0000001
 43
0.0000001
 44
0.0000000001
 40
0.0
 40
0.0
 40
0.0
 40
0.0
 40
0.0225686488
 40
0.0397926201
 40
0.0822832353
 40
0.1162919504
 40
0.1598203943
 40
0.212808422
 40
0.2748617358
 40
0.423597667
 40
0.5995947378
 40
0.794769193
 40
1.0
 40
1.0
 40
1.0
 40
1.0
 10
1335.589114642
 20
410.2650495619
 30
0.0
 10
1335.5965613418
 20
410.2742144827
 30
0.0
 10
1335.6111716612
 20
410.2898864686
 30
0.0
 10
1335.6563613833
 20
410.3013254535
 30
0.0
 10
1335.6951654373
 20
410.2572886619
 30
0.0
 10
1335.7236577971
 20
410.2039176913
 30
0.0
 10
1335.749841997
 20
410.1398807291
 30
0.0
 10
1335.7755187277
 20
410.0612369306
 30
0.0
 10
1335.8124389352
 20
409.9280862583
 30
0.0
 10
1335.856703638
 20
409.7305829424
 30
0.0
 10
1335.9077628415
 20
409.4633414809
 30
0.0
 10
1335.9590047098
 20
409.1661256754
 30
0.0
 10
1335.9929449915
 20
408.9593831276
 30
0.0
 10
1336.0103248818
 20
408.8534135848
 30
0.0
  0
SPLINE
  5
64A
100
AcDbEntity
  8
0
100
AcDbSpline
 62
7
  6
CONTINUOUS
 70
0
 71
3
 72
15
 73
11
 74
0
 42
0.0000001
 43
0.0000001
 44
0.0000000001
 40
0.0
 40
0.0
 40
0.0
 40
0.0
 40
0.0368943471
 40
0.0647374852
 40
0.1001098817
 40
0.1937803864
 40
0.3163399665
 40
0.463871882
 40
0.6311614317
 40
1.0
 40
1.0
 40
1.0
 40
1.0
 10
1335.5473165819
 20
410.2393251283
 30
0.0
 10
1335.5654165945
 20
410.2391148694
 30
0.0
 10
1335.5939750597
 20
410.2161146252
 30
0.0
 10
1335.6200837348
 20
410.1757088834
 30
0.0
 10
1335.6543690421
 20
410.1061034943
 30
0.0
 10
1335.6936463717
 20
409.9890338928
 30
0.0
 10
1335.7389277582
 20
409.8162711847
 30
0.0
 10
1335.784317516
 20
409.6065154567
 30
0.0
 10
1335.8473852046
 20
409.2770550758
 30
0.0
 10
1335.8914103011
 20
409.0177149535
 30
0.0
 10
1335.9218291743
 20
408.8393290555
 30
0.0
  0
SPLINE
  5
64B
100
AcDbEntity
  8
0
100
AcDbSpline
 62
7
  6
CONTINUOUS
 70
0
 71
3
 72
15
 73
11
 74
0
 42
0.0000001
 43
0.0000001
 44
0.0000000001
 40
0.0
 40
0.0
 40
0.0
 40
0.0
 40
0.3693509328
 40
0.5368500929
 40
0.6844920613
 40
0.8070056638
 40
0.9004608631
 40
0.9356791378
 40
0.9633458416
 40
1.0
 40
1.0
 40
1.0
 40
1.0
 10
1332.9218291743
 20
408.8393290555
 30
0.0
 10
1332.9523036218
 20
408.6606161241
 30
0.0
 10
1332.9964061609
 20
408.4008110056
 30
0.0
 10
1333.0596069146
 20
408.0708092791
 30
0.0
 10
1333.105088106
 20
407.8608367164
 30
0.0
 10
1333.1504611682
 20
407.6880954534
 30
0.0
 10
1333.1898044611
 20
407.5711951005
 30
0.0
 10
1333.2241773826
 20
407.5018934111
 30
0.0
 10
1333.2502913847
 20
407.4617886017
 30
0.0
 10
1333.2790500742
 20
407.4392407634
 30
0.0
 10
1333.2970411913
 20
407.4393351572
 30
0.0
  0
SPLINE
  5
64C
100
AcDbEntity
  8
0
100
AcDbSpline
 62
7
  6
CONTINUOUS
 70
0
 71
3
 72
20
 73
16
 74
0
 42
0.0000001
 43
0.0000001
 44
0.0000000001
 40
0.0
 40
0.0
 40
0.0
 40
0.0
 40
0.0265595607
 40
0.0456872916
 40
0.0629867765
 40
0.0855431668
 40
0.116897344
 40
0.1581104546
 40
0.2092625856
 40
0.2700115612
 40
0.3397593703
 40
0.4177264092
 40
0.5945387125
 40
0.7918826099
 40
1.0
 40
1.0
 40
1.0
 40
1.0
 10
1334.07689471
 20
410.2481411599
 30
0.0
 10
1334.0845887563
 20
410.2599495596
 30
0.0
 10
1334.0991197871
 20
410.2794214656
 30
0.0
 10
1334.1294296708
 20
410.2981096017
 30
0.0
 10
1334.1625179612
 20
410.290990898
 30
0.0
 10
1334.189660161
 20
410.263210322
 30
0.0
 10
1334.2160411468
 20
410.2201558554
 30
0.0
 10
1334.2423822591
 20
410.1597954503
 30
0.0
 10
1334.2689253732
 20
410.0829878456
 30
0.0
 10
1334.2955736811
 20
409.990307936
 30
0.0
 10
1334.3223131743
 20
409.8829546126
 30
0.0
 10
1334.3596157298
 20
409.7148169824
 30
0.0
 10
1334.4049288731
 20
409.4791788043
 30
0.0
 10
1334.4576041542
 20
409.1747144528
 30
0.0
 10
1334.4924509495
 20
408.9623952261
 30
0.0
 10
1334.5103248821
 20
408.8534135848
 30
0.0
  0
SPLINE
  5
64D
100
AcDbEntity
  8
0
100
AcDbSpline
 62
7
  6
CONTINUOUS
 70
0
 71
3
 72
15
 73
11
 74
0
 42
0.0000001
 43
0.0000001
 44
0.0000000001
 40
0.0
 40
0.0
 40
0.0
 40
0.0
 40
0.0368830179
 40
0.0647163015
 40
0.1000914462
 40
0.1937706878
 40
0.3163422221
 40
0.463882942
 40
0.6311763423
 40
1.0
 40
1.0
 40
1.0
 40
1.0
 10
1334.0473046154
 20
410.2393202541
 30
0.0
 10
1334.0653992266
 20
410.2391153844
 30
0.0
 10
1334.0939549098
 20
410.2161305179
 30
0.0
 10
1334.1200713629
 20
410.1757394457
 30
0.0
 10
1334.1543525042
 20
410.1061300133
 30
0.0
 10
1334.1936429245
 20
409.989053108
 30
0.0
 10
1334.2389262476
 20
409.8162741782
 30
0.0
 10
1334.284319884
 20
409.6065060829
 30
0.0
 10
1334.3473866205
 20
409.2770447022
 30
0.0
 10
1334.3914113985
 20
409.0177086887
 30
0.0
 10
1334.4218291743
 20
408.8393290555
 30
0.0
  0
SPLINE
  5
64E
100
AcDbEntity
  8
0
100
AcDbSpline
 62
7
  6
CONTINUOUS
 70
0
 71
3
 72
15
 73
11
 74
0
 42
0.0000001
 43
0.0000001
 44
0.0000000001
 40
0.0
 40
0.0
 40
0.0
 40
0.0
 40
0.3691936475
 40
0.536646011
 40
0.6842644157
 40
0.8067925784
 40
0.900304055
 40
0.9355586814
 40
0.9632782966
 40
1.0
 40
1.0
 40
1.0
 40
1.0
 10
1334.4218291743
 20
408.8393290555
 30
0.0
 10
1334.4522865262
 20
408.6607158349
 30
0.0
 10
1334.4963668656
 20
408.4010439284
 30
0.0
 10
1334.559530768
 20
408.0711941819
 30
0.0
 10
1334.6049872568
 20
407.8612735038
 30
0.0
 10
1334.6503377866
 20
407.6885269547
 30
0.0
 10
1334.6896528537
 20
407.5715802337
 30
0.0
 10
1334.7240070937
 20
407.5022018756
 30
0.0
 10
1334.7501085363
 20
407.4620076735
 30
0.0
 10
1334.778806884
 20
407.4393267178
 30
0.0
 10
1334.796829019
 20
407.4393291666
 30
0.0
  0
SPLINE
  5
64F
100
AcDbEntity
  8
0
100
AcDbSpline
 62
7
  6
CONTINUOUS
 70
0
 71
3
 72
8
 73
4
 74
0
 42
0.0000001
 43
0.0000001
 44
0.0000000001
 40
0.0
 40
0.0
 40
0.0
 40
0.0
 40
1.0
 40
1.0
 40
1.0
 40
1.0
 10
1352.6345308138
 20
794.1935777445
 30
0.0
 10
1352.634530814
 20
795.136386786
 30
0.0
 10
1353.163126293
 20
796.0228324746
 30
0.0
 10
1353.6345308138
 20
796.8393290555
 30
0.0
  0
SPLINE
  5
650
100
AcDbEntity
  8
0
100
AcDbSpline
 62
7
  6
CONTINUOUS
 70
0
 71
3
 72
8
 73
4
 74
0
 42
0.0000001
 43
0.0000001
 44
0.0000000001
 40
0.0
 40
0.0
 40
0.0
 40
0.0
 40
1.0
 40
1.0
 40
1.0
 40
1.0
 10
1362.6345308138
 20
796.8393290555
 30
0.0
 10
1363.1059353346
 20
796.0228324746
 30
0.0
 10
1363.6345308138
 20
795.136386786
 30
0.0
 10
1363.6345308138
 20
794.1935777445
 30
0.0
  0
SPLINE
  5
651
100
AcDbEntity
  8
0
100
AcDbSpline
 62
7
  6
CONTINUOUS
 70
0
 71
3
 72
8
 73
4
 74
0
 42
0.0000001
 43
0.0000001
 44
0.0000000001
 40
0.0
 40
0.0
 40
0.0
 40
0.0
 40
1.0
 40
1.0
 40
1.0
 40
1.0
 10
1029.8919264113
 20
856.8393290555
 30
0.0
 10
1029.523077504
 20
856.8393295095
 30
0.0
 10
1029.1539497987
 20
856.846376988
 30
0.0
 10
1028.7857637275
 20
856.8684797793
 30
0.0
  0
SPLINE
  5
652
100
AcDbEntity
  8
0
100
AcDbSpline
 62
7
  6
CONTINUOUS
 70
0
 71
3
 72
8
 73
4
 74
0
 42
0.0000001
 43
0.0000001
 44
0.0000000001
 40
0.0
 40
0.0
 40
0.0
 40
0.0
 40
1.0
 40
1.0
 40
1.0
 40
1.0
 10
1028.5923111636
 20
856.8815484886
 30
0.0
 10
1028.6189322829
 20
856.5281941541
 30
0.0
 10
1028.6301743678
 20
856.17361864
 30
0.0
 10
1028.6334640518
 20
855.8192781997
 30
0.0
  0
SPLINE
  5
653
100
AcDbEntity
  8
0
100
AcDbSpline
 62
7
  6
CONTINUOUS
 70
0
 71
3
 72
9
 73
5
 74
0
 42
0.0000001
 43
0.0000001
 44
0.0000000001
 40
0.0
 40
0.0
 40
0.0
 40
0.0
 40
0.3486484888
 40
1.0
 40
1.0
 40
1.0
 40
1.0
 10
1198.6345308138
 20
856.8501123046
 30
0.0
 10
1198.6345308138
 20
856.7504288759
 30
0.0
 10
1198.5255143409
 20
856.4764525274
 30
0.0
 10
1198.4311269691
 20
856.211009974
 30
0.0
 10
1198.3721125264
 20
856.0343774115
 30
0.0
  0
SPLINE
  5
654
100
AcDbEntity
  8
0
100
AcDbSpline
 62
7
  6
CONTINUOUS
 70
0
 71
3
 72
8
 73
4
 74
0
 42
0.0000001
 43
0.0000001
 44
0.0000000001
 40
0.0
 40
0.0
 40
0.0
 40
0.0
 40
1.0
 40
1.0
 40
1.0
 40
1.0
 10
1028.6345308138
 20
777.6825293678
 30
0.0
 10
1028.6345280947
 20
777.4039575688
 30
0.0
 10
1028.6265292384
 20
777.1246436038
 30
0.0
 10
1028.5967447577
 20
776.8476686375
 30
0.0
  0
SPLINE
  5
655
100
AcDbEntity
  8
0
100
AcDbSpline
 62
7
  6
CONTINUOUS
 70
0
 71
3
 72
9
 73
5
 74
0
 42
0.0000001
 43
0.0000001
 44
0.0000000001
 40
0.0
 40
0.0
 40
0.0
 40
0.0
 40
0.4973630208
 40
1.0
 40
1.0
 40
1.0
 40
1.0
 10
1321.5627340441
 20
776.8393290555
 30
0.0
 10
1320.2102791331
 20
776.8393290555
 30
0.0
 10
1317.5070407347
 20
775.7446658075
 30
0.0
 10
1315.6010016244
 20
773.8057998661
 30
0.0
 10
1314.6345308138
 20
772.8393290555
 30
0.0
  0
SPLINE
  5
656
100
AcDbEntity
  8
0
100
AcDbSpline
 62
7
  6
CONTINUOUS
 70
0
 71
3
 72
9
 73
5
 74
0
 42
0.0000001
 43
0.0000001
 44
0.0000000001
 40
0.0
 40
0.0
 40
0.0
 40
0.0
 40
0.1987296282
 40
1.0
 40
1.0
 40
1.0
 40
1.0
 10
1198.6345308138
 20
857.182474806
 30
0.0
 10
1198.6345308138
 20
857.2232972533
 30
0.0
 10
1198.6602887431
 20
857.4284806219
 30
0.0
 10
1198.7467438221
 20
857.6194681413
 30
0.0
 10
1198.8202033871
 20
857.7667605868
 30
0.0
  0
SPLINE
  5
657
100
AcDbEntity
  8
0
100
AcDbSpline
 62
7
  6
CONTINUOUS
 70
0
 71
3
 72
10
 73
6
 74
0
 42
0.0000001
 43
0.0000001
 44
0.0000000001
 40
0.0
 40
0.0
 40
0.0
 40
0.0
 40
0.1993521087
 40
0.4468821455
 40
1.0
 40
1.0
 40
1.0
 40
1.0
 10
1198.8202033871
 20
857.7667605868
 30
0.0
 10
1199.0086249648
 20
858.1445612853
 30
0.0
 10
1199.5411335926
 20
858.9326177723
 30
0.0
 10
1200.8157835547
 20
860.6213052878
 30
0.0
 10
1201.8936904701
 20
861.931988644
 30
0.0
 10
1202.6345308138
 20
862.8393290555
 30
0.0
  0
SPLINE
  5
658
100
AcDbEntity
  8
0
100
AcDbSpline
 62
7
  6
CONTINUOUS
 70
0
 71
3
 72
8
 73
4
 74
0
 42
0.0000001
 43
0.0000001
 44
0.0000000001
 40
0.0
 40
0.0
 40
0.0
 40
0.0
 40
1.0
 40
1.0
 40
1.0
 40
1.0
 10
879.0838850339
 20
763.9716508056
 30
0.0
 10
879.5039176546
 20
765.2890590062
 30
0.0
 10
879.9799130495
 20
766.590545785
 30
0.0
 10
880.5214753017
 20
767.8628280242
 30
0.0
  0
SPLINE
  5
659
100
AcDbEntity
  8
0
100
AcDbSpline
 62
7
  6
CONTINUOUS
 70
0
 71
3
 72
8
 73
4
 74
0
 42
0.0000001
 43
0.0000001
 44
0.0000000001
 40
0.0
 40
0.0
 40
0.0
 40
0.0
 40
1.0
 40
1.0
 40
1.0
 40
1.0
 10
880.521475983
 20
331.8158277764
 30
0.0
 10
879.9799123401
 20
333.0881102944
 30
0.0
 10
879.503919263
 20
334.3895987768
 30
0.0
 10
879.0838850339
 20
335.7070073054
 30
0.0
  0
LINE
  5
65A
100
AcDbEntity
  8
0
100
AcDbLine
 62
7
  6
CONTINUOUS
 10
1198.6345308138
 20
776.8393290555
 11
1202.6345308138
 21
772.8393290555
  0
SPLINE
  5
65B
100
AcDbEntity
  8
0
100
AcDbSpline
 62
7
  6
CONTINUOUS
 70
0
 71
3
 72
9
 73
5
 74
0
 42
0.0000001
 43
0.0000001
 44
0.0000000001
 40
0.0
 40
0.0
 40
0.0
 40
0.0
 40
0.2456634213
 40
1.0
 40
1.0
 40
1.0
 40
1.0
 10
1053.1198121881
 20
836.5966883684
 30
0.0
 10
1052.6764124082
 20
836.3749884785
 30
0.0
 10
1050.9613112641
 20
835.306108362
 30
0.0
 10
1049.5579254185
 20
833.7155555163
 30
0.0
 10
1048.8771715009
 20
832.3540476813
 30
0.0
  0
SPLINE
  5
65C
100
AcDbEntity
  8
0
100
AcDbSpline
 62
7
  6
CONTINUOUS
 70
0
 71
3
 72
9
 73
5
 74
0
 42
0.0000001
 43
0.0000001
 44
0.0000000001
 40
0.0
 40
0.0
 40
0.0
 40
0.0
 40
0.2740601092
 40
1.0
 40
1.0
 40
1.0
 40
1.0
 10
1053.1198121881
 20
798.853816519
 30
0.0
 10
1052.7209789456
 20
798.8882659718
 30
0.0
 10
1051.2731290622
 20
799.0909871088
 30
0.0
 10
1049.8568319976
 20
799.5046082031
 30
0.0
 10
1048.8771715009
 20
799.9103968674
 30
0.0
  0
SPLINE
  5
65D
100
AcDbEntity
  8
0
100
AcDbSpline
 62
7
  6
CONTINUOUS
 70
0
 71
3
 72
8
 73
4
 74
0
 42
0.0000001
 43
0.0000001
 44
0.0000000001
 40
0.0
 40
0.0
 40
0.0
 40
0.0
 40
1.0
 40
1.0
 40
1.0
 40
1.0
 10
1029.8180342329
 20
778.0228324746
 30
0.0
 10
1030.5482760144
 20
777.7792354034
 30
0.0
 10
1031.2937662219
 20
777.5754503832
 30
0.0
 10
1032.0487443762
 20
777.4251154931
 30
0.0
  0
SPLINE
  5
65E
100
AcDbEntity
  8
0
100
AcDbSpline
 62
7
  6
CONTINUOUS
 70
0
 71
3
 72
9
 73
5
 74
0
 42
0.0000001
 43
0.0000001
 44
0.0000000001
 40
0.0
 40
0.0
 40
0.0
 40
0.0
 40
0.223859862
 40
1.0
 40
1.0
 40
1.0
 40
1.0
 10
1174.1492494396
 20
836.5966883684
 30
0.0
 10
1174.3601957647
 20
836.3085303294
 30
0.0
 10
1175.2398682571
 20
834.9760656256
 30
0.0
 10
1175.9198176984
 20
833.5167652399
 30
0.0
 10
1176.3454018623
 20
832.3540476813
 30
0.0
  0
SPLINE
  5
65F
100
AcDbEntity
  8
0
100
AcDbSpline
 62
7
  6
CONTINUOUS
 70
0
 71
3
 72
9
 73
5
 74
0
 42
0.0000001
 43
0.0000001
 44
0.0000000001
 40
0.0
 40
0.0
 40
0.0
 40
0.0
 40
0.2556133161
 40
1.0
 40
1.0
 40
1.0
 40
1.0
 10
1196.8771715009
 20
850.8393290555
 30
0.0
 10
1197.0191880668
 20
851.2273255289
 30
0.0
 10
1197.5498526427
 20
852.754023937
 30
0.0
 10
1197.9818687965
 20
854.3166790493
 30
0.0
 10
1198.224045161
 20
855.4952738799
 30
0.0
  0
SPLINE
  5
660
100
AcDbEntity
  8
0
100
AcDbSpline
 62
7
  6
CONTINUOUS
 70
0
 71
3
 72
9
 73
5
 74
0
 42
0.0000001
 43
0.0000001
 44
0.0000000001
 40
0.0
 40
0.0
 40
0.0
 40
0.0
 40
0.2552963129
 40
1.0
 40
1.0
 40
1.0
 40
1.0
 10
1196.8771715009
 20
781.4251154931
 30
0.0
 10
1196.9879525165
 20
781.1576664629
 30
0.0
 10
1197.4072560934
 20
780.1041280895
 30
0.0
 10
1197.768925372
 20
779.0271569837
 30
0.0
 10
1197.9967804118
 20
778.2140473027
 30
0.0
  0
SPLINE
  5
661
100
AcDbEntity
  8
0
100
AcDbSpline
 62
7
  6
CONTINUOUS
 70
0
 71
3
 72
11
 73
7
 74
0
 42
0.0000001
 43
0.0000001
 44
0.0000000001
 40
0.0
 40
0.0
 40
0.0
 40
0.0
 40
0.4094928091
 40
0.7084268097
 40
0.9053970634
 40
1.0
 40
1.0
 40
1.0
 40
1.0
 10
1197.9967804118
 20
778.2140473027
 30
0.0
 10
1198.052103683
 20
778.016618458
 30
0.0
 10
1198.1861454899
 20
777.6863023551
 30
0.0
 10
1198.4144801521
 20
777.2905317901
 30
0.0
 10
1198.5527130834
 20
777.037178901
 30
0.0
 10
1198.6345308138
 20
776.9050298996
 30
0.0
 10
1198.6345308138
 20
776.8576620618
 30
0.0
  0
SPLINE
  5
662
100
AcDbEntity
  8
0
100
AcDbSpline
 62
7
  6
CONTINUOUS
 70
0
 71
3
 72
8
 73
4
 74
0
 42
0.0000001
 43
0.0000001
 44
0.0000000001
 40
0.0
 40
0.0
 40
0.0
 40
0.0
 40
1.0
 40
1.0
 40
1.0
 40
1.0
 10
1198.2975069127
 20
855.7937777218
 30
0.0
 10
1198.2694789733
 20
855.6952116537
 30
0.0
 10
1198.2446686448
 20
855.5956401291
 30
0.0
 10
1198.224043935
 20
855.4952635555
 30
0.0
  0
SPLINE
  5
663
100
AcDbEntity
  8
0
100
AcDbSpline
 62
7
  6
CONTINUOUS
 70
0
 71
3
 72
8
 73
4
 74
0
 42
0.0000001
 43
0.0000001
 44
0.0000000001
 40
0.0
 40
0.0
 40
0.0
 40
0.0
 40
1.0
 40
1.0
 40
1.0
 40
1.0
 10
1195.2203172514
 20
777.4251154931
 30
0.0
 10
1195.653407152
 20
777.5115076029
 30
0.0
 10
1196.08305219
 20
777.6163062402
 30
0.0
 10
1196.5084916453
 20
777.7347618373
 30
0.0
  0
SPLINE
  5
664
100
AcDbEntity
  8
0
100
AcDbSpline
 62
7
  6
CONTINUOUS
 70
0
 71
3
 72
9
 73
5
 74
0
 42
0.0000001
 43
0.0000001
 44
0.0000000001
 40
0.0
 40
0.0
 40
0.0
 40
0.0
 40
0.4437349719
 40
1.0
 40
1.0
 40
1.0
 40
1.0
 10
859.2667719945
 20
354.889306406
 30
0.0
 10
858.8221379255
 20
355.4205064
 30
0.0
 10
858.3689651932
 20
357.0693033659
 30
0.0
 10
858.883284892
 20
358.6031781273
 30
0.0
 10
859.2667719945
 20
359.3823193437
 30
0.0
  0
SPLINE
  5
665
100
AcDbEntity
  8
0
100
AcDbSpline
 62
7
  6
CONTINUOUS
 70
0
 71
3
 72
9
 73
5
 74
0
 42
0.0000001
 43
0.0000001
 44
0.0000000001
 40
0.0
 40
0.0
 40
0.0
 40
0.0
 40
0.5562656159
 40
1.0
 40
1.0
 40
1.0
 40
1.0
 10
859.2667719945
 20
740.2963387674
 30
0.0
 10
858.8832844823
 20
741.0754808162
 30
0.0
 10
858.3689649338
 20
742.6093559967
 30
0.0
 10
858.8221385093
 20
744.2581524085
 30
0.0
 10
859.2667719945
 20
744.789351705
 30
0.0
  0
LINE
  5
666
100
AcDbEntity
  8
0
100
AcDbLine
 62
7
  6
CONTINUOUS
 10
1029.818032025
 20
778.0228302665
 11
1028.959205301
 21
777.1640032056
  0
LINE
  5
667
100
AcDbEntity
  8
0
100
AcDbLine
 62
7
  6
CONTINUOUS
 10
1028.959205301
 20
777.1640032056
 11
1028.8622536739
 21
777.0670544281
  0
SPLINE
  5
668
100
AcDbEntity
  8
0
100
AcDbSpline
 62
7
  6
CONTINUOUS
 70
0
 71
3
 72
8
 73
4
 74
0
 42
0.0000001
 43
0.0000001
 44
0.0000000001
 40
0.0
 40
0.0
 40
0.0
 40
0.0
 40
1.0
 40
1.0
 40
1.0
 40
1.0
 10
1028.8622536739
 20
777.0670544281
 30
0.0
 10
1028.7584622639
 20
777.198847254
 30
0.0
 10
1028.6791342985
 20
777.3578937216
 30
0.0
 10
1028.6490507774
 20
777.5229300434
 30
0.0
  0
LINE
  5
669
100
AcDbEntity
  8
0
100
AcDbLine
 62
7
  6
CONTINUOUS
 10
1029.8180329957
 20
855.6558268737
 11
1029.2600990602
 21
856.2137767487
  0
LINE
  5
66A
100
AcDbEntity
  8
0
100
AcDbLine
 62
7
  6
CONTINUOUS
 10
1029.2600990602
 20
856.2137767487
 11
1029.175560009
 21
856.298299836
  0
SPLINE
  5
66B
100
AcDbEntity
  8
0
100
AcDbSpline
 62
7
  6
CONTINUOUS
 70
0
 71
3
 72
9
 73
5
 74
0
 42
0.0000001
 43
0.0000001
 44
0.0000000001
 40
0.0
 40
0.0
 40
0.0
 40
0.0
 40
0.2215109957
 40
1.0
 40
1.0
 40
1.0
 40
1.0
 10
1028.6345308138
 20
855.5819334581
 30
0.0
 10
1028.6345308138
 20
855.6386626189
 30
0.0
 10
1028.6760003324
 20
855.8962017128
 30
0.0
 10
1028.8751929806
 20
856.0996900162
 30
0.0
 10
1029.0389984117
 20
856.2133423941
 30
0.0
  0
SPLINE
  5
66C
100
AcDbEntity
  8
0
100
AcDbSpline
 62
7
  6
CONTINUOUS
 70
0
 71
3
 72
8
 73
4
 74
0
 42
0.0000001
 43
0.0000001
 44
0.0000000001
 40
0.0
 40
0.0
 40
0.0
 40
0.0
 40
1.0
 40
1.0
 40
1.0
 40
1.0
 10
1029.0389984117
 20
856.2133423941
 30
0.0
 10
1029.0830452917
 20
856.2439032407
 30
0.0
 10
1029.1287543246
 20
856.272159429
 30
0.0
 10
1029.175560009
 20
856.298299836
 30
0.0
  0
LINE
  5
66D
100
AcDbEntity
  8
0
100
AcDbLine
 62
7
  6
CONTINUOUS
 10
1029.1755616355
 20
856.2982983086
 11
1029.0209008263
 21
856.4529578486
  0
LINE
  5
66E
100
AcDbEntity
  8
0
100
AcDbLine
 62
7
  6
CONTINUOUS
 10
1029.0209008263
 20
856.4529578486
 11
1028.5923111468
 21
856.8815488518
  0
SPLINE
  5
66F
100
AcDbEntity
  8
0
100
AcDbSpline
 62
7
  6
CONTINUOUS
 70
0
 71
3
 72
9
 73
5
 74
0
 42
0.0000001
 43
0.0000001
 44
0.0000000001
 40
0.0
 40
0.0
 40
0.0
 40
0.0
 40
0.2215101872
 40
1.0
 40
1.0
 40
1.0
 40
1.0
 10
1029.891926412
 20
856.8393290555
 30
0.0
 10
1029.835197513
 20
856.8393290555
 30
0.0
 10
1029.5776586608
 20
856.7978591403
 30
0.0
 10
1029.374171408
 20
856.5986657767
 30
0.0
 10
1029.2605191769
 20
856.4348602265
 30
0.0
  0
SPLINE
  5
670
100
AcDbEntity
  8
0
100
AcDbSpline
 62
7
  6
CONTINUOUS
 70
0
 71
3
 72
8
 73
4
 74
0
 42
0.0000001
 43
0.0000001
 44
0.0000000001
 40
0.0
 40
0.0
 40
0.0
 40
0.0
 40
1.0
 40
1.0
 40
1.0
 40
1.0
 10
1029.2605191769
 20
856.4348602265
 30
0.0
 10
1029.2299583103
 20
856.3908132287
 30
0.0
 10
1029.20170209
 20
856.3451040906
 30
0.0
 10
1029.1755616355
 20
856.2982983086
 30
0.0
  0
SPLINE
  5
671
100
AcDbEntity
  8
0
100
AcDbSpline
 62
7
  6
CONTINUOUS
 70
0
 71
3
 72
9
 73
5
 74
0
 42
0.0000001
 43
0.0000001
 44
0.0000000001
 40
0.0
 40
0.0
 40
0.0
 40
0.0
 40
0.2066346319
 40
1.0
 40
1.0
 40
1.0
 40
1.0
 10
1197.3771352164
 20
856.8393290555
 30
0.0
 10
1197.456209871
 20
856.8393292524
 30
0.0
 10
1197.8416625756
 20
856.7482202249
 30
0.0
 10
1198.0761179093
 20
856.3710054197
 30
0.0
 10
1198.1937996095
 20
856.0911369114
 30
0.0
  0
SPLINE
  5
672
100
AcDbEntity
  8
0
100
AcDbSpline
 62
7
  6
CONTINUOUS
 70
0
 71
3
 72
8
 73
4
 74
0
 42
0.0000001
 43
0.0000001
 44
0.0000000001
 40
0.0
 40
0.0
 40
0.0
 40
0.0
 40
1.0
 40
1.0
 40
1.0
 40
1.0
 10
1198.1937996095
 20
856.0911369114
 30
0.0
 10
1198.234489568
 20
855.994368782
 30
0.0
 10
1198.2687929885
 20
855.894749273
 30
0.0
 10
1198.2975069127
 20
855.7937777218
 30
0.0
  0
LINE
  5
673
100
AcDbEntity
  8
0
100
AcDbLine
 62
7
  6
CONTINUOUS
 10
1028.5923111636
 20
856.8815484886
 11
1022.6345308138
 21
862.8393290555
  0
SPLINE
  5
674
100
AcDbEntity
  8
0
100
AcDbSpline
 62
7
  6
CONTINUOUS
 70
0
 71
3
 72
9
 73
5
 74
0
 42
0.0000001
 43
0.0000001
 44
0.0000000001
 40
0.0
 40
0.0
 40
0.0
 40
0.0
 40
0.1987154552
 40
1.0
 40
1.0
 40
1.0
 40
1.0
 10
1028.2913850633
 20
776.8393290555
 30
0.0
 10
1028.250545945
 20
776.8393290555
 30
0.0
 10
1028.0452646076
 20
776.8135483728
 30
0.0
 10
1027.8541936991
 20
776.7270316053
 30
0.0
 10
1027.7068338336
 20
776.6535237767
 30
0.0
  0
SPLINE
  5
675
100
AcDbEntity
  8
0
100
AcDbSpline
 62
7
  6
CONTINUOUS
 70
0
 71
3
 72
10
 73
6
 74
0
 42
0.0000001
 43
0.0000001
 44
0.0000000001
 40
0.0
 40
0.0
 40
0.0
 40
0.0
 40
0.199364006
 40
0.4468941192
 40
1.0
 40
1.0
 40
1.0
 40
1.0
 10
1027.7068338336
 20
776.6535237767
 30
0.0
 10
1027.3290431698
 20
776.4650696732
 30
0.0
 10
1026.5410138381
 20
775.9325618274
 30
0.0
 10
1024.8524130076
 20
774.6579566162
 30
0.0
 10
1023.541809339
 20
773.5801188693
 30
0.0
 10
1022.6345308138
 20
772.8393290555
 30
0.0
  0
ELLIPSE
  5
676
100
AcDbEntity
  8
0
100
AcDbEllipse
 62
7
  6
CONTINUOUS
 10
1170.9776765643
 20
804.496183305
 30
0.0
 11
4.8989794856
 21
-4.8989794856
 31
0.0
 40
0.5773502692
 41
-0.5235987756
 42
0.5235987756
  0
ELLIPSE
  5
677
100
AcDbEntity
  8
0
100
AcDbEllipse
 62
7
  6
CONTINUOUS
 10
1056.2913850633
 20
804.496183305
 30
0.0
 11
-4.8989794856
 21
-4.8989794856
 31
0.0
 40
0.5773502692
 41
0.4520147016
 42
0.5235987756
  0
ELLIPSE
  5
678
100
AcDbEntity
  8
0
100
AcDbEllipse
 62
7
  6
CONTINUOUS
 10
1168.1492494396
 20
826.3540476813
 30
0.0
 11
7.3484692283
 21
7.3484692283
 31
0.0
 40
0.5773502692
 41
-0.5235987756
 42
-0.2617993878
  0
ENDSEC
  0
SECTION
  2
OBJECTS
  0
DICTIONARY
  5
C
100
AcDbDictionary
280
0
281
1
  3
ACAD_GROUP
350
D
  3
ACAD_MLINESTYLE
350
17
  3
ACAD_LAYOUT
350
1A
  3
ACAD_PLOTSETTINGS
350
19
  3
ACAD_PLOTSTYLENAME
350
E
  0
DICTIONARY
  5
D
102
{ACAD_REACTORS
330
C
102
}
100
AcDbDictionary
280
0
281
1
  0
ACDBDICTIONARYWDFLT
  5
E
102
{ACAD_REACTORS
330
C
102
}
100
AcDbDictionary
281
1
  3
Normal
350
F
100
AcDbDictionaryWithDefault
340
F
  0
DICTIONARY
  5
17
102
{ACAD_REACTORS
330
C
102
}
100
AcDbDictionary
280
0
281
1
  3
Standard
350
18
  0
DICTIONARY
  5
19
102
{ACAD_REACTORS
330
C
102
}
100
AcDbDictionary
281
1
  0
DICTIONARY
  5
1A
102
{ACAD_REACTORS
330
C
102
}
100
AcDbDictionary
281
1
  3
Model
350
679
  3
Layout1
350
67A
  0
ACDBPLACEHOLDER
  5
F
102
{ACAD_REACTORS
330
E
102
}
  0
MLINESTYLE
  5
18
102
{ACAD_REACTORS
330
17
102
}
100
AcDbMlineStyle
  2
STANDARD
 70
0
  3

 62
256
 51
90.0
 52
90.0
 71
2
 49
0.5
 62
256
  6
BYLAYER
 49
-0.5
 62
256
  6
BYLAYER
  0
LAYOUT
  5
679
102
{ACAD_REACTORS
330
1A
102
}
100
AcDbPlotSettings
  1

  2
none_device
  4

  6

 40
0.0
 41
0.0
 42
0.0
 43
0.0
 44
1500.0
 45
1200.0
 46
0.0
 47
0.0
 48
0.0
 49
0.0
140
0.0
141
0.0
142
1.0
143
1.0
 70
1024
 72
1
 73
0
 74
0
  7

 75
0
147
1.0
148
0.0
149
0.0
100
AcDbLayout
  1
Model
 70
0
 71
0
 10
0.0
 20
0.0
 11
1500.0
 21
1200.0
 12
0.0
 22
0.0
 32
0.0
 14
0.0
 24
0.0
 34
0.0
 15
0.0
 25
0.0
 35
0.0
146
0.0
 13
0.0
 23
0.0
 33
0.0
 16
1.0
 26
0.0
 36
0.0
 17
0.0
 27
1.0
 37
0.0
 76
0
330
216
345
0
346
0
  0
LAYOUT
  5
67A
102
{ACAD_REACTORS
330
1A
102
}
100
AcDbPlotSettings
  1

  2
none_device
  4

  6

 40
0.0
 41
0.0
 42
0.0
 43
0.0
 44
1500.0
 45
1200.0
 46
0.0
 47
0.0
 48
0.0
 49
0.0
140
0.0
141
0.0
142
1.0
143
1.0
 70
0
 72
1
 73
0
 74
0
  7

 75
0
147
1.0
148
0.0
149
0.0
100
AcDbLayout
  1
Layout1
 70
0
 71
1
 10
0.0
 20
0.0
 11
1500.0
 21
1200.0
 12
0.0
 22
0.0
 32
0.0
 14
0.0
 24
0.0
 34
0.0
 15
0.0
 25
0.0
 35
0.0
146
0.0
 13
0.0
 23
0.0
 33
0.0
 16
1.0
 26
0.0
 36
0.0
 17
0.0
 27
1.0
 37
0.0
 76
0
330
217
345
0
346
0
  0
ENDSEC
  0
EOF
