999
DXF file: S:\Engenharia\Wildfire\Engenharia\Montagens\Coifas\Coifas_de_parede\Coifa_projeto_353\94833_022.dxf
999
Pro/ENGINEER 2013150 by Parametric Technology Corporation
  0
SECTION
  2
HEADER
  9
$ACADVER
  1
AC1021
  9
$DWGCODEPAGE
  3
ANSI_1252
  9
$EXTMAX
 10
1100.0
 20
1300.0
 30
0.0
  9
$EXTMIN
 10
0.0
 20
0.0
 30
0.0
  9
$LIMMIN
 10
0.0
 20
0.0
  9
$LIMMAX
 10
1100.0
 20
1300.0
  9
$VIEWCTR
 10
550.0
 20
650.0
  9
$VIEWSIZE
 40
1300.0
  9
$CLAYER
  8
0
  9
$LTSCALE
 40
84.7407407407
  9
$CELTYPE
  6
BYLAYER
  9
$DIMSCALE
 40
1.0
  9
$DIMASZ
 40
3.0
  9
$DIMEXO
 40
0.5
  9
$DIMDLI
 40
58.5481481481
  9
$DIMEXE
 40
0.5
  9
$DIMCEN
 40
13.8666666667
  9
$DIMLFAC
 40
1.0
  9
$DIMBLK
  1
_FILLED
  9
$DIMTXT
 40
1.8
  9
$DIMTOL
 70
1
  9
$DIMLIM
 70
0
  9
$DIMTFAC
 40
1.0
  9
$DIMTP
 40
0.001
  9
$DIMTM
 40
0.001
  9
$DIMGAP
 40
0.625
  9
$DIMDSEP
 70
46
  9
$PDMODE
 70
3
  9
$PDSIZE
 40
1.0
  9
$HANDSEED
  5
62C
  9
$TILEMODE
 70
1
  9
$MEASUREMENT
 70
1
  9
$INSUNITS
 70
4
  0
ENDSEC
  0
SECTION
  2
CLASSES
  0
CLASS
  1
ACDBDICTIONARYWDFLT
  2
AcDbDictionaryWithDefault
  3
AutoCAD 2000
 90
0
 91
1
280
0
281
0
  0
CLASS
  1
ACDBPLACEHOLDER
  2
AcDbPlaceHolder
  3
AutoCAD 2000
 90
0
 91
1
280
0
281
0
  0
CLASS
  1
LAYOUT
  2
AcDbLayout
  3
AutoCAD 2000
 90
0
 91
0
280
0
281
0
  0
ENDSEC
  0
SECTION
  2
TABLES
  0
TABLE
  2
VPORT
  5
8
100
AcDbSymbolTable
 70
2
  0
VPORT
  5
1F4
100
AcDbSymbolTableRecord
100
AcDbViewportTableRecord
  2
*ACTIVE
 70
0
 10
0.0
 20
0.0
 11
1.0
 21
1.0
 12
550.0
 22
650.0
 13
0.0
 23
0.0
 14
1.0
 24
1.0
 15
0.0
 25
0.0
 16
0.0
 26
0.0
 36
1.0
 17
0.0
 27
0.0
 37
0.0
 40
1300.0
 41
0.8461538462
 42
50.0
 43
0.0
 44
0.0
 50
0.0
 51
0.0
 71
0
 72
100
 73
1
 74
1
 75
0
 76
0
 77
0
 78
0
  0
ENDTAB
  0
TABLE
  2
LTYPE
  5
5
100
AcDbSymbolTable
 70
6
  0
LTYPE
  5
14
100
AcDbSymbolTableRecord
100
AcDbLinetypeTableRecord
  2
BYBLOCK
 70
0
  3

 72
65
 73
0
 40
0.0
  0
LTYPE
  5
15
100
AcDbSymbolTableRecord
100
AcDbLinetypeTableRecord
  2
BYLAYER
 70
0
  3

 72
65
 73
0
 40
0.0
  0
LTYPE
  5
16
100
AcDbSymbolTableRecord
100
AcDbLinetypeTableRecord
  2
CONTINUOUS
 70
64
  3
Solid line
 72
65
 73
0
 40
0.0
  0
LTYPE
  5
1F5
100
AcDbSymbolTableRecord
100
AcDbLinetypeTableRecord
  2
CENTER
 70
64
  3
____ _ ____ _ ____ _ ____ _ ____ _ ____ _ ____
 72
65
 73
4
 40
0.6
 49
0.375
 74
0
 49
-0.075
 74
0
 49
0.075
 74
0
 49
-0.075
 74
0
  0
LTYPE
  5
1F6
100
AcDbSymbolTableRecord
100
AcDbLinetypeTableRecord
  2
HIDDEN
 70
64
  3
- - - - - - - - - - - - - - - - - - - -
 72
65
 73
2
 40
0.2
 49
0.1
 74
0
 49
-0.1
 74
0
  0
LTYPE
  5
1F7
100
AcDbSymbolTableRecord
100
AcDbLinetypeTableRecord
  2
PHANTOM
 70
64
  3
_____ _ _ _____ _ _ _____ _ _ _____
 72
65
 73
6
 40
0.8
 49
0.45
 74
0
 49
-0.05
 74
0
 49
0.1
 74
0
 49
-0.05
 74
0
 49
0.1
 74
0
 49
-0.05
 74
0
  0
LTYPE
  5
1F8
100
AcDbSymbolTableRecord
100
AcDbLinetypeTableRecord
  2
DOT
 70
64
  3
. . . . . . . . . . . . . . . . . . . .
 72
65
 73
2
 40
0.2
 49
0.1
 74
0
 49
-0.1
 74
0
  0
LTYPE
  5
1F9
100
AcDbSymbolTableRecord
100
AcDbLinetypeTableRecord
  2
DASHED
 70
64
  3
- - - - - - - - - - - - - - - - - - - -
 72
65
 73
2
 40
0.2
 49
0.1
 74
0
 49
-0.1
 74
0
  0
ENDTAB
  0
TABLE
  2
LAYER
  5
2
100
AcDbSymbolTable
 70
36
  0
LAYER
  5
10
100
AcDbSymbolTableRecord
100
AcDbLayerTableRecord
  2
0
 70
0
 62
7
  6
CONTINUOUS
370
-3
390
F
  0
LAYER
  5
1FA
100
AcDbSymbolTableRecord
100
AcDbLayerTableRecord
  2
DEFAULT_1
 70
0
 62
7
  6
CENTER
370
-3
390
F
  0
LAYER
  5
1FB
100
AcDbSymbolTableRecord
100
AcDbLayerTableRecord
  2
DEFAULT_2
 70
0
 62
8
  6
HIDDEN
370
-3
390
F
  0
LAYER
  5
1FC
100
AcDbSymbolTableRecord
100
AcDbLayerTableRecord
  2
DEFAULT_3
 70
0
 62
7
  6
PHANTOM
370
-3
390
F
  0
LAYER
  5
1FD
100
AcDbSymbolTableRecord
100
AcDbLayerTableRecord
  2
103E6_90_
 70
0
 62
7
  6
CONTINUOUS
370
-3
390
F
  0
LAYER
  5
1FE
100
AcDbSymbolTableRecord
100
AcDbLayerTableRecord
  2
150__________
 70
0
 62
7
  6
CONTINUOUS
370
-3
390
F
  0
LAYER
  5
1FF
100
AcDbSymbolTableRecord
100
AcDbLayerTableRecord
  2
3288C1E1____
 70
0
 62
7
  6
CONTINUOUS
370
-3
390
F
  0
LAYER
  5
200
100
AcDbSymbolTableRecord
100
AcDbLayerTableRecord
  2
3288C1E1_______
 70
0
 62
7
  6
CONTINUOUS
370
-3
390
F
  0
LAYER
  5
201
100
AcDbSymbolTableRecord
100
AcDbLayerTableRecord
  2
3288C1E1________
 70
0
 62
7
  6
CONTINUOUS
370
-3
390
F
  0
LAYER
  5
202
100
AcDbSymbolTableRecord
100
AcDbLayerTableRecord
  2
3288C1E1_________90A
 70
0
 62
7
  6
CONTINUOUS
370
-3
390
F
  0
LAYER
  5
203
100
AcDbSymbolTableRecord
100
AcDbLayerTableRecord
  2
3288C1E1__________
 70
0
 62
7
  6
CONTINUOUS
370
-3
390
F
  0
LAYER
  5
204
100
AcDbSymbolTableRecord
100
AcDbLayerTableRecord
  2
3288C2E2________
 70
0
 62
7
  6
CONTINUOUS
370
-3
390
F
  0
LAYER
  5
205
100
AcDbSymbolTableRecord
100
AcDbLayerTableRecord
  2
3288E5
 70
0
 62
7
  6
CONTINUOUS
370
-3
390
F
  0
LAYER
  5
206
100
AcDbSymbolTableRecord
100
AcDbLayerTableRecord
  2
3288E5IR________
 70
0
 62
7
  6
CONTINUOUS
370
-3
390
F
  0
LAYER
  5
207
100
AcDbSymbolTableRecord
100
AcDbLayerTableRecord
  2
3288E5IR______________
 70
0
 62
7
  6
CONTINUOUS
370
-3
390
F
  0
LAYER
  5
208
100
AcDbSymbolTableRecord
100
AcDbLayerTableRecord
  2
3288E5_IR____
 70
0
 62
7
  6
CONTINUOUS
370
-3
390
F
  0
LAYER
  5
209
100
AcDbSymbolTableRecord
100
AcDbLayerTableRecord
  2
3288E5_________
 70
0
 62
7
  6
CONTINUOUS
370
-3
390
F
  0
LAYER
  5
20A
100
AcDbSymbolTableRecord
100
AcDbLayerTableRecord
  2
3288E5__________________
 70
0
 62
7
  6
CONTINUOUS
370
-3
390
F
  0
LAYER
  5
20B
100
AcDbSymbolTableRecord
100
AcDbLayerTableRecord
  2
3502C______
 70
0
 62
7
  6
CONTINUOUS
370
-3
390
F
  0
LAYER
  5
20C
100
AcDbSymbolTableRecord
100
AcDbLayerTableRecord
  2
3502C__________
 70
0
 62
7
  6
CONTINUOUS
370
-3
390
F
  0
LAYER
  5
20D
100
AcDbSymbolTableRecord
100
AcDbLayerTableRecord
  2
90A____
 70
0
 62
7
  6
CONTINUOUS
370
-3
390
F
  0
LAYER
  5
20E
100
AcDbSymbolTableRecord
100
AcDbLayerTableRecord
  2
90A____________
 70
0
 62
7
  6
CONTINUOUS
370
-3
390
F
  0
LAYER
  5
20F
100
AcDbSymbolTableRecord
100
AcDbLayerTableRecord
  2
90B____
 70
0
 62
7
  6
CONTINUOUS
370
-3
390
F
  0
LAYER
  5
210
100
AcDbSymbolTableRecord
100
AcDbLayerTableRecord
  2
LED___1W_
 70
0
 62
7
  6
CONTINUOUS
370
-3
390
F
  0
LAYER
  5
211
100
AcDbSymbolTableRecord
100
AcDbLayerTableRecord
  2
NONE
 70
0
 62
7
  6
CONTINUOUS
370
-3
390
F
  0
LAYER
  5
212
100
AcDbSymbolTableRecord
100
AcDbLayerTableRecord
  2
PRODUCT_118822
 70
0
 62
7
  6
CONTINUOUS
370
-3
390
F
  0
LAYER
  5
213
100
AcDbSymbolTableRecord
100
AcDbLayerTableRecord
  2
PRODUCT_172895
 70
0
 62
7
  6
CONTINUOUS
370
-3
390
F
  0
LAYER
  5
214
100
AcDbSymbolTableRecord
100
AcDbLayerTableRecord
  2
PRODUCT_200975
 70
0
 62
7
  6
CONTINUOUS
370
-3
390
F
  0
LAYER
  5
215
100
AcDbSymbolTableRecord
100
AcDbLayerTableRecord
  2
PRODUCT_252132
 70
0
 62
7
  6
CONTINUOUS
370
-3
390
F
  0
LAYER
  5
216
100
AcDbSymbolTableRecord
100
AcDbLayerTableRecord
  2
PRODUCT_328600
 70
0
 62
7
  6
CONTINUOUS
370
-3
390
F
  0
LAYER
  5
217
100
AcDbSymbolTableRecord
100
AcDbLayerTableRecord
  2
PRODUCT_359310
 70
0
 62
7
  6
CONTINUOUS
370
-3
390
F
  0
LAYER
  5
218
100
AcDbSymbolTableRecord
100
AcDbLayerTableRecord
  2
PRODUCT_382598
 70
0
 62
7
  6
CONTINUOUS
370
-3
390
F
  0
LAYER
  5
219
100
AcDbSymbolTableRecord
100
AcDbLayerTableRecord
  2
PRODUCT_42253
 70
0
 62
7
  6
CONTINUOUS
370
-3
390
F
  0
LAYER
  5
21A
100
AcDbSymbolTableRecord
100
AcDbLayerTableRecord
  2
PRODUCT_453410
 70
0
 62
7
  6
CONTINUOUS
370
-3
390
F
  0
LAYER
  5
21B
100
AcDbSymbolTableRecord
100
AcDbLayerTableRecord
  2
PRODUCT_510309
 70
0
 62
7
  6
CONTINUOUS
370
-3
390
F
  0
LAYER
  5
21C
100
AcDbSymbolTableRecord
100
AcDbLayerTableRecord
  2
____1
 70
0
 62
7
  6
CONTINUOUS
370
-3
390
F
  0
LAYER
  5
21D
100
AcDbSymbolTableRecord
100
AcDbLayerTableRecord
  2
______CF110
 70
0
 62
7
  6
CONTINUOUS
370
-3
390
F
  0
ENDTAB
  0
TABLE
  2
STYLE
  5
3
100
AcDbSymbolTable
 70
1
  0
STYLE
  5
11
100
AcDbSymbolTableRecord
100
AcDbTextStyleTableRecord
  2
STANDARD
 70
0
 40
0.0
 41
0.8
 50
0.0
 71
0
 42
0.2
  3
txt
  4

  0
STYLE
  5
21E
100
AcDbSymbolTableRecord
100
AcDbTextStyleTableRecord
  2
TEXTSTYLE_1
 70
0
 40
0.0
 41
0.8
 50
0.0
 71
0
 42
0.2
  3
gdt
  4

  0
ENDTAB
  0
TABLE
  2
VIEW
  5
6
100
AcDbSymbolTable
 70
0
  0
ENDTAB
  0
TABLE
  2
UCS
  5
7
100
AcDbSymbolTable
 70
0
  0
ENDTAB
  0
TABLE
  2
APPID
  5
9
100
AcDbSymbolTable
 70
1
  0
APPID
  5
21F
100
AcDbSymbolTableRecord
100
AcDbRegAppTableRecord
  2
ACAD
 70
0
  0
ENDTAB
  0
TABLE
  2
BLOCK_RECORD
  5
1
100
AcDbSymbolTable
 70
0
  0
BLOCK_RECORD
  5
220
100
AcDbSymbolTableRecord
100
AcDbBlockTableRecord
  2
*Model_Space
  0
BLOCK_RECORD
  5
221
100
AcDbSymbolTableRecord
100
AcDbBlockTableRecord
  2
*Paper_Space
  0
BLOCK_RECORD
  5
222
100
AcDbSymbolTableRecord
100
AcDbBlockTableRecord
  2
_FILLED
  0
BLOCK_RECORD
  5
223
100
AcDbSymbolTableRecord
100
AcDbBlockTableRecord
  2
*D0
  0
BLOCK_RECORD
  5
224
100
AcDbSymbolTableRecord
100
AcDbBlockTableRecord
  2
*D1
  0
BLOCK_RECORD
  5
225
100
AcDbSymbolTableRecord
100
AcDbBlockTableRecord
  2
*D2
  0
BLOCK_RECORD
  5
226
100
AcDbSymbolTableRecord
100
AcDbBlockTableRecord
  2
*D3
  0
ENDTAB
  0
TABLE
  2
DIMSTYLE
  5
A
100
AcDbSymbolTable
 70
1
100
AcDbDimStyleTable
 71
0
  0
DIMSTYLE
105
227
100
AcDbSymbolTableRecord
100
AcDbDimStyleTableRecord
  2
STANDARD
 70
0
  3

  4

 40
1.0
 41
3.0
 42
0.5
 43
0.38
 44
0.5
 45
0.0
 46
0.0
 47
0.001
 48
0.001
140
1.8
141
0.09
142
0.0
143
25.4
144
1.0
145
0.0
146
1.0
147
0.625
 71
1.0
 72
0.0
 73
0
 74
0
 75
0
 76
0
 77
1
 78
8
170
0
171
2
172
0
173
0
174
0
175
0
176
0
177
0
178
0
270
2
271
3
272
3
273
2
274
2
275
0
280
0
281
0
282
0
283
1
284
8
285
0
286
0
287
3
288
0
340
11
278
46
341
222
342
222
343
222
344
222
  0
DIMSTYLE
105
228
100
AcDbSymbolTableRecord
100
AcDbDimStyleTableRecord
  2
DIMSTYLE_1
 70
0
  3

  4

 40
1.0
 41
3.0
 42
0.5
 43
0.38
 44
0.5
 45
0.0
 46
0.0
 47
0.8
 48
0.8
140
8.0
141
0.09
142
0.0
143
25.4
144
1.0
145
0.0
146
1.0
147
2.0
 71
0.0
 72
0.0
 73
0
 74
0
 75
0
 76
0
 77
1
 78
8
170
0
171
2
172
0
173
0
174
0
175
0
176
0
177
0
178
0
270
2
271
3
272
3
273
2
274
2
275
0
280
0
281
0
282
0
283
1
284
8
285
0
286
0
287
3
288
0
340
11
278
46
341
222
342
222
343
222
344
222
  0
DIMSTYLE
105
229
100
AcDbSymbolTableRecord
100
AcDbDimStyleTableRecord
  2
DIMSTYLE_2
 70
0
  3

  4

 40
1.0
 41
3.0
 42
0.5
 43
0.38
 44
0.5
 45
0.0
 46
0.0
 47
0.5
 48
0.5
140
8.0
141
0.09
142
0.0
143
25.4
144
1.0
145
0.0
146
1.0
147
2.0
 71
0.0
 72
0.0
 73
0
 74
0
 75
0
 76
0
 77
1
 78
8
170
0
171
2
172
0
173
0
174
0
175
0
176
0
177
0
178
0
270
2
271
3
272
3
273
2
274
2
275
0
280
0
281
0
282
0
283
1
284
8
285
0
286
0
287
3
288
0
340
11
278
46
341
222
342
222
343
222
344
222
  0
ENDTAB
  0
ENDSEC
  0
SECTION
  2
BLOCKS
  0
BLOCK
  5
20
100
AcDbEntity
  8
0
100
AcDbBlockBegin
  2
*Model_Space
 70
0
 10
0.0
 20
0.0
 30
0.0
  3
*Model_Space
  1

  0
ENDBLK
  5
21
100
AcDbEntity
  8
0
100
AcDbBlockEnd
  0
BLOCK
  5
1C
100
AcDbEntity
  8
0
100
AcDbBlockBegin
  2
*Paper_Space
 70
0
 10
0.0
 20
0.0
 30
0.0
  3
*Paper_Space
  1

  0
ENDBLK
  5
1D
100
AcDbEntity
  8
0
100
AcDbBlockEnd
  0
BLOCK
  5
22A
100
AcDbEntity
  8
0
100
AcDbBlockBegin
  2
_FILLED
 70
64
 10
0.0
 20
0.0
  3
_FILLED
  1

  0
SOLID
  5
22B
100
AcDbEntity
  8
0
  6
BYBLOCK
 62
0
100
AcDbTrace
 10
0.0
 20
0.0
 11
-1.0
 21
0.1666666667
 12
-1.0
 22
-0.1666666667
 13
-1.0
 23
-0.1666666667
  0
ENDBLK
  5
22C
100
AcDbEntity
  8
0
  6
BYBLOCK
 62
0
100
AcDbBlockEnd
  0
BLOCK
  5
22D
100
AcDbEntity
  8
0
100
AcDbBlockBegin
 62
2
  6
CONTINUOUS
  2
*D0
 70
65
 10
0.0
 20
0.0
  3
*D0
  1

  0
MTEXT
  5
22E
100
AcDbEntity
  8
0
100
AcDbMText
 62
2
  6
CONTINUOUS
  7
STANDARD
 71
2
 72
1
 10
282.6134162105
 20
802.5264867663
 30
0.0
 11
0.0
 21
1.0
 31
0.0
 44
0.9
  1
630
 40
8.0
 41
37.0285714286
  0
LINE
  5
22F
100
AcDbEntity
  8
0
100
AcDbLine
 62
2
  6
CONTINUOUS
 10
363.469175295
 20
1122.8834755686
 11
293.5469271854
 21
1112.9814188203
  0
LINE
  5
230
100
AcDbEntity
  8
0
100
AcDbLine
 62
2
  6
CONTINUOUS
 10
363.7499219633
 20
501.8731532494
 11
293.5469271854
 21
491.9313384911
  0
LINE
  5
231
100
AcDbEntity
  8
0
100
AcDbLine
 62
2
  6
CONTINUOUS
 10
294.0419876391
 20
1113.0515269309
 11
294.0419876391
 21
802.5264867663
  0
LINE
  5
232
100
AcDbEntity
  8
0
100
AcDbLine
 62
2
  6
CONTINUOUS
 10
294.0419876391
 20
492.0014466017
 11
294.0419876391
 21
802.5264867663
  0
INSERT
  5
233
100
AcDbEntity
  8
0
100
AcDbBlockReference
 62
2
  6
CONTINUOUS
  2
_FILLED
 10
294.0419876391
 20
1113.0515269309
 41
3.0
 42
3.0
 43
3.0
 50
90.0
  0
INSERT
  5
234
100
AcDbEntity
  8
0
100
AcDbBlockReference
 62
2
  6
CONTINUOUS
  2
_FILLED
 10
294.0419876391
 20
492.0014466017
 41
3.0
 42
3.0
 43
3.0
 50
270.0
  0
ENDBLK
  5
235
100
AcDbEntity
  8
0
  6
BYBLOCK
 62
0
100
AcDbBlockEnd
  0
BLOCK
  5
236
100
AcDbEntity
  8
0
100
AcDbBlockBegin
 62
2
  6
CONTINUOUS
  2
*D1
 70
65
 10
0.0
 20
0.0
  3
*D1
  1

  0
MTEXT
  5
237
100
AcDbEntity
  8
0
100
AcDbMText
 62
2
  6
CONTINUOUS
  7
STANDARD
 71
2
 72
1
 10
216.3835422921
 20
629.901043587
 30
0.0
 11
0.0
 21
1.0
 31
0.0
 44
0.9
  1
930
 40
8.0
 41
37.0285714286
  0
LINE
  5
238
100
AcDbEntity
  8
0
100
AcDbLine
 62
2
  6
CONTINUOUS
 10
363.4691786231
 20
1122.9169295701
 11
227.3170565951
 21
1103.629120696
  0
LINE
  5
239
100
AcDbEntity
  8
0
100
AcDbLine
 62
2
  6
CONTINUOUS
 10
425.109328348
 20
184.0526817801
 11
227.3170565951
 21
156.0327032625
  0
LINE
  5
23A
100
AcDbEntity
  8
0
100
AcDbLine
 62
2
  6
CONTINUOUS
 10
227.8121137206
 20
1103.6992523038
 11
227.8121137206
 21
629.901043587
  0
LINE
  5
23B
100
AcDbEntity
  8
0
100
AcDbLine
 62
2
  6
CONTINUOUS
 10
227.8121137206
 20
156.1028348703
 11
227.8121137206
 21
629.901043587
  0
INSERT
  5
23C
100
AcDbEntity
  8
0
100
AcDbBlockReference
 62
2
  6
CONTINUOUS
  2
_FILLED
 10
227.8121137206
 20
1103.6992523038
 41
3.0
 42
3.0
 43
3.0
 50
90.0
  0
INSERT
  5
23D
100
AcDbEntity
  8
0
100
AcDbBlockReference
 62
2
  6
CONTINUOUS
  2
_FILLED
 10
227.8121137206
 20
156.1028348703
 41
3.0
 42
3.0
 43
3.0
 50
270.0
  0
ENDBLK
  5
23E
100
AcDbEntity
  8
0
  6
BYBLOCK
 62
0
100
AcDbBlockEnd
  0
BLOCK
  5
23F
100
AcDbEntity
  8
0
100
AcDbBlockBegin
 62
2
  6
CONTINUOUS
  2
*D2
 70
65
 10
0.0
 20
0.0
  3
*D2
  1

  0
MTEXT
  5
240
100
AcDbEntity
  8
0
100
AcDbMText
 62
2
  6
CONTINUOUS
  7
STANDARD
 71
2
 72
1
 10
823.0714595955
 20
1152.3580395132
 30
0.0
 11
0.9792508424
 21
-0.2026518877
 31
0.0
 44
0.9
  1
427
 40
8.0
 41
37.0285714286
  0
LINE
  5
241
100
AcDbEntity
  8
0
100
AcDbLine
 62
2
  6
CONTINUOUS
 10
733.7397105167
 20
1080.0797196605
 11
958.4703299004
 21
1112.8415969998
  0
LINE
  5
242
100
AcDbEntity
  8
0
100
AcDbLine
 62
2
  6
CONTINUOUS
 10
515.8716707175
 20
1145.121245209
 11
684.0300862509
 21
1169.635863637
  0
LINE
  5
243
100
AcDbEntity
  8
0
100
AcDbLine
 62
2
  6
CONTINUOUS
 10
957.975559846
 20
1112.7694679954
 11
820.7554380212
 21
1141.166601314
  0
LINE
  5
244
100
AcDbEntity
  8
0
100
AcDbLine
 62
2
  6
CONTINUOUS
 10
683.5353161965
 20
1169.5637346326
 11
820.7554380212
 21
1141.166601314
  0
INSERT
  5
245
100
AcDbEntity
  8
0
100
AcDbBlockReference
 62
2
  6
CONTINUOUS
  2
_FILLED
 10
957.975559846
 20
1112.7694679954
 41
3.0
 42
3.0
 43
3.0
 50
348.3079227867
  0
INSERT
  5
246
100
AcDbEntity
  8
0
100
AcDbBlockReference
 62
2
  6
CONTINUOUS
  2
_FILLED
 10
683.5353161965
 20
1169.5637346326
 41
3.0
 42
3.0
 43
3.0
 50
168.3079227867
  0
ENDBLK
  5
247
100
AcDbEntity
  8
0
  6
BYBLOCK
 62
0
100
AcDbBlockEnd
  0
BLOCK
  5
248
100
AcDbEntity
  8
0
100
AcDbBlockBegin
 62
2
  6
CONTINUOUS
  2
*D3
 70
65
 10
0.0
 20
0.0
  3
*D3
  1

  0
MTEXT
  5
249
100
AcDbEntity
  8
0
100
AcDbMText
 62
2
  6
CONTINUOUS
  7
TEXTSTYLE_1
 71
2
 72
1
 10
360.184667716
 20
139.0898887617
 30
0.0
 11
0.9792508424
 21
-0.2026518877
 31
0.0
 44
0.9
  1
{\Fgdt;n}\Ftxt;350
 40
8.0
 41
53.0285714286
  0
LINE
  5
24A
100
AcDbEntity
  8
0
100
AcDbLine
 62
2
  6
CONTINUOUS
 10
425.109349594
 20
184.0525319679
 11
223.7957203164
 21
155.471557727
  0
LINE
  5
24B
100
AcDbEntity
  8
0
100
AcDbLine
 62
2
  6
CONTINUOUS
 10
713.8292719964
 20
160.6738765288
 11
408.2770856666
 21
117.2939066874
  0
LINE
  5
24C
100
AcDbEntity
  8
0
100
AcDbLine
 62
2
  6
CONTINUOUS
 10
224.2907561959
 20
155.5418391469
 11
316.531438871
 21
136.4530136271
  0
LINE
  5
24D
100
AcDbEntity
  8
0
100
AcDbLine
 62
2
  6
CONTINUOUS
 10
408.7721215461
 20
117.3641881073
 11
316.531438871
 21
136.4530136271
  0
INSERT
  5
24E
100
AcDbEntity
  8
0
100
AcDbBlockReference
 62
2
  6
CONTINUOUS
  2
_FILLED
 10
224.2907561959
 20
155.5418391469
 41
3.0
 42
3.0
 43
3.0
 50
168.3079227867
  0
INSERT
  5
24F
100
AcDbEntity
  8
0
100
AcDbBlockReference
 62
2
  6
CONTINUOUS
  2
_FILLED
 10
408.7721215461
 20
117.3641881073
 41
3.0
 42
3.0
 43
3.0
 50
348.3079227867
  0
ENDBLK
  5
250
100
AcDbEntity
  8
0
  6
BYBLOCK
 62
0
100
AcDbBlockEnd
  0
ENDSEC
  0
SECTION
  2
ENTITIES
  0
DIMENSION
  5
251
100
AcDbEntity
  8
0
100
AcDbDimension
 62
2
  6
CONTINUOUS
  2
*D0
 10
294.0419876391
 20
492.0014466017
 11
294.0419876391
 21
802.5264867663
 70
160
 71
2
 42
621.0103223192
  3
DIMSTYLE_1
100
AcDbAlignedDimension
 13
363.969175295
 23
1122.8834755686
 14
364.2499219633
 24
501.8731532494
 50
270.0
100
AcDbRotatedDimension
  0
DIMENSION
  5
252
100
AcDbEntity
  8
0
100
AcDbDimension
 62
2
  6
CONTINUOUS
  2
*D1
 10
227.8121137206
 20
156.1028348703
 11
227.8121137206
 21
629.901043587
 70
160
 71
2
 42
938.8642477901
  3
DIMSTYLE_1
100
AcDbAlignedDimension
 13
363.9691786231
 23
1122.9169295701
 14
425.609328348
 24
184.0526817801
 50
270.0
100
AcDbRotatedDimension
  0
DIMENSION
  5
253
100
AcDbEntity
  8
0
100
AcDbDimension
 62
2
  6
CONTINUOUS
  2
*D2
 10
683.5353161965
 20
1169.5637346326
 11
820.7554380212
 21
1141.166601314
 70
160
 71
2
 42
226.5282494454
  3
DIMSTYLE_2
100
AcDbAlignedDimension
 13
733.6383845728
 23
1079.5900942393
 14
515.7703447737
 24
1144.6316197878
 50
168.3079227867
100
AcDbRotatedDimension
  0
DIMENSION
  5
254
100
AcDbEntity
  8
0
100
AcDbDimension
 62
2
  6
CONTINUOUS
  2
*D3
 10
408.7721215461
 20
117.3641881073
 11
357.8686461417
 21
127.8984505625
 70
160
 71
2
 42
287.4669558955
  1
%%c<>
  3
DIMSTYLE_2
100
AcDbAlignedDimension
 13
425.2106755379
 23
184.5421573891
 14
713.9305979403
 24
161.16350195
 50
348.3079227867
100
AcDbRotatedDimension
  0
LINE
  5
255
100
AcDbEntity
  8
0
100
AcDbLine
 62
7
  6
CONTINUOUS
 10
0.0
 20
0.0
 11
1100.0
 21
0.0
  0
LINE
  5
256
100
AcDbEntity
  8
0
100
AcDbLine
 62
7
  6
CONTINUOUS
 10
0.0
 20
0.0
 11
0.0
 21
1300.0
  0
LINE
  5
257
100
AcDbEntity
  8
0
100
AcDbLine
 62
7
  6
CONTINUOUS
 10
1100.0
 20
0.0
 11
1100.0
 21
1300.0
  0
LINE
  5
258
100
AcDbEntity
  8
0
100
AcDbLine
 62
7
  6
CONTINUOUS
 10
0.0
 20
1300.0
 11
1100.0
 21
1300.0
  0
LINE
  5
259
100
AcDbEntity
  8
3288C1E1_______
100
AcDbLine
 62
7
  6
CONTINUOUS
 10
431.2970606003
 20
1108.4959971424
 11
431.5081355785
 21
1108.6684349398
  0
LINE
  5
25A
100
AcDbEntity
  8
3288C1E1_______
100
AcDbLine
 62
7
  6
CONTINUOUS
 10
432.2850251347
 20
1108.6137497815
 11
431.2970606003
 21
1107.8066317153
  0
LINE
  5
25B
100
AcDbEntity
  8
3288C1E1_______
100
AcDbLine
 62
7
  6
CONTINUOUS
 10
431.4359591577
 20
1107.7914108578
 11
432.4767503751
 21
1108.6416857062
  0
LINE
  5
25C
100
AcDbEntity
  8
3288E5__________________
100
AcDbLine
 62
7
  6
CONTINUOUS
 10
687.3416262434
 20
1084.6167406763
 11
687.6854769635
 21
1084.7226186114
  0
LINE
  5
25D
100
AcDbEntity
  8
3288E5__________________
100
AcDbLine
 62
7
  6
CONTINUOUS
 10
510.7362018229
 20
1031.9905575488
 11
511.0971277322
 21
1032.0947077374
  0
LINE
  5
25E
100
AcDbEntity
  8
PRODUCT_453410
100
AcDbLine
 62
7
  6
CONTINUOUS
 10
713.5129698199
 20
234.5907371875
 11
712.3459411417
 21
234.8322489172
  0
LINE
  5
25F
100
AcDbEntity
  8
PRODUCT_172895
100
AcDbLine
 62
7
  6
CONTINUOUS
 10
713.3404555223
 20
235.9539837534
 11
714.6763199276
 21
235.6775321725
  0
LINE
  5
260
100
AcDbEntity
  8
PRODUCT_172895
100
AcDbLine
 62
7
  6
CONTINUOUS
 10
714.851410793
 20
243.1980950217
 11
716.1759438969
 21
242.9239884064
  0
LINE
  5
261
100
AcDbEntity
  8
PRODUCT_453410
100
AcDbLine
 62
7
  6
CONTINUOUS
 10
715.5394886974
 20
244.3832456118
 11
714.3115332074
 21
244.6373658916
  0
LINE
  5
262
100
AcDbEntity
  8
PRODUCT_453410
100
AcDbLine
 62
7
  6
CONTINUOUS
 10
713.5129698199
 20
254.2868922478
 11
712.6773459273
 21
254.4598211358
  0
LINE
  5
263
100
AcDbEntity
  8
PRODUCT_172895
100
AcDbLine
 62
7
  6
CONTINUOUS
 10
713.3404555223
 20
255.6501388137
 11
714.6763199276
 21
255.3736872327
  0
LINE
  5
264
100
AcDbEntity
  8
3288E5__________________
100
AcDbLine
 62
7
  6
CONTINUOUS
 10
511.0971277322
 20
982.8543200868
 11
510.7362018229
 21
982.7501698982
  0
LINE
  5
265
100
AcDbEntity
  8
PRODUCT_172895
100
AcDbLine
 62
7
  6
CONTINUOUS
 10
714.851410793
 20
262.8942500819
 11
716.1759438969
 21
262.6201434667
  0
LINE
  5
266
100
AcDbEntity
  8
PRODUCT_453410
100
AcDbLine
 62
7
  6
CONTINUOUS
 10
715.5394886974
 20
264.079400672
 11
714.7038648048
 21
264.2523295601
  0
LINE
  5
267
100
AcDbEntity
  8
PRODUCT_453410
100
AcDbLine
 62
7
  6
CONTINUOUS
 10
713.5129698199
 20
273.983047308
 11
712.6773459273
 21
274.155976196
  0
LINE
  5
268
100
AcDbEntity
  8
PRODUCT_172895
100
AcDbLine
 62
7
  6
CONTINUOUS
 10
713.3404555223
 20
275.3462938739
 11
714.6763199276
 21
275.069842293
  0
LINE
  5
269
100
AcDbEntity
  8
PRODUCT_172895
100
AcDbLine
 62
7
  6
CONTINUOUS
 10
714.851410793
 20
282.5904051422
 11
716.1759438969
 21
282.3162985269
  0
LINE
  5
26A
100
AcDbEntity
  8
PRODUCT_453410
100
AcDbLine
 62
7
  6
CONTINUOUS
 10
715.5394886974
 20
283.7755557323
 11
714.7038648048
 21
283.9484846203
  0
LINE
  5
26B
100
AcDbEntity
  8
PRODUCT_453410
100
AcDbLine
 62
7
  6
CONTINUOUS
 10
713.5129698199
 20
293.6792023683
 11
712.3459411417
 21
293.9207140979
  0
LINE
  5
26C
100
AcDbEntity
  8
PRODUCT_172895
100
AcDbLine
 62
7
  6
CONTINUOUS
 10
713.3404555223
 20
295.0424489341
 11
714.6763199276
 21
294.7659973532
  0
LINE
  5
26D
100
AcDbEntity
  8
PRODUCT_172895
100
AcDbLine
 62
7
  6
CONTINUOUS
 10
714.851410793
 20
302.2865602024
 11
716.1759438969
 21
302.0124535872
  0
LINE
  5
26E
100
AcDbEntity
  8
PRODUCT_453410
100
AcDbLine
 62
7
  6
CONTINUOUS
 10
715.5394886974
 20
303.4717107925
 11
714.3115332074
 21
303.7258310724
  0
LINE
  5
26F
100
AcDbEntity
  8
3288C1E1_______
100
AcDbLine
 62
7
  6
CONTINUOUS
 10
363.9642357487
 20
1121.188037238
 11
363.9642357487
 21
503.1536409369
  0
LINE
  5
270
100
AcDbEntity
  8
3288C1E1_______
100
AcDbLine
 62
7
  6
CONTINUOUS
 10
364.244982417
 20
502.8008523347
 11
364.244982417
 21
1120.8661981252
  0
LINE
  5
271
100
AcDbEntity
  8
3288C1E1_______
100
AcDbLine
 62
7
  6
CONTINUOUS
 10
364.9210534834
 20
501.7596940003
 11
425.6043854735
 21
489.2015309129
  0
LINE
  5
272
100
AcDbEntity
  8
3288C1E1_______
100
AcDbLine
 62
7
  6
CONTINUOUS
 10
425.6043854735
 20
490.1027791529
 11
364.244982417
 21
502.8008523347
  0
LINE
  5
273
100
AcDbEntity
  8
3288E5__________________
100
AcDbLine
 62
7
  6
CONTINUOUS
 10
425.6043854735
 20
184.1228133878
 11
425.6043854735
 21
1099.9940236892
  0
LINE
  5
274
100
AcDbEntity
  8
3288C1E1_______
100
AcDbLine
 62
7
  6
CONTINUOUS
 10
430.0276320256
 20
1107.252752472
 11
430.0276320256
 21
1106.7297686513
  0
LINE
  5
275
100
AcDbEntity
  8
3288C1E1_______
100
AcDbLine
 62
7
  6
CONTINUOUS
 10
431.2970606003
 20
1107.8066317153
 11
431.2970606003
 21
1108.4959971424
  0
LINE
  5
276
100
AcDbEntity
  8
3288C1E1____
100
AcDbLine
 62
7
  6
CONTINUOUS
 10
431.9841951009
 20
1108.5699164023
 11
431.9841951009
 21
1109.3577626047
  0
LINE
  5
277
100
AcDbEntity
  8
3288E5__________________
100
AcDbLine
 62
7
  6
CONTINUOUS
 10
435.6038927554
 20
998.7518967766
 11
435.6038927554
 21
1047.9922844272
  0
LINE
  5
278
100
AcDbEntity
  8
3288C1E1____
100
AcDbLine
 62
7
  6
CONTINUOUS
 10
435.975840195
 20
1109.9393777144
 11
435.975840195
 21
1109.1515315119
  0
LINE
  5
279
100
AcDbEntity
  8
3288E5__________________
100
AcDbLine
 62
7
  6
CONTINUOUS
 10
436.2640654149
 20
1048.032700853
 11
436.2640654149
 21
998.7923132024
  0
LINE
  5
27A
100
AcDbEntity
  8
3288E5__________________
100
AcDbLine
 62
7
  6
CONTINUOUS
 10
437.3375359074
 20
1047.1757188198
 11
437.3375359074
 21
997.9353311692
  0
LINE
  5
27B
100
AcDbEntity
  8
3288E5__________________
100
AcDbLine
 62
7
  6
CONTINUOUS
 10
439.5938359006
 20
996.967279385
 11
439.5938359006
 21
1046.2076670356
  0
LINE
  5
27C
100
AcDbEntity
  8
3288E5__________________
100
AcDbLine
 62
7
  6
CONTINUOUS
 10
440.2381168946
 20
1046.2551914681
 11
440.2381168946
 21
997.0148038175
  0
LINE
  5
27D
100
AcDbEntity
  8
3288E5__________________
100
AcDbLine
 62
7
  6
CONTINUOUS
 10
441.6188986888
 20
1045.4115827284
 11
441.6188986888
 21
996.1711950778
  0
LINE
  5
27E
100
AcDbEntity
  8
3288E5__________________
100
AcDbLine
 62
7
  6
CONTINUOUS
 10
444.2202858628
 20
995.2296129752
 11
444.2202858628
 21
1044.4700006258
  0
LINE
  5
27F
100
AcDbEntity
  8
3288E5__________________
100
AcDbLine
 62
7
  6
CONTINUOUS
 10
444.8461400291
 20
1044.5244460624
 11
444.8461400291
 21
995.2840584118
  0
LINE
  5
280
100
AcDbEntity
  8
3288E5__________________
100
AcDbLine
 62
7
  6
CONTINUOUS
 10
446.5287999275
 20
1043.6975301075
 11
446.5287999275
 21
994.4571424569
  0
LINE
  5
281
100
AcDbEntity
  8
3288E5__________________
100
AcDbLine
 62
7
  6
CONTINUOUS
 10
449.4650381606
 20
993.5457350395
 11
449.4650381606
 21
1042.7861226901
  0
LINE
  5
282
100
AcDbEntity
  8
3288E5__________________
100
AcDbLine
 62
7
  6
CONTINUOUS
 10
450.070002844
 20
1042.8472748952
 11
450.070002844
 21
993.6068872446
  0
LINE
  5
283
100
AcDbEntity
  8
3288E5__________________
100
AcDbLine
 62
7
  6
CONTINUOUS
 10
452.0479197977
 20
1042.0403055322
 11
452.0479197977
 21
992.7999178815
  0
LINE
  5
284
100
AcDbEntity
  8
3288E5__________________
100
AcDbLine
 62
7
  6
CONTINUOUS
 10
455.3074553726
 20
991.9222714196
 11
455.3074553726
 21
1041.1626590702
  0
LINE
  5
285
100
AcDbEntity
  8
3288E5__________________
100
AcDbLine
 62
7
  6
CONTINUOUS
 10
455.8891501155
 20
1041.2302774177
 11
455.8891501155
 21
991.9898897671
  0
LINE
  5
286
100
AcDbEntity
  8
3288E5__________________
100
AcDbLine
 62
7
  6
CONTINUOUS
 10
458.1545412774
 20
1040.4464299666
 11
458.1545412774
 21
991.206042316
  0
LINE
  5
287
100
AcDbEntity
  8
3288E5__________________
100
AcDbLine
 62
7
  6
CONTINUOUS
 10
461.7245483437
 20
990.3656102346
 11
461.7245483437
 21
1039.6059978852
  0
LINE
  5
288
100
AcDbEntity
  8
3288E5__________________
100
AcDbLine
 62
7
  6
CONTINUOUS
 10
462.2806842526
 20
1039.6798163058
 11
462.2806842526
 21
990.4394286551
  0
LINE
  5
289
100
AcDbEntity
  8
3288E5__________________
100
AcDbLine
 62
7
  6
CONTINUOUS
 10
464.8246356018
 20
1038.9221751047
 11
464.8246356018
 21
989.6817874541
  0
LINE
  5
28A
100
AcDbEntity
  8
3288E5__________________
100
AcDbLine
 62
7
  6
CONTINUOUS
 10
468.691066644
 20
988.8818767447
 11
468.691066644
 21
1038.1222643953
  0
LINE
  5
28B
100
AcDbEntity
  8
3288E5__________________
100
AcDbLine
 62
7
  6
CONTINUOUS
 10
469.2194553961
 20
1038.201992423
 11
469.2194553961
 21
988.9616047723
  0
LINE
  5
28C
100
AcDbEntity
  8
3288E5__________________
100
AcDbLine
 62
7
  6
CONTINUOUS
 10
472.0319568134
 20
1037.473538692
 11
472.0319568134
 21
988.2331510414
  0
LINE
  5
28D
100
AcDbEntity
  8
3288E5__________________
100
AcDbLine
 62
7
  6
CONTINUOUS
 10
476.179597926
 20
987.4769092491
 11
476.179597926
 21
1036.7172968997
  0
LINE
  5
28E
100
AcDbEntity
  8
3288E5__________________
100
AcDbLine
 62
7
  6
CONTINUOUS
 10
476.6781603799
 20
1036.802620815
 11
476.6781603799
 21
987.5622331643
  0
LINE
  5
28F
100
AcDbEntity
  8
3288E5__________________
100
AcDbLine
 62
7
  6
CONTINUOUS
 10
479.7481450365
 20
1036.1062209253
 11
479.7481450365
 21
986.8658332747
  0
LINE
  5
290
100
AcDbEntity
  8
3288E5__________________
100
AcDbLine
 62
7
  6
CONTINUOUS
 10
481.3577211498
 20
1112.2772705297
 11
481.3577211498
 21
1120.1557325538
  0
LINE
  5
291
100
AcDbEntity
  8
3288E5__________________
100
AcDbLine
 62
7
  6
CONTINUOUS
 10
484.1606757887
 20
986.156236113
 11
484.1606757887
 21
1035.3966237636
  0
LINE
  5
292
100
AcDbEntity
  8
3288E5__________________
100
AcDbLine
 62
7
  6
CONTINUOUS
 10
484.6274501659
 20
1035.4872078279
 11
484.6274501659
 21
986.2468201772
  0
LINE
  5
293
100
AcDbEntity
  8
3288E5__________________
100
AcDbLine
 62
7
  6
CONTINUOUS
 10
487.9428380696
 20
1034.8256020228
 11
487.9428380696
 21
985.5852143722
  0
LINE
  5
294
100
AcDbEntity
  8
3288E5__________________
100
AcDbLine
 62
7
  6
CONTINUOUS
 10
488.7962692844
 20
1076.738912494
 11
488.7962692844
 21
1103.5779712221
  0
LINE
  5
295
100
AcDbEntity
  8
3288E5__________________
100
AcDbLine
 62
7
  6
CONTINUOUS
 10
488.8725686185
 20
1103.5890884104
 11
488.8725686185
 21
1076.7273204399
  0
LINE
  5
296
100
AcDbEntity
  8
3288E5__________________
100
AcDbLine
 62
7
  6
CONTINUOUS
 10
492.6028957243
 20
984.925054014
 11
492.6028957243
 21
1034.1654416647
  0
LINE
  5
297
100
AcDbEntity
  8
3288E5__________________
100
AcDbLine
 62
7
  6
CONTINUOUS
 10
493.0360453279
 20
1034.2609294414
 11
493.0360453278
 21
985.0205417908
  0
LINE
  5
298
100
AcDbEntity
  8
3288E5__________________
100
AcDbLine
 62
7
  6
CONTINUOUS
 10
496.2600265056
 20
1114.6070754437
 11
496.2600265056
 21
1122.4855374678
  0
LINE
  5
299
100
AcDbEntity
  8
3288E5__________________
100
AcDbLine
 62
7
  6
CONTINUOUS
 10
496.5837908566
 20
1033.6367210542
 11
496.5837908566
 21
984.3963334036
  0
LINE
  5
29A
100
AcDbEntity
  8
3288E5__________________
100
AcDbLine
 62
7
  6
CONTINUOUS
 10
496.6786100122
 20
1122.3881104948
 11
496.6786100122
 21
1114.5096484707
  0
LINE
  5
29B
100
AcDbEntity
  8
3288E5__________________
100
AcDbLine
 62
7
  6
CONTINUOUS
 10
501.4730386903
 20
983.7882074945
 11
501.4730386903
 21
1033.0285951451
  0
LINE
  5
29C
100
AcDbEntity
  8
3288E5__________________
100
AcDbLine
 62
7
  6
CONTINUOUS
 10
501.8708591327
 20
1033.1286109023
 11
501.8708591327
 21
983.8882232517
  0
LINE
  5
29D
100
AcDbEntity
  8
3288C1E1_______
100
AcDbLine
 62
7
  6
CONTINUOUS
 10
505.1918592624
 20
981.8467061556
 11
505.1918592624
 21
1026.9039965341
  0
LINE
  5
29E
100
AcDbEntity
  8
3288E5__________________
100
AcDbLine
 62
7
  6
CONTINUOUS
 10
505.6370023672
 20
1032.5442561121
 11
505.6370023672
 21
983.3038684614
  0
LINE
  5
29F
100
AcDbEntity
  8
3288E5__________________
100
AcDbLine
 62
7
  6
CONTINUOUS
 10
510.7362018229
 20
982.7501698982
 11
510.7362018229
 21
1031.9905575488
  0
LINE
  5
2A0
100
AcDbEntity
  8
3288E5__________________
100
AcDbLine
 62
7
  6
CONTINUOUS
 10
511.0971277322
 20
1032.0947077374
 11
511.0971277322
 21
982.8543200868
  0
LINE
  5
2A1
100
AcDbEntity
  8
3288E5__________________
100
AcDbLine
 62
7
  6
CONTINUOUS
 10
515.0668493865
 20
1031.5525059045
 11
515.0668493865
 21
982.3121182539
  0
LINE
  5
2A2
100
AcDbEntity
  8
3288C1E1____
100
AcDbLine
 62
7
  6
CONTINUOUS
 10
578.1372608582
 20
1129.8656051142
 11
578.1372608582
 21
1130.6534513166
  0
LINE
  5
2A3
100
AcDbEntity
  8
3288C1E1____
100
AcDbLine
 62
7
  6
CONTINUOUS
 10
582.1289059523
 20
1130.4472202238
 11
582.1289059523
 21
1131.2350664263
  0
LINE
  5
2A4
100
AcDbEntity
  8
3288C1E1_______
100
AcDbLine
 62
7
  6
CONTINUOUS
 10
582.6674425606
 20
1130.5518911993
 11
582.6674425606
 21
1130.3154108467
  0
LINE
  5
2A5
100
AcDbEntity
  8
3288E5__________________
100
AcDbLine
 62
7
  6
CONTINUOUS
 10
687.3416262434
 20
1073.5403005427
 11
687.3416262434
 21
1084.6167406763
  0
LINE
  5
2A6
100
AcDbEntity
  8
3288E5__________________
100
AcDbLine
 62
7
  6
CONTINUOUS
 10
687.6854769635
 20
1084.7226186114
 11
687.6854769635
 21
1073.5726004587
  0
LINE
  5
2A7
100
AcDbEntity
  8
3288E5__________________
100
AcDbLine
 62
7
  6
CONTINUOUS
 10
691.6543101453
 20
1084.1802206881
 11
691.6543101453
 21
1073.9608467021
  0
LINE
  5
2A8
100
AcDbEntity
  8
3288E5__________________
100
AcDbLine
 62
7
  6
CONTINUOUS
 10
696.7322961052
 20
1074.5347145445
 11
696.7322961052
 21
1083.6284765824
  0
LINE
  5
2A9
100
AcDbEntity
  8
3288E5__________________
100
AcDbLine
 62
7
  6
CONTINUOUS
 10
697.1136987755
 20
1083.7304025903
 11
697.1136987755
 21
1074.5778172095
  0
LINE
  5
2AA
100
AcDbEntity
  8
3288E5__________________
100
AcDbLine
 62
7
  6
CONTINUOUS
 10
700.8788844849
 20
1083.1458617685
 11
700.8788844849
 21
1075.0033242937
  0
LINE
  5
2AB
100
AcDbEntity
  8
3288E5__________________
100
AcDbLine
 62
7
  6
CONTINUOUS
 10
705.7476662386
 20
1075.6186898634
 11
705.7476662386
 21
1082.5399174303
  0
LINE
  5
2AC
100
AcDbEntity
  8
3288E5__________________
100
AcDbLine
 62
7
  6
CONTINUOUS
 10
706.1651200891
 20
1082.6374904452
 11
706.1651200891
 21
1075.6746706698
  0
LINE
  5
2AD
100
AcDbEntity
  8
3288E5__________________
100
AcDbLine
 62
7
  6
CONTINUOUS
 10
709.7118428077
 20
1082.0131068174
 11
709.7118428077
 21
1076.1502882687
  0
LINE
  5
2AE
100
AcDbEntity
  8
3288E5__________________
100
AcDbLine
 62
7
  6
CONTINUOUS
 10
714.3522623295
 20
1076.7084838052
 11
714.3522623295
 21
1081.3553465591
  0
LINE
  5
2AF
100
AcDbEntity
  8
3288E5__________________
100
AcDbLine
 62
7
  6
CONTINUOUS
 10
714.8041247334
 20
1081.448182644
 11
714.8041247334
 21
1076.8556505022
  0
LINE
  5
2B0
100
AcDbEntity
  8
PRODUCT_453410
100
AcDbLine
 62
7
  6
CONTINUOUS
 10
715.0311831415
 20
303.7970745858
 11
715.0311831415
 21
303.5769025125
  0
LINE
  5
2B1
100
AcDbEntity
  8
PRODUCT_453410
100
AcDbLine
 62
7
  6
CONTINUOUS
 10
715.0311831415
 20
244.4884373318
 11
715.0311831415
 21
244.7086094051
  0
LINE
  5
2B2
100
AcDbEntity
  8
3288E5__________________
100
AcDbLine
 62
7
  6
CONTINUOUS
 10
718.1184285666
 20
1080.7864130788
 11
718.1184285666
 21
1077.380249167
  0
LINE
  5
2B3
100
AcDbEntity
  8
3288E5__________________
100
AcDbLine
 62
7
  6
CONTINUOUS
 10
722.5122264065
 20
1078.0757136132
 11
722.5122264065
 21
1080.0794251019
  0
LINE
  5
2B4
100
AcDbEntity
  8
3288E5__________________
100
AcDbLine
 62
7
  6
CONTINUOUS
 10
722.9967193437
 20
1080.1671589588
 11
722.9967193437
 21
1078.1524007127
  0
LINE
  5
2B5
100
AcDbEntity
  8
3288E5__________________
100
AcDbLine
 62
7
  6
CONTINUOUS
 10
726.0655629351
 20
1079.4706074338
 11
726.0655629351
 21
1078.6839195313
  0
LINE
  5
2B6
100
AcDbEntity
  8
3288E5__________________
100
AcDbLine
 62
7
  6
CONTINUOUS
 10
777.1043854736
 20
184.1228133878
 11
777.1043854736
 21
1099.9940236892
  0
LINE
  5
2B7
100
AcDbEntity
  8
3288E5__________________
100
AcDbLine
 62
7
  6
CONTINUOUS
 10
577.4841926703
 20
1100.5629953559
 11
577.3887391715
 21
1100.6834136539
  0
LINE
  5
2B8
100
AcDbEntity
  8
3288E5__________________
100
AcDbLine
 62
7
  6
CONTINUOUS
 10
501.8708591327
 20
983.8882232517
 11
501.4730386903
 21
983.7882074945
  0
LINE
  5
2B9
100
AcDbEntity
  8
3288E5__________________
100
AcDbLine
 62
7
  6
CONTINUOUS
 10
493.0360453278
 20
985.0205417908
 11
492.6028957243
 21
984.925054014
  0
LINE
  5
2BA
100
AcDbEntity
  8
3288E5__________________
100
AcDbLine
 62
7
  6
CONTINUOUS
 10
484.6274501659
 20
986.2468201772
 11
484.1606757887
 21
986.156236113
  0
LINE
  5
2BB
100
AcDbEntity
  8
3288E5__________________
100
AcDbLine
 62
7
  6
CONTINUOUS
 10
476.6781603799
 20
987.5622331643
 11
476.179597926
 21
987.4769092491
  0
LINE
  5
2BC
100
AcDbEntity
  8
3288E5__________________
100
AcDbLine
 62
7
  6
CONTINUOUS
 10
469.2194553961
 20
988.9616047723
 11
468.691066644
 21
988.8818767447
  0
LINE
  5
2BD
100
AcDbEntity
  8
3288E5__________________
100
AcDbLine
 62
7
  6
CONTINUOUS
 10
462.2806842526
 20
990.4394286551
 11
461.7245483437
 21
990.3656102346
  0
LINE
  5
2BE
100
AcDbEntity
  8
3288E5__________________
100
AcDbLine
 62
7
  6
CONTINUOUS
 10
455.8891501155
 20
991.9898897671
 11
455.3074553726
 21
991.9222714196
  0
LINE
  5
2BF
100
AcDbEntity
  8
3288E5__________________
100
AcDbLine
 62
7
  6
CONTINUOUS
 10
450.070002844
 20
993.6068872446
 11
449.4650381606
 21
993.5457350395
  0
LINE
  5
2C0
100
AcDbEntity
  8
3288E5__________________
100
AcDbLine
 62
7
  6
CONTINUOUS
 10
444.8461400291
 20
995.2840584118
 11
444.2202858628
 21
995.2296129752
  0
LINE
  5
2C1
100
AcDbEntity
  8
3288E5__________________
100
AcDbLine
 62
7
  6
CONTINUOUS
 10
440.2381168946
 20
997.0148038175
 11
439.5938359006
 21
996.967279385
  0
LINE
  5
2C2
100
AcDbEntity
  8
3288E5__________________
100
AcDbLine
 62
7
  6
CONTINUOUS
 10
436.2640654149
 20
998.7923132024
 11
435.6038927554
 21
998.7518967766
  0
LINE
  5
2C3
100
AcDbEntity
  8
3288E5__________________
100
AcDbLine
 62
7
  6
CONTINUOUS
 10
696.7322961052
 20
1083.6284765824
 11
697.1136987755
 21
1083.7304025903
  0
LINE
  5
2C4
100
AcDbEntity
  8
3288E5__________________
100
AcDbLine
 62
7
  6
CONTINUOUS
 10
502.0866862565
 20
1034.7059048829
 11
502.4820625834
 21
1034.8062124578
  0
LINE
  5
2C5
100
AcDbEntity
  8
3288E5__________________
100
AcDbLine
 62
7
  6
CONTINUOUS
 10
501.4730386903
 20
1033.0285951451
 11
501.8708591327
 21
1033.1286109023
  0
LINE
  5
2C6
100
AcDbEntity
  8
3288E5__________________
100
AcDbLine
 62
7
  6
CONTINUOUS
 10
705.7476662386
 20
1082.5399174303
 11
706.1651200891
 21
1082.6374904452
  0
LINE
  5
2C7
100
AcDbEntity
  8
3288E5__________________
100
AcDbLine
 62
7
  6
CONTINUOUS
 10
493.1888820515
 20
1035.8362145617
 11
493.6196977123
 21
1035.9320201919
  0
LINE
  5
2C8
100
AcDbEntity
  8
3288E5__________________
100
AcDbLine
 62
7
  6
CONTINUOUS
 10
492.6028957243
 20
1034.1654416647
 11
493.0360453279
 21
1034.2609294414
  0
LINE
  5
2C9
100
AcDbEntity
  8
3288E5__________________
100
AcDbLine
 62
7
  6
CONTINUOUS
 10
714.3522623295
 20
1081.3553465591
 11
714.8041247334
 21
1081.448182644
  0
LINE
  5
2CA
100
AcDbEntity
  8
3288E5__________________
100
AcDbLine
 62
7
  6
CONTINUOUS
 10
484.7166950966
 20
1037.0611738381
 11
485.1812548876
 21
1037.1521005409
  0
LINE
  5
2CB
100
AcDbEntity
  8
3288E5__________________
100
AcDbLine
 62
7
  6
CONTINUOUS
 10
484.1606757887
 20
1035.3966237636
 11
484.6274501659
 21
1035.4872078279
  0
LINE
  5
2CC
100
AcDbEntity
  8
3288E5__________________
100
AcDbLine
 62
7
  6
CONTINUOUS
 10
722.5122264065
 20
1080.0794251019
 11
722.9967193437
 21
1080.1671589588
  0
LINE
  5
2CD
100
AcDbEntity
  8
3288E5__________________
100
AcDbLine
 62
7
  6
CONTINUOUS
 10
476.179597926
 20
1036.7172968997
 11
476.6781603799
 21
1036.802620815
  0
LINE
  5
2CE
100
AcDbEntity
  8
3288E5__________________
100
AcDbLine
 62
7
  6
CONTINUOUS
 10
476.7034623505
 20
1038.3759626557
 11
477.199938289
 21
1038.4616526463
  0
LINE
  5
2CF
100
AcDbEntity
  8
3288E5__________________
100
AcDbLine
 62
7
  6
CONTINUOUS
 10
469.1807148465
 20
1039.7754074909
 11
469.707153364
 21
1039.8555235903
  0
LINE
  5
2D0
100
AcDbEntity
  8
3288E5__________________
100
AcDbLine
 62
7
  6
CONTINUOUS
 10
468.691066644
 20
1038.1222643953
 11
469.2194553961
 21
1038.201992423
  0
LINE
  5
2D1
100
AcDbEntity
  8
3288E5__________________
100
AcDbLine
 62
7
  6
CONTINUOUS
 10
462.178053622
 20
1041.2540017095
 11
462.732383251
 21
1041.3282286711
  0
LINE
  5
2D2
100
AcDbEntity
  8
3288E5__________________
100
AcDbLine
 62
7
  6
CONTINUOUS
 10
461.7245483437
 20
1039.6059978852
 11
462.2806842526
 21
1039.6798163058
  0
LINE
  5
2D3
100
AcDbEntity
  8
3288E5__________________
100
AcDbLine
 62
7
  6
CONTINUOUS
 10
455.723033242
 20
1042.8059272346
 11
456.3030727673
 21
1042.873972985
  0
LINE
  5
2D4
100
AcDbEntity
  8
3288E5__________________
100
AcDbLine
 62
7
  6
CONTINUOUS
 10
455.3074553726
 20
1041.1626590702
 11
455.8891501155
 21
1041.2302774177
  0
LINE
  5
2D5
100
AcDbEntity
  8
3288E5__________________
100
AcDbLine
 62
7
  6
CONTINUOUS
 10
449.8410533761
 20
1044.4250774403
 11
450.4445204171
 21
1044.4866742283
  0
LINE
  5
2D6
100
AcDbEntity
  8
3288E5__________________
100
AcDbLine
 62
7
  6
CONTINUOUS
 10
449.4650381606
 20
1042.7861226901
 11
450.070002844
 21
1042.8472748952
  0
LINE
  5
2D7
100
AcDbEntity
  8
3288E5__________________
100
AcDbLine
 62
7
  6
CONTINUOUS
 10
444.5552588532
 20
1046.1050811801
 11
445.1797788455
 21
1046.1599866303
  0
LINE
  5
2D8
100
AcDbEntity
  8
3288E5__________________
100
AcDbLine
 62
7
  6
CONTINUOUS
 10
444.2202858628
 20
1044.4700006258
 11
444.8461400291
 21
1044.5244460624
  0
LINE
  5
2D9
100
AcDbEntity
  8
3288E5__________________
100
AcDbLine
 62
7
  6
CONTINUOUS
 10
439.8864485905
 20
1047.8393278569
 11
440.5295641286
 21
1047.8873259235
  0
LINE
  5
2DA
100
AcDbEntity
  8
3288E5__________________
100
AcDbLine
 62
7
  6
CONTINUOUS
 10
439.5938359006
 20
1046.2076670356
 11
440.2381168946
 21
1046.2551914681
  0
LINE
  5
2DB
100
AcDbEntity
  8
3288E5__________________
100
AcDbLine
 62
7
  6
CONTINUOUS
 10
435.8529937518
 20
1049.6209934346
 11
436.5121742594
 21
1049.6618952514
  0
LINE
  5
2DC
100
AcDbEntity
  8
3288E5__________________
100
AcDbLine
 62
7
  6
CONTINUOUS
 10
435.6038927554
 20
1047.9922844272
 11
436.2640654149
 21
1048.032700853
  0
LINE
  5
2DD
100
AcDbEntity
  8
3288C1E1_______
100
AcDbLine
 62
7
  6
CONTINUOUS
 10
364.244982417
 20
1120.8661981252
 11
430.0276320256
 21
1107.252752472
  0
LINE
  5
2DE
100
AcDbEntity
  8
3288C1E1_______
100
AcDbLine
 62
7
  6
CONTINUOUS
 10
431.2970606003
 20
1108.4959971424
 11
364.8882938916
 21
1122.2390151245
  0
LINE
  5
2DF
100
AcDbEntity
  8
3288C1E1____
100
AcDbLine
 62
7
  6
CONTINUOUS
 10
431.9841951009
 20
1108.5699164023
 11
365.3271199764
 21
1122.364320778
  0
LINE
  5
2E0
100
AcDbEntity
  8
3288C1E1____
100
AcDbLine
 62
7
  6
CONTINUOUS
 10
431.9841951009
 20
1109.3577626047
 11
365.3271199764
 21
1123.1521669804
  0
LINE
  5
2E1
100
AcDbEntity
  8
3288C1E1____
100
AcDbLine
 62
7
  6
CONTINUOUS
 10
488.5906958691
 20
1104.4770664524
 11
489.1049259569
 21
1104.3706486751
  0
LINE
  5
2E2
100
AcDbEntity
  8
3288E5__________________
100
AcDbLine
 62
7
  6
CONTINUOUS
 10
491.3973711207
 20
1104.875311677
 11
491.8353222447
 21
1104.7804866041
  0
LINE
  5
2E3
100
AcDbEntity
  8
3288C1E1____
100
AcDbLine
 62
7
  6
CONTINUOUS
 10
489.1049259569
 20
1104.3706486751
 11
486.1496365008
 21
1103.940038999
  0
LINE
  5
2E4
100
AcDbEntity
  8
3288C1E1____
100
AcDbLine
 62
7
  6
CONTINUOUS
 10
488.5906958691
 20
1104.4770664524
 11
485.5757232866
 21
1104.03776046
  0
LINE
  5
2E5
100
AcDbEntity
  8
3288C1E1____
100
AcDbLine
 62
7
  6
CONTINUOUS
 10
482.0320524602
 20
1108.264112327
 11
489.1049259569
 21
1109.2946874402
  0
LINE
  5
2E6
100
AcDbEntity
  8
3288E5__________________
100
AcDbLine
 62
7
  6
CONTINUOUS
 10
480.0198090093
 20
1121.9295858578
 11
480.2690445103
 21
1121.8836186491
  0
LINE
  5
2E7
100
AcDbEntity
  8
3288E5__________________
100
AcDbLine
 62
7
  6
CONTINUOUS
 10
479.7759199868
 20
1121.9080548976
 11
479.8960296203
 21
1121.8831987086
  0
LINE
  5
2E8
100
AcDbEntity
  8
3288E5__________________
100
AcDbLine
 62
7
  6
CONTINUOUS
 10
498.305721034
 20
1124.5656424763
 11
497.8526018852
 21
1124.659413599
  0
LINE
  5
2E9
100
AcDbEntity
  8
3288E5__________________
100
AcDbLine
 62
7
  6
CONTINUOUS
 10
496.6786100122
 20
1114.5096484707
 11
496.2600265056
 21
1114.6070754437
  0
LINE
  5
2EA
100
AcDbEntity
  8
3288E5__________________
100
AcDbLine
 62
7
  6
CONTINUOUS
 10
496.2600265056
 20
1122.4855374678
 11
496.6786100122
 21
1122.3881104948
  0
LINE
  5
2EB
100
AcDbEntity
  8
3288C1E1____
100
AcDbLine
 62
7
  6
CONTINUOUS
 10
582.1289059523
 20
1130.4472202238
 11
578.1372608582
 21
1129.8656051142
  0
LINE
  5
2EC
100
AcDbEntity
  8
3288C1E1____
100
AcDbLine
 62
7
  6
CONTINUOUS
 10
435.975840195
 20
1109.1515315119
 11
431.9841951009
 21
1108.5699164023
  0
LINE
  5
2ED
100
AcDbEntity
  8
3288C1E1____
100
AcDbLine
 62
7
  6
CONTINUOUS
 10
582.1289059523
 20
1131.2350664263
 11
578.1372608582
 21
1130.6534513166
  0
LINE
  5
2EE
100
AcDbEntity
  8
3288C1E1____
100
AcDbLine
 62
7
  6
CONTINUOUS
 10
435.975840195
 20
1109.9393777144
 11
431.9841951009
 21
1109.3577626047
  0
LINE
  5
2EF
100
AcDbEntity
  8
3288C1E1_______
100
AcDbLine
 62
7
  6
CONTINUOUS
 10
364.8882938916
 20
1122.2390151245
 11
365.5011294461
 21
1122.3283102422
  0
LINE
  5
2F0
100
AcDbEntity
  8
3288C1E1____
100
AcDbLine
 62
7
  6
CONTINUOUS
 10
365.3271199764
 20
1123.1521669804
 11
515.4718308278
 21
1145.029470802
  0
LINE
  5
2F1
100
AcDbEntity
  8
3288C1E1____
100
AcDbLine
 62
7
  6
CONTINUOUS
 10
365.1396787366
 20
1123.158332768
 11
515.284389588
 21
1145.0356365896
  0
LINE
  5
2F2
100
AcDbEntity
  8
3288C1E1____
100
AcDbLine
 62
7
  6
CONTINUOUS
 10
365.2510341898
 20
1122.3624122783
 11
365.3271199764
 21
1122.364320778
  0
LINE
  5
2F3
100
AcDbEntity
  8
3288C1E1_______
100
AcDbLine
 62
7
  6
CONTINUOUS
 10
582.1282910603
 20
1130.5486218234
 11
582.6674425606
 21
1130.5518911993
  0
LINE
  5
2F4
100
AcDbEntity
  8
3288C1E1_______
100
AcDbLine
 62
7
  6
CONTINUOUS
 10
582.1717941037
 20
1130.6544635853
 11
582.6674425606
 21
1130.5518911993
  0
LINE
  5
2F5
100
AcDbEntity
  8
3288C1E1_______
100
AcDbLine
 62
7
  6
CONTINUOUS
 10
582.850940654
 20
1130.5575742976
 11
582.1804577584
 21
1130.6963279434
  0
LINE
  5
2F6
100
AcDbEntity
  8
3288C1E1____
100
AcDbLine
 62
7
  6
CONTINUOUS
 10
582.1289059523
 20
1131.2350664263
 11
515.4718308278
 21
1145.029470802
  0
ARC
  5
2F7
100
AcDbEntity
  8
3288E5__________________
100
AcDbCircle
 62
7
  6
CONTINUOUS
 10
563.2213970102
 20
512.2709385507
 40
517.8982155967
100
AcDbArc
 50
97.3948262867
 51
97.7945596323
  0
ARC
  5
2F8
100
AcDbEntity
  8
3288E5__________________
100
AcDbCircle
 62
7
  6
CONTINUOUS
 10
553.2704762694
 20
582.2176865463
 40
447.2464047352
100
AcDbArc
 50
98.4017199528
 51
98.8359826939
  0
ARC
  5
2F9
100
AcDbEntity
  8
3288C1E1_______
100
AcDbCircle
 62
7
  6
CONTINUOUS
 10
365.7019916775
 20
502.7999867313
 40
1.4570095177
100
AcDbArc
 50
179.9659608086
 51
189.2393875406
  0
ARC
  5
2FA
100
AcDbEntity
  8
3288C1E1____
100
AcDbCircle
 62
7
  6
CONTINUOUS
 10
381.9576923998
 20
1116.936430405
 40
4.5783371594
100
AcDbArc
 50
98.2500944586
 51
100.1960175871
  0
ARC
  5
2FB
100
AcDbEntity
  8
3288C1E1____
100
AcDbCircle
 62
7
  6
CONTINUOUS
 10
366.3627581495
 20
1122.045882413
 40
1.8712623528
100
AcDbArc
 50
173.2100674939
 51
180.0317401551
  0
ARC
  5
2FC
100
AcDbEntity
  8
3288C1E1_______
100
AcDbCircle
 62
7
  6
CONTINUOUS
 10
365.878912928
 20
1121.100997465
 40
1.6507148891
100
AcDbArc
 50
179.8103854144
 51
188.1775441953
  0
ARC
  5
2FD
100
AcDbEntity
  8
3288E5__________________
100
AcDbCircle
 62
7
  6
CONTINUOUS
 10
450.5067203152
 20
999.3261367719
 40
14.9138868458
100
AcDbArc
 50
182.2066456279
 51
183.5112835093
  0
ARC
  5
2FE
100
AcDbEntity
  8
3288E5__________________
100
AcDbCircle
 62
7
  6
CONTINUOUS
 10
423.4952636147
 20
1046.5991122447
 40
13.8542765011
100
AcDbArc
 50
2.3853045162
 51
3.7896618021
  0
ARC
  5
2FF
100
AcDbEntity
  8
3288E5__________________
100
AcDbCircle
 62
7
  6
CONTINUOUS
 10
452.2645724047
 20
997.54167305
 40
12.6837491161
100
AcDbArc
 50
182.5955726217
 51
184.1294370739
  0
ARC
  5
300
100
AcDbEntity
  8
3288E5__________________
100
AcDbCircle
 62
7
  6
CONTINUOUS
 10
448.2321939104
 20
1047.6313019093
 40
11.9748578613
100
AcDbArc
 50
176.7774139684
 51
178.0790774583
  0
ARC
  5
301
100
AcDbEntity
  8
3288E5__________________
100
AcDbCircle
 62
7
  6
CONTINUOUS
 10
455.2752056138
 20
995.8040753242
 40
11.0698354862
100
AcDbArc
 50
182.974665634
 51
184.7319160296
  0
ARC
  5
302
100
AcDbEntity
  8
3288E5__________________
100
AcDbCircle
 62
7
  6
CONTINUOUS
 10
450.4411318962
 20
1045.852906566
 40
10.2109425747
100
AcDbArc
 50
176.2141748347
 51
177.7421091423
  0
ARC
  5
303
100
AcDbEntity
  8
3288E5__________________
100
AcDbCircle
 62
7
  6
CONTINUOUS
 10
446.2377092236
 20
999.003327244
 40
9.9710674899
100
AcDbArc
 50
184.8649178144
 51
186.6273394226
  0
ARC
  5
304
100
AcDbEntity
  8
3288E5__________________
100
AcDbCircle
 62
7
  6
CONTINUOUS
 10
459.3010102025
 20
994.1201914332
 40
9.8527329284
100
AcDbArc
 50
183.3424841176
 51
185.3164616172
  0
ARC
  5
305
100
AcDbEntity
  8
3288E5__________________
100
AcDbCircle
 62
7
  6
CONTINUOUS
 10
453.7776810214
 20
1044.1211275621
 40
8.9406426116
100
AcDbArc
 50
175.6675979724
 51
177.4144707965
  0
ARC
  5
306
100
AcDbEntity
  8
3288E5__________________
100
AcDbCircle
 62
7
  6
CONTINUOUS
 10
464.1952300247
 20
992.4966485573
 40
8.9063150272
100
AcDbArc
 50
183.697628112
 51
185.8808915786
  0
ARC
  5
307
100
AcDbEntity
  8
3288E5__________________
100
AcDbCircle
 62
7
  6
CONTINUOUS
 10
448.7511349279
 20
997.2288023895
 40
8.5101258455
100
AcDbArc
 50
185.7197528628
 51
187.7862717852
  0
ARC
  5
308
100
AcDbEntity
  8
3288E5__________________
100
AcDbCircle
 62
7
  6
CONTINUOUS
 10
458.0477739956
 20
1042.4427891882
 40
7.988018605
100
AcDbArc
 50
175.1399872731
 51
177.0974981033
  0
ARC
  5
309
100
AcDbEntity
  8
3288E5__________________
100
AcDbCircle
 62
7
  6
CONTINUOUS
 10
452.3031647262
 20
995.5010565388
 40
7.4538709347
100
AcDbArc
 50
186.5526969217
 51
188.9139555764
  0
ARC
  5
30A
100
AcDbEntity
  8
3288E5__________________
100
AcDbCircle
 62
7
  6
CONTINUOUS
 10
463.1298752145
 20
1040.8245041642
 40
7.2520860373
100
AcDbArc
 50
174.6335264233
 51
176.7924755933
  0
ARC
  5
30B
100
AcDbEntity
  8
3288E5__________________
100
AcDbCircle
 62
7
  6
CONTINUOUS
 10
456.7318071545
 20
993.826915933
 40
6.6584448586
100
AcDbArc
 50
187.3606562722
 51
190.0062100501
  0
ARC
  5
30C
100
AcDbEntity
  8
3288E5__________________
100
AcDbCircle
 62
7
  6
CONTINUOUS
 10
456.5253909217
 20
1042.572962345
 40
6.4600805756
100
AcDbArc
 50
172.9042923773
 51
175.146430726
  0
ARC
  5
30D
100
AcDbEntity
  8
3288E5__________________
100
AcDbCircle
 62
7
  6
CONTINUOUS
 10
461.9335689044
 20
992.2129583597
 40
6.0409087427
100
AcDbArc
 50
188.1406639111
 51
191.0591103199
  0
ARC
  5
30E
100
AcDbEntity
  8
3288E5__________________
100
AcDbCircle
 62
7
  6
CONTINUOUS
 10
461.7701255309
 20
1040.9529179561
 40
5.8862863685
100
AcDbArc
 50
172.1735187686
 51
174.6401388742
  0
ARC
  5
30F
100
AcDbEntity
  8
3288E5__________________
100
AcDbCircle
 62
7
  6
CONTINUOUS
 10
432.5339919629
 20
1047.6737638602
 40
4.7423376348
100
AcDbArc
 50
11.2375865317
 51
14.4570666173
  0
ARC
  5
310
100
AcDbEntity
  8
3288E5__________________
100
AcDbCircle
 62
7
  6
CONTINUOUS
 10
448.7151480265
 20
1042.5350750927
 40
3.2427471854
100
AcDbArc
 50
16.5055813285
 51
29.3515784272
  0
ARC
  5
311
100
AcDbEntity
  8
3288E5__________________
100
AcDbCircle
 62
7
  6
CONTINUOUS
 10
443.3046765014
 20
1044.3564872656
 40
3.1162108114
100
AcDbArc
 50
19.0612221994
 51
23.2645396013
  0
ARC
  5
312
100
AcDbEntity
  8
3288E5__________________
100
AcDbCircle
 62
7
  6
CONTINUOUS
 10
456.476507977
 20
1042.3203387214
 40
0.9743999911
100
AcDbArc
 50
76.4904164303
 51
81.0487969224
  0
ARC
  5
313
100
AcDbEntity
  8
3288E5__________________
100
AcDbCircle
 62
7
  6
CONTINUOUS
 10
463.4867457977
 20
988.4565786945
 40
0.9240078842
100
AcDbArc
 50
285.374486663
 51
295.7674344627
  0
ARC
  5
314
100
AcDbEntity
  8
3288E5__________________
100
AcDbCircle
 62
7
  6
CONTINUOUS
 10
463.4954630723
 20
988.4293352921
 40
0.8954290239
100
AcDbArc
 50
277.8271525487
 51
285.2988311115
  0
ARC
  5
315
100
AcDbEntity
  8
3288E5__________________
100
AcDbCircle
 62
7
  6
CONTINUOUS
 10
463.0246485224
 20
1040.8724578422
 40
0.8776130578
100
AcDbArc
 50
97.7185881551
 51
105.3750042235
  0
ARC
  5
316
100
AcDbEntity
  8
3288E5__________________
100
AcDbCircle
 62
7
  6
CONTINUOUS
 10
456.9399756374
 20
989.8318428583
 40
0.7598822148
100
AcDbArc
 50
276.872108354
 51
285.9805613191
  0
ARC
  5
317
100
AcDbEntity
  8
3288E5__________________
100
AcDbCircle
 62
7
  6
CONTINUOUS
 10
456.4919263847
 20
1042.5504257542
 40
0.7428300689
100
AcDbArc
 50
96.7736390915
 51
106.0852973374
  0
ARC
  5
318
100
AcDbEntity
  8
3288E5__________________
100
AcDbCircle
 62
7
  6
CONTINUOUS
 10
450.9506826707
 20
991.3084695287
 40
0.6300858862
100
AcDbArc
 50
275.9984677876
 51
286.9202647361
  0
ARC
  5
319
100
AcDbEntity
  8
3288E5__________________
100
AcDbCircle
 62
7
  6
CONTINUOUS
 10
450.5312495694
 20
1044.2905718483
 40
0.6139331572
100
AcDbArc
 50
95.9064788991
 51
105.1746621856
  0
ARC
  5
31A
100
AcDbEntity
  8
3288E5__________________
100
AcDbCircle
 62
7
  6
CONTINUOUS
 10
445.5512316528
 20
992.8550632469
 40
0.5081903397
100
AcDbArc
 50
275.1956102766
 51
288.2103276968
  0
ARC
  5
31B
100
AcDbEntity
  8
3288E5__________________
100
AcDbCircle
 62
7
  6
CONTINUOUS
 10
450.237461019
 20
1078.9849215897
 40
34.3994596445
100
AcDbArc
 50
120.1242361951
 51
121.8605248173
  0
ARC
  5
31C
100
AcDbEntity
  8
3288E5__________________
100
AcDbCircle
 62
7
  6
CONTINUOUS
 10
450.5742972375
 20
1079.5358445611
 40
33.7255180193
100
AcDbArc
 50
119.5448921934
 51
122.821273851
  0
ARC
  5
31D
100
AcDbEntity
  8
3288C1E1____
100
AcDbCircle
 62
7
  6
CONTINUOUS
 10
452.6160912008
 20
1081.9392716042
 40
31.8967873433
100
AcDbArc
 50
120.8316051749
 51
121.4457154993
  0
ARC
  5
31E
100
AcDbEntity
  8
3288E5__________________
100
AcDbCircle
 62
7
  6
CONTINUOUS
 10
448.0918896013
 20
1082.4412896454
 40
30.3312964685
100
AcDbArc
 50
121.8645769891
 51
123.4557981781
  0
ARC
  5
31F
100
AcDbEntity
  8
3288E5__________________
100
AcDbCircle
 62
7
  6
CONTINUOUS
 10
447.4846250684
 20
1084.3733493445
 40
27.9855930555
100
AcDbArc
 50
122.8736283165
 51
124.5609135526
  0
ARC
  5
320
100
AcDbEntity
  8
3288E5__________________
100
AcDbCircle
 62
7
  6
CONTINUOUS
 10
446.15626397
 20
1085.3635493812
 40
26.8260925152
100
AcDbArc
 50
123.6709975719
 51
125.0838077681
  0
ARC
  5
321
100
AcDbEntity
  8
3288E5__________________
100
AcDbCircle
 62
7
  6
CONTINUOUS
 10
445.257467418
 20
1086.6516135948
 40
25.2554494372
100
AcDbArc
 50
125.0948099659
 51
125.4224596101
  0
ARC
  5
322
100
AcDbEntity
  8
3288E5__________________
100
AcDbCircle
 62
7
  6
CONTINUOUS
 10
445.894071808
 20
1086.6852919059
 40
25.1793464342
100
AcDbArc
 50
124.7969351599
 51
125.6888518382
  0
ARC
  5
323
100
AcDbEntity
  8
3288E5__________________
100
AcDbCircle
 62
7
  6
CONTINUOUS
 10
444.7985889952
 20
1087.2951208981
 40
24.465087012
100
AcDbArc
 50
125.5548208971
 51
125.9086324195
  0
ARC
  5
324
100
AcDbEntity
  8
3288E5__________________
100
AcDbCircle
 62
7
  6
CONTINUOUS
 10
445.2082435403
 20
1087.6422166152
 40
24.0020343537
100
AcDbArc
 50
125.6917786727
 51
126.2254007429
  0
ARC
  5
325
100
AcDbEntity
  8
3288E5__________________
100
AcDbCircle
 62
7
  6
CONTINUOUS
 10
444.7756588957
 20
1088.2331772892
 40
23.2696656505
100
AcDbArc
 50
126.2260674275
 51
126.6344469616
  0
ARC
  5
326
100
AcDbEntity
  8
3288E5__________________
100
AcDbCircle
 62
7
  6
CONTINUOUS
 10
444.3295935818
 20
1088.8323739655
 40
22.5226644774
100
AcDbArc
 50
126.6334193235
 51
127.2351448921
  0
ARC
  5
327
100
AcDbEntity
  8
3288C1E1_______
100
AcDbCircle
 62
7
  6
CONTINUOUS
 10
429.6733925317
 20
1115.5298487227
 40
8.2849694629
100
AcDbArc
 50
273.7936886349
 51
277.567623169
  0
ARC
  5
328
100
AcDbEntity
  8
3288C1E1_______
100
AcDbCircle
 62
7
  6
CONTINUOUS
 10
429.7548957239
 20
1114.23133679
 40
6.9839118103
100
AcDbArc
 50
272.2380886387
 51
273.8313459002
  0
ARC
  5
329
100
AcDbEntity
  8
3288C1E1____
100
AcDbCircle
 62
7
  6
CONTINUOUS
 10
426.9528250778
 20
1107.6248748959
 40
4.5783371593
100
AcDbArc
 50
98.2500944586
 51
100.1960175872
  0
ARC
  5
32A
100
AcDbEntity
  8
3288C1E1_______
100
AcDbCircle
 62
7
  6
CONTINUOUS
 10
431.4169111574
 20
1107.2434943606
 40
1.2602520771
100
AcDbArc
 50
106.9300989142
 51
116.3401155197
  0
ARC
  5
32B
100
AcDbEntity
  8
3288C1E1_______
100
AcDbCircle
 62
7
  6
CONTINUOUS
 10
431.3949392926
 20
1107.3132113366
 40
1.1871584879
100
AcDbArc
 50
100.5551741819
 51
106.8954604443
  0
ARC
  5
32C
100
AcDbEntity
  8
3288C1E1_______
100
AcDbCircle
 62
7
  6
CONTINUOUS
 10
431.3841219748
 20
1107.3706224444
 40
1.1287373006
100
AcDbArc
 50
94.4237119653
 51
100.5492057341
  0
ARC
  5
32D
100
AcDbEntity
  8
3288C1E1____
100
AcDbCircle
 62
7
  6
CONTINUOUS
 10
558.1485259177
 20
645.7162278399
 40
482.6012377623
100
AcDbArc
 50
97.247489806
 51
98.2572508912
  0
ARC
  5
32E
100
AcDbEntity
  8
3288C1E1____
100
AcDbCircle
 62
7
  6
CONTINUOUS
 10
556.6958014676
 20
657.2462503904
 40
471.7617848067
100
AcDbArc
 50
97.1782483388
 51
98.2824440535
  0
ARC
  5
32F
100
AcDbEntity
  8
3288C1E1____
100
AcDbCircle
 62
7
  6
CONTINUOUS
 10
548.334047077
 20
713.9478182764
 40
413.6674510629
100
AcDbArc
 50
98.283410994
 51
99.3665410366
  0
ARC
  5
330
100
AcDbEntity
  8
3288C1E1____
100
AcDbCircle
 62
7
  6
CONTINUOUS
 10
545.9788529156
 20
729.9105436391
 40
398.3115386636
100
AcDbArc
 50
98.2807727868
 51
99.5179161918
  0
ARC
  5
331
100
AcDbEntity
  8
3288E5__________________
100
AcDbCircle
 62
7
  6
CONTINUOUS
 10
542.226994158
 20
650.5736029129
 40
378.0031972018
100
AcDbArc
 50
99.517420848
 51
99.9953709012
  0
ARC
  5
332
100
AcDbEntity
  8
3288C1E1____
100
AcDbCircle
 62
7
  6
CONTINUOUS
 10
541.9901308726
 20
753.2632589313
 40
373.8437434
100
AcDbArc
 50
99.3878819456
 51
99.5085860752
  0
ARC
  5
333
100
AcDbEntity
  8
3288E5__________________
100
AcDbCircle
 62
7
  6
CONTINUOUS
 10
535.9564564057
 20
784.9058857739
 40
341.6082951964
100
AcDbArc
 50
99.5223758997
 51
101.0997229301
  0
ARC
  5
334
100
AcDbEntity
  8
3288E5__________________
100
AcDbCircle
 62
7
  6
CONTINUOUS
 10
530.3602714934
 20
715.4091816244
 40
312.0894400214
100
AcDbArc
 50
100.7768993601
 51
101.310116039
  0
ARC
  5
335
100
AcDbEntity
  8
3288E5__________________
100
AcDbCircle
 62
7
  6
CONTINUOUS
 10
527.5374762689
 20
828.1142738046
 40
297.5873875449
100
AcDbArc
 50
101.1106718769
 51
101.6980028767
  0
ARC
  5
336
100
AcDbEntity
  8
3288E5__________________
100
AcDbCircle
 62
7
  6
CONTINUOUS
 10
520.7016508433
 20
860.8817954397
 40
264.1144708462
100
AcDbArc
 50
101.6871288066
 51
102.6117703578
  0
ARC
  5
337
100
AcDbEntity
  8
3288E5__________________
100
AcDbCircle
 62
7
  6
CONTINUOUS
 10
518.4102210924
 20
772.8411112494
 40
253.4260721864
100
AcDbArc
 50
102.2144823587
 51
102.8122068344
  0
ARC
  5
338
100
AcDbEntity
  8
3288E5__________________
100
AcDbCircle
 62
7
  6
CONTINUOUS
 10
506.0880153296
 20
824.8516464831
 40
199.9741026582
100
AcDbArc
 50
103.8790045884
 51
104.5596044083
  0
ARC
  5
339
100
AcDbEntity
  8
3288E5__________________
100
AcDbCircle
 62
7
  6
CONTINUOUS
 10
493.7639478959
 20
870.275328067
 40
152.906149357
100
AcDbArc
 50
105.8476326486
 51
106.633391574
  0
ARC
  5
33A
100
AcDbEntity
  8
3288E5__________________
100
AcDbCircle
 62
7
  6
CONTINUOUS
 10
481.7931545681
 20
908.5070080829
 40
112.8415189525
100
AcDbArc
 50
108.2341425819
 51
109.153954759
  0
ARC
  5
33B
100
AcDbEntity
  8
3288E5__________________
100
AcDbCircle
 62
7
  6
CONTINUOUS
 10
470.5143886401
 20
939.3021453582
 40
80.0424960433
100
AcDbArc
 50
111.200687193
 51
112.2873652277
  0
ARC
  5
33C
100
AcDbEntity
  8
3288E5__________________
100
AcDbCircle
 62
7
  6
CONTINUOUS
 10
469.8572603412
 20
990.9398313048
 40
8.1529586207
100
AcDbArc
 50
184.0387430927
 51
186.4231073019
  0
ARC
  5
33D
100
AcDbEntity
  8
3288E5__________________
100
AcDbCircle
 62
7
  6
CONTINUOUS
 10
491.2830954751
 20
986.8233213193
 40
6.6805664468
100
AcDbArc
 50
184.9505108502
 51
187.7102089048
  0
ARC
  5
33E
100
AcDbEntity
  8
3288E5__________________
100
AcDbCircle
 62
7
  6
CONTINUOUS
 10
499.3375917654
 20
985.5964892132
 40
6.3278118602
100
AcDbArc
 50
185.2221986053
 51
188.1341695559
  0
ARC
  5
33F
100
AcDbEntity
  8
3288E5__________________
100
AcDbCircle
 62
7
  6
CONTINUOUS
 10
507.8739372383
 20
984.4635026565
 40
6.030579834
100
AcDbArc
 50
185.4739808487
 51
188.5275783571
  0
ARC
  5
340
100
AcDbEntity
  8
3288E5__________________
100
AcDbCircle
 62
7
  6
CONTINUOUS
 10
516.8478235764
 20
983.4288094894
 40
5.7793200956
100
AcDbArc
 50
185.7048698005
 51
188.8889685081
  0
ARC
  5
341
100
AcDbEntity
  8
3288E5__________________
100
AcDbCircle
 62
7
  6
CONTINUOUS
 10
467.8343801623
 20
990.6655036762
 40
5.5500871956
100
AcDbArc
 50
188.8898890381
 51
192.068997541
  0
ARC
  5
342
100
AcDbEntity
  8
3288E5__________________
100
AcDbCircle
 62
7
  6
CONTINUOUS
 10
474.3758139521
 20
989.1905972901
 40
5.1526976504
100
AcDbArc
 50
189.6056443602
 51
193.0324828321
  0
ARC
  5
343
100
AcDbEntity
  8
3288E5__________________
100
AcDbCircle
 62
7
  6
CONTINUOUS
 10
481.5080023156
 20
987.7939912121
 40
4.8261677743
100
AcDbArc
 50
190.2853910047
 51
193.9464450505
  0
ARC
  5
344
100
AcDbEntity
  8
3288E5__________________
100
AcDbCircle
 62
7
  6
CONTINUOUS
 10
513.1328435348
 20
981.7566955018
 40
1.6989980059
100
AcDbArc
 50
286.7747565363
 51
292.1873132187
  0
ARC
  5
345
100
AcDbEntity
  8
3288E5__________________
100
AcDbCircle
 62
7
  6
CONTINUOUS
 10
503.7907904641
 20
982.6487303508
 40
1.5791061435
100
AcDbArc
 50
284.6757690546
 51
292.4282455313
  0
ARC
  5
346
100
AcDbEntity
  8
3288E5__________________
100
AcDbCircle
 62
7
  6
CONTINUOUS
 10
494.8241857672
 20
983.6701135574
 40
1.489337477
100
AcDbArc
 50
274.8986055524
 51
282.8543851249
  0
ARC
  5
347
100
AcDbEntity
  8
3288E5__________________
100
AcDbCircle
 62
7
  6
CONTINUOUS
 10
494.8318190797
 20
983.6307832486
 40
1.4492952165
100
AcDbArc
 50
282.9060934413
 51
291.5850366771
  0
ARC
  5
348
100
AcDbEntity
  8
3288E5__________________
100
AcDbCircle
 62
7
  6
CONTINUOUS
 10
486.2843496268
 20
984.7354555666
 40
1.3471967697
100
AcDbArc
 50
274.5210526489
 51
281.3553326414
  0
ARC
  5
349
100
AcDbEntity
  8
3288E5__________________
100
AcDbCircle
 62
7
  6
CONTINUOUS
 10
486.2893377219
 20
984.7055850417
 40
1.3169292126
100
AcDbArc
 50
281.3984415015
 51
291.9350011596
  0
ARC
  5
34A
100
AcDbEntity
  8
3288E5__________________
100
AcDbCircle
 62
7
  6
CONTINUOUS
 10
478.1947262938
 20
985.8905507544
 40
1.2042072892
100
AcDbArc
 50
274.1603645436
 51
280.0395900795
  0
ARC
  5
34B
100
AcDbEntity
  8
3288E5__________________
100
AcDbCircle
 62
7
  6
CONTINUOUS
 10
478.1972873865
 20
985.868253927
 40
1.1818679938
100
AcDbArc
 50
284.5081069917
 51
292.5403561522
  0
ARC
  5
34C
100
AcDbEntity
  8
3288E5__________________
100
AcDbCircle
 62
7
  6
CONTINUOUS
 10
478.199582569
 20
985.8614849133
 40
1.1747399647
100
AcDbArc
 50
280.0534950265
 51
284.4824405426
  0
ARC
  5
34D
100
AcDbEntity
  8
3288E5__________________
100
AcDbCircle
 62
7
  6
CONTINUOUS
 10
470.5875708516
 20
987.1293830791
 40
1.0594104545
100
AcDbArc
 50
273.8069044884
 51
278.8738984606
  0
ARC
  5
34E
100
AcDbEntity
  8
3288E5__________________
100
AcDbCircle
 62
7
  6
CONTINUOUS
 10
470.5878275019
 20
987.1159711365
 40
1.0462334876
100
AcDbArc
 50
284.8404632369
 51
293.4486015991
  0
ARC
  5
34F
100
AcDbEntity
  8
3288E5__________________
100
AcDbCircle
 62
7
  6
CONTINUOUS
 10
470.5913070693
 20
987.1047346541
 40
1.034480721
100
AcDbArc
 50
278.8800339735
 51
284.8135724634
  0
ARC
  5
350
100
AcDbEntity
  8
3288E5__________________
100
AcDbCircle
 62
7
  6
CONTINUOUS
 10
468.9390239801
 20
1039.272648396
 40
6.6707775883
100
AcDbArc
 50
174.1502688511
 51
176.5006309233
  0
ARC
  5
351
100
AcDbEntity
  8
3288E5__________________
100
AcDbCircle
 62
7
  6
CONTINUOUS
 10
475.4098592421
 20
1037.7933361983
 40
6.2038777943
100
AcDbArc
 50
173.6921295302
 51
176.2231295817
  0
ARC
  5
352
100
AcDbEntity
  8
3288E5__________________
100
AcDbCircle
 62
7
  6
CONTINUOUS
 10
482.48791348
 20
1036.3923963413
 40
5.8242179907
100
AcDbArc
 50
173.2608786212
 51
175.9610700559
  0
ARC
  5
353
100
AcDbEntity
  8
3288E5__________________
100
AcDbCircle
 62
7
  6
CONTINUOUS
 10
490.1248596809
 20
1035.0753491206
 40
5.512815884
100
AcDbArc
 50
172.8581368818
 51
175.7154794846
  0
ARC
  5
354
100
AcDbEntity
  8
3288E5__________________
100
AcDbCircle
 62
7
  6
CONTINUOUS
 10
467.7097893508
 20
1039.3992211644
 40
5.4350438177
100
AcDbArc
 50
171.4786229427
 51
174.156913666
  0
ARC
  5
355
100
AcDbEntity
  8
3288E5__________________
100
AcDbCircle
 62
7
  6
CONTINUOUS
 10
474.2873800675
 20
1037.9179988243
 40
5.0744974969
100
AcDbArc
 50
170.8222964006
 51
173.6986801405
  0
ARC
  5
356
100
AcDbEntity
  8
3288E5__________________
100
AcDbCircle
 62
7
  6
CONTINUOUS
 10
481.4540581926
 20
1036.5150953859
 40
4.7831073003
100
AcDbArc
 50
170.2069593433
 51
173.2672221552
  0
ARC
  5
357
100
AcDbEntity
  8
3288E5__________________
100
AcDbCircle
 62
7
  6
CONTINUOUS
 10
489.1654182438
 20
1035.1960487884
 40
4.5458122632
100
AcDbArc
 50
169.6347609445
 51
172.8641769652
  0
ARC
  5
358
100
AcDbEntity
  8
3288E5__________________
100
AcDbCircle
 62
7
  6
CONTINUOUS
 10
485.936927219
 20
1035.9904601475
 40
1.6233897375
100
AcDbArc
 50
138.7341095631
 51
147.3801042589
  0
ARC
  5
359
100
AcDbEntity
  8
3288E5__________________
100
AcDbCircle
 62
7
  6
CONTINUOUS
 10
477.9266012976
 20
1037.3557103412
 40
1.5927911568
100
AcDbArc
 50
140.1676274425
 51
148.7538794335
  0
ARC
  5
35A
100
AcDbEntity
  8
3288E5__________________
100
AcDbCircle
 62
7
  6
CONTINUOUS
 10
477.7124932803
 20
1037.6231384419
 40
1.2694791137
100
AcDbArc
 50
88.2204958173
 51
94.113838712
  0
ARC
  5
35B
100
AcDbEntity
  8
3288E5__________________
100
AcDbCircle
 62
7
  6
CONTINUOUS
 10
477.7071583549
 20
1037.7013633448
 40
1.191073075
100
AcDbArc
 50
94.1278152332
 51
99.8963617404
  0
ARC
  5
35C
100
AcDbEntity
  8
3288E5__________________
100
AcDbCircle
 62
7
  6
CONTINUOUS
 10
477.7014423913
 20
1037.7357773093
 40
1.1561888339
100
AcDbArc
 50
99.9104205895
 51
104.5185613479
  0
ARC
  5
35D
100
AcDbEntity
  8
3288E5__________________
100
AcDbCircle
 62
7
  6
CONTINUOUS
 10
470.1082919925
 20
1039.2349783443
 40
1.0464031812
100
AcDbArc
 50
93.7754320104
 51
98.7525038078
  0
ARC
  5
35E
100
AcDbEntity
  8
3288E5__________________
100
AcDbCircle
 62
7
  6
CONTINUOUS
 10
470.1037696572
 20
1039.2648793332
 40
1.0161622482
100
AcDbArc
 50
98.757029173
 51
104.8675268884
  0
ARC
  5
35F
100
AcDbEntity
  8
3288E5__________________
100
AcDbCircle
 62
7
  6
CONTINUOUS
 10
472.3821432453
 20
1115.6407712406
 40
24.3227822437
100
AcDbArc
 50
355.5070845996
 51
357.3345177781
  0
ARC
  5
360
100
AcDbEntity
  8
3288E5__________________
100
AcDbCircle
 62
7
  6
CONTINUOUS
 10
487.5328436459
 20
1116.1125834604
 40
12.4680748848
100
AcDbArc
 50
272.1143907433
 51
273.740193901
  0
ARC
  5
361
100
AcDbEntity
  8
3288E5__________________
100
AcDbCircle
 62
7
  6
CONTINUOUS
 10
487.9963399653
 20
1115.8672217021
 40
12.3152576222
100
AcDbArc
 50
271.981749812
 51
273.7242308447
  0
ARC
  5
362
100
AcDbEntity
  8
3288E5__________________
100
AcDbCircle
 62
7
  6
CONTINUOUS
 10
486.0060764625
 20
1114.5064773511
 40
11.0836441773
100
AcDbArc
 50
287.6723946078
 51
290.0978912655
  0
ARC
  5
363
100
AcDbEntity
  8
3288E5__________________
100
AcDbCircle
 62
7
  6
CONTINUOUS
 10
488.0435118692
 20
1114.5694202482
 40
11.0166013661
100
AcDbArc
 50
270.8145658886
 51
271.9699739968
  0
ARC
  5
364
100
AcDbEntity
  8
3288E5__________________
100
AcDbCircle
 62
7
  6
CONTINUOUS
 10
488.0572367861
 20
1112.9930315095
 40
9.4401808122
100
AcDbArc
 50
267.5662380652
 51
270.8672904047
  0
ARC
  5
365
100
AcDbEntity
  8
3288E5__________________
100
AcDbCircle
 62
7
  6
CONTINUOUS
 10
487.2319427302
 20
1112.3219683477
 40
8.8514821629
100
AcDbArc
 50
291.0832429093
 51
294.6362804005
  0
ARC
  5
366
100
AcDbEntity
  8
3288E5__________________
100
AcDbCircle
 62
7
  6
CONTINUOUS
 10
488.2122649424
 20
1109.6747423799
 40
5.7601594109
100
AcDbArc
 50
302.7186918381
 51
303.5699423675
  0
ARC
  5
367
100
AcDbEntity
  8
3288E5__________________
100
AcDbCircle
 62
7
  6
CONTINUOUS
 10
487.6386020543
 20
1108.6701263222
 40
5.0907402389
100
AcDbArc
 50
257.0533900364
 51
258.6917348044
  0
ARC
  5
368
100
AcDbEntity
  8
3288C1E1____
100
AcDbCircle
 62
7
  6
CONTINUOUS
 10
489.3189397187
 20
1107.8278211852
 40
1.4823962022
100
AcDbArc
 50
88.1900303505
 51
98.3008076697
  0
ARC
  5
369
100
AcDbEntity
  8
3288C1E1____
100
AcDbCircle
 62
7
  6
CONTINUOUS
 10
489.3190655866
 20
1107.8541832424
 40
1.4560434937
100
AcDbArc
 50
83.4377281656
 51
88.1622162851
  0
ARC
  5
36A
100
AcDbEntity
  8
3288C1E1____
100
AcDbCircle
 62
7
  6
CONTINUOUS
 10
489.3204595604
 20
1107.8668171322
 40
1.4433330718
100
AcDbArc
 50
78.1535560145
 51
83.4353861261
  0
ARC
  5
36B
100
AcDbEntity
  8
3288E5__________________
100
AcDbCircle
 62
7
  6
CONTINUOUS
 10
480.083114245
 20
1120.8745716867
 40
1.0257925589
100
AcDbArc
 50
68.4256144494
 51
79.5884541211
  0
ARC
  5
36C
100
AcDbEntity
  8
3288E5__________________
100
AcDbCircle
 62
7
  6
CONTINUOUS
 10
498.2757933691
 20
1033.8473845907
 40
5.2560421307
100
AcDbArc
 50
172.4853727264
 51
175.4873098186
  0
ARC
  5
36D
100
AcDbEntity
  8
3288E5__________________
100
AcDbCircle
 62
7
  6
CONTINUOUS
 10
506.8976279805
 20
1032.7133420726
 40
5.0438926683
100
AcDbArc
 50
172.1439007876
 51
175.2774344942
  0
ARC
  5
36E
100
AcDbEntity
  8
3288E5__________________
100
AcDbCircle
 62
7
  6
CONTINUOUS
 10
515.9481314134
 20
1031.6776910248
 40
4.8688951164
100
AcDbArc
 50
171.8348818236
 51
175.0866456246
  0
ARC
  5
36F
100
AcDbEntity
  8
3288E5__________________
100
AcDbCircle
 62
7
  6
CONTINUOUS
 10
497.3793656906
 20
1033.9660678785
 40
4.3517921197
100
AcDbArc
 50
169.1075834235
 51
172.491031412
  0
ARC
  5
370
100
AcDbEntity
  8
3288E5__________________
100
AcDbCircle
 62
7
  6
CONTINUOUS
 10
506.0548740528
 20
1032.8300113016
 40
4.1931014389
100
AcDbArc
 50
168.6270492683
 51
172.1491196187
  0
ARC
  5
371
100
AcDbEntity
  8
3288E5__________________
100
AcDbCircle
 62
7
  6
CONTINUOUS
 10
515.1512499439
 20
1031.7923678787
 40
4.063804611
100
AcDbArc
 50
168.1945309731
 51
171.839622082
  0
ARC
  5
372
100
AcDbEntity
  8
3288E5__________________
100
AcDbCircle
 62
7
  6
CONTINUOUS
 10
512.6212601325
 20
1032.4547237914
 40
1.743917572
100
AcDbArc
 50
135.6085783106
 51
144.2377841867
  0
ARC
  5
373
100
AcDbEntity
  8
3288E5__________________
100
AcDbCircle
 62
7
  6
CONTINUOUS
 10
512.6546271001
 20
1032.5379514644
 40
1.7022426193
100
AcDbArc
 50
100.6361578306
 51
106.4137628783
  0
ARC
  5
374
100
AcDbEntity
  8
3288E5__________________
100
AcDbCircle
 62
7
  6
CONTINUOUS
 10
503.3195759451
 20
1033.5347091416
 40
1.7005047629
100
AcDbArc
 50
136.4700089772
 51
145.129567502
  0
ARC
  5
375
100
AcDbEntity
  8
3288E5__________________
100
AcDbCircle
 62
7
  6
CONTINUOUS
 10
512.6488155941
 20
1032.5596103888
 40
1.6798243004
100
AcDbArc
 50
106.4323702127
 51
112.2190158931
  0
ARC
  5
376
100
AcDbEntity
  8
3288E5__________________
100
AcDbCircle
 62
7
  6
CONTINUOUS
 10
494.4127982747
 20
1034.7149759305
 40
1.6598635455
100
AcDbArc
 50
137.5069721371
 51
146.174496739
  0
ARC
  5
377
100
AcDbEntity
  8
3288E5__________________
100
AcDbCircle
 62
7
  6
CONTINUOUS
 10
503.3036179124
 20
1033.6656443081
 40
1.5926947911
100
AcDbArc
 50
97.7108808498
 51
104.3750758366
  0
ARC
  5
378
100
AcDbEntity
  8
3288E5__________________
100
AcDbCircle
 62
7
  6
CONTINUOUS
 10
503.2957302577
 20
1033.7001028174
 40
1.5573571467
100
AcDbArc
 50
104.4087118598
 51
112.4830102751
  0
ARC
  5
379
100
AcDbEntity
  8
3288E5__________________
100
AcDbCircle
 62
7
  6
CONTINUOUS
 10
494.3404688363
 20
1034.894039497
 40
1.4821456402
100
AcDbArc
 50
94.1040661284
 51
102.6307422665
  0
ARC
  5
37A
100
AcDbEntity
  8
3288E5__________________
100
AcDbCircle
 62
7
  6
CONTINUOUS
 10
498.7409506588
 20
1122.482694239
 40
2.4809257823
100
AcDbArc
 50
170.9383932223
 51
179.9343369942
  0
ARC
  5
37B
100
AcDbEntity
  8
3288C1E1____
100
AcDbCircle
 62
7
  6
CONTINUOUS
 10
567.9050026118
 20
1128.1627519523
 40
4.5783371599
100
AcDbArc
 50
98.2500944588
 51
100.1960175871
  0
ARC
  5
37C
100
AcDbEntity
  8
3288C1E1____
100
AcDbCircle
 62
7
  6
CONTINUOUS
 10
522.9098699337
 20
1137.4743074621
 40
4.5783371593
100
AcDbArc
 50
98.2500944587
 51
100.1960175873
  0
ARC
  5
37D
100
AcDbEntity
  8
3288E5__________________
100
AcDbCircle
 62
7
  6
CONTINUOUS
 10
601.0766097474
 20
142.4094836136
 40
987.9794531412
100
AcDbArc
 50
91.0994954585
 51
91.2197362418
  0
ARC
  5
37E
100
AcDbEntity
  8
3288E5__________________
100
AcDbCircle
 62
7
  6
CONTINUOUS
 10
582.3460878626
 20
442.6569886019
 40
687.0863490926
100
AcDbArc
 50
95.2349655125
 51
95.6860148138
  0
ARC
  5
37F
100
AcDbEntity
  8
3288E5__________________
100
AcDbCircle
 62
7
  6
CONTINUOUS
 10
579.4465830432
 20
373.3602828862
 40
657.7588464925
100
AcDbArc
 50
95.6182799044
 51
95.9684650915
  0
ARC
  5
380
100
AcDbEntity
  8
3288E5__________________
100
AcDbCircle
 62
7
  6
CONTINUOUS
 10
578.9325353654
 20
476.9897631947
 40
652.5842951339
100
AcDbArc
 50
95.686438584
 51
96.0727093062
  0
ARC
  5
381
100
AcDbEntity
  8
3288E5__________________
100
AcDbCircle
 62
7
  6
CONTINUOUS
 10
571.7530674977
 20
444.0253217419
 40
586.6756875728
100
AcDbArc
 50
96.4723831424
 51
96.8458212138
  0
ARC
  5
382
100
AcDbEntity
  8
3288E5__________________
100
AcDbCircle
 62
7
  6
CONTINUOUS
 10
571.2450242646
 20
547.2697428013
 40
581.8854678864
100
AcDbArc
 50
96.0520884159
 51
97.2009642955
  0
ARC
  5
383
100
AcDbEntity
  8
PRODUCT_453410
100
AcDbCircle
 62
7
  6
CONTINUOUS
 10
712.2583171439
 20
240.0120153697
 40
6.1683182007
100
AcDbArc
 50
0.6701949112
 51
2.1374634365
  0
ARC
  5
384
100
AcDbEntity
  8
PRODUCT_453410
100
AcDbCircle
 62
7
  6
CONTINUOUS
 10
712.2583171455
 20
259.7081704299
 40
6.1683181992
100
AcDbArc
 50
0.670194911
 51
2.1374634366
  0
ARC
  5
385
100
AcDbEntity
  8
PRODUCT_453410
100
AcDbCircle
 62
7
  6
CONTINUOUS
 10
712.9708498548
 20
259.7268695313
 40
5.3448702601
100
AcDbArc
 50
9.8886850987
 51
10.3321047679
  0
ARC
  5
386
100
AcDbEntity
  8
PRODUCT_453410
100
AcDbCircle
 62
7
  6
CONTINUOUS
 10
712.9708498548
 20
240.0307144711
 40
5.3448702601
100
AcDbArc
 50
9.8886850987
 51
10.332104768
  0
ARC
  5
387
100
AcDbEntity
  8
PRODUCT_453410
100
AcDbCircle
 62
7
  6
CONTINUOUS
 10
713.150303286
 20
259.7622396182
 40
5.1619836328
100
AcDbArc
 50
10.3031243458
 51
15.8035772658
  0
ARC
  5
388
100
AcDbEntity
  8
PRODUCT_453410
100
AcDbCircle
 62
7
  6
CONTINUOUS
 10
713.1503032859
 20
240.066084558
 40
5.1619836329
100
AcDbArc
 50
10.3031243458
 51
15.8035772657
  0
ARC
  5
389
100
AcDbEntity
  8
PRODUCT_453410
100
AcDbCircle
 62
7
  6
CONTINUOUS
 10
713.2966548396
 20
240.2013289783
 40
5.1096682931
100
AcDbArc
 50
15.5519125947
 51
20.8771027875
  0
ARC
  5
38A
100
AcDbEntity
  8
3288E5__________________
100
AcDbCircle
 62
7
  6
CONTINUOUS
 10
713.8077035145
 20
240.7102967596
 40
4.4254657574
100
AcDbArc
 50
26.7483070011
 51
40.814513132
  0
ARC
  5
38B
100
AcDbEntity
  8
3288E5__________________
100
AcDbCircle
 62
7
  6
CONTINUOUS
 10
713.8077035151
 20
260.4064518201
 40
4.4254657569
100
AcDbArc
 50
26.7483069984
 51
40.8145131319
  0
ARC
  5
38C
100
AcDbEntity
  8
3288E5__________________
100
AcDbCircle
 62
7
  6
CONTINUOUS
 10
713.3425114358
 20
238.0876336131
 40
3.6748510712
100
AcDbArc
 50
278.3213909942
 51
283.3771977949
  0
ARC
  5
38D
100
AcDbEntity
  8
3288E5__________________
100
AcDbCircle
 62
7
  6
CONTINUOUS
 10
713.3425114367
 20
257.7837886715
 40
3.6748510692
100
AcDbArc
 50
278.3213909843
 51
283.3771977904
  0
ARC
  5
38E
100
AcDbEntity
  8
3288E5__________________
100
AcDbCircle
 62
7
  6
CONTINUOUS
 10
713.8425549661
 20
237.3112585724
 40
2.9981558162
100
AcDbArc
 50
238.8914873623
 51
248.5861629942
  0
ARC
  5
38F
100
AcDbEntity
  8
3288E5__________________
100
AcDbCircle
 62
7
  6
CONTINUOUS
 10
713.8053310474
 20
256.9587727976
 40
2.9404667306
100
AcDbArc
 50
258.1357910612
 51
264.0422758681
  0
ARC
  5
390
100
AcDbEntity
  8
3288E5__________________
100
AcDbCircle
 62
7
  6
CONTINUOUS
 10
713.8053310474
 20
237.2626177373
 40
2.9404667305
100
AcDbArc
 50
258.1357910612
 51
264.0422758681
  0
ARC
  5
391
100
AcDbEntity
  8
3288E5__________________
100
AcDbCircle
 62
7
  6
CONTINUOUS
 10
713.8092470246
 20
256.9324117808
 40
2.9161729869
100
AcDbArc
 50
245.1765903774
 51
248.6573917982
  0
ARC
  5
392
100
AcDbEntity
  8
3288E5__________________
100
AcDbCircle
 62
7
  6
CONTINUOUS
 10
713.7918980366
 20
237.1939656159
 40
2.8705196146
100
AcDbArc
 50
254.0272750213
 51
258.1164629408
  0
ARC
  5
393
100
AcDbEntity
  8
3288E5__________________
100
AcDbCircle
 62
7
  6
CONTINUOUS
 10
713.7918980366
 20
256.8901206761
 40
2.8705196146
100
AcDbArc
 50
254.0272750211
 51
258.1164629408
  0
ARC
  5
394
100
AcDbEntity
  8
3288E5__________________
100
AcDbCircle
 62
7
  6
CONTINUOUS
 10
713.7920530922
 20
237.1927051569
 40
2.8693505294
100
AcDbArc
 50
248.6606757135
 51
254.0173723466
  0
ARC
  5
395
100
AcDbEntity
  8
3288E5__________________
100
AcDbCircle
 62
7
  6
CONTINUOUS
 10
713.7920530922
 20
256.8888602171
 40
2.8693505294
100
AcDbArc
 50
248.6606757134
 51
254.0173723464
  0
ARC
  5
396
100
AcDbEntity
  8
PRODUCT_453410
100
AcDbCircle
 62
7
  6
CONTINUOUS
 10
712.2583171464
 20
279.4043254902
 40
6.1683181982
100
AcDbArc
 50
0.6701949108
 51
2.1374634368
  0
ARC
  5
397
100
AcDbEntity
  8
PRODUCT_453410
100
AcDbCircle
 62
7
  6
CONTINUOUS
 10
712.2583171467
 20
299.1004805505
 40
6.1683181979
100
AcDbArc
 50
0.6701949108
 51
2.1374634367
  0
ARC
  5
398
100
AcDbEntity
  8
PRODUCT_453410
100
AcDbCircle
 62
7
  6
CONTINUOUS
 10
712.9708498442
 20
299.1191796499
 40
5.3448702708
100
AcDbArc
 50
9.8886850991
 51
10.3321047675
  0
ARC
  5
399
100
AcDbEntity
  8
PRODUCT_453410
100
AcDbCircle
 62
7
  6
CONTINUOUS
 10
712.9708498442
 20
279.4230245897
 40
5.3448702708
100
AcDbArc
 50
9.8886850991
 51
10.3321047675
  0
ARC
  5
39A
100
AcDbEntity
  8
PRODUCT_453410
100
AcDbCircle
 62
7
  6
CONTINUOUS
 10
713.150303286
 20
299.1545497387
 40
5.1619836328
100
AcDbArc
 50
10.3031243457
 51
15.8035772658
  0
ARC
  5
39B
100
AcDbEntity
  8
PRODUCT_453410
100
AcDbCircle
 62
7
  6
CONTINUOUS
 10
713.1503032861
 20
279.4583946785
 40
5.1619836328
100
AcDbArc
 50
10.3031243457
 51
15.8035772658
  0
ARC
  5
39C
100
AcDbEntity
  8
PRODUCT_453410
100
AcDbCircle
 62
7
  6
CONTINUOUS
 10
713.2966548395
 20
299.2897941591
 40
5.1096682932
100
AcDbArc
 50
15.5519125946
 51
20.8771027875
  0
ARC
  5
39D
100
AcDbEntity
  8
3288E5__________________
100
AcDbCircle
 62
7
  6
CONTINUOUS
 10
713.8077035145
 20
280.1026068801
 40
4.4254657575
100
AcDbArc
 50
26.7483070013
 51
40.8145131321
  0
ARC
  5
39E
100
AcDbEntity
  8
3288E5__________________
100
AcDbCircle
 62
7
  6
CONTINUOUS
 10
713.8077035141
 20
299.7987619402
 40
4.4254657579
100
AcDbArc
 50
26.7483070021
 51
40.8145131297
  0
ARC
  5
39F
100
AcDbEntity
  8
3288E5__________________
100
AcDbCircle
 62
7
  6
CONTINUOUS
 10
713.3425114367
 20
297.1760987919
 40
3.6748510691
100
AcDbArc
 50
278.3213909842
 51
283.3771977907
  0
ARC
  5
3A0
100
AcDbEntity
  8
3288E5__________________
100
AcDbCircle
 62
7
  6
CONTINUOUS
 10
713.3425114378
 20
277.4799437289
 40
3.6748510663
100
AcDbArc
 50
278.3213909741
 51
283.3771977858
  0
ARC
  5
3A1
100
AcDbEntity
  8
3288E5__________________
100
AcDbCircle
 62
7
  6
CONTINUOUS
 10
713.842554966
 20
296.399723753
 40
2.9981558162
100
AcDbArc
 50
238.8914873623
 51
248.5861629942
  0
ARC
  5
3A2
100
AcDbEntity
  8
3288E5__________________
100
AcDbCircle
 62
7
  6
CONTINUOUS
 10
713.8053310474
 20
276.6549278578
 40
2.9404667305
100
AcDbArc
 50
258.1357910611
 51
264.0422758681
  0
ARC
  5
3A3
100
AcDbEntity
  8
3288E5__________________
100
AcDbCircle
 62
7
  6
CONTINUOUS
 10
713.8053310473
 20
296.351082918
 40
2.9404667306
100
AcDbArc
 50
258.1357910612
 51
264.0422758684
  0
ARC
  5
3A4
100
AcDbEntity
  8
3288E5__________________
100
AcDbCircle
 62
7
  6
CONTINUOUS
 10
713.8092470247
 20
276.6285668413
 40
2.9161729872
100
AcDbArc
 50
245.1765903775
 51
248.6573917982
  0
ARC
  5
3A5
100
AcDbEntity
  8
3288E5__________________
100
AcDbCircle
 62
7
  6
CONTINUOUS
 10
713.7918980366
 20
276.5862757364
 40
2.8705196147
100
AcDbArc
 50
254.0272750214
 51
258.1164629408
  0
ARC
  5
3A6
100
AcDbEntity
  8
3288E5__________________
100
AcDbCircle
 62
7
  6
CONTINUOUS
 10
713.7918980366
 20
296.2824307967
 40
2.8705196147
100
AcDbArc
 50
254.0272750212
 51
258.1164629407
  0
ARC
  5
3A7
100
AcDbEntity
  8
3288E5__________________
100
AcDbCircle
 62
7
  6
CONTINUOUS
 10
713.7920530922
 20
276.5850152773
 40
2.8693505294
100
AcDbArc
 50
248.6606757135
 51
254.0173723467
  0
ARC
  5
3A8
100
AcDbEntity
  8
3288E5__________________
100
AcDbCircle
 62
7
  6
CONTINUOUS
 10
713.7920530922
 20
296.2811703375
 40
2.8693505293
100
AcDbArc
 50
248.6606757135
 51
254.0173723464
  0
ARC
  5
3A9
100
AcDbEntity
  8
PRODUCT_172895
100
AcDbCircle
 62
7
  6
CONTINUOUS
 10
714.0973759448
 20
239.6284006658
 40
4.3502049283
100
AcDbArc
 50
2.5171393658
 51
5.0602970635
  0
ARC
  5
3AA
100
AcDbEntity
  8
PRODUCT_172895
100
AcDbCircle
 62
7
  6
CONTINUOUS
 10
714.0973759448
 20
259.3245557261
 40
4.3502049283
100
AcDbArc
 50
2.5171393658
 51
5.0602970635
  0
ARC
  5
3AB
100
AcDbEntity
  8
PRODUCT_172895
100
AcDbCircle
 62
7
  6
CONTINUOUS
 10
714.1501208547
 20
239.6328408261
 40
4.2972739615
100
AcDbArc
 50
5.0633564843
 51
5.9471310675
  0
ARC
  5
3AC
100
AcDbEntity
  8
PRODUCT_172895
100
AcDbCircle
 62
7
  6
CONTINUOUS
 10
714.1501208605
 20
259.3289958869
 40
4.2972739556
100
AcDbArc
 50
5.0633564837
 51
5.9471310681
  0
ARC
  5
3AD
100
AcDbEntity
  8
PRODUCT_453410
100
AcDbCircle
 62
7
  6
CONTINUOUS
 10
715.6062537815
 20
240.1875110825
 40
4.0315173423
100
AcDbArc
 50
126.1563891794
 51
127.2532200142
  0
ARC
  5
3AE
100
AcDbEntity
  8
PRODUCT_453410
100
AcDbCircle
 62
7
  6
CONTINUOUS
 10
715.6062537799
 20
259.8836661449
 40
4.0315173397
100
AcDbArc
 50
126.156389179
 51
127.2532200145
  0
ARC
  5
3AF
100
AcDbEntity
  8
PRODUCT_453410
100
AcDbCircle
 62
7
  6
CONTINUOUS
 10
715.195706301
 20
258.0849076033
 40
3.9802532888
100
AcDbArc
 50
210.5179677306
 51
211.5723150751
  0
ARC
  5
3B0
100
AcDbEntity
  8
PRODUCT_453410
100
AcDbCircle
 62
7
  6
CONTINUOUS
 10
715.1957062993
 20
238.388752542
 40
3.9802532868
100
AcDbArc
 50
210.5179677303
 51
211.5723150754
  0
ARC
  5
3B1
100
AcDbEntity
  8
PRODUCT_453410
100
AcDbCircle
 62
7
  6
CONTINUOUS
 10
715.573223627
 20
259.9288521262
 40
3.9755462416
100
AcDbArc
 50
125.1174204599
 51
126.1562518551
  0
ARC
  5
3B2
100
AcDbEntity
  8
PRODUCT_453410
100
AcDbCircle
 62
7
  6
CONTINUOUS
 10
715.5732236267
 20
240.2326970663
 40
3.9755462412
100
AcDbArc
 50
125.1174204599
 51
126.1562518552
  0
ARC
  5
3B3
100
AcDbEntity
  8
3288E5__________________
100
AcDbCircle
 62
7
  6
CONTINUOUS
 10
714.8755449062
 20
240.9296149087
 40
3.8095728853
100
AcDbArc
 50
98.319783117
 51
100.3305357338
  0
ARC
  5
3B4
100
AcDbEntity
  8
3288E5__________________
100
AcDbCircle
 62
7
  6
CONTINUOUS
 10
714.8637594882
 20
240.9933555264
 40
3.7447520933
100
AcDbArc
 50
100.3280266914
 51
103.8991133406
  0
ARC
  5
3B5
100
AcDbEntity
  8
3288E5__________________
100
AcDbCircle
 62
7
  6
CONTINUOUS
 10
714.0950790359
 20
237.7023936739
 40
3.4641213586
100
AcDbArc
 50
231.9109856977
 51
234.0233585371
  0
ARC
  5
3B6
100
AcDbEntity
  8
3288E5__________________
100
AcDbCircle
 62
7
  6
CONTINUOUS
 10
713.9783780619
 20
237.539361807
 40
3.2636304083
100
AcDbArc
 50
233.9999580214
 51
238.9189011483
  0
ARC
  5
3B7
100
AcDbEntity
  8
PRODUCT_453410
100
AcDbCircle
 62
7
  6
CONTINUOUS
 10
714.9235367467
 20
261.1212233222
 40
3.0216237421
100
AcDbArc
 50
64.5139261482
 51
78.2379297368
  0
ARC
  5
3B8
100
AcDbEntity
  8
PRODUCT_453410
100
AcDbCircle
 62
7
  6
CONTINUOUS
 10
714.9235367467
 20
241.4250682619
 40
3.0216237421
100
AcDbArc
 50
64.5139261477
 51
78.2379297368
  0
ARC
  5
3B9
100
AcDbEntity
  8
PRODUCT_453410
100
AcDbCircle
 62
7
  6
CONTINUOUS
 10
714.1211888389
 20
257.2422403376
 40
3.0172856522
100
AcDbArc
 50
258.3707367771
 51
271.3150464566
  0
ARC
  5
3BA
100
AcDbEntity
  8
PRODUCT_453410
100
AcDbCircle
 62
7
  6
CONTINUOUS
 10
714.1211888389
 20
237.5460852773
 40
3.0172856522
100
AcDbArc
 50
258.3707367771
 51
271.3150464532
  0
ARC
  5
3BB
100
AcDbEntity
  8
3288E5__________________
100
AcDbCircle
 62
7
  6
CONTINUOUS
 10
714.849910593
 20
241.8592636457
 40
2.8761401329
100
AcDbArc
 50
78.5162009679
 51
83.7794134989
  0
ARC
  5
3BC
100
AcDbEntity
  8
3288E5__________________
100
AcDbCircle
 62
7
  6
CONTINUOUS
 10
714.8499105929
 20
261.5554187055
 40
2.8761401332
100
AcDbArc
 50
78.5162009679
 51
83.7794134958
  0
ARC
  5
3BD
100
AcDbEntity
  8
PRODUCT_453410
100
AcDbCircle
 62
7
  6
CONTINUOUS
 10
714.0923066607
 20
257.0835054252
 40
2.8559767968
100
AcDbArc
 50
253.081704307
 51
258.2963441946
  0
ARC
  5
3BE
100
AcDbEntity
  8
PRODUCT_453410
100
AcDbCircle
 62
7
  6
CONTINUOUS
 10
714.0923066607
 20
237.3873503649
 40
2.8559767968
100
AcDbArc
 50
253.081704307
 51
258.2963441946
  0
ARC
  5
3BF
100
AcDbEntity
  8
PRODUCT_453410
100
AcDbCircle
 62
7
  6
CONTINUOUS
 10
714.127412624
 20
261.4684818369
 40
2.8428751169
100
AcDbArc
 50
78.3151238373
 51
81.7721501971
  0
ARC
  5
3C0
100
AcDbEntity
  8
3288E5__________________
100
AcDbCircle
 62
7
  6
CONTINUOUS
 10
714.8666167427
 20
241.9455197038
 40
2.7882849051
100
AcDbArc
 50
74.5235787438
 51
78.4997397442
  0
ARC
  5
3C1
100
AcDbEntity
  8
3288E5__________________
100
AcDbCircle
 62
7
  6
CONTINUOUS
 10
714.8666167425
 20
261.6416747636
 40
2.7882849055
100
AcDbArc
 50
74.5235787434
 51
78.4997397441
  0
ARC
  5
3C2
100
AcDbEntity
  8
PRODUCT_453410
100
AcDbCircle
 62
7
  6
CONTINUOUS
 10
715.0034183288
 20
260.6341785156
 40
2.2849265075
100
AcDbArc
 50
61.3519103937
 51
62.4650010612
  0
ARC
  5
3C3
100
AcDbEntity
  8
PRODUCT_453410
100
AcDbCircle
 62
7
  6
CONTINUOUS
 10
715.0034183292
 20
240.9380234562
 40
2.2849265066
100
AcDbArc
 50
61.3519103931
 51
62.4650010611
  0
ARC
  5
3C4
100
AcDbEntity
  8
PRODUCT_172895
100
AcDbCircle
 62
7
  6
CONTINUOUS
 10
714.0973759448
 20
279.0207107863
 40
4.3502049283
100
AcDbArc
 50
2.5171393658
 51
5.0602970635
  0
ARC
  5
3C5
100
AcDbEntity
  8
PRODUCT_172895
100
AcDbCircle
 62
7
  6
CONTINUOUS
 10
714.0973759451
 20
298.7168658466
 40
4.3502049279
100
AcDbArc
 50
2.5171393657
 51
5.0602970637
  0
ARC
  5
3C6
100
AcDbEntity
  8
PRODUCT_172895
100
AcDbCircle
 62
7
  6
CONTINUOUS
 10
714.1501208577
 20
298.7213060072
 40
4.2972739585
100
AcDbArc
 50
5.0633564839
 51
5.9471310676
  0
ARC
  5
3C7
100
AcDbEntity
  8
PRODUCT_172895
100
AcDbCircle
 62
7
  6
CONTINUOUS
 10
714.1501208605
 20
279.0251509472
 40
4.2972739556
100
AcDbArc
 50
5.0633564837
 51
5.9471310681
  0
ARC
  5
3C8
100
AcDbEntity
  8
PRODUCT_453410
100
AcDbCircle
 62
7
  6
CONTINUOUS
 10
715.6062537815
 20
299.2759762633
 40
4.0315173423
100
AcDbArc
 50
126.1563891794
 51
127.2532200142
  0
ARC
  5
3C9
100
AcDbEntity
  8
PRODUCT_453410
100
AcDbCircle
 62
7
  6
CONTINUOUS
 10
715.6062537806
 20
279.5798212042
 40
4.0315173408
100
AcDbArc
 50
126.1563891792
 51
127.2532200144
  0
ARC
  5
3CA
100
AcDbEntity
  8
PRODUCT_453410
100
AcDbCircle
 62
7
  6
CONTINUOUS
 10
715.1957063013
 20
277.7810626637
 40
3.9802532891
100
AcDbArc
 50
210.5179677305
 51
211.5723150751
  0
ARC
  5
3CB
100
AcDbEntity
  8
PRODUCT_453410
100
AcDbCircle
 62
7
  6
CONTINUOUS
 10
715.1957062993
 20
297.4772177228
 40
3.9802532868
100
AcDbArc
 50
210.5179677303
 51
211.5723150755
  0
ARC
  5
3CC
100
AcDbEntity
  8
PRODUCT_453410
100
AcDbCircle
 62
7
  6
CONTINUOUS
 10
715.5732236279
 20
279.6250071851
 40
3.9755462433
100
AcDbArc
 50
125.1174204601
 51
126.1562518548
  0
ARC
  5
3CD
100
AcDbEntity
  8
PRODUCT_453410
100
AcDbCircle
 62
7
  6
CONTINUOUS
 10
715.5732236268
 20
299.321162247
 40
3.9755462413
100
AcDbArc
 50
125.1174204597
 51
126.156251855
  0
ARC
  5
3CE
100
AcDbEntity
  8
3288E5__________________
100
AcDbCircle
 62
7
  6
CONTINUOUS
 10
714.8755449064
 20
300.0180800889
 40
3.8095728859
100
AcDbArc
 50
98.31978312
 51
100.3305357364
  0
ARC
  5
3CF
100
AcDbEntity
  8
3288E5__________________
100
AcDbCircle
 62
7
  6
CONTINUOUS
 10
714.8637594886
 20
300.0818207059
 40
3.7447520947
100
AcDbArc
 50
100.328026694
 51
103.899113342
  0
ARC
  5
3D0
100
AcDbEntity
  8
3288E5__________________
100
AcDbCircle
 62
7
  6
CONTINUOUS
 10
714.0950790365
 20
296.7908588554
 40
3.4641213595
100
AcDbArc
 50
231.9109856978
 51
234.0233585366
  0
ARC
  5
3D1
100
AcDbEntity
  8
3288E5__________________
100
AcDbCircle
 62
7
  6
CONTINUOUS
 10
713.9783780618
 20
296.6278269875
 40
3.2636304081
100
AcDbArc
 50
233.999958021
 51
238.9189011482
  0
ARC
  5
3D2
100
AcDbEntity
  8
PRODUCT_453410
100
AcDbCircle
 62
7
  6
CONTINUOUS
 10
714.9235367467
 20
280.8173783824
 40
3.0216237421
100
AcDbArc
 50
64.5139261476
 51
78.2379297368
  0
ARC
  5
3D3
100
AcDbEntity
  8
PRODUCT_453410
100
AcDbCircle
 62
7
  6
CONTINUOUS
 10
714.9235367467
 20
300.5135334427
 40
3.0216237421
100
AcDbArc
 50
64.5139261478
 51
78.2379297368
  0
ARC
  5
3D4
100
AcDbEntity
  8
PRODUCT_453410
100
AcDbCircle
 62
7
  6
CONTINUOUS
 10
714.1211888389
 20
276.9383953979
 40
3.0172856522
100
AcDbArc
 50
258.3707367772
 51
271.3150464586
  0
ARC
  5
3D5
100
AcDbEntity
  8
PRODUCT_453410
100
AcDbCircle
 62
7
  6
CONTINUOUS
 10
714.1211888389
 20
296.6345504581
 40
3.0172856522
100
AcDbArc
 50
258.3707367771
 51
271.3150464568
  0
ARC
  5
3D6
100
AcDbEntity
  8
3288E5__________________
100
AcDbCircle
 62
7
  6
CONTINUOUS
 10
714.849910593
 20
281.2515737662
 40
2.8761401329
100
AcDbArc
 50
78.5162009679
 51
83.779413499
  0
ARC
  5
3D7
100
AcDbEntity
  8
3288E5__________________
100
AcDbCircle
 62
7
  6
CONTINUOUS
 10
714.8499105929
 20
300.947728826
 40
2.8761401333
100
AcDbArc
 50
78.5162009679
 51
83.779413497
  0
ARC
  5
3D8
100
AcDbEntity
  8
PRODUCT_453410
100
AcDbCircle
 62
7
  6
CONTINUOUS
 10
714.0923066607
 20
296.4758155456
 40
2.8559767967
100
AcDbArc
 50
253.081704307
 51
258.2963441947
  0
ARC
  5
3D9
100
AcDbEntity
  8
PRODUCT_453410
100
AcDbCircle
 62
7
  6
CONTINUOUS
 10
714.0923066607
 20
276.7796604855
 40
2.8559767968
100
AcDbArc
 50
253.0817043071
 51
258.2963441946
  0
ARC
  5
3DA
100
AcDbEntity
  8
PRODUCT_453410
100
AcDbCircle
 62
7
  6
CONTINUOUS
 10
714.127412624
 20
281.1646368971
 40
2.8428751169
100
AcDbArc
 50
78.3151238374
 51
81.7721501971
  0
ARC
  5
3DB
100
AcDbEntity
  8
3288E5__________________
100
AcDbCircle
 62
7
  6
CONTINUOUS
 10
714.8666167427
 20
281.3378298243
 40
2.7882849051
100
AcDbArc
 50
74.5235787437
 51
78.4997397441
  0
ARC
  5
3DC
100
AcDbEntity
  8
3288E5__________________
100
AcDbCircle
 62
7
  6
CONTINUOUS
 10
714.8666167426
 20
301.0339848842
 40
2.7882849054
100
AcDbArc
 50
74.523578745
 51
78.4997397442
  0
ARC
  5
3DD
100
AcDbEntity
  8
PRODUCT_453410
100
AcDbCircle
 62
7
  6
CONTINUOUS
 10
715.003418329
 20
300.0264886365
 40
2.2849265071
100
AcDbArc
 50
61.3519103935
 51
62.4650010613
  0
ARC
  5
3DE
100
AcDbEntity
  8
PRODUCT_453410
100
AcDbCircle
 62
7
  6
CONTINUOUS
 10
715.0034183296
 20
280.3303335774
 40
2.2849265058
100
AcDbArc
 50
61.351910393
 51
62.4650010614
  0
ARC
  5
3DF
100
AcDbEntity
  8
3288E5__________________
100
AcDbCircle
 62
7
  6
CONTINUOUS
 10
729.111218623
 20
1079.639515043
 40
6.137223276
100
AcDbArc
 50
172.0168801458
 51
175.0679426159
  0
ARC
  5
3E0
100
AcDbEntity
  8
3288E5__________________
100
AcDbCircle
 62
7
  6
CONTINUOUS
 10
720.6151336356
 20
1080.9179646202
 40
5.8351482941
100
AcDbArc
 50
171.5710561414
 51
174.7865564298
  0
ARC
  5
3E1
100
AcDbEntity
  8
3288E5__________________
100
AcDbCircle
 62
7
  6
CONTINUOUS
 10
711.7260251724
 20
1082.1046311828
 40
5.5863766736
100
AcDbArc
 50
171.1608555057
 51
174.5264926226
  0
ARC
  5
3E2
100
AcDbEntity
  8
3288E5__________________
100
AcDbCircle
 62
7
  6
CONTINUOUS
 10
702.4684975695
 20
1083.1948584693
 40
5.3815125782
100
AcDbArc
 50
170.7876436842
 51
174.2887262906
  0
ARC
  5
3E3
100
AcDbEntity
  8
3288E5__________________
100
AcDbCircle
 62
7
  6
CONTINUOUS
 10
771.0920480234
 20
1099.9926736685
 40
5.3119566479
100
AcDbArc
 50
0.0113697611
 51
5.6415209355
  0
ARC
  5
3E4
100
AcDbEntity
  8
3288E5__________________
100
AcDbCircle
 62
7
  6
CONTINUOUS
 10
692.8711117937
 20
1084.1843690042
 40
5.2134941481
100
AcDbArc
 50
170.4526028228
 51
174.0741315159
  0
ARC
  5
3E5
100
AcDbEntity
  8
3288E5__________________
100
AcDbCircle
 62
7
  6
CONTINUOUS
 10
575.2723657502
 20
1100.5662561283
 40
2.2118293236
100
AcDbArc
 50
359.9155321066
 51
3.3332923266
  0
ARC
  5
3E6
100
AcDbEntity
  8
3288E5__________________
100
AcDbCircle
 62
7
  6
CONTINUOUS
 10
575.4093025768
 20
1100.574326428
 40
2.0746549286
100
AcDbArc
 50
3.3306804255
 51
7.0684260214
  0
ARC
  5
3E7
100
AcDbEntity
  8
3288C1E1_______
100
AcDbCircle
 62
7
  6
CONTINUOUS
 10
575.5793871872
 20
1100.5887392488
 40
1.998188683
100
AcDbArc
 50
232.2927637217
 51
244.866521303
  0
ARC
  5
3E8
100
AcDbEntity
  8
3288C1E1_______
100
AcDbCircle
 62
7
  6
CONTINUOUS
 10
575.600815057
 20
1100.414358409
 40
1.9778710298
100
AcDbArc
 50
140.8139507161
 51
153.6257896868
  0
ARC
  5
3E9
100
AcDbEntity
  8
3288E5__________________
100
AcDbCircle
 62
7
  6
CONTINUOUS
 10
575.5664752216
 20
1100.5945030536
 40
1.9161941061
100
AcDbArc
 50
7.048019841
 51
13.4215765643
  0
ARC
  5
3EA
100
AcDbEntity
  8
3288E5__________________
100
AcDbCircle
 62
7
  6
CONTINUOUS
 10
575.5904883327
 20
1100.5239781831
 40
1.8905719608
100
AcDbArc
 50
334.7632295932
 51
347.7333558501
  0
ARC
  5
3EB
100
AcDbEntity
  8
3288E5__________________
100
AcDbCircle
 62
7
  6
CONTINUOUS
 10
689.2747888942
 20
1085.1638463359
 40
1.7084585003
100
AcDbArc
 50
100.9004317859
 51
106.7498914564
  0
ARC
  5
3EC
100
AcDbEntity
  8
3288E5__________________
100
AcDbCircle
 62
7
  6
CONTINUOUS
 10
689.2703828635
 20
1085.1798325515
 40
1.6918808003
100
AcDbArc
 50
106.7630327378
 51
110.5096743122
  0
ARC
  5
3ED
100
AcDbEntity
  8
3288E5__________________
100
AcDbCircle
 62
7
  6
CONTINUOUS
 10
698.5788695382
 20
1084.2669744398
 40
1.5969401231
100
AcDbArc
 50
98.0610389216
 51
104.635171478
  0
ARC
  5
3EE
100
AcDbEntity
  8
3288E5__________________
100
AcDbCircle
 62
7
  6
CONTINUOUS
 10
698.5728826112
 20
1084.2926805652
 40
1.5705555321
100
AcDbArc
 50
104.6607929332
 51
110.6924133877
  0
ARC
  5
3EF
100
AcDbEntity
  8
3288E5__________________
100
AcDbCircle
 62
7
  6
CONTINUOUS
 10
707.5029806295
 20
1083.2697008965
 40
1.4864657102
100
AcDbArc
 50
94.1596893408
 51
102.8363518318
  0
ARC
  5
3F0
100
AcDbEntity
  8
3288E5__________________
100
AcDbCircle
 62
7
  6
CONTINUOUS
 10
707.4947327713
 20
1083.3126877082
 40
1.4427215849
100
AcDbArc
 50
102.8962609015
 51
110.99241534
  0
ARC
  5
3F1
100
AcDbEntity
  8
3288E5__________________
100
AcDbCircle
 62
7
  6
CONTINUOUS
 10
716.0010236886
 20
1082.2420258192
 40
1.3105672651
100
AcDbArc
 50
101.3889474348
 51
111.4280070076
  0
LINE
  5
3F2
100
AcDbEntity
  8
PRODUCT_172895
100
AcDbLine
 62
7
  6
CONTINUOUS
 10
718.4242665622
 20
240.0780845475
 11
718.423667258
 21
240.0837998629
  0
SPLINE
  5
3F3
100
AcDbEntity
  8
PRODUCT_172895
100
AcDbSpline
 62
7
  6
CONTINUOUS
 70
0
 71
3
 72
9
 73
5
 74
0
 42
0.0000001
 43
0.0000001
 44
0.0000000001
 40
0.0
 40
0.0
 40
0.0
 40
0.0
 40
0.2539109521
 40
1.0
 40
1.0
 40
1.0
 40
1.0
 10
718.423667258
 20
240.0837998629
 30
0.0
 10
718.4147722931
 20
240.1680818536
 30
0.0
 10
718.3699277506
 20
240.4988700871
 30
0.0
 10
718.2847824433
 20
240.8244937263
 30
0.0
 10
718.1977211177
 20
241.057808083
 30
0.0
  0
SPLINE
  5
3F4
100
AcDbEntity
  8
PRODUCT_172895
100
AcDbSpline
 62
7
  6
CONTINUOUS
 70
0
 71
3
 72
9
 73
5
 74
0
 42
0.0000001
 43
0.0000001
 44
0.0000000001
 40
0.0
 40
0.0
 40
0.0
 40
0.0
 40
0.2521318412
 40
1.0
 40
1.0
 40
1.0
 40
1.0
 10
718.1977211177
 20
241.057808083
 30
0.0
 10
718.1835282376
 20
241.0958433724
 30
0.0
 10
718.1247455423
 20
241.245753275
 30
0.0
 10
718.0558503493
 20
241.391725836
 30
0.0
 10
717.9986684014
 20
241.4977010814
 30
0.0
  0
SPLINE
  5
3F5
100
AcDbEntity
  8
PRODUCT_172895
100
AcDbSpline
 62
7
  6
CONTINUOUS
 70
0
 71
3
 72
11
 73
7
 74
0
 42
0.0000001
 43
0.0000001
 44
0.0000000001
 40
0.0
 40
0.0
 40
0.0
 40
0.0
 40
0.2572647051
 40
0.5083871381
 40
0.7552598515
 40
1.0
 40
1.0
 40
1.0
 40
1.0
 10
717.9986684014
 20
241.4977010814
 30
0.0
 10
717.9015148422
 20
241.6777556727
 30
0.0
 10
717.6762231962
 20
242.0170417477
 30
0.0
 10
717.2462736148
 20
242.4428008285
 30
0.0
 10
716.7413252649
 20
242.7587530348
 30
0.0
 10
716.3665385177
 20
242.8845456426
 30
0.0
 10
716.1759438969
 20
242.9239884064
 30
0.0
  0
SPLINE
  5
3F6
100
AcDbEntity
  8
PRODUCT_172895
100
AcDbSpline
 62
7
  6
CONTINUOUS
 70
0
 71
3
 72
13
 73
9
 74
0
 42
0.0000001
 43
0.0000001
 44
0.0000000001
 40
0.0
 40
0.0
 40
0.0
 40
0.0
 40
0.1191203721
 40
0.2388787479
 40
0.3599142771
 40
0.482857615
 40
0.7357388118
 40
1.0
 40
1.0
 40
1.0
 40
1.0
 10
714.6763199276
 20
235.6775321725
 30
0.0
 10
714.8264712626
 20
235.6464589784
 30
0.0
 10
715.134229437
 20
235.6124988201
 30
0.0
 10
715.5986226408
 20
235.648009315
 30
0.0
 10
716.0539894785
 20
235.7670336252
 30
0.0
 10
716.6390427856
 20
236.0318532587
 30
0.0
 10
717.2979226004
 20
236.5477784035
 30
0.0
 10
717.6963822453
 20
237.0911426922
 30
0.0
 10
717.8638121695
 20
237.3872435131
 30
0.0
  0
SPLINE
  5
3F7
100
AcDbEntity
  8
PRODUCT_172895
100
AcDbSpline
 62
7
  6
CONTINUOUS
 70
0
 71
3
 72
9
 73
5
 74
0
 42
0.0000001
 43
0.0000001
 44
0.0000000001
 40
0.0
 40
0.0
 40
0.0
 40
0.0
 40
0.4989739874
 40
1.0
 40
1.0
 40
1.0
 40
1.0
 10
717.8638121695
 20
237.3872435131
 30
0.0
 10
718.0704700191
 20
237.7527191545
 30
0.0
 10
718.378478072
 20
238.5489730536
 30
0.0
 10
718.4619226972
 20
239.3982781652
 30
0.0
 10
718.443383485
 20
239.8194540058
 30
0.0
  0
SPLINE
  5
3F8
100
AcDbEntity
  8
PRODUCT_172895
100
AcDbSpline
 62
7
  6
CONTINUOUS
 70
0
 71
3
 72
20
 73
16
 74
0
 42
0.0000001
 43
0.0000001
 44
0.0000000001
 40
0.0
 40
0.0
 40
0.0
 40
0.0
 40
0.1335639613
 40
0.1959358297
 40
0.2549305403
 40
0.3109890866
 40
0.365102683
 40
0.4186757743
 40
0.4732372165
 40
0.5300934055
 40
0.5900774383
 40
0.6534627715
 40
0.7200029923
 40
0.85919499
 40
1.0
 40
1.0
 40
1.0
 40
1.0
 10
713.7223365268
 20
238.7108289293
 30
0.0
 10
713.7380149519
 20
238.3546447618
 30
0.0
 10
713.8395274834
 20
237.8282982561
 30
0.0
 10
714.1465779931
 20
237.2172314827
 30
0.0
 10
714.4420985345
 20
236.8423349662
 30
0.0
 10
714.7975783483
 20
236.5569989641
 30
0.0
 10
715.1998297326
 20
236.3739435108
 30
0.0
 10
715.6320277197
 20
236.3021853692
 30
0.0
 10
716.075125659
 20
236.3446360977
 30
0.0
 10
716.5105264009
 20
236.4980248955
 30
0.0
 10
716.9215425813
 20
236.7545683369
 30
0.0
 10
717.2934308586
 20
237.1033889276
 30
0.0
 10
717.725318617
 20
237.6812646477
 30
0.0
 10
718.0914626256
 20
238.5470561814
 30
0.0
 10
718.1749158898
 20
239.3023617269
 30
0.0
 10
718.1583874732
 20
239.6778560952
 30
0.0
  0
SPLINE
  5
3F9
100
AcDbEntity
  8
PRODUCT_172895
100
AcDbSpline
 62
7
  6
CONTINUOUS
 70
0
 71
3
 72
11
 73
7
 74
0
 42
0.0000001
 43
0.0000001
 44
0.0000000001
 40
0.0
 40
0.0
 40
0.0
 40
0.0
 40
0.2666836944
 40
0.523351949
 40
0.7679822565
 40
1.0
 40
1.0
 40
1.0
 40
1.0
 10
718.1583874732
 20
239.6778560952
 30
0.0
 10
718.1507324433
 20
239.8517638965
 30
0.0
 10
718.1109198914
 20
240.1925851432
 30
0.0
 10
717.9752373437
 20
240.677433162
 30
0.0
 10
717.76885239
 20
241.1120128527
 30
0.0
 10
717.5832235843
 20
241.3648038976
 30
0.0
 10
717.4809247687
 20
241.4764798174
 30
0.0
  0
SPLINE
  5
3FA
100
AcDbEntity
  8
PRODUCT_172895
100
AcDbSpline
 62
7
  6
CONTINUOUS
 70
0
 71
3
 72
18
 73
14
 74
0
 42
0.0000001
 43
0.0000001
 44
0.0000000001
 40
0.0
 40
0.0
 40
0.0
 40
0.0
 40
0.0573402756
 40
0.1128069381
 40
0.1671101801
 40
0.2211105365
 40
0.2757106034
 40
0.3317326536
 40
0.44996901
 40
0.5785269921
 40
0.7159507239
 40
0.8582002511
 40
1.0
 40
1.0
 40
1.0
 40
1.0
 10
717.4809247687
 20
241.4764798174
 30
0.0
 10
717.4027411561
 20
241.5618300417
 30
0.0
 10
717.2345571936
 20
241.7173803937
 30
0.0
 10
716.947768592
 20
241.898616859
 30
0.0
 10
716.6375352114
 20
242.0189484319
 30
0.0
 10
716.3113333145
 20
242.0751815829
 30
0.0
 10
715.97701378
 20
242.0659738037
 30
0.0
 10
715.5235488935
 20
241.9657166897
 30
0.0
 10
714.9732754966
 20
241.6722324065
 30
0.0
 10
714.4213307548
 20
241.1141490133
 30
0.0
 10
714.0035189373
 20
240.3945026219
 30
0.0
 10
713.7527714487
 20
239.574462767
 30
0.0
 10
713.709749231
 20
238.9967884859
 30
0.0
 10
713.7223365268
 20
238.7108289293
 30
0.0
  0
SPLINE
  5
3FB
100
AcDbEntity
  8
PRODUCT_172895
100
AcDbSpline
 62
7
  6
CONTINUOUS
 70
0
 71
3
 72
14
 73
10
 74
0
 42
0.0000001
 43
0.0000001
 44
0.0000000001
 40
0.0
 40
0.0
 40
0.0
 40
0.0
 40
0.1053711648
 40
0.2148852055
 40
0.3314092195
 40
0.4559386416
 40
0.5876873201
 40
0.7245113466
 40
1.0
 40
1.0
 40
1.0
 40
1.0
 10
716.1759433938
 20
242.9239859757
 30
0.0
 10
715.9595255329
 20
242.968779395
 30
0.0
 10
715.5005649702
 20
242.9892617109
 30
0.0
 10
714.8201010264
 20
242.8072429934
 30
0.0
 10
714.17982713
 20
242.4297315591
 30
0.0
 10
713.6133897914
 20
241.8817077482
 30
0.0
 10
713.1485710791
 20
241.1938140595
 30
0.0
 10
712.6958194976
 20
240.141789948
 30
0.0
 10
712.5708281295
 20
239.2611129267
 30
0.0
 10
712.596237343
 20
238.6838636492
 30
0.0
  0
SPLINE
  5
3FC
100
AcDbEntity
  8
PRODUCT_172895
100
AcDbSpline
 62
7
  6
CONTINUOUS
 70
0
 71
3
 72
14
 73
10
 74
0
 42
0.0000001
 43
0.0000001
 44
0.0000000001
 40
0.0
 40
0.0
 40
0.0
 40
0.0
 40
0.2787704513
 40
0.4112471408
 40
0.5381731143
 40
0.6596047887
 40
0.7761690893
 40
0.8890707886
 40
1.0
 40
1.0
 40
1.0
 40
1.0
 10
712.596237343
 20
238.6838636492
 30
0.0
 10
712.6122841704
 20
238.3193100777
 30
0.0
 10
712.7005072137
 20
237.7800527738
 30
0.0
 10
712.9570244232
 20
237.1219192747
 30
0.0
 10
713.2063947382
 20
236.6878003186
 30
0.0
 10
713.5102376365
 20
236.3162223669
 30
0.0
 10
713.8618076848
 20
236.0164342966
 30
0.0
 10
714.2525798803
 20
235.7965415906
 30
0.0
 10
714.5341294065
 20
235.7069648089
 30
0.0
 10
714.6763204306
 20
235.6775346032
 30
0.0
  0
LINE
  5
3FD
100
AcDbEntity
  8
PRODUCT_172895
100
AcDbLine
 62
7
  6
CONTINUOUS
 10
718.4242665622
 20
259.7742396078
 11
718.423667258
 21
259.7799549231
  0
SPLINE
  5
3FE
100
AcDbEntity
  8
PRODUCT_172895
100
AcDbSpline
 62
7
  6
CONTINUOUS
 70
0
 71
3
 72
9
 73
5
 74
0
 42
0.0000001
 43
0.0000001
 44
0.0000000001
 40
0.0
 40
0.0
 40
0.0
 40
0.0
 40
0.2539109521
 40
1.0
 40
1.0
 40
1.0
 40
1.0
 10
718.423667258
 20
259.7799549231
 30
0.0
 10
718.4147722931
 20
259.8642369139
 30
0.0
 10
718.3699277506
 20
260.1950251473
 30
0.0
 10
718.2847824433
 20
260.5206487866
 30
0.0
 10
718.1977211177
 20
260.7539631433
 30
0.0
  0
SPLINE
  5
3FF
100
AcDbEntity
  8
PRODUCT_172895
100
AcDbSpline
 62
7
  6
CONTINUOUS
 70
0
 71
3
 72
9
 73
5
 74
0
 42
0.0000001
 43
0.0000001
 44
0.0000000001
 40
0.0
 40
0.0
 40
0.0
 40
0.0
 40
0.2521318412
 40
1.0
 40
1.0
 40
1.0
 40
1.0
 10
718.1977211177
 20
260.7539631433
 30
0.0
 10
718.1835282376
 20
260.7919984326
 30
0.0
 10
718.1247455423
 20
260.9419083352
 30
0.0
 10
718.0558503493
 20
261.0878808963
 30
0.0
 10
717.9986684014
 20
261.1938561417
 30
0.0
  0
SPLINE
  5
400
100
AcDbEntity
  8
PRODUCT_172895
100
AcDbSpline
 62
7
  6
CONTINUOUS
 70
0
 71
3
 72
11
 73
7
 74
0
 42
0.0000001
 43
0.0000001
 44
0.0000000001
 40
0.0
 40
0.0
 40
0.0
 40
0.0
 40
0.2572647051
 40
0.5083871381
 40
0.7552598515
 40
1.0
 40
1.0
 40
1.0
 40
1.0
 10
717.9986684014
 20
261.1938561417
 30
0.0
 10
717.9015148422
 20
261.3739107329
 30
0.0
 10
717.6762231962
 20
261.7131968079
 30
0.0
 10
717.2462736148
 20
262.1389558888
 30
0.0
 10
716.7413252649
 20
262.454908095
 30
0.0
 10
716.3665385177
 20
262.5807007029
 30
0.0
 10
716.1759438969
 20
262.6201434667
 30
0.0
  0
SPLINE
  5
401
100
AcDbEntity
  8
PRODUCT_172895
100
AcDbSpline
 62
7
  6
CONTINUOUS
 70
0
 71
3
 72
13
 73
9
 74
0
 42
0.0000001
 43
0.0000001
 44
0.0000000001
 40
0.0
 40
0.0
 40
0.0
 40
0.0
 40
0.1191203721
 40
0.2388787479
 40
0.3599142771
 40
0.482857615
 40
0.7357388118
 40
1.0
 40
1.0
 40
1.0
 40
1.0
 10
714.6763199276
 20
255.3736872327
 30
0.0
 10
714.8264712626
 20
255.3426140386
 30
0.0
 10
715.134229437
 20
255.3086538804
 30
0.0
 10
715.5986226408
 20
255.3441643752
 30
0.0
 10
716.0539894785
 20
255.4631886855
 30
0.0
 10
716.6390427856
 20
255.7280083189
 30
0.0
 10
717.2979226004
 20
256.2439334637
 30
0.0
 10
717.6963822453
 20
256.7872977524
 30
0.0
 10
717.8638121695
 20
257.0833985734
 30
0.0
  0
SPLINE
  5
402
100
AcDbEntity
  8
PRODUCT_172895
100
AcDbSpline
 62
7
  6
CONTINUOUS
 70
0
 71
3
 72
9
 73
5
 74
0
 42
0.0000001
 43
0.0000001
 44
0.0000000001
 40
0.0
 40
0.0
 40
0.0
 40
0.0
 40
0.4989739874
 40
1.0
 40
1.0
 40
1.0
 40
1.0
 10
717.8638121695
 20
257.0833985734
 30
0.0
 10
718.0704700191
 20
257.4488742147
 30
0.0
 10
718.378478072
 20
258.2451281138
 30
0.0
 10
718.4619226972
 20
259.0944332255
 30
0.0
 10
718.443383485
 20
259.5156090661
 30
0.0
  0
SPLINE
  5
403
100
AcDbEntity
  8
PRODUCT_172895
100
AcDbSpline
 62
7
  6
CONTINUOUS
 70
0
 71
3
 72
20
 73
16
 74
0
 42
0.0000001
 43
0.0000001
 44
0.0000000001
 40
0.0
 40
0.0
 40
0.0
 40
0.0
 40
0.1335639613
 40
0.1959358297
 40
0.2549305403
 40
0.3109890866
 40
0.365102683
 40
0.4186757743
 40
0.4732372165
 40
0.5300934055
 40
0.5900774383
 40
0.6534627715
 40
0.7200029923
 40
0.85919499
 40
1.0
 40
1.0
 40
1.0
 40
1.0
 10
713.7223365268
 20
258.4069839895
 30
0.0
 10
713.7380149519
 20
258.050799822
 30
0.0
 10
713.8395274834
 20
257.5244533163
 30
0.0
 10
714.1465779931
 20
256.9133865429
 30
0.0
 10
714.4420985345
 20
256.5384900264
 30
0.0
 10
714.7975783483
 20
256.2531540244
 30
0.0
 10
715.1998297326
 20
256.0700985711
 30
0.0
 10
715.6320277197
 20
255.9983404294
 30
0.0
 10
716.075125659
 20
256.040791158
 30
0.0
 10
716.5105264009
 20
256.1941799558
 30
0.0
 10
716.9215425813
 20
256.4507233972
 30
0.0
 10
717.2934308586
 20
256.7995439878
 30
0.0
 10
717.725318617
 20
257.3774197079
 30
0.0
 10
718.0914626256
 20
258.2432112417
 30
0.0
 10
718.1749158898
 20
258.9985167871
 30
0.0
 10
718.1583874732
 20
259.3740111554
 30
0.0
  0
SPLINE
  5
404
100
AcDbEntity
  8
PRODUCT_172895
100
AcDbSpline
 62
7
  6
CONTINUOUS
 70
0
 71
3
 72
11
 73
7
 74
0
 42
0.0000001
 43
0.0000001
 44
0.0000000001
 40
0.0
 40
0.0
 40
0.0
 40
0.0
 40
0.2666836944
 40
0.523351949
 40
0.7679822565
 40
1.0
 40
1.0
 40
1.0
 40
1.0
 10
718.1583874732
 20
259.3740111554
 30
0.0
 10
718.1507324433
 20
259.5479189568
 30
0.0
 10
718.1109198914
 20
259.8887402034
 30
0.0
 10
717.9752373437
 20
260.3735882223
 30
0.0
 10
717.76885239
 20
260.8081679129
 30
0.0
 10
717.5832235843
 20
261.0609589579
 30
0.0
 10
717.4809247687
 20
261.1726348777
 30
0.0
  0
SPLINE
  5
405
100
AcDbEntity
  8
PRODUCT_172895
100
AcDbSpline
 62
7
  6
CONTINUOUS
 70
0
 71
3
 72
18
 73
14
 74
0
 42
0.0000001
 43
0.0000001
 44
0.0000000001
 40
0.0
 40
0.0
 40
0.0
 40
0.0
 40
0.0573402756
 40
0.1128069381
 40
0.1671101801
 40
0.2211105365
 40
0.2757106034
 40
0.3317326536
 40
0.44996901
 40
0.5785269921
 40
0.7159507239
 40
0.8582002511
 40
1.0
 40
1.0
 40
1.0
 40
1.0
 10
717.4809247687
 20
261.1726348777
 30
0.0
 10
717.4027411561
 20
261.2579851019
 30
0.0
 10
717.2345571936
 20
261.4135354539
 30
0.0
 10
716.947768592
 20
261.5947719192
 30
0.0
 10
716.6375352114
 20
261.7151034922
 30
0.0
 10
716.3113333145
 20
261.7713366431
 30
0.0
 10
715.97701378
 20
261.762128864
 30
0.0
 10
715.5235488935
 20
261.6618717499
 30
0.0
 10
714.9732754966
 20
261.3683874668
 30
0.0
 10
714.4213307548
 20
260.8103040735
 30
0.0
 10
714.0035189373
 20
260.0906576821
 30
0.0
 10
713.7527714487
 20
259.2706178273
 30
0.0
 10
713.709749231
 20
258.6929435461
 30
0.0
 10
713.7223365268
 20
258.4069839895
 30
0.0
  0
SPLINE
  5
406
100
AcDbEntity
  8
PRODUCT_172895
100
AcDbSpline
 62
7
  6
CONTINUOUS
 70
0
 71
3
 72
14
 73
10
 74
0
 42
0.0000001
 43
0.0000001
 44
0.0000000001
 40
0.0
 40
0.0
 40
0.0
 40
0.0
 40
0.1053711648
 40
0.2148852055
 40
0.3314092195
 40
0.4559386416
 40
0.5876873201
 40
0.7245113466
 40
1.0
 40
1.0
 40
1.0
 40
1.0
 10
716.1759433938
 20
262.620141036
 30
0.0
 10
715.9595255329
 20
262.6649344552
 30
0.0
 10
715.5005649702
 20
262.6854167712
 30
0.0
 10
714.8201010264
 20
262.5033980536
 30
0.0
 10
714.17982713
 20
262.1258866193
 30
0.0
 10
713.6133897914
 20
261.5778628085
 30
0.0
 10
713.1485710791
 20
260.8899691198
 30
0.0
 10
712.6958194976
 20
259.8379450083
 30
0.0
 10
712.5708281295
 20
258.957267987
 30
0.0
 10
712.596237343
 20
258.3800187094
 30
0.0
  0
SPLINE
  5
407
100
AcDbEntity
  8
PRODUCT_172895
100
AcDbSpline
 62
7
  6
CONTINUOUS
 70
0
 71
3
 72
14
 73
10
 74
0
 42
0.0000001
 43
0.0000001
 44
0.0000000001
 40
0.0
 40
0.0
 40
0.0
 40
0.0
 40
0.2787704513
 40
0.4112471408
 40
0.5381731143
 40
0.6596047887
 40
0.7761690893
 40
0.8890707886
 40
1.0
 40
1.0
 40
1.0
 40
1.0
 10
712.596237343
 20
258.3800187094
 30
0.0
 10
712.6122841704
 20
258.0154651379
 30
0.0
 10
712.7005072137
 20
257.4762078341
 30
0.0
 10
712.9570244232
 20
256.8180743349
 30
0.0
 10
713.2063947382
 20
256.3839553788
 30
0.0
 10
713.5102376365
 20
256.0123774272
 30
0.0
 10
713.8618076848
 20
255.7125893568
 30
0.0
 10
714.2525798803
 20
255.4926966509
 30
0.0
 10
714.5341294065
 20
255.4031198691
 30
0.0
 10
714.6763204306
 20
255.3736896635
 30
0.0
  0
LINE
  5
408
100
AcDbEntity
  8
PRODUCT_172895
100
AcDbLine
 62
7
  6
CONTINUOUS
 10
718.4242665622
 20
279.470394668
 11
718.423667258
 21
279.4761099834
  0
SPLINE
  5
409
100
AcDbEntity
  8
PRODUCT_172895
100
AcDbSpline
 62
7
  6
CONTINUOUS
 70
0
 71
3
 72
9
 73
5
 74
0
 42
0.0000001
 43
0.0000001
 44
0.0000000001
 40
0.0
 40
0.0
 40
0.0
 40
0.0
 40
0.2539109521
 40
1.0
 40
1.0
 40
1.0
 40
1.0
 10
718.423667258
 20
279.4761099834
 30
0.0
 10
718.4147722931
 20
279.5603919741
 30
0.0
 10
718.3699277506
 20
279.8911802076
 30
0.0
 10
718.2847824433
 20
280.2168038468
 30
0.0
 10
718.1977211177
 20
280.4501182035
 30
0.0
  0
SPLINE
  5
40A
100
AcDbEntity
  8
PRODUCT_172895
100
AcDbSpline
 62
7
  6
CONTINUOUS
 70
0
 71
3
 72
9
 73
5
 74
0
 42
0.0000001
 43
0.0000001
 44
0.0000000001
 40
0.0
 40
0.0
 40
0.0
 40
0.0
 40
0.2521318412
 40
1.0
 40
1.0
 40
1.0
 40
1.0
 10
718.1977211177
 20
280.4501182035
 30
0.0
 10
718.1835282376
 20
280.4881534929
 30
0.0
 10
718.1247455423
 20
280.6380633955
 30
0.0
 10
718.0558503493
 20
280.7840359565
 30
0.0
 10
717.9986684014
 20
280.8900112019
 30
0.0
  0
SPLINE
  5
40B
100
AcDbEntity
  8
PRODUCT_172895
100
AcDbSpline
 62
7
  6
CONTINUOUS
 70
0
 71
3
 72
11
 73
7
 74
0
 42
0.0000001
 43
0.0000001
 44
0.0000000001
 40
0.0
 40
0.0
 40
0.0
 40
0.0
 40
0.2572647051
 40
0.5083871381
 40
0.7552598515
 40
1.0
 40
1.0
 40
1.0
 40
1.0
 10
717.9986684014
 20
280.8900112019
 30
0.0
 10
717.9015148422
 20
281.0700657931
 30
0.0
 10
717.6762231962
 20
281.4093518682
 30
0.0
 10
717.2462736148
 20
281.835110949
 30
0.0
 10
716.7413252649
 20
282.1510631553
 30
0.0
 10
716.3665385177
 20
282.2768557631
 30
0.0
 10
716.1759438969
 20
282.3162985269
 30
0.0
  0
SPLINE
  5
40C
100
AcDbEntity
  8
PRODUCT_172895
100
AcDbSpline
 62
7
  6
CONTINUOUS
 70
0
 71
3
 72
13
 73
9
 74
0
 42
0.0000001
 43
0.0000001
 44
0.0000000001
 40
0.0
 40
0.0
 40
0.0
 40
0.0
 40
0.1191203721
 40
0.2388787479
 40
0.3599142771
 40
0.482857615
 40
0.7357388118
 40
1.0
 40
1.0
 40
1.0
 40
1.0
 10
714.6763199276
 20
275.069842293
 30
0.0
 10
714.8264712626
 20
275.0387690989
 30
0.0
 10
715.134229437
 20
275.0048089406
 30
0.0
 10
715.5986226408
 20
275.0403194355
 30
0.0
 10
716.0539894785
 20
275.1593437457
 30
0.0
 10
716.6390427856
 20
275.4241633791
 30
0.0
 10
717.2979226004
 20
275.940088524
 30
0.0
 10
717.6963822453
 20
276.4834528127
 30
0.0
 10
717.8638121695
 20
276.7795536336
 30
0.0
  0
SPLINE
  5
40D
100
AcDbEntity
  8
PRODUCT_172895
100
AcDbSpline
 62
7
  6
CONTINUOUS
 70
0
 71
3
 72
9
 73
5
 74
0
 42
0.0000001
 43
0.0000001
 44
0.0000000001
 40
0.0
 40
0.0
 40
0.0
 40
0.0
 40
0.4989739874
 40
1.0
 40
1.0
 40
1.0
 40
1.0
 10
717.8638121695
 20
276.7795536336
 30
0.0
 10
718.0704700191
 20
277.145029275
 30
0.0
 10
718.378478072
 20
277.9412831741
 30
0.0
 10
718.4619226972
 20
278.7905882857
 30
0.0
 10
718.443383485
 20
279.2117641263
 30
0.0
  0
SPLINE
  5
40E
100
AcDbEntity
  8
PRODUCT_172895
100
AcDbSpline
 62
7
  6
CONTINUOUS
 70
0
 71
3
 72
20
 73
16
 74
0
 42
0.0000001
 43
0.0000001
 44
0.0000000001
 40
0.0
 40
0.0
 40
0.0
 40
0.0
 40
0.1335639613
 40
0.1959358297
 40
0.2549305403
 40
0.3109890866
 40
0.365102683
 40
0.4186757743
 40
0.4732372165
 40
0.5300934055
 40
0.5900774383
 40
0.6534627715
 40
0.7200029923
 40
0.85919499
 40
1.0
 40
1.0
 40
1.0
 40
1.0
 10
713.7223365268
 20
278.1031390498
 30
0.0
 10
713.7380149519
 20
277.7469548823
 30
0.0
 10
713.8395274834
 20
277.2206083766
 30
0.0
 10
714.1465779931
 20
276.6095416032
 30
0.0
 10
714.4420985345
 20
276.2346450867
 30
0.0
 10
714.7975783483
 20
275.9493090846
 30
0.0
 10
715.1998297326
 20
275.7662536313
 30
0.0
 10
715.6320277197
 20
275.6944954897
 30
0.0
 10
716.075125659
 20
275.7369462182
 30
0.0
 10
716.5105264009
 20
275.890335016
 30
0.0
 10
716.9215425813
 20
276.1468784574
 30
0.0
 10
717.2934308586
 20
276.4956990481
 30
0.0
 10
717.725318617
 20
277.0735747682
 30
0.0
 10
718.0914626256
 20
277.9393663019
 30
0.0
 10
718.1749158898
 20
278.6946718473
 30
0.0
 10
718.1583874732
 20
279.0701662157
 30
0.0
  0
SPLINE
  5
40F
100
AcDbEntity
  8
PRODUCT_172895
100
AcDbSpline
 62
7
  6
CONTINUOUS
 70
0
 71
3
 72
11
 73
7
 74
0
 42
0.0000001
 43
0.0000001
 44
0.0000000001
 40
0.0
 40
0.0
 40
0.0
 40
0.0
 40
0.2666836944
 40
0.523351949
 40
0.7679822565
 40
1.0
 40
1.0
 40
1.0
 40
1.0
 10
718.1583874732
 20
279.0701662157
 30
0.0
 10
718.1507324433
 20
279.244074017
 30
0.0
 10
718.1109198914
 20
279.5848952636
 30
0.0
 10
717.9752373437
 20
280.0697432825
 30
0.0
 10
717.76885239
 20
280.5043229732
 30
0.0
 10
717.5832235843
 20
280.7571140181
 30
0.0
 10
717.4809247687
 20
280.8687899379
 30
0.0
  0
SPLINE
  5
410
100
AcDbEntity
  8
PRODUCT_172895
100
AcDbSpline
 62
7
  6
CONTINUOUS
 70
0
 71
3
 72
18
 73
14
 74
0
 42
0.0000001
 43
0.0000001
 44
0.0000000001
 40
0.0
 40
0.0
 40
0.0
 40
0.0
 40
0.0573402756
 40
0.1128069381
 40
0.1671101801
 40
0.2211105365
 40
0.2757106034
 40
0.3317326536
 40
0.44996901
 40
0.5785269921
 40
0.7159507239
 40
0.8582002511
 40
1.0
 40
1.0
 40
1.0
 40
1.0
 10
717.4809247687
 20
280.8687899379
 30
0.0
 10
717.4027411561
 20
280.9541401622
 30
0.0
 10
717.2345571936
 20
281.1096905142
 30
0.0
 10
716.947768592
 20
281.2909269795
 30
0.0
 10
716.6375352114
 20
281.4112585524
 30
0.0
 10
716.3113333145
 20
281.4674917034
 30
0.0
 10
715.97701378
 20
281.4582839242
 30
0.0
 10
715.5235488935
 20
281.3580268102
 30
0.0
 10
714.9732754966
 20
281.064542527
 30
0.0
 10
714.4213307548
 20
280.5064591338
 30
0.0
 10
714.0035189373
 20
279.7868127423
 30
0.0
 10
713.7527714487
 20
278.9667728875
 30
0.0
 10
713.709749231
 20
278.3890986063
 30
0.0
 10
713.7223365268
 20
278.1031390498
 30
0.0
  0
SPLINE
  5
411
100
AcDbEntity
  8
PRODUCT_172895
100
AcDbSpline
 62
7
  6
CONTINUOUS
 70
0
 71
3
 72
14
 73
10
 74
0
 42
0.0000001
 43
0.0000001
 44
0.0000000001
 40
0.0
 40
0.0
 40
0.0
 40
0.0
 40
0.1053711648
 40
0.2148852055
 40
0.3314092195
 40
0.4559386416
 40
0.5876873201
 40
0.7245113466
 40
1.0
 40
1.0
 40
1.0
 40
1.0
 10
716.1759433938
 20
282.3162960962
 30
0.0
 10
715.9595255329
 20
282.3610895155
 30
0.0
 10
715.5005649702
 20
282.3815718314
 30
0.0
 10
714.8201010264
 20
282.1995531139
 30
0.0
 10
714.17982713
 20
281.8220416796
 30
0.0
 10
713.6133897914
 20
281.2740178687
 30
0.0
 10
713.1485710791
 20
280.58612418
 30
0.0
 10
712.6958194976
 20
279.5341000685
 30
0.0
 10
712.5708281295
 20
278.6534230472
 30
0.0
 10
712.596237343
 20
278.0761737697
 30
0.0
  0
SPLINE
  5
412
100
AcDbEntity
  8
PRODUCT_172895
100
AcDbSpline
 62
7
  6
CONTINUOUS
 70
0
 71
3
 72
14
 73
10
 74
0
 42
0.0000001
 43
0.0000001
 44
0.0000000001
 40
0.0
 40
0.0
 40
0.0
 40
0.0
 40
0.2787704513
 40
0.4112471408
 40
0.5381731143
 40
0.6596047887
 40
0.7761690893
 40
0.8890707886
 40
1.0
 40
1.0
 40
1.0
 40
1.0
 10
712.596237343
 20
278.0761737697
 30
0.0
 10
712.6122841704
 20
277.7116201982
 30
0.0
 10
712.7005072137
 20
277.1723628943
 30
0.0
 10
712.9570244232
 20
276.5142293952
 30
0.0
 10
713.2063947382
 20
276.0801104391
 30
0.0
 10
713.5102376365
 20
275.7085324874
 30
0.0
 10
713.8618076848
 20
275.4087444171
 30
0.0
 10
714.2525798803
 20
275.1888517111
 30
0.0
 10
714.5341294065
 20
275.0992749294
 30
0.0
 10
714.6763204306
 20
275.0698447237
 30
0.0
  0
LINE
  5
413
100
AcDbEntity
  8
PRODUCT_172895
100
AcDbLine
 62
7
  6
CONTINUOUS
 10
718.4242665622
 20
299.1665497283
 11
718.423667258
 21
299.1722650436
  0
SPLINE
  5
414
100
AcDbEntity
  8
PRODUCT_172895
100
AcDbSpline
 62
7
  6
CONTINUOUS
 70
0
 71
3
 72
9
 73
5
 74
0
 42
0.0000001
 43
0.0000001
 44
0.0000000001
 40
0.0
 40
0.0
 40
0.0
 40
0.0
 40
0.2539109521
 40
1.0
 40
1.0
 40
1.0
 40
1.0
 10
718.423667258
 20
299.1722650436
 30
0.0
 10
718.4147722931
 20
299.2565470344
 30
0.0
 10
718.3699277506
 20
299.5873352678
 30
0.0
 10
718.2847824433
 20
299.9129589071
 30
0.0
 10
718.1977211177
 20
300.1462732638
 30
0.0
  0
SPLINE
  5
415
100
AcDbEntity
  8
PRODUCT_172895
100
AcDbSpline
 62
7
  6
CONTINUOUS
 70
0
 71
3
 72
9
 73
5
 74
0
 42
0.0000001
 43
0.0000001
 44
0.0000000001
 40
0.0
 40
0.0
 40
0.0
 40
0.0
 40
0.2521318412
 40
1.0
 40
1.0
 40
1.0
 40
1.0
 10
718.1977211177
 20
300.1462732638
 30
0.0
 10
718.1835282376
 20
300.1843085531
 30
0.0
 10
718.1247455423
 20
300.3342184557
 30
0.0
 10
718.0558503493
 20
300.4801910167
 30
0.0
 10
717.9986684014
 20
300.5861662621
 30
0.0
  0
SPLINE
  5
416
100
AcDbEntity
  8
PRODUCT_172895
100
AcDbSpline
 62
7
  6
CONTINUOUS
 70
0
 71
3
 72
11
 73
7
 74
0
 42
0.0000001
 43
0.0000001
 44
0.0000000001
 40
0.0
 40
0.0
 40
0.0
 40
0.0
 40
0.2572647051
 40
0.5083871381
 40
0.7552598515
 40
1.0
 40
1.0
 40
1.0
 40
1.0
 10
717.9986684014
 20
300.5861662621
 30
0.0
 10
717.9015148422
 20
300.7662208534
 30
0.0
 10
717.6762231962
 20
301.1055069284
 30
0.0
 10
717.2462736148
 20
301.5312660093
 30
0.0
 10
716.7413252649
 20
301.8472182155
 30
0.0
 10
716.3665385177
 20
301.9730108234
 30
0.0
 10
716.1759438969
 20
302.0124535872
 30
0.0
  0
SPLINE
  5
417
100
AcDbEntity
  8
PRODUCT_172895
100
AcDbSpline
 62
7
  6
CONTINUOUS
 70
0
 71
3
 72
13
 73
9
 74
0
 42
0.0000001
 43
0.0000001
 44
0.0000000001
 40
0.0
 40
0.0
 40
0.0
 40
0.0
 40
0.1191203721
 40
0.2388787479
 40
0.3599142771
 40
0.482857615
 40
0.7357388118
 40
1.0
 40
1.0
 40
1.0
 40
1.0
 10
714.6763199276
 20
294.7659973532
 30
0.0
 10
714.8264712626
 20
294.7349241591
 30
0.0
 10
715.134229437
 20
294.7009640008
 30
0.0
 10
715.5986226408
 20
294.7364744957
 30
0.0
 10
716.0539894785
 20
294.855498806
 30
0.0
 10
716.6390427856
 20
295.1203184394
 30
0.0
 10
717.2979226004
 20
295.6362435842
 30
0.0
 10
717.6963822453
 20
296.1796078729
 30
0.0
 10
717.8638121695
 20
296.4757086939
 30
0.0
  0
SPLINE
  5
418
100
AcDbEntity
  8
PRODUCT_172895
100
AcDbSpline
 62
7
  6
CONTINUOUS
 70
0
 71
3
 72
9
 73
5
 74
0
 42
0.0000001
 43
0.0000001
 44
0.0000000001
 40
0.0
 40
0.0
 40
0.0
 40
0.0
 40
0.4989739874
 40
1.0
 40
1.0
 40
1.0
 40
1.0
 10
717.8638121695
 20
296.4757086939
 30
0.0
 10
718.0704700191
 20
296.8411843352
 30
0.0
 10
718.378478072
 20
297.6374382343
 30
0.0
 10
718.4619226972
 20
298.486743346
 30
0.0
 10
718.443383485
 20
298.9079191866
 30
0.0
  0
SPLINE
  5
419
100
AcDbEntity
  8
PRODUCT_172895
100
AcDbSpline
 62
7
  6
CONTINUOUS
 70
0
 71
3
 72
20
 73
16
 74
0
 42
0.0000001
 43
0.0000001
 44
0.0000000001
 40
0.0
 40
0.0
 40
0.0
 40
0.0
 40
0.1335639613
 40
0.1959358297
 40
0.2549305403
 40
0.3109890866
 40
0.365102683
 40
0.4186757743
 40
0.4732372165
 40
0.5300934055
 40
0.5900774383
 40
0.6534627715
 40
0.7200029923
 40
0.85919499
 40
1.0
 40
1.0
 40
1.0
 40
1.0
 10
713.7223365268
 20
297.79929411
 30
0.0
 10
713.7380149519
 20
297.4431099425
 30
0.0
 10
713.8395274834
 20
296.9167634368
 30
0.0
 10
714.1465779931
 20
296.3056966634
 30
0.0
 10
714.4420985345
 20
295.9308001469
 30
0.0
 10
714.7975783483
 20
295.6454641449
 30
0.0
 10
715.1998297326
 20
295.4624086916
 30
0.0
 10
715.6320277197
 20
295.3906505499
 30
0.0
 10
716.075125659
 20
295.4331012785
 30
0.0
 10
716.5105264009
 20
295.5864900763
 30
0.0
 10
716.9215425813
 20
295.8430335177
 30
0.0
 10
717.2934308586
 20
296.1918541083
 30
0.0
 10
717.725318617
 20
296.7697298284
 30
0.0
 10
718.0914626256
 20
297.6355213622
 30
0.0
 10
718.1749158898
 20
298.3908269076
 30
0.0
 10
718.1583874732
 20
298.7663212759
 30
0.0
  0
SPLINE
  5
41A
100
AcDbEntity
  8
PRODUCT_172895
100
AcDbSpline
 62
7
  6
CONTINUOUS
 70
0
 71
3
 72
11
 73
7
 74
0
 42
0.0000001
 43
0.0000001
 44
0.0000000001
 40
0.0
 40
0.0
 40
0.0
 40
0.0
 40
0.2666836944
 40
0.523351949
 40
0.7679822565
 40
1.0
 40
1.0
 40
1.0
 40
1.0
 10
718.1583874732
 20
298.7663212759
 30
0.0
 10
718.1507324433
 20
298.9402290773
 30
0.0
 10
718.1109198914
 20
299.2810503239
 30
0.0
 10
717.9752373437
 20
299.7658983428
 30
0.0
 10
717.76885239
 20
300.2004780334
 30
0.0
 10
717.5832235843
 20
300.4532690783
 30
0.0
 10
717.4809247687
 20
300.5649449982
 30
0.0
  0
SPLINE
  5
41B
100
AcDbEntity
  8
PRODUCT_172895
100
AcDbSpline
 62
7
  6
CONTINUOUS
 70
0
 71
3
 72
18
 73
14
 74
0
 42
0.0000001
 43
0.0000001
 44
0.0000000001
 40
0.0
 40
0.0
 40
0.0
 40
0.0
 40
0.0573402756
 40
0.1128069381
 40
0.1671101801
 40
0.2211105365
 40
0.2757106034
 40
0.3317326536
 40
0.44996901
 40
0.5785269921
 40
0.7159507239
 40
0.8582002511
 40
1.0
 40
1.0
 40
1.0
 40
1.0
 10
717.4809247687
 20
300.5649449982
 30
0.0
 10
717.4027411561
 20
300.6502952224
 30
0.0
 10
717.2345571936
 20
300.8058455744
 30
0.0
 10
716.947768592
 20
300.9870820397
 30
0.0
 10
716.6375352114
 20
301.1074136127
 30
0.0
 10
716.3113333145
 20
301.1636467636
 30
0.0
 10
715.97701378
 20
301.1544389845
 30
0.0
 10
715.5235488935
 20
301.0541818704
 30
0.0
 10
714.9732754966
 20
300.7606975873
 30
0.0
 10
714.4213307548
 20
300.202614194
 30
0.0
 10
714.0035189373
 20
299.4829678026
 30
0.0
 10
713.7527714487
 20
298.6629279478
 30
0.0
 10
713.709749231
 20
298.0852536666
 30
0.0
 10
713.7223365268
 20
297.79929411
 30
0.0
  0
SPLINE
  5
41C
100
AcDbEntity
  8
PRODUCT_172895
100
AcDbSpline
 62
7
  6
CONTINUOUS
 70
0
 71
3
 72
14
 73
10
 74
0
 42
0.0000001
 43
0.0000001
 44
0.0000000001
 40
0.0
 40
0.0
 40
0.0
 40
0.0
 40
0.1053711648
 40
0.2148852055
 40
0.3314092195
 40
0.4559386416
 40
0.5876873201
 40
0.7245113466
 40
1.0
 40
1.0
 40
1.0
 40
1.0
 10
716.1759433938
 20
302.0124511565
 30
0.0
 10
715.9595255329
 20
302.0572445757
 30
0.0
 10
715.5005649702
 20
302.0777268917
 30
0.0
 10
714.8201010264
 20
301.8957081741
 30
0.0
 10
714.17982713
 20
301.5181967398
 30
0.0
 10
713.6133897914
 20
300.970172929
 30
0.0
 10
713.1485710791
 20
300.2822792403
 30
0.0
 10
712.6958194976
 20
299.2302551288
 30
0.0
 10
712.5708281295
 20
298.3495781075
 30
0.0
 10
712.596237343
 20
297.7723288299
 30
0.0
  0
SPLINE
  5
41D
100
AcDbEntity
  8
PRODUCT_172895
100
AcDbSpline
 62
7
  6
CONTINUOUS
 70
0
 71
3
 72
14
 73
10
 74
0
 42
0.0000001
 43
0.0000001
 44
0.0000000001
 40
0.0
 40
0.0
 40
0.0
 40
0.0
 40
0.2787704513
 40
0.4112471408
 40
0.5381731143
 40
0.6596047887
 40
0.7761690893
 40
0.8890707886
 40
1.0
 40
1.0
 40
1.0
 40
1.0
 10
712.596237343
 20
297.7723288299
 30
0.0
 10
712.6122841704
 20
297.4077752584
 30
0.0
 10
712.7005072137
 20
296.8685179545
 30
0.0
 10
712.9570244232
 20
296.2103844554
 30
0.0
 10
713.2063947382
 20
295.7762654993
 30
0.0
 10
713.5102376365
 20
295.4046875477
 30
0.0
 10
713.8618076848
 20
295.1048994773
 30
0.0
 10
714.2525798803
 20
294.8850067714
 30
0.0
 10
714.5341294065
 20
294.7954299896
 30
0.0
 10
714.6763204306
 20
294.7659997839
 30
0.0
  0
SPLINE
  5
41E
100
AcDbEntity
  8
PRODUCT_453410
100
AcDbSpline
 62
7
  6
CONTINUOUS
 70
0
 71
3
 72
8
 73
4
 74
0
 42
0.0000001
 43
0.0000001
 44
0.0000000001
 40
0.0
 40
0.0
 40
0.0
 40
0.0
 40
1.0
 40
1.0
 40
1.0
 40
1.0
 10
713.9487204294
 20
294.8144979122
 30
0.0
 10
713.7366685487
 20
294.8583894782
 30
0.0
 10
713.5292920192
 20
294.9355867683
 30
0.0
 10
713.3392536386
 20
295.0394033545
 30
0.0
  0
SPLINE
  5
41F
100
AcDbEntity
  8
PRODUCT_453410
100
AcDbSpline
 62
7
  6
CONTINUOUS
 70
0
 71
3
 72
11
 73
7
 74
0
 42
0.0000001
 43
0.0000001
 44
0.0000000001
 40
0.0
 40
0.0
 40
0.0
 40
0.0
 40
0.2244371885
 40
0.46554602
 40
0.7251334793
 40
1.0
 40
1.0
 40
1.0
 40
1.0
 10
713.3392536386
 20
295.0394033545
 30
0.0
 10
713.1037857945
 20
295.1680377264
 30
0.0
 10
712.6608833749
 20
295.5243010528
 30
0.0
 10
712.1750375521
 20
296.2553132669
 30
0.0
 10
711.8734010536
 20
297.1413746223
 30
0.0
 10
711.8080966577
 20
297.782797117
 30
0.0
 10
711.8080966577
 20
298.1113981051
 30
0.0
  0
SPLINE
  5
420
100
AcDbEntity
  8
PRODUCT_453410
100
AcDbSpline
 62
7
  6
CONTINUOUS
 70
0
 71
3
 72
10
 73
6
 74
0
 42
0.0000001
 43
0.0000001
 44
0.0000000001
 40
0.0
 40
0.0
 40
0.0
 40
0.0
 40
0.5248797398
 40
0.7689778989
 40
1.0
 40
1.0
 40
1.0
 40
1.0
 10
717.8665063235
 20
276.7780818588
 30
0.0
 10
717.5638215705
 20
276.1016384973
 30
0.0
 10
716.9312666908
 20
275.1696697958
 30
0.0
 10
715.784947101
 20
274.3274528055
 30
0.0
 10
715.1513565407
 20
274.0772242906
 30
0.0
 10
714.8335820807
 20
274.0036554654
 30
0.0
  0
SPLINE
  5
421
100
AcDbEntity
  8
PRODUCT_453410
100
AcDbSpline
 62
7
  6
CONTINUOUS
 70
0
 71
3
 72
8
 73
4
 74
0
 42
0.0000001
 43
0.0000001
 44
0.0000000001
 40
0.0
 40
0.0
 40
0.0
 40
0.0
 40
1.0
 40
1.0
 40
1.0
 40
1.0
 10
714.8335820807
 20
274.0036554654
 30
0.0
 10
714.6230434054
 20
273.9549130869
 30
0.0
 10
714.4064873471
 20
273.9267839445
 30
0.0
 10
714.1904351688
 20
273.9219044476
 30
0.0
  0
SPLINE
  5
422
100
AcDbEntity
  8
PRODUCT_453410
100
AcDbSpline
 62
7
  6
CONTINUOUS
 70
0
 71
3
 72
9
 73
5
 74
0
 42
0.0000001
 43
0.0000001
 44
0.0000000001
 40
0.0
 40
0.0
 40
0.0
 40
0.0
 40
0.4774889515
 40
1.0
 40
1.0
 40
1.0
 40
1.0
 10
716.2237163765
 20
283.5449676054
 30
0.0
 10
716.7034452761
 20
283.3165015537
 30
0.0
 10
717.5858280674
 20
282.5615007636
 30
0.0
 10
718.0630413075
 20
281.5236785693
 30
0.0
 10
718.2192475868
 20
280.9635992115
 30
0.0
  0
SPLINE
  5
423
100
AcDbEntity
  8
PRODUCT_453410
100
AcDbSpline
 62
7
  6
CONTINUOUS
 70
0
 71
3
 72
9
 73
5
 74
0
 42
0.0000001
 43
0.0000001
 44
0.0000000001
 40
0.0
 40
0.0
 40
0.0
 40
0.0
 40
0.2455552871
 40
1.0
 40
1.0
 40
1.0
 40
1.0
 10
718.2192475868
 20
280.9635992115
 30
0.0
 10
718.2488538741
 20
280.8574455381
 30
0.0
 10
718.3559393346
 20
280.4214500691
 30
0.0
 10
718.4097096533
 20
279.9727442513
 30
0.0
 10
718.422343554
 20
279.6343860067
 30
0.0
  0
SPLINE
  5
424
100
AcDbEntity
  8
PRODUCT_453410
100
AcDbSpline
 62
7
  6
CONTINUOUS
 70
0
 71
3
 72
8
 73
4
 74
0
 42
0.0000001
 43
0.0000001
 44
0.0000000001
 40
0.0
 40
0.0
 40
0.0
 40
0.0
 40
1.0
 40
1.0
 40
1.0
 40
1.0
 10
713.9487204294
 20
275.118342852
 30
0.0
 10
713.7366685487
 20
275.162234418
 30
0.0
 10
713.5292920192
 20
275.2394317081
 30
0.0
 10
713.3392536386
 20
275.3432482943
 30
0.0
  0
SPLINE
  5
425
100
AcDbEntity
  8
PRODUCT_453410
100
AcDbSpline
 62
7
  6
CONTINUOUS
 70
0
 71
3
 72
11
 73
7
 74
0
 42
0.0000001
 43
0.0000001
 44
0.0000000001
 40
0.0
 40
0.0
 40
0.0
 40
0.0
 40
0.2244371885
 40
0.46554602
 40
0.7251334793
 40
1.0
 40
1.0
 40
1.0
 40
1.0
 10
713.3392536386
 20
275.3432482943
 30
0.0
 10
713.1037857945
 20
275.4718826662
 30
0.0
 10
712.6608833749
 20
275.8281459926
 30
0.0
 10
712.1750375521
 20
276.5591582066
 30
0.0
 10
711.8734010536
 20
277.4452195621
 30
0.0
 10
711.8080966577
 20
278.0866420568
 30
0.0
 10
711.8080966577
 20
278.4152430449
 30
0.0
  0
SPLINE
  5
426
100
AcDbEntity
  8
PRODUCT_453410
100
AcDbSpline
 62
7
  6
CONTINUOUS
 70
0
 71
3
 72
10
 73
6
 74
0
 42
0.0000001
 43
0.0000001
 44
0.0000000001
 40
0.0
 40
0.0
 40
0.0
 40
0.0
 40
0.5248797398
 40
0.7689778989
 40
1.0
 40
1.0
 40
1.0
 40
1.0
 10
717.8665063235
 20
257.0819267986
 30
0.0
 10
717.5638215705
 20
256.4054834371
 30
0.0
 10
716.9312666908
 20
255.4735147355
 30
0.0
 10
715.784947101
 20
254.6312977452
 30
0.0
 10
715.1513565407
 20
254.3810692304
 30
0.0
 10
714.8335820807
 20
254.3075004051
 30
0.0
  0
SPLINE
  5
427
100
AcDbEntity
  8
PRODUCT_453410
100
AcDbSpline
 62
7
  6
CONTINUOUS
 70
0
 71
3
 72
8
 73
4
 74
0
 42
0.0000001
 43
0.0000001
 44
0.0000000001
 40
0.0
 40
0.0
 40
0.0
 40
0.0
 40
1.0
 40
1.0
 40
1.0
 40
1.0
 10
714.8335820807
 20
254.3075004051
 30
0.0
 10
714.6230434054
 20
254.2587580266
 30
0.0
 10
714.406487347
 20
254.2306288843
 30
0.0
 10
714.1904351687
 20
254.2257493873
 30
0.0
  0
SPLINE
  5
428
100
AcDbEntity
  8
PRODUCT_453410
100
AcDbSpline
 62
7
  6
CONTINUOUS
 70
0
 71
3
 72
9
 73
5
 74
0
 42
0.0000001
 43
0.0000001
 44
0.0000000001
 40
0.0
 40
0.0
 40
0.0
 40
0.0
 40
0.4774889515
 40
1.0
 40
1.0
 40
1.0
 40
1.0
 10
716.2237163765
 20
263.8488125451
 30
0.0
 10
716.7034452761
 20
263.6203464935
 30
0.0
 10
717.5858280674
 20
262.8653457034
 30
0.0
 10
718.0630413075
 20
261.827523509
 30
0.0
 10
718.2192475868
 20
261.2674441512
 30
0.0
  0
SPLINE
  5
429
100
AcDbEntity
  8
PRODUCT_453410
100
AcDbSpline
 62
7
  6
CONTINUOUS
 70
0
 71
3
 72
9
 73
5
 74
0
 42
0.0000001
 43
0.0000001
 44
0.0000000001
 40
0.0
 40
0.0
 40
0.0
 40
0.0
 40
0.2455552871
 40
1.0
 40
1.0
 40
1.0
 40
1.0
 10
718.2192475868
 20
261.2674441512
 30
0.0
 10
718.2488538741
 20
261.1612904778
 30
0.0
 10
718.3559393346
 20
260.7252950089
 30
0.0
 10
718.4097096533
 20
260.2765891911
 30
0.0
 10
718.422343554
 20
259.9382309464
 30
0.0
  0
SPLINE
  5
42A
100
AcDbEntity
  8
PRODUCT_453410
100
AcDbSpline
 62
7
  6
CONTINUOUS
 70
0
 71
3
 72
8
 73
4
 74
0
 42
0.0000001
 43
0.0000001
 44
0.0000000001
 40
0.0
 40
0.0
 40
0.0
 40
0.0
 40
1.0
 40
1.0
 40
1.0
 40
1.0
 10
713.9487204294
 20
255.4221877918
 30
0.0
 10
713.7366685487
 20
255.4660793577
 30
0.0
 10
713.5292920192
 20
255.5432766479
 30
0.0
 10
713.3392536386
 20
255.647093234
 30
0.0
  0
SPLINE
  5
42B
100
AcDbEntity
  8
PRODUCT_453410
100
AcDbSpline
 62
7
  6
CONTINUOUS
 70
0
 71
3
 72
11
 73
7
 74
0
 42
0.0000001
 43
0.0000001
 44
0.0000000001
 40
0.0
 40
0.0
 40
0.0
 40
0.0
 40
0.2244371885
 40
0.46554602
 40
0.7251334793
 40
1.0
 40
1.0
 40
1.0
 40
1.0
 10
713.3392536386
 20
255.647093234
 30
0.0
 10
713.1037857945
 20
255.7757276059
 30
0.0
 10
712.6608833749
 20
256.1319909323
 30
0.0
 10
712.1750375521
 20
256.8630031464
 30
0.0
 10
711.8734010536
 20
257.7490645018
 30
0.0
 10
711.8080966577
 20
258.3904869965
 30
0.0
 10
711.8080966577
 20
258.7190879846
 30
0.0
  0
SPLINE
  5
42C
100
AcDbEntity
  8
PRODUCT_453410
100
AcDbSpline
 62
7
  6
CONTINUOUS
 70
0
 71
3
 72
10
 73
6
 74
0
 42
0.0000001
 43
0.0000001
 44
0.0000000001
 40
0.0
 40
0.0
 40
0.0
 40
0.0
 40
0.5248797398
 40
0.7689778989
 40
1.0
 40
1.0
 40
1.0
 40
1.0
 10
717.8665063235
 20
237.3857717384
 30
0.0
 10
717.5638215705
 20
236.7093283768
 30
0.0
 10
716.9312666908
 20
235.7773596753
 30
0.0
 10
715.784947101
 20
234.935142685
 30
0.0
 10
715.1513565407
 20
234.6849141702
 30
0.0
 10
714.8335820807
 20
234.6113453449
 30
0.0
  0
SPLINE
  5
42D
100
AcDbEntity
  8
PRODUCT_453410
100
AcDbSpline
 62
7
  6
CONTINUOUS
 70
0
 71
3
 72
8
 73
4
 74
0
 42
0.0000001
 43
0.0000001
 44
0.0000000001
 40
0.0
 40
0.0
 40
0.0
 40
0.0
 40
1.0
 40
1.0
 40
1.0
 40
1.0
 10
714.8335820807
 20
234.6113453449
 30
0.0
 10
714.6230434053
 20
234.5626029664
 30
0.0
 10
714.4064873469
 20
234.534473824
 30
0.0
 10
714.1904351685
 20
234.5295943271
 30
0.0
  0
SPLINE
  5
42E
100
AcDbEntity
  8
PRODUCT_453410
100
AcDbSpline
 62
7
  6
CONTINUOUS
 70
0
 71
3
 72
9
 73
5
 74
0
 42
0.0000001
 43
0.0000001
 44
0.0000000001
 40
0.0
 40
0.0
 40
0.0
 40
0.0
 40
0.4809685669
 40
1.0
 40
1.0
 40
1.0
 40
1.0
 10
716.2237163765
 20
244.1526574849
 30
0.0
 10
716.6393751318
 20
243.9547041935
 30
0.0
 10
717.4136643421
 20
243.3386868181
 30
0.0
 10
717.8935261535
 20
242.4863314578
 30
0.0
 10
718.070857894
 20
242.0222340448
 30
0.0
  0
SPLINE
  5
42F
100
AcDbEntity
  8
PRODUCT_453410
100
AcDbSpline
 62
7
  6
CONTINUOUS
 70
0
 71
3
 72
9
 73
5
 74
0
 42
0.0000001
 43
0.0000001
 44
0.0000000001
 40
0.0
 40
0.0
 40
0.0
 40
0.0
 40
0.2455552871
 40
1.0
 40
1.0
 40
1.0
 40
1.0
 10
718.2192475868
 20
241.571289091
 30
0.0
 10
718.2488538741
 20
241.4651354176
 30
0.0
 10
718.3559393346
 20
241.0291399486
 30
0.0
 10
718.4097096533
 20
240.5804341308
 30
0.0
 10
718.422343554
 20
240.2420758862
 30
0.0
  0
SPLINE
  5
430
100
AcDbEntity
  8
PRODUCT_453410
100
AcDbSpline
 62
7
  6
CONTINUOUS
 70
0
 71
3
 72
8
 73
4
 74
0
 42
0.0000001
 43
0.0000001
 44
0.0000000001
 40
0.0
 40
0.0
 40
0.0
 40
0.0
 40
1.0
 40
1.0
 40
1.0
 40
1.0
 10
713.9487204294
 20
235.7260327315
 30
0.0
 10
713.7366685487
 20
235.7699242975
 30
0.0
 10
713.5292920192
 20
235.8471215876
 30
0.0
 10
713.3392536386
 20
235.9509381738
 30
0.0
  0
SPLINE
  5
431
100
AcDbEntity
  8
PRODUCT_453410
100
AcDbSpline
 62
7
  6
CONTINUOUS
 70
0
 71
3
 72
11
 73
7
 74
0
 42
0.0000001
 43
0.0000001
 44
0.0000000001
 40
0.0
 40
0.0
 40
0.0
 40
0.0
 40
0.2244371885
 40
0.46554602
 40
0.7251334793
 40
1.0
 40
1.0
 40
1.0
 40
1.0
 10
713.3392536386
 20
235.9509381738
 30
0.0
 10
713.1037857945
 20
236.0795725457
 30
0.0
 10
712.6608833749
 20
236.4358358721
 30
0.0
 10
712.1750375521
 20
237.1668480862
 30
0.0
 10
711.8734010536
 20
238.0529094416
 30
0.0
 10
711.8080966577
 20
238.6943319363
 30
0.0
 10
711.8080966577
 20
239.0229329244
 30
0.0
  0
SPLINE
  5
432
100
AcDbEntity
  8
PRODUCT_453410
100
AcDbSpline
 62
7
  6
CONTINUOUS
 70
0
 71
3
 72
11
 73
7
 74
0
 42
0.0000001
 43
0.0000001
 44
0.0000000001
 40
0.0
 40
0.0
 40
0.0
 40
0.0
 40
0.2720585194
 40
0.5377982156
 40
0.7818039972
 40
1.0
 40
1.0
 40
1.0
 40
1.0
 10
711.8080966577
 20
298.1113981051
 30
0.0
 10
711.8080966577
 20
298.6193248798
 30
0.0
 10
711.9664387054
 20
299.6293011532
 30
0.0
 10
712.6185350283
 20
300.9604004153
 30
0.0
 10
713.6013329972
 20
301.941828421
 30
0.0
 10
714.4458191481
 20
302.2578169412
 30
0.0
 10
714.8516450624
 20
302.2932145059
 30
0.0
  0
SPLINE
  5
433
100
AcDbEntity
  8
PRODUCT_453410
100
AcDbSpline
 62
7
  6
CONTINUOUS
 70
0
 71
3
 72
8
 73
4
 74
0
 42
0.0000001
 43
0.0000001
 44
0.0000000001
 40
0.0
 40
0.0
 40
0.0
 40
0.0
 40
1.0
 40
1.0
 40
1.0
 40
1.0
 10
714.8516450624
 20
302.2932145059
 30
0.0
 10
715.0637781922
 20
302.3117175041
 30
0.0
 10
715.2808920222
 20
302.2997621519
 30
0.0
 10
715.4894106538
 20
302.2566019156
 30
0.0
  0
SPLINE
  5
434
100
AcDbEntity
  8
PRODUCT_453410
100
AcDbSpline
 62
7
  6
CONTINUOUS
 70
0
 71
3
 72
9
 73
5
 74
0
 42
0.0000001
 43
0.0000001
 44
0.0000000001
 40
0.0
 40
0.0
 40
0.0
 40
0.0
 40
0.4809685669
 40
1.0
 40
1.0
 40
1.0
 40
1.0
 10
716.2237163765
 20
303.2411226656
 30
0.0
 10
716.6393751318
 20
303.0431693742
 30
0.0
 10
717.4136643421
 20
302.4271519988
 30
0.0
 10
717.8935261535
 20
301.5747966385
 30
0.0
 10
718.070857894
 20
301.1106992255
 30
0.0
  0
SPLINE
  5
435
100
AcDbEntity
  8
PRODUCT_453410
100
AcDbSpline
 62
7
  6
CONTINUOUS
 70
0
 71
3
 72
9
 73
5
 74
0
 42
0.0000001
 43
0.0000001
 44
0.0000000001
 40
0.0
 40
0.0
 40
0.0
 40
0.0
 40
0.2455552871
 40
1.0
 40
1.0
 40
1.0
 40
1.0
 10
718.2192475868
 20
300.6597542717
 30
0.0
 10
718.2488538741
 20
300.5536005983
 30
0.0
 10
718.3559393346
 20
300.1176051293
 30
0.0
 10
718.4097096533
 20
299.6688993115
 30
0.0
 10
718.422343554
 20
299.3305410669
 30
0.0
  0
SPLINE
  5
436
100
AcDbEntity
  8
PRODUCT_453410
100
AcDbSpline
 62
7
  6
CONTINUOUS
 70
0
 71
3
 72
10
 73
6
 74
0
 42
0.0000001
 43
0.0000001
 44
0.0000000001
 40
0.0
 40
0.0
 40
0.0
 40
0.0
 40
0.5248797398
 40
0.7689778989
 40
1.0
 40
1.0
 40
1.0
 40
1.0
 10
717.8665063235
 20
296.4742369191
 30
0.0
 10
717.5638215705
 20
295.7977935576
 30
0.0
 10
716.9312666908
 20
294.865824856
 30
0.0
 10
715.784947101
 20
294.0236078657
 30
0.0
 10
715.1513565407
 20
293.7733793509
 30
0.0
 10
714.8335820807
 20
293.6998105256
 30
0.0
  0
SPLINE
  5
437
100
AcDbEntity
  8
PRODUCT_453410
100
AcDbSpline
 62
7
  6
CONTINUOUS
 70
0
 71
3
 72
8
 73
4
 74
0
 42
0.0000001
 43
0.0000001
 44
0.0000000001
 40
0.0
 40
0.0
 40
0.0
 40
0.0
 40
1.0
 40
1.0
 40
1.0
 40
1.0
 10
714.8335820807
 20
293.6998105256
 30
0.0
 10
714.6230434054
 20
293.6510681471
 30
0.0
 10
714.406487347
 20
293.6229390047
 30
0.0
 10
714.1904351687
 20
293.6180595078
 30
0.0
  0
SPLINE
  5
438
100
AcDbEntity
  8
PRODUCT_453410
100
AcDbSpline
 62
7
  6
CONTINUOUS
 70
0
 71
3
 72
11
 73
7
 74
0
 42
0.0000001
 43
0.0000001
 44
0.0000000001
 40
0.0
 40
0.0
 40
0.0
 40
0.0
 40
0.2720585194
 40
0.5377982156
 40
0.7818039972
 40
1.0
 40
1.0
 40
1.0
 40
1.0
 10
711.8080966577
 20
278.4152430449
 30
0.0
 10
711.8080966577
 20
278.9231698196
 30
0.0
 10
711.9664387054
 20
279.9331460929
 30
0.0
 10
712.6185350283
 20
281.2642453551
 30
0.0
 10
713.6013329972
 20
282.2456733608
 30
0.0
 10
714.4458191481
 20
282.561661881
 30
0.0
 10
714.8516450624
 20
282.5970594456
 30
0.0
  0
SPLINE
  5
439
100
AcDbEntity
  8
PRODUCT_453410
100
AcDbSpline
 62
7
  6
CONTINUOUS
 70
0
 71
3
 72
8
 73
4
 74
0
 42
0.0000001
 43
0.0000001
 44
0.0000000001
 40
0.0
 40
0.0
 40
0.0
 40
0.0
 40
1.0
 40
1.0
 40
1.0
 40
1.0
 10
714.8516450624
 20
282.5970594456
 30
0.0
 10
715.0637781922
 20
282.6155624438
 30
0.0
 10
715.2808920222
 20
282.6036070916
 30
0.0
 10
715.4894106538
 20
282.5604468553
 30
0.0
  0
SPLINE
  5
43A
100
AcDbEntity
  8
PRODUCT_453410
100
AcDbSpline
 62
7
  6
CONTINUOUS
 70
0
 71
3
 72
11
 73
7
 74
0
 42
0.0000001
 43
0.0000001
 44
0.0000000001
 40
0.0
 40
0.0
 40
0.0
 40
0.0
 40
0.2720585194
 40
0.5377982156
 40
0.7818039972
 40
1.0
 40
1.0
 40
1.0
 40
1.0
 10
711.8080966577
 20
258.7190879846
 30
0.0
 10
711.8080966577
 20
259.2270147593
 30
0.0
 10
711.9664387054
 20
260.2369910327
 30
0.0
 10
712.6185350283
 20
261.5680902948
 30
0.0
 10
713.6013329972
 20
262.5495183005
 30
0.0
 10
714.4458191481
 20
262.8655068207
 30
0.0
 10
714.8516450624
 20
262.9009043854
 30
0.0
  0
SPLINE
  5
43B
100
AcDbEntity
  8
PRODUCT_453410
100
AcDbSpline
 62
7
  6
CONTINUOUS
 70
0
 71
3
 72
8
 73
4
 74
0
 42
0.0000001
 43
0.0000001
 44
0.0000000001
 40
0.0
 40
0.0
 40
0.0
 40
0.0
 40
1.0
 40
1.0
 40
1.0
 40
1.0
 10
714.8516450624
 20
262.9009043854
 30
0.0
 10
715.0637781922
 20
262.9194073836
 30
0.0
 10
715.2808920222
 20
262.9074520314
 30
0.0
 10
715.4894106538
 20
262.8642917951
 30
0.0
  0
SPLINE
  5
43C
100
AcDbEntity
  8
PRODUCT_453410
100
AcDbSpline
 62
7
  6
CONTINUOUS
 70
0
 71
3
 72
11
 73
7
 74
0
 42
0.0000001
 43
0.0000001
 44
0.0000000001
 40
0.0
 40
0.0
 40
0.0
 40
0.0
 40
0.2720585194
 40
0.5377982156
 40
0.7818039972
 40
1.0
 40
1.0
 40
1.0
 40
1.0
 10
711.8080966577
 20
239.0229329244
 30
0.0
 10
711.8080966577
 20
239.5308596991
 30
0.0
 10
711.9664387054
 20
240.5408359725
 30
0.0
 10
712.6185350283
 20
241.8719352346
 30
0.0
 10
713.6013329972
 20
242.8533632403
 30
0.0
 10
714.4458191481
 20
243.1693517605
 30
0.0
 10
714.8516450624
 20
243.2047493251
 30
0.0
  0
SPLINE
  5
43D
100
AcDbEntity
  8
PRODUCT_453410
100
AcDbSpline
 62
7
  6
CONTINUOUS
 70
0
 71
3
 72
8
 73
4
 74
0
 42
0.0000001
 43
0.0000001
 44
0.0000000001
 40
0.0
 40
0.0
 40
0.0
 40
0.0
 40
1.0
 40
1.0
 40
1.0
 40
1.0
 10
714.8516450624
 20
243.2047493251
 30
0.0
 10
715.0637781922
 20
243.2232523233
 30
0.0
 10
715.2808920222
 20
243.2112969711
 30
0.0
 10
715.4894106538
 20
243.1681367349
 30
0.0
  0
SPLINE
  5
43E
100
AcDbEntity
  8
PRODUCT_453410
100
AcDbSpline
 62
7
  6
CONTINUOUS
 70
0
 71
3
 72
9
 73
5
 74
0
 42
0.0000001
 43
0.0000001
 44
0.0000000001
 40
0.0
 40
0.0
 40
0.0
 40
0.0
 40
0.7475626796
 40
1.0
 40
1.0
 40
1.0
 40
1.0
 10
712.6780339884
 20
274.1558636809
 30
0.0
 10
712.4672474169
 20
274.1994570966
 30
0.0
 10
712.1905933615
 20
274.2905286629
 30
0.0
 10
711.9333143345
 20
274.4199994032
 30
0.0
 10
711.8696051072
 20
274.4549881438
 30
0.0
  0
SPLINE
  5
43F
100
AcDbEntity
  8
PRODUCT_453410
100
AcDbSpline
 62
7
  6
CONTINUOUS
 70
0
 71
3
 72
9
 73
5
 74
0
 42
0.0000001
 43
0.0000001
 44
0.0000000001
 40
0.0
 40
0.0
 40
0.0
 40
0.0
 40
0.7475626796
 40
1.0
 40
1.0
 40
1.0
 40
1.0
 10
712.6780339884
 20
254.4597086207
 30
0.0
 10
712.4672474169
 20
254.5033020363
 30
0.0
 10
712.1905933615
 20
254.5943736026
 30
0.0
 10
711.9333143345
 20
254.7238443429
 30
0.0
 10
711.8696051072
 20
254.7588330835
 30
0.0
  0
SPLINE
  5
440
100
AcDbEntity
  8
PRODUCT_453410
100
AcDbSpline
 62
7
  6
CONTINUOUS
 70
0
 71
3
 72
13
 73
9
 74
0
 42
0.0000001
 43
0.0000001
 44
0.0000000001
 40
0.0
 40
0.0
 40
0.0
 40
0.0
 40
0.1057497211
 40
0.2154317371
 40
0.3318301158
 40
0.456020224
 40
0.7229584048
 40
1.0
 40
1.0
 40
1.0
 40
1.0
 10
715.5394861075
 20
264.0793881614
 30
0.0
 10
715.2557526488
 20
264.1381409941
 30
0.0
 10
714.6554360279
 20
264.1678308506
 30
0.0
 10
713.762864204
 20
263.9418954847
 30
0.0
 10
712.9179694438
 20
263.465622907
 30
0.0
 10
711.8888760509
 20
262.5151679949
 30
0.0
 10
710.9617292847
 20
260.884143782
 30
0.0
 10
710.6960070431
 20
259.3841416678
 30
0.0
 10
710.6960070431
 20
258.6250519747
 30
0.0
  0
SPLINE
  5
441
100
AcDbEntity
  8
PRODUCT_453410
100
AcDbSpline
 62
7
  6
CONTINUOUS
 70
0
 71
3
 72
11
 73
7
 74
0
 42
0.0000001
 43
0.0000001
 44
0.0000000001
 40
0.0
 40
0.0
 40
0.0
 40
0.0
 40
0.2787999487
 40
0.5389767591
 40
0.7776350303
 40
1.0
 40
1.0
 40
1.0
 40
1.0
 10
710.6960070431
 20
298.0173620951
 30
0.0
 10
710.6960070431
 20
297.5239793961
 30
0.0
 10
710.8072053268
 20
296.5651178777
 30
0.0
 10
711.3227805021
 20
295.2696945147
 30
0.0
 10
712.1485989494
 20
294.2653166316
 30
0.0
 10
712.8847105993
 20
293.8579450113
 30
0.0
 10
713.2611953974
 20
293.743443402
 30
0.0
  0
SPLINE
  5
442
100
AcDbEntity
  8
PRODUCT_453410
100
AcDbSpline
 62
7
  6
CONTINUOUS
 70
0
 71
3
 72
9
 73
5
 74
0
 42
0.0000001
 43
0.0000001
 44
0.0000000001
 40
0.0
 40
0.0
 40
0.0
 40
0.0
 40
0.5210470473
 40
1.0
 40
1.0
 40
1.0
 40
1.0
 10
718.1171690572
 20
300.5603660268
 30
0.0
 10
718.0030136281
 20
300.9628176317
 30
0.0
 10
717.6858515469
 20
301.7128280436
 30
0.0
 10
717.1517685242
 20
302.335745817
 30
0.0
 10
716.8513516963
 20
302.5757774989
 30
0.0
  0
SPLINE
  5
443
100
AcDbEntity
  8
PRODUCT_453410
100
AcDbSpline
 62
7
  6
CONTINUOUS
 70
0
 71
3
 72
11
 73
7
 74
0
 42
0.0000001
 43
0.0000001
 44
0.0000000001
 40
0.0
 40
0.0
 40
0.0
 40
0.0
 40
0.2460159431
 40
0.4871631591
 40
0.7354009492
 40
1.0
 40
1.0
 40
1.0
 40
1.0
 10
716.8513516963
 20
302.5757774989
 30
0.0
 10
716.6063337546
 20
302.7715457222
 30
0.0
 10
716.0555729679
 20
303.0869838238
 30
0.0
 10
715.1128298208
 20
303.2483254456
 30
0.0
 10
714.1495480251
 20
303.0772228714
 30
0.0
 10
713.5621917903
 20
302.7670935182
 30
0.0
 10
713.2862748316
 20
302.5730590972
 30
0.0
  0
SPLINE
  5
444
100
AcDbEntity
  8
PRODUCT_453410
100
AcDbSpline
 62
7
  6
CONTINUOUS
 70
0
 71
3
 72
9
 73
5
 74
0
 42
0.0000001
 43
0.0000001
 44
0.0000000001
 40
0.0
 40
0.0
 40
0.0
 40
0.0
 40
0.4829273426
 40
1.0
 40
1.0
 40
1.0
 40
1.0
 10
713.1658202247
 20
302.4849349941
 30
0.0
 10
712.5194546962
 20
301.993392837
 30
0.0
 10
711.4790892353
 20
300.5763072651
 30
0.0
 10
711.1186566589
 20
298.8803917489
 30
0.0
 10
711.1186566589
 20
298.0109410978
 30
0.0
  0
SPLINE
  5
445
100
AcDbEntity
  8
PRODUCT_453410
100
AcDbSpline
 62
7
  6
CONTINUOUS
 70
0
 71
3
 72
9
 73
5
 74
0
 42
0.0000001
 43
0.0000001
 44
0.0000000001
 40
0.0
 40
0.0
 40
0.0
 40
0.0
 40
0.2629131656
 40
1.0
 40
1.0
 40
1.0
 40
1.0
 10
711.1186566589
 20
298.0109410978
 30
0.0
 10
711.1186566589
 20
297.7784723238
 30
0.0
 10
711.1697413402
 20
296.8961746298
 30
0.0
 10
711.4358669394
 20
296.0174527216
 30
0.0
 10
711.7668376753
 20
295.4560111064
 30
0.0
  0
SPLINE
  5
446
100
AcDbEntity
  8
PRODUCT_453410
100
AcDbSpline
 62
7
  6
CONTINUOUS
 70
0
 71
3
 72
11
 73
7
 74
0
 42
0.0000001
 43
0.0000001
 44
0.0000000001
 40
0.0
 40
0.0
 40
0.0
 40
0.0
 40
0.2643400121
 40
0.5122223237
 40
0.7533305935
 40
1.0
 40
1.0
 40
1.0
 40
1.0
 10
711.8046100202
 20
295.3932594092
 30
0.0
 10
711.9837699094
 20
295.1017404167
 30
0.0
 10
712.4078103432
 20
294.5778252645
 30
0.0
 10
713.241529382
 20
294.037972159
 30
0.0
 10
714.1896598846
 20
293.8231130614
 30
0.0
 10
714.829577225
 20
293.9083432547
 30
0.0
 10
715.1357865937
 20
293.9988267605
 30
0.0
  0
SPLINE
  5
447
100
AcDbEntity
  8
PRODUCT_453410
100
AcDbSpline
 62
7
  6
CONTINUOUS
 70
0
 71
3
 72
9
 73
5
 74
0
 42
0.0000001
 43
0.0000001
 44
0.0000000001
 40
0.0
 40
0.0
 40
0.0
 40
0.0
 40
0.4759813049
 40
1.0
 40
1.0
 40
1.0
 40
1.0
 10
715.1357865937
 20
293.9988267605
 30
0.0
 10
715.5684192588
 20
294.1266677878
 30
0.0
 10
716.4217376053
 20
294.5976367851
 30
0.0
 10
717.0589126117
 20
295.3212799351
 30
0.0
 10
717.3339240007
 20
295.7348430664
 30
0.0
  0
SPLINE
  5
448
100
AcDbEntity
  8
PRODUCT_453410
100
AcDbSpline
 62
7
  6
CONTINUOUS
 70
0
 71
3
 72
8
 73
4
 74
0
 42
0.0000001
 43
0.0000001
 44
0.0000000001
 40
0.0
 40
0.0
 40
0.0
 40
0.0
 40
1.0
 40
1.0
 40
1.0
 40
1.0
 10
714.5864860208
 20
294.777885322
 30
0.0
 10
714.374352891
 20
294.7593823238
 30
0.0
 10
714.1572390609
 20
294.771337676
 30
0.0
 10
713.9487204294
 20
294.8144979122
 30
0.0
  0
SPLINE
  5
449
100
AcDbEntity
  8
PRODUCT_453410
100
AcDbSpline
 62
7
  6
CONTINUOUS
 70
0
 71
3
 72
8
 73
4
 74
0
 42
0.0000001
 43
0.0000001
 44
0.0000000001
 40
0.0
 40
0.0
 40
0.0
 40
0.0
 40
1.0
 40
1.0
 40
1.0
 40
1.0
 10
715.4894106538
 20
262.8642917951
 30
0.0
 10
715.6871185744
 20
262.8233692142
 30
0.0
 10
715.8806874033
 20
262.7536219851
 30
0.0
 10
716.0597178145
 20
262.6602882218
 30
0.0
  0
SPLINE
  5
44A
100
AcDbEntity
  8
PRODUCT_453410
100
AcDbSpline
 62
7
  6
CONTINUOUS
 70
0
 71
3
 72
8
 73
4
 74
0
 42
0.0000001
 43
0.0000001
 44
0.0000000001
 40
0.0
 40
0.0
 40
0.0
 40
0.0
 40
1.0
 40
1.0
 40
1.0
 40
1.0
 10
715.4894106538
 20
302.2566019156
 30
0.0
 10
715.6871185744
 20
302.2156793347
 30
0.0
 10
715.8806874033
 20
302.1459321056
 30
0.0
 10
716.0597178145
 20
302.0525983423
 30
0.0
  0
SPLINE
  5
44B
100
AcDbEntity
  8
PRODUCT_453410
100
AcDbSpline
 62
7
  6
CONTINUOUS
 70
0
 71
3
 72
13
 73
9
 74
0
 42
0.0000001
 43
0.0000001
 44
0.0000000001
 40
0.0
 40
0.0
 40
0.0
 40
0.0
 40
0.1057497211
 40
0.2154317371
 40
0.3318301158
 40
0.456020224
 40
0.7229584048
 40
1.0
 40
1.0
 40
1.0
 40
1.0
 10
715.5394861075
 20
283.7755432216
 30
0.0
 10
715.2557526488
 20
283.8342960543
 30
0.0
 10
714.6554360279
 20
283.8639859109
 30
0.0
 10
713.762864204
 20
283.638050545
 30
0.0
 10
712.9179694438
 20
283.1617779672
 30
0.0
 10
711.8888760509
 20
282.2113230551
 30
0.0
 10
710.9617292847
 20
280.5802988423
 30
0.0
 10
710.6960070431
 20
279.080296728
 30
0.0
 10
710.6960070431
 20
278.3212070349
 30
0.0
  0
SPLINE
  5
44C
100
AcDbEntity
  8
PRODUCT_453410
100
AcDbSpline
 62
7
  6
CONTINUOUS
 70
0
 71
3
 72
13
 73
9
 74
0
 42
0.0000001
 43
0.0000001
 44
0.0000000001
 40
0.0
 40
0.0
 40
0.0
 40
0.0
 40
0.1057497211
 40
0.2154317371
 40
0.3318301158
 40
0.456020224
 40
0.7229584048
 40
1.0
 40
1.0
 40
1.0
 40
1.0
 10
715.5394861075
 20
303.4716982819
 30
0.0
 10
715.2557526488
 20
303.5304511146
 30
0.0
 10
714.6554360279
 20
303.5601409711
 30
0.0
 10
713.762864204
 20
303.3342056052
 30
0.0
 10
712.9179694438
 20
302.8579330275
 30
0.0
 10
711.8888760509
 20
301.9074781154
 30
0.0
 10
710.9617292847
 20
300.2764539025
 30
0.0
 10
710.6960070431
 20
298.7764517883
 30
0.0
 10
710.6960070431
 20
298.0173620951
 30
0.0
  0
SPLINE
  5
44D
100
AcDbEntity
  8
PRODUCT_453410
100
AcDbSpline
 62
7
  6
CONTINUOUS
 70
0
 71
3
 72
13
 73
9
 74
0
 42
0.0000001
 43
0.0000001
 44
0.0000000001
 40
0.0
 40
0.0
 40
0.0
 40
0.0
 40
0.1057497211
 40
0.2154317371
 40
0.3318301158
 40
0.456020224
 40
0.7229584048
 40
1.0
 40
1.0
 40
1.0
 40
1.0
 10
715.5394861075
 20
244.3832331012
 30
0.0
 10
715.2557526488
 20
244.4419859338
 30
0.0
 10
714.6554360279
 20
244.4716757904
 30
0.0
 10
713.762864204
 20
244.2457404245
 30
0.0
 10
712.9179694438
 20
243.7694678467
 30
0.0
 10
711.8888760509
 20
242.8190129346
 30
0.0
 10
710.9617292847
 20
241.1879887218
 30
0.0
 10
710.6960070431
 20
239.6879866075
 30
0.0
 10
710.6960070431
 20
238.9288969144
 30
0.0
  0
SPLINE
  5
44E
100
AcDbEntity
  8
PRODUCT_453410
100
AcDbSpline
 62
7
  6
CONTINUOUS
 70
0
 71
3
 72
11
 73
7
 74
0
 42
0.0000001
 43
0.0000001
 44
0.0000000001
 40
0.0
 40
0.0
 40
0.0
 40
0.0
 40
0.2787999487
 40
0.5389767591
 40
0.7776350303
 40
1.0
 40
1.0
 40
1.0
 40
1.0
 10
710.6960070431
 20
278.3212070349
 30
0.0
 10
710.6960070431
 20
277.8278243358
 30
0.0
 10
710.8072053268
 20
276.8689628175
 30
0.0
 10
711.3227805021
 20
275.5735394544
 30
0.0
 10
712.1485989494
 20
274.5691615713
 30
0.0
 10
712.8847105993
 20
274.161789951
 30
0.0
 10
713.2611953974
 20
274.0472883417
 30
0.0
  0
SPLINE
  5
44F
100
AcDbEntity
  8
PRODUCT_453410
100
AcDbSpline
 62
7
  6
CONTINUOUS
 70
0
 71
3
 72
8
 73
4
 74
0
 42
0.0000001
 43
0.0000001
 44
0.0000000001
 40
0.0
 40
0.0
 40
0.0
 40
0.0
 40
1.0
 40
1.0
 40
1.0
 40
1.0
 10
714.5864860208
 20
275.0817302617
 30
0.0
 10
714.374352891
 20
275.0632272635
 30
0.0
 10
714.1572390609
 20
275.0751826157
 30
0.0
 10
713.9487204294
 20
275.118342852
 30
0.0
  0
SPLINE
  5
450
100
AcDbEntity
  8
PRODUCT_453410
100
AcDbSpline
 62
7
  6
CONTINUOUS
 70
0
 71
3
 72
9
 73
5
 74
0
 42
0.0000001
 43
0.0000001
 44
0.0000000001
 40
0.0
 40
0.0
 40
0.0
 40
0.0
 40
0.2629131656
 40
1.0
 40
1.0
 40
1.0
 40
1.0
 10
711.1186566589
 20
278.3147860375
 30
0.0
 10
711.1186566589
 20
278.0823172636
 30
0.0
 10
711.1697413402
 20
277.2000195696
 30
0.0
 10
711.4358669394
 20
276.3212976614
 30
0.0
 10
711.7668376753
 20
275.7598560461
 30
0.0
  0
SPLINE
  5
451
100
AcDbEntity
  8
PRODUCT_453410
100
AcDbSpline
 62
7
  6
CONTINUOUS
 70
0
 71
3
 72
11
 73
7
 74
0
 42
0.0000001
 43
0.0000001
 44
0.0000000001
 40
0.0
 40
0.0
 40
0.0
 40
0.0
 40
0.2643400121
 40
0.5122223237
 40
0.7533305935
 40
1.0
 40
1.0
 40
1.0
 40
1.0
 10
711.8046100202
 20
275.697104349
 30
0.0
 10
711.9837699094
 20
275.4055853564
 30
0.0
 10
712.4078103432
 20
274.8816702042
 30
0.0
 10
713.2415293821
 20
274.3418170987
 30
0.0
 10
714.1896598847
 20
274.1269580011
 30
0.0
 10
714.8295772251
 20
274.2121881945
 30
0.0
 10
715.1357865938
 20
274.3026717003
 30
0.0
  0
SPLINE
  5
452
100
AcDbEntity
  8
PRODUCT_453410
100
AcDbSpline
 62
7
  6
CONTINUOUS
 70
0
 71
3
 72
9
 73
5
 74
0
 42
0.0000001
 43
0.0000001
 44
0.0000000001
 40
0.0
 40
0.0
 40
0.0
 40
0.0
 40
0.4759813049
 40
1.0
 40
1.0
 40
1.0
 40
1.0
 10
715.1357865938
 20
274.3026717003
 30
0.0
 10
715.568419259
 20
274.4305127276
 30
0.0
 10
716.4217376054
 20
274.901481725
 30
0.0
 10
717.0589126117
 20
275.6251248749
 30
0.0
 10
717.3339240007
 20
276.0386880062
 30
0.0
  0
SPLINE
  5
453
100
AcDbEntity
  8
PRODUCT_453410
100
AcDbSpline
 62
7
  6
CONTINUOUS
 70
0
 71
3
 72
9
 73
5
 74
0
 42
0.0000001
 43
0.0000001
 44
0.0000000001
 40
0.0
 40
0.0
 40
0.0
 40
0.0
 40
0.5210470473
 40
1.0
 40
1.0
 40
1.0
 40
1.0
 10
718.1171690572
 20
280.8642109666
 30
0.0
 10
718.0030136281
 20
281.2666625714
 30
0.0
 10
717.6858515469
 20
282.0166729833
 30
0.0
 10
717.1517685242
 20
282.6395907567
 30
0.0
 10
716.8513516963
 20
282.8796224386
 30
0.0
  0
SPLINE
  5
454
100
AcDbEntity
  8
PRODUCT_453410
100
AcDbSpline
 62
7
  6
CONTINUOUS
 70
0
 71
3
 72
11
 73
7
 74
0
 42
0.0000001
 43
0.0000001
 44
0.0000000001
 40
0.0
 40
0.0
 40
0.0
 40
0.0
 40
0.2460159431
 40
0.4871631591
 40
0.7354009492
 40
1.0
 40
1.0
 40
1.0
 40
1.0
 10
716.8513516963
 20
282.8796224386
 30
0.0
 10
716.6063337547
 20
283.0753906619
 30
0.0
 10
716.0555729679
 20
283.3908287636
 30
0.0
 10
715.1128298208
 20
283.5521703853
 30
0.0
 10
714.1495480251
 20
283.3810678111
 30
0.0
 10
713.5621917903
 20
283.0709384579
 30
0.0
 10
713.2862748316
 20
282.876904037
 30
0.0
  0
SPLINE
  5
455
100
AcDbEntity
  8
PRODUCT_453410
100
AcDbSpline
 62
7
  6
CONTINUOUS
 70
0
 71
3
 72
9
 73
5
 74
0
 42
0.0000001
 43
0.0000001
 44
0.0000000001
 40
0.0
 40
0.0
 40
0.0
 40
0.0
 40
0.4829273426
 40
1.0
 40
1.0
 40
1.0
 40
1.0
 10
713.1658202247
 20
282.7887799338
 30
0.0
 10
712.5194546962
 20
282.2972377768
 30
0.0
 10
711.4790892353
 20
280.8801522048
 30
0.0
 10
711.1186566589
 20
279.1842366886
 30
0.0
 10
711.1186566589
 20
278.3147860375
 30
0.0
  0
SPLINE
  5
456
100
AcDbEntity
  8
PRODUCT_453410
100
AcDbSpline
 62
7
  6
CONTINUOUS
 70
0
 71
3
 72
11
 73
7
 74
0
 42
0.0000001
 43
0.0000001
 44
0.0000000001
 40
0.0
 40
0.0
 40
0.0
 40
0.0
 40
0.2787999487
 40
0.5389767591
 40
0.7776350303
 40
1.0
 40
1.0
 40
1.0
 40
1.0
 10
710.6960070431
 20
258.6250519747
 30
0.0
 10
710.6960070431
 20
258.1316692756
 30
0.0
 10
710.8072053268
 20
257.1728077572
 30
0.0
 10
711.3227805021
 20
255.8773843942
 30
0.0
 10
712.1485989494
 20
254.8730065111
 30
0.0
 10
712.8847105993
 20
254.4656348908
 30
0.0
 10
713.2611953974
 20
254.3511332815
 30
0.0
  0
SPLINE
  5
457
100
AcDbEntity
  8
PRODUCT_453410
100
AcDbSpline
 62
7
  6
CONTINUOUS
 70
0
 71
3
 72
8
 73
4
 74
0
 42
0.0000001
 43
0.0000001
 44
0.0000000001
 40
0.0
 40
0.0
 40
0.0
 40
0.0
 40
1.0
 40
1.0
 40
1.0
 40
1.0
 10
714.5864860208
 20
255.3855752015
 30
0.0
 10
714.374352891
 20
255.3670722033
 30
0.0
 10
714.1572390609
 20
255.3790275555
 30
0.0
 10
713.9487204294
 20
255.4221877918
 30
0.0
  0
SPLINE
  5
458
100
AcDbEntity
  8
PRODUCT_453410
100
AcDbSpline
 62
7
  6
CONTINUOUS
 70
0
 71
3
 72
9
 73
5
 74
0
 42
0.0000001
 43
0.0000001
 44
0.0000000001
 40
0.0
 40
0.0
 40
0.0
 40
0.0
 40
0.2629131656
 40
1.0
 40
1.0
 40
1.0
 40
1.0
 10
711.1186566589
 20
258.6186309773
 30
0.0
 10
711.1186566589
 20
258.3861622033
 30
0.0
 10
711.1697413402
 20
257.5038645093
 30
0.0
 10
711.4358669394
 20
256.6251426011
 30
0.0
 10
711.7668376753
 20
256.0637009859
 30
0.0
  0
SPLINE
  5
459
100
AcDbEntity
  8
PRODUCT_453410
100
AcDbSpline
 62
7
  6
CONTINUOUS
 70
0
 71
3
 72
11
 73
7
 74
0
 42
0.0000001
 43
0.0000001
 44
0.0000000001
 40
0.0
 40
0.0
 40
0.0
 40
0.0
 40
0.2643400121
 40
0.5122223237
 40
0.7533305935
 40
1.0
 40
1.0
 40
1.0
 40
1.0
 10
711.8046100202
 20
256.0009492888
 30
0.0
 10
711.9837699094
 20
255.7094302962
 30
0.0
 10
712.4078103432
 20
255.185515144
 30
0.0
 10
713.241529382
 20
254.6456620385
 30
0.0
 10
714.1896598845
 20
254.4308029409
 30
0.0
 10
714.8295772249
 20
254.5160331342
 30
0.0
 10
715.1357865936
 20
254.60651664
 30
0.0
  0
SPLINE
  5
45A
100
AcDbEntity
  8
PRODUCT_453410
100
AcDbSpline
 62
7
  6
CONTINUOUS
 70
0
 71
3
 72
9
 73
5
 74
0
 42
0.0000001
 43
0.0000001
 44
0.0000000001
 40
0.0
 40
0.0
 40
0.0
 40
0.0
 40
0.4759813049
 40
1.0
 40
1.0
 40
1.0
 40
1.0
 10
715.1357865936
 20
254.60651664
 30
0.0
 10
715.5684192588
 20
254.7343576673
 30
0.0
 10
716.4217376053
 20
255.2053266646
 30
0.0
 10
717.0589126117
 20
255.9289698146
 30
0.0
 10
717.3339240007
 20
256.3425329459
 30
0.0
  0
SPLINE
  5
45B
100
AcDbEntity
  8
PRODUCT_453410
100
AcDbSpline
 62
7
  6
CONTINUOUS
 70
0
 71
3
 72
9
 73
5
 74
0
 42
0.0000001
 43
0.0000001
 44
0.0000000001
 40
0.0
 40
0.0
 40
0.0
 40
0.0
 40
0.5210470473
 40
1.0
 40
1.0
 40
1.0
 40
1.0
 10
718.1171690572
 20
261.1680559063
 30
0.0
 10
718.0030136281
 20
261.5705075112
 30
0.0
 10
717.6858515469
 20
262.3205179231
 30
0.0
 10
717.1517685242
 20
262.9434356965
 30
0.0
 10
716.8513516964
 20
263.1834673784
 30
0.0
  0
SPLINE
  5
45C
100
AcDbEntity
  8
PRODUCT_453410
100
AcDbSpline
 62
7
  6
CONTINUOUS
 70
0
 71
3
 72
11
 73
7
 74
0
 42
0.0000001
 43
0.0000001
 44
0.0000000001
 40
0.0
 40
0.0
 40
0.0
 40
0.0
 40
0.2460159431
 40
0.4871631591
 40
0.7354009492
 40
1.0
 40
1.0
 40
1.0
 40
1.0
 10
716.8513516964
 20
263.1834673784
 30
0.0
 10
716.6063337547
 20
263.3792356016
 30
0.0
 10
716.0555729679
 20
263.6946737033
 30
0.0
 10
715.1128298208
 20
263.8560153251
 30
0.0
 10
714.1495480251
 20
263.6849127509
 30
0.0
 10
713.5621917903
 20
263.3747833977
 30
0.0
 10
713.2862748316
 20
263.1807489768
 30
0.0
  0
SPLINE
  5
45D
100
AcDbEntity
  8
PRODUCT_453410
100
AcDbSpline
 62
7
  6
CONTINUOUS
 70
0
 71
3
 72
9
 73
5
 74
0
 42
0.0000001
 43
0.0000001
 44
0.0000000001
 40
0.0
 40
0.0
 40
0.0
 40
0.0
 40
0.4829273426
 40
1.0
 40
1.0
 40
1.0
 40
1.0
 10
713.1658202247
 20
263.0926248736
 30
0.0
 10
712.5194546962
 20
262.6010827166
 30
0.0
 10
711.4790892353
 20
261.1839971446
 30
0.0
 10
711.1186566589
 20
259.4880816284
 30
0.0
 10
711.1186566589
 20
258.6186309773
 30
0.0
  0
SPLINE
  5
45E
100
AcDbEntity
  8
PRODUCT_453410
100
AcDbSpline
 62
7
  6
CONTINUOUS
 70
0
 71
3
 72
9
 73
5
 74
0
 42
0.0000001
 43
0.0000001
 44
0.0000000001
 40
0.0
 40
0.0
 40
0.0
 40
0.0
 40
0.5210470473
 40
1.0
 40
1.0
 40
1.0
 40
1.0
 10
718.1171690572
 20
241.4719008461
 30
0.0
 10
718.0030136281
 20
241.8743524509
 30
0.0
 10
717.6858515469
 20
242.6243628629
 30
0.0
 10
717.1517685242
 20
243.2472806363
 30
0.0
 10
716.8513516963
 20
243.4873123181
 30
0.0
  0
SPLINE
  5
45F
100
AcDbEntity
  8
PRODUCT_453410
100
AcDbSpline
 62
7
  6
CONTINUOUS
 70
0
 71
3
 72
11
 73
7
 74
0
 42
0.0000001
 43
0.0000001
 44
0.0000000001
 40
0.0
 40
0.0
 40
0.0
 40
0.0
 40
0.2460159431
 40
0.4871631591
 40
0.7354009492
 40
1.0
 40
1.0
 40
1.0
 40
1.0
 10
716.8513516963
 20
243.4873123181
 30
0.0
 10
716.6063337547
 20
243.6830805414
 30
0.0
 10
716.0555729679
 20
243.9985186431
 30
0.0
 10
715.1128298208
 20
244.1598602649
 30
0.0
 10
714.1495480251
 20
243.9887576906
 30
0.0
 10
713.5621917903
 20
243.6786283374
 30
0.0
 10
713.2862748316
 20
243.4845939165
 30
0.0
  0
SPLINE
  5
460
100
AcDbEntity
  8
PRODUCT_453410
100
AcDbSpline
 62
7
  6
CONTINUOUS
 70
0
 71
3
 72
9
 73
5
 74
0
 42
0.0000001
 43
0.0000001
 44
0.0000000001
 40
0.0
 40
0.0
 40
0.0
 40
0.0
 40
0.4829273426
 40
1.0
 40
1.0
 40
1.0
 40
1.0
 10
713.1658202247
 20
243.3964698133
 30
0.0
 10
712.5194546962
 20
242.9049276563
 30
0.0
 10
711.4790892353
 20
241.4878420844
 30
0.0
 10
711.1186566589
 20
239.7919265681
 30
0.0
 10
711.1186566589
 20
238.9224759171
 30
0.0
  0
SPLINE
  5
461
100
AcDbEntity
  8
PRODUCT_453410
100
AcDbSpline
 62
7
  6
CONTINUOUS
 70
0
 71
3
 72
9
 73
5
 74
0
 42
0.0000001
 43
0.0000001
 44
0.0000000001
 40
0.0
 40
0.0
 40
0.0
 40
0.0
 40
0.2629131656
 40
1.0
 40
1.0
 40
1.0
 40
1.0
 10
711.1186566589
 20
238.9224759171
 30
0.0
 10
711.1186566589
 20
238.6900071431
 30
0.0
 10
711.1697413402
 20
237.8077094491
 30
0.0
 10
711.4358669394
 20
236.9289875409
 30
0.0
 10
711.7668376753
 20
236.3675459257
 30
0.0
  0
SPLINE
  5
462
100
AcDbEntity
  8
PRODUCT_453410
100
AcDbSpline
 62
7
  6
CONTINUOUS
 70
0
 71
3
 72
11
 73
7
 74
0
 42
0.0000001
 43
0.0000001
 44
0.0000000001
 40
0.0
 40
0.0
 40
0.0
 40
0.0
 40
0.2643400121
 40
0.5122223237
 40
0.7533305935
 40
1.0
 40
1.0
 40
1.0
 40
1.0
 10
711.8046100202
 20
236.3047942285
 30
0.0
 10
711.9837699093
 20
236.013275236
 30
0.0
 10
712.4078103431
 20
235.4893600839
 30
0.0
 10
713.2415293817
 20
234.9495069784
 30
0.0
 10
714.189659884
 20
234.7346478807
 30
0.0
 10
714.8295772243
 20
234.8198780739
 30
0.0
 10
715.135786593
 20
234.9103615796
 30
0.0
  0
SPLINE
  5
463
100
AcDbEntity
  8
PRODUCT_453410
100
AcDbSpline
 62
7
  6
CONTINUOUS
 70
0
 71
3
 72
9
 73
5
 74
0
 42
0.0000001
 43
0.0000001
 44
0.0000000001
 40
0.0
 40
0.0
 40
0.0
 40
0.0
 40
0.4759813049
 40
1.0
 40
1.0
 40
1.0
 40
1.0
 10
715.135786593
 20
234.9103615796
 30
0.0
 10
715.5684192583
 20
235.0382026068
 30
0.0
 10
716.4217376051
 20
235.5091716041
 30
0.0
 10
717.0589126116
 20
236.2328147543
 30
0.0
 10
717.3339240007
 20
236.6463778857
 30
0.0
  0
SPLINE
  5
464
100
AcDbEntity
  8
PRODUCT_453410
100
AcDbSpline
 62
7
  6
CONTINUOUS
 70
0
 71
3
 72
8
 73
4
 74
0
 42
0.0000001
 43
0.0000001
 44
0.0000000001
 40
0.0
 40
0.0
 40
0.0
 40
0.0
 40
1.0
 40
1.0
 40
1.0
 40
1.0
 10
715.4894106538
 20
282.5604468553
 30
0.0
 10
715.6871185744
 20
282.5195242745
 30
0.0
 10
715.8806874033
 20
282.4497770454
 30
0.0
 10
716.0597178145
 20
282.356443282
 30
0.0
  0
SPLINE
  5
465
100
AcDbEntity
  8
PRODUCT_453410
100
AcDbSpline
 62
7
  6
CONTINUOUS
 70
0
 71
3
 72
8
 73
4
 74
0
 42
0.0000001
 43
0.0000001
 44
0.0000000001
 40
0.0
 40
0.0
 40
0.0
 40
0.0
 40
1.0
 40
1.0
 40
1.0
 40
1.0
 10
714.5864860208
 20
235.6894201413
 30
0.0
 10
714.374352891
 20
235.670917143
 30
0.0
 10
714.1572390609
 20
235.6828724952
 30
0.0
 10
713.9487204294
 20
235.7260327315
 30
0.0
  0
SPLINE
  5
466
100
AcDbEntity
  8
PRODUCT_453410
100
AcDbSpline
 62
7
  6
CONTINUOUS
 70
0
 71
3
 72
11
 73
7
 74
0
 42
0.0000001
 43
0.0000001
 44
0.0000000001
 40
0.0
 40
0.0
 40
0.0
 40
0.0
 40
0.2787999487
 40
0.5389767591
 40
0.7776350303
 40
1.0
 40
1.0
 40
1.0
 40
1.0
 10
710.6960070431
 20
238.9288969144
 30
0.0
 10
710.6960070431
 20
238.4355142153
 30
0.0
 10
710.8072053268
 20
237.476652697
 30
0.0
 10
711.3227805021
 20
236.1812293339
 30
0.0
 10
712.1485989494
 20
235.1768514508
 30
0.0
 10
712.8847105993
 20
234.7694798305
 30
0.0
 10
713.2611953974
 20
234.6549782213
 30
0.0
  0
SPLINE
  5
467
100
AcDbEntity
  8
PRODUCT_453410
100
AcDbSpline
 62
7
  6
CONTINUOUS
 70
0
 71
3
 72
8
 73
4
 74
0
 42
0.0000001
 43
0.0000001
 44
0.0000000001
 40
0.0
 40
0.0
 40
0.0
 40
0.0
 40
1.0
 40
1.0
 40
1.0
 40
1.0
 10
715.4894106538
 20
243.1681367349
 30
0.0
 10
715.6871185744
 20
243.127214154
 30
0.0
 10
715.8806874033
 20
243.0574669249
 30
0.0
 10
716.0597178145
 20
242.9641331615
 30
0.0
  0
SPLINE
  5
468
100
AcDbEntity
  8
3288C1E1_______
100
AcDbSpline
 62
7
  6
CONTINUOUS
 70
0
 71
3
 72
8
 73
4
 74
0
 42
0.0000001
 43
0.0000001
 44
0.0000000001
 40
0.0
 40
0.0
 40
0.0
 40
0.0
 40
1.0
 40
1.0
 40
1.0
 40
1.0
 10
573.6248352733
 20
1100.4249877067
 30
0.0
 10
573.6248352733
 20
1100.7222044076
 30
0.0
 10
573.6970547073
 20
1101.0265778731
 30
0.0
 10
573.8288170498
 20
1101.292991935
 30
0.0
  0
SPLINE
  5
469
100
AcDbEntity
  8
3288C1E1_______
100
AcDbSpline
 62
7
  6
CONTINUOUS
 70
0
 71
3
 72
8
 73
4
 74
0
 42
0.0000001
 43
0.0000001
 44
0.0000000001
 40
0.0
 40
0.0
 40
0.0
 40
0.0
 40
1.0
 40
1.0
 40
1.0
 40
1.0
 10
574.0677704735
 20
1101.664057619
 30
0.0
 10
574.3416347988
 20
1102.0002306017
 30
0.0
 10
574.7491961618
 20
1102.2535583011
 30
0.0
 10
575.1712923431
 20
1102.3527992035
 30
0.0
  0
SPLINE
  5
46A
100
AcDbEntity
  8
3288C1E1_______
100
AcDbSpline
 62
7
  6
CONTINUOUS
 70
0
 71
3
 72
8
 73
4
 74
0
 42
0.0000001
 43
0.0000001
 44
0.0000000001
 40
0.0
 40
0.0
 40
0.0
 40
0.0
 40
1.0
 40
1.0
 40
1.0
 40
1.0
 10
582.8509295569
 20
1130.5575211392
 30
0.0
 10
582.9743131551
 20
1130.5320759141
 30
0.0
 10
583.0854287163
 20
1130.4340397707
 30
0.0
 10
583.1491687028
 20
1130.3253742936
 30
0.0
  0
SPLINE
  5
46B
100
AcDbEntity
  8
3288C1E1_______
100
AcDbSpline
 62
7
  6
CONTINUOUS
 70
0
 71
3
 72
8
 73
4
 74
0
 42
0.0000001
 43
0.0000001
 44
0.0000000001
 40
0.0
 40
0.0
 40
0.0
 40
0.0
 40
1.0
 40
1.0
 40
1.0
 40
1.0
 10
582.6674425606
 20
1130.5518911993
 30
0.0
 10
582.7266846993
 20
1130.5672118283
 30
0.0
 10
582.790999589
 20
1130.5698804118
 30
0.0
 10
582.8509295569
 20
1130.5575211392
 30
0.0
  0
SPLINE
  5
46C
100
AcDbEntity
  8
3288C1E1_______
100
AcDbSpline
 62
7
  6
CONTINUOUS
 70
0
 71
3
 72
9
 73
5
 74
0
 42
0.0000001
 43
0.0000001
 44
0.0000000001
 40
0.0
 40
0.0
 40
0.0
 40
0.0
 40
0.2000288509
 40
1.0
 40
1.0
 40
1.0
 40
1.0
 10
363.9642710404
 20
503.1536404147
 30
0.0
 10
363.9643053985
 20
503.1227371889
 30
0.0
 10
363.9993159026
 20
502.967447578
 30
0.0
 10
364.1396295808
 20
502.8654699741
 30
0.0
 10
364.244982417
 20
502.8008523347
 30
0.0
  0
SPLINE
  5
46D
100
AcDbEntity
  8
3288C1E1_______
100
AcDbSpline
 62
7
  6
CONTINUOUS
 70
0
 71
3
 72
9
 73
5
 74
0
 42
0.0000001
 43
0.0000001
 44
0.0000000001
 40
0.0
 40
0.0
 40
0.0
 40
0.0
 40
0.1955569307
 40
1.0
 40
1.0
 40
1.0
 40
1.0
 10
363.9642710406
 20
1121.1880366799
 30
0.0
 10
363.9642376655
 20
1121.2154919716
 30
0.0
 10
363.9985075186
 20
1121.3565083983
 30
0.0
 10
364.1305063691
 20
1121.4442063641
 30
0.0
 10
364.2284278086
 20
1121.5004813718
 30
0.0
  0
SPLINE
  5
46E
100
AcDbEntity
  8
3288C1E1_______
100
AcDbSpline
 62
7
  6
CONTINUOUS
 70
0
 71
3
 72
8
 73
4
 74
0
 42
0.0000001
 43
0.0000001
 44
0.0000000001
 40
0.0
 40
0.0
 40
0.0
 40
0.0
 40
1.0
 40
1.0
 40
1.0
 40
1.0
 10
430.5638631358
 20
1107.3308856999
 30
0.0
 10
430.5841728875
 20
1107.3715428102
 30
0.0
 10
430.6081657418
 20
1107.4104985746
 30
0.0
 10
430.6348190908
 20
1107.4473100621
 30
0.0
  0
SPLINE
  5
46F
100
AcDbEntity
  8
3288C1E1_______
100
AcDbSpline
 62
7
  6
CONTINUOUS
 70
0
 71
3
 72
8
 73
4
 74
0
 42
0.0000001
 43
0.0000001
 44
0.0000000001
 40
0.0
 40
0.0
 40
0.0
 40
0.0
 40
1.0
 40
1.0
 40
1.0
 40
1.0
 10
430.6348190908
 20
1107.4473100621
 30
0.0
 10
430.6940409232
 20
1107.5291025505
 30
0.0
 10
430.7682112339
 20
1107.6018293284
 30
0.0
 10
430.8512664798
 20
1107.6592667964
 30
0.0
  0
SPLINE
  5
470
100
AcDbEntity
  8
3288C1E1_______
100
AcDbSpline
 62
7
  6
CONTINUOUS
 70
0
 71
3
 72
8
 73
4
 74
0
 42
0.0000001
 43
0.0000001
 44
0.0000000001
 40
0.0
 40
0.0
 40
0.0
 40
0.0
 40
1.0
 40
1.0
 40
1.0
 40
1.0
 10
430.8512664798
 20
1107.6592667964
 30
0.0
 10
430.9381107601
 20
1107.7193245992
 30
0.0
 10
431.0378937978
 20
1107.7642642316
 30
0.0
 10
431.1408717343
 20
1107.7875968974
 30
0.0
  0
SPLINE
  5
471
100
AcDbEntity
  8
3288C1E1_______
100
AcDbSpline
 62
7
  6
CONTINUOUS
 70
0
 71
3
 72
8
 73
4
 74
0
 42
0.0000001
 43
0.0000001
 44
0.0000000001
 40
0.0
 40
0.0
 40
0.0
 40
0.0
 40
1.0
 40
1.0
 40
1.0
 40
1.0
 10
431.1408717343
 20
1107.7875968974
 30
0.0
 10
431.1920233137
 20
1107.799186785
 30
0.0
 10
431.244619124
 20
1107.8057943726
 30
0.0
 10
431.2970606003
 20
1107.8066317153
 30
0.0
  0
SPLINE
  5
472
100
AcDbEntity
  8
3288C1E1_______
100
AcDbSpline
 62
7
  6
CONTINUOUS
 70
0
 71
3
 72
8
 73
4
 74
0
 42
0.0000001
 43
0.0000001
 44
0.0000000001
 40
0.0
 40
0.0
 40
0.0
 40
0.0
 40
1.0
 40
1.0
 40
1.0
 40
1.0
 10
364.8882938916
 20
1122.2390151245
 30
0.0
 10
364.837834518
 20
1122.2274588227
 30
0.0
 10
364.7888455566
 20
1122.2078712288
 30
0.0
 10
364.7434616483
 20
1122.1829714822
 30
0.0
  0
SPLINE
  5
473
100
AcDbEntity
  8
3288C1E1_______
100
AcDbSpline
 62
7
  6
CONTINUOUS
 70
0
 71
3
 72
8
 73
4
 74
0
 42
0.0000001
 43
0.0000001
 44
0.0000000001
 40
0.0
 40
0.0
 40
0.0
 40
0.0
 40
1.0
 40
1.0
 40
1.0
 40
1.0
 10
364.7434616483
 20
1122.1829714822
 30
0.0
 10
364.6937614012
 20
1122.1557035891
 30
0.0
 10
364.6474466889
 20
1122.1216590125
 30
0.0
 10
364.6054991332
 20
1122.0835269377
 30
0.0
  0
SPLINE
  5
474
100
AcDbEntity
  8
3288C1E1_______
100
AcDbSpline
 62
7
  6
CONTINUOUS
 70
0
 71
3
 72
9
 73
5
 74
0
 42
0.0000001
 43
0.0000001
 44
0.0000000001
 40
0.0
 40
0.0
 40
0.0
 40
0.0
 40
0.2288226732
 40
1.0
 40
1.0
 40
1.0
 40
1.0
 10
364.6054991332
 20
1122.0835269377
 30
0.0
 10
364.5712815488
 20
1122.0524217288
 30
0.0
 10
364.4333063402
 20
1121.9038203269
 30
0.0
 10
364.3421365348
 20
1121.7157234836
 30
0.0
 10
364.2964759346
 20
1121.5667158536
 30
0.0
  0
SPLINE
  5
475
100
AcDbEntity
  8
3288C1E1_______
100
AcDbSpline
 62
7
  6
CONTINUOUS
 70
0
 71
3
 72
8
 73
4
 74
0
 42
0.0000001
 43
0.0000001
 44
0.0000000001
 40
0.0
 40
0.0
 40
0.0
 40
0.0
 40
1.0
 40
1.0
 40
1.0
 40
1.0
 10
364.2964759346
 20
1121.5667158536
 30
0.0
 10
364.2510349495
 20
1121.4184249096
 30
0.0
 10
364.228672906
 20
1121.2615566545
 30
0.0
 10
364.2282070784
 20
1121.106460329
 30
0.0
  0
SPLINE
  5
476
100
AcDbEntity
  8
3288C1E1_______
100
AcDbSpline
 62
7
  6
CONTINUOUS
 70
0
 71
3
 72
8
 73
4
 74
0
 42
0.0000001
 43
0.0000001
 44
0.0000000001
 40
0.0
 40
0.0
 40
0.0
 40
0.0
 40
1.0
 40
1.0
 40
1.0
 40
1.0
 10
364.9179209585
 20
501.7605045611
 30
0.0
 10
364.8230035133
 20
501.7805226664
 30
0.0
 10
364.7308954857
 20
501.8223441128
 30
0.0
 10
364.652068284
 20
501.8788801032
 30
0.0
  0
SPLINE
  5
477
100
AcDbEntity
  8
3288C1E1_______
100
AcDbSpline
 62
7
  6
CONTINUOUS
 70
0
 71
3
 72
8
 73
4
 74
0
 42
0.0000001
 43
0.0000001
 44
0.0000000001
 40
0.0
 40
0.0
 40
0.0
 40
0.0
 40
1.0
 40
1.0
 40
1.0
 40
1.0
 10
364.652068284
 20
501.8788801032
 30
0.0
 10
364.6015611295
 20
501.9151045529
 30
0.0
 10
364.5552293214
 20
501.9577434779
 30
0.0
 10
364.5142395848
 20
502.00446633
 30
0.0
  0
SPLINE
  5
478
100
AcDbEntity
  8
3288C1E1_______
100
AcDbSpline
 62
7
  6
CONTINUOUS
 70
0
 71
3
 72
8
 73
4
 74
0
 42
0.0000001
 43
0.0000001
 44
0.0000000001
 40
0.0
 40
0.0
 40
0.0
 40
0.0
 40
1.0
 40
1.0
 40
1.0
 40
1.0
 10
364.5142395848
 20
502.00446633
 30
0.0
 10
364.4710185644
 20
502.0537325491
 30
0.0
 10
364.433173466
 20
502.1080880335
 30
0.0
 10
364.4009292274
 20
502.1651452507
 30
0.0
  0
SPLINE
  5
479
100
AcDbEntity
  8
3288C1E1_______
100
AcDbSpline
 62
7
  6
CONTINUOUS
 70
0
 71
3
 72
8
 73
4
 74
0
 42
0.0000001
 43
0.0000001
 44
0.0000000001
 40
0.0
 40
0.0
 40
0.0
 40
0.0
 40
1.0
 40
1.0
 40
1.0
 40
1.0
 10
364.4009292274
 20
502.1651452507
 30
0.0
 10
364.3314464658
 20
502.2880972324
 30
0.0
 10
364.2866804533
 20
502.4266745383
 30
0.0
 10
364.2638852225
 20
502.5660496488
 30
0.0
  0
SPLINE
  5
47A
100
AcDbEntity
  8
3288C1E1_______
100
AcDbSpline
 62
7
  6
CONTINUOUS
 70
0
 71
3
 72
8
 73
4
 74
0
 42
0.0000001
 43
0.0000001
 44
0.0000000001
 40
0.0
 40
0.0
 40
0.0
 40
0.0
 40
1.0
 40
1.0
 40
1.0
 40
1.0
 10
430.0276320256
 20
1107.252752472
 30
0.0
 10
430.0733481883
 20
1107.4856382922
 30
0.0
 10
430.1745091834
 20
1107.7125777143
 30
0.0
 10
430.3139055509
 20
1107.904656931
 30
0.0
  0
SPLINE
  5
47B
100
AcDbEntity
  8
3288C1E1_______
100
AcDbSpline
 62
7
  6
CONTINUOUS
 70
0
 71
3
 72
8
 73
4
 74
0
 42
0.0000001
 43
0.0000001
 44
0.0000000001
 40
0.0
 40
0.0
 40
0.0
 40
0.0
 40
1.0
 40
1.0
 40
1.0
 40
1.0
 10
430.3139055509
 20
1107.904656931
 30
0.0
 10
430.4544079289
 20
1108.098260159
 30
0.0
 10
430.6432817921
 20
1108.2669242595
 30
0.0
 10
430.8577388795
 20
1108.3729020201
 30
0.0
  0
SPLINE
  5
47C
100
AcDbEntity
  8
3288C1E1_______
100
AcDbSpline
 62
7
  6
CONTINUOUS
 70
0
 71
3
 72
9
 73
5
 74
0
 42
0.0000001
 43
0.0000001
 44
0.0000000001
 40
0.0
 40
0.0
 40
0.0
 40
0.0
 40
0.2888263905
 40
1.0
 40
1.0
 40
1.0
 40
1.0
 10
364.244982417
 20
1120.8661981252
 30
0.0
 10
364.2208036374
 20
1120.8796384199
 30
0.0
 10
364.1388422272
 20
1120.9286596629
 30
0.0
 10
364.0613758674
 20
1120.9892336793
 30
0.0
 10
364.0197769064
 20
1121.0431703047
 30
0.0
  0
SPLINE
  5
47D
100
AcDbEntity
  8
3288C1E1_______
100
AcDbSpline
 62
7
  6
CONTINUOUS
 70
0
 71
3
 72
8
 73
4
 74
0
 42
0.0000001
 43
0.0000001
 44
0.0000000001
 40
0.0
 40
0.0
 40
0.0
 40
0.0
 40
1.0
 40
1.0
 40
1.0
 40
1.0
 10
364.0197769064
 20
1121.0431703047
 30
0.0
 10
363.9881954684
 20
1121.0841183514
 30
0.0
 10
363.9643339024
 20
1121.1363247296
 30
0.0
 10
363.9642710406
 20
1121.1880366799
 30
0.0
  0
SPLINE
  5
47E
100
AcDbEntity
  8
3288C1E1____
100
AcDbSpline
 62
7
  6
CONTINUOUS
 70
0
 71
3
 72
8
 73
4
 74
0
 42
0.0000001
 43
0.0000001
 44
0.0000000001
 40
0.0
 40
0.0
 40
0.0
 40
0.0
 40
1.0
 40
1.0
 40
1.0
 40
1.0
 10
489.3662357552
 20
1109.3032298901
 30
0.0
 10
489.4677926988
 20
1109.2602523498
 30
0.0
 10
489.5648966811
 20
1109.205243439
 30
0.0
 10
489.6546680238
 20
1109.1411966764
 30
0.0
  0
SPLINE
  5
47F
100
AcDbEntity
  8
3288C1E1____
100
AcDbSpline
 62
7
  6
CONTINUOUS
 70
0
 71
3
 72
8
 73
4
 74
0
 42
0.0000001
 43
0.0000001
 44
0.0000000001
 40
0.0
 40
0.0
 40
0.0
 40
0.0
 40
1.0
 40
1.0
 40
1.0
 40
1.0
 10
489.6546680238
 20
1109.1411966764
 30
0.0
 10
489.7611060653
 20
1109.0652591695
 30
0.0
 10
489.8586916186
 20
1108.9756307332
 30
0.0
 10
489.9448839202
 20
1108.8773126332
 30
0.0
  0
SPLINE
  5
480
100
AcDbEntity
  8
3288C1E1____
100
AcDbSpline
 62
7
  6
CONTINUOUS
 70
0
 71
3
 72
9
 73
5
 74
0
 42
0.0000001
 43
0.0000001
 44
0.0000000001
 40
0.0
 40
0.0
 40
0.0
 40
0.0
 40
0.2363268431
 40
1.0
 40
1.0
 40
1.0
 40
1.0
 10
489.9448839202
 20
1108.8773126332
 30
0.0
 10
490.012649201
 20
1108.8000139241
 30
0.0
 10
490.2718155086
 20
1108.4488174841
 30
0.0
 10
490.4169691129
 20
1108.0211400006
 30
0.0
 10
490.4688979294
 20
1107.693042937
 30
0.0
  0
SPLINE
  5
481
100
AcDbEntity
  8
3288C1E1____
100
AcDbSpline
 62
7
  6
CONTINUOUS
 70
0
 71
3
 72
8
 73
4
 74
0
 42
0.0000001
 43
0.0000001
 44
0.0000000001
 40
0.0
 40
0.0
 40
0.0
 40
0.0
 40
1.0
 40
1.0
 40
1.0
 40
1.0
 10
490.4688979294
 20
1107.693042937
 30
0.0
 10
490.5684875776
 20
1107.0638148263
 30
0.0
 10
490.460086611
 20
1106.3769832172
 30
0.0
 10
490.1829136334
 20
1105.8033794744
 30
0.0
  0
SPLINE
  5
482
100
AcDbEntity
  8
3288C1E1____
100
AcDbSpline
 62
7
  6
CONTINUOUS
 70
0
 71
3
 72
9
 73
5
 74
0
 42
0.0000001
 43
0.0000001
 44
0.0000000001
 40
0.0
 40
0.0
 40
0.0
 40
0.0
 40
0.2698633308
 40
1.0
 40
1.0
 40
1.0
 40
1.0
 10
490.1829136334
 20
1105.8033794744
 30
0.0
 10
490.1147764608
 20
1105.6623710054
 30
0.0
 10
489.8259999618
 20
1105.1604021842
 30
0.0
 10
489.363755625
 20
1104.7415352857
 30
0.0
 10
488.9712365303
 20
1104.5819625426
 30
0.0
  0
SPLINE
  5
483
100
AcDbEntity
  8
3288C1E1____
100
AcDbSpline
 62
7
  6
CONTINUOUS
 70
0
 71
3
 72
8
 73
4
 74
0
 42
0.0000001
 43
0.0000001
 44
0.0000000001
 40
0.0
 40
0.0
 40
0.0
 40
0.0
 40
1.0
 40
1.0
 40
1.0
 40
1.0
 10
488.9712365303
 20
1104.5819625426
 30
0.0
 10
488.8493462409
 20
1104.5324098761
 30
0.0
 10
488.7208987385
 20
1104.4960380679
 30
0.0
 10
488.5906958691
 20
1104.4770664524
 30
0.0
  0
SPLINE
  5
484
100
AcDbEntity
  8
3288C1E1____
100
AcDbSpline
 62
7
  6
CONTINUOUS
 70
0
 71
3
 72
9
 73
5
 74
0
 42
0.0000001
 43
0.0000001
 44
0.0000000001
 40
0.0
 40
0.0
 40
0.0
 40
0.0
 40
0.2226588316
 40
1.0
 40
1.0
 40
1.0
 40
1.0
 10
383.8718777654
 20
1120.9352981548
 30
0.0
 10
383.7800850943
 20
1120.9219232171
 30
0.0
 10
383.3662679742
 20
1120.8727850241
 30
0.0
 10
382.9491015017
 20
1120.8552063399
 30
0.0
 10
382.625254949
 20
1120.8541215456
 30
0.0
  0
SPLINE
  5
485
100
AcDbEntity
  8
3288C1E1____
100
AcDbSpline
 62
7
  6
CONTINUOUS
 70
0
 71
3
 72
11
 73
7
 74
0
 42
0.0000001
 43
0.0000001
 44
0.0000000001
 40
0.0
 40
0.0
 40
0.0
 40
0.0
 40
0.3685577825
 40
0.6846409745
 40
0.9020426935
 40
1.0
 40
1.0
 40
1.0
 40
1.0
 10
382.625254949
 20
1120.8541215456
 30
0.0
 10
382.3663548071
 20
1120.8532543033
 30
0.0
 10
381.891253671
 20
1120.8651859853
 30
0.0
 10
381.2384449885
 20
1120.937620049
 30
0.0
 10
380.8488596013
 20
1121.0143247533
 30
0.0
 10
380.5868342496
 20
1121.1321454358
 30
0.0
 10
380.5863572722
 20
1121.2009560668
 30
0.0
  0
SPLINE
  5
486
100
AcDbEntity
  8
3288C1E1____
100
AcDbSpline
 62
7
  6
CONTINUOUS
 70
0
 71
3
 72
9
 73
5
 74
0
 42
0.0000001
 43
0.0000001
 44
0.0000000001
 40
0.0
 40
0.0
 40
0.0
 40
0.0
 40
0.2226588316
 40
1.0
 40
1.0
 40
1.0
 40
1.0
 10
428.8670104434
 20
1111.6237426457
 30
0.0
 10
428.7752177724
 20
1111.610367708
 30
0.0
 10
428.3614006522
 20
1111.5612295149
 30
0.0
 10
427.9442341797
 20
1111.5436508308
 30
0.0
 10
427.6203876271
 20
1111.5425660364
 30
0.0
  0
SPLINE
  5
487
100
AcDbEntity
  8
3288C1E1____
100
AcDbSpline
 62
7
  6
CONTINUOUS
 70
0
 71
3
 72
11
 73
7
 74
0
 42
0.0000001
 43
0.0000001
 44
0.0000000001
 40
0.0
 40
0.0
 40
0.0
 40
0.0
 40
0.3685577825
 40
0.6846409745
 40
0.9020426935
 40
1.0
 40
1.0
 40
1.0
 40
1.0
 10
427.6203876271
 20
1111.5425660364
 30
0.0
 10
427.3614874852
 20
1111.5416987942
 30
0.0
 10
426.886386349
 20
1111.5536304761
 30
0.0
 10
426.2335776666
 20
1111.6260645398
 30
0.0
 10
425.8439922794
 20
1111.7027692441
 30
0.0
 10
425.5819669277
 20
1111.8205899267
 30
0.0
 10
425.5814899502
 20
1111.8894005577
 30
0.0
  0
SPLINE
  5
488
100
AcDbEntity
  8
3288C1E1____
100
AcDbSpline
 62
7
  6
CONTINUOUS
 70
0
 71
3
 72
9
 73
5
 74
0
 42
0.0000001
 43
0.0000001
 44
0.0000000001
 40
0.0
 40
0.0
 40
0.0
 40
0.0
 40
0.2226588316
 40
1.0
 40
1.0
 40
1.0
 40
1.0
 10
569.8191879773
 20
1132.1616197027
 30
0.0
 10
569.7273953063
 20
1132.148244765
 30
0.0
 10
569.3135781861
 20
1132.099106572
 30
0.0
 10
568.8964117136
 20
1132.0815278878
 30
0.0
 10
568.572565161
 20
1132.0804430934
 30
0.0
  0
SPLINE
  5
489
100
AcDbEntity
  8
3288C1E1____
100
AcDbSpline
 62
7
  6
CONTINUOUS
 70
0
 71
3
 72
11
 73
7
 74
0
 42
0.0000001
 43
0.0000001
 44
0.0000000001
 40
0.0
 40
0.0
 40
0.0
 40
0.0
 40
0.3685577825
 40
0.6846409745
 40
0.9020426935
 40
1.0
 40
1.0
 40
1.0
 40
1.0
 10
568.572565161
 20
1132.0804430934
 30
0.0
 10
568.3136650191
 20
1132.0795758512
 30
0.0
 10
567.8385638829
 20
1132.0915075331
 30
0.0
 10
567.1857552005
 20
1132.1639415968
 30
0.0
 10
566.7961698133
 20
1132.2406463011
 30
0.0
 10
566.5341444615
 20
1132.3584669837
 30
0.0
 10
566.5336674841
 20
1132.4272776147
 30
0.0
  0
SPLINE
  5
48A
100
AcDbEntity
  8
3288C1E1____
100
AcDbSpline
 62
7
  6
CONTINUOUS
 70
0
 71
3
 72
9
 73
5
 74
0
 42
0.0000001
 43
0.0000001
 44
0.0000000001
 40
0.0
 40
0.0
 40
0.0
 40
0.0
 40
0.2226588316
 40
1.0
 40
1.0
 40
1.0
 40
1.0
 10
524.8240552992
 20
1141.4731752118
 30
0.0
 10
524.7322626282
 20
1141.4598002741
 30
0.0
 10
524.3184455081
 20
1141.4106620811
 30
0.0
 10
523.9012790356
 20
1141.3930833969
 30
0.0
 10
523.5774324829
 20
1141.3919986026
 30
0.0
  0
SPLINE
  5
48B
100
AcDbEntity
  8
3288C1E1____
100
AcDbSpline
 62
7
  6
CONTINUOUS
 70
0
 71
3
 72
11
 73
7
 74
0
 42
0.0000001
 43
0.0000001
 44
0.0000000001
 40
0.0
 40
0.0
 40
0.0
 40
0.0
 40
0.3685577825
 40
0.6846409745
 40
0.9020426935
 40
1.0
 40
1.0
 40
1.0
 40
1.0
 10
523.5774324829
 20
1141.3919986026
 30
0.0
 10
523.318532341
 20
1141.3911313604
 30
0.0
 10
522.8434312049
 20
1141.4030630423
 30
0.0
 10
522.1906225224
 20
1141.475497106
 30
0.0
 10
521.8010371352
 20
1141.5522018103
 30
0.0
 10
521.5390117835
 20
1141.6700224928
 30
0.0
 10
521.5385348061
 20
1141.7388331239
 30
0.0
  0
LINE
  5
48C
100
AcDbEntity
  8
3288C1E1____
100
AcDbLine
 62
7
  6
CONTINUOUS
 10
480.2328626065
 20
1121.9707097587
 11
480.0043436452
 21
1121.9323592945
  0
LINE
  5
48D
100
AcDbEntity
  8
3288C1E1____
100
AcDbLine
 62
7
  6
CONTINUOUS
 10
480.0043436452
 20
1121.9323592945
 11
479.7924387146
 21
1121.8966650584
  0
LINE
  5
48E
100
AcDbEntity
  8
3288C1E1____
100
AcDbLine
 62
7
  6
CONTINUOUS
 10
479.7924387146
 20
1121.8966650584
 11
479.5831255927
 21
1121.8612820688
  0
LINE
  5
48F
100
AcDbEntity
  8
3288C1E1____
100
AcDbLine
 62
7
  6
CONTINUOUS
 10
479.5831255927
 20
1121.8612820688
 11
479.4487123066
 21
1121.8384944229
  0
SPLINE
  5
490
100
AcDbEntity
  8
3288C1E1____
100
AcDbSpline
 62
7
  6
CONTINUOUS
 70
0
 71
3
 72
11
 73
7
 74
0
 42
0.0000001
 43
0.0000001
 44
0.0000000001
 40
0.0
 40
0.0
 40
0.0
 40
0.0
 40
0.320187396
 40
0.5954480478
 40
0.8225920892
 40
1.0
 40
1.0
 40
1.0
 40
1.0
 10
479.4487123066
 20
1121.8384944229
 30
0.0
 10
474.6985993232
 20
1121.0322736168
 30
0.0
 10
465.8925673619
 20
1119.3611796092
 30
0.0
 10
453.8629531477
 20
1116.4028776317
 30
0.0
 10
444.1318810471
 20
1113.2263753789
 30
0.0
 10
438.5606894645
 20
1110.6966123687
 30
0.0
 10
436.2684581509
 20
1109.3283193512
 30
0.0
  0
SPLINE
  5
491
100
AcDbEntity
  8
3288C1E1____
100
AcDbSpline
 62
7
  6
CONTINUOUS
 70
0
 71
3
 72
9
 73
5
 74
0
 42
0.0000001
 43
0.0000001
 44
0.0000000001
 40
0.0
 40
0.0
 40
0.0
 40
0.0
 40
0.5239931869
 40
1.0
 40
1.0
 40
1.0
 40
1.0
 10
578.1372608582
 20
1129.8656051142
 30
0.0
 10
564.192056673
 20
1129.6174295954
 30
0.0
 10
537.585888141
 20
1128.5588590581
 30
0.0
 10
511.0568551571
 20
1126.1852434791
 30
0.0
 10
498.4843579511
 20
1124.6153451361
 30
0.0
  0
LINE
  5
492
100
AcDbEntity
  8
3288C1E1____
100
AcDbLine
 62
7
  6
CONTINUOUS
 10
498.4843579511
 20
1124.6153451361
 11
497.8529914423
 21
1124.5361159962
  0
LINE
  5
493
100
AcDbEntity
  8
3288C1E1____
100
AcDbLine
 62
7
  6
CONTINUOUS
 10
497.8529914423
 20
1124.5361159962
 11
497.26572154
 21
1124.4617122268
  0
LINE
  5
494
100
AcDbEntity
  8
3288C1E1____
100
AcDbLine
 62
7
  6
CONTINUOUS
 10
488.8383674063
 20
1123.3144445627
 11
488.7371036505
 21
1123.2997016275
  0
SPLINE
  5
495
100
AcDbEntity
  8
3288C1E1____
100
AcDbSpline
 62
7
  6
CONTINUOUS
 70
0
 71
3
 72
9
 73
5
 74
0
 42
0.0000001
 43
0.0000001
 44
0.0000000001
 40
0.0
 40
0.0
 40
0.0
 40
0.0
 40
0.3236832847
 40
1.0
 40
1.0
 40
1.0
 40
1.0
 10
384.5862478198
 20
1121.2017291291
 30
0.0
 10
384.5865888507
 20
1121.1525306762
 30
0.0
 10
384.4278733722
 20
1121.0485902953
 30
0.0
 10
384.2941332337
 20
1121.0184451601
 30
0.0
 10
384.1940586952
 20
1120.9949322011
 30
0.0
  0
SPLINE
  5
496
100
AcDbEntity
  8
3288C1E1____
100
AcDbSpline
 62
7
  6
CONTINUOUS
 70
0
 71
3
 72
8
 73
4
 74
0
 42
0.0000001
 43
0.0000001
 44
0.0000000001
 40
0.0
 40
0.0
 40
0.0
 40
0.0
 40
1.0
 40
1.0
 40
1.0
 40
1.0
 10
384.1940586952
 20
1120.9949322011
 30
0.0
 10
384.0877361574
 20
1120.9699512469
 30
0.0
 10
383.9799543225
 20
1120.951045787
 30
0.0
 10
383.8718777654
 20
1120.9352981548
 30
0.0
  0
SPLINE
  5
497
100
AcDbEntity
  8
3288C1E1____
100
AcDbSpline
 62
7
  6
CONTINUOUS
 70
0
 71
3
 72
9
 73
5
 74
0
 42
0.0000001
 43
0.0000001
 44
0.0000000001
 40
0.0
 40
0.0
 40
0.0
 40
0.0
 40
0.3236832847
 40
1.0
 40
1.0
 40
1.0
 40
1.0
 10
429.5813804978
 20
1111.8901736199
 30
0.0
 10
429.5817215287
 20
1111.840975167
 30
0.0
 10
429.4230060502
 20
1111.7370347861
 30
0.0
 10
429.2892659118
 20
1111.706889651
 30
0.0
 10
429.1891913733
 20
1111.683376692
 30
0.0
  0
SPLINE
  5
498
100
AcDbEntity
  8
3288C1E1____
100
AcDbSpline
 62
7
  6
CONTINUOUS
 70
0
 71
3
 72
8
 73
4
 74
0
 42
0.0000001
 43
0.0000001
 44
0.0000000001
 40
0.0
 40
0.0
 40
0.0
 40
0.0
 40
1.0
 40
1.0
 40
1.0
 40
1.0
 10
429.1891913733
 20
1111.683376692
 30
0.0
 10
429.0828688355
 20
1111.6583957377
 30
0.0
 10
428.9750870005
 20
1111.6394902778
 30
0.0
 10
428.8670104434
 20
1111.6237426457
 30
0.0
  0
SPLINE
  5
499
100
AcDbEntity
  8
3288C1E1____
100
AcDbSpline
 62
7
  6
CONTINUOUS
 70
0
 71
3
 72
9
 73
5
 74
0
 42
0.0000001
 43
0.0000001
 44
0.0000000001
 40
0.0
 40
0.0
 40
0.0
 40
0.0
 40
0.3236832847
 40
1.0
 40
1.0
 40
1.0
 40
1.0
 10
570.5335580317
 20
1132.4280506769
 30
0.0
 10
570.5338990626
 20
1132.3788522241
 30
0.0
 10
570.3751835841
 20
1132.2749118431
 30
0.0
 10
570.2414434457
 20
1132.244766708
 30
0.0
 10
570.1413689071
 20
1132.221253749
 30
0.0
  0
SPLINE
  5
49A
100
AcDbEntity
  8
3288C1E1____
100
AcDbSpline
 62
7
  6
CONTINUOUS
 70
0
 71
3
 72
8
 73
4
 74
0
 42
0.0000001
 43
0.0000001
 44
0.0000000001
 40
0.0
 40
0.0
 40
0.0
 40
0.0
 40
1.0
 40
1.0
 40
1.0
 40
1.0
 10
570.1413689071
 20
1132.221253749
 30
0.0
 10
570.0350463694
 20
1132.1962727947
 30
0.0
 10
569.9272645344
 20
1132.1773673348
 30
0.0
 10
569.8191879773
 20
1132.1616197027
 30
0.0
  0
SPLINE
  5
49B
100
AcDbEntity
  8
3288C1E1____
100
AcDbSpline
 62
7
  6
CONTINUOUS
 70
0
 71
3
 72
9
 73
5
 74
0
 42
0.0000001
 43
0.0000001
 44
0.0000000001
 40
0.0
 40
0.0
 40
0.0
 40
0.0
 40
0.3236832847
 40
1.0
 40
1.0
 40
1.0
 40
1.0
 10
525.5384253537
 20
1141.7396061861
 30
0.0
 10
525.5387663846
 20
1141.6904077332
 30
0.0
 10
525.3800509061
 20
1141.5864673523
 30
0.0
 10
525.2463107676
 20
1141.5563222171
 30
0.0
 10
525.1462362291
 20
1141.5328092581
 30
0.0
  0
SPLINE
  5
49C
100
AcDbEntity
  8
3288C1E1____
100
AcDbSpline
 62
7
  6
CONTINUOUS
 70
0
 71
3
 72
8
 73
4
 74
0
 42
0.0000001
 43
0.0000001
 44
0.0000000001
 40
0.0
 40
0.0
 40
0.0
 40
0.0
 40
1.0
 40
1.0
 40
1.0
 40
1.0
 10
525.1462362291
 20
1141.5328092581
 30
0.0
 10
525.0399136913
 20
1141.5078283039
 30
0.0
 10
524.9321318564
 20
1141.488922844
 30
0.0
 10
524.8240552992
 20
1141.4731752118
 30
0.0
  0
SPLINE
  5
49D
100
AcDbEntity
  8
3288C1E1____
100
AcDbSpline
 62
7
  6
CONTINUOUS
 70
0
 71
3
 72
8
 73
4
 74
0
 42
0.0000001
 43
0.0000001
 44
0.0000000001
 40
0.0
 40
0.0
 40
0.0
 40
0.0
 40
1.0
 40
1.0
 40
1.0
 40
1.0
 10
365.1362660772
 20
1123.1576320223
 30
0.0
 10
364.9793732504
 20
1123.1337620141
 30
0.0
 10
364.8318518232
 20
1123.0261235008
 30
0.0
 10
364.7362574733
 20
1122.8994473126
 30
0.0
  0
SPLINE
  5
49E
100
AcDbEntity
  8
3288C1E1____
100
AcDbSpline
 62
7
  6
CONTINUOUS
 70
0
 71
3
 72
8
 73
4
 74
0
 42
0.0000001
 43
0.0000001
 44
0.0000000001
 40
0.0
 40
0.0
 40
0.0
 40
0.0
 40
1.0
 40
1.0
 40
1.0
 40
1.0
 10
364.7362574733
 20
1122.8994473126
 30
0.0
 10
364.7056377953
 20
1122.8588718593
 30
0.0
 10
364.678474001
 20
1122.8155404388
 30
0.0
 10
364.6545193421
 20
1122.7707062286
 30
0.0
  0
SPLINE
  5
49F
100
AcDbEntity
  8
3288C1E1____
100
AcDbSpline
 62
7
  6
CONTINUOUS
 70
0
 71
3
 72
8
 73
4
 74
0
 42
0.0000001
 43
0.0000001
 44
0.0000000001
 40
0.0
 40
0.0
 40
0.0
 40
0.0
 40
1.0
 40
1.0
 40
1.0
 40
1.0
 10
364.6545193421
 20
1122.7707062286
 30
0.0
 10
364.5719847086
 20
1122.616232098
 30
0.0
 10
364.5254417745
 20
1122.4410193084
 30
0.0
 10
364.5046202739
 20
1122.2671208097
 30
0.0
  0
SPLINE
  5
4A0
100
AcDbEntity
  8
3288C1E1____
100
AcDbSpline
 62
7
  6
CONTINUOUS
 70
0
 71
3
 72
8
 73
4
 74
0
 42
0.0000001
 43
0.0000001
 44
0.0000000001
 40
0.0
 40
0.0
 40
0.0
 40
0.0
 40
1.0
 40
1.0
 40
1.0
 40
1.0
 10
515.2809769285
 20
1145.0349358439
 30
0.0
 10
515.3438969254
 20
1145.044508626
 30
0.0
 10
515.4095073453
 20
1145.0423683874
 30
0.0
 10
515.4718308278
 20
1145.029470802
 30
0.0
  0
SPLINE
  5
4A1
100
AcDbEntity
  8
3288C1E1____
100
AcDbSpline
 62
7
  6
CONTINUOUS
 70
0
 71
3
 72
9
 73
5
 74
0
 42
0.0000001
 43
0.0000001
 44
0.0000000001
 40
0.0
 40
0.0
 40
0.0
 40
0.0
 40
0.2405936783
 40
1.0
 40
1.0
 40
1.0
 40
1.0
 10
489.61676062
 20
1109.2794090897
 30
0.0
 10
489.7264941294
 20
1109.2563815094
 30
0.0
 10
490.1723604697
 20
1109.1074825876
 30
0.0
 10
490.5236587587
 20
1108.7408397426
 30
0.0
 10
490.6971437211
 20
1108.4323725381
 30
0.0
  0
SPLINE
  5
4A2
100
AcDbEntity
  8
3288C1E1____
100
AcDbSpline
 62
7
  6
CONTINUOUS
 70
0
 71
3
 72
9
 73
5
 74
0
 42
0.0000001
 43
0.0000001
 44
0.0000000001
 40
0.0
 40
0.0
 40
0.0
 40
0.0
 40
0.2365961859
 40
1.0
 40
1.0
 40
1.0
 40
1.0
 10
490.6971437211
 20
1108.4323725381
 30
0.0
 10
490.7685877501
 20
1108.3053405489
 30
0.0
 10
491.0169881652
 20
1107.7385579775
 30
0.0
 10
491.0534751921
 20
1107.0910179372
 30
0.0
 10
490.9831280172
 20
1106.6260495449
 30
0.0
  0
SPLINE
  5
4A3
100
AcDbEntity
  8
3288C1E1____
100
AcDbSpline
 62
7
  6
CONTINUOUS
 70
0
 71
3
 72
9
 73
5
 74
0
 42
0.0000001
 43
0.0000001
 44
0.0000000001
 40
0.0
 40
0.0
 40
0.0
 40
0.0
 40
0.2594821912
 40
1.0
 40
1.0
 40
1.0
 40
1.0
 10
490.9831280172
 20
1106.6260495449
 30
0.0
 10
490.9586919841
 20
1106.4645365486
 30
0.0
 10
490.8197028817
 20
1105.8506150676
 30
0.0
 10
490.4977343485
 20
1105.271050214
 30
0.0
 10
490.1688981116
 20
1104.9406159848
 30
0.0
  0
SPLINE
  5
4A4
100
AcDbEntity
  8
3288C1E1____
100
AcDbSpline
 62
7
  6
CONTINUOUS
 70
0
 71
3
 72
8
 73
4
 74
0
 42
0.0000001
 43
0.0000001
 44
0.0000000001
 40
0.0
 40
0.0
 40
0.0
 40
0.0
 40
1.0
 40
1.0
 40
1.0
 40
1.0
 10
490.1688981116
 20
1104.9406159848
 30
0.0
 10
489.9745248949
 20
1104.7452982041
 30
0.0
 10
489.7407327744
 20
1104.5793193876
 30
0.0
 10
489.485466618
 20
1104.4755447654
 30
0.0
  0
SPLINE
  5
4A5
100
AcDbEntity
  8
3288C1E1____
100
AcDbSpline
 62
7
  6
CONTINUOUS
 70
0
 71
3
 72
8
 73
4
 74
0
 42
0.0000001
 43
0.0000001
 44
0.0000000001
 40
0.0
 40
0.0
 40
0.0
 40
0.0
 40
1.0
 40
1.0
 40
1.0
 40
1.0
 10
489.485466618
 20
1104.4755447654
 30
0.0
 10
489.3635763287
 20
1104.4259920989
 30
0.0
 10
489.2351288263
 20
1104.3896202907
 30
0.0
 10
489.1049259569
 20
1104.3706486751
 30
0.0
  0
SPLINE
  5
4A6
100
AcDbEntity
  8
3288C1E1____
100
AcDbSpline
 62
7
  6
CONTINUOUS
 70
0
 71
3
 72
9
 73
5
 74
0
 42
0.0000001
 43
0.0000001
 44
0.0000000001
 40
0.0
 40
0.0
 40
0.0
 40
0.0
 40
0.5117385012
 40
1.0
 40
1.0
 40
1.0
 40
1.0
 10
365.1034935788
 20
1122.2719697708
 30
0.0
 10
365.1115158125
 20
1122.2822070455
 30
0.0
 10
365.128390885
 20
1122.3013116283
 30
0.0
 10
365.1477045385
 20
1122.3179857089
 30
0.0
 10
365.1576919022
 20
1122.3253508776
 30
0.0
  0
SPLINE
  5
4A7
100
AcDbEntity
  8
3288C1E1____
100
AcDbSpline
 62
7
  6
CONTINUOUS
 70
0
 71
3
 72
9
 73
5
 74
0
 42
0.0000001
 43
0.0000001
 44
0.0000000001
 40
0.0
 40
0.0
 40
0.0
 40
0.0
 40
0.508961018
 40
1.0
 40
1.0
 40
1.0
 40
1.0
 10
365.1576919022
 20
1122.3253508776
 30
0.0
 10
365.1716048743
 20
1122.3356109813
 30
0.0
 10
365.2012209167
 20
1122.3528986916
 30
0.0
 10
365.2340925449
 20
1122.3628125932
 30
0.0
 10
365.2505280363
 20
1122.3656480041
 30
0.0
  0
SPLINE
  5
4A8
100
AcDbEntity
  8
3288C1E1____
100
AcDbSpline
 62
7
  6
CONTINUOUS
 70
0
 71
3
 72
8
 73
4
 74
0
 42
0.0000001
 43
0.0000001
 44
0.0000000001
 40
0.0
 40
0.0
 40
0.0
 40
0.0
 40
1.0
 40
1.0
 40
1.0
 40
1.0
 10
365.3271199764
 20
1123.1521669804
 30
0.0
 10
365.264796494
 20
1123.1650645658
 30
0.0
 10
365.1991860741
 20
1123.1672048044
 30
0.0
 10
365.1362660772
 20
1123.1576320223
 30
0.0
  0
SPLINE
  5
4A9
100
AcDbEntity
  8
3288C1E1____
100
AcDbSpline
 62
7
  6
CONTINUOUS
 70
0
 71
3
 72
8
 73
4
 74
0
 42
0.0000001
 43
0.0000001
 44
0.0000000001
 40
0.0
 40
0.0
 40
0.0
 40
0.0
 40
1.0
 40
1.0
 40
1.0
 40
1.0
 10
497.7460622657
 20
1125.3104659122
 30
0.0
 10
497.9921385795
 20
1125.3415510172
 30
0.0
 10
498.2382373522
 20
1125.3724588345
 30
0.0
 10
498.4843579511
 20
1125.4031913385
 30
0.0
  0
SPLINE
  5
4AA
100
AcDbEntity
  8
3288C1E1____
100
AcDbSpline
 62
7
  6
CONTINUOUS
 70
0
 71
3
 72
9
 73
5
 74
0
 42
0.0000001
 43
0.0000001
 44
0.0000000001
 40
0.0
 40
0.0
 40
0.0
 40
0.0
 40
0.4760068131
 40
1.0
 40
1.0
 40
1.0
 40
1.0
 10
498.4843579511
 20
1125.4031913385
 30
0.0
 10
511.0568551571
 20
1126.9730896815
 30
0.0
 10
537.585888141
 20
1129.3467052605
 30
0.0
 10
564.192056673
 20
1130.4052757978
 30
0.0
 10
578.1372608582
 20
1130.6534513166
 30
0.0
  0
SPLINE
  5
4AB
100
AcDbEntity
  8
3288C1E1____
100
AcDbSpline
 62
7
  6
CONTINUOUS
 70
0
 71
3
 72
11
 73
7
 74
0
 42
0.0000001
 43
0.0000001
 44
0.0000000001
 40
0.0
 40
0.0
 40
0.0
 40
0.0
 40
0.1761824951
 40
0.402911158
 40
0.6785963088
 40
1.0
 40
1.0
 40
1.0
 40
1.0
 10
435.975840195
 20
1109.9393777144
 30
0.0
 10
438.24730525
 20
1111.3285101156
 30
0.0
 10
443.8069941672
 20
1113.892636376
 30
0.0
 10
453.5530986147
 20
1117.1059036077
 30
0.0
 10
465.6488823514
 20
1120.0987511232
 30
0.0
 10
474.5162836314
 20
1121.7871654144
 30
0.0
 10
479.30469395
 20
1122.6018671008
 30
0.0
  0
LINE
  5
4AC
100
AcDbEntity
  8
3288C1E1____
100
AcDbLine
 62
7
  6
CONTINUOUS
 10
479.30469395
 20
1122.6018671008
 11
479.5831255927
 21
1122.6491282712
  0
LINE
  5
4AD
100
AcDbEntity
  8
3288C1E1____
100
AcDbLine
 62
7
  6
CONTINUOUS
 10
479.5831255927
 20
1122.6491282712
 11
479.6756731538
 21
1122.6647882228
  0
LINE
  5
4AE
100
AcDbEntity
  8
3288C1E1____
100
AcDbLine
 62
7
  6
CONTINUOUS
 10
479.6756731538
 20
1122.6647882228
 11
480.1156477868
 21
1122.7389031585
  0
LINE
  5
4AF
100
AcDbEntity
  8
3288C1E1____
100
AcDbLine
 62
7
  6
CONTINUOUS
 10
488.6123802424
 20
1124.0693563601
 11
488.7371036505
 21
1124.0875478299
  0
SPLINE
  5
4B0
100
AcDbEntity
  8
3288C1E1____
100
AcDbSpline
 62
7
  6
CONTINUOUS
 70
0
 71
3
 72
12
 73
8
 74
0
 42
0.0000001
 43
0.0000001
 44
0.0000000001
 40
0.0
 40
0.0
 40
0.0
 40
0.0
 40
0.3057401749
 40
0.6347394876
 40
0.8880670495
 40
0.9624380921
 40
1.0
 40
1.0
 40
1.0
 40
1.0
 10
381.3007273266
 20
1121.4673870411
 30
0.0
 10
381.6396423622
 20
1121.5167697144
 30
0.0
 10
382.3531023894
 20
1121.5606182265
 30
0.0
 10
383.3408380241
 20
1121.5415127588
 30
0.0
 10
384.0905706949
 20
1121.4434214833
 30
0.0
 10
384.4651706285
 20
1121.3356261915
 30
0.0
 10
384.5859561578
 20
1121.243805425
 30
0.0
 10
384.5862478198
 20
1121.2017291291
 30
0.0
  0
SPLINE
  5
4B1
100
AcDbEntity
  8
3288C1E1____
100
AcDbSpline
 62
7
  6
CONTINUOUS
 70
0
 71
3
 72
12
 73
8
 74
0
 42
0.0000001
 43
0.0000001
 44
0.0000000001
 40
0.0
 40
0.0
 40
0.0
 40
0.0
 40
0.3057401749
 40
0.6347394876
 40
0.8880670495
 40
0.9624380921
 40
1.0
 40
1.0
 40
1.0
 40
1.0
 10
426.2958600047
 20
1112.1558315319
 30
0.0
 10
426.6347750403
 20
1112.2052142052
 30
0.0
 10
427.3482350674
 20
1112.2490627173
 30
0.0
 10
428.3359707021
 20
1112.2299572496
 30
0.0
 10
429.0857033729
 20
1112.1318659742
 30
0.0
 10
429.4603033065
 20
1112.0240706823
 30
0.0
 10
429.5810888359
 20
1111.9322499158
 30
0.0
 10
429.5813804978
 20
1111.8901736199
 30
0.0
  0
SPLINE
  5
4B2
100
AcDbEntity
  8
3288C1E1____
100
AcDbSpline
 62
7
  6
CONTINUOUS
 70
0
 71
3
 72
12
 73
8
 74
0
 42
0.0000001
 43
0.0000001
 44
0.0000000001
 40
0.0
 40
0.0
 40
0.0
 40
0.0
 40
0.3057401749
 40
0.6347394876
 40
0.8880670495
 40
0.9624380921
 40
1.0
 40
1.0
 40
1.0
 40
1.0
 10
567.2480375386
 20
1132.6937085889
 30
0.0
 10
567.5869525742
 20
1132.7430912622
 30
0.0
 10
568.3004126013
 20
1132.7869397743
 30
0.0
 10
569.288148236
 20
1132.7678343066
 30
0.0
 10
570.0378809068
 20
1132.6697430312
 30
0.0
 10
570.4124808404
 20
1132.5619477393
 30
0.0
 10
570.5332663698
 20
1132.4701269728
 30
0.0
 10
570.5335580317
 20
1132.4280506769
 30
0.0
  0
SPLINE
  5
4B3
100
AcDbEntity
  8
3288C1E1____
100
AcDbSpline
 62
7
  6
CONTINUOUS
 70
0
 71
3
 72
12
 73
8
 74
0
 42
0.0000001
 43
0.0000001
 44
0.0000000001
 40
0.0
 40
0.0
 40
0.0
 40
0.0
 40
0.3057401749
 40
0.6347394876
 40
0.8880670495
 40
0.9624380921
 40
1.0
 40
1.0
 40
1.0
 40
1.0
 10
522.2529048605
 20
1142.0052640981
 30
0.0
 10
522.5918198961
 20
1142.0546467714
 30
0.0
 10
523.3052799233
 20
1142.0984952835
 30
0.0
 10
524.2930155579
 20
1142.0793898158
 30
0.0
 10
525.0427482288
 20
1141.9812985403
 30
0.0
 10
525.4173481624
 20
1141.8735032485
 30
0.0
 10
525.5381336917
 20
1141.781682482
 30
0.0
 10
525.5384253537
 20
1141.7396061861
 30
0.0
  0
SPLINE
  5
4B4
100
AcDbEntity
  8
3288C1E1____
100
AcDbSpline
 62
7
  6
CONTINUOUS
 70
0
 71
3
 72
9
 73
5
 74
0
 42
0.0000001
 43
0.0000001
 44
0.0000000001
 40
0.0
 40
0.0
 40
0.0
 40
0.0
 40
0.3236832847
 40
1.0
 40
1.0
 40
1.0
 40
1.0
 10
380.5863572722
 20
1121.2009560668
 30
0.0
 10
380.5860162413
 20
1121.2501545197
 30
0.0
 10
380.7447317198
 20
1121.3540949007
 30
0.0
 10
380.8784718582
 20
1121.3842400358
 30
0.0
 10
380.9785463968
 20
1121.4077529948
 30
0.0
  0
SPLINE
  5
4B5
100
AcDbEntity
  8
3288C1E1____
100
AcDbSpline
 62
7
  6
CONTINUOUS
 70
0
 71
3
 72
8
 73
4
 74
0
 42
0.0000001
 43
0.0000001
 44
0.0000000001
 40
0.0
 40
0.0
 40
0.0
 40
0.0
 40
1.0
 40
1.0
 40
1.0
 40
1.0
 10
380.9785463968
 20
1121.4077529948
 30
0.0
 10
381.0344376972
 20
1121.420884905
 30
0.0
 10
381.090752484
 20
1121.432263372
 30
0.0
 10
381.1472519483
 20
1121.4424660706
 30
0.0
  0
SPLINE
  5
4B6
100
AcDbEntity
  8
3288C1E1____
100
AcDbSpline
 62
7
  6
CONTINUOUS
 70
0
 71
3
 72
9
 73
5
 74
0
 42
0.0000001
 43
0.0000001
 44
0.0000000001
 40
0.0
 40
0.0
 40
0.0
 40
0.0
 40
0.3236832847
 40
1.0
 40
1.0
 40
1.0
 40
1.0
 10
425.5814899502
 20
1111.8894005577
 30
0.0
 10
425.5811489193
 20
1111.9385990105
 30
0.0
 10
425.7398643978
 20
1112.0425393915
 30
0.0
 10
425.8736045363
 20
1112.0726845266
 30
0.0
 10
425.9736790748
 20
1112.0961974856
 30
0.0
  0
SPLINE
  5
4B7
100
AcDbEntity
  8
3288C1E1____
100
AcDbSpline
 62
7
  6
CONTINUOUS
 70
0
 71
3
 72
8
 73
4
 74
0
 42
0.0000001
 43
0.0000001
 44
0.0000000001
 40
0.0
 40
0.0
 40
0.0
 40
0.0
 40
1.0
 40
1.0
 40
1.0
 40
1.0
 10
425.9736790748
 20
1112.0961974856
 30
0.0
 10
426.0295703752
 20
1112.1093293958
 30
0.0
 10
426.0858851621
 20
1112.1207078628
 30
0.0
 10
426.1423846264
 20
1112.1309105615
 30
0.0
  0
SPLINE
  5
4B8
100
AcDbEntity
  8
3288C1E1____
100
AcDbSpline
 62
7
  6
CONTINUOUS
 70
0
 71
3
 72
9
 73
5
 74
0
 42
0.0000001
 43
0.0000001
 44
0.0000000001
 40
0.0
 40
0.0
 40
0.0
 40
0.0
 40
0.3236832847
 40
1.0
 40
1.0
 40
1.0
 40
1.0
 10
566.5336674841
 20
1132.4272776147
 30
0.0
 10
566.5333264532
 20
1132.4764760675
 30
0.0
 10
566.6920419317
 20
1132.5804164485
 30
0.0
 10
566.8257820702
 20
1132.6105615836
 30
0.0
 10
566.9258566087
 20
1132.6340745426
 30
0.0
  0
SPLINE
  5
4B9
100
AcDbEntity
  8
3288C1E1____
100
AcDbSpline
 62
7
  6
CONTINUOUS
 70
0
 71
3
 72
8
 73
4
 74
0
 42
0.0000001
 43
0.0000001
 44
0.0000000001
 40
0.0
 40
0.0
 40
0.0
 40
0.0
 40
1.0
 40
1.0
 40
1.0
 40
1.0
 10
566.9258566087
 20
1132.6340745426
 30
0.0
 10
566.9817479091
 20
1132.6472064528
 30
0.0
 10
567.038062696
 20
1132.6585849198
 30
0.0
 10
567.0945621603
 20
1132.6687876185
 30
0.0
  0
SPLINE
  5
4BA
100
AcDbEntity
  8
3288C1E1____
100
AcDbSpline
 62
7
  6
CONTINUOUS
 70
0
 71
3
 72
9
 73
5
 74
0
 42
0.0000001
 43
0.0000001
 44
0.0000000001
 40
0.0
 40
0.0
 40
0.0
 40
0.0
 40
0.3236832847
 40
1.0
 40
1.0
 40
1.0
 40
1.0
 10
521.5385348061
 20
1141.7388331239
 30
0.0
 10
521.5381937752
 20
1141.7880315767
 30
0.0
 10
521.6969092537
 20
1141.8919719577
 30
0.0
 10
521.8306493921
 20
1141.9221170928
 30
0.0
 10
521.9307239307
 20
1141.9456300518
 30
0.0
  0
SPLINE
  5
4BB
100
AcDbEntity
  8
3288C1E1____
100
AcDbSpline
 62
7
  6
CONTINUOUS
 70
0
 71
3
 72
8
 73
4
 74
0
 42
0.0000001
 43
0.0000001
 44
0.0000000001
 40
0.0
 40
0.0
 40
0.0
 40
0.0
 40
1.0
 40
1.0
 40
1.0
 40
1.0
 10
521.9307239307
 20
1141.9456300518
 30
0.0
 10
521.9866152311
 20
1141.958761962
 30
0.0
 10
522.0429300179
 20
1141.970140429
 30
0.0
 10
522.0994294822
 20
1141.9803431276
 30
0.0
  0
SPLINE
  5
4BC
100
AcDbEntity
  8
3288E5__________________
100
AcDbSpline
 62
7
  6
CONTINUOUS
 70
0
 71
3
 72
8
 73
4
 74
0
 42
0.0000001
 43
0.0000001
 44
0.0000000001
 40
0.0
 40
0.0
 40
0.0
 40
0.0
 40
1.0
 40
1.0
 40
1.0
 40
1.0
 10
493.0734411588
 20
984.7011568082
 30
0.0
 10
493.1029138302
 20
984.4960811121
 30
0.0
 10
493.1433461385
 20
984.2919649427
 30
0.0
 10
493.1993509333
 20
984.0924952898
 30
0.0
  0
SPLINE
  5
4BD
100
AcDbEntity
  8
3288E5__________________
100
AcDbSpline
 62
7
  6
CONTINUOUS
 70
0
 71
3
 72
9
 73
5
 74
0
 42
0.0000001
 43
0.0000001
 44
0.0000000001
 40
0.0
 40
0.0
 40
0.0
 40
0.0
 40
0.2644478501
 40
1.0
 40
1.0
 40
1.0
 40
1.0
 10
493.1993509333
 20
984.0924952898
 30
0.0
 10
493.2493689035
 20
983.9143486294
 30
0.0
 10
493.481667633
 20
983.2558541063
 30
0.0
 10
493.9962131111
 20
982.6803826189
 30
0.0
 10
494.4596473097
 20
982.456523999
 30
0.0
  0
SPLINE
  5
4BE
100
AcDbEntity
  8
3288E5__________________
100
AcDbSpline
 62
7
  6
CONTINUOUS
 70
0
 71
3
 72
8
 73
4
 74
0
 42
0.0000001
 43
0.0000001
 44
0.0000000001
 40
0.0
 40
0.0
 40
0.0
 40
0.0
 40
1.0
 40
1.0
 40
1.0
 40
1.0
 10
494.4596473097
 20
982.456523999
 30
0.0
 10
494.7414032708
 20
982.32042377
 30
0.0
 10
495.0707059854
 20
982.2549646216
 30
0.0
 10
495.3822981779
 20
982.2836002557
 30
0.0
  0
SPLINE
  5
4BF
100
AcDbEntity
  8
3288E5__________________
100
AcDbSpline
 62
7
  6
CONTINUOUS
 70
0
 71
3
 72
9
 73
5
 74
0
 42
0.0000001
 43
0.0000001
 44
0.0000000001
 40
0.0
 40
0.0
 40
0.0
 40
0.0
 40
0.2238658717
 40
1.0
 40
1.0
 40
1.0
 40
1.0
 10
493.6196977124
 20
1035.932020192
 30
0.0
 10
493.5561189182
 20
1035.8624033169
 30
0.0
 10
493.299729255
 20
1035.5254810237
 30
0.0
 10
493.1680439437
 20
1035.1093254023
 30
0.0
 10
493.1059766243
 20
1034.7884063369
 30
0.0
  0
SPLINE
  5
4C0
100
AcDbEntity
  8
3288E5__________________
100
AcDbSpline
 62
7
  6
CONTINUOUS
 70
0
 71
3
 72
8
 73
4
 74
0
 42
0.0000001
 43
0.0000001
 44
0.0000000001
 40
0.0
 40
0.0
 40
0.0
 40
0.0
 40
1.0
 40
1.0
 40
1.0
 40
1.0
 10
456.4043117266
 20
1043.2880707792
 30
0.0
 10
456.4784105456
 20
1043.2968935447
 30
0.0
 10
456.5543964413
 20
1043.2944304915
 30
0.0
 10
456.6281180159
 20
1043.282871702
 30
0.0
  0
SPLINE
  5
4C1
100
AcDbEntity
  8
3288E5__________________
100
AcDbSpline
 62
7
  6
CONTINUOUS
 70
0
 71
3
 72
8
 73
4
 74
0
 42
0.0000001
 43
0.0000001
 44
0.0000000001
 40
0.0
 40
0.0
 40
0.0
 40
0.0
 40
1.0
 40
1.0
 40
1.0
 40
1.0
 10
456.7041356139
 20
1043.2677779023
 30
0.0
 10
456.9304743756
 20
1043.2135703904
 30
0.0
 10
457.1400738729
 20
1043.0747191132
 30
0.0
 10
457.3026015725
 20
1042.9081284884
 30
0.0
  0
SPLINE
  5
4C2
100
AcDbEntity
  8
3288E5__________________
100
AcDbSpline
 62
7
  6
CONTINUOUS
 70
0
 71
3
 72
8
 73
4
 74
0
 42
0.0000001
 43
0.0000001
 44
0.0000000001
 40
0.0
 40
0.0
 40
0.0
 40
0.0
 40
1.0
 40
1.0
 40
1.0
 40
1.0
 10
457.3026015725
 20
1042.9081284884
 30
0.0
 10
457.3580593194
 20
1042.8512843891
 30
0.0
 10
457.4097374508
 20
1042.7906081161
 30
0.0
 10
457.4580169607
 20
1042.7275533603
 30
0.0
  0
SPLINE
  5
4C3
100
AcDbEntity
  8
3288E5__________________
100
AcDbSpline
 62
7
  6
CONTINUOUS
 70
0
 71
3
 72
8
 73
4
 74
0
 42
0.0000001
 43
0.0000001
 44
0.0000000001
 40
0.0
 40
0.0
 40
0.0
 40
0.0
 40
1.0
 40
1.0
 40
1.0
 40
1.0
 10
457.4580169607
 20
1042.7275533603
 30
0.0
 10
457.6561401255
 20
1042.4687974655
 30
0.0
 10
457.8072405007
 20
1042.1696371827
 30
0.0
 10
457.9086867628
 20
1041.8599340064
 30
0.0
  0
SPLINE
  5
4C4
100
AcDbEntity
  8
3288E5__________________
100
AcDbSpline
 62
7
  6
CONTINUOUS
 70
0
 71
3
 72
9
 73
5
 74
0
 42
0.0000001
 43
0.0000001
 44
0.0000000001
 40
0.0
 40
0.0
 40
0.0
 40
0.0
 40
0.2201134787
 40
1.0
 40
1.0
 40
1.0
 40
1.0
 10
457.9086867628
 20
1041.8599340064
 30
0.0
 10
457.9415046492
 20
1041.7597449661
 30
0.0
 10
458.0703258384
 20
1041.2979046994
 30
0.0
 10
458.1291932122
 20
1040.8191085918
 30
0.0
 10
458.1545412774
 20
1040.4464299666
 30
0.0
  0
SPLINE
  5
4C5
100
AcDbEntity
  8
3288E5__________________
100
AcDbSpline
 62
7
  6
CONTINUOUS
 70
0
 71
3
 72
8
 73
4
 74
0
 42
0.0000001
 43
0.0000001
 44
0.0000000001
 40
0.0
 40
0.0
 40
0.0
 40
0.0
 40
1.0
 40
1.0
 40
1.0
 40
1.0
 10
456.7038381655
 20
1043.2656645666
 30
0.0
 10
456.6018278494
 20
1043.2090123531
 30
0.0
 10
456.5113029042
 20
1043.1301685199
 30
0.0
 10
456.4337083815
 20
1043.0430211279
 30
0.0
  0
SPLINE
  5
4C6
100
AcDbEntity
  8
3288E5__________________
100
AcDbSpline
 62
7
  6
CONTINUOUS
 70
0
 71
3
 72
8
 73
4
 74
0
 42
0.0000001
 43
0.0000001
 44
0.0000000001
 40
0.0
 40
0.0
 40
0.0
 40
0.0
 40
1.0
 40
1.0
 40
1.0
 40
1.0
 10
456.4337083815
 20
1043.0430211279
 30
0.0
 10
456.3863519936
 20
1042.9898345684
 30
0.0
 10
456.3430249742
 20
1042.9329243103
 30
0.0
 10
456.3030727673
 20
1042.8739729851
 30
0.0
  0
SPLINE
  5
4C7
100
AcDbEntity
  8
3288E5__________________
100
AcDbSpline
 62
7
  6
CONTINUOUS
 70
0
 71
3
 72
8
 73
4
 74
0
 42
0.0000001
 43
0.0000001
 44
0.0000000001
 40
0.0
 40
0.0
 40
0.0
 40
0.0
 40
1.0
 40
1.0
 40
1.0
 40
1.0
 10
470.0393904818
 20
1040.2791106153
 30
0.0
 10
470.1001109118
 20
1040.2831360785
 30
0.0
 10
470.1613457192
 20
1040.2819388696
 30
0.0
 10
470.2219284727
 20
1040.2762025858
 30
0.0
  0
SPLINE
  5
4C8
100
AcDbEntity
  8
3288E5__________________
100
AcDbSpline
 62
7
  6
CONTINUOUS
 70
0
 71
3
 72
8
 73
4
 74
0
 42
0.0000001
 43
0.0000001
 44
0.0000000001
 40
0.0
 40
0.0
 40
0.0
 40
0.0
 40
1.0
 40
1.0
 40
1.0
 40
1.0
 10
470.2219284727
 20
1040.2762025858
 30
0.0
 10
470.3682025809
 20
1040.2623526079
 30
0.0
 10
470.5137249262
 20
1040.2228707252
 30
0.0
 10
470.6479695824
 20
1040.1631521446
 30
0.0
  0
SPLINE
  5
4C9
100
AcDbEntity
  8
3288E5__________________
100
AcDbSpline
 62
7
  6
CONTINUOUS
 70
0
 71
3
 72
9
 73
5
 74
0
 42
0.0000001
 43
0.0000001
 44
0.0000000001
 40
0.0
 40
0.0
 40
0.0
 40
0.0
 40
0.2252067193
 40
1.0
 40
1.0
 40
1.0
 40
1.0
 10
470.6479695824
 20
1040.1631521446
 30
0.0
 10
470.7304604797
 20
1040.1264561641
 30
0.0
 10
471.0816000642
 20
1039.9281695651
 30
0.0
 10
471.3484490059
 20
1039.606831113
 30
0.0
 10
471.5140901796
 20
1039.3440703897
 30
0.0
  0
SPLINE
  5
4CA
100
AcDbEntity
  8
3288E5__________________
100
AcDbSpline
 62
7
  6
CONTINUOUS
 70
0
 71
3
 72
9
 73
5
 74
0
 42
0.0000001
 43
0.0000001
 44
0.0000000001
 40
0.0
 40
0.0
 40
0.0
 40
0.0
 40
0.2134735113
 40
1.0
 40
1.0
 40
1.0
 40
1.0
 10
471.5140901796
 20
1039.3440703897
 30
0.0
 10
471.5881847041
 20
1039.2265323983
 30
0.0
 10
471.8870338699
 20
1038.6447055333
 30
0.0
 10
471.9913501864
 20
1037.9838505752
 30
0.0
 10
472.0319568134
 20
1037.473538692
 30
0.0
  0
SPLINE
  5
4CB
100
AcDbEntity
  8
3288E5__________________
100
AcDbSpline
 62
7
  6
CONTINUOUS
 70
0
 71
3
 72
8
 73
4
 74
0
 42
0.0000001
 43
0.0000001
 44
0.0000000001
 40
0.0
 40
0.0
 40
0.0
 40
0.0
 40
1.0
 40
1.0
 40
1.0
 40
1.0
 10
470.221368655
 20
1040.2765876962
 30
0.0
 10
470.0876332839
 20
1040.2179839471
 30
0.0
 10
469.9654973894
 20
1040.1295792504
 30
0.0
 10
469.8609271744
 20
1040.0276742995
 30
0.0
  0
SPLINE
  5
4CC
100
AcDbEntity
  8
3288E5__________________
100
AcDbSpline
 62
7
  6
CONTINUOUS
 70
0
 71
3
 72
8
 73
4
 74
0
 42
0.0000001
 43
0.0000001
 44
0.0000000001
 40
0.0
 40
0.0
 40
0.0
 40
0.0
 40
1.0
 40
1.0
 40
1.0
 40
1.0
 10
469.8609271744
 20
1040.0276742995
 30
0.0
 10
469.8058224259
 20
1039.9739740494
 30
0.0
 10
469.7546746664
 20
1039.9160378529
 30
0.0
 10
469.707153364
 20
1039.8555235903
 30
0.0
  0
SPLINE
  5
4CD
100
AcDbEntity
  8
3288E5__________________
100
AcDbSpline
 62
7
  6
CONTINUOUS
 70
0
 71
3
 72
8
 73
4
 74
0
 42
0.0000001
 43
0.0000001
 44
0.0000000001
 40
0.0
 40
0.0
 40
0.0
 40
0.0
 40
1.0
 40
1.0
 40
1.0
 40
1.0
 10
688.9517145345
 20
1086.8414796109
 30
0.0
 10
689.3483394502
 20
1086.9179266963
 30
0.0
 10
689.7863469249
 20
1086.8573683006
 30
0.0
 10
690.1539919195
 20
1086.690058293
 30
0.0
  0
SPLINE
  5
4CE
100
AcDbEntity
  8
3288E5__________________
100
AcDbSpline
 62
7
  6
CONTINUOUS
 70
0
 71
3
 72
9
 73
5
 74
0
 42
0.0000001
 43
0.0000001
 44
0.0000000001
 40
0.0
 40
0.0
 40
0.0
 40
0.0
 40
0.732818826
 40
1.0
 40
1.0
 40
1.0
 40
1.0
 10
690.1539919195
 20
1086.690058293
 30
0.0
 10
690.4014744663
 20
1086.5774325062
 30
0.0
 10
690.7092244216
 20
1086.351178849
 30
0.0
 10
690.9556192426
 20
1086.0739979325
 30
0.0
 10
691.0180690816
 20
1085.9970062474
 30
0.0
  0
SPLINE
  5
4CF
100
AcDbEntity
  8
3288E5__________________
100
AcDbSpline
 62
7
  6
CONTINUOUS
 70
0
 71
3
 72
8
 73
4
 74
0
 42
0.0000001
 43
0.0000001
 44
0.0000000001
 40
0.0
 40
0.0
 40
0.0
 40
0.0
 40
1.0
 40
1.0
 40
1.0
 40
1.0
 10
440.2381168946
 20
997.0148038175
 30
0.0
 10
440.2477685489
 20
996.8031045367
 30
0.0
 10
440.26211618
 20
996.5915093064
 30
0.0
 10
440.2833787004
 20
996.3806594899
 30
0.0
  0
SPLINE
  5
4D0
100
AcDbEntity
  8
3288E5__________________
100
AcDbSpline
 62
7
  6
CONTINUOUS
 70
0
 71
3
 72
9
 73
5
 74
0
 42
0.0000001
 43
0.0000001
 44
0.0000000001
 40
0.0
 40
0.0
 40
0.0
 40
0.0
 40
0.286182149
 40
1.0
 40
1.0
 40
1.0
 40
1.0
 10
440.3194696358
 20
996.0758660043
 30
0.0
 10
440.3412692252
 20
995.9172407851
 30
0.0
 10
440.4349490499
 20
995.3679040858
 30
0.0
 10
440.6164377308
 20
994.8167899027
 30
0.0
 10
440.8454706456
 20
994.4896146004
 30
0.0
  0
SPLINE
  5
4D1
100
AcDbEntity
  8
3288E5__________________
100
AcDbSpline
 62
7
  6
CONTINUOUS
 70
0
 71
3
 72
8
 73
4
 74
0
 42
0.0000001
 43
0.0000001
 44
0.0000000001
 40
0.0
 40
0.0
 40
0.0
 40
0.0
 40
1.0
 40
1.0
 40
1.0
 40
1.0
 10
440.8454706456
 20
994.4896146004
 30
0.0
 10
440.9150427974
 20
994.3902302397
 30
0.0
 10
440.9979163633
 20
994.2963531508
 30
0.0
 10
441.097469893
 20
994.2270232857
 30
0.0
  0
SPLINE
  5
4D2
100
AcDbEntity
  8
3288E5__________________
100
AcDbSpline
 62
7
  6
CONTINUOUS
 70
0
 71
3
 72
9
 73
5
 74
0
 42
0.0000001
 43
0.0000001
 44
0.0000000001
 40
0.0
 40
0.0
 40
0.0
 40
0.0
 40
0.2083127407
 40
1.0
 40
1.0
 40
1.0
 40
1.0
 10
440.5295641286
 20
1047.8873259236
 30
0.0
 10
440.5018249728
 20
1047.8303990278
 30
0.0
 10
440.3866000071
 20
1047.5483357545
 30
0.0
 10
440.3310725645
 20
1047.2458643323
 30
0.0
 10
440.2992357301
 20
1047.0073120579
 30
0.0
  0
SPLINE
  5
4D3
100
AcDbEntity
  8
3288E5__________________
100
AcDbSpline
 62
7
  6
CONTINUOUS
 70
0
 71
3
 72
8
 73
4
 74
0
 42
0.0000001
 43
0.0000001
 44
0.0000000001
 40
0.0
 40
0.0
 40
0.0
 40
0.0
 40
1.0
 40
1.0
 40
1.0
 40
1.0
 10
440.2992357301
 20
1047.0073120579
 30
0.0
 10
440.2779607238
 20
1046.8478991884
 30
0.0
 10
440.2631663401
 20
1046.68757519
 30
0.0
 10
440.2524712957
 20
1046.5271049284
 30
0.0
  0
SPLINE
  5
4D4
100
AcDbEntity
  8
3288E5__________________
100
AcDbSpline
 62
7
  6
CONTINUOUS
 70
0
 71
3
 72
9
 73
5
 74
0
 42
0.0000001
 43
0.0000001
 44
0.0000000001
 40
0.0
 40
0.0
 40
0.0
 40
0.0
 40
0.4735341386
 40
1.0
 40
1.0
 40
1.0
 40
1.0
 10
688.9518177428
 20
1086.8398807868
 30
0.0
 10
688.6255036869
 20
1086.7006003076
 30
0.0
 10
688.0065837877
 20
1086.1890852337
 30
0.0
 10
687.7957193094
 20
1085.4380100118
 30
0.0
 10
687.7298311574
 20
1085.0490970834
 30
0.0
  0
SPLINE
  5
4D5
100
AcDbEntity
  8
3288E5__________________
100
AcDbSpline
 62
7
  6
CONTINUOUS
 70
0
 71
3
 72
9
 73
5
 74
0
 42
0.0000001
 43
0.0000001
 44
0.0000000001
 40
0.0
 40
0.0
 40
0.0
 40
0.0
 40
0.4752751207
 40
1.0
 40
1.0
 40
1.0
 40
1.0
 10
711.9581146025
 20
234.9759454721
 30
0.0
 10
711.4029909353
 20
235.4109340782
 30
0.0
 10
710.4731010166
 20
236.6609872541
 30
0.0
 10
710.2356203104
 20
238.1740521139
 30
0.0
 10
710.2356418286
 20
238.9526793437
 30
0.0
  0
SPLINE
  5
4D6
100
AcDbEntity
  8
3288E5__________________
100
AcDbSpline
 62
7
  6
CONTINUOUS
 70
0
 71
3
 72
8
 73
4
 74
0
 42
0.0000001
 43
0.0000001
 44
0.0000000001
 40
0.0
 40
0.0
 40
0.0
 40
0.0
 40
1.0
 40
1.0
 40
1.0
 40
1.0
 10
511.1379152261
 20
982.5357879903
 30
0.0
 10
511.1700814043
 20
982.331249333
 30
0.0
 10
511.2142556742
 20
982.1278692095
 30
0.0
 10
511.2752284363
 20
981.9299979188
 30
0.0
  0
SPLINE
  5
4D7
100
AcDbEntity
  8
3288E5__________________
100
AcDbSpline
 62
7
  6
CONTINUOUS
 70
0
 71
3
 72
9
 73
5
 74
0
 42
0.0000001
 43
0.0000001
 44
0.0000000001
 40
0.0
 40
0.0
 40
0.0
 40
0.0
 40
0.259524392
 40
1.0
 40
1.0
 40
1.0
 40
1.0
 10
511.2752284363
 20
981.9299979188
 30
0.0
 10
511.3362396706
 20
981.7320017767
 30
0.0
 10
511.6313684421
 20
980.9903397989
 30
0.0
 10
512.3223149688
 20
980.3967062068
 30
0.0
 10
512.8916844027
 20
980.2377739819
 30
0.0
  0
SPLINE
  5
4D8
100
AcDbEntity
  8
3288E5__________________
100
AcDbSpline
 62
7
  6
CONTINUOUS
 70
0
 71
3
 72
9
 73
5
 74
0
 42
0.0000001
 43
0.0000001
 44
0.0000000001
 40
0.0
 40
0.0
 40
0.0
 40
0.0
 40
0.2283008434
 40
1.0
 40
1.0
 40
1.0
 40
1.0
 10
511.7334772427
 20
1033.779107246
 30
0.0
 10
511.6647027344
 20
1033.7085717027
 30
0.0
 10
511.3899978063
 20
1033.3729134251
 30
0.0
 10
511.2418450918
 20
1032.9496690406
 30
0.0
 10
511.1734034781
 20
1032.6237795763
 30
0.0
  0
SPLINE
  5
4D9
100
AcDbEntity
  8
3288E5__________________
100
AcDbSpline
 62
7
  6
CONTINUOUS
 70
0
 71
3
 72
8
 73
4
 74
0
 42
0.0000001
 43
0.0000001
 44
0.0000000001
 40
0.0
 40
0.0
 40
0.0
 40
0.0
 40
1.0
 40
1.0
 40
1.0
 40
1.0
 10
444.8461400291
 20
995.2840584118
 30
0.0
 10
444.8571991274
 20
995.0724362055
 30
0.0
 10
444.8736451603
 20
994.8609514536
 30
0.0
 10
444.8979875561
 20
994.6504432361
 30
0.0
  0
SPLINE
  5
4DA
100
AcDbEntity
  8
3288E5__________________
100
AcDbSpline
 62
7
  6
CONTINUOUS
 70
0
 71
3
 72
9
 73
5
 74
0
 42
0.0000001
 43
0.0000001
 44
0.0000000001
 40
0.0
 40
0.0
 40
0.0
 40
0.0
 40
0.2833019288
 40
1.0
 40
1.0
 40
1.0
 40
1.0
 10
444.9393205002
 20
994.3460716357
 30
0.0
 10
444.9643165733
 20
994.1874947741
 30
0.0
 10
445.0720945523
 20
993.6335841747
 30
0.0
 10
445.2859877969
 20
993.0821499074
 30
0.0
 10
445.5408627745
 20
992.7659642489
 30
0.0
  0
SPLINE
  5
4DB
100
AcDbEntity
  8
3288E5__________________
100
AcDbSpline
 62
7
  6
CONTINUOUS
 70
0
 71
3
 72
8
 73
4
 74
0
 42
0.0000001
 43
0.0000001
 44
0.0000000001
 40
0.0
 40
0.0
 40
0.0
 40
0.0
 40
1.0
 40
1.0
 40
1.0
 40
1.0
 10
445.5408627745
 20
992.7659642489
 30
0.0
 10
445.636699208
 20
992.6470741715
 30
0.0
 10
445.7546666801
 20
992.5384012245
 30
0.0
 10
445.8921127459
 20
992.4718576186
 30
0.0
  0
SPLINE
  5
4DC
100
AcDbEntity
  8
3288E5__________________
100
AcDbSpline
 62
7
  6
CONTINUOUS
 70
0
 71
3
 72
9
 73
5
 74
0
 42
0.0000001
 43
0.0000001
 44
0.0000000001
 40
0.0
 40
0.0
 40
0.0
 40
0.0
 40
0.2110657674
 40
1.0
 40
1.0
 40
1.0
 40
1.0
 10
445.1797788455
 20
1046.1599866304
 30
0.0
 10
445.1482606837
 20
1046.1031198512
 30
0.0
 10
445.0177310733
 20
1045.8231857242
 30
0.0
 10
444.9528194788
 20
1045.5175243707
 30
0.0
 10
444.916154794
 20
1045.2772812032
 30
0.0
  0
SPLINE
  5
4DD
100
AcDbEntity
  8
3288E5__________________
100
AcDbSpline
 62
7
  6
CONTINUOUS
 70
0
 71
3
 72
8
 73
4
 74
0
 42
0.0000001
 43
0.0000001
 44
0.0000000001
 40
0.0
 40
0.0
 40
0.0
 40
0.0
 40
1.0
 40
1.0
 40
1.0
 40
1.0
 10
444.916154794
 20
1045.2772812032
 30
0.0
 10
444.8918283686
 20
1045.1178837465
 30
0.0
 10
444.8748525387
 20
1044.9573031212
 30
0.0
 10
444.8625856528
 20
1044.796527353
 30
0.0
  0
SPLINE
  5
4DE
100
AcDbEntity
  8
3288E5__________________
100
AcDbSpline
 62
7
  6
CONTINUOUS
 70
0
 71
3
 72
8
 73
4
 74
0
 42
0.0000001
 43
0.0000001
 44
0.0000000001
 40
0.0
 40
0.0
 40
0.0
 40
0.0
 40
1.0
 40
1.0
 40
1.0
 40
1.0
 10
712.5849707001
 20
254.2856756076
 30
0.0
 10
712.4006080972
 20
254.3709329074
 30
0.0
 10
712.2244544862
 20
254.475881211
 30
0.0
 10
712.0600623045
 20
254.5951858091
 30
0.0
  0
SPLINE
  5
4DF
100
AcDbEntity
  8
3288E5__________________
100
AcDbSpline
 62
7
  6
CONTINUOUS
 70
0
 71
3
 72
9
 73
5
 74
0
 42
0.0000001
 43
0.0000001
 44
0.0000000001
 40
0.0
 40
0.0
 40
0.0
 40
0.0
 40
0.4744259005
 40
1.0
 40
1.0
 40
1.0
 40
1.0
 10
712.0600623045
 20
254.5951858091
 30
0.0
 10
711.4744821795
 20
255.0201597993
 30
0.0
 10
710.4892283087
 20
256.2911404789
 30
0.0
 10
710.2356196771
 20
257.8472914505
 30
0.0
 10
710.2356418286
 20
258.648834404
 30
0.0
  0
SPLINE
  5
4E0
100
AcDbEntity
  8
3288E5__________________
100
AcDbSpline
 62
7
  6
CONTINUOUS
 70
0
 71
3
 72
8
 73
4
 74
0
 42
0.0000001
 43
0.0000001
 44
0.0000000001
 40
0.0
 40
0.0
 40
0.0
 40
0.0
 40
1.0
 40
1.0
 40
1.0
 40
1.0
 10
450.070002844
 20
993.6068872446
 30
0.0
 10
450.0824264226
 20
993.3953557951
 30
0.0
 10
450.1009091521
 20
993.183998883
 30
0.0
 10
450.1282320789
 20
992.9738718807
 30
0.0
  0
SPLINE
  5
4E1
100
AcDbEntity
  8
3288E5__________________
100
AcDbSpline
 62
7
  6
CONTINUOUS
 70
0
 71
3
 72
9
 73
5
 74
0
 42
0.0000001
 43
0.0000001
 44
0.0000000001
 40
0.0
 40
0.0
 40
0.0
 40
0.0
 40
0.2802978614
 40
1.0
 40
1.0
 40
1.0
 40
1.0
 10
450.1746443919
 20
992.669978407
 30
0.0
 10
450.2027496661
 20
992.5114679497
 30
0.0
 10
450.3245711686
 20
991.9526148096
 30
0.0
 10
450.5708778344
 20
991.4022777673
 30
0.0
 10
450.8493609395
 20
991.0968253927
 30
0.0
  0
SPLINE
  5
4E2
100
AcDbEntity
  8
3288E5__________________
100
AcDbSpline
 62
7
  6
CONTINUOUS
 70
0
 71
3
 72
8
 73
4
 74
0
 42
0.0000001
 43
0.0000001
 44
0.0000000001
 40
0.0
 40
0.0
 40
0.0
 40
0.0
 40
1.0
 40
1.0
 40
1.0
 40
1.0
 10
450.8493609395
 20
991.0968253927
 30
0.0
 10
450.9731333537
 20
990.9610664286
 30
0.0
 10
451.1290385046
 20
990.8428965472
 30
0.0
 10
451.3029961414
 20
990.7838300812
 30
0.0
  0
SPLINE
  5
4E3
100
AcDbEntity
  8
3288E5__________________
100
AcDbSpline
 62
7
  6
CONTINUOUS
 70
0
 71
3
 72
9
 73
5
 74
0
 42
0.0000001
 43
0.0000001
 44
0.0000000001
 40
0.0
 40
0.0
 40
0.0
 40
0.0
 40
0.206937142
 40
1.0
 40
1.0
 40
1.0
 40
1.0
 10
450.4445204172
 20
1044.4866742283
 30
0.0
 10
450.4021458681
 20
1044.4180883944
 30
0.0
 10
450.226745967
 20
1044.068366706
 30
0.0
 10
450.1531700543
 20
1043.6775318604
 30
0.0
 10
450.1147868446
 20
1043.3709575887
 30
0.0
  0
SPLINE
  5
4E4
100
AcDbEntity
  8
3288E5__________________
100
AcDbSpline
 62
7
  6
CONTINUOUS
 70
0
 71
3
 72
8
 73
4
 74
0
 42
0.0000001
 43
0.0000001
 44
0.0000000001
 40
0.0
 40
0.0
 40
0.0
 40
0.0
 40
1.0
 40
1.0
 40
1.0
 40
1.0
 10
712.5849707001
 20
273.9818306678
 30
0.0
 10
712.4006080972
 20
274.0670879676
 30
0.0
 10
712.2244544862
 20
274.1720362713
 30
0.0
 10
712.0600623045
 20
274.2913408693
 30
0.0
  0
SPLINE
  5
4E5
100
AcDbEntity
  8
3288E5__________________
100
AcDbSpline
 62
7
  6
CONTINUOUS
 70
0
 71
3
 72
9
 73
5
 74
0
 42
0.0000001
 43
0.0000001
 44
0.0000000001
 40
0.0
 40
0.0
 40
0.0
 40
0.0
 40
0.4744259004
 40
1.0
 40
1.0
 40
1.0
 40
1.0
 10
712.0600623045
 20
274.2913408693
 30
0.0
 10
711.4744821795
 20
274.7163148596
 30
0.0
 10
710.4892283087
 20
275.9872955391
 30
0.0
 10
710.2356196772
 20
277.5434465107
 30
0.0
 10
710.2356418286
 20
278.3449894642
 30
0.0
  0
SPLINE
  5
4E6
100
AcDbEntity
  8
3288E5__________________
100
AcDbSpline
 62
7
  6
CONTINUOUS
 70
0
 71
3
 72
9
 73
5
 74
0
 42
0.0000001
 43
0.0000001
 44
0.0000000001
 40
0.0
 40
0.0
 40
0.0
 40
0.0
 40
0.4752751207
 40
1.0
 40
1.0
 40
1.0
 40
1.0
 10
711.9581146025
 20
294.0644106529
 30
0.0
 10
711.4029909353
 20
294.4993992589
 30
0.0
 10
710.4731010166
 20
295.7494524348
 30
0.0
 10
710.2356203104
 20
297.2625172947
 30
0.0
 10
710.2356418286
 20
298.0411445245
 30
0.0
  0
SPLINE
  5
4E7
100
AcDbEntity
  8
3288E5__________________
100
AcDbSpline
 62
7
  6
CONTINUOUS
 70
0
 71
3
 72
8
 73
4
 74
0
 42
0.0000001
 43
0.0000001
 44
0.0000000001
 40
0.0
 40
0.0
 40
0.0
 40
0.0
 40
1.0
 40
1.0
 40
1.0
 40
1.0
 10
436.2640654149
 20
998.7923132024
 30
0.0
 10
436.2722722337
 20
998.5805497016
 30
0.0
 10
436.2844679581
 20
998.3688609615
 30
0.0
 10
436.3025634001
 20
998.157712466
 30
0.0
  0
SPLINE
  5
4E8
100
AcDbEntity
  8
3288E5__________________
100
AcDbSpline
 62
7
  6
CONTINUOUS
 70
0
 71
3
 72
9
 73
5
 74
0
 42
0.0000001
 43
0.0000001
 44
0.0000000001
 40
0.0
 40
0.0
 40
0.0
 40
0.0
 40
0.2757583956
 40
1.0
 40
1.0
 40
1.0
 40
1.0
 10
436.3332703135
 20
997.8525549973
 30
0.0
 10
436.3420896539
 20
997.7770337748
 30
0.0
 10
436.377638386
 20
997.5036569875
 30
0.0
 10
436.4279884148
 20
997.2317533563
 30
0.0
 10
436.4787021864
 20
997.0386062195
 30
0.0
  0
SPLINE
  5
4E9
100
AcDbEntity
  8
3288E5__________________
100
AcDbSpline
 62
7
  6
CONTINUOUS
 70
0
 71
3
 72
9
 73
5
 74
0
 42
0.0000001
 43
0.0000001
 44
0.0000000001
 40
0.0
 40
0.0
 40
0.0
 40
0.0
 40
0.7844558122
 40
1.0
 40
1.0
 40
1.0
 40
1.0
 10
436.4787021864
 20
997.0386062195
 30
0.0
 10
436.5342205706
 20
996.8271603617
 30
0.0
 10
436.6226174336
 20
996.5604340479
 30
0.0
 10
436.7509988108
 20
996.3126472549
 30
0.0
 10
436.7816603114
 20
996.2609941084
 30
0.0
  0
SPLINE
  5
4EA
100
AcDbEntity
  8
3288E5__________________
100
AcDbSpline
 62
7
  6
CONTINUOUS
 70
0
 71
3
 72
8
 73
4
 74
0
 42
0.0000001
 43
0.0000001
 44
0.0000000001
 40
0.0
 40
0.0
 40
0.0
 40
0.0
 40
1.0
 40
1.0
 40
1.0
 40
1.0
 10
436.7816603114
 20
996.2609941084
 30
0.0
 10
436.8248806067
 20
996.1881840956
 30
0.0
 10
436.8741081968
 20
996.1179566082
 30
0.0
 10
436.9323788714
 20
996.05652518
 30
0.0
  0
SPLINE
  5
4EB
100
AcDbEntity
  8
3288E5__________________
100
AcDbSpline
 62
7
  6
CONTINUOUS
 70
0
 71
3
 72
9
 73
5
 74
0
 42
0.0000001
 43
0.0000001
 44
0.0000000001
 40
0.0
 40
0.0
 40
0.0
 40
0.0
 40
0.205726508
 40
1.0
 40
1.0
 40
1.0
 40
1.0
 10
436.5121742594
 20
1049.6618952514
 30
0.0
 10
436.4883774184
 20
1049.604867839
 30
0.0
 10
436.3893116646
 20
1049.3207210084
 30
0.0
 10
436.3429980411
 20
1049.0212511191
 30
0.0
 10
436.3160478262
 20
1048.7842051509
 30
0.0
  0
SPLINE
  5
4EC
100
AcDbEntity
  8
3288E5__________________
100
AcDbSpline
 62
7
  6
CONTINUOUS
 70
0
 71
3
 72
8
 73
4
 74
0
 42
0.0000001
 43
0.0000001
 44
0.0000000001
 40
0.0
 40
0.0
 40
0.0
 40
0.0
 40
1.0
 40
1.0
 40
1.0
 40
1.0
 10
436.3160478262
 20
1048.7842051509
 30
0.0
 10
436.2979215273
 20
1048.6247716886
 30
0.0
 10
436.2853579637
 20
1048.4646726987
 30
0.0
 10
436.2762721106
 20
1048.3044695812
 30
0.0
  0
SPLINE
  5
4ED
100
AcDbEntity
  8
3288E5__________________
100
AcDbSpline
 62
7
  6
CONTINUOUS
 70
0
 71
3
 72
8
 73
4
 74
0
 42
0.0000001
 43
0.0000001
 44
0.0000000001
 40
0.0
 40
0.0
 40
0.0
 40
0.0
 40
1.0
 40
1.0
 40
1.0
 40
1.0
 10
480.4603072506
 20
1121.8284982093
 30
0.0
 10
480.5492524129
 20
1121.7933135058
 30
0.0
 10
480.6338315387
 20
1121.7452513815
 30
0.0
 10
480.7106853081
 20
1121.6883066416
 30
0.0
  0
SPLINE
  5
4EE
100
AcDbEntity
  8
3288E5__________________
100
AcDbSpline
 62
7
  6
CONTINUOUS
 70
0
 71
3
 72
8
 73
4
 74
0
 42
0.0000001
 43
0.0000001
 44
0.0000000001
 40
0.0
 40
0.0
 40
0.0
 40
0.0
 40
1.0
 40
1.0
 40
1.0
 40
1.0
 10
480.7106853081
 20
1121.6883066416
 30
0.0
 10
480.7919185477
 20
1121.6281169368
 30
0.0
 10
480.8658742476
 20
1121.557161292
 30
0.0
 10
480.9309251663
 20
1121.479766087
 30
0.0
  0
SPLINE
  5
4EF
100
AcDbEntity
  8
3288E5__________________
100
AcDbSpline
 62
7
  6
CONTINUOUS
 70
0
 71
3
 72
9
 73
5
 74
0
 42
0.0000001
 43
0.0000001
 44
0.0000000001
 40
0.0
 40
0.0
 40
0.0
 40
0.0
 40
0.23017911
 40
1.0
 40
1.0
 40
1.0
 40
1.0
 10
480.9309251663
 20
1121.479766087
 30
0.0
 10
481.0004104582
 20
1121.3970950268
 30
0.0
 10
481.261437006
 20
1121.0035951026
 30
0.0
 10
481.3577211498
 20
1120.5169124123
 30
0.0
 10
481.3577211498
 20
1120.1557325538
 30
0.0
  0
SPLINE
  5
4F0
100
AcDbEntity
  8
3288E5__________________
100
AcDbSpline
 62
7
  6
CONTINUOUS
 70
0
 71
3
 72
8
 73
4
 74
0
 42
0.0000001
 43
0.0000001
 44
0.0000000001
 40
0.0
 40
0.0
 40
0.0
 40
0.0
 40
1.0
 40
1.0
 40
1.0
 40
1.0
 10
501.9100278571
 20
983.5692554717
 30
0.0
 10
501.9409087034
 20
983.3644335429
 30
0.0
 10
501.983295572
 20
983.16067249
 30
0.0
 10
502.0418987968
 20
982.9619986084
 30
0.0
  0
SPLINE
  5
4F1
100
AcDbEntity
  8
3288E5__________________
100
AcDbSpline
 62
7
  6
CONTINUOUS
 70
0
 71
3
 72
9
 73
5
 74
0
 42
0.0000001
 43
0.0000001
 44
0.0000000001
 40
0.0
 40
0.0
 40
0.0
 40
0.0
 40
0.2615679076
 40
1.0
 40
1.0
 40
1.0
 40
1.0
 10
502.0418987968
 20
982.9619986084
 30
0.0
 10
502.0943639679
 20
982.7841336658
 30
0.0
 10
502.3408697129
 20
982.1200694656
 30
0.0
 10
502.8839918566
 20
981.5553052206
 30
0.0
 10
503.3612260411
 20
981.3400837635
 30
0.0
  0
SPLINE
  5
4F2
100
AcDbEntity
  8
3288E5__________________
100
AcDbSpline
 62
7
  6
CONTINUOUS
 70
0
 71
3
 72
8
 73
4
 74
0
 42
0.0000001
 43
0.0000001
 44
0.0000000001
 40
0.0
 40
0.0
 40
0.0
 40
0.0
 40
1.0
 40
1.0
 40
1.0
 40
1.0
 10
503.3612260411
 20
981.3400837635
 30
0.0
 10
503.6586299522
 20
981.2059615544
 30
0.0
 10
504.0016877118
 20
981.1454521903
 30
0.0
 10
504.326363256
 20
981.1774466326
 30
0.0
  0
SPLINE
  5
4F3
100
AcDbEntity
  8
3288E5__________________
100
AcDbSpline
 62
7
  6
CONTINUOUS
 70
0
 71
3
 72
9
 73
5
 74
0
 42
0.0000001
 43
0.0000001
 44
0.0000000001
 40
0.0
 40
0.0
 40
0.0
 40
0.0
 40
0.2261833342
 40
1.0
 40
1.0
 40
1.0
 40
1.0
 10
502.4820625835
 20
1034.8062124578
 30
0.0
 10
502.4157625078
 20
1034.7361677702
 30
0.0
 10
502.149697765
 20
1034.4000893531
 30
0.0
 10
502.0094816931
 20
1033.9802894012
 30
0.0
 10
501.9441067639
 20
1033.6568679839
 30
0.0
  0
SPLINE
  5
4F4
100
AcDbEntity
  8
3288E5__________________
100
AcDbSpline
 62
7
  6
CONTINUOUS
 70
0
 71
3
 72
8
 73
4
 74
0
 42
0.0000001
 43
0.0000001
 44
0.0000000001
 40
0.0
 40
0.0
 40
0.0
 40
0.0
 40
1.0
 40
1.0
 40
1.0
 40
1.0
 10
484.6629259556
 20
985.9270381152
 30
0.0
 10
484.6908738979
 20
985.7217368589
 30
0.0
 10
484.7291936467
 20
985.5172919432
 30
0.0
 10
484.7823791259
 20
985.3170396071
 30
0.0
  0
SPLINE
  5
4F5
100
AcDbEntity
  8
3288E5__________________
100
AcDbSpline
 62
7
  6
CONTINUOUS
 70
0
 71
3
 72
9
 73
5
 74
0
 42
0.0000001
 43
0.0000001
 44
0.0000000001
 40
0.0
 40
0.0
 40
0.0
 40
0.0
 40
0.2675902686
 40
1.0
 40
1.0
 40
1.0
 40
1.0
 10
484.7823791259
 20
985.3170396071
 30
0.0
 10
484.8297555913
 20
985.138659192
 30
0.0
 10
485.0471512012
 20
984.4864802961
 30
0.0
 10
485.5304627869
 20
983.9006776766
 30
0.0
 10
485.9786855306
 20
983.6676822149
 30
0.0
  0
SPLINE
  5
4F6
100
AcDbEntity
  8
3288E5__________________
100
AcDbSpline
 62
7
  6
CONTINUOUS
 70
0
 71
3
 72
8
 73
4
 74
0
 42
0.0000001
 43
0.0000001
 44
0.0000000001
 40
0.0
 40
0.0
 40
0.0
 40
0.0
 40
1.0
 40
1.0
 40
1.0
 40
1.0
 10
485.9786855306
 20
983.6676822149
 30
0.0
 10
486.2435030102
 20
983.5300246065
 30
0.0
 10
486.5578457726
 20
983.4595232571
 30
0.0
 10
486.8552195415
 20
983.4849546591
 30
0.0
  0
SPLINE
  5
4F7
100
AcDbEntity
  8
3288E5__________________
100
AcDbSpline
 62
7
  6
CONTINUOUS
 70
0
 71
3
 72
9
 73
5
 74
0
 42
0.0000001
 43
0.0000001
 44
0.0000000001
 40
0.0
 40
0.0
 40
0.0
 40
0.0
 40
0.2213612193
 40
1.0
 40
1.0
 40
1.0
 40
1.0
 10
485.1812548876
 20
1037.1521005409
 30
0.0
 10
485.1206380877
 20
1037.0828438288
 30
0.0
 10
484.8749791821
 20
1036.7446603129
 30
0.0
 10
484.7523302731
 20
1036.3323473932
 30
0.0
 10
484.6937899569
 20
1036.0139421781
 30
0.0
  0
SPLINE
  5
4F8
100
AcDbEntity
  8
3288E5__________________
100
AcDbSpline
 62
7
  6
CONTINUOUS
 70
0
 71
3
 72
9
 73
5
 74
0
 42
0.0000001
 43
0.0000001
 44
0.0000000001
 40
0.0
 40
0.0
 40
0.0
 40
0.0
 40
0.2368017179
 40
1.0
 40
1.0
 40
1.0
 40
1.0
 10
486.4980572999
 20
1103.708796476
 30
0.0
 10
486.3924382326
 20
1103.7330958582
 30
0.0
 10
485.949613554
 20
1103.8500837508
 30
0.0
 10
485.5286252189
 20
1104.0422359613
 30
0.0
 10
485.2244097093
 20
1104.213878721
 30
0.0
  0
SPLINE
  5
4F9
100
AcDbEntity
  8
3288E5__________________
100
AcDbSpline
 62
7
  6
CONTINUOUS
 70
0
 71
3
 72
9
 73
5
 74
0
 42
0.0000001
 43
0.0000001
 44
0.0000000001
 40
0.0
 40
0.0
 40
0.0
 40
0.0
 40
0.2324925557
 40
1.0
 40
1.0
 40
1.0
 40
1.0
 10
485.2244097093
 20
1104.213878721
 30
0.0
 10
484.8490596563
 20
1104.4256566116
 30
0.0
 10
483.3432443323
 20
1105.5288400251
 30
0.0
 10
482.349614479
 20
1107.236219491
 30
0.0
 10
481.9146014315
 20
1108.5908163549
 30
0.0
  0
SPLINE
  5
4FA
100
AcDbEntity
  8
3288E5__________________
100
AcDbSpline
 62
7
  6
CONTINUOUS
 70
0
 71
3
 72
8
 73
4
 74
0
 42
0.0000001
 43
0.0000001
 44
0.0000000001
 40
0.0
 40
0.0
 40
0.0
 40
0.0
 40
1.0
 40
1.0
 40
1.0
 40
1.0
 10
462.2806842526
 20
990.4394286551
 30
0.0
 10
462.2956862608
 20
990.2281233304
 30
0.0
 10
462.3180250151
 20
990.0170756367
 30
0.0
 10
462.3509653201
 20
989.8078151847
 30
0.0
  0
SPLINE
  5
4FB
100
AcDbEntity
  8
3288E5__________________
100
AcDbSpline
 62
7
  6
CONTINUOUS
 70
0
 71
3
 72
9
 73
5
 74
0
 42
0.0000001
 43
0.0000001
 44
0.0000000001
 40
0.0
 40
0.0
 40
0.0
 40
0.0
 40
0.2741951319
 40
1.0
 40
1.0
 40
1.0
 40
1.0
 10
462.4069692237
 20
989.505038949
 30
0.0
 10
462.4409812398
 20
989.3467296948
 30
0.0
 10
462.5906215061
 20
988.7775074974
 30
0.0
 10
462.8999206619
 20
988.233404749
 30
0.0
 10
463.2197920679
 20
987.9481132061
 30
0.0
  0
SPLINE
  5
4FC
100
AcDbEntity
  8
3288E5__________________
100
AcDbSpline
 62
7
  6
CONTINUOUS
 70
0
 71
3
 72
8
 73
4
 74
0
 42
0.0000001
 43
0.0000001
 44
0.0000000001
 40
0.0
 40
0.0
 40
0.0
 40
0.0
 40
1.0
 40
1.0
 40
1.0
 40
1.0
 10
463.2197920679
 20
987.9481132061
 30
0.0
 10
463.4051263463
 20
987.7828145852
 30
0.0
 10
463.6432578599
 20
987.6570655378
 30
0.0
 10
463.8888810988
 20
987.6204369511
 30
0.0
  0
SPLINE
  5
4FD
100
AcDbEntity
  8
3288E5__________________
100
AcDbSpline
 62
7
  6
CONTINUOUS
 70
0
 71
3
 72
9
 73
5
 74
0
 42
0.0000001
 43
0.0000001
 44
0.0000000001
 40
0.0
 40
0.0
 40
0.0
 40
0.0
 40
0.2129438644
 40
1.0
 40
1.0
 40
1.0
 40
1.0
 10
462.732383251
 20
1041.3282286712
 30
0.0
 10
462.6820419812
 20
1041.2596077253
 30
0.0
 10
462.4751412545
 20
1040.9153591282
 30
0.0
 10
462.3816088231
 20
1040.5156257486
 30
0.0
 10
462.3347449013
 20
1040.2045772758
 30
0.0
  0
SPLINE
  5
4FE
100
AcDbEntity
  8
3288E5__________________
100
AcDbSpline
 62
7
  6
CONTINUOUS
 70
0
 71
3
 72
8
 73
4
 74
0
 42
0.0000001
 43
0.0000001
 44
0.0000000001
 40
0.0
 40
0.0
 40
0.0
 40
0.0
 40
1.0
 40
1.0
 40
1.0
 40
1.0
 10
731.4731545501
 20
1080.8685404957
 30
0.0
 10
731.5608694738
 20
1080.882247512
 30
0.0
 10
731.6509200819
 20
1080.8844978816
 30
0.0
 10
731.7393648885
 20
1080.8767968217
 30
0.0
  0
SPLINE
  5
4FF
100
AcDbEntity
  8
3288E5__________________
100
AcDbSpline
 62
7
  6
CONTINUOUS
 70
0
 71
3
 72
9
 73
5
 74
0
 42
0.0000001
 43
0.0000001
 44
0.0000000001
 40
0.0
 40
0.0
 40
0.0
 40
0.0
 40
0.2341483972
 40
1.0
 40
1.0
 40
1.0
 40
1.0
 10
731.7393648885
 20
1080.8767968217
 30
0.0
 10
731.8465418019
 20
1080.8674647211
 30
0.0
 10
732.3012490249
 20
1080.7709055575
 30
0.0
 10
732.6732746084
 20
1080.4357620896
 30
0.0
 10
732.8807120599
 20
1080.1515274161
 30
0.0
  0
SPLINE
  5
500
100
AcDbEntity
  8
3288E5__________________
100
AcDbSpline
 62
7
  6
CONTINUOUS
 70
0
 71
3
 72
8
 73
4
 74
0
 42
0.0000001
 43
0.0000001
 44
0.0000000001
 40
0.0
 40
0.0
 40
0.0
 40
0.0
 40
1.0
 40
1.0
 40
1.0
 40
1.0
 10
732.8807120599
 20
1080.1515274161
 30
0.0
 10
732.9355666821
 20
1080.0763645874
 30
0.0
 10
732.9866379427
 20
1079.9983501999
 30
0.0
 10
733.0344360143
 20
1079.9185139628
 30
0.0
  0
SPLINE
  5
501
100
AcDbEntity
  8
3288E5__________________
100
AcDbSpline
 62
7
  6
CONTINUOUS
 70
0
 71
3
 72
9
 73
5
 74
0
 42
0.0000001
 43
0.0000001
 44
0.0000000001
 40
0.0
 40
0.0
 40
0.0
 40
0.0
 40
0.2289005519
 40
1.0
 40
1.0
 40
1.0
 40
1.0
 10
731.7387555037
 20
1080.8761750549
 30
0.0
 10
731.6245260684
 20
1080.8267812193
 30
0.0
 10
731.1614147474
 20
1080.5234114566
 30
0.0
 10
730.9195138757
 20
1079.977866466
 30
0.0
 10
730.8247625407
 20
1079.5694739342
 30
0.0
  0
SPLINE
  5
502
100
AcDbEntity
  8
3288E5__________________
100
AcDbSpline
 62
7
  6
CONTINUOUS
 70
0
 71
3
 72
8
 73
4
 74
0
 42
0.0000001
 43
0.0000001
 44
0.0000000001
 40
0.0
 40
0.0
 40
0.0
 40
0.0
 40
1.0
 40
1.0
 40
1.0
 40
1.0
 10
476.6781603799
 20
987.5622331643
 30
0.0
 10
476.6955056554
 20
987.3512195523
 30
0.0
 10
476.7213584574
 20
987.1405543576
 30
0.0
 10
476.7593881807
 20
986.9322724737
 30
0.0
  0
SPLINE
  5
503
100
AcDbEntity
  8
3288E5__________________
100
AcDbSpline
 62
7
  6
CONTINUOUS
 70
0
 71
3
 72
9
 73
5
 74
0
 42
0.0000001
 43
0.0000001
 44
0.0000000001
 40
0.0
 40
0.0
 40
0.0
 40
0.0
 40
0.2709738557
 40
1.0
 40
1.0
 40
1.0
 40
1.0
 10
476.8241030695
 20
986.6308131353
 30
0.0
 10
476.8686569556
 20
986.4522435878
 30
0.0
 10
477.0706321244
 20
985.8070222154
 30
0.0
 10
477.5201362285
 20
985.2115186975
 30
0.0
 10
477.9517121934
 20
984.9687926582
 30
0.0
  0
SPLINE
  5
504
100
AcDbEntity
  8
3288E5__________________
100
AcDbSpline
 62
7
  6
CONTINUOUS
 70
0
 71
3
 72
8
 73
4
 74
0
 42
0.0000001
 43
0.0000001
 44
0.0000000001
 40
0.0
 40
0.0
 40
0.0
 40
0.0
 40
1.0
 40
1.0
 40
1.0
 40
1.0
 10
477.9517121934
 20
984.9687926582
 30
0.0
 10
478.162537753
 20
984.850220594
 30
0.0
 10
478.408685444
 20
984.7786570597
 30
0.0
 10
478.6505060612
 20
984.7732219826
 30
0.0
  0
SPLINE
  5
505
100
AcDbEntity
  8
3288E5__________________
100
AcDbSpline
 62
7
  6
CONTINUOUS
 70
0
 71
3
 72
9
 73
5
 74
0
 42
0.0000001
 43
0.0000001
 44
0.0000000001
 40
0.0
 40
0.0
 40
0.0
 40
0.0
 40
0.2186878268
 40
1.0
 40
1.0
 40
1.0
 40
1.0
 10
477.199938289
 20
1038.4616526463
 30
0.0
 10
477.1425184078
 20
1038.3926841877
 30
0.0
 10
476.9086690383
 20
1038.052838125
 30
0.0
 10
476.7954636155
 20
1037.6445576572
 30
0.0
 10
476.7406476272
 20
1037.3286531828
 30
0.0
  0
SPLINE
  5
506
100
AcDbEntity
  8
3288E5__________________
100
AcDbSpline
 62
7
  6
CONTINUOUS
 70
0
 71
3
 72
8
 73
4
 74
0
 42
0.0000001
 43
0.0000001
 44
0.0000000001
 40
0.0
 40
0.0
 40
0.0
 40
0.0
 40
1.0
 40
1.0
 40
1.0
 40
1.0
 10
707.3951575876
 20
1084.7522508954
 30
0.0
 10
707.7932980658
 20
1084.7814876083
 30
0.0
 10
708.2197793601
 20
1084.6539000523
 30
0.0
 10
708.5474692928
 20
1084.4258870399
 30
0.0
  0
SPLINE
  5
507
100
AcDbEntity
  8
3288E5__________________
100
AcDbSpline
 62
7
  6
CONTINUOUS
 70
0
 71
3
 72
8
 73
4
 74
0
 42
0.0000001
 43
0.0000001
 44
0.0000000001
 40
0.0
 40
0.0
 40
0.0
 40
0.0
 40
1.0
 40
1.0
 40
1.0
 40
1.0
 10
708.5474692928
 20
1084.4258870399
 30
0.0
 10
708.77258434
 20
1084.2692476228
 30
0.0
 10
708.9663617173
 20
1084.0645172794
 30
0.0
 10
709.1283206722
 20
1083.8431985308
 30
0.0
  0
SPLINE
  5
508
100
AcDbEntity
  8
3288E5__________________
100
AcDbSpline
 62
7
  6
CONTINUOUS
 70
0
 71
3
 72
9
 73
5
 74
0
 42
0.0000001
 43
0.0000001
 44
0.0000000001
 40
0.0
 40
0.0
 40
0.0
 40
0.0
 40
0.4637494558
 40
1.0
 40
1.0
 40
1.0
 40
1.0
 10
707.3942196106
 20
1084.7542645268
 30
0.0
 10
707.0721302067
 20
1084.629678959
 30
0.0
 10
706.458038477
 20
1084.1078862652
 30
0.0
 10
706.267806752
 20
1083.3575613416
 30
0.0
 10
706.2059943704
 20
1082.9630391768
 30
0.0
  0
SPLINE
  5
509
100
AcDbEntity
  8
3288E5__________________
100
AcDbSpline
 62
7
  6
CONTINUOUS
 70
0
 71
3
 72
9
 73
5
 74
0
 42
0.0000001
 43
0.0000001
 44
0.0000000001
 40
0.0
 40
0.0
 40
0.0
 40
0.0
 40
0.2053029447
 40
1.0
 40
1.0
 40
1.0
 40
1.0
 10
481.9146014315
 20
1108.5908163549
 30
0.0
 10
481.8364625225
 20
1108.8341348518
 30
0.0
 10
481.5221560259
 20
1110.0405699194
 30
0.0
 10
481.4092563836
 20
1111.2893893314
 30
0.0
 10
481.3577211498
 20
1112.2772705297
 30
0.0
  0
SPLINE
  5
50A
100
AcDbEntity
  8
3288E5__________________
100
AcDbSpline
 62
7
  6
CONTINUOUS
 70
0
 71
3
 72
8
 73
4
 74
0
 42
0.0000001
 43
0.0000001
 44
0.0000000001
 40
0.0
 40
0.0
 40
0.0
 40
0.0
 40
1.0
 40
1.0
 40
1.0
 40
1.0
 10
723.8524299652
 20
1082.2413336974
 30
0.0
 10
723.9343520971
 20
1082.2558551792
 30
0.0
 10
724.0182109356
 20
1082.2615948989
 30
0.0
 10
724.1013789497
 20
1082.2593166166
 30
0.0
  0
SPLINE
  5
50B
100
AcDbEntity
  8
3288E5__________________
100
AcDbSpline
 62
7
  6
CONTINUOUS
 70
0
 71
3
 72
9
 73
5
 74
0
 42
0.0000001
 43
0.0000001
 44
0.0000000001
 40
0.0
 40
0.0
 40
0.0
 40
0.0
 40
0.721945138
 40
1.0
 40
1.0
 40
1.0
 40
1.0
 10
724.1013789497
 20
1082.2593166166
 30
0.0
 10
724.460203447
 20
1082.2494870748
 30
0.0
 10
724.9617314242
 20
1082.0214854979
 30
0.0
 10
725.294026428
 20
1081.6526796513
 30
0.0
 10
725.3795245473
 20
1081.5440349373
 30
0.0
  0
SPLINE
  5
50C
100
AcDbEntity
  8
3288E5__________________
100
AcDbSpline
 62
7
  6
CONTINUOUS
 70
0
 71
3
 72
8
 73
4
 74
0
 42
0.0000001
 43
0.0000001
 44
0.0000000001
 40
0.0
 40
0.0
 40
0.0
 40
0.0
 40
1.0
 40
1.0
 40
1.0
 40
1.0
 10
725.3795245473
 20
1081.5440349373
 30
0.0
 10
725.4380196066
 20
1081.4697037236
 30
0.0
 10
725.492680663
 20
1081.392252124
 30
0.0
 10
725.5439350291
 20
1081.3127550092
 30
0.0
  0
SPLINE
  5
50D
100
AcDbEntity
  8
3288E5__________________
100
AcDbSpline
 62
7
  6
CONTINUOUS
 70
0
 71
3
 72
9
 73
5
 74
0
 42
0.0000001
 43
0.0000001
 44
0.0000000001
 40
0.0
 40
0.0
 40
0.0
 40
0.0
 40
0.4498012841
 40
1.0
 40
1.0
 40
1.0
 40
1.0
 10
724.1007311509
 20
1082.2584386154
 30
0.0
 10
723.8034675533
 20
1082.1371414371
 30
0.0
 10
723.244111797
 20
1081.600467672
 30
0.0
 10
723.0884273652
 20
1080.8807168454
 30
0.0
 10
723.0334710052
 20
1080.4918608843
 30
0.0
  0
SPLINE
  5
50E
100
AcDbEntity
  8
3288E5__________________
100
AcDbSpline
 62
7
  6
CONTINUOUS
 70
0
 71
3
 72
8
 73
4
 74
0
 42
0.0000001
 43
0.0000001
 44
0.0000000001
 40
0.0
 40
0.0
 40
0.0
 40
0.0
 40
1.0
 40
1.0
 40
1.0
 40
1.0
 10
715.7422282789
 20
1083.5267870781
 30
0.0
 10
715.8200052928
 20
1083.5424320461
 30
0.0
 10
715.8994892678
 20
1083.5509857907
 30
0.0
 10
715.9788024343
 20
1083.5528433468
 30
0.0
  0
SPLINE
  5
50F
100
AcDbEntity
  8
3288E5__________________
100
AcDbSpline
 62
7
  6
CONTINUOUS
 70
0
 71
3
 72
9
 73
5
 74
0
 42
0.0000001
 43
0.0000001
 44
0.0000000001
 40
0.0
 40
0.0
 40
0.0
 40
0.0
 40
0.7346962031
 40
1.0
 40
1.0
 40
1.0
 40
1.0
 10
715.9788024343
 20
1083.5528433468
 30
0.0
 10
716.3085825923
 20
1083.5605669717
 30
0.0
 10
716.7727495014
 20
1083.4152952127
 30
0.0
 10
717.1202536202
 20
1083.1304218913
 30
0.0
 10
717.206484807
 20
1083.0482428007
 30
0.0
  0
SPLINE
  5
510
100
AcDbEntity
  8
3288E5__________________
100
AcDbSpline
 62
7
  6
CONTINUOUS
 70
0
 71
3
 72
8
 73
4
 74
0
 42
0.0000001
 43
0.0000001
 44
0.0000000001
 40
0.0
 40
0.0
 40
0.0
 40
0.0
 40
1.0
 40
1.0
 40
1.0
 40
1.0
 10
717.206484807
 20
1083.0482428007
 30
0.0
 10
717.3407176715
 20
1082.9203176828
 30
0.0
 10
717.4595436383
 20
1082.7753837743
 30
0.0
 10
717.5647642471
 20
1082.622701355
 30
0.0
  0
SPLINE
  5
511
100
AcDbEntity
  8
3288E5__________________
100
AcDbSpline
 62
7
  6
CONTINUOUS
 70
0
 71
3
 72
9
 73
5
 74
0
 42
0.0000001
 43
0.0000001
 44
0.0000000001
 40
0.0
 40
0.0
 40
0.0
 40
0.0
 40
0.457175293
 40
1.0
 40
1.0
 40
1.0
 40
1.0
 10
715.9779884716
 20
1083.5538400852
 30
0.0
 10
715.6666638353
 20
1083.4320791282
 30
0.0
 10
715.0753876348
 20
1082.9033609194
 30
0.0
 10
714.9016299065
 20
1082.165860398
 30
0.0
 10
714.8430142173
 20
1081.7732967404
 30
0.0
  0
SPLINE
  5
512
100
AcDbEntity
  8
3288E5__________________
100
AcDbSpline
 62
7
  6
CONTINUOUS
 70
0
 71
3
 72
8
 73
4
 74
0
 42
0.0000001
 43
0.0000001
 44
0.0000000001
 40
0.0
 40
0.0
 40
0.0
 40
0.0
 40
1.0
 40
1.0
 40
1.0
 40
1.0
 10
469.2194553961
 20
988.9616047723
 30
0.0
 10
469.2356609247
 20
988.7504366515
 30
0.0
 10
469.259803261
 20
988.5395709415
 30
0.0
 10
469.295359166
 20
988.3307878674
 30
0.0
  0
SPLINE
  5
513
100
AcDbEntity
  8
3288E5__________________
100
AcDbSpline
 62
7
  6
CONTINUOUS
 70
0
 71
3
 72
9
 73
5
 74
0
 42
0.0000001
 43
0.0000001
 44
0.0000000001
 40
0.0
 40
0.0
 40
0.0
 40
0.0
 40
0.2745690037
 40
1.0
 40
1.0
 40
1.0
 40
1.0
 10
469.3558375494
 20
988.0286463472
 30
0.0
 10
469.3974015031
 20
987.8499284648
 30
0.0
 10
469.5836149388
 20
987.2121718223
 30
0.0
 10
469.9968764781
 20
986.6078940288
 30
0.0
 10
470.4103123943
 20
986.35473563
 30
0.0
  0
SPLINE
  5
514
100
AcDbEntity
  8
3288E5__________________
100
AcDbSpline
 62
7
  6
CONTINUOUS
 70
0
 71
3
 72
8
 73
4
 74
0
 42
0.0000001
 43
0.0000001
 44
0.0000000001
 40
0.0
 40
0.0
 40
0.0
 40
0.0
 40
1.0
 40
1.0
 40
1.0
 40
1.0
 10
470.4103123943
 20
986.35473563
 30
0.0
 10
470.5883700143
 20
986.2457059588
 30
0.0
 10
470.7961307935
 20
986.1735365874
 30
0.0
 10
471.0041356986
 20
986.1554826486
 30
0.0
  0
SPLINE
  5
515
100
AcDbEntity
  8
3288E5__________________
100
AcDbSpline
 62
7
  6
CONTINUOUS
 70
0
 71
3
 72
9
 73
5
 74
0
 42
0.0000001
 43
0.0000001
 44
0.0000000001
 40
0.0
 40
0.0
 40
0.0
 40
0.0
 40
0.2158709681
 40
1.0
 40
1.0
 40
1.0
 40
1.0
 10
469.707153364
 20
1039.8555235903
 30
0.0
 10
469.6531601272
 20
1039.7867678798
 30
0.0
 10
469.4322228585
 20
1039.4448859828
 30
0.0
 10
469.3287607637
 20
1039.0408091846
 30
0.0
 10
469.2778442203
 20
1038.7273661335
 30
0.0
  0
SPLINE
  5
516
100
AcDbEntity
  8
3288E5__________________
100
AcDbSpline
 62
7
  6
CONTINUOUS
 70
0
 71
3
 72
8
 73
4
 74
0
 42
0.0000001
 43
0.0000001
 44
0.0000000001
 40
0.0
 40
0.0
 40
0.0
 40
0.0
 40
1.0
 40
1.0
 40
1.0
 40
1.0
 10
455.8891501155
 20
991.9898897671
 30
0.0
 10
455.902889764
 20
991.7784636399
 30
0.0
 10
455.9233393875
 20
991.5672523025
 30
0.0
 10
455.9535319339
 20
991.357542514
 30
0.0
  0
SPLINE
  5
517
100
AcDbEntity
  8
3288E5__________________
100
AcDbSpline
 62
7
  6
CONTINUOUS
 70
0
 71
3
 72
9
 73
5
 74
0
 42
0.0000001
 43
0.0000001
 44
0.0000000001
 40
0.0
 40
0.0
 40
0.0
 40
0.0
 40
0.2772412088
 40
1.0
 40
1.0
 40
1.0
 40
1.0
 10
456.0048409895
 20
991.0541815267
 30
0.0
 10
456.0359557433
 20
990.8957590854
 30
0.0
 10
456.1717476881
 20
990.3317497763
 30
0.0
 10
456.4499949795
 20
989.7838951382
 30
0.0
 10
456.7500768891
 20
989.4887658756
 30
0.0
  0
SPLINE
  5
518
100
AcDbEntity
  8
3288E5__________________
100
AcDbSpline
 62
7
  6
CONTINUOUS
 70
0
 71
3
 72
8
 73
4
 74
0
 42
0.0000001
 43
0.0000001
 44
0.0000000001
 40
0.0
 40
0.0
 40
0.0
 40
0.0
 40
1.0
 40
1.0
 40
1.0
 40
1.0
 10
456.7500768891
 20
989.4887658756
 30
0.0
 10
456.9044221834
 20
989.336967945
 30
0.0
 10
457.1018329341
 20
989.2131150593
 30
0.0
 10
457.3127902901
 20
989.1645138703
 30
0.0
  0
SPLINE
  5
519
100
AcDbEntity
  8
3288E5__________________
100
AcDbSpline
 62
7
  6
CONTINUOUS
 70
0
 71
3
 72
9
 73
5
 74
0
 42
0.0000001
 43
0.0000001
 44
0.0000000001
 40
0.0
 40
0.0
 40
0.0
 40
0.0
 40
0.2099486702
 40
1.0
 40
1.0
 40
1.0
 40
1.0
 10
456.3030727673
 20
1042.8739729851
 30
0.0
 10
456.2566052877
 20
1042.8054080744
 30
0.0
 10
456.064881783
 20
1042.4585207408
 30
0.0
 10
455.9813492652
 20
1042.0632231955
 30
0.0
 10
455.938669867
 20
1041.7544739751
 30
0.0
  0
SPLINE
  5
51A
100
AcDbEntity
  8
3288E5__________________
100
AcDbSpline
 62
7
  6
CONTINUOUS
 70
0
 71
3
 72
8
 73
4
 74
0
 42
0.0000001
 43
0.0000001
 44
0.0000000001
 40
0.0
 40
0.0
 40
0.0
 40
0.0
 40
1.0
 40
1.0
 40
1.0
 40
1.0
 10
698.3549338438
 20
1085.8481355832
 30
0.0
 10
698.7169285415
 20
1085.8995141379
 30
0.0
 10
699.108500173
 20
1085.8311768509
 30
0.0
 10
699.437523265
 20
1085.6717286711
 30
0.0
  0
SPLINE
  5
51B
100
AcDbEntity
  8
3288E5__________________
100
AcDbSpline
 62
7
  6
CONTINUOUS
 70
0
 71
3
 72
9
 73
5
 74
0
 42
0.0000001
 43
0.0000001
 44
0.0000000001
 40
0.0
 40
0.0
 40
0.0
 40
0.0
 40
0.7310770571
 40
1.0
 40
1.0
 40
1.0
 40
1.0
 10
699.437523265
 20
1085.6717286711
 30
0.0
 10
699.6771613396
 20
1085.5555974458
 30
0.0
 10
699.9728635237
 20
1085.3249054237
 30
0.0
 10
700.2079170169
 20
1085.0469628343
 30
0.0
 10
700.2678006173
 20
1084.9694440384
 30
0.0
  0
SPLINE
  5
51C
100
AcDbEntity
  8
3288E5__________________
100
AcDbSpline
 62
7
  6
CONTINUOUS
 70
0
 71
3
 72
9
 73
5
 74
0
 42
0.0000001
 43
0.0000001
 44
0.0000000001
 40
0.0
 40
0.0
 40
0.0
 40
0.0
 40
0.4689024817
 40
1.0
 40
1.0
 40
1.0
 40
1.0
 10
698.3555818145
 20
1085.8439616193
 30
0.0
 10
698.0330220011
 20
1085.7104273553
 30
0.0
 10
697.4202945859
 20
1085.194816855
 30
0.0
 10
697.2201562411
 20
1084.4466456432
 30
0.0
 10
697.1563970192
 20
1084.056406711
 30
0.0
  0
SPLINE
  5
51D
100
AcDbEntity
  8
3288E5__________________
100
AcDbSpline
 62
7
  6
CONTINUOUS
 70
0
 71
3
 72
8
 73
4
 74
0
 42
0.0000001
 43
0.0000001
 44
0.0000000001
 40
0.0
 40
0.0
 40
0.0
 40
0.0
 40
1.0
 40
1.0
 40
1.0
 40
1.0
 10
495.9868197683
 20
982.7230665689
 30
0.0
 10
495.8140490019
 20
982.5370030263
 30
0.0
 10
495.6010850008
 20
982.3765456477
 30
0.0
 10
495.3649882973
 20
982.2831233472
 30
0.0
  0
SPLINE
  5
51E
100
AcDbEntity
  8
3288E5__________________
100
AcDbSpline
 62
7
  6
CONTINUOUS
 70
0
 71
3
 72
9
 73
5
 74
0
 42
0.0000001
 43
0.0000001
 44
0.0000000001
 40
0.0
 40
0.0
 40
0.0
 40
0.0
 40
0.2977857049
 40
1.0
 40
1.0
 40
1.0
 40
1.0
 10
496.5837908566
 20
984.3963334036
 30
0.0
 10
496.5692819207
 20
984.2189670217
 30
0.0
 10
496.494765178
 20
983.6301579944
 30
0.0
 10
496.2723675952
 20
983.0305841041
 30
0.0
 10
495.9868197683
 20
982.7230665689
 30
0.0
  0
SPLINE
  5
51F
100
AcDbEntity
  8
3288E5__________________
100
AcDbSpline
 62
7
  6
CONTINUOUS
 70
0
 71
3
 72
8
 73
4
 74
0
 42
0.0000001
 43
0.0000001
 44
0.0000000001
 40
0.0
 40
0.0
 40
0.0
 40
0.0
 40
1.0
 40
1.0
 40
1.0
 40
1.0
 10
441.3097464585
 20
994.538265602
 30
0.0
 10
441.2528825641
 20
994.4270841907
 30
0.0
 10
441.1855019263
 20
994.3182713042
 30
0.0
 10
441.0978885345
 20
994.2292842136
 30
0.0
  0
SPLINE
  5
520
100
AcDbEntity
  8
3288E5__________________
100
AcDbSpline
 62
7
  6
CONTINUOUS
 70
0
 71
3
 72
8
 73
4
 74
0
 42
0.0000001
 43
0.0000001
 44
0.0000000001
 40
0.0
 40
0.0
 40
0.0
 40
0.0
 40
1.0
 40
1.0
 40
1.0
 40
1.0
 10
441.0978885345
 20
994.2292842136
 30
0.0
 10
441.0416327808
 20
994.1721464206
 30
0.0
 10
440.9738679292
 20
994.1220399835
 30
0.0
 10
440.8984656091
 20
994.0947649519
 30
0.0
  0
SPLINE
  5
521
100
AcDbEntity
  8
3288E5__________________
100
AcDbSpline
 62
7
  6
CONTINUOUS
 70
0
 71
3
 72
9
 73
5
 74
0
 42
0.0000001
 43
0.0000001
 44
0.0000000001
 40
0.0
 40
0.0
 40
0.0
 40
0.0
 40
0.502432501
 40
1.0
 40
1.0
 40
1.0
 40
1.0
 10
440.8984656091
 20
994.0947649519
 30
0.0
 10
440.8815593041
 20
994.0886494902
 30
0.0
 10
440.8470762438
 20
994.0786517165
 30
0.0
 10
440.8115452112
 20
994.0734533184
 30
0.0
 10
440.7937938736
 20
994.0720811333
 30
0.0
  0
SPLINE
  5
522
100
AcDbEntity
  8
3288E5__________________
100
AcDbSpline
 62
7
  6
CONTINUOUS
 70
0
 71
3
 72
9
 73
5
 74
0
 42
0.0000001
 43
0.0000001
 44
0.0000000001
 40
0.0
 40
0.0
 40
0.0
 40
0.0
 40
0.3151991401
 40
1.0
 40
1.0
 40
1.0
 40
1.0
 10
441.6188986888
 20
996.1711950778
 30
0.0
 10
441.6114214276
 20
995.9962009673
 30
0.0
 10
441.5716481271
 20
995.4450103943
 30
0.0
 10
441.4830252343
 20
994.8770636931
 30
0.0
 10
441.3097464585
 20
994.538265602
 30
0.0
  0
SPLINE
  5
523
100
AcDbEntity
  8
3288E5__________________
100
AcDbSpline
 62
7
  6
CONTINUOUS
 70
0
 71
3
 72
8
 73
4
 74
0
 42
0.0000001
 43
0.0000001
 44
0.0000000001
 40
0.0
 40
0.0
 40
0.0
 40
0.0
 40
1.0
 40
1.0
 40
1.0
 40
1.0
 10
514.4188541929
 20
980.6252703297
 30
0.0
 10
514.2358682958
 20
980.4399575384
 30
0.0
 10
514.0156006833
 20
980.2818325104
 30
0.0
 10
513.7744459476
 20
980.1835011185
 30
0.0
  0
SPLINE
  5
524
100
AcDbEntity
  8
3288E5__________________
100
AcDbSpline
 62
7
  6
CONTINUOUS
 70
0
 71
3
 72
9
 73
5
 74
0
 42
0.0000001
 43
0.0000001
 44
0.0000000001
 40
0.0
 40
0.0
 40
0.0
 40
0.0
 40
0.2938334101
 40
1.0
 40
1.0
 40
1.0
 40
1.0
 10
515.0668493865
 20
982.3121182539
 30
0.0
 10
515.0510716192
 20
982.1340301239
 30
0.0
 10
514.9695521854
 20
981.5347832599
 30
0.0
 10
514.7207537692
 20
980.9310089362
 30
0.0
 10
514.4188541929
 20
980.6252703297
 30
0.0
  0
SPLINE
  5
525
100
AcDbEntity
  8
3288E5__________________
100
AcDbSpline
 62
7
  6
CONTINUOUS
 70
0
 71
3
 72
8
 73
4
 74
0
 42
0.0000001
 43
0.0000001
 44
0.0000000001
 40
0.0
 40
0.0
 40
0.0
 40
0.0
 40
1.0
 40
1.0
 40
1.0
 40
1.0
 10
446.1777779995
 20
992.8206156725
 30
0.0
 10
446.1027269805
 20
992.6906968448
 30
0.0
 10
446.0112408626
 20
992.5643503354
 30
0.0
 10
445.8928913142
 20
992.472128095
 30
0.0
  0
SPLINE
  5
526
100
AcDbEntity
  8
3288E5__________________
100
AcDbSpline
 62
7
  6
CONTINUOUS
 70
0
 71
3
 72
8
 73
4
 74
0
 42
0.0000001
 43
0.0000001
 44
0.0000000001
 40
0.0
 40
0.0
 40
0.0
 40
0.0
 40
1.0
 40
1.0
 40
1.0
 40
1.0
 10
445.8928913142
 20
992.472128095
 30
0.0
 10
445.8381196805
 20
992.4294480608
 30
0.0
 10
445.7760227966
 20
992.3939666336
 30
0.0
 10
445.7100442584
 20
992.3723252458
 30
0.0
  0
SPLINE
  5
527
100
AcDbEntity
  8
3288E5__________________
100
AcDbSpline
 62
7
  6
CONTINUOUS
 70
0
 71
3
 72
9
 73
5
 74
0
 42
0.0000001
 43
0.0000001
 44
0.0000000001
 40
0.0
 40
0.0
 40
0.0
 40
0.0
 40
0.3132111853
 40
1.0
 40
1.0
 40
1.0
 40
1.0
 10
446.5287999275
 20
994.4571424569
 30
0.0
 10
446.5203089854
 20
994.2819222265
 30
0.0
 10
446.4756287008
 20
993.7271759869
 30
0.0
 10
446.3701905243
 20
993.153695889
 30
0.0
 10
446.1777779995
 20
992.8206156725
 30
0.0
  0
SPLINE
  5
528
100
AcDbEntity
  8
3288E5__________________
100
AcDbSpline
 62
7
  6
CONTINUOUS
 70
0
 71
3
 72
8
 73
4
 74
0
 42
0.0000001
 43
0.0000001
 44
0.0000000001
 40
0.0
 40
0.0
 40
0.0
 40
0.0
 40
1.0
 40
1.0
 40
1.0
 40
1.0
 10
451.6564093979
 20
991.1593450165
 30
0.0
 10
451.5638003772
 20
991.0147314272
 30
0.0
 10
451.448508924
 20
990.8759445666
 30
0.0
 10
451.3033822079
 20
990.7841417497
 30
0.0
  0
SPLINE
  5
529
100
AcDbEntity
  8
3288E5__________________
100
AcDbSpline
 62
7
  6
CONTINUOUS
 70
0
 71
3
 72
8
 73
4
 74
0
 42
0.0000001
 43
0.0000001
 44
0.0000000001
 40
0.0
 40
0.0
 40
0.0
 40
0.0
 40
1.0
 40
1.0
 40
1.0
 40
1.0
 10
451.3033822079
 20
990.7841417497
 30
0.0
 10
451.2508096917
 20
990.7508859495
 30
0.0
 10
451.1935845958
 20
990.7237434632
 30
0.0
 10
451.1340632371
 20
990.7056596152
 30
0.0
  0
SPLINE
  5
52A
100
AcDbEntity
  8
3288E5__________________
100
AcDbSpline
 62
7
  6
CONTINUOUS
 70
0
 71
3
 72
9
 73
5
 74
0
 42
0.0000001
 43
0.0000001
 44
0.0000000001
 40
0.0
 40
0.0
 40
0.0
 40
0.0
 40
0.3110946884
 40
1.0
 40
1.0
 40
1.0
 40
1.0
 10
452.0479197977
 20
992.7999178815
 30
0.0
 10
452.0384462716
 20
992.6244468786
 30
0.0
 10
451.9890501917
 20
992.0656797086
 30
0.0
 10
451.8662665401
 20
991.4870473759
 30
0.0
 10
451.6564093979
 20
991.1593450165
 30
0.0
  0
SPLINE
  5
52B
100
AcDbEntity
  8
3288E5__________________
100
AcDbSpline
 62
7
  6
CONTINUOUS
 70
0
 71
3
 72
8
 73
4
 74
0
 42
0.0000001
 43
0.0000001
 44
0.0000000001
 40
0.0
 40
0.0
 40
0.0
 40
0.0
 40
1.0
 40
1.0
 40
1.0
 40
1.0
 10
437.0714698486
 20
996.305536075
 30
0.0
 10
437.0330215837
 20
996.2185621098
 30
0.0
 10
436.9889120078
 20
996.1331582473
 30
0.0
 10
436.9337434501
 20
996.0557039386
 30
0.0
  0
SPLINE
  5
52C
100
AcDbEntity
  8
3288E5__________________
100
AcDbSpline
 62
7
  6
CONTINUOUS
 70
0
 71
3
 72
8
 73
4
 74
0
 42
0.0000001
 43
0.0000001
 44
0.0000000001
 40
0.0
 40
0.0
 40
0.0
 40
0.0
 40
1.0
 40
1.0
 40
1.0
 40
1.0
 10
436.9337434501
 20
996.0557039386
 30
0.0
 10
436.878250579
 20
995.9777943079
 30
0.0
 10
436.8067652315
 20
995.9024810899
 30
0.0
 10
436.7182602275
 20
995.8662011563
 30
0.0
  0
SPLINE
  5
52D
100
AcDbEntity
  8
3288E5__________________
100
AcDbSpline
 62
7
  6
CONTINUOUS
 70
0
 71
3
 72
9
 73
5
 74
0
 42
0.0000001
 43
0.0000001
 44
0.0000000001
 40
0.0
 40
0.0
 40
0.0
 40
0.0
 40
0.504498264
 40
1.0
 40
1.0
 40
1.0
 40
1.0
 10
436.7182602275
 20
995.8662011563
 30
0.0
 10
436.7032341293
 20
995.8600416644
 30
0.0
 10
436.6724634202
 20
995.8500780184
 30
0.0
 10
436.6404567665
 20
995.845320936
 30
0.0
 10
436.6245399587
 20
995.8442931638
 30
0.0
  0
SPLINE
  5
52E
100
AcDbEntity
  8
3288E5__________________
100
AcDbSpline
 62
7
  6
CONTINUOUS
 70
0
 71
3
 72
9
 73
5
 74
0
 42
0.0000001
 43
0.0000001
 44
0.0000000001
 40
0.0
 40
0.0
 40
0.0
 40
0.0
 40
0.303454322
 40
1.0
 40
1.0
 40
1.0
 40
1.0
 10
437.3375359074
 20
997.9353311692
 30
0.0
 10
437.3321067697
 20
997.787889789
 30
0.0
 10
437.304346507
 20
997.303344729
 30
0.0
 10
437.2441992669
 20
996.8146012381
 30
0.0
 10
437.1414560971
 20
996.4918976622
 30
0.0
  0
SPLINE
  5
52F
100
AcDbEntity
  8
3288E5__________________
100
AcDbSpline
 62
7
  6
CONTINUOUS
 70
0
 71
3
 72
8
 73
4
 74
0
 42
0.0000001
 43
0.0000001
 44
0.0000000001
 40
0.0
 40
0.0
 40
0.0
 40
0.0
 40
1.0
 40
1.0
 40
1.0
 40
1.0
 10
437.1414560971
 20
996.4918976622
 30
0.0
 10
437.121325029
 20
996.4286684697
 30
0.0
 10
437.0982992188
 20
996.3662268945
 30
0.0
 10
437.0714698486
 20
996.305536075
 30
0.0
  0
SPLINE
  5
530
100
AcDbEntity
  8
3288E5__________________
100
AcDbSpline
 62
7
  6
CONTINUOUS
 70
0
 71
3
 72
8
 73
4
 74
0
 42
0.0000001
 43
0.0000001
 44
0.0000000001
 40
0.0
 40
0.0
 40
0.0
 40
0.0
 40
1.0
 40
1.0
 40
1.0
 40
1.0
 10
505.0132921168
 20
981.623950098
 30
0.0
 10
504.8384272381
 20
981.4418758169
 30
0.0
 10
504.6266107661
 20
981.2853855026
 30
0.0
 10
504.393260689
 20
981.189070856
 30
0.0
  0
SPLINE
  5
531
100
AcDbEntity
  8
3288E5__________________
100
AcDbSpline
 62
7
  6
CONTINUOUS
 70
0
 71
3
 72
9
 73
5
 74
0
 42
0.0000001
 43
0.0000001
 44
0.0000000001
 40
0.0
 40
0.0
 40
0.0
 40
0.0
 40
0.2957526334
 40
1.0
 40
1.0
 40
1.0
 40
1.0
 10
505.6370023672
 20
983.3038684614
 30
0.0
 10
505.6218297734
 20
983.1261439167
 30
0.0
 10
505.5437012138
 20
982.532059399
 30
0.0
 10
505.3075009689
 20
981.9302887156
 30
0.0
 10
505.0132921168
 20
981.623950098
 30
0.0
  0
SPLINE
  5
532
100
AcDbEntity
  8
3288E5__________________
100
AcDbSpline
 62
7
  6
CONTINUOUS
 70
0
 71
3
 72
8
 73
4
 74
0
 42
0.0000001
 43
0.0000001
 44
0.0000000001
 40
0.0
 40
0.0
 40
0.0
 40
0.0
 40
1.0
 40
1.0
 40
1.0
 40
1.0
 10
487.3749551474
 20
983.9182948616
 30
0.0
 10
487.2117490145
 20
983.7353130534
 30
0.0
 10
487.0087166241
 20
983.5756003686
 30
0.0
 10
486.7812825747
 20
983.4839906684
 30
0.0
  0
SPLINE
  5
533
100
AcDbEntity
  8
3288E5__________________
100
AcDbSpline
 62
7
  6
CONTINUOUS
 70
0
 71
3
 72
9
 73
5
 74
0
 42
0.0000001
 43
0.0000001
 44
0.0000000001
 40
0.0
 40
0.0
 40
0.0
 40
0.0
 40
0.2999142219
 40
1.0
 40
1.0
 40
1.0
 40
1.0
 10
487.9428380696
 20
985.5852143722
 30
0.0
 10
487.9290483723
 20
985.4081982536
 30
0.0
 10
487.8583363743
 20
984.8247130118
 30
0.0
 10
487.650830496
 20
984.2275980062
 30
0.0
 10
487.3749551474
 20
983.9182948616
 30
0.0
  0
SPLINE
  5
534
100
AcDbEntity
  8
3288E5__________________
100
AcDbSpline
 62
7
  6
CONTINUOUS
 70
0
 71
3
 72
8
 73
4
 74
0
 42
0.0000001
 43
0.0000001
 44
0.0000000001
 40
0.0
 40
0.0
 40
0.0
 40
0.0
 40
1.0
 40
1.0
 40
1.0
 40
1.0
 10
464.3569231417
 20
988.0318414978
 30
0.0
 10
464.232321796
 20
987.8666058225
 30
0.0
 10
464.0748848559
 20
987.7142420443
 30
0.0
 10
463.8884298673
 20
987.6244486095
 30
0.0
  0
SPLINE
  5
535
100
AcDbEntity
  8
3288E5__________________
100
AcDbSpline
 62
7
  6
CONTINUOUS
 70
0
 71
3
 72
9
 73
5
 74
0
 42
0.0000001
 43
0.0000001
 44
0.0000000001
 40
0.0
 40
0.0
 40
0.0
 40
0.0
 40
0.306635052
 40
1.0
 40
1.0
 40
1.0
 40
1.0
 10
464.8246356018
 20
989.6817874541
 30
0.0
 10
464.8133053481
 20
989.5057495699
 30
0.0
 10
464.7549557343
 20
988.9377903603
 30
0.0
 10
464.5970833781
 20
988.3503215162
 30
0.0
 10
464.3569231417
 20
988.0318414978
 30
0.0
  0
SPLINE
  5
536
100
AcDbEntity
  8
3288E5__________________
100
AcDbSpline
 62
7
  6
CONTINUOUS
 70
0
 71
3
 72
8
 73
4
 74
0
 42
0.0000001
 43
0.0000001
 44
0.0000000001
 40
0.0
 40
0.0
 40
0.0
 40
0.0
 40
1.0
 40
1.0
 40
1.0
 40
1.0
 10
479.2115848263
 20
985.2049319075
 30
0.0
 10
479.0591172333
 20
985.0256772445
 30
0.0
 10
478.8677075546
 20
984.8668296778
 30
0.0
 10
478.6503376546
 20
984.7766691115
 30
0.0
  0
SPLINE
  5
537
100
AcDbEntity
  8
3288E5__________________
100
AcDbSpline
 62
7
  6
CONTINUOUS
 70
0
 71
3
 72
9
 73
5
 74
0
 42
0.0000001
 43
0.0000001
 44
0.0000000001
 40
0.0
 40
0.0
 40
0.0
 40
0.0
 40
0.3021162703
 40
1.0
 40
1.0
 40
1.0
 40
1.0
 10
479.7481450365
 20
986.8658332747
 30
0.0
 10
479.7351270651
 20
986.6891570059
 30
0.0
 10
479.6683886973
 20
986.1109727199
 30
0.0
 10
479.476721292
 20
985.5166502661
 30
0.0
 10
479.2115848263
 20
985.2049319075
 30
0.0
  0
SPLINE
  5
538
100
AcDbEntity
  8
3288E5__________________
100
AcDbSpline
 62
7
  6
CONTINUOUS
 70
0
 71
3
 72
11
 73
7
 74
0
 42
0.0000001
 43
0.0000001
 44
0.0000000001
 40
0.0
 40
0.0
 40
0.0
 40
0.0
 40
0.2696505538
 40
0.5340917778
 40
0.7803088309
 40
1.0
 40
1.0
 40
1.0
 40
1.0
 10
710.2356418286
 20
278.3449894642
 30
0.0
 10
710.2356607061
 20
279.0280645627
 30
0.0
 10
710.4251387126
 20
280.3959820375
 30
0.0
 10
711.3406016681
 20
282.179004786
 30
0.0
 10
712.6318330623
 20
283.5566474219
 30
0.0
 10
713.7736497912
 20
284.0108530614
 30
0.0
 10
714.324307876
 20
284.0914055378
 30
0.0
  0
SPLINE
  5
539
100
AcDbEntity
  8
3288E5__________________
100
AcDbSpline
 62
7
  6
CONTINUOUS
 70
0
 71
3
 72
11
 73
7
 74
0
 42
0.0000001
 43
0.0000001
 44
0.0000000001
 40
0.0
 40
0.0
 40
0.0
 40
0.0
 40
0.2696505538
 40
0.5340917778
 40
0.7803088309
 40
1.0
 40
1.0
 40
1.0
 40
1.0
 10
710.2356418286
 20
258.648834404
 30
0.0
 10
710.2356607061
 20
259.3319095025
 30
0.0
 10
710.4251387127
 20
260.6998269773
 30
0.0
 10
711.3406016681
 20
262.4828497258
 30
0.0
 10
712.6318330623
 20
263.8604923617
 30
0.0
 10
713.7736497912
 20
264.3146980012
 30
0.0
 10
714.324307876
 20
264.3952504776
 30
0.0
  0
SPLINE
  5
53A
100
AcDbEntity
  8
3288E5__________________
100
AcDbSpline
 62
7
  6
CONTINUOUS
 70
0
 71
3
 72
9
 73
5
 74
0
 42
0.0000001
 43
0.0000001
 44
0.0000000001
 40
0.0
 40
0.0
 40
0.0
 40
0.0
 40
0.5314840112
 40
1.0
 40
1.0
 40
1.0
 40
1.0
 10
710.2356418286
 20
238.9526793437
 30
0.0
 10
710.2356767677
 20
240.2169359131
 30
0.0
 10
710.9021200591
 20
242.6287589955
 30
0.0
 10
712.8824076065
 20
244.3606401343
 30
0.0
 10
713.9642212768
 20
244.6284620238
 30
0.0
  0
SPLINE
  5
53B
100
AcDbEntity
  8
3288E5__________________
100
AcDbSpline
 62
7
  6
CONTINUOUS
 70
0
 71
3
 72
9
 73
5
 74
0
 42
0.0000001
 43
0.0000001
 44
0.0000000001
 40
0.0
 40
0.0
 40
0.0
 40
0.0
 40
0.5314840112
 40
1.0
 40
1.0
 40
1.0
 40
1.0
 10
710.2356418286
 20
298.0411445245
 30
0.0
 10
710.2356767677
 20
299.3054010939
 30
0.0
 10
710.9021200591
 20
301.7172241763
 30
0.0
 10
712.8824076066
 20
303.449105315
 30
0.0
 10
713.9642212769
 20
303.7169272045
 30
0.0
  0
SPLINE
  5
53C
100
AcDbEntity
  8
3288E5__________________
100
AcDbSpline
 62
7
  6
CONTINUOUS
 70
0
 71
3
 72
8
 73
4
 74
0
 42
0.0000001
 43
0.0000001
 44
0.0000000001
 40
0.0
 40
0.0
 40
0.0
 40
0.0
 40
1.0
 40
1.0
 40
1.0
 40
1.0
 10
471.52883061
 20
986.5779149564
 30
0.0
 10
471.3881645419
 20
986.403081236
 30
0.0
 10
471.2100711746
 20
986.2453053599
 30
0.0
 10
471.0041512601
 20
986.1561383183
 30
0.0
  0
SPLINE
  5
53D
100
AcDbEntity
  8
3288E5__________________
100
AcDbSpline
 62
7
  6
CONTINUOUS
 70
0
 71
3
 72
9
 73
5
 74
0
 42
0.0000001
 43
0.0000001
 44
0.0000000001
 40
0.0
 40
0.0
 40
0.0
 40
0.0
 40
0.3043662884
 40
1.0
 40
1.0
 40
1.0
 40
1.0
 10
472.0319568134
 20
988.2331510414
 30
0.0
 10
472.019759793
 20
988.0568016856
 30
0.0
 10
471.957145739
 20
987.4838192699
 30
0.0
 10
471.7820911752
 20
986.8926922689
 30
0.0
 10
471.52883061
 20
986.5779149564
 30
0.0
  0
SPLINE
  5
53E
100
AcDbEntity
  8
3288E5__________________
100
AcDbSpline
 62
7
  6
CONTINUOUS
 70
0
 71
3
 72
8
 73
4
 74
0
 42
0.0000001
 43
0.0000001
 44
0.0000000001
 40
0.0
 40
0.0
 40
0.0
 40
0.0
 40
1.0
 40
1.0
 40
1.0
 40
1.0
 10
457.7240829485
 20
989.560990519
 30
0.0
 10
457.6155121324
 20
989.40572984
 30
0.0
 10
457.4790299039
 20
989.2595230022
 30
0.0
 10
457.3127069459
 20
989.1688026949
 30
0.0
  0
SPLINE
  5
53F
100
AcDbEntity
  8
3288E5__________________
100
AcDbSpline
 62
7
  6
CONTINUOUS
 70
0
 71
3
 72
8
 73
4
 74
0
 42
0.0000001
 43
0.0000001
 44
0.0000000001
 40
0.0
 40
0.0
 40
0.0
 40
0.0
 40
1.0
 40
1.0
 40
1.0
 40
1.0
 10
457.3127069459
 20
989.1688026949
 30
0.0
 10
457.260939686
 20
989.1405664143
 30
0.0
 10
457.2058697103
 20
989.1175552557
 30
0.0
 10
457.1491797322
 20
989.1013261732
 30
0.0
  0
SPLINE
  5
540
100
AcDbEntity
  8
3288E5__________________
100
AcDbSpline
 62
7
  6
CONTINUOUS
 70
0
 71
3
 72
9
 73
5
 74
0
 42
0.0000001
 43
0.0000001
 44
0.0000000001
 40
0.0
 40
0.0
 40
0.0
 40
0.0
 40
0.3088898203
 40
1.0
 40
1.0
 40
1.0
 40
1.0
 10
458.1545412774
 20
991.206042316
 30
0.0
 10
458.1441200697
 20
991.0302980074
 30
0.0
 10
458.090173602
 20
990.4671030489
 30
0.0
 10
457.9498145444
 20
989.8837958738
 30
0.0
 10
457.7240829485
 20
989.560990519
 30
0.0
  0
SPLINE
  5
541
100
AcDbEntity
  8
3288E5__________________
100
AcDbSpline
 62
7
  6
CONTINUOUS
 70
0
 71
3
 72
8
 73
4
 74
0
 42
0.0000001
 43
0.0000001
 44
0.0000000001
 40
0.0
 40
0.0
 40
0.0
 40
0.0
 40
1.0
 40
1.0
 40
1.0
 40
1.0
 10
574.0120880294
 20
1099.1807574753
 30
0.0
 10
573.8073090479
 20
1099.4056153746
 30
0.0
 10
573.6523128416
 20
1099.6894308574
 30
0.0
 10
573.5816654307
 20
1099.9852423674
 30
0.0
  0
SPLINE
  5
542
100
AcDbEntity
  8
3288E5__________________
100
AcDbSpline
 62
7
  6
CONTINUOUS
 70
0
 71
3
 72
8
 73
4
 74
0
 42
0.0000001
 43
0.0000001
 44
0.0000000001
 40
0.0
 40
0.0
 40
0.0
 40
0.0
 40
1.0
 40
1.0
 40
1.0
 40
1.0
 10
573.5816654307
 20
1099.9852423674
 30
0.0
 10
573.5446744774
 20
1100.1401291445
 30
0.0
 10
573.5278244687
 20
1100.3007002922
 30
0.0
 10
573.5279666814
 20
1100.4599429502
 30
0.0
  0
SPLINE
  5
543
100
AcDbEntity
  8
3288E5__________________
100
AcDbSpline
 62
7
  6
CONTINUOUS
 70
0
 71
3
 72
8
 73
4
 74
0
 42
0.0000001
 43
0.0000001
 44
0.0000000001
 40
0.0
 40
0.0
 40
0.0
 40
0.0
 40
1.0
 40
1.0
 40
1.0
 40
1.0
 10
574.9040679189
 20
1098.7084785144
 30
0.0
 10
575.046523929
 20
1098.6773000166
 30
0.0
 10
575.1933763947
 20
1098.6629960116
 30
0.0
 10
575.3392042559
 20
1098.6632160578
 30
0.0
  0
SPLINE
  5
544
100
AcDbEntity
  8
3288E5__________________
100
AcDbSpline
 62
7
  6
CONTINUOUS
 70
0
 71
3
 72
8
 73
4
 74
0
 42
0.0000001
 43
0.0000001
 44
0.0000000001
 40
0.0
 40
0.0
 40
0.0
 40
0.0
 40
1.0
 40
1.0
 40
1.0
 40
1.0
 10
575.3392042559
 20
1098.6632160578
 30
0.0
 10
575.4863053691
 20
1098.6634380252
 30
0.0
 10
575.6342217379
 20
1098.6774441769
 30
0.0
 10
575.7783378023
 20
1098.7069288638
 30
0.0
  0
SPLINE
  5
545
100
AcDbEntity
  8
3288E5__________________
100
AcDbSpline
 62
7
  6
CONTINUOUS
 70
0
 71
3
 72
8
 73
4
 74
0
 42
0.0000001
 43
0.0000001
 44
0.0000000001
 40
0.0
 40
0.0
 40
0.0
 40
0.0
 40
1.0
 40
1.0
 40
1.0
 40
1.0
 10
575.7783378023
 20
1098.7069288638
 30
0.0
 10
575.9216393763
 20
1098.7362469142
 30
0.0
 10
576.0626732199
 20
1098.781573176
 30
0.0
 10
576.1957533757
 20
1098.8422737636
 30
0.0
  0
SPLINE
  5
546
100
AcDbEntity
  8
3288E5__________________
100
AcDbSpline
 62
7
  6
CONTINUOUS
 70
0
 71
3
 72
9
 73
5
 74
0
 42
0.0000001
 43
0.0000001
 44
0.0000000001
 40
0.0
 40
0.0
 40
0.0
 40
0.0
 40
0.5061190058
 40
1.0
 40
1.0
 40
1.0
 40
1.0
 10
576.1957533757
 20
1098.8422737636
 30
0.0
 10
576.5466556115
 20
1099.0023274679
 30
0.0
 10
577.1620605958
 20
1099.5299246478
 30
0.0
 10
577.3882975436
 20
1100.3070590578
 30
0.0
 10
577.3887391715
 20
1100.6834136539
 30
0.0
  0
SPLINE
  5
547
100
AcDbEntity
  8
3288E5__________________
100
AcDbSpline
 62
7
  6
CONTINUOUS
 70
0
 71
3
 72
8
 73
4
 74
0
 42
0.0000001
 43
0.0000001
 44
0.0000000001
 40
0.0
 40
0.0
 40
0.0
 40
0.0
 40
1.0
 40
1.0
 40
1.0
 40
1.0
 10
776.4040045667
 20
1099.9937277719
 30
0.0
 10
776.4040385633
 20
1099.3382872403
 30
0.0
 10
776.2754184028
 20
1098.6748973559
 30
0.0
 10
776.0494773333
 20
1098.0596308081
 30
0.0
  0
SPLINE
  5
548
100
AcDbEntity
  8
3288E5__________________
100
AcDbSpline
 62
7
  6
CONTINUOUS
 70
0
 71
3
 72
13
 73
9
 74
0
 42
0.0000001
 43
0.0000001
 44
0.0000000001
 40
0.0
 40
0.0
 40
0.0
 40
0.0
 40
0.0544491833
 40
0.1262902452
 40
0.2190451225
 40
0.3337321826
 40
0.6274713921
 40
1.0
 40
1.0
 40
1.0
 40
1.0
 10
776.0494773333
 20
1098.0596308081
 30
0.0
 10
775.6290529883
 20
1096.9147613256
 30
0.0
 10
773.8962092497
 20
1094.5590374978
 30
0.0
 10
769.9326440373
 20
1091.6270462567
 30
0.0
 10
764.3451641897
 20
1088.767068859
 30
0.0
 10
753.8407457348
 20
1084.771107357
 30
0.0
 10
736.84444834
 20
1080.4480625211
 30
0.0
 10
722.131546315
 20
1077.9116234176
 30
0.0
 10
713.8743565492
 20
1076.7084838052
 30
0.0
  0
SPLINE
  5
549
100
AcDbEntity
  8
3288E5__________________
100
AcDbSpline
 62
7
  6
CONTINUOUS
 70
0
 71
3
 72
19
 73
15
 74
0
 42
0.0000001
 43
0.0000001
 44
0.0000000001
 40
0.0
 40
0.0
 40
0.0
 40
0.0
 40
0.0165756924
 40
0.037813497
 40
0.0660241308
 40
0.1019983382
 40
0.1458670301
 40
0.1974300853
 40
0.256297761
 40
0.3219428712
 40
0.4709168166
 40
0.6383358389
 40
0.8172135689
 40
1.0
 40
1.0
 40
1.0
 40
1.0
 10
777.1039943115
 20
1099.9932958355
 30
0.0
 10
777.104020717
 20
1101.1030700154
 30
0.0
 10
776.2160621797
 20
1103.6328571239
 30
0.0
 10
773.0100464392
 20
1106.7783709177
 30
0.0
 10
768.1256189528
 20
1109.7961578474
 30
0.0
 10
761.4821434922
 20
1112.7021350561
 30
0.0
 10
753.1299531888
 20
1115.4893628516
 30
0.0
 10
743.1343337998
 20
1118.1209753087
 30
0.0
 10
731.5986830119
 20
1120.5668647831
 30
0.0
 10
713.5496115985
 20
1123.6707445544
 30
0.0
 10
688.1462098495
 20
1126.7775119381
 30
0.0
 10
655.0727598719
 20
1129.280166175
 30
0.0
 10
619.6647720312
 20
1130.5648626816
 30
0.0
 10
595.444539458
 20
1130.5700506849
 30
0.0
 10
583.208626204
 20
1130.3495592578
 30
0.0
  0
LINE
  5
54A
100
AcDbEntity
  8
3288E5__________________
100
AcDbLine
 62
7
  6
CONTINUOUS
 10
583.208626204
 20
1130.3495592578
 11
582.8405479213
 21
1130.3428584535
  0
LINE
  5
54B
100
AcDbEntity
  8
3288E5__________________
100
AcDbLine
 62
7
  6
CONTINUOUS
 10
582.8405479213
 20
1130.3428584535
 11
582.116548649
 21
1130.329280874
  0
SPLINE
  5
54C
100
AcDbEntity
  8
3288E5__________________
100
AcDbSpline
 62
7
  6
CONTINUOUS
 70
0
 71
3
 72
8
 73
4
 74
0
 42
0.0000001
 43
0.0000001
 44
0.0000000001
 40
0.0
 40
0.0
 40
0.0
 40
0.0
 40
1.0
 40
1.0
 40
1.0
 40
1.0
 10
582.116548649
 20
1130.329280874
 30
0.0
 10
581.7466511657
 20
1130.3222093015
 30
0.0
 10
581.376757571
 20
1130.3149312878
 30
0.0
 10
581.0068682215
 20
1130.3074463401
 30
0.0
  0
SPLINE
  5
54D
100
AcDbEntity
  8
3288E5__________________
100
AcDbSpline
 62
7
  6
CONTINUOUS
 70
0
 71
3
 72
14
 73
10
 74
0
 42
0.0000001
 43
0.0000001
 44
0.0000000001
 40
0.0
 40
0.0
 40
0.0
 40
0.0
 40
0.0501724983
 40
0.1154279554
 40
0.2029411817
 40
0.3149970195
 40
0.4518028305
 40
0.6125803289
 40
1.0
 40
1.0
 40
1.0
 40
1.0
 10
777.104066251
 20
184.121801243
 30
0.0
 10
777.1040712014
 20
182.9608373138
 30
0.0
 10
776.1180665388
 20
180.2986291729
 30
0.0
 10
772.6339907577
 20
177.0414484513
 30
0.0
 10
767.3395524061
 20
173.9115768317
 30
0.0
 10
760.1403822695
 20
170.9068581344
 30
0.0
 10
751.1000478994
 20
168.0332145098
 30
0.0
 10
735.7130362108
 20
164.1965231639
 30
0.0
 10
723.1953104189
 20
162.0367350681
 30
0.0
 10
714.324307876
 20
160.7441579488
 30
0.0
  0
SPLINE
  5
54E
100
AcDbEntity
  8
3288E5__________________
100
AcDbSpline
 62
7
  6
CONTINUOUS
 70
0
 71
3
 72
8
 73
4
 74
0
 42
0.0000001
 43
0.0000001
 44
0.0000000001
 40
0.0
 40
0.0
 40
0.0
 40
0.0
 40
1.0
 40
1.0
 40
1.0
 40
1.0
 10
477.751914687
 20
1038.8920053272
 30
0.0
 10
477.8545588343
 20
1038.8888903537
 30
0.0
 10
477.9572986442
 20
1038.8739684952
 30
0.0
 10
478.057055951
 20
1038.8495963026
 30
0.0
  0
SPLINE
  5
54F
100
AcDbEntity
  8
3288E5__________________
100
AcDbSpline
 62
7
  6
CONTINUOUS
 70
0
 71
3
 72
8
 73
4
 74
0
 42
0.0000001
 43
0.0000001
 44
0.0000000001
 40
0.0
 40
0.0
 40
0.0
 40
0.0
 40
1.0
 40
1.0
 40
1.0
 40
1.0
 10
478.057055951
 20
1038.8495963026
 30
0.0
 10
478.3666872692
 20
1038.7739487701
 30
0.0
 10
478.6558440656
 20
1038.5888566174
 30
0.0
 10
478.8794270003
 20
1038.3616897764
 30
0.0
  0
SPLINE
  5
550
100
AcDbEntity
  8
3288E5__________________
100
AcDbSpline
 62
7
  6
CONTINUOUS
 70
0
 71
3
 72
9
 73
5
 74
0
 42
0.0000001
 43
0.0000001
 44
0.0000000001
 40
0.0
 40
0.0
 40
0.0
 40
0.0
 40
0.2378540707
 40
1.0
 40
1.0
 40
1.0
 40
1.0
 10
478.8794270003
 20
1038.3616897764
 30
0.0
 10
479.0157317985
 20
1038.2232000903
 30
0.0
 10
479.5284879024
 20
1037.5755177979
 30
0.0
 10
479.6954647682
 20
1036.7266244096
 30
0.0
 10
479.7481450365
 20
1036.1062209253
 30
0.0
  0
SPLINE
  5
551
100
AcDbEntity
  8
3288E5__________________
100
AcDbSpline
 62
7
  6
CONTINUOUS
 70
0
 71
3
 72
8
 73
4
 74
0
 42
0.0000001
 43
0.0000001
 44
0.0000000001
 40
0.0
 40
0.0
 40
0.0
 40
0.0
 40
1.0
 40
1.0
 40
1.0
 40
1.0
 10
477.3643957872
 20
1038.6355374073
 30
0.0
 10
477.3057375017
 20
1038.5814643819
 30
0.0
 10
477.2509833018
 20
1038.5229640907
 30
0.0
 10
477.199938289
 20
1038.4616526463
 30
0.0
  0
SPLINE
  5
552
100
AcDbEntity
  8
3288E5__________________
100
AcDbSpline
 62
7
  6
CONTINUOUS
 70
0
 71
3
 72
8
 73
4
 74
0
 42
0.0000001
 43
0.0000001
 44
0.0000000001
 40
0.0
 40
0.0
 40
0.0
 40
0.0
 40
1.0
 40
1.0
 40
1.0
 40
1.0
 10
462.9067783508
 20
1041.7421194441
 30
0.0
 10
463.0013157191
 20
1041.754956802
 30
0.0
 10
463.0987438109
 20
1041.7521635017
 30
0.0
 10
463.1929489518
 20
1041.7370802926
 30
0.0
  0
SPLINE
  5
553
100
AcDbEntity
  8
3288E5__________________
100
AcDbSpline
 62
7
  6
CONTINUOUS
 70
0
 71
3
 72
8
 73
4
 74
0
 42
0.0000001
 43
0.0000001
 44
0.0000000001
 40
0.0
 40
0.0
 40
0.0
 40
0.0
 40
1.0
 40
1.0
 40
1.0
 40
1.0
 10
463.1929489518
 20
1041.7370802926
 30
0.0
 10
463.38152331
 20
1041.7068876041
 30
0.0
 10
463.5657082399
 20
1041.6271176483
 30
0.0
 10
463.7221827489
 20
1041.5176296808
 30
0.0
  0
SPLINE
  5
554
100
AcDbEntity
  8
3288E5__________________
100
AcDbSpline
 62
7
  6
CONTINUOUS
 70
0
 71
3
 72
9
 73
5
 74
0
 42
0.0000001
 43
0.0000001
 44
0.0000000001
 40
0.0
 40
0.0
 40
0.0
 40
0.0
 40
0.2264658522
 40
1.0
 40
1.0
 40
1.0
 40
1.0
 10
463.7221827489
 20
1041.5176296808
 30
0.0
 10
463.795793888
 20
1041.4661226714
 30
0.0
 10
464.0992734877
 20
1041.208307637
 30
0.0
 10
464.3237494303
 20
1040.8663518147
 30
0.0
 10
464.4532911745
 20
1040.5881635048
 30
0.0
  0
SPLINE
  5
555
100
AcDbEntity
  8
3288E5__________________
100
AcDbSpline
 62
7
  6
CONTINUOUS
 70
0
 71
3
 72
9
 73
5
 74
0
 42
0.0000001
 43
0.0000001
 44
0.0000000001
 40
0.0
 40
0.0
 40
0.0
 40
0.0
 40
0.2140299824
 40
1.0
 40
1.0
 40
1.0
 40
1.0
 10
464.4532911745
 20
1040.5881635048
 30
0.0
 10
464.5048626721
 20
1040.4774147431
 30
0.0
 10
464.7098929653
 20
1039.9431361884
 30
0.0
 10
464.7915576133
 20
1039.3695828417
 30
0.0
 10
464.8246356018
 20
1038.9221751047
 30
0.0
  0
SPLINE
  5
556
100
AcDbEntity
  8
3288E5__________________
100
AcDbSpline
 62
7
  6
CONTINUOUS
 70
0
 71
3
 72
8
 73
4
 74
0
 42
0.0000001
 43
0.0000001
 44
0.0000000001
 40
0.0
 40
0.0
 40
0.0
 40
0.0
 40
1.0
 40
1.0
 40
1.0
 40
1.0
 10
463.1927349005
 20
1041.7362144994
 30
0.0
 10
463.0737417067
 20
1041.6784919869
 30
0.0
 10
462.9665221393
 20
1041.5941109598
 30
0.0
 10
462.8748682936
 20
1041.498765057
 30
0.0
  0
SPLINE
  5
557
100
AcDbEntity
  8
3288E5__________________
100
AcDbSpline
 62
7
  6
CONTINUOUS
 70
0
 71
3
 72
8
 73
4
 74
0
 42
0.0000001
 43
0.0000001
 44
0.0000000001
 40
0.0
 40
0.0
 40
0.0
 40
0.0
 40
1.0
 40
1.0
 40
1.0
 40
1.0
 10
462.8748682936
 20
1041.498765057
 30
0.0
 10
462.8235331529
 20
1041.4453620024
 30
0.0
 10
462.7761997137
 20
1041.3879555538
 30
0.0
 10
462.732383251
 20
1041.3282286712
 30
0.0
  0
SPLINE
  5
558
100
AcDbEntity
  8
3288E5__________________
100
AcDbSpline
 62
7
  6
CONTINUOUS
 70
0
 71
3
 72
8
 73
4
 74
0
 42
0.0000001
 43
0.0000001
 44
0.0000000001
 40
0.0
 40
0.0
 40
0.0
 40
0.0
 40
1.0
 40
1.0
 40
1.0
 40
1.0
 10
485.5359626698
 20
1037.5636234026
 30
0.0
 10
485.6117992229
 20
1037.5786540861
 30
0.0
 10
485.6892393885
 20
1037.5868991722
 30
0.0
 10
485.7665278649
 20
1037.5887953876
 30
0.0
  0
SPLINE
  5
559
100
AcDbEntity
  8
3288E5__________________
100
AcDbSpline
 62
7
  6
CONTINUOUS
 70
0
 71
3
 72
8
 73
4
 74
0
 42
0.0000001
 43
0.0000001
 44
0.0000000001
 40
0.0
 40
0.0
 40
0.0
 40
0.0
 40
1.0
 40
1.0
 40
1.0
 40
1.0
 10
485.7665278649
 20
1037.5887953876
 30
0.0
 10
485.8956576103
 20
1037.59196349
 30
0.0
 10
486.0259340586
 20
1037.5777518334
 30
0.0
 10
486.1520872489
 20
1037.5500047512
 30
0.0
  0
SPLINE
  5
55A
100
AcDbEntity
  8
3288E5__________________
100
AcDbSpline
 62
7
  6
CONTINUOUS
 70
0
 71
3
 72
8
 73
4
 74
0
 42
0.0000001
 43
0.0000001
 44
0.0000000001
 40
0.0
 40
0.0
 40
0.0
 40
0.0
 40
1.0
 40
1.0
 40
1.0
 40
1.0
 10
486.1520872489
 20
1037.5500047512
 30
0.0
 10
486.4756948382
 20
1037.4788280622
 30
0.0
 10
486.7829114207
 20
1037.2993962791
 30
0.0
 10
487.0232697896
 20
1037.071326449
 30
0.0
  0
SPLINE
  5
55B
100
AcDbEntity
  8
3288E5__________________
100
AcDbSpline
 62
7
  6
CONTINUOUS
 70
0
 71
3
 72
9
 73
5
 74
0
 42
0.0000001
 43
0.0000001
 44
0.0000000001
 40
0.0
 40
0.0
 40
0.0
 40
0.0
 40
0.4582500686
 40
1.0
 40
1.0
 40
1.0
 40
1.0
 10
487.0232697896
 20
1037.071326449
 30
0.0
 10
487.2970580074
 20
1036.8115359012
 30
0.0
 10
487.7671904735
 20
1036.097868671
 30
0.0
 10
487.9028709292
 20
1035.2700081245
 30
0.0
 10
487.9428380696
 20
1034.8256020228
 30
0.0
  0
SPLINE
  5
55C
100
AcDbEntity
  8
3288E5__________________
100
AcDbSpline
 62
7
  6
CONTINUOUS
 70
0
 71
3
 72
8
 73
4
 74
0
 42
0.0000001
 43
0.0000001
 44
0.0000000001
 40
0.0
 40
0.0
 40
0.0
 40
0.0
 40
1.0
 40
1.0
 40
1.0
 40
1.0
 10
485.3557489546
 20
1037.327832259
 30
0.0
 10
485.2937613962
 20
1037.2733165125
 30
0.0
 10
485.235622855
 20
1037.2142177538
 30
0.0
 10
485.1812548876
 20
1037.1521005409
 30
0.0
  0
SPLINE
  5
55D
100
AcDbEntity
  8
3288E5__________________
100
AcDbSpline
 62
7
  6
CONTINUOUS
 70
0
 71
3
 72
8
 73
4
 74
0
 42
0.0000001
 43
0.0000001
 44
0.0000000001
 40
0.0
 40
0.0
 40
0.0
 40
0.0
 40
1.0
 40
1.0
 40
1.0
 40
1.0
 10
503.0899190805
 20
1035.243937534
 30
0.0
 10
503.1977310523
 20
1035.2585768409
 30
0.0
 10
503.307413772
 20
1035.2623454297
 30
0.0
 10
503.4160713534
 20
1035.2567543156
 30
0.0
  0
SPLINE
  5
55E
100
AcDbEntity
  8
3288E5__________________
100
AcDbSpline
 62
7
  6
CONTINUOUS
 70
0
 71
3
 72
8
 73
4
 74
0
 42
0.0000001
 43
0.0000001
 44
0.0000000001
 40
0.0
 40
0.0
 40
0.0
 40
0.0
 40
1.0
 40
1.0
 40
1.0
 40
1.0
 10
503.4160713534
 20
1035.2567543156
 30
0.0
 10
503.6728894809
 20
1035.243539412
 30
0.0
 10
503.9319997902
 20
1035.1791962055
 30
0.0
 10
504.1643477699
 20
1035.0689936618
 30
0.0
  0
SPLINE
  5
55F
100
AcDbEntity
  8
3288E5__________________
100
AcDbSpline
 62
7
  6
CONTINUOUS
 70
0
 71
3
 72
9
 73
5
 74
0
 42
0.0000001
 43
0.0000001
 44
0.0000000001
 40
0.0
 40
0.0
 40
0.0
 40
0.0
 40
0.4691644882
 40
1.0
 40
1.0
 40
1.0
 40
1.0
 10
504.1643477699
 20
1035.0689936618
 30
0.0
 10
504.592728415
 20
1034.8658129119
 30
0.0
 10
505.3714394911
 20
1034.1038897387
 30
0.0
 10
505.584185544
 20
1033.0780952316
 30
0.0
 10
505.6370023672
 20
1032.5442561121
 30
0.0
  0
SPLINE
  5
560
100
AcDbEntity
  8
3288E5__________________
100
AcDbSpline
 62
7
  6
CONTINUOUS
 70
0
 71
3
 72
8
 73
4
 74
0
 42
0.0000001
 43
0.0000001
 44
0.0000000001
 40
0.0
 40
0.0
 40
0.0
 40
0.0
 40
1.0
 40
1.0
 40
1.0
 40
1.0
 10
502.6745331618
 20
1034.9859473198
 30
0.0
 10
502.6065960009
 20
1034.930359128
 30
0.0
 10
502.5424056506
 20
1034.8699636865
 30
0.0
 10
502.4820625835
 20
1034.8062124578
 30
0.0
  0
SPLINE
  5
561
100
AcDbEntity
  8
3288E5__________________
100
AcDbSpline
 62
7
  6
CONTINUOUS
 70
0
 71
3
 72
8
 73
4
 74
0
 42
0.0000001
 43
0.0000001
 44
0.0000000001
 40
0.0
 40
0.0
 40
0.0
 40
0.0
 40
1.0
 40
1.0
 40
1.0
 40
1.0
 10
436.2849600457
 20
1050.0812783927
 30
0.0
 10
436.4167404143
 20
1050.0896424363
 30
0.0
 10
436.5488609622
 20
1050.0009081917
 30
0.0
 10
436.639794856
 20
1049.9051634805
 30
0.0
  0
SPLINE
  5
562
100
AcDbEntity
  8
3288E5__________________
100
AcDbSpline
 62
7
  6
CONTINUOUS
 70
0
 71
3
 72
9
 73
5
 74
0
 42
0.0000001
 43
0.0000001
 44
0.0000000001
 40
0.0
 40
0.0
 40
0.0
 40
0.0
 40
0.2158134428
 40
1.0
 40
1.0
 40
1.0
 40
1.0
 10
436.639794856
 20
1049.9051634805
 30
0.0
 10
436.6646933726
 20
1049.8789477188
 30
0.0
 10
436.7725178361
 20
1049.7502766549
 30
0.0
 10
436.8529718782
 20
1049.6009507151
 30
0.0
 10
436.9076919322
 20
1049.4815142375
 30
0.0
  0
SPLINE
  5
563
100
AcDbEntity
  8
3288E5__________________
100
AcDbSpline
 62
7
  6
CONTINUOUS
 70
0
 71
3
 72
8
 73
4
 74
0
 42
0.0000001
 43
0.0000001
 44
0.0000000001
 40
0.0
 40
0.0
 40
0.0
 40
0.0
 40
1.0
 40
1.0
 40
1.0
 40
1.0
 10
436.9076919322
 20
1049.4815142375
 30
0.0
 10
436.9388895927
 20
1049.4134196653
 30
0.0
 10
436.9673006414
 20
1049.344016492
 30
0.0
 10
436.9936717247
 20
1049.2739113513
 30
0.0
  0
SPLINE
  5
564
100
AcDbEntity
  8
3288E5__________________
100
AcDbSpline
 62
7
  6
CONTINUOUS
 70
0
 71
3
 72
8
 73
4
 74
0
 42
0.0000001
 43
0.0000001
 44
0.0000000001
 40
0.0
 40
0.0
 40
0.0
 40
0.0
 40
1.0
 40
1.0
 40
1.0
 40
1.0
 10
436.9936717247
 20
1049.2739113513
 30
0.0
 10
437.0449322357
 20
1049.1376399179
 30
0.0
 10
437.089626379
 20
1048.9986443604
 30
0.0
 10
437.1261634078
 20
1048.8577096624
 30
0.0
  0
SPLINE
  5
565
100
AcDbEntity
  8
3288E5__________________
100
AcDbSpline
 62
7
  6
CONTINUOUS
 70
0
 71
3
 72
9
 73
5
 74
0
 42
0.0000001
 43
0.0000001
 44
0.0000000001
 40
0.0
 40
0.0
 40
0.0
 40
0.0
 40
0.223861147
 40
1.0
 40
1.0
 40
1.0
 40
1.0
 10
437.1854072472
 20
1048.5979403017
 30
0.0
 10
437.2013907926
 20
1048.5180500978
 30
0.0
 10
437.2647790383
 20
1048.1595704101
 30
0.0
 10
437.3004666694
 20
1047.7966427075
 30
0.0
 10
437.3192464963
 20
1047.514794862
 30
0.0
  0
SPLINE
  5
566
100
AcDbEntity
  8
3288E5__________________
100
AcDbSpline
 62
7
  6
CONTINUOUS
 70
0
 71
3
 72
8
 73
4
 74
0
 42
0.0000001
 43
0.0000001
 44
0.0000000001
 40
0.0
 40
0.0
 40
0.0
 40
0.0
 40
1.0
 40
1.0
 40
1.0
 40
1.0
 10
436.5907672639
 20
1049.8263604417
 30
0.0
 10
436.5613459987
 20
1049.7731990924
 30
0.0
 10
436.5355730425
 20
1049.7179687466
 30
0.0
 10
436.5121742594
 20
1049.6618952514
 30
0.0
  0
SPLINE
  5
567
100
AcDbEntity
  8
3288E5__________________
100
AcDbSpline
 62
7
  6
CONTINUOUS
 70
0
 71
3
 72
8
 73
4
 74
0
 42
0.0000001
 43
0.0000001
 44
0.0000000001
 40
0.0
 40
0.0
 40
0.0
 40
0.0
 40
1.0
 40
1.0
 40
1.0
 40
1.0
 10
450.4680727685
 20
1044.9012457493
 30
0.0
 10
450.5745759
 20
1044.9122919672
 30
0.0
 10
450.685404294
 20
1044.8943657354
 30
0.0
 10
450.7865282292
 20
1044.8591679276
 30
0.0
  0
SPLINE
  5
568
100
AcDbEntity
  8
3288E5__________________
100
AcDbSpline
 62
7
  6
CONTINUOUS
 70
0
 71
3
 72
9
 73
5
 74
0
 42
0.0000001
 43
0.0000001
 44
0.0000000001
 40
0.0
 40
0.0
 40
0.0
 40
0.0
 40
0.2235502301
 40
1.0
 40
1.0
 40
1.0
 40
1.0
 10
450.7865282292
 20
1044.8591679276
 30
0.0
 10
450.8449803792
 20
1044.8388227191
 30
0.0
 10
451.097407776
 20
1044.720397358
 30
0.0
 10
451.2924771263
 20
1044.5055918924
 30
0.0
 10
451.4145881072
 20
1044.3286753505
 30
0.0
  0
SPLINE
  5
569
100
AcDbEntity
  8
3288E5__________________
100
AcDbSpline
 62
7
  6
CONTINUOUS
 70
0
 71
3
 72
8
 73
4
 74
0
 42
0.0000001
 43
0.0000001
 44
0.0000000001
 40
0.0
 40
0.0
 40
0.0
 40
0.0
 40
1.0
 40
1.0
 40
1.0
 40
1.0
 10
451.4145881072
 20
1044.3286753505
 30
0.0
 10
451.460109997
 20
1044.262722434
 30
0.0
 10
451.5022514288
 20
1044.1943653467
 30
0.0
 10
451.5416184717
 20
1044.1245637309
 30
0.0
  0
SPLINE
  5
56A
100
AcDbEntity
  8
3288E5__________________
100
AcDbSpline
 62
7
  6
CONTINUOUS
 70
0
 71
3
 72
9
 73
5
 74
0
 42
0.0000001
 43
0.0000001
 44
0.0000000001
 40
0.0
 40
0.0
 40
0.0
 40
0.0
 40
0.2195290374
 40
1.0
 40
1.0
 40
1.0
 40
1.0
 10
451.8242682924
 20
1043.4563679241
 30
0.0
 10
451.8541637062
 20
1043.3556732416
 30
0.0
 10
451.9715503642
 20
1042.8913873881
 30
0.0
 10
452.0248687793
 20
1042.4130280857
 30
0.0
 10
452.0479197977
 20
1042.0403055322
 30
0.0
  0
SPLINE
  5
56B
100
AcDbEntity
  8
3288E5__________________
100
AcDbSpline
 62
7
  6
CONTINUOUS
 70
0
 71
3
 72
8
 73
4
 74
0
 42
0.0000001
 43
0.0000001
 44
0.0000000001
 40
0.0
 40
0.0
 40
0.0
 40
0.0
 40
1.0
 40
1.0
 40
1.0
 40
1.0
 10
450.5627925712
 20
1044.6543660678
 30
0.0
 10
450.5196189327
 20
1044.6013113917
 30
0.0
 10
450.4804727108
 20
1044.5448652439
 30
0.0
 10
450.4445204172
 20
1044.4866742283
 30
0.0
  0
SPLINE
  5
56C
100
AcDbEntity
  8
3288E5__________________
100
AcDbSpline
 62
7
  6
CONTINUOUS
 70
0
 71
3
 72
8
 73
4
 74
0
 42
0.0000001
 43
0.0000001
 44
0.0000000001
 40
0.0
 40
0.0
 40
0.0
 40
0.0
 40
1.0
 40
1.0
 40
1.0
 40
1.0
 10
445.1221043
 20
1046.5755031163
 30
0.0
 10
445.2349215299
 20
1046.5855970414
 30
0.0
 10
445.3528964446
 20
1046.5548849314
 30
0.0
 10
445.4544570381
 20
1046.5047345523
 30
0.0
  0
SPLINE
  5
56D
100
AcDbEntity
  8
3288E5__________________
100
AcDbSpline
 62
7
  6
CONTINUOUS
 70
0
 71
3
 72
9
 73
5
 74
0
 42
0.0000001
 43
0.0000001
 44
0.0000000001
 40
0.0
 40
0.0
 40
0.0
 40
0.0
 40
0.493146367
 40
1.0
 40
1.0
 40
1.0
 40
1.0
 10
445.4544570381
 20
1046.5047345523
 30
0.0
 10
445.4735920788
 20
1046.4952857148
 30
0.0
 10
445.5116441173
 20
1046.47457428
 30
0.0
 10
445.5480341505
 20
1046.4510770289
 30
0.0
 10
445.5660368072
 20
1046.4385468898
 30
0.0
  0
SPLINE
  5
56E
100
AcDbEntity
  8
3288E5__________________
100
AcDbSpline
 62
7
  6
CONTINUOUS
 70
0
 71
3
 72
8
 73
4
 74
0
 42
0.0000001
 43
0.0000001
 44
0.0000000001
 40
0.0
 40
0.0
 40
0.0
 40
0.0
 40
1.0
 40
1.0
 40
1.0
 40
1.0
 10
445.5660368072
 20
1046.4385468898
 30
0.0
 10
445.6147643477
 20
1046.4046317367
 30
0.0
 10
445.6604149665
 20
1046.3660443236
 30
0.0
 10
445.7029142029
 20
1046.3245904248
 30
0.0
  0
SPLINE
  5
56F
100
AcDbEntity
  8
3288E5__________________
100
AcDbSpline
 62
7
  6
CONTINUOUS
 70
0
 71
3
 72
9
 73
5
 74
0
 42
0.0000001
 43
0.0000001
 44
0.0000000001
 40
0.0
 40
0.0
 40
0.0
 40
0.0
 40
0.2136149885
 40
1.0
 40
1.0
 40
1.0
 40
1.0
 10
445.7029142029
 20
1046.3245904248
 30
0.0
 10
445.7475034049
 20
1046.2810979665
 30
0.0
 10
445.9408614131
 20
1046.0616376268
 30
0.0
 10
446.0771099741
 20
1045.7980484379
 30
0.0
 10
446.1675113554
 20
1045.5873188624
 30
0.0
  0
SPLINE
  5
570
100
AcDbEntity
  8
3288E5__________________
100
AcDbSpline
 62
7
  6
CONTINUOUS
 70
0
 71
3
 72
8
 73
4
 74
0
 42
0.0000001
 43
0.0000001
 44
0.0000000001
 40
0.0
 40
0.0
 40
0.0
 40
0.0
 40
1.0
 40
1.0
 40
1.0
 40
1.0
 10
446.2500259629
 20
1045.37417404
 30
0.0
 10
446.2793320302
 20
1045.2891316584
 30
0.0
 10
446.305161215
 20
1045.2028455357
 30
0.0
 10
446.328231471
 20
1045.1159040868
 30
0.0
  0
SPLINE
  5
571
100
AcDbEntity
  8
3288E5__________________
100
AcDbSpline
 62
7
  6
CONTINUOUS
 70
0
 71
3
 72
9
 73
5
 74
0
 42
0.0000001
 43
0.0000001
 44
0.0000000001
 40
0.0
 40
0.0
 40
0.0
 40
0.0
 40
0.2189699189
 40
1.0
 40
1.0
 40
1.0
 40
1.0
 10
446.328231471
 20
1045.1159040868
 30
0.0
 10
446.3550752958
 20
1045.014741749
 30
0.0
 10
446.4605135704
 20
1044.5481833376
 30
0.0
 10
446.5081337056
 20
1044.0702746638
 30
0.0
 10
446.5287999275
 20
1043.6975301075
 30
0.0
  0
SPLINE
  5
572
100
AcDbEntity
  8
3288E5__________________
100
AcDbSpline
 62
7
  6
CONTINUOUS
 70
0
 71
3
 72
8
 73
4
 74
0
 42
0.0000001
 43
0.0000001
 44
0.0000000001
 40
0.0
 40
0.0
 40
0.0
 40
0.0
 40
1.0
 40
1.0
 40
1.0
 40
1.0
 10
445.2852221503
 20
1046.326459436
 30
0.0
 10
445.2464322753
 20
1046.2734504264
 30
0.0
 10
445.2116211097
 20
1046.2174381727
 30
0.0
 10
445.1797788455
 20
1046.1599866304
 30
0.0
  0
SPLINE
  5
573
100
AcDbEntity
  8
3288E5__________________
100
AcDbSpline
 62
7
  6
CONTINUOUS
 70
0
 71
3
 72
8
 73
4
 74
0
 42
0.0000001
 43
0.0000001
 44
0.0000000001
 40
0.0
 40
0.0
 40
0.0
 40
0.0
 40
1.0
 40
1.0
 40
1.0
 40
1.0
 10
512.3404414255
 20
1034.2109479668
 30
0.0
 10
512.4776857342
 20
1034.2367519719
 30
0.0
 10
512.6188132498
 20
1034.2457352283
 30
0.0
 10
512.7583573516
 20
1034.2403231474
 30
0.0
  0
SPLINE
  5
574
100
AcDbEntity
  8
3288E5__________________
100
AcDbSpline
 62
7
  6
CONTINUOUS
 70
0
 71
3
 72
8
 73
4
 74
0
 42
0.0000001
 43
0.0000001
 44
0.0000000001
 40
0.0
 40
0.0
 40
0.0
 40
0.0
 40
1.0
 40
1.0
 40
1.0
 40
1.0
 10
512.7583573516
 20
1034.2403231474
 30
0.0
 10
513.0243374642
 20
1034.2300073699
 30
0.0
 10
513.2933335625
 20
1034.1692044498
 30
0.0
 10
513.5364747118
 20
1034.0608798586
 30
0.0
  0
SPLINE
  5
575
100
AcDbEntity
  8
3288E5__________________
100
AcDbSpline
 62
7
  6
CONTINUOUS
 70
0
 71
3
 72
9
 73
5
 74
0
 42
0.0000001
 43
0.0000001
 44
0.0000000001
 40
0.0
 40
0.0
 40
0.0
 40
0.0
 40
0.4730077059
 40
1.0
 40
1.0
 40
1.0
 40
1.0
 10
513.5364747118
 20
1034.0608798586
 30
0.0
 10
513.9763063381
 20
1033.864925446
 30
0.0
 10
514.7859315168
 20
1033.1212156341
 30
0.0
 10
515.0119455801
 20
1032.0861517418
 30
0.0
 10
515.0668493865
 20
1031.5525059045
 30
0.0
  0
SPLINE
  5
576
100
AcDbEntity
  8
3288E5__________________
100
AcDbSpline
 62
7
  6
CONTINUOUS
 70
0
 71
3
 72
8
 73
4
 74
0
 42
0.0000001
 43
0.0000001
 44
0.0000000001
 40
0.0
 40
0.0
 40
0.0
 40
0.0
 40
1.0
 40
1.0
 40
1.0
 40
1.0
 10
511.9338170309
 20
1033.9609825447
 30
0.0
 10
511.8632780646
 20
1033.9047756421
 30
0.0
 10
511.7964428067
 20
1033.8436851015
 30
0.0
 10
511.7334772427
 20
1033.779107246
 30
0.0
  0
SPLINE
  5
577
100
AcDbEntity
  8
3288E5__________________
100
AcDbSpline
 62
7
  6
CONTINUOUS
 70
0
 71
3
 72
8
 73
4
 74
0
 42
0.0000001
 43
0.0000001
 44
0.0000000001
 40
0.0
 40
0.0
 40
0.0
 40
0.0
 40
1.0
 40
1.0
 40
1.0
 40
1.0
 10
440.3880231437
 20
1048.3044094714
 30
0.0
 10
440.5072965123
 20
1048.3134878942
 30
0.0
 10
440.6316889
 20
1048.2631052894
 30
0.0
 10
440.7295936897
 20
1048.1943797019
 30
0.0
  0
SPLINE
  5
578
100
AcDbEntity
  8
3288E5__________________
100
AcDbSpline
 62
7
  6
CONTINUOUS
 70
0
 71
3
 72
8
 73
4
 74
0
 42
0.0000001
 43
0.0000001
 44
0.0000000001
 40
0.0
 40
0.0
 40
0.0
 40
0.0
 40
1.0
 40
1.0
 40
1.0
 40
1.0
 10
440.7295936897
 20
1048.1943797019
 30
0.0
 10
440.7894483953
 20
1048.1523638841
 30
0.0
 10
440.8435435533
 20
1048.1016966762
 30
0.0
 10
440.8922000916
 20
1048.0471031234
 30
0.0
  0
SPLINE
  5
579
100
AcDbEntity
  8
3288E5__________________
100
AcDbSpline
 62
7
  6
CONTINUOUS
 70
0
 71
3
 72
8
 73
4
 74
0
 42
0.0000001
 43
0.0000001
 44
0.0000000001
 40
0.0
 40
0.0
 40
0.0
 40
0.0
 40
1.0
 40
1.0
 40
1.0
 40
1.0
 10
440.8922000916
 20
1048.0471031234
 30
0.0
 10
440.9342052565
 20
1047.9999725367
 30
0.0
 10
440.9725842354
 20
1047.9494966677
 30
0.0
 10
441.0080345315
 20
1047.8972568114
 30
0.0
  0
SPLINE
  5
57A
100
AcDbEntity
  8
3288E5__________________
100
AcDbSpline
 62
7
  6
CONTINUOUS
 70
0
 71
3
 72
9
 73
5
 74
0
 42
0.0000001
 43
0.0000001
 44
0.0000000001
 40
0.0
 40
0.0
 40
0.0
 40
0.0
 40
0.2231484496
 40
1.0
 40
1.0
 40
1.0
 40
1.0
 10
441.0080345315
 20
1047.8972568114
 30
0.0
 10
441.0450781905
 20
1047.8426689621
 30
0.0
 10
441.1966454773
 20
1047.5884058579
 30
0.0
 10
441.3068827968
 20
1047.3109210381
 30
0.0
 10
441.3733423407
 20
1047.0910837518
 30
0.0
  0
SPLINE
  5
57B
100
AcDbEntity
  8
3288E5__________________
100
AcDbSpline
 62
7
  6
CONTINUOUS
 70
0
 71
3
 72
8
 73
4
 74
0
 42
0.0000001
 43
0.0000001
 44
0.0000000001
 40
0.0
 40
0.0
 40
0.0
 40
0.0
 40
1.0
 40
1.0
 40
1.0
 40
1.0
 10
441.3733423407
 20
1047.0910837518
 30
0.0
 10
441.3991998571
 20
1047.0055513226
 30
0.0
 10
441.4219219496
 20
1046.9190360349
 30
0.0
 10
441.4422024923
 20
1046.8320124335
 30
0.0
  0
SPLINE
  5
57C
100
AcDbEntity
  8
3288E5__________________
100
AcDbSpline
 62
7
  6
CONTINUOUS
 70
0
 71
3
 72
8
 73
4
 74
0
 42
0.0000001
 43
0.0000001
 44
0.0000000001
 40
0.0
 40
0.0
 40
0.0
 40
0.0
 40
1.0
 40
1.0
 40
1.0
 40
1.0
 10
441.4422024923
 20
1046.8320124335
 30
0.0
 10
441.5018037036
 20
1046.5762642454
 30
0.0
 10
441.5411343097
 20
1046.3156271395
 30
0.0
 10
441.5695194253
 20
1046.0545644549
 30
0.0
  0
SPLINE
  5
57D
100
AcDbEntity
  8
3288E5__________________
100
AcDbSpline
 62
7
  6
CONTINUOUS
 70
0
 71
3
 72
8
 73
4
 74
0
 42
0.0000001
 43
0.0000001
 44
0.0000000001
 40
0.0
 40
0.0
 40
0.0
 40
0.0
 40
1.0
 40
1.0
 40
1.0
 40
1.0
 10
441.5695194253
 20
1046.0545644549
 30
0.0
 10
441.5927547162
 20
1045.8408655744
 30
0.0
 10
441.6084136086
 20
1045.6262852047
 30
0.0
 10
441.6188986888
 20
1045.4115827284
 30
0.0
  0
SPLINE
  5
57E
100
AcDbEntity
  8
3288E5__________________
100
AcDbSpline
 62
7
  6
CONTINUOUS
 70
0
 71
3
 72
8
 73
4
 74
0
 42
0.0000001
 43
0.0000001
 44
0.0000000001
 40
0.0
 40
0.0
 40
0.0
 40
0.0
 40
1.0
 40
1.0
 40
1.0
 40
1.0
 10
440.7291150125
 20
1048.192370802
 30
0.0
 10
440.6889489993
 20
1048.1495450777
 30
0.0
 10
440.653582287
 20
1048.1020667522
 30
0.0
 10
440.6217636799
 20
1048.0527217674
 30
0.0
  0
SPLINE
  5
57F
100
AcDbEntity
  8
3288E5__________________
100
AcDbSpline
 62
7
  6
CONTINUOUS
 70
0
 71
3
 72
8
 73
4
 74
0
 42
0.0000001
 43
0.0000001
 44
0.0000000001
 40
0.0
 40
0.0
 40
0.0
 40
0.0
 40
1.0
 40
1.0
 40
1.0
 40
1.0
 10
440.6217636799
 20
1048.0527217674
 30
0.0
 10
440.5875577546
 20
1047.9996744778
 30
0.0
 10
440.5572129641
 20
1047.9440674619
 30
0.0
 10
440.5295641286
 20
1047.8873259236
 30
0.0
  0
SPLINE
  5
580
100
AcDbEntity
  8
3288E5__________________
100
AcDbSpline
 62
7
  6
CONTINUOUS
 70
0
 71
3
 72
8
 73
4
 74
0
 42
0.0000001
 43
0.0000001
 44
0.0000000001
 40
0.0
 40
0.0
 40
0.0
 40
0.0
 40
1.0
 40
1.0
 40
1.0
 40
1.0
 10
494.2343942964
 20
1036.3723844807
 30
0.0
 10
494.3091199916
 20
1036.3778055677
 30
0.0
 10
494.384395522
 20
1036.3777562622
 30
0.0
 10
494.4591599415
 20
1036.3728983536
 30
0.0
  0
SPLINE
  5
581
100
AcDbEntity
  8
3288E5__________________
100
AcDbSpline
 62
7
  6
CONTINUOUS
 70
0
 71
3
 72
8
 73
4
 74
0
 42
0.0000001
 43
0.0000001
 44
0.0000000001
 40
0.0
 40
0.0
 40
0.0
 40
0.0
 40
1.0
 40
1.0
 40
1.0
 40
1.0
 10
494.4591599415
 20
1036.3728983536
 30
0.0
 10
494.791053293
 20
1036.3513331816
 30
0.0
 10
495.1267568269
 20
1036.2311996432
 30
0.0
 10
495.4006603227
 20
1036.0425329309
 30
0.0
  0
SPLINE
  5
582
100
AcDbEntity
  8
3288E5__________________
100
AcDbSpline
 62
7
  6
CONTINUOUS
 70
0
 71
3
 72
9
 73
5
 74
0
 42
0.0000001
 43
0.0000001
 44
0.0000000001
 40
0.0
 40
0.0
 40
0.0
 40
0.0
 40
0.4635647286
 40
1.0
 40
1.0
 40
1.0
 40
1.0
 10
495.4006603227
 20
1036.0425329309
 30
0.0
 10
495.7509694123
 20
1035.8012374919
 30
0.0
 10
496.3668925391
 20
1035.053465123
 30
0.0
 10
496.5374249259
 20
1034.1267693891
 30
0.0
 10
496.5837908566
 20
1033.6367210542
 30
0.0
  0
SPLINE
  5
583
100
AcDbEntity
  8
3288E5__________________
100
AcDbSpline
 62
7
  6
CONTINUOUS
 70
0
 71
3
 72
8
 73
4
 74
0
 42
0.0000001
 43
0.0000001
 44
0.0000000001
 40
0.0
 40
0.0
 40
0.0
 40
0.0
 40
1.0
 40
1.0
 40
1.0
 40
1.0
 10
493.8035417371
 20
1036.1097045054
 30
0.0
 10
493.7384581264
 20
1036.0546818301
 30
0.0
 10
493.6771702686
 20
1035.9949509195
 30
0.0
 10
493.6196977124
 20
1035.932020192
 30
0.0
  0
SPLINE
  5
584
100
AcDbEntity
  8
3288E5__________________
100
AcDbSpline
 62
7
  6
CONTINUOUS
 70
0
 71
3
 72
8
 73
4
 74
0
 42
0.0000001
 43
0.0000001
 44
0.0000000001
 40
0.0
 40
0.0
 40
0.0
 40
0.0
 40
1.0
 40
1.0
 40
1.0
 40
1.0
 10
491.3973711174
 20
1104.8753116748
 30
0.0
 10
491.809812793
 20
1105.1486728314
 30
0.0
 10
492.1995224955
 20
1105.4589897782
 30
0.0
 10
492.5615472095
 20
1105.796291667
 30
0.0
  0
SPLINE
  5
585
100
AcDbEntity
  8
3288E5__________________
100
AcDbSpline
 62
7
  6
CONTINUOUS
 70
0
 71
3
 72
8
 73
4
 74
0
 42
0.0000001
 43
0.0000001
 44
0.0000000001
 40
0.0
 40
0.0
 40
0.0
 40
0.0
 40
1.0
 40
1.0
 40
1.0
 40
1.0
 10
492.5615472095
 20
1105.796291667
 30
0.0
 10
492.9416678905
 20
1106.1504537414
 30
0.0
 10
493.2937842276
 20
1106.5363897554
 30
0.0
 10
493.6171300454
 20
1106.9430468459
 30
0.0
  0
SPLINE
  5
586
100
AcDbEntity
  8
3288E5__________________
100
AcDbSpline
 62
7
  6
CONTINUOUS
 70
0
 71
3
 72
9
 73
5
 74
0
 42
0.0000001
 43
0.0000001
 44
0.0000000001
 40
0.0
 40
0.0
 40
0.0
 40
0.0
 40
0.2580599693
 40
1.0
 40
1.0
 40
1.0
 40
1.0
 10
493.6171300454
 20
1106.9430468459
 30
0.0
 10
493.925059658
 20
1107.3303156875
 30
0.0
 10
495.0257790043
 20
1108.9016551865
 30
0.0
 10
495.7496229185
 20
1110.7419342933
 30
0.0
 10
496.0002528403
 20
1112.1421798352
 30
0.0
  0
SPLINE
  5
587
100
AcDbEntity
  8
3288E5__________________
100
AcDbSpline
 62
7
  6
CONTINUOUS
 70
0
 71
3
 72
9
 73
5
 74
0
 42
0.0000001
 43
0.0000001
 44
0.0000000001
 40
0.0
 40
0.0
 40
0.0
 40
0.0
 40
0.2294192547
 40
1.0
 40
1.0
 40
1.0
 40
1.0
 10
496.0002528403
 20
1112.1421798352
 30
0.0
 10
496.0336619496
 20
1112.3288333524
 30
0.0
 10
496.1623179798
 20
1113.1454640691
 30
0.0
 10
496.2299817623
 20
1113.9708831175
 30
0.0
 10
496.2600265056
 20
1114.6070754437
 30
0.0
  0
SPLINE
  5
588
100
AcDbEntity
  8
3288E5__________________
100
AcDbSpline
 62
7
  6
CONTINUOUS
 70
0
 71
3
 72
8
 73
4
 74
0
 42
0.0000001
 43
0.0000001
 44
0.0000000001
 40
0.0
 40
0.0
 40
0.0
 40
0.0
 40
1.0
 40
1.0
 40
1.0
 40
1.0
 10
488.4227698764
 20
1103.6822261919
 30
0.0
 10
488.7416090888
 20
1103.7591992188
 30
0.0
 10
489.0583133915
 20
1103.8461642366
 30
0.0
 10
489.370782977
 20
1103.9458941135
 30
0.0
  0
SPLINE
  5
589
100
AcDbEntity
  8
3288E5__________________
100
AcDbSpline
 62
7
  6
CONTINUOUS
 70
0
 71
3
 72
9
 73
5
 74
0
 42
0.0000001
 43
0.0000001
 44
0.0000000001
 40
0.0
 40
0.0
 40
0.0
 40
0.0
 40
0.2680942217
 40
1.0
 40
1.0
 40
1.0
 40
1.0
 10
489.8146951514
 20
1104.0977506312
 30
0.0
 10
489.9556799012
 20
1104.1494194017
 30
0.0
 10
490.4770910021
 20
1104.3535511181
 30
0.0
 10
490.9808264456
 20
1104.6069576644
 30
0.0
 10
491.3257164768
 20
1104.8285215861
 30
0.0
  0
SPLINE
  5
58A
100
AcDbEntity
  8
3288E5__________________
100
AcDbSpline
 62
7
  6
CONTINUOUS
 70
0
 71
3
 72
8
 73
4
 74
0
 42
0.0000001
 43
0.0000001
 44
0.0000000001
 40
0.0
 40
0.0
 40
0.0
 40
0.0
 40
1.0
 40
1.0
 40
1.0
 40
1.0
 10
714.3265946638
 20
244.6994266413
 30
0.0
 10
714.6021429702
 20
244.7391291477
 30
0.0
 10
714.8848144107
 20
244.7487261139
 30
0.0
 10
715.1615592133
 20
244.7184693398
 30
0.0
  0
SPLINE
  5
58B
100
AcDbEntity
  8
3288E5__________________
100
AcDbSpline
 62
7
  6
CONTINUOUS
 70
0
 71
3
 72
8
 73
4
 74
0
 42
0.0000001
 43
0.0000001
 44
0.0000000001
 40
0.0
 40
0.0
 40
0.0
 40
0.0
 40
1.0
 40
1.0
 40
1.0
 40
1.0
 10
714.3265946638
 20
264.3955817015
 30
0.0
 10
714.6021429702
 20
264.4352842078
 30
0.0
 10
714.8848144108
 20
264.4448811741
 30
0.0
 10
715.1615592134
 20
264.4146244
 30
0.0
  0
SPLINE
  5
58C
100
AcDbEntity
  8
3288E5__________________
100
AcDbSpline
 62
7
  6
CONTINUOUS
 70
0
 71
3
 72
8
 73
4
 74
0
 42
0.0000001
 43
0.0000001
 44
0.0000000001
 40
0.0
 40
0.0
 40
0.0
 40
0.0
 40
1.0
 40
1.0
 40
1.0
 40
1.0
 10
714.3265946638
 20
284.0917367617
 30
0.0
 10
714.6021429702
 20
284.1314392681
 30
0.0
 10
714.8848144107
 20
284.1410362344
 30
0.0
 10
715.1615592133
 20
284.1107794603
 30
0.0
  0
SPLINE
  5
58D
100
AcDbEntity
  8
3288E5__________________
100
AcDbSpline
 62
7
  6
CONTINUOUS
 70
0
 71
3
 72
8
 73
4
 74
0
 42
0.0000001
 43
0.0000001
 44
0.0000000001
 40
0.0
 40
0.0
 40
0.0
 40
0.0
 40
1.0
 40
1.0
 40
1.0
 40
1.0
 10
714.3265946638
 20
303.787891822
 30
0.0
 10
714.6021429702
 20
303.8275943284
 30
0.0
 10
714.8848144108
 20
303.8371912946
 30
0.0
 10
715.1615592134
 20
303.8069345205
 30
0.0
  0
SPLINE
  5
58E
100
AcDbEntity
  8
3288E5__________________
100
AcDbSpline
 62
7
  6
CONTINUOUS
 70
0
 71
3
 72
9
 73
5
 74
0
 42
0.0000001
 43
0.0000001
 44
0.0000000001
 40
0.0
 40
0.0
 40
0.0
 40
0.0
 40
0.4970523212
 40
1.0
 40
1.0
 40
1.0
 40
1.0
 10
573.5279666814
 20
1100.4599429502
 30
0.0
 10
573.5283521232
 20
1100.8915413123
 30
0.0
 10
573.8297441488
 20
1101.7788195849
 30
0.0
 10
574.6091263282
 20
1102.309061608
 30
0.0
 10
575.0319193255
 20
1102.418461406
 30
0.0
  0
SPLINE
  5
58F
100
AcDbEntity
  8
3288E5__________________
100
AcDbSpline
 62
7
  6
CONTINUOUS
 70
0
 71
3
 72
8
 73
4
 74
0
 42
0.0000001
 43
0.0000001
 44
0.0000000001
 40
0.0
 40
0.0
 40
0.0
 40
0.0
 40
1.0
 40
1.0
 40
1.0
 40
1.0
 10
575.0319193255
 20
1102.418461406
 30
0.0
 10
575.3175001376
 20
1102.4923568663
 30
0.0
 10
575.6255255469
 20
1102.5055333814
 30
0.0
 10
575.916128987
 20
1102.4548719572
 30
0.0
  0
SPLINE
  5
590
100
AcDbEntity
  8
3288E5__________________
100
AcDbSpline
 62
7
  6
CONTINUOUS
 70
0
 71
3
 72
8
 73
4
 74
0
 42
0.0000001
 43
0.0000001
 44
0.0000000001
 40
0.0
 40
0.0
 40
0.0
 40
0.0
 40
1.0
 40
1.0
 40
1.0
 40
1.0
 10
575.916128987
 20
1102.4548719572
 30
0.0
 10
576.2318256792
 20
1102.3998359809
 30
0.0
 10
576.5405433193
 20
1102.2522061832
 30
0.0
 10
576.7867070323
 20
1102.0470311685
 30
0.0
  0
SPLINE
  5
591
100
AcDbEntity
  8
3288E5__________________
100
AcDbSpline
 62
7
  6
CONTINUOUS
 70
0
 71
3
 72
8
 73
4
 74
0
 42
0.0000001
 43
0.0000001
 44
0.0000000001
 40
0.0
 40
0.0
 40
0.0
 40
0.0
 40
1.0
 40
1.0
 40
1.0
 40
1.0
 10
576.7867070323
 20
1102.0470311685
 30
0.0
 10
576.8929784228
 20
1101.958455018
 30
0.0
 10
576.9914846013
 20
1101.8594080727
 30
0.0
 10
577.0783307203
 20
1101.7517182658
 30
0.0
  0
SPLINE
  5
592
100
AcDbEntity
  8
3288E5__________________
100
AcDbSpline
 62
7
  6
CONTINUOUS
 70
0
 71
3
 72
9
 73
5
 74
0
 42
0.0000001
 43
0.0000001
 44
0.0000000001
 40
0.0
 40
0.0
 40
0.0
 40
0.0
 40
0.2235231474
 40
1.0
 40
1.0
 40
1.0
 40
1.0
 10
700.2678006173
 20
1084.9694440384
 30
0.0
 10
700.3561534948
 20
1084.8550720127
 30
0.0
 10
700.7033733006
 20
1084.3051017748
 30
0.0
 10
700.8379537511
 20
1083.6462394121
 30
0.0
 10
700.8788844849
 20
1083.1458617685
 30
0.0
  0
SPLINE
  5
593
100
AcDbEntity
  8
3288E5__________________
100
AcDbSpline
 62
7
  6
CONTINUOUS
 70
0
 71
3
 72
9
 73
5
 74
0
 42
0.0000001
 43
0.0000001
 44
0.0000000001
 40
0.0
 40
0.0
 40
0.0
 40
0.0
 40
0.2207616638
 40
1.0
 40
1.0
 40
1.0
 40
1.0
 10
717.5647642471
 20
1082.622701355
 30
0.0
 10
717.6454266682
 20
1082.5056545737
 30
0.0
 10
717.9628562474
 20
1081.9415811184
 30
0.0
 10
718.0814220403
 20
1081.2868005392
 30
0.0
 10
718.1184285666
 20
1080.7864130788
 30
0.0
  0
SPLINE
  5
594
100
AcDbEntity
  8
3288E5__________________
100
AcDbSpline
 62
7
  6
CONTINUOUS
 70
0
 71
3
 72
9
 73
5
 74
0
 42
0.0000001
 43
0.0000001
 44
0.0000000001
 40
0.0
 40
0.0
 40
0.0
 40
0.0
 40
0.2192708306
 40
1.0
 40
1.0
 40
1.0
 40
1.0
 10
725.5439350291
 20
1081.3127550092
 30
0.0
 10
725.6202521677
 20
1081.1943847556
 30
0.0
 10
725.9207551188
 20
1080.6232194716
 30
0.0
 10
726.030742716
 20
1079.9708667264
 30
0.0
 10
726.0655629351
 20
1079.4706074338
 30
0.0
  0
SPLINE
  5
595
100
AcDbEntity
  8
3288E5__________________
100
AcDbSpline
 62
7
  6
CONTINUOUS
 70
0
 71
3
 72
9
 73
5
 74
0
 42
0.0000001
 43
0.0000001
 44
0.0000000001
 40
0.0
 40
0.0
 40
0.0
 40
0.0
 40
0.222186461
 40
1.0
 40
1.0
 40
1.0
 40
1.0
 10
709.1283206722
 20
1083.8431985308
 30
0.0
 10
709.2129974639
 20
1083.7274867347
 30
0.0
 10
709.5460030965
 20
1083.1705020114
 30
0.0
 10
709.6727959874
 20
1082.5135386136
 30
0.0
 10
709.7118428077
 20
1082.0131068174
 30
0.0
  0
SPLINE
  5
596
100
AcDbEntity
  8
3288E5__________________
100
AcDbSpline
 62
7
  6
CONTINUOUS
 70
0
 71
3
 72
8
 73
4
 74
0
 42
0.0000001
 43
0.0000001
 44
0.0000000001
 40
0.0
 40
0.0
 40
0.0
 40
0.0
 40
1.0
 40
1.0
 40
1.0
 40
1.0
 10
716.2266976271
 20
303.2450523752
 30
0.0
 10
715.9830085743
 20
303.4457211408
 30
0.0
 10
715.7064356262
 20
303.6139054139
 30
0.0
 10
715.4121670087
 20
303.7281782836
 30
0.0
  0
SPLINE
  5
597
100
AcDbEntity
  8
3288E5__________________
100
AcDbSpline
 62
7
  6
CONTINUOUS
 70
0
 71
3
 72
8
 73
4
 74
0
 42
0.0000001
 43
0.0000001
 44
0.0000000001
 40
0.0
 40
0.0
 40
0.0
 40
0.0
 40
1.0
 40
1.0
 40
1.0
 40
1.0
 10
716.2266976271
 20
283.5488973149
 30
0.0
 10
715.9830085743
 20
283.7495660805
 30
0.0
 10
715.7064356261
 20
283.9177503537
 30
0.0
 10
715.4121670087
 20
284.0320232234
 30
0.0
  0
SPLINE
  5
598
100
AcDbEntity
  8
3288E5__________________
100
AcDbSpline
 62
7
  6
CONTINUOUS
 70
0
 71
3
 72
8
 73
4
 74
0
 42
0.0000001
 43
0.0000001
 44
0.0000000001
 40
0.0
 40
0.0
 40
0.0
 40
0.0
 40
1.0
 40
1.0
 40
1.0
 40
1.0
 10
716.2266976271
 20
263.8527422547
 30
0.0
 10
715.9830085742
 20
264.0534110203
 30
0.0
 10
715.7064356261
 20
264.2215952934
 30
0.0
 10
715.4121670086
 20
264.3358681631
 30
0.0
  0
SPLINE
  5
599
100
AcDbEntity
  8
3288E5__________________
100
AcDbSpline
 62
7
  6
CONTINUOUS
 70
0
 71
3
 72
8
 73
4
 74
0
 42
0.0000001
 43
0.0000001
 44
0.0000000001
 40
0.0
 40
0.0
 40
0.0
 40
0.0
 40
1.0
 40
1.0
 40
1.0
 40
1.0
 10
716.2266976271
 20
244.1565871944
 30
0.0
 10
715.9830085743
 20
244.3572559601
 30
0.0
 10
715.7064356261
 20
244.5254402332
 30
0.0
 10
715.4121670087
 20
244.6397131029
 30
0.0
  0
SPLINE
  5
59A
100
AcDbEntity
  8
3288E5__________________
100
AcDbSpline
 62
7
  6
CONTINUOUS
 70
0
 71
3
 72
9
 73
5
 74
0
 42
0.0000001
 43
0.0000001
 44
0.0000000001
 40
0.0
 40
0.0
 40
0.0
 40
0.0
 40
0.2247516374
 40
1.0
 40
1.0
 40
1.0
 40
1.0
 10
691.0180690816
 20
1085.9970062474
 30
0.0
 10
691.1097530792
 20
1085.8839730422
 30
0.0
 10
691.4698210097
 20
1085.3408782895
 30
0.0
 10
691.6116617225
 20
1084.6804318487
 30
0.0
 10
691.6543101453
 20
1084.1802206881
 30
0.0
  0
SPLINE
  5
59B
100
AcDbEntity
  8
3288E5__________________
100
AcDbSpline
 62
7
  6
CONTINUOUS
 70
0
 71
3
 72
9
 73
5
 74
0
 42
0.0000001
 43
0.0000001
 44
0.0000000001
 40
0.0
 40
0.0
 40
0.0
 40
0.0
 40
0.2381579921
 40
1.0
 40
1.0
 40
1.0
 40
1.0
 10
497.2538611562
 20
1124.433877305
 30
0.0
 10
497.1286730795
 20
1124.3548122464
 30
0.0
 10
496.6462912419
 20
1123.9551412042
 30
0.0
 10
496.365162773
 20
1123.3412321093
 30
0.0
 10
496.2909879096
 20
1122.8734310626
 30
0.0
  0
SPLINE
  5
59C
100
AcDbEntity
  8
3288E5__________________
100
AcDbSpline
 62
7
  6
CONTINUOUS
 70
0
 71
3
 72
21
 73
17
 74
0
 42
0.0000001
 43
0.0000001
 44
0.0000000001
 40
0.0
 40
0.0
 40
0.0
 40
0.0
 40
0.1433498548
 40
0.3051638011
 40
0.472982371
 40
0.6338079087
 40
0.7076829398
 40
0.7752814347
 40
0.8353462753
 40
0.8868150893
 40
0.9288852547
 40
0.9611433649
 40
0.9736766718
 40
0.9840136909
 40
0.992544765
 40
1.0
 40
1.0
 40
1.0
 40
1.0
 10
713.8743565492
 20
1076.7084838052
 30
0.0
 10
699.9337157474
 20
1074.6772192168
 30
0.0
 10
670.0717173258
 20
1071.6208885143
 30
0.0
 10
623.6229226848
 20
1069.4501687687
 30
0.0
 10
575.4045309109
 20
1069.5412803545
 30
0.0
 10
535.8758465577
 20
1071.5330649426
 30
0.0
 10
506.2965648411
 20
1074.34972022
 30
0.0
 10
486.6499894212
 20
1076.900141814
 30
0.0
 10
469.2963187498
 20
1079.8909154579
 30
0.0
 10
454.5661032852
 20
1083.2516186186
 30
0.0
 10
442.7492330378
 20
1086.910623702
 30
0.0
 10
434.8877007878
 20
1090.3581860222
 30
0.0
 10
430.3642229193
 20
1093.3683667244
 30
0.0
 10
428.0924929358
 20
1095.485305652
 30
0.0
 10
426.6546780787
 20
1097.679390254
 30
0.0
 10
426.3045316249
 20
1099.2606975754
 30
0.0
 10
426.3044878534
 20
1099.9933682053
 30
0.0
  0
LINE
  5
59D
100
AcDbEntity
  8
3288E5__________________
100
AcDbLine
 62
7
  6
CONTINUOUS
 10
431.3704428459
 20
1107.7470353145
 11
431.2832550744
 21
1107.6891590263
  0
LINE
  5
59E
100
AcDbEntity
  8
3288E5__________________
100
AcDbLine
 62
7
  6
CONTINUOUS
 10
430.6193924286
 20
1107.2322959664
 11
430.5725900839
 21
1107.1989254962
  0
SPLINE
  5
59F
100
AcDbEntity
  8
3288E5__________________
100
AcDbSpline
 62
7
  6
CONTINUOUS
 70
0
 71
3
 72
9
 73
5
 74
0
 42
0.0000001
 43
0.0000001
 44
0.0000000001
 40
0.0
 40
0.0
 40
0.0
 40
0.0
 40
0.5724285225
 40
1.0
 40
1.0
 40
1.0
 40
1.0
 10
430.4499526064
 20
1107.1106985148
 30
0.0
 10
429.082228761
 20
1106.1202921021
 30
0.0
 10
426.7888530468
 20
1104.1814324762
 30
0.0
 10
425.6044301184
 20
1101.2547804435
 30
0.0
 10
425.6044880858
 20
1099.9934475059
 30
0.0
  0
SPLINE
  5
5A0
100
AcDbEntity
  8
3288E5__________________
100
AcDbSpline
 62
7
  6
CONTINUOUS
 70
0
 71
3
 72
21
 73
17
 74
0
 42
0.0000001
 43
0.0000001
 44
0.0000000001
 40
0.0
 40
0.0
 40
0.0
 40
0.0
 40
0.143353303
 40
0.3051700367
 40
0.4729918358
 40
0.6338192181
 40
0.70769432
 40
0.775292476
 40
0.8353565954
 40
0.8868242196
 40
0.9288925573
 40
0.9611480228
 40
0.9736790584
 40
0.9840150995
 40
0.9925452458
 40
1.0
 40
1.0
 40
1.0
 40
1.0
 10
714.324307876
 20
160.7441579488
 30
0.0
 10
700.3275069103
 20
158.7047103684
 30
0.0
 10
670.3453122066
 20
155.6361130697
 30
0.0
 10
623.7095818555
 20
153.4567582952
 30
0.0
 10
575.2973289901
 20
153.5483309338
 30
0.0
 10
535.6098571536
 20
155.5483265612
 30
0.0
 10
505.9119960552
 20
158.3764982149
 30
0.0
 10
486.1868637797
 20
160.9372821698
 30
0.0
 10
468.7639608513
 20
163.9401906501
 30
0.0
 10
453.9751424272
 20
167.3144479923
 30
0.0
 10
442.11164038
 20
170.9883315228
 30
0.0
 10
434.2192282299
 20
174.4495514777
 30
0.0
 10
429.6786218861
 20
177.4722740274
 30
0.0
 10
427.3983830307
 20
179.5976069435
 30
0.0
 10
425.9550517797
 20
181.8005656961
 30
0.0
 10
425.6047064788
 20
183.3882684585
 30
0.0
 10
425.6047035304
 20
184.1238255327
 30
0.0
  0
SPLINE
  5
5A1
100
AcDbEntity
  8
3288E5__________________
100
AcDbSpline
 62
7
  6
CONTINUOUS
 70
0
 71
3
 72
8
 73
4
 74
0
 42
0.0000001
 43
0.0000001
 44
0.0000000001
 40
0.0
 40
0.0
 40
0.0
 40
0.0
 40
1.0
 40
1.0
 40
1.0
 40
1.0
 10
714.324307876
 20
273.7506665799
 30
0.0
 10
714.0524013904
 20
273.7108197997
 30
0.0
 10
713.7734437717
 20
273.701733494
 30
0.0
 10
713.5001264092
 20
273.7303433194
 30
0.0
  0
SPLINE
  5
5A2
100
AcDbEntity
  8
3288E5__________________
100
AcDbSpline
 62
7
  6
CONTINUOUS
 70
0
 71
3
 72
8
 73
4
 74
0
 42
0.0000001
 43
0.0000001
 44
0.0000000001
 40
0.0
 40
0.0
 40
0.0
 40
0.0
 40
1.0
 40
1.0
 40
1.0
 40
1.0
 10
714.324307876
 20
254.0545115197
 30
0.0
 10
714.0524013904
 20
254.0146647394
 30
0.0
 10
713.7734437717
 20
254.0055784337
 30
0.0
 10
713.5001264092
 20
254.0341882591
 30
0.0
  0
SPLINE
  5
5A3
100
AcDbEntity
  8
3288E5__________________
100
AcDbSpline
 62
7
  6
CONTINUOUS
 70
0
 71
3
 72
8
 73
4
 74
0
 42
0.0000001
 43
0.0000001
 44
0.0000000001
 40
0.0
 40
0.0
 40
0.0
 40
0.0
 40
1.0
 40
1.0
 40
1.0
 40
1.0
 10
714.324307876
 20
234.3583564595
 30
0.0
 10
714.0524013904
 20
234.3185096791
 30
0.0
 10
713.7734437718
 20
234.3094233735
 30
0.0
 10
713.5001264092
 20
234.3380331989
 30
0.0
  0
SPLINE
  5
5A4
100
AcDbEntity
  8
3288E5__________________
100
AcDbSpline
 62
7
  6
CONTINUOUS
 70
0
 71
3
 72
9
 73
5
 74
0
 42
0.0000001
 43
0.0000001
 44
0.0000000001
 40
0.0
 40
0.0
 40
0.0
 40
0.0
 40
0.2686062748
 40
1.0
 40
1.0
 40
1.0
 40
1.0
 10
493.1888820515
 20
1035.8362145617
 30
0.0
 10
493.2480385582
 20
1035.9006992237
 30
0.0
 10
493.4813393704
 20
1036.1279061269
 30
0.0
 10
493.7839120769
 20
1036.2879810949
 30
0.0
 10
494.0163727301
 20
1036.3403165842
 30
0.0
  0
SPLINE
  5
5A5
100
AcDbEntity
  8
3288E5__________________
100
AcDbSpline
 62
7
  6
CONTINUOUS
 70
0
 71
3
 72
9
 73
5
 74
0
 42
0.0000001
 43
0.0000001
 44
0.0000000001
 40
0.0
 40
0.0
 40
0.0
 40
0.0
 40
0.2741874927
 40
1.0
 40
1.0
 40
1.0
 40
1.0
 10
492.6028957243
 20
1034.1654416647
 30
0.0
 10
492.6101726579
 20
1034.2563249026
 30
0.0
 10
492.6446076163
 20
1034.5868963655
 30
0.0
 10
492.7131152467
 20
1034.9154695567
 30
0.0
 10
492.7923965493
 20
1035.1434269304
 30
0.0
  0
SPLINE
  5
5A6
100
AcDbEntity
  8
3288E5__________________
100
AcDbSpline
 62
7
  6
CONTINUOUS
 70
0
 71
3
 72
8
 73
4
 74
0
 42
0.0000001
 43
0.0000001
 44
0.0000000001
 40
0.0
 40
0.0
 40
0.0
 40
0.0
 40
1.0
 40
1.0
 40
1.0
 40
1.0
 10
492.7923965493
 20
1035.1434269304
 30
0.0
 10
492.8527565761
 20
1035.3169799971
 30
0.0
 10
492.9315295495
 20
1035.4863650481
 30
0.0
 10
493.0338885927
 20
1035.6389646093
 30
0.0
  0
SPLINE
  5
5A7
100
AcDbEntity
  8
3288E5__________________
100
AcDbSpline
 62
7
  6
CONTINUOUS
 70
0
 71
3
 72
8
 73
4
 74
0
 42
0.0000001
 43
0.0000001
 44
0.0000000001
 40
0.0
 40
0.0
 40
0.0
 40
0.0
 40
1.0
 40
1.0
 40
1.0
 40
1.0
 10
494.9513642774
 20
982.1862160721
 30
0.0
 10
494.5434548567
 20
982.1510189446
 30
0.0
 10
494.1038290573
 20
982.2810145713
 30
0.0
 10
493.7679494144
 20
982.5151380402
 30
0.0
  0
SPLINE
  5
5A8
100
AcDbEntity
  8
3288E5__________________
100
AcDbSpline
 62
7
  6
CONTINUOUS
 70
0
 71
3
 72
8
 73
4
 74
0
 42
0.0000001
 43
0.0000001
 44
0.0000000001
 40
0.0
 40
0.0
 40
0.0
 40
0.0
 40
1.0
 40
1.0
 40
1.0
 40
1.0
 10
493.7679494144
 20
982.5151380402
 30
0.0
 10
493.4852827511
 20
982.7121696292
 30
0.0
 10
493.2444489267
 20
982.9797359879
 30
0.0
 10
493.067733173
 20
983.2755288748
 30
0.0
  0
SPLINE
  5
5A9
100
AcDbEntity
  8
3288E5__________________
100
AcDbSpline
 62
7
  6
CONTINUOUS
 70
0
 71
3
 72
9
 73
5
 74
0
 42
0.0000001
 43
0.0000001
 44
0.0000000001
 40
0.0
 40
0.0
 40
0.0
 40
0.0
 40
0.2176547829
 40
1.0
 40
1.0
 40
1.0
 40
1.0
 10
493.067733173
 20
983.2755288748
 30
0.0
 10
493.0036467682
 20
983.3827988962
 30
0.0
 10
492.7493700706
 20
983.8999288315
 30
0.0
 10
492.644278544
 20
984.4778198427
 30
0.0
 10
492.6028957243
 20
984.925054014
 30
0.0
  0
SPLINE
  5
5AA
100
AcDbEntity
  8
3288E5__________________
100
AcDbSpline
 62
7
  6
CONTINUOUS
 70
0
 71
3
 72
9
 73
5
 74
0
 42
0.0000001
 43
0.0000001
 44
0.0000000001
 40
0.0
 40
0.0
 40
0.0
 40
0.0
 40
0.3227552689
 40
1.0
 40
1.0
 40
1.0
 40
1.0
 10
439.8864485905
 20
1047.8393278569
 30
0.0
 10
439.9195073022
 20
1047.9068482452
 30
0.0
 10
440.0275624144
 20
1048.107372271
 30
0.0
 10
440.2307283251
 20
1048.2924370681
 30
0.0
 10
440.3880231437
 20
1048.3044094714
 30
0.0
  0
SPLINE
  5
5AB
100
AcDbEntity
  8
3288E5__________________
100
AcDbSpline
 62
7
  6
CONTINUOUS
 70
0
 71
3
 72
8
 73
4
 74
0
 42
0.0000001
 43
0.0000001
 44
0.0000000001
 40
0.0
 40
0.0
 40
0.0
 40
0.0
 40
1.0
 40
1.0
 40
1.0
 40
1.0
 10
714.324307876
 20
293.4468216402
 30
0.0
 10
714.0524013904
 20
293.4069748599
 30
0.0
 10
713.7734437717
 20
293.3978885542
 30
0.0
 10
713.5001264092
 20
293.4264983796
 30
0.0
  0
SPLINE
  5
5AC
100
AcDbEntity
  8
3288E5__________________
100
AcDbSpline
 62
7
  6
CONTINUOUS
 70
0
 71
3
 72
9
 73
5
 74
0
 42
0.0000001
 43
0.0000001
 44
0.0000000001
 40
0.0
 40
0.0
 40
0.0
 40
0.0
 40
0.2776427472
 40
1.0
 40
1.0
 40
1.0
 40
1.0
 10
469.1807148465
 20
1039.7754074909
 30
0.0
 10
469.2277627466
 20
1039.8350431648
 30
0.0
 10
469.4079759174
 20
1040.0401279045
 30
0.0
 10
469.6520306039
 20
1040.1962922983
 30
0.0
 10
469.84303762
 20
1040.2470221536
 30
0.0
  0
SPLINE
  5
5AD
100
AcDbEntity
  8
3288E5__________________
100
AcDbSpline
 62
7
  6
CONTINUOUS
 70
0
 71
3
 72
9
 73
5
 74
0
 42
0.0000001
 43
0.0000001
 44
0.0000000001
 40
0.0
 40
0.0
 40
0.0
 40
0.0
 40
0.2760457943
 40
1.0
 40
1.0
 40
1.0
 40
1.0
 10
468.691066644
 20
1038.1222643953
 30
0.0
 10
468.6971336753
 20
1038.2127962239
 30
0.0
 10
468.7257175799
 20
1038.5401062101
 30
0.0
 10
468.7822832778
 20
1038.8662275035
 30
0.0
 10
468.8493199999
 20
1039.094549921
 30
0.0
  0
SPLINE
  5
5AE
100
AcDbEntity
  8
3288E5__________________
100
AcDbSpline
 62
7
  6
CONTINUOUS
 70
0
 71
3
 72
8
 73
4
 74
0
 42
0.0000001
 43
0.0000001
 44
0.0000000001
 40
0.0
 40
0.0
 40
0.0
 40
0.0
 40
1.0
 40
1.0
 40
1.0
 40
1.0
 10
468.8493199999
 20
1039.094549921
 30
0.0
 10
468.8989329146
 20
1039.2635280615
 30
0.0
 10
468.9636543354
 20
1039.4299702371
 30
0.0
 10
469.0511267983
 20
1039.5828218694
 30
0.0
  0
SPLINE
  5
5AF
100
AcDbEntity
  8
3288E5__________________
100
AcDbSpline
 62
7
  6
CONTINUOUS
 70
0
 71
3
 72
8
 73
4
 74
0
 42
0.0000001
 43
0.0000001
 44
0.0000000001
 40
0.0
 40
0.0
 40
0.0
 40
0.0
 40
1.0
 40
1.0
 40
1.0
 40
1.0
 10
469.0511267983
 20
1039.5828218694
 30
0.0
 10
469.0895582538
 20
1039.6499779835
 30
0.0
 10
469.1327903954
 20
1039.7146607427
 30
0.0
 10
469.1807148465
 20
1039.7754074909
 30
0.0
  0
SPLINE
  5
5B0
100
AcDbEntity
  8
3288E5__________________
100
AcDbSpline
 62
7
  6
CONTINUOUS
 70
0
 71
3
 72
9
 73
5
 74
0
 42
0.0000001
 43
0.0000001
 44
0.0000000001
 40
0.0
 40
0.0
 40
0.0
 40
0.0
 40
0.2787452333
 40
1.0
 40
1.0
 40
1.0
 40
1.0
 10
439.5938359006
 20
1046.2076670356
 30
0.0
 10
439.5974451184
 20
1046.2977524896
 30
0.0
 10
439.6143530726
 20
1046.620687022
 30
0.0
 10
439.6474341747
 20
1046.943324796
 30
0.0
 10
439.6882244137
 20
1047.1730145667
 30
0.0
  0
SPLINE
  5
5B1
100
AcDbEntity
  8
3288E5__________________
100
AcDbSpline
 62
7
  6
CONTINUOUS
 70
0
 71
3
 72
8
 73
4
 74
0
 42
0.0000001
 43
0.0000001
 44
0.0000000001
 40
0.0
 40
0.0
 40
0.0
 40
0.0
 40
1.0
 40
1.0
 40
1.0
 40
1.0
 10
439.6882244137
 20
1047.1730145667
 30
0.0
 10
439.717037862
 20
1047.335263048
 30
0.0
 10
439.7542437578
 20
1047.4969577092
 30
0.0
 10
439.8088569886
 20
1047.6524317569
 30
0.0
  0
SPLINE
  5
5B2
100
AcDbEntity
  8
3288E5__________________
100
AcDbSpline
 62
7
  6
CONTINUOUS
 70
0
 71
3
 72
8
 73
4
 74
0
 42
0.0000001
 43
0.0000001
 44
0.0000000001
 40
0.0
 40
0.0
 40
0.0
 40
0.0
 40
1.0
 40
1.0
 40
1.0
 40
1.0
 10
439.8088569886
 20
1047.6524317569
 30
0.0
 10
439.8312124489
 20
1047.7160737324
 30
0.0
 10
439.8567867335
 20
1047.7787453356
 30
0.0
 10
439.8864485905
 20
1047.8393278569
 30
0.0
  0
SPLINE
  5
5B3
100
AcDbEntity
  8
3288E5__________________
100
AcDbSpline
 62
7
  6
CONTINUOUS
 70
0
 71
3
 72
8
 73
4
 74
0
 42
0.0000001
 43
0.0000001
 44
0.0000000001
 40
0.0
 40
0.0
 40
0.0
 40
0.0
 40
1.0
 40
1.0
 40
1.0
 40
1.0
 10
457.0308982414
 20
989.0774198599
 30
0.0
 10
456.955986227
 20
989.0683797219
 30
0.0
 10
456.879137553
 20
989.0706818593
 30
0.0
 10
456.8045847193
 20
989.0823183961
 30
0.0
  0
SPLINE
  5
5B4
100
AcDbEntity
  8
3288E5__________________
100
AcDbSpline
 62
7
  6
CONTINUOUS
 70
0
 71
3
 72
9
 73
5
 74
0
 42
0.0000001
 43
0.0000001
 44
0.0000000001
 40
0.0
 40
0.0
 40
0.0
 40
0.0
 40
0.728048752
 40
1.0
 40
1.0
 40
1.0
 40
1.0
 10
456.8045847193
 20
989.0823183961
 30
0.0
 10
456.6186924458
 20
989.1113332861
 30
0.0
 10
456.3724869106
 20
989.2310512652
 30
0.0
 10
456.1835061617
 20
989.4068721728
 30
0.0
 10
456.1349073583
 20
989.4576376992
 30
0.0
  0
SPLINE
  5
5B5
100
AcDbEntity
  8
3288E5__________________
100
AcDbSpline
 62
7
  6
CONTINUOUS
 70
0
 71
3
 72
9
 73
5
 74
0
 42
0.0000001
 43
0.0000001
 44
0.0000000001
 40
0.0
 40
0.0
 40
0.0
 40
0.0
 40
0.2229909191
 40
1.0
 40
1.0
 40
1.0
 40
1.0
 10
456.1349073583
 20
989.4576376992
 30
0.0
 10
456.0168342581
 20
989.5809749556
 30
0.0
 10
455.5652786954
 20
990.2093129909
 30
0.0
 10
455.3971127418
 20
990.9923158321
 30
0.0
 10
455.3357885451
 20
991.5841004583
 30
0.0
  0
SPLINE
  5
5B6
100
AcDbEntity
  8
3288E5__________________
100
AcDbSpline
 62
7
  6
CONTINUOUS
 70
0
 71
3
 72
9
 73
5
 74
0
 42
0.0000001
 43
0.0000001
 44
0.0000000001
 40
0.0
 40
0.0
 40
0.0
 40
0.0
 40
0.2874218696
 40
1.0
 40
1.0
 40
1.0
 40
1.0
 10
455.723033242
 20
1042.8059272346
 30
0.0
 10
455.7625928238
 20
1042.864026232
 30
0.0
 10
455.9095219618
 20
1043.0581342988
 30
0.0
 10
456.1186755799
 20
1043.2158895325
 30
0.0
 10
456.2861118698
 20
1043.264174237
 30
0.0
  0
SPLINE
  5
5B7
100
AcDbEntity
  8
3288E5__________________
100
AcDbSpline
 62
7
  6
CONTINUOUS
 70
0
 71
3
 72
9
 73
5
 74
0
 42
0.0000001
 43
0.0000001
 44
0.0000000001
 40
0.0
 40
0.0
 40
0.0
 40
0.0
 40
0.2772241056
 40
1.0
 40
1.0
 40
1.0
 40
1.0
 10
455.3074553726
 20
1041.1626590702
 30
0.0
 10
455.3125963223
 20
1041.2529881781
 30
0.0
 10
455.3367548924
 20
1041.5783413892
 30
0.0
 10
455.3843525085
 20
1041.9029435254
 30
0.0
 10
455.4416949804
 20
1042.1317538483
 30
0.0
  0
SPLINE
  5
5B8
100
AcDbEntity
  8
3288E5__________________
100
AcDbSpline
 62
7
  6
CONTINUOUS
 70
0
 71
3
 72
8
 73
4
 74
0
 42
0.0000001
 43
0.0000001
 44
0.0000000001
 40
0.0
 40
0.0
 40
0.0
 40
0.0
 40
1.0
 40
1.0
 40
1.0
 40
1.0
 10
455.4416949804
 20
1042.1317538483
 30
0.0
 10
455.48331323
 20
1042.2978207235
 30
0.0
 10
455.5374623483
 20
1042.4623124901
 30
0.0
 10
455.612987445
 20
1042.6159557311
 30
0.0
  0
SPLINE
  5
5B9
100
AcDbEntity
  8
3288E5__________________
100
AcDbSpline
 62
7
  6
CONTINUOUS
 70
0
 71
3
 72
8
 73
4
 74
0
 42
0.0000001
 43
0.0000001
 44
0.0000000001
 40
0.0
 40
0.0
 40
0.0
 40
0.0
 40
1.0
 40
1.0
 40
1.0
 40
1.0
 10
455.612987445
 20
1042.6159557311
 30
0.0
 10
455.6452709105
 20
1042.6816310692
 30
0.0
 10
455.6818455796
 20
1042.745437164
 30
0.0
 10
455.723033242
 20
1042.8059272346
 30
0.0
  0
SPLINE
  5
5BA
100
AcDbEntity
  8
3288E5__________________
100
AcDbSpline
 62
7
  6
CONTINUOUS
 70
0
 71
3
 72
8
 73
4
 74
0
 42
0.0000001
 43
0.0000001
 44
0.0000000001
 40
0.0
 40
0.0
 40
0.0
 40
0.0
 40
1.0
 40
1.0
 40
1.0
 40
1.0
 10
511.3750960044
 20
1033.6746924237
 30
0.0
 10
511.5559468655
 20
1033.859360828
 30
0.0
 10
511.7743124162
 20
1034.0169544321
 30
0.0
 10
512.0135933053
 20
1034.114699558
 30
0.0
  0
SPLINE
  5
5BB
100
AcDbEntity
  8
3288E5__________________
100
AcDbSpline
 62
7
  6
CONTINUOUS
 70
0
 71
3
 72
9
 73
5
 74
0
 42
0.0000001
 43
0.0000001
 44
0.0000000001
 40
0.0
 40
0.0
 40
0.0
 40
0.0
 40
0.2729732931
 40
1.0
 40
1.0
 40
1.0
 40
1.0
 10
510.7362018229
 20
1031.9905575488
 30
0.0
 10
510.7441468778
 20
1032.0816982501
 30
0.0
 10
510.7818595154
 20
1032.4145454545
 30
0.0
 10
510.857067528
 20
1032.7448120412
 30
0.0
 10
510.9428745363
 20
1032.9728645928
 30
0.0
  0
SPLINE
  5
5BC
100
AcDbEntity
  8
3288E5__________________
100
AcDbSpline
 62
7
  6
CONTINUOUS
 70
0
 71
3
 72
8
 73
4
 74
0
 42
0.0000001
 43
0.0000001
 44
0.0000000001
 40
0.0
 40
0.0
 40
0.0
 40
0.0
 40
1.0
 40
1.0
 40
1.0
 40
1.0
 10
510.9428745363
 20
1032.9728645928
 30
0.0
 10
511.0093156592
 20
1033.1494476937
 30
0.0
 10
511.0959023336
 20
1033.3208093932
 30
0.0
 10
511.2061592687
 20
1033.4739087812
 30
0.0
  0
SPLINE
  5
5BD
100
AcDbEntity
  8
3288E5__________________
100
AcDbSpline
 62
7
  6
CONTINUOUS
 70
0
 71
3
 72
9
 73
5
 74
0
 42
0.0000001
 43
0.0000001
 44
0.0000000001
 40
0.0
 40
0.0
 40
0.0
 40
0.0
 40
0.3101644998
 40
1.0
 40
1.0
 40
1.0
 40
1.0
 10
444.5552588532
 20
1046.1050811801
 30
0.0
 10
444.5930601881
 20
1046.1729611132
 30
0.0
 10
444.7227307877
 20
1046.38308337
 30
0.0
 10
444.9499891024
 20
1046.5601037139
 30
0.0
 10
445.1221043
 20
1046.5755031163
 30
0.0
  0
SPLINE
  5
5BE
100
AcDbEntity
  8
3288E5__________________
100
AcDbSpline
 62
7
  6
CONTINUOUS
 70
0
 71
3
 72
8
 73
4
 74
0
 42
0.0000001
 43
0.0000001
 44
0.0000000001
 40
0.0
 40
0.0
 40
0.0
 40
0.0
 40
1.0
 40
1.0
 40
1.0
 40
1.0
 10
577.0783307203
 20
1101.7517182658
 30
0.0
 10
577.2446124028
 20
1101.5455277934
 30
0.0
 10
577.3686447162
 20
1101.2968801618
 30
0.0
 10
577.4303352636
 20
1101.0392789482
 30
0.0
  0
SPLINE
  5
5BF
100
AcDbEntity
  8
3288E5__________________
100
AcDbSpline
 62
7
  6
CONTINUOUS
 70
0
 71
3
 72
8
 73
4
 74
0
 42
0.0000001
 43
0.0000001
 44
0.0000000001
 40
0.0
 40
0.0
 40
0.0
 40
0.0
 40
1.0
 40
1.0
 40
1.0
 40
1.0
 10
716.3480265016
 20
235.3501107229
 30
0.0
 10
716.207415758
 20
235.2203947336
 30
0.0
 10
716.0583517431
 20
235.0991212577
 30
0.0
 10
715.9016725376
 20
234.9893522018
 30
0.0
  0
SPLINE
  5
5C0
100
AcDbEntity
  8
3288E5__________________
100
AcDbSpline
 62
7
  6
CONTINUOUS
 70
0
 71
3
 72
8
 73
4
 74
0
 42
0.0000001
 43
0.0000001
 44
0.0000000001
 40
0.0
 40
0.0
 40
0.0
 40
0.0
 40
1.0
 40
1.0
 40
1.0
 40
1.0
 10
715.9016725376
 20
234.9893522018
 30
0.0
 10
715.4378738378
 20
234.6644160033
 30
0.0
 10
714.8846207001
 20
234.4404680059
 30
0.0
 10
714.324307876
 20
234.3583564595
 30
0.0
  0
SPLINE
  5
5C1
100
AcDbEntity
  8
3288E5__________________
100
AcDbSpline
 62
7
  6
CONTINUOUS
 70
0
 71
3
 72
8
 73
4
 74
0
 42
0.0000001
 43
0.0000001
 44
0.0000000001
 40
0.0
 40
0.0
 40
0.0
 40
0.0
 40
1.0
 40
1.0
 40
1.0
 40
1.0
 10
716.3480265027
 20
255.046265784
 30
0.0
 10
716.2074157587
 20
254.9165497943
 30
0.0
 10
716.0583517433
 20
254.795276318
 30
0.0
 10
715.9016725373
 20
254.6855072617
 30
0.0
  0
SPLINE
  5
5C2
100
AcDbEntity
  8
3288E5__________________
100
AcDbSpline
 62
7
  6
CONTINUOUS
 70
0
 71
3
 72
8
 73
4
 74
0
 42
0.0000001
 43
0.0000001
 44
0.0000000001
 40
0.0
 40
0.0
 40
0.0
 40
0.0
 40
1.0
 40
1.0
 40
1.0
 40
1.0
 10
715.9016725373
 20
254.6855072617
 30
0.0
 10
715.4378738377
 20
254.3605710634
 30
0.0
 10
714.8846207
 20
254.136623066
 30
0.0
 10
714.324307876
 20
254.0545115197
 30
0.0
  0
SPLINE
  5
5C3
100
AcDbEntity
  8
3288E5__________________
100
AcDbSpline
 62
7
  6
CONTINUOUS
 70
0
 71
3
 72
9
 73
5
 74
0
 42
0.0000001
 43
0.0000001
 44
0.0000000001
 40
0.0
 40
0.0
 40
0.0
 40
0.0
 40
0.2782812648
 40
1.0
 40
1.0
 40
1.0
 40
1.0
 10
444.2202858628
 20
1044.4700006258
 30
0.0
 10
444.2244220771
 20
1044.5601584553
 30
0.0
 10
444.2438168363
 20
1044.8838187258
 30
0.0
 10
444.2818501802
 20
1045.2070581583
 30
0.0
 10
444.3284009391
 20
1045.4364516049
 30
0.0
  0
SPLINE
  5
5C4
100
AcDbEntity
  8
3288E5__________________
100
AcDbSpline
 62
7
  6
CONTINUOUS
 70
0
 71
3
 72
8
 73
4
 74
0
 42
0.0000001
 43
0.0000001
 44
0.0000000001
 40
0.0
 40
0.0
 40
0.0
 40
0.0
 40
1.0
 40
1.0
 40
1.0
 40
1.0
 10
444.3284009391
 20
1045.4364516049
 30
0.0
 10
444.3615643279
 20
1045.5998745917
 30
0.0
 10
444.4045123468
 20
1045.7624683777
 30
0.0
 10
444.4664856674
 20
1045.9172785534
 30
0.0
  0
SPLINE
  5
5C5
100
AcDbEntity
  8
3288E5__________________
100
AcDbSpline
 62
7
  6
CONTINUOUS
 70
0
 71
3
 72
8
 73
4
 74
0
 42
0.0000001
 43
0.0000001
 44
0.0000000001
 40
0.0
 40
0.0
 40
0.0
 40
0.0
 40
1.0
 40
1.0
 40
1.0
 40
1.0
 10
444.4664856674
 20
1045.9172785534
 30
0.0
 10
444.4922192529
 20
1045.9815613905
 30
0.0
 10
444.5215703528
 20
1046.044586672
 30
0.0
 10
444.5552588532
 20
1046.1050811801
 30
0.0
  0
SPLINE
  5
5C6
100
AcDbEntity
  8
3288E5__________________
100
AcDbSpline
 62
7
  6
CONTINUOUS
 70
0
 71
3
 72
8
 73
4
 74
0
 42
0.0000001
 43
0.0000001
 44
0.0000000001
 40
0.0
 40
0.0
 40
0.0
 40
0.0
 40
1.0
 40
1.0
 40
1.0
 40
1.0
 10
716.3480265032
 20
274.7424208447
 30
0.0
 10
716.207415759
 20
274.6127048548
 30
0.0
 10
716.0583517434
 20
274.4914313782
 30
0.0
 10
715.9016725371
 20
274.3816623218
 30
0.0
  0
SPLINE
  5
5C7
100
AcDbEntity
  8
3288E5__________________
100
AcDbSpline
 62
7
  6
CONTINUOUS
 70
0
 71
3
 72
8
 73
4
 74
0
 42
0.0000001
 43
0.0000001
 44
0.0000000001
 40
0.0
 40
0.0
 40
0.0
 40
0.0
 40
1.0
 40
1.0
 40
1.0
 40
1.0
 10
715.9016725371
 20
274.3816623218
 30
0.0
 10
715.4378738375
 20
274.0567261235
 30
0.0
 10
714.8846206999
 20
273.8327781262
 30
0.0
 10
714.324307876
 20
273.7506665799
 30
0.0
  0
SPLINE
  5
5C8
100
AcDbEntity
  8
3288E5__________________
100
AcDbSpline
 62
7
  6
CONTINUOUS
 70
0
 71
3
 72
8
 73
4
 74
0
 42
0.0000001
 43
0.0000001
 44
0.0000000001
 40
0.0
 40
0.0
 40
0.0
 40
0.0
 40
1.0
 40
1.0
 40
1.0
 40
1.0
 10
716.3480265028
 20
294.4385759046
 30
0.0
 10
716.2074157588
 20
294.3088599149
 30
0.0
 10
716.0583517434
 20
294.1875864385
 30
0.0
 10
715.9016725374
 20
294.0778173822
 30
0.0
  0
SPLINE
  5
5C9
100
AcDbEntity
  8
3288E5__________________
100
AcDbSpline
 62
7
  6
CONTINUOUS
 70
0
 71
3
 72
8
 73
4
 74
0
 42
0.0000001
 43
0.0000001
 44
0.0000000001
 40
0.0
 40
0.0
 40
0.0
 40
0.0
 40
1.0
 40
1.0
 40
1.0
 40
1.0
 10
715.9016725374
 20
294.0778173822
 30
0.0
 10
715.4378738377
 20
293.7528811839
 30
0.0
 10
714.8846207
 20
293.5289331865
 30
0.0
 10
714.324307876
 20
293.4468216402
 30
0.0
  0
SPLINE
  5
5CA
100
AcDbEntity
  8
3288E5__________________
100
AcDbSpline
 62
7
  6
CONTINUOUS
 70
0
 71
3
 72
9
 73
5
 74
0
 42
0.0000001
 43
0.0000001
 44
0.0000000001
 40
0.0
 40
0.0
 40
0.0
 40
0.0
 40
0.7334038808
 40
1.0
 40
1.0
 40
1.0
 40
1.0
 10
470.6579094987
 20
986.0723102407
 30
0.0
 10
470.3963224835
 20
986.0548313177
 30
0.0
 10
470.0239292372
 20
986.1611316026
 30
0.0
 10
469.7372714625
 20
986.374416568
 30
0.0
 10
469.6653111169
 20
986.436897373
 30
0.0
  0
SPLINE
  5
5CB
100
AcDbEntity
  8
3288E5__________________
100
AcDbSpline
 62
7
  6
CONTINUOUS
 70
0
 71
3
 72
9
 73
5
 74
0
 42
0.0000001
 43
0.0000001
 44
0.0000000001
 40
0.0
 40
0.0
 40
0.0
 40
0.0
 40
0.2345249135
 40
1.0
 40
1.0
 40
1.0
 40
1.0
 10
469.6653111169
 20
986.436897373
 30
0.0
 10
469.5449168079
 20
986.5414317979
 30
0.0
 10
469.0874497126
 20
987.0523064303
 30
0.0
 10
468.8573218725
 20
987.7292399445
 30
0.0
 10
468.7688075757
 20
988.2420712217
 30
0.0
  0
SPLINE
  5
5CC
100
AcDbEntity
  8
3288E5__________________
100
AcDbSpline
 62
7
  6
CONTINUOUS
 70
0
 71
3
 72
8
 73
4
 74
0
 42
0.0000001
 43
0.0000001
 44
0.0000000001
 40
0.0
 40
0.0
 40
0.0
 40
0.0
 40
1.0
 40
1.0
 40
1.0
 40
1.0
 10
468.7688075757
 20
988.2420712217
 30
0.0
 10
468.7322671392
 20
988.4537780232
 30
0.0
 10
468.7075697444
 20
988.6676744549
 30
0.0
 10
468.691066644
 20
988.8818767447
 30
0.0
  0
SPLINE
  5
5CD
100
AcDbEntity
  8
3288E5__________________
100
AcDbSpline
 62
7
  6
CONTINUOUS
 70
0
 71
3
 72
21
 73
17
 74
0
 42
0.0000001
 43
0.0000001
 44
0.0000000001
 40
0.0
 40
0.0
 40
0.0
 40
0.0
 40
0.0074553336
 40
0.0159865197
 40
0.0263236793
 40
0.0388572585
 40
0.071115955
 40
0.1131867314
 40
0.1646560379
 40
0.224721134
 40
0.2923195272
 40
0.3661940104
 40
0.527017505
 40
0.6948344287
 40
0.8566483175
 40
1.0
 40
1.0
 40
1.0
 40
1.0
 10
425.6044880858
 20
1099.9934475059
 30
0.0
 10
425.6045218924
 20
1099.2578371235
 30
0.0
 10
425.9560664141
 20
1097.6701812979
 30
0.0
 10
427.3996419552
 20
1095.4672884271
 30
0.0
 10
429.6804895428
 20
1093.3418399957
 30
0.0
 10
434.2221640942
 20
1090.3196015096
 30
0.0
 10
442.1152689498
 20
1086.858203017
 30
0.0
 10
453.9795683111
 20
1083.1845499372
 30
0.0
 10
468.7688271552
 20
1079.8104039834
 30
0.0
 10
486.1919651336
 20
1076.8076883304
 30
0.0
 10
505.9170738306
 20
1074.2470985633
 30
0.0
 10
535.6143844058
 20
1071.4192353833
 30
0.0
 10
575.3007296602
 20
1069.4195112882
 30
0.0
 10
623.7115816935
 20
1069.3280244593
 30
0.0
 10
670.3461427395
 20
1071.5074002026
 30
0.0
 10
700.3277385976
 20
1074.5759544284
 30
0.0
 10
714.324307876
 20
1076.6153682501
 30
0.0
  0
SPLINE
  5
5CE
100
AcDbEntity
  8
3288E5__________________
100
AcDbSpline
 62
7
  6
CONTINUOUS
 70
0
 71
3
 72
8
 73
4
 74
0
 42
0.0000001
 43
0.0000001
 44
0.0000000001
 40
0.0
 40
0.0
 40
0.0
 40
0.0
 40
1.0
 40
1.0
 40
1.0
 40
1.0
 10
577.4841926703
 20
1100.5629953559
 30
0.0
 10
577.484020038
 20
1100.4152901142
 30
0.0
 10
577.4692995821
 20
1100.2666330485
 30
0.0
 10
577.4378974554
 20
1100.122304345
 30
0.0
  0
SPLINE
  5
5CF
100
AcDbEntity
  8
3288E5__________________
100
AcDbSpline
 62
7
  6
CONTINUOUS
 70
0
 71
3
 72
8
 73
4
 74
0
 42
0.0000001
 43
0.0000001
 44
0.0000000001
 40
0.0
 40
0.0
 40
0.0
 40
0.0
 40
1.0
 40
1.0
 40
1.0
 40
1.0
 10
577.3006120362
 20
1099.7179141301
 30
0.0
 10
577.1130729915
 20
1099.3209335086
 30
0.0
 10
576.7773233109
 20
1098.9717648554
 30
0.0
 10
576.3886736504
 20
1098.7675200305
 30
0.0
  0
SPLINE
  5
5D0
100
AcDbEntity
  8
3288E5__________________
100
AcDbSpline
 62
7
  6
CONTINUOUS
 70
0
 71
3
 72
8
 73
4
 74
0
 42
0.0000001
 43
0.0000001
 44
0.0000000001
 40
0.0
 40
0.0
 40
0.0
 40
0.0
 40
1.0
 40
1.0
 40
1.0
 40
1.0
 10
576.3886736504
 20
1098.7675200305
 30
0.0
 10
576.0009743464
 20
1098.563774641
 30
0.0
 10
575.5207334246
 20
1098.4972132923
 30
0.0
 10
575.0892889076
 20
1098.572569532
 30
0.0
  0
SPLINE
  5
5D1
100
AcDbEntity
  8
3288E5__________________
100
AcDbSpline
 62
7
  6
CONTINUOUS
 70
0
 71
3
 72
8
 73
4
 74
0
 42
0.0000001
 43
0.0000001
 44
0.0000000001
 40
0.0
 40
0.0
 40
0.0
 40
0.0
 40
1.0
 40
1.0
 40
1.0
 40
1.0
 10
575.0892889076
 20
1098.572569532
 30
0.0
 10
574.6830932841
 20
1098.6435157916
 30
0.0
 10
574.2897303159
 20
1098.8758919032
 30
0.0
 10
574.0120880294
 20
1099.1807574753
 30
0.0
  0
SPLINE
  5
5D2
100
AcDbEntity
  8
3288E5__________________
100
AcDbSpline
 62
7
  6
CONTINUOUS
 70
0
 71
3
 72
9
 73
5
 74
0
 42
0.0000001
 43
0.0000001
 44
0.0000000001
 40
0.0
 40
0.0
 40
0.0
 40
0.0
 40
0.2949745706
 40
1.0
 40
1.0
 40
1.0
 40
1.0
 10
449.8410533761
 20
1044.4250774403
 30
0.0
 10
449.8777971789
 20
1044.4842694554
 30
0.0
 10
450.0110587843
 20
1044.677271882
 30
0.0
 10
450.2098328
 20
1044.8395113108
 30
0.0
 10
450.3705449555
 20
1044.8830985975
 30
0.0
  0
SPLINE
  5
5D3
100
AcDbEntity
  8
3288E5__________________
100
AcDbSpline
 62
7
  6
CONTINUOUS
 70
0
 71
3
 72
9
 73
5
 74
0
 42
0.0000001
 43
0.0000001
 44
0.0000000001
 40
0.0
 40
0.0
 40
0.0
 40
0.0
 40
0.277771727
 40
1.0
 40
1.0
 40
1.0
 40
1.0
 10
449.4650381606
 20
1042.7861226901
 30
0.0
 10
449.4696856153
 20
1042.8763619225
 30
0.0
 10
449.4915001928
 20
1043.2008311679
 30
0.0
 10
449.5343792559
 20
1043.5247283341
 30
0.0
 10
449.5864543811
 20
1043.7538243921
 30
0.0
  0
SPLINE
  5
5D4
100
AcDbEntity
  8
3288E5__________________
100
AcDbSpline
 62
7
  6
CONTINUOUS
 70
0
 71
3
 72
8
 73
4
 74
0
 42
0.0000001
 43
0.0000001
 44
0.0000000001
 40
0.0
 40
0.0
 40
0.0
 40
0.0
 40
1.0
 40
1.0
 40
1.0
 40
1.0
 10
449.5864543811
 20
1043.7538243921
 30
0.0
 10
449.6238923438
 20
1043.9185266303
 30
0.0
 10
449.6725004757
 20
1044.0820579355
 30
0.0
 10
449.7414479174
 20
1044.2362483327
 30
0.0
  0
SPLINE
  5
5D5
100
AcDbEntity
  8
3288E5__________________
100
AcDbSpline
 62
7
  6
CONTINUOUS
 70
0
 71
3
 72
8
 73
4
 74
0
 42
0.0000001
 43
0.0000001
 44
0.0000000001
 40
0.0
 40
0.0
 40
0.0
 40
0.0
 40
1.0
 40
1.0
 40
1.0
 40
1.0
 10
449.7414479174
 20
1044.2362483327
 30
0.0
 10
449.7704971111
 20
1044.3012124069
 30
0.0
 10
449.803521702
 20
1044.3646162128
 30
0.0
 10
449.8410533761
 20
1044.4250774403
 30
0.0
  0
SPLINE
  5
5D6
100
AcDbEntity
  8
3288E5__________________
100
AcDbSpline
 62
7
  6
CONTINUOUS
 70
0
 71
3
 72
9
 73
5
 74
0
 42
0.0000001
 43
0.0000001
 44
0.0000000001
 40
0.0
 40
0.0
 40
0.0
 40
0.0
 40
0.3381662323
 40
1.0
 40
1.0
 40
1.0
 40
1.0
 10
435.8529937518
 20
1049.6209934346
 30
0.0
 10
435.8811196344
 20
1049.6880721876
 30
0.0
 10
435.9678251231
 20
1049.8768826154
 30
0.0
 10
436.142891102
 20
1050.0722613376
 30
0.0
 10
436.2849600457
 20
1050.0812783927
 30
0.0
  0
SPLINE
  5
5D7
100
AcDbEntity
  8
3288E5__________________
100
AcDbSpline
 62
7
  6
CONTINUOUS
 70
0
 71
3
 72
9
 73
5
 74
0
 42
0.0000001
 43
0.0000001
 44
0.0000000001
 40
0.0
 40
0.0
 40
0.0
 40
0.0
 40
0.2791565992
 40
1.0
 40
1.0
 40
1.0
 40
1.0
 10
435.6038927554
 20
1047.9922844272
 30
0.0
 10
435.6069612576
 20
1048.0823070335
 30
0.0
 10
435.6213242989
 20
1048.4046065244
 30
0.0
 10
435.6493659001
 20
1048.7267077782
 30
0.0
 10
435.6841832988
 20
1048.956680127
 30
0.0
  0
SPLINE
  5
5D8
100
AcDbEntity
  8
3288E5__________________
100
AcDbSpline
 62
7
  6
CONTINUOUS
 70
0
 71
3
 72
8
 73
4
 74
0
 42
0.0000001
 43
0.0000001
 44
0.0000000001
 40
0.0
 40
0.0
 40
0.0
 40
0.0
 40
1.0
 40
1.0
 40
1.0
 40
1.0
 10
435.6841832988
 20
1048.956680127
 30
0.0
 10
435.7085883996
 20
1049.1178782225
 30
0.0
 10
435.7400041508
 20
1049.2787322005
 30
0.0
 10
435.7868890467
 20
1049.43488034
 30
0.0
  0
SPLINE
  5
5D9
100
AcDbEntity
  8
3288E5__________________
100
AcDbSpline
 62
7
  6
CONTINUOUS
 70
0
 71
3
 72
8
 73
4
 74
0
 42
0.0000001
 43
0.0000001
 44
0.0000000001
 40
0.0
 40
0.0
 40
0.0
 40
0.0
 40
1.0
 40
1.0
 40
1.0
 40
1.0
 10
435.7868890467
 20
1049.43488034
 30
0.0
 10
435.8058215061
 20
1049.4979340859
 30
0.0
 10
435.8275367171
 20
1049.5602797436
 30
0.0
 10
435.8529937518
 20
1049.6209934346
 30
0.0
  0
SPLINE
  5
5DA
100
AcDbEntity
  8
3288E5__________________
100
AcDbSpline
 62
7
  6
CONTINUOUS
 70
0
 71
3
 72
8
 73
4
 74
0
 42
0.0000001
 43
0.0000001
 44
0.0000000001
 40
0.0
 40
0.0
 40
0.0
 40
0.0
 40
1.0
 40
1.0
 40
1.0
 40
1.0
 10
715.6106476883
 20
284.0250124872
 30
0.0
 10
715.9581913701
 20
283.9287426307
 30
0.0
 10
716.2905201424
 20
283.7586573888
 30
0.0
 10
716.5785712319
 20
283.5416756711
 30
0.0
  0
SPLINE
  5
5DB
100
AcDbEntity
  8
3288E5__________________
100
AcDbSpline
 62
7
  6
CONTINUOUS
 70
0
 71
3
 72
8
 73
4
 74
0
 42
0.0000001
 43
0.0000001
 44
0.0000000001
 40
0.0
 40
0.0
 40
0.0
 40
0.0
 40
1.0
 40
1.0
 40
1.0
 40
1.0
 10
716.5785712319
 20
283.5416756711
 30
0.0
 10
716.7904523242
 20
283.3820709167
 30
0.0
 10
716.9834930264
 20
283.1957782764
 30
0.0
 10
717.1570266336
 20
282.9951458711
 30
0.0
  0
SPLINE
  5
5DC
100
AcDbEntity
  8
3288E5__________________
100
AcDbSpline
 62
7
  6
CONTINUOUS
 70
0
 71
3
 72
9
 73
5
 74
0
 42
0.0000001
 43
0.0000001
 44
0.0000000001
 40
0.0
 40
0.0
 40
0.0
 40
0.0
 40
0.280510539
 40
1.0
 40
1.0
 40
1.0
 40
1.0
 10
696.7322961052
 20
1083.6284765824
 30
0.0
 10
696.7433696269
 20
1083.7383657078
 30
0.0
 10
696.7935867553
 20
1084.1284655234
 30
0.0
 10
696.8907304202
 20
1084.51601799
 30
0.0
 10
697.0050477156
 20
1084.7752130173
 30
0.0
  0
SPLINE
  5
5DD
100
AcDbEntity
  8
3288E5__________________
100
AcDbSpline
 62
7
  6
CONTINUOUS
 70
0
 71
3
 72
8
 73
4
 74
0
 42
0.0000001
 43
0.0000001
 44
0.0000000001
 40
0.0
 40
0.0
 40
0.0
 40
0.0
 40
1.0
 40
1.0
 40
1.0
 40
1.0
 10
697.0050477156
 20
1084.7752130173
 30
0.0
 10
697.1952557891
 20
1085.2064774787
 30
0.0
 10
697.5769874695
 20
1085.5953615747
 30
0.0
 10
698.0179252791
 20
1085.7619208583
 30
0.0
  0
SPLINE
  5
5DE
100
AcDbEntity
  8
3288E5__________________
100
AcDbSpline
 62
7
  6
CONTINUOUS
 70
0
 71
3
 72
8
 73
4
 74
0
 42
0.0000001
 43
0.0000001
 44
0.0000000001
 40
0.0
 40
0.0
 40
0.0
 40
0.0
 40
1.0
 40
1.0
 40
1.0
 40
1.0
 10
478.2820894472
 20
984.6895166688
 30
0.0
 10
477.9104832142
 20
984.6623411043
 30
0.0
 10
477.5123390713
 20
984.8098554517
 30
0.0
 10
477.2216292618
 20
985.0429166248
 30
0.0
  0
SPLINE
  5
5DF
100
AcDbEntity
  8
3288E5__________________
100
AcDbSpline
 62
7
  6
CONTINUOUS
 70
0
 71
3
 72
8
 73
4
 74
0
 42
0.0000001
 43
0.0000001
 44
0.0000000001
 40
0.0
 40
0.0
 40
0.0
 40
0.0
 40
1.0
 40
1.0
 40
1.0
 40
1.0
 10
477.2216292618
 20
985.0429166248
 30
0.0
 10
476.8200932629
 20
985.364826818
 30
0.0
 10
476.534734573
 20
985.8475928243
 30
0.0
 10
476.3833939234
 20
986.3394803508
 30
0.0
  0
SPLINE
  5
5E0
100
AcDbEntity
  8
3288E5__________________
100
AcDbSpline
 62
7
  6
CONTINUOUS
 70
0
 71
3
 72
9
 73
5
 74
0
 42
0.0000001
 43
0.0000001
 44
0.0000000001
 40
0.0
 40
0.0
 40
0.0
 40
0.0
 40
0.2278099314
 40
1.0
 40
1.0
 40
1.0
 40
1.0
 10
476.3833939234
 20
986.3394803508
 30
0.0
 10
476.3575604472
 20
986.4234443402
 30
0.0
 10
476.2572080516
 20
986.7960403849
 30
0.0
 10
476.204087984
 20
987.1801453851
 30
0.0
 10
476.179597926
 20
987.4769092491
 30
0.0
  0
SPLINE
  5
5E1
100
AcDbEntity
  8
3288E5__________________
100
AcDbSpline
 62
7
  6
CONTINUOUS
 70
0
 71
3
 72
9
 73
5
 74
0
 42
0.0000001
 43
0.0000001
 44
0.0000000001
 40
0.0
 40
0.0
 40
0.0
 40
0.0
 40
0.2820608233
 40
1.0
 40
1.0
 40
1.0
 40
1.0
 10
714.3522623295
 20
1081.3553465591
 30
0.0
 10
714.3623363955
 20
1081.4648754624
 30
0.0
 10
714.4078703027
 20
1081.8517726269
 30
0.0
 10
714.4954852446
 20
1082.2369338941
 30
0.0
 10
714.600644379
 20
1082.4963980505
 30
0.0
  0
SPLINE
  5
5E2
100
AcDbEntity
  8
3288E5__________________
100
AcDbSpline
 62
7
  6
CONTINUOUS
 70
0
 71
3
 72
8
 73
4
 74
0
 42
0.0000001
 43
0.0000001
 44
0.0000000001
 40
0.0
 40
0.0
 40
0.0
 40
0.0
 40
1.0
 40
1.0
 40
1.0
 40
1.0
 10
714.600644379
 20
1082.4963980505
 30
0.0
 10
714.7677696667
 20
1082.9087542574
 30
0.0
 10
715.1080610354
 20
1083.2994266088
 30
0.0
 10
715.5222317195
 20
1083.4620031988
 30
0.0
  0
SPLINE
  5
5E3
100
AcDbEntity
  8
3288E5__________________
100
AcDbSpline
 62
7
  6
CONTINUOUS
 70
0
 71
3
 72
8
 73
4
 74
0
 42
0.0000001
 43
0.0000001
 44
0.0000000001
 40
0.0
 40
0.0
 40
0.0
 40
0.0
 40
1.0
 40
1.0
 40
1.0
 40
1.0
 10
502.0866862565
 20
1034.7059048829
 30
0.0
 10
502.2591788384
 20
1034.887332318
 30
0.0
 10
502.4688770781
 20
1035.0433424504
 30
0.0
 10
502.7001821511
 20
1035.1390898691
 30
0.0
  0
SPLINE
  5
5E4
100
AcDbEntity
  8
3288E5__________________
100
AcDbSpline
 62
7
  6
CONTINUOUS
 70
0
 71
3
 72
8
 73
4
 74
0
 42
0.0000001
 43
0.0000001
 44
0.0000000001
 40
0.0
 40
0.0
 40
0.0
 40
0.0
 40
1.0
 40
1.0
 40
1.0
 40
1.0
 10
463.6174071402
 20
987.5422486102
 30
0.0
 10
463.5313101529
 20
987.5303990794
 30
0.0
 10
463.4428327189
 20
987.531257941
 30
0.0
 10
463.3566817834
 20
987.5427086569
 30
0.0
  0
SPLINE
  5
5E5
100
AcDbEntity
  8
3288E5__________________
100
AcDbSpline
 62
7
  6
CONTINUOUS
 70
0
 71
3
 72
8
 73
4
 74
0
 42
0.0000001
 43
0.0000001
 44
0.0000000001
 40
0.0
 40
0.0
 40
0.0
 40
0.0
 40
1.0
 40
1.0
 40
1.0
 40
1.0
 10
463.3566817834
 20
987.5427086569
 30
0.0
 10
463.086743917
 20
987.5785873365
 30
0.0
 10
462.824807778
 20
987.7230698252
 30
0.0
 10
462.6271724273
 20
987.9104037504
 30
0.0
  0
SPLINE
  5
5E6
100
AcDbEntity
  8
3288E5__________________
100
AcDbSpline
 62
7
  6
CONTINUOUS
 70
0
 71
3
 72
9
 73
5
 74
0
 42
0.0000001
 43
0.0000001
 44
0.0000000001
 40
0.0
 40
0.0
 40
0.0
 40
0.0
 40
0.2270205574
 40
1.0
 40
1.0
 40
1.0
 40
1.0
 10
462.6271724273
 20
987.9104037504
 30
0.0
 10
462.4998151556
 20
988.0311227286
 30
0.0
 10
462.013457566
 20
988.6430152678
 30
0.0
 10
461.8227178341
 20
989.4340707876
 30
0.0
 10
461.7554787949
 20
990.0277622026
 30
0.0
  0
SPLINE
  5
5E7
100
AcDbEntity
  8
3288E5__________________
100
AcDbSpline
 62
7
  6
CONTINUOUS
 70
0
 71
3
 72
9
 73
5
 74
0
 42
0.0000001
 43
0.0000001
 44
0.0000000001
 40
0.0
 40
0.0
 40
0.0
 40
0.0
 40
0.2828537737
 40
1.0
 40
1.0
 40
1.0
 40
1.0
 10
722.5122264065
 20
1080.0794251019
 30
0.0
 10
722.5217412394
 20
1080.1887832493
 30
0.0
 10
722.5646800275
 20
1080.5741139147
 30
0.0
 10
722.6470297368
 20
1080.9580791542
 30
0.0
 10
722.7469326654
 20
1081.2178442309
 30
0.0
  0
SPLINE
  5
5E8
100
AcDbEntity
  8
3288E5__________________
100
AcDbSpline
 62
7
  6
CONTINUOUS
 70
0
 71
3
 72
9
 73
5
 74
0
 42
0.0000001
 43
0.0000001
 44
0.0000000001
 40
0.0
 40
0.0
 40
0.0
 40
0.0
 40
0.2661729965
 40
1.0
 40
1.0
 40
1.0
 40
1.0
 10
722.7469326654
 20
1081.2178442309
 30
0.0
 10
722.7960545012
 20
1081.34556959
 30
0.0
 10
723.0151709593
 20
1081.8085144775
 30
0.0
 10
723.4809438355
 20
1082.1754842263
 30
0.0
 10
723.8524299652
 20
1082.2413336974
 30
0.0
  0
SPLINE
  5
5E9
100
AcDbEntity
  8
3288E5__________________
100
AcDbSpline
 62
7
  6
CONTINUOUS
 70
0
 71
3
 72
9
 73
5
 74
0
 42
0.0000001
 43
0.0000001
 44
0.0000000001
 40
0.0
 40
0.0
 40
0.0
 40
0.0
 40
0.2735734507
 40
1.0
 40
1.0
 40
1.0
 40
1.0
 10
501.4730386903
 20
1033.0285951451
 30
0.0
 10
501.4806645231
 20
1033.1196052854
 30
0.0
 10
501.5168060402
 20
1033.4513110191
 30
0.0
 10
501.5888035905
 20
1033.7807274306
 30
0.0
 10
501.6715159507
 20
1034.0086945149
 30
0.0
  0
SPLINE
  5
5EA
100
AcDbEntity
  8
3288E5__________________
100
AcDbSpline
 62
7
  6
CONTINUOUS
 70
0
 71
3
 72
8
 73
4
 74
0
 42
0.0000001
 43
0.0000001
 44
0.0000000001
 40
0.0
 40
0.0
 40
0.0
 40
0.0
 40
1.0
 40
1.0
 40
1.0
 40
1.0
 10
501.6715159507
 20
1034.0086945149
 30
0.0
 10
501.7350386671
 20
1034.1837721985
 30
0.0
 10
501.8178906395
 20
1034.3541429353
 30
0.0
 10
501.9244018753
 20
1034.506926074
 30
0.0
  0
SPLINE
  5
5EB
100
AcDbEntity
  8
3288E5__________________
100
AcDbSpline
 62
7
  6
CONTINUOUS
 70
0
 71
3
 72
9
 73
5
 74
0
 42
0.0000001
 43
0.0000001
 44
0.0000000001
 40
0.0
 40
0.0
 40
0.0
 40
0.0
 40
0.2812768363
 40
1.0
 40
1.0
 40
1.0
 40
1.0
 10
705.7476662386
 20
1082.5399174303
 30
0.0
 10
705.7582605846
 20
1082.6496236849
 30
0.0
 10
705.806224388
 20
1083.0381154703
 30
0.0
 10
705.8987812321
 20
1083.4244738581
 30
0.0
 10
706.0087467275
 20
1083.6837449982
 30
0.0
  0
SPLINE
  5
5EC
100
AcDbEntity
  8
3288E5__________________
100
AcDbSpline
 62
7
  6
CONTINUOUS
 70
0
 71
3
 72
8
 73
4
 74
0
 42
0.0000001
 43
0.0000001
 44
0.0000000001
 40
0.0
 40
0.0
 40
0.0
 40
0.0
 40
1.0
 40
1.0
 40
1.0
 40
1.0
 10
706.0087467275
 20
1083.6837449982
 30
0.0
 10
706.1877570821
 20
1084.1058066512
 30
0.0
 10
706.5498680317
 20
1084.4953924538
 30
0.0
 10
706.9778858982
 20
1084.6596527713
 30
0.0
  0
SPLINE
  5
5ED
100
AcDbEntity
  8
3288E5__________________
100
AcDbSpline
 62
7
  6
CONTINUOUS
 70
0
 71
3
 72
8
 73
4
 74
0
 42
0.0000001
 43
0.0000001
 44
0.0000000001
 40
0.0
 40
0.0
 40
0.0
 40
0.0
 40
1.0
 40
1.0
 40
1.0
 40
1.0
 10
486.3905429454
 20
983.3924506838
 30
0.0
 10
486.0001532181
 20
983.3613706937
 30
0.0
 10
485.5803989705
 20
983.4999149859
 30
0.0
 10
485.2663937302
 20
983.7339466376
 30
0.0
  0
SPLINE
  5
5EE
100
AcDbEntity
  8
3288E5__________________
100
AcDbSpline
 62
7
  6
CONTINUOUS
 70
0
 71
3
 72
8
 73
4
 74
0
 42
0.0000001
 43
0.0000001
 44
0.0000000001
 40
0.0
 40
0.0
 40
0.0
 40
0.0
 40
1.0
 40
1.0
 40
1.0
 40
1.0
 10
485.2663937302
 20
983.7339466376
 30
0.0
 10
484.9218101781
 20
983.9907686504
 30
0.0
 10
484.6472787969
 20
984.3589267496
 30
0.0
 10
484.4775791536
 20
984.7537651999
 30
0.0
  0
SPLINE
  5
5EF
100
AcDbEntity
  8
3288E5__________________
100
AcDbSpline
 62
7
  6
CONTINUOUS
 70
0
 71
3
 72
9
 73
5
 74
0
 42
0.0000001
 43
0.0000001
 44
0.0000000001
 40
0.0
 40
0.0
 40
0.0
 40
0.0
 40
0.2222509983
 40
1.0
 40
1.0
 40
1.0
 40
1.0
 10
484.4775791536
 20
984.7537651999
 30
0.0
 10
484.4354125413
 20
984.8518738319
 30
0.0
 10
484.2702220166
 20
985.3039220977
 30
0.0
 10
484.1933203391
 20
985.7839746681
 30
0.0
 10
484.1606757887
 20
986.156236113
 30
0.0
  0
SPLINE
  5
5F0
100
AcDbEntity
  8
3288E5__________________
100
AcDbSpline
 62
7
  6
CONTINUOUS
 70
0
 71
3
 72
8
 73
4
 74
0
 42
0.0000001
 43
0.0000001
 44
0.0000000001
 40
0.0
 40
0.0
 40
0.0
 40
0.0
 40
1.0
 40
1.0
 40
1.0
 40
1.0
 10
504.1908551973
 20
981.1211425721
 30
0.0
 10
503.6999973639
 20
980.9926715215
 30
0.0
 10
503.1172182176
 20
981.1131633857
 30
0.0
 10
502.6928437929
 20
981.3912866877
 30
0.0
  0
SPLINE
  5
5F1
100
AcDbEntity
  8
3288E5__________________
100
AcDbSpline
 62
7
  6
CONTINUOUS
 70
0
 71
3
 72
8
 73
4
 74
0
 42
0.0000001
 43
0.0000001
 44
0.0000000001
 40
0.0
 40
0.0
 40
0.0
 40
0.0
 40
1.0
 40
1.0
 40
1.0
 40
1.0
 10
502.6928437929
 20
981.3912866877
 30
0.0
 10
502.4685206437
 20
981.5383018972
 30
0.0
 10
502.2715614403
 20
981.7304027105
 30
0.0
 10
502.1047344305
 20
981.9404100816
 30
0.0
  0
SPLINE
  5
5F2
100
AcDbEntity
  8
3288E5__________________
100
AcDbSpline
 62
7
  6
CONTINUOUS
 70
0
 71
3
 72
9
 73
5
 74
0
 42
0.0000001
 43
0.0000001
 44
0.0000000001
 40
0.0
 40
0.0
 40
0.0
 40
0.0
 40
0.2188813328
 40
1.0
 40
1.0
 40
1.0
 40
1.0
 10
502.1047344305
 20
981.9404100816
 30
0.0
 10
502.0153410708
 20
982.0529414066
 30
0.0
 10
501.6562873004
 20
982.6078845179
 30
0.0
 10
501.5225649224
 20
983.2777248479
 30
0.0
 10
501.4730386903
 20
983.7882074945
 30
0.0
  0
SPLINE
  5
5F3
100
AcDbEntity
  8
3288E5__________________
100
AcDbSpline
 62
7
  6
CONTINUOUS
 70
0
 71
3
 72
8
 73
4
 74
0
 42
0.0000001
 43
0.0000001
 44
0.0000000001
 40
0.0
 40
0.0
 40
0.0
 40
0.0
 40
1.0
 40
1.0
 40
1.0
 40
1.0
 10
715.6106476883
 20
303.7211675474
 30
0.0
 10
715.9581913701
 20
303.624897691
 30
0.0
 10
716.2905201425
 20
303.454812449
 30
0.0
 10
716.578571232
 20
303.2378307312
 30
0.0
  0
SPLINE
  5
5F4
100
AcDbEntity
  8
3288E5__________________
100
AcDbSpline
 62
7
  6
CONTINUOUS
 70
0
 71
3
 72
8
 73
4
 74
0
 42
0.0000001
 43
0.0000001
 44
0.0000000001
 40
0.0
 40
0.0
 40
0.0
 40
0.0
 40
1.0
 40
1.0
 40
1.0
 40
1.0
 10
716.578571232
 20
303.2378307312
 30
0.0
 10
716.7904523243
 20
303.0782259769
 30
0.0
 10
716.9834930264
 20
302.8919333366
 30
0.0
 10
717.1570266336
 20
302.6913009313
 30
0.0
  0
SPLINE
  5
5F5
100
AcDbEntity
  8
3288E5__________________
100
AcDbSpline
 62
7
  6
CONTINUOUS
 70
0
 71
3
 72
8
 73
4
 74
0
 42
0.0000001
 43
0.0000001
 44
0.0000000001
 40
0.0
 40
0.0
 40
0.0
 40
0.0
 40
1.0
 40
1.0
 40
1.0
 40
1.0
 10
730.3062494857
 20
1079.4748825738
 30
0.0
 10
730.335376401
 20
1079.6028461597
 30
0.0
 10
730.3708758854
 20
1079.7297181503
 30
0.0
 10
730.415556997
 20
1079.8531144824
 30
0.0
  0
SPLINE
  5
5F6
100
AcDbEntity
  8
3288E5__________________
100
AcDbSpline
 62
7
  6
CONTINUOUS
 70
0
 71
3
 72
9
 73
5
 74
0
 42
0.0000001
 43
0.0000001
 44
0.0000000001
 40
0.0
 40
0.0
 40
0.0
 40
0.0
 40
0.2725988286
 40
1.0
 40
1.0
 40
1.0
 40
1.0
 10
730.415556997
 20
1079.8531144824
 30
0.0
 10
730.4620515495
 20
1079.9815190149
 30
0.0
 10
730.663834442
 20
1080.4362655774
 30
0.0
 10
731.1131199132
 20
1080.8122786829
 30
0.0
 10
731.4731545501
 20
1080.8685404957
 30
0.0
  0
SPLINE
  5
5F7
100
AcDbEntity
  8
3288E5__________________
100
AcDbSpline
 62
7
  6
CONTINUOUS
 70
0
 71
3
 72
8
 73
4
 74
0
 42
0.0000001
 43
0.0000001
 44
0.0000000001
 40
0.0
 40
0.0
 40
0.0
 40
0.0
 40
1.0
 40
1.0
 40
1.0
 40
1.0
 10
487.6563652997
 20
1103.5613659186
 30
0.0
 10
487.3157913448
 20
1103.5762084417
 30
0.0
 10
486.9746388938
 20
1103.6113135663
 30
0.0
 10
486.6403710153
 20
1103.6782157688
 30
0.0
  0
SPLINE
  5
5F8
100
AcDbEntity
  8
3288E5__________________
100
AcDbSpline
 62
7
  6
CONTINUOUS
 70
0
 71
3
 72
8
 73
4
 74
0
 42
0.0000001
 43
0.0000001
 44
0.0000000001
 40
0.0
 40
0.0
 40
0.0
 40
0.0
 40
1.0
 40
1.0
 40
1.0
 40
1.0
 10
496.6301822492
 20
1113.7354259857
 30
0.0
 10
496.5948171871
 20
1113.288136005
 30
0.0
 10
496.5461041934
 20
1112.8414961235
 30
0.0
 10
496.4782596348
 20
1112.3979692018
 30
0.0
  0
SPLINE
  5
5F9
100
AcDbEntity
  8
3288E5__________________
100
AcDbSpline
 62
7
  6
CONTINUOUS
 70
0
 71
3
 72
9
 73
5
 74
0
 42
0.0000001
 43
0.0000001
 44
0.0000000001
 40
0.0
 40
0.0
 40
0.0
 40
0.0
 40
0.2401142668
 40
1.0
 40
1.0
 40
1.0
 40
1.0
 10
496.4782596348
 20
1112.3979692018
 30
0.0
 10
496.4001657897
 20
1111.8874386094
 30
0.0
 10
495.9619695313
 20
1109.7784656811
 30
0.0
 10
494.8750066472
 20
1107.8183488799
 30
0.0
 10
493.8197237203
 20
1106.5702142556
 30
0.0
  0
SPLINE
  5
5FA
100
AcDbEntity
  8
3288E5__________________
100
AcDbSpline
 62
7
  6
CONTINUOUS
 70
0
 71
3
 72
9
 73
5
 74
0
 42
0.0000001
 43
0.0000001
 44
0.0000000001
 40
0.0
 40
0.0
 40
0.0
 40
0.0
 40
0.2593849781
 40
1.0
 40
1.0
 40
1.0
 40
1.0
 10
493.8197237203
 20
1106.5702142556
 30
0.0
 10
493.6702736545
 20
1106.3934523684
 30
0.0
 10
493.0730123156
 20
1105.7303528201
 30
0.0
 10
492.3856947787
 20
1105.1464188015
 30
0.0
 10
491.8353222637
 20
1104.7804866167
 30
0.0
  0
SPLINE
  5
5FB
100
AcDbEntity
  8
3288E5__________________
100
AcDbSpline
 62
7
  6
CONTINUOUS
 70
0
 71
3
 72
9
 73
5
 74
0
 42
0.0000001
 43
0.0000001
 44
0.0000000001
 40
0.0
 40
0.0
 40
0.0
 40
0.0
 40
0.1983640703
 40
1.0
 40
1.0
 40
1.0
 40
1.0
 10
436.6245399587
 20
995.8442931638
 30
0.0
 10
436.5790829804
 20
995.8413579387
 30
0.0
 10
436.3455573503
 20
995.8857550411
 30
0.0
 10
436.1911536984
 20
996.0976121588
 30
0.0
 10
436.1012399508
 20
996.2582445935
 30
0.0
  0
SPLINE
  5
5FC
100
AcDbEntity
  8
3288E5__________________
100
AcDbSpline
 62
7
  6
CONTINUOUS
 70
0
 71
3
 72
8
 73
4
 74
0
 42
0.0000001
 43
0.0000001
 44
0.0000000001
 40
0.0
 40
0.0
 40
0.0
 40
0.0
 40
1.0
 40
1.0
 40
1.0
 40
1.0
 10
436.1012399508
 20
996.2582445935
 30
0.0
 10
436.0674099275
 20
996.3186825039
 30
0.0
 10
436.0370648514
 20
996.3811236357
 30
0.0
 10
436.0091931576
 20
996.4445301036
 30
0.0
  0
SPLINE
  5
5FD
100
AcDbEntity
  8
3288E5__________________
100
AcDbSpline
 62
7
  6
CONTINUOUS
 70
0
 71
3
 72
9
 73
5
 74
0
 42
0.0000001
 43
0.0000001
 44
0.0000000001
 40
0.0
 40
0.0
 40
0.0
 40
0.0
 40
0.2245203704
 40
1.0
 40
1.0
 40
1.0
 40
1.0
 10
436.0091931576
 20
996.4445301036
 30
0.0
 10
435.9485733125
 20
996.5824366937
 30
0.0
 10
435.7245381104
 20
997.2172392098
 30
0.0
 10
435.6528912961
 20
997.8934148778
 30
0.0
 10
435.6208304664
 20
998.4127341999
 30
0.0
  0
SPLINE
  5
5FE
100
AcDbEntity
  8
3288E5__________________
100
AcDbSpline
 62
7
  6
CONTINUOUS
 70
0
 71
3
 72
9
 73
5
 74
0
 42
0.0000001
 43
0.0000001
 44
0.0000000001
 40
0.0
 40
0.0
 40
0.0
 40
0.0
 40
0.2715577095
 40
1.0
 40
1.0
 40
1.0
 40
1.0
 10
484.7166950966
 20
1037.0611738381
 30
0.0
 10
484.774716792
 20
1037.1271659188
 30
0.0
 10
485.0018506233
 20
1037.357280869
 30
0.0
 10
485.3047475495
 20
1037.5177969354
 30
0.0
 10
485.5359626698
 20
1037.5636234026
 30
0.0
  0
SPLINE
  5
5FF
100
AcDbEntity
  8
3288E5__________________
100
AcDbSpline
 62
7
  6
CONTINUOUS
 70
0
 71
3
 72
9
 73
5
 74
0
 42
0.0000001
 43
0.0000001
 44
0.0000000001
 40
0.0
 40
0.0
 40
0.0
 40
0.0
 40
0.2748089407
 40
1.0
 40
1.0
 40
1.0
 40
1.0
 10
484.1606757887
 20
1035.3966237636
 30
0.0
 10
484.1675755811
 20
1035.4873844955
 30
0.0
 10
484.2001765382
 20
1035.816838597
 30
0.0
 10
484.2649346712
 20
1036.144578745
 30
0.0
 10
484.3404545171
 20
1036.3725968141
 30
0.0
  0
SPLINE
  5
600
100
AcDbEntity
  8
3288E5__________________
100
AcDbSpline
 62
7
  6
CONTINUOUS
 70
0
 71
3
 72
8
 73
4
 74
0
 42
0.0000001
 43
0.0000001
 44
0.0000000001
 40
0.0
 40
0.0
 40
0.0
 40
0.0
 40
1.0
 40
1.0
 40
1.0
 40
1.0
 10
484.3404545171
 20
1036.3725968141
 30
0.0
 10
484.3974277229
 20
1036.5446167674
 30
0.0
 10
484.4718008734
 20
1036.7130194318
 30
0.0
 10
484.5696024395
 20
1036.8655699618
 30
0.0
  0
SPLINE
  5
601
100
AcDbEntity
  8
3288E5__________________
100
AcDbSpline
 62
7
  6
CONTINUOUS
 70
0
 71
3
 72
8
 73
4
 74
0
 42
0.0000001
 43
0.0000001
 44
0.0000000001
 40
0.0
 40
0.0
 40
0.0
 40
0.0
 40
1.0
 40
1.0
 40
1.0
 40
1.0
 10
715.6106476883
 20
244.6327023667
 30
0.0
 10
715.9581913701
 20
244.5364325103
 30
0.0
 10
716.2905201424
 20
244.3663472683
 30
0.0
 10
716.5785712319
 20
244.1493655506
 30
0.0
  0
SPLINE
  5
602
100
AcDbEntity
  8
3288E5__________________
100
AcDbSpline
 62
7
  6
CONTINUOUS
 70
0
 71
3
 72
8
 73
4
 74
0
 42
0.0000001
 43
0.0000001
 44
0.0000000001
 40
0.0
 40
0.0
 40
0.0
 40
0.0
 40
1.0
 40
1.0
 40
1.0
 40
1.0
 10
716.5785712319
 20
244.1493655506
 30
0.0
 10
716.7904523242
 20
243.9897607962
 30
0.0
 10
716.9834930264
 20
243.8034681559
 30
0.0
 10
717.1570266336
 20
243.6028357506
 30
0.0
  0
SPLINE
  5
603
100
AcDbEntity
  8
3288E5__________________
100
AcDbSpline
 62
7
  6
CONTINUOUS
 70
0
 71
3
 72
8
 73
4
 74
0
 42
0.0000001
 43
0.0000001
 44
0.0000000001
 40
0.0
 40
0.0
 40
0.0
 40
0.0
 40
1.0
 40
1.0
 40
1.0
 40
1.0
 10
491.8353222637
 20
1104.7804866167
 30
0.0
 10
491.545665081
 20
1104.5878990818
 30
0.0
 10
491.2377763829
 20
1104.4215168197
 30
0.0
 10
490.9217401476
 20
1104.2762159591
 30
0.0
  0
SPLINE
  5
604
100
AcDbEntity
  8
3288E5__________________
100
AcDbSpline
 62
7
  6
CONTINUOUS
 70
0
 71
3
 72
9
 73
5
 74
0
 42
0.0000001
 43
0.0000001
 44
0.0000000001
 40
0.0
 40
0.0
 40
0.0
 40
0.0
 40
0.2360109337
 40
1.0
 40
1.0
 40
1.0
 40
1.0
 10
490.4160327259
 20
1104.0630151828
 30
0.0
 10
490.2975089582
 20
1104.0171922521
 30
0.0
 10
489.791496968
 20
1103.8329206454
 30
0.0
 10
489.2723942947
 20
1103.685766057
 30
0.0
 10
488.8725686185
 20
1103.5890884094
 30
0.0
  0
SPLINE
  5
605
100
AcDbEntity
  8
3288E5__________________
100
AcDbSpline
 62
7
  6
CONTINUOUS
 70
0
 71
3
 72
8
 73
4
 74
0
 42
0.0000001
 43
0.0000001
 44
0.0000000001
 40
0.0
 40
0.0
 40
0.0
 40
0.0
 40
1.0
 40
1.0
 40
1.0
 40
1.0
 10
451.0165278225
 20
990.6818335579
 30
0.0
 10
450.8985702028
 20
990.6694304097
 30
0.0
 10
450.7751953905
 20
990.6920054568
 30
0.0
 10
450.6647264781
 20
990.7351848217
 30
0.0
  0
SPLINE
  5
606
100
AcDbEntity
  8
3288E5__________________
100
AcDbSpline
 62
7
  6
CONTINUOUS
 70
0
 71
3
 72
9
 73
5
 74
0
 42
0.0000001
 43
0.0000001
 44
0.0000000001
 40
0.0
 40
0.0
 40
0.0
 40
0.0
 40
0.2242961815
 40
1.0
 40
1.0
 40
1.0
 40
1.0
 10
450.6647264781
 20
990.7351848217
 30
0.0
 10
450.6095166888
 20
990.7567648625
 30
0.0
 10
450.3726092548
 20
990.8776963949
 30
0.0
 10
450.1903219922
 20
991.0848872891
 30
0.0
 10
450.0759527698
 20
991.2550242732
 30
0.0
  0
SPLINE
  5
607
100
AcDbEntity
  8
3288E5__________________
100
AcDbSpline
 62
7
  6
CONTINUOUS
 70
0
 71
3
 72
9
 73
5
 74
0
 42
0.0000001
 43
0.0000001
 44
0.0000000001
 40
0.0
 40
0.0
 40
0.0
 40
0.0
 40
0.2330203439
 40
1.0
 40
1.0
 40
1.0
 40
1.0
 10
450.0759527698
 20
991.2550242732
 30
0.0
 10
449.9870291681
 20
991.3873080563
 30
0.0
 10
449.6578227231
 20
991.9916036527
 30
0.0
 10
449.539566168
 20
992.6849140023
 30
0.0
 10
449.4906625671
 20
993.2072700618
 30
0.0
  0
SPLINE
  5
608
100
AcDbEntity
  8
3288E5__________________
100
AcDbSpline
 62
7
  6
CONTINUOUS
 70
0
 71
3
 72
9
 73
5
 74
0
 42
0.0000001
 43
0.0000001
 44
0.0000000001
 40
0.0
 40
0.0
 40
0.0
 40
0.0
 40
0.2797698709
 40
1.0
 40
1.0
 40
1.0
 40
1.0
 10
687.3416262434
 20
1084.6167406763
 30
0.0
 10
687.3531358363
 20
1084.7268171174
 30
0.0
 10
687.4054186708
 20
1085.1185241743
 30
0.0
 10
687.5067646354
 20
1085.5072648911
 30
0.0
 10
687.6249757329
 20
1085.7665073221
 30
0.0
  0
SPLINE
  5
609
100
AcDbEntity
  8
3288E5__________________
100
AcDbSpline
 62
7
  6
CONTINUOUS
 70
0
 71
3
 72
8
 73
4
 74
0
 42
0.0000001
 43
0.0000001
 44
0.0000000001
 40
0.0
 40
0.0
 40
0.0
 40
0.0
 40
1.0
 40
1.0
 40
1.0
 40
1.0
 10
687.6249757329
 20
1085.7665073221
 30
0.0
 10
687.8255752743
 20
1086.20643144
 30
0.0
 10
688.2247492795
 20
1086.595076957
 30
0.0
 10
688.6776061468
 20
1086.7644701777
 30
0.0
  0
SPLINE
  5
60A
100
AcDbEntity
  8
3288E5__________________
100
AcDbSpline
 62
7
  6
CONTINUOUS
 70
0
 71
3
 72
9
 73
5
 74
0
 42
0.0000001
 43
0.0000001
 44
0.0000000001
 40
0.0
 40
0.0
 40
0.0
 40
0.0
 40
0.4319938551
 40
1.0
 40
1.0
 40
1.0
 40
1.0
 10
426.3044878534
 20
1099.9933682053
 30
0.0
 10
426.3044165447
 20
1101.1869721847
 30
0.0
 10
427.3545551476
 20
1103.9371531094
 30
0.0
 10
429.4519432335
 20
1105.814322699
 30
0.0
 10
430.7014088617
 20
1106.7639939815
 30
0.0
  0
LINE
  5
60B
100
AcDbEntity
  8
3288E5__________________
100
AcDbLine
 62
7
  6
CONTINUOUS
 10
431.5249831845
 20
1107.3620609712
 11
431.6088996335
 21
1107.4201443621
  0
LINE
  5
60C
100
AcDbEntity
  8
3288E5__________________
100
AcDbLine
 62
7
  6
CONTINUOUS
 10
479.4432497188
 20
1121.8071841046
 11
479.8041844237
 21
1121.8678237758
  0
LINE
  5
60D
100
AcDbEntity
  8
3288E5__________________
100
AcDbLine
 62
7
  6
CONTINUOUS
 10
479.8041844237
 20
1121.8678237758
 11
479.8960296203
 21
1121.8831987086
  0
SPLINE
  5
60E
100
AcDbEntity
  8
3288E5__________________
100
AcDbSpline
 62
7
  6
CONTINUOUS
 70
0
 71
3
 72
8
 73
4
 74
0
 42
0.0000001
 43
0.0000001
 44
0.0000000001
 40
0.0
 40
0.0
 40
0.0
 40
0.0
 40
1.0
 40
1.0
 40
1.0
 40
1.0
 10
715.6106476883
 20
264.3288574269
 30
0.0
 10
715.9581913702
 20
264.2325875704
 30
0.0
 10
716.2905201425
 20
264.0625023285
 30
0.0
 10
716.578571232
 20
263.8455206107
 30
0.0
  0
SPLINE
  5
60F
100
AcDbEntity
  8
3288E5__________________
100
AcDbSpline
 62
7
  6
CONTINUOUS
 70
0
 71
3
 72
8
 73
4
 74
0
 42
0.0000001
 43
0.0000001
 44
0.0000000001
 40
0.0
 40
0.0
 40
0.0
 40
0.0
 40
1.0
 40
1.0
 40
1.0
 40
1.0
 10
716.578571232
 20
263.8455206107
 30
0.0
 10
716.7904523243
 20
263.6859158564
 30
0.0
 10
716.9834930265
 20
263.499623216
 30
0.0
 10
717.1570266337
 20
263.2989908107
 30
0.0
  0
SPLINE
  5
610
100
AcDbEntity
  8
3288E5__________________
100
AcDbSpline
 62
7
  6
CONTINUOUS
 70
0
 71
3
 72
8
 73
4
 74
0
 42
0.0000001
 43
0.0000001
 44
0.0000000001
 40
0.0
 40
0.0
 40
0.0
 40
0.0
 40
1.0
 40
1.0
 40
1.0
 40
1.0
 10
496.6786100122
 20
1122.3881104948
 30
0.0
 10
496.6786100122
 20
1122.7744139337
 30
0.0
 10
496.7730731139
 20
1123.1708414801
 30
0.0
 10
496.9479771505
 20
1123.5152814964
 30
0.0
  0
SPLINE
  5
611
100
AcDbEntity
  8
3288E5__________________
100
AcDbSpline
 62
7
  6
CONTINUOUS
 70
0
 71
3
 72
9
 73
5
 74
0
 42
0.0000001
 43
0.0000001
 44
0.0000000001
 40
0.0
 40
0.0
 40
0.0
 40
0.0
 40
0.266599764
 40
1.0
 40
1.0
 40
1.0
 40
1.0
 10
496.9479771505
 20
1123.5152814964
 30
0.0
 10
497.0055035191
 20
1123.6285686665
 30
0.0
 10
497.2524630023
 20
1124.0354736153
 30
0.0
 10
497.6458194331
 20
1124.3646367278
 30
0.0
 10
497.9736501669
 20
1124.4858556519
 30
0.0
  0
SPLINE
  5
612
100
AcDbEntity
  8
3288E5__________________
100
AcDbSpline
 62
7
  6
CONTINUOUS
 70
0
 71
3
 72
8
 73
4
 74
0
 42
0.0000001
 43
0.0000001
 44
0.0000000001
 40
0.0
 40
0.0
 40
0.0
 40
0.0
 40
1.0
 40
1.0
 40
1.0
 40
1.0
 10
497.9736501669
 20
1124.4858556519
 30
0.0
 10
498.075049519
 20
1124.5233491481
 30
0.0
 10
498.1812151068
 20
1124.5502442321
 30
0.0
 10
498.2884696601
 20
1124.5638107963
 30
0.0
  0
SPLINE
  5
613
100
AcDbEntity
  8
3288E5__________________
100
AcDbSpline
 62
7
  6
CONTINUOUS
 70
0
 71
3
 72
9
 73
5
 74
0
 42
0.0000001
 43
0.0000001
 44
0.0000000001
 40
0.0
 40
0.0
 40
0.0
 40
0.0
 40
0.2820875562
 40
1.0
 40
1.0
 40
1.0
 40
1.0
 10
462.178053622
 20
1041.2540017095
 30
0.0
 10
462.2214364409
 20
1041.3128630416
 30
0.0
 10
462.3853102604
 20
1041.5126627849
 30
0.0
 10
462.6125336094
 20
1041.6693039054
 30
0.0
 10
462.7919621479
 20
1041.7186621499
 30
0.0
  0
SPLINE
  5
614
100
AcDbEntity
  8
3288E5__________________
100
AcDbSpline
 62
7
  6
CONTINUOUS
 70
0
 71
3
 72
14
 73
10
 74
0
 42
0.0000001
 43
0.0000001
 44
0.0000000001
 40
0.0
 40
0.0
 40
0.0
 40
0.0
 40
0.3874157083
 40
0.5481930487
 40
0.6850027455
 40
0.7970572301
 40
0.8845713016
 40
0.9498281117
 40
1.0
 40
1.0
 40
1.0
 40
1.0
 10
714.324307876
 20
1076.6153682501
 30
0.0
 10
723.1952578743
 20
1077.9079377133
 30
0.0
 10
735.7129485685
 20
1080.0676957493
 30
0.0
 10
751.1000096815
 20
1083.9044537976
 30
0.0
 10
760.1404620337
 20
1086.77800779
 30
0.0
 10
767.3397328738
 20
1089.7828816283
 30
0.0
 10
772.6340716308
 20
1092.9128299587
 30
0.0
 10
776.1185060519
 20
1096.1699468316
 30
0.0
 10
777.1039666883
 20
1098.8323410216
 30
0.0
 10
777.1039943115
 20
1099.9932958355
 30
0.0
  0
LINE
  5
615
100
AcDbEntity
  8
3288E5__________________
100
AcDbLine
 62
7
  6
CONTINUOUS
 10
582.1186295587
 20
1130.2070310981
 11
582.8427078135
 21
1130.2206635888
  0
LINE
  5
616
100
AcDbEntity
  8
3288E5__________________
100
AcDbLine
 62
7
  6
CONTINUOUS
 10
582.8427078135
 20
1130.2206635888
 11
583.2106148445
 21
1130.2273876076
  0
SPLINE
  5
617
100
AcDbEntity
  8
3288E5__________________
100
AcDbSpline
 62
7
  6
CONTINUOUS
 70
0
 71
3
 72
18
 73
14
 74
0
 42
0.0000001
 43
0.0000001
 44
0.0000000001
 40
0.0
 40
0.0
 40
0.0
 40
0.0
 40
0.1815104911
 40
0.3592694559
 40
0.5259212815
 40
0.6746452532
 40
0.7403987902
 40
0.7995435079
 40
0.8515564827
 40
0.8960400456
 40
0.932773138
 40
0.9618309655
 40
1.0
 40
1.0
 40
1.0
 40
1.0
 10
583.2106148445
 20
1130.2273876076
 30
0.0
 10
595.2763352606
 20
1130.4456675822
 30
0.0
 10
619.1682455317
 20
1130.4464431103
 30
0.0
 10
654.1196278723
 20
1129.1997136749
 30
0.0
 10
686.8233357878
 20
1126.7609798015
 30
0.0
 10
711.9941730284
 20
1123.7296837806
 30
0.0
 10
729.9358132658
 20
1120.6993194348
 30
0.0
 10
741.453674361
 20
1118.3083968517
 30
0.0
 10
751.4852019041
 20
1115.7256716956
 30
0.0
 10
759.9044077733
 20
1113.009089867
 30
0.0
 10
766.7116558173
 20
1110.1099370819
 30
0.0
 10
772.5775465086
 20
1106.7473226036
 30
0.0
 10
776.1290334546
 20
1103.0402530099
 30
0.0
 10
776.378275798
 20
1100.5148607462
 30
0.0
  0
SPLINE
  5
618
100
AcDbEntity
  8
3288E5__________________
100
AcDbSpline
 62
7
  6
CONTINUOUS
 70
0
 71
3
 72
9
 73
5
 74
0
 42
0.0000001
 43
0.0000001
 44
0.0000000001
 40
0.0
 40
0.0
 40
0.0
 40
0.0
 40
0.2766461673
 40
1.0
 40
1.0
 40
1.0
 40
1.0
 10
461.7245483437
 20
1039.6059978852
 30
0.0
 10
461.7301631093
 20
1039.6964247394
 30
0.0
 10
461.7565810424
 20
1040.0227280036
 30
0.0
 10
461.8087483357
 20
1040.3480740358
 30
0.0
 10
461.8710831232
 20
1040.5766226113
 30
0.0
  0
SPLINE
  5
619
100
AcDbEntity
  8
3288E5__________________
100
AcDbSpline
 62
7
  6
CONTINUOUS
 70
0
 71
3
 72
8
 73
4
 74
0
 42
0.0000001
 43
0.0000001
 44
0.0000000001
 40
0.0
 40
0.0
 40
0.0
 40
0.0
 40
1.0
 40
1.0
 40
1.0
 40
1.0
 10
461.8710831232
 20
1040.5766226113
 30
0.0
 10
461.9167668865
 20
1040.7441207199
 30
0.0
 10
461.9762996479
 20
1040.9095850296
 30
0.0
 10
462.0580005026
 20
1041.0627763901
 30
0.0
  0
SPLINE
  5
61A
100
AcDbEntity
  8
3288E5__________________
100
AcDbSpline
 62
7
  6
CONTINUOUS
 70
0
 71
3
 72
8
 73
4
 74
0
 42
0.0000001
 43
0.0000001
 44
0.0000000001
 40
0.0
 40
0.0
 40
0.0
 40
0.0
 40
1.0
 40
1.0
 40
1.0
 40
1.0
 10
462.0580005026
 20
1041.0627763901
 30
0.0
 10
462.0934177013
 20
1041.1291846164
 30
0.0
 10
462.1334004871
 20
1041.1934168267
 30
0.0
 10
462.178053622
 20
1041.2540017095
 30
0.0
  0
SPLINE
  5
61B
100
AcDbEntity
  8
3288E5__________________
100
AcDbSpline
 62
7
  6
CONTINUOUS
 70
0
 71
3
 72
8
 73
4
 74
0
 42
0.0000001
 43
0.0000001
 44
0.0000000001
 40
0.0
 40
0.0
 40
0.0
 40
0.0
 40
1.0
 40
1.0
 40
1.0
 40
1.0
 10
479.9094070019
 20
1121.8858320952
 30
0.0
 10
480.0274644925
 20
1121.905580496
 30
0.0
 10
480.1507588136
 20
1121.9050683978
 30
0.0
 10
480.2684927524
 20
1121.8834746468
 30
0.0
  0
SPLINE
  5
61C
100
AcDbEntity
  8
3288E5__________________
100
AcDbSpline
 62
7
  6
CONTINUOUS
 70
0
 71
3
 72
9
 73
5
 74
0
 42
0.0000001
 43
0.0000001
 44
0.0000000001
 40
0.0
 40
0.0
 40
0.0
 40
0.0
 40
0.2739443974
 40
1.0
 40
1.0
 40
1.0
 40
1.0
 10
476.7034623505
 20
1038.3759626557
 30
0.0
 10
476.7539957972
 20
1038.4363827301
 30
0.0
 10
476.9497865268
 20
1038.6464133161
 30
0.0
 10
477.2095023923
 20
1038.8026927498
 30
0.0
 10
477.411593217
 20
1038.8550449609
 30
0.0
  0
SPLINE
  5
61D
100
AcDbEntity
  8
3288E5__________________
100
AcDbSpline
 62
7
  6
CONTINUOUS
 70
0
 71
3
 72
8
 73
4
 74
0
 42
0.0000001
 43
0.0000001
 44
0.0000000001
 40
0.0
 40
0.0
 40
0.0
 40
0.0
 40
1.0
 40
1.0
 40
1.0
 40
1.0
 10
445.5972514796
 20
992.3489608888
 30
0.0
 10
445.4427231468
 20
992.3349350781
 30
0.0
 10
445.2792303068
 20
992.3965322174
 30
0.0
 10
445.1523371261
 20
992.4858286324
 30
0.0
  0
SPLINE
  5
61E
100
AcDbEntity
  8
3288E5__________________
100
AcDbSpline
 62
7
  6
CONTINUOUS
 70
0
 71
3
 72
8
 73
4
 74
0
 42
0.0000001
 43
0.0000001
 44
0.0000000001
 40
0.0
 40
0.0
 40
0.0
 40
0.0
 40
1.0
 40
1.0
 40
1.0
 40
1.0
 10
445.1523371261
 20
992.4858286324
 30
0.0
 10
445.1041267194
 20
992.5197549352
 30
0.0
 10
445.059060661
 20
992.5584090122
 30
0.0
 10
445.0172270312
 20
992.5999443557
 30
0.0
  0
SPLINE
  5
61F
100
AcDbEntity
  8
3288E5__________________
100
AcDbSpline
 62
7
  6
CONTINUOUS
 70
0
 71
3
 72
8
 73
4
 74
0
 42
0.0000001
 43
0.0000001
 44
0.0000000001
 40
0.0
 40
0.0
 40
0.0
 40
0.0
 40
1.0
 40
1.0
 40
1.0
 40
1.0
 10
445.0172270312
 20
992.5999443557
 30
0.0
 10
444.9184357543
 20
992.6980312214
 30
0.0
 10
444.8359432725
 20
992.812993866
 30
0.0
 10
444.7647146453
 20
992.9326067092
 30
0.0
  0
SPLINE
  5
620
100
AcDbEntity
  8
3288E5__________________
100
AcDbSpline
 62
7
  6
CONTINUOUS
 70
0
 71
3
 72
9
 73
5
 74
0
 42
0.0000001
 43
0.0000001
 44
0.0000000001
 40
0.0
 40
0.0
 40
0.0
 40
0.0
 40
0.230008349
 40
1.0
 40
1.0
 40
1.0
 40
1.0
 10
444.7647146453
 20
992.9326067092
 30
0.0
 10
444.6847687594
 20
993.0668582749
 30
0.0
 10
444.3887024393
 20
993.6821771978
 30
0.0
 10
444.2865121648
 20
994.3696072008
 30
0.0
 10
444.2431006746
 20
994.8908840508
 30
0.0
  0
SPLINE
  5
621
100
AcDbEntity
  8
3288E5__________________
100
AcDbSpline
 62
7
  6
CONTINUOUS
 70
0
 71
3
 72
8
 73
4
 74
0
 42
0.0000001
 43
0.0000001
 44
0.0000000001
 40
0.0
 40
0.0
 40
0.0
 40
0.0
 40
1.0
 40
1.0
 40
1.0
 40
1.0
 10
513.623191335
 20
980.1299953885
 30
0.0
 10
513.1015459446
 20
979.9727623528
 30
0.0
 10
512.4691868504
 20
980.0800122521
 30
0.0
 10
512.0059585629
 20
980.3668147877
 30
0.0
  0
SPLINE
  5
622
100
AcDbEntity
  8
3288E5__________________
100
AcDbSpline
 62
7
  6
CONTINUOUS
 70
0
 71
3
 72
8
 73
4
 74
0
 42
0.0000001
 43
0.0000001
 44
0.0000000001
 40
0.0
 40
0.0
 40
0.0
 40
0.0
 40
1.0
 40
1.0
 40
1.0
 40
1.0
 10
512.0059585629
 20
980.3668147877
 30
0.0
 10
511.8450888781
 20
980.4664154268
 30
0.0
 10
511.6967082182
 20
980.5880225048
 30
0.0
 10
511.5635554894
 20
980.7224460652
 30
0.0
  0
SPLINE
  5
623
100
AcDbEntity
  8
3288E5__________________
100
AcDbSpline
 62
7
  6
CONTINUOUS
 70
0
 71
3
 72
9
 73
5
 74
0
 42
0.0000001
 43
0.0000001
 44
0.0000000001
 40
0.0
 40
0.0
 40
0.0
 40
0.0
 40
0.235292981
 40
1.0
 40
1.0
 40
1.0
 40
1.0
 10
511.5635554894
 20
980.7224460652
 30
0.0
 10
511.4410223117
 20
980.8461487196
 30
0.0
 10
510.9622814897
 20
981.4197241709
 30
0.0
 10
510.7931437585
 20
982.1871582784
 30
0.0
 10
510.7362018229
 20
982.7501698982
 30
0.0
  0
SPLINE
  5
624
100
AcDbEntity
  8
3288E5__________________
100
AcDbSpline
 62
7
  6
CONTINUOUS
 70
0
 71
3
 72
9
 73
5
 74
0
 42
0.0000001
 43
0.0000001
 44
0.0000000001
 40
0.0
 40
0.0
 40
0.0
 40
0.0
 40
0.2754308301
 40
1.0
 40
1.0
 40
1.0
 40
1.0
 10
476.179597926
 20
1036.7172968997
 30
0.0
 10
476.1860938731
 20
1036.8079402549
 30
0.0
 10
476.2167416556
 20
1037.13630385
 30
0.0
 10
476.2775118117
 20
1037.4632250943
 30
0.0
 10
476.3489471517
 20
1037.6913675416
 30
0.0
  0
SPLINE
  5
625
100
AcDbEntity
  8
3288E5__________________
100
AcDbSpline
 62
7
  6
CONTINUOUS
 70
0
 71
3
 72
8
 73
4
 74
0
 42
0.0000001
 43
0.0000001
 44
0.0000000001
 40
0.0
 40
0.0
 40
0.0
 40
0.0
 40
1.0
 40
1.0
 40
1.0
 40
1.0
 10
476.3489471517
 20
1037.6913675416
 30
0.0
 10
476.4023306558
 20
1037.8618579913
 30
0.0
 10
476.4720099319
 20
1038.0292799331
 30
0.0
 10
476.5648492856
 20
1038.1819155984
 30
0.0
  0
SPLINE
  5
626
100
AcDbEntity
  8
3288E5__________________
100
AcDbSpline
 62
7
  6
CONTINUOUS
 70
0
 71
3
 72
9
 73
5
 74
0
 42
0.0000001
 43
0.0000001
 44
0.0000000001
 40
0.0
 40
0.0
 40
0.0
 40
0.0
 40
0.7092319906
 40
1.0
 40
1.0
 40
1.0
 40
1.0
 10
440.7937938736
 20
994.0720811333
 30
0.0
 10
440.6581378241
 20
994.0615948698
 30
0.0
 10
440.4613604093
 20
994.1525959322
 30
0.0
 10
440.3273961128
 20
994.2874547461
 30
0.0
 10
440.2907051309
 20
994.3294709482
 30
0.0
  0
SPLINE
  5
627
100
AcDbEntity
  8
3288E5__________________
100
AcDbSpline
 62
7
  6
CONTINUOUS
 70
0
 71
3
 72
8
 73
4
 74
0
 42
0.0000001
 43
0.0000001
 44
0.0000000001
 40
0.0
 40
0.0
 40
0.0
 40
0.0
 40
1.0
 40
1.0
 40
1.0
 40
1.0
 10
440.2907051309
 20
994.3294709482
 30
0.0
 10
440.2494915922
 20
994.3766660977
 30
0.0
 10
440.211994773
 20
994.4272221205
 30
0.0
 10
440.1774821062
 20
994.4795175672
 30
0.0
  0
SPLINE
  5
628
100
AcDbEntity
  8
3288E5__________________
100
AcDbSpline
 62
7
  6
CONTINUOUS
 70
0
 71
3
 72
8
 73
4
 74
0
 42
0.0000001
 43
0.0000001
 44
0.0000000001
 40
0.0
 40
0.0
 40
0.0
 40
0.0
 40
1.0
 40
1.0
 40
1.0
 40
1.0
 10
440.1774821062
 20
994.4795175672
 30
0.0
 10
440.1381338196
 20
994.539140205
 30
0.0
 10
440.1024890487
 20
994.6012799302
 30
0.0
 10
440.0696366
 20
994.6647138582
 30
0.0
  0
SPLINE
  5
629
100
AcDbEntity
  8
3288E5__________________
100
AcDbSpline
 62
7
  6
CONTINUOUS
 70
0
 71
3
 72
9
 73
5
 74
0
 42
0.0000001
 43
0.0000001
 44
0.0000000001
 40
0.0
 40
0.0
 40
0.0
 40
0.0
 40
0.2271513277
 40
1.0
 40
1.0
 40
1.0
 40
1.0
 10
440.0696366
 20
994.6647138582
 30
0.0
 10
439.9991302346
 20
994.8008527426
 30
0.0
 10
439.7381704025
 20
995.4264126822
 30
0.0
 10
439.6515415373
 20
996.1080628441
 30
0.0
 10
439.6137513443
 20
996.6283176222
 30
0.0
  0
ENDSEC
  0
SECTION
  2
OBJECTS
  0
DICTIONARY
  5
C
100
AcDbDictionary
280
0
281
1
  3
ACAD_GROUP
350
D
  3
ACAD_MLINESTYLE
350
17
  3
ACAD_LAYOUT
350
1A
  3
ACAD_PLOTSETTINGS
350
19
  3
ACAD_PLOTSTYLENAME
350
E
  0
DICTIONARY
  5
D
102
{ACAD_REACTORS
330
C
102
}
100
AcDbDictionary
280
0
281
1
  0
ACDBDICTIONARYWDFLT
  5
E
102
{ACAD_REACTORS
330
C
102
}
100
AcDbDictionary
281
1
  3
Normal
350
F
100
AcDbDictionaryWithDefault
340
F
  0
DICTIONARY
  5
17
102
{ACAD_REACTORS
330
C
102
}
100
AcDbDictionary
280
0
281
1
  3
Standard
350
18
  0
DICTIONARY
  5
19
102
{ACAD_REACTORS
330
C
102
}
100
AcDbDictionary
281
1
  0
DICTIONARY
  5
1A
102
{ACAD_REACTORS
330
C
102
}
100
AcDbDictionary
281
1
  3
Model
350
62A
  3
Layout1
350
62B
  0
ACDBPLACEHOLDER
  5
F
102
{ACAD_REACTORS
330
E
102
}
  0
MLINESTYLE
  5
18
102
{ACAD_REACTORS
330
17
102
}
100
AcDbMlineStyle
  2
STANDARD
 70
0
  3

 62
256
 51
90.0
 52
90.0
 71
2
 49
0.5
 62
256
  6
BYLAYER
 49
-0.5
 62
256
  6
BYLAYER
  0
LAYOUT
  5
62A
102
{ACAD_REACTORS
330
1A
102
}
100
AcDbPlotSettings
  1

  2
none_device
  4

  6

 40
0.0
 41
0.0
 42
0.0
 43
0.0
 44
1100.0
 45
1300.0
 46
0.0
 47
0.0
 48
0.0
 49
0.0
140
0.0
141
0.0
142
1.0
143
1.0
 70
1024
 72
1
 73
0
 74
0
  7

 75
0
147
1.0
148
0.0
149
0.0
100
AcDbLayout
  1
Model
 70
0
 71
0
 10
0.0
 20
0.0
 11
1100.0
 21
1300.0
 12
0.0
 22
0.0
 32
0.0
 14
0.0
 24
0.0
 34
0.0
 15
0.0
 25
0.0
 35
0.0
146
0.0
 13
0.0
 23
0.0
 33
0.0
 16
1.0
 26
0.0
 36
0.0
 17
0.0
 27
1.0
 37
0.0
 76
0
330
220
345
0
346
0
  0
LAYOUT
  5
62B
102
{ACAD_REACTORS
330
1A
102
}
100
AcDbPlotSettings
  1

  2
none_device
  4

  6

 40
0.0
 41
0.0
 42
0.0
 43
0.0
 44
1100.0
 45
1300.0
 46
0.0
 47
0.0
 48
0.0
 49
0.0
140
0.0
141
0.0
142
1.0
143
1.0
 70
0
 72
1
 73
0
 74
0
  7

 75
0
147
1.0
148
0.0
149
0.0
100
AcDbLayout
  1
Layout1
 70
0
 71
1
 10
0.0
 20
0.0
 11
1100.0
 21
1300.0
 12
0.0
 22
0.0
 32
0.0
 14
0.0
 24
0.0
 34
0.0
 15
0.0
 25
0.0
 35
0.0
146
0.0
 13
0.0
 23
0.0
 33
0.0
 16
1.0
 26
0.0
 36
0.0
 17
0.0
 27
1.0
 37
0.0
 76
0
330
221
345
0
346
0
  0
ENDSEC
  0
EOF
