999
DXF file: C:\Users\renan.sartori\Desktop\94826.dxf
999
Pro/ENGINEER 2013150 by Parametric Technology Corporation
  0
SECTION
  2
HEADER
  9
$ACADVER
  1
AC1021
  9
$DWGCODEPAGE
  3
ANSI_1252
  9
$EXTMAX
 10
841.0
 20
594.0
 30
0.0
  9
$EXTMIN
 10
0.0
 20
0.0
 30
0.0
  9
$LIMMIN
 10
0.0
 20
0.0
  9
$LIMMAX
 10
841.0
 20
594.0
  9
$VIEWCTR
 10
420.5
 20
297.0
  9
$VIEWSIZE
 40
594.0
  9
$CLAYER
  8
0
  9
$LTSCALE
 40
46.255
  9
$CELTYPE
  6
BYLAYER
  9
$DIMSCALE
 40
1.0
  9
$DIMASZ
 40
3.0
  9
$DIMEXO
 40
0.5
  9
$DIMDLI
 40
31.958
  9
$DIMEXE
 40
0.5
  9
$DIMCEN
 40
7.569
  9
$DIMLFAC
 40
1.0
  9
$DIMBLK
  1
_FILLED
  9
$DIMTXT
 40
1.8
  9
$DIMTOL
 70
1
  9
$DIMLIM
 70
0
  9
$DIMTFAC
 40
1.0
  9
$DIMTP
 40
0.001
  9
$DIMTM
 40
0.001
  9
$DIMGAP
 40
0.625
  9
$DIMDSEP
 70
46
  9
$PDMODE
 70
3
  9
$PDSIZE
 40
1.0
  9
$HANDSEED
  5
4FE
  9
$TILEMODE
 70
1
  9
$MEASUREMENT
 70
1
  9
$INSUNITS
 70
4
  0
ENDSEC
  0
SECTION
  2
CLASSES
  0
CLASS
  1
ACDBDICTIONARYWDFLT
  2
AcDbDictionaryWithDefault
  3
AutoCAD 2000
 90
0
 91
1
280
0
281
0
  0
CLASS
  1
ACDBPLACEHOLDER
  2
AcDbPlaceHolder
  3
AutoCAD 2000
 90
0
 91
1
280
0
281
0
  0
CLASS
  1
LAYOUT
  2
AcDbLayout
  3
AutoCAD 2000
 90
0
 91
0
280
0
281
0
  0
ENDSEC
  0
SECTION
  2
TABLES
  0
TABLE
  2
VPORT
  5
8
100
AcDbSymbolTable
 70
2
  0
VPORT
  5
1F4
100
AcDbSymbolTableRecord
100
AcDbViewportTableRecord
  2
*ACTIVE
 70
0
 10
0.0
 20
0.0
 11
1.0
 21
1.0
 12
420.5
 22
297.0
 13
0.0
 23
0.0
 14
1.0
 24
1.0
 15
0.0
 25
0.0
 16
0.0
 26
0.0
 36
1.0
 17
0.0
 27
0.0
 37
0.0
 40
594.0
 41
1.4158249158
 42
50.0
 43
0.0
 44
0.0
 50
0.0
 51
0.0
 71
0
 72
100
 73
1
 74
1
 75
0
 76
0
 77
0
 78
0
  0
ENDTAB
  0
TABLE
  2
LTYPE
  5
5
100
AcDbSymbolTable
 70
6
  0
LTYPE
  5
14
100
AcDbSymbolTableRecord
100
AcDbLinetypeTableRecord
  2
BYBLOCK
 70
0
  3

 72
65
 73
0
 40
0.0
  0
LTYPE
  5
15
100
AcDbSymbolTableRecord
100
AcDbLinetypeTableRecord
  2
BYLAYER
 70
0
  3

 72
65
 73
0
 40
0.0
  0
LTYPE
  5
16
100
AcDbSymbolTableRecord
100
AcDbLinetypeTableRecord
  2
CONTINUOUS
 70
64
  3
Solid line
 72
65
 73
0
 40
0.0
  0
LTYPE
  5
1F5
100
AcDbSymbolTableRecord
100
AcDbLinetypeTableRecord
  2
CENTER
 70
64
  3
____ _ ____ _ ____ _ ____ _ ____ _ ____ _ ____
 72
65
 73
4
 40
0.6
 49
0.375
 74
0
 49
-0.075
 74
0
 49
0.075
 74
0
 49
-0.075
 74
0
  0
LTYPE
  5
1F6
100
AcDbSymbolTableRecord
100
AcDbLinetypeTableRecord
  2
HIDDEN
 70
64
  3
- - - - - - - - - - - - - - - - - - - -
 72
65
 73
2
 40
0.2
 49
0.1
 74
0
 49
-0.1
 74
0
  0
LTYPE
  5
1F7
100
AcDbSymbolTableRecord
100
AcDbLinetypeTableRecord
  2
PHANTOM
 70
64
  3
_____ _ _ _____ _ _ _____ _ _ _____
 72
65
 73
6
 40
0.8
 49
0.45
 74
0
 49
-0.05
 74
0
 49
0.1
 74
0
 49
-0.05
 74
0
 49
0.1
 74
0
 49
-0.05
 74
0
  0
LTYPE
  5
1F8
100
AcDbSymbolTableRecord
100
AcDbLinetypeTableRecord
  2
DOT
 70
64
  3
. . . . . . . . . . . . . . . . . . . .
 72
65
 73
2
 40
0.2
 49
0.1
 74
0
 49
-0.1
 74
0
  0
LTYPE
  5
1F9
100
AcDbSymbolTableRecord
100
AcDbLinetypeTableRecord
  2
DASHED
 70
64
  3
- - - - - - - - - - - - - - - - - - - -
 72
65
 73
2
 40
0.2
 49
0.1
 74
0
 49
-0.1
 74
0
  0
ENDTAB
  0
TABLE
  2
LAYER
  5
2
100
AcDbSymbolTable
 70
36
  0
LAYER
  5
10
100
AcDbSymbolTableRecord
100
AcDbLayerTableRecord
  2
0
 70
0
 62
7
  6
CONTINUOUS
370
-3
390
F
  0
LAYER
  5
1FA
100
AcDbSymbolTableRecord
100
AcDbLayerTableRecord
  2
DEFAULT_1
 70
0
 62
7
  6
CENTER
370
-3
390
F
  0
LAYER
  5
1FB
100
AcDbSymbolTableRecord
100
AcDbLayerTableRecord
  2
DEFAULT_2
 70
0
 62
8
  6
HIDDEN
370
-3
390
F
  0
LAYER
  5
1FC
100
AcDbSymbolTableRecord
100
AcDbLayerTableRecord
  2
DEFAULT_3
 70
0
 62
7
  6
PHANTOM
370
-3
390
F
  0
LAYER
  5
1FD
100
AcDbSymbolTableRecord
100
AcDbLayerTableRecord
  2
CAMADA_1
 70
0
 62
7
  6
CONTINUOUS
370
-3
390
F
  0
ENDTAB
  0
TABLE
  2
STYLE
  5
3
100
AcDbSymbolTable
 70
1
  0
STYLE
  5
11
100
AcDbSymbolTableRecord
100
AcDbTextStyleTableRecord
  2
STANDARD
 70
0
 40
0.0
 41
0.8
 50
0.0
 71
0
 42
0.2
  3
txt
  4

  0
STYLE
  5
1FE
100
AcDbSymbolTableRecord
100
AcDbTextStyleTableRecord
  2
TEXTSTYLE_1
 70
0
 40
0.0
 41
0.8
 50
0.0
 71
0
 42
0.2
  3
gdt
  4

  0
ENDTAB
  0
TABLE
  2
VIEW
  5
6
100
AcDbSymbolTable
 70
0
  0
ENDTAB
  0
TABLE
  2
UCS
  5
7
100
AcDbSymbolTable
 70
0
  0
ENDTAB
  0
TABLE
  2
APPID
  5
9
100
AcDbSymbolTable
 70
1
  0
APPID
  5
1FF
100
AcDbSymbolTableRecord
100
AcDbRegAppTableRecord
  2
ACAD
 70
0
  0
ENDTAB
  0
TABLE
  2
BLOCK_RECORD
  5
1
100
AcDbSymbolTable
 70
0
  0
BLOCK_RECORD
  5
200
100
AcDbSymbolTableRecord
100
AcDbBlockTableRecord
  2
*Model_Space
  0
BLOCK_RECORD
  5
201
100
AcDbSymbolTableRecord
100
AcDbBlockTableRecord
  2
*Paper_Space
  0
BLOCK_RECORD
  5
202
100
AcDbSymbolTableRecord
100
AcDbBlockTableRecord
  2
_FILLED
  0
BLOCK_RECORD
  5
203
100
AcDbSymbolTableRecord
100
AcDbBlockTableRecord
  2
*D0
  0
BLOCK_RECORD
  5
204
100
AcDbSymbolTableRecord
100
AcDbBlockTableRecord
  2
*D1
  0
BLOCK_RECORD
  5
205
100
AcDbSymbolTableRecord
100
AcDbBlockTableRecord
  2
*D2
  0
BLOCK_RECORD
  5
206
100
AcDbSymbolTableRecord
100
AcDbBlockTableRecord
  2
*D3
  0
BLOCK_RECORD
  5
207
100
AcDbSymbolTableRecord
100
AcDbBlockTableRecord
  2
*D4
  0
ENDTAB
  0
TABLE
  2
DIMSTYLE
  5
A
100
AcDbSymbolTable
 70
1
100
AcDbDimStyleTable
 71
0
  0
DIMSTYLE
105
208
100
AcDbSymbolTableRecord
100
AcDbDimStyleTableRecord
  2
STANDARD
 70
0
  3

  4

 40
1.0
 41
3.0
 42
0.5
 43
0.38
 44
0.5
 45
0.0
 46
0.0
 47
0.001
 48
0.001
140
1.8
141
0.09
142
0.0
143
25.4
144
1.0
145
0.0
146
1.0
147
0.625
 71
1.0
 72
0.0
 73
0
 74
0
 75
0
 76
0
 77
1
 78
8
170
0
171
2
172
0
173
0
174
0
175
0
176
0
177
0
178
0
270
2
271
3
272
3
273
2
274
2
275
0
280
0
281
0
282
0
283
1
284
8
285
0
286
0
287
3
288
0
340
11
278
46
341
202
342
202
343
202
344
202
  0
DIMSTYLE
105
209
100
AcDbSymbolTableRecord
100
AcDbDimStyleTableRecord
  2
DIMSTYLE_1
 70
0
  3

  4

 40
1.0
 41
3.0
 42
0.5
 43
0.38
 44
0.5
 45
0.0
 46
0.0
 47
0.5
 48
0.5
140
1.8
141
0.09
142
0.0
143
25.4
144
1.0
145
0.0
146
1.0
147
0.45
 71
0.0
 72
0.0
 73
0
 74
0
 75
0
 76
0
 77
1
 78
8
170
0
171
2
172
0
173
0
174
0
175
0
176
0
177
0
178
0
270
2
271
3
272
3
273
2
274
2
275
0
280
0
281
0
282
0
283
1
284
8
285
0
286
0
287
3
288
0
340
11
278
46
341
202
342
202
343
202
344
202
  0
DIMSTYLE
105
20A
100
AcDbSymbolTableRecord
100
AcDbDimStyleTableRecord
  2
DIMSTYLE_2
 70
0
  3

  4

 40
1.0
 41
3.0
 42
0.5
 43
0.38
 44
0.5
 45
0.0
 46
0.0
 47
0.2
 48
0.2
140
1.8
141
0.09
142
0.0
143
25.4
144
1.0
145
0.0
146
1.0
147
0.45
 71
0.0
 72
0.0
 73
0
 74
0
 75
0
 76
0
 77
1
 78
8
170
0
171
2
172
0
173
0
174
0
175
0
176
0
177
0
178
0
270
2
271
3
272
3
273
2
274
2
275
0
280
0
281
0
282
0
283
1
284
8
285
0
286
0
287
3
288
0
340
11
278
46
341
202
342
202
343
202
344
202
  0
ENDTAB
  0
ENDSEC
  0
SECTION
  2
BLOCKS
  0
BLOCK
  5
20
100
AcDbEntity
  8
0
100
AcDbBlockBegin
  2
*Model_Space
 70
0
 10
0.0
 20
0.0
 30
0.0
  3
*Model_Space
  1

  0
ENDBLK
  5
21
100
AcDbEntity
  8
0
100
AcDbBlockEnd
  0
BLOCK
  5
1C
100
AcDbEntity
  8
0
100
AcDbBlockBegin
  2
*Paper_Space
 70
0
 10
0.0
 20
0.0
 30
0.0
  3
*Paper_Space
  1

  0
ENDBLK
  5
1D
100
AcDbEntity
  8
0
100
AcDbBlockEnd
  0
BLOCK
  5
20B
100
AcDbEntity
  8
0
100
AcDbBlockBegin
  2
_FILLED
 70
64
 10
0.0
 20
0.0
  3
_FILLED
  1

  0
SOLID
  5
20C
100
AcDbEntity
  8
0
  6
BYBLOCK
 62
0
100
AcDbTrace
 10
0.0
 20
0.0
 11
-1.0
 21
0.1666666667
 12
-1.0
 22
-0.1666666667
 13
-1.0
 23
-0.1666666667
  0
ENDBLK
  5
20D
100
AcDbEntity
  8
0
  6
BYBLOCK
 62
0
100
AcDbBlockEnd
  0
BLOCK
  5
20E
100
AcDbEntity
  8
0
100
AcDbBlockBegin
 62
2
  6
CONTINUOUS
  2
*D0
 70
65
 10
0.0
 20
0.0
  3
*D0
  1

  0
MTEXT
  5
20F
100
AcDbEntity
  8
0
100
AcDbMText
 62
2
  6
CONTINUOUS
  7
STANDARD
 71
2
 72
1
 10
537.2956892371
 20
151.8960698574
 30
0.0
 11
0.9461886483
 21
0.3236155771
 31
0.0
 44
0.9
  1
900
 40
1.8
 41
8.3314285714
  0
LINE
  5
210
100
AcDbEntity
  8
0
100
AcDbLine
 62
2
  6
CONTINUOUS
 10
644.6387739215
 20
199.6678077758
 11
665.2492933427
 21
192.6174738814
  0
LINE
  5
211
100
AcDbEntity
  8
0
100
AcDbLine
 62
2
  6
CONTINUOUS
 10
391.3420472807
 20
113.0352250262
 11
411.952566702
 21
105.9848911318
  0
LINE
  5
212
100
AcDbEntity
  8
0
100
AcDbLine
 62
2
  6
CONTINUOUS
 10
664.7762068986
 20
192.7793047079
 11
538.1278435782
 21
149.4630133331
  0
LINE
  5
213
100
AcDbEntity
  8
0
100
AcDbLine
 62
2
  6
CONTINUOUS
 10
411.4794802579
 20
106.1467219583
 11
538.1278435782
 21
149.4630133331
  0
INSERT
  5
214
100
AcDbEntity
  8
0
100
AcDbBlockReference
 62
2
  6
CONTINUOUS
  2
_FILLED
 10
664.7762068986
 20
192.7793047079
 41
3.0
 42
3.0
 43
3.0
 50
18.8817212309
  0
INSERT
  5
215
100
AcDbEntity
  8
0
100
AcDbBlockReference
 62
2
  6
CONTINUOUS
  2
_FILLED
 10
411.4794802579
 20
106.1467219583
 41
3.0
 42
3.0
 43
3.0
 50
198.8817212309
  0
ENDBLK
  5
216
100
AcDbEntity
  8
0
  6
BYBLOCK
 62
0
100
AcDbBlockEnd
  0
BLOCK
  5
217
100
AcDbEntity
  8
0
100
AcDbBlockBegin
 62
2
  6
CONTINUOUS
  2
*D1
 70
65
 10
0.0
 20
0.0
  3
*D1
  1

  0
MTEXT
  5
218
100
AcDbEntity
  8
0
100
AcDbMText
 62
2
  6
CONTINUOUS
  7
STANDARD
 71
2
 72
1
 10
300.8186731699
 20
132.9148043542
 30
0.0
 11
0.9461886483
 21
-0.3236155771
 31
0.0
 44
0.9
  1
500
 40
1.8
 41
8.3314285714
  0
LINE
  5
219
100
AcDbEntity
  8
0
100
AcDbLine
 62
2
  6
CONTINUOUS
 10
390.3958710707
 20
113.0352347372
 11
370.2241071815
 21
106.1354504497
  0
LINE
  5
21A
100
AcDbEntity
  8
0
100
AcDbLine
 62
2
  6
CONTINUOUS
 10
248.9745148334
 20
161.4041872668
 11
228.8027509442
 21
154.5044029793
  0
LINE
  5
21B
100
AcDbEntity
  8
0
100
AcDbLine
 62
2
  6
CONTINUOUS
 10
370.6971969474
 20
106.2972715651
 11
299.9865188287
 21
130.4817478299
  0
LINE
  5
21C
100
AcDbEntity
  8
0
100
AcDbLine
 62
2
  6
CONTINUOUS
 10
229.2758407101
 20
154.6662240947
 11
299.9865188287
 21
130.4817478299
  0
INSERT
  5
21D
100
AcDbEntity
  8
0
100
AcDbBlockReference
 62
2
  6
CONTINUOUS
  2
_FILLED
 10
370.6971969474
 20
106.2972715651
 41
3.0
 42
3.0
 43
3.0
 50
341.1182787691
  0
INSERT
  5
21E
100
AcDbEntity
  8
0
100
AcDbBlockReference
 62
2
  6
CONTINUOUS
  2
_FILLED
 10
229.2758407101
 20
154.6662240947
 41
3.0
 42
3.0
 43
3.0
 50
161.1182787691
  0
ENDBLK
  5
21F
100
AcDbEntity
  8
0
  6
BYBLOCK
 62
0
100
AcDbBlockEnd
  0
BLOCK
  5
220
100
AcDbEntity
  8
0
100
AcDbBlockBegin
 62
2
  6
CONTINUOUS
  2
*D2
 70
65
 10
0.0
 20
0.0
  3
*D2
  1

  0
MTEXT
  5
221
100
AcDbEntity
  8
0
100
AcDbMText
 62
2
  6
CONTINUOUS
  7
STANDARD
 71
2
 72
1
 10
232.4707283593
 20
180.3370440699
 30
0.0
 11
0.0
 21
1.0
 31
0.0
 44
0.9
  1
75
 40
1.8
 41
5.5542857143
  0
LINE
  5
222
100
AcDbEntity
  8
0
100
AcDbLine
 62
2
  6
CONTINUOUS
 10
248.9740485723
 20
189.506746817
 11
234.5686009038
 21
194.3876390457
  0
LINE
  5
223
100
AcDbEntity
  8
0
100
AcDbLine
 62
2
  6
CONTINUOUS
 10
248.9740485723
 20
161.7264598993
 11
234.5686009038
 21
166.607352128
  0
LINE
  5
224
100
AcDbEntity
  8
0
100
AcDbLine
 62
2
  6
CONTINUOUS
 10
235.0421569307
 20
194.2271875287
 11
235.0421569307
 21
180.3370440699
  0
LINE
  5
225
100
AcDbEntity
  8
0
100
AcDbLine
 62
2
  6
CONTINUOUS
 10
235.0421569307
 20
166.446900611
 11
235.0421569307
 21
180.3370440699
  0
INSERT
  5
226
100
AcDbEntity
  8
0
100
AcDbBlockReference
 62
2
  6
CONTINUOUS
  2
_FILLED
 10
235.0421569307
 20
194.2271875287
 41
3.0
 42
3.0
 43
3.0
 50
90.0
  0
INSERT
  5
227
100
AcDbEntity
  8
0
100
AcDbBlockReference
 62
2
  6
CONTINUOUS
  2
_FILLED
 10
235.0421569307
 20
166.446900611
 41
3.0
 42
3.0
 43
3.0
 50
270.0
  0
ENDBLK
  5
228
100
AcDbEntity
  8
0
  6
BYBLOCK
 62
0
100
AcDbBlockEnd
  0
BLOCK
  5
229
100
AcDbEntity
  8
0
100
AcDbBlockBegin
 62
2
  6
CONTINUOUS
  2
*D3
 70
65
 10
0.0
 20
0.0
  3
*D3
  1

  0
MTEXT
  5
22A
100
AcDbEntity
  8
0
100
AcDbMText
 62
2
  6
CONTINUOUS
  7
STANDARD
 71
2
 72
1
 10
215.1973283862
 20
353.7859872002
 30
0.0
 11
0.0
 21
1.0
 31
0.0
 44
0.9
  1
565-1045
 40
1.8
 41
22.2171428571
  0
LINE
  5
22B
100
AcDbEntity
  8
0
100
AcDbLine
 62
2
  6
CONTINUOUS
 10
330.1508797196
 20
496.0057217351
 11
275.2527039624
 21
514.9749656389
  0
LINE
  5
22C
100
AcDbEntity
  8
0
100
AcDbLine
 62
2
  6
CONTINUOUS
 10
275.2527039624
 20
514.9749656389
 11
216.9747450262
 21
535.1120430925
  0
LINE
  5
22D
100
AcDbEntity
  8
0
100
AcDbLine
 62
2
  6
CONTINUOUS
 10
248.9750212394
 20
161.7293024971
 11
216.9747450263
 21
172.7865195377
  0
LINE
  5
22E
100
AcDbEntity
  8
0
100
AcDbLine
 62
2
  6
CONTINUOUS
 10
217.4473283861
 20
534.9487489776
 11
217.4473283862
 21
353.7859872002
  0
LINE
  5
22F
100
AcDbEntity
  8
0
100
AcDbLine
 62
2
  6
CONTINUOUS
 10
217.4473283862
 20
172.6232254228
 11
217.4473283862
 21
353.7859872002
  0
INSERT
  5
230
100
AcDbEntity
  8
0
100
AcDbBlockReference
 62
2
  6
CONTINUOUS
  2
_FILLED
 10
217.4473283861
 20
534.9487489776
 41
3.0
 42
3.0
 43
3.0
 50
90.0
  0
INSERT
  5
231
100
AcDbEntity
  8
0
100
AcDbBlockReference
 62
2
  6
CONTINUOUS
  2
_FILLED
 10
217.4473283862
 20
172.6232254228
 41
3.0
 42
3.0
 43
3.0
 50
270.0
  0
ENDBLK
  5
232
100
AcDbEntity
  8
0
  6
BYBLOCK
 62
0
100
AcDbBlockEnd
  0
BLOCK
  5
233
100
AcDbEntity
  8
0
100
AcDbBlockBegin
 62
2
  6
CONTINUOUS
  2
*D4
 70
65
 10
0.0
 20
0.0
  3
*D4
  1

  0
MTEXT
  5
234
100
AcDbEntity
  8
0
100
AcDbMText
 62
2
  6
CONTINUOUS
  7
STANDARD
 71
2
 72
1
 10
232.7932540826
 20
361.363128575
 30
0.0
 11
0.0
 21
1.0
 31
0.0
 44
0.9
  1
490-970
 40
1.8
 41
19.44
  0
LINE
  5
235
100
AcDbEntity
  8
0
100
AcDbLine
 62
2
  6
CONTINUOUS
 10
248.9744057713
 20
189.507797217
 11
234.5700552547
 21
194.4239763876
  0
LINE
  5
236
100
AcDbEntity
  8
0
100
AcDbLine
 62
2
  6
CONTINUOUS
 10
330.1502642515
 20
496.0039295372
 11
287.7020857908
 21
510.4914172265
  0
LINE
  5
237
100
AcDbEntity
  8
0
100
AcDbLine
 62
2
  6
CONTINUOUS
 10
287.7020857908
 20
510.4914172265
 11
234.5700552546
 21
528.6252845963
  0
LINE
  5
238
100
AcDbEntity
  8
0
100
AcDbLine
 62
2
  6
CONTINUOUS
 10
235.0432540827
 20
194.2624744706
 11
235.0432540826
 21
361.363128575
  0
LINE
  5
239
100
AcDbEntity
  8
0
100
AcDbLine
 62
2
  6
CONTINUOUS
 10
235.0432540826
 20
528.4637826793
 11
235.0432540826
 21
361.363128575
  0
INSERT
  5
23A
100
AcDbEntity
  8
0
100
AcDbBlockReference
 62
2
  6
CONTINUOUS
  2
_FILLED
 10
235.0432540827
 20
194.2624744706
 41
3.0
 42
3.0
 43
3.0
 50
270.0
  0
INSERT
  5
23B
100
AcDbEntity
  8
0
100
AcDbBlockReference
 62
2
  6
CONTINUOUS
  2
_FILLED
 10
235.0432540826
 20
528.4637826793
 41
3.0
 42
3.0
 43
3.0
 50
90.0
  0
ENDBLK
  5
23C
100
AcDbEntity
  8
0
  6
BYBLOCK
 62
0
100
AcDbBlockEnd
  0
ENDSEC
  0
SECTION
  2
ENTITIES
  0
DIMENSION
  5
23D
100
AcDbEntity
  8
0
100
AcDbDimension
 62
2
  6
CONTINUOUS
  2
*D0
 10
411.4794802579
 20
106.1467219583
 11
538.1278435782
 21
149.4630133331
 70
160
 71
2
 42
267.7021406728
  3
DIMSTYLE_1
100
AcDbAlignedDimension
 13
644.4769661329
 23
200.1409021
 14
391.1802394922
 24
113.5083193503
 50
198.8817212309
100
AcDbRotatedDimension
  0
DIMENSION
  5
23E
100
AcDbEntity
  8
0
100
AcDbDimension
 62
2
  6
CONTINUOUS
  2
*D1
 10
229.2758407101
 20
154.6662240947
 11
299.9865188287
 21
130.4817478299
 70
160
 71
2
 42
149.464228392
  3
DIMSTYLE_1
100
AcDbAlignedDimension
 13
390.5576788593
 23
113.5083290614
 14
249.136322622
 24
161.877281591
 50
161.1182787691
100
AcDbRotatedDimension
  0
DIMENSION
  5
23F
100
AcDbEntity
  8
0
100
AcDbDimension
 62
2
  6
CONTINUOUS
  2
*D2
 10
235.0421569307
 20
166.446900611
 11
235.0421569307
 21
180.3370440699
 70
160
 71
2
 42
27.7802869177
  3
DIMSTYLE_2
100
AcDbAlignedDimension
 13
249.4740485723
 23
189.506746817
 14
249.4740485723
 24
161.7264598993
 50
270.0
100
AcDbRotatedDimension
  0
DIMENSION
  5
240
100
AcDbEntity
  8
0
100
AcDbDimension
 62
2
  6
CONTINUOUS
  2
*D3
 10
217.4473283862
 20
172.6232254228
 11
217.4473283862
 21
353.7859872002
 70
160
 71
2
 42
334.2764192379
  1
<>565-1045
  3
DIMSTYLE_1
100
AcDbAlignedDimension
 13
330.6508797196
 23
496.0057217351
 14
249.4750212394
 24
161.7293024971
 50
270.0
100
AcDbRotatedDimension
  0
DIMENSION
  5
241
100
AcDbEntity
  8
0
100
AcDbDimension
 62
2
  6
CONTINUOUS
  2
*D4
 10
235.0432540826
 20
528.4637826793
 11
235.0432540826
 21
361.363128575
 70
160
 71
2
 42
306.4961323202
  1
<>490-970
  3
DIMSTYLE_1
100
AcDbAlignedDimension
 13
249.4744057713
 23
189.507797217
 14
330.6502642515
 24
496.0039295372
 50
90.0
100
AcDbRotatedDimension
  0
LINE
  5
242
100
AcDbEntity
  8
0
100
AcDbLine
 62
3
  6
CONTINUOUS
 10
390.8689608366
 20
113.1970558526
 11
249.4476045993
 21
161.5660083822
  0
LINE
  5
243
100
AcDbEntity
  8
0
100
AcDbLine
 62
3
  6
CONTINUOUS
 10
249.4476045993
 20
189.3462952999
 11
249.4476045993
 21
161.5660083822
  0
LINE
  5
244
100
AcDbEntity
  8
0
100
AcDbLine
 62
3
  6
CONTINUOUS
 10
499.7577197144
 20
500.3678170471
 11
408.5749146375
 21
469.1814609859
  0
LINE
  5
245
100
AcDbEntity
  8
0
100
AcDbLine
 62
3
  6
CONTINUOUS
 10
249.4476045993
 20
189.3462952999
 11
390.8689608366
 21
141.4534547575
  0
LINE
  5
246
100
AcDbEntity
  8
0
100
AcDbLine
 62
3
  6
CONTINUOUS
 10
330.0210366726
 20
401.818015164
 11
331.0474620291
 21
402.1690733115
  0
LINE
  5
247
100
AcDbEntity
  8
0
100
AcDbLine
 62
3
  6
CONTINUOUS
 10
330.0210366727
 20
216.9040320859
 11
330.0210366726
 21
401.818015164
  0
LINE
  5
248
100
AcDbEntity
  8
0
100
AcDbLine
 62
3
  6
CONTINUOUS
 10
330.6234630795
 20
444.5164166729
 11
330.6234630795
 21
495.8424276202
  0
LINE
  5
249
100
AcDbEntity
  8
0
100
AcDbLine
 62
3
  6
CONTINUOUS
 10
331.019442877
 20
401.5926256169
 11
331.019442877
 21
444.4212443142
  0
LINE
  5
24A
100
AcDbEntity
  8
0
100
AcDbLine
 62
3
  6
CONTINUOUS
 10
332.2780929475
 20
488.0972592528
 11
332.2780929475
 21
486.4434002402
  0
LINE
  5
24B
100
AcDbEntity
  8
0
100
AcDbLine
 62
3
  6
CONTINUOUS
 10
332.2780929475
 20
452.1822072864
 11
332.2780929475
 21
451.6559794187
  0
LINE
  5
24C
100
AcDbEntity
  8
0
100
AcDbLine
 62
3
  6
CONTINUOUS
 10
333.1549053562
 20
451.356091913
 11
333.1549053562
 21
451.8823197807
  0
LINE
  5
24D
100
AcDbEntity
  8
0
100
AcDbLine
 62
3
  6
CONTINUOUS
 10
333.1549053562
 20
486.1435127345
 11
333.1549053562
 21
487.7973717471
  0
LINE
  5
24E
100
AcDbEntity
  8
0
100
AcDbLine
 62
3
  6
CONTINUOUS
 10
330.0210366727
 20
216.9040320859
 11
408.5749146375
 21
190.2678205835
  0
LINE
  5
24F
100
AcDbEntity
  8
0
100
AcDbLine
 62
3
  6
CONTINUOUS
 10
507.8667232857
 20
165.9848982134
 11
510.2482017312
 21
165.1703846142
  0
LINE
  5
250
100
AcDbEntity
  8
0
100
AcDbLine
 62
3
  6
CONTINUOUS
 10
512.3922066853
 20
167.5327046944
 11
514.7736851308
 21
166.7181910951
  0
LINE
  5
251
100
AcDbEntity
  8
0
100
AcDbLine
 62
3
  6
CONTINUOUS
 10
508.9029299313
 20
169.0124840901
 11
511.283771578
 21
168.1981882888
  0
LINE
  5
252
100
AcDbEntity
  8
0
100
AcDbLine
 62
3
  6
CONTINUOUS
 10
516.9176900849
 20
169.0805111753
 11
519.2991685304
 21
168.2659975761
  0
LINE
  5
253
100
AcDbEntity
  8
0
100
AcDbLine
 62
3
  6
CONTINUOUS
 10
513.4284133309
 20
170.560290571
 11
515.8092549776
 21
169.7459947698
  0
LINE
  5
254
100
AcDbEntity
  8
0
100
AcDbLine
 62
3
  6
CONTINUOUS
 10
521.4431734845
 20
170.6283176563
 11
523.82465193
 21
169.813804057
  0
LINE
  5
255
100
AcDbEntity
  8
0
100
AcDbLine
 62
3
  6
CONTINUOUS
 10
517.9538967305
 20
172.108097052
 11
520.3347383772
 21
171.2938012507
  0
LINE
  5
256
100
AcDbEntity
  8
0
100
AcDbLine
 62
3
  6
CONTINUOUS
 10
338.4864904863
 20
473.0061040699
 11
338.4864904863
 21
449.3258500261
  0
LINE
  5
257
100
AcDbEntity
  8
0
100
AcDbLine
 62
3
  6
CONTINUOUS
 10
340.1835467612
 20
448.7454225957
 11
340.1835467612
 21
472.4256766395
  0
LINE
  5
258
100
AcDbEntity
  8
0
100
AcDbLine
 62
3
  6
CONTINUOUS
 10
341.7816080866
 20
471.879107476
 11
341.7816080866
 21
448.1988534322
  0
LINE
  5
259
100
AcDbEntity
  8
0
100
AcDbLine
 62
3
  6
CONTINUOUS
 10
343.2665323271
 20
447.6909794306
 11
343.2665323271
 21
471.3712334744
  0
LINE
  5
25A
100
AcDbEntity
  8
0
100
AcDbLine
 62
3
  6
CONTINUOUS
 10
344.8645936526
 20
470.8246643108
 11
344.8645936526
 21
447.144410267
  0
LINE
  5
25B
100
AcDbEntity
  8
0
100
AcDbLine
 62
3
  6
CONTINUOUS
 10
346.1373858587
 20
446.7090896942
 11
346.1373858587
 21
470.3893437381
  0
LINE
  5
25C
100
AcDbEntity
  8
0
100
AcDbLine
 62
3
  6
CONTINUOUS
 10
347.7354471842
 20
469.8427745745
 11
347.7354471842
 21
446.1625205307
  0
LINE
  5
25D
100
AcDbEntity
  8
0
100
AcDbLine
 62
3
  6
CONTINUOUS
 10
348.796107356
 20
445.7997533867
 11
348.796107356
 21
469.4800074305
  0
LINE
  5
25E
100
AcDbEntity
  8
0
100
AcDbLine
 62
3
  6
CONTINUOUS
 10
350.3941686815
 20
468.9334382669
 11
350.3941686815
 21
445.2531842231
  0
LINE
  5
25F
100
AcDbEntity
  8
0
100
AcDbLine
 62
3
  6
CONTINUOUS
 10
351.2426968189
 20
444.9629705079
 11
351.2426968189
 21
468.6432245517
  0
LINE
  5
260
100
AcDbEntity
  8
0
100
AcDbLine
 62
3
  6
CONTINUOUS
 10
352.8407581444
 20
468.0966553882
 11
352.8407581444
 21
444.4164013443
  0
LINE
  5
261
100
AcDbEntity
  8
0
100
AcDbLine
 62
3
  6
CONTINUOUS
 10
353.9014183162
 20
444.0536342004
 11
353.9014183162
 21
467.7338882442
  0
LINE
  5
262
100
AcDbEntity
  8
0
100
AcDbLine
 62
3
  6
CONTINUOUS
 10
356.164160016
 20
466.9599850037
 11
356.164160016
 21
443.2797309599
  0
LINE
  5
263
100
AcDbEntity
  8
0
100
AcDbLine
 62
3
  6
CONTINUOUS
 10
357.2248201877
 20
442.9169638159
 11
357.2248201877
 21
466.5972178597
  0
LINE
  5
264
100
AcDbEntity
  8
0
100
AcDbLine
 62
3
  6
CONTINUOUS
 10
358.8228815132
 20
466.0506486961
 11
358.8228815132
 21
442.3703946523
  0
LINE
  5
265
100
AcDbEntity
  8
0
100
AcDbLine
 62
3
  6
CONTINUOUS
 10
359.6714096507
 20
442.0801809372
 11
359.6714096507
 21
465.760434981
  0
LINE
  5
266
100
AcDbEntity
  8
0
100
AcDbLine
 62
3
  6
CONTINUOUS
 10
361.2694709761
 20
465.2138658174
 11
361.2694709761
 21
441.5336117736
  0
LINE
  5
267
100
AcDbEntity
  8
0
100
AcDbLine
 62
3
  6
CONTINUOUS
 10
362.3301311479
 20
441.1708446296
 11
362.3301311479
 21
464.8510986734
  0
LINE
  5
268
100
AcDbEntity
  8
0
100
AcDbLine
 62
3
  6
CONTINUOUS
 10
363.9281924734
 20
464.3045295098
 11
363.9281924734
 21
440.624275466
  0
LINE
  5
269
100
AcDbEntity
  8
0
100
AcDbLine
 62
3
  6
CONTINUOUS
 10
365.2009846795
 20
440.1889548933
 11
365.2009846795
 21
463.8692089371
  0
LINE
  5
26A
100
AcDbEntity
  8
0
100
AcDbLine
 62
3
  6
CONTINUOUS
 10
500.4506843599
 20
406.4227394448
 11
408.5042039594
 21
374.9751910399
  0
LINE
  5
26B
100
AcDbEntity
  8
0
100
AcDbLine
 62
3
  6
CONTINUOUS
 10
525.9686568841
 20
172.1761241372
 11
528.3501353296
 21
171.3616105379
  0
LINE
  5
26C
100
AcDbEntity
  8
0
100
AcDbLine
 62
3
  6
CONTINUOUS
 10
522.4793801301
 20
173.6559035329
 11
524.8602217768
 21
172.8416077317
  0
LINE
  5
26D
100
AcDbEntity
  8
0
100
AcDbLine
 62
3
  6
CONTINUOUS
 10
527.0048635297
 20
175.2037100139
 11
529.3857051764
 21
174.3894142126
  0
LINE
  5
26E
100
AcDbEntity
  8
0
100
AcDbLine
 62
3
  6
CONTINUOUS
 10
524.8208224897
 20
171.3218149985
 11
524.8440804997
 21
171.3133327482
  0
LINE
  5
26F
100
AcDbEntity
  8
0
100
AcDbLine
 62
3
  6
CONTINUOUS
 10
366.799046005
 20
463.3226397735
 11
366.799046005
 21
439.6423857297
  0
LINE
  5
270
100
AcDbEntity
  8
0
100
AcDbLine
 62
3
  6
CONTINUOUS
 10
368.2839702455
 20
439.1345117281
 11
368.2839702455
 21
462.8147657719
  0
LINE
  5
271
100
AcDbEntity
  8
0
100
AcDbLine
 62
3
  6
CONTINUOUS
 10
369.882031571
 20
462.2681966083
 11
369.882031571
 21
438.5879425645
  0
LINE
  5
272
100
AcDbEntity
  8
0
100
AcDbLine
 62
3
  6
CONTINUOUS
 10
371.5790878458
 20
438.0075151342
 11
371.5790878458
 21
461.687769178
  0
LINE
  5
273
100
AcDbEntity
  8
0
100
AcDbLine
 62
3
  6
CONTINUOUS
 10
390.8689608366
 20
113.1970558526
 11
390.8689608366
 21
141.4534547575
  0
LINE
  5
274
100
AcDbEntity
  8
0
100
AcDbLine
 62
3
  6
CONTINUOUS
 10
408.5749146375
 20
469.1814609859
 11
408.5749146375
 21
190.2678205835
  0
LINE
  5
275
100
AcDbEntity
  8
0
100
AcDbLine
 62
3
  6
CONTINUOUS
 10
421.8685221238
 20
473.7281425237
 11
421.8685221238
 21
527.1661612784
  0
LINE
  5
276
100
AcDbEntity
  8
0
100
AcDbLine
 62
3
  6
CONTINUOUS
 10
423.5231519918
 20
482.8636275908
 11
423.5231519918
 21
483.3898554585
  0
LINE
  5
277
100
AcDbEntity
  8
0
100
AcDbLine
 62
3
  6
CONTINUOUS
 10
423.5231519918
 20
517.6510484123
 11
423.5231519918
 21
519.3049074249
  0
LINE
  5
278
100
AcDbEntity
  8
0
100
AcDbLine
 62
3
  6
CONTINUOUS
 10
424.3999644005
 20
519.0050199192
 11
424.3999644005
 21
517.3511609066
  0
LINE
  5
279
100
AcDbEntity
  8
0
100
AcDbLine
 62
3
  6
CONTINUOUS
 10
424.3999644005
 20
483.0899679528
 11
424.3999644005
 21
482.5637400851
  0
LINE
  5
27A
100
AcDbEntity
  8
0
100
AcDbLine
 62
3
  6
CONTINUOUS
 10
429.7315495306
 20
504.213752242
 11
429.7315495306
 21
480.5334981982
  0
LINE
  5
27B
100
AcDbEntity
  8
0
100
AcDbLine
 62
3
  6
CONTINUOUS
 10
431.4286058055
 20
479.9530707678
 11
431.4286058055
 21
503.6333248116
  0
LINE
  5
27C
100
AcDbEntity
  8
0
100
AcDbLine
 62
3
  6
CONTINUOUS
 10
433.0266671309
 20
503.0867556481
 11
433.0266671309
 21
479.4065016043
  0
LINE
  5
27D
100
AcDbEntity
  8
0
100
AcDbLine
 62
3
  6
CONTINUOUS
 10
434.5115913714
 20
478.8986276027
 11
434.5115913714
 21
502.5788816465
  0
LINE
  5
27E
100
AcDbEntity
  8
0
100
AcDbLine
 62
3
  6
CONTINUOUS
 10
436.1096526969
 20
502.0323124829
 11
436.1096526969
 21
478.7149815295
  0
LINE
  5
27F
100
AcDbEntity
  8
0
100
AcDbLine
 62
3
  6
CONTINUOUS
 10
437.3824449031
 20
479.1503021022
 11
437.3824449031
 21
501.5969919101
  0
LINE
  5
280
100
AcDbEntity
  8
0
100
AcDbLine
 62
3
  6
CONTINUOUS
 10
438.9805062285
 20
501.0504227466
 11
438.9805062285
 21
479.6968712658
  0
LINE
  5
281
100
AcDbEntity
  8
0
100
AcDbLine
 62
3
  6
CONTINUOUS
 10
440.0411664003
 20
480.0596384098
 11
440.0411664003
 21
500.6876556026
  0
LINE
  5
282
100
AcDbEntity
  8
0
100
AcDbLine
 62
3
  6
CONTINUOUS
 10
441.6392277258
 20
500.141086439
 11
441.6392277258
 21
480.6062075734
  0
LINE
  5
283
100
AcDbEntity
  8
0
100
AcDbLine
 62
3
  6
CONTINUOUS
 10
442.4877558632
 20
480.8964212886
 11
442.4877558632
 21
499.8508727238
  0
LINE
  5
284
100
AcDbEntity
  8
0
100
AcDbLine
 62
3
  6
CONTINUOUS
 10
444.0858171887
 20
499.3043035602
 11
444.0858171887
 21
481.4429904521
  0
LINE
  5
285
100
AcDbEntity
  8
0
100
AcDbLine
 62
3
  6
CONTINUOUS
 10
445.1464773605
 20
481.8057575961
 11
445.1464773605
 21
498.9415364163
  0
LINE
  5
286
100
AcDbEntity
  8
0
100
AcDbLine
 62
3
  6
CONTINUOUS
 10
447.4092190603
 20
498.1676331758
 11
447.4092190603
 21
482.5796608366
  0
LINE
  5
287
100
AcDbEntity
  8
0
100
AcDbLine
 62
3
  6
CONTINUOUS
 10
448.4698792321
 20
482.9424279806
 11
448.4698792321
 21
497.8048660318
  0
LINE
  5
288
100
AcDbEntity
  8
0
100
AcDbLine
 62
3
  6
CONTINUOUS
 10
450.0679405575
 20
497.2582968682
 11
450.0679405575
 21
483.4889971441
  0
LINE
  5
289
100
AcDbEntity
  8
0
100
AcDbLine
 62
3
  6
CONTINUOUS
 10
450.916468695
 20
483.7792108593
 11
450.916468695
 21
496.9680831531
  0
LINE
  5
28A
100
AcDbEntity
  8
0
100
AcDbLine
 62
3
  6
CONTINUOUS
 10
452.5145300204
 20
496.4215139895
 11
452.5145300204
 21
484.3257800229
  0
LINE
  5
28B
100
AcDbEntity
  8
0
100
AcDbLine
 62
3
  6
CONTINUOUS
 10
453.5751901922
 20
484.6885471669
 11
453.5751901922
 21
496.0587468455
  0
LINE
  5
28C
100
AcDbEntity
  8
0
100
AcDbLine
 62
3
  6
CONTINUOUS
 10
503.536290835
 20
276.1841239025
 11
644.1656874774
 21
228.0860375071
  0
LINE
  5
28D
100
AcDbEntity
  8
0
100
AcDbLine
 62
3
  6
CONTINUOUS
 10
455.1732515177
 20
495.5121776819
 11
455.1732515177
 21
485.2351163305
  0
LINE
  5
28E
100
AcDbEntity
  8
0
100
AcDbLine
 62
3
  6
CONTINUOUS
 10
456.4460437238
 20
485.6704369032
 11
456.4460437238
 21
495.0768571092
  0
LINE
  5
28F
100
AcDbEntity
  8
0
100
AcDbLine
 62
3
  6
CONTINUOUS
 10
458.0441050493
 20
494.5302879456
 11
458.0441050493
 21
486.2170060668
  0
LINE
  5
290
100
AcDbEntity
  8
0
100
AcDbLine
 62
3
  6
CONTINUOUS
 10
459.5290292898
 20
486.7248800684
 11
459.5290292898
 21
494.022413944
  0
LINE
  5
291
100
AcDbEntity
  8
0
100
AcDbLine
 62
3
  6
CONTINUOUS
 10
461.1270906153
 20
493.4758447804
 11
461.1270906153
 21
487.271449232
  0
LINE
  5
292
100
AcDbEntity
  8
0
100
AcDbLine
 62
3
  6
CONTINUOUS
 10
462.8241468901
 20
487.8518766623
 11
462.8241468901
 21
492.8954173501
  0
LINE
  5
293
100
AcDbEntity
  8
0
100
AcDbLine
 62
3
  6
CONTINUOUS
 10
249.4476045993
 20
189.3462952999
 11
330.0210366727
 21
216.9040320859
  0
LINE
  5
294
100
AcDbEntity
  8
0
100
AcDbLine
 62
3
  6
CONTINUOUS
 10
500.4506843599
 20
275.1287843336
 11
503.536290835
 21
276.1841239025
  0
LINE
  5
295
100
AcDbEntity
  8
0
100
AcDbLine
 62
3
  6
CONTINUOUS
 10
499.7577197144
 20
500.3678170471
 11
499.7577197144
 21
406.1857315774
  0
LINE
  5
296
100
AcDbEntity
  8
0
100
AcDbLine
 62
3
  6
CONTINUOUS
 10
500.4506843599
 20
406.4227394448
 11
500.45068436
 21
221.7395534647
  0
LINE
  5
297
100
AcDbEntity
  8
0
100
AcDbLine
 62
3
  6
CONTINUOUS
 10
408.5749146375
 20
374.9510065636
 11
330.0210366726
 21
401.818015164
  0
LINE
  5
298
100
AcDbEntity
  8
0
100
AcDbLine
 62
3
  6
CONTINUOUS
 10
500.45068436
 20
221.7395534647
 11
408.5749146375
 21
190.2678205835
  0
LINE
  5
299
100
AcDbEntity
  8
0
100
AcDbLine
 62
3
  6
CONTINUOUS
 10
338.7693331988
 20
448.8532350727
 11
339.9007040487
 21
448.4662834525
  0
LINE
  5
29A
100
AcDbEntity
  8
0
100
AcDbLine
 62
3
  6
CONTINUOUS
 10
342.0644507991
 20
447.7262384788
 11
342.9836896147
 21
447.4118402873
  0
LINE
  5
29B
100
AcDbEntity
  8
0
100
AcDbLine
 62
3
  6
CONTINUOUS
 10
345.1474363651
 20
446.6717953136
 11
345.8545431463
 21
446.429950551
  0
LINE
  5
29C
100
AcDbEntity
  8
0
100
AcDbLine
 62
3
  6
CONTINUOUS
 10
348.0182898967
 20
445.6899055773
 11
348.5132646435
 21
445.5206142434
  0
LINE
  5
29D
100
AcDbEntity
  8
0
100
AcDbLine
 62
3
  6
CONTINUOUS
 10
350.677011394
 20
444.7805692697
 11
350.9598541064
 21
444.6838313647
  0
LINE
  5
29E
100
AcDbEntity
  8
0
100
AcDbLine
 62
3
  6
CONTINUOUS
 10
353.1236008569
 20
443.943786391
 11
353.6185756037
 21
443.7744950571
  0
LINE
  5
29F
100
AcDbEntity
  8
0
100
AcDbLine
 62
3
  6
CONTINUOUS
 10
356.4470027284
 20
442.8071160065
 11
356.9419774753
 21
442.6378246727
  0
LINE
  5
2A0
100
AcDbEntity
  8
0
100
AcDbLine
 62
3
  6
CONTINUOUS
 10
359.1057242257
 20
441.897779699
 11
359.3885669382
 21
441.8010417939
  0
LINE
  5
2A1
100
AcDbEntity
  8
0
100
AcDbLine
 62
3
  6
CONTINUOUS
 10
361.5523136886
 20
441.0609968202
 11
362.0472884354
 21
440.8917054864
  0
LINE
  5
2A2
100
AcDbEntity
  8
0
100
AcDbLine
 62
3
  6
CONTINUOUS
 10
364.2110351859
 20
440.1516605127
 11
364.9181419671
 21
439.90981575
  0
LINE
  5
2A3
100
AcDbEntity
  8
0
100
AcDbLine
 62
3
  6
CONTINUOUS
 10
367.0818887175
 20
439.1697707763
 11
368.001127533
 21
438.8553725849
  0
LINE
  5
2A4
100
AcDbEntity
  8
0
100
AcDbLine
 62
3
  6
CONTINUOUS
 10
370.1648742835
 20
438.1153276112
 11
371.2962451334
 21
437.7283759909
  0
LINE
  5
2A5
100
AcDbEntity
  8
0
100
AcDbLine
 62
3
  6
CONTINUOUS
 10
528.8773450266
 20
172.0681544387
 11
528.8781445197
 21
172.0729206431
  0
LINE
  5
2A6
100
AcDbEntity
  8
0
100
AcDbLine
 62
3
  6
CONTINUOUS
 10
644.1656874774
 20
228.0860375071
 11
390.8689608366
 21
141.4534547575
  0
LINE
  5
2A7
100
AcDbEntity
  8
0
100
AcDbLine
 62
3
  6
CONTINUOUS
 10
330.6234630795
 20
444.5164166729
 11
331.019442877
 21
444.4212443142
  0
LINE
  5
2A8
100
AcDbEntity
  8
0
100
AcDbLine
 62
3
  6
CONTINUOUS
 10
371.2962451334
 20
462.1603841314
 11
370.1648742835
 21
462.5473357516
  0
LINE
  5
2A9
100
AcDbEntity
  8
0
100
AcDbLine
 62
3
  6
CONTINUOUS
 10
368.001127533
 20
463.2873807253
 11
367.0818887175
 21
463.6017789167
  0
LINE
  5
2AA
100
AcDbEntity
  8
0
100
AcDbLine
 62
3
  6
CONTINUOUS
 10
364.9181419671
 20
464.3418238904
 11
364.2110351859
 21
464.5836686531
  0
LINE
  5
2AB
100
AcDbEntity
  8
0
100
AcDbLine
 62
3
  6
CONTINUOUS
 10
362.0472884354
 20
465.3237136268
 11
361.5523136886
 21
465.4930049606
  0
LINE
  5
2AC
100
AcDbEntity
  8
0
100
AcDbLine
 62
3
  6
CONTINUOUS
 10
359.3885669382
 20
466.2330499343
 11
359.1057242257
 21
466.3297878394
  0
LINE
  5
2AD
100
AcDbEntity
  8
0
100
AcDbLine
 62
3
  6
CONTINUOUS
 10
356.9419774753
 20
467.0698328131
 11
356.4470027284
 21
467.239124147
  0
LINE
  5
2AE
100
AcDbEntity
  8
0
100
AcDbLine
 62
3
  6
CONTINUOUS
 10
353.6185756037
 20
468.2065031976
 11
353.1236008569
 21
468.3757945314
  0
LINE
  5
2AF
100
AcDbEntity
  8
0
100
AcDbLine
 62
3
  6
CONTINUOUS
 10
350.9598541064
 20
469.1158395051
 11
350.677011394
 21
469.2125774102
  0
LINE
  5
2B0
100
AcDbEntity
  8
0
100
AcDbLine
 62
3
  6
CONTINUOUS
 10
348.5132646435
 20
469.9526223839
 11
348.0182898967
 21
470.1219137177
  0
LINE
  5
2B1
100
AcDbEntity
  8
0
100
AcDbLine
 62
3
  6
CONTINUOUS
 10
345.8545431463
 20
470.8619586914
 11
345.1474363651
 21
471.1038034541
  0
LINE
  5
2B2
100
AcDbEntity
  8
0
100
AcDbLine
 62
3
  6
CONTINUOUS
 10
342.9836896147
 20
471.8438484278
 11
342.0644507991
 21
472.1582466192
  0
LINE
  5
2B3
100
AcDbEntity
  8
0
100
AcDbLine
 62
3
  6
CONTINUOUS
 10
339.9007040487
 20
472.8982915929
 11
338.7693331988
 21
473.2852432132
  0
LINE
  5
2B4
100
AcDbEntity
  8
0
100
AcDbLine
 62
3
  6
CONTINUOUS
 10
524.7935849318
 20
171.4858782273
 11
524.7981279096
 21
171.4934347117
  0
LINE
  5
2B5
100
AcDbEntity
  8
0
100
AcDbLine
 62
3
  6
CONTINUOUS
 10
644.1656874774
 20
199.8296386023
 11
390.8689608366
 21
113.1970558526
  0
LINE
  5
2B6
100
AcDbEntity
  8
0
100
AcDbLine
 62
3
  6
CONTINUOUS
 10
408.5749146375
 20
469.1814609859
 11
330.6234630795
 21
495.8424276202
  0
LINE
  5
2B7
100
AcDbEntity
  8
0
100
AcDbLine
 62
3
  6
CONTINUOUS
 10
430.0143922431
 20
480.0608832448
 11
431.145763093
 21
479.6739316246
  0
LINE
  5
2B8
100
AcDbEntity
  8
0
100
AcDbLine
 62
3
  6
CONTINUOUS
 10
433.3095098434
 20
478.9338866509
 11
434.228748659
 21
478.6194884594
  0
LINE
  5
2B9
100
AcDbEntity
  8
0
100
AcDbLine
 62
3
  6
CONTINUOUS
 10
462.5413041777
 20
493.3680323034
 11
461.4099333278
 21
493.7549839237
  0
LINE
  5
2BA
100
AcDbEntity
  8
0
100
AcDbLine
 62
3
  6
CONTINUOUS
 10
459.2461865773
 20
494.4950288974
 11
458.3269477618
 21
494.8094270888
  0
LINE
  5
2BB
100
AcDbEntity
  8
0
100
AcDbLine
 62
3
  6
CONTINUOUS
 10
456.1632010114
 20
495.5494720625
 11
455.4560942302
 21
495.7913168252
  0
LINE
  5
2BC
100
AcDbEntity
  8
0
100
AcDbLine
 62
3
  6
CONTINUOUS
 10
453.2923474798
 20
496.5313617989
 11
452.7973727329
 21
496.7006531327
  0
LINE
  5
2BD
100
AcDbEntity
  8
0
100
AcDbLine
 62
3
  6
CONTINUOUS
 10
450.6336259825
 20
497.4406981064
 11
450.35078327
 21
497.5374360115
  0
LINE
  5
2BE
100
AcDbEntity
  8
0
100
AcDbLine
 62
3
  6
CONTINUOUS
 10
448.1870365196
 20
498.2774809852
 11
447.6920617728
 21
498.4467723191
  0
LINE
  5
2BF
100
AcDbEntity
  8
0
100
AcDbLine
 62
3
  6
CONTINUOUS
 10
444.863634648
 20
499.4141513696
 11
444.3686599012
 21
499.5834427035
  0
LINE
  5
2C0
100
AcDbEntity
  8
0
100
AcDbLine
 62
3
  6
CONTINUOUS
 10
442.2049131507
 20
500.3234876772
 11
441.9220704383
 21
500.4202255823
  0
LINE
  5
2C1
100
AcDbEntity
  8
0
100
AcDbLine
 62
3
  6
CONTINUOUS
 10
439.7583236878
 20
501.160270556
 11
439.263348941
 21
501.3295618898
  0
LINE
  5
2C2
100
AcDbEntity
  8
0
100
AcDbLine
 62
3
  6
CONTINUOUS
 10
437.0996021906
 20
502.0696068635
 11
436.3924954094
 21
502.3114516262
  0
LINE
  5
2C3
100
AcDbEntity
  8
0
100
AcDbLine
 62
3
  6
CONTINUOUS
 10
434.228748659
 20
503.0514965999
 11
433.3095098434
 21
503.3658947913
  0
LINE
  5
2C4
100
AcDbEntity
  8
0
100
AcDbLine
 62
3
  6
CONTINUOUS
 10
431.145763093
 20
504.105939765
 11
430.0143922431
 21
504.4928913853
  0
LINE
  5
2C5
100
AcDbEntity
  8
0
100
AcDbLine
 62
3
  6
CONTINUOUS
 10
644.1656874774
 20
228.0860375071
 11
644.1656874774
 21
199.8296386023
  0
LINE
  5
2C6
100
AcDbEntity
  8
0
100
AcDbLine
 62
3
  6
CONTINUOUS
 10
421.8685221238
 20
527.1661612784
 11
499.7577197144
 21
500.3678170471
  0
ARC
  5
2C7
100
AcDbEntity
  8
0
100
AcDbCircle
 62
3
  6
CONTINUOUS
 10
332.2538134074
 20
451.87648085
 40
0.9001116951
100
AcDbArc
 50
20.6364204842
 51
30.8604570481
  0
ARC
  5
2C8
100
AcDbEntity
  8
0
100
AcDbCircle
 62
3
  6
CONTINUOUS
 10
333.1791848963
 20
451.6618183494
 40
0.9001116951
100
AcDbArc
 50
200.6364204842
 51
210.8604570481
  0
ARC
  5
2C9
100
AcDbEntity
  8
0
100
AcDbCircle
 62
3
  6
CONTINUOUS
 10
333.1791848963
 20
486.4492391708
 40
0.9001116951
100
AcDbArc
 50
200.6364204842
 51
210.8604570481
  0
ARC
  5
2CA
100
AcDbEntity
  8
0
100
AcDbCircle
 62
3
  6
CONTINUOUS
 10
332.2538134074
 20
487.7915328165
 40
0.9001116951
100
AcDbArc
 50
20.6364204842
 51
30.8604570481
  0
ARC
  5
2CB
100
AcDbEntity
  8
0
100
AcDbCircle
 62
3
  6
CONTINUOUS
 10
423.4988724517
 20
483.0841290221
 40
0.9001116951
100
AcDbArc
 50
20.6364204843
 51
30.8604570481
  0
ARC
  5
2CC
100
AcDbEntity
  8
0
100
AcDbCircle
 62
3
  6
CONTINUOUS
 10
423.4988724517
 20
518.9991809886
 40
0.9001116951
100
AcDbArc
 50
20.6364204841
 51
30.8604570481
  0
ARC
  5
2CD
100
AcDbEntity
  8
0
100
AcDbCircle
 62
3
  6
CONTINUOUS
 10
332.9960095953
 20
452.1826245592
 40
0.7179167691
100
AcDbArc
 50
173.7792356768
 51
180.0333018746
  0
ARC
  5
2CE
100
AcDbEntity
  8
0
100
AcDbCircle
 62
3
  6
CONTINUOUS
 10
332.9960095953
 20
488.0976765256
 40
0.7179167691
100
AcDbArc
 50
173.779235677
 51
180.0333018745
  0
ARC
  5
2CF
100
AcDbEntity
  8
0
100
AcDbCircle
 62
3
  6
CONTINUOUS
 10
332.9310052171
 20
452.189931901
 40
0.6525033687
100
AcDbArc
 50
167.398020841
 51
173.7985944141
  0
ARC
  5
2D0
100
AcDbEntity
  8
0
100
AcDbCircle
 62
3
  6
CONTINUOUS
 10
332.9310052171
 20
488.1049838674
 40
0.6525033687
100
AcDbArc
 50
167.3980208409
 51
173.7985944141
  0
ARC
  5
2D1
100
AcDbEntity
  8
0
100
AcDbCircle
 62
3
  6
CONTINUOUS
 10
350.996163876
 20
445.2645163368
 40
0.6027043021
100
AcDbArc
 50
191.02688821
 51
200.617731512
  0
ARC
  5
2D2
100
AcDbEntity
  8
0
100
AcDbCircle
 62
3
  6
CONTINUOUS
 10
356.7661552105
 20
443.2910630736
 40
0.6027043021
100
AcDbArc
 50
191.0268882099
 51
200.6177315121
  0
ARC
  5
2D3
100
AcDbEntity
  8
0
100
AcDbCircle
 62
3
  6
CONTINUOUS
 10
353.4427533389
 20
444.427733458
 40
0.6027043021
100
AcDbArc
 50
191.0268882099
 51
200.617731512
  0
ARC
  5
2D4
100
AcDbEntity
  8
0
100
AcDbCircle
 62
3
  6
CONTINUOUS
 10
359.4248767078
 20
442.381726766
 40
0.602704302
100
AcDbArc
 50
191.0268882099
 51
200.6177315121
  0
ARC
  5
2D5
100
AcDbEntity
  8
0
100
AcDbCircle
 62
3
  6
CONTINUOUS
 10
348.3374423788
 20
446.1738526444
 40
0.602704302
100
AcDbArc
 50
191.0268882099
 51
200.6177315121
  0
ARC
  5
2D6
100
AcDbEntity
  8
0
100
AcDbCircle
 62
3
  6
CONTINUOUS
 10
364.5301876679
 20
440.6356075797
 40
0.6027043021
100
AcDbArc
 50
191.0268882099
 51
200.617731512
  0
ARC
  5
2D7
100
AcDbEntity
  8
0
100
AcDbCircle
 62
3
  6
CONTINUOUS
 10
345.4665888471
 20
447.1557423807
 40
0.6027043021
100
AcDbArc
 50
191.0268882099
 51
200.617731512
  0
ARC
  5
2D8
100
AcDbEntity
  8
0
100
AcDbCircle
 62
3
  6
CONTINUOUS
 10
361.8714661707
 20
441.5449438873
 40
0.6027043021
100
AcDbArc
 50
191.02688821
 51
200.617731512
  0
ARC
  5
2D9
100
AcDbEntity
  8
0
100
AcDbCircle
 62
3
  6
CONTINUOUS
 10
339.0884856808
 20
449.3371821398
 40
0.602704302
100
AcDbArc
 50
191.0268882099
 51
200.6177315121
  0
ARC
  5
2DA
100
AcDbEntity
  8
0
100
AcDbCircle
 62
3
  6
CONTINUOUS
 10
342.3836032812
 20
448.2101855458
 40
0.602704302
100
AcDbArc
 50
191.0268882099
 51
200.6177315121
  0
ARC
  5
2DB
100
AcDbEntity
  8
0
100
AcDbCircle
 62
3
  6
CONTINUOUS
 10
370.4840267655
 20
438.5992746782
 40
0.6027043021
100
AcDbArc
 50
191.0268882099
 51
200.6177315121
  0
ARC
  5
2DC
100
AcDbEntity
  8
0
100
AcDbCircle
 62
3
  6
CONTINUOUS
 10
367.4010411996
 20
439.6537178434
 40
0.6027043021
100
AcDbArc
 50
191.02688821
 51
200.617731512
  0
ARC
  5
2DD
100
AcDbEntity
  8
0
100
AcDbCircle
 62
3
  6
CONTINUOUS
 10
430.3335447252
 20
480.5448303119
 40
0.602704302
100
AcDbArc
 50
191.0268882099
 51
200.6177315121
  0
ARC
  5
2DE
100
AcDbEntity
  8
0
100
AcDbCircle
 62
3
  6
CONTINUOUS
 10
512.3544105196
 20
154.2158982598
 40
18.1590863665
100
AcDbArc
 50
64.0563445924
 51
64.3757883566
  0
ARC
  5
2DF
100
AcDbEntity
  8
0
100
AcDbCircle
 62
3
  6
CONTINUOUS
 10
505.4434360968
 20
158.101045931
 40
10.94387418
100
AcDbArc
 50
58.1432244017
 51
58.8861336027
  0
ARC
  5
2E0
100
AcDbEntity
  8
0
100
AcDbCircle
 62
3
  6
CONTINUOUS
 10
506.316091843
 20
160.4765793529
 40
8.3156583186
100
AcDbArc
 50
54.1919889799
 51
54.8035593031
  0
ARC
  5
2E1
100
AcDbEntity
  8
0
100
AcDbCircle
 62
3
  6
CONTINUOUS
 10
515.6278195569
 20
164.1035511731
 40
7.7666403537
100
AcDbArc
 50
53.3028490115
 51
53.9446036538
  0
ARC
  5
2E2
100
AcDbEntity
  8
0
100
AcDbCircle
 62
3
  6
CONTINUOUS
 10
507.271489932
 20
160.5704049971
 40
6.2957034298
100
AcDbArc
 50
55.5311636739
 51
56.6167957196
  0
ARC
  5
2E3
100
AcDbEntity
  8
0
100
AcDbCircle
 62
3
  6
CONTINUOUS
 10
507.5360035355
 20
161.7606030419
 40
5.3560000799
100
AcDbArc
 50
51.2411460633
 51
52.0559842485
  0
ARC
  5
2E4
100
AcDbEntity
  8
0
100
AcDbCircle
 62
3
  6
CONTINUOUS
 10
507.1988929505
 20
163.9061824718
 40
5.3242768027
100
AcDbArc
 50
39.7105582515
 51
40.9604173003
  0
ARC
  5
2E5
100
AcDbEntity
  8
0
100
AcDbCircle
 62
3
  6
CONTINUOUS
 10
507.1653896899
 20
165.4929811251
 40
4.5106207925
100
AcDbArc
 50
21.8937125141
 51
23.7263442222
  0
ARC
  5
2E6
100
AcDbEntity
  8
0
100
AcDbCircle
 62
3
  6
CONTINUOUS
 10
507.2988048912
 20
165.0022573109
 40
4.471508297
100
AcDbArc
 50
26.9592827764
 51
29.740189382
  0
ARC
  5
2E7
100
AcDbEntity
  8
0
100
AcDbCircle
 62
3
  6
CONTINUOUS
 10
507.1959622381
 20
165.9523013169
 40
4.3308884027
100
AcDbArc
 50
14.985171795
 51
16.3977609743
  0
ARC
  5
2E8
100
AcDbEntity
  8
0
100
AcDbCircle
 62
3
  6
CONTINUOUS
 10
507.0660059006
 20
166.2939947123
 40
4.2820149567
100
AcDbArc
 50
7.0264400474
 51
9.8898139107
  0
ARC
  5
2E9
100
AcDbEntity
  8
0
100
AcDbCircle
 62
3
  6
CONTINUOUS
 10
507.0384125877
 20
166.6908851715
 40
4.2793319906
100
AcDbArc
 50
0.0042106497
 51
1.699536592
  0
ARC
  5
2EA
100
AcDbEntity
  8
0
100
AcDbCircle
 62
3
  6
CONTINUOUS
 10
506.4664417886
 20
166.4952596374
 40
4.2793319867
100
AcDbArc
 50
0.0042106499
 51
1.6995365938
  0
ARC
  5
2EB
100
AcDbEntity
  8
0
100
AcDbCircle
 62
3
  6
CONTINUOUS
 10
507.1937410879
 20
166.2816860892
 40
4.2598082244
100
AcDbArc
 50
8.308352337
 51
10.693768718
  0
ARC
  5
2EC
100
AcDbEntity
  8
0
100
AcDbCircle
 62
3
  6
CONTINUOUS
 10
506.3641504851
 20
166.4630836778
 40
4.2558647779
100
AcDbArc
 50
0.0035245362
 51
2.1987490723
  0
ARC
  5
2ED
100
AcDbEntity
  8
0
100
AcDbCircle
 62
3
  6
CONTINUOUS
 10
507.1676248854
 20
166.6908706633
 40
4.1501196944
100
AcDbArc
 50
358.2742063543
 51
0.0045420436
  0
ARC
  5
2EE
100
AcDbEntity
  8
0
100
AcDbCircle
 62
3
  6
CONTINUOUS
 10
506.595654087
 20
166.4952451292
 40
4.1501196898
100
AcDbArc
 50
358.2742063523
 51
0.0045420436
  0
ARC
  5
2EF
100
AcDbEntity
  8
0
100
AcDbCircle
 62
3
  6
CONTINUOUS
 10
506.5310944953
 20
166.462516828
 40
4.0889208437
100
AcDbArc
 50
357.7567815016
 51
0.0116113901
  0
ARC
  5
2F0
100
AcDbEntity
  8
0
100
AcDbCircle
 62
3
  6
CONTINUOUS
 10
506.9170814713
 20
166.0336696248
 40
3.8415837847
100
AcDbArc
 50
1.9605282418
 51
5.0265522099
  0
ARC
  5
2F1
100
AcDbEntity
  8
0
100
AcDbCircle
 62
3
  6
CONTINUOUS
 10
506.889044244
 20
165.8938282345
 40
3.7501682366
100
AcDbArc
 50
3.6495617283
 51
6.2557299364
  0
ARC
  5
2F2
100
AcDbEntity
  8
0
100
AcDbCircle
 62
3
  6
CONTINUOUS
 10
507.2019460025
 20
165.5536432442
 40
3.4781746399
100
AcDbArc
 50
7.9457918236
 51
9.5807314685
  0
ARC
  5
2F3
100
AcDbEntity
  8
0
100
AcDbCircle
 62
3
  6
CONTINUOUS
 10
507.9671958434
 20
163.9757701886
 40
3.3305513485
100
AcDbArc
 50
33.7758638273
 51
35.4957220329
  0
ARC
  5
2F4
100
AcDbEntity
  8
0
100
AcDbCircle
 62
3
  6
CONTINUOUS
 10
507.7139387779
 20
164.8317501782
 40
3.3218182719
100
AcDbArc
 50
20.3037024892
 51
23.6650881626
  0
ARC
  5
2F5
100
AcDbEntity
  8
0
100
AcDbCircle
 62
3
  6
CONTINUOUS
 10
507.591595529
 20
165.1830881814
 40
3.1715381485
100
AcDbArc
 50
13.2429990335
 51
15.5713984768
  0
ARC
  5
2F6
100
AcDbEntity
  8
0
100
AcDbCircle
 62
3
  6
CONTINUOUS
 10
508.5012924335
 20
166.4359680578
 40
0.7721528876
100
AcDbArc
 50
244.3504517297
 51
251.1105348877
  0
ARC
  5
2F7
100
AcDbEntity
  8
0
100
AcDbCircle
 62
3
  6
CONTINUOUS
 10
510.794430684
 20
168.0703304877
 40
4.6348373329
100
AcDbArc
 50
4.0551915241
 51
7.7652840121
  0
ARC
  5
2F8
100
AcDbEntity
  8
0
100
AcDbCircle
 62
3
  6
CONTINUOUS
 10
506.1690594017
 20
167.4488047394
 40
4.5071470383
100
AcDbArc
 50
351.9330603831
 51
353.4434095207
  0
ARC
  5
2F9
100
AcDbEntity
  8
0
100
AcDbCircle
 62
3
  6
CONTINUOUS
 10
507.1061898816
 20
167.9906090883
 40
4.4903421414
100
AcDbArc
 50
335.1672157842
 51
338.5106728316
  0
ARC
  5
2FA
100
AcDbEntity
  8
0
100
AcDbCircle
 62
3
  6
CONTINUOUS
 10
506.262147515
 20
167.8809719961
 40
4.4856437165
100
AcDbArc
 50
347.8145597513
 51
349.9376354976
  0
ARC
  5
2FB
100
AcDbEntity
  8
0
100
AcDbCircle
 62
3
  6
CONTINUOUS
 10
506.273666922
 20
166.982857428
 40
4.4847515558
100
AcDbArc
 50
355.387074882
 51
358.2879681301
  0
ARC
  5
2FC
100
AcDbEntity
  8
0
100
AcDbCircle
 62
3
  6
CONTINUOUS
 10
507.4019492045
 20
168.3314825566
 40
4.47697576
100
AcDbArc
 50
328.5095369794
 51
330.4027320564
  0
ARC
  5
2FD
100
AcDbEntity
  8
0
100
AcDbCircle
 62
3
  6
CONTINUOUS
 10
506.5043635095
 20
168.2199062203
 40
4.4676273599
100
AcDbArc
 50
342.1285547906
 51
345.4833369833
  0
ARC
  5
2FE
100
AcDbEntity
  8
0
100
AcDbCircle
 62
3
  6
CONTINUOUS
 10
506.1929711381
 20
167.0648586928
 40
4.4455892633
100
AcDbArc
 50
354.3393771053
 51
356.795066418
  0
ARC
  5
2FF
100
AcDbEntity
  8
0
100
AcDbCircle
 62
3
  6
CONTINUOUS
 10
507.6523857173
 20
168.7898670933
 40
4.4343160333
100
AcDbArc
 50
321.2178888205
 51
322.7336260674
  0
ARC
  5
300
100
AcDbEntity
  8
0
100
AcDbCircle
 62
3
  6
CONTINUOUS
 10
507.2173565394
 20
167.6798874597
 40
4.3654946811
100
AcDbArc
 50
339.0684255184
 51
341.230280813
  0
ARC
  5
301
100
AcDbEntity
  8
0
100
AcDbCircle
 62
3
  6
CONTINUOUS
 10
507.8418578276
 20
168.7524668192
 40
4.3616790377
100
AcDbArc
 50
318.3024811158
 51
320.7516168658
  0
ARC
  5
302
100
AcDbEntity
  8
0
100
AcDbCircle
 62
3
  6
CONTINUOUS
 10
511.4327878518
 20
170.1256622221
 40
4.3432397535
100
AcDbArc
 50
336.5617631417
 51
340.9185068402
  0
ARC
  5
303
100
AcDbEntity
  8
0
100
AcDbCircle
 62
3
  6
CONTINUOUS
 10
507.1292894931
 20
166.7334342981
 40
4.2826854273
100
AcDbArc
 50
0.0103992512
 51
2.1918743573
  0
ARC
  5
304
100
AcDbEntity
  8
0
100
AcDbCircle
 62
3
  6
CONTINUOUS
 10
507.2199097424
 20
167.3898342324
 40
4.2785183811
100
AcDbArc
 50
344.899468047
 51
346.4631539828
  0
ARC
  5
305
100
AcDbEntity
  8
0
100
AcDbCircle
 62
3
  6
CONTINUOUS
 10
506.806909076
 20
168.8218932652
 40
4.2386222943
100
AcDbArc
 50
335.9903823861
 51
337.953904369
  0
ARC
  5
306
100
AcDbEntity
  8
0
100
AcDbCircle
 62
3
  6
CONTINUOUS
 10
507.2135643974
 20
167.1424260876
 40
4.2336996999
100
AcDbArc
 50
349.7402653934
 51
352.2749733483
  0
ARC
  5
307
100
AcDbEntity
  8
0
100
AcDbCircle
 62
3
  6
CONTINUOUS
 10
511.4370487682
 20
170.1510064665
 40
4.2089973627
100
AcDbArc
 50
339.7843399756
 51
344.276802952
  0
ARC
  5
308
100
AcDbEntity
  8
0
100
AcDbCircle
 62
3
  6
CONTINUOUS
 10
507.1509869975
 20
167.0487662233
 40
4.1927746387
100
AcDbArc
 50
350.3463458685
 51
353.3865743126
  0
ARC
  5
309
100
AcDbEntity
  8
0
100
AcDbCircle
 62
3
  6
CONTINUOUS
 10
507.2945675275
 20
166.7339377923
 40
4.1174073315
100
AcDbArc
 50
357.7645825745
 51
0.0038103172
  0
ARC
  5
30A
100
AcDbEntity
  8
0
100
AcDbCircle
 62
3
  6
CONTINUOUS
 10
507.42843484
 20
169.2678924809
 40
4.0330963207
100
AcDbArc
 50
327.4853845322
 51
329.1000522051
  0
ARC
  5
30B
100
AcDbEntity
  8
0
100
AcDbCircle
 62
3
  6
CONTINUOUS
 10
508.8819032926
 20
169.3571332708
 40
4.018415347
100
AcDbArc
 50
301.7433071853
 51
303.6586251087
  0
ARC
  5
30C
100
AcDbEntity
  8
0
100
AcDbCircle
 62
3
  6
CONTINUOUS
 10
509.0463319606
 20
169.1755046101
 40
3.906849846
100
AcDbArc
 50
299.3806724127
 51
301.6880861728
  0
ARC
  5
30D
100
AcDbEntity
  8
0
100
AcDbCircle
 62
3
  6
CONTINUOUS
 10
507.5348944059
 20
169.4596137761
 40
3.900216601
100
AcDbArc
 50
325.1500523548
 51
327.7824160026
  0
ARC
  5
30E
100
AcDbEntity
  8
0
100
AcDbCircle
 62
3
  6
CONTINUOUS
 10
508.8649729892
 20
170.2108267056
 40
3.6306781072
100
AcDbArc
 50
303.8834450155
 51
305.9418570475
  0
ARC
  5
30F
100
AcDbEntity
  8
0
100
AcDbCircle
 62
3
  6
CONTINUOUS
 10
509.1279100617
 20
168.268179475
 40
0.7714447684
100
AcDbArc
 50
71.1285390152
 51
77.718513967
  0
ARC
  5
310
100
AcDbEntity
  8
0
100
AcDbCircle
 62
3
  6
CONTINUOUS
 10
511.0176394597
 20
173.9341736417
 40
6.6628263036
100
AcDbArc
 50
269.814346944
 51
270.7863847213
  0
ARC
  5
311
100
AcDbEntity
  8
0
100
AcDbCircle
 62
3
  6
CONTINUOUS
 10
510.6814185605
 20
173.4194095873
 40
5.9634614599
100
AcDbArc
 50
272.7070683664
 51
274.0112780563
  0
ARC
  5
312
100
AcDbEntity
  8
0
100
AcDbCircle
 62
3
  6
CONTINUOUS
 10
510.7979796695
 20
171.7272018675
 40
5.7907724534
100
AcDbArc
 50
270.9015632517
 51
271.9601566757
  0
ARC
  5
313
100
AcDbEntity
  8
0
100
AcDbCircle
 62
3
  6
CONTINUOUS
 10
510.5002222252
 20
170.7100078277
 40
4.9604922489
100
AcDbArc
 50
273.865054855
 51
275.3538859006
  0
ARC
  5
314
100
AcDbEntity
  8
0
100
AcDbCircle
 62
3
  6
CONTINUOUS
 10
508.9427885215
 20
170.473705063
 40
3.6260552347
100
AcDbArc
 50
301.4480482711
 51
303.8594192645
  0
ARC
  5
315
100
AcDbEntity
  8
0
100
AcDbCircle
 62
3
  6
CONTINUOUS
 10
516.3542876223
 20
167.1864175081
 40
5.1806414674
100
AcDbArc
 50
38.7165766891
 51
40.4131152961
  0
ARC
  5
316
100
AcDbEntity
  8
0
100
AcDbCircle
 62
3
  6
CONTINUOUS
 10
515.7373682795
 20
169.7587116329
 40
4.608237971
100
AcDbArc
 50
4.9996168883
 51
5.9290291807
  0
ARC
  5
317
100
AcDbEntity
  8
0
100
AcDbCircle
 62
3
  6
CONTINUOUS
 10
515.8808444571
 20
169.8089741872
 40
4.5767623507
100
AcDbArc
 50
5.0360173122
 51
5.9721156063
  0
ARC
  5
318
100
AcDbEntity
  8
0
100
AcDbCircle
 62
3
  6
CONTINUOUS
 10
516.2688434994
 20
168.1095233108
 40
4.5755978753
100
AcDbArc
 50
27.6755761606
 51
29.04393222
  0
ARC
  5
319
100
AcDbEntity
  8
0
100
AcDbCircle
 62
3
  6
CONTINUOUS
 10
515.9835004765
 20
169.2202992101
 40
4.5749211966
100
AcDbArc
 50
13.4596578528
 51
15.2902301692
  0
ARC
  5
31A
100
AcDbEntity
  8
0
100
AcDbCircle
 62
3
  6
CONTINUOUS
 10
515.123833512
 20
170.3002246481
 40
4.5644836637
100
AcDbArc
 50
356.5473191708
 51
358.5127636719
  0
ARC
  5
31B
100
AcDbEntity
  8
0
100
AcDbCircle
 62
3
  6
CONTINUOUS
 10
517.0853470305
 20
169.7503723512
 40
3.3669393445
100
AcDbArc
 50
347.7454228408
 51
350.2385847653
  0
ARC
  5
31C
100
AcDbEntity
  8
0
100
AcDbCircle
 62
3
  6
CONTINUOUS
 10
516.3374078637
 20
169.478531033
 40
3.3365082727
100
AcDbArc
 50
347.7340514128
 51
350.2499561933
  0
ARC
  5
31D
100
AcDbEntity
  8
0
100
AcDbCircle
 62
3
  6
CONTINUOUS
 10
513.0267758331
 20
167.9837745388
 40
0.7721528876
100
AcDbArc
 50
244.3504517297
 51
251.1105348878
  0
ARC
  5
31E
100
AcDbEntity
  8
0
100
AcDbCircle
 62
3
  6
CONTINUOUS
 10
517.5522592327
 20
169.5315810197
 40
0.7721528876
100
AcDbArc
 50
244.3504517297
 51
251.1105348877
  0
ARC
  5
31F
100
AcDbEntity
  8
0
100
AcDbCircle
 62
3
  6
CONTINUOUS
 10
513.6533934613
 20
169.815985956
 40
0.7714447684
100
AcDbArc
 50
71.1285390151
 51
77.718513967
  0
ARC
  5
320
100
AcDbEntity
  8
0
100
AcDbCircle
 62
3
  6
CONTINUOUS
 10
515.8554503248
 20
170.355435666
 40
4.5867720163
100
AcDbArc
 50
356.2393553938
 51
358.1921221181
  0
ARC
  5
321
100
AcDbEntity
  8
0
100
AcDbCircle
 62
3
  6
CONTINUOUS
 10
515.8198437588
 20
170.8583029563
 40
4.5619425029
100
AcDbArc
 50
349.1110598901
 51
351.1990464667
  0
ARC
  5
322
100
AcDbEntity
  8
0
100
AcDbCircle
 62
3
  6
CONTINUOUS
 10
516.0817324983
 20
171.0979349749
 40
4.473968367
100
AcDbArc
 50
344.8425621627
 51
346.5143329567
  0
ARC
  5
323
100
AcDbEntity
  8
0
100
AcDbCircle
 62
3
  6
CONTINUOUS
 10
515.5242396373
 20
171.2996445997
 40
4.454882591
100
AcDbArc
 50
343.8080579082
 51
345.4848544568
  0
ARC
  5
324
100
AcDbEntity
  8
0
100
AcDbCircle
 62
3
  6
CONTINUOUS
 10
516.320878904
 20
171.7411911504
 40
4.3444762596
100
AcDbArc
 50
332.0287356803
 51
336.3228491722
  0
ARC
  5
325
100
AcDbEntity
  8
0
100
AcDbCircle
 62
3
  6
CONTINUOUS
 10
516.5094087484
 20
171.6350441853
 40
4.2486160208
100
AcDbArc
 50
333.9412747561
 51
336.3116934654
  0
ARC
  5
326
100
AcDbEntity
  8
0
100
AcDbCircle
 62
3
  6
CONTINUOUS
 10
515.8156303498
 20
171.9065368081
 40
4.2380021148
100
AcDbArc
 50
335.9847682483
 51
338.5884942006
  0
ARC
  5
327
100
AcDbEntity
  8
0
100
AcDbCircle
 62
3
  6
CONTINUOUS
 10
516.4080636877
 20
172.3796909406
 40
4.0721206406
100
AcDbArc
 50
327.3555581656
 51
328.9446482912
  0
ARC
  5
328
100
AcDbEntity
  8
0
100
AcDbCircle
 62
3
  6
CONTINUOUS
 10
516.7742830616
 20
172.7785445233
 40
3.8436404848
100
AcDbArc
 50
320.994872466
 51
322.9522334558
  0
ARC
  5
329
100
AcDbEntity
  8
0
100
AcDbCircle
 62
3
  6
CONTINUOUS
 10
514.2722639829
 20
172.5693890111
 40
3.7610766276
100
AcDbArc
 50
288.8679942052
 51
291.0905100241
  0
ARC
  5
32A
100
AcDbEntity
  8
0
100
AcDbCircle
 62
3
  6
CONTINUOUS
 10
514.3043805798
 20
170.789603149
 40
3.6670985878
100
AcDbArc
 50
288.8395118936
 51
291.1189923357
  0
ARC
  5
32B
100
AcDbEntity
  8
0
100
AcDbCircle
 62
3
  6
CONTINUOUS
 10
517.8325858713
 20
158.9185780875
 40
14.8876791712
100
AcDbArc
 50
62.1279476324
 51
62.5108220002
  0
ARC
  5
32C
100
AcDbEntity
  8
0
100
AcDbCircle
 62
3
  6
CONTINUOUS
 10
519.3312888461
 20
161.3696023379
 40
10.5027800422
100
AcDbArc
 50
61.0880482702
 51
61.3292487542
  0
ARC
  5
32D
100
AcDbEntity
  8
0
100
AcDbCircle
 62
3
  6
CONTINUOUS
 10
519.7520688483
 20
162.1568401173
 40
9.4471692471
100
AcDbArc
 50
60.6842222225
 51
61.2067951329
  0
ARC
  5
32E
100
AcDbEntity
  8
0
100
AcDbCircle
 62
3
  6
CONTINUOUS
 10
522.9117619159
 20
166.1915012849
 40
9.1148836184
100
AcDbArc
 50
49.6963638524
 51
51.4449176999
  0
ARC
  5
32F
100
AcDbEntity
  8
0
100
AcDbCircle
 62
3
  6
CONTINUOUS
 10
523.0404472306
 20
166.329809888
 40
8.8493221645
100
AcDbArc
 50
49.6701253352
 51
51.4711562171
  0
ARC
  5
330
100
AcDbEntity
  8
0
100
AcDbCircle
 62
3
  6
CONTINUOUS
 10
520.2745409356
 20
166.2379128551
 40
7.2181907928
100
AcDbArc
 50
51.3392843774
 51
52.017565919
  0
ARC
  5
331
100
AcDbEntity
  8
0
100
AcDbCircle
 62
3
  6
CONTINUOUS
 10
520.7534927597
 20
168.7996535883
 40
5.2028277857
100
AcDbArc
 50
37.3851910879
 51
39.0750652302
  0
ARC
  5
332
100
AcDbEntity
  8
0
100
AcDbCircle
 62
3
  6
CONTINUOUS
 10
521.1228575621
 20
166.8644307516
 40
4.781727033
100
AcDbArc
 50
48.3242610825
 51
49.220560199
  0
ARC
  5
333
100
AcDbEntity
  8
0
100
AcDbCircle
 62
3
  6
CONTINUOUS
 10
520.247539586
 20
171.3011802409
 40
4.6108990826
100
AcDbArc
 50
4.9965633546
 51
5.9254147836
  0
ARC
  5
334
100
AcDbEntity
  8
0
100
AcDbCircle
 62
3
  6
CONTINUOUS
 10
520.4361794352
 20
170.7679056034
 40
4.6078464994
100
AcDbArc
 50
13.1538299862
 51
14.9762255835
  0
ARC
  5
335
100
AcDbEntity
  8
0
100
AcDbCircle
 62
3
  6
CONTINUOUS
 10
520.3410830792
 20
171.8705062855
 40
4.5909940228
100
AcDbArc
 50
356.453814912
 51
358.3969418247
  0
ARC
  5
336
100
AcDbEntity
  8
0
100
AcDbCircle
 62
3
  6
CONTINUOUS
 10
520.3596255535
 20
171.3403724462
 40
4.5882729102
100
AcDbArc
 50
5.0226448676
 51
5.9562869028
  0
ARC
  5
337
100
AcDbEntity
  8
0
100
AcDbCircle
 62
3
  6
CONTINUOUS
 10
520.7328167276
 20
169.7271244948
 40
4.5848468095
100
AcDbArc
 50
26.5601655674
 51
27.9253210735
  0
ARC
  5
338
100
AcDbEntity
  8
0
100
AcDbCircle
 62
3
  6
CONTINUOUS
 10
519.6569919282
 20
171.8105013831
 40
4.577460309
100
AcDbArc
 50
357.1004576894
 51
359.0559758889
  0
ARC
  5
339
100
AcDbEntity
  8
0
100
AcDbCircle
 62
3
  6
CONTINUOUS
 10
520.3151431831
 20
172.356669585
 40
4.5727684207
100
AcDbArc
 50
349.7114325547
 51
351.7786124649
  0
ARC
  5
33A
100
AcDbEntity
  8
0
100
AcDbCircle
 62
3
  6
CONTINUOUS
 10
520.8608934751
 20
172.9536189871
 40
4.5077299426
100
AcDbArc
 50
330.3608031232
 51
331.5816541572
  0
ARC
  5
33B
100
AcDbEntity
  8
0
100
AcDbCircle
 62
3
  6
CONTINUOUS
 10
521.7999145907
 20
167.8194304239
 40
4.5073522306
100
AcDbArc
 50
47.6495307176
 51
48.5745164256
  0
ARC
  5
33C
100
AcDbEntity
  8
0
100
AcDbCircle
 62
3
  6
CONTINUOUS
 10
520.5365266726
 20
172.6043118101
 40
4.5032792096
100
AcDbArc
 50
345.2954330913
 51
346.9378982084
  0
ARC
  5
33D
100
AcDbEntity
  8
0
100
AcDbCircle
 62
3
  6
CONTINUOUS
 10
520.0256823196
 20
172.7706520948
 40
4.4712623522
100
AcDbArc
 50
344.9482202624
 51
346.6016144056
  0
ARC
  5
33E
100
AcDbEntity
  8
0
100
AcDbCircle
 62
3
  6
CONTINUOUS
 10
520.8399254435
 20
172.501033065
 40
4.4061319597
100
AcDbArc
 50
335.8005153374
 51
337.4779359628
  0
ARC
  5
33F
100
AcDbEntity
  8
0
100
AcDbCircle
 62
3
  6
CONTINUOUS
 10
520.7164043359
 20
172.2737019063
 40
4.3624839265
100
AcDbArc
 50
340.3730088079
 51
341.4411288535
  0
ARC
  5
340
100
AcDbEntity
  8
0
100
AcDbCircle
 62
3
  6
CONTINUOUS
 10
520.8951315251
 20
171.9690989629
 40
4.1779301818
100
AcDbArc
 50
343.9401648999
 51
345.5256300375
  0
ARC
  5
341
100
AcDbEntity
  8
0
100
AcDbCircle
 62
3
  6
CONTINUOUS
 10
521.1660069242
 20
171.3486336913
 40
3.7981627781
100
AcDbArc
 50
353.5936507031
 51
355.7071339691
  0
ARC
  5
342
100
AcDbEntity
  8
0
100
AcDbCircle
 62
3
  6
CONTINUOUS
 10
521.0805793978
 20
171.306634903
 40
3.7949187217
100
AcDbArc
 50
353.6242471823
 51
355.739818877
  0
ARC
  5
343
100
AcDbEntity
  8
0
100
AcDbCircle
 62
3
  6
CONTINUOUS
 10
521.4056808656
 20
170.8833895487
 40
3.5524436422
100
AcDbArc
 50
2.9194721071
 51
5.0725311183
  0
ARC
  5
344
100
AcDbEntity
  8
0
100
AcDbCircle
 62
3
  6
CONTINUOUS
 10
521.5247793797
 20
168.8411481938
 40
3.3371538452
100
AcDbArc
 50
31.4968347388
 51
32.6321190634
  0
ARC
  5
345
100
AcDbEntity
  8
0
100
AcDbCircle
 62
3
  6
CONTINUOUS
 10
520.9168860188
 20
170.2729781089
 40
3.3124567572
100
AcDbArc
 50
5.2446729567
 51
6.9417048269
  0
ARC
  5
346
100
AcDbEntity
  8
0
100
AcDbCircle
 62
3
  6
CONTINUOUS
 10
521.8659212891
 20
170.1519063042
 40
3.2510161992
100
AcDbArc
 50
18.7606815917
 51
20.4656271228
  0
ARC
  5
347
100
AcDbEntity
  8
0
100
AcDbCircle
 62
3
  6
CONTINUOUS
 10
521.6972748454
 20
170.369304019
 40
3.2348326753
100
AcDbArc
 50
11.6898662681
 51
13.9754317951
  0
ARC
  5
348
100
AcDbEntity
  8
0
100
AcDbCircle
 62
3
  6
CONTINUOUS
 10
521.1870092315
 20
169.9601031981
 40
3.2208805854
100
AcDbArc
 50
12.1987223025
 51
13.3456503084
  0
ARC
  5
349
100
AcDbEntity
  8
0
100
AcDbCircle
 62
3
  6
CONTINUOUS
 10
521.3750486894
 20
169.5658317122
 40
3.0146292902
100
AcDbArc
 50
17.7581996719
 51
19.5732249125
  0
ARC
  5
34A
100
AcDbEntity
  8
0
100
AcDbCircle
 62
3
  6
CONTINUOUS
 10
519.4598860653
 20
169.811139256
 40
1.1998949311
100
AcDbArc
 50
317.3140217461
 51
319.7413521598
  0
ARC
  5
34B
100
AcDbEntity
  8
0
100
AcDbCircle
 62
3
  6
CONTINUOUS
 10
522.0777426323
 20
171.0793875007
 40
0.7721528876
100
AcDbArc
 50
244.3504517297
 51
251.1105348877
  0
ARC
  5
34C
100
AcDbEntity
  8
0
100
AcDbCircle
 62
3
  6
CONTINUOUS
 10
522.7043602605
 20
172.9115989178
 40
0.7714447684
100
AcDbArc
 50
71.1285390152
 51
77.718513967
  0
ARC
  5
34D
100
AcDbEntity
  8
0
100
AcDbCircle
 62
3
  6
CONTINUOUS
 10
518.1788768609
 20
171.3637924369
 40
0.7714447684
100
AcDbArc
 50
71.1285390151
 51
77.7185139672
  0
ARC
  5
34E
100
AcDbEntity
  8
0
100
AcDbCircle
 62
3
  6
CONTINUOUS
 10
519.8017188291
 20
169.1804806104
 40
0.4586407254
100
AcDbArc
 50
243.5943267205
 51
248.2024584687
  0
ARC
  5
34F
100
AcDbEntity
  8
0
100
AcDbCircle
 62
3
  6
CONTINUOUS
 10
520.1109688197
 20
176.8120023084
 40
6.4301265584
100
AcDbArc
 50
269.8116596082
 51
270.7845095229
  0
ARC
  5
350
100
AcDbEntity
  8
0
100
AcDbCircle
 62
3
  6
CONTINUOUS
 10
519.7846349769
 20
176.1524269997
 40
5.5794471443
100
AcDbArc
 50
273.0134597793
 51
274.3477605825
  0
ARC
  5
351
100
AcDbEntity
  8
0
100
AcDbCircle
 62
3
  6
CONTINUOUS
 10
522.875396384
 20
176.0037088831
 40
5.493728909
100
AcDbArc
 50
284.0065734621
 51
285.255321186
  0
ARC
  5
352
100
AcDbEntity
  8
0
100
AcDbCircle
 62
3
  6
CONTINUOUS
 10
518.3729776107
 20
175.2671976755
 40
5.4023646229
100
AcDbArc
 50
284.0011386535
 51
285.3428201088
  0
ARC
  5
353
100
AcDbEntity
  8
0
100
AcDbCircle
 62
3
  6
CONTINUOUS
 10
522.9171333338
 20
176.7449671683
 40
5.3298827093
100
AcDbArc
 50
284.2443489071
 51
285.5229815444
  0
ARC
  5
354
100
AcDbEntity
  8
0
100
AcDbCircle
 62
3
  6
CONTINUOUS
 10
521.2929083008
 20
173.2173109499
 40
4.3679080849
100
AcDbArc
 50
323.2465993966
 51
324.7259092282
  0
ARC
  5
355
100
AcDbEntity
  8
0
100
AcDbCircle
 62
3
  6
CONTINUOUS
 10
520.7274486908
 20
173.0809485834
 40
4.3678065458
100
AcDbArc
 50
338.0994233063
 51
339.3407644548
  0
ARC
  5
356
100
AcDbEntity
  8
0
100
AcDbCircle
 62
3
  6
CONTINUOUS
 10
521.5627165085
 20
173.4264381566
 40
4.2895044519
100
AcDbArc
 50
317.0900754963
 51
318.8477293923
  0
ARC
  5
357
100
AcDbEntity
  8
0
100
AcDbCircle
 62
3
  6
CONTINUOUS
 10
521.5429265011
 20
173.504281316
 40
4.2660091405
100
AcDbArc
 50
318.4569939548
 51
319.3346789126
  0
ARC
  5
358
100
AcDbEntity
  8
0
100
AcDbCircle
 62
3
  6
CONTINUOUS
 10
520.2988227075
 20
173.3635868145
 40
4.258674407
100
AcDbArc
 50
337.5177996142
 51
340.0641332083
  0
ARC
  5
359
100
AcDbEntity
  8
0
100
AcDbCircle
 62
3
  6
CONTINUOUS
 10
521.1260681212
 20
173.3045737284
 40
4.1931541856
100
AcDbArc
 50
331.7801445185
 51
333.9210077224
  0
ARC
  5
35A
100
AcDbEntity
  8
0
100
AcDbCircle
 62
3
  6
CONTINUOUS
 10
523.272987622
 20
175.2714174728
 40
4.1749024676
100
AcDbArc
 50
288.2891343393
 51
289.4743081226
  0
ARC
  5
35B
100
AcDbEntity
  8
0
100
AcDbCircle
 62
3
  6
CONTINUOUS
 10
523.2912956893
 20
175.075511112
 40
4.1202179009
100
AcDbArc
 50
288.2812690912
 51
289.4821733707
  0
ARC
  5
35C
100
AcDbEntity
  8
0
100
AcDbCircle
 62
3
  6
CONTINUOUS
 10
523.2453940102
 20
174.46137477
 40
4.0989167395
100
AcDbArc
 50
287.9763410744
 51
289.7871013875
  0
ARC
  5
35D
100
AcDbEntity
  8
0
100
AcDbCircle
 62
3
  6
CONTINUOUS
 10
520.872766178
 20
173.8474463659
 40
4.0904312139
100
AcDbArc
 50
328.8994546068
 51
330.4396718954
  0
ARC
  5
35E
100
AcDbEntity
  8
0
100
AcDbCircle
 62
3
  6
CONTINUOUS
 10
523.2681371504
 20
175.7275884314
 40
4.029729342
100
AcDbArc
 50
288.267785281
 51
289.4956571808
  0
ARC
  5
35F
100
AcDbEntity
  8
0
100
AcDbCircle
 62
3
  6
CONTINUOUS
 10
518.7431550503
 20
174.1782074495
 40
4.0280776333
100
AcDbArc
 50
288.2320981446
 51
289.5313443172
  0
ARC
  5
360
100
AcDbEntity
  8
0
100
AcDbCircle
 62
3
  6
CONTINUOUS
 10
523.2447315725
 20
175.8915015262
 40
4.0007913958
100
AcDbArc
 50
288.5725371344
 51
289.1909053274
  0
ARC
  5
361
100
AcDbEntity
  8
0
100
AcDbCircle
 62
3
  6
CONTINUOUS
 10
522.2806067188
 20
173.6788750018
 40
3.9928152255
100
AcDbArc
 50
305.8629443602
 51
307.3767108037
  0
ARC
  5
362
100
AcDbEntity
  8
0
100
AcDbCircle
 62
3
  6
CONTINUOUS
 10
523.2621185945
 20
174.1457322386
 40
3.9437786406
100
AcDbArc
 50
287.627012372
 51
290.1364300898
  0
ARC
  5
363
100
AcDbEntity
  8
0
100
AcDbCircle
 62
3
  6
CONTINUOUS
 10
518.7381771083
 20
174.2878028479
 40
3.9417811393
100
AcDbArc
 50
288.5522502733
 51
289.8701799003
  0
ARC
  5
364
100
AcDbEntity
  8
0
100
AcDbCircle
 62
3
  6
CONTINUOUS
 10
522.4818649667
 20
173.8459604423
 40
3.8903177677
100
AcDbArc
 50
303.5690681616
 51
305.4072818131
  0
ARC
  5
365
100
AcDbEntity
  8
0
100
AcDbCircle
 62
3
  6
CONTINUOUS
 10
521.2452574485
 20
174.2453906278
 40
3.8460965141
100
AcDbArc
 50
322.6403099475
 51
324.5305882029
  0
ARC
  5
366
100
AcDbEntity
  8
0
100
AcDbCircle
 62
3
  6
CONTINUOUS
 10
522.0364365039
 20
174.0517619146
 40
3.7798584895
100
AcDbArc
 50
314.0566492816
 51
316.539488505
  0
ARC
  5
367
100
AcDbEntity
  8
0
100
AcDbCircle
 62
3
  6
CONTINUOUS
 10
518.0164475347
 20
173.7521158097
 40
3.7619343041
100
AcDbArc
 50
299.0305108462
 51
301.6837766142
  0
ARC
  5
368
100
AcDbEntity
  8
0
100
AcDbCircle
 62
3
  6
CONTINUOUS
 10
517.838494207
 20
173.3933378329
 40
3.7328873325
100
AcDbArc
 50
303.4578923805
 51
305.4475091874
  0
ARC
  5
369
100
AcDbEntity
  8
0
100
AcDbCircle
 62
3
  6
CONTINUOUS
 10
522.5220236514
 20
175.2438555216
 40
3.7252686093
100
AcDbArc
 50
299.8750197294
 51
302.4160535498
  0
ARC
  5
36A
100
AcDbEntity
  8
0
100
AcDbCircle
 62
3
  6
CONTINUOUS
 10
522.3311122487
 20
174.8886651866
 40
3.7104213482
100
AcDbArc
 50
304.4635723235
 51
306.3682375535
  0
ARC
  5
36B
100
AcDbEntity
  8
0
100
AcDbCircle
 62
3
  6
CONTINUOUS
 10
524.2870130403
 20
172.7365020037
 40
4.8946991536
100
AcDbArc
 50
7.8451303914
 51
11.640062382
  0
ARC
  5
36C
100
AcDbEntity
  8
0
100
AcDbCircle
 62
3
  6
CONTINUOUS
 10
524.2426784702
 20
172.719119522
 40
4.8823203264
100
AcDbArc
 50
8.4672244181
 51
11.6464426005
  0
ARC
  5
36D
100
AcDbEntity
  8
0
100
AcDbCircle
 62
3
  6
CONTINUOUS
 10
524.3268482745
 20
172.7319864901
 40
4.7971733841
100
AcDbArc
 50
7.8268025337
 51
8.463244147
  0
ARC
  5
36E
100
AcDbEntity
  8
0
100
AcDbCircle
 62
3
  6
CONTINUOUS
 10
525.3994686506
 20
172.6805021421
 40
3.5884626101
100
AcDbArc
 50
349.9594940306
 51
352.8415300842
  0
ARC
  5
36F
100
AcDbEntity
  8
0
100
AcDbCircle
 62
3
  6
CONTINUOUS
 10
525.3579603054
 20
172.660610527
 40
3.5689040759
100
AcDbArc
 50
350.5219605929
 51
352.7918786745
  0
ARC
  5
370
100
AcDbEntity
  8
0
100
AcDbCircle
 62
3
  6
CONTINUOUS
 10
525.7469913971
 20
172.7814098288
 40
3.5516647855
100
AcDbArc
 50
349.9445608402
 51
352.8564632746
  0
ARC
  5
371
100
AcDbEntity
  8
0
100
AcDbCircle
 62
3
  6
CONTINUOUS
 10
525.8096043137
 20
172.8022008272
 40
3.5412992863
100
AcDbArc
 50
348.7534225344
 51
352.7927410167
  0
ARC
  5
372
100
AcDbEntity
  8
0
100
AcDbCircle
 62
3
  6
CONTINUOUS
 10
525.4981514478
 20
172.6370661544
 40
3.4267491568
100
AcDbArc
 50
348.7139872942
 51
350.4434587141
  0
ARC
  5
373
100
AcDbEntity
  8
0
100
AcDbCircle
 62
3
  6
CONTINUOUS
 10
526.6032260319
 20
172.6271939816
 40
0.7721528876
100
AcDbArc
 50
244.3504517297
 51
251.1105348876
  0
ARC
  5
374
100
AcDbEntity
  8
0
100
AcDbCircle
 62
3
  6
CONTINUOUS
 10
528.9755526561
 20
172.7094365222
 40
0.4199909173
100
AcDbArc
 50
302.8376845924
 51
303.8556279964
  0
ARC
  5
375
100
AcDbEntity
  8
0
100
AcDbCircle
 62
3
  6
CONTINUOUS
 10
528.9793317441
 20
172.7036013911
 40
0.4130389294
100
AcDbArc
 50
302.3392947218
 51
302.8361497805
  0
ARC
  5
376
100
AcDbEntity
  8
0
100
AcDbCircle
 62
3
  6
CONTINUOUS
 10
525.0997009533
 20
178.0378555988
 40
7.6777340798
100
AcDbArc
 50
264.6034021052
 51
265.1934542239
  0
ARC
  5
377
100
AcDbEntity
  8
0
100
AcDbCircle
 62
3
  6
CONTINUOUS
 10
524.7713861025
 20
178.79453448
 40
6.8674647517
100
AcDbArc
 50
268.6784599082
 51
269.5442360552
  0
ARC
  5
378
100
AcDbEntity
  8
0
100
AcDbCircle
 62
3
  6
CONTINUOUS
 10
527.1525844986
 20
179.1772887101
 40
6.6723168384
100
AcDbArc
 50
280.5473853069
 51
283.0135643454
  0
ARC
  5
379
100
AcDbEntity
  8
0
100
AcDbCircle
 62
3
  6
CONTINUOUS
 10
524.5117129988
 20
177.120057941
 40
6.5575074678
100
AcDbArc
 50
269.1026492308
 51
269.9886948443
  0
ARC
  5
37A
100
AcDbEntity
  8
0
100
AcDbCircle
 62
3
  6
CONTINUOUS
 10
527.1862381017
 20
178.9407478987
 40
6.50751861
100
AcDbArc
 50
280.5161531949
 51
283.0447964574
  0
ARC
  5
37B
100
AcDbEntity
  8
0
100
AcDbCircle
 62
3
  6
CONTINUOUS
 10
524.1638985472
 20
177.5932901015
 40
5.4945361071
100
AcDbArc
 50
274.1325648552
 51
275.6459509851
  0
ARC
  5
37C
100
AcDbEntity
  8
0
100
AcDbCircle
 62
3
  6
CONTINUOUS
 10
524.3840702225
 20
176.2003294632
 40
5.0170308992
100
AcDbArc
 50
273.2150500583
 51
274.5513417715
  0
ARC
  5
37D
100
AcDbEntity
  8
0
100
AcDbCircle
 62
3
  6
CONTINUOUS
 10
525.0720383802
 20
175.2554204748
 40
4.7454143077
100
AcDbArc
 50
317.180011759
 51
321.1479405454
  0
ARC
  5
37E
100
AcDbEntity
  8
0
100
AcDbCircle
 62
3
  6
CONTINUOUS
 10
525.1120383802
 20
175.2159442385
 40
4.7454143076
100
AcDbArc
 50
317.180011759
 51
321.1479405454
  0
ARC
  5
37F
100
AcDbEntity
  8
0
100
AcDbCircle
 62
3
  6
CONTINUOUS
 10
527.7542251919
 20
175.9078136754
 40
4.092929337
100
AcDbArc
 50
287.4169459626
 51
290.3464964992
  0
ARC
  5
380
100
AcDbEntity
  8
0
100
AcDbCircle
 62
3
  6
CONTINUOUS
 10
525.8840520202
 20
174.8052956543
 40
3.8130432776
100
AcDbArc
 50
337.5303315153
 51
342.1118785467
  0
ARC
  5
381
100
AcDbEntity
  8
0
100
AcDbCircle
 62
3
  6
CONTINUOUS
 10
525.9690648116
 20
174.7492767581
 40
3.7651257455
100
AcDbArc
 50
337.5011617424
 51
342.1410483196
  0
ARC
  5
382
100
AcDbEntity
  8
0
100
AcDbCircle
 62
3
  6
CONTINUOUS
 10
527.2298436601
 20
174.4594053988
 40
0.7714447684
100
AcDbArc
 50
71.1285390151
 51
77.7185139671
  0
ARC
  5
383
100
AcDbEntity
  8
0
100
AcDbCircle
 62
3
  6
CONTINUOUS
 10
528.5733714371
 20
173.296092016
 40
0.0302610977
100
AcDbArc
 50
71.1223817921
 51
78.2691327601
  0
ARC
  5
384
100
AcDbEntity
  8
0
100
AcDbCircle
 62
3
  6
CONTINUOUS
 10
529.0508735256
 20
173.7330917736
 40
0.0229229129
100
AcDbArc
 50
71.1398394934
 51
76.1169191773
  0
ARC
  5
385
100
AcDbEntity
  8
0
100
AcDbCircle
 62
3
  6
CONTINUOUS
 10
529.533333599
 20
173.6419828533
 40
0.0136662469
100
AcDbArc
 50
71.067189781
 51
81.0900552137
  0
ARC
  5
386
100
AcDbEntity
  8
0
100
AcDbCircle
 62
3
  6
CONTINUOUS
 10
529.7379170979
 20
173.0754334437
 40
0.0086473148
100
AcDbArc
 50
71.1410625829
 51
81.6886677478
  0
ARC
  5
387
100
AcDbEntity
  8
0
100
AcDbCircle
 62
3
  6
CONTINUOUS
 10
433.6286623255
 20
479.4178337179
 40
0.602704302
100
AcDbArc
 50
191.0268882099
 51
200.6177315121
  0
SPLINE
  5
388
100
AcDbEntity
  8
0
100
AcDbSpline
 62
3
  6
CONTINUOUS
 70
0
 71
3
 72
9
 73
5
 74
0
 42
0.0000001
 43
0.0000001
 44
0.0000000001
 40
0.0
 40
0.0
 40
0.0
 40
0.0
 40
0.230498937
 40
1.0
 40
1.0
 40
1.0
 40
1.0
 10
528.9537509862
 20
172.0019130979
 30
0.0
 10
528.9556302361
 20
172.0012709605
 30
0.0
 10
528.9640642459
 20
171.999282672
 30
0.0
 10
528.9730080431
 20
172.0005505172
 30
0.0
 10
528.9793331126
 20
172.0025376108
 30
0.0
  0
SPLINE
  5
389
100
AcDbEntity
  8
0
100
AcDbSpline
 62
3
  6
CONTINUOUS
 70
0
 71
3
 72
13
 73
9
 74
0
 42
0.0000001
 43
0.0000001
 44
0.0000000001
 40
0.0
 40
0.0
 40
0.0
 40
0.0
 40
0.096294275
 40
0.1997152601
 40
0.3145114337
 40
0.441333571
 40
0.7192344555
 40
1.0
 40
1.0
 40
1.0
 40
1.0
 10
529.3032207398
 20
173.3396163883
 30
0.0
 10
529.2718990833
 20
173.3503285943
 30
0.0
 10
529.2018801382
 20
173.3595444103
 30
0.0
 10
529.0948859994
 20
173.334092589
 30
0.0
 10
528.991123681
 20
173.2738277835
 30
0.0
 10
528.8610232012
 20
173.1496163425
 30
0.0
 10
528.7428355593
 20
172.9398207957
 30
0.0
 10
528.7054017826
 20
172.7470750824
 30
0.0
 10
528.7054017826
 20
172.6505570411
 30
0.0
  0
SPLINE
  5
38A
100
AcDbEntity
  8
0
100
AcDbSpline
 62
3
  6
CONTINUOUS
 70
0
 71
3
 72
11
 73
7
 74
0
 42
0.0000001
 43
0.0000001
 44
0.0000000001
 40
0.0
 40
0.0
 40
0.0
 40
0.0
 40
0.2181273765
 40
0.4455419956
 40
0.7038881328
 40
1.0
 40
1.0
 40
1.0
 40
1.0
 10
528.8788582391
 20
171.9136573415
 30
0.0
 10
528.8746229094
 20
171.9151045116
 30
0.0
 10
528.8665044135
 20
171.9201414126
 30
0.0
 10
528.8589405216
 20
171.9329592362
 30
0.0
 10
528.8562841669
 20
171.9490375021
 30
0.0
 10
528.8574460575
 20
171.9604699234
 30
0.0
 10
528.8586357213
 20
171.9664282259
 30
0.0
  0
SPLINE
  5
38B
100
AcDbEntity
  8
0
100
AcDbSpline
 62
3
  6
CONTINUOUS
 70
0
 71
3
 72
8
 73
4
 74
0
 42
0.0000001
 43
0.0000001
 44
0.0000000001
 40
0.0
 40
0.0
 40
0.0
 40
0.0
 40
1.0
 40
1.0
 40
1.0
 40
1.0
 10
529.5172827949
 20
172.3015971956
 30
0.0
 10
529.5154684183
 20
172.3022168427
 30
0.0
 10
529.5138556868
 20
172.3035806038
 30
0.0
 10
529.5127655583
 20
172.305157799
 30
0.0
  0
SPLINE
  5
38C
100
AcDbEntity
  8
0
100
AcDbSpline
 62
3
  6
CONTINUOUS
 70
0
 71
3
 72
9
 73
5
 74
0
 42
0.0000001
 43
0.0000001
 44
0.0000000001
 40
0.0
 40
0.0
 40
0.0
 40
0.0
 40
0.4780013353
 40
1.0
 40
1.0
 40
1.0
 40
1.0
 10
528.551878926
 20
171.9751061655
 30
0.0
 10
528.5477691653
 20
171.9765117918
 30
0.0
 10
528.539926444
 20
171.9826463505
 30
0.0
 10
528.5380395414
 20
171.9921928752
 30
0.0
 10
528.5380823697
 20
171.9969359672
 30
0.0
  0
SPLINE
  5
38D
100
AcDbEntity
  8
0
100
AcDbSpline
 62
3
  6
CONTINUOUS
 70
0
 71
3
 72
9
 73
5
 74
0
 42
0.0000001
 43
0.0000001
 44
0.0000000001
 40
0.0
 40
0.0
 40
0.0
 40
0.0
 40
0.2318359866
 40
1.0
 40
1.0
 40
1.0
 40
1.0
 10
528.5380823697
 20
171.9969359672
 30
0.0
 10
528.5381079238
 20
171.9997659948
 30
0.0
 10
528.5397752815
 20
172.0119492837
 30
0.0
 10
528.5463922354
 20
172.0230968408
 30
0.0
 10
528.5527655583
 20
172.0299755034
 30
0.0
  0
SPLINE
  5
38E
100
AcDbEntity
  8
0
100
AcDbSpline
 62
3
  6
CONTINUOUS
 70
0
 71
3
 72
10
 73
6
 74
0
 42
0.0000001
 43
0.0000001
 44
0.0000000001
 40
0.0
 40
0.0
 40
0.0
 40
0.0
 40
0.1942373378
 40
0.575868809
 40
1.0
 40
1.0
 40
1.0
 40
1.0
 10
529.4198253831
 20
173.2886242067
 30
0.0
 10
529.4158164851
 20
173.2899968193
 30
0.0
 10
529.4059366689
 20
173.2992494122
 30
0.0
 10
529.4012383713
 20
173.321610587
 30
0.0
 10
529.4040824443
 20
173.3394212459
 30
0.0
 10
529.4076166396
 20
173.3479722824
 30
0.0
  0
SPLINE
  5
38F
100
AcDbEntity
  8
0
100
AcDbSpline
 62
3
  6
CONTINUOUS
 70
0
 71
3
 72
8
 73
4
 74
0
 42
0.0000001
 43
0.0000001
 44
0.0000000001
 40
0.0
 40
0.0
 40
0.0
 40
0.0
 40
1.0
 40
1.0
 40
1.0
 40
1.0
 10
528.7763513632
 20
173.0709193176
 30
0.0
 10
528.7731753748
 20
173.0720016811
 30
0.0
 10
528.7701740033
 20
173.073750183
 30
0.0
 10
528.7676166396
 20
173.0759223487
 30
0.0
  0
SPLINE
  5
390
100
AcDbEntity
  8
0
100
AcDbSpline
 62
3
  6
CONTINUOUS
 70
0
 71
3
 72
9
 73
5
 74
0
 42
0.0000001
 43
0.0000001
 44
0.0000000001
 40
0.0
 40
0.0
 40
0.0
 40
0.0
 40
0.1951159024
 40
1.0
 40
1.0
 40
1.0
 40
1.0
 10
529.5497042081
 20
172.9096151839
 30
0.0
 10
529.5477943074
 20
172.9102677802
 30
0.0
 10
529.5389679736
 20
172.9164659802
 30
0.0
 10
529.5372958914
 20
172.9284602615
 30
0.0
 10
529.5372958914
 20
172.9367861387
 30
0.0
  0
SPLINE
  5
391
100
AcDbEntity
  8
0
100
AcDbSpline
 62
3
  6
CONTINUOUS
 70
0
 71
3
 72
8
 73
4
 74
0
 42
0.0000001
 43
0.0000001
 44
0.0000000001
 40
0.0
 40
0.0
 40
0.0
 40
0.0
 40
1.0
 40
1.0
 40
1.0
 40
1.0
 10
528.357197904
 20
172.5435730907
 30
0.0
 10
528.3549293433
 20
172.5443478527
 30
0.0
 10
528.3527383644
 20
172.5454098641
 30
0.0
 10
528.3507327712
 20
172.5467229596
 30
0.0
  0
SPLINE
  5
392
100
AcDbEntity
  8
0
100
AcDbSpline
 62
3
  6
CONTINUOUS
 70
0
 71
3
 72
8
 73
4
 74
0
 42
0.0000001
 43
0.0000001
 44
0.0000000001
 40
0.0
 40
0.0
 40
0.0
 40
0.0
 40
1.0
 40
1.0
 40
1.0
 40
1.0
 10
528.3507327712
 20
172.5467229596
 30
0.0
 10
528.3479254526
 20
172.5485609582
 30
0.0
 10
528.3454175817
 20
172.5509478025
 30
0.0
 10
528.343429686
 20
172.55365105
 30
0.0
  0
SPLINE
  5
393
100
AcDbEntity
  8
0
100
AcDbSpline
 62
3
  6
CONTINUOUS
 70
0
 71
3
 72
9
 73
5
 74
0
 42
0.0000001
 43
0.0000001
 44
0.0000000001
 40
0.0
 40
0.0
 40
0.0
 40
0.0
 40
0.7375922011
 40
1.0
 40
1.0
 40
1.0
 40
1.0
 10
528.343429686
 20
172.55365105
 30
0.0
 10
528.3404045263
 20
172.5577648248
 30
0.0
 10
528.3377921102
 20
172.5645742504
 30
0.0
 10
528.3373181868
 20
172.5714827984
 30
0.0
 10
528.3373181868
 20
172.5732994447
 30
0.0
  0
SPLINE
  5
394
100
AcDbEntity
  8
0
100
AcDbSpline
 62
3
  6
CONTINUOUS
 70
0
 71
3
 72
9
 73
5
 74
0
 42
0.0000001
 43
0.0000001
 44
0.0000000001
 40
0.0
 40
0.0
 40
0.0
 40
0.0
 40
0.4568675406
 40
1.0
 40
1.0
 40
1.0
 40
1.0
 10
529.0995048873
 20
173.3554343585
 30
0.0
 10
529.0941208151
 20
173.3572705718
 30
0.0
 10
529.0841051378
 20
173.3662899907
 30
0.0
 10
529.0802532578
 20
173.3785611782
 30
0.0
 10
529.0793323683
 20
173.3852608696
 30
0.0
  0
SPLINE
  5
395
100
AcDbEntity
  8
0
100
AcDbSpline
 62
3
  6
CONTINUOUS
 70
0
 71
3
 72
10
 73
6
 74
0
 42
0.0000001
 43
0.0000001
 44
0.0000000001
 40
0.0
 40
0.0
 40
0.0
 40
0.0
 40
0.2322286666
 40
0.4727792898
 40
1.0
 40
1.0
 40
1.0
 40
1.0
 10
528.962816546
 20
172.3146201986
 30
0.0
 10
528.980980791
 20
172.3084073179
 30
0.0
 10
529.0198250117
 20
172.3006373774
 30
0.0
 10
529.1030376101
 20
172.3053003093
 30
0.0
 10
529.1634560736
 20
172.331313046
 30
0.0
 10
529.2002794529
 20
172.3546267973
 30
0.0
  0
SPLINE
  5
396
100
AcDbEntity
  8
0
100
AcDbSpline
 62
3
  6
CONTINUOUS
 70
0
 71
3
 72
11
 73
7
 74
0
 42
0.0000001
 43
0.0000001
 44
0.0000000001
 40
0.0
 40
0.0
 40
0.0
 40
0.0
 40
0.2305231862
 40
0.483331587
 40
0.7450791586
 40
1.0
 40
1.0
 40
1.0
 40
1.0
 10
529.2095304987
 20
172.3606575954
 30
0.0
 10
529.2498178753
 20
172.387682346
 30
0.0
 10
529.324861811
 20
172.458758348
 30
0.0
 10
529.4092073681
 20
172.5924324858
 30
0.0
 10
529.4643114013
 20
172.7459835005
 30
0.0
 10
529.4781776901
 20
172.8549905339
 30
0.0
 10
529.4781776901
 20
172.9086368018
 30
0.0
  0
SPLINE
  5
397
100
AcDbEntity
  8
0
100
AcDbSpline
 62
3
  6
CONTINUOUS
 70
0
 71
3
 72
12
 73
8
 74
0
 42
0.0000001
 43
0.0000001
 44
0.0000000001
 40
0.0
 40
0.0
 40
0.0
 40
0.0
 40
0.1069639207
 40
0.2163824584
 40
0.4496572304
 40
0.7107910964
 40
1.0
 40
1.0
 40
1.0
 40
1.0
 10
511.283771578
 20
168.1981882888
 30
0.0
 10
511.3297850982
 20
168.1824507221
 30
0.0
 10
511.4198088412
 20
168.1407658996
 30
0.0
 10
511.5851879226
 20
168.0185600547
 30
0.0
 10
511.7535738746
 20
167.7940243001
 30
0.0
 10
511.8727848764
 20
167.454111414
 30
0.0
 10
511.8973575045
 20
167.2027248602
 30
0.0
 10
511.8973575045
 20
167.0712380717
 30
0.0
  0
SPLINE
  5
398
100
AcDbEntity
  8
0
100
AcDbSpline
 62
3
  6
CONTINUOUS
 70
0
 71
3
 72
16
 73
12
 74
0
 42
0.0000001
 43
0.0000001
 44
0.0000000001
 40
0.0
 40
0.0
 40
0.0
 40
0.0
 40
0.0477549163
 40
0.0964697174
 40
0.1996203393
 40
0.3141163955
 40
0.4406069146
 40
0.5768844606
 40
0.7188917813
 40
0.8616333812
 40
1.0
 40
1.0
 40
1.0
 40
1.0
 10
510.2482017312
 20
165.1703846142
 30
0.0
 10
510.2911642215
 20
165.1556905623
 30
0.0
 10
510.3810803412
 20
165.1344065851
 30
0.0
 10
510.5716791766
 20
165.1262542686
 30
0.0
 10
510.8231650081
 20
165.1855239951
 30
0.0
 10
511.1090396597
 20
165.351910208
 30
0.0
 10
511.3706857355
 20
165.6012985913
 30
0.0
 10
511.5931623401
 20
165.9179967608
 30
0.0
 10
511.7634538719
 20
166.2824587249
 30
0.0
 10
511.8711163009
 20
166.6719321452
 30
0.0
 10
511.8973575045
 20
166.939677728
 30
0.0
 10
511.8973575045
 20
167.0712380717
 30
0.0
  0
SPLINE
  5
399
100
AcDbEntity
  8
0
100
AcDbSpline
 62
3
  6
CONTINUOUS
 70
0
 71
3
 72
12
 73
8
 74
0
 42
0.0000001
 43
0.0000001
 44
0.0000000001
 40
0.0
 40
0.0
 40
0.0
 40
0.0
 40
0.1069639207
 40
0.2163824584
 40
0.4496572304
 40
0.7107910964
 40
1.0
 40
1.0
 40
1.0
 40
1.0
 10
515.8092549776
 20
169.7459947697
 30
0.0
 10
515.8552684978
 20
169.730257203
 30
0.0
 10
515.9452922408
 20
169.6885723806
 30
0.0
 10
516.1106713222
 20
169.5663665357
 30
0.0
 10
516.2790572742
 20
169.341830781
 30
0.0
 10
516.398268276
 20
169.0019178949
 30
0.0
 10
516.4228409041
 20
168.7505313412
 30
0.0
 10
516.4228409041
 20
168.6190445527
 30
0.0
  0
SPLINE
  5
39A
100
AcDbEntity
  8
0
100
AcDbSpline
 62
3
  6
CONTINUOUS
 70
0
 71
3
 72
16
 73
12
 74
0
 42
0.0000001
 43
0.0000001
 44
0.0000000001
 40
0.0
 40
0.0
 40
0.0
 40
0.0
 40
0.0477549163
 40
0.0964697174
 40
0.1996203393
 40
0.3141163955
 40
0.4406069146
 40
0.5768844606
 40
0.7188917813
 40
0.8616333812
 40
1.0
 40
1.0
 40
1.0
 40
1.0
 10
514.7736851308
 20
166.7181910952
 30
0.0
 10
514.8166476211
 20
166.7034970432
 30
0.0
 10
514.9065637408
 20
166.6822130661
 30
0.0
 10
515.0971625762
 20
166.6740607495
 30
0.0
 10
515.3486484077
 20
166.733330476
 30
0.0
 10
515.6345230593
 20
166.899716689
 30
0.0
 10
515.8961691351
 20
167.1491050722
 30
0.0
 10
516.1186457397
 20
167.4658032417
 30
0.0
 10
516.2889372715
 20
167.8302652058
 30
0.0
 10
516.3965997005
 20
168.2197386261
 30
0.0
 10
516.4228409041
 20
168.4874842089
 30
0.0
 10
516.4228409041
 20
168.6190445527
 30
0.0
  0
SPLINE
  5
39B
100
AcDbEntity
  8
0
100
AcDbSpline
 62
3
  6
CONTINUOUS
 70
0
 71
3
 72
12
 73
8
 74
0
 42
0.0000001
 43
0.0000001
 44
0.0000000001
 40
0.0
 40
0.0
 40
0.0
 40
0.0
 40
0.1069639207
 40
0.2163824584
 40
0.4496572304
 40
0.7107910964
 40
1.0
 40
1.0
 40
1.0
 40
1.0
 10
520.3347383771
 20
171.2938012507
 30
0.0
 10
520.3807518974
 20
171.278063684
 30
0.0
 10
520.4707756404
 20
171.2363788615
 30
0.0
 10
520.6361547218
 20
171.1141730166
 30
0.0
 10
520.8045406738
 20
170.889637262
 30
0.0
 10
520.9237516756
 20
170.5497243759
 30
0.0
 10
520.9483243037
 20
170.2983378221
 30
0.0
 10
520.9483243037
 20
170.1668510336
 30
0.0
  0
SPLINE
  5
39C
100
AcDbEntity
  8
0
100
AcDbSpline
 62
3
  6
CONTINUOUS
 70
0
 71
3
 72
16
 73
12
 74
0
 42
0.0000001
 43
0.0000001
 44
0.0000000001
 40
0.0
 40
0.0
 40
0.0
 40
0.0
 40
0.0477549163
 40
0.0964697174
 40
0.1996203393
 40
0.3141163955
 40
0.4406069146
 40
0.5768844606
 40
0.7188917813
 40
0.8616333812
 40
1.0
 40
1.0
 40
1.0
 40
1.0
 10
519.2991685304
 20
168.2659975761
 30
0.0
 10
519.3421310207
 20
168.2513035242
 30
0.0
 10
519.4320471404
 20
168.230019547
 30
0.0
 10
519.6226459758
 20
168.2218672305
 30
0.0
 10
519.8741318073
 20
168.281136957
 30
0.0
 10
520.1600064589
 20
168.4475231699
 30
0.0
 10
520.4216525347
 20
168.6969115532
 30
0.0
 10
520.6441291393
 20
169.0136097227
 30
0.0
 10
520.814420671
 20
169.3780716868
 30
0.0
 10
520.9220831
 20
169.7675451071
 30
0.0
 10
520.9483243037
 20
170.0352906899
 30
0.0
 10
520.9483243037
 20
170.1668510336
 30
0.0
  0
SPLINE
  5
39D
100
AcDbEntity
  8
0
100
AcDbSpline
 62
3
  6
CONTINUOUS
 70
0
 71
3
 72
12
 73
8
 74
0
 42
0.0000001
 43
0.0000001
 44
0.0000000001
 40
0.0
 40
0.0
 40
0.0
 40
0.0
 40
0.1069639207
 40
0.2163824584
 40
0.4496572304
 40
0.7107910964
 40
1.0
 40
1.0
 40
1.0
 40
1.0
 10
524.8602217767
 20
172.8416077316
 30
0.0
 10
524.9062352969
 20
172.8258701649
 30
0.0
 10
524.99625904
 20
172.7841853424
 30
0.0
 10
525.1616381214
 20
172.6619794976
 30
0.0
 10
525.3300240734
 20
172.4374437429
 30
0.0
 10
525.4492350752
 20
172.0975308568
 30
0.0
 10
525.4738077033
 20
171.8461443031
 30
0.0
 10
525.4738077033
 20
171.7146575146
 30
0.0
  0
SPLINE
  5
39E
100
AcDbEntity
  8
0
100
AcDbSpline
 62
3
  6
CONTINUOUS
 70
0
 71
3
 72
16
 73
12
 74
0
 42
0.0000001
 43
0.0000001
 44
0.0000000001
 40
0.0
 40
0.0
 40
0.0
 40
0.0
 40
0.0477549163
 40
0.0964697174
 40
0.1996203393
 40
0.3141163955
 40
0.4406069146
 40
0.5768844606
 40
0.7188917813
 40
0.8616333812
 40
1.0
 40
1.0
 40
1.0
 40
1.0
 10
523.82465193
 20
169.8138040571
 30
0.0
 10
523.8676144203
 20
169.7991100051
 30
0.0
 10
523.95753054
 20
169.777826028
 30
0.0
 10
524.1481293754
 20
169.7696737114
 30
0.0
 10
524.3996152069
 20
169.8289434379
 30
0.0
 10
524.6854898584
 20
169.9953296509
 30
0.0
 10
524.9471359343
 20
170.2447180341
 30
0.0
 10
525.1696125389
 20
170.5614162036
 30
0.0
 10
525.3399040706
 20
170.9258781677
 30
0.0
 10
525.4475664996
 20
171.315351588
 30
0.0
 10
525.4738077033
 20
171.5830971708
 30
0.0
 10
525.4738077033
 20
171.7146575146
 30
0.0
  0
SPLINE
  5
39F
100
AcDbEntity
  8
0
100
AcDbSpline
 62
3
  6
CONTINUOUS
 70
0
 71
3
 72
12
 73
8
 74
0
 42
0.0000001
 43
0.0000001
 44
0.0000000001
 40
0.0
 40
0.0
 40
0.0
 40
0.0
 40
0.1069639151
 40
0.2163824447
 40
0.4496572046
 40
0.7107910934
 40
1.0
 40
1.0
 40
1.0
 40
1.0
 10
529.3857051479
 20
174.3894141295
 30
0.0
 10
529.431718721
 20
174.3736767275
 30
0.0
 10
529.5217423722
 20
174.3319916669
 30
0.0
 10
529.6871215211
 20
174.2097860098
 30
0.0
 10
529.8555075112
 20
173.9852502279
 30
0.0
 10
529.9747185002
 20
173.64533735
 30
0.0
 10
529.9992911029
 20
173.3939507833
 30
0.0
 10
529.9992911029
 20
173.2624639955
 30
0.0
  0
SPLINE
  5
3A0
100
AcDbEntity
  8
0
100
AcDbSpline
 62
3
  6
CONTINUOUS
 70
0
 71
3
 72
16
 73
12
 74
0
 42
0.0000001
 43
0.0000001
 44
0.0000000001
 40
0.0
 40
0.0
 40
0.0
 40
0.0
 40
0.0477549124
 40
0.0964697135
 40
0.1996203552
 40
0.3141163854
 40
0.4406069263
 40
0.5768844583
 40
0.7188917837
 40
0.8616333864
 40
1.0
 40
1.0
 40
1.0
 40
1.0
 10
528.350135358
 20
171.3616106211
 30
0.0
 10
528.3930978972
 20
171.3469167231
 30
0.0
 10
528.4830138912
 20
171.3256323632
 30
0.0
 10
528.6736128114
 20
171.3174800755
 30
0.0
 10
528.925098499
 20
171.3767501414
 30
0.0
 10
529.2109734007
 20
171.5431359419
 30
0.0
 10
529.4726191971
 20
171.7925246393
 30
0.0
 10
529.6950960438
 20
172.1092226196
 30
0.0
 10
529.8653874059
 20
172.4736846815
 30
0.0
 10
529.9730499331
 20
172.8631580645
 30
0.0
 10
529.9992911029
 20
173.1309036562
 30
0.0
 10
529.9992911029
 20
173.2624639955
 30
0.0
  0
SPLINE
  5
3A1
100
AcDbEntity
  8
0
100
AcDbSpline
 62
3
  6
CONTINUOUS
 70
0
 71
3
 72
9
 73
5
 74
0
 42
0.0000001
 43
0.0000001
 44
0.0000000001
 40
0.0
 40
0.0
 40
0.0
 40
0.0
 40
0.5510615764
 40
1.0
 40
1.0
 40
1.0
 40
1.0
 10
528.7676166396
 20
172.2785667194
 30
0.0
 10
528.7726048326
 20
172.2847603536
 30
0.0
 10
528.7838213785
 20
172.2945824559
 30
0.0
 10
528.7995934441
 20
172.2970090131
 30
0.0
 10
528.8057229842
 20
172.2949105909
 30
0.0
  0
SPLINE
  5
3A2
100
AcDbEntity
  8
0
100
AcDbSpline
 62
3
  6
CONTINUOUS
 70
0
 71
3
 72
11
 73
7
 74
0
 42
0.0000001
 43
0.0000001
 44
0.0000000001
 40
0.0
 40
0.0
 40
0.0
 40
0.0
 40
0.1959575641
 40
0.4597789441
 40
0.7482743971
 40
1.0
 40
1.0
 40
1.0
 40
1.0
 10
529.4076166396
 20
172.4443025692
 30
0.0
 10
529.4045198202
 20
172.4481015045
 30
0.0
 10
529.4017090593
 20
172.4601395921
 30
0.0
 10
529.4046770071
 20
172.47873318
 30
0.0
 10
529.4129246854
 20
172.4973116517
 30
0.0
 10
529.4219236476
 20
172.5079189146
 30
0.0
 10
529.4270959994
 20
172.5115088553
 30
0.0
  0
SPLINE
  5
3A3
100
AcDbEntity
  8
0
100
AcDbSpline
 62
3
  6
CONTINUOUS
 70
0
 71
3
 72
9
 73
5
 74
0
 42
0.0000001
 43
0.0000001
 44
0.0000000001
 40
0.0
 40
0.0
 40
0.0
 40
0.0
 40
0.2953922991
 40
1.0
 40
1.0
 40
1.0
 40
1.0
 10
529.4270959994
 20
172.5115088553
 30
0.0
 10
529.4283735567
 20
172.5123955612
 30
0.0
 10
529.4328322807
 20
172.5150995671
 30
0.0
 10
529.4386857759
 20
172.5162040146
 30
0.0
 10
529.4421976285
 20
172.5150094075
 30
0.0
  0
SPLINE
  5
3A4
100
AcDbEntity
  8
0
100
AcDbSpline
 62
3
  6
CONTINUOUS
 70
0
 71
3
 72
9
 73
5
 74
0
 42
0.0000001
 43
0.0000001
 44
0.0000000001
 40
0.0
 40
0.0
 40
0.0
 40
0.0
 40
0.2368765659
 40
1.0
 40
1.0
 40
1.0
 40
1.0
 10
529.5127655583
 20
172.305157799
 30
0.0
 10
529.5049344561
 20
172.3164878185
 30
0.0
 10
529.4713188003
 20
172.3639341248
 30
0.0
 10
529.4356522939
 20
172.4099106254
 30
0.0
 10
529.4076166396
 20
172.4443025692
 30
0.0
  0
SPLINE
  5
3A5
100
AcDbEntity
  8
0
100
AcDbSpline
 62
3
  6
CONTINUOUS
 70
0
 71
3
 72
9
 73
5
 74
0
 42
0.0000001
 43
0.0000001
 44
0.0000000001
 40
0.0
 40
0.0
 40
0.0
 40
0.0
 40
0.5438615832
 40
1.0
 40
1.0
 40
1.0
 40
1.0
 10
528.8986590687
 20
172.2128063621
 30
0.0
 10
528.899970395
 20
172.2231551203
 30
0.0
 10
528.8993818825
 20
172.2431587845
 30
0.0
 10
528.8869155835
 20
172.2599776948
 30
0.0
 10
528.8793929057
 20
172.2644446014
 30
0.0
  0
SPLINE
  5
3A6
100
AcDbEntity
  8
0
100
AcDbSpline
 62
3
  6
CONTINUOUS
 70
0
 71
3
 72
11
 73
7
 74
0
 42
0.0000001
 43
0.0000001
 44
0.0000000001
 40
0.0
 40
0.0
 40
0.0
 40
0.0
 40
0.2850036008
 40
0.5463775309
 40
0.7830396748
 40
1.0
 40
1.0
 40
1.0
 40
1.0
 10
528.7054017826
 20
172.6505570411
 30
0.0
 10
528.7054017826
 20
172.6086444695
 30
0.0
 10
528.7123259058
 20
172.5280266709
 30
0.0
 10
528.7457664757
 20
172.4168277965
 30
0.0
 10
528.8006289716
 20
172.3256266785
 30
0.0
 10
528.8519587659
 20
172.2807347771
 30
0.0
 10
528.8793929057
 20
172.2644446014
 30
0.0
  0
SPLINE
  5
3A7
100
AcDbEntity
  8
0
100
AcDbSpline
 62
3
  6
CONTINUOUS
 70
0
 71
3
 72
10
 73
6
 74
0
 42
0.0000001
 43
0.0000001
 44
0.0000000001
 40
0.0
 40
0.0
 40
0.0
 40
0.0
 40
0.2198634196
 40
0.4780694207
 40
1.0
 40
1.0
 40
1.0
 40
1.0
 10
529.1773230113
 20
172.0702541444
 30
0.0
 10
529.1853226052
 20
172.0732327862
 30
0.0
 10
529.2012311175
 20
172.0836432131
 30
0.0
 10
529.2272112534
 20
172.1126233781
 30
0.0
 10
529.2405592779
 20
172.1413335364
 30
0.0
 10
529.2441000215
 20
172.1612856335
 30
0.0
  0
SPLINE
  5
3A8
100
AcDbEntity
  8
0
100
AcDbSpline
 62
3
  6
CONTINUOUS
 70
0
 71
3
 72
11
 73
7
 74
0
 42
0.0000001
 43
0.0000001
 44
0.0000000001
 40
0.0
 40
0.0
 40
0.0
 40
0.0
 40
0.2895240505
 40
0.5509442135
 40
0.7844738453
 40
1.0
 40
1.0
 40
1.0
 40
1.0
 10
529.4781776901
 20
172.9086368018
 30
0.0
 10
529.4781776901
 20
172.9497262833
 30
0.0
 10
529.4705309715
 20
173.0282755515
 30
0.0
 10
529.4331478561
 20
173.134534182
 30
0.0
 10
529.3717090125
 20
173.2168925235
 30
0.0
 10
529.3153735652
 20
173.2509095158
 30
0.0
 10
529.2864320531
 20
173.2608086424
 30
0.0
  0
SPLINE
  5
3A9
100
AcDbEntity
  8
0
100
AcDbSpline
 62
3
  6
CONTINUOUS
 70
0
 71
3
 72
11
 73
7
 74
0
 42
0.0000001
 43
0.0000001
 44
0.0000000001
 40
0.0
 40
0.0
 40
0.0
 40
0.0
 40
0.286083554
 40
0.5563023592
 40
0.790235795
 40
1.0
 40
1.0
 40
1.0
 40
1.0
 10
529.024481287
 20
173.7047226829
 30
0.0
 10
529.02313958
 20
173.7112390645
 30
0.0
 10
529.0226940804
 20
173.7244641064
 30
0.0
 10
529.0283704019
 20
173.7423419105
 30
0.0
 10
529.0403527171
 20
173.7551657346
 30
0.0
 10
529.0516375806
 20
173.7565139496
 30
0.0
 10
529.056373681
 20
173.7553450481
 30
0.0
  0
SPLINE
  5
3AA
100
AcDbEntity
  8
0
100
AcDbSpline
 62
3
  6
CONTINUOUS
 70
0
 71
3
 72
9
 73
5
 74
0
 42
0.0000001
 43
0.0000001
 44
0.0000000001
 40
0.0
 40
0.0
 40
0.0
 40
0.0
 40
0.5080296379
 40
1.0
 40
1.0
 40
1.0
 40
1.0
 10
528.3373181868
 20
172.5732994447
 30
0.0
 10
528.3373181868
 20
172.5836082097
 30
0.0
 10
528.3454864371
 20
172.6041441117
 30
0.0
 10
528.3641292961
 20
172.6158784073
 30
0.0
 10
528.3739430483
 20
172.6177082902
 30
0.0
  0
SPLINE
  5
3AB
100
AcDbEntity
  8
0
100
AcDbSpline
 62
3
  6
CONTINUOUS
 70
0
 71
3
 72
9
 73
5
 74
0
 42
0.0000001
 43
0.0000001
 44
0.0000000001
 40
0.0
 40
0.0
 40
0.0
 40
0.0
 40
0.2776980789
 40
1.0
 40
1.0
 40
1.0
 40
1.0
 10
529.7315880682
 20
173.0820502345
 30
0.0
 10
529.7322083958
 20
173.0824394017
 30
0.0
 10
529.7345139823
 20
173.083704322
 30
0.0
 10
529.7372823231
 20
173.0842650005
 30
0.0
 10
529.7391670838
 20
173.0839899377
 30
0.0
  0
SPLINE
  5
3AC
100
AcDbEntity
  8
0
100
AcDbSpline
 62
3
  6
CONTINUOUS
 70
0
 71
3
 72
9
 73
5
 74
0
 42
0.0000001
 43
0.0000001
 44
0.0000000001
 40
0.0
 40
0.0
 40
0.0
 40
0.0
 40
0.2600271454
 40
1.0
 40
1.0
 40
1.0
 40
1.0
 10
529.5601649795
 20
172.9858997357
 30
0.0
 10
529.575379539
 20
172.9935712846
 30
0.0
 10
529.633581552
 20
173.0236788314
 30
0.0
 10
529.6905126886
 20
173.0562812831
 30
0.0
 10
529.7315880682
 20
173.0820502345
 30
0.0
  0
SPLINE
  5
3AD
100
AcDbEntity
  8
0
100
AcDbSpline
 62
3
  6
CONTINUOUS
 70
0
 71
3
 72
9
 73
5
 74
0
 42
0.0000001
 43
0.0000001
 44
0.0000000001
 40
0.0
 40
0.0
 40
0.0
 40
0.0
 40
0.5534220999
 40
1.0
 40
1.0
 40
1.0
 40
1.0
 10
529.5372958914
 20
172.9367861387
 30
0.0
 10
529.5372958914
 20
172.9470736744
 30
0.0
 10
529.5414201311
 20
172.9654353489
 30
0.0
 10
529.5527525358
 20
172.9821622023
 30
0.0
 10
529.5601649795
 20
172.9858997357
 30
0.0
  0
SPLINE
  5
3AE
100
AcDbEntity
  8
0
100
AcDbSpline
 62
3
  6
CONTINUOUS
 70
0
 71
3
 72
8
 73
4
 74
0
 42
0.0000001
 43
0.0000001
 44
0.0000000001
 40
0.0
 40
0.0
 40
0.0
 40
0.0
 40
1.0
 40
1.0
 40
1.0
 40
1.0
 10
528.6550682996
 20
172.6763384395
 30
0.0
 10
528.660078489
 20
172.6775007813
 30
0.0
 10
528.6656200834
 20
172.6774153675
 30
0.0
 10
528.6704869021
 20
172.6757519037
 30
0.0
  0
SPLINE
  5
3AF
100
AcDbEntity
  8
0
100
AcDbSpline
 62
3
  6
CONTINUOUS
 70
0
 71
3
 72
12
 73
8
 74
0
 42
0.0000001
 43
0.0000001
 44
0.0000000001
 40
0.0
 40
0.0
 40
0.0
 40
0.0
 40
0.2459594044
 40
0.5124388764
 40
0.6452231077
 40
0.771309211
 40
1.0
 40
1.0
 40
1.0
 40
1.0
 10
528.5527655583
 20
173.2525874683
 30
0.0
 10
528.5462484491
 20
173.2577839464
 30
0.0
 10
528.5366892364
 20
173.2739199092
 30
0.0
 10
528.5379589215
 20
173.2970503979
 30
0.0
 10
528.5465380744
 20
173.3129516544
 30
0.0
 10
528.5586848625
 20
173.3245040797
 30
0.0
 10
528.5719353707
 20
173.3272946128
 30
0.0
 10
528.5795239663
 20
173.3257210629
 30
0.0
  0
SPLINE
  5
3B0
100
AcDbEntity
  8
0
100
AcDbSpline
 62
3
  6
CONTINUOUS
 70
0
 71
3
 72
9
 73
5
 74
0
 42
0.0000001
 43
0.0000001
 44
0.0000000001
 40
0.0
 40
0.0
 40
0.0
 40
0.0
 40
0.5764804819
 40
1.0
 40
1.0
 40
1.0
 40
1.0
 10
529.5127655583
 20
173.6340838478
 30
0.0
 10
529.5147147743
 20
173.6401390214
 30
0.0
 10
529.5192871099
 20
173.6506557741
 30
0.0
 10
529.5308324335
 20
173.6562023415
 30
0.0
 10
529.5354502528
 20
173.6554841896
 30
0.0
  0
LINE
  5
3B1
100
AcDbEntity
  8
0
100
AcDbLine
 62
3
  6
CONTINUOUS
 10
524.5837341149
 20
171.1632485355
 11
524.5842509374
 21
171.2170541074
  0
SPLINE
  5
3B2
100
AcDbEntity
  8
0
100
AcDbSpline
 62
3
  6
CONTINUOUS
 70
0
 71
3
 72
8
 73
4
 74
0
 42
0.0000001
 43
0.0000001
 44
0.0000000001
 40
0.0
 40
0.0
 40
0.0
 40
0.0
 40
1.0
 40
1.0
 40
1.0
 40
1.0
 10
524.5842509374
 20
171.2170541074
 30
0.0
 10
524.5842509374
 20
171.2471751403
 30
0.0
 10
524.5837576623
 20
171.2772958135
 30
0.0
 10
524.5831237843
 20
171.3074101759
 30
0.0
  0
SPLINE
  5
3B3
100
AcDbEntity
  8
0
100
AcDbSpline
 62
3
  6
CONTINUOUS
 70
0
 71
3
 72
9
 73
5
 74
0
 42
0.0000001
 43
0.0000001
 44
0.0000000001
 40
0.0
 40
0.0
 40
0.0
 40
0.0
 40
0.5270142063
 40
1.0
 40
1.0
 40
1.0
 40
1.0
 10
519.8210090734
 20
168.9649360769
 30
0.0
 10
519.9260034143
 20
168.9947787861
 30
0.0
 10
520.1234689239
 20
169.057905339
 30
0.0
 10
520.3152199042
 20
169.1371407017
 30
0.0
 10
520.4035408352
 20
169.1795217372
 30
0.0
  0
SPLINE
  5
3B4
100
AcDbEntity
  8
0
100
AcDbSpline
 62
3
  6
CONTINUOUS
 70
0
 71
3
 72
9
 73
5
 74
0
 42
0.0000001
 43
0.0000001
 44
0.0000000001
 40
0.0
 40
0.0
 40
0.0
 40
0.0
 40
0.2517659343
 40
1.0
 40
1.0
 40
1.0
 40
1.0
 10
519.6257233759
 20
168.9134924983
 30
0.0
 10
519.6769880681
 20
168.9749300363
 30
0.0
 10
519.8743436445
 20
169.2241033609
 30
0.0
 10
520.0463381787
 20
169.4934668842
 30
0.0
 10
520.1578462064
 20
169.7035071978
 30
0.0
  0
SPLINE
  5
3B5
100
AcDbEntity
  8
0
100
AcDbSpline
 62
3
  6
CONTINUOUS
 70
0
 71
3
 72
9
 73
5
 74
0
 42
0.0000001
 43
0.0000001
 44
0.0000000001
 40
0.0
 40
0.0
 40
0.0
 40
0.0
 40
0.2419620983
 40
1.0
 40
1.0
 40
1.0
 40
1.0
 10
515.4885543345
 20
167.3189627799
 30
0.0
 10
515.502935332
 20
167.3836669992
 30
0.0
 10
515.5542750817
 20
167.6528548709
 30
0.0
 10
515.5743127667
 20
167.9276981222
 30
0.0
 10
515.5743127667
 20
168.1353550274
 30
0.0
  0
SPLINE
  5
3B6
100
AcDbEntity
  8
0
100
AcDbSpline
 62
3
  6
CONTINUOUS
 70
0
 71
3
 72
9
 73
5
 74
0
 42
0.0000001
 43
0.0000001
 44
0.0000000001
 40
0.0
 40
0.0
 40
0.0
 40
0.0
 40
0.2534355982
 40
1.0
 40
1.0
 40
1.0
 40
1.0
 10
515.5373863685
 20
168.7058021682
 30
0.0
 10
515.5435013224
 20
168.657881317
 30
0.0
 10
515.5647418146
 20
168.4684432927
 30
0.0
 10
515.5743127667
 20
168.2776637557
 30
0.0
 10
515.5743127667
 20
168.1353550274
 30
0.0
  0
SPLINE
  5
3B7
100
AcDbEntity
  8
0
100
AcDbSpline
 62
3
  6
CONTINUOUS
 70
0
 71
3
 72
8
 73
4
 74
0
 42
0.0000001
 43
0.0000001
 44
0.0000000001
 40
0.0
 40
0.0
 40
0.0
 40
0.0
 40
1.0
 40
1.0
 40
1.0
 40
1.0
 10
528.5831623492
 20
173.3247254244
 30
0.0
 10
528.5866221166
 20
173.3235430133
 30
0.0
 10
528.5899068364
 20
173.3217047446
 30
0.0
 10
528.5927655583
 20
173.3194253159
 30
0.0
  0
SPLINE
  5
3B8
100
AcDbEntity
  8
0
100
AcDbSpline
 62
3
  6
CONTINUOUS
 70
0
 71
3
 72
11
 73
7
 74
0
 42
0.0000001
 43
0.0000001
 44
0.0000000001
 40
0.0
 40
0.0
 40
0.0
 40
0.0
 40
0.2895240505
 40
0.5509442135
 40
0.7844738453
 40
1.0
 40
1.0
 40
1.0
 40
1.0
 10
528.7710709089
 20
172.6667920392
 30
0.0
 10
528.7710709089
 20
172.6257025577
 30
0.0
 10
528.7787176276
 20
172.5471532895
 30
0.0
 10
528.8161007429
 20
172.440894659
 30
0.0
 10
528.8775395865
 20
172.3585363175
 30
0.0
 10
528.9338750339
 20
172.3245193252
 30
0.0
 10
528.962816546
 20
172.3146201986
 30
0.0
  0
SPLINE
  5
3B9
100
AcDbEntity
  8
0
100
AcDbSpline
 62
3
  6
CONTINUOUS
 70
0
 71
3
 72
9
 73
5
 74
0
 42
0.0000001
 43
0.0000001
 44
0.0000000001
 40
0.0
 40
0.0
 40
0.0
 40
0.0
 40
0.2849715357
 40
1.0
 40
1.0
 40
1.0
 40
1.0
 10
528.5927655583
 20
171.9904992672
 30
0.0
 10
528.5898725544
 20
171.9873768775
 30
0.0
 10
528.5789281179
 20
171.9775597018
 30
0.0
 10
528.5619845697
 20
171.9716498187
 30
0.0
 10
528.551878926
 20
171.9751061655
 30
0.0
  0
SPLINE
  5
3BA
100
AcDbEntity
  8
0
100
AcDbSpline
 62
3
  6
CONTINUOUS
 70
0
 71
3
 72
12
 73
8
 74
0
 42
0.0000001
 43
0.0000001
 44
0.0000000001
 40
0.0
 40
0.0
 40
0.0
 40
0.0
 40
0.2145343996
 40
0.5262333447
 40
0.684799541
 40
0.8220633508
 40
1.0
 40
1.0
 40
1.0
 40
1.0
 10
529.5527655583
 20
172.3719956467
 30
0.0
 10
529.5563317659
 20
172.3668360662
 30
0.0
 10
529.556418633
 20
172.3498130564
 30
0.0
 10
529.5501881238
 20
172.331080058
 30
0.0
 10
529.5408195831
 20
172.3156142889
 30
0.0
 10
529.5321086996
 20
172.3054649301
 30
0.0
 10
529.5222057382
 20
172.2999159087
 30
0.0
 10
529.5172827949
 20
172.3015971956
 30
0.0
  0
SPLINE
  5
3BB
100
AcDbEntity
  8
0
100
AcDbSpline
 62
3
  6
CONTINUOUS
 70
0
 71
3
 72
9
 73
5
 74
0
 42
0.0000001
 43
0.0000001
 44
0.0000000001
 40
0.0
 40
0.0
 40
0.0
 40
0.0
 40
0.2631229537
 40
1.0
 40
1.0
 40
1.0
 40
1.0
 10
529.4476166396
 20
172.5111404169
 30
0.0
 10
529.4572831608
 20
172.4992822861
 30
0.0
 10
529.4936359347
 20
172.453905538
 30
0.0
 10
529.5284047671
 20
172.4072407797
 30
0.0
 10
529.5527655583
 20
172.3719956467
 30
0.0
  0
SPLINE
  5
3BC
100
AcDbEntity
  8
0
100
AcDbSpline
 62
3
  6
CONTINUOUS
 70
0
 71
3
 72
9
 73
5
 74
0
 42
0.0000001
 43
0.0000001
 44
0.0000000001
 40
0.0
 40
0.0
 40
0.0
 40
0.0
 40
0.2753863871
 40
1.0
 40
1.0
 40
1.0
 40
1.0
 10
528.9049174045
 20
171.9141187103
 30
0.0
 10
528.9026056912
 20
171.9134276726
 30
0.0
 10
528.8941048136
 20
171.9113920717
 30
0.0
 10
528.8848658944
 20
171.9116045854
 30
0.0
 10
528.8788582391
 20
171.9136573415
 30
0.0
  0
SPLINE
  5
3BD
100
AcDbEntity
  8
0
100
AcDbSpline
 62
3
  6
CONTINUOUS
 70
0
 71
3
 72
9
 73
5
 74
0
 42
0.0000001
 43
0.0000001
 44
0.0000000001
 40
0.0
 40
0.0
 40
0.0
 40
0.0
 40
0.2399907573
 40
1.0
 40
1.0
 40
1.0
 40
1.0
 10
529.2160443882
 20
172.0205304059
 30
0.0
 10
529.1915444992
 20
172.0109430304
 30
0.0
 10
529.0889923775
 20
171.9721864298
 30
0.0
 10
528.9847431421
 20
171.9379809217
 30
0.0
 10
528.9049174045
 20
171.9141187103
 30
0.0
  0
SPLINE
  5
3BE
100
AcDbEntity
  8
0
100
AcDbSpline
 62
3
  6
CONTINUOUS
 70
0
 71
3
 72
10
 73
6
 74
0
 42
0.0000001
 43
0.0000001
 44
0.0000000001
 40
0.0
 40
0.0
 40
0.0
 40
0.0
 40
0.5229217002
 40
0.781791463
 40
1.0
 40
1.0
 40
1.0
 40
1.0
 10
529.28289979
 20
172.1115350834
 30
0.0
 10
529.2789341402
 20
172.0916735544
 30
0.0
 10
529.2653435001
 20
172.0632215325
 30
0.0
 10
529.2395776944
 20
172.0342028731
 30
0.0
 10
529.2239147843
 20
172.0236102746
 30
0.0
 10
529.2160443882
 20
172.0205304059
 30
0.0
  0
SPLINE
  5
3BF
100
AcDbEntity
  8
0
100
AcDbSpline
 62
3
  6
CONTINUOUS
 70
0
 71
3
 72
9
 73
5
 74
0
 42
0.0000001
 43
0.0000001
 44
0.0000000001
 40
0.0
 40
0.0
 40
0.0
 40
0.0
 40
0.7585457484
 40
1.0
 40
1.0
 40
1.0
 40
1.0
 10
529.3516545257
 20
172.4259675884
 30
0.0
 10
529.3400703153
 20
172.4111649091
 30
0.0
 10
529.3287429671
 20
172.3881396291
 30
0.0
 10
529.3236752739
 20
172.3638489499
 30
0.0
 10
529.3229231374
 20
172.3579132197
 30
0.0
  0
SPLINE
  5
3C0
100
AcDbEntity
  8
0
100
AcDbSpline
 62
3
  6
CONTINUOUS
 70
0
 71
3
 72
9
 73
5
 74
0
 42
0.0000001
 43
0.0000001
 44
0.0000000001
 40
0.0
 40
0.0
 40
0.0
 40
0.0
 40
0.2456960155
 40
1.0
 40
1.0
 40
1.0
 40
1.0
 10
529.3516545257
 20
172.4259675884
 30
0.0
 10
529.3578255712
 20
172.4338531503
 30
0.0
 10
529.3822711585
 20
172.4664693327
 30
0.0
 10
529.4040562524
 20
172.5010642103
 30
0.0
 10
529.4189628302
 20
172.5279494146
 30
0.0
  0
SPLINE
  5
3C1
100
AcDbEntity
  8
0
100
AcDbSpline
 62
3
  6
CONTINUOUS
 70
0
 71
3
 72
9
 73
5
 74
0
 42
0.0000001
 43
0.0000001
 44
0.0000000001
 40
0.0
 40
0.0
 40
0.0
 40
0.0
 40
0.252688294
 40
1.0
 40
1.0
 40
1.0
 40
1.0
 10
529.4189628302
 20
172.5279494146
 30
0.0
 10
529.4360937519
 20
172.5588464009
 30
0.0
 10
529.4959680389
 20
172.685265206
 30
0.0
 10
529.5256456488
 20
172.8266153205
 30
0.0
 10
529.5256456488
 20
172.9310969658
 30
0.0
  0
SPLINE
  5
3C2
100
AcDbEntity
  8
0
100
AcDbSpline
 62
3
  6
CONTINUOUS
 70
0
 71
3
 72
9
 73
5
 74
0
 42
0.0000001
 43
0.0000001
 44
0.0000000001
 40
0.0
 40
0.0
 40
0.0
 40
0.0
 40
0.2735584203
 40
1.0
 40
1.0
 40
1.0
 40
1.0
 10
529.5601649795
 20
172.9107243261
 30
0.0
 10
529.5592957483
 20
172.9102860387
 30
0.0
 10
529.5560209936
 20
172.908905689
 30
0.0
 10
529.5521504424
 20
172.908779327
 30
0.0
 10
529.5497042081
 20
172.9096151839
 30
0.0
  0
SPLINE
  5
3C3
100
AcDbEntity
  8
0
100
AcDbSpline
 62
3
  6
CONTINUOUS
 70
0
 71
3
 72
9
 73
5
 74
0
 42
0.0000001
 43
0.0000001
 44
0.0000000001
 40
0.0
 40
0.0
 40
0.0
 40
0.0
 40
0.240029193
 40
1.0
 40
1.0
 40
1.0
 40
1.0
 10
529.7315880682
 20
173.0068748248
 30
0.0
 10
529.7182640699
 20
172.9985159133
 30
0.0
 10
529.6622962815
 20
172.9644228193
 30
0.0
 10
529.6046324381
 20
172.9331458944
 30
0.0
 10
529.5601649795
 20
172.9107243261
 30
0.0
  0
SPLINE
  5
3C4
100
AcDbEntity
  8
0
100
AcDbSpline
 62
3
  6
CONTINUOUS
 70
0
 71
3
 72
9
 73
5
 74
0
 42
0.0000001
 43
0.0000001
 44
0.0000000001
 40
0.0
 40
0.0
 40
0.0
 40
0.0
 40
0.5654424456
 40
1.0
 40
1.0
 40
1.0
 40
1.0
 10
529.7515317492
 20
173.05698897
 30
0.0
 10
529.7515317492
 20
173.0465895537
 30
0.0
 10
529.7479204957
 20
173.0285215287
 30
0.0
 10
529.7383582806
 20
173.0111221689
 30
0.0
 10
529.7315880682
 20
173.0068748248
 30
0.0
  0
SPLINE
  5
3C5
100
AcDbEntity
  8
0
100
AcDbSpline
 62
3
  6
CONTINUOUS
 70
0
 71
3
 72
12
 73
8
 74
0
 42
0.0000001
 43
0.0000001
 44
0.0000000001
 40
0.0
 40
0.0
 40
0.0
 40
0.0
 40
0.2892089066
 40
0.5503427954
 40
0.7836175553
 40
0.8930360849
 40
1.0
 40
1.0
 40
1.0
 40
1.0
 10
527.7365494031
 20
172.4885607551
 30
0.0
 10
527.7365494031
 20
172.3570739673
 30
0.0
 10
527.7611220058
 20
172.1056874005
 30
0.0
 10
527.8803329947
 20
171.7657745227
 30
0.0
 10
528.0487189848
 20
171.5412387408
 30
0.0
 10
528.2140981338
 20
171.4190330837
 30
0.0
 10
528.304121785
 20
171.3773480231
 30
0.0
 10
528.350135358
 20
171.3616106211
 30
0.0
  0
SPLINE
  5
3C6
100
AcDbEntity
  8
0
100
AcDbSpline
 62
3
  6
CONTINUOUS
 70
0
 71
3
 72
8
 73
4
 74
0
 42
0.0000001
 43
0.0000001
 44
0.0000000001
 40
0.0
 40
0.0
 40
0.0
 40
0.0
 40
1.0
 40
1.0
 40
1.0
 40
1.0
 10
528.3739430483
 20
172.5425328805
 30
0.0
 10
528.3684453293
 20
172.5415077698
 30
0.0
 10
528.3624902473
 20
172.5417656424
 30
0.0
 10
528.357197904
 20
172.5435730907
 30
0.0
  0
SPLINE
  5
3C7
100
AcDbEntity
  8
0
100
AcDbSpline
 62
3
  6
CONTINUOUS
 70
0
 71
3
 72
9
 73
5
 74
0
 42
0.0000001
 43
0.0000001
 44
0.0000000001
 40
0.0
 40
0.0
 40
0.0
 40
0.0
 40
0.5154995109
 40
1.0
 40
1.0
 40
1.0
 40
1.0
 10
528.6887677539
 20
172.6465724235
 30
0.0
 10
528.6887677539
 20
172.6363451511
 30
0.0
 10
528.6817415228
 20
172.6162955631
 30
0.0
 10
528.6644318848
 20
172.6033353402
 30
0.0
 10
528.6550682996
 20
172.6011630299
 30
0.0
  0
SPLINE
  5
3C8
100
AcDbEntity
  8
0
100
AcDbSpline
 62
3
  6
CONTINUOUS
 70
0
 71
3
 72
10
 73
6
 74
0
 42
0.0000001
 43
0.0000001
 44
0.0000000001
 40
0.0
 40
0.0
 40
0.0
 40
0.0
 40
0.2252826738
 40
0.4642241165
 40
1.0
 40
1.0
 40
1.0
 40
1.0
 10
528.9599602238
 20
172.233329177
 30
0.0
 10
528.9849227229
 20
172.2282675933
 30
0.0
 10
529.0381854482
 20
172.2255433954
 30
0.0
 10
529.1495266086
 20
172.2502879837
 30
0.0
 10
529.2257661592
 20
172.2995498138
 30
0.0
 10
529.2710872076
 20
172.3397408725
 30
0.0
  0
SPLINE
  5
3C9
100
AcDbEntity
  8
0
100
AcDbSpline
 62
3
  6
CONTINUOUS
 70
0
 71
3
 72
11
 73
7
 74
0
 42
0.0000001
 43
0.0000001
 44
0.0000000001
 40
0.0
 40
0.0
 40
0.0
 40
0.0
 40
0.2974873345
 40
0.557002012
 40
0.7843709976
 40
1.0
 40
1.0
 40
1.0
 40
1.0
 10
528.9329730377
 20
172.0548739379
 30
0.0
 10
528.9319032474
 20
172.0488456669
 30
0.0
 10
528.9309659693
 20
172.0373084023
 30
0.0
 10
528.9338689909
 20
172.0211848314
 30
0.0
 10
528.9414775356
 20
172.0084001501
 30
0.0
 10
528.9495516078
 20
172.0033480205
 30
0.0
 10
528.9537509862
 20
172.0019130979
 30
0.0
  0
SPLINE
  5
3CA
100
AcDbEntity
  8
0
100
AcDbSpline
 62
3
  6
CONTINUOUS
 70
0
 71
3
 72
11
 73
7
 74
0
 42
0.0000001
 43
0.0000001
 44
0.0000000001
 40
0.0
 40
0.0
 40
0.0
 40
0.0
 40
0.2862293255
 40
0.559354975
 40
0.7941464585
 40
1.0
 40
1.0
 40
1.0
 40
1.0
 10
529.1359009108
 20
173.4046084506
 30
0.0
 10
529.1368257673
 20
173.3978798983
 30
0.0
 10
529.1361891361
 20
173.3842850686
 30
0.0
 10
529.1287922302
 20
173.3665419396
 30
0.0
 10
529.1156527069
 20
173.3544487698
 30
0.0
 10
529.1041280309
 20
173.3538576565
 30
0.0
 10
529.0995048873
 20
173.3554343585
 30
0.0
  0
SPLINE
  5
3CB
100
AcDbEntity
  8
0
100
AcDbSpline
 62
3
  6
CONTINUOUS
 70
0
 71
3
 72
16
 73
12
 74
0
 42
0.0000001
 43
0.0000001
 44
0.0000000001
 40
0.0
 40
0.0
 40
0.0
 40
0.0
 40
0.1383666136
 40
0.2811082163
 40
0.4231155417
 40
0.5593930737
 40
0.6858836146
 40
0.8003796448
 40
0.9035302865
 40
0.9522450876
 40
1.0
 40
1.0
 40
1.0
 40
1.0
 10
527.7365494031
 20
172.4885607551
 30
0.0
 10
527.7365494031
 20
172.6201210944
 30
0.0
 10
527.7627905729
 20
172.8878666861
 30
0.0
 10
527.8704531
 20
173.2773400691
 30
0.0
 10
528.0407444622
 20
173.641802131
 30
0.0
 10
528.2632213088
 20
173.9585001113
 30
0.0
 10
528.5248671052
 20
174.2078888086
 30
0.0
 10
528.8107420069
 20
174.3742746092
 30
0.0
 10
529.0622276945
 20
174.4335446751
 30
0.0
 10
529.2528266147
 20
174.4253923874
 30
0.0
 10
529.3427426088
 20
174.4041080274
 30
0.0
 10
529.3857051479
 20
174.3894141295
 30
0.0
  0
SPLINE
  5
3CC
100
AcDbEntity
  8
0
100
AcDbSpline
 62
3
  6
CONTINUOUS
 70
0
 71
3
 72
9
 73
5
 74
0
 42
0.0000001
 43
0.0000001
 44
0.0000000001
 40
0.0
 40
0.0
 40
0.0
 40
0.0
 40
0.5389719189
 40
1.0
 40
1.0
 40
1.0
 40
1.0
 10
529.5256456488
 20
172.9310969658
 30
0.0
 10
529.5256456488
 20
172.9977156263
 30
0.0
 10
529.5093744828
 20
173.1224269398
 30
0.0
 10
529.4465704114
 20
173.234668789
 30
0.0
 10
529.4061225273
 20
173.2748086421
 30
0.0
  0
SPLINE
  5
3CD
100
AcDbEntity
  8
0
100
AcDbSpline
 62
3
  6
CONTINUOUS
 70
0
 71
3
 72
9
 73
5
 74
0
 42
0.0000001
 43
0.0000001
 44
0.0000000001
 40
0.0
 40
0.0
 40
0.0
 40
0.0
 40
0.2570956098
 40
1.0
 40
1.0
 40
1.0
 40
1.0
 10
529.4061225273
 20
173.2748086421
 30
0.0
 10
529.398689645
 20
173.2821849194
 30
0.0
 10
529.3683462858
 20
173.3093814273
 30
0.0
 10
529.3318517332
 20
173.3298244062
 30
0.0
 10
529.3032207398
 20
173.3396163883
 30
0.0
  0
SPLINE
  5
3CE
100
AcDbEntity
  8
0
100
AcDbSpline
 62
3
  6
CONTINUOUS
 70
0
 71
3
 72
11
 73
7
 74
0
 42
0.0000001
 43
0.0000001
 44
0.0000000001
 40
0.0
 40
0.0
 40
0.0
 40
0.0
 40
0.2445886417
 40
0.5190491696
 40
0.7781954048
 40
1.0
 40
1.0
 40
1.0
 40
1.0
 10
528.8076166396
 20
173.1427601964
 30
0.0
 10
528.8139160614
 20
173.137409613
 30
0.0
 10
528.822188904
 20
173.1200528219
 30
0.0
 10
528.818333354
 20
173.0929559921
 30
0.0
 10
528.801782925
 20
173.0712541612
 30
0.0
 10
528.783445856
 20
173.0685015443
 30
0.0
 10
528.7763513632
 20
173.0709193176
 30
0.0
  0
SPLINE
  5
3CF
100
AcDbEntity
  8
0
100
AcDbSpline
 62
3
  6
CONTINUOUS
 70
0
 71
3
 72
10
 73
6
 74
0
 42
0.0000001
 43
0.0000001
 44
0.0000000001
 40
0.0
 40
0.0
 40
0.0
 40
0.0
 40
0.5646683349
 40
0.7916152219
 40
1.0
 40
1.0
 40
1.0
 40
1.0
 10
529.4476166396
 20
173.3084960462
 30
0.0
 10
529.4449449149
 20
173.3020317699
 30
0.0
 10
529.4393976431
 20
173.2930929669
 30
0.0
 10
529.4279555437
 20
173.2874311929
 30
0.0
 10
529.4222674987
 20
173.2877880471
 30
0.0
 10
529.4198253831
 20
173.2886242067
 30
0.0
  0
LINE
  5
3D0
100
AcDbEntity
  8
0
100
AcDbLine
 62
3
  6
CONTINUOUS
 10
524.8440804997
 20
171.3133327482
 11
524.9117402284
 21
171.2886091311
  0
SPLINE
  5
3D1
100
AcDbEntity
  8
0
100
AcDbSpline
 62
3
  6
CONTINUOUS
 70
0
 71
3
 72
12
 73
8
 74
0
 42
0.0000001
 43
0.0000001
 44
0.0000000001
 40
0.0
 40
0.0
 40
0.0
 40
0.0
 40
0.2892089036
 40
0.5503427696
 40
0.7836175416
 40
0.8930360793
 40
1.0
 40
1.0
 40
1.0
 40
1.0
 10
523.2110660035
 20
170.9407542741
 30
0.0
 10
523.2110660035
 20
170.8092674856
 30
0.0
 10
523.2356386316
 20
170.5578809319
 30
0.0
 10
523.3548496334
 20
170.2179680458
 30
0.0
 10
523.5232355854
 20
169.9934322911
 30
0.0
 10
523.6886146668
 20
169.8712264462
 30
0.0
 10
523.7786384098
 20
169.8295416238
 30
0.0
 10
523.82465193
 20
169.8138040571
 30
0.0
  0
SPLINE
  5
3D2
100
AcDbEntity
  8
0
100
AcDbSpline
 62
3
  6
CONTINUOUS
 70
0
 71
3
 72
9
 73
5
 74
0
 42
0.0000001
 43
0.0000001
 44
0.0000000001
 40
0.0
 40
0.0
 40
0.0
 40
0.0
 40
0.4713297088
 40
1.0
 40
1.0
 40
1.0
 40
1.0
 10
528.6704869021
 20
172.6757519037
 30
0.0
 10
528.6758714931
 20
172.6739114668
 30
0.0
 10
528.6860300698
 20
172.6655011752
 30
0.0
 10
528.6887677539
 20
172.6529551378
 30
0.0
 10
528.6887677539
 20
172.6465724235
 30
0.0
  0
SPLINE
  5
3D3
100
AcDbEntity
  8
0
100
AcDbSpline
 62
3
  6
CONTINUOUS
 70
0
 71
3
 72
16
 73
12
 74
0
 42
0.0000001
 43
0.0000001
 44
0.0000000001
 40
0.0
 40
0.0
 40
0.0
 40
0.0
 40
0.1383666188
 40
0.2811082187
 40
0.4231155394
 40
0.5593930854
 40
0.6858836045
 40
0.8003796607
 40
0.9035302826
 40
0.9522450837
 40
1.0
 40
1.0
 40
1.0
 40
1.0
 10
523.2110660035
 20
170.9407542741
 30
0.0
 10
523.2110660035
 20
171.0723146178
 30
0.0
 10
523.2373072071
 20
171.3400602007
 30
0.0
 10
523.3449696361
 20
171.7295336209
 30
0.0
 10
523.5152611679
 20
172.0939955851
 30
0.0
 10
523.7377377724
 20
172.4106937545
 30
0.0
 10
523.9993838483
 20
172.6600821378
 30
0.0
 10
524.2852584998
 20
172.8264683508
 30
0.0
 10
524.5367443314
 20
172.8857380773
 30
0.0
 10
524.7273431668
 20
172.8775857607
 30
0.0
 10
524.8172592865
 20
172.8563017836
 30
0.0
 10
524.8602217767
 20
172.8416077316
 30
0.0
  0
SPLINE
  5
3D4
100
AcDbEntity
  8
0
100
AcDbSpline
 62
3
  6
CONTINUOUS
 70
0
 71
3
 72
9
 73
5
 74
0
 42
0.0000001
 43
0.0000001
 44
0.0000000001
 40
0.0
 40
0.0
 40
0.0
 40
0.0
 40
0.4696044819
 40
1.0
 40
1.0
 40
1.0
 40
1.0
 10
520.3419054746
 20
168.997634734
 30
0.0
 10
520.235308135
 20
168.9477948884
 30
0.0
 10
520.0013886076
 20
168.8563741144
 30
0.0
 10
519.7603448995
 20
168.7868896695
 30
0.0
 10
519.6314126879
 20
168.7546318893
 30
0.0
  0
SPLINE
  5
3D5
100
AcDbEntity
  8
0
100
AcDbSpline
 62
3
  6
CONTINUOUS
 70
0
 71
3
 72
9
 73
5
 74
0
 42
0.0000001
 43
0.0000001
 44
0.0000000001
 40
0.0
 40
0.0
 40
0.0
 40
0.0
 40
0.2472680324
 40
1.0
 40
1.0
 40
1.0
 40
1.0
 10
520.3261285903
 20
169.7686605857
 30
0.0
 10
520.2917287424
 20
169.6982966457
 30
0.0
 10
520.1448749457
 20
169.4175633285
 30
0.0
 10
519.9680477526
 20
169.152627732
 30
0.0
 10
519.8210090734
 20
168.9649360769
 30
0.0
  0
SPLINE
  5
3D6
100
AcDbEntity
  8
0
100
AcDbSpline
 62
3
  6
CONTINUOUS
 70
0
 71
3
 72
12
 73
8
 74
0
 42
0.0000001
 43
0.0000001
 44
0.0000000001
 40
0.0
 40
0.0
 40
0.0
 40
0.0
 40
0.2892089036
 40
0.5503427696
 40
0.7836175416
 40
0.8930360793
 40
1.0
 40
1.0
 40
1.0
 40
1.0
 10
518.6855826039
 20
169.3929477932
 30
0.0
 10
518.6855826039
 20
169.2614610047
 30
0.0
 10
518.710155232
 20
169.0100744509
 30
0.0
 10
518.8293662338
 20
168.6701615648
 30
0.0
 10
518.9977521858
 20
168.4456258102
 30
0.0
 10
519.1631312672
 20
168.3234199653
 30
0.0
 10
519.2531550102
 20
168.2817351428
 30
0.0
 10
519.2991685304
 20
168.2659975761
 30
0.0
  0
SPLINE
  5
3D7
100
AcDbEntity
  8
0
100
AcDbSpline
 62
3
  6
CONTINUOUS
 70
0
 71
3
 72
16
 73
12
 74
0
 42
0.0000001
 43
0.0000001
 44
0.0000000001
 40
0.0
 40
0.0
 40
0.0
 40
0.0
 40
0.1383666188
 40
0.2811082187
 40
0.4231155394
 40
0.5593930854
 40
0.6858836045
 40
0.8003796607
 40
0.9035302826
 40
0.9522450837
 40
1.0
 40
1.0
 40
1.0
 40
1.0
 10
518.6855826039
 20
169.3929477932
 30
0.0
 10
518.6855826039
 20
169.5245081369
 30
0.0
 10
518.7118238075
 20
169.7922537197
 30
0.0
 10
518.8194862365
 20
170.18172714
 30
0.0
 10
518.9897777683
 20
170.5461891041
 30
0.0
 10
519.2122543729
 20
170.8628872736
 30
0.0
 10
519.4739004487
 20
171.1122756569
 30
0.0
 10
519.7597751002
 20
171.2786618698
 30
0.0
 10
520.0112609318
 20
171.3379315963
 30
0.0
 10
520.2018597672
 20
171.3297792798
 30
0.0
 10
520.2917758869
 20
171.3084953026
 30
0.0
 10
520.3347383771
 20
171.2938012507
 30
0.0
  0
SPLINE
  5
3D8
100
AcDbEntity
  8
0
100
AcDbSpline
 62
3
  6
CONTINUOUS
 70
0
 71
3
 72
9
 73
5
 74
0
 42
0.0000001
 43
0.0000001
 44
0.0000000001
 40
0.0
 40
0.0
 40
0.0
 40
0.0
 40
0.2580467802
 40
1.0
 40
1.0
 40
1.0
 40
1.0
 10
515.7115710669
 20
168.1851478289
 30
0.0
 10
515.7115710669
 20
168.1144647176
 30
0.0
 10
515.7047269584
 20
167.8406330545
 30
0.0
 10
515.6698367576
 20
167.5671812988
 30
0.0
 10
515.6256583599
 20
167.3688083466
 30
0.0
  0
SPLINE
  5
3D9
100
AcDbEntity
  8
0
100
AcDbSpline
 62
3
  6
CONTINUOUS
 70
0
 71
3
 72
12
 73
8
 74
0
 42
0.0000001
 43
0.0000001
 44
0.0000000001
 40
0.0
 40
0.0
 40
0.0
 40
0.0
 40
0.2892089036
 40
0.5503427696
 40
0.7836175416
 40
0.8930360793
 40
1.0
 40
1.0
 40
1.0
 40
1.0
 10
514.1600992043
 20
167.8451413122
 30
0.0
 10
514.1600992043
 20
167.7136545237
 30
0.0
 10
514.1846718324
 20
167.46226797
 30
0.0
 10
514.3038828342
 20
167.1223550839
 30
0.0
 10
514.4722687862
 20
166.8978193292
 30
0.0
 10
514.6376478676
 20
166.7756134843
 30
0.0
 10
514.7276716106
 20
166.7339286619
 30
0.0
 10
514.7736851308
 20
166.7181910952
 30
0.0
  0
SPLINE
  5
3DA
100
AcDbEntity
  8
0
100
AcDbSpline
 62
3
  6
CONTINUOUS
 70
0
 71
3
 72
9
 73
5
 74
0
 42
0.0000001
 43
0.0000001
 44
0.0000000001
 40
0.0
 40
0.0
 40
0.0
 40
0.0
 40
0.2545842481
 40
1.0
 40
1.0
 40
1.0
 40
1.0
 10
515.6256583599
 20
169.060255064
 30
0.0
 10
515.6398294674
 20
168.9869293512
 30
0.0
 10
515.6889392544
 20
168.6977001946
 30
0.0
 10
515.7115710669
 20
168.4038162479
 30
0.0
 10
515.7115710669
 20
168.1851478289
 30
0.0
  0
SPLINE
  5
3DB
100
AcDbEntity
  8
0
100
AcDbSpline
 62
3
  6
CONTINUOUS
 70
0
 71
3
 72
16
 73
12
 74
0
 42
0.0000001
 43
0.0000001
 44
0.0000000001
 40
0.0
 40
0.0
 40
0.0
 40
0.0
 40
0.1383666188
 40
0.2811082187
 40
0.4231155394
 40
0.5593930854
 40
0.6858836045
 40
0.8003796607
 40
0.9035302826
 40
0.9522450837
 40
1.0
 40
1.0
 40
1.0
 40
1.0
 10
514.1600992043
 20
167.8451413122
 30
0.0
 10
514.1600992043
 20
167.976701656
 30
0.0
 10
514.1863404079
 20
168.2444472388
 30
0.0
 10
514.2940028369
 20
168.6339206591
 30
0.0
 10
514.4642943687
 20
168.9983826232
 30
0.0
 10
514.6867709733
 20
169.3150807927
 30
0.0
 10
514.9484170491
 20
169.5644691759
 30
0.0
 10
515.2342917006
 20
169.7308553889
 30
0.0
 10
515.4857775322
 20
169.7901251154
 30
0.0
 10
515.6763763676
 20
169.7819727988
 30
0.0
 10
515.7662924873
 20
169.7606888217
 30
0.0
 10
515.8092549776
 20
169.7459947697
 30
0.0
  0
SPLINE
  5
3DC
100
AcDbEntity
  8
0
100
AcDbSpline
 62
3
  6
CONTINUOUS
 70
0
 71
3
 72
12
 73
8
 74
0
 42
0.0000001
 43
0.0000001
 44
0.0000000001
 40
0.0
 40
0.0
 40
0.0
 40
0.0
 40
0.2892089036
 40
0.5503427696
 40
0.7836175416
 40
0.8930360793
 40
1.0
 40
1.0
 40
1.0
 40
1.0
 10
509.6346158047
 20
166.2973348313
 30
0.0
 10
509.6346158047
 20
166.1658480428
 30
0.0
 10
509.6591884328
 20
165.914461489
 30
0.0
 10
509.7783994346
 20
165.5745486029
 30
0.0
 10
509.9467853866
 20
165.3500128483
 30
0.0
 10
510.112164468
 20
165.2278070034
 30
0.0
 10
510.202188211
 20
165.1861221809
 30
0.0
 10
510.2482017312
 20
165.1703846142
 30
0.0
  0
SPLINE
  5
3DD
100
AcDbEntity
  8
0
100
AcDbSpline
 62
3
  6
CONTINUOUS
 70
0
 71
3
 72
9
 73
5
 74
0
 42
0.0000001
 43
0.0000001
 44
0.0000000001
 40
0.0
 40
0.0
 40
0.0
 40
0.0
 40
0.2251202783
 40
1.0
 40
1.0
 40
1.0
 40
1.0
 10
529.0582835749
 20
173.7547839636
 30
0.0
 10
529.0610714819
 20
173.7538325284
 30
0.0
 10
529.0726600809
 20
173.7472142503
 30
0.0
 10
529.0790050046
 20
173.7340015375
 30
0.0
 10
529.0810498295
 20
173.7240702639
 30
0.0
  0
SPLINE
  5
3DE
100
AcDbEntity
  8
0
100
AcDbSpline
 62
3
  6
CONTINUOUS
 70
0
 71
3
 72
13
 73
9
 74
0
 42
0.0000001
 43
0.0000001
 44
0.0000000001
 40
0.0
 40
0.0
 40
0.0
 40
0.0
 40
0.0962942455
 40
0.1997153117
 40
0.3145114855
 40
0.4413335306
 40
0.7192344793
 40
1.0
 40
1.0
 40
1.0
 40
1.0
 10
529.2864320531
 20
173.2608086424
 30
0.0
 10
529.2594309033
 20
173.2700440894
 30
0.0
 10
529.1990693593
 20
173.2779880285
 30
0.0
 10
529.1068332507
 20
173.2560467358
 30
0.0
 10
529.0173829623
 20
173.2040942768
 30
0.0
 10
528.9052270977
 20
173.0970157679
 30
0.0
 10
528.8033415908
 20
172.9161572549
 30
0.0
 10
528.7710709089
 20
172.7499972403
 30
0.0
 10
528.7710709089
 20
172.6667920392
 30
0.0
  0
SPLINE
  5
3DF
100
AcDbEntity
  8
0
100
AcDbSpline
 62
3
  6
CONTINUOUS
 70
0
 71
3
 72
16
 73
12
 74
0
 42
0.0000001
 43
0.0000001
 44
0.0000000001
 40
0.0
 40
0.0
 40
0.0
 40
0.0
 40
0.1383666188
 40
0.2811082187
 40
0.4231155394
 40
0.5593930854
 40
0.6858836045
 40
0.8003796607
 40
0.9035302826
 40
0.9522450837
 40
1.0
 40
1.0
 40
1.0
 40
1.0
 10
509.6346158047
 20
166.2973348313
 30
0.0
 10
509.6346158047
 20
166.428895175
 30
0.0
 10
509.6608570083
 20
166.6966407578
 30
0.0
 10
509.7685194373
 20
167.0861141781
 30
0.0
 10
509.9388109691
 20
167.4505761422
 30
0.0
 10
510.1612875737
 20
167.7672743117
 30
0.0
 10
510.4229336495
 20
168.016662695
 30
0.0
 10
510.708808301
 20
168.1830489079
 30
0.0
 10
510.9602941326
 20
168.2423186344
 30
0.0
 10
511.150892968
 20
168.2341663179
 30
0.0
 10
511.2408090877
 20
168.2128823407
 30
0.0
 10
511.283771578
 20
168.1981882888
 30
0.0
  0
SPLINE
  5
3E0
100
AcDbEntity
  8
0
100
AcDbSpline
 62
3
  6
CONTINUOUS
 70
0
 71
3
 72
9
 73
5
 74
0
 42
0.0000001
 43
0.0000001
 44
0.0000000001
 40
0.0
 40
0.0
 40
0.0
 40
0.0
 40
0.3934612392
 40
1.0
 40
1.0
 40
1.0
 40
1.0
 10
529.7407122499
 20
173.083616547
 30
0.0
 10
529.7444208528
 20
173.0823515267
 30
0.0
 10
529.7507877425
 20
173.0729334928
 30
0.0
 10
529.7515317492
 20
173.0630293955
 30
0.0
 10
529.7515317492
 20
173.05698897
 30
0.0
  0
SPLINE
  5
3E1
100
AcDbEntity
  8
0
100
AcDbSpline
 62
3
  6
CONTINUOUS
 70
0
 71
3
 72
11
 73
7
 74
0
 42
0.0000001
 43
0.0000001
 44
0.0000000001
 40
0.0
 40
0.0
 40
0.0
 40
0.0
 40
0.2043000524
 40
0.4355814471
 40
0.7071941451
 40
1.0
 40
1.0
 40
1.0
 40
1.0
 10
528.8057229842
 20
172.2949105909
 30
0.0
 10
528.8098480545
 20
172.2934983906
 30
0.0
 10
528.8177049322
 20
172.2870313096
 30
0.0
 10
528.8211097898
 20
172.2715517632
 30
0.0
 10
528.8176660073
 20
172.2546064443
 30
0.0
 10
528.8115362657
 20
172.2439573217
 30
0.0
 10
528.8076166396
 20
172.2390904832
 30
0.0
  0
SPLINE
  5
3E2
100
AcDbEntity
  8
0
100
AcDbSpline
 62
3
  6
CONTINUOUS
 70
0
 71
3
 72
8
 73
4
 74
0
 42
0.0000001
 43
0.0000001
 44
0.0000000001
 40
0.0
 40
0.0
 40
0.0
 40
0.0
 40
1.0
 40
1.0
 40
1.0
 40
1.0
 10
529.4421976285
 20
172.5150094075
 30
0.0
 10
529.4442988651
 20
172.5142946417
 30
0.0
 10
529.4462142765
 20
172.512860726
 30
0.0
 10
529.4476166396
 20
172.5111404169
 30
0.0
  0
SPLINE
  5
3E3
100
AcDbEntity
  8
0
100
AcDbSpline
 62
3
  6
CONTINUOUS
 70
0
 71
3
 72
10
 73
6
 74
0
 42
0.0000001
 43
0.0000001
 44
0.0000000001
 40
0.0
 40
0.0
 40
0.0
 40
0.0
 40
0.4336170259
 40
0.7198138746
 40
1.0
 40
1.0
 40
1.0
 40
1.0
 10
529.5377677377
 20
173.6549097523
 30
0.0
 10
529.5467643737
 20
173.6518327073
 30
0.0
 10
529.554970661
 20
173.63430084
 30
0.0
 10
529.5565855202
 20
173.6130444591
 30
0.0
 10
529.5546481903
 20
173.6004559442
 30
0.0
 10
529.5527655583
 20
173.5946076116
 30
0.0
  0
SPLINE
  5
3E4
100
AcDbEntity
  8
0
100
AcDbSpline
 62
3
  6
CONTINUOUS
 70
0
 71
3
 72
9
 73
5
 74
0
 42
0.0000001
 43
0.0000001
 44
0.0000000001
 40
0.0
 40
0.0
 40
0.0
 40
0.0
 40
0.4967777653
 40
1.0
 40
1.0
 40
1.0
 40
1.0
 10
458.1969751223
 20
494.8117954852
 30
0.0
 10
458.2056640314
 20
494.8147576758
 30
0.0
 10
458.2236502017
 20
494.8193478372
 30
0.0
 10
458.2421146417
 20
494.8211674795
 30
0.0
 10
458.2514103366
 20
494.821417257
 30
0.0
  0
SPLINE
  5
3E5
100
AcDbEntity
  8
0
100
AcDbSpline
 62
3
  6
CONTINUOUS
 70
0
 71
3
 72
9
 73
5
 74
0
 42
0.0000001
 43
0.0000001
 44
0.0000000001
 40
0.0
 40
0.0
 40
0.0
 40
0.0
 40
0.4956302893
 40
1.0
 40
1.0
 40
1.0
 40
1.0
 10
458.2514103366
 20
494.821417257
 30
0.0
 10
458.257680691
 20
494.8215857429
 30
0.0
 10
458.2703548954
 20
494.821315944
 30
0.0
 10
458.2829480317
 20
494.8198747529
 30
0.0
 10
458.289251438
 20
494.8188684742
 30
0.0
  0
SPLINE
  5
3E6
100
AcDbEntity
  8
0
100
AcDbSpline
 62
3
  6
CONTINUOUS
 70
0
 71
3
 72
9
 73
5
 74
0
 42
0.0000001
 43
0.0000001
 44
0.0000000001
 40
0.0
 40
0.0
 40
0.0
 40
0.0
 40
0.4945603734
 40
1.0
 40
1.0
 40
1.0
 40
1.0
 10
458.289251438
 20
494.8188684742
 30
0.0
 10
458.2955834509
 20
494.8178576288
 30
0.0
 10
458.3083011725
 20
494.8152416255
 30
0.0
 10
458.3207471554
 20
494.8115478211
 30
0.0
 10
458.3269477618
 20
494.8094270888
 30
0.0
  0
SPLINE
  5
3E7
100
AcDbEntity
  8
0
100
AcDbSpline
 62
3
  6
CONTINUOUS
 70
0
 71
3
 72
9
 73
5
 74
0
 42
0.0000001
 43
0.0000001
 44
0.0000000001
 40
0.0
 40
0.0
 40
0.0
 40
0.0
 40
0.4967777653
 40
1.0
 40
1.0
 40
1.0
 40
1.0
 10
455.3261215907
 20
495.7936852215
 30
0.0
 10
455.3348104997
 20
495.7966474122
 30
0.0
 10
455.3527966701
 20
495.8012375735
 30
0.0
 10
455.37126111
 20
495.8030572158
 30
0.0
 10
455.3805568049
 20
495.8033069933
 30
0.0
  0
SPLINE
  5
3E8
100
AcDbEntity
  8
0
100
AcDbSpline
 62
3
  6
CONTINUOUS
 70
0
 71
3
 72
9
 73
5
 74
0
 42
0.0000001
 43
0.0000001
 44
0.0000000001
 40
0.0
 40
0.0
 40
0.0
 40
0.0
 40
0.4956302893
 40
1.0
 40
1.0
 40
1.0
 40
1.0
 10
455.3805568049
 20
495.8033069933
 30
0.0
 10
455.3868271594
 20
495.8034754792
 30
0.0
 10
455.3995013637
 20
495.8032056803
 30
0.0
 10
455.4120945001
 20
495.8017644892
 30
0.0
 10
455.4183979064
 20
495.8007582105
 30
0.0
  0
SPLINE
  5
3E9
100
AcDbEntity
  8
0
100
AcDbSpline
 62
3
  6
CONTINUOUS
 70
0
 71
3
 72
9
 73
5
 74
0
 42
0.0000001
 43
0.0000001
 44
0.0000000001
 40
0.0
 40
0.0
 40
0.0
 40
0.0
 40
0.4945603734
 40
1.0
 40
1.0
 40
1.0
 40
1.0
 10
455.4183979064
 20
495.8007582105
 30
0.0
 10
455.4247299193
 20
495.7997473651
 30
0.0
 10
455.4374476409
 20
495.7971313619
 30
0.0
 10
455.4498936237
 20
495.7934375575
 30
0.0
 10
455.4560942302
 20
495.7913168252
 30
0.0
  0
SPLINE
  5
3EA
100
AcDbEntity
  8
0
100
AcDbSpline
 62
3
  6
CONTINUOUS
 70
0
 71
3
 72
9
 73
5
 74
0
 42
0.0000001
 43
0.0000001
 44
0.0000000001
 40
0.0
 40
0.0
 40
0.0
 40
0.0
 40
0.4967777653
 40
1.0
 40
1.0
 40
1.0
 40
1.0
 10
452.6674000934
 20
496.7030215291
 30
0.0
 10
452.6760890025
 20
496.7059837197
 30
0.0
 10
452.6940751728
 20
496.7105738811
 30
0.0
 10
452.7125396128
 20
496.7123935234
 30
0.0
 10
452.7218353077
 20
496.7126433009
 30
0.0
  0
SPLINE
  5
3EB
100
AcDbEntity
  8
0
100
AcDbSpline
 62
3
  6
CONTINUOUS
 70
0
 71
3
 72
9
 73
5
 74
0
 42
0.0000001
 43
0.0000001
 44
0.0000000001
 40
0.0
 40
0.0
 40
0.0
 40
0.0
 40
0.4956302893
 40
1.0
 40
1.0
 40
1.0
 40
1.0
 10
452.7218353077
 20
496.7126433009
 30
0.0
 10
452.7281056622
 20
496.7128117868
 30
0.0
 10
452.7407798665
 20
496.7125419879
 30
0.0
 10
452.7533730028
 20
496.7111007968
 30
0.0
 10
452.7596764092
 20
496.7100945181
 30
0.0
  0
SPLINE
  5
3EC
100
AcDbEntity
  8
0
100
AcDbSpline
 62
3
  6
CONTINUOUS
 70
0
 71
3
 72
9
 73
5
 74
0
 42
0.0000001
 43
0.0000001
 44
0.0000000001
 40
0.0
 40
0.0
 40
0.0
 40
0.0
 40
0.4945603734
 40
1.0
 40
1.0
 40
1.0
 40
1.0
 10
452.7596764092
 20
496.7100945181
 30
0.0
 10
452.766008422
 20
496.7090836727
 30
0.0
 10
452.7787261437
 20
496.7064676694
 30
0.0
 10
452.7911721265
 20
496.702773865
 30
0.0
 10
452.7973727329
 20
496.7006531327
 30
0.0
  0
SPLINE
  5
3ED
100
AcDbEntity
  8
0
100
AcDbSpline
 62
3
  6
CONTINUOUS
 70
0
 71
3
 72
9
 73
5
 74
0
 42
0.0000001
 43
0.0000001
 44
0.0000000001
 40
0.0
 40
0.0
 40
0.0
 40
0.0
 40
0.4967777653
 40
1.0
 40
1.0
 40
1.0
 40
1.0
 10
444.2386872617
 20
499.5858110998
 30
0.0
 10
444.2473761707
 20
499.5887732905
 30
0.0
 10
444.2653623411
 20
499.5933634518
 30
0.0
 10
444.283826781
 20
499.5951830941
 30
0.0
 10
444.2931224759
 20
499.5954328716
 30
0.0
  0
SPLINE
  5
3EE
100
AcDbEntity
  8
0
100
AcDbSpline
 62
3
  6
CONTINUOUS
 70
0
 71
3
 72
9
 73
5
 74
0
 42
0.0000001
 43
0.0000001
 44
0.0000000001
 40
0.0
 40
0.0
 40
0.0
 40
0.0
 40
0.4956302893
 40
1.0
 40
1.0
 40
1.0
 40
1.0
 10
444.2931224759
 20
499.5954328716
 30
0.0
 10
444.2993928304
 20
499.5956013575
 30
0.0
 10
444.3120670347
 20
499.5953315586
 30
0.0
 10
444.3246601711
 20
499.5938903675
 30
0.0
 10
444.3309635774
 20
499.5928840889
 30
0.0
  0
SPLINE
  5
3EF
100
AcDbEntity
  8
0
100
AcDbSpline
 62
3
  6
CONTINUOUS
 70
0
 71
3
 72
9
 73
5
 74
0
 42
0.0000001
 43
0.0000001
 44
0.0000000001
 40
0.0
 40
0.0
 40
0.0
 40
0.0
 40
0.4945603734
 40
1.0
 40
1.0
 40
1.0
 40
1.0
 10
444.3309635774
 20
499.5928840889
 30
0.0
 10
444.3372955903
 20
499.5918732434
 30
0.0
 10
444.3500133119
 20
499.5892572402
 30
0.0
 10
444.3624592947
 20
499.5855634358
 30
0.0
 10
444.3686599012
 20
499.5834427035
 30
0.0
  0
SPLINE
  5
3F0
100
AcDbEntity
  8
0
100
AcDbSpline
 62
3
  6
CONTINUOUS
 70
0
 71
3
 72
9
 73
5
 74
0
 42
0.0000001
 43
0.0000001
 44
0.0000000001
 40
0.0
 40
0.0
 40
0.0
 40
0.0
 40
0.4967777653
 40
1.0
 40
1.0
 40
1.0
 40
1.0
 10
450.2208106305
 20
497.5398044078
 30
0.0
 10
450.2294995396
 20
497.5427665985
 30
0.0
 10
450.2474857099
 20
497.5473567598
 30
0.0
 10
450.2659501499
 20
497.5491764021
 30
0.0
 10
450.2752458448
 20
497.5494261796
 30
0.0
  0
SPLINE
  5
3F1
100
AcDbEntity
  8
0
100
AcDbSpline
 62
3
  6
CONTINUOUS
 70
0
 71
3
 72
9
 73
5
 74
0
 42
0.0000001
 43
0.0000001
 44
0.0000000001
 40
0.0
 40
0.0
 40
0.0
 40
0.0
 40
0.4956302893
 40
1.0
 40
1.0
 40
1.0
 40
1.0
 10
450.2752458448
 20
497.5494261796
 30
0.0
 10
450.2815161993
 20
497.5495946655
 30
0.0
 10
450.2941904036
 20
497.5493248666
 30
0.0
 10
450.3067835399
 20
497.5478836755
 30
0.0
 10
450.3130869463
 20
497.5468773969
 30
0.0
  0
SPLINE
  5
3F2
100
AcDbEntity
  8
0
100
AcDbSpline
 62
3
  6
CONTINUOUS
 70
0
 71
3
 72
9
 73
5
 74
0
 42
0.0000001
 43
0.0000001
 44
0.0000000001
 40
0.0
 40
0.0
 40
0.0
 40
0.0
 40
0.4945603734
 40
1.0
 40
1.0
 40
1.0
 40
1.0
 10
450.3130869463
 20
497.5468773969
 30
0.0
 10
450.3194189591
 20
497.5458665514
 30
0.0
 10
450.3321366808
 20
497.5432505482
 30
0.0
 10
450.3445826636
 20
497.5395567438
 30
0.0
 10
450.35078327
 20
497.5374360115
 30
0.0
  0
SPLINE
  5
3F3
100
AcDbEntity
  8
0
100
AcDbSpline
 62
3
  6
CONTINUOUS
 70
0
 71
3
 72
9
 73
5
 74
0
 42
0.0000001
 43
0.0000001
 44
0.0000000001
 40
0.0
 40
0.0
 40
0.0
 40
0.0
 40
0.4967777653
 40
1.0
 40
1.0
 40
1.0
 40
1.0
 10
447.5620891332
 20
498.4491407154
 30
0.0
 10
447.5707780423
 20
498.452102906
 30
0.0
 10
447.5887642126
 20
498.4566930674
 30
0.0
 10
447.6072286526
 20
498.4585127097
 30
0.0
 10
447.6165243475
 20
498.4587624872
 30
0.0
  0
SPLINE
  5
3F4
100
AcDbEntity
  8
0
100
AcDbSpline
 62
3
  6
CONTINUOUS
 70
0
 71
3
 72
9
 73
5
 74
0
 42
0.0000001
 43
0.0000001
 44
0.0000000001
 40
0.0
 40
0.0
 40
0.0
 40
0.0
 40
0.4956302893
 40
1.0
 40
1.0
 40
1.0
 40
1.0
 10
447.6165243475
 20
498.4587624872
 30
0.0
 10
447.622794702
 20
498.4589309731
 30
0.0
 10
447.6354689063
 20
498.4586611742
 30
0.0
 10
447.6480620426
 20
498.4572199831
 30
0.0
 10
447.654365449
 20
498.4562137044
 30
0.0
  0
SPLINE
  5
3F5
100
AcDbEntity
  8
0
100
AcDbSpline
 62
3
  6
CONTINUOUS
 70
0
 71
3
 72
9
 73
5
 74
0
 42
0.0000001
 43
0.0000001
 44
0.0000000001
 40
0.0
 40
0.0
 40
0.0
 40
0.0
 40
0.4945603733
 40
1.0
 40
1.0
 40
1.0
 40
1.0
 10
447.654365449
 20
498.4562137044
 30
0.0
 10
447.6606974619
 20
498.455202859
 30
0.0
 10
447.6734151835
 20
498.4525868557
 30
0.0
 10
447.6858611663
 20
498.4488930514
 30
0.0
 10
447.6920617728
 20
498.4467723191
 30
0.0
  0
SPLINE
  5
3F6
100
AcDbEntity
  8
0
100
AcDbSpline
 62
3
  6
CONTINUOUS
 70
0
 71
3
 72
9
 73
5
 74
0
 42
0.0000001
 43
0.0000001
 44
0.0000000001
 40
0.0
 40
0.0
 40
0.0
 40
0.0
 40
0.2221267573
 40
1.0
 40
1.0
 40
1.0
 40
1.0
 10
462.5413041777
 20
493.3680323034
 30
0.0
 10
462.5811928814
 20
493.3543895633
 30
0.0
 10
462.7438856523
 20
493.2483481225
 30
0.0
 10
462.8241468901
 20
493.0430492286
 30
0.0
 10
462.8241468901
 20
492.8954173501
 30
0.0
  0
SPLINE
  5
3F7
100
AcDbEntity
  8
0
100
AcDbSpline
 62
3
  6
CONTINUOUS
 70
0
 71
3
 72
9
 73
5
 74
0
 42
0.0000001
 43
0.0000001
 44
0.0000000001
 40
0.0
 40
0.0
 40
0.0
 40
0.0
 40
0.4967777653
 40
1.0
 40
1.0
 40
1.0
 40
1.0
 10
429.8844196036
 20
504.4952597816
 30
0.0
 10
429.8931085126
 20
504.4982219722
 30
0.0
 10
429.911094683
 20
504.5028121336
 30
0.0
 10
429.929559123
 20
504.5046317759
 30
0.0
 10
429.9388548178
 20
504.5048815534
 30
0.0
  0
SPLINE
  5
3F8
100
AcDbEntity
  8
0
100
AcDbSpline
 62
3
  6
CONTINUOUS
 70
0
 71
3
 72
9
 73
5
 74
0
 42
0.0000001
 43
0.0000001
 44
0.0000000001
 40
0.0
 40
0.0
 40
0.0
 40
0.0
 40
0.4956302893
 40
1.0
 40
1.0
 40
1.0
 40
1.0
 10
429.9388548178
 20
504.5048815534
 30
0.0
 10
429.9451251723
 20
504.5050500393
 30
0.0
 10
429.9577993766
 20
504.5047802404
 30
0.0
 10
429.970392513
 20
504.5033390493
 30
0.0
 10
429.9766959193
 20
504.5023327706
 30
0.0
  0
SPLINE
  5
3F9
100
AcDbEntity
  8
0
100
AcDbSpline
 62
3
  6
CONTINUOUS
 70
0
 71
3
 72
9
 73
5
 74
0
 42
0.0000001
 43
0.0000001
 44
0.0000000001
 40
0.0
 40
0.0
 40
0.0
 40
0.0
 40
0.4945603734
 40
1.0
 40
1.0
 40
1.0
 40
1.0
 10
429.9766959193
 20
504.5023327706
 30
0.0
 10
429.9830279322
 20
504.5013219252
 30
0.0
 10
429.9957456538
 20
504.4987059219
 30
0.0
 10
430.0081916367
 20
504.4950121176
 30
0.0
 10
430.0143922431
 20
504.4928913853
 30
0.0
  0
SPLINE
  5
3FA
100
AcDbEntity
  8
0
100
AcDbSpline
 62
3
  6
CONTINUOUS
 70
0
 71
3
 72
9
 73
5
 74
0
 42
0.0000001
 43
0.0000001
 44
0.0000000001
 40
0.0
 40
0.0
 40
0.0
 40
0.0
 40
0.4967777653
 40
1.0
 40
1.0
 40
1.0
 40
1.0
 10
433.1795372039
 20
503.3682631877
 30
0.0
 10
433.188226113
 20
503.3712253783
 30
0.0
 10
433.2062122833
 20
503.3758155397
 30
0.0
 10
433.2246767233
 20
503.3776351819
 30
0.0
 10
433.2339724182
 20
503.3778849595
 30
0.0
  0
SPLINE
  5
3FB
100
AcDbEntity
  8
0
100
AcDbSpline
 62
3
  6
CONTINUOUS
 70
0
 71
3
 72
9
 73
5
 74
0
 42
0.0000001
 43
0.0000001
 44
0.0000000001
 40
0.0
 40
0.0
 40
0.0
 40
0.0
 40
0.4956302893
 40
1.0
 40
1.0
 40
1.0
 40
1.0
 10
433.2339724182
 20
503.3778849595
 30
0.0
 10
433.2402427727
 20
503.3780534454
 30
0.0
 10
433.252916977
 20
503.3777836464
 30
0.0
 10
433.2655101133
 20
503.3763424553
 30
0.0
 10
433.2718135197
 20
503.3753361767
 30
0.0
  0
SPLINE
  5
3FC
100
AcDbEntity
  8
0
100
AcDbSpline
 62
3
  6
CONTINUOUS
 70
0
 71
3
 72
9
 73
5
 74
0
 42
0.0000001
 43
0.0000001
 44
0.0000000001
 40
0.0
 40
0.0
 40
0.0
 40
0.0
 40
0.4945603734
 40
1.0
 40
1.0
 40
1.0
 40
1.0
 10
433.2718135197
 20
503.3753361767
 30
0.0
 10
433.2781455325
 20
503.3743253313
 30
0.0
 10
433.2908632542
 20
503.371709328
 30
0.0
 10
433.303309237
 20
503.3680155236
 30
0.0
 10
433.3095098434
 20
503.3658947913
 30
0.0
  0
SPLINE
  5
3FD
100
AcDbEntity
  8
0
100
AcDbSpline
 62
3
  6
CONTINUOUS
 70
0
 71
3
 72
8
 73
4
 74
0
 42
0.0000001
 43
0.0000001
 44
0.0000000001
 40
0.0
 40
0.0
 40
0.0
 40
0.0
 40
1.0
 40
1.0
 40
1.0
 40
1.0
 10
442.2049131507
 20
500.3234876772
 30
0.0
 10
442.2593105469
 20
500.304882672
 30
0.0
 10
442.307769039
 20
500.2673979112
 30
0.0
 10
442.346334507
 20
500.2247607489
 30
0.0
  0
SPLINE
  5
3FE
100
AcDbEntity
  8
0
100
AcDbSpline
 62
3
  6
CONTINUOUS
 70
0
 71
3
 72
8
 73
4
 74
0
 42
0.0000001
 43
0.0000001
 44
0.0000000001
 40
0.0
 40
0.0
 40
0.0
 40
0.0
 40
1.0
 40
1.0
 40
1.0
 40
1.0
 10
442.346334507
 20
500.2247607489
 30
0.0
 10
442.4357174883
 20
500.1259408234
 30
0.0
 10
442.4877558632
 20
499.9841194688
 30
0.0
 10
442.4877558632
 20
499.8508727238
 30
0.0
  0
SPLINE
  5
3FF
100
AcDbEntity
  8
0
100
AcDbSpline
 62
3
  6
CONTINUOUS
 70
0
 71
3
 72
9
 73
5
 74
0
 42
0.0000001
 43
0.0000001
 44
0.0000000001
 40
0.0
 40
0.0
 40
0.0
 40
0.0
 40
0.4967777653
 40
1.0
 40
1.0
 40
1.0
 40
1.0
 10
436.2625227699
 20
502.3138200225
 30
0.0
 10
436.2712116789
 20
502.3167822132
 30
0.0
 10
436.2891978493
 20
502.3213723745
 30
0.0
 10
436.3076622893
 20
502.3231920168
 30
0.0
 10
436.3169579842
 20
502.3234417943
 30
0.0
  0
SPLINE
  5
400
100
AcDbEntity
  8
0
100
AcDbSpline
 62
3
  6
CONTINUOUS
 70
0
 71
3
 72
9
 73
5
 74
0
 42
0.0000001
 43
0.0000001
 44
0.0000000001
 40
0.0
 40
0.0
 40
0.0
 40
0.0
 40
0.4956302893
 40
1.0
 40
1.0
 40
1.0
 40
1.0
 10
436.3169579842
 20
502.3234417943
 30
0.0
 10
436.3232283386
 20
502.3236102802
 30
0.0
 10
436.335902543
 20
502.3233404813
 30
0.0
 10
436.3484956793
 20
502.3218992902
 30
0.0
 10
436.3547990856
 20
502.3208930115
 30
0.0
  0
SPLINE
  5
401
100
AcDbEntity
  8
0
100
AcDbSpline
 62
3
  6
CONTINUOUS
 70
0
 71
3
 72
9
 73
5
 74
0
 42
0.0000001
 43
0.0000001
 44
0.0000000001
 40
0.0
 40
0.0
 40
0.0
 40
0.0
 40
0.4945603734
 40
1.0
 40
1.0
 40
1.0
 40
1.0
 10
436.3547990856
 20
502.3208930115
 30
0.0
 10
436.3611310985
 20
502.3198821661
 30
0.0
 10
436.3738488201
 20
502.3172661629
 30
0.0
 10
436.386294803
 20
502.3135723585
 30
0.0
 10
436.3924954094
 20
502.3114516262
 30
0.0
  0
SPLINE
  5
402
100
AcDbEntity
  8
0
100
AcDbSpline
 62
3
  6
CONTINUOUS
 70
0
 71
3
 72
9
 73
5
 74
0
 42
0.0000001
 43
0.0000001
 44
0.0000000001
 40
0.0
 40
0.0
 40
0.0
 40
0.0
 40
0.4967777653
 40
1.0
 40
1.0
 40
1.0
 40
1.0
 10
439.1333763015
 20
501.3319302862
 30
0.0
 10
439.1420652106
 20
501.3348924768
 30
0.0
 10
439.1600513809
 20
501.3394826382
 30
0.0
 10
439.1785158209
 20
501.3413022805
 30
0.0
 10
439.1878115158
 20
501.341552058
 30
0.0
  0
SPLINE
  5
403
100
AcDbEntity
  8
0
100
AcDbSpline
 62
3
  6
CONTINUOUS
 70
0
 71
3
 72
9
 73
5
 74
0
 42
0.0000001
 43
0.0000001
 44
0.0000000001
 40
0.0
 40
0.0
 40
0.0
 40
0.0
 40
0.4956302893
 40
1.0
 40
1.0
 40
1.0
 40
1.0
 10
439.1878115158
 20
501.341552058
 30
0.0
 10
439.1940818703
 20
501.3417205439
 30
0.0
 10
439.2067560746
 20
501.3414507449
 30
0.0
 10
439.2193492109
 20
501.3400095538
 30
0.0
 10
439.2256526173
 20
501.3390032752
 30
0.0
  0
SPLINE
  5
404
100
AcDbEntity
  8
0
100
AcDbSpline
 62
3
  6
CONTINUOUS
 70
0
 71
3
 72
9
 73
5
 74
0
 42
0.0000001
 43
0.0000001
 44
0.0000000001
 40
0.0
 40
0.0
 40
0.0
 40
0.0
 40
0.4945603734
 40
1.0
 40
1.0
 40
1.0
 40
1.0
 10
439.2256526173
 20
501.3390032752
 30
0.0
 10
439.2319846301
 20
501.3379924298
 30
0.0
 10
439.2447023517
 20
501.3353764265
 30
0.0
 10
439.2571483346
 20
501.3316826221
 30
0.0
 10
439.263348941
 20
501.3295618898
 30
0.0
  0
SPLINE
  5
405
100
AcDbEntity
  8
0
100
AcDbSpline
 62
3
  6
CONTINUOUS
 70
0
 71
3
 72
9
 73
5
 74
0
 42
0.0000001
 43
0.0000001
 44
0.0000000001
 40
0.0
 40
0.0
 40
0.0
 40
0.0
 40
0.2221267573
 40
1.0
 40
1.0
 40
1.0
 40
1.0
 10
439.7583236878
 20
501.160270556
 30
0.0
 10
439.7982123916
 20
501.1466278158
 30
0.0
 10
439.9609051625
 20
501.040586375
 30
0.0
 10
440.0411664003
 20
500.8352874812
 30
0.0
 10
440.0411664003
 20
500.6876556026
 30
0.0
  0
SPLINE
  5
406
100
AcDbEntity
  8
0
100
AcDbSpline
 62
3
  6
CONTINUOUS
 70
0
 71
3
 72
9
 73
5
 74
0
 42
0.0000001
 43
0.0000001
 44
0.0000000001
 40
0.0
 40
0.0
 40
0.0
 40
0.0
 40
0.4967777653
 40
1.0
 40
1.0
 40
1.0
 40
1.0
 10
441.7920977988
 20
500.4225939786
 30
0.0
 10
441.8007867078
 20
500.4255561693
 30
0.0
 10
441.8187728782
 20
500.4301463306
 30
0.0
 10
441.8372373181
 20
500.4319659729
 30
0.0
 10
441.846533013
 20
500.4322157504
 30
0.0
  0
SPLINE
  5
407
100
AcDbEntity
  8
0
100
AcDbSpline
 62
3
  6
CONTINUOUS
 70
0
 71
3
 72
9
 73
5
 74
0
 42
0.0000001
 43
0.0000001
 44
0.0000000001
 40
0.0
 40
0.0
 40
0.0
 40
0.0
 40
0.4956302893
 40
1.0
 40
1.0
 40
1.0
 40
1.0
 10
441.846533013
 20
500.4322157504
 30
0.0
 10
441.8528033675
 20
500.4323842363
 30
0.0
 10
441.8654775718
 20
500.4321144374
 30
0.0
 10
441.8780707082
 20
500.4306732463
 30
0.0
 10
441.8843741145
 20
500.4296669676
 30
0.0
  0
SPLINE
  5
408
100
AcDbEntity
  8
0
100
AcDbSpline
 62
3
  6
CONTINUOUS
 70
0
 71
3
 72
9
 73
5
 74
0
 42
0.0000001
 43
0.0000001
 44
0.0000000001
 40
0.0
 40
0.0
 40
0.0
 40
0.0
 40
0.4945603734
 40
1.0
 40
1.0
 40
1.0
 40
1.0
 10
441.8843741145
 20
500.4296669676
 30
0.0
 10
441.8907061274
 20
500.4286561222
 30
0.0
 10
441.903423849
 20
500.4260401189
 30
0.0
 10
441.9158698318
 20
500.4223463146
 30
0.0
 10
441.9220704383
 20
500.4202255823
 30
0.0
  0
SPLINE
  5
409
100
AcDbEntity
  8
0
100
AcDbSpline
 62
3
  6
CONTINUOUS
 70
0
 71
3
 72
9
 73
5
 74
0
 42
0.0000001
 43
0.0000001
 44
0.0000000001
 40
0.0
 40
0.0
 40
0.0
 40
0.0
 40
0.4967777653
 40
1.0
 40
1.0
 40
1.0
 40
1.0
 10
461.2799606883
 20
493.75735232
 30
0.0
 10
461.2886495973
 20
493.7603145107
 30
0.0
 10
461.3066357677
 20
493.764904672
 30
0.0
 10
461.3251002076
 20
493.7667243143
 30
0.0
 10
461.3343959025
 20
493.7669740918
 30
0.0
  0
SPLINE
  5
40A
100
AcDbEntity
  8
0
100
AcDbSpline
 62
3
  6
CONTINUOUS
 70
0
 71
3
 72
9
 73
5
 74
0
 42
0.0000001
 43
0.0000001
 44
0.0000000001
 40
0.0
 40
0.0
 40
0.0
 40
0.0
 40
0.4956302893
 40
1.0
 40
1.0
 40
1.0
 40
1.0
 10
461.3343959025
 20
493.7669740918
 30
0.0
 10
461.340666257
 20
493.7671425777
 30
0.0
 10
461.3533404613
 20
493.7668727788
 30
0.0
 10
461.3659335977
 20
493.7654315877
 30
0.0
 10
461.372237004
 20
493.764425309
 30
0.0
  0
SPLINE
  5
40B
100
AcDbEntity
  8
0
100
AcDbSpline
 62
3
  6
CONTINUOUS
 70
0
 71
3
 72
9
 73
5
 74
0
 42
0.0000001
 43
0.0000001
 44
0.0000000001
 40
0.0
 40
0.0
 40
0.0
 40
0.0
 40
0.4945603734
 40
1.0
 40
1.0
 40
1.0
 40
1.0
 10
461.372237004
 20
493.764425309
 30
0.0
 10
461.3785690169
 20
493.7634144636
 30
0.0
 10
461.3912867385
 20
493.7607984604
 30
0.0
 10
461.4037327213
 20
493.757104656
 30
0.0
 10
461.4099333278
 20
493.7549839237
 30
0.0
  0
SPLINE
  5
40C
100
AcDbEntity
  8
0
100
AcDbSpline
 62
3
  6
CONTINUOUS
 70
0
 71
3
 72
9
 73
5
 74
0
 42
0.0000001
 43
0.0000001
 44
0.0000000001
 40
0.0
 40
0.0
 40
0.0
 40
0.0
 40
0.2221267573
 40
1.0
 40
1.0
 40
1.0
 40
1.0
 10
437.0996021906
 20
502.0696068635
 30
0.0
 10
437.1394908943
 20
502.0559641234
 30
0.0
 10
437.3021836652
 20
501.9499226826
 30
0.0
 10
437.3824449031
 20
501.7446237887
 30
0.0
 10
437.3824449031
 20
501.5969919101
 30
0.0
  0
SPLINE
  5
40D
100
AcDbEntity
  8
0
100
AcDbSpline
 62
3
  6
CONTINUOUS
 70
0
 71
3
 72
8
 73
4
 74
0
 42
0.0000001
 43
0.0000001
 44
0.0000000001
 40
0.0
 40
0.0
 40
0.0
 40
0.0
 40
1.0
 40
1.0
 40
1.0
 40
1.0
 10
423.7602900929
 20
483.8263028487
 30
0.0
 10
423.7909080501
 20
483.8367923755
 30
0.0
 10
423.8238523481
 20
483.841731683
 30
0.0
 10
423.856214813
 20
483.8413312653
 30
0.0
  0
SPLINE
  5
40E
100
AcDbEntity
  8
0
100
AcDbSpline
 62
3
  6
CONTINUOUS
 70
0
 71
3
 72
8
 73
4
 74
0
 42
0.0000001
 43
0.0000001
 44
0.0000000001
 40
0.0
 40
0.0
 40
0.0
 40
0.0
 40
1.0
 40
1.0
 40
1.0
 40
1.0
 10
423.856214813
 20
483.8413312653
 30
0.0
 10
423.9335883005
 20
483.8403739304
 30
0.0
 10
424.0115560168
 20
483.8080303186
 30
0.0
 10
424.0749971692
 20
483.7637268962
 30
0.0
  0
SPLINE
  5
40F
100
AcDbEntity
  8
0
100
AcDbSpline
 62
3
  6
CONTINUOUS
 70
0
 71
3
 72
8
 73
4
 74
0
 42
0.0000001
 43
0.0000001
 44
0.0000000001
 40
0.0
 40
0.0
 40
0.0
 40
0.0
 40
1.0
 40
1.0
 40
1.0
 40
1.0
 10
424.0749971692
 20
483.7637268962
 30
0.0
 10
424.1551909374
 20
483.707724471
 30
0.0
 10
424.2213032935
 20
483.6297631069
 30
0.0
 10
424.2715455447
 20
483.5458403551
 30
0.0
  0
SPLINE
  5
410
100
AcDbEntity
  8
0
100
AcDbSpline
 62
3
  6
CONTINUOUS
 70
0
 71
3
 72
8
 73
4
 74
0
 42
0.0000001
 43
0.0000001
 44
0.0000000001
 40
0.0
 40
0.0
 40
0.0
 40
0.0
 40
1.0
 40
1.0
 40
1.0
 40
1.0
 10
424.3412291063
 20
483.401361319
 30
0.0
 10
424.3785027429
 20
483.3025282681
 30
0.0
 10
424.3999644005
 20
483.1955960547
 30
0.0
 10
424.3999644005
 20
483.0899679528
 30
0.0
  0
SPLINE
  5
411
100
AcDbEntity
  8
0
100
AcDbSpline
 62
3
  6
CONTINUOUS
 70
0
 71
3
 72
9
 73
5
 74
0
 42
0.0000001
 43
0.0000001
 44
0.0000000001
 40
0.0
 40
0.0
 40
0.0
 40
0.0
 40
0.2221267573
 40
1.0
 40
1.0
 40
1.0
 40
1.0
 10
434.228748659
 20
503.0514965999
 30
0.0
 10
434.2686373627
 20
503.0378538597
 30
0.0
 10
434.4313301336
 20
502.9318124189
 30
0.0
 10
434.5115913714
 20
502.7265135251
 30
0.0
 10
434.5115913714
 20
502.5788816465
 30
0.0
  0
SPLINE
  5
412
100
AcDbEntity
  8
0
100
AcDbSpline
 62
3
  6
CONTINUOUS
 70
0
 71
3
 72
8
 73
4
 74
0
 42
0.0000001
 43
0.0000001
 44
0.0000000001
 40
0.0
 40
0.0
 40
0.0
 40
0.0
 40
1.0
 40
1.0
 40
1.0
 40
1.0
 10
423.7602900929
 20
519.7413548152
 30
0.0
 10
423.7909080501
 20
519.7518443419
 30
0.0
 10
423.8238523481
 20
519.7567836494
 30
0.0
 10
423.856214813
 20
519.7563832317
 30
0.0
  0
SPLINE
  5
413
100
AcDbEntity
  8
0
100
AcDbSpline
 62
3
  6
CONTINUOUS
 70
0
 71
3
 72
8
 73
4
 74
0
 42
0.0000001
 43
0.0000001
 44
0.0000000001
 40
0.0
 40
0.0
 40
0.0
 40
0.0
 40
1.0
 40
1.0
 40
1.0
 40
1.0
 10
423.856214813
 20
519.7563832317
 30
0.0
 10
423.9335883005
 20
519.7554258969
 30
0.0
 10
424.0115560168
 20
519.723082285
 30
0.0
 10
424.0749971692
 20
519.6787788626
 30
0.0
  0
SPLINE
  5
414
100
AcDbEntity
  8
0
100
AcDbSpline
 62
3
  6
CONTINUOUS
 70
0
 71
3
 72
8
 73
4
 74
0
 42
0.0000001
 43
0.0000001
 44
0.0000000001
 40
0.0
 40
0.0
 40
0.0
 40
0.0
 40
1.0
 40
1.0
 40
1.0
 40
1.0
 10
424.0749971692
 20
519.6787788626
 30
0.0
 10
424.1551909374
 20
519.6227764374
 30
0.0
 10
424.2213032935
 20
519.5448150733
 30
0.0
 10
424.2715455447
 20
519.4608923215
 30
0.0
  0
SPLINE
  5
415
100
AcDbEntity
  8
0
100
AcDbSpline
 62
3
  6
CONTINUOUS
 70
0
 71
3
 72
8
 73
4
 74
0
 42
0.0000001
 43
0.0000001
 44
0.0000000001
 40
0.0
 40
0.0
 40
0.0
 40
0.0
 40
1.0
 40
1.0
 40
1.0
 40
1.0
 10
424.3412291063
 20
519.3164132854
 30
0.0
 10
424.3785027429
 20
519.2175802346
 30
0.0
 10
424.3999644005
 20
519.1106480212
 30
0.0
 10
424.3999644005
 20
519.0050199192
 30
0.0
  0
SPLINE
  5
416
100
AcDbEntity
  8
0
100
AcDbSpline
 62
3
  6
CONTINUOUS
 70
0
 71
3
 72
8
 73
4
 74
0
 42
0.0000001
 43
0.0000001
 44
0.0000000001
 40
0.0
 40
0.0
 40
0.0
 40
0.0
 40
1.0
 40
1.0
 40
1.0
 40
1.0
 10
434.5115913714
 20
478.8986276027
 30
0.0
 10
434.5115913714
 20
478.8184099021
 30
0.0
 10
434.4909102279
 20
478.729271073
 30
0.0
 10
434.4370741431
 20
478.6698021277
 30
0.0
  0
SPLINE
  5
417
100
AcDbEntity
  8
0
100
AcDbSpline
 62
3
  6
CONTINUOUS
 70
0
 71
3
 72
8
 73
4
 74
0
 42
0.0000001
 43
0.0000001
 44
0.0000000001
 40
0.0
 40
0.0
 40
0.0
 40
0.0
 40
1.0
 40
1.0
 40
1.0
 40
1.0
 10
434.4370741431
 20
478.6698021277
 30
0.0
 10
434.415952283
 20
478.646470291
 30
0.0
 10
434.3885101143
 20
478.6272755557
 30
0.0
 10
434.3587212985
 20
478.6171200631
 30
0.0
  0
SPLINE
  5
418
100
AcDbEntity
  8
0
100
AcDbSpline
 62
3
  6
CONTINUOUS
 70
0
 71
3
 72
9
 73
5
 74
0
 42
0.0000001
 43
0.0000001
 44
0.0000000001
 40
0.0
 40
0.0
 40
0.0
 40
0.0
 40
0.2221267573
 40
1.0
 40
1.0
 40
1.0
 40
1.0
 10
431.145763093
 20
504.105939765
 30
0.0
 10
431.1856517967
 20
504.0922970248
 30
0.0
 10
431.3483445676
 20
503.9862555841
 30
0.0
 10
431.4286058055
 20
503.7809566902
 30
0.0
 10
431.4286058055
 20
503.6333248116
 30
0.0
  0
SPLINE
  5
419
100
AcDbEntity
  8
0
100
AcDbSpline
 62
3
  6
CONTINUOUS
 70
0
 71
3
 72
8
 73
4
 74
0
 42
0.0000001
 43
0.0000001
 44
0.0000000001
 40
0.0
 40
0.0
 40
0.0
 40
0.0
 40
1.0
 40
1.0
 40
1.0
 40
1.0
 10
431.4286058055
 20
479.9530707678
 30
0.0
 10
431.4286058055
 20
479.8728530673
 30
0.0
 10
431.4079246619
 20
479.7837142381
 30
0.0
 10
431.3540885771
 20
479.7242452928
 30
0.0
  0
SPLINE
  5
41A
100
AcDbEntity
  8
0
100
AcDbSpline
 62
3
  6
CONTINUOUS
 70
0
 71
3
 72
8
 73
4
 74
0
 42
0.0000001
 43
0.0000001
 44
0.0000000001
 40
0.0
 40
0.0
 40
0.0
 40
0.0
 40
1.0
 40
1.0
 40
1.0
 40
1.0
 10
431.3540885771
 20
479.7242452928
 30
0.0
 10
431.3329667171
 20
479.7009134561
 30
0.0
 10
431.3055245483
 20
479.6817187208
 30
0.0
 10
431.2757357325
 20
479.6715632282
 30
0.0
  0
SPLINE
  5
41B
100
AcDbEntity
  8
0
100
AcDbSpline
 62
3
  6
CONTINUOUS
 70
0
 71
3
 72
9
 73
5
 74
0
 42
0.0000001
 43
0.0000001
 44
0.0000000001
 40
0.0
 40
0.0
 40
0.0
 40
0.0
 40
0.2221267573
 40
1.0
 40
1.0
 40
1.0
 40
1.0
 10
448.1870365196
 20
498.2774809852
 30
0.0
 10
448.2269252233
 20
498.263838245
 30
0.0
 10
448.3896179942
 20
498.1577968042
 30
0.0
 10
448.4698792321
 20
497.9524979104
 30
0.0
 10
448.4698792321
 20
497.8048660318
 30
0.0
  0
SPLINE
  5
41C
100
AcDbEntity
  8
0
100
AcDbSpline
 62
3
  6
CONTINUOUS
 70
0
 71
3
 72
8
 73
4
 74
0
 42
0.0000001
 43
0.0000001
 44
0.0000000001
 40
0.0
 40
0.0
 40
0.0
 40
0.0
 40
1.0
 40
1.0
 40
1.0
 40
1.0
 10
450.6336259825
 20
497.4406981064
 30
0.0
 10
450.6880233787
 20
497.4220931012
 30
0.0
 10
450.7364818707
 20
497.3846083404
 30
0.0
 10
450.7750473387
 20
497.3419711781
 30
0.0
  0
SPLINE
  5
41D
100
AcDbEntity
  8
0
100
AcDbSpline
 62
3
  6
CONTINUOUS
 70
0
 71
3
 72
8
 73
4
 74
0
 42
0.0000001
 43
0.0000001
 44
0.0000000001
 40
0.0
 40
0.0
 40
0.0
 40
0.0
 40
1.0
 40
1.0
 40
1.0
 40
1.0
 10
450.7750473387
 20
497.3419711781
 30
0.0
 10
450.8644303201
 20
497.2431512526
 30
0.0
 10
450.916468695
 20
497.101329898
 30
0.0
 10
450.916468695
 20
496.9680831531
 30
0.0
  0
SPLINE
  5
41E
100
AcDbEntity
  8
0
100
AcDbSpline
 62
3
  6
CONTINUOUS
 70
0
 71
3
 72
9
 73
5
 74
0
 42
0.0000001
 43
0.0000001
 44
0.0000000001
 40
0.0
 40
0.0
 40
0.0
 40
0.0
 40
0.2221267573
 40
1.0
 40
1.0
 40
1.0
 40
1.0
 10
444.863634648
 20
499.4141513696
 30
0.0
 10
444.9035233517
 20
499.4005086295
 30
0.0
 10
445.0662161226
 20
499.2944671887
 30
0.0
 10
445.1464773605
 20
499.0891682948
 30
0.0
 10
445.1464773605
 20
498.9415364163
 30
0.0
  0
SPLINE
  5
41F
100
AcDbEntity
  8
0
100
AcDbSpline
 62
3
  6
CONTINUOUS
 70
0
 71
3
 72
9
 73
5
 74
0
 42
0.0000001
 43
0.0000001
 44
0.0000000001
 40
0.0
 40
0.0
 40
0.0
 40
0.0
 40
0.2221267573
 40
1.0
 40
1.0
 40
1.0
 40
1.0
 10
453.2923474798
 20
496.5313617989
 30
0.0
 10
453.3322361835
 20
496.5177190587
 30
0.0
 10
453.4949289544
 20
496.4116776179
 30
0.0
 10
453.5751901922
 20
496.2063787241
 30
0.0
 10
453.5751901922
 20
496.0587468455
 30
0.0
  0
SPLINE
  5
420
100
AcDbEntity
  8
0
100
AcDbSpline
 62
3
  6
CONTINUOUS
 70
0
 71
3
 72
9
 73
5
 74
0
 42
0.0000001
 43
0.0000001
 44
0.0000000001
 40
0.0
 40
0.0
 40
0.0
 40
0.0
 40
0.2221267573
 40
1.0
 40
1.0
 40
1.0
 40
1.0
 10
456.1632010114
 20
495.5494720625
 30
0.0
 10
456.2030897151
 20
495.5358293224
 30
0.0
 10
456.365782486
 20
495.4297878816
 30
0.0
 10
456.4460437238
 20
495.2244889877
 30
0.0
 10
456.4460437238
 20
495.0768571092
 30
0.0
  0
SPLINE
  5
421
100
AcDbEntity
  8
0
100
AcDbSpline
 62
3
  6
CONTINUOUS
 70
0
 71
3
 72
9
 73
5
 74
0
 42
0.0000001
 43
0.0000001
 44
0.0000000001
 40
0.0
 40
0.0
 40
0.0
 40
0.0
 40
0.2221267573
 40
1.0
 40
1.0
 40
1.0
 40
1.0
 10
459.2461865773
 20
494.4950288974
 30
0.0
 10
459.2860752811
 20
494.4813861572
 30
0.0
 10
459.448768052
 20
494.3753447164
 30
0.0
 10
459.5290292898
 20
494.1700458226
 30
0.0
 10
459.5290292898
 20
494.022413944
 30
0.0
  0
SPLINE
  5
422
100
AcDbEntity
  8
0
100
AcDbSpline
 62
3
  6
CONTINUOUS
 70
0
 71
3
 72
9
 73
5
 74
0
 42
0.0000001
 43
0.0000001
 44
0.0000000001
 40
0.0
 40
0.0
 40
0.0
 40
0.0
 40
0.285223563
 40
1.0
 40
1.0
 40
1.0
 40
1.0
 10
424.3999644005
 20
517.3511609066
 30
0.0
 10
424.3999644005
 20
517.3097615418
 30
0.0
 10
424.3890340117
 20
517.1662910221
 30
0.0
 10
424.3220123069
 20
517.0168457328
 30
0.0
 10
424.2387516463
 20
516.9549486489
 30
0.0
  0
SPLINE
  5
423
100
AcDbEntity
  8
0
100
AcDbSpline
 62
3
  6
CONTINUOUS
 70
0
 71
3
 72
9
 73
5
 74
0
 42
0.0000001
 43
0.0000001
 44
0.0000000001
 40
0.0
 40
0.0
 40
0.0
 40
0.0
 40
0.5033999641
 40
1.0
 40
1.0
 40
1.0
 40
1.0
 10
424.2387516463
 20
516.9549486489
 30
0.0
 10
424.22714533
 20
516.9463203588
 30
0.0
 10
424.2027988818
 20
516.930837098
 30
0.0
 10
424.1763230118
 20
516.9193374083
 30
0.0
 10
424.1628262993
 20
516.9147135164
 30
0.0
  0
SPLINE
  5
424
100
AcDbEntity
  8
0
100
AcDbSpline
 62
3
  6
CONTINUOUS
 70
0
 71
3
 72
9
 73
5
 74
0
 42
0.0000001
 43
0.0000001
 44
0.0000000001
 40
0.0
 40
0.0
 40
0.0
 40
0.0
 40
0.285223563
 40
1.0
 40
1.0
 40
1.0
 40
1.0
 10
424.3999644005
 20
482.5637400851
 30
0.0
 10
424.3999644005
 20
482.5223407203
 30
0.0
 10
424.3890340117
 20
482.3788702006
 30
0.0
 10
424.3220123069
 20
482.2294249113
 30
0.0
 10
424.2387516463
 20
482.1675278274
 30
0.0
  0
SPLINE
  5
425
100
AcDbEntity
  8
0
100
AcDbSpline
 62
3
  6
CONTINUOUS
 70
0
 71
3
 72
9
 73
5
 74
0
 42
0.0000001
 43
0.0000001
 44
0.0000000001
 40
0.0
 40
0.0
 40
0.0
 40
0.0
 40
0.5033999641
 40
1.0
 40
1.0
 40
1.0
 40
1.0
 10
424.2387516463
 20
482.1675278274
 30
0.0
 10
424.22714533
 20
482.1588995373
 30
0.0
 10
424.2027988818
 20
482.1434162765
 30
0.0
 10
424.1763230118
 20
482.1319165868
 30
0.0
 10
424.1628262993
 20
482.1272926949
 30
0.0
  0
SPLINE
  5
426
100
AcDbEntity
  8
0
100
AcDbSpline
 62
3
  6
CONTINUOUS
 70
0
 71
3
 72
9
 73
5
 74
0
 42
0.0000001
 43
0.0000001
 44
0.0000000001
 40
0.0
 40
0.0
 40
0.0
 40
0.0
 40
0.2965276189
 40
1.0
 40
1.0
 40
1.0
 40
1.0
 10
450.0679405575
 20
497.2582968682
 30
0.0
 10
450.0679405575
 20
497.2909821637
 30
0.0
 10
450.0765218366
 20
497.3991343607
 30
0.0
 10
450.1474169521
 20
497.5147833073
 30
0.0
 10
450.2208106305
 20
497.5398044078
 30
0.0
  0
SPLINE
  5
427
100
AcDbEntity
  8
0
100
AcDbSpline
 62
3
  6
CONTINUOUS
 70
0
 71
3
 72
9
 73
5
 74
0
 42
0.0000001
 43
0.0000001
 44
0.0000000001
 40
0.0
 40
0.0
 40
0.0
 40
0.0
 40
0.2965276189
 40
1.0
 40
1.0
 40
1.0
 40
1.0
 10
444.0858171887
 20
499.3043035602
 30
0.0
 10
444.0858171887
 20
499.3369888557
 30
0.0
 10
444.0943984678
 20
499.4451410527
 30
0.0
 10
444.1652935833
 20
499.5607899993
 30
0.0
 10
444.2386872617
 20
499.5858110998
 30
0.0
  0
SPLINE
  5
428
100
AcDbEntity
  8
0
100
AcDbSpline
 62
3
  6
CONTINUOUS
 70
0
 71
3
 72
9
 73
5
 74
0
 42
0.0000001
 43
0.0000001
 44
0.0000000001
 40
0.0
 40
0.0
 40
0.0
 40
0.0
 40
0.2965276189
 40
1.0
 40
1.0
 40
1.0
 40
1.0
 10
452.5145300204
 20
496.4215139895
 30
0.0
 10
452.5145300204
 20
496.4541992849
 30
0.0
 10
452.5231112995
 20
496.5623514819
 30
0.0
 10
452.5940064151
 20
496.6780004285
 30
0.0
 10
452.6674000934
 20
496.7030215291
 30
0.0
  0
SPLINE
  5
429
100
AcDbEntity
  8
0
100
AcDbSpline
 62
3
  6
CONTINUOUS
 70
0
 71
3
 72
9
 73
5
 74
0
 42
0.0000001
 43
0.0000001
 44
0.0000000001
 40
0.0
 40
0.0
 40
0.0
 40
0.0
 40
0.4967777653
 40
1.0
 40
1.0
 40
1.0
 40
1.0
 10
431.2757357325
 20
479.6715632282
 30
0.0
 10
431.2670468234
 20
479.6686010376
 30
0.0
 10
431.2490606531
 20
479.6640108762
 30
0.0
 10
431.2305962131
 20
479.6621912339
 30
0.0
 10
431.2213005182
 20
479.6619414564
 30
0.0
  0
SPLINE
  5
42A
100
AcDbEntity
  8
0
100
AcDbSpline
 62
3
  6
CONTINUOUS
 70
0
 71
3
 72
9
 73
5
 74
0
 42
0.0000001
 43
0.0000001
 44
0.0000000001
 40
0.0
 40
0.0
 40
0.0
 40
0.0
 40
0.4901017561
 40
1.0
 40
1.0
 40
1.0
 40
1.0
 10
431.2213005182
 20
479.6619414564
 30
0.0
 10
431.2087604639
 20
479.6616045022
 30
0.0
 10
431.1830610794
 20
479.6633913529
 30
0.0
 10
431.1581120743
 20
479.6697080242
 30
0.0
 10
431.145763093
 20
479.6739316246
 30
0.0
  0
SPLINE
  5
42B
100
AcDbEntity
  8
0
100
AcDbSpline
 62
3
  6
CONTINUOUS
 70
0
 71
3
 72
9
 73
5
 74
0
 42
0.0000001
 43
0.0000001
 44
0.0000000001
 40
0.0
 40
0.0
 40
0.0
 40
0.0
 40
0.2965276189
 40
1.0
 40
1.0
 40
1.0
 40
1.0
 10
461.1270906153
 20
493.4758447804
 30
0.0
 10
461.1270906153
 20
493.5085300759
 30
0.0
 10
461.1356718944
 20
493.6166822729
 30
0.0
 10
461.2065670099
 20
493.7323312195
 30
0.0
 10
461.2799606883
 20
493.75735232
 30
0.0
  0
SPLINE
  5
42C
100
AcDbEntity
  8
0
100
AcDbSpline
 62
3
  6
CONTINUOUS
 70
0
 71
3
 72
9
 73
5
 74
0
 42
0.0000001
 43
0.0000001
 44
0.0000000001
 40
0.0
 40
0.0
 40
0.0
 40
0.0
 40
0.2965276189
 40
1.0
 40
1.0
 40
1.0
 40
1.0
 10
441.6392277258
 20
500.141086439
 30
0.0
 10
441.6392277258
 20
500.1737717345
 30
0.0
 10
441.6478090049
 20
500.2819239315
 30
0.0
 10
441.7187041204
 20
500.397572878
 30
0.0
 10
441.7920977988
 20
500.4225939786
 30
0.0
  0
SPLINE
  5
42D
100
AcDbEntity
  8
0
100
AcDbSpline
 62
3
  6
CONTINUOUS
 70
0
 71
3
 72
9
 73
5
 74
0
 42
0.0000001
 43
0.0000001
 44
0.0000000001
 40
0.0
 40
0.0
 40
0.0
 40
0.0
 40
0.4967777653
 40
1.0
 40
1.0
 40
1.0
 40
1.0
 10
434.3587212985
 20
478.6171200631
 30
0.0
 10
434.3500323894
 20
478.6141578724
 30
0.0
 10
434.3320462191
 20
478.6095677111
 30
0.0
 10
434.3135817791
 20
478.6077480688
 30
0.0
 10
434.3042860842
 20
478.6074982913
 30
0.0
  0
SPLINE
  5
42E
100
AcDbEntity
  8
0
100
AcDbSpline
 62
3
  6
CONTINUOUS
 70
0
 71
3
 72
9
 73
5
 74
0
 42
0.0000001
 43
0.0000001
 44
0.0000000001
 40
0.0
 40
0.0
 40
0.0
 40
0.0
 40
0.4901017561
 40
1.0
 40
1.0
 40
1.0
 40
1.0
 10
434.3042860842
 20
478.6074982913
 30
0.0
 10
434.2917460299
 20
478.6071613371
 30
0.0
 10
434.2660466454
 20
478.6089481878
 30
0.0
 10
434.2410976403
 20
478.6152648591
 30
0.0
 10
434.228748659
 20
478.6194884594
 30
0.0
  0
SPLINE
  5
42F
100
AcDbEntity
  8
0
100
AcDbSpline
 62
3
  6
CONTINUOUS
 70
0
 71
3
 72
9
 73
5
 74
0
 42
0.0000001
 43
0.0000001
 44
0.0000000001
 40
0.0
 40
0.0
 40
0.0
 40
0.0
 40
0.2965276189
 40
1.0
 40
1.0
 40
1.0
 40
1.0
 10
455.1732515177
 20
495.5121776819
 30
0.0
 10
455.1732515177
 20
495.5448629774
 30
0.0
 10
455.1818327968
 20
495.6530151744
 30
0.0
 10
455.2527279123
 20
495.768664121
 30
0.0
 10
455.3261215907
 20
495.7936852215
 30
0.0
  0
SPLINE
  5
430
100
AcDbEntity
  8
0
100
AcDbSpline
 62
3
  6
CONTINUOUS
 70
0
 71
3
 72
9
 73
5
 74
0
 42
0.0000001
 43
0.0000001
 44
0.0000000001
 40
0.0
 40
0.0
 40
0.0
 40
0.0
 40
0.2965276189
 40
1.0
 40
1.0
 40
1.0
 40
1.0
 10
458.0441050493
 20
494.5302879456
 30
0.0
 10
458.0441050493
 20
494.562973241
 30
0.0
 10
458.0526863284
 20
494.671125438
 30
0.0
 10
458.1235814439
 20
494.7867743846
 30
0.0
 10
458.1969751223
 20
494.8117954852
 30
0.0
  0
SPLINE
  5
431
100
AcDbEntity
  8
0
100
AcDbSpline
 62
3
  6
CONTINUOUS
 70
0
 71
3
 72
9
 73
5
 74
0
 42
0.0000001
 43
0.0000001
 44
0.0000000001
 40
0.0
 40
0.0
 40
0.0
 40
0.0
 40
0.296578672
 40
1.0
 40
1.0
 40
1.0
 40
1.0
 10
423.5231519918
 20
519.3049074249
 30
0.0
 10
423.5231519918
 20
519.3556004664
 30
0.0
 10
423.5363934901
 20
519.5233663829
 30
0.0
 10
423.646546919
 20
519.7023870925
 30
0.0
 10
423.7602900929
 20
519.7413548152
 30
0.0
  0
SPLINE
  5
432
100
AcDbEntity
  8
0
100
AcDbSpline
 62
3
  6
CONTINUOUS
 70
0
 71
3
 72
9
 73
5
 74
0
 42
0.0000001
 43
0.0000001
 44
0.0000000001
 40
0.0
 40
0.0
 40
0.0
 40
0.0
 40
0.2965276189
 40
1.0
 40
1.0
 40
1.0
 40
1.0
 10
438.9805062285
 20
501.0504227466
 30
0.0
 10
438.9805062285
 20
501.083108042
 30
0.0
 10
438.9890875076
 20
501.191260239
 30
0.0
 10
439.0599826231
 20
501.3069091856
 30
0.0
 10
439.1333763015
 20
501.3319302862
 30
0.0
  0
SPLINE
  5
433
100
AcDbEntity
  8
0
100
AcDbSpline
 62
3
  6
CONTINUOUS
 70
0
 71
3
 72
9
 73
5
 74
0
 42
0.0000001
 43
0.0000001
 44
0.0000000001
 40
0.0
 40
0.0
 40
0.0
 40
0.0
 40
0.296578672
 40
1.0
 40
1.0
 40
1.0
 40
1.0
 10
423.5231519918
 20
483.3898554585
 30
0.0
 10
423.5231519918
 20
483.4405485
 30
0.0
 10
423.5363934901
 20
483.6083144165
 30
0.0
 10
423.646546919
 20
483.787335126
 30
0.0
 10
423.7602900929
 20
483.8263028487
 30
0.0
  0
SPLINE
  5
434
100
AcDbEntity
  8
0
100
AcDbSpline
 62
3
  6
CONTINUOUS
 70
0
 71
3
 72
9
 73
5
 74
0
 42
0.0000001
 43
0.0000001
 44
0.0000000001
 40
0.0
 40
0.0
 40
0.0
 40
0.0
 40
0.2965276189
 40
1.0
 40
1.0
 40
1.0
 40
1.0
 10
436.1096526969
 20
502.0323124829
 30
0.0
 10
436.1096526969
 20
502.0649977784
 30
0.0
 10
436.118233976
 20
502.1731499754
 30
0.0
 10
436.1891290915
 20
502.288798922
 30
0.0
 10
436.2625227699
 20
502.3138200225
 30
0.0
  0
SPLINE
  5
435
100
AcDbEntity
  8
0
100
AcDbSpline
 62
3
  6
CONTINUOUS
 70
0
 71
3
 72
9
 73
5
 74
0
 42
0.0000001
 43
0.0000001
 44
0.0000000001
 40
0.0
 40
0.0
 40
0.0
 40
0.0
 40
0.2965276189
 40
1.0
 40
1.0
 40
1.0
 40
1.0
 10
433.0266671309
 20
503.0867556481
 30
0.0
 10
433.0266671309
 20
503.1194409435
 30
0.0
 10
433.03524841
 20
503.2275931405
 30
0.0
 10
433.1061435255
 20
503.3432420871
 30
0.0
 10
433.1795372039
 20
503.3682631877
 30
0.0
  0
SPLINE
  5
436
100
AcDbEntity
  8
0
100
AcDbSpline
 62
3
  6
CONTINUOUS
 70
0
 71
3
 72
9
 73
5
 74
0
 42
0.0000001
 43
0.0000001
 44
0.0000000001
 40
0.0
 40
0.0
 40
0.0
 40
0.0
 40
0.2231932267
 40
1.0
 40
1.0
 40
1.0
 40
1.0
 10
424.1628262993
 20
482.1272926949
 30
0.0
 10
424.130102046
 20
482.1160815638
 30
0.0
 10
423.9724078836
 20
482.0942335289
 30
0.0
 10
423.8230120885
 20
482.1947206997
 30
0.0
 10
423.742355094
 20
482.284101152
 30
0.0
  0
SPLINE
  5
437
100
AcDbEntity
  8
0
100
AcDbSpline
 62
3
  6
CONTINUOUS
 70
0
 71
3
 72
8
 73
4
 74
0
 42
0.0000001
 43
0.0000001
 44
0.0000000001
 40
0.0
 40
0.0
 40
0.0
 40
0.0
 40
1.0
 40
1.0
 40
1.0
 40
1.0
 10
423.742355094
 20
482.284101152
 30
0.0
 10
423.7080979807
 20
482.3220633435
 30
0.0
 10
423.6778361986
 20
482.3638825418
 30
0.0
 10
423.6515708475
 20
482.4077551885
 30
0.0
  0
SPLINE
  5
438
100
AcDbEntity
  8
0
100
AcDbSpline
 62
3
  6
CONTINUOUS
 70
0
 71
3
 72
8
 73
4
 74
0
 42
0.0000001
 43
0.0000001
 44
0.0000000001
 40
0.0
 40
0.0
 40
0.0
 40
0.0
 40
1.0
 40
1.0
 40
1.0
 40
1.0
 10
423.6515708475
 20
482.4077551885
 30
0.0
 10
423.5704788125
 20
482.5432082498
 30
0.0
 10
423.5231519918
 20
482.7057559659
 30
0.0
 10
423.5231519918
 20
482.8636275908
 30
0.0
  0
SPLINE
  5
439
100
AcDbEntity
  8
0
100
AcDbSpline
 62
3
  6
CONTINUOUS
 70
0
 71
3
 72
9
 73
5
 74
0
 42
0.0000001
 43
0.0000001
 44
0.0000000001
 40
0.0
 40
0.0
 40
0.0
 40
0.0
 40
0.2231932267
 40
1.0
 40
1.0
 40
1.0
 40
1.0
 10
424.1628262993
 20
516.9147135164
 30
0.0
 10
424.130102046
 20
516.9035023853
 30
0.0
 10
423.9724078836
 20
516.8816543504
 30
0.0
 10
423.8230120885
 20
516.9821415211
 30
0.0
 10
423.742355094
 20
517.0715219735
 30
0.0
  0
SPLINE
  5
43A
100
AcDbEntity
  8
0
100
AcDbSpline
 62
3
  6
CONTINUOUS
 70
0
 71
3
 72
8
 73
4
 74
0
 42
0.0000001
 43
0.0000001
 44
0.0000000001
 40
0.0
 40
0.0
 40
0.0
 40
0.0
 40
1.0
 40
1.0
 40
1.0
 40
1.0
 10
423.742355094
 20
517.0715219735
 30
0.0
 10
423.7080979807
 20
517.109484165
 30
0.0
 10
423.6778361986
 20
517.1513033633
 30
0.0
 10
423.6515708475
 20
517.19517601
 30
0.0
  0
SPLINE
  5
43B
100
AcDbEntity
  8
0
100
AcDbSpline
 62
3
  6
CONTINUOUS
 70
0
 71
3
 72
8
 73
4
 74
0
 42
0.0000001
 43
0.0000001
 44
0.0000000001
 40
0.0
 40
0.0
 40
0.0
 40
0.0
 40
1.0
 40
1.0
 40
1.0
 40
1.0
 10
423.6515708475
 20
517.19517601
 30
0.0
 10
423.5704788125
 20
517.3306290713
 30
0.0
 10
423.5231519918
 20
517.4931767874
 30
0.0
 10
423.5231519918
 20
517.6510484123
 30
0.0
  0
SPLINE
  5
43C
100
AcDbEntity
  8
0
100
AcDbSpline
 62
3
  6
CONTINUOUS
 70
0
 71
3
 72
9
 73
5
 74
0
 42
0.0000001
 43
0.0000001
 44
0.0000000001
 40
0.0
 40
0.0
 40
0.0
 40
0.0
 40
0.2205930796
 40
1.0
 40
1.0
 40
1.0
 40
1.0
 10
433.3095098434
 20
478.9338866509
 30
0.0
 10
433.2835944268
 20
478.9427502454
 30
0.0
 10
433.1730304541
 20
479.0026540978
 30
0.0
 10
433.0986715834
 20
479.1150410017
 30
0.0
 10
433.0645608691
 20
479.2056026583
 30
0.0
  0
SPLINE
  5
43D
100
AcDbEntity
  8
0
100
AcDbSpline
 62
3
  6
CONTINUOUS
 70
0
 71
3
 72
8
 73
4
 74
0
 42
0.0000001
 43
0.0000001
 44
0.0000000001
 40
0.0
 40
0.0
 40
0.0
 40
0.0
 40
1.0
 40
1.0
 40
1.0
 40
1.0
 10
433.0370854329
 20
479.3025546831
 30
0.0
 10
433.0304221492
 20
479.3367338016
 30
0.0
 10
433.0266671309
 20
479.3716790326
 30
0.0
 10
433.0266671309
 20
479.4065016043
 30
0.0
  0
SPLINE
  5
43E
100
AcDbEntity
  8
0
100
AcDbSpline
 62
3
  6
CONTINUOUS
 70
0
 71
3
 72
9
 73
5
 74
0
 42
0.0000001
 43
0.0000001
 44
0.0000000001
 40
0.0
 40
0.0
 40
0.0
 40
0.0
 40
0.2965276189
 40
1.0
 40
1.0
 40
1.0
 40
1.0
 10
429.7315495306
 20
504.213752242
 30
0.0
 10
429.7315495306
 20
504.2464375374
 30
0.0
 10
429.7401308097
 20
504.3545897344
 30
0.0
 10
429.8110259252
 20
504.470238681
 30
0.0
 10
429.8844196036
 20
504.4952597816
 30
0.0
  0
SPLINE
  5
43F
100
AcDbEntity
  8
0
100
AcDbSpline
 62
3
  6
CONTINUOUS
 70
0
 71
3
 72
9
 73
5
 74
0
 42
0.0000001
 43
0.0000001
 44
0.0000000001
 40
0.0
 40
0.0
 40
0.0
 40
0.0
 40
0.2205930796
 40
1.0
 40
1.0
 40
1.0
 40
1.0
 10
430.0143922431
 20
480.0608832448
 30
0.0
 10
429.9884768265
 20
480.0697468393
 30
0.0
 10
429.8779128537
 20
480.1296506917
 30
0.0
 10
429.8035539831
 20
480.2420375956
 30
0.0
 10
429.7694432688
 20
480.3325992523
 30
0.0
  0
SPLINE
  5
440
100
AcDbEntity
  8
0
100
AcDbSpline
 62
3
  6
CONTINUOUS
 70
0
 71
3
 72
8
 73
4
 74
0
 42
0.0000001
 43
0.0000001
 44
0.0000000001
 40
0.0
 40
0.0
 40
0.0
 40
0.0
 40
1.0
 40
1.0
 40
1.0
 40
1.0
 10
429.7419678326
 20
480.429551277
 30
0.0
 10
429.7353045489
 20
480.4637303955
 30
0.0
 10
429.7315495306
 20
480.4986756266
 30
0.0
 10
429.7315495306
 20
480.5334981982
 30
0.0
  0
SPLINE
  5
441
100
AcDbEntity
  8
0
100
AcDbSpline
 62
3
  6
CONTINUOUS
 70
0
 71
3
 72
9
 73
5
 74
0
 42
0.0000001
 43
0.0000001
 44
0.0000000001
 40
0.0
 40
0.0
 40
0.0
 40
0.0
 40
0.2965276189
 40
1.0
 40
1.0
 40
1.0
 40
1.0
 10
447.4092190603
 20
498.1676331758
 30
0.0
 10
447.4092190603
 20
498.2003184712
 30
0.0
 10
447.4178003394
 20
498.3084706682
 30
0.0
 10
447.4886954549
 20
498.4241196148
 30
0.0
 10
447.5620891332
 20
498.4491407154
 30
0.0
  0
SPLINE
  5
442
100
AcDbEntity
  8
0
100
AcDbSpline
 62
3
  6
CONTINUOUS
 70
0
 71
3
 72
9
 73
5
 74
0
 42
0.0000001
 43
0.0000001
 44
0.0000000001
 40
0.0
 40
0.0
 40
0.0
 40
0.0
 40
0.4967777653
 40
1.0
 40
1.0
 40
1.0
 40
1.0
 10
350.5470387544
 20
469.2149458065
 30
0.0
 10
350.5557276635
 20
469.2179079972
 30
0.0
 10
350.5737138338
 20
469.2224981585
 30
0.0
 10
350.5921782738
 20
469.2243178008
 30
0.0
 10
350.6014739687
 20
469.2245675783
 30
0.0
  0
SPLINE
  5
443
100
AcDbEntity
  8
0
100
AcDbSpline
 62
3
  6
CONTINUOUS
 70
0
 71
3
 72
9
 73
5
 74
0
 42
0.0000001
 43
0.0000001
 44
0.0000000001
 40
0.0
 40
0.0
 40
0.0
 40
0.0
 40
0.4956302893
 40
1.0
 40
1.0
 40
1.0
 40
1.0
 10
350.6014739687
 20
469.2245675783
 30
0.0
 10
350.6077443232
 20
469.2247360642
 30
0.0
 10
350.6204185275
 20
469.2244662653
 30
0.0
 10
350.6330116638
 20
469.2230250742
 30
0.0
 10
350.6393150702
 20
469.2220187955
 30
0.0
  0
SPLINE
  5
444
100
AcDbEntity
  8
0
100
AcDbSpline
 62
3
  6
CONTINUOUS
 70
0
 71
3
 72
9
 73
5
 74
0
 42
0.0000001
 43
0.0000001
 44
0.0000000001
 40
0.0
 40
0.0
 40
0.0
 40
0.0
 40
0.4945603733
 40
1.0
 40
1.0
 40
1.0
 40
1.0
 10
350.6393150702
 20
469.2220187955
 30
0.0
 10
350.6456470831
 20
469.2210079501
 30
0.0
 10
350.6583648047
 20
469.2183919469
 30
0.0
 10
350.6708107875
 20
469.2146981425
 30
0.0
 10
350.677011394
 20
469.2125774102
 30
0.0
  0
SPLINE
  5
445
100
AcDbEntity
  8
0
100
AcDbSpline
 62
3
  6
CONTINUOUS
 70
0
 71
3
 72
9
 73
5
 74
0
 42
0.0000001
 43
0.0000001
 44
0.0000000001
 40
0.0
 40
0.0
 40
0.0
 40
0.0
 40
0.4967777653
 40
1.0
 40
1.0
 40
1.0
 40
1.0
 10
352.9936282174
 20
468.3781629278
 30
0.0
 10
353.0023171264
 20
468.3811251184
 30
0.0
 10
353.0203032967
 20
468.3857152797
 30
0.0
 10
353.0387677367
 20
468.387534922
 30
0.0
 10
353.0480634316
 20
468.3877846996
 30
0.0
  0
SPLINE
  5
446
100
AcDbEntity
  8
0
100
AcDbSpline
 62
3
  6
CONTINUOUS
 70
0
 71
3
 72
9
 73
5
 74
0
 42
0.0000001
 43
0.0000001
 44
0.0000000001
 40
0.0
 40
0.0
 40
0.0
 40
0.0
 40
0.4956302893
 40
1.0
 40
1.0
 40
1.0
 40
1.0
 10
353.0480634316
 20
468.3877846996
 30
0.0
 10
353.0543337861
 20
468.3879531855
 30
0.0
 10
353.0670079904
 20
468.3876833865
 30
0.0
 10
353.0796011268
 20
468.3862421954
 30
0.0
 10
353.0859045331
 20
468.3852359168
 30
0.0
  0
SPLINE
  5
447
100
AcDbEntity
  8
0
100
AcDbSpline
 62
3
  6
CONTINUOUS
 70
0
 71
3
 72
9
 73
5
 74
0
 42
0.0000001
 43
0.0000001
 44
0.0000000001
 40
0.0
 40
0.0
 40
0.0
 40
0.0
 40
0.4945603733
 40
1.0
 40
1.0
 40
1.0
 40
1.0
 10
353.0859045331
 20
468.3852359168
 30
0.0
 10
353.092236546
 20
468.3842250714
 30
0.0
 10
353.1049542676
 20
468.3816090681
 30
0.0
 10
353.1174002504
 20
468.3779152637
 30
0.0
 10
353.1236008569
 20
468.3757945314
 30
0.0
  0
SPLINE
  5
448
100
AcDbEntity
  8
0
100
AcDbSpline
 62
3
  6
CONTINUOUS
 70
0
 71
3
 72
9
 73
5
 74
0
 42
0.0000001
 43
0.0000001
 44
0.0000000001
 40
0.0
 40
0.0
 40
0.0
 40
0.0
 40
0.4967777653
 40
1.0
 40
1.0
 40
1.0
 40
1.0
 10
347.8883172572
 20
470.1242821141
 30
0.0
 10
347.8970061663
 20
470.1272443047
 30
0.0
 10
347.9149923366
 20
470.1318344661
 30
0.0
 10
347.9334567766
 20
470.1336541084
 30
0.0
 10
347.9427524715
 20
470.1339038859
 30
0.0
  0
SPLINE
  5
449
100
AcDbEntity
  8
0
100
AcDbSpline
 62
3
  6
CONTINUOUS
 70
0
 71
3
 72
9
 73
5
 74
0
 42
0.0000001
 43
0.0000001
 44
0.0000000001
 40
0.0
 40
0.0
 40
0.0
 40
0.0
 40
0.4956302893
 40
1.0
 40
1.0
 40
1.0
 40
1.0
 10
347.9427524715
 20
470.1339038859
 30
0.0
 10
347.9490228259
 20
470.1340723718
 30
0.0
 10
347.9616970303
 20
470.1338025728
 30
0.0
 10
347.9742901666
 20
470.1323613817
 30
0.0
 10
347.9805935729
 20
470.1313551031
 30
0.0
  0
SPLINE
  5
44A
100
AcDbEntity
  8
0
100
AcDbSpline
 62
3
  6
CONTINUOUS
 70
0
 71
3
 72
9
 73
5
 74
0
 42
0.0000001
 43
0.0000001
 44
0.0000000001
 40
0.0
 40
0.0
 40
0.0
 40
0.0
 40
0.4945603733
 40
1.0
 40
1.0
 40
1.0
 40
1.0
 10
347.9805935729
 20
470.1313551031
 30
0.0
 10
347.9869255858
 20
470.1303442577
 30
0.0
 10
347.9996433074
 20
470.1277282544
 30
0.0
 10
348.0120892903
 20
470.12403445
 30
0.0
 10
348.0182898967
 20
470.1219137177
 30
0.0
  0
SPLINE
  5
44B
100
AcDbEntity
  8
0
100
AcDbSpline
 62
3
  6
CONTINUOUS
 70
0
 71
3
 72
9
 73
5
 74
0
 42
0.0000001
 43
0.0000001
 44
0.0000000001
 40
0.0
 40
0.0
 40
0.0
 40
0.0
 40
0.4967777653
 40
1.0
 40
1.0
 40
1.0
 40
1.0
 10
345.0174637256
 20
471.1061718504
 30
0.0
 10
345.0261526346
 20
471.1091340411
 30
0.0
 10
345.044138805
 20
471.1137242024
 30
0.0
 10
345.0626032449
 20
471.1155438447
 30
0.0
 10
345.0718989398
 20
471.1157936222
 30
0.0
  0
SPLINE
  5
44C
100
AcDbEntity
  8
0
100
AcDbSpline
 62
3
  6
CONTINUOUS
 70
0
 71
3
 72
9
 73
5
 74
0
 42
0.0000001
 43
0.0000001
 44
0.0000000001
 40
0.0
 40
0.0
 40
0.0
 40
0.0
 40
0.4956302893
 40
1.0
 40
1.0
 40
1.0
 40
1.0
 10
345.0718989398
 20
471.1157936222
 30
0.0
 10
345.0781692943
 20
471.1159621081
 30
0.0
 10
345.0908434986
 20
471.1156923092
 30
0.0
 10
345.103436635
 20
471.1142511181
 30
0.0
 10
345.1097400413
 20
471.1132448394
 30
0.0
  0
SPLINE
  5
44D
100
AcDbEntity
  8
0
100
AcDbSpline
 62
3
  6
CONTINUOUS
 70
0
 71
3
 72
9
 73
5
 74
0
 42
0.0000001
 43
0.0000001
 44
0.0000000001
 40
0.0
 40
0.0
 40
0.0
 40
0.0
 40
0.4945603733
 40
1.0
 40
1.0
 40
1.0
 40
1.0
 10
345.1097400413
 20
471.1132448394
 30
0.0
 10
345.1160720542
 20
471.112233994
 30
0.0
 10
345.1287897758
 20
471.1096179908
 30
0.0
 10
345.1412357586
 20
471.1059241864
 30
0.0
 10
345.1474363651
 20
471.1038034541
 30
0.0
  0
SPLINE
  5
44E
100
AcDbEntity
  8
0
100
AcDbSpline
 62
3
  6
CONTINUOUS
 70
0
 71
3
 72
9
 73
5
 74
0
 42
0.0000001
 43
0.0000001
 44
0.0000000001
 40
0.0
 40
0.0
 40
0.0
 40
0.0
 40
0.4967777653
 40
1.0
 40
1.0
 40
1.0
 40
1.0
 10
341.9344781596
 20
472.1606150156
 30
0.0
 10
341.9431670687
 20
472.1635772062
 30
0.0
 10
341.961153239
 20
472.1681673676
 30
0.0
 10
341.979617679
 20
472.1699870099
 30
0.0
 10
341.9889133739
 20
472.1702367874
 30
0.0
  0
SPLINE
  5
44F
100
AcDbEntity
  8
0
100
AcDbSpline
 62
3
  6
CONTINUOUS
 70
0
 71
3
 72
9
 73
5
 74
0
 42
0.0000001
 43
0.0000001
 44
0.0000000001
 40
0.0
 40
0.0
 40
0.0
 40
0.0
 40
0.4956302893
 40
1.0
 40
1.0
 40
1.0
 40
1.0
 10
341.9889133739
 20
472.1702367874
 30
0.0
 10
341.9951837284
 20
472.1704052733
 30
0.0
 10
342.0078579327
 20
472.1701354743
 30
0.0
 10
342.020451069
 20
472.1686942832
 30
0.0
 10
342.0267544754
 20
472.1676880046
 30
0.0
  0
SPLINE
  5
450
100
AcDbEntity
  8
0
100
AcDbSpline
 62
3
  6
CONTINUOUS
 70
0
 71
3
 72
9
 73
5
 74
0
 42
0.0000001
 43
0.0000001
 44
0.0000000001
 40
0.0
 40
0.0
 40
0.0
 40
0.0
 40
0.4945603734
 40
1.0
 40
1.0
 40
1.0
 40
1.0
 10
342.0267544754
 20
472.1676880046
 30
0.0
 10
342.0330864882
 20
472.1666771592
 30
0.0
 10
342.0458042098
 20
472.1640611559
 30
0.0
 10
342.0582501927
 20
472.1603673515
 30
0.0
 10
342.0644507991
 20
472.1582466192
 30
0.0
  0
SPLINE
  5
451
100
AcDbEntity
  8
0
100
AcDbSpline
 62
3
  6
CONTINUOUS
 70
0
 71
3
 72
9
 73
5
 74
0
 42
0.0000001
 43
0.0000001
 44
0.0000000001
 40
0.0
 40
0.0
 40
0.0
 40
0.0
 40
0.4967777653
 40
1.0
 40
1.0
 40
1.0
 40
1.0
 10
338.6393605593
 20
473.2876116095
 30
0.0
 10
338.6480494683
 20
473.2905738002
 30
0.0
 10
338.6660356387
 20
473.2951639615
 30
0.0
 10
338.6845000786
 20
473.2969836038
 30
0.0
 10
338.6937957735
 20
473.2972333813
 30
0.0
  0
SPLINE
  5
452
100
AcDbEntity
  8
0
100
AcDbSpline
 62
3
  6
CONTINUOUS
 70
0
 71
3
 72
9
 73
5
 74
0
 42
0.0000001
 43
0.0000001
 44
0.0000000001
 40
0.0
 40
0.0
 40
0.0
 40
0.0
 40
0.4956302893
 40
1.0
 40
1.0
 40
1.0
 40
1.0
 10
338.6937957735
 20
473.2972333813
 30
0.0
 10
338.700066128
 20
473.2974018672
 30
0.0
 10
338.7127403323
 20
473.2971320683
 30
0.0
 10
338.7253334687
 20
473.2956908772
 30
0.0
 10
338.731636875
 20
473.2946845985
 30
0.0
  0
SPLINE
  5
453
100
AcDbEntity
  8
0
100
AcDbSpline
 62
3
  6
CONTINUOUS
 70
0
 71
3
 72
9
 73
5
 74
0
 42
0.0000001
 43
0.0000001
 44
0.0000000001
 40
0.0
 40
0.0
 40
0.0
 40
0.0
 40
0.4945603733
 40
1.0
 40
1.0
 40
1.0
 40
1.0
 10
338.731636875
 20
473.2946845985
 30
0.0
 10
338.7379688879
 20
473.2936737531
 30
0.0
 10
338.7506866095
 20
473.2910577498
 30
0.0
 10
338.7631325923
 20
473.2873639455
 30
0.0
 10
338.7693331988
 20
473.2852432132
 30
0.0
  0
SPLINE
  5
454
100
AcDbEntity
  8
0
100
AcDbSpline
 62
3
  6
CONTINUOUS
 70
0
 71
3
 72
9
 73
5
 74
0
 42
0.0000001
 43
0.0000001
 44
0.0000000001
 40
0.0
 40
0.0
 40
0.0
 40
0.0
 40
0.4967777653
 40
1.0
 40
1.0
 40
1.0
 40
1.0
 10
361.4223410491
 20
465.495373357
 30
0.0
 10
361.4310299582
 20
465.4983355476
 30
0.0
 10
361.4490161285
 20
465.502925709
 30
0.0
 10
361.4674805685
 20
465.5047453513
 30
0.0
 10
361.4767762634
 20
465.5049951288
 30
0.0
  0
SPLINE
  5
455
100
AcDbEntity
  8
0
100
AcDbSpline
 62
3
  6
CONTINUOUS
 70
0
 71
3
 72
9
 73
5
 74
0
 42
0.0000001
 43
0.0000001
 44
0.0000000001
 40
0.0
 40
0.0
 40
0.0
 40
0.0
 40
0.4956302893
 40
1.0
 40
1.0
 40
1.0
 40
1.0
 10
361.4767762634
 20
465.5049951288
 30
0.0
 10
361.4830466179
 20
465.5051636147
 30
0.0
 10
361.4957208222
 20
465.5048938158
 30
0.0
 10
361.5083139585
 20
465.5034526247
 30
0.0
 10
361.5146173649
 20
465.502446346
 30
0.0
  0
SPLINE
  5
456
100
AcDbEntity
  8
0
100
AcDbSpline
 62
3
  6
CONTINUOUS
 70
0
 71
3
 72
9
 73
5
 74
0
 42
0.0000001
 43
0.0000001
 44
0.0000000001
 40
0.0
 40
0.0
 40
0.0
 40
0.0
 40
0.4945603733
 40
1.0
 40
1.0
 40
1.0
 40
1.0
 10
361.5146173649
 20
465.502446346
 30
0.0
 10
361.5209493777
 20
465.5014355006
 30
0.0
 10
361.5336670993
 20
465.4988194973
 30
0.0
 10
361.5461130822
 20
465.4951256929
 30
0.0
 10
361.5523136886
 20
465.4930049606
 30
0.0
  0
SPLINE
  5
457
100
AcDbEntity
  8
0
100
AcDbSpline
 62
3
  6
CONTINUOUS
 70
0
 71
3
 72
9
 73
5
 74
0
 42
0.0000001
 43
0.0000001
 44
0.0000000001
 40
0.0
 40
0.0
 40
0.0
 40
0.0
 40
0.4967777653
 40
1.0
 40
1.0
 40
1.0
 40
1.0
 10
364.0810625464
 20
464.5860370494
 30
0.0
 10
364.0897514554
 20
464.5889992401
 30
0.0
 10
364.1077376257
 20
464.5935894014
 30
0.0
 10
364.1262020657
 20
464.5954090437
 30
0.0
 10
364.1354977606
 20
464.5956588212
 30
0.0
  0
SPLINE
  5
458
100
AcDbEntity
  8
0
100
AcDbSpline
 62
3
  6
CONTINUOUS
 70
0
 71
3
 72
9
 73
5
 74
0
 42
0.0000001
 43
0.0000001
 44
0.0000000001
 40
0.0
 40
0.0
 40
0.0
 40
0.0
 40
0.4956302893
 40
1.0
 40
1.0
 40
1.0
 40
1.0
 10
364.1354977606
 20
464.5956588212
 30
0.0
 10
364.1417681151
 20
464.5958273071
 30
0.0
 10
364.1544423194
 20
464.5955575082
 30
0.0
 10
364.1670354558
 20
464.5941163171
 30
0.0
 10
364.1733388621
 20
464.5931100384
 30
0.0
  0
SPLINE
  5
459
100
AcDbEntity
  8
0
100
AcDbSpline
 62
3
  6
CONTINUOUS
 70
0
 71
3
 72
9
 73
5
 74
0
 42
0.0000001
 43
0.0000001
 44
0.0000000001
 40
0.0
 40
0.0
 40
0.0
 40
0.0
 40
0.4945603733
 40
1.0
 40
1.0
 40
1.0
 40
1.0
 10
364.1733388621
 20
464.5931100384
 30
0.0
 10
364.179670875
 20
464.592099193
 30
0.0
 10
364.1923885966
 20
464.5894831898
 30
0.0
 10
364.2048345794
 20
464.5857893854
 30
0.0
 10
364.2110351859
 20
464.5836686531
 30
0.0
  0
SPLINE
  5
45A
100
AcDbEntity
  8
0
100
AcDbSpline
 62
3
  6
CONTINUOUS
 70
0
 71
3
 72
9
 73
5
 74
0
 42
0.0000001
 43
0.0000001
 44
0.0000000001
 40
0.0
 40
0.0
 40
0.0
 40
0.0
 40
0.4967777653
 40
1.0
 40
1.0
 40
1.0
 40
1.0
 10
366.951916078
 20
463.6041473131
 30
0.0
 10
366.960604987
 20
463.6071095037
 30
0.0
 10
366.9785911574
 20
463.6116996651
 30
0.0
 10
366.9970555974
 20
463.6135193074
 30
0.0
 10
367.0063512922
 20
463.6137690849
 30
0.0
  0
SPLINE
  5
45B
100
AcDbEntity
  8
0
100
AcDbSpline
 62
3
  6
CONTINUOUS
 70
0
 71
3
 72
9
 73
5
 74
0
 42
0.0000001
 43
0.0000001
 44
0.0000000001
 40
0.0
 40
0.0
 40
0.0
 40
0.0
 40
0.4956302893
 40
1.0
 40
1.0
 40
1.0
 40
1.0
 10
367.0063512922
 20
463.6137690849
 30
0.0
 10
367.0126216467
 20
463.6139375708
 30
0.0
 10
367.025295851
 20
463.6136677719
 30
0.0
 10
367.0378889874
 20
463.6122265808
 30
0.0
 10
367.0441923937
 20
463.6112203021
 30
0.0
  0
SPLINE
  5
45C
100
AcDbEntity
  8
0
100
AcDbSpline
 62
3
  6
CONTINUOUS
 70
0
 71
3
 72
9
 73
5
 74
0
 42
0.0000001
 43
0.0000001
 44
0.0000000001
 40
0.0
 40
0.0
 40
0.0
 40
0.0
 40
0.4945603733
 40
1.0
 40
1.0
 40
1.0
 40
1.0
 10
367.0441923937
 20
463.6112203021
 30
0.0
 10
367.0505244066
 20
463.6102094567
 30
0.0
 10
367.0632421282
 20
463.6075934534
 30
0.0
 10
367.075688111
 20
463.603899649
 30
0.0
 10
367.0818887175
 20
463.6017789167
 30
0.0
  0
SPLINE
  5
45D
100
AcDbEntity
  8
0
100
AcDbSpline
 62
3
  6
CONTINUOUS
 70
0
 71
3
 72
9
 73
5
 74
0
 42
0.0000001
 43
0.0000001
 44
0.0000000001
 40
0.0
 40
0.0
 40
0.0
 40
0.0
 40
0.4967777653
 40
1.0
 40
1.0
 40
1.0
 40
1.0
 10
370.0349016439
 20
462.5497041479
 30
0.0
 10
370.043590553
 20
462.5526663386
 30
0.0
 10
370.0615767233
 20
462.5572564999
 30
0.0
 10
370.0800411633
 20
462.5590761422
 30
0.0
 10
370.0893368582
 20
462.5593259197
 30
0.0
  0
SPLINE
  5
45E
100
AcDbEntity
  8
0
100
AcDbSpline
 62
3
  6
CONTINUOUS
 70
0
 71
3
 72
9
 73
5
 74
0
 42
0.0000001
 43
0.0000001
 44
0.0000000001
 40
0.0
 40
0.0
 40
0.0
 40
0.0
 40
0.4956302893
 40
1.0
 40
1.0
 40
1.0
 40
1.0
 10
370.0893368582
 20
462.5593259197
 30
0.0
 10
370.0956072127
 20
462.5594944056
 30
0.0
 10
370.108281417
 20
462.5592246067
 30
0.0
 10
370.1208745533
 20
462.5577834156
 30
0.0
 10
370.1271779597
 20
462.556777137
 30
0.0
  0
SPLINE
  5
45F
100
AcDbEntity
  8
0
100
AcDbSpline
 62
3
  6
CONTINUOUS
 70
0
 71
3
 72
9
 73
5
 74
0
 42
0.0000001
 43
0.0000001
 44
0.0000000001
 40
0.0
 40
0.0
 40
0.0
 40
0.0
 40
0.4945603733
 40
1.0
 40
1.0
 40
1.0
 40
1.0
 10
370.1271779597
 20
462.556777137
 30
0.0
 10
370.1335099726
 20
462.5557662915
 30
0.0
 10
370.1462276942
 20
462.5531502883
 30
0.0
 10
370.158673677
 20
462.5494564839
 30
0.0
 10
370.1648742835
 20
462.5473357516
 30
0.0
  0
SPLINE
  5
460
100
AcDbEntity
  8
0
100
AcDbSpline
 62
3
  6
CONTINUOUS
 70
0
 71
3
 72
9
 73
5
 74
0
 42
0.0000001
 43
0.0000001
 44
0.0000000001
 40
0.0
 40
0.0
 40
0.0
 40
0.0
 40
0.4967777653
 40
1.0
 40
1.0
 40
1.0
 40
1.0
 10
358.9757515862
 20
466.3321562358
 30
0.0
 10
358.9844404953
 20
466.3351184264
 30
0.0
 10
359.0024266656
 20
466.3397085877
 30
0.0
 10
359.0208911056
 20
466.34152823
 30
0.0
 10
359.0301868005
 20
466.3417780075
 30
0.0
  0
SPLINE
  5
461
100
AcDbEntity
  8
0
100
AcDbSpline
 62
3
  6
CONTINUOUS
 70
0
 71
3
 72
9
 73
5
 74
0
 42
0.0000001
 43
0.0000001
 44
0.0000000001
 40
0.0
 40
0.0
 40
0.0
 40
0.0
 40
0.4956302893
 40
1.0
 40
1.0
 40
1.0
 40
1.0
 10
359.0301868005
 20
466.3417780075
 30
0.0
 10
359.0364571549
 20
466.3419464935
 30
0.0
 10
359.0491313593
 20
466.3416766945
 30
0.0
 10
359.0617244956
 20
466.3402355034
 30
0.0
 10
359.068027902
 20
466.3392292248
 30
0.0
  0
SPLINE
  5
462
100
AcDbEntity
  8
0
100
AcDbSpline
 62
3
  6
CONTINUOUS
 70
0
 71
3
 72
9
 73
5
 74
0
 42
0.0000001
 43
0.0000001
 44
0.0000000001
 40
0.0
 40
0.0
 40
0.0
 40
0.0
 40
0.4945603733
 40
1.0
 40
1.0
 40
1.0
 40
1.0
 10
359.068027902
 20
466.3392292248
 30
0.0
 10
359.0743599148
 20
466.3382183793
 30
0.0
 10
359.0870776364
 20
466.3356023761
 30
0.0
 10
359.0995236193
 20
466.3319085717
 30
0.0
 10
359.1057242257
 20
466.3297878394
 30
0.0
  0
SPLINE
  5
463
100
AcDbEntity
  8
0
100
AcDbSpline
 62
3
  6
CONTINUOUS
 70
0
 71
3
 72
8
 73
4
 74
0
 42
0.0000001
 43
0.0000001
 44
0.0000000001
 40
0.0
 40
0.0
 40
0.0
 40
0.0
 40
1.0
 40
1.0
 40
1.0
 40
1.0
 10
333.1549053562
 20
487.7973717471
 30
0.0
 10
333.1549053562
 20
487.9029998491
 30
0.0
 10
333.1334436986
 20
488.0099320625
 30
0.0
 10
333.096170062
 20
488.1087651133
 30
0.0
  0
SPLINE
  5
464
100
AcDbEntity
  8
0
100
AcDbSpline
 62
3
  6
CONTINUOUS
 70
0
 71
3
 72
8
 73
4
 74
0
 42
0.0000001
 43
0.0000001
 44
0.0000000001
 40
0.0
 40
0.0
 40
0.0
 40
0.0
 40
1.0
 40
1.0
 40
1.0
 40
1.0
 10
333.0264865004
 20
488.2532441494
 30
0.0
 10
332.9762442492
 20
488.3371669012
 30
0.0
 10
332.9101318931
 20
488.4151282653
 30
0.0
 10
332.8299381249
 20
488.4711306905
 30
0.0
  0
SPLINE
  5
465
100
AcDbEntity
  8
0
100
AcDbSpline
 62
3
  6
CONTINUOUS
 70
0
 71
3
 72
8
 73
4
 74
0
 42
0.0000001
 43
0.0000001
 44
0.0000000001
 40
0.0
 40
0.0
 40
0.0
 40
0.0
 40
1.0
 40
1.0
 40
1.0
 40
1.0
 10
332.8299381249
 20
488.4711306905
 30
0.0
 10
332.7664969725
 20
488.515434113
 30
0.0
 10
332.6885292562
 20
488.5477777248
 30
0.0
 10
332.6111557687
 20
488.5487350596
 30
0.0
  0
SPLINE
  5
466
100
AcDbEntity
  8
0
100
AcDbSpline
 62
3
  6
CONTINUOUS
 70
0
 71
3
 72
8
 73
4
 74
0
 42
0.0000001
 43
0.0000001
 44
0.0000000001
 40
0.0
 40
0.0
 40
0.0
 40
0.0
 40
1.0
 40
1.0
 40
1.0
 40
1.0
 10
332.6111557687
 20
488.5487350596
 30
0.0
 10
332.5787933038
 20
488.5491354773
 30
0.0
 10
332.5458490057
 20
488.5441961698
 30
0.0
 10
332.5152310486
 20
488.5337066431
 30
0.0
  0
SPLINE
  5
467
100
AcDbEntity
  8
0
100
AcDbSpline
 62
3
  6
CONTINUOUS
 70
0
 71
3
 72
8
 73
4
 74
0
 42
0.0000001
 43
0.0000001
 44
0.0000000001
 40
0.0
 40
0.0
 40
0.0
 40
0.0
 40
1.0
 40
1.0
 40
1.0
 40
1.0
 10
333.1549053562
 20
451.8823197807
 30
0.0
 10
333.1549053562
 20
451.9879478826
 30
0.0
 10
333.1334436986
 20
452.0948800961
 30
0.0
 10
333.096170062
 20
452.1937131469
 30
0.0
  0
SPLINE
  5
468
100
AcDbEntity
  8
0
100
AcDbSpline
 62
3
  6
CONTINUOUS
 70
0
 71
3
 72
8
 73
4
 74
0
 42
0.0000001
 43
0.0000001
 44
0.0000000001
 40
0.0
 40
0.0
 40
0.0
 40
0.0
 40
1.0
 40
1.0
 40
1.0
 40
1.0
 10
333.0264865004
 20
452.338192183
 30
0.0
 10
332.9762442492
 20
452.4221149348
 30
0.0
 10
332.9101318931
 20
452.5000762989
 30
0.0
 10
332.8299381249
 20
452.5560787241
 30
0.0
  0
SPLINE
  5
469
100
AcDbEntity
  8
0
100
AcDbSpline
 62
3
  6
CONTINUOUS
 70
0
 71
3
 72
8
 73
4
 74
0
 42
0.0000001
 43
0.0000001
 44
0.0000000001
 40
0.0
 40
0.0
 40
0.0
 40
0.0
 40
1.0
 40
1.0
 40
1.0
 40
1.0
 10
332.8299381249
 20
452.5560787241
 30
0.0
 10
332.7664969725
 20
452.6003821465
 30
0.0
 10
332.6885292562
 20
452.6327257583
 30
0.0
 10
332.6111557687
 20
452.6336830932
 30
0.0
  0
SPLINE
  5
46A
100
AcDbEntity
  8
0
100
AcDbSpline
 62
3
  6
CONTINUOUS
 70
0
 71
3
 72
8
 73
4
 74
0
 42
0.0000001
 43
0.0000001
 44
0.0000000001
 40
0.0
 40
0.0
 40
0.0
 40
0.0
 40
1.0
 40
1.0
 40
1.0
 40
1.0
 10
332.6111557687
 20
452.6336830932
 30
0.0
 10
332.5787933038
 20
452.6340835109
 30
0.0
 10
332.5458490057
 20
452.6291442034
 30
0.0
 10
332.5152310486
 20
452.6186546766
 30
0.0
  0
SPLINE
  5
46B
100
AcDbEntity
  8
0
100
AcDbSpline
 62
3
  6
CONTINUOUS
 70
0
 71
3
 72
9
 73
5
 74
0
 42
0.0000001
 43
0.0000001
 44
0.0000000001
 40
0.0
 40
0.0
 40
0.0
 40
0.0
 40
0.4967777653
 40
1.0
 40
1.0
 40
1.0
 40
1.0
 10
356.3170300889
 20
467.2414925433
 30
0.0
 10
356.325718998
 20
467.244454734
 30
0.0
 10
356.3437051683
 20
467.2490448953
 30
0.0
 10
356.3621696083
 20
467.2508645376
 30
0.0
 10
356.3714653032
 20
467.2511143151
 30
0.0
  0
SPLINE
  5
46C
100
AcDbEntity
  8
0
100
AcDbSpline
 62
3
  6
CONTINUOUS
 70
0
 71
3
 72
9
 73
5
 74
0
 42
0.0000001
 43
0.0000001
 44
0.0000000001
 40
0.0
 40
0.0
 40
0.0
 40
0.0
 40
0.4956302893
 40
1.0
 40
1.0
 40
1.0
 40
1.0
 10
356.3714653032
 20
467.2511143151
 30
0.0
 10
356.3777356577
 20
467.251282801
 30
0.0
 10
356.390409862
 20
467.2510130021
 30
0.0
 10
356.4030029983
 20
467.249571811
 30
0.0
 10
356.4093064047
 20
467.2485655323
 30
0.0
  0
SPLINE
  5
46D
100
AcDbEntity
  8
0
100
AcDbSpline
 62
3
  6
CONTINUOUS
 70
0
 71
3
 72
9
 73
5
 74
0
 42
0.0000001
 43
0.0000001
 44
0.0000000001
 40
0.0
 40
0.0
 40
0.0
 40
0.0
 40
0.4945603734
 40
1.0
 40
1.0
 40
1.0
 40
1.0
 10
356.4093064047
 20
467.2485655323
 30
0.0
 10
356.4156384176
 20
467.2475546869
 30
0.0
 10
356.4283561392
 20
467.2449386836
 30
0.0
 10
356.440802122
 20
467.2412448793
 30
0.0
 10
356.4470027284
 20
467.239124147
 30
0.0
  0
SPLINE
  5
46E
100
AcDbEntity
  8
0
100
AcDbSpline
 62
3
  6
CONTINUOUS
 70
0
 71
3
 72
9
 73
5
 74
0
 42
0.0000001
 43
0.0000001
 44
0.0000000001
 40
0.0
 40
0.0
 40
0.0
 40
0.0
 40
0.4966000359
 40
1.0
 40
1.0
 40
1.0
 40
1.0
 10
332.917767255
 20
450.9196445228
 30
0.0
 10
332.9312639675
 20
450.9242684147
 30
0.0
 10
332.9577398375
 20
450.9357681044
 30
0.0
 10
332.9820862857
 20
450.9512513652
 30
0.0
 10
332.993692602
 20
450.9598796553
 30
0.0
  0
SPLINE
  5
46F
100
AcDbEntity
  8
0
100
AcDbSpline
 62
3
  6
CONTINUOUS
 70
0
 71
3
 72
8
 73
4
 74
0
 42
0.0000001
 43
0.0000001
 44
0.0000000001
 40
0.0
 40
0.0
 40
0.0
 40
0.0
 40
1.0
 40
1.0
 40
1.0
 40
1.0
 10
332.993692602
 20
450.9598796553
 30
0.0
 10
333.0701217488
 20
451.0166981009
 30
0.0
 10
333.1178886703
 20
451.1130898931
 30
0.0
 10
333.1387771441
 20
451.2060061021
 30
0.0
  0
SPLINE
  5
470
100
AcDbEntity
  8
0
100
AcDbSpline
 62
3
  6
CONTINUOUS
 70
0
 71
3
 72
8
 73
4
 74
0
 42
0.0000001
 43
0.0000001
 44
0.0000000001
 40
0.0
 40
0.0
 40
0.0
 40
0.0
 40
1.0
 40
1.0
 40
1.0
 40
1.0
 10
333.1387771441
 20
451.2060061021
 30
0.0
 10
333.1498133704
 20
451.2550974968
 30
0.0
 10
333.1549053562
 20
451.3057752824
 30
0.0
 10
333.1549053562
 20
451.356091913
 30
0.0
  0
SPLINE
  5
471
100
AcDbEntity
  8
0
100
AcDbSpline
 62
3
  6
CONTINUOUS
 70
0
 71
3
 72
9
 73
5
 74
0
 42
0.0000001
 43
0.0000001
 44
0.0000000001
 40
0.0
 40
0.0
 40
0.0
 40
0.0
 40
0.4966000359
 40
1.0
 40
1.0
 40
1.0
 40
1.0
 10
332.917767255
 20
485.7070653443
 30
0.0
 10
332.9312639675
 20
485.7116892362
 30
0.0
 10
332.9577398375
 20
485.7231889259
 30
0.0
 10
332.9820862857
 20
485.7386721867
 30
0.0
 10
332.993692602
 20
485.7473004768
 30
0.0
  0
SPLINE
  5
472
100
AcDbEntity
  8
0
100
AcDbSpline
 62
3
  6
CONTINUOUS
 70
0
 71
3
 72
8
 73
4
 74
0
 42
0.0000001
 43
0.0000001
 44
0.0000000001
 40
0.0
 40
0.0
 40
0.0
 40
0.0
 40
1.0
 40
1.0
 40
1.0
 40
1.0
 10
332.993692602
 20
485.7473004768
 30
0.0
 10
333.0701217488
 20
485.8041189224
 30
0.0
 10
333.1178886703
 20
485.9005107146
 30
0.0
 10
333.1387771441
 20
485.9934269236
 30
0.0
  0
SPLINE
  5
473
100
AcDbEntity
  8
0
100
AcDbSpline
 62
3
  6
CONTINUOUS
 70
0
 71
3
 72
8
 73
4
 74
0
 42
0.0000001
 43
0.0000001
 44
0.0000000001
 40
0.0
 40
0.0
 40
0.0
 40
0.0
 40
1.0
 40
1.0
 40
1.0
 40
1.0
 10
333.1387771441
 20
485.9934269236
 30
0.0
 10
333.1498133704
 20
486.0425183182
 30
0.0
 10
333.1549053562
 20
486.0931961039
 30
0.0
 10
333.1549053562
 20
486.1435127345
 30
0.0
  0
SPLINE
  5
474
100
AcDbEntity
  8
0
100
AcDbSpline
 62
3
  6
CONTINUOUS
 70
0
 71
3
 72
8
 73
4
 74
0
 42
0.0000001
 43
0.0000001
 44
0.0000000001
 40
0.0
 40
0.0
 40
0.0
 40
0.0
 40
1.0
 40
1.0
 40
1.0
 40
1.0
 10
351.2426968189
 20
444.9629705079
 30
0.0
 10
351.2426968189
 20
444.8827528074
 30
0.0
 10
351.2220156754
 20
444.7936139782
 30
0.0
 10
351.1681795906
 20
444.7341450329
 30
0.0
  0
SPLINE
  5
475
100
AcDbEntity
  8
0
100
AcDbSpline
 62
3
  6
CONTINUOUS
 70
0
 71
3
 72
8
 73
4
 74
0
 42
0.0000001
 43
0.0000001
 44
0.0000000001
 40
0.0
 40
0.0
 40
0.0
 40
0.0
 40
1.0
 40
1.0
 40
1.0
 40
1.0
 10
351.1681795906
 20
444.7341450329
 30
0.0
 10
351.1470577305
 20
444.7108131962
 30
0.0
 10
351.1196155618
 20
444.6916184609
 30
0.0
 10
351.0898267459
 20
444.6814629683
 30
0.0
  0
SPLINE
  5
476
100
AcDbEntity
  8
0
100
AcDbSpline
 62
3
  6
CONTINUOUS
 70
0
 71
3
 72
9
 73
5
 74
0
 42
0.0000001
 43
0.0000001
 44
0.0000000001
 40
0.0
 40
0.0
 40
0.0
 40
0.0
 40
0.2221267573
 40
1.0
 40
1.0
 40
1.0
 40
1.0
 10
356.9419774753
 20
467.0698328131
 30
0.0
 10
356.981866179
 20
467.0561900729
 30
0.0
 10
357.1445589499
 20
466.9501486321
 30
0.0
 10
357.2248201877
 20
466.7448497383
 30
0.0
 10
357.2248201877
 20
466.5972178597
 30
0.0
  0
SPLINE
  5
477
100
AcDbEntity
  8
0
100
AcDbSpline
 62
3
  6
CONTINUOUS
 70
0
 71
3
 72
8
 73
4
 74
0
 42
0.0000001
 43
0.0000001
 44
0.0000000001
 40
0.0
 40
0.0
 40
0.0
 40
0.0
 40
1.0
 40
1.0
 40
1.0
 40
1.0
 10
350.9598541064
 20
469.1158395051
 30
0.0
 10
351.0142515026
 20
469.0972344999
 30
0.0
 10
351.0627099946
 20
469.0597497391
 30
0.0
 10
351.1012754627
 20
469.0171125768
 30
0.0
  0
SPLINE
  5
478
100
AcDbEntity
  8
0
100
AcDbSpline
 62
3
  6
CONTINUOUS
 70
0
 71
3
 72
8
 73
4
 74
0
 42
0.0000001
 43
0.0000001
 44
0.0000000001
 40
0.0
 40
0.0
 40
0.0
 40
0.0
 40
1.0
 40
1.0
 40
1.0
 40
1.0
 10
351.1012754627
 20
469.0171125768
 30
0.0
 10
351.190658444
 20
468.9182926513
 30
0.0
 10
351.2426968189
 20
468.7764712967
 30
0.0
 10
351.2426968189
 20
468.6432245517
 30
0.0
  0
SPLINE
  5
479
100
AcDbEntity
  8
0
100
AcDbSpline
 62
3
  6
CONTINUOUS
 70
0
 71
3
 72
8
 73
4
 74
0
 42
0.0000001
 43
0.0000001
 44
0.0000000001
 40
0.0
 40
0.0
 40
0.0
 40
0.0
 40
1.0
 40
1.0
 40
1.0
 40
1.0
 10
357.2248201877
 20
442.9169638159
 30
0.0
 10
357.2248201877
 20
442.8367461154
 30
0.0
 10
357.2041390442
 20
442.7476072862
 30
0.0
 10
357.1503029594
 20
442.6881383409
 30
0.0
  0
SPLINE
  5
47A
100
AcDbEntity
  8
0
100
AcDbSpline
 62
3
  6
CONTINUOUS
 70
0
 71
3
 72
8
 73
4
 74
0
 42
0.0000001
 43
0.0000001
 44
0.0000000001
 40
0.0
 40
0.0
 40
0.0
 40
0.0
 40
1.0
 40
1.0
 40
1.0
 40
1.0
 10
357.1503029594
 20
442.6881383409
 30
0.0
 10
357.1291810993
 20
442.6648065042
 30
0.0
 10
357.1017389306
 20
442.6456117689
 30
0.0
 10
357.0719501148
 20
442.6354562763
 30
0.0
  0
SPLINE
  5
47B
100
AcDbEntity
  8
0
100
AcDbSpline
 62
3
  6
CONTINUOUS
 70
0
 71
3
 72
8
 73
4
 74
0
 42
0.0000001
 43
0.0000001
 44
0.0000000001
 40
0.0
 40
0.0
 40
0.0
 40
0.0
 40
1.0
 40
1.0
 40
1.0
 40
1.0
 10
353.9014183162
 20
444.0536342004
 30
0.0
 10
353.9014183162
 20
443.9734164998
 30
0.0
 10
353.8807371726
 20
443.8842776707
 30
0.0
 10
353.8269010878
 20
443.8248087254
 30
0.0
  0
SPLINE
  5
47C
100
AcDbEntity
  8
0
100
AcDbSpline
 62
3
  6
CONTINUOUS
 70
0
 71
3
 72
8
 73
4
 74
0
 42
0.0000001
 43
0.0000001
 44
0.0000000001
 40
0.0
 40
0.0
 40
0.0
 40
0.0
 40
1.0
 40
1.0
 40
1.0
 40
1.0
 10
353.8269010878
 20
443.8248087254
 30
0.0
 10
353.8057792278
 20
443.8014768887
 30
0.0
 10
353.778337059
 20
443.7822821533
 30
0.0
 10
353.7485482432
 20
443.7721266608
 30
0.0
  0
SPLINE
  5
47D
100
AcDbEntity
  8
0
100
AcDbSpline
 62
3
  6
CONTINUOUS
 70
0
 71
3
 72
8
 73
4
 74
0
 42
0.0000001
 43
0.0000001
 44
0.0000000001
 40
0.0
 40
0.0
 40
0.0
 40
0.0
 40
1.0
 40
1.0
 40
1.0
 40
1.0
 10
359.3885669382
 20
466.2330499343
 30
0.0
 10
359.4429643344
 20
466.2144449291
 30
0.0
 10
359.4914228264
 20
466.1769601683
 30
0.0
 10
359.5299882944
 20
466.134323006
 30
0.0
  0
SPLINE
  5
47E
100
AcDbEntity
  8
0
100
AcDbSpline
 62
3
  6
CONTINUOUS
 70
0
 71
3
 72
8
 73
4
 74
0
 42
0.0000001
 43
0.0000001
 44
0.0000000001
 40
0.0
 40
0.0
 40
0.0
 40
0.0
 40
1.0
 40
1.0
 40
1.0
 40
1.0
 10
359.5299882944
 20
466.134323006
 30
0.0
 10
359.6193712757
 20
466.0355030805
 30
0.0
 10
359.6714096507
 20
465.8936817259
 30
0.0
 10
359.6714096507
 20
465.760434981
 30
0.0
  0
SPLINE
  5
47F
100
AcDbEntity
  8
0
100
AcDbSpline
 62
3
  6
CONTINUOUS
 70
0
 71
3
 72
8
 73
4
 74
0
 42
0.0000001
 43
0.0000001
 44
0.0000000001
 40
0.0
 40
0.0
 40
0.0
 40
0.0
 40
1.0
 40
1.0
 40
1.0
 40
1.0
 10
359.6714096507
 20
442.0801809372
 30
0.0
 10
359.6714096507
 20
441.9999632366
 30
0.0
 10
359.6507285071
 20
441.9108244074
 30
0.0
 10
359.5968924223
 20
441.8513554622
 30
0.0
  0
SPLINE
  5
480
100
AcDbEntity
  8
0
100
AcDbSpline
 62
3
  6
CONTINUOUS
 70
0
 71
3
 72
8
 73
4
 74
0
 42
0.0000001
 43
0.0000001
 44
0.0000000001
 40
0.0
 40
0.0
 40
0.0
 40
0.0
 40
1.0
 40
1.0
 40
1.0
 40
1.0
 10
359.5968924223
 20
441.8513554622
 30
0.0
 10
359.5757705623
 20
441.8280236254
 30
0.0
 10
359.5483283935
 20
441.8088288901
 30
0.0
 10
359.5185395777
 20
441.7986733976
 30
0.0
  0
SPLINE
  5
481
100
AcDbEntity
  8
0
100
AcDbSpline
 62
3
  6
CONTINUOUS
 70
0
 71
3
 72
9
 73
5
 74
0
 42
0.0000001
 43
0.0000001
 44
0.0000000001
 40
0.0
 40
0.0
 40
0.0
 40
0.0
 40
0.2221267573
 40
1.0
 40
1.0
 40
1.0
 40
1.0
 10
371.2962451334
 20
462.1603841314
 30
0.0
 10
371.3361338371
 20
462.1467413912
 30
0.0
 10
371.498826608
 20
462.0406999504
 30
0.0
 10
371.5790878458
 20
461.8354010565
 30
0.0
 10
371.5790878458
 20
461.687769178
 30
0.0
  0
SPLINE
  5
482
100
AcDbEntity
  8
0
100
AcDbSpline
 62
3
  6
CONTINUOUS
 70
0
 71
3
 72
9
 73
5
 74
0
 42
0.0000001
 43
0.0000001
 44
0.0000000001
 40
0.0
 40
0.0
 40
0.0
 40
0.0
 40
0.2221267573
 40
1.0
 40
1.0
 40
1.0
 40
1.0
 10
353.6185756037
 20
468.2065031976
 30
0.0
 10
353.6584643074
 20
468.1928604574
 30
0.0
 10
353.8211570783
 20
468.0868190166
 30
0.0
 10
353.9014183162
 20
467.8815201227
 30
0.0
 10
353.9014183162
 20
467.7338882442
 30
0.0
  0
SPLINE
  5
483
100
AcDbEntity
  8
0
100
AcDbSpline
 62
3
  6
CONTINUOUS
 70
0
 71
3
 72
9
 73
5
 74
0
 42
0.0000001
 43
0.0000001
 44
0.0000000001
 40
0.0
 40
0.0
 40
0.0
 40
0.0
 40
0.2221267573
 40
1.0
 40
1.0
 40
1.0
 40
1.0
 10
348.5132646435
 20
469.9526223839
 30
0.0
 10
348.5531533473
 20
469.9389796437
 30
0.0
 10
348.7158461181
 20
469.8329382029
 30
0.0
 10
348.796107356
 20
469.6276393091
 30
0.0
 10
348.796107356
 20
469.4800074305
 30
0.0
  0
SPLINE
  5
484
100
AcDbEntity
  8
0
100
AcDbSpline
 62
3
  6
CONTINUOUS
 70
0
 71
3
 72
8
 73
4
 74
0
 42
0.0000001
 43
0.0000001
 44
0.0000000001
 40
0.0
 40
0.0
 40
0.0
 40
0.0
 40
1.0
 40
1.0
 40
1.0
 40
1.0
 10
371.5790878458
 20
438.0075151342
 30
0.0
 10
371.5790878458
 20
437.9272974336
 30
0.0
 10
371.5584067023
 20
437.8381586045
 30
0.0
 10
371.5045706175
 20
437.7786896592
 30
0.0
  0
SPLINE
  5
485
100
AcDbEntity
  8
0
100
AcDbSpline
 62
3
  6
CONTINUOUS
 70
0
 71
3
 72
8
 73
4
 74
0
 42
0.0000001
 43
0.0000001
 44
0.0000000001
 40
0.0
 40
0.0
 40
0.0
 40
0.0
 40
1.0
 40
1.0
 40
1.0
 40
1.0
 10
371.5045706175
 20
437.7786896592
 30
0.0
 10
371.4834487574
 20
437.7553578225
 30
0.0
 10
371.4560065887
 20
437.7361630871
 30
0.0
 10
371.4262177729
 20
437.7260075946
 30
0.0
  0
SPLINE
  5
486
100
AcDbEntity
  8
0
100
AcDbSpline
 62
3
  6
CONTINUOUS
 70
0
 71
3
 72
8
 73
4
 74
0
 42
0.0000001
 43
0.0000001
 44
0.0000000001
 40
0.0
 40
0.0
 40
0.0
 40
0.0
 40
1.0
 40
1.0
 40
1.0
 40
1.0
 10
348.796107356
 20
445.7997533867
 30
0.0
 10
348.796107356
 20
445.7195356861
 30
0.0
 10
348.7754262125
 20
445.630396857
 30
0.0
 10
348.7215901277
 20
445.5709279117
 30
0.0
  0
SPLINE
  5
487
100
AcDbEntity
  8
0
100
AcDbSpline
 62
3
  6
CONTINUOUS
 70
0
 71
3
 72
8
 73
4
 74
0
 42
0.0000001
 43
0.0000001
 44
0.0000000001
 40
0.0
 40
0.0
 40
0.0
 40
0.0
 40
1.0
 40
1.0
 40
1.0
 40
1.0
 10
348.7215901277
 20
445.5709279117
 30
0.0
 10
348.7004682676
 20
445.547596075
 30
0.0
 10
348.6730260988
 20
445.5284013397
 30
0.0
 10
348.643237283
 20
445.5182458471
 30
0.0
  0
SPLINE
  5
488
100
AcDbEntity
  8
0
100
AcDbSpline
 62
3
  6
CONTINUOUS
 70
0
 71
3
 72
9
 73
5
 74
0
 42
0.0000001
 43
0.0000001
 44
0.0000000001
 40
0.0
 40
0.0
 40
0.0
 40
0.0
 40
0.2221267573
 40
1.0
 40
1.0
 40
1.0
 40
1.0
 10
368.001127533
 20
463.2873807253
 30
0.0
 10
368.0410162368
 20
463.2737379851
 30
0.0
 10
368.2037090077
 20
463.1676965443
 30
0.0
 10
368.2839702455
 20
462.9623976505
 30
0.0
 10
368.2839702455
 20
462.8147657719
 30
0.0
  0
SPLINE
  5
489
100
AcDbEntity
  8
0
100
AcDbSpline
 62
3
  6
CONTINUOUS
 70
0
 71
3
 72
8
 73
4
 74
0
 42
0.0000001
 43
0.0000001
 44
0.0000000001
 40
0.0
 40
0.0
 40
0.0
 40
0.0
 40
1.0
 40
1.0
 40
1.0
 40
1.0
 10
368.2839702455
 20
439.1345117281
 30
0.0
 10
368.2839702455
 20
439.0542940276
 30
0.0
 10
368.263289102
 20
438.9651551984
 30
0.0
 10
368.2094530172
 20
438.9056862531
 30
0.0
  0
SPLINE
  5
48A
100
AcDbEntity
  8
0
100
AcDbSpline
 62
3
  6
CONTINUOUS
 70
0
 71
3
 72
8
 73
4
 74
0
 42
0.0000001
 43
0.0000001
 44
0.0000000001
 40
0.0
 40
0.0
 40
0.0
 40
0.0
 40
1.0
 40
1.0
 40
1.0
 40
1.0
 10
368.2094530172
 20
438.9056862531
 30
0.0
 10
368.1883311571
 20
438.8823544164
 30
0.0
 10
368.1608889883
 20
438.8631596811
 30
0.0
 10
368.1311001725
 20
438.8530041885
 30
0.0
  0
SPLINE
  5
48B
100
AcDbEntity
  8
0
100
AcDbSpline
 62
3
  6
CONTINUOUS
 70
0
 71
3
 72
9
 73
5
 74
0
 42
0.0000001
 43
0.0000001
 44
0.0000000001
 40
0.0
 40
0.0
 40
0.0
 40
0.0
 40
0.2221267573
 40
1.0
 40
1.0
 40
1.0
 40
1.0
 10
364.9181419671
 20
464.3418238904
 30
0.0
 10
364.9580306708
 20
464.3281811503
 30
0.0
 10
365.1207234417
 20
464.2221397095
 30
0.0
 10
365.2009846795
 20
464.0168408156
 30
0.0
 10
365.2009846795
 20
463.8692089371
 30
0.0
  0
SPLINE
  5
48C
100
AcDbEntity
  8
0
100
AcDbSpline
 62
3
  6
CONTINUOUS
 70
0
 71
3
 72
9
 73
5
 74
0
 42
0.0000001
 43
0.0000001
 44
0.0000000001
 40
0.0
 40
0.0
 40
0.0
 40
0.0
 40
0.2221267573
 40
1.0
 40
1.0
 40
1.0
 40
1.0
 10
345.8545431463
 20
470.8619586914
 30
0.0
 10
345.89443185
 20
470.8483159513
 30
0.0
 10
346.0571246209
 20
470.7422745105
 30
0.0
 10
346.1373858587
 20
470.5369756166
 30
0.0
 10
346.1373858587
 20
470.3893437381
 30
0.0
  0
SPLINE
  5
48D
100
AcDbEntity
  8
0
100
AcDbSpline
 62
3
  6
CONTINUOUS
 70
0
 71
3
 72
8
 73
4
 74
0
 42
0.0000001
 43
0.0000001
 44
0.0000000001
 40
0.0
 40
0.0
 40
0.0
 40
0.0
 40
1.0
 40
1.0
 40
1.0
 40
1.0
 10
346.1373858587
 20
446.7090896942
 30
0.0
 10
346.1373858587
 20
446.6288719937
 30
0.0
 10
346.1167047152
 20
446.5397331645
 30
0.0
 10
346.0628686304
 20
446.4802642192
 30
0.0
  0
SPLINE
  5
48E
100
AcDbEntity
  8
0
100
AcDbSpline
 62
3
  6
CONTINUOUS
 70
0
 71
3
 72
8
 73
4
 74
0
 42
0.0000001
 43
0.0000001
 44
0.0000000001
 40
0.0
 40
0.0
 40
0.0
 40
0.0
 40
1.0
 40
1.0
 40
1.0
 40
1.0
 10
346.0628686304
 20
446.4802642192
 30
0.0
 10
346.0417467703
 20
446.4569323825
 30
0.0
 10
346.0143046016
 20
446.4377376472
 30
0.0
 10
345.9845157858
 20
446.4275821546
 30
0.0
  0
SPLINE
  5
48F
100
AcDbEntity
  8
0
100
AcDbSpline
 62
3
  6
CONTINUOUS
 70
0
 71
3
 72
8
 73
4
 74
0
 42
0.0000001
 43
0.0000001
 44
0.0000000001
 40
0.0
 40
0.0
 40
0.0
 40
0.0
 40
1.0
 40
1.0
 40
1.0
 40
1.0
 10
365.2009846795
 20
440.1889548933
 30
0.0
 10
365.2009846795
 20
440.1087371927
 30
0.0
 10
365.180303536
 20
440.0195983635
 30
0.0
 10
365.1264674512
 20
439.9601294183
 30
0.0
  0
SPLINE
  5
490
100
AcDbEntity
  8
0
100
AcDbSpline
 62
3
  6
CONTINUOUS
 70
0
 71
3
 72
8
 73
4
 74
0
 42
0.0000001
 43
0.0000001
 44
0.0000000001
 40
0.0
 40
0.0
 40
0.0
 40
0.0
 40
1.0
 40
1.0
 40
1.0
 40
1.0
 10
365.1264674512
 20
439.9601294183
 30
0.0
 10
365.1053455911
 20
439.9367975815
 30
0.0
 10
365.0779034224
 20
439.9176028462
 30
0.0
 10
365.0481146066
 20
439.9074473537
 30
0.0
  0
SPLINE
  5
491
100
AcDbEntity
  8
0
100
AcDbSpline
 62
3
  6
CONTINUOUS
 70
0
 71
3
 72
9
 73
5
 74
0
 42
0.0000001
 43
0.0000001
 44
0.0000000001
 40
0.0
 40
0.0
 40
0.0
 40
0.0
 40
0.2221267573
 40
1.0
 40
1.0
 40
1.0
 40
1.0
 10
362.0472884354
 20
465.3237136268
 30
0.0
 10
362.0871771392
 20
465.3100708866
 30
0.0
 10
362.2498699101
 20
465.2040294458
 30
0.0
 10
362.3301311479
 20
464.998730552
 30
0.0
 10
362.3301311479
 20
464.8510986734
 30
0.0
  0
SPLINE
  5
492
100
AcDbEntity
  8
0
100
AcDbSpline
 62
3
  6
CONTINUOUS
 70
0
 71
3
 72
8
 73
4
 74
0
 42
0.0000001
 43
0.0000001
 44
0.0000000001
 40
0.0
 40
0.0
 40
0.0
 40
0.0
 40
1.0
 40
1.0
 40
1.0
 40
1.0
 10
362.3301311479
 20
441.1708446296
 30
0.0
 10
362.3301311479
 20
441.0906269291
 30
0.0
 10
362.3094500044
 20
441.0014880999
 30
0.0
 10
362.2556139196
 20
440.9420191546
 30
0.0
  0
SPLINE
  5
493
100
AcDbEntity
  8
0
100
AcDbSpline
 62
3
  6
CONTINUOUS
 70
0
 71
3
 72
8
 73
4
 74
0
 42
0.0000001
 43
0.0000001
 44
0.0000000001
 40
0.0
 40
0.0
 40
0.0
 40
0.0
 40
1.0
 40
1.0
 40
1.0
 40
1.0
 10
362.2556139196
 20
440.9420191546
 30
0.0
 10
362.2344920595
 20
440.9186873179
 30
0.0
 10
362.2070498908
 20
440.8994925826
 30
0.0
 10
362.177261075
 20
440.88933709
 30
0.0
  0
SPLINE
  5
494
100
AcDbEntity
  8
0
100
AcDbSpline
 62
3
  6
CONTINUOUS
 70
0
 71
3
 72
9
 73
5
 74
0
 42
0.0000001
 43
0.0000001
 44
0.0000000001
 40
0.0
 40
0.0
 40
0.0
 40
0.0
 40
0.2221267573
 40
1.0
 40
1.0
 40
1.0
 40
1.0
 10
342.9836896147
 20
471.8438484278
 30
0.0
 10
343.0235783184
 20
471.8302056876
 30
0.0
 10
343.1862710893
 20
471.7241642468
 30
0.0
 10
343.2665323271
 20
471.518865353
 30
0.0
 10
343.2665323271
 20
471.3712334744
 30
0.0
  0
SPLINE
  5
495
100
AcDbEntity
  8
0
100
AcDbSpline
 62
3
  6
CONTINUOUS
 70
0
 71
3
 72
8
 73
4
 74
0
 42
0.0000001
 43
0.0000001
 44
0.0000000001
 40
0.0
 40
0.0
 40
0.0
 40
0.0
 40
1.0
 40
1.0
 40
1.0
 40
1.0
 10
343.2665323271
 20
447.6909794306
 30
0.0
 10
343.2665323271
 20
447.61076173
 30
0.0
 10
343.2458511836
 20
447.5216229009
 30
0.0
 10
343.1920150988
 20
447.4621539556
 30
0.0
  0
SPLINE
  5
496
100
AcDbEntity
  8
0
100
AcDbSpline
 62
3
  6
CONTINUOUS
 70
0
 71
3
 72
8
 73
4
 74
0
 42
0.0000001
 43
0.0000001
 44
0.0000000001
 40
0.0
 40
0.0
 40
0.0
 40
0.0
 40
1.0
 40
1.0
 40
1.0
 40
1.0
 10
343.1920150988
 20
447.4621539556
 30
0.0
 10
343.1708932387
 20
447.4388221189
 30
0.0
 10
343.14345107
 20
447.4196273836
 30
0.0
 10
343.1136622542
 20
447.409471891
 30
0.0
  0
SPLINE
  5
497
100
AcDbEntity
  8
0
100
AcDbSpline
 62
3
  6
CONTINUOUS
 70
0
 71
3
 72
8
 73
4
 74
0
 42
0.0000001
 43
0.0000001
 44
0.0000000001
 40
0.0
 40
0.0
 40
0.0
 40
0.0
 40
1.0
 40
1.0
 40
1.0
 40
1.0
 10
340.1835467612
 20
448.7454225957
 30
0.0
 10
340.1835467612
 20
448.6652048952
 30
0.0
 10
340.1628656176
 20
448.576066066
 30
0.0
 10
340.1090295328
 20
448.5165971207
 30
0.0
  0
SPLINE
  5
498
100
AcDbEntity
  8
0
100
AcDbSpline
 62
3
  6
CONTINUOUS
 70
0
 71
3
 72
8
 73
4
 74
0
 42
0.0000001
 43
0.0000001
 44
0.0000000001
 40
0.0
 40
0.0
 40
0.0
 40
0.0
 40
1.0
 40
1.0
 40
1.0
 40
1.0
 10
340.1090295328
 20
448.5165971207
 30
0.0
 10
340.0879076727
 20
448.493265284
 30
0.0
 10
340.060465504
 20
448.4740705487
 30
0.0
 10
340.0306766882
 20
448.4639150561
 30
0.0
  0
SPLINE
  5
499
100
AcDbEntity
  8
0
100
AcDbSpline
 62
3
  6
CONTINUOUS
 70
0
 71
3
 72
9
 73
5
 74
0
 42
0.0000001
 43
0.0000001
 44
0.0000000001
 40
0.0
 40
0.0
 40
0.0
 40
0.0
 40
0.2221267573
 40
1.0
 40
1.0
 40
1.0
 40
1.0
 10
339.9007040487
 20
472.8982915929
 30
0.0
 10
339.9405927524
 20
472.8846488528
 30
0.0
 10
340.1032855233
 20
472.778607412
 30
0.0
 10
340.1835467612
 20
472.5733085181
 30
0.0
 10
340.1835467612
 20
472.4256766395
 30
0.0
  0
SPLINE
  5
49A
100
AcDbEntity
  8
0
100
AcDbSpline
 62
3
  6
CONTINUOUS
 70
0
 71
3
 72
9
 73
5
 74
0
 42
0.0000001
 43
0.0000001
 44
0.0000000001
 40
0.0
 40
0.0
 40
0.0
 40
0.0
 40
0.4967777653
 40
1.0
 40
1.0
 40
1.0
 40
1.0
 10
353.7485482432
 20
443.7721266608
 30
0.0
 10
353.7398593341
 20
443.7691644701
 30
0.0
 10
353.7218731638
 20
443.7645743088
 30
0.0
 10
353.7034087238
 20
443.7627546665
 30
0.0
 10
353.6941130289
 20
443.762504889
 30
0.0
  0
SPLINE
  5
49B
100
AcDbEntity
  8
0
100
AcDbSpline
 62
3
  6
CONTINUOUS
 70
0
 71
3
 72
9
 73
5
 74
0
 42
0.0000001
 43
0.0000001
 44
0.0000000001
 40
0.0
 40
0.0
 40
0.0
 40
0.0
 40
0.4901017561
 40
1.0
 40
1.0
 40
1.0
 40
1.0
 10
353.6941130289
 20
443.762504889
 30
0.0
 10
353.6815729746
 20
443.7621679348
 30
0.0
 10
353.6558735901
 20
443.7639547855
 30
0.0
 10
353.630924585
 20
443.7702714568
 30
0.0
 10
353.6185756037
 20
443.7744950571
 30
0.0
  0
SPLINE
  5
49C
100
AcDbEntity
  8
0
100
AcDbSpline
 62
3
  6
CONTINUOUS
 70
0
 71
3
 72
9
 73
5
 74
0
 42
0.0000001
 43
0.0000001
 44
0.0000000001
 40
0.0
 40
0.0
 40
0.0
 40
0.0
 40
0.4967777653
 40
1.0
 40
1.0
 40
1.0
 40
1.0
 10
365.0481146066
 20
439.9074473537
 30
0.0
 10
365.0394256975
 20
439.904485163
 30
0.0
 10
365.0214395272
 20
439.8998950017
 30
0.0
 10
365.0029750872
 20
439.8980753594
 30
0.0
 10
364.9936793923
 20
439.8978255819
 30
0.0
  0
SPLINE
  5
49D
100
AcDbEntity
  8
0
100
AcDbSpline
 62
3
  6
CONTINUOUS
 70
0
 71
3
 72
9
 73
5
 74
0
 42
0.0000001
 43
0.0000001
 44
0.0000000001
 40
0.0
 40
0.0
 40
0.0
 40
0.0
 40
0.4901017561
 40
1.0
 40
1.0
 40
1.0
 40
1.0
 10
364.9936793923
 20
439.8978255819
 30
0.0
 10
364.981139338
 20
439.8974886276
 30
0.0
 10
364.9554399535
 20
439.8992754784
 30
0.0
 10
364.9304909484
 20
439.9055921496
 30
0.0
 10
364.9181419671
 20
439.90981575
 30
0.0
  0
SPLINE
  5
49E
100
AcDbEntity
  8
0
100
AcDbSpline
 62
3
  6
CONTINUOUS
 70
0
 71
3
 72
9
 73
5
 74
0
 42
0.0000001
 43
0.0000001
 44
0.0000000001
 40
0.0
 40
0.0
 40
0.0
 40
0.0
 40
0.4967777653
 40
1.0
 40
1.0
 40
1.0
 40
1.0
 10
348.643237283
 20
445.5182458471
 30
0.0
 10
348.634548374
 20
445.5152836564
 30
0.0
 10
348.6165622037
 20
445.5106934951
 30
0.0
 10
348.5980977637
 20
445.5088738528
 30
0.0
 10
348.5888020688
 20
445.5086240753
 30
0.0
  0
SPLINE
  5
49F
100
AcDbEntity
  8
0
100
AcDbSpline
 62
3
  6
CONTINUOUS
 70
0
 71
3
 72
9
 73
5
 74
0
 42
0.0000001
 43
0.0000001
 44
0.0000000001
 40
0.0
 40
0.0
 40
0.0
 40
0.0
 40
0.4901017561
 40
1.0
 40
1.0
 40
1.0
 40
1.0
 10
348.5888020688
 20
445.5086240753
 30
0.0
 10
348.5762620145
 20
445.5082871211
 30
0.0
 10
348.5505626299
 20
445.5100739718
 30
0.0
 10
348.5256136249
 20
445.5163906431
 30
0.0
 10
348.5132646435
 20
445.5206142434
 30
0.0
  0
SPLINE
  5
4A0
100
AcDbEntity
  8
0
100
AcDbSpline
 62
3
  6
CONTINUOUS
 70
0
 71
3
 72
9
 73
5
 74
0
 42
0.0000001
 43
0.0000001
 44
0.0000000001
 40
0.0
 40
0.0
 40
0.0
 40
0.0
 40
0.4967777653
 40
1.0
 40
1.0
 40
1.0
 40
1.0
 10
357.0719501148
 20
442.6354562763
 30
0.0
 10
357.0632612057
 20
442.6324940857
 30
0.0
 10
357.0452750354
 20
442.6279039243
 30
0.0
 10
357.0268105954
 20
442.626084282
 30
0.0
 10
357.0175149005
 20
442.6258345045
 30
0.0
  0
SPLINE
  5
4A1
100
AcDbEntity
  8
0
100
AcDbSpline
 62
3
  6
CONTINUOUS
 70
0
 71
3
 72
9
 73
5
 74
0
 42
0.0000001
 43
0.0000001
 44
0.0000000001
 40
0.0
 40
0.0
 40
0.0
 40
0.0
 40
0.4901017561
 40
1.0
 40
1.0
 40
1.0
 40
1.0
 10
357.0175149005
 20
442.6258345045
 30
0.0
 10
357.0049748462
 20
442.6254975503
 30
0.0
 10
356.9792754617
 20
442.627284401
 30
0.0
 10
356.9543264566
 20
442.6336010723
 30
0.0
 10
356.9419774753
 20
442.6378246727
 30
0.0
  0
SPLINE
  5
4A2
100
AcDbEntity
  8
0
100
AcDbSpline
 62
3
  6
CONTINUOUS
 70
0
 71
3
 72
9
 73
5
 74
0
 42
0.0000001
 43
0.0000001
 44
0.0000000001
 40
0.0
 40
0.0
 40
0.0
 40
0.0
 40
0.4967777653
 40
1.0
 40
1.0
 40
1.0
 40
1.0
 10
371.4262177729
 20
437.7260075946
 30
0.0
 10
371.4175288638
 20
437.7230454039
 30
0.0
 10
371.3995426935
 20
437.7184552426
 30
0.0
 10
371.3810782535
 20
437.7166356003
 30
0.0
 10
371.3717825586
 20
437.7163858228
 30
0.0
  0
SPLINE
  5
4A3
100
AcDbEntity
  8
0
100
AcDbSpline
 62
3
  6
CONTINUOUS
 70
0
 71
3
 72
9
 73
5
 74
0
 42
0.0000001
 43
0.0000001
 44
0.0000000001
 40
0.0
 40
0.0
 40
0.0
 40
0.0
 40
0.4901017561
 40
1.0
 40
1.0
 40
1.0
 40
1.0
 10
371.3717825586
 20
437.7163858228
 30
0.0
 10
371.3592425043
 20
437.7160488686
 30
0.0
 10
371.3335431198
 20
437.7178357193
 30
0.0
 10
371.3085941147
 20
437.7241523906
 30
0.0
 10
371.2962451334
 20
437.7283759909
 30
0.0
  0
SPLINE
  5
4A4
100
AcDbEntity
  8
0
100
AcDbSpline
 62
3
  6
CONTINUOUS
 70
0
 71
3
 72
9
 73
5
 74
0
 42
0.0000001
 43
0.0000001
 44
0.0000000001
 40
0.0
 40
0.0
 40
0.0
 40
0.0
 40
0.7143142692
 40
1.0
 40
1.0
 40
1.0
 40
1.0
 10
332.5152310486
 20
452.6186546766
 30
0.0
 10
332.4318338037
 20
452.5900832855
 30
0.0
 10
332.3374298618
 20
452.4841093305
 30
0.0
 10
332.301954348
 20
452.3666919032
 30
0.0
 10
332.2942211596
 20
452.3322930973
 30
0.0
  0
SPLINE
  5
4A5
100
AcDbEntity
  8
0
100
AcDbSpline
 62
3
  6
CONTINUOUS
 70
0
 71
3
 72
9
 73
5
 74
0
 42
0.0000001
 43
0.0000001
 44
0.0000000001
 40
0.0
 40
0.0
 40
0.0
 40
0.0
 40
0.4967777653
 40
1.0
 40
1.0
 40
1.0
 40
1.0
 10
351.0898267459
 20
444.6814629683
 30
0.0
 10
351.0811378369
 20
444.6785007777
 30
0.0
 10
351.0631516666
 20
444.6739106163
 30
0.0
 10
351.0446872266
 20
444.672090974
 30
0.0
 10
351.0353915317
 20
444.6718411965
 30
0.0
  0
SPLINE
  5
4A6
100
AcDbEntity
  8
0
100
AcDbSpline
 62
3
  6
CONTINUOUS
 70
0
 71
3
 72
9
 73
5
 74
0
 42
0.0000001
 43
0.0000001
 44
0.0000000001
 40
0.0
 40
0.0
 40
0.0
 40
0.0
 40
0.4901017561
 40
1.0
 40
1.0
 40
1.0
 40
1.0
 10
351.0353915317
 20
444.6718411965
 30
0.0
 10
351.0228514774
 20
444.6715042423
 30
0.0
 10
350.9971520928
 20
444.673291093
 30
0.0
 10
350.9722030878
 20
444.6796077643
 30
0.0
 10
350.9598541064
 20
444.6838313647
 30
0.0
  0
SPLINE
  5
4A7
100
AcDbEntity
  8
0
100
AcDbSpline
 62
3
  6
CONTINUOUS
 70
0
 71
3
 72
9
 73
5
 74
0
 42
0.0000001
 43
0.0000001
 44
0.0000000001
 40
0.0
 40
0.0
 40
0.0
 40
0.0
 40
0.4967777653
 40
1.0
 40
1.0
 40
1.0
 40
1.0
 10
362.177261075
 20
440.88933709
 30
0.0
 10
362.1685721659
 20
440.8863748994
 30
0.0
 10
362.1505859956
 20
440.881784738
 30
0.0
 10
362.1321215556
 20
440.8799650957
 30
0.0
 10
362.1228258607
 20
440.8797153182
 30
0.0
  0
SPLINE
  5
4A8
100
AcDbEntity
  8
0
100
AcDbSpline
 62
3
  6
CONTINUOUS
 70
0
 71
3
 72
9
 73
5
 74
0
 42
0.0000001
 43
0.0000001
 44
0.0000000001
 40
0.0
 40
0.0
 40
0.0
 40
0.0
 40
0.4901017561
 40
1.0
 40
1.0
 40
1.0
 40
1.0
 10
362.1228258607
 20
440.8797153182
 30
0.0
 10
362.1102858064
 20
440.879378364
 30
0.0
 10
362.0845864218
 20
440.8811652147
 30
0.0
 10
362.0596374168
 20
440.887481886
 30
0.0
 10
362.0472884354
 20
440.8917054864
 30
0.0
  0
SPLINE
  5
4A9
100
AcDbEntity
  8
0
100
AcDbSpline
 62
3
  6
CONTINUOUS
 70
0
 71
3
 72
9
 73
5
 74
0
 42
0.0000001
 43
0.0000001
 44
0.0000000001
 40
0.0
 40
0.0
 40
0.0
 40
0.0
 40
0.7143142692
 40
1.0
 40
1.0
 40
1.0
 40
1.0
 10
332.5152310486
 20
488.5337066431
 30
0.0
 10
332.4318338037
 20
488.5051352519
 30
0.0
 10
332.3374298618
 20
488.399161297
 30
0.0
 10
332.301954348
 20
488.2817438697
 30
0.0
 10
332.2942211596
 20
488.2473450637
 30
0.0
  0
SPLINE
  5
4AA
100
AcDbEntity
  8
0
100
AcDbSpline
 62
3
  6
CONTINUOUS
 70
0
 71
3
 72
9
 73
5
 74
0
 42
0.0000001
 43
0.0000001
 44
0.0000000001
 40
0.0
 40
0.0
 40
0.0
 40
0.0
 40
0.4967777653
 40
1.0
 40
1.0
 40
1.0
 40
1.0
 10
345.9845157858
 20
446.4275821546
 30
0.0
 10
345.9758268767
 20
446.424619964
 30
0.0
 10
345.9578407064
 20
446.4200298027
 30
0.0
 10
345.9393762664
 20
446.4182101604
 30
0.0
 10
345.9300805715
 20
446.4179603828
 30
0.0
  0
SPLINE
  5
4AB
100
AcDbEntity
  8
0
100
AcDbSpline
 62
3
  6
CONTINUOUS
 70
0
 71
3
 72
9
 73
5
 74
0
 42
0.0000001
 43
0.0000001
 44
0.0000000001
 40
0.0
 40
0.0
 40
0.0
 40
0.0
 40
0.4901017561
 40
1.0
 40
1.0
 40
1.0
 40
1.0
 10
345.9300805715
 20
446.4179603828
 30
0.0
 10
345.9175405172
 20
446.4176234286
 30
0.0
 10
345.8918411327
 20
446.4194102794
 30
0.0
 10
345.8668921276
 20
446.4257269506
 30
0.0
 10
345.8545431463
 20
446.429950551
 30
0.0
  0
SPLINE
  5
4AC
100
AcDbEntity
  8
0
100
AcDbSpline
 62
3
  6
CONTINUOUS
 70
0
 71
3
 72
9
 73
5
 74
0
 42
0.0000001
 43
0.0000001
 44
0.0000000001
 40
0.0
 40
0.0
 40
0.0
 40
0.0
 40
0.4967777653
 40
1.0
 40
1.0
 40
1.0
 40
1.0
 10
368.1311001725
 20
438.8530041885
 30
0.0
 10
368.1224112635
 20
438.8500419979
 30
0.0
 10
368.1044250932
 20
438.8454518365
 30
0.0
 10
368.0859606532
 20
438.8436321942
 30
0.0
 10
368.0766649583
 20
438.8433824167
 30
0.0
  0
SPLINE
  5
4AD
100
AcDbEntity
  8
0
100
AcDbSpline
 62
3
  6
CONTINUOUS
 70
0
 71
3
 72
9
 73
5
 74
0
 42
0.0000001
 43
0.0000001
 44
0.0000000001
 40
0.0
 40
0.0
 40
0.0
 40
0.0
 40
0.4901017561
 40
1.0
 40
1.0
 40
1.0
 40
1.0
 10
368.0766649583
 20
438.8433824167
 30
0.0
 10
368.064124904
 20
438.8430454625
 30
0.0
 10
368.0384255194
 20
438.8448323132
 30
0.0
 10
368.0134765144
 20
438.8511489845
 30
0.0
 10
368.001127533
 20
438.8553725849
 30
0.0
  0
SPLINE
  5
4AE
100
AcDbEntity
  8
0
100
AcDbSpline
 62
3
  6
CONTINUOUS
 70
0
 71
3
 72
9
 73
5
 74
0
 42
0.0000001
 43
0.0000001
 44
0.0000000001
 40
0.0
 40
0.0
 40
0.0
 40
0.0
 40
0.4967777653
 40
1.0
 40
1.0
 40
1.0
 40
1.0
 10
359.5185395777
 20
441.7986733976
 30
0.0
 10
359.5098506686
 20
441.7957112069
 30
0.0
 10
359.4918644983
 20
441.7911210456
 30
0.0
 10
359.4734000583
 20
441.7893014033
 30
0.0
 10
359.4641043634
 20
441.7890516258
 30
0.0
  0
SPLINE
  5
4AF
100
AcDbEntity
  8
0
100
AcDbSpline
 62
3
  6
CONTINUOUS
 70
0
 71
3
 72
9
 73
5
 74
0
 42
0.0000001
 43
0.0000001
 44
0.0000000001
 40
0.0
 40
0.0
 40
0.0
 40
0.0
 40
0.4901017561
 40
1.0
 40
1.0
 40
1.0
 40
1.0
 10
359.4641043634
 20
441.7890516258
 30
0.0
 10
359.4515643091
 20
441.7887146716
 30
0.0
 10
359.4258649246
 20
441.7905015223
 30
0.0
 10
359.4009159195
 20
441.7968181935
 30
0.0
 10
359.3885669382
 20
441.8010417939
 30
0.0
  0
SPLINE
  5
4B0
100
AcDbEntity
  8
0
100
AcDbSpline
 62
3
  6
CONTINUOUS
 70
0
 71
3
 72
9
 73
5
 74
0
 42
0.0000001
 43
0.0000001
 44
0.0000000001
 40
0.0
 40
0.0
 40
0.0
 40
0.0
 40
0.2205930796
 40
1.0
 40
1.0
 40
1.0
 40
1.0
 10
350.677011394
 20
444.7805692697
 30
0.0
 10
350.6510959773
 20
444.7894328642
 30
0.0
 10
350.5405320046
 20
444.8493367166
 30
0.0
 10
350.4661731339
 20
444.9617236205
 30
0.0
 10
350.4320624197
 20
445.0522852772
 30
0.0
  0
SPLINE
  5
4B1
100
AcDbEntity
  8
0
100
AcDbSpline
 62
3
  6
CONTINUOUS
 70
0
 71
3
 72
8
 73
4
 74
0
 42
0.0000001
 43
0.0000001
 44
0.0000000001
 40
0.0
 40
0.0
 40
0.0
 40
0.0
 40
1.0
 40
1.0
 40
1.0
 40
1.0
 10
350.4045869834
 20
445.1492373019
 30
0.0
 10
350.3979236997
 20
445.1834164204
 30
0.0
 10
350.3941686815
 20
445.2183616515
 30
0.0
 10
350.3941686815
 20
445.2531842231
 30
0.0
  0
SPLINE
  5
4B2
100
AcDbEntity
  8
0
100
AcDbSpline
 62
3
  6
CONTINUOUS
 70
0
 71
3
 72
9
 73
5
 74
0
 42
0.0000001
 43
0.0000001
 44
0.0000000001
 40
0.0
 40
0.0
 40
0.0
 40
0.0
 40
0.2965276189
 40
1.0
 40
1.0
 40
1.0
 40
1.0
 10
350.3941686815
 20
468.9334382669
 30
0.0
 10
350.3941686815
 20
468.9661235624
 30
0.0
 10
350.4027499606
 20
469.0742757594
 30
0.0
 10
350.4736450761
 20
469.1899247059
 30
0.0
 10
350.5470387544
 20
469.2149458065
 30
0.0
  0
SPLINE
  5
4B3
100
AcDbEntity
  8
0
100
AcDbSpline
 62
3
  6
CONTINUOUS
 70
0
 71
3
 72
9
 73
5
 74
0
 42
0.0000001
 43
0.0000001
 44
0.0000000001
 40
0.0
 40
0.0
 40
0.0
 40
0.0
 40
0.2965276189
 40
1.0
 40
1.0
 40
1.0
 40
1.0
 10
356.164160016
 20
466.9599850037
 30
0.0
 10
356.164160016
 20
466.9926702992
 30
0.0
 10
356.1727412951
 20
467.1008224962
 30
0.0
 10
356.2436364106
 20
467.2164714427
 30
0.0
 10
356.3170300889
 20
467.2414925433
 30
0.0
  0
SPLINE
  5
4B4
100
AcDbEntity
  8
0
100
AcDbSpline
 62
3
  6
CONTINUOUS
 70
0
 71
3
 72
9
 73
5
 74
0
 42
0.0000001
 43
0.0000001
 44
0.0000000001
 40
0.0
 40
0.0
 40
0.0
 40
0.0
 40
0.2205930796
 40
1.0
 40
1.0
 40
1.0
 40
1.0
 10
356.4470027284
 20
442.8071160065
 30
0.0
 10
356.4210873118
 20
442.815979601
 30
0.0
 10
356.3105233391
 20
442.8758834534
 30
0.0
 10
356.2361644684
 20
442.9882703573
 30
0.0
 10
356.2020537542
 20
443.078832014
 30
0.0
  0
SPLINE
  5
4B5
100
AcDbEntity
  8
0
100
AcDbSpline
 62
3
  6
CONTINUOUS
 70
0
 71
3
 72
8
 73
4
 74
0
 42
0.0000001
 43
0.0000001
 44
0.0000000001
 40
0.0
 40
0.0
 40
0.0
 40
0.0
 40
1.0
 40
1.0
 40
1.0
 40
1.0
 10
356.1745783179
 20
443.1757840387
 30
0.0
 10
356.1679150342
 20
443.2099631572
 30
0.0
 10
356.164160016
 20
443.2449083883
 30
0.0
 10
356.164160016
 20
443.2797309599
 30
0.0
  0
SPLINE
  5
4B6
100
AcDbEntity
  8
0
100
AcDbSpline
 62
3
  6
CONTINUOUS
 70
0
 71
3
 72
8
 73
4
 74
0
 42
0.0000001
 43
0.0000001
 44
0.0000000001
 40
0.0
 40
0.0
 40
0.0
 40
0.0
 40
1.0
 40
1.0
 40
1.0
 40
1.0
 10
332.2780929475
 20
486.4434002402
 30
0.0
 10
332.2780929475
 20
486.3377721383
 30
0.0
 10
332.299554605
 20
486.2308399248
 30
0.0
 10
332.3368282417
 20
486.132006874
 30
0.0
  0
SPLINE
  5
4B7
100
AcDbEntity
  8
0
100
AcDbSpline
 62
3
  6
CONTINUOUS
 70
0
 71
3
 72
8
 73
4
 74
0
 42
0.0000001
 43
0.0000001
 44
0.0000000001
 40
0.0
 40
0.0
 40
0.0
 40
0.0
 40
1.0
 40
1.0
 40
1.0
 40
1.0
 10
332.4065118032
 20
485.9875278379
 30
0.0
 10
332.4327771543
 20
485.9436551912
 30
0.0
 10
332.4630389364
 20
485.9018359929
 30
0.0
 10
332.4972960497
 20
485.8638738014
 30
0.0
  0
SPLINE
  5
4B8
100
AcDbEntity
  8
0
100
AcDbSpline
 62
3
  6
CONTINUOUS
 70
0
 71
3
 72
9
 73
5
 74
0
 42
0.0000001
 43
0.0000001
 44
0.0000000001
 40
0.0
 40
0.0
 40
0.0
 40
0.0
 40
0.2935856507
 40
1.0
 40
1.0
 40
1.0
 40
1.0
 10
332.4972960497
 20
485.8638738014
 30
0.0
 10
332.5275891093
 20
485.8303043957
 30
0.0
 10
332.6379514192
 20
485.7253963881
 30
0.0
 10
332.8148406779
 20
485.6718033221
 30
0.0
 10
332.917767255
 20
485.7070653443
 30
0.0
  0
SPLINE
  5
4B9
100
AcDbEntity
  8
0
100
AcDbSpline
 62
3
  6
CONTINUOUS
 70
0
 71
3
 72
9
 73
5
 74
0
 42
0.0000001
 43
0.0000001
 44
0.0000000001
 40
0.0
 40
0.0
 40
0.0
 40
0.0
 40
0.4967777653
 40
1.0
 40
1.0
 40
1.0
 40
1.0
 10
343.1136622542
 20
447.409471891
 30
0.0
 10
343.1049733451
 20
447.4065097003
 30
0.0
 10
343.0869871748
 20
447.401919539
 30
0.0
 10
343.0685227348
 20
447.4000998967
 30
0.0
 10
343.0592270399
 20
447.3998501192
 30
0.0
  0
SPLINE
  5
4BA
100
AcDbEntity
  8
0
100
AcDbSpline
 62
3
  6
CONTINUOUS
 70
0
 71
3
 72
9
 73
5
 74
0
 42
0.0000001
 43
0.0000001
 44
0.0000000001
 40
0.0
 40
0.0
 40
0.0
 40
0.0
 40
0.4901017561
 40
1.0
 40
1.0
 40
1.0
 40
1.0
 10
343.0592270399
 20
447.3998501192
 30
0.0
 10
343.0466869856
 20
447.399513165
 30
0.0
 10
343.0209876011
 20
447.4013000157
 30
0.0
 10
342.996038596
 20
447.407616687
 30
0.0
 10
342.9836896147
 20
447.4118402873
 30
0.0
  0
SPLINE
  5
4BB
100
AcDbEntity
  8
0
100
AcDbSpline
 62
3
  6
CONTINUOUS
 70
0
 71
3
 72
9
 73
5
 74
0
 42
0.0000001
 43
0.0000001
 44
0.0000000001
 40
0.0
 40
0.0
 40
0.0
 40
0.0
 40
0.2965276189
 40
1.0
 40
1.0
 40
1.0
 40
1.0
 10
358.8228815132
 20
466.0506486961
 30
0.0
 10
358.8228815132
 20
466.0833339916
 30
0.0
 10
358.8314627923
 20
466.1914861886
 30
0.0
 10
358.9023579078
 20
466.3071351352
 30
0.0
 10
358.9757515862
 20
466.3321562358
 30
0.0
  0
SPLINE
  5
4BC
100
AcDbEntity
  8
0
100
AcDbSpline
 62
3
  6
CONTINUOUS
 70
0
 71
3
 72
9
 73
5
 74
0
 42
0.0000001
 43
0.0000001
 44
0.0000000001
 40
0.0
 40
0.0
 40
0.0
 40
0.0
 40
0.2205930796
 40
1.0
 40
1.0
 40
1.0
 40
1.0
 10
353.1236008569
 20
443.943786391
 30
0.0
 10
353.0976854403
 20
443.9526499855
 30
0.0
 10
352.9871214675
 20
444.0125538379
 30
0.0
 10
352.9127625968
 20
444.1249407418
 30
0.0
 10
352.8786518826
 20
444.2155023984
 30
0.0
  0
SPLINE
  5
4BD
100
AcDbEntity
  8
0
100
AcDbSpline
 62
3
  6
CONTINUOUS
 70
0
 71
3
 72
8
 73
4
 74
0
 42
0.0000001
 43
0.0000001
 44
0.0000000001
 40
0.0
 40
0.0
 40
0.0
 40
0.0
 40
1.0
 40
1.0
 40
1.0
 40
1.0
 10
352.8511764464
 20
444.3124544232
 30
0.0
 10
352.8445131626
 20
444.3466335417
 30
0.0
 10
352.8407581444
 20
444.3815787727
 30
0.0
 10
352.8407581444
 20
444.4164013443
 30
0.0
  0
SPLINE
  5
4BE
100
AcDbEntity
  8
0
100
AcDbSpline
 62
3
  6
CONTINUOUS
 70
0
 71
3
 72
9
 73
5
 74
0
 42
0.0000001
 43
0.0000001
 44
0.0000000001
 40
0.0
 40
0.0
 40
0.0
 40
0.0
 40
0.2205930796
 40
1.0
 40
1.0
 40
1.0
 40
1.0
 10
359.1057242257
 20
441.897779699
 30
0.0
 10
359.0798088091
 20
441.9066432935
 30
0.0
 10
358.9692448364
 20
441.9665471459
 30
0.0
 10
358.8948859657
 20
442.0789340498
 30
0.0
 10
358.8607752514
 20
442.1694957064
 30
0.0
  0
SPLINE
  5
4BF
100
AcDbEntity
  8
0
100
AcDbSpline
 62
3
  6
CONTINUOUS
 70
0
 71
3
 72
8
 73
4
 74
0
 42
0.0000001
 43
0.0000001
 44
0.0000000001
 40
0.0
 40
0.0
 40
0.0
 40
0.0
 40
1.0
 40
1.0
 40
1.0
 40
1.0
 10
358.8332998152
 20
442.2664477312
 30
0.0
 10
358.8266365315
 20
442.3006268497
 30
0.0
 10
358.8228815132
 20
442.3355720807
 30
0.0
 10
358.8228815132
 20
442.3703946523
 30
0.0
  0
SPLINE
  5
4C0
100
AcDbEntity
  8
0
100
AcDbSpline
 62
3
  6
CONTINUOUS
 70
0
 71
3
 72
9
 73
5
 74
0
 42
0.0000001
 43
0.0000001
 44
0.0000000001
 40
0.0
 40
0.0
 40
0.0
 40
0.0
 40
0.2965276189
 40
1.0
 40
1.0
 40
1.0
 40
1.0
 10
352.8407581444
 20
468.0966553881
 30
0.0
 10
352.8407581444
 20
468.1293406836
 30
0.0
 10
352.8493394235
 20
468.2374928806
 30
0.0
 10
352.920234539
 20
468.3531418272
 30
0.0
 10
352.9936282174
 20
468.3781629278
 30
0.0
  0
SPLINE
  5
4C1
100
AcDbEntity
  8
0
100
AcDbSpline
 62
3
  6
CONTINUOUS
 70
0
 71
3
 72
9
 73
5
 74
0
 42
0.0000001
 43
0.0000001
 44
0.0000000001
 40
0.0
 40
0.0
 40
0.0
 40
0.0
 40
0.2965276189
 40
1.0
 40
1.0
 40
1.0
 40
1.0
 10
369.882031571
 20
462.2681966083
 30
0.0
 10
369.882031571
 20
462.3008819038
 30
0.0
 10
369.8906128501
 20
462.4090341008
 30
0.0
 10
369.9615079656
 20
462.5246830474
 30
0.0
 10
370.0349016439
 20
462.5497041479
 30
0.0
  0
SPLINE
  5
4C2
100
AcDbEntity
  8
0
100
AcDbSpline
 62
3
  6
CONTINUOUS
 70
0
 71
3
 72
9
 73
5
 74
0
 42
0.0000001
 43
0.0000001
 44
0.0000000001
 40
0.0
 40
0.0
 40
0.0
 40
0.0
 40
0.2205930796
 40
1.0
 40
1.0
 40
1.0
 40
1.0
 10
370.1648742835
 20
438.1153276112
 30
0.0
 10
370.1389588668
 20
438.1241912057
 30
0.0
 10
370.0283948941
 20
438.184095058
 30
0.0
 10
369.9540360234
 20
438.2964819619
 30
0.0
 10
369.9199253092
 20
438.3870436186
 30
0.0
  0
SPLINE
  5
4C3
100
AcDbEntity
  8
0
100
AcDbSpline
 62
3
  6
CONTINUOUS
 70
0
 71
3
 72
8
 73
4
 74
0
 42
0.0000001
 43
0.0000001
 44
0.0000000001
 40
0.0
 40
0.0
 40
0.0
 40
0.0
 40
1.0
 40
1.0
 40
1.0
 40
1.0
 10
369.8924498729
 20
438.4839956433
 30
0.0
 10
369.8857865892
 20
438.5181747619
 30
0.0
 10
369.882031571
 20
438.5531199929
 30
0.0
 10
369.882031571
 20
438.5879425645
 30
0.0
  0
SPLINE
  5
4C4
100
AcDbEntity
  8
0
100
AcDbSpline
 62
3
  6
CONTINUOUS
 70
0
 71
3
 72
9
 73
5
 74
0
 42
0.0000001
 43
0.0000001
 44
0.0000000001
 40
0.0
 40
0.0
 40
0.0
 40
0.0
 40
0.4967777653
 40
1.0
 40
1.0
 40
1.0
 40
1.0
 10
340.0306766882
 20
448.4639150561
 30
0.0
 10
340.0219877791
 20
448.4609528655
 30
0.0
 10
340.0040016088
 20
448.4563627041
 30
0.0
 10
339.9855371688
 20
448.4545430619
 30
0.0
 10
339.9762414739
 20
448.4542932843
 30
0.0
  0
SPLINE
  5
4C5
100
AcDbEntity
  8
0
100
AcDbSpline
 62
3
  6
CONTINUOUS
 70
0
 71
3
 72
9
 73
5
 74
0
 42
0.0000001
 43
0.0000001
 44
0.0000000001
 40
0.0
 40
0.0
 40
0.0
 40
0.0
 40
0.4901017561
 40
1.0
 40
1.0
 40
1.0
 40
1.0
 10
339.9762414739
 20
448.4542932843
 30
0.0
 10
339.9637014196
 20
448.4539563301
 30
0.0
 10
339.9380020351
 20
448.4557431809
 30
0.0
 10
339.91305303
 20
448.4620598521
 30
0.0
 10
339.9007040487
 20
448.4662834525
 30
0.0
  0
SPLINE
  5
4C6
100
AcDbEntity
  8
0
100
AcDbSpline
 62
3
  6
CONTINUOUS
 70
0
 71
3
 72
9
 73
5
 74
0
 42
0.0000001
 43
0.0000001
 44
0.0000000001
 40
0.0
 40
0.0
 40
0.0
 40
0.0
 40
0.2205930796
 40
1.0
 40
1.0
 40
1.0
 40
1.0
 10
348.0182898967
 20
445.6899055773
 30
0.0
 10
347.9923744801
 20
445.6987691718
 30
0.0
 10
347.8818105074
 20
445.7586730242
 30
0.0
 10
347.8074516367
 20
445.8710599281
 30
0.0
 10
347.7733409224
 20
445.9616215847
 30
0.0
  0
SPLINE
  5
4C7
100
AcDbEntity
  8
0
100
AcDbSpline
 62
3
  6
CONTINUOUS
 70
0
 71
3
 72
8
 73
4
 74
0
 42
0.0000001
 43
0.0000001
 44
0.0000000001
 40
0.0
 40
0.0
 40
0.0
 40
0.0
 40
1.0
 40
1.0
 40
1.0
 40
1.0
 10
347.7458654862
 20
446.0585736095
 30
0.0
 10
347.7392022025
 20
446.092752728
 30
0.0
 10
347.7354471842
 20
446.1276979591
 30
0.0
 10
347.7354471842
 20
446.1625205307
 30
0.0
  0
SPLINE
  5
4C8
100
AcDbEntity
  8
0
100
AcDbSpline
 62
3
  6
CONTINUOUS
 70
0
 71
3
 72
9
 73
5
 74
0
 42
0.0000001
 43
0.0000001
 44
0.0000000001
 40
0.0
 40
0.0
 40
0.0
 40
0.0
 40
0.2965276189
 40
1.0
 40
1.0
 40
1.0
 40
1.0
 10
366.799046005
 20
463.3226397735
 30
0.0
 10
366.799046005
 20
463.3553250689
 30
0.0
 10
366.8076272841
 20
463.4634772659
 30
0.0
 10
366.8785223996
 20
463.5791262125
 30
0.0
 10
366.951916078
 20
463.6041473131
 30
0.0
  0
SPLINE
  5
4C9
100
AcDbEntity
  8
0
100
AcDbSpline
 62
3
  6
CONTINUOUS
 70
0
 71
3
 72
9
 73
5
 74
0
 42
0.0000001
 43
0.0000001
 44
0.0000000001
 40
0.0
 40
0.0
 40
0.0
 40
0.0
 40
0.2205930796
 40
1.0
 40
1.0
 40
1.0
 40
1.0
 10
367.0818887175
 20
439.1697707763
 30
0.0
 10
367.0559733009
 20
439.1786343708
 30
0.0
 10
366.9454093281
 20
439.2385382232
 30
0.0
 10
366.8710504575
 20
439.3509251271
 30
0.0
 10
366.8369397432
 20
439.4414867837
 30
0.0
  0
SPLINE
  5
4CA
100
AcDbEntity
  8
0
100
AcDbSpline
 62
3
  6
CONTINUOUS
 70
0
 71
3
 72
8
 73
4
 74
0
 42
0.0000001
 43
0.0000001
 44
0.0000000001
 40
0.0
 40
0.0
 40
0.0
 40
0.0
 40
1.0
 40
1.0
 40
1.0
 40
1.0
 10
366.809464307
 20
439.5384388085
 30
0.0
 10
366.8028010232
 20
439.572617927
 30
0.0
 10
366.799046005
 20
439.6075631581
 30
0.0
 10
366.799046005
 20
439.6423857297
 30
0.0
  0
SPLINE
  5
4CB
100
AcDbEntity
  8
0
100
AcDbSpline
 62
3
  6
CONTINUOUS
 70
0
 71
3
 72
9
 73
5
 74
0
 42
0.0000001
 43
0.0000001
 44
0.0000000001
 40
0.0
 40
0.0
 40
0.0
 40
0.0
 40
0.2965276189
 40
1.0
 40
1.0
 40
1.0
 40
1.0
 10
347.7354471842
 20
469.8427745745
 30
0.0
 10
347.7354471842
 20
469.8754598699
 30
0.0
 10
347.7440284633
 20
469.9836120669
 30
0.0
 10
347.8149235788
 20
470.0992610135
 30
0.0
 10
347.8883172572
 20
470.1242821141
 30
0.0
  0
SPLINE
  5
4CC
100
AcDbEntity
  8
0
100
AcDbSpline
 62
3
  6
CONTINUOUS
 70
0
 71
3
 72
9
 73
5
 74
0
 42
0.0000001
 43
0.0000001
 44
0.0000000001
 40
0.0
 40
0.0
 40
0.0
 40
0.0
 40
0.2965276189
 40
1.0
 40
1.0
 40
1.0
 40
1.0
 10
363.9281924734
 20
464.3045295098
 30
0.0
 10
363.9281924734
 20
464.3372148053
 30
0.0
 10
363.9367737525
 20
464.4453670023
 30
0.0
 10
364.007668868
 20
464.5610159489
 30
0.0
 10
364.0810625464
 20
464.5860370494
 30
0.0
  0
SPLINE
  5
4CD
100
AcDbEntity
  8
0
100
AcDbSpline
 62
3
  6
CONTINUOUS
 70
0
 71
3
 72
9
 73
5
 74
0
 42
0.0000001
 43
0.0000001
 44
0.0000000001
 40
0.0
 40
0.0
 40
0.0
 40
0.0
 40
0.2205930796
 40
1.0
 40
1.0
 40
1.0
 40
1.0
 10
364.2110351859
 20
440.1516605127
 30
0.0
 10
364.1851197693
 20
440.1605241072
 30
0.0
 10
364.0745557965
 20
440.2204279595
 30
0.0
 10
364.0001969258
 20
440.3328148634
 30
0.0
 10
363.9660862116
 20
440.4233765201
 30
0.0
  0
SPLINE
  5
4CE
100
AcDbEntity
  8
0
100
AcDbSpline
 62
3
  6
CONTINUOUS
 70
0
 71
3
 72
8
 73
4
 74
0
 42
0.0000001
 43
0.0000001
 44
0.0000000001
 40
0.0
 40
0.0
 40
0.0
 40
0.0
 40
1.0
 40
1.0
 40
1.0
 40
1.0
 10
363.9386107754
 20
440.5203285448
 30
0.0
 10
363.9319474916
 20
440.5545076634
 30
0.0
 10
363.9281924734
 20
440.5894528944
 30
0.0
 10
363.9281924734
 20
440.624275466
 30
0.0
  0
SPLINE
  5
4CF
100
AcDbEntity
  8
0
100
AcDbSpline
 62
3
  6
CONTINUOUS
 70
0
 71
3
 72
9
 73
5
 74
0
 42
0.0000001
 43
0.0000001
 44
0.0000000001
 40
0.0
 40
0.0
 40
0.0
 40
0.0
 40
0.2205930796
 40
1.0
 40
1.0
 40
1.0
 40
1.0
 10
345.1474363651
 20
446.6717953136
 30
0.0
 10
345.1215209485
 20
446.6806589081
 30
0.0
 10
345.0109569757
 20
446.7405627605
 30
0.0
 10
344.936598105
 20
446.8529496644
 30
0.0
 10
344.9024873908
 20
446.9435113211
 30
0.0
  0
SPLINE
  5
4D0
100
AcDbEntity
  8
0
100
AcDbSpline
 62
3
  6
CONTINUOUS
 70
0
 71
3
 72
8
 73
4
 74
0
 42
0.0000001
 43
0.0000001
 44
0.0000000001
 40
0.0
 40
0.0
 40
0.0
 40
0.0
 40
1.0
 40
1.0
 40
1.0
 40
1.0
 10
344.8750119546
 20
447.0404633458
 30
0.0
 10
344.8683486708
 20
447.0746424644
 30
0.0
 10
344.8645936526
 20
447.1095876954
 30
0.0
 10
344.8645936526
 20
447.144410267
 30
0.0
  0
SPLINE
  5
4D1
100
AcDbEntity
  8
0
100
AcDbSpline
 62
3
  6
CONTINUOUS
 70
0
 71
3
 72
9
 73
5
 74
0
 42
0.0000001
 43
0.0000001
 44
0.0000000001
 40
0.0
 40
0.0
 40
0.0
 40
0.0
 40
0.2965276189
 40
1.0
 40
1.0
 40
1.0
 40
1.0
 10
361.2694709761
 20
465.2138658174
 30
0.0
 10
361.2694709761
 20
465.2465511128
 30
0.0
 10
361.2780522552
 20
465.3547033098
 30
0.0
 10
361.3489473707
 20
465.4703522564
 30
0.0
 10
361.4223410491
 20
465.495373357
 30
0.0
  0
SPLINE
  5
4D2
100
AcDbEntity
  8
0
100
AcDbSpline
 62
3
  6
CONTINUOUS
 70
0
 71
3
 72
9
 73
5
 74
0
 42
0.0000001
 43
0.0000001
 44
0.0000000001
 40
0.0
 40
0.0
 40
0.0
 40
0.0
 40
0.2965276189
 40
1.0
 40
1.0
 40
1.0
 40
1.0
 10
344.8645936526
 20
470.8246643108
 30
0.0
 10
344.8645936526
 20
470.8573496063
 30
0.0
 10
344.8731749317
 20
470.9655018033
 30
0.0
 10
344.9440700472
 20
471.0811507499
 30
0.0
 10
345.0174637256
 20
471.1061718504
 30
0.0
  0
SPLINE
  5
4D3
100
AcDbEntity
  8
0
100
AcDbSpline
 62
3
  6
CONTINUOUS
 70
0
 71
3
 72
9
 73
5
 74
0
 42
0.0000001
 43
0.0000001
 44
0.0000000001
 40
0.0
 40
0.0
 40
0.0
 40
0.0
 40
0.2205930796
 40
1.0
 40
1.0
 40
1.0
 40
1.0
 10
361.5523136886
 20
441.0609968202
 30
0.0
 10
361.526398272
 20
441.0698604147
 30
0.0
 10
361.4158342993
 20
441.1297642671
 30
0.0
 10
361.3414754286
 20
441.242151171
 30
0.0
 10
361.3073647143
 20
441.3327128277
 30
0.0
  0
SPLINE
  5
4D4
100
AcDbEntity
  8
0
100
AcDbSpline
 62
3
  6
CONTINUOUS
 70
0
 71
3
 72
8
 73
4
 74
0
 42
0.0000001
 43
0.0000001
 44
0.0000000001
 40
0.0
 40
0.0
 40
0.0
 40
0.0
 40
1.0
 40
1.0
 40
1.0
 40
1.0
 10
361.2798892781
 20
441.4296648524
 30
0.0
 10
361.2732259944
 20
441.4638439709
 30
0.0
 10
361.2694709761
 20
441.498789202
 30
0.0
 10
361.2694709761
 20
441.5336117736
 30
0.0
  0
SPLINE
  5
4D5
100
AcDbEntity
  8
0
100
AcDbSpline
 62
3
  6
CONTINUOUS
 70
0
 71
3
 72
8
 73
4
 74
0
 42
0.0000001
 43
0.0000001
 44
0.0000000001
 40
0.0
 40
0.0
 40
0.0
 40
0.0
 40
1.0
 40
1.0
 40
1.0
 40
1.0
 10
332.2780929475
 20
451.6559794187
 30
0.0
 10
332.2780929475
 20
451.5503513168
 30
0.0
 10
332.299554605
 20
451.4434191033
 30
0.0
 10
332.3368282417
 20
451.3445860525
 30
0.0
  0
SPLINE
  5
4D6
100
AcDbEntity
  8
0
100
AcDbSpline
 62
3
  6
CONTINUOUS
 70
0
 71
3
 72
8
 73
4
 74
0
 42
0.0000001
 43
0.0000001
 44
0.0000000001
 40
0.0
 40
0.0
 40
0.0
 40
0.0
 40
1.0
 40
1.0
 40
1.0
 40
1.0
 10
332.4065118032
 20
451.2001070164
 30
0.0
 10
332.4327771543
 20
451.1562343697
 30
0.0
 10
332.4630389364
 20
451.1144151714
 30
0.0
 10
332.4972960497
 20
451.0764529799
 30
0.0
  0
SPLINE
  5
4D7
100
AcDbEntity
  8
0
100
AcDbSpline
 62
3
  6
CONTINUOUS
 70
0
 71
3
 72
9
 73
5
 74
0
 42
0.0000001
 43
0.0000001
 44
0.0000000001
 40
0.0
 40
0.0
 40
0.0
 40
0.0
 40
0.2935856507
 40
1.0
 40
1.0
 40
1.0
 40
1.0
 10
332.4972960497
 20
451.0764529799
 30
0.0
 10
332.5275891093
 20
451.0428835742
 30
0.0
 10
332.6379514192
 20
450.9379755666
 30
0.0
 10
332.8148406779
 20
450.8843825007
 30
0.0
 10
332.917767255
 20
450.9196445228
 30
0.0
  0
SPLINE
  5
4D8
100
AcDbEntity
  8
0
100
AcDbSpline
 62
3
  6
CONTINUOUS
 70
0
 71
3
 72
9
 73
5
 74
0
 42
0.0000001
 43
0.0000001
 44
0.0000000001
 40
0.0
 40
0.0
 40
0.0
 40
0.0
 40
0.2965276189
 40
1.0
 40
1.0
 40
1.0
 40
1.0
 10
338.4864904863
 20
473.0061040699
 30
0.0
 10
338.4864904863
 20
473.0387893654
 30
0.0
 10
338.4950717654
 20
473.1469415624
 30
0.0
 10
338.5659668809
 20
473.2625905089
 30
0.0
 10
338.6393605593
 20
473.2876116095
 30
0.0
  0
SPLINE
  5
4D9
100
AcDbEntity
  8
0
100
AcDbSpline
 62
3
  6
CONTINUOUS
 70
0
 71
3
 72
9
 73
5
 74
0
 42
0.0000001
 43
0.0000001
 44
0.0000000001
 40
0.0
 40
0.0
 40
0.0
 40
0.0
 40
0.2205930796
 40
1.0
 40
1.0
 40
1.0
 40
1.0
 10
338.7693331988
 20
448.8532350727
 30
0.0
 10
338.7434177822
 20
448.8620986672
 30
0.0
 10
338.6328538094
 20
448.9220025196
 30
0.0
 10
338.5584949387
 20
449.0343894235
 30
0.0
 10
338.5243842245
 20
449.1249510802
 30
0.0
  0
SPLINE
  5
4DA
100
AcDbEntity
  8
0
100
AcDbSpline
 62
3
  6
CONTINUOUS
 70
0
 71
3
 72
8
 73
4
 74
0
 42
0.0000001
 43
0.0000001
 44
0.0000000001
 40
0.0
 40
0.0
 40
0.0
 40
0.0
 40
1.0
 40
1.0
 40
1.0
 40
1.0
 10
338.4969087883
 20
449.2219031049
 30
0.0
 10
338.4902455045
 20
449.2560822234
 30
0.0
 10
338.4864904863
 20
449.2910274545
 30
0.0
 10
338.4864904863
 20
449.3258500261
 30
0.0
  0
SPLINE
  5
4DB
100
AcDbEntity
  8
0
100
AcDbSpline
 62
3
  6
CONTINUOUS
 70
0
 71
3
 72
9
 73
5
 74
0
 42
0.0000001
 43
0.0000001
 44
0.0000000001
 40
0.0
 40
0.0
 40
0.0
 40
0.0
 40
0.2205930796
 40
1.0
 40
1.0
 40
1.0
 40
1.0
 10
342.0644507991
 20
447.7262384788
 30
0.0
 10
342.0385353825
 20
447.7351020733
 30
0.0
 10
341.9279714098
 20
447.7950059257
 30
0.0
 10
341.8536125391
 20
447.9073928296
 30
0.0
 10
341.8195018248
 20
447.9979544862
 30
0.0
  0
SPLINE
  5
4DC
100
AcDbEntity
  8
0
100
AcDbSpline
 62
3
  6
CONTINUOUS
 70
0
 71
3
 72
8
 73
4
 74
0
 42
0.0000001
 43
0.0000001
 44
0.0000000001
 40
0.0
 40
0.0
 40
0.0
 40
0.0
 40
1.0
 40
1.0
 40
1.0
 40
1.0
 10
341.7920263886
 20
448.094906511
 30
0.0
 10
341.7853631049
 20
448.1290856295
 30
0.0
 10
341.7816080866
 20
448.1640308606
 30
0.0
 10
341.7816080866
 20
448.1988534322
 30
0.0
  0
SPLINE
  5
4DD
100
AcDbEntity
  8
0
100
AcDbSpline
 62
3
  6
CONTINUOUS
 70
0
 71
3
 72
9
 73
5
 74
0
 42
0.0000001
 43
0.0000001
 44
0.0000000001
 40
0.0
 40
0.0
 40
0.0
 40
0.0
 40
0.2965276189
 40
1.0
 40
1.0
 40
1.0
 40
1.0
 10
341.7816080866
 20
471.879107476
 30
0.0
 10
341.7816080866
 20
471.9117927714
 30
0.0
 10
341.7901893657
 20
472.0199449684
 30
0.0
 10
341.8610844812
 20
472.135593915
 30
0.0
 10
341.9344781596
 20
472.1606150156
 30
0.0
  0
SPLINE
  5
4DE
100
AcDbEntity
  8
0
100
AcDbSpline
 62
3
  6
CONTINUOUS
 70
0
 71
3
 72
9
 73
5
 74
0
 42
0.0000001
 43
0.0000001
 44
0.0000000001
 40
0.0
 40
0.0
 40
0.0
 40
0.0
 40
0.2764932141
 40
1.0
 40
1.0
 40
1.0
 40
1.0
 10
507.5840061393
 20
166.9309681094
 30
0.0
 10
507.5840061393
 20
166.8390895726
 30
0.0
 10
507.604358369
 20
166.508533651
 30
0.0
 10
507.7174591796
 20
166.173360506
 30
0.0
 10
507.8667053587
 20
165.9848723557
 30
0.0
  0
SPLINE
  5
4DF
100
AcDbEntity
  8
0
100
AcDbSpline
 62
3
  6
CONTINUOUS
 70
0
 71
3
 72
9
 73
5
 74
0
 42
0.0000001
 43
0.0000001
 44
0.0000000001
 40
0.0
 40
0.0
 40
0.0
 40
0.0
 40
0.2598303797
 40
1.0
 40
1.0
 40
1.0
 40
1.0
 10
507.8667053587
 20
165.9848723557
 30
0.0
 10
507.8876432122
 20
165.9584292179
 30
0.0
 10
507.9731656112
 20
165.8607490025
 30
0.0
 10
508.0804378298
 20
165.7814901793
 30
0.0
 10
508.1670541076
 20
165.7399042509
 30
0.0
  0
SPLINE
  5
4E0
100
AcDbEntity
  8
0
100
AcDbSpline
 62
3
  6
CONTINUOUS
 70
0
 71
3
 72
9
 73
5
 74
0
 42
0.0000001
 43
0.0000001
 44
0.0000000001
 40
0.0
 40
0.0
 40
0.0
 40
0.0
 40
0.2764932141
 40
1.0
 40
1.0
 40
1.0
 40
1.0
 10
512.1094895388
 20
168.4787745903
 30
0.0
 10
512.1094895388
 20
168.3868960535
 30
0.0
 10
512.1298417686
 20
168.0563401319
 30
0.0
 10
512.2429425792
 20
167.721166987
 30
0.0
 10
512.3921887583
 20
167.5326788366
 30
0.0
  0
SPLINE
  5
4E1
100
AcDbEntity
  8
0
100
AcDbSpline
 62
3
  6
CONTINUOUS
 70
0
 71
3
 72
9
 73
5
 74
0
 42
0.0000001
 43
0.0000001
 44
0.0000000001
 40
0.0
 40
0.0
 40
0.0
 40
0.0
 40
0.2598303797
 40
1.0
 40
1.0
 40
1.0
 40
1.0
 10
512.3921887583
 20
167.5326788366
 30
0.0
 10
512.4131266117
 20
167.5062356988
 30
0.0
 10
512.4986490108
 20
167.4085554834
 30
0.0
 10
512.6059212294
 20
167.3292966602
 30
0.0
 10
512.6925375072
 20
167.2877107319
 30
0.0
  0
SPLINE
  5
4E2
100
AcDbEntity
  8
0
100
AcDbSpline
 62
3
  6
CONTINUOUS
 70
0
 71
3
 72
9
 73
5
 74
0
 42
0.0000001
 43
0.0000001
 44
0.0000000001
 40
0.0
 40
0.0
 40
0.0
 40
0.0
 40
0.2764932141
 40
1.0
 40
1.0
 40
1.0
 40
1.0
 10
516.6349729384
 20
170.0265810713
 30
0.0
 10
516.6349729384
 20
169.9347025345
 30
0.0
 10
516.6553251682
 20
169.6041466129
 30
0.0
 10
516.7684259788
 20
169.2689734679
 30
0.0
 10
516.9176721579
 20
169.0804853176
 30
0.0
  0
SPLINE
  5
4E3
100
AcDbEntity
  8
0
100
AcDbSpline
 62
3
  6
CONTINUOUS
 70
0
 71
3
 72
9
 73
5
 74
0
 42
0.0000001
 43
0.0000001
 44
0.0000000001
 40
0.0
 40
0.0
 40
0.0
 40
0.0
 40
0.2598303797
 40
1.0
 40
1.0
 40
1.0
 40
1.0
 10
516.9176721579
 20
169.0804853176
 30
0.0
 10
516.9386100113
 20
169.0540421798
 30
0.0
 10
517.0241324104
 20
168.9563619644
 30
0.0
 10
517.131404629
 20
168.8771031412
 30
0.0
 10
517.2180209068
 20
168.8355172128
 30
0.0
  0
SPLINE
  5
4E4
100
AcDbEntity
  8
0
100
AcDbSpline
 62
3
  6
CONTINUOUS
 70
0
 71
3
 72
9
 73
5
 74
0
 42
0.0000001
 43
0.0000001
 44
0.0000000001
 40
0.0
 40
0.0
 40
0.0
 40
0.0
 40
0.2764932141
 40
1.0
 40
1.0
 40
1.0
 40
1.0
 10
521.160456338
 20
171.5743875522
 30
0.0
 10
521.160456338
 20
171.4825090154
 30
0.0
 10
521.1808085678
 20
171.1519530938
 30
0.0
 10
521.2939093784
 20
170.8167799489
 30
0.0
 10
521.4431555575
 20
170.6282917985
 30
0.0
  0
SPLINE
  5
4E5
100
AcDbEntity
  8
0
100
AcDbSpline
 62
3
  6
CONTINUOUS
 70
0
 71
3
 72
9
 73
5
 74
0
 42
0.0000001
 43
0.0000001
 44
0.0000000001
 40
0.0
 40
0.0
 40
0.0
 40
0.0
 40
0.2598303797
 40
1.0
 40
1.0
 40
1.0
 40
1.0
 10
521.4431555575
 20
170.6282917985
 30
0.0
 10
521.4640934109
 20
170.6018486607
 30
0.0
 10
521.54961581
 20
170.5041684453
 30
0.0
 10
521.6568880286
 20
170.4249096221
 30
0.0
 10
521.7435043064
 20
170.3833236938
 30
0.0
  0
SPLINE
  5
4E6
100
AcDbEntity
  8
0
100
AcDbSpline
 62
3
  6
CONTINUOUS
 70
0
 71
3
 72
9
 73
5
 74
0
 42
0.0000001
 43
0.0000001
 44
0.0000000001
 40
0.0
 40
0.0
 40
0.0
 40
0.0
 40
0.2764932141
 40
1.0
 40
1.0
 40
1.0
 40
1.0
 10
525.6859397376
 20
173.1221940332
 30
0.0
 10
525.6859397376
 20
173.0303154964
 30
0.0
 10
525.7062919673
 20
172.6997595748
 30
0.0
 10
525.819392778
 20
172.3645864298
 30
0.0
 10
525.968638957
 20
172.1760982794
 30
0.0
  0
SPLINE
  5
4E7
100
AcDbEntity
  8
0
100
AcDbSpline
 62
3
  6
CONTINUOUS
 70
0
 71
3
 72
9
 73
5
 74
0
 42
0.0000001
 43
0.0000001
 44
0.0000000001
 40
0.0
 40
0.0
 40
0.0
 40
0.0
 40
0.2598303797
 40
1.0
 40
1.0
 40
1.0
 40
1.0
 10
525.968638957
 20
172.1760982794
 30
0.0
 10
525.9895768105
 20
172.1496551417
 30
0.0
 10
526.0750992096
 20
172.0519749263
 30
0.0
 10
526.1823714282
 20
171.9727161031
 30
0.0
 10
526.268987706
 20
171.9311301747
 30
0.0
  0
SPLINE
  5
4E8
100
AcDbEntity
  8
0
100
AcDbSpline
 62
3
  6
CONTINUOUS
 70
0
 71
3
 72
9
 73
5
 74
0
 42
0.0000001
 43
0.0000001
 44
0.0000000001
 40
0.0
 40
0.0
 40
0.0
 40
0.0
 40
0.243399126
 40
1.0
 40
1.0
 40
1.0
 40
1.0
 10
527.3939412739
 20
175.2131951599
 30
0.0
 10
527.3629347633
 20
175.21994719
 30
0.0
 10
527.2338786905
 20
175.2399474984
 30
0.0
 10
527.1006697928
 20
175.227692992
 30
0.0
 10
527.00488551
 20
175.2041221512
 30
0.0
  0
SPLINE
  5
4E9
100
AcDbEntity
  8
0
100
AcDbSpline
 62
3
  6
CONTINUOUS
 70
0
 71
3
 72
10
 73
6
 74
0
 42
0.0000001
 43
0.0000001
 44
0.0000000001
 40
0.0
 40
0.0
 40
0.0
 40
0.0
 40
0.4598043308
 40
0.7318940225
 40
1.0
 40
1.0
 40
1.0
 40
1.0
 10
527.00488551
 20
175.2041221512
 30
0.0
 10
526.6188695723
 20
175.109130364
 30
0.0
 10
526.1075654437
 20
174.6122959616
 30
0.0
 10
525.7613087999
 20
173.8245871999
 30
0.0
 10
525.6859397376
 20
173.3539898561
 30
0.0
 10
525.6859397376
 20
173.1221940332
 30
0.0
  0
SPLINE
  5
4EA
100
AcDbEntity
  8
0
100
AcDbSpline
 62
3
  6
CONTINUOUS
 70
0
 71
3
 72
9
 73
5
 74
0
 42
0.0000001
 43
0.0000001
 44
0.0000000001
 40
0.0
 40
0.0
 40
0.0
 40
0.0
 40
0.243399126
 40
1.0
 40
1.0
 40
1.0
 40
1.0
 10
522.8684578743
 20
173.6653886789
 30
0.0
 10
522.8374513637
 20
173.672140709
 30
0.0
 10
522.7083952909
 20
173.6921410175
 30
0.0
 10
522.5751863932
 20
173.679886511
 30
0.0
 10
522.4794021104
 20
173.6563156703
 30
0.0
  0
SPLINE
  5
4EB
100
AcDbEntity
  8
0
100
AcDbSpline
 62
3
  6
CONTINUOUS
 70
0
 71
3
 72
10
 73
6
 74
0
 42
0.0000001
 43
0.0000001
 44
0.0000000001
 40
0.0
 40
0.0
 40
0.0
 40
0.0
 40
0.4598043308
 40
0.7318940225
 40
1.0
 40
1.0
 40
1.0
 40
1.0
 10
522.4794021104
 20
173.6563156703
 30
0.0
 10
522.0933861727
 20
173.5613238831
 30
0.0
 10
521.5820820441
 20
173.0644894807
 30
0.0
 10
521.2358254003
 20
172.2767807189
 30
0.0
 10
521.160456338
 20
171.8061833752
 30
0.0
 10
521.160456338
 20
171.5743875522
 30
0.0
  0
SPLINE
  5
4EC
100
AcDbEntity
  8
0
100
AcDbSpline
 62
3
  6
CONTINUOUS
 70
0
 71
3
 72
9
 73
5
 74
0
 42
0.0000001
 43
0.0000001
 44
0.0000000001
 40
0.0
 40
0.0
 40
0.0
 40
0.0
 40
0.243399126
 40
1.0
 40
1.0
 40
1.0
 40
1.0
 10
518.3429744747
 20
172.117582198
 30
0.0
 10
518.3119679641
 20
172.1243342281
 30
0.0
 10
518.1829118913
 20
172.1443345365
 30
0.0
 10
518.0497029936
 20
172.1320800301
 30
0.0
 10
517.9539187108
 20
172.1085091893
 30
0.0
  0
SPLINE
  5
4ED
100
AcDbEntity
  8
0
100
AcDbSpline
 62
3
  6
CONTINUOUS
 70
0
 71
3
 72
10
 73
6
 74
0
 42
0.0000001
 43
0.0000001
 44
0.0000000001
 40
0.0
 40
0.0
 40
0.0
 40
0.0
 40
0.4598043308
 40
0.7318940225
 40
1.0
 40
1.0
 40
1.0
 40
1.0
 10
517.9539187108
 20
172.1085091893
 30
0.0
 10
517.5679027731
 20
172.0135174021
 30
0.0
 10
517.0565986445
 20
171.5166829997
 30
0.0
 10
516.7103420007
 20
170.728974238
 30
0.0
 10
516.6349729384
 20
170.2583768942
 30
0.0
 10
516.6349729384
 20
170.0265810713
 30
0.0
  0
SPLINE
  5
4EE
100
AcDbEntity
  8
0
100
AcDbSpline
 62
3
  6
CONTINUOUS
 70
0
 71
3
 72
9
 73
5
 74
0
 42
0.0000001
 43
0.0000001
 44
0.0000000001
 40
0.0
 40
0.0
 40
0.0
 40
0.0
 40
0.243399126
 40
1.0
 40
1.0
 40
1.0
 40
1.0
 10
513.8174910751
 20
170.569775717
 30
0.0
 10
513.7864845645
 20
170.5765277471
 30
0.0
 10
513.6574284917
 20
170.5965280556
 30
0.0
 10
513.524219594
 20
170.5842735491
 30
0.0
 10
513.4284353112
 20
170.5607027084
 30
0.0
  0
SPLINE
  5
4EF
100
AcDbEntity
  8
0
100
AcDbSpline
 62
3
  6
CONTINUOUS
 70
0
 71
3
 72
10
 73
6
 74
0
 42
0.0000001
 43
0.0000001
 44
0.0000000001
 40
0.0
 40
0.0
 40
0.0
 40
0.0
 40
0.4598043308
 40
0.7318940225
 40
1.0
 40
1.0
 40
1.0
 40
1.0
 10
513.4284353112
 20
170.5607027084
 30
0.0
 10
513.0424193735
 20
170.4657109212
 30
0.0
 10
512.5311152449
 20
169.9688765188
 30
0.0
 10
512.1848586011
 20
169.181167757
 30
0.0
 10
512.1094895388
 20
168.7105704133
 30
0.0
 10
512.1094895388
 20
168.4787745903
 30
0.0
  0
SPLINE
  5
4F0
100
AcDbEntity
  8
0
100
AcDbSpline
 62
3
  6
CONTINUOUS
 70
0
 71
3
 72
9
 73
5
 74
0
 42
0.0000001
 43
0.0000001
 44
0.0000000001
 40
0.0
 40
0.0
 40
0.0
 40
0.0
 40
0.243399126
 40
1.0
 40
1.0
 40
1.0
 40
1.0
 10
509.2920076755
 20
169.0219692361
 30
0.0
 10
509.2610011649
 20
169.0287212662
 30
0.0
 10
509.1319450921
 20
169.0487215747
 30
0.0
 10
508.9987361944
 20
169.0364670682
 30
0.0
 10
508.9029519116
 20
169.0128962274
 30
0.0
  0
SPLINE
  5
4F1
100
AcDbEntity
  8
0
100
AcDbSpline
 62
3
  6
CONTINUOUS
 70
0
 71
3
 72
10
 73
6
 74
0
 42
0.0000001
 43
0.0000001
 44
0.0000000001
 40
0.0
 40
0.0
 40
0.0
 40
0.0
 40
0.4598043308
 40
0.7318940225
 40
1.0
 40
1.0
 40
1.0
 40
1.0
 10
508.9029519116
 20
169.0128962274
 30
0.0
 10
508.5169359739
 20
168.9179044402
 30
0.0
 10
508.0056318454
 20
168.4210700378
 30
0.0
 10
507.6593752015
 20
167.6333612761
 30
0.0
 10
507.5840061393
 20
167.1627639323
 30
0.0
 10
507.5840061393
 20
166.9309681094
 30
0.0
  0
SPLINE
  5
4F2
100
AcDbEntity
  8
0
100
AcDbSpline
 62
3
  6
CONTINUOUS
 70
0
 71
3
 72
9
 73
5
 74
0
 42
0.0000001
 43
0.0000001
 44
0.0000000001
 40
0.0
 40
0.0
 40
0.0
 40
0.0
 40
0.5117324946
 40
1.0
 40
1.0
 40
1.0
 40
1.0
 10
509.7620385184
 20
168.7186836372
 30
0.0
 10
509.7111686634
 20
168.7829289327
 30
0.0
 10
509.5956168197
 20
168.8970024775
 30
0.0
 10
509.4514127563
 20
168.9728549701
 30
0.0
 10
509.377430889
 20
168.9981564524
 30
0.0
  0
SPLINE
  5
4F3
100
AcDbEntity
  8
0
100
AcDbSpline
 62
3
  6
CONTINUOUS
 70
0
 71
3
 72
9
 73
5
 74
0
 42
0.0000001
 43
0.0000001
 44
0.0000000001
 40
0.0
 40
0.0
 40
0.0
 40
0.0
 40
0.4882961661
 40
1.0
 40
1.0
 40
1.0
 40
1.0
 10
517.3022797872
 20
168.8010125023
 30
0.0
 10
517.3761523991
 20
168.775748385
 30
0.0
 10
517.5363478709
 20
168.7474298804
 30
0.0
 10
517.6973129724
 20
168.766722504
 30
0.0
 10
517.7767587646
 20
168.7862727273
 30
0.0
  0
SPLINE
  5
4F4
100
AcDbEntity
  8
0
100
AcDbSpline
 62
3
  6
CONTINUOUS
 70
0
 71
3
 72
9
 73
5
 74
0
 42
0.0000001
 43
0.0000001
 44
0.0000000001
 40
0.0
 40
0.0
 40
0.0
 40
0.0
 40
0.5117324946
 40
1.0
 40
1.0
 40
1.0
 40
1.0
 10
514.287521918
 20
170.2664901181
 30
0.0
 10
514.236652063
 20
170.3307354136
 30
0.0
 10
514.1211002193
 20
170.4448089585
 30
0.0
 10
513.9768961559
 20
170.5206614511
 30
0.0
 10
513.9029142886
 20
170.5459629333
 30
0.0
  0
SPLINE
  5
4F5
100
AcDbEntity
  8
0
100
AcDbSpline
 62
3
  6
CONTINUOUS
 70
0
 71
3
 72
9
 73
5
 74
0
 42
0.0000001
 43
0.0000001
 44
0.0000000001
 40
0.0
 40
0.0
 40
0.0
 40
0.0
 40
0.5117324946
 40
1.0
 40
1.0
 40
1.0
 40
1.0
 10
518.8130053176
 20
171.8142965991
 30
0.0
 10
518.7621354626
 20
171.8785418946
 30
0.0
 10
518.6465836189
 20
171.9926154394
 30
0.0
 10
518.5023795555
 20
172.068467932
 30
0.0
 10
518.4283976882
 20
172.0937694143
 30
0.0
  0
SPLINE
  5
4F6
100
AcDbEntity
  8
0
100
AcDbSpline
 62
3
  6
CONTINUOUS
 70
0
 71
3
 72
9
 73
5
 74
0
 42
0.0000001
 43
0.0000001
 44
0.0000000001
 40
0.0
 40
0.0
 40
0.0
 40
0.0
 40
0.4882961661
 40
1.0
 40
1.0
 40
1.0
 40
1.0
 10
512.7767963876
 20
167.2532060214
 30
0.0
 10
512.8506689995
 20
167.227941904
 30
0.0
 10
513.0108644713
 20
167.1996233995
 30
0.0
 10
513.1718295728
 20
167.218916023
 30
0.0
 10
513.251275365
 20
167.2384662464
 30
0.0
  0
SPLINE
  5
4F7
100
AcDbEntity
  8
0
100
AcDbSpline
 62
3
  6
CONTINUOUS
 70
0
 71
3
 72
9
 73
5
 74
0
 42
0.0000001
 43
0.0000001
 44
0.0000000001
 40
0.0
 40
0.0
 40
0.0
 40
0.0
 40
0.5117324946
 40
1.0
 40
1.0
 40
1.0
 40
1.0
 10
523.3384887171
 20
173.36210308
 30
0.0
 10
523.2876188621
 20
173.4263483755
 30
0.0
 10
523.1720670185
 20
173.5404219204
 30
0.0
 10
523.0278629551
 20
173.616274413
 30
0.0
 10
522.9538810878
 20
173.6415758952
 30
0.0
  0
SPLINE
  5
4F8
100
AcDbEntity
  8
0
100
AcDbSpline
 62
3
  6
CONTINUOUS
 70
0
 71
3
 72
9
 73
5
 74
0
 42
0.0000001
 43
0.0000001
 44
0.0000000001
 40
0.0
 40
0.0
 40
0.0
 40
0.0
 40
0.5117324946
 40
1.0
 40
1.0
 40
1.0
 40
1.0
 10
527.8639721167
 20
174.909909561
 30
0.0
 10
527.8131022617
 20
174.9741548565
 30
0.0
 10
527.6975504181
 20
175.0882284013
 30
0.0
 10
527.5533463547
 20
175.1640808939
 30
0.0
 10
527.4793644874
 20
175.1893823762
 30
0.0
  0
SPLINE
  5
4F9
100
AcDbEntity
  8
0
100
AcDbSpline
 62
3
  6
CONTINUOUS
 70
0
 71
3
 72
9
 73
5
 74
0
 42
0.0000001
 43
0.0000001
 44
0.0000000001
 40
0.0
 40
0.0
 40
0.0
 40
0.0
 40
0.4882961661
 40
1.0
 40
1.0
 40
1.0
 40
1.0
 10
508.251312988
 20
165.7053995404
 30
0.0
 10
508.3251855999
 20
165.6801354231
 30
0.0
 10
508.4853810717
 20
165.6518169185
 30
0.0
 10
508.6463461732
 20
165.6711095421
 30
0.0
 10
508.7257919654
 20
165.6906597654
 30
0.0
  0
SPLINE
  5
4FA
100
AcDbEntity
  8
0
100
AcDbSpline
 62
3
  6
CONTINUOUS
 70
0
 71
3
 72
9
 73
5
 74
0
 42
0.0000001
 43
0.0000001
 44
0.0000000001
 40
0.0
 40
0.0
 40
0.0
 40
0.0
 40
0.4882961661
 40
1.0
 40
1.0
 40
1.0
 40
1.0
 10
526.3532465864
 20
171.8966254642
 30
0.0
 10
526.4271191983
 20
171.8713613469
 30
0.0
 10
526.5873146701
 20
171.8430428423
 30
0.0
 10
526.7482797716
 20
171.8623354659
 30
0.0
 10
526.8277255638
 20
171.8818856892
 30
0.0
  0
SPLINE
  5
4FB
100
AcDbEntity
  8
0
100
AcDbSpline
 62
3
  6
CONTINUOUS
 70
0
 71
3
 72
9
 73
5
 74
0
 42
0.0000001
 43
0.0000001
 44
0.0000000001
 40
0.0
 40
0.0
 40
0.0
 40
0.0
 40
0.4882961661
 40
1.0
 40
1.0
 40
1.0
 40
1.0
 10
521.8277631868
 20
170.3488189833
 30
0.0
 10
521.9016357987
 20
170.3235548659
 30
0.0
 10
522.0618312705
 20
170.2952363614
 30
0.0
 10
522.222796372
 20
170.3145289849
 30
0.0
 10
522.3022421642
 20
170.3340792082
 30
0.0
  0
ENDSEC
  0
SECTION
  2
OBJECTS
  0
DICTIONARY
  5
C
100
AcDbDictionary
280
0
281
1
  3
ACAD_GROUP
350
D
  3
ACAD_MLINESTYLE
350
17
  3
ACAD_LAYOUT
350
1A
  3
ACAD_PLOTSETTINGS
350
19
  3
ACAD_PLOTSTYLENAME
350
E
  0
DICTIONARY
  5
D
102
{ACAD_REACTORS
330
C
102
}
100
AcDbDictionary
280
0
281
1
  0
ACDBDICTIONARYWDFLT
  5
E
102
{ACAD_REACTORS
330
C
102
}
100
AcDbDictionary
281
1
  3
Normal
350
F
100
AcDbDictionaryWithDefault
340
F
  0
DICTIONARY
  5
17
102
{ACAD_REACTORS
330
C
102
}
100
AcDbDictionary
280
0
281
1
  3
Standard
350
18
  0
DICTIONARY
  5
19
102
{ACAD_REACTORS
330
C
102
}
100
AcDbDictionary
281
1
  0
DICTIONARY
  5
1A
102
{ACAD_REACTORS
330
C
102
}
100
AcDbDictionary
281
1
  3
Model
350
4FC
  3
Layout1
350
4FD
  0
ACDBPLACEHOLDER
  5
F
102
{ACAD_REACTORS
330
E
102
}
  0
MLINESTYLE
  5
18
102
{ACAD_REACTORS
330
17
102
}
100
AcDbMlineStyle
  2
STANDARD
 70
0
  3

 62
256
 51
90.0
 52
90.0
 71
2
 49
0.5
 62
256
  6
BYLAYER
 49
-0.5
 62
256
  6
BYLAYER
  0
LAYOUT
  5
4FC
102
{ACAD_REACTORS
330
1A
102
}
100
AcDbPlotSettings
  1

  2
none_device
  4
ISO_A1_(594.00_x_841.00_MM)
  6

 40
0.0
 41
0.0
 42
0.0
 43
0.0
 44
841.0
 45
594.0
 46
0.0
 47
0.0
 48
0.0
 49
0.0
140
0.0
141
0.0
142
1.0
143
1.0
 70
1024
 72
1
 73
0
 74
0
  7

 75
0
147
1.0
148
0.0
149
0.0
100
AcDbLayout
  1
Model
 70
0
 71
0
 10
0.0
 20
0.0
 11
841.0
 21
594.0
 12
0.0
 22
0.0
 32
0.0
 14
0.0
 24
0.0
 34
0.0
 15
0.0
 25
0.0
 35
0.0
146
0.0
 13
0.0
 23
0.0
 33
0.0
 16
1.0
 26
0.0
 36
0.0
 17
0.0
 27
1.0
 37
0.0
 76
0
330
200
345
0
346
0
  0
LAYOUT
  5
4FD
102
{ACAD_REACTORS
330
1A
102
}
100
AcDbPlotSettings
  1

  2
none_device
  4
ISO_A1_(594.00_x_841.00_MM)
  6

 40
0.0
 41
0.0
 42
0.0
 43
0.0
 44
841.0
 45
594.0
 46
0.0
 47
0.0
 48
0.0
 49
0.0
140
0.0
141
0.0
142
1.0
143
1.0
 70
0
 72
1
 73
0
 74
0
  7

 75
0
147
1.0
148
0.0
149
0.0
100
AcDbLayout
  1
Layout1
 70
0
 71
1
 10
0.0
 20
0.0
 11
841.0
 21
594.0
 12
0.0
 22
0.0
 32
0.0
 14
0.0
 24
0.0
 34
0.0
 15
0.0
 25
0.0
 35
0.0
146
0.0
 13
0.0
 23
0.0
 33
0.0
 16
1.0
 26
0.0
 36
0.0
 17
0.0
 27
1.0
 37
0.0
 76
0
330
201
345
0
346
0
  0
ENDSEC
  0
EOF
