999
DXF file: C:\Users\renan.sartori\Desktop\579.dxf
999
Pro/ENGINEER 2013150 by Parametric Technology Corporation
  0
SECTION
  2
HEADER
  9
$ACADVER
  1
AC1021
  9
$DWGCODEPAGE
  3
ANSI_1252
  9
$EXTMAX
 10
1189.0
 20
841.0
 30
0.0
  9
$EXTMIN
 10
0.0
 20
0.0
 30
0.0
  9
$LIMMIN
 10
0.0
 20
0.0
  9
$LIMMAX
 10
1189.0
 20
841.0
  9
$VIEWCTR
 10
594.5
 20
420.5
  9
$VIEWSIZE
 40
841.0
  9
$CLAYER
  8
0
  9
$LTSCALE
 40
65.395
  9
$CELTYPE
  6
BYLAYER
  9
$DIMSCALE
 40
1.0
  9
$DIMASZ
 40
3.0
  9
$DIMEXO
 40
0.5
  9
$DIMDLI
 40
45.182
  9
$DIMEXE
 40
0.5
  9
$DIMCEN
 40
10.701
  9
$DIMLFAC
 40
5.0
  9
$DIMBLK
  1
_FILLED
  9
$DIMTXT
 40
1.8
  9
$DIMTOL
 70
1
  9
$DIMLIM
 70
0
  9
$DIMTFAC
 40
1.0
  9
$DIMTP
 40
0.001
  9
$DIMTM
 40
0.001
  9
$DIMGAP
 40
0.625
  9
$DIMDSEP
 70
46
  9
$PDMODE
 70
3
  9
$PDSIZE
 40
1.0
  9
$HANDSEED
  5
417
  9
$TILEMODE
 70
1
  9
$MEASUREMENT
 70
1
  9
$INSUNITS
 70
4
  0
ENDSEC
  0
SECTION
  2
CLASSES
  0
CLASS
  1
ACDBDICTIONARYWDFLT
  2
AcDbDictionaryWithDefault
  3
AutoCAD 2000
 90
0
 91
1
280
0
281
0
  0
CLASS
  1
ACDBPLACEHOLDER
  2
AcDbPlaceHolder
  3
AutoCAD 2000
 90
0
 91
1
280
0
281
0
  0
CLASS
  1
LAYOUT
  2
AcDbLayout
  3
AutoCAD 2000
 90
0
 91
0
280
0
281
0
  0
ENDSEC
  0
SECTION
  2
TABLES
  0
TABLE
  2
VPORT
  5
8
100
AcDbSymbolTable
 70
2
  0
VPORT
  5
1F4
100
AcDbSymbolTableRecord
100
AcDbViewportTableRecord
  2
*ACTIVE
 70
0
 10
0.0
 20
0.0
 11
1.0
 21
1.0
 12
594.5
 22
420.5
 13
0.0
 23
0.0
 14
1.0
 24
1.0
 15
0.0
 25
0.0
 16
0.0
 26
0.0
 36
1.0
 17
0.0
 27
0.0
 37
0.0
 40
841.0
 41
1.4137931034
 42
50.0
 43
0.0
 44
0.0
 50
0.0
 51
0.0
 71
0
 72
100
 73
1
 74
1
 75
0
 76
0
 77
0
 78
0
  0
ENDTAB
  0
TABLE
  2
LTYPE
  5
5
100
AcDbSymbolTable
 70
6
  0
LTYPE
  5
14
100
AcDbSymbolTableRecord
100
AcDbLinetypeTableRecord
  2
BYBLOCK
 70
0
  3

 72
65
 73
0
 40
0.0
  0
LTYPE
  5
15
100
AcDbSymbolTableRecord
100
AcDbLinetypeTableRecord
  2
BYLAYER
 70
0
  3

 72
65
 73
0
 40
0.0
  0
LTYPE
  5
16
100
AcDbSymbolTableRecord
100
AcDbLinetypeTableRecord
  2
CONTINUOUS
 70
64
  3
Solid line
 72
65
 73
0
 40
0.0
  0
LTYPE
  5
1F5
100
AcDbSymbolTableRecord
100
AcDbLinetypeTableRecord
  2
CENTER
 70
64
  3
____ _ ____ _ ____ _ ____ _ ____ _ ____ _ ____
 72
65
 73
4
 40
0.6
 49
0.375
 74
0
 49
-0.075
 74
0
 49
0.075
 74
0
 49
-0.075
 74
0
  0
LTYPE
  5
1F6
100
AcDbSymbolTableRecord
100
AcDbLinetypeTableRecord
  2
HIDDEN
 70
64
  3
- - - - - - - - - - - - - - - - - - - -
 72
65
 73
2
 40
0.2
 49
0.1
 74
0
 49
-0.1
 74
0
  0
LTYPE
  5
1F7
100
AcDbSymbolTableRecord
100
AcDbLinetypeTableRecord
  2
PHANTOM
 70
64
  3
_____ _ _ _____ _ _ _____ _ _ _____
 72
65
 73
6
 40
0.8
 49
0.45
 74
0
 49
-0.05
 74
0
 49
0.1
 74
0
 49
-0.05
 74
0
 49
0.1
 74
0
 49
-0.05
 74
0
  0
LTYPE
  5
1F8
100
AcDbSymbolTableRecord
100
AcDbLinetypeTableRecord
  2
DOT
 70
64
  3
. . . . . . . . . . . . . . . . . . . .
 72
65
 73
2
 40
0.2
 49
0.1
 74
0
 49
-0.1
 74
0
  0
LTYPE
  5
1F9
100
AcDbSymbolTableRecord
100
AcDbLinetypeTableRecord
  2
DASHED
 70
64
  3
- - - - - - - - - - - - - - - - - - - -
 72
65
 73
2
 40
0.2
 49
0.1
 74
0
 49
-0.1
 74
0
  0
ENDTAB
  0
TABLE
  2
LAYER
  5
2
100
AcDbSymbolTable
 70
36
  0
LAYER
  5
10
100
AcDbSymbolTableRecord
100
AcDbLayerTableRecord
  2
0
 70
0
 62
7
  6
CONTINUOUS
370
-3
390
F
  0
LAYER
  5
1FA
100
AcDbSymbolTableRecord
100
AcDbLayerTableRecord
  2
DEFAULT_1
 70
0
 62
7
  6
CENTER
370
-3
390
F
  0
LAYER
  5
1FB
100
AcDbSymbolTableRecord
100
AcDbLayerTableRecord
  2
DEFAULT_2
 70
0
 62
8
  6
HIDDEN
370
-3
390
F
  0
LAYER
  5
1FC
100
AcDbSymbolTableRecord
100
AcDbLayerTableRecord
  2
DEFAULT_3
 70
0
 62
7
  6
PHANTOM
370
-3
390
F
  0
LAYER
  5
1FD
100
AcDbSymbolTableRecord
100
AcDbLayerTableRecord
  2
01_ALL_DTM_PLN
 70
0
 62
7
  6
CONTINUOUS
370
-3
390
F
  0
LAYER
  5
1FE
100
AcDbSymbolTableRecord
100
AcDbLayerTableRecord
  2
01__ASM_ALL_DTM_PLN
 70
0
 62
7
  6
CONTINUOUS
370
-3
390
F
  0
LAYER
  5
1FF
100
AcDbSymbolTableRecord
100
AcDbLayerTableRecord
  2
01__ASM_DEF_DTM_PLN
 70
0
 62
7
  6
CONTINUOUS
370
-3
390
F
  0
LAYER
  5
200
100
AcDbSymbolTableRecord
100
AcDbLayerTableRecord
  2
01___PRT_ALL_DTM_PLN
 70
0
 62
7
  6
CONTINUOUS
370
-3
390
F
  0
LAYER
  5
201
100
AcDbSymbolTableRecord
100
AcDbLayerTableRecord
  2
01___PRT_DEF_DTM_PLN
 70
0
 62
7
  6
CONTINUOUS
370
-3
390
F
  0
LAYER
  5
202
100
AcDbSymbolTableRecord
100
AcDbLayerTableRecord
  2
02_ALL_AXES
 70
0
 62
7
  6
CONTINUOUS
370
-3
390
F
  0
LAYER
  5
203
100
AcDbSymbolTableRecord
100
AcDbLayerTableRecord
  2
02__ASM_ALL_AXES
 70
0
 62
7
  6
CONTINUOUS
370
-3
390
F
  0
LAYER
  5
204
100
AcDbSymbolTableRecord
100
AcDbLayerTableRecord
  2
02___PRT_ALL_AXES
 70
0
 62
7
  6
CONTINUOUS
370
-3
390
F
  0
LAYER
  5
205
100
AcDbSymbolTableRecord
100
AcDbLayerTableRecord
  2
03_ALL_CURVES
 70
0
 62
7
  6
CONTINUOUS
370
-3
390
F
  0
LAYER
  5
206
100
AcDbSymbolTableRecord
100
AcDbLayerTableRecord
  2
03__ASM_ALL_CURVES
 70
0
 62
7
  6
CONTINUOUS
370
-3
390
F
  0
LAYER
  5
207
100
AcDbSymbolTableRecord
100
AcDbLayerTableRecord
  2
03___PRT_ALL_CURVES
 70
0
 62
7
  6
CONTINUOUS
370
-3
390
F
  0
LAYER
  5
208
100
AcDbSymbolTableRecord
100
AcDbLayerTableRecord
  2
04_ALL_DTM_PNT
 70
0
 62
7
  6
CONTINUOUS
370
-3
390
F
  0
LAYER
  5
209
100
AcDbSymbolTableRecord
100
AcDbLayerTableRecord
  2
04__ASM_ALL_DTM_PNT
 70
0
 62
7
  6
CONTINUOUS
370
-3
390
F
  0
LAYER
  5
20A
100
AcDbSymbolTableRecord
100
AcDbLayerTableRecord
  2
04___PRT_ALL_DTM_PNT
 70
0
 62
7
  6
CONTINUOUS
370
-3
390
F
  0
LAYER
  5
20B
100
AcDbSymbolTableRecord
100
AcDbLayerTableRecord
  2
05_ALL_DTM_CSYS
 70
0
 62
7
  6
CONTINUOUS
370
-3
390
F
  0
LAYER
  5
20C
100
AcDbSymbolTableRecord
100
AcDbLayerTableRecord
  2
05__ASM_ALL_DTM_CSYS
 70
0
 62
7
  6
CONTINUOUS
370
-3
390
F
  0
LAYER
  5
20D
100
AcDbSymbolTableRecord
100
AcDbLayerTableRecord
  2
05__ASM_DEF_DTM_CSYS
 70
0
 62
7
  6
CONTINUOUS
370
-3
390
F
  0
LAYER
  5
20E
100
AcDbSymbolTableRecord
100
AcDbLayerTableRecord
  2
05___PRT_ALL_DTM_CSYS
 70
0
 62
7
  6
CONTINUOUS
370
-3
390
F
  0
LAYER
  5
20F
100
AcDbSymbolTableRecord
100
AcDbLayerTableRecord
  2
05___PRT_DEF_DTM_CSYS
 70
0
 62
7
  6
CONTINUOUS
370
-3
390
F
  0
LAYER
  5
210
100
AcDbSymbolTableRecord
100
AcDbLayerTableRecord
  2
06_ALL_SURFS
 70
0
 62
7
  6
CONTINUOUS
370
-3
390
F
  0
LAYER
  5
211
100
AcDbSymbolTableRecord
100
AcDbLayerTableRecord
  2
06__ASM_ALL_SURFS
 70
0
 62
7
  6
CONTINUOUS
370
-3
390
F
  0
LAYER
  5
212
100
AcDbSymbolTableRecord
100
AcDbLayerTableRecord
  2
06___PRT_ALL_SURFS
 70
0
 62
7
  6
CONTINUOUS
370
-3
390
F
  0
LAYER
  5
213
100
AcDbSymbolTableRecord
100
AcDbLayerTableRecord
  2
07__ASM_ALL_SKELETONS
 70
0
 62
7
  6
CONTINUOUS
370
-3
390
F
  0
LAYER
  5
214
100
AcDbSymbolTableRecord
100
AcDbLayerTableRecord
  2
3_ALL_SYMBOLS
 70
0
 62
7
  6
CONTINUOUS
370
-3
390
F
  0
LAYER
  5
215
100
AcDbSymbolTableRecord
100
AcDbLayerTableRecord
  2
BLOW
 70
0
 62
7
  6
CONTINUOUS
370
-3
390
F
  0
LAYER
  5
216
100
AcDbSymbolTableRecord
100
AcDbLayerTableRecord
  2
CABO_142648
 70
0
 62
7
  6
CONTINUOUS
370
-3
390
F
  0
LAYER
  5
217
100
AcDbSymbolTableRecord
100
AcDbLayerTableRecord
  2
CAMADA_1
 70
0
 62
7
  6
CONTINUOUS
370
-3
390
F
  0
LAYER
  5
218
100
AcDbSymbolTableRecord
100
AcDbLayerTableRecord
  2
COLOR7
 70
0
 62
7
  6
CONTINUOUS
370
-3
390
F
  0
LAYER
  5
219
100
AcDbSymbolTableRecord
100
AcDbLayerTableRecord
  2
CONECTOR_CABO_142648
 70
0
 62
7
  6
CONTINUOUS
370
-3
390
F
  0
LAYER
  5
21A
100
AcDbSymbolTableRecord
100
AcDbLayerTableRecord
  2
DP
 70
0
 62
7
  6
CONTINUOUS
370
-3
390
F
  0
LAYER
  5
21B
100
AcDbSymbolTableRecord
100
AcDbLayerTableRecord
  2
INTFCLR_15
 70
0
 62
7
  6
CONTINUOUS
370
-3
390
F
  0
LAYER
  5
21C
100
AcDbSymbolTableRecord
100
AcDbLayerTableRecord
  2
INTF_BLANK
 70
0
 62
7
  6
CONTINUOUS
370
-3
390
F
  0
LAYER
  5
21D
100
AcDbSymbolTableRecord
100
AcDbLayerTableRecord
  2
INTF_YELLOW
 70
0
 62
7
  6
CONTINUOUS
370
-3
390
F
  0
LAYER
  5
21E
100
AcDbSymbolTableRecord
100
AcDbLayerTableRecord
  2
LAMP_SOCKET
 70
0
 62
7
  6
CONTINUOUS
370
-3
390
F
  0
LAYER
  5
21F
100
AcDbSymbolTableRecord
100
AcDbLayerTableRecord
  2
MOTOR
 70
0
 62
7
  6
CONTINUOUS
370
-3
390
F
  0
LAYER
  5
220
100
AcDbSymbolTableRecord
100
AcDbLayerTableRecord
  2
NONE
 70
0
 62
7
  6
CONTINUOUS
370
-3
390
F
  0
LAYER
  5
221
100
AcDbSymbolTableRecord
100
AcDbLayerTableRecord
  2
PLUG_3_PINOS_10A_142648
 70
0
 62
7
  6
CONTINUOUS
370
-3
390
F
  0
LAYER
  5
222
100
AcDbSymbolTableRecord
100
AcDbLayerTableRecord
  2
PRODUCT_220855
 70
0
 62
7
  6
CONTINUOUS
370
-3
390
F
  0
LAYER
  5
223
100
AcDbSymbolTableRecord
100
AcDbLayerTableRecord
  2
TERMINAL_OLHAL_M4_142648
 70
0
 62
7
  6
CONTINUOUS
370
-3
390
F
  0
LAYER
  5
224
100
AcDbSymbolTableRecord
100
AcDbLayerTableRecord
  2
_BLACK_HOLE
 70
0
 62
7
  6
CONTINUOUS
370
-3
390
F
  0
LAYER
  5
225
100
AcDbSymbolTableRecord
100
AcDbLayerTableRecord
  2
___SHELL
 70
0
 62
7
  6
CONTINUOUS
370
-3
390
F
  0
ENDTAB
  0
TABLE
  2
STYLE
  5
3
100
AcDbSymbolTable
 70
1
  0
STYLE
  5
11
100
AcDbSymbolTableRecord
100
AcDbTextStyleTableRecord
  2
STANDARD
 70
0
 40
0.0
 41
0.8
 50
0.0
 71
0
 42
0.2
  3
txt
  4

  0
STYLE
  5
226
100
AcDbSymbolTableRecord
100
AcDbTextStyleTableRecord
  2
TEXTSTYLE_1
 70
0
 40
0.0
 41
0.8
 50
0.0
 71
0
 42
0.2
  3
gdt
  4

  0
ENDTAB
  0
TABLE
  2
VIEW
  5
6
100
AcDbSymbolTable
 70
0
  0
ENDTAB
  0
TABLE
  2
UCS
  5
7
100
AcDbSymbolTable
 70
0
  0
ENDTAB
  0
TABLE
  2
APPID
  5
9
100
AcDbSymbolTable
 70
1
  0
APPID
  5
227
100
AcDbSymbolTableRecord
100
AcDbRegAppTableRecord
  2
ACAD
 70
0
  0
ENDTAB
  0
TABLE
  2
BLOCK_RECORD
  5
1
100
AcDbSymbolTable
 70
0
  0
BLOCK_RECORD
  5
228
100
AcDbSymbolTableRecord
100
AcDbBlockTableRecord
  2
*Model_Space
  0
BLOCK_RECORD
  5
229
100
AcDbSymbolTableRecord
100
AcDbBlockTableRecord
  2
*Paper_Space
  0
BLOCK_RECORD
  5
22A
100
AcDbSymbolTableRecord
100
AcDbBlockTableRecord
  2
_FILLED
  0
BLOCK_RECORD
  5
22B
100
AcDbSymbolTableRecord
100
AcDbBlockTableRecord
  2
*D0
  0
BLOCK_RECORD
  5
22C
100
AcDbSymbolTableRecord
100
AcDbBlockTableRecord
  2
*D1
  0
BLOCK_RECORD
  5
22D
100
AcDbSymbolTableRecord
100
AcDbBlockTableRecord
  2
*D2
  0
BLOCK_RECORD
  5
22E
100
AcDbSymbolTableRecord
100
AcDbBlockTableRecord
  2
*D3
  0
BLOCK_RECORD
  5
22F
100
AcDbSymbolTableRecord
100
AcDbBlockTableRecord
  2
*D4
  0
ENDTAB
  0
TABLE
  2
DIMSTYLE
  5
A
100
AcDbSymbolTable
 70
1
100
AcDbDimStyleTable
 71
0
  0
DIMSTYLE
105
230
100
AcDbSymbolTableRecord
100
AcDbDimStyleTableRecord
  2
STANDARD
 70
0
  3

  4

 40
1.0
 41
3.0
 42
0.5
 43
0.38
 44
0.5
 45
0.0
 46
0.0
 47
0.001
 48
0.001
140
1.8
141
0.09
142
0.0
143
25.4
144
1.0
145
0.0
146
1.0
147
0.625
 71
1.0
 72
0.0
 73
0
 74
0
 75
0
 76
0
 77
1
 78
8
170
0
171
2
172
0
173
0
174
0
175
0
176
0
177
0
178
0
270
2
271
3
272
3
273
2
274
2
275
0
280
0
281
0
282
0
283
1
284
8
285
0
286
0
287
3
288
0
340
11
278
46
341
22A
342
22A
343
22A
344
22A
  0
DIMSTYLE
105
231
100
AcDbSymbolTableRecord
100
AcDbDimStyleTableRecord
  2
DIMSTYLE_1
 70
0
  3

  4

 40
1.0
 41
3.0
 42
0.5
 43
0.38
 44
0.5
 45
0.0
 46
0.0
 47
0.5
 48
0.5
140
9.0
141
0.09
142
0.0
143
25.4
144
1.0
145
0.0
146
1.0
147
2.25
 71
0.0
 72
0.0
 73
0
 74
0
 75
0
 76
0
 77
1
 78
8
170
0
171
2
172
0
173
0
174
0
175
0
176
0
177
0
178
0
270
2
271
3
272
3
273
2
274
2
275
0
280
0
281
0
282
0
283
1
284
8
285
0
286
0
287
3
288
0
340
11
278
46
341
22A
342
22A
343
22A
344
22A
  0
DIMSTYLE
105
232
100
AcDbSymbolTableRecord
100
AcDbDimStyleTableRecord
  2
DIMSTYLE_2
 70
0
  3

  4

 40
1.0
 41
3.0
 42
0.5
 43
0.38
 44
0.5
 45
0.0
 46
0.0
 47
0.8
 48
0.8
140
9.0
141
0.09
142
0.0
143
25.4
144
1.0
145
0.0
146
1.0
147
2.25
 71
0.0
 72
0.0
 73
0
 74
0
 75
0
 76
0
 77
1
 78
8
170
0
171
2
172
0
173
0
174
0
175
0
176
0
177
0
178
0
270
2
271
3
272
3
273
2
274
2
275
0
280
0
281
0
282
0
283
1
284
8
285
0
286
0
287
3
288
0
340
11
278
46
341
22A
342
22A
343
22A
344
22A
  0
DIMSTYLE
105
233
100
AcDbSymbolTableRecord
100
AcDbDimStyleTableRecord
  2
DIMSTYLE_3
 70
0
  3

  4

 40
1.0
 41
3.0
 42
0.5
 43
0.38
 44
0.5
 45
0.0
 46
0.0
 47
0.3
 48
0.3
140
9.0
141
0.09
142
0.0
143
25.4
144
1.0
145
0.0
146
1.0
147
2.25
 71
0.0
 72
0.0
 73
0
 74
0
 75
0
 76
0
 77
1
 78
8
170
0
171
2
172
0
173
0
174
0
175
0
176
0
177
0
178
0
270
2
271
3
272
3
273
2
274
2
275
0
280
0
281
0
282
0
283
1
284
8
285
0
286
0
287
3
288
0
340
11
278
46
341
22A
342
22A
343
22A
344
22A
  0
ENDTAB
  0
ENDSEC
  0
SECTION
  2
BLOCKS
  0
BLOCK
  5
20
100
AcDbEntity
  8
0
100
AcDbBlockBegin
  2
*Model_Space
 70
0
 10
0.0
 20
0.0
 30
0.0
  3
*Model_Space
  1

  0
ENDBLK
  5
21
100
AcDbEntity
  8
0
100
AcDbBlockEnd
  0
BLOCK
  5
1C
100
AcDbEntity
  8
0
100
AcDbBlockBegin
  2
*Paper_Space
 70
0
 10
0.0
 20
0.0
 30
0.0
  3
*Paper_Space
  1

  0
ENDBLK
  5
1D
100
AcDbEntity
  8
0
100
AcDbBlockEnd
  0
BLOCK
  5
234
100
AcDbEntity
  8
0
100
AcDbBlockBegin
  2
_FILLED
 70
64
 10
0.0
 20
0.0
  3
_FILLED
  1

  0
SOLID
  5
235
100
AcDbEntity
  8
0
  6
BYBLOCK
 62
0
100
AcDbTrace
 10
0.0
 20
0.0
 11
-1.0
 21
0.1666666667
 12
-1.0
 22
-0.1666666667
 13
-1.0
 23
-0.1666666667
  0
ENDBLK
  5
236
100
AcDbEntity
  8
0
  6
BYBLOCK
 62
0
100
AcDbBlockEnd
  0
BLOCK
  5
237
100
AcDbEntity
  8
0
100
AcDbBlockBegin
 62
2
  6
CONTINUOUS
  2
*D0
 70
65
 10
0.0
 20
0.0
  3
*D0
  1

  0
MTEXT
  5
238
100
AcDbEntity
  8
0
100
AcDbMText
 62
2
  6
CONTINUOUS
  7
STANDARD
 71
2
 72
1
 10
360.6933618791
 20
248.4024029281
 30
0.0
 11
0.8963865742
 21
-0.4432731771
 31
0.0
 44
0.9
  1
300
 40
9.0
 41
41.6571428571
  0
LINE
  5
239
100
AcDbEntity
  8
0
100
AcDbLine
 62
2
  6
CONTINUOUS
 10
294.8431292988
 20
310.9378701382
 11
249.7356201953
 21
288.484787948
  0
LINE
  5
23A
100
AcDbEntity
  8
0
100
AcDbLine
 62
2
  6
CONTINUOUS
 10
504.4649345815
 20
207.2775451299
 11
459.357425478
 21
184.8244629397
  0
LINE
  5
23B
100
AcDbEntity
  8
0
100
AcDbLine
 62
2
  6
CONTINUOUS
 10
250.1832326749
 20
288.7075951922
 11
354.9941353163
 21
236.877432688
  0
LINE
  5
23C
100
AcDbEntity
  8
0
100
AcDbLine
 62
2
  6
CONTINUOUS
 10
459.8050379577
 20
185.0472701839
 11
354.9941353163
 21
236.877432688
  0
INSERT
  5
23D
100
AcDbEntity
  8
0
100
AcDbBlockReference
 62
2
  6
CONTINUOUS
  2
_FILLED
 10
250.1832326749
 20
288.7075951922
 41
3.0
 42
3.0
 43
3.0
 50
153.6870900379
  0
INSERT
  5
23E
100
AcDbEntity
  8
0
100
AcDbBlockReference
 62
2
  6
CONTINUOUS
  2
_FILLED
 10
459.8050379577
 20
185.0472701839
 41
3.0
 42
3.0
 43
3.0
 50
333.6870900379
  0
ENDBLK
  5
23F
100
AcDbEntity
  8
0
  6
BYBLOCK
 62
0
100
AcDbBlockEnd
  0
BLOCK
  5
240
100
AcDbEntity
  8
0
100
AcDbBlockBegin
 62
2
  6
CONTINUOUS
  2
*D1
 70
65
 10
0.0
 20
0.0
  3
*D1
  1

  0
MTEXT
  5
241
100
AcDbEntity
  8
0
100
AcDbMText
 62
2
  6
CONTINUOUS
  7
STANDARD
 71
2
 72
1
 10
752.7315457959
 20
302.9418849691
 30
0.0
 11
0.894427191
 21
0.4472135955
 31
0.0
 44
0.9
  1
595
 40
9.0
 41
41.6571428571
  0
LINE
  5
242
100
AcDbEntity
  8
0
100
AcDbLine
 62
2
  6
CONTINUOUS
 10
505.3612540983
 20
207.2797577348
 11
548.565874515
 21
186.0393784584
  0
LINE
  5
243
100
AcDbEntity
  8
0
100
AcDbLine
 62
2
  6
CONTINUOUS
 10
926.0897889043
 20
417.6440251378
 11
969.294409321
 21
396.4036458614
  0
LINE
  5
244
100
AcDbEntity
  8
0
100
AcDbLine
 62
2
  6
CONTINUOUS
 10
548.1171674779
 20
186.2599730976
 11
758.4814348809
 21
291.4421067991
  0
LINE
  5
245
100
AcDbEntity
  8
0
100
AcDbLine
 62
2
  6
CONTINUOUS
 10
968.8457022839
 20
396.6242405006
 11
758.4814348809
 21
291.4421067991
  0
INSERT
  5
246
100
AcDbEntity
  8
0
100
AcDbBlockReference
 62
2
  6
CONTINUOUS
  2
_FILLED
 10
548.1171674779
 20
186.2599730976
 41
3.0
 42
3.0
 43
3.0
 50
206.5650511771
  0
INSERT
  5
247
100
AcDbEntity
  8
0
100
AcDbBlockReference
 62
2
  6
CONTINUOUS
  2
_FILLED
 10
968.8457022839
 20
396.6242405006
 41
3.0
 42
3.0
 43
3.0
 50
26.5650511771
  0
ENDBLK
  5
248
100
AcDbEntity
  8
0
  6
BYBLOCK
 62
0
100
AcDbBlockEnd
  0
BLOCK
  5
249
100
AcDbEntity
  8
0
100
AcDbBlockBegin
 62
2
  6
CONTINUOUS
  2
*D2
 70
65
 10
0.0
 20
0.0
  3
*D2
  1

  0
MTEXT
  5
24A
100
AcDbEntity
  8
0
100
AcDbMText
 62
2
  6
CONTINUOUS
  7
STANDARD
 71
2
 72
1
 10
836.8208383412
 20
627.9188436958
 30
0.0
 11
0.894427191
 21
-0.4472135955
 31
0.0
 44
0.9
  1
280
 40
9.0
 41
41.6571428571
  0
LINE
  5
24B
100
AcDbEntity
  8
0
100
AcDbLine
 62
2
  6
CONTINUOUS
 10
701.1662390792
 20
650.6434575935
 11
732.3176119607
 21
666.2431544384
  0
LINE
  5
24C
100
AcDbEntity
  8
0
100
AcDbLine
 62
2
  6
CONTINUOUS
 10
899.567065019
 20
551.4430446236
 11
930.7184379005
 21
567.0427414685
  0
LINE
  5
24D
100
AcDbEntity
  8
0
100
AcDbLine
 62
2
  6
CONTINUOUS
 10
731.8705362863
 20
666.0192720107
 11
831.0709492562
 21
616.4190655258
  0
LINE
  5
24E
100
AcDbEntity
  8
0
100
AcDbLine
 62
2
  6
CONTINUOUS
 10
930.2713622261
 20
566.8188590408
 11
831.0709492562
 21
616.4190655258
  0
INSERT
  5
24F
100
AcDbEntity
  8
0
100
AcDbBlockReference
 62
2
  6
CONTINUOUS
  2
_FILLED
 10
731.8705362863
 20
666.0192720107
 41
3.0
 42
3.0
 43
3.0
 50
153.4349488229
  0
INSERT
  5
250
100
AcDbEntity
  8
0
100
AcDbBlockReference
 62
2
  6
CONTINUOUS
  2
_FILLED
 10
930.2713622261
 20
566.8188590408
 41
3.0
 42
3.0
 43
3.0
 50
333.4349488229
  0
ENDBLK
  5
251
100
AcDbEntity
  8
0
  6
BYBLOCK
 62
0
100
AcDbBlockEnd
  0
BLOCK
  5
252
100
AcDbEntity
  8
0
100
AcDbBlockBegin
 62
2
  6
CONTINUOUS
  2
*D3
 70
65
 10
0.0
 20
0.0
  3
*D3
  1

  0
MTEXT
  5
253
100
AcDbEntity
  8
0
100
AcDbMText
 62
2
  6
CONTINUOUS
  7
STANDARD
 71
2
 72
1
 10
254.159152704
 20
402.0349148032
 30
0.0
 11
0.0
 21
1.0
 31
0.0
 44
0.9
  1
160
 40
9.0
 41
41.6571428571
  0
LINE
  5
254
100
AcDbEntity
  8
0
100
AcDbLine
 62
2
  6
CONTINUOUS
 10
311.8392643644
 20
456.4266419481
 11
266.5689505659
 21
479.0285358839
  0
LINE
  5
255
100
AcDbEntity
  8
0
100
AcDbLine
 62
2
  6
CONTINUOUS
 10
294.1804101454
 20
311.7025394288
 11
266.5689505659
 21
325.4879813325
  0
LINE
  5
256
100
AcDbEntity
  8
0
100
AcDbLine
 62
2
  6
CONTINUOUS
 10
267.0162955612
 20
478.8051920789
 11
267.0162955612
 21
402.0349148032
  0
LINE
  5
257
100
AcDbEntity
  8
0
100
AcDbLine
 62
2
  6
CONTINUOUS
 10
267.0162955612
 20
325.2646375275
 11
267.0162955612
 21
402.0349148032
  0
INSERT
  5
258
100
AcDbEntity
  8
0
100
AcDbBlockReference
 62
2
  6
CONTINUOUS
  2
_FILLED
 10
267.0162955612
 20
478.8051920789
 41
3.0
 42
3.0
 43
3.0
 50
90.0
  0
INSERT
  5
259
100
AcDbEntity
  8
0
100
AcDbBlockReference
 62
2
  6
CONTINUOUS
  2
_FILLED
 10
267.0162955612
 20
325.2646375275
 41
3.0
 42
3.0
 43
3.0
 50
270.0
  0
ENDBLK
  5
25A
100
AcDbEntity
  8
0
  6
BYBLOCK
 62
0
100
AcDbBlockEnd
  0
BLOCK
  5
25B
100
AcDbEntity
  8
0
100
AcDbBlockBegin
 62
2
  6
CONTINUOUS
  2
*D4
 70
65
 10
0.0
 20
0.0
  3
*D4
  1

  0
MTEXT
  5
25C
100
AcDbEntity
  8
0
100
AcDbMText
 62
2
  6
CONTINUOUS
  7
STANDARD
 71
2
 72
1
 10
950.3018226573
 20
471.0036510029
 30
0.0
 11
0.0
 21
1.0
 31
0.0
 44
0.9
  1
80
 40
9.0
 41
27.7714285714
  0
LINE
  5
25D
100
AcDbEntity
  8
0
100
AcDbLine
 62
2
  6
CONTINUOUS
 10
926.0885071588
 20
486.9368222814
 11
963.6063908061
 21
505.6513437069
  0
LINE
  5
25E
100
AcDbEntity
  8
0
100
AcDbLine
 62
2
  6
CONTINUOUS
 10
926.0885071588
 20
418.0878026806
 11
963.6063908061
 21
436.802324106
  0
LINE
  5
25F
100
AcDbEntity
  8
0
100
AcDbLine
 62
2
  6
CONTINUOUS
 10
963.1589655145
 20
505.4281608034
 11
963.1589655145
 21
471.0036510029
  0
LINE
  5
260
100
AcDbEntity
  8
0
100
AcDbLine
 62
2
  6
CONTINUOUS
 10
963.1589655145
 20
436.5791412025
 11
963.1589655145
 21
471.0036510029
  0
INSERT
  5
261
100
AcDbEntity
  8
0
100
AcDbBlockReference
 62
2
  6
CONTINUOUS
  2
_FILLED
 10
963.1589655145
 20
505.4281608034
 41
3.0
 42
3.0
 43
3.0
 50
90.0
  0
INSERT
  5
262
100
AcDbEntity
  8
0
100
AcDbBlockReference
 62
2
  6
CONTINUOUS
  2
_FILLED
 10
963.1589655145
 20
436.5791412025
 41
3.0
 42
3.0
 43
3.0
 50
270.0
  0
ENDBLK
  5
263
100
AcDbEntity
  8
0
  6
BYBLOCK
 62
0
100
AcDbBlockEnd
  0
ENDSEC
  0
SECTION
  2
ENTITIES
  0
DIMENSION
  5
264
100
AcDbEntity
  8
0
100
AcDbDimension
 62
2
  6
CONTINUOUS
  2
*D0
 10
459.8050379577
 20
185.0472701839
 11
354.9941353163
 21
236.877432688
 70
160
 71
2
 42
233.8520135274
  3
DIMSTYLE_1
100
AcDbAlignedDimension
 13
295.0647658873
 23
311.3860634253
 14
504.6865711701
 24
207.725738417
 50
333.6870900379
100
AcDbRotatedDimension
  0
DIMENSION
  5
265
100
AcDbEntity
  8
0
100
AcDbDimension
 62
2
  6
CONTINUOUS
  2
*D1
 10
968.8457022839
 20
396.6242405006
 11
758.4814348809
 21
291.4421067991
 70
160
 71
2
 42
470.38880195
  3
DIMSTYLE_2
100
AcDbAlignedDimension
 13
505.1376473005
 23
207.7269713303
 14
925.8661821065
 24
418.0912387333
 50
26.5650511771
100
AcDbRotatedDimension
  0
DIMENSION
  5
266
100
AcDbEntity
  8
0
100
AcDbDimension
 62
2
  6
CONTINUOUS
  2
*D2
 10
930.2713622261
 20
566.8188590408
 11
831.0709492562
 21
616.4190655258
 70
160
 71
2
 42
221.8188667967
  3
DIMSTYLE_1
100
AcDbAlignedDimension
 13
700.9426322815
 23
650.196243998
 14
899.3434582213
 24
550.9958310281
 50
333.4349488229
100
AcDbRotatedDimension
  0
DIMENSION
  5
267
100
AcDbEntity
  8
0
100
AcDbDimension
 62
2
  6
CONTINUOUS
  2
*D3
 10
267.0162955612
 20
325.2646375275
 11
267.0162955612
 21
402.0349148032
 70
160
 71
2
 42
153.5405545514
  3
DIMSTYLE_1
100
AcDbAlignedDimension
 13
312.3392643644
 23
456.4266419481
 14
294.6804101454
 24
311.7025394288
 50
270.0
100
AcDbRotatedDimension
  0
DIMENSION
  5
268
100
AcDbEntity
  8
0
100
AcDbDimension
 62
2
  6
CONTINUOUS
  2
*D4
 10
963.1589655145
 20
436.5791412025
 11
963.1589655145
 21
471.0036510029
 70
160
 71
2
 42
68.8490196009
  3
DIMSTYLE_3
100
AcDbAlignedDimension
 13
925.5885071588
 23
486.9368222814
 14
925.5885071588
 24
418.0878026806
 50
270.0
100
AcDbRotatedDimension
  0
LINE
  5
269
100
AcDbEntity
  8
0
100
AcDbLine
 62
7
  6
CONTINUOUS
 10
295.2907417784
 20
311.1606773824
 11
295.2907417784
 21
348.8062798538
  0
LINE
  5
26A
100
AcDbEntity
  8
0
100
AcDbLine
 62
7
  6
CONTINUOUS
 10
311.9077511363
 20
357.1147845327
 11
311.9077511363
 21
372.3425451812
  0
LINE
  5
26B
100
AcDbEntity
  8
0
100
AcDbLine
 62
7
  6
CONTINUOUS
 10
312.2866093596
 20
373.6317628685
 11
312.2866093596
 21
456.2032981432
  0
LINE
  5
26C
100
AcDbEntity
  8
0
100
AcDbLine
 62
7
  6
CONTINUOUS
 10
312.5795025784
 20
373.8995877329
 11
312.5795025784
 21
455.6559748325
  0
LINE
  5
26D
100
AcDbEntity
  8
0
100
AcDbLine
 62
7
  6
CONTINUOUS
 10
295.2907417784
 20
311.1606773824
 11
494.2996191147
 21
211.6562387142
  0
LINE
  5
26E
100
AcDbEntity
  8
0
100
AcDbLine
 62
7
  6
CONTINUOUS
 10
504.9125470612
 20
207.500352374
 11
494.4473666996
 21
212.7329425548
  0
LINE
  5
26F
100
AcDbEntity
  8
0
100
AcDbLine
 62
7
  6
CONTINUOUS
 10
494.4473666996
 20
265.5708826718
 11
311.9077511363
 21
356.8406904534
  0
LINE
  5
270
100
AcDbEntity
  8
0
100
AcDbLine
 62
7
  6
CONTINUOUS
 10
540.2678861205
 20
257.0925180856
 11
540.3385967986
 21
257.0571627465
  0
LINE
  5
271
100
AcDbEntity
  8
0
100
AcDbLine
 62
7
  6
CONTINUOUS
 10
494.4473666996
 20
281.5819621557
 11
504.9125470612
 21
276.3493719749
  0
LINE
  5
272
100
AcDbEntity
  8
0
100
AcDbLine
 62
7
  6
CONTINUOUS
 10
496.5362181548
 20
282.6263878833
 11
314.0290714799
 21
373.8799612208
  0
LINE
  5
273
100
AcDbEntity
  8
0
100
AcDbLine
 62
7
  6
CONTINUOUS
 10
544.2957218178
 20
259.4035914576
 11
544.3664324959
 21
259.3682361186
  0
LINE
  5
274
100
AcDbEntity
  8
0
100
AcDbLine
 62
7
  6
CONTINUOUS
 10
544.687199008
 20
259.5993300527
 11
544.7579096861
 21
259.5639747136
  0
LINE
  5
275
100
AcDbEntity
  8
0
100
AcDbLine
 62
7
  6
CONTINUOUS
 10
540.2678861205
 20
262.1125453227
 11
540.3385967986
 21
262.0771899836
  0
LINE
  5
276
100
AcDbEntity
  8
0
100
AcDbLine
 62
7
  6
CONTINUOUS
 10
546.2173498848
 20
260.3644054911
 11
546.288060563
 21
260.3290501521
  0
LINE
  5
277
100
AcDbEntity
  8
0
100
AcDbLine
 62
7
  6
CONTINUOUS
 10
546.5771235804
 20
260.5442923389
 11
546.6478342585
 21
260.5089369999
  0
LINE
  5
278
100
AcDbEntity
  8
0
100
AcDbLine
 62
7
  6
CONTINUOUS
 10
543.4000980951
 20
262.2187671452
 11
543.4708087732
 21
262.1834118062
  0
LINE
  5
279
100
AcDbEntity
  8
0
100
AcDbLine
 62
7
  6
CONTINUOUS
 10
544.0478858455
 20
262.5426610204
 11
544.1185965236
 21
262.5073056814
  0
LINE
  5
27A
100
AcDbEntity
  8
0
100
AcDbLine
 62
7
  6
CONTINUOUS
 10
547.677362332
 20
261.1214042067
 11
547.7480730101
 21
261.0860488676
  0
LINE
  5
27B
100
AcDbEntity
  8
0
100
AcDbLine
 62
7
  6
CONTINUOUS
 10
547.7536822368
 20
261.1374978196
 11
547.8243929149
 21
261.1021424805
  0
LINE
  5
27C
100
AcDbEntity
  8
0
100
AcDbLine
 62
7
  6
CONTINUOUS
 10
547.8229794662
 20
261.1672202818
 11
547.8936901443
 21
261.1318649428
  0
LINE
  5
27D
100
AcDbEntity
  8
0
100
AcDbLine
 62
7
  6
CONTINUOUS
 10
544.687199008
 20
262.8623176017
 11
544.7579096861
 21
262.8269622626
  0
LINE
  5
27E
100
AcDbEntity
  8
0
100
AcDbLine
 62
7
  6
CONTINUOUS
 10
546.5771235804
 20
262.0107061574
 11
546.6478342585
 21
261.9753508184
  0
LINE
  5
27F
100
AcDbEntity
  8
0
100
AcDbLine
 62
7
  6
CONTINUOUS
 10
548.3095671402
 20
261.4105141188
 11
548.3802778183
 21
261.3751587798
  0
LINE
  5
280
100
AcDbEntity
  8
0
100
AcDbLine
 62
7
  6
CONTINUOUS
 10
541.8157464361
 20
264.7824025819
 11
541.8864571142
 21
264.7470472428
  0
LINE
  5
281
100
AcDbEntity
  8
0
100
AcDbLine
 62
7
  6
CONTINUOUS
 10
546.9956706775
 20
262.219979706
 11
547.0663813556
 21
262.1846243669
  0
LINE
  5
282
100
AcDbEntity
  8
0
100
AcDbLine
 62
7
  6
CONTINUOUS
 10
546.5771235804
 20
262.6875948053
 11
546.6478342585
 21
262.6522394662
  0
LINE
  5
283
100
AcDbEntity
  8
0
100
AcDbLine
 62
7
  6
CONTINUOUS
 10
545.5828227307
 20
263.310129463
 11
545.6535334088
 21
263.274774124
  0
LINE
  5
284
100
AcDbEntity
  8
0
100
AcDbLine
 62
7
  6
CONTINUOUS
 10
549.0606656053
 20
261.7860633514
 11
549.1313762834
 21
261.7507080123
  0
LINE
  5
285
100
AcDbEntity
  8
0
100
AcDbLine
 62
7
  6
CONTINUOUS
 10
547.5669432631
 20
262.6483528398
 11
547.6376539412
 21
262.6129975008
  0
LINE
  5
286
100
AcDbEntity
  8
0
100
AcDbLine
 62
7
  6
CONTINUOUS
 10
546.5771235804
 20
263.8346507526
 11
546.6478342585
 21
263.7992954135
  0
LINE
  5
287
100
AcDbEntity
  8
0
100
AcDbLine
 62
7
  6
CONTINUOUS
 10
549.3124949985
 20
262.7882704121
 11
549.3832056767
 21
262.7529150731
  0
LINE
  5
288
100
AcDbEntity
  8
0
100
AcDbLine
 62
7
  6
CONTINUOUS
 10
547.0003062758
 20
264.0462421003
 11
547.0710169539
 21
264.0108867612
  0
LINE
  5
289
100
AcDbEntity
  8
0
100
AcDbLine
 62
7
  6
CONTINUOUS
 10
547.0102078627
 20
264.0511104499
 11
547.0809185408
 21
264.0157551109
  0
LINE
  5
28A
100
AcDbEntity
  8
0
100
AcDbLine
 62
7
  6
CONTINUOUS
 10
548.0754642682
 20
263.639021459
 11
548.1461749463
 21
263.6036661199
  0
LINE
  5
28B
100
AcDbEntity
  8
0
100
AcDbLine
 62
7
  6
CONTINUOUS
 10
547.1805826835
 20
264.1063032618
 11
547.2512933616
 21
264.0709479228
  0
LINE
  5
28C
100
AcDbEntity
  8
0
100
AcDbLine
 62
7
  6
CONTINUOUS
 10
547.2996031156
 20
264.1011380121
 11
547.3703137937
 21
264.065782673
  0
LINE
  5
28D
100
AcDbEntity
  8
0
100
AcDbLine
 62
7
  6
CONTINUOUS
 10
547.3382966345
 20
264.0864052742
 11
547.3721594024
 21
264.0694738903
  0
LINE
  5
28E
100
AcDbEntity
  8
0
100
AcDbLine
 62
7
  6
CONTINUOUS
 10
548.1156271088
 20
264.0196053515
 11
548.1863377869
 21
263.9842500124
  0
LINE
  5
28F
100
AcDbEntity
  8
0
100
AcDbLine
 62
7
  6
CONTINUOUS
 10
551.0335213888
 20
262.779017464
 11
551.104232067
 21
262.7436621249
  0
LINE
  5
290
100
AcDbEntity
  8
0
100
AcDbLine
 62
7
  6
CONTINUOUS
 10
549.5155193006
 20
263.5838121652
 11
549.5862299787
 21
263.5484568261
  0
LINE
  5
291
100
AcDbEntity
  8
0
100
AcDbLine
 62
7
  6
CONTINUOUS
 10
551.0988344992
 20
262.8051477983
 11
551.1695451773
 21
262.7697924592
  0
LINE
  5
292
100
AcDbEntity
  8
0
100
AcDbLine
 62
7
  6
CONTINUOUS
 10
548.070378177
 20
264.4049740259
 11
548.1410888551
 21
264.3696186868
  0
LINE
  5
293
100
AcDbEntity
  8
0
100
AcDbLine
 62
7
  6
CONTINUOUS
 10
295.2907417784
 20
348.8062798538
 11
494.4473666996
 21
247.1574523553
  0
LINE
  5
294
100
AcDbEntity
  8
0
100
AcDbLine
 62
7
  6
CONTINUOUS
 10
547.6739511762
 20
261.1006740639
 11
547.6672289966
 21
261.1042695338
  0
LINE
  5
295
100
AcDbEntity
  8
0
100
AcDbLine
 62
7
  6
CONTINUOUS
 10
312.2866093596
 20
456.2032981432
 11
700.7191634049
 21
650.4195751658
  0
LINE
  5
296
100
AcDbEntity
  8
0
100
AcDbLine
 62
7
  6
CONTINUOUS
 10
557.2030935299
 20
578.4095316433
 11
315.3547162914
 21
457.4853430241
  0
LINE
  5
297
100
AcDbEntity
  8
0
100
AcDbLine
 62
7
  6
CONTINUOUS
 10
556.8419907429
 20
266.5667554944
 11
556.8924073135
 21
266.5445049008
  0
LINE
  5
298
100
AcDbEntity
  8
0
100
AcDbLine
 62
7
  6
CONTINUOUS
 10
558.027278125
 20
269.2813081598
 11
557.9775477459
 21
269.3032960076
  0
LINE
  5
299
100
AcDbEntity
  8
0
100
AcDbLine
 62
7
  6
CONTINUOUS
 10
558.0980580657
 20
269.245901777
 11
558.048258424
 21
269.2679406685
  0
LINE
  5
29A
100
AcDbEntity
  8
0
100
AcDbLine
 62
7
  6
CONTINUOUS
 10
550.6263935634
 20
263.4452196946
 11
550.6971042415
 21
263.4098643555
  0
LINE
  5
29B
100
AcDbEntity
  8
0
100
AcDbLine
 62
7
  6
CONTINUOUS
 10
551.5360073994
 20
263.0237342484
 11
551.6067180775
 21
262.9883789093
  0
LINE
  5
29C
100
AcDbEntity
  8
0
100
AcDbLine
 62
7
  6
CONTINUOUS
 10
552.3234124626
 20
263.41743678
 11
552.3941231407
 21
263.382081441
  0
LINE
  5
29D
100
AcDbEntity
  8
0
100
AcDbLine
 62
7
  6
CONTINUOUS
 10
549.9693670196
 20
265.35977688
 11
550.0400776977
 21
265.324421541
  0
LINE
  5
29E
100
AcDbEntity
  8
0
100
AcDbLine
 62
7
  6
CONTINUOUS
 10
553.5918897496
 20
264.3823499885
 11
553.6626004277
 21
264.3469946494
  0
LINE
  5
29F
100
AcDbEntity
  8
0
100
AcDbLine
 62
7
  6
CONTINUOUS
 10
553.8845373995
 20
264.5286738134
 11
553.9552480776
 21
264.4933184744
  0
LINE
  5
2A0
100
AcDbEntity
  8
0
100
AcDbLine
 62
7
  6
CONTINUOUS
 10
553.6281941706
 20
265.3433673899
 11
553.6989048487
 21
265.3080120509
  0
LINE
  5
2A1
100
AcDbEntity
  8
0
100
AcDbLine
 62
7
  6
CONTINUOUS
 10
555.0189044773
 20
264.8004303606
 11
555.0896151554
 21
264.7650750215
  0
LINE
  5
2A2
100
AcDbEntity
  8
0
100
AcDbLine
 62
7
  6
CONTINUOUS
 10
555.0983733077
 20
264.8114448099
 11
555.1690839858
 21
264.7760894709
  0
LINE
  5
2A3
100
AcDbEntity
  8
0
100
AcDbLine
 62
7
  6
CONTINUOUS
 10
555.1670047571
 20
264.8392329273
 11
555.2377154352
 21
264.8038775882
  0
LINE
  5
2A4
100
AcDbEntity
  8
0
100
AcDbLine
 62
7
  6
CONTINUOUS
 10
552.6154504226
 20
266.2912047179
 11
552.6861611007
 21
266.2558493789
  0
LINE
  5
2A5
100
AcDbEntity
  8
0
100
AcDbLine
 62
7
  6
CONTINUOUS
 10
555.5407684512
 20
265.0261147743
 11
555.6114791293
 21
264.9907594353
  0
LINE
  5
2A6
100
AcDbEntity
  8
0
100
AcDbLine
 62
7
  6
CONTINUOUS
 10
554.6134412339
 20
267.2468165269
 11
554.684151912
 21
267.2114611878
  0
LINE
  5
2A7
100
AcDbEntity
  8
0
100
AcDbLine
 62
7
  6
CONTINUOUS
 10
557.3896026902
 20
265.878508116
 11
557.4603133683
 21
265.8431527769
  0
LINE
  5
2A8
100
AcDbEntity
  8
0
100
AcDbLine
 62
7
  6
CONTINUOUS
 10
557.4179252962
 20
265.8929543721
 11
557.4886359744
 21
265.8575990331
  0
LINE
  5
2A9
100
AcDbEntity
  8
0
100
AcDbLine
 62
7
  6
CONTINUOUS
 10
556.3820389712
 20
267.4303735736
 11
556.4527496493
 21
267.3950182345
  0
LINE
  5
2AA
100
AcDbEntity
  8
0
100
AcDbLine
 62
7
  6
CONTINUOUS
 10
559.739014605
 20
267.1252378512
 11
559.8097252831
 21
267.0898825121
  0
LINE
  5
2AB
100
AcDbEntity
  8
0
100
AcDbLine
 62
7
  6
CONTINUOUS
 10
556.7515096564
 20
268.6218683994
 11
556.8222203345
 21
268.5865130603
  0
LINE
  5
2AC
100
AcDbEntity
  8
0
100
AcDbLine
 62
7
  6
CONTINUOUS
 10
560.0810746889
 20
267.2962678932
 11
560.151785367
 21
267.2609125541
  0
LINE
  5
2AD
100
AcDbEntity
  8
0
100
AcDbLine
 62
7
  6
CONTINUOUS
 10
557.398989529
 20
269.2455837269
 11
557.4697002071
 21
269.2102283878
  0
LINE
  5
2AE
100
AcDbEntity
  8
0
100
AcDbLine
 62
7
  6
CONTINUOUS
 10
557.415314015
 20
269.2535803423
 11
557.4860246932
 21
269.2182250033
  0
LINE
  5
2AF
100
AcDbEntity
  8
0
100
AcDbLine
 62
7
  6
CONTINUOUS
 10
557.9775477459
 20
269.3032960076
 11
558.0259926
 21
269.2790735805
  0
LINE
  5
2B0
100
AcDbEntity
  8
0
100
AcDbLine
 62
7
  6
CONTINUOUS
 10
559.077537148
 20
268.7837562189
 11
559.1482478261
 21
268.7484008798
  0
LINE
  5
2B1
100
AcDbEntity
  8
0
100
AcDbLine
 62
7
  6
CONTINUOUS
 10
561.8761936188
 20
268.1938273581
 11
561.9469042969
 21
268.1584720191
  0
LINE
  5
2B2
100
AcDbEntity
  8
0
100
AcDbLine
 62
7
  6
CONTINUOUS
 10
562.2227067181
 20
268.3670839078
 11
562.2934173962
 21
268.3317285687
  0
LINE
  5
2B3
100
AcDbEntity
  8
0
100
AcDbLine
 62
7
  6
CONTINUOUS
 10
561.6329607501
 20
269.2350889063
 11
561.7036714282
 21
269.1997335672
  0
LINE
  5
2B4
100
AcDbEntity
  8
0
100
AcDbLine
 62
7
  6
CONTINUOUS
 10
560.0810746889
 20
270.0572120063
 11
560.151785367
 21
270.0218566672
  0
LINE
  5
2B5
100
AcDbEntity
  8
0
100
AcDbLine
 62
7
  6
CONTINUOUS
 10
563.7528600288
 20
269.1321605631
 11
563.8235707069
 21
269.096805224
  0
LINE
  5
2B6
100
AcDbEntity
  8
0
100
AcDbLine
 62
7
  6
CONTINUOUS
 10
564.1443347851
 20
269.3278979413
 11
564.2150454632
 21
269.2925426022
  0
LINE
  5
2B7
100
AcDbEntity
  8
0
100
AcDbLine
 62
7
  6
CONTINUOUS
 10
565.7007020134
 20
270.1060815554
 11
565.7714126915
 21
270.0707262163
  0
LINE
  5
2B8
100
AcDbEntity
  8
0
100
AcDbLine
 62
7
  6
CONTINUOUS
 10
566.0921792035
 20
270.3018201505
 11
566.1628898816
 21
270.2664648114
  0
LINE
  5
2B9
100
AcDbEntity
  8
0
100
AcDbLine
 62
7
  6
CONTINUOUS
 10
562.8571119356
 20
271.9472740655
 11
562.9278226137
 21
271.9119187264
  0
LINE
  5
2BA
100
AcDbEntity
  8
0
100
AcDbLine
 62
7
  6
CONTINUOUS
 10
563.504899686
 20
272.2711679407
 11
563.5756103642
 21
272.2358126016
  0
LINE
  5
2BB
100
AcDbEntity
  8
0
100
AcDbLine
 62
7
  6
CONTINUOUS
 10
566.9560994317
 20
270.7337802646
 11
567.0268101098
 21
270.6984249255
  0
LINE
  5
2BC
100
AcDbEntity
  8
0
100
AcDbLine
 62
7
  6
CONTINUOUS
 10
567.2981313639
 20
270.9047962307
 11
567.368842042
 21
270.8694408916
  0
LINE
  5
2BD
100
AcDbEntity
  8
0
100
AcDbLine
 62
7
  6
CONTINUOUS
 10
564.1443347851
 20
272.5908854902
 11
564.2150454632
 21
272.5555301512
  0
LINE
  5
2BE
100
AcDbEntity
  8
0
100
AcDbLine
 62
7
  6
CONTINUOUS
 10
565.0398060872
 20
273.0386211413
 11
565.1105167653
 21
273.0032658022
  0
LINE
  5
2BF
100
AcDbEntity
  8
0
100
AcDbLine
 62
7
  6
CONTINUOUS
 10
569.0938294923
 20
271.8026452949
 11
569.1645401704
 21
271.7672899558
  0
LINE
  5
2C0
100
AcDbEntity
  8
0
100
AcDbLine
 62
7
  6
CONTINUOUS
 10
569.4406474328
 20
271.9760542651
 11
569.511358111
 21
271.9406989261
  0
LINE
  5
2C1
100
AcDbEntity
  8
0
100
AcDbLine
 62
7
  6
CONTINUOUS
 10
568.8506271077
 20
272.8439220851
 11
568.9213377858
 21
272.808566746
  0
LINE
  5
2C2
100
AcDbEntity
  8
0
100
AcDbLine
 62
7
  6
CONTINUOUS
 10
567.2981313639
 20
273.6657403438
 11
567.368842042
 21
273.6303850047
  0
LINE
  5
2C3
100
AcDbEntity
  8
0
100
AcDbLine
 62
7
  6
CONTINUOUS
 10
570.4212635107
 20
272.4663623041
 11
570.4919741888
 21
272.431006965
  0
LINE
  5
2C4
100
AcDbEntity
  8
0
100
AcDbLine
 62
7
  6
CONTINUOUS
 10
570.6737304684
 20
273.4688881471
 11
570.7444411465
 21
273.433532808
  0
LINE
  5
2C5
100
AcDbEntity
  8
0
100
AcDbLine
 62
7
  6
CONTINUOUS
 10
570.8758707307
 20
274.2639878802
 11
570.9465814088
 21
274.2286325412
  0
LINE
  5
2C6
100
AcDbEntity
  8
0
100
AcDbLine
 62
7
  6
CONTINUOUS
 10
572.4593078658
 20
273.4853844816
 11
572.5300185439
 21
273.4500291426
  0
LINE
  5
2C7
100
AcDbEntity
  8
0
100
AcDbLine
 62
7
  6
CONTINUOUS
 10
571.9868648278
 20
274.1254553268
 11
572.057575506
 21
274.0900999877
  0
LINE
  5
2C8
100
AcDbEntity
  8
0
100
AcDbLine
 62
7
  6
CONTINUOUS
 10
572.8963283453
 20
273.7038947214
 11
572.9670390235
 21
273.6685393823
  0
LINE
  5
2C9
100
AcDbEntity
  8
0
100
AcDbLine
 62
7
  6
CONTINUOUS
 10
571.3304500688
 20
276.0403184046
 11
571.4011607469
 21
276.0049630656
  0
LINE
  5
2CA
100
AcDbEntity
  8
0
100
AcDbLine
 62
7
  6
CONTINUOUS
 10
574.0754849559
 20
280.9122718418
 11
574.146195634
 21
280.8769165027
  0
LINE
  5
2CB
100
AcDbEntity
  8
0
100
AcDbLine
 62
7
  6
CONTINUOUS
 10
574.1061830143
 20
280.9273500762
 11
574.1768936924
 21
280.8919947371
  0
LINE
  5
2CC
100
AcDbEntity
  8
0
100
AcDbLine
 62
7
  6
CONTINUOUS
 10
561.5601826309
 20
268.2409028877
 11
560.151785367
 21
270.0218566672
  0
LINE
  5
2CD
100
AcDbEntity
  8
0
100
AcDbLine
 62
7
  6
CONTINUOUS
 10
547.5669432631
 20
262.6483528398
 11
548.3095671402
 21
261.4105141188
  0
LINE
  5
2CE
100
AcDbEntity
  8
0
100
AcDbLine
 62
7
  6
CONTINUOUS
 10
547.6376539412
 20
262.6129975008
 11
548.3802778183
 21
261.3751587798
  0
LINE
  5
2CF
100
AcDbEntity
  8
0
100
AcDbLine
 62
7
  6
CONTINUOUS
 10
494.4473666996
 20
212.7329425548
 11
494.4473666996
 21
281.5819621557
  0
LINE
  5
2D0
100
AcDbEntity
  8
0
100
AcDbLine
 62
7
  6
CONTINUOUS
 10
504.9125470612
 20
276.3493719749
 11
504.9125470612
 21
207.500352374
  0
LINE
  5
2D1
100
AcDbEntity
  8
0
100
AcDbLine
 62
7
  6
CONTINUOUS
 10
510.7195713001
 20
357.0189531736
 11
510.7195713001
 21
289.7180644559
  0
LINE
  5
2D2
100
AcDbEntity
  8
0
100
AcDbLine
 62
7
  6
CONTINUOUS
 10
312.933055969
 20
455.9122108391
 11
510.7195713001
 21
357.0189531736
  0
LINE
  5
2D3
100
AcDbEntity
  8
0
100
AcDbLine
 62
7
  6
CONTINUOUS
 10
568.7778515475
 20
271.849737346
 11
567.368842042
 21
273.6303850047
  0
LINE
  5
2D4
100
AcDbEntity
  8
0
100
AcDbLine
 62
7
  6
CONTINUOUS
 10
560.1067780444
 20
271.2116628309
 11
561.6329607501
 21
269.2350889063
  0
LINE
  5
2D5
100
AcDbEntity
  8
0
100
AcDbLine
 62
7
  6
CONTINUOUS
 10
560.1380979929
 20
271.2273228052
 11
561.7036714282
 21
269.1997335672
  0
LINE
  5
2D6
100
AcDbEntity
  8
0
100
AcDbLine
 62
7
  6
CONTINUOUS
 10
567.3244468615
 20
274.8204972395
 11
568.8506271077
 21
272.8439220851
  0
LINE
  5
2D7
100
AcDbEntity
  8
0
100
AcDbLine
 62
7
  6
CONTINUOUS
 10
567.3557668735
 20
274.8361572455
 11
568.9213377858
 21
272.808566746
  0
LINE
  5
2D8
100
AcDbEntity
  8
0
100
AcDbLine
 62
7
  6
CONTINUOUS
 10
547.5834836432
 20
261.2026401491
 11
547.0663813556
 21
262.1846243669
  0
LINE
  5
2D9
100
AcDbEntity
  8
0
100
AcDbLine
 62
7
  6
CONTINUOUS
 10
550.3069041641
 20
266.3117258908
 11
551.5360073994
 21
263.0237342484
  0
LINE
  5
2DA
100
AcDbEntity
  8
0
100
AcDbLine
 62
7
  6
CONTINUOUS
 10
550.3553445643
 20
266.3359460909
 11
551.6067180775
 21
262.9883789093
  0
LINE
  5
2DB
100
AcDbEntity
  8
0
100
AcDbLine
 62
7
  6
CONTINUOUS
 10
553.3476362253
 20
264.4762848429
 11
552.6861611007
 21
266.2558493789
  0
LINE
  5
2DC
100
AcDbEntity
  8
0
100
AcDbLine
 62
7
  6
CONTINUOUS
 10
552.8088097062
 20
267.5626786618
 11
553.6281941706
 21
265.3433673899
  0
LINE
  5
2DD
100
AcDbEntity
  8
0
100
AcDbLine
 62
7
  6
CONTINUOUS
 10
552.8574819081
 20
267.5870147628
 11
553.6989048487
 21
265.3080120509
  0
LINE
  5
2DE
100
AcDbEntity
  8
0
100
AcDbLine
 62
7
  6
CONTINUOUS
 10
550.8772023752
 20
262.8939618117
 11
550.6971042415
 21
263.4098643555
  0
LINE
  5
2DF
100
AcDbEntity
  8
0
100
AcDbLine
 62
7
  6
CONTINUOUS
 10
550.4949618771
 20
264.0028227753
 11
550.0400776977
 21
265.324421541
  0
LINE
  5
2E0
100
AcDbEntity
  8
0
100
AcDbLine
 62
7
  6
CONTINUOUS
 10
540.2678861205
 20
262.1125453227
 11
540.2678861205
 21
257.0925180856
  0
LINE
  5
2E1
100
AcDbEntity
  8
0
100
AcDbLine
 62
7
  6
CONTINUOUS
 10
540.3385967986
 20
262.0771899836
 11
540.3385967986
 21
257.0571627465
  0
LINE
  5
2E2
100
AcDbEntity
  8
0
100
AcDbLine
 62
7
  6
CONTINUOUS
 10
543.2229728009
 20
262.3619469329
 11
543.2229728009
 21
262.7697602092
  0
LINE
  5
2E3
100
AcDbEntity
  8
0
100
AcDbLine
 62
7
  6
CONTINUOUS
 10
544.1185965236
 20
259.5478539761
 11
544.1185965236
 21
262.5073056814
  0
LINE
  5
2E4
100
AcDbEntity
  8
0
100
AcDbLine
 62
7
  6
CONTINUOUS
 10
544.687199008
 20
262.8623176017
 11
544.687199008
 21
259.5993300527
  0
LINE
  5
2E5
100
AcDbEntity
  8
0
100
AcDbLine
 62
7
  6
CONTINUOUS
 10
544.7579096861
 20
262.8269622626
 11
544.7579096861
 21
259.5639747136
  0
LINE
  5
2E6
100
AcDbEntity
  8
0
100
AcDbLine
 62
7
  6
CONTINUOUS
 10
545.5828227307
 20
263.9496851741
 11
545.5828227307
 21
263.310129463
  0
LINE
  5
2E7
100
AcDbEntity
  8
0
100
AcDbLine
 62
7
  6
CONTINUOUS
 10
545.6535334088
 20
263.9850405132
 11
545.6535334088
 21
263.274774124
  0
LINE
  5
2E8
100
AcDbEntity
  8
0
100
AcDbLine
 62
7
  6
CONTINUOUS
 10
546.0403770113
 20
260.5087442199
 11
546.0403770113
 21
264.1784623144
  0
LINE
  5
2E9
100
AcDbEntity
  8
0
100
AcDbLine
 62
7
  6
CONTINUOUS
 10
546.5771235804
 20
263.8346507526
 11
546.5771235804
 21
262.6875948053
  0
LINE
  5
2EA
100
AcDbEntity
  8
0
100
AcDbLine
 62
7
  6
CONTINUOUS
 10
546.5771235804
 20
262.0107061574
 11
546.5771235804
 21
260.5442923389
  0
LINE
  5
2EB
100
AcDbEntity
  8
0
100
AcDbLine
 62
7
  6
CONTINUOUS
 10
546.6478342585
 20
263.7992954135
 11
546.6478342585
 21
262.6522394662
  0
LINE
  5
2EC
100
AcDbEntity
  8
0
100
AcDbLine
 62
7
  6
CONTINUOUS
 10
546.6478342585
 20
261.9753508184
 11
546.6478342585
 21
260.5089369999
  0
LINE
  5
2ED
100
AcDbEntity
  8
0
100
AcDbLine
 62
7
  6
CONTINUOUS
 10
295.2907417784
 20
348.8062798538
 11
311.9077511363
 21
357.1147845327
  0
LINE
  5
2EE
100
AcDbEntity
  8
0
100
AcDbLine
 62
7
  6
CONTINUOUS
 10
571.6679437088
 20
276.9922456632
 11
572.8963283453
 21
273.7038947214
  0
LINE
  5
2EF
100
AcDbEntity
  8
0
100
AcDbLine
 62
7
  6
CONTINUOUS
 10
571.7163971293
 20
277.0164723734
 11
572.9670390235
 21
273.6685393823
  0
LINE
  5
2F0
100
AcDbEntity
  8
0
100
AcDbLine
 62
7
  6
CONTINUOUS
 10
572.2382854254
 20
273.5745033334
 11
572.057575506
 21
274.0900999877
  0
LINE
  5
2F1
100
AcDbEntity
  8
0
100
AcDbLine
 62
7
  6
CONTINUOUS
 10
571.8551304024
 20
274.682907038
 11
571.4011607469
 21
276.0049630656
  0
LINE
  5
2F2
100
AcDbEntity
  8
0
100
AcDbLine
 62
7
  6
CONTINUOUS
 10
555.0454443386
 20
268.6809959781
 11
555.5407684512
 21
265.0261147743
  0
LINE
  5
2F3
100
AcDbEntity
  8
0
100
AcDbLine
 62
7
  6
CONTINUOUS
 10
555.1071801761
 20
268.7118638968
 11
555.6114791293
 21
264.9907594353
  0
LINE
  5
2F4
100
AcDbEntity
  8
0
100
AcDbLine
 62
7
  6
CONTINUOUS
 10
554.9450677853
 20
264.9493996358
 11
554.684151912
 21
267.2114611878
  0
LINE
  5
2F5
100
AcDbEntity
  8
0
100
AcDbLine
 62
7
  6
CONTINUOUS
 10
559.5617650419
 20
267.2694382352
 11
559.5617650419
 21
270.9391563297
  0
LINE
  5
2F6
100
AcDbEntity
  8
0
100
AcDbLine
 62
7
  6
CONTINUOUS
 10
560.0810746889
 20
270.0572120063
 11
560.0810746889
 21
267.2962678932
  0
LINE
  5
2F7
100
AcDbEntity
  8
0
100
AcDbLine
 62
7
  6
CONTINUOUS
 10
560.151785367
 20
270.0218566672
 11
560.151785367
 21
267.2609125541
  0
LINE
  5
2F8
100
AcDbEntity
  8
0
100
AcDbLine
 62
7
  6
CONTINUOUS
 10
561.7036714282
 20
269.1997335672
 11
561.7036714282
 21
272.0101095229
  0
LINE
  5
2F9
100
AcDbEntity
  8
0
100
AcDbLine
 62
7
  6
CONTINUOUS
 10
562.2227067181
 20
272.2696271678
 11
562.2227067181
 21
268.3670839078
  0
LINE
  5
2FA
100
AcDbEntity
  8
0
100
AcDbLine
 62
7
  6
CONTINUOUS
 10
562.2934173962
 20
272.3049825069
 11
562.2934173962
 21
268.3317285687
  0
LINE
  5
2FB
100
AcDbEntity
  8
0
100
AcDbLine
 62
7
  6
CONTINUOUS
 10
562.6804158243
 20
272.0906684445
 11
562.6804158243
 21
272.4984817209
  0
LINE
  5
2FC
100
AcDbEntity
  8
0
100
AcDbLine
 62
7
  6
CONTINUOUS
 10
563.5756103642
 20
269.2763608964
 11
563.5756103642
 21
272.2358126016
  0
LINE
  5
2FD
100
AcDbEntity
  8
0
100
AcDbLine
 62
7
  6
CONTINUOUS
 10
564.1443347851
 20
272.5908854902
 11
564.1443347851
 21
269.3278979413
  0
LINE
  5
2FE
100
AcDbEntity
  8
0
100
AcDbLine
 62
7
  6
CONTINUOUS
 10
564.2150454632
 20
272.5555301512
 11
564.2150454632
 21
269.2925426022
  0
LINE
  5
2FF
100
AcDbEntity
  8
0
100
AcDbLine
 62
7
  6
CONTINUOUS
 10
565.0398060872
 20
273.6781768524
 11
565.0398060872
 21
273.0386211413
  0
LINE
  5
300
100
AcDbEntity
  8
0
100
AcDbLine
 62
7
  6
CONTINUOUS
 10
565.1105167653
 20
273.7135321914
 11
565.1105167653
 21
273.0032658022
  0
LINE
  5
301
100
AcDbEntity
  8
0
100
AcDbLine
 62
7
  6
CONTINUOUS
 10
565.5246131795
 20
270.250862304
 11
565.5246131795
 21
273.9205803985
  0
LINE
  5
302
100
AcDbEntity
  8
0
100
AcDbLine
 62
7
  6
CONTINUOUS
 10
566.0921792035
 20
274.2043634105
 11
566.0921792035
 21
270.3018201505
  0
LINE
  5
303
100
AcDbEntity
  8
0
100
AcDbLine
 62
7
  6
CONTINUOUS
 10
566.1628898816
 20
274.2397187496
 11
566.1628898816
 21
270.2664648114
  0
LINE
  5
304
100
AcDbEntity
  8
0
100
AcDbLine
 62
7
  6
CONTINUOUS
 10
566.7800105979
 20
270.8785610132
 11
566.7800105979
 21
274.5482791077
  0
LINE
  5
305
100
AcDbEntity
  8
0
100
AcDbLine
 62
7
  6
CONTINUOUS
 10
567.2981313639
 20
273.6657403438
 11
567.2981313639
 21
270.9047962307
  0
LINE
  5
306
100
AcDbEntity
  8
0
100
AcDbLine
 62
7
  6
CONTINUOUS
 10
567.368842042
 20
273.6303850047
 11
567.368842042
 21
270.8694408916
  0
LINE
  5
307
100
AcDbEntity
  8
0
100
AcDbLine
 62
7
  6
CONTINUOUS
 10
568.9213377858
 20
272.808566746
 11
568.9213377858
 21
275.6189427017
  0
LINE
  5
308
100
AcDbEntity
  8
0
100
AcDbLine
 62
7
  6
CONTINUOUS
 10
569.4406474328
 20
275.8785975252
 11
569.4406474328
 21
271.9760542651
  0
LINE
  5
309
100
AcDbEntity
  8
0
100
AcDbLine
 62
7
  6
CONTINUOUS
 10
569.511358111
 20
275.9139528642
 11
569.511358111
 21
271.9406989261
  0
LINE
  5
30A
100
AcDbEntity
  8
0
100
AcDbLine
 62
7
  6
CONTINUOUS
 10
575.6939358536
 20
274.734832274
 11
575.6939358536
 21
279.7548595111
  0
LINE
  5
30B
100
AcDbEntity
  8
0
100
AcDbLine
 62
7
  6
CONTINUOUS
 10
552.6154504226
 20
266.291204718
 11
552.3234124626
 21
263.41743678
  0
LINE
  5
30C
100
AcDbEntity
  8
0
100
AcDbLine
 62
7
  6
CONTINUOUS
 10
552.6861611007
 20
266.2558493789
 11
552.3941231407
 21
263.382081441
  0
LINE
  5
30D
100
AcDbEntity
  8
0
100
AcDbLine
 62
7
  6
CONTINUOUS
 10
551.78206279
 20
263.0760512656
 11
552.2862093225
 21
267.30137847
  0
LINE
  5
30E
100
AcDbEntity
  8
0
100
AcDbLine
 62
7
  6
CONTINUOUS
 10
549.3124949985
 20
262.7882704121
 11
549.0606656053
 21
261.7860633514
  0
LINE
  5
30F
100
AcDbEntity
  8
0
100
AcDbLine
 62
7
  6
CONTINUOUS
 10
549.3832056767
 20
262.7529150731
 11
549.1313762834
 21
261.7507080123
  0
LINE
  5
310
100
AcDbEntity
  8
0
100
AcDbLine
 62
7
  6
CONTINUOUS
 10
549.9693670196
 20
265.35977688
 11
549.5155193006
 21
263.5838121652
  0
LINE
  5
311
100
AcDbEntity
  8
0
100
AcDbLine
 62
7
  6
CONTINUOUS
 10
550.0400776977
 20
265.324421541
 11
549.5862299787
 21
263.5484568261
  0
LINE
  5
312
100
AcDbEntity
  8
0
100
AcDbLine
 62
7
  6
CONTINUOUS
 10
554.6134412339
 20
267.2468165269
 11
553.8845373995
 21
264.5286738134
  0
LINE
  5
313
100
AcDbEntity
  8
0
100
AcDbLine
 62
7
  6
CONTINUOUS
 10
554.684151912
 20
267.2114611878
 11
553.9552480776
 21
264.4933184744
  0
LINE
  5
314
100
AcDbEntity
  8
0
100
AcDbLine
 62
7
  6
CONTINUOUS
 10
553.6989048487
 20
265.3080120509
 11
554.5405106941
 21
268.4285291558
  0
LINE
  5
315
100
AcDbEntity
  8
0
100
AcDbLine
 62
7
  6
CONTINUOUS
 10
548.4966662245
 20
261.4333529828
 11
549.7389554671
 21
266.0277515423
  0
LINE
  5
316
100
AcDbEntity
  8
0
100
AcDbLine
 62
7
  6
CONTINUOUS
 10
570.6737304684
 20
273.4688881471
 11
570.4212635107
 21
272.4663623041
  0
LINE
  5
317
100
AcDbEntity
  8
0
100
AcDbLine
 62
7
  6
CONTINUOUS
 10
570.7444411465
 20
273.433532808
 11
570.4919741888
 21
272.431006965
  0
LINE
  5
318
100
AcDbEntity
  8
0
100
AcDbLine
 62
7
  6
CONTINUOUS
 10
571.3304500688
 20
276.0403184046
 11
570.8758707307
 21
274.2639878802
  0
LINE
  5
319
100
AcDbEntity
  8
0
100
AcDbLine
 62
7
  6
CONTINUOUS
 10
571.4011607469
 20
276.0049630656
 11
570.9465814088
 21
274.2286325412
  0
LINE
  5
31A
100
AcDbEntity
  8
0
100
AcDbLine
 62
7
  6
CONTINUOUS
 10
569.857294598
 20
272.1136671696
 11
571.0995812544
 21
276.708064436
  0
LINE
  5
31B
100
AcDbEntity
  8
0
100
AcDbLine
 62
7
  6
CONTINUOUS
 10
899.1199893447
 20
551.2191621959
 11
510.7195713001
 21
357.0189531736
  0
LINE
  5
31C
100
AcDbEntity
  8
0
100
AcDbLine
 62
7
  6
CONTINUOUS
 10
494.4473666996
 20
281.5819621557
 11
915.1759015056
 21
491.9462295587
  0
LINE
  5
31D
100
AcDbEntity
  8
0
100
AcDbLine
 62
7
  6
CONTINUOUS
 10
557.4179252962
 20
265.8929543721
 11
557.3896026902
 21
265.878508116
  0
LINE
  5
31E
100
AcDbEntity
  8
0
100
AcDbLine
 62
7
  6
CONTINUOUS
 10
557.4886359744
 20
265.8575990331
 11
557.4603133683
 21
265.8431527769
  0
LINE
  5
31F
100
AcDbEntity
  8
0
100
AcDbLine
 62
7
  6
CONTINUOUS
 10
557.4514791112
 20
269.9553947282
 11
557.4789368984
 21
269.9693927852
  0
LINE
  5
320
100
AcDbEntity
  8
0
100
AcDbLine
 62
7
  6
CONTINUOUS
 10
504.9125470612
 20
276.3493719749
 11
925.6410818672
 21
486.7136393779
  0
LINE
  5
321
100
AcDbEntity
  8
0
100
AcDbLine
 62
7
  6
CONTINUOUS
 10
574.0754849559
 20
280.9122718418
 11
541.8157464361
 21
264.7824025819
  0
LINE
  5
322
100
AcDbEntity
  8
0
100
AcDbLine
 62
7
  6
CONTINUOUS
 10
574.146195634
 20
280.8769165027
 11
541.8864571142
 21
264.7470472428
  0
LINE
  5
323
100
AcDbEntity
  8
0
100
AcDbLine
 62
7
  6
CONTINUOUS
 10
543.2229728009
 20
262.7697602092
 11
545.6535334088
 21
263.9850405132
  0
LINE
  5
324
100
AcDbEntity
  8
0
100
AcDbLine
 62
7
  6
CONTINUOUS
 10
546.0403770113
 20
264.1784623144
 11
547.1248804
 21
264.7207140088
  0
LINE
  5
325
100
AcDbEntity
  8
0
100
AcDbLine
 62
7
  6
CONTINUOUS
 10
549.7389554671
 20
266.0277515423
 11
550.3553445643
 21
266.3359460909
  0
LINE
  5
326
100
AcDbEntity
  8
0
100
AcDbLine
 62
7
  6
CONTINUOUS
 10
552.2862093225
 20
267.30137847
 11
552.8574819081
 21
267.5870147628
  0
LINE
  5
327
100
AcDbEntity
  8
0
100
AcDbLine
 62
7
  6
CONTINUOUS
 10
554.5405106941
 20
268.4285291558
 11
555.1071801761
 21
268.7118638968
  0
LINE
  5
328
100
AcDbEntity
  8
0
100
AcDbLine
 62
7
  6
CONTINUOUS
 10
559.5617650419
 20
270.9391563297
 11
560.1380979929
 21
271.2273228052
  0
LINE
  5
329
100
AcDbEntity
  8
0
100
AcDbLine
 62
7
  6
CONTINUOUS
 10
561.7036714282
 20
272.0101095229
 11
562.2934173962
 21
272.3049825069
  0
LINE
  5
32A
100
AcDbEntity
  8
0
100
AcDbLine
 62
7
  6
CONTINUOUS
 10
562.6804158243
 20
272.4984817209
 11
565.1105167653
 21
273.7135321914
  0
LINE
  5
32B
100
AcDbEntity
  8
0
100
AcDbLine
 62
7
  6
CONTINUOUS
 10
565.5246131795
 20
273.9205803985
 11
566.1628898816
 21
274.2397187496
  0
LINE
  5
32C
100
AcDbEntity
  8
0
100
AcDbLine
 62
7
  6
CONTINUOUS
 10
566.7800105979
 20
274.5482791077
 11
567.3557668735
 21
274.8361572455
  0
LINE
  5
32D
100
AcDbEntity
  8
0
100
AcDbLine
 62
7
  6
CONTINUOUS
 10
568.9213377858
 20
275.6189427017
 11
569.511358111
 21
275.9139528642
  0
LINE
  5
32E
100
AcDbEntity
  8
0
100
AcDbLine
 62
7
  6
CONTINUOUS
 10
571.0995812544
 20
276.708064436
 11
571.7163971293
 21
277.0164723734
  0
LINE
  5
32F
100
AcDbEntity
  8
0
100
AcDbLine
 62
7
  6
CONTINUOUS
 10
547.0003062758
 20
264.0462421003
 11
546.5771235804
 21
263.8346507526
  0
LINE
  5
330
100
AcDbEntity
  8
0
100
AcDbLine
 62
7
  6
CONTINUOUS
 10
565.0398060872
 20
273.0386211413
 11
564.1443347851
 21
272.5908854902
  0
LINE
  5
331
100
AcDbEntity
  8
0
100
AcDbLine
 62
7
  6
CONTINUOUS
 10
563.504899686
 20
272.2711679407
 11
562.8571119356
 21
271.9472740655
  0
LINE
  5
332
100
AcDbEntity
  8
0
100
AcDbLine
 62
7
  6
CONTINUOUS
 10
545.5828227307
 20
263.310129463
 11
544.687199008
 21
262.8623176017
  0
LINE
  5
333
100
AcDbEntity
  8
0
100
AcDbLine
 62
7
  6
CONTINUOUS
 10
544.0478858455
 20
262.5426610204
 11
543.4000980951
 21
262.2187671452
  0
LINE
  5
334
100
AcDbEntity
  8
0
100
AcDbLine
 62
7
  6
CONTINUOUS
 10
547.0710169539
 20
264.0108867612
 11
546.6478342585
 21
263.7992954135
  0
LINE
  5
335
100
AcDbEntity
  8
0
100
AcDbLine
 62
7
  6
CONTINUOUS
 10
565.1105167653
 20
273.0032658022
 11
564.2150454632
 21
272.5555301512
  0
LINE
  5
336
100
AcDbEntity
  8
0
100
AcDbLine
 62
7
  6
CONTINUOUS
 10
563.5756103642
 20
272.2358126016
 11
562.9278226137
 21
271.9119187264
  0
LINE
  5
337
100
AcDbEntity
  8
0
100
AcDbLine
 62
7
  6
CONTINUOUS
 10
545.6535334088
 20
263.274774124
 11
544.7579096861
 21
262.8269622626
  0
LINE
  5
338
100
AcDbEntity
  8
0
100
AcDbLine
 62
7
  6
CONTINUOUS
 10
544.1185965236
 20
262.5073056814
 11
543.4708087732
 21
262.1834118062
  0
LINE
  5
339
100
AcDbEntity
  8
0
100
AcDbLine
 62
7
  6
CONTINUOUS
 10
546.6478342585
 20
262.6522394662
 11
547.0710169539
 21
262.8638308139
  0
LINE
  5
33A
100
AcDbEntity
  8
0
100
AcDbLine
 62
7
  6
CONTINUOUS
 10
549.5862299787
 20
263.5484568261
 11
550.4949618771
 21
264.0028227753
  0
LINE
  5
33B
100
AcDbEntity
  8
0
100
AcDbLine
 62
7
  6
CONTINUOUS
 10
570.9465814088
 20
274.2286325412
 11
571.8551304024
 21
274.682907038
  0
LINE
  5
33C
100
AcDbEntity
  8
0
100
AcDbLine
 62
7
  6
CONTINUOUS
 10
546.9956706775
 20
262.219979706
 11
546.5771235804
 21
262.0107061574
  0
LINE
  5
33D
100
AcDbEntity
  8
0
100
AcDbLine
 62
7
  6
CONTINUOUS
 10
547.0663813556
 20
262.1846243669
 11
546.6478342585
 21
261.9753508184
  0
LINE
  5
33E
100
AcDbEntity
  8
0
100
AcDbLine
 62
7
  6
CONTINUOUS
 10
571.9868648278
 20
274.1254553268
 11
570.6737304684
 21
273.4688881471
  0
LINE
  5
33F
100
AcDbEntity
  8
0
100
AcDbLine
 62
7
  6
CONTINUOUS
 10
550.6263935634
 20
263.4452196946
 11
549.3124949985
 21
262.7882704121
  0
LINE
  5
340
100
AcDbEntity
  8
0
100
AcDbLine
 62
7
  6
CONTINUOUS
 10
572.057575506
 20
274.0900999877
 11
570.7444411465
 21
273.433532808
  0
LINE
  5
341
100
AcDbEntity
  8
0
100
AcDbLine
 62
7
  6
CONTINUOUS
 10
550.6971042415
 20
263.4098643555
 11
549.3832056767
 21
262.7529150731
  0
LINE
  5
342
100
AcDbEntity
  8
0
100
AcDbLine
 62
7
  6
CONTINUOUS
 10
553.8845373995
 20
264.5286738134
 11
553.5918897496
 21
264.3823499885
  0
LINE
  5
343
100
AcDbEntity
  8
0
100
AcDbLine
 62
7
  6
CONTINUOUS
 10
553.9552480776
 20
264.4933184744
 11
553.6626004277
 21
264.3469946494
  0
LINE
  5
344
100
AcDbEntity
  8
0
100
AcDbLine
 62
7
  6
CONTINUOUS
 10
572.8963283453
 20
273.7038947214
 11
572.4593078658
 21
273.4853844816
  0
LINE
  5
345
100
AcDbEntity
  8
0
100
AcDbLine
 62
7
  6
CONTINUOUS
 10
570.4212635107
 20
272.4663623041
 11
569.8794031602
 21
272.1954321288
  0
LINE
  5
346
100
AcDbEntity
  8
0
100
AcDbLine
 62
7
  6
CONTINUOUS
 10
569.4406474328
 20
271.9760542651
 11
569.0938294923
 21
271.8026452949
  0
LINE
  5
347
100
AcDbEntity
  8
0
100
AcDbLine
 62
7
  6
CONTINUOUS
 10
567.2981313639
 20
270.9047962307
 11
566.9560994317
 21
270.7337802646
  0
LINE
  5
348
100
AcDbEntity
  8
0
100
AcDbLine
 62
7
  6
CONTINUOUS
 10
566.0921792035
 20
270.3018201505
 11
565.7007020134
 21
270.1060815554
  0
LINE
  5
349
100
AcDbEntity
  8
0
100
AcDbLine
 62
7
  6
CONTINUOUS
 10
564.1443347851
 20
269.3278979413
 11
563.7528600288
 21
269.1321605631
  0
LINE
  5
34A
100
AcDbEntity
  8
0
100
AcDbLine
 62
7
  6
CONTINUOUS
 10
562.2227067181
 20
268.3670839078
 11
561.8761936188
 21
268.1938273581
  0
LINE
  5
34B
100
AcDbEntity
  8
0
100
AcDbLine
 62
7
  6
CONTINUOUS
 10
560.0810746889
 20
267.2962678932
 11
559.739014605
 21
267.1252378512
  0
LINE
  5
34C
100
AcDbEntity
  8
0
100
AcDbLine
 62
7
  6
CONTINUOUS
 10
555.5407684512
 20
265.0261147743
 11
555.1670047571
 21
264.8392329273
  0
LINE
  5
34D
100
AcDbEntity
  8
0
100
AcDbLine
 62
7
  6
CONTINUOUS
 10
552.3234124626
 20
263.41743678
 11
551.791034918
 21
263.1512480077
  0
LINE
  5
34E
100
AcDbEntity
  8
0
100
AcDbLine
 62
7
  6
CONTINUOUS
 10
551.5360073994
 20
263.0237342484
 11
551.0988344992
 21
262.8051477983
  0
LINE
  5
34F
100
AcDbEntity
  8
0
100
AcDbLine
 62
7
  6
CONTINUOUS
 10
549.0606656053
 20
261.7860633514
 11
548.5187748327
 21
261.5151179651
  0
LINE
  5
350
100
AcDbEntity
  8
0
100
AcDbLine
 62
7
  6
CONTINUOUS
 10
548.3095671402
 20
261.4105141188
 11
547.8229794662
 21
261.1672202818
  0
LINE
  5
351
100
AcDbEntity
  8
0
100
AcDbLine
 62
7
  6
CONTINUOUS
 10
546.5771235804
 20
260.5442923389
 11
546.2173498848
 21
260.3644054911
  0
LINE
  5
352
100
AcDbEntity
  8
0
100
AcDbLine
 62
7
  6
CONTINUOUS
 10
544.687199008
 20
259.5993300527
 11
544.2957218178
 21
259.4035914576
  0
LINE
  5
353
100
AcDbEntity
  8
0
100
AcDbLine
 62
7
  6
CONTINUOUS
 10
572.9670390235
 20
273.6685393823
 11
572.5300185439
 21
273.4500291426
  0
LINE
  5
354
100
AcDbEntity
  8
0
100
AcDbLine
 62
7
  6
CONTINUOUS
 10
570.4919741888
 20
272.431006965
 11
569.857294598
 21
272.1136671696
  0
LINE
  5
355
100
AcDbEntity
  8
0
100
AcDbLine
 62
7
  6
CONTINUOUS
 10
569.511358111
 20
271.9406989261
 11
569.1645401704
 21
271.7672899558
  0
LINE
  5
356
100
AcDbEntity
  8
0
100
AcDbLine
 62
7
  6
CONTINUOUS
 10
567.368842042
 20
270.8694408916
 11
567.0268101098
 21
270.6984249255
  0
LINE
  5
357
100
AcDbEntity
  8
0
100
AcDbLine
 62
7
  6
CONTINUOUS
 10
566.1628898816
 20
270.2664648114
 11
565.7714126915
 21
270.0707262163
  0
LINE
  5
358
100
AcDbEntity
  8
0
100
AcDbLine
 62
7
  6
CONTINUOUS
 10
564.2150454632
 20
269.2925426022
 11
563.8235707069
 21
269.096805224
  0
LINE
  5
359
100
AcDbEntity
  8
0
100
AcDbLine
 62
7
  6
CONTINUOUS
 10
562.2934173962
 20
268.3317285687
 11
561.9469042969
 21
268.1584720191
  0
LINE
  5
35A
100
AcDbEntity
  8
0
100
AcDbLine
 62
7
  6
CONTINUOUS
 10
560.151785367
 20
267.2609125541
 11
559.8097252831
 21
267.0898825121
  0
LINE
  5
35B
100
AcDbEntity
  8
0
100
AcDbLine
 62
7
  6
CONTINUOUS
 10
555.6114791293
 20
264.9907594353
 11
555.2377154352
 21
264.8038775882
  0
LINE
  5
35C
100
AcDbEntity
  8
0
100
AcDbLine
 62
7
  6
CONTINUOUS
 10
552.3941231407
 20
263.382081441
 11
551.78206279
 21
263.0760512656
  0
LINE
  5
35D
100
AcDbEntity
  8
0
100
AcDbLine
 62
7
  6
CONTINUOUS
 10
551.6067180775
 20
262.9883789093
 11
551.1695451773
 21
262.7697924592
  0
LINE
  5
35E
100
AcDbEntity
  8
0
100
AcDbLine
 62
7
  6
CONTINUOUS
 10
549.1313762834
 20
261.7507080123
 11
548.4966662245
 21
261.4333529828
  0
LINE
  5
35F
100
AcDbEntity
  8
0
100
AcDbLine
 62
7
  6
CONTINUOUS
 10
548.3802778183
 20
261.3751587798
 11
547.8936901443
 21
261.1318649428
  0
LINE
  5
360
100
AcDbEntity
  8
0
100
AcDbLine
 62
7
  6
CONTINUOUS
 10
546.6478342585
 20
260.5089369999
 11
546.288060563
 21
260.3290501521
  0
LINE
  5
361
100
AcDbEntity
  8
0
100
AcDbLine
 62
7
  6
CONTINUOUS
 10
544.7579096861
 20
259.5639747136
 11
544.3664324959
 21
259.3682361186
  0
LINE
  5
362
100
AcDbEntity
  8
0
100
AcDbLine
 62
7
  6
CONTINUOUS
 10
541.8864571142
 20
255.9355060082
 11
574.146195634
 21
272.065375268
  0
LINE
  5
363
100
AcDbEntity
  8
0
100
AcDbLine
 62
7
  6
CONTINUOUS
 10
547.0102078627
 20
264.0511104499
 11
547.0003062758
 21
264.0462421003
  0
LINE
  5
364
100
AcDbEntity
  8
0
100
AcDbLine
 62
7
  6
CONTINUOUS
 10
547.0809185408
 20
264.0157551109
 11
547.0710169539
 21
264.0108867612
  0
LINE
  5
365
100
AcDbEntity
  8
0
100
AcDbLine
 62
7
  6
CONTINUOUS
 10
574.1061830143
 20
280.9273500762
 11
574.0754849559
 21
280.9122718418
  0
LINE
  5
366
100
AcDbEntity
  8
0
100
AcDbLine
 62
7
  6
CONTINUOUS
 10
574.1768936924
 20
280.8919947371
 11
574.146195634
 21
280.8769165027
  0
LINE
  5
367
100
AcDbEntity
  8
0
100
AcDbLine
 62
7
  6
CONTINUOUS
 10
541.8557550833
 20
255.9204253313
 11
541.8864571142
 21
255.9355060082
  0
LINE
  5
368
100
AcDbEntity
  8
0
100
AcDbLine
 62
7
  6
CONTINUOUS
 10
557.415314015
 20
269.2535803423
 11
557.398989529
 21
269.2455837269
  0
LINE
  5
369
100
AcDbEntity
  8
0
100
AcDbLine
 62
7
  6
CONTINUOUS
 10
557.4860246932
 20
269.2182250033
 11
557.4697002071
 21
269.2102283878
  0
LINE
  5
36A
100
AcDbEntity
  8
0
100
AcDbLine
 62
7
  6
CONTINUOUS
 10
557.4533683009
 20
266.5954770856
 11
557.4697002071
 21
266.6034789899
  0
LINE
  5
36B
100
AcDbEntity
  8
0
100
AcDbLine
 62
7
  6
CONTINUOUS
 10
504.9125470612
 20
207.500352374
 11
925.6410818672
 21
417.864619777
  0
LINE
  5
36C
100
AcDbEntity
  8
0
100
AcDbLine
 62
7
  6
CONTINUOUS
 10
915.1759015056
 20
491.9462295587
 11
925.6410818672
 21
486.7136393779
  0
LINE
  5
36D
100
AcDbEntity
  8
0
100
AcDbLine
 62
7
  6
CONTINUOUS
 10
899.1199893447
 20
551.2191621959
 11
700.7191634049
 21
650.4195751658
  0
LINE
  5
36E
100
AcDbEntity
  8
0
100
AcDbLine
 62
7
  6
CONTINUOUS
 10
899.1199893447
 20
551.2191621959
 11
899.1199893447
 21
483.9182734782
  0
LINE
  5
36F
100
AcDbEntity
  8
0
100
AcDbLine
 62
7
  6
CONTINUOUS
 10
925.6410818672
 20
486.7136393779
 11
925.6410818672
 21
417.864619777
  0
ARC
  5
370
100
AcDbEntity
  8
0
100
AcDbCircle
 62
7
  6
CONTINUOUS
 10
522.0145455223
 20
529.9505911598
 40
23.1268937433
100
AcDbArc
 50
186.6142572665
 51
227.6416476502
  0
ARC
  5
371
100
AcDbEntity
  8
0
100
AcDbCircle
 62
7
  6
CONTINUOUS
 10
604.0318791219
 20
527.285723458
 40
15.0096846963
100
AcDbArc
 50
358.3481860016
 51
359.4085613867
  0
ARC
  5
372
100
AcDbEntity
  8
0
100
AcDbCircle
 62
7
  6
CONTINUOUS
 10
604.0370059877
 20
527.2856526645
 40
15.0045573729
100
AcDbArc
 50
359.4086296178
 51
359.9997650816
  0
ARC
  5
373
100
AcDbEntity
  8
0
100
AcDbCircle
 62
7
  6
CONTINUOUS
 10
313.225379162
 20
372.7926675499
 40
1.2954493052
100
AcDbArc
 50
90.3583342255
 51
98.7149855105
  0
ARC
  5
374
100
AcDbEntity
  8
0
100
AcDbCircle
 62
7
  6
CONTINUOUS
 10
313.1915984214
 20
372.9568771472
 40
1.1273016944
100
AcDbArc
 50
116.5653436211
 51
118.7764458711
  0
ARC
  5
375
100
AcDbEntity
  8
0
100
AcDbCircle
 62
7
  6
CONTINUOUS
 10
556.8101062351
 20
266.5781099544
 40
0.8912297946
100
AcDbArc
 50
238.3688346359
 51
243.4320240593
  0
ARC
  5
376
100
AcDbEntity
  8
0
100
AcDbCircle
 62
7
  6
CONTINUOUS
 10
558.1332185777
 20
269.2360724821
 40
0.8901846741
100
AcDbArc
 50
63.4368685388
 51
65.9641575364
  0
ARC
  5
377
100
AcDbEntity
  8
0
100
AcDbCircle
 62
7
  6
CONTINUOUS
 10
557.8517704979
 20
268.7904617088
 40
0.5163270883
100
AcDbArc
 50
67.6322866054
 51
74.9456084876
  0
ARC
  5
378
100
AcDbEntity
  8
0
100
AcDbCircle
 62
7
  6
CONTINUOUS
 10
547.6015907616
 20
264.3383445427
 40
0.5074093284
100
AcDbArc
 50
63.4385990612
 51
68.4005475354
  0
ARC
  5
379
100
AcDbEntity
  8
0
100
AcDbCircle
 62
7
  6
CONTINUOUS
 10
547.2998227615
 20
263.7290532351
 40
0.3453217052
100
AcDbArc
 50
91.2200980963
 51
98.0787408909
  0
ARC
  5
37A
100
AcDbEntity
  8
0
100
AcDbCircle
 62
7
  6
CONTINUOUS
 10
555.0186157221
 20
265.06237877
 40
0.2633042437
100
AcDbArc
 50
284.5374061727
 51
287.6324907715
  0
ARC
  5
37B
100
AcDbEntity
  8
0
100
AcDbCircle
 62
7
  6
CONTINUOUS
 10
561.7106032605
 20
268.409775647
 40
0.2589109754
100
AcDbArc
 50
260.157693593
 51
267.4341111362
  0
ARC
  5
37C
100
AcDbEntity
  8
0
100
AcDbCircle
 62
7
  6
CONTINUOUS
 10
568.9281709301
 20
272.0180583184
 40
0.2584757404
100
AcDbArc
 50
260.146542959
 51
267.4362739216
  0
ARC
  5
37D
100
AcDbEntity
  8
0
100
AcDbCircle
 62
7
  6
CONTINUOUS
 10
561.7078588859
 20
268.393104098
 40
0.2420157277
100
AcDbArc
 50
253.7029164971
 51
260.1231756144
  0
ARC
  5
37E
100
AcDbEntity
  8
0
100
AcDbCircle
 62
7
  6
CONTINUOUS
 10
568.9254304898
 20
272.0014209209
 40
0.2416148433
100
AcDbArc
 50
253.714560567
 51
260.1116546937
  0
ARC
  5
37F
100
AcDbEntity
  8
0
100
AcDbCircle
 62
7
  6
CONTINUOUS
 10
553.4676015468
 20
264.5828210641
 40
0.2327889186
100
AcDbArc
 50
273.2830934846
 51
279.9758451656
  0
ARC
  5
380
100
AcDbEntity
  8
0
100
AcDbCircle
 62
7
  6
CONTINUOUS
 10
550.9693808448
 20
262.9871114558
 40
0.2177547216
100
AcDbArc
 50
281.3392575987
 51
287.1308006469
  0
ARC
  5
381
100
AcDbEntity
  8
0
100
AcDbCircle
 62
7
  6
CONTINUOUS
 10
547.2447373506
 20
263.8988728691
 40
0.2095744264
100
AcDbArc
 50
63.4769065317
 51
74.8233376101
  0
ARC
  5
382
100
AcDbEntity
  8
0
100
AcDbCircle
 62
7
  6
CONTINUOUS
 10
547.315426473
 20
263.8635316762
 40
0.2095664183
100
AcDbArc
 50
63.4395383895
 51
74.8166372671
  0
ARC
  5
383
100
AcDbEntity
  8
0
100
AcDbCircle
 62
7
  6
CONTINUOUS
 10
547.7741859691
 20
261.2721284986
 40
0.1995842283
100
AcDbArc
 50
219.0620973236
 51
222.2151805893
  0
ARC
  5
384
100
AcDbEntity
  8
0
100
AcDbCircle
 62
7
  6
CONTINUOUS
 10
550.9743429221
 20
262.962320663
 40
0.1924722075
100
AcDbArc
 50
275.0996807506
 51
281.3419657588
  0
ARC
  5
385
100
AcDbEntity
  8
0
100
AcDbCircle
 62
7
  6
CONTINUOUS
 10
547.6684857484
 20
261.2905360426
 40
0.1693646116
100
AcDbArc
 50
269.5102724906
 51
273.0043106815
  0
ARC
  5
386
100
AcDbEntity
  8
0
100
AcDbCircle
 62
7
  6
CONTINUOUS
 10
547.6684702302
 20
261.2845192422
 40
0.1633479023
100
AcDbArc
 50
267.982393629
 51
269.4976768859
  0
ARC
  5
387
100
AcDbEntity
  8
0
100
AcDbCircle
 62
7
  6
CONTINUOUS
 10
555.0277364616
 20
264.9453853292
 40
0.1452237821
100
AcDbArc
 50
261.0198611715
 51
266.5133266664
  0
ARC
  5
388
100
AcDbEntity
  8
0
100
AcDbCircle
 62
7
  6
CONTINUOUS
 10
551.0439450117
 20
262.8742616772
 40
0.1395608872
100
AcDbArc
 50
230.0238270412
 51
243.413962236
  0
SPLINE
  5
389
100
AcDbEntity
  8
0
100
AcDbSpline
 62
7
  6
CONTINUOUS
 70
0
 71
3
 72
9
 73
5
 74
0
 42
0.0000001
 43
0.0000001
 44
0.0000000001
 40
0.0
 40
0.0
 40
0.0
 40
0.0
 40
0.2405996343
 40
1.0
 40
1.0
 40
1.0
 40
1.0
 10
559.6528718653
 20
267.0798575917
 30
0.0
 10
559.6458630975
 20
267.083360937
 30
0.0
 10
559.6180012337
 20
267.1005090694
 30
0.0
 10
559.597201646
 20
267.1277685814
 30
0.0
 10
559.5863238991
 20
267.1499791946
 30
0.0
  0
SPLINE
  5
38A
100
AcDbEntity
  8
0
100
AcDbSpline
 62
7
  6
CONTINUOUS
 70
0
 71
3
 72
9
 73
5
 74
0
 42
0.0000001
 43
0.0000001
 44
0.0000000001
 40
0.0
 40
0.0
 40
0.0
 40
0.0
 40
0.2301771488
 40
1.0
 40
1.0
 40
1.0
 40
1.0
 10
559.5863238991
 20
267.1499791946
 30
0.0
 10
559.5821873922
 20
267.1584252778
 30
0.0
 10
559.5668870748
 20
267.1964316032
 30
0.0
 10
559.5617650323
 20
267.2379846488
 30
0.0
 10
559.5617650419
 20
267.2694382352
 30
0.0
  0
SPLINE
  5
38B
100
AcDbEntity
  8
0
100
AcDbSpline
 62
7
  6
CONTINUOUS
 70
0
 71
3
 72
8
 73
4
 74
0
 42
0.0000001
 43
0.0000001
 44
0.0000000001
 40
0.0
 40
0.0
 40
0.0
 40
0.0
 40
1.0
 40
1.0
 40
1.0
 40
1.0
 10
561.6722588262
 20
268.1405113876
 30
0.0
 10
561.6547152075
 20
268.1492746588
 30
0.0
 10
561.6381869511
 20
268.1603947361
 30
0.0
 10
561.6233787917
 20
268.1732513256
 30
0.0
  0
SPLINE
  5
38C
100
AcDbEntity
  8
0
100
AcDbSpline
 62
7
  6
CONTINUOUS
 70
0
 71
3
 72
9
 73
5
 74
0
 42
0.0000001
 43
0.0000001
 44
0.0000000001
 40
0.0
 40
0.0
 40
0.0
 40
0.0
 40
0.2405474679
 40
1.0
 40
1.0
 40
1.0
 40
1.0
 10
566.8711149877
 20
270.688980392
 30
0.0
 10
566.8640848913
 20
270.6924945141
 30
0.0
 10
566.8361361689
 20
270.7097078387
 30
0.0
 10
566.8153021607
 20
270.7370926168
 30
0.0
 10
566.8044256934
 20
270.7593956895
 30
0.0
  0
SPLINE
  5
38D
100
AcDbEntity
  8
0
100
AcDbSpline
 62
7
  6
CONTINUOUS
 70
0
 71
3
 72
9
 73
5
 74
0
 42
0.0000001
 43
0.0000001
 44
0.0000000001
 40
0.0
 40
0.0
 40
0.0
 40
0.0
 40
0.2302353922
 40
1.0
 40
1.0
 40
1.0
 40
1.0
 10
566.8044256934
 20
270.7593956895
 30
0.0
 10
566.8003132431
 20
270.7678286004
 30
0.0
 10
566.7851054199
 20
270.8057546365
 30
0.0
 10
566.7800105979
 20
270.8471926459
 30
0.0
 10
566.7800105979
 20
270.8785610132
 30
0.0
  0
SPLINE
  5
38E
100
AcDbEntity
  8
0
100
AcDbSpline
 62
7
  6
CONTINUOUS
 70
0
 71
3
 72
8
 73
4
 74
0
 42
0.0000001
 43
0.0000001
 44
0.0000000001
 40
0.0
 40
0.0
 40
0.0
 40
0.0
 40
1.0
 40
1.0
 40
1.0
 40
1.0
 10
568.8900057698
 20
271.749188409
 30
0.0
 10
568.872407869
 20
271.757978876
 30
0.0
 10
568.8558330803
 20
271.7691453772
 30
0.0
 10
568.8409939835
 20
271.7820589215
 30
0.0
  0
SPLINE
  5
38F
100
AcDbEntity
  8
0
100
AcDbSpline
 62
7
  6
CONTINUOUS
 70
0
 71
3
 72
8
 73
4
 74
0
 42
0.0000001
 43
0.0000001
 44
0.0000000001
 40
0.0
 40
0.0
 40
0.0
 40
0.0
 40
1.0
 40
1.0
 40
1.0
 40
1.0
 10
572.3405599227
 20
273.4357876606
 30
0.0
 10
572.3191509402
 20
273.4464852318
 30
0.0
 10
572.3000060277
 20
273.4626985321
 30
0.0
 10
572.2851861357
 20
273.4814909071
 30
0.0
  0
SPLINE
  5
390
100
AcDbEntity
  8
0
100
AcDbSpline
 62
7
  6
CONTINUOUS
 70
0
 71
3
 72
8
 73
4
 74
0
 42
0.0000001
 43
0.0000001
 44
0.0000000001
 40
0.0
 40
0.0
 40
0.0
 40
0.0
 40
1.0
 40
1.0
 40
1.0
 40
1.0
 10
572.2851861357
 20
273.4814909071
 30
0.0
 10
572.2789708884
 20
273.4893721559
 30
0.0
 10
572.2733805334
 20
273.4977778772
 30
0.0
 10
572.2684283435
 20
273.5065082379
 30
0.0
  0
SPLINE
  5
391
100
AcDbEntity
  8
0
100
AcDbSpline
 62
7
  6
CONTINUOUS
 70
0
 71
3
 72
9
 73
5
 74
0
 42
0.0000001
 43
0.0000001
 44
0.0000000001
 40
0.0
 40
0.0
 40
0.0
 40
0.0
 40
0.2405474679
 40
1.0
 40
1.0
 40
1.0
 40
1.0
 10
565.6157175694
 20
270.0612816828
 30
0.0
 10
565.608687473
 20
270.064795805
 30
0.0
 10
565.5807387505
 20
270.0820091295
 30
0.0
 10
565.5599047424
 20
270.1093939076
 30
0.0
 10
565.5490282751
 20
270.1316969803
 30
0.0
  0
SPLINE
  5
392
100
AcDbEntity
  8
0
100
AcDbSpline
 62
7
  6
CONTINUOUS
 70
0
 71
3
 72
9
 73
5
 74
0
 42
0.0000001
 43
0.0000001
 44
0.0000000001
 40
0.0
 40
0.0
 40
0.0
 40
0.0
 40
0.2302353922
 40
1.0
 40
1.0
 40
1.0
 40
1.0
 10
565.5490282751
 20
270.1316969803
 30
0.0
 10
565.5449158247
 20
270.1401298912
 30
0.0
 10
565.5297080016
 20
270.1780559273
 30
0.0
 10
565.5246131795
 20
270.2194939367
 30
0.0
 10
565.5246131795
 20
270.250862304
 30
0.0
  0
SPLINE
  5
393
100
AcDbEntity
  8
0
100
AcDbSpline
 62
7
  6
CONTINUOUS
 70
0
 71
3
 72
9
 73
5
 74
0
 42
0.0000001
 43
0.0000001
 44
0.0000000001
 40
0.0
 40
0.0
 40
0.0
 40
0.0
 40
0.240614507
 40
1.0
 40
1.0
 40
1.0
 40
1.0
 10
562.7711987241
 20
271.9017633547
 30
0.0
 10
562.7642209973
 20
271.9052511529
 30
0.0
 10
562.7364831165
 20
271.922319665
 30
0.0
 10
562.7157674772
 20
271.9494464602
 30
0.0
 10
562.7049281612
 20
271.9715516489
 30
0.0
  0
SPLINE
  5
394
100
AcDbEntity
  8
0
100
AcDbSpline
 62
7
  6
CONTINUOUS
 70
0
 71
3
 72
9
 73
5
 74
0
 42
0.0000001
 43
0.0000001
 44
0.0000000001
 40
0.0
 40
0.0
 40
0.0
 40
0.0
 40
0.2301605522
 40
1.0
 40
1.0
 40
1.0
 40
1.0
 10
562.7049281612
 20
271.9715516489
 30
0.0
 10
562.7007995401
 20
271.9799713638
 30
0.0
 10
562.6855273805
 20
272.0178650357
 30
0.0
 10
562.6804158243
 20
272.0593027168
 30
0.0
 10
562.6804158243
 20
272.0906684445
 30
0.0
  0
SPLINE
  5
395
100
AcDbEntity
  8
0
100
AcDbSpline
 62
7
  6
CONTINUOUS
 70
0
 71
3
 72
9
 73
5
 74
0
 42
0.0000001
 43
0.0000001
 44
0.0000000001
 40
0.0
 40
0.0
 40
0.0
 40
0.0
 40
0.240599645
 40
1.0
 40
1.0
 40
1.0
 40
1.0
 10
563.6667172216
 20
269.0867802951
 30
0.0
 10
563.6597084557
 20
269.0902836395
 30
0.0
 10
563.6318465996
 20
269.1074317649
 30
0.0
 10
563.6110470114
 20
269.1346912611
 30
0.0
 10
563.6001692602
 20
269.1569018635
 30
0.0
  0
SPLINE
  5
396
100
AcDbEntity
  8
0
100
AcDbSpline
 62
7
  6
CONTINUOUS
 70
0
 71
3
 72
9
 73
5
 74
0
 42
0.0000001
 43
0.0000001
 44
0.0000000001
 40
0.0
 40
0.0
 40
0.0
 40
0.0
 40
0.2301771512
 40
1.0
 40
1.0
 40
1.0
 40
1.0
 10
563.6001692602
 20
269.1569018635
 30
0.0
 10
563.5960327503
 20
269.1653479453
 30
0.0
 10
563.5807324198
 20
269.2033542657
 30
0.0
 10
563.5756103642
 20
269.24490731
 30
0.0
 10
563.5756103642
 20
269.2763608964
 30
0.0
  0
SPLINE
  5
397
100
AcDbEntity
  8
0
100
AcDbSpline
 62
7
  6
CONTINUOUS
 70
0
 71
3
 72
11
 73
7
 74
0
 42
0.0000001
 43
0.0000001
 44
0.0000000001
 40
0.0
 40
0.0
 40
0.0
 40
0.0
 40
0.2173338454
 40
0.4519579593
 40
0.7120612559
 40
1.0
 40
1.0
 40
1.0
 40
1.0
 10
556.3427015578
 20
265.8192796608
 30
0.0
 10
556.2554993298
 20
265.872987775
 30
0.0
 10
556.0929497979
 20
266.0175425388
 30
0.0
 10
555.9202624329
 20
266.3101080432
 30
0.0
 10
555.8166312862
 20
266.6672536935
 30
0.0
 10
555.79590812
 20
266.9263523664
 30
0.0
 10
555.7959081124
 20
267.0620384912
 30
0.0
  0
SPLINE
  5
398
100
AcDbEntity
  8
0
100
AcDbSpline
 62
7
  6
CONTINUOUS
 70
0
 71
3
 72
8
 73
4
 74
0
 42
0.0000001
 43
0.0000001
 44
0.0000000001
 40
0.0
 40
0.0
 40
0.0
 40
0.0
 40
1.0
 40
1.0
 40
1.0
 40
1.0
 10
553.4579579375
 20
264.3333248798
 30
0.0
 10
553.4360218578
 20
264.3442869172
 30
0.0
 10
553.4162350227
 20
264.3604695538
 30
0.0
 10
553.4005237823
 20
264.3792981166
 30
0.0
  0
SPLINE
  5
399
100
AcDbEntity
  8
0
100
AcDbSpline
 62
7
  6
CONTINUOUS
 70
0
 71
3
 72
8
 73
4
 74
0
 42
0.0000001
 43
0.0000001
 44
0.0000000001
 40
0.0
 40
0.0
 40
0.0
 40
0.0
 40
1.0
 40
1.0
 40
1.0
 40
1.0
 10
553.4005237823
 20
264.3792981166
 30
0.0
 10
553.3937269513
 20
264.3874435307
 30
0.0
 10
553.3875633725
 20
264.3961509965
 30
0.0
 10
553.3820570475
 20
264.4052188003
 30
0.0
  0
SPLINE
  5
39A
100
AcDbEntity
  8
0
100
AcDbSpline
 62
7
  6
CONTINUOUS
 70
0
 71
3
 72
9
 73
5
 74
0
 42
0.0000001
 43
0.0000001
 44
0.0000000001
 40
0.0
 40
0.0
 40
0.0
 40
0.0
 40
0.736566025
 40
1.0
 40
1.0
 40
1.0
 40
1.0
 10
555.0370588684
 20
264.7789062939
 30
0.0
 10
555.0186867532
 20
264.7880824285
 30
0.0
 10
554.9965869356
 20
264.8071167896
 30
0.0
 10
554.9812415954
 20
264.8303962736
 30
0.0
 10
554.977569915
 20
264.8367574821
 30
0.0
  0
SPLINE
  5
39B
100
AcDbEntity
  8
0
100
AcDbSpline
 62
7
  6
CONTINUOUS
 70
0
 71
3
 72
8
 73
4
 74
0
 42
0.0000001
 43
0.0000001
 44
0.0000000001
 40
0.0
 40
0.0
 40
0.0
 40
0.0
 40
1.0
 40
1.0
 40
1.0
 40
1.0
 10
554.977569915
 20
264.8367574821
 30
0.0
 10
554.9723728076
 20
264.8457615019
 30
0.0
 10
554.9679514491
 20
264.8552448988
 30
0.0
 10
554.9642609744
 20
264.8649640908
 30
0.0
  0
SPLINE
  5
39C
100
AcDbEntity
  8
0
100
AcDbSpline
 62
7
  6
CONTINUOUS
 70
0
 71
3
 72
9
 73
5
 74
0
 42
0.0000001
 43
0.0000001
 44
0.0000000001
 40
0.0
 40
0.0
 40
0.0
 40
0.0
 40
0.2405872334
 40
1.0
 40
1.0
 40
1.0
 40
1.0
 10
546.1314831035
 20
260.3191639601
 30
0.0
 10
546.1244692726
 20
260.3226698628
 30
0.0
 10
546.0965867902
 20
260.3398334644
 30
0.0
 10
546.0757790249
 20
260.3671227107
 30
0.0
 10
546.0649015821
 20
260.3893552764
 30
0.0
  0
SPLINE
  5
39D
100
AcDbEntity
  8
0
100
AcDbSpline
 62
7
  6
CONTINUOUS
 70
0
 71
3
 72
9
 73
5
 74
0
 42
0.0000001
 43
0.0000001
 44
0.0000000001
 40
0.0
 40
0.0
 40
0.0
 40
0.0
 40
0.230191003
 40
1.0
 40
1.0
 40
1.0
 40
1.0
 10
546.0649015821
 20
260.3893552764
 30
0.0
 10
546.0607708132
 20
260.3977982161
 30
0.0
 10
546.0454925595
 20
260.4357853823
 30
0.0
 10
546.0403770066
 20
260.4773109712
 30
0.0
 10
546.0403770113
 20
260.5087442199
 30
0.0
  0
SPLINE
  5
39E
100
AcDbEntity
  8
0
100
AcDbSpline
 62
7
  6
CONTINUOUS
 70
0
 71
3
 72
9
 73
5
 74
0
 42
0.0000001
 43
0.0000001
 44
0.0000000001
 40
0.0
 40
0.0
 40
0.0
 40
0.0
 40
0.2406337375
 40
1.0
 40
1.0
 40
1.0
 40
1.0
 10
543.3137572436
 20
262.1730404041
 30
0.0
 10
543.30678732
 20
262.1765242628
 30
0.0
 10
543.2790812155
 20
262.1935689475
 30
0.0
 10
543.2583781902
 20
262.2206499148
 30
0.0
 10
543.2475383988
 20
262.2427212571
 30
0.0
  0
SPLINE
  5
39F
100
AcDbEntity
  8
0
100
AcDbSpline
 62
7
  6
CONTINUOUS
 70
0
 71
3
 72
9
 73
5
 74
0
 42
0.0000001
 43
0.0000001
 44
0.0000000001
 40
0.0
 40
0.0
 40
0.0
 40
0.0
 40
0.2301390678
 40
1.0
 40
1.0
 40
1.0
 40
1.0
 10
543.2475383988
 20
262.2427212571
 30
0.0
 10
543.2434008678
 20
262.2511458531
 30
0.0
 10
543.2280944405
 20
262.2890692751
 30
0.0
 10
543.2229728009
 20
262.3305496128
 30
0.0
 10
543.2229728009
 20
262.3619469329
 30
0.0
  0
SPLINE
  5
3A0
100
AcDbEntity
  8
0
100
AcDbSpline
 62
7
  6
CONTINUOUS
 70
0
 71
3
 72
9
 73
5
 74
0
 42
0.0000001
 43
0.0000001
 44
0.0000000001
 40
0.0
 40
0.0
 40
0.0
 40
0.0
 40
0.240594072
 40
1.0
 40
1.0
 40
1.0
 40
1.0
 10
544.2097030324
 20
259.3582735661
 30
0.0
 10
544.2026919923
 20
259.3617780591
 30
0.0
 10
544.1748208749
 20
259.3789331327
 30
0.0
 10
544.1540176139
 20
259.4062059858
 30
0.0
 10
544.1431400004
 20
259.4284264496
 30
0.0
  0
SPLINE
  5
3A1
100
AcDbEntity
  8
0
100
AcDbSpline
 62
7
  6
CONTINUOUS
 70
0
 71
3
 72
9
 73
5
 74
0
 42
0.0000001
 43
0.0000001
 44
0.0000000001
 40
0.0
 40
0.0
 40
0.0
 40
0.0
 40
0.2301833745
 40
1.0
 40
1.0
 40
1.0
 40
1.0
 10
544.1431400004
 20
259.4284264496
 30
0.0
 10
544.1390060701
 20
259.4368711188
 30
0.0
 10
544.1237156596
 20
259.4748688286
 30
0.0
 10
544.1185965236
 20
259.5164095313
 30
0.0
 10
544.1185965236
 20
259.5478539761
 30
0.0
  0
SPLINE
  5
3A2
100
AcDbEntity
  8
0
100
AcDbSpline
 62
7
  6
CONTINUOUS
 70
0
 71
3
 72
10
 73
6
 74
0
 42
0.0000001
 43
0.0000001
 44
0.0000000001
 40
0.0
 40
0.0
 40
0.0
 40
0.0
 40
0.2280718417
 40
0.466436224
 40
1.0
 40
1.0
 40
1.0
 40
1.0
 10
540.9002220942
 20
255.8644658924
 30
0.0
 10
540.9673746853
 20
255.8308919822
 30
0.0
 10
541.1152248371
 20
255.7814771353
 30
0.0
 10
541.446922244
 20
255.7634017243
 30
0.0
 10
541.698105529
 20
255.8429886957
 30
0.0
 10
541.8557550833
 20
255.9204253313
 30
0.0
  0
SPLINE
  5
3A3
100
AcDbEntity
  8
0
100
AcDbSpline
 62
7
  6
CONTINUOUS
 70
0
 71
3
 72
11
 73
7
 74
0
 42
0.0000001
 43
0.0000001
 44
0.0000000001
 40
0.0
 40
0.0
 40
0.0
 40
0.0
 40
0.2903334134
 40
0.5504317293
 40
0.7834583731
 40
1.0
 40
1.0
 40
1.0
 40
1.0
 10
575.6939358536
 20
279.7548595111
 30
0.0
 10
575.6953365626
 20
279.8888858111
 30
0.0
 10
575.6763065085
 20
280.1441822727
 30
0.0
 10
575.5705719926
 20
280.4938004625
 30
0.0
 10
575.3908774017
 20
280.7738312444
 30
0.0
 10
575.221763966
 20
280.9032367577
 30
0.0
 10
575.1323491936
 20
280.9479409721
 30
0.0
  0
SPLINE
  5
3A4
100
AcDbEntity
  8
0
100
AcDbSpline
 62
7
  6
CONTINUOUS
 70
0
 71
3
 72
11
 73
7
 74
0
 42
0.0000001
 43
0.0000001
 44
0.0000000001
 40
0.0
 40
0.0
 40
0.0
 40
0.0
 40
0.2296755946
 40
0.4882147784
 40
0.7532068893
 40
1.0
 40
1.0
 40
1.0
 40
1.0
 10
574.146195634
 20
272.065375268
 30
0.0
 10
574.366256303
 20
272.1754056393
 30
0.0
 10
574.7867584283
 20
272.5043791536
 30
0.0
 10
575.2723230006
 20
273.1575053739
 30
0.0
 10
575.6027027219
 20
273.9212781149
 30
0.0
 10
575.6939358242
 20
274.4704601579
 30
0.0
 10
575.6939358536
 20
274.734832274
 30
0.0
  0
SPLINE
  5
3A5
100
AcDbEntity
  8
0
100
AcDbSpline
 62
7
  6
CONTINUOUS
 70
0
 71
3
 72
8
 73
4
 74
0
 42
0.0000001
 43
0.0000001
 44
0.0000000001
 40
0.0
 40
0.0
 40
0.0
 40
0.0
 40
1.0
 40
1.0
 40
1.0
 40
1.0
 10
547.6192161114
 20
261.1463580435
 30
0.0
 10
547.6054988508
 20
261.1638414183
 30
0.0
 10
547.5935917304
 20
261.1828497926
 30
0.0
 10
547.5834836432
 20
261.2026401491
 30
0.0
  0
SPLINE
  5
3A6
100
AcDbEntity
  8
0
100
AcDbSpline
 62
7
  6
CONTINUOUS
 70
0
 71
3
 72
8
 73
4
 74
0
 42
0.0000001
 43
0.0000001
 44
0.0000000001
 40
0.0
 40
0.0
 40
0.0
 40
0.0
 40
1.0
 40
1.0
 40
1.0
 40
1.0
 10
547.6672289966
 20
261.1042695338
 30
0.0
 10
547.6520860032
 20
261.1133688539
 30
0.0
 10
547.6382414682
 20
261.1249423524
 30
0.0
 10
547.6263685813
 20
261.1380244941
 30
0.0
  0
SPLINE
  5
3A7
100
AcDbEntity
  8
0
100
AcDbSpline
 62
7
  6
CONTINUOUS
 70
0
 71
3
 72
9
 73
5
 74
0
 42
0.0000001
 43
0.0000001
 44
0.0000000001
 40
0.0
 40
0.0
 40
0.0
 40
0.0
 40
0.2639982896
 40
1.0
 40
1.0
 40
1.0
 40
1.0
 10
547.4768007829
 20
264.8383015791
 30
0.0
 10
547.5041468777
 20
264.8428195696
 30
0.0
 10
547.6085015651
 20
264.8541674805
 30
0.0
 10
547.7165315468
 20
264.8385715792
 30
0.0
 10
547.7883760852
 20
264.81012359
 30
0.0
  0
SPLINE
  5
3A8
100
AcDbEntity
  8
0
100
AcDbSpline
 62
7
  6
CONTINUOUS
 70
0
 71
3
 72
9
 73
5
 74
0
 42
0.0000001
 43
0.0000001
 44
0.0000000001
 40
0.0
 40
0.0
 40
0.0
 40
0.0
 40
0.2644664668
 40
1.0
 40
1.0
 40
1.0
 40
1.0
 10
547.1248804
 20
264.7207140088
 30
0.0
 10
547.154042153
 20
264.735705083
 30
0.0
 10
547.2661695669
 20
264.7885323242
 30
0.0
 10
547.3865752151
 20
264.8250493641
 30
0.0
 10
547.4768007829
 20
264.8383015791
 30
0.0
  0
SPLINE
  5
3A9
100
AcDbEntity
  8
0
100
AcDbSpline
 62
7
  6
CONTINUOUS
 70
0
 71
3
 72
8
 73
4
 74
0
 42
0.0000001
 43
0.0000001
 44
0.0000000001
 40
0.0
 40
0.0
 40
0.0
 40
0.0
 40
1.0
 40
1.0
 40
1.0
 40
1.0
 10
550.9073276789
 20
262.8259579056
 30
0.0
 10
550.8953654254
 20
262.8476737616
 30
0.0
 10
550.8853827666
 20
262.8705576432
 30
0.0
 10
550.8772023752
 20
262.8939618117
 30
0.0
  0
SPLINE
  5
3AA
100
AcDbEntity
  8
0
100
AcDbSpline
 62
7
  6
CONTINUOUS
 70
0
 71
3
 72
9
 73
5
 74
0
 42
0.0000001
 43
0.0000001
 44
0.0000000001
 40
0.0
 40
0.0
 40
0.0
 40
0.0
 40
0.7408610876
 40
1.0
 40
1.0
 40
1.0
 40
1.0
 10
550.9542814699
 20
262.7673145383
 30
0.0
 10
550.9403294077
 20
262.7796140061
 30
0.0
 10
550.9237348266
 20
262.7989415598
 30
0.0
 10
550.9105407301
 20
262.820301008
 30
0.0
 10
550.9073276789
 20
262.8259579056
 30
0.0
  0
SPLINE
  5
3AB
100
AcDbEntity
  8
0
100
AcDbSpline
 62
7
  6
CONTINUOUS
 70
0
 71
3
 72
8
 73
4
 74
0
 42
0.0000001
 43
0.0000001
 44
0.0000000001
 40
0.0
 40
0.0
 40
0.0
 40
0.0
 40
1.0
 40
1.0
 40
1.0
 40
1.0
 10
553.3820570475
 20
264.4052188003
 30
0.0
 10
553.3686922374
 20
264.4278943184
 30
0.0
 10
553.3572627666
 20
264.4517873539
 30
0.0
 10
553.3476362253
 20
264.4762848429
 30
0.0
  0
SPLINE
  5
3AC
100
AcDbEntity
  8
0
100
AcDbSpline
 62
7
  6
CONTINUOUS
 70
0
 71
3
 72
9
 73
5
 74
0
 42
0.0000001
 43
0.0000001
 44
0.0000000001
 40
0.0
 40
0.0
 40
0.0
 40
0.0
 40
0.2396000105
 40
1.0
 40
1.0
 40
1.0
 40
1.0
 10
554.9642609744
 20
264.8649640908
 30
0.0
 10
554.9619079747
 20
264.8714767036
 30
0.0
 10
554.9529874369
 20
264.8989809733
 30
0.0
 10
554.9475571795
 20
264.9275648712
 30
0.0
 10
554.9450677853
 20
264.9493996358
 30
0.0
  0
SPLINE
  5
3AD
100
AcDbEntity
  8
0
100
AcDbSpline
 62
7
  6
CONTINUOUS
 70
0
 71
3
 72
11
 73
7
 74
0
 42
0.0000001
 43
0.0000001
 44
0.0000000001
 40
0.0
 40
0.0
 40
0.0
 40
0.0
 40
0.2902127537
 40
0.550250537
 40
0.7833205772
 40
1.0
 40
1.0
 40
1.0
 40
1.0
 10
558.4909490273
 20
268.4141179235
 30
0.0
 10
558.4917431412
 20
268.507562504
 30
0.0
 10
558.4781418677
 20
268.6855425814
 30
0.0
 10
558.4040146735
 20
268.9292265968
 30
0.0
 10
558.2784592422
 20
269.1244316077
 30
0.0
 10
558.1604579516
 20
269.2146902855
 30
0.0
 10
558.0980689341
 20
269.2459235035
 30
0.0
  0
SPLINE
  5
3AE
100
AcDbEntity
  8
0
100
AcDbSpline
 62
7
  6
CONTINUOUS
 70
0
 71
3
 72
9
 73
5
 74
0
 42
0.0000001
 43
0.0000001
 44
0.0000000001
 40
0.0
 40
0.0
 40
0.0
 40
0.0
 40
0.5170837854
 40
1.0
 40
1.0
 40
1.0
 40
1.0
 10
558.1188027021
 20
267.2256206014
 30
0.0
 10
558.2353067929
 20
267.408343287
 30
0.0
 10
558.4152879172
 20
267.7921445866
 30
0.0
 10
558.4909490092
 20
268.2117328248
 30
0.0
 10
558.4909490273
 20
268.4141179235
 30
0.0
  0
SPLINE
  5
3AF
100
AcDbEntity
  8
0
100
AcDbSpline
 62
7
  6
CONTINUOUS
 70
0
 71
3
 72
9
 73
5
 74
0
 42
0.0000001
 43
0.0000001
 44
0.0000000001
 40
0.0
 40
0.0
 40
0.0
 40
0.0
 40
0.4717884907
 40
1.0
 40
1.0
 40
1.0
 40
1.0
 10
557.4697002071
 20
266.6034789899
 30
0.0
 10
557.5967929843
 20
266.6680930965
 30
0.0
 10
557.841727978
 20
266.8535969768
 30
0.0
 10
558.0323310915
 20
267.0914451223
 30
0.0
 10
558.1188027021
 20
267.2256206014
 30
0.0
  0
SPLINE
  5
3B0
100
AcDbEntity
  8
0
100
AcDbSpline
 62
7
  6
CONTINUOUS
 70
0
 71
3
 72
9
 73
5
 74
0
 42
0.0000001
 43
0.0000001
 44
0.0000000001
 40
0.0
 40
0.0
 40
0.0
 40
0.0
 40
0.465414378
 40
1.0
 40
1.0
 40
1.0
 40
1.0
 10
556.8924073135
 20
266.5445049008
 30
0.0
 10
556.9752307308
 20
266.5109263856
 30
0.0
 10
557.1746115585
 20
266.4882127211
 30
0.0
 10
557.3611844119
 20
266.5503110985
 30
0.0
 10
557.4533683009
 20
266.5954770856
 30
0.0
  0
SPLINE
  5
3B1
100
AcDbEntity
  8
0
100
AcDbSpline
 62
7
  6
CONTINUOUS
 70
0
 71
3
 72
11
 73
7
 74
0
 42
0.0000001
 43
0.0000001
 44
0.0000000001
 40
0.0
 40
0.0
 40
0.0
 40
0.0
 40
0.2459610137
 40
0.5107193258
 40
0.7696071491
 40
1.0
 40
1.0
 40
1.0
 40
1.0
 10
555.7959081124
 20
267.0620384912
 30
0.0
 10
555.7934517393
 20
267.3466850663
 30
0.0
 10
555.8878001222
 20
267.9395753771
 30
0.0
 10
556.2397749179
 20
268.7659686861
 30
0.0
 10
556.7610486117
 20
269.4752432439
 30
0.0
 10
557.2139280318
 20
269.8342905204
 30
0.0
 10
557.4514791112
 20
269.9553947282
 30
0.0
  0
SPLINE
  5
3B2
100
AcDbEntity
  8
0
100
AcDbSpline
 62
7
  6
CONTINUOUS
 70
0
 71
3
 72
10
 73
6
 74
0
 42
0.0000001
 43
0.0000001
 44
0.0000000001
 40
0.0
 40
0.0
 40
0.0
 40
0.0
 40
0.5333529603
 40
0.7721553549
 40
1.0
 40
1.0
 40
1.0
 40
1.0
 10
557.4789368984
 20
269.9693927852
 30
0.0
 10
557.6462233459
 20
270.0519198918
 30
0.0
 10
557.9117162285
 20
270.1380862186
 30
0.0
 10
558.2641530654
 20
270.1278457467
 30
0.0
 10
558.4230208444
 20
270.081526917
 30
0.0
 10
558.4957979607
 20
270.0490699882
 30
0.0
  0
SPLINE
  5
3B3
100
AcDbEntity
  8
0
100
AcDbSpline
 62
7
  6
CONTINUOUS
 70
0
 71
3
 72
9
 73
5
 74
0
 42
0.0000001
 43
0.0000001
 44
0.0000000001
 40
0.0
 40
0.0
 40
0.0
 40
0.0
 40
0.2688075972
 40
1.0
 40
1.0
 40
1.0
 40
1.0
 10
547.5192630366
 20
263.9284569561
 30
0.0
 10
547.5132929152
 20
263.9421384388
 30
0.0
 10
547.4878093755
 20
263.9914343172
 30
0.0
 10
547.4454391062
 20
264.0328004434
 30
0.0
 10
547.4091324095
 20
264.0509810858
 30
0.0
  0
SPLINE
  5
3B4
100
AcDbEntity
  8
0
100
AcDbSpline
 62
7
  6
CONTINUOUS
 70
0
 71
3
 72
9
 73
5
 74
0
 42
0.0000001
 43
0.0000001
 44
0.0000000001
 40
0.0
 40
0.0
 40
0.0
 40
0.0
 40
0.2626929305
 40
1.0
 40
1.0
 40
1.0
 40
1.0
 10
547.5526980189
 20
263.8048732708
 30
0.0
 10
547.5511958642
 20
263.8160025328
 30
0.0
 10
547.544213932
 20
263.8581724368
 30
0.0
 10
547.5319005736
 20
263.8995812669
 30
0.0
 10
547.5192630366
 20
263.9284569561
 30
0.0
  0
SPLINE
  5
3B5
100
AcDbEntity
  8
0
100
AcDbSpline
 62
7
  6
CONTINUOUS
 70
0
 71
3
 72
9
 73
5
 74
0
 42
0.0000001
 43
0.0000001
 44
0.0000000001
 40
0.0
 40
0.0
 40
0.0
 40
0.0
 40
0.2572857256
 40
1.0
 40
1.0
 40
1.0
 40
1.0
 10
547.5611692605
 20
263.6773366231
 30
0.0
 10
547.561244789
 20
263.6883040806
 30
0.0
 10
547.5607930134
 20
263.7309306979
 30
0.0
 10
547.557286218
 20
263.7735466563
 30
0.0
 10
547.5526980189
 20
263.8048732708
 30
0.0
  0
SPLINE
  5
3B6
100
AcDbEntity
  8
0
100
AcDbSpline
 62
7
  6
CONTINUOUS
 70
0
 71
3
 72
9
 73
5
 74
0
 42
0.0000001
 43
0.0000001
 44
0.0000000001
 40
0.0
 40
0.0
 40
0.0
 40
0.0
 40
0.2563399254
 40
1.0
 40
1.0
 40
1.0
 40
1.0
 10
547.5495092095
 20
263.5219343393
 30
0.0
 10
547.5514321898
 20
263.5351171695
 30
0.0
 10
547.5580672048
 20
263.58666425
 30
0.0
 10
547.5611692548
 20
263.6386875687
 30
0.0
 10
547.5611692605
 20
263.6773366231
 30
0.0
  0
SPLINE
  5
3B7
100
AcDbEntity
  8
0
100
AcDbSpline
 62
7
  6
CONTINUOUS
 70
0
 71
3
 72
9
 73
5
 74
0
 42
0.0000001
 43
0.0000001
 44
0.0000000001
 40
0.0
 40
0.0
 40
0.0
 40
0.0
 40
0.4950778831
 40
1.0
 40
1.0
 40
1.0
 40
1.0
 10
547.2601741947
 20
262.9916308816
 30
0.0
 10
547.3368150316
 20
263.0576056992
 30
0.0
 10
547.463662378
 20
263.2237061294
 30
0.0
 10
547.5337775752
 20
263.4200042405
 30
0.0
 10
547.5495092095
 20
263.5219343393
 30
0.0
  0
SPLINE
  5
3B8
100
AcDbEntity
  8
0
100
AcDbSpline
 62
7
  6
CONTINUOUS
 70
0
 71
3
 72
9
 73
5
 74
0
 42
0.0000001
 43
0.0000001
 44
0.0000000001
 40
0.0
 40
0.0
 40
0.0
 40
0.0
 40
0.23720084
 40
1.0
 40
1.0
 40
1.0
 40
1.0
 10
547.0710169539
 20
262.8638308139
 30
0.0
 10
547.0873124775
 20
262.8716676238
 30
0.0
 10
547.1546822874
 20
262.9074578086
 30
0.0
 10
547.2165090647
 20
262.9532297822
 30
0.0
 10
547.2601741947
 20
262.9916308816
 30
0.0
  0
SPLINE
  5
3B9
100
AcDbEntity
  8
0
100
AcDbSpline
 62
7
  6
CONTINUOUS
 70
0
 71
3
 72
8
 73
4
 74
0
 42
0.0000001
 43
0.0000001
 44
0.0000000001
 40
0.0
 40
0.0
 40
0.0
 40
0.0
 40
1.0
 40
1.0
 40
1.0
 40
1.0
 10
572.2684283435
 20
273.5065082379
 30
0.0
 10
572.2564792817
 20
273.5282310059
 30
0.0
 10
572.2464895338
 20
273.5511077926
 30
0.0
 10
572.2382854254
 20
273.5745033334
 30
0.0
  0
SPLINE
  5
3BA
100
AcDbEntity
  8
0
100
AcDbSpline
 62
7
  6
CONTINUOUS
 70
0
 71
3
 72
8
 73
4
 74
0
 42
0.0000001
 43
0.0000001
 44
0.0000000001
 40
0.0
 40
0.0
 40
0.0
 40
0.0
 40
1.0
 40
1.0
 40
1.0
 40
1.0
 10
568.8409939835
 20
271.7820589215
 30
0.0
 10
568.8180790757
 20
271.802718865
 30
0.0
 10
568.7969516385
 20
271.8255069356
 30
0.0
 10
568.7778515475
 20
271.849737346
 30
0.0
  0
SPLINE
  5
3BB
100
AcDbEntity
  8
0
100
AcDbSpline
 62
7
  6
CONTINUOUS
 70
0
 71
3
 72
8
 73
4
 74
0
 42
0.0000001
 43
0.0000001
 44
0.0000000001
 40
0.0
 40
0.0
 40
0.0
 40
0.0
 40
1.0
 40
1.0
 40
1.0
 40
1.0
 10
561.6233787917
 20
268.1732513256
 30
0.0
 10
561.6004334404
 20
268.1938859413
 30
0.0
 10
561.5792866183
 20
268.216668322
 30
0.0
 10
561.5601826309
 20
268.2409028877
 30
0.0
  0
SPLINE
  5
3BC
100
AcDbEntity
  8
0
100
AcDbSpline
 62
7
  6
CONTINUOUS
 70
0
 71
3
 72
9
 73
5
 74
0
 42
0.0000001
 43
0.0000001
 44
0.0000000001
 40
0.0
 40
0.0
 40
0.0
 40
0.0
 40
0.2389786715
 40
1.0
 40
1.0
 40
1.0
 40
1.0
 10
562.7390471822
 20
271.9247457148
 30
0.0
 10
562.7445691271
 20
271.9238439232
 30
0.0
 10
562.7678958295
 20
271.921422124
 30
0.0
 10
562.7916192996
 20
271.9244094344
 30
0.0
 10
562.8088695392
 20
271.9288692923
 30
0.0
  0
SPLINE
  5
3BD
100
AcDbEntity
  8
0
100
AcDbSpline
 62
7
  6
CONTINUOUS
 70
0
 71
3
 72
8
 73
4
 74
0
 42
0.0000001
 43
0.0000001
 44
0.0000000001
 40
0.0
 40
0.0
 40
0.0
 40
0.0
 40
1.0
 40
1.0
 40
1.0
 40
1.0
 10
562.8088695392
 20
271.9288692923
 30
0.0
 10
562.8255329517
 20
271.9331774326
 30
0.0
 10
562.8417315573
 20
271.9395492126
 30
0.0
 10
562.8571119356
 20
271.9472740655
 30
0.0
  0
SPLINE
  5
3BE
100
AcDbEntity
  8
0
100
AcDbSpline
 62
7
  6
CONTINUOUS
 70
0
 71
3
 72
9
 73
5
 74
0
 42
0.0000001
 43
0.0000001
 44
0.0000000001
 40
0.0
 40
0.0
 40
0.0
 40
0.0
 40
0.5291293891
 40
1.0
 40
1.0
 40
1.0
 40
1.0
 10
548.070378177
 20
264.4049740259
 30
0.0
 10
548.0473778183
 20
264.4904733292
 30
0.0
 10
547.9815826133
 20
264.6482208269
 30
0.0
 10
547.8577509579
 20
264.7696786632
 30
0.0
 10
547.7900210743
 20
264.8099355031
 30
0.0
  0
SPLINE
  5
3BF
100
AcDbEntity
  8
0
100
AcDbSpline
 62
7
  6
CONTINUOUS
 70
0
 71
3
 72
9
 73
5
 74
0
 42
0.0000001
 43
0.0000001
 44
0.0000000001
 40
0.0
 40
0.0
 40
0.0
 40
0.0
 40
0.26195107
 40
1.0
 40
1.0
 40
1.0
 40
1.0
 10
548.1156271088
 20
264.0196053515
 30
0.0
 10
548.1156271074
 20
264.0535333275
 30
0.0
 10
548.112112633
 20
264.1829921754
 30
0.0
 10
548.093978181
 20
264.312340725
 30
0.0
 10
548.070378177
 20
264.4049740259
 30
0.0
  0
SPLINE
  5
3C0
100
AcDbEntity
  8
0
100
AcDbSpline
 62
7
  6
CONTINUOUS
 70
0
 71
3
 72
9
 73
5
 74
0
 42
0.0000001
 43
0.0000001
 44
0.0000000001
 40
0.0
 40
0.0
 40
0.0
 40
0.0
 40
0.2588557448
 40
1.0
 40
1.0
 40
1.0
 40
1.0
 10
548.0754642682
 20
263.639021459
 30
0.0
 10
548.0822342905
 20
263.6713757266
 30
0.0
 10
548.1053728251
 20
263.7969561022
 30
0.0
 10
548.1162122115
 20
263.9249656058
 30
0.0
 10
548.1156271088
 20
264.0196053515
 30
0.0
  0
SPLINE
  5
3C1
100
AcDbEntity
  8
0
100
AcDbSpline
 62
7
  6
CONTINUOUS
 70
0
 71
3
 72
9
 73
5
 74
0
 42
0.0000001
 43
0.0000001
 44
0.0000000001
 40
0.0
 40
0.0
 40
0.0
 40
0.0
 40
0.4988779558
 40
1.0
 40
1.0
 40
1.0
 40
1.0
 10
547.5669432631
 20
262.6483528398
 30
0.0
 10
547.6928082413
 20
262.7862717698
 30
0.0
 10
547.9056094547
 20
263.0999243578
 30
0.0
 10
548.0361542947
 20
263.4556292359
 30
0.0
 10
548.0754642682
 20
263.639021459
 30
0.0
  0
SPLINE
  5
3C2
100
AcDbEntity
  8
0
100
AcDbSpline
 62
7
  6
CONTINUOUS
 70
0
 71
3
 72
8
 73
4
 74
0
 42
0.0000001
 43
0.0000001
 44
0.0000000001
 40
0.0
 40
0.0
 40
0.0
 40
0.0
 40
1.0
 40
1.0
 40
1.0
 40
1.0
 10
547.7536822368
 20
261.1374978196
 30
0.0
 10
547.7774427272
 20
261.145693229
 30
0.0
 10
547.8006094482
 20
261.1557613145
 30
0.0
 10
547.8229794662
 20
261.1672202818
 30
0.0
  0
SPLINE
  5
3C3
100
AcDbEntity
  8
0
100
AcDbSpline
 62
7
  6
CONTINUOUS
 70
0
 71
3
 72
8
 73
4
 74
0
 42
0.0000001
 43
0.0000001
 44
0.0000000001
 40
0.0
 40
0.0
 40
0.0
 40
0.0
 40
1.0
 40
1.0
 40
1.0
 40
1.0
 10
547.677362332
 20
261.1214042067
 30
0.0
 10
547.6899901699
 20
261.1219942325
 30
0.0
 10
547.7025995998
 20
261.1236966403
 30
0.0
 10
547.7149691903
 20
261.1263050215
 30
0.0
  0
SPLINE
  5
3C4
100
AcDbEntity
  8
0
100
AcDbSpline
 62
7
  6
CONTINUOUS
 70
0
 71
3
 72
8
 73
4
 74
0
 42
0.0000001
 43
0.0000001
 44
0.0000000001
 40
0.0
 40
0.0
 40
0.0
 40
0.0
 40
1.0
 40
1.0
 40
1.0
 40
1.0
 10
547.7149691903
 20
261.1263050215
 30
0.0
 10
547.7281130127
 20
261.1290766653
 30
0.0
 10
547.741066633
 20
261.1328838603
 30
0.0
 10
547.7536822368
 20
261.1374978196
 30
0.0
  0
SPLINE
  5
3C5
100
AcDbEntity
  8
0
100
AcDbSpline
 62
7
  6
CONTINUOUS
 70
0
 71
3
 72
9
 73
5
 74
0
 42
0.0000001
 43
0.0000001
 44
0.0000000001
 40
0.0
 40
0.0
 40
0.0
 40
0.0
 40
0.2390188621
 40
1.0
 40
1.0
 40
1.0
 40
1.0
 10
563.6345923236
 20
269.109736314
 30
0.0
 10
563.6401201472
 20
269.1088290443
 30
0.0
 10
563.6634683966
 20
269.1063835561
 30
0.0
 10
563.687218732
 20
269.1093428397
 30
0.0
 10
563.7044919945
 20
269.1137828991
 30
0.0
  0
SPLINE
  5
3C6
100
AcDbEntity
  8
0
100
AcDbSpline
 62
7
  6
CONTINUOUS
 70
0
 71
3
 72
8
 73
4
 74
0
 42
0.0000001
 43
0.0000001
 44
0.0000000001
 40
0.0
 40
0.0
 40
0.0
 40
0.0
 40
1.0
 40
1.0
 40
1.0
 40
1.0
 10
563.7044919945
 20
269.1137828991
 30
0.0
 10
563.7211962052
 20
269.1180766848
 30
0.0
 10
563.7374374215
 20
269.1244397835
 30
0.0
 10
563.7528600288
 20
269.1321605631
 30
0.0
  0
SPLINE
  5
3C7
100
AcDbEntity
  8
0
100
AcDbSpline
 62
7
  6
CONTINUOUS
 70
0
 71
3
 72
11
 73
7
 74
0
 42
0.0000001
 43
0.0000001
 44
0.0000000001
 40
0.0
 40
0.0
 40
0.0
 40
0.0
 40
0.2903191921
 40
0.5504149386
 40
0.78344701
 40
1.0
 40
1.0
 40
1.0
 40
1.0
 10
540.2678861205
 20
257.0925180856
 30
0.0
 10
540.2665121903
 20
256.9585398504
 30
0.0
 10
540.2855834952
 20
256.7033351502
 30
0.0
 10
540.3913355204
 20
256.353847026
 30
0.0
 10
540.5710066496
 20
256.0739213392
 30
0.0
 10
540.7400661344
 20
255.9445457938
 30
0.0
 10
540.8294559893
 20
255.8998496898
 30
0.0
  0
SPLINE
  5
3C8
100
AcDbEntity
  8
0
100
AcDbSpline
 62
7
  6
CONTINUOUS
 70
0
 71
3
 72
9
 73
5
 74
0
 42
0.0000001
 43
0.0000001
 44
0.0000000001
 40
0.0
 40
0.0
 40
0.0
 40
0.0
 40
0.2390188676
 40
1.0
 40
1.0
 40
1.0
 40
1.0
 10
559.6207469775
 20
267.1028136111
 30
0.0
 10
559.6262747959
 20
267.1019063433
 30
0.0
 10
559.6496230221
 20
267.0994608606
 30
0.0
 10
559.6733733332
 20
267.1024201405
 30
0.0
 10
559.6906465787
 20
267.1068601938
 30
0.0
  0
SPLINE
  5
3C9
100
AcDbEntity
  8
0
100
AcDbSpline
 62
7
  6
CONTINUOUS
 70
0
 71
3
 72
8
 73
4
 74
0
 42
0.0000001
 43
0.0000001
 44
0.0000000001
 40
0.0
 40
0.0
 40
0.0
 40
0.0
 40
1.0
 40
1.0
 40
1.0
 40
1.0
 10
559.6906465787
 20
267.1068601938
 30
0.0
 10
559.7073507866
 20
267.1111539771
 30
0.0
 10
559.7235920003
 20
267.1175170736
 30
0.0
 10
559.739014605
 20
267.1252378512
 30
0.0
  0
SPLINE
  5
3CA
100
AcDbEntity
  8
0
100
AcDbSpline
 62
7
  6
CONTINUOUS
 70
0
 71
3
 72
9
 73
5
 74
0
 42
0.0000001
 43
0.0000001
 44
0.0000000001
 40
0.0
 40
0.0
 40
0.0
 40
0.0
 40
0.4660900288
 40
1.0
 40
1.0
 40
1.0
 40
1.0
 10
556.4433496099
 20
265.7728615198
 30
0.0
 10
556.5856986538
 20
265.7227171415
 30
0.0
 10
556.9214237692
 20
265.6956049195
 30
0.0
 10
557.2345051112
 20
265.8021313959
 30
0.0
 10
557.3896026902
 20
265.878508116
 30
0.0
  0
SPLINE
  5
3CB
100
AcDbEntity
  8
0
100
AcDbSpline
 62
7
  6
CONTINUOUS
 70
0
 71
3
 72
11
 73
7
 74
0
 42
0.0000001
 43
0.0000001
 44
0.0000000001
 40
0.0
 40
0.0
 40
0.0
 40
0.0
 40
0.2903224477
 40
0.5504158909
 40
0.7834468694
 40
1.0
 40
1.0
 40
1.0
 40
1.0
 10
540.3385967986
 20
257.0571627465
 30
0.0
 10
540.3372227918
 20
256.9231770375
 30
0.0
 10
540.3562958072
 20
256.6679600129
 30
0.0
 10
540.4620609183
 20
256.3184593235
 30
0.0
 10
540.6417473908
 20
256.0385250952
 30
0.0
 10
540.8108264565
 20
255.909160536
 30
0.0
 10
540.9002220942
 20
255.8644658924
 30
0.0
  0
SPLINE
  5
3CC
100
AcDbEntity
  8
0
100
AcDbSpline
 62
7
  6
CONTINUOUS
 70
0
 71
3
 72
11
 73
7
 74
0
 42
0.0000001
 43
0.0000001
 44
0.0000000001
 40
0.0
 40
0.0
 40
0.0
 40
0.0
 40
0.2296817261
 40
0.4882213934
 40
0.7532102778
 40
1.0
 40
1.0
 40
1.0
 40
1.0
 10
541.8864571142
 20
264.7470472428
 30
0.0
 10
541.666373959
 20
264.6369781896
 30
0.0
 10
541.2458374461
 20
264.3079332421
 30
0.0
 10
540.7602349073
 20
263.6547046537
 30
0.0
 10
540.4298342698
 20
262.8908354103
 30
0.0
 10
540.3385968133
 20
262.3415916117
 30
0.0
 10
540.3385967986
 20
262.0771899836
 30
0.0
  0
SPLINE
  5
3CD
100
AcDbEntity
  8
0
100
AcDbSpline
 62
7
  6
CONTINUOUS
 70
0
 71
3
 72
9
 73
5
 74
0
 42
0.0000001
 43
0.0000001
 44
0.0000000001
 40
0.0
 40
0.0
 40
0.0
 40
0.0
 40
0.7411862238
 40
1.0
 40
1.0
 40
1.0
 40
1.0
 10
551.0335213888
 20
262.779017464
 30
0.0
 10
551.0502430992
 20
262.7838096441
 30
0.0
 10
551.0723083578
 20
262.7921448365
 30
0.0
 10
551.0934276388
 20
262.8023800697
 30
0.0
 10
551.0988344992
 20
262.8051477983
 30
0.0
  0
SPLINE
  5
3CE
100
AcDbEntity
  8
0
100
AcDbSpline
 62
7
  6
CONTINUOUS
 70
0
 71
3
 72
9
 73
5
 74
0
 42
0.0000001
 43
0.0000001
 44
0.0000000001
 40
0.0
 40
0.0
 40
0.0
 40
0.0
 40
0.5365937618
 40
1.0
 40
1.0
 40
1.0
 40
1.0
 10
543.4708087732
 20
262.1834118062
 30
0.0
 10
543.444963925
 20
262.1703762713
 30
0.0
 10
543.3923227785
 20
262.1526237461
 30
0.0
 10
543.336117666
 20
262.1618637319
 30
0.0
 10
543.3137572436
 20
262.1730404041
 30
0.0
  0
SPLINE
  5
3CF
100
AcDbEntity
  8
0
100
AcDbSpline
 62
7
  6
CONTINUOUS
 70
0
 71
3
 72
11
 73
7
 74
0
 42
0.0000001
 43
0.0000001
 44
0.0000000001
 40
0.0
 40
0.0
 40
0.0
 40
0.0
 40
0.2171536007
 40
0.4504129845
 40
0.7102538038
 40
1.0
 40
1.0
 40
1.0
 40
1.0
 10
558.531294589
 20
270.0322911977
 30
0.0
 10
558.6280745544
 20
269.9839047553
 30
0.0
 10
558.8112219642
 20
269.8445984854
 30
0.0
 10
559.0074533753
 20
269.5436087673
 30
0.0
 10
559.1249489393
 20
269.1676595068
 30
0.0
 10
559.1482478016
 20
268.8927734947
 30
0.0
 10
559.1482478261
 20
268.7484008798
 30
0.0
  0
SPLINE
  5
3D0
100
AcDbEntity
  8
0
100
AcDbSpline
 62
7
  6
CONTINUOUS
 70
0
 71
3
 72
9
 73
5
 74
0
 42
0.0000001
 43
0.0000001
 44
0.0000000001
 40
0.0
 40
0.0
 40
0.0
 40
0.0
 40
0.5363145063
 40
1.0
 40
1.0
 40
1.0
 40
1.0
 10
544.3664324959
 20
259.3682361186
 30
0.0
 10
544.340618115
 20
259.3553289289
 30
0.0
 10
544.2880491783
 20
259.3378058594
 30
0.0
 10
544.2320228747
 20
259.3471169146
 30
0.0
 10
544.2097030324
 20
259.3582735661
 30
0.0
  0
SPLINE
  5
3D1
100
AcDbEntity
  8
0
100
AcDbSpline
 62
7
  6
CONTINUOUS
 70
0
 71
3
 72
9
 73
5
 74
0
 42
0.0000001
 43
0.0000001
 44
0.0000000001
 40
0.0
 40
0.0
 40
0.0
 40
0.0
 40
0.5362664336
 40
1.0
 40
1.0
 40
1.0
 40
1.0
 10
546.288060563
 20
260.3290501521
 30
0.0
 10
546.2622673522
 20
260.3161729757
 30
0.0
 10
546.2097432847
 20
260.2987001334
 30
0.0
 10
546.1537822176
 20
260.3080176227
 30
0.0
 10
546.1314831035
 20
260.3191639601
 30
0.0
  0
SPLINE
  5
3D2
100
AcDbEntity
  8
0
100
AcDbSpline
 62
7
  6
CONTINUOUS
 70
0
 71
3
 72
9
 73
5
 74
0
 42
0.0000001
 43
0.0000001
 44
0.0000000001
 40
0.0
 40
0.0
 40
0.0
 40
0.0
 40
0.2321370705
 40
1.0
 40
1.0
 40
1.0
 40
1.0
 10
561.6990122714
 20
268.1511242559
 30
0.0
 10
561.7131912387
 20
268.1504765317
 30
0.0
 10
561.774509111
 20
268.1524984329
 30
0.0
 10
561.8342492043
 20
268.1727328664
 30
0.0
 10
561.8761936188
 20
268.1938273581
 30
0.0
  0
SPLINE
  5
3D3
100
AcDbEntity
  8
0
100
AcDbSpline
 62
7
  6
CONTINUOUS
 70
0
 71
3
 72
9
 73
5
 74
0
 42
0.0000001
 43
0.0000001
 44
0.0000000001
 40
0.0
 40
0.0
 40
0.0
 40
0.0
 40
0.2602902174
 40
1.0
 40
1.0
 40
1.0
 40
1.0
 10
547.7480730101
 20
261.0860488676
 30
0.0
 10
547.7414860347
 20
261.0857048277
 30
0.0
 10
547.7161383286
 20
261.0857837012
 30
0.0
 10
547.6907179769
 20
261.0922929879
 30
0.0
 10
547.6739501748
 20
261.1006720606
 30
0.0
  0
SPLINE
  5
3D4
100
AcDbEntity
  8
0
100
AcDbSpline
 62
7
  6
CONTINUOUS
 70
0
 71
3
 72
9
 73
5
 74
0
 42
0.0000001
 43
0.0000001
 44
0.0000000001
 40
0.0
 40
0.0
 40
0.0
 40
0.0
 40
0.2619641759
 40
1.0
 40
1.0
 40
1.0
 40
1.0
 10
547.8243929149
 20
261.1021424805
 30
0.0
 10
547.8179829485
 20
261.0997981358
 30
0.0
 10
547.7932368362
 20
261.0916570047
 30
0.0
 10
547.7672808537
 20
261.086946339
 30
0.0
 10
547.7480730101
 20
261.0860488676
 30
0.0
  0
SPLINE
  5
3D5
100
AcDbEntity
  8
0
100
AcDbSpline
 62
7
  6
CONTINUOUS
 70
0
 71
3
 72
8
 73
4
 74
0
 42
0.0000001
 43
0.0000001
 44
0.0000000001
 40
0.0
 40
0.0
 40
0.0
 40
0.0
 40
1.0
 40
1.0
 40
1.0
 40
1.0
 10
547.8936901443
 20
261.1318649428
 30
0.0
 10
547.8713201263
 20
261.1204059754
 30
0.0
 10
547.8481534053
 20
261.1103378899
 30
0.0
 10
547.8243929149
 20
261.1021424805
 30
0.0
  0
SPLINE
  5
3D6
100
AcDbEntity
  8
0
100
AcDbSpline
 62
7
  6
CONTINUOUS
 70
0
 71
3
 72
9
 73
5
 74
0
 42
0.0000001
 43
0.0000001
 44
0.0000000001
 40
0.0
 40
0.0
 40
0.0
 40
0.0
 40
0.5011219963
 40
1.0
 40
1.0
 40
1.0
 40
1.0
 10
548.1461749463
 20
263.6036661199
 30
0.0
 10
548.1068650052
 20
263.4202740475
 30
0.0
 10
547.9763145179
 20
263.0645719268
 30
0.0
 10
547.7635188401
 20
262.7509163438
 30
0.0
 10
547.6376539412
 20
262.6129975008
 30
0.0
  0
SPLINE
  5
3D7
100
AcDbEntity
  8
0
100
AcDbSpline
 62
7
  6
CONTINUOUS
 70
0
 71
3
 72
9
 73
5
 74
0
 42
0.0000001
 43
0.0000001
 44
0.0000000001
 40
0.0
 40
0.0
 40
0.0
 40
0.0
 40
0.2408945345
 40
1.0
 40
1.0
 40
1.0
 40
1.0
 10
548.1863377869
 20
263.9842500124
 30
0.0
 10
548.1865279727
 20
263.9534876497
 30
0.0
 10
548.1835072265
 20
263.8257741591
 30
0.0
 10
548.1660293265
 20
263.6985511738
 30
0.0
 10
548.1461749463
 20
263.6036661199
 30
0.0
  0
SPLINE
  5
3D8
100
AcDbEntity
  8
0
100
AcDbSpline
 62
7
  6
CONTINUOUS
 70
0
 71
3
 72
9
 73
5
 74
0
 42
0.0000001
 43
0.0000001
 44
0.0000000001
 40
0.0
 40
0.0
 40
0.0
 40
0.0
 40
0.2383430711
 40
1.0
 40
1.0
 40
1.0
 40
1.0
 10
548.1410888551
 20
264.3696186868
 30
0.0
 10
548.1487108593
 20
264.3397012591
 30
0.0
 10
548.1761658919
 20
264.2130352883
 30
0.0
 10
548.1863377828
 20
264.0829090573
 30
0.0
 10
548.1863377869
 20
263.9842500124
 30
0.0
  0
SPLINE
  5
3D9
100
AcDbEntity
  8
0
100
AcDbSpline
 62
7
  6
CONTINUOUS
 70
0
 71
3
 72
9
 73
5
 74
0
 42
0.0000001
 43
0.0000001
 44
0.0000000001
 40
0.0
 40
0.0
 40
0.0
 40
0.0
 40
0.2392055825
 40
1.0
 40
1.0
 40
1.0
 40
1.0
 10
566.8391263531
 20
270.7119129656
 30
0.0
 10
566.8445685092
 20
270.7110249403
 30
0.0
 10
566.8675319924
 20
270.708619526
 30
0.0
 10
566.8908894275
 20
270.7114449641
 30
0.0
 10
566.9078962237
 20
270.715727552
 30
0.0
  0
SPLINE
  5
3DA
100
AcDbEntity
  8
0
100
AcDbSpline
 62
7
  6
CONTINUOUS
 70
0
 71
3
 72
8
 73
4
 74
0
 42
0.0000001
 43
0.0000001
 44
0.0000000001
 40
0.0
 40
0.0
 40
0.0
 40
0.0
 40
1.0
 40
1.0
 40
1.0
 40
1.0
 10
566.9078962237
 20
270.715727552
 30
0.0
 10
566.9245344076
 20
270.7199173174
 30
0.0
 10
566.9407217643
 20
270.7261703601
 30
0.0
 10
566.9560994317
 20
270.7337802646
 30
0.0
  0
SPLINE
  5
3DB
100
AcDbEntity
  8
0
100
AcDbSpline
 62
7
  6
CONTINUOUS
 70
0
 71
3
 72
8
 73
4
 74
0
 42
0.0000001
 43
0.0000001
 44
0.0000000001
 40
0.0
 40
0.0
 40
0.0
 40
0.0
 40
1.0
 40
1.0
 40
1.0
 40
1.0
 10
553.4246420595
 20
264.3551398866
 30
0.0
 10
553.4429611995
 20
264.3507846755
 30
0.0
 10
553.4621330487
 20
264.3493598606
 30
0.0
 10
553.4809332376
 20
264.3504142082
 30
0.0
  0
SPLINE
  5
3DC
100
AcDbEntity
  8
0
100
AcDbSpline
 62
7
  6
CONTINUOUS
 70
0
 71
3
 72
9
 73
5
 74
0
 42
0.0000001
 43
0.0000001
 44
0.0000000001
 40
0.0
 40
0.0
 40
0.0
 40
0.0
 40
0.2379075881
 40
1.0
 40
1.0
 40
1.0
 40
1.0
 10
553.5079282662
 20
264.3535517109
 30
0.0
 10
553.514877006
 20
264.3547655049
 30
0.0
 10
553.5438651672
 20
264.3611137662
 30
0.0
 10
553.5717251248
 20
264.3721535079
 30
0.0
 10
553.5918897496
 20
264.3823499885
 30
0.0
  0
SPLINE
  5
3DD
100
AcDbEntity
  8
0
100
AcDbSpline
 62
7
  6
CONTINUOUS
 70
0
 71
3
 72
9
 73
5
 74
0
 42
0.0000001
 43
0.0000001
 44
0.0000000001
 40
0.0
 40
0.0
 40
0.0
 40
0.0
 40
0.2725532336
 40
1.0
 40
1.0
 40
1.0
 40
1.0
 10
551.104232067
 20
262.7436621249
 30
0.0
 10
551.0934173181
 20
262.7403403931
 30
0.0
 10
551.053061667
 20
262.7308894429
 30
0.0
 10
551.0085039084
 20
262.7359745679
 30
0.0
 10
550.9814857674
 20
262.7494574944
 30
0.0
  0
SPLINE
  5
3DE
100
AcDbEntity
  8
0
100
AcDbSpline
 62
7
  6
CONTINUOUS
 70
0
 71
3
 72
9
 73
5
 74
0
 42
0.0000001
 43
0.0000001
 44
0.0000000001
 40
0.0
 40
0.0
 40
0.0
 40
0.0
 40
0.2588137762
 40
1.0
 40
1.0
 40
1.0
 40
1.0
 10
551.1695451773
 20
262.7697924592
 30
0.0
 10
551.164138317
 20
262.7670247306
 30
0.0
 10
551.1430190359
 20
262.7567894974
 30
0.0
 10
551.1209537773
 20
262.748454305
 30
0.0
 10
551.104232067
 20
262.7436621249
 30
0.0
  0
SPLINE
  5
3DF
100
AcDbEntity
  8
0
100
AcDbSpline
 62
7
  6
CONTINUOUS
 70
0
 71
3
 72
9
 73
5
 74
0
 42
0.0000001
 43
0.0000001
 44
0.0000000001
 40
0.0
 40
0.0
 40
0.0
 40
0.0
 40
0.7418356878
 40
1.0
 40
1.0
 40
1.0
 40
1.0
 10
555.0983733077
 20
264.8114448099
 30
0.0
 10
555.1159249125
 20
264.8167049861
 30
0.0
 10
555.1390833556
 20
264.8255929865
 30
0.0
 10
555.1613213648
 20
264.8363417648
 30
0.0
 10
555.1670047571
 20
264.8392329273
 30
0.0
  0
SPLINE
  5
3E0
100
AcDbEntity
  8
0
100
AcDbSpline
 62
7
  6
CONTINUOUS
 70
0
 71
3
 72
9
 73
5
 74
0
 42
0.0000001
 43
0.0000001
 44
0.0000000001
 40
0.0
 40
0.0
 40
0.0
 40
0.0
 40
0.5366717028
 40
1.0
 40
1.0
 40
1.0
 40
1.0
 10
553.6626004277
 20
264.3469946494
 30
0.0
 10
553.6289328711
 20
264.329970252
 30
0.0
 10
553.5603546056
 20
264.3067633289
 30
0.0
 10
553.4870936828
 20
264.3187649796
 30
0.0
 10
553.4579579375
 20
264.3333248798
 30
0.0
  0
SPLINE
  5
3E1
100
AcDbEntity
  8
0
100
AcDbSpline
 62
7
  6
CONTINUOUS
 70
0
 71
3
 72
9
 73
5
 74
0
 42
0.0000001
 43
0.0000001
 44
0.0000000001
 40
0.0
 40
0.0
 40
0.0
 40
0.0
 40
0.2406707688
 40
1.0
 40
1.0
 40
1.0
 40
1.0
 10
555.0189044773
 20
264.8004303606
 30
0.0
 10
555.0242179049
 20
264.8001343076
 30
0.0
 10
555.0463462761
 20
264.799854387
 30
0.0
 10
555.0684543352
 20
264.8032950387
 30
0.0
 10
555.0847082513
 20
264.8075044826
 30
0.0
  0
SPLINE
  5
3E2
100
AcDbEntity
  8
0
100
AcDbSpline
 62
7
  6
CONTINUOUS
 70
0
 71
3
 72
8
 73
4
 74
0
 42
0.0000001
 43
0.0000001
 44
0.0000000001
 40
0.0
 40
0.0
 40
0.0
 40
0.0
 40
1.0
 40
1.0
 40
1.0
 40
1.0
 10
555.0896151554
 20
264.7650750215
 30
0.0
 10
555.0715338776
 20
264.7661842721
 30
0.0
 10
555.0532651592
 20
264.7708119018
 30
0.0
 10
555.0370588684
 20
264.7789062939
 30
0.0
  0
SPLINE
  5
3E3
100
AcDbEntity
  8
0
100
AcDbSpline
 62
7
  6
CONTINUOUS
 70
0
 71
3
 72
9
 73
5
 74
0
 42
0.0000001
 43
0.0000001
 44
0.0000000001
 40
0.0
 40
0.0
 40
0.0
 40
0.0
 40
0.2632325724
 40
1.0
 40
1.0
 40
1.0
 40
1.0
 10
555.1690839858
 20
264.7760894709
 30
0.0
 10
555.1623543744
 20
264.7739527568
 30
0.0
 10
555.1365017171
 20
264.7668250144
 30
0.0
 10
555.109346846
 20
264.7639756132
 30
0.0
 10
555.0896151554
 20
264.7650750215
 30
0.0
  0
SPLINE
  5
3E4
100
AcDbEntity
  8
0
100
AcDbSpline
 62
7
  6
CONTINUOUS
 70
0
 71
3
 72
9
 73
5
 74
0
 42
0.0000001
 43
0.0000001
 44
0.0000000001
 40
0.0
 40
0.0
 40
0.0
 40
0.0
 40
0.2581643122
 40
1.0
 40
1.0
 40
1.0
 40
1.0
 10
555.2377154352
 20
264.8038775882
 30
0.0
 10
555.2320320429
 20
264.8009864258
 30
0.0
 10
555.2097940337
 20
264.7902376474
 30
0.0
 10
555.1866355906
 20
264.781349647
 30
0.0
 10
555.1690839858
 20
264.7760894709
 30
0.0
  0
SPLINE
  5
3E5
100
AcDbEntity
  8
0
100
AcDbSpline
 62
7
  6
CONTINUOUS
 70
0
 71
3
 72
9
 73
5
 74
0
 42
0.0000001
 43
0.0000001
 44
0.0000000001
 40
0.0
 40
0.0
 40
0.0
 40
0.0
 40
0.2321031278
 40
1.0
 40
1.0
 40
1.0
 40
1.0
 10
568.9166091729
 20
271.7598412892
 30
0.0
 10
568.9307911434
 20
271.7591939225
 30
0.0
 10
568.9921313642
 20
271.7612275664
 30
0.0
 10
569.0518844393
 20
271.78151023
 30
0.0
 10
569.0938294923
 20
271.8026452949
 30
0.0
  0
SPLINE
  5
3E6
100
AcDbEntity
  8
0
100
AcDbSpline
 62
7
  6
CONTINUOUS
 70
0
 71
3
 72
8
 73
4
 74
0
 42
0.0000001
 43
0.0000001
 44
0.0000000001
 40
0.0
 40
0.0
 40
0.0
 40
0.0
 40
1.0
 40
1.0
 40
1.0
 40
1.0
 10
550.9486988195
 20
262.7723235572
 30
0.0
 10
550.9627383195
 20
262.7698122102
 30
0.0
 10
550.9772441632
 20
262.7693593461
 30
0.0
 10
550.9914515354
 20
262.7706103451
 30
0.0
  0
SPLINE
  5
3E7
100
AcDbEntity
  8
0
100
AcDbSpline
 62
7
  6
CONTINUOUS
 70
0
 71
3
 72
9
 73
5
 74
0
 42
0.0000001
 43
0.0000001
 44
0.0000000001
 40
0.0
 40
0.0
 40
0.0
 40
0.0
 40
0.5171925029
 40
1.0
 40
1.0
 40
1.0
 40
1.0
 10
556.8222203345
 20
268.5865130603
 30
0.0
 10
556.7065067474
 20
268.4028532856
 30
0.0
 10
556.5277627281
 20
268.017880209
 30
0.0
 10
556.4527496853
 20
267.5976590603
 30
0.0
 10
556.4527496493
 20
267.3950182345
 30
0.0
  0
SPLINE
  5
3E8
100
AcDbEntity
  8
0
100
AcDbSpline
 62
7
  6
CONTINUOUS
 70
0
 71
3
 72
9
 73
5
 74
0
 42
0.0000001
 43
0.0000001
 44
0.0000000001
 40
0.0
 40
0.0
 40
0.0
 40
0.0
 40
0.4717494656
 40
1.0
 40
1.0
 40
1.0
 40
1.0
 10
557.4697002071
 20
269.2102283878
 30
0.0
 10
557.3426669238
 20
269.1455225351
 30
0.0
 10
557.0980490933
 20
268.9595009791
 30
0.0
 10
556.9081847861
 20
268.7210285349
 30
0.0
 10
556.8222203345
 20
268.5865130603
 30
0.0
  0
SPLINE
  5
3E9
100
AcDbEntity
  8
0
100
AcDbSpline
 62
7
  6
CONTINUOUS
 70
0
 71
3
 72
9
 73
5
 74
0
 42
0.0000001
 43
0.0000001
 44
0.0000000001
 40
0.0
 40
0.0
 40
0.0
 40
0.0
 40
0.4678943246
 40
1.0
 40
1.0
 40
1.0
 40
1.0
 10
557.9858791749
 20
269.289068292
 30
0.0
 10
557.9086062738
 20
269.3098809828
 30
0.0
 10
557.7321286284
 20
269.3153187423
 30
0.0
 10
557.5677547117
 20
269.258260784
 30
0.0
 10
557.4860246932
 20
269.2182250033
 30
0.0
  0
SPLINE
  5
3EA
100
AcDbEntity
  8
0
100
AcDbSpline
 62
7
  6
CONTINUOUS
 70
0
 71
3
 72
9
 73
5
 74
0
 42
0.0000001
 43
0.0000001
 44
0.0000000001
 40
0.0
 40
0.0
 40
0.0
 40
0.0
 40
0.2390633063
 40
1.0
 40
1.0
 40
1.0
 40
1.0
 10
546.0993902915
 20
260.3421144659
 30
0.0
 10
546.1048977353
 20
260.3412117806
 30
0.0
 10
546.1281543771
 20
260.3387757959
 30
0.0
 10
546.1518111925
 20
260.3417029505
 30
0.0
 10
546.1690211014
 20
260.3461053105
 30
0.0
  0
SPLINE
  5
3EB
100
AcDbEntity
  8
0
100
AcDbSpline
 62
7
  6
CONTINUOUS
 70
0
 71
3
 72
8
 73
4
 74
0
 42
0.0000001
 43
0.0000001
 44
0.0000000001
 40
0.0
 40
0.0
 40
0.0
 40
0.0
 40
1.0
 40
1.0
 40
1.0
 40
1.0
 10
546.1690211014
 20
260.3461053105
 30
0.0
 10
546.1857095882
 20
260.3503742888
 30
0.0
 10
546.201937979
 20
260.3567111474
 30
0.0
 10
546.2173498848
 20
260.3644054911
 30
0.0
  0
SPLINE
  5
3EC
100
AcDbEntity
  8
0
100
AcDbSpline
 62
7
  6
CONTINUOUS
 70
0
 71
3
 72
11
 73
7
 74
0
 42
0.0000001
 43
0.0000001
 44
0.0000000001
 40
0.0
 40
0.0
 40
0.0
 40
0.0
 40
0.2903553916
 40
0.5504562986
 40
0.7834700601
 40
1.0
 40
1.0
 40
1.0
 40
1.0
 10
556.4527496493
 20
267.3950182345
 30
0.0
 10
556.4517217285
 20
267.3019928801
 30
0.0
 10
556.4648217429
 20
267.1247922469
 30
0.0
 10
556.5380505009
 20
266.8820967486
 30
0.0
 10
556.6626234918
 20
266.6876612421
 30
0.0
 10
556.7799427446
 20
266.5977913158
 30
0.0
 10
556.8419798948
 20
266.5667338084
 30
0.0
  0
SPLINE
  5
3ED
100
AcDbEntity
  8
0
100
AcDbSpline
 62
7
  6
CONTINUOUS
 70
0
 71
3
 72
10
 73
6
 74
0
 42
0.0000001
 43
0.0000001
 44
0.0000000001
 40
0.0
 40
0.0
 40
0.0
 40
0.0
 40
0.533637861
 40
0.7719786244
 40
1.0
 40
1.0
 40
1.0
 40
1.0
 10
557.4603133683
 20
265.8431527769
 30
0.0
 10
557.2873156062
 20
265.7579612366
 30
0.0
 10
557.0116314289
 20
265.6703154709
 30
0.0
 10
556.6474909591
 20
265.6899394491
 30
0.0
 10
556.4851957148
 20
265.7441427049
 30
0.0
 10
556.4114954633
 20
265.7809901394
 30
0.0
  0
SPLINE
  5
3EE
100
AcDbEntity
  8
0
100
AcDbSpline
 62
7
  6
CONTINUOUS
 70
0
 71
3
 72
11
 73
7
 74
0
 42
0.0000001
 43
0.0000001
 44
0.0000000001
 40
0.0
 40
0.0
 40
0.0
 40
0.0
 40
0.2462170669
 40
0.5109600453
 40
0.7697044084
 40
1.0
 40
1.0
 40
1.0
 40
1.0
 10
559.1482478261
 20
268.7484008798
 30
0.0
 10
559.14956685
 20
268.4635442604
 30
0.0
 10
559.0535914924
 20
267.8709406276
 30
0.0
 10
558.7002902612
 20
267.0453569429
 30
0.0
 10
558.1786074473
 20
266.3371578559
 30
0.0
 10
557.7259837785
 20
265.9786608869
 30
0.0
 10
557.4886359744
 20
265.8575990331
 30
0.0
  0
SPLINE
  5
3EF
100
AcDbEntity
  8
0
100
AcDbSpline
 62
7
  6
CONTINUOUS
 70
0
 71
3
 72
9
 73
5
 74
0
 42
0.0000001
 43
0.0000001
 44
0.0000000001
 40
0.0
 40
0.0
 40
0.0
 40
0.0
 40
0.5171924328
 40
1.0
 40
1.0
 40
1.0
 40
1.0
 10
556.7515096564
 20
268.6218683994
 30
0.0
 10
556.635796094
 20
268.4382086639
 30
0.0
 10
556.4570527498
 20
268.0532353717
 30
0.0
 10
556.3820390072
 20
267.6330144129
 30
0.0
 10
556.3820389712
 20
267.4303735736
 30
0.0
  0
SPLINE
  5
3F0
100
AcDbEntity
  8
0
100
AcDbSpline
 62
7
  6
CONTINUOUS
 70
0
 71
3
 72
11
 73
7
 74
0
 42
0.0000001
 43
0.0000001
 44
0.0000000001
 40
0.0
 40
0.0
 40
0.0
 40
0.0
 40
0.290356518
 40
0.5504657746
 40
0.7834815304
 40
1.0
 40
1.0
 40
1.0
 40
1.0
 10
556.3820389712
 20
267.4303735736
 30
0.0
 10
556.3810109553
 20
267.3373396112
 30
0.0
 10
556.3941142648
 20
267.1601204738
 30
0.0
 10
556.4673578478
 20
266.9174002061
 30
0.0
 10
556.5919635239
 20
266.722961819
 30
0.0
 10
556.7092996861
 20
266.6330951809
 30
0.0
 10
556.771345267
 20
266.6020489878
 30
0.0
  0
SPLINE
  5
3F1
100
AcDbEntity
  8
0
100
AcDbSpline
 62
7
  6
CONTINUOUS
 70
0
 71
3
 72
9
 73
5
 74
0
 42
0.0000001
 43
0.0000001
 44
0.0000000001
 40
0.0
 40
0.0
 40
0.0
 40
0.0
 40
0.4700756647
 40
1.0
 40
1.0
 40
1.0
 40
1.0
 10
547.8284821977
 20
264.7921996989
 30
0.0
 10
547.9038607567
 20
264.7545086046
 30
0.0
 10
548.0441254132
 20
264.6305377693
 30
0.0
 10
548.1164083917
 20
264.4613634483
 30
0.0
 10
548.1410888551
 20
264.3696186868
 30
0.0
  0
SPLINE
  5
3F2
100
AcDbEntity
  8
0
100
AcDbSpline
 62
7
  6
CONTINUOUS
 70
0
 71
3
 72
9
 73
5
 74
0
 42
0.0000001
 43
0.0000001
 44
0.0000000001
 40
0.0
 40
0.0
 40
0.0
 40
0.0
 40
0.2376002785
 40
1.0
 40
1.0
 40
1.0
 40
1.0
 10
547.2512933616
 20
264.0709479228
 30
0.0
 10
547.2372328763
 20
264.068845941
 30
0.0
 10
547.1784554459
 20
264.0573500614
 30
0.0
 10
547.1218558985
 20
264.0358829333
 30
0.0
 10
547.0809185408
 20
264.0157551109
 30
0.0
  0
SPLINE
  5
3F3
100
AcDbEntity
  8
0
100
AcDbSpline
 62
7
  6
CONTINUOUS
 70
0
 71
3
 72
8
 73
4
 74
0
 42
0.0000001
 43
0.0000001
 44
0.0000000001
 40
0.0
 40
0.0
 40
0.0
 40
0.0
 40
1.0
 40
1.0
 40
1.0
 40
1.0
 10
547.3703137937
 20
264.065782673
 30
0.0
 10
547.3449945833
 20
264.0721301631
 30
0.0
 10
547.3185672758
 20
264.0748201272
 30
0.0
 10
547.2924697852
 20
264.0742966476
 30
0.0
  0
SPLINE
  5
3F4
100
AcDbEntity
  8
0
100
AcDbSpline
 62
7
  6
CONTINUOUS
 70
0
 71
3
 72
9
 73
5
 74
0
 42
0.0000001
 43
0.0000001
 44
0.0000000001
 40
0.0
 40
0.0
 40
0.0
 40
0.0
 40
0.2389095652
 40
1.0
 40
1.0
 40
1.0
 40
1.0
 10
543.281555991
 20
262.1960312322
 30
0.0
 10
543.2871095072
 20
262.1951223331
 30
0.0
 10
543.3105782546
 20
262.1926858938
 30
0.0
 10
543.3344466548
 20
262.1957235037
 30
0.0
 10
543.3517949467
 20
262.2002421832
 30
0.0
  0
SPLINE
  5
3F5
100
AcDbEntity
  8
0
100
AcDbSpline
 62
7
  6
CONTINUOUS
 70
0
 71
3
 72
8
 73
4
 74
0
 42
0.0000001
 43
0.0000001
 44
0.0000000001
 40
0.0
 40
0.0
 40
0.0
 40
0.0
 40
1.0
 40
1.0
 40
1.0
 40
1.0
 10
543.3517949467
 20
262.2002421832
 30
0.0
 10
543.3684826988
 20
262.2045888131
 30
0.0
 10
543.3847011552
 20
262.2110012901
 30
0.0
 10
543.4000980951
 20
262.2187671452
 30
0.0
  0
SPLINE
  5
3F6
100
AcDbEntity
  8
0
100
AcDbSpline
 62
7
  6
CONTINUOUS
 70
0
 71
3
 72
9
 73
5
 74
0
 42
0.0000001
 43
0.0000001
 44
0.0000000001
 40
0.0
 40
0.0
 40
0.0
 40
0.0
 40
0.4653302239
 40
1.0
 40
1.0
 40
1.0
 40
1.0
 10
557.9775477459
 20
269.3032960076
 30
0.0
 10
557.894736239
 20
269.3374201853
 30
0.0
 10
557.694854804
 20
269.3609956961
 30
0.0
 10
557.5077344366
 20
269.2988528603
 30
0.0
 10
557.415314015
 20
269.2535803423
 30
0.0
  0
SPLINE
  5
3F7
100
AcDbEntity
  8
0
100
AcDbSpline
 62
7
  6
CONTINUOUS
 70
0
 71
3
 72
9
 73
5
 74
0
 42
0.0000001
 43
0.0000001
 44
0.0000000001
 40
0.0
 40
0.0
 40
0.0
 40
0.0
 40
0.4717485929
 40
1.0
 40
1.0
 40
1.0
 40
1.0
 10
557.398989529
 20
269.2455837269
 30
0.0
 10
557.2719564129
 20
269.1808779593
 30
0.0
 10
557.027336067
 20
268.9948592462
 30
0.0
 10
556.8374742958
 20
268.7563841679
 30
0.0
 10
556.7515096564
 20
268.6218683994
 30
0.0
  0
SPLINE
  5
3F8
100
AcDbEntity
  8
0
100
AcDbSpline
 62
7
  6
CONTINUOUS
 70
0
 71
3
 72
9
 73
5
 74
0
 42
0.0000001
 43
0.0000001
 44
0.0000000001
 40
0.0
 40
0.0
 40
0.0
 40
0.0
 40
0.239038829
 40
1.0
 40
1.0
 40
1.0
 40
1.0
 10
544.1775925207
 20
259.3812271131
 30
0.0
 10
544.1831111901
 20
259.380321903
 30
0.0
 10
544.2064182853
 20
259.3778806804
 30
0.0
 10
544.2301266095
 20
259.3808255088
 30
0.0
 10
544.2473714178
 20
259.3852486151
 30
0.0
  0
SPLINE
  5
3F9
100
AcDbEntity
  8
0
100
AcDbSpline
 62
7
  6
CONTINUOUS
 70
0
 71
3
 72
8
 73
4
 74
0
 42
0.0000001
 43
0.0000001
 44
0.0000000001
 40
0.0
 40
0.0
 40
0.0
 40
0.0
 40
1.0
 40
1.0
 40
1.0
 40
1.0
 10
544.2473714178
 20
259.3852486151
 30
0.0
 10
544.2640685641
 20
259.3895312519
 30
0.0
 10
544.2803040182
 20
259.3958825583
 30
0.0
 10
544.2957218178
 20
259.4035914576
 30
0.0
  0
SPLINE
  5
3FA
100
AcDbEntity
  8
0
100
AcDbSpline
 62
7
  6
CONTINUOUS
 70
0
 71
3
 72
10
 73
6
 74
0
 42
0.0000001
 43
0.0000001
 44
0.0000000001
 40
0.0
 40
0.0
 40
0.0
 40
0.0
 40
0.2280724889
 40
0.4664371741
 40
1.0
 40
1.0
 40
1.0
 40
1.0
 10
575.1323491936
 20
280.9479409721
 30
0.0
 10
575.0652019532
 20
280.9815122105
 30
0.0
 10
574.9173639222
 20
281.0309234757
 30
0.0
 10
574.5856941223
 20
281.0489999546
 30
0.0
 10
574.3345309584
 20
280.9694228147
 30
0.0
 10
574.1768936924
 20
280.8919947371
 30
0.0
  0
SPLINE
  5
3FB
100
AcDbEntity
  8
0
100
AcDbSpline
 62
7
  6
CONTINUOUS
 70
0
 71
3
 72
11
 73
7
 74
0
 42
0.0000001
 43
0.0000001
 44
0.0000000001
 40
0.0
 40
0.0
 40
0.0
 40
0.0
 40
0.2883244842
 40
0.5483954426
 40
0.7827444179
 40
1.0
 40
1.0
 40
1.0
 40
1.0
 10
559.077537148
 20
268.7837562189
 30
0.0
 10
559.0775371247
 20
268.9214513998
 30
0.0
 10
559.056263625
 20
269.1842317401
 30
0.0
 10
558.9496976944
 20
269.5458804682
 30
0.0
 10
558.772052171
 20
269.8408039303
 30
0.0
 10
558.6050879748
 20
269.9847521342
 30
0.0
 10
558.5157842135
 20
270.0375715902
 30
0.0
  0
SPLINE
  5
3FC
100
AcDbEntity
  8
0
100
AcDbSpline
 62
7
  6
CONTINUOUS
 70
0
 71
3
 72
9
 73
5
 74
0
 42
0.0000001
 43
0.0000001
 44
0.0000000001
 40
0.0
 40
0.0
 40
0.0
 40
0.0
 40
0.5364583291
 40
1.0
 40
1.0
 40
1.0
 40
1.0
 10
562.9278226137
 20
271.9119187264
 30
0.0
 10
562.9020372071
 20
271.8989679089
 30
0.0
 10
562.8495220367
 20
271.8813572455
 30
0.0
 10
562.7935008024
 20
271.8906157199
 30
0.0
 10
562.7711987241
 20
271.9017633547
 30
0.0
  0
SPLINE
  5
3FD
100
AcDbEntity
  8
0
100
AcDbSpline
 62
7
  6
CONTINUOUS
 70
0
 71
3
 72
11
 73
7
 74
0
 42
0.0000001
 43
0.0000001
 44
0.0000000001
 40
0.0
 40
0.0
 40
0.0
 40
0.0
 40
0.2302957564
 40
0.4890399733
 40
0.7537827738
 40
1.0
 40
1.0
 40
1.0
 40
1.0
 10
557.4179252962
 20
265.8929543721
 30
0.0
 10
557.6552732438
 20
266.0140162991
 30
0.0
 10
558.1078966787
 20
266.3725136245
 30
0.0
 10
558.6295786353
 20
267.0807128681
 30
0.0
 10
558.9828804602
 20
267.9062958887
 30
0.0
 10
559.0788561726
 20
268.4988994468
 30
0.0
 10
559.077537148
 20
268.7837562189
 30
0.0
  0
SPLINE
  5
3FE
100
AcDbEntity
  8
0
100
AcDbSpline
 62
7
  6
CONTINUOUS
 70
0
 71
3
 72
9
 73
5
 74
0
 42
0.0000001
 43
0.0000001
 44
0.0000000001
 40
0.0
 40
0.0
 40
0.0
 40
0.0
 40
0.5363537198
 40
1.0
 40
1.0
 40
1.0
 40
1.0
 10
563.8235707069
 20
269.096805224
 30
0.0
 10
563.7977390598
 20
269.0838735289
 30
0.0
 10
563.7451335284
 20
269.0663094443
 30
0.0
 10
563.6890539775
 20
269.0756152272
 30
0.0
 10
563.6667172216
 20
269.0867802951
 30
0.0
  0
SPLINE
  5
3FF
100
AcDbEntity
  8
0
100
AcDbSpline
 62
7
  6
CONTINUOUS
 70
0
 71
3
 72
9
 73
5
 74
0
 42
0.0000001
 43
0.0000001
 44
0.0000000001
 40
0.0
 40
0.0
 40
0.0
 40
0.0
 40
0.5359868694
 40
1.0
 40
1.0
 40
1.0
 40
1.0
 10
565.7714126915
 20
270.0707262163
 30
0.0
 10
565.7457425272
 20
270.058022892
 30
0.0
 10
565.6934792665
 20
270.0408408721
 30
0.0
 10
565.6378964061
 20
270.0501951859
 30
0.0
 10
565.6157175694
 20
270.0612816828
 30
0.0
  0
SPLINE
  5
400
100
AcDbEntity
  8
0
100
AcDbSpline
 62
7
  6
CONTINUOUS
 70
0
 71
3
 72
10
 73
6
 74
0
 42
0.0000001
 43
0.0000001
 44
0.0000000001
 40
0.0
 40
0.0
 40
0.0
 40
0.0
 40
0.228072952
 40
0.4664353695
 40
1.0
 40
1.0
 40
1.0
 40
1.0
 10
575.0616937356
 20
280.9832679495
 30
0.0
 10
574.9945434954
 20
281.0168439452
 30
0.0
 10
574.8467018638
 20
281.066271863
 30
0.0
 10
574.5150107089
 20
281.0843653963
 30
0.0
 10
574.2638305948
 20
281.0047832201
 30
0.0
 10
574.1061830143
 20
280.9273500762
 30
0.0
  0
SPLINE
  5
401
100
AcDbEntity
  8
0
100
AcDbSpline
 62
7
  6
CONTINUOUS
 70
0
 71
3
 72
9
 73
5
 74
0
 42
0.0000001
 43
0.0000001
 44
0.0000000001
 40
0.0
 40
0.0
 40
0.0
 40
0.0
 40
0.2410630853
 40
1.0
 40
1.0
 40
1.0
 40
1.0
 10
572.3079576984
 20
273.4579166622
 30
0.0
 10
572.3136805788
 20
273.4567124435
 30
0.0
 10
572.3376840329
 20
273.4529801322
 30
0.0
 10
572.3623538585
 20
273.4543281033
 30
0.0
 10
572.3804767299
 20
273.4575774056
 30
0.0
  0
SPLINE
  5
402
100
AcDbEntity
  8
0
100
AcDbSpline
 62
7
  6
CONTINUOUS
 70
0
 71
3
 72
9
 73
5
 74
0
 42
0.0000001
 43
0.0000001
 44
0.0000000001
 40
0.0
 40
0.0
 40
0.0
 40
0.0
 40
0.2375210013
 40
1.0
 40
1.0
 40
1.0
 40
1.0
 10
572.3804767299
 20
273.4575774056
 30
0.0
 10
572.3870055348
 20
273.458747974
 30
0.0
 10
572.4142746109
 20
273.4648840664
 30
0.0
 10
572.4404208958
 20
273.4755528922
 30
0.0
 10
572.4593078658
 20
273.4853844816
 30
0.0
  0
SPLINE
  5
403
100
AcDbEntity
  8
0
100
AcDbSpline
 62
7
  6
CONTINUOUS
 70
0
 71
3
 72
9
 73
5
 74
0
 42
0.0000001
 43
0.0000001
 44
0.0000000001
 40
0.0
 40
0.0
 40
0.0
 40
0.0
 40
0.5376225109
 40
1.0
 40
1.0
 40
1.0
 40
1.0
 10
572.5300185439
 20
273.4500291426
 30
0.0
 10
572.4989423493
 20
273.4338524671
 30
0.0
 10
572.4356019177
 20
273.4115773833
 30
0.0
 10
572.3675134762
 20
273.422319596
 30
0.0
 10
572.3405599227
 20
273.4357876606
 30
0.0
  0
SPLINE
  5
404
100
AcDbEntity
  8
0
100
AcDbSpline
 62
7
  6
CONTINUOUS
 70
0
 71
3
 72
9
 73
5
 74
0
 42
0.0000001
 43
0.0000001
 44
0.0000000001
 40
0.0
 40
0.0
 40
0.0
 40
0.0
 40
0.5359868694
 40
1.0
 40
1.0
 40
1.0
 40
1.0
 10
567.0268101098
 20
270.6984249255
 30
0.0
 10
567.0011399455
 20
270.6857216011
 30
0.0
 10
566.9488766849
 20
270.6685395813
 30
0.0
 10
566.8932938244
 20
270.677893895
 30
0.0
 10
566.8711149877
 20
270.688980392
 30
0.0
  0
SPLINE
  5
405
100
AcDbEntity
  8
0
100
AcDbSpline
 62
7
  6
CONTINUOUS
 70
0
 71
3
 72
9
 73
5
 74
0
 42
0.0000001
 43
0.0000001
 44
0.0000000001
 40
0.0
 40
0.0
 40
0.0
 40
0.0
 40
0.2392055825
 40
1.0
 40
1.0
 40
1.0
 40
1.0
 10
565.5837289347
 20
270.0842142564
 30
0.0
 10
565.5891710909
 20
270.0833262311
 30
0.0
 10
565.6121345741
 20
270.0809208169
 30
0.0
 10
565.6354920092
 20
270.083746255
 30
0.0
 10
565.6524988053
 20
270.0880288429
 30
0.0
  0
SPLINE
  5
406
100
AcDbEntity
  8
0
100
AcDbSpline
 62
7
  6
CONTINUOUS
 70
0
 71
3
 72
8
 73
4
 74
0
 42
0.0000001
 43
0.0000001
 44
0.0000000001
 40
0.0
 40
0.0
 40
0.0
 40
0.0
 40
1.0
 40
1.0
 40
1.0
 40
1.0
 10
565.6524988053
 20
270.0880288429
 30
0.0
 10
565.6691369893
 20
270.0922186082
 30
0.0
 10
565.685324346
 20
270.098471651
 30
0.0
 10
565.7007020134
 20
270.1060815554
 30
0.0
  0
SPLINE
  5
407
100
AcDbEntity
  8
0
100
AcDbSpline
 62
7
  6
CONTINUOUS
 70
0
 71
3
 72
9
 73
5
 74
0
 42
0.0000001
 43
0.0000001
 44
0.0000000001
 40
0.0
 40
0.0
 40
0.0
 40
0.0
 40
0.5365321631
 40
1.0
 40
1.0
 40
1.0
 40
1.0
 10
569.1645401704
 20
271.7672899558
 30
0.0
 10
569.1193606888
 20
271.7445251432
 30
0.0
 10
569.0273421158
 20
271.7135328976
 30
0.0
 10
568.9291009773
 20
271.7296596516
 30
0.0
 10
568.8900057698
 20
271.749188409
 30
0.0
  0
SPLINE
  5
408
100
AcDbEntity
  8
0
100
AcDbSpline
 62
7
  6
CONTINUOUS
 70
0
 71
3
 72
9
 73
5
 74
0
 42
0.0000001
 43
0.0000001
 44
0.0000000001
 40
0.0
 40
0.0
 40
0.0
 40
0.0
 40
0.2418666189
 40
1.0
 40
1.0
 40
1.0
 40
1.0
 10
547.2996031156
 20
264.1011380121
 30
0.0
 10
547.2902531441
 20
264.1034820366
 30
0.0
 10
547.2510903497
 20
264.1111391568
 30
0.0
 10
547.2105021502
 20
264.1105155821
 30
0.0
 10
547.1805826835
 20
264.1063032618
 30
0.0
  0
SPLINE
  5
409
100
AcDbEntity
  8
0
100
AcDbSpline
 62
7
  6
CONTINUOUS
 70
0
 71
3
 72
9
 73
5
 74
0
 42
0.0000001
 43
0.0000001
 44
0.0000000001
 40
0.0
 40
0.0
 40
0.0
 40
0.0
 40
0.2376002785
 40
1.0
 40
1.0
 40
1.0
 40
1.0
 10
547.1805826835
 20
264.1063032618
 30
0.0
 10
547.1665221982
 20
264.1042012801
 30
0.0
 10
547.1077447678
 20
264.0927054004
 30
0.0
 10
547.0511452204
 20
264.0712382724
 30
0.0
 10
547.0102078627
 20
264.0511104499
 30
0.0
  0
SPLINE
  5
40A
100
AcDbEntity
  8
0
100
AcDbSpline
 62
7
  6
CONTINUOUS
 70
0
 71
3
 72
9
 73
5
 74
0
 42
0.0000001
 43
0.0000001
 44
0.0000000001
 40
0.0
 40
0.0
 40
0.0
 40
0.0
 40
0.5363537169
 40
1.0
 40
1.0
 40
1.0
 40
1.0
 10
559.8097252831
 20
267.0898825121
 30
0.0
 10
559.7838936468
 20
267.0769508237
 30
0.0
 10
559.7312881376
 20
267.0593867486
 30
0.0
 10
559.6752086116
 20
267.0686925286
 30
0.0
 10
559.6528718653
 20
267.0798575917
 30
0.0
  0
SPLINE
  5
40B
100
AcDbEntity
  8
0
100
AcDbSpline
 62
7
  6
CONTINUOUS
 70
0
 71
3
 72
9
 73
5
 74
0
 42
0.0000001
 43
0.0000001
 44
0.0000000001
 40
0.0
 40
0.0
 40
0.0
 40
0.0
 40
0.5364706246
 40
1.0
 40
1.0
 40
1.0
 40
1.0
 10
561.9469042969
 20
268.1584720191
 30
0.0
 10
561.9016979085
 20
268.1357370305
 30
0.0
 10
561.8096284176
 20
268.1048063019
 30
0.0
 10
561.7113719938
 20
268.1209738396
 30
0.0
 10
561.6722588262
 20
268.1405113876
 30
0.0
  0
SPLINE
  5
40C
100
AcDbEntity
  8
0
100
AcDbSpline
 62
7
  6
CONTINUOUS
 70
0
 71
3
 72
11
 73
7
 74
0
 42
0.0000001
 43
0.0000001
 44
0.0000000001
 40
0.0
 40
0.0
 40
0.0
 40
0.0
 40
0.2296818916
 40
0.4882214135
 40
0.7532101181
 40
1.0
 40
1.0
 40
1.0
 40
1.0
 10
541.8157464361
 20
264.7824025819
 30
0.0
 10
541.5956631469
 20
264.6723334617
 30
0.0
 10
541.1751268499
 20
264.3432881778
 30
0.0
 10
540.6895251083
 20
263.6900594411
 30
0.0
 10
540.3591239196
 20
262.9261908184
 30
0.0
 10
540.2678861352
 20
262.3769470922
 30
0.0
 10
540.2678861205
 20
262.1125453227
 30
0.0
  0
SPLINE
  5
40D
100
AcDbEntity
  8
0
100
AcDbSpline
 62
7
  6
CONTINUOUS
 70
0
 71
3
 72
9
 73
5
 74
0
 42
0.0000001
 43
0.0000001
 44
0.0000000001
 40
0.0
 40
0.0
 40
0.0
 40
0.0
 40
0.2456750913
 40
1.0
 40
1.0
 40
1.0
 40
1.0
 10
312.6489228414
 20
373.9449623283
 30
0.0
 10
312.6144240705
 20
373.9260150301
 30
0.0
 10
312.4780333673
 20
373.8416208591
 30
0.0
 10
312.3602558583
 20
373.7282675591
 30
0.0
 10
312.2854026026
 20
373.6333903636
 30
0.0
  0
SPLINE
  5
40E
100
AcDbEntity
  8
0
100
AcDbSpline
 62
7
  6
CONTINUOUS
 70
0
 71
3
 72
9
 73
5
 74
0
 42
0.0000001
 43
0.0000001
 44
0.0000000001
 40
0.0
 40
0.0
 40
0.0
 40
0.0
 40
0.2241891273
 40
1.0
 40
1.0
 40
1.0
 40
1.0
 10
312.2854026026
 20
373.6333903636
 30
0.0
 10
312.2224585876
 20
373.5536082411
 30
0.0
 10
311.9821881745
 20
373.1653060377
 30
0.0
 10
311.9077511363
 20
372.6942118971
 30
0.0
 10
311.9077511363
 20
372.3425451812
 30
0.0
  0
SPLINE
  5
40F
100
AcDbEntity
  8
0
100
AcDbSpline
 62
7
  6
CONTINUOUS
 70
0
 71
3
 72
9
 73
5
 74
0
 42
0.0000001
 43
0.0000001
 44
0.0000000001
 40
0.0
 40
0.0
 40
0.0
 40
0.0
 40
0.2695698366
 40
1.0
 40
1.0
 40
1.0
 40
1.0
 10
314.0290714799
 20
373.8799612208
 30
0.0
 10
313.9613853227
 20
373.9138042993
 30
0.0
 10
313.705012006
 20
374.0274935119
 30
0.0
 10
313.4223229415
 20
374.0896023243
 30
0.0
 10
313.2172773296
 20
374.0880915201
 30
0.0
  0
SPLINE
  5
410
100
AcDbEntity
  8
0
100
AcDbSpline
 62
7
  6
CONTINUOUS
 70
0
 71
3
 72
8
 73
4
 74
0
 42
0.0000001
 43
0.0000001
 44
0.0000000001
 40
0.0
 40
0.0
 40
0.0
 40
0.0
 40
1.0
 40
1.0
 40
1.0
 40
1.0
 10
313.0290935224
 20
374.0731599747
 30
0.0
 10
312.9110603813
 20
374.0549086719
 30
0.0
 10
312.7942753758
 20
374.0185771473
 30
0.0
 10
312.687448631
 20
373.9651638619
 30
0.0
  0
SPLINE
  5
411
100
AcDbEntity
  8
0
100
AcDbSpline
 62
7
  6
CONTINUOUS
 70
0
 71
3
 72
12
 73
8
 74
0
 42
0.0000001
 43
0.0000001
 44
0.0000000001
 40
0.0
 40
0.0
 40
0.0
 40
0.0
 40
0.3566394089
 40
0.5390036926
 40
0.7043146953
 40
0.8561153855
 40
1.0
 40
1.0
 40
1.0
 40
1.0
 10
602.1723307901
 20
506.3608346604
 30
0.0
 10
604.9299119588
 20
507.8527110663
 30
0.0
 10
609.2173500597
 20
510.5028316052
 30
0.0
 10
614.0040940947
 20
515.0340046098
 30
0.0
 10
616.7794681742
 20
518.8032535258
 30
0.0
 10
618.5392470347
 20
522.7604527921
 30
0.0
 10
618.996704418
 20
525.5137206415
 30
0.0
 10
619.0353266349
 20
526.8530602987
 30
0.0
  0
SPLINE
  5
412
100
AcDbEntity
  8
0
100
AcDbSpline
 62
7
  6
CONTINUOUS
 70
0
 71
3
 72
16
 73
12
 74
0
 42
0.0000001
 43
0.0000001
 44
0.0000000001
 40
0.0
 40
0.0
 40
0.0
 40
0.0
 40
0.0844059088
 40
0.1807253778
 40
0.2874834091
 40
0.4021269053
 40
0.5214343865
 40
0.6418308135
 40
0.7596623182
 40
0.8714624735
 40
1.0
 40
1.0
 40
1.0
 40
1.0
 10
506.432443906
 20
512.8610819969
 30
0.0
 10
508.5189638727
 20
510.9586068681
 30
0.0
 10
513.5022998039
 20
507.4450735716
 30
0.0
 10
522.2357400729
 20
503.3410502287
 30
0.0
 10
532.4140928965
 20
500.1785488892
 30
0.0
 10
543.6406119633
 20
498.0838220693
 30
0.0
 10
555.4773570845
 20
497.1379994429
 30
0.0
 10
567.4559550837
 20
497.3799896803
 30
0.0
 10
579.0988024398
 20
498.7992503135
 30
0.0
 10
590.7971946779
 20
501.537822252
 30
0.0
 10
598.3108572576
 20
504.4452055974
 30
0.0
 10
602.1723307901
 20
506.3608346604
 30
0.0
  0
SPLINE
  5
413
100
AcDbEntity
  8
0
100
AcDbSpline
 62
7
  6
CONTINUOUS
 70
0
 71
3
 72
18
 73
14
 74
0
 42
0.0000001
 43
0.0000001
 44
0.0000000001
 40
0.0
 40
0.0
 40
0.0
 40
0.0
 40
0.1721207949
 40
0.3054026389
 40
0.4351953015
 40
0.5578216454
 40
0.6701627455
 40
0.7700335805
 40
0.8567068354
 40
0.8955537843
 40
0.9319075687
 40
0.9664370217
 40
1.0
 40
1.0
 40
1.0
 40
1.0
 10
575.6520269888
 20
556.1439113333
 30
0.0
 10
570.5973152506
 20
556.8395187698
 30
0.0
 10
561.5242096649
 20
557.5183094549
 30
0.0
 10
548.5573965763
 20
557.0221996172
 30
0.0
 10
537.1700284917
 20
555.4304759031
 30
0.0
 10
526.6233983058
 20
552.7610803511
 30
0.0
 10
517.3155371519
 20
549.1130933172
 30
0.0
 10
509.5926881584
 20
544.6215915844
 30
0.0
 10
504.5247848165
 20
540.1192775662
 30
0.0
 10
501.6619076135
 20
536.2241962078
 30
0.0
 10
500.1600382648
 20
533.3067289687
 30
0.0
 10
499.2470617198
 20
530.3173881569
 30
0.0
 10
499.041670167
 20
528.2855475399
 30
0.0
 10
499.0415812775
 20
527.2867353047
 30
0.0
  0
SPLINE
  5
414
100
AcDbEntity
  8
0
100
AcDbSpline
 62
7
  6
CONTINUOUS
 70
0
 71
3
 72
16
 73
12
 74
0
 42
0.0000001
 43
0.0000001
 44
0.0000000001
 40
0.0
 40
0.0
 40
0.0
 40
0.0
 40
0.072026227
 40
0.1477118412
 40
0.2299977902
 40
0.3207819605
 40
0.4209626149
 40
0.5306290651
 40
0.6492542408
 40
0.7758530788
 40
1.0
 40
1.0
 40
1.0
 40
1.0
 10
619.0415633605
 20
527.2855911443
 30
0.0
 10
619.0415687442
 20
528.6300101537
 30
0.0
 10
618.6612198478
 20
531.3997000064
 30
0.0
 10
616.9942015184
 20
535.3987347432
 30
0.0
 10
614.2912055214
 20
539.2131165304
 30
0.0
 10
610.619895583
 20
542.7862927796
 30
0.0
 10
606.0495640731
 20
546.0712117985
 30
0.0
 10
600.6586884499
 20
549.0188204282
 30
0.0
 10
594.5396251602
 20
551.5817437961
 30
0.0
 10
586.1755127978
 20
554.2301743424
 30
0.0
 10
579.7489399643
 20
555.5224027854
 30
0.0
 10
575.6520269888
 20
556.1439113333
 30
0.0
  0
ENDSEC
  0
SECTION
  2
OBJECTS
  0
DICTIONARY
  5
C
100
AcDbDictionary
280
0
281
1
  3
ACAD_GROUP
350
D
  3
ACAD_MLINESTYLE
350
17
  3
ACAD_LAYOUT
350
1A
  3
ACAD_PLOTSETTINGS
350
19
  3
ACAD_PLOTSTYLENAME
350
E
  0
DICTIONARY
  5
D
102
{ACAD_REACTORS
330
C
102
}
100
AcDbDictionary
280
0
281
1
  0
ACDBDICTIONARYWDFLT
  5
E
102
{ACAD_REACTORS
330
C
102
}
100
AcDbDictionary
281
1
  3
Normal
350
F
100
AcDbDictionaryWithDefault
340
F
  0
DICTIONARY
  5
17
102
{ACAD_REACTORS
330
C
102
}
100
AcDbDictionary
280
0
281
1
  3
Standard
350
18
  0
DICTIONARY
  5
19
102
{ACAD_REACTORS
330
C
102
}
100
AcDbDictionary
281
1
  0
DICTIONARY
  5
1A
102
{ACAD_REACTORS
330
C
102
}
100
AcDbDictionary
281
1
  3
Model
350
415
  3
Layout1
350
416
  0
ACDBPLACEHOLDER
  5
F
102
{ACAD_REACTORS
330
E
102
}
  0
MLINESTYLE
  5
18
102
{ACAD_REACTORS
330
17
102
}
100
AcDbMlineStyle
  2
STANDARD
 70
0
  3

 62
256
 51
90.0
 52
90.0
 71
2
 49
0.5
 62
256
  6
BYLAYER
 49
-0.5
 62
256
  6
BYLAYER
  0
LAYOUT
  5
415
102
{ACAD_REACTORS
330
1A
102
}
100
AcDbPlotSettings
  1

  2
none_device
  4
ISO_A0_(1189.00_x_841.00_MM)
  6

 40
0.0
 41
0.0
 42
0.0
 43
0.0
 44
1189.0
 45
841.0
 46
0.0
 47
0.0
 48
0.0
 49
0.0
140
0.0
141
0.0
142
1.0
143
1.0
 70
1024
 72
1
 73
0
 74
0
  7

 75
0
147
1.0
148
0.0
149
0.0
100
AcDbLayout
  1
Model
 70
0
 71
0
 10
0.0
 20
0.0
 11
1189.0
 21
841.0
 12
0.0
 22
0.0
 32
0.0
 14
0.0
 24
0.0
 34
0.0
 15
0.0
 25
0.0
 35
0.0
146
0.0
 13
0.0
 23
0.0
 33
0.0
 16
1.0
 26
0.0
 36
0.0
 17
0.0
 27
1.0
 37
0.0
 76
0
330
228
345
0
346
0
  0
LAYOUT
  5
416
102
{ACAD_REACTORS
330
1A
102
}
100
AcDbPlotSettings
  1

  2
none_device
  4
ISO_A0_(1189.00_x_841.00_MM)
  6

 40
0.0
 41
0.0
 42
0.0
 43
0.0
 44
1189.0
 45
841.0
 46
0.0
 47
0.0
 48
0.0
 49
0.0
140
0.0
141
0.0
142
1.0
143
1.0
 70
0
 72
1
 73
0
 74
0
  7

 75
0
147
1.0
148
0.0
149
0.0
100
AcDbLayout
  1
Layout1
 70
0
 71
1
 10
0.0
 20
0.0
 11
1189.0
 21
841.0
 12
0.0
 22
0.0
 32
0.0
 14
0.0
 24
0.0
 34
0.0
 15
0.0
 25
0.0
 35
0.0
146
0.0
 13
0.0
 23
0.0
 33
0.0
 16
1.0
 26
0.0
 36
0.0
 17
0.0
 27
1.0
 37
0.0
 76
0
330
229
345
0
346
0
  0
ENDSEC
  0
EOF
