999
DXF file: W:\Engenharia\Montagens\Cooktops\Vitroceramico\94748-220\94748.dxf
999
Pro/ENGINEER 2013050 by Parametric Technology Corporation
  0
SECTION
  2
HEADER
  9
$ACADVER
  1
AC1021
  9
$DWGCODEPAGE
  3
ANSI_1252
  9
$EXTMAX
 10
1189.0
 20
841.0
 30
0.0
  9
$EXTMIN
 10
0.0
 20
0.0
 30
0.0
  9
$LIMMIN
 10
0.0
 20
0.0
  9
$LIMMAX
 10
1189.0
 20
841.0
  9
$VIEWCTR
 10
594.5
 20
420.5
  9
$VIEWSIZE
 40
841.0
  9
$CLAYER
  8
0
  9
$LTSCALE
 40
65.395
  9
$CELTYPE
  6
BYLAYER
  9
$DIMSCALE
 40
1.0
  9
$DIMASZ
 40
3.0
  9
$DIMEXO
 40
0.5
  9
$DIMDLI
 40
45.182
  9
$DIMEXE
 40
0.5
  9
$DIMCEN
 40
10.701
  9
$DIMLFAC
 40
1.0
  9
$DIMBLK
  1
_FILLED
  9
$DIMTXT
 40
1.8
  9
$DIMTOL
 70
1
  9
$DIMLIM
 70
0
  9
$DIMTFAC
 40
1.0
  9
$DIMTP
 40
0.001
  9
$DIMTM
 40
0.001
  9
$DIMGAP
 40
0.625
  9
$DIMDSEP
 70
46
  9
$PDMODE
 70
3
  9
$PDSIZE
 40
1.0
  9
$HANDSEED
  5
36B
  9
$TILEMODE
 70
1
  9
$MEASUREMENT
 70
1
  9
$INSUNITS
 70
4
  0
ENDSEC
  0
SECTION
  2
CLASSES
  0
CLASS
  1
ACDBDICTIONARYWDFLT
  2
AcDbDictionaryWithDefault
  3
AutoCAD 2000
 90
0
 91
1
280
0
281
0
  0
CLASS
  1
ACDBPLACEHOLDER
  2
AcDbPlaceHolder
  3
AutoCAD 2000
 90
0
 91
1
280
0
281
0
  0
CLASS
  1
LAYOUT
  2
AcDbLayout
  3
AutoCAD 2000
 90
0
 91
0
280
0
281
0
  0
ENDSEC
  0
SECTION
  2
TABLES
  0
TABLE
  2
VPORT
  5
8
100
AcDbSymbolTable
 70
2
  0
VPORT
  5
1F4
100
AcDbSymbolTableRecord
100
AcDbViewportTableRecord
  2
*ACTIVE
 70
0
 10
0.0
 20
0.0
 11
1.0
 21
1.0
 12
594.5
 22
420.5
 13
0.0
 23
0.0
 14
1.0
 24
1.0
 15
0.0
 25
0.0
 16
0.0
 26
0.0
 36
1.0
 17
0.0
 27
0.0
 37
0.0
 40
841.0
 41
1.4137931034
 42
50.0
 43
0.0
 44
0.0
 50
0.0
 51
0.0
 71
0
 72
100
 73
1
 74
1
 75
0
 76
0
 77
0
 78
0
  0
ENDTAB
  0
TABLE
  2
LTYPE
  5
5
100
AcDbSymbolTable
 70
6
  0
LTYPE
  5
14
100
AcDbSymbolTableRecord
100
AcDbLinetypeTableRecord
  2
BYBLOCK
 70
0
  3

 72
65
 73
0
 40
0.0
  0
LTYPE
  5
15
100
AcDbSymbolTableRecord
100
AcDbLinetypeTableRecord
  2
BYLAYER
 70
0
  3

 72
65
 73
0
 40
0.0
  0
LTYPE
  5
16
100
AcDbSymbolTableRecord
100
AcDbLinetypeTableRecord
  2
CONTINUOUS
 70
64
  3
Solid line
 72
65
 73
0
 40
0.0
  0
LTYPE
  5
1F5
100
AcDbSymbolTableRecord
100
AcDbLinetypeTableRecord
  2
CENTER
 70
64
  3
____ _ ____ _ ____ _ ____ _ ____ _ ____ _ ____
 72
65
 73
4
 40
0.6
 49
0.375
 74
0
 49
-0.075
 74
0
 49
0.075
 74
0
 49
-0.075
 74
0
  0
LTYPE
  5
1F6
100
AcDbSymbolTableRecord
100
AcDbLinetypeTableRecord
  2
HIDDEN
 70
64
  3
- - - - - - - - - - - - - - - - - - - -
 72
65
 73
2
 40
0.2
 49
0.1
 74
0
 49
-0.1
 74
0
  0
LTYPE
  5
1F7
100
AcDbSymbolTableRecord
100
AcDbLinetypeTableRecord
  2
PHANTOM
 70
64
  3
_____ _ _ _____ _ _ _____ _ _ _____
 72
65
 73
6
 40
0.8
 49
0.45
 74
0
 49
-0.05
 74
0
 49
0.1
 74
0
 49
-0.05
 74
0
 49
0.1
 74
0
 49
-0.05
 74
0
  0
LTYPE
  5
1F8
100
AcDbSymbolTableRecord
100
AcDbLinetypeTableRecord
  2
DOT
 70
64
  3
. . . . . . . . . . . . . . . . . . . .
 72
65
 73
2
 40
0.2
 49
0.1
 74
0
 49
-0.1
 74
0
  0
LTYPE
  5
1F9
100
AcDbSymbolTableRecord
100
AcDbLinetypeTableRecord
  2
DASHED
 70
64
  3
- - - - - - - - - - - - - - - - - - - -
 72
65
 73
2
 40
0.2
 49
0.1
 74
0
 49
-0.1
 74
0
  0
ENDTAB
  0
TABLE
  2
LAYER
  5
2
100
AcDbSymbolTable
 70
36
  0
LAYER
  5
10
100
AcDbSymbolTableRecord
100
AcDbLayerTableRecord
  2
0
 70
0
 62
7
  6
CONTINUOUS
370
-3
390
F
  0
LAYER
  5
1FA
100
AcDbSymbolTableRecord
100
AcDbLayerTableRecord
  2
DEFAULT_1
 70
0
 62
7
  6
CENTER
370
-3
390
F
  0
LAYER
  5
1FB
100
AcDbSymbolTableRecord
100
AcDbLayerTableRecord
  2
DEFAULT_2
 70
0
 62
8
  6
HIDDEN
370
-3
390
F
  0
LAYER
  5
1FC
100
AcDbSymbolTableRecord
100
AcDbLayerTableRecord
  2
DEFAULT_3
 70
0
 62
7
  6
PHANTOM
370
-3
390
F
  0
LAYER
  5
1FD
100
AcDbSymbolTableRecord
100
AcDbLayerTableRecord
  2
01_ALL_DTM_PLN
 70
0
 62
7
  6
CONTINUOUS
370
-3
390
F
  0
LAYER
  5
1FE
100
AcDbSymbolTableRecord
100
AcDbLayerTableRecord
  2
01__ASM_ALL_DTM_PLN
 70
0
 62
7
  6
CONTINUOUS
370
-3
390
F
  0
LAYER
  5
1FF
100
AcDbSymbolTableRecord
100
AcDbLayerTableRecord
  2
01__ASM_DEF_DTM_PLN
 70
0
 62
7
  6
CONTINUOUS
370
-3
390
F
  0
LAYER
  5
200
100
AcDbSymbolTableRecord
100
AcDbLayerTableRecord
  2
01___PRT_ALL_DTM_PLN
 70
0
 62
7
  6
CONTINUOUS
370
-3
390
F
  0
LAYER
  5
201
100
AcDbSymbolTableRecord
100
AcDbLayerTableRecord
  2
01___PRT_DEF_DTM_PLN
 70
0
 62
7
  6
CONTINUOUS
370
-3
390
F
  0
LAYER
  5
202
100
AcDbSymbolTableRecord
100
AcDbLayerTableRecord
  2
02_ALL_AXES
 70
0
 62
7
  6
CONTINUOUS
370
-3
390
F
  0
LAYER
  5
203
100
AcDbSymbolTableRecord
100
AcDbLayerTableRecord
  2
02__ASM_ALL_AXES
 70
0
 62
7
  6
CONTINUOUS
370
-3
390
F
  0
LAYER
  5
204
100
AcDbSymbolTableRecord
100
AcDbLayerTableRecord
  2
02___PRT_ALL_AXES
 70
0
 62
7
  6
CONTINUOUS
370
-3
390
F
  0
LAYER
  5
205
100
AcDbSymbolTableRecord
100
AcDbLayerTableRecord
  2
03_ALL_CURVES
 70
0
 62
7
  6
CONTINUOUS
370
-3
390
F
  0
LAYER
  5
206
100
AcDbSymbolTableRecord
100
AcDbLayerTableRecord
  2
03__ASM_ALL_CURVES
 70
0
 62
7
  6
CONTINUOUS
370
-3
390
F
  0
LAYER
  5
207
100
AcDbSymbolTableRecord
100
AcDbLayerTableRecord
  2
03___PRT_ALL_CURVES
 70
0
 62
7
  6
CONTINUOUS
370
-3
390
F
  0
LAYER
  5
208
100
AcDbSymbolTableRecord
100
AcDbLayerTableRecord
  2
04_ALL_DTM_PNT
 70
0
 62
7
  6
CONTINUOUS
370
-3
390
F
  0
LAYER
  5
209
100
AcDbSymbolTableRecord
100
AcDbLayerTableRecord
  2
04__ASM_ALL_DTM_PNT
 70
0
 62
7
  6
CONTINUOUS
370
-3
390
F
  0
LAYER
  5
20A
100
AcDbSymbolTableRecord
100
AcDbLayerTableRecord
  2
04___PRT_ALL_DTM_PNT
 70
0
 62
7
  6
CONTINUOUS
370
-3
390
F
  0
LAYER
  5
20B
100
AcDbSymbolTableRecord
100
AcDbLayerTableRecord
  2
05_ALL_DTM_CSYS
 70
0
 62
7
  6
CONTINUOUS
370
-3
390
F
  0
LAYER
  5
20C
100
AcDbSymbolTableRecord
100
AcDbLayerTableRecord
  2
05__ASM_ALL_DTM_CSYS
 70
0
 62
7
  6
CONTINUOUS
370
-3
390
F
  0
LAYER
  5
20D
100
AcDbSymbolTableRecord
100
AcDbLayerTableRecord
  2
05__ASM_DEF_DTM_CSYS
 70
0
 62
7
  6
CONTINUOUS
370
-3
390
F
  0
LAYER
  5
20E
100
AcDbSymbolTableRecord
100
AcDbLayerTableRecord
  2
05___PRT_ALL_DTM_CSYS
 70
0
 62
7
  6
CONTINUOUS
370
-3
390
F
  0
LAYER
  5
20F
100
AcDbSymbolTableRecord
100
AcDbLayerTableRecord
  2
05___PRT_DEF_DTM_CSYS
 70
0
 62
7
  6
CONTINUOUS
370
-3
390
F
  0
LAYER
  5
210
100
AcDbSymbolTableRecord
100
AcDbLayerTableRecord
  2
06_ALL_SURFS
 70
0
 62
7
  6
CONTINUOUS
370
-3
390
F
  0
LAYER
  5
211
100
AcDbSymbolTableRecord
100
AcDbLayerTableRecord
  2
06__ASM_ALL_SURFS
 70
0
 62
7
  6
CONTINUOUS
370
-3
390
F
  0
LAYER
  5
212
100
AcDbSymbolTableRecord
100
AcDbLayerTableRecord
  2
06___PRT_ALL_SURFS
 70
0
 62
7
  6
CONTINUOUS
370
-3
390
F
  0
LAYER
  5
213
100
AcDbSymbolTableRecord
100
AcDbLayerTableRecord
  2
07__ASM_ALL_SKELETONS
 70
0
 62
7
  6
CONTINUOUS
370
-3
390
F
  0
ENDTAB
  0
TABLE
  2
STYLE
  5
3
100
AcDbSymbolTable
 70
1
  0
STYLE
  5
11
100
AcDbSymbolTableRecord
100
AcDbTextStyleTableRecord
  2
STANDARD
 70
0
 40
0.0
 41
0.8
 50
0.0
 71
0
 42
0.2
  3
txt
  4

  0
STYLE
  5
214
100
AcDbSymbolTableRecord
100
AcDbTextStyleTableRecord
  2
TEXTSTYLE_1
 70
0
 40
0.0
 41
0.8
 50
0.0
 71
0
 42
0.2
  3
gdt
  4

  0
ENDTAB
  0
TABLE
  2
VIEW
  5
6
100
AcDbSymbolTable
 70
0
  0
ENDTAB
  0
TABLE
  2
UCS
  5
7
100
AcDbSymbolTable
 70
0
  0
ENDTAB
  0
TABLE
  2
APPID
  5
9
100
AcDbSymbolTable
 70
1
  0
APPID
  5
215
100
AcDbSymbolTableRecord
100
AcDbRegAppTableRecord
  2
ACAD
 70
0
  0
ENDTAB
  0
TABLE
  2
BLOCK_RECORD
  5
1
100
AcDbSymbolTable
 70
0
  0
BLOCK_RECORD
  5
216
100
AcDbSymbolTableRecord
100
AcDbBlockTableRecord
  2
*Model_Space
  0
BLOCK_RECORD
  5
217
100
AcDbSymbolTableRecord
100
AcDbBlockTableRecord
  2
*Paper_Space
  0
BLOCK_RECORD
  5
218
100
AcDbSymbolTableRecord
100
AcDbBlockTableRecord
  2
_FILLED
  0
BLOCK_RECORD
  5
219
100
AcDbSymbolTableRecord
100
AcDbBlockTableRecord
  2
*D0
  0
BLOCK_RECORD
  5
21A
100
AcDbSymbolTableRecord
100
AcDbBlockTableRecord
  2
*D1
  0
ENDTAB
  0
TABLE
  2
DIMSTYLE
  5
A
100
AcDbSymbolTable
 70
1
100
AcDbDimStyleTable
 71
0
  0
DIMSTYLE
105
21B
100
AcDbSymbolTableRecord
100
AcDbDimStyleTableRecord
  2
STANDARD
 70
0
  3

  4

 40
1.0
 41
3.0
 42
0.5
 43
0.38
 44
0.5
 45
0.0
 46
0.0
 47
0.001
 48
0.001
140
1.8
141
0.09
142
0.0
143
25.4
144
1.0
145
0.0
146
1.0
147
0.625
 71
1.0
 72
0.0
 73
0
 74
0
 75
0
 76
0
 77
1
 78
8
170
0
171
2
172
0
173
0
174
0
175
0
176
0
177
0
178
0
270
2
271
3
272
3
273
2
274
2
275
0
280
0
281
0
282
0
283
1
284
8
285
0
286
0
287
3
288
0
340
11
278
46
341
218
342
218
343
218
344
218
  0
DIMSTYLE
105
21C
100
AcDbSymbolTableRecord
100
AcDbDimStyleTableRecord
  2
DIMSTYLE_1
 70
0
  3

  4

 40
1.0
 41
3.0
 42
0.5
 43
0.38
 44
0.5
 45
0.0
 46
0.0
 47
0.001
 48
0.001
140
10.0
141
0.09
142
0.0
143
25.4
144
1.0
145
0.0
146
1.0
147
2.5
 71
0.0
 72
0.0
 73
0
 74
0
 75
0
 76
0
 77
1
 78
8
170
0
171
2
172
0
173
0
174
0
175
0
176
0
177
0
178
0
270
2
271
3
272
3
273
2
274
2
275
0
280
0
281
0
282
0
283
1
284
8
285
0
286
0
287
3
288
0
340
11
278
46
341
218
342
218
343
218
344
218
  0
ENDTAB
  0
ENDSEC
  0
SECTION
  2
BLOCKS
  0
BLOCK
  5
20
100
AcDbEntity
  8
0
100
AcDbBlockBegin
  2
*Model_Space
 70
0
 10
0.0
 20
0.0
 30
0.0
  3
*Model_Space
  1

  0
ENDBLK
  5
21
100
AcDbEntity
  8
0
100
AcDbBlockEnd
  0
BLOCK
  5
1C
100
AcDbEntity
  8
0
100
AcDbBlockBegin
  2
*Paper_Space
 70
0
 10
0.0
 20
0.0
 30
0.0
  3
*Paper_Space
  1

  0
ENDBLK
  5
1D
100
AcDbEntity
  8
0
100
AcDbBlockEnd
  0
BLOCK
  5
21D
100
AcDbEntity
  8
0
100
AcDbBlockBegin
  2
_FILLED
 70
64
 10
0.0
 20
0.0
  3
_FILLED
  1

  0
SOLID
  5
21E
100
AcDbEntity
  8
0
  6
BYBLOCK
 62
0
100
AcDbTrace
 10
0.0
 20
0.0
 11
-1.0
 21
0.1666666667
 12
-1.0
 22
-0.1666666667
 13
-1.0
 23
-0.1666666667
  0
ENDBLK
  5
21F
100
AcDbEntity
  8
0
  6
BYBLOCK
 62
0
100
AcDbBlockEnd
  0
BLOCK
  5
220
100
AcDbEntity
  8
0
100
AcDbBlockBegin
 62
2
  6
CONTINUOUS
  2
*D0
 70
65
 10
0.0
 20
0.0
  3
*D0
  1

  0
MTEXT
  5
221
100
AcDbEntity
  8
0
100
AcDbMText
 62
2
  6
CONTINUOUS
  7
STANDARD
 71
2
 72
1
 10
766.7036622652
 20
403.0743641439
 30
0.0
 11
0.0
 21
1.0
 31
0.0
 44
0.9
  1
520
 40
10.0
 41
46.2857142857
  0
LINE
  5
222
100
AcDbEntity
  8
0
100
AcDbLine
 62
2
  6
CONTINUOUS
 10
736.4893765509
 20
663.0743641439
 11
781.4893765509
 21
663.0743641439
  0
LINE
  5
223
100
AcDbEntity
  8
0
100
AcDbLine
 62
2
  6
CONTINUOUS
 10
736.4893765509
 20
143.0743641439
 11
781.4893765509
 21
143.0743641439
  0
LINE
  5
224
100
AcDbEntity
  8
0
100
AcDbLine
 62
2
  6
CONTINUOUS
 10
780.9893765509
 20
663.0743641439
 11
780.9893765509
 21
403.0743641439
  0
LINE
  5
225
100
AcDbEntity
  8
0
100
AcDbLine
 62
2
  6
CONTINUOUS
 10
780.9893765509
 20
143.0743641439
 11
780.9893765509
 21
403.0743641439
  0
INSERT
  5
226
100
AcDbEntity
  8
0
100
AcDbBlockReference
 62
2
  6
CONTINUOUS
  2
_FILLED
 10
780.9893765509
 20
663.0743641439
 41
3.0
 42
3.0
 43
3.0
 50
90.0
  0
INSERT
  5
227
100
AcDbEntity
  8
0
100
AcDbBlockReference
 62
2
  6
CONTINUOUS
  2
_FILLED
 10
780.9893765509
 20
143.0743641439
 41
3.0
 42
3.0
 43
3.0
 50
270.0
  0
ENDBLK
  5
228
100
AcDbEntity
  8
0
  6
BYBLOCK
 62
0
100
AcDbBlockEnd
  0
BLOCK
  5
229
100
AcDbEntity
  8
0
100
AcDbBlockBegin
 62
2
  6
CONTINUOUS
  2
*D1
 70
65
 10
0.0
 20
0.0
  3
*D1
  1

  0
MTEXT
  5
22A
100
AcDbEntity
  8
0
100
AcDbMText
 62
2
  6
CONTINUOUS
  7
STANDARD
 71
2
 72
1
 10
596.9893765509
 20
717.3600784296
 30
0.0
 11
1.0
 21
0.0
 31
0.0
 44
0.9
  1
290
 40
10.0
 41
46.2857142857
  0
LINE
  5
22B
100
AcDbEntity
  8
0
100
AcDbLine
 62
2
  6
CONTINUOUS
 10
740.9893765509
 20
658.5743641439
 11
740.9893765509
 21
703.5743641439
  0
LINE
  5
22C
100
AcDbEntity
  8
0
100
AcDbLine
 62
2
  6
CONTINUOUS
 10
452.9893765509
 20
658.5743641439
 11
452.9893765509
 21
703.5743641439
  0
LINE
  5
22D
100
AcDbEntity
  8
0
100
AcDbLine
 62
2
  6
CONTINUOUS
 10
740.9893765509
 20
703.0743641439
 11
596.9893765509
 21
703.0743641439
  0
LINE
  5
22E
100
AcDbEntity
  8
0
100
AcDbLine
 62
2
  6
CONTINUOUS
 10
452.9893765509
 20
703.0743641439
 11
596.9893765509
 21
703.0743641439
  0
INSERT
  5
22F
100
AcDbEntity
  8
0
100
AcDbBlockReference
 62
2
  6
CONTINUOUS
  2
_FILLED
 10
740.9893765509
 20
703.0743641439
 41
3.0
 42
3.0
 43
3.0
  0
INSERT
  5
230
100
AcDbEntity
  8
0
100
AcDbBlockReference
 62
2
  6
CONTINUOUS
  2
_FILLED
 10
452.9893765509
 20
703.0743641439
 41
3.0
 42
3.0
 43
3.0
 50
180.0
  0
ENDBLK
  5
231
100
AcDbEntity
  8
0
  6
BYBLOCK
 62
0
100
AcDbBlockEnd
  0
ENDSEC
  0
SECTION
  2
ENTITIES
  0
DIMENSION
  5
232
100
AcDbEntity
  8
0
100
AcDbDimension
 62
2
  6
CONTINUOUS
  2
*D0
 10
780.9893765509
 20
143.0743641439
 11
780.9893765509
 21
403.0743641439
 70
160
 71
2
 42
520.0
  3
DIMSTYLE_1
100
AcDbAlignedDimension
 13
735.9893765509
 23
663.0743641439
 14
735.9893765509
 24
143.0743641439
 50
270.0
100
AcDbRotatedDimension
  0
DIMENSION
  5
233
100
AcDbEntity
  8
0
100
AcDbDimension
 62
2
  6
CONTINUOUS
  2
*D1
 10
452.9893765509
 20
703.0743641439
 11
596.9893765509
 21
703.0743641439
 70
160
 71
2
 42
288.0
  3
DIMSTYLE_1
100
AcDbAlignedDimension
 13
740.9893765509
 23
658.0743641439
 14
452.9893765509
 24
658.0743641439
 50
180.0
100
AcDbRotatedDimension
  0
LINE
  5
234
100
AcDbEntity
  8
0
100
AcDbLine
 62
7
  6
CONTINUOUS
 10
457.9893765509
 20
143.0743641439
 11
735.9893765509
 21
143.0743641439
  0
LINE
  5
235
100
AcDbEntity
  8
03___PRT_ALL_CURVES
100
AcDbLine
 62
7
420
16777202
  6
CONTINUOUS
 10
673.5206875808
 20
166.6701893983
 11
719.5206360285
 21
166.6701893983
  0
LINE
  5
236
100
AcDbEntity
  8
03___PRT_ALL_CURVES
100
AcDbLine
 62
7
420
16777202
  6
CONTINUOUS
 10
702.7809170656
 20
169.1713287206
 11
701.7983758333
 21
169.1713287206
  0
LINE
  5
237
100
AcDbEntity
  8
03___PRT_ALL_CURVES
100
AcDbLine
 62
7
420
16777202
  6
CONTINUOUS
 10
699.7933302608
 20
169.1713287206
 11
698.8101000094
 21
169.1713287206
  0
LINE
  5
238
100
AcDbEntity
  8
03___PRT_ALL_CURVES
100
AcDbLine
 62
7
420
16777202
  6
CONTINUOUS
 10
717.7653598787
 20
169.1720177397
 11
716.805211767
 21
169.1720177397
  0
LINE
  5
239
100
AcDbEntity
  8
03___PRT_ALL_CURVES
100
AcDbLine
 62
7
420
16777202
  6
CONTINUOUS
 10
714.28477991
 20
169.1720177397
 11
713.3253208174
 21
169.1720177397
  0
LINE
  5
23A
100
AcDbEntity
  8
03___PRT_ALL_CURVES
100
AcDbLine
 62
7
420
16777202
  6
CONTINUOUS
 10
708.1087572336
 20
169.1720177397
 11
707.1255269821
 21
169.1720177397
  0
LINE
  5
23B
100
AcDbEntity
  8
03___PRT_ALL_CURVES
100
AcDbLine
 62
7
420
16777202
  6
CONTINUOUS
 10
705.4432868567
 20
169.1720177397
 11
704.4617791529
 21
169.1720177397
  0
LINE
  5
23C
100
AcDbEntity
  8
03___PRT_ALL_CURVES
100
AcDbLine
 62
7
420
16777202
  6
CONTINUOUS
 10
678.1188565249
 20
169.1720177397
 11
677.135970783
 21
169.1720177397
  0
LINE
  5
23D
100
AcDbEntity
  8
03___PRT_ALL_CURVES
100
AcDbLine
 62
7
420
16777202
  6
CONTINUOUS
 10
712.8278490293
 20
169.1727067588
 11
711.8449632873
 21
169.1727067588
  0
LINE
  5
23E
100
AcDbEntity
  8
03___PRT_ALL_CURVES
100
AcDbLine
 62
7
420
16777202
  6
CONTINUOUS
 10
709.8402622245
 20
169.1727067588
 11
708.857031973
 21
169.1727067588
  0
LINE
  5
23F
100
AcDbEntity
  8
03___PRT_ALL_CURVES
100
AcDbLine
 62
7
420
16777202
  6
CONTINUOUS
 10
693.6810418509
 20
169.1727067588
 11
692.7181376628
 21
169.1727067588
  0
LINE
  5
240
100
AcDbEntity
  8
03___PRT_ALL_CURVES
100
AcDbLine
 62
7
420
16777202
  6
CONTINUOUS
 10
691.2598287439
 20
169.1727067588
 11
690.685875836
 21
169.1727067588
  0
LINE
  5
241
100
AcDbEntity
  8
03___PRT_ALL_CURVES
100
AcDbLine
 62
7
420
16777202
  6
CONTINUOUS
 10
689.2265333885
 20
169.1727067588
 11
688.2643182195
 21
169.1727067588
  0
LINE
  5
242
100
AcDbEntity
  8
03___PRT_ALL_CURVES
100
AcDbLine
 62
7
420
16777202
  6
CONTINUOUS
 10
687.884668697
 20
169.1727067588
 11
686.9248650948
 21
169.1727067588
  0
LINE
  5
243
100
AcDbEntity
  8
03___PRT_ALL_CURVES
100
AcDbLine
 62
7
420
16777202
  6
CONTINUOUS
 10
684.4040887282
 20
169.1727067588
 11
683.4453186547
 21
169.1727067588
  0
LINE
  5
244
100
AcDbEntity
  8
03___PRT_ALL_CURVES
100
AcDbLine
 62
7
420
16777202
  6
CONTINUOUS
 10
683.0701477563
 20
169.1727067588
 11
681.9787415066
 21
169.1727067588
  0
LINE
  5
245
100
AcDbEntity
  8
03___PRT_ALL_CURVES
100
AcDbLine
 62
7
420
16777202
  6
CONTINUOUS
 10
680.7829488637
 20
169.1727067588
 11
679.8004076313
 21
169.1727067588
  0
LINE
  5
246
100
AcDbEntity
  8
03___PRT_ALL_CURVES
100
AcDbLine
 62
7
420
16777202
  6
CONTINUOUS
 10
716.4517449702
 20
170.0718766805
 11
714.6389357259
 21
170.0718766805
  0
LINE
  5
247
100
AcDbEntity
  8
03___PRT_ALL_CURVES
100
AcDbLine
 62
7
420
16777202
  6
CONTINUOUS
 10
686.571398298
 20
170.0718766805
 11
684.7582445441
 21
170.0718766805
  0
LINE
  5
248
100
AcDbEntity
  8
03___PRT_ALL_CURVES
100
AcDbLine
 62
7
420
16777202
  6
CONTINUOUS
 10
714.9565735296
 20
170.8807851004
 11
716.1337626569
 21
170.8807851004
  0
LINE
  5
249
100
AcDbEntity
  8
03___PRT_ALL_CURVES
100
AcDbLine
 62
7
420
16777202
  6
CONTINUOUS
 10
685.076571367
 20
170.8814741195
 11
686.2537604943
 21
170.8814741195
  0
LINE
  5
24A
100
AcDbEntity
  8
03___PRT_ALL_CURVES
100
AcDbLine
 62
7
420
16777202
  6
CONTINUOUS
 10
680.7815708255
 20
171.6676449092
 11
681.161220348
 21
171.6676449092
  0
LINE
  5
24B
100
AcDbEntity
  8
03___PRT_ALL_CURVES
100
AcDbLine
 62
7
420
16777202
  6
CONTINUOUS
 10
706.4988641133
 20
172.8562028516
 11
705.4432868567
 21
172.8562028516
  0
LINE
  5
24C
100
AcDbEntity
  8
03___PRT_ALL_CURVES
100
AcDbLine
 62
7
420
16777202
  6
CONTINUOUS
 10
704.4617791529
 20
172.8562028516
 11
703.4068909153
 21
172.8562028516
  0
LINE
  5
24D
100
AcDbEntity
  8
03___PRT_ALL_CURVES
100
AcDbLine
 62
7
420
16777202
  6
CONTINUOUS
 10
681.161220348
 20
172.8562028516
 11
680.7815708255
 21
172.8562028516
  0
LINE
  5
24E
100
AcDbEntity
  8
03___PRT_ALL_CURVES
100
AcDbLine
 62
7
420
16777202
  6
CONTINUOUS
 10
679.1737447625
 20
172.8562028516
 11
678.1188565249
 21
172.8562028516
  0
LINE
  5
24F
100
AcDbEntity
  8
03___PRT_ALL_CURVES
100
AcDbLine
 62
7
420
16777202
  6
CONTINUOUS
 10
677.135970783
 20
172.8562028516
 11
676.0810825454
 21
172.8562028516
  0
LINE
  5
250
100
AcDbEntity
  8
03___PRT_ALL_CURVES
100
AcDbLine
 62
7
420
16777202
  6
CONTINUOUS
 10
676.0810825454
 20
173.6706234244
 11
679.1737447625
 21
173.6706234244
  0
LINE
  5
251
100
AcDbEntity
  8
03___PRT_ALL_CURVES
100
AcDbLine
 62
7
420
16777202
  6
CONTINUOUS
 10
698.8101000094
 20
173.6706234244
 11
699.7933302608
 21
173.6706234244
  0
LINE
  5
252
100
AcDbEntity
  8
03___PRT_ALL_CURVES
100
AcDbLine
 62
7
420
16777202
  6
CONTINUOUS
 10
701.7976868142
 20
173.6706234244
 11
702.7809170656
 21
173.6706234244
  0
LINE
  5
253
100
AcDbEntity
  8
03___PRT_ALL_CURVES
100
AcDbLine
 62
7
420
16777202
  6
CONTINUOUS
 10
681.4812697185
 20
173.6713124435
 11
679.8004076313
 21
173.6713124435
  0
LINE
  5
254
100
AcDbEntity
  8
03___PRT_ALL_CURVES
100
AcDbLine
 62
7
420
16777202
  6
CONTINUOUS
 10
685.2102410718
 20
173.6713124435
 11
686.1194017703
 21
173.6713124435
  0
LINE
  5
255
100
AcDbEntity
  8
03___PRT_ALL_CURVES
100
AcDbLine
 62
7
420
16777202
  6
CONTINUOUS
 10
703.4068909153
 20
173.6713124435
 11
706.4988641133
 21
173.6713124435
  0
LINE
  5
256
100
AcDbEntity
  8
03___PRT_ALL_CURVES
100
AcDbLine
 62
7
420
16777202
  6
CONTINUOUS
 10
707.1255269821
 20
173.6713124435
 11
708.1087572336
 21
173.6713124435
  0
LINE
  5
257
100
AcDbEntity
  8
03___PRT_ALL_CURVES
100
AcDbLine
 62
7
420
16777202
  6
CONTINUOUS
 10
708.857031973
 20
173.6713124435
 11
709.8402622245
 21
173.6713124435
  0
LINE
  5
258
100
AcDbEntity
  8
03___PRT_ALL_CURVES
100
AcDbLine
 62
7
420
16777202
  6
CONTINUOUS
 10
711.8442742682
 20
173.6713124435
 11
712.8278490293
 21
173.6713124435
  0
LINE
  5
259
100
AcDbEntity
  8
03___PRT_ALL_CURVES
100
AcDbLine
 62
7
420
16777202
  6
CONTINUOUS
 10
715.0912767631
 20
173.6713124435
 11
715.999403933
 21
173.6713124435
  0
LINE
  5
25A
100
AcDbEntity
  8
03___PRT_ALL_CURVES
100
AcDbLine
 62
7
420
16777202
  6
CONTINUOUS
 10
689.0008796342
 20
173.6720014626
 11
689.9841098857
 21
173.6720014626
  0
LINE
  5
25B
100
AcDbEntity
  8
03___PRT_ALL_CURVES
100
AcDbLine
 62
7
420
16777202
  6
CONTINUOUS
 10
691.9612501847
 20
173.6720014626
 11
692.9444804362
 21
173.6720014626
  0
LINE
  5
25C
100
AcDbEntity
  8
03___PRT_ALL_CURVES
100
AcDbLine
 62
7
420
16777202
  6
CONTINUOUS
 10
719.5206360285
 20
176.6706125729
 11
673.5206875808
 21
176.6706125729
  0
LINE
  5
25D
100
AcDbEntity
  8
03___PRT_ALL_CURVES
100
AcDbLine
 62
7
420
16777202
  6
CONTINUOUS
 10
693.5067200194
 20
186.1218875272
 11
693.0064921549
 21
186.1218875272
  0
LINE
  5
25E
100
AcDbEntity
  8
03___PRT_ALL_CURVES
100
AcDbLine
 62
7
420
16777202
  6
CONTINUOUS
 10
653.0699117612
 20
186.7778337075
 11
653.5701396257
 21
186.7778337075
  0
LINE
  5
25F
100
AcDbEntity
  8
03___PRT_ALL_CURVES
100
AcDbLine
 62
7
420
16777202
  6
CONTINUOUS
 10
637.32100226
 20
189.0274810594
 11
632.319757144
 21
189.0274810594
  0
LINE
  5
260
100
AcDbEntity
  8
03___PRT_ALL_CURVES
100
AcDbLine
 62
7
420
16777202
  6
CONTINUOUS
 10
650.8199198998
 20
189.0274810594
 11
653.0699117612
 21
189.0274810594
  0
LINE
  5
261
100
AcDbEntity
  8
03___PRT_ALL_CURVES
100
AcDbLine
 62
7
420
16777202
  6
CONTINUOUS
 10
653.5701396257
 20
189.0274810594
 11
655.8197869776
 21
189.0274810594
  0
LINE
  5
262
100
AcDbEntity
  8
03___PRT_ALL_CURVES
100
AcDbLine
 62
7
420
16777202
  6
CONTINUOUS
 10
655.8197869776
 20
189.5277089239
 11
653.5701396257
 21
189.5277089239
  0
LINE
  5
263
100
AcDbEntity
  8
03___PRT_ALL_CURVES
100
AcDbLine
 62
7
420
16777202
  6
CONTINUOUS
 10
653.0699117612
 20
189.5277089239
 11
650.8199198998
 21
189.5277089239
  0
LINE
  5
264
100
AcDbEntity
  8
03___PRT_ALL_CURVES
100
AcDbLine
 62
7
420
16777202
  6
CONTINUOUS
 10
632.319757144
 20
189.5277089239
 11
637.32100226
 21
189.5277089239
  0
LINE
  5
265
100
AcDbEntity
  8
03___PRT_ALL_CURVES
100
AcDbLine
 62
7
420
16777202
  6
CONTINUOUS
 10
653.5701396257
 20
191.7773562757
 11
653.0699117612
 21
191.7773562757
  0
LINE
  5
266
100
AcDbEntity
  8
03___PRT_ALL_CURVES
100
AcDbLine
 62
7
420
16777202
  6
CONTINUOUS
 10
549.5708029004
 20
191.9799278903
 11
550.0706862553
 21
191.9799278903
  0
LINE
  5
267
100
AcDbEntity
  8
03___PRT_ALL_CURVES
100
AcDbLine
 62
7
420
16777202
  6
CONTINUOUS
 10
693.0064921549
 20
192.432613437
 11
693.5067200194
 21
192.432613437
  0
LINE
  5
268
100
AcDbEntity
  8
03___PRT_ALL_CURVES
100
AcDbLine
 62
7
420
16777202
  6
CONTINUOUS
 10
516.8963115349
 20
186.706520231
 11
517.2497783317
 21
186.3530534342
  0
LINE
  5
269
100
AcDbEntity
  8
03___PRT_ALL_CURVES
100
AcDbLine
 62
7
420
16777202
  6
CONTINUOUS
 10
518.0211352108
 20
187.1244103134
 11
518.5175734702
 21
186.6279720539
  0
LINE
  5
26A
100
AcDbEntity
  8
03___PRT_ALL_CURVES
100
AcDbLine
 62
7
420
16777202
  6
CONTINUOUS
 10
518.871040267
 20
186.9814388507
 11
518.3747742624
 21
187.4778771101
  0
LINE
  5
26B
100
AcDbEntity
  8
03___PRT_ALL_CURVES
100
AcDbLine
 62
7
420
16777202
  6
CONTINUOUS
 10
518.8066169814
 20
187.9095475744
 11
519.4778938367
 21
187.2377539548
  0
LINE
  5
26C
100
AcDbEntity
  8
03___PRT_ALL_CURVES
100
AcDbLine
 62
7
420
16777202
  6
CONTINUOUS
 10
519.8315328883
 20
187.5912207516
 11
519.160256033
 21
188.2630143712
  0
LINE
  5
26D
100
AcDbEntity
  8
03___PRT_ALL_CURVES
100
AcDbLine
 62
7
420
16777202
  6
CONTINUOUS
 10
551.7717021511
 20
186.9724816025
 11
549.5708029004
 21
189.1749311462
  0
LINE
  5
26E
100
AcDbEntity
  8
03___PRT_ALL_CURVES
100
AcDbLine
 62
7
420
16777202
  6
CONTINUOUS
 10
550.0706862553
 20
189.3816368753
 11
552.1251689479
 21
187.3259483992
  0
LINE
  5
26F
100
AcDbEntity
  8
03___PRT_ALL_CURVES
100
AcDbLine
 62
7
420
16777202
  6
CONTINUOUS
 10
581.0558750496
 20
240.4210709988
 11
581.8570320047
 21
240.2780995362
  0
LINE
  5
270
100
AcDbEntity
  8
03___PRT_ALL_CURVES
100
AcDbLine
 62
7
420
16777202
  6
CONTINUOUS
 10
582.0256694287
 20
241.1469526176
 11
581.232608448
 21
241.2888905516
  0
LINE
  5
271
100
AcDbEntity
  8
03___PRT_ALL_CURVES
100
AcDbLine
 62
7
420
16777202
  6
CONTINUOUS
 10
574.1501811495
 20
243.0827517707
 11
573.3628045763
 21
243.3063384677
  0
LINE
  5
272
100
AcDbEntity
  8
03___PRT_ALL_CURVES
100
AcDbLine
 62
7
420
16777202
  6
CONTINUOUS
 10
573.1009773194
 20
242.4629790929
 11
573.896449867
 21
242.2369808291
  0
LINE
  5
273
100
AcDbEntity
  8
03___PRT_ALL_CURVES
100
AcDbLine
 62
7
420
16777202
  6
CONTINUOUS
 10
572.315323294
 20
242.726184388
 11
573.1009773194
 21
242.4629790929
  0
LINE
  5
274
100
AcDbEntity
  8
03___PRT_ALL_CURVES
100
AcDbLine
 62
7
420
16777202
  6
CONTINUOUS
 10
573.3628045763
 20
243.3063384677
 11
572.5859355444
 21
243.567132196
  0
LINE
  5
275
100
AcDbEntity
  8
03___PRT_ALL_CURVES
100
AcDbLine
 62
7
420
16777202
  6
CONTINUOUS
 10
564.8658210715
 20
246.475137295
 11
563.349979058
 21
247.1569216916
  0
LINE
  5
276
100
AcDbEntity
  8
03___PRT_ALL_CURVES
100
AcDbLine
 62
7
420
16777202
  6
CONTINUOUS
 10
598.3449144876
 20
176.2937191268
 11
598.6508389667
 21
176.0367150036
  0
LINE
  5
277
100
AcDbEntity
  8
03___PRT_ALL_CURVES
100
AcDbLine
 62
7
420
16777202
  6
CONTINUOUS
 10
591.2962491248
 20
202.2345991117
 11
590.9904969005
 21
202.4916032349
  0
LINE
  5
278
100
AcDbEntity
  8
0
100
AcDbLine
 62
7
  6
CONTINUOUS
 10
452.9893765509
 20
658.0743641439
 11
452.9893765509
 21
148.0743641439
  0
LINE
  5
279
100
AcDbEntity
  8
03___PRT_ALL_CURVES
100
AcDbLine
 62
7
420
16777202
  6
CONTINUOUS
 10
598.0352004035
 20
175.4200429118
 11
597.4891527691
 21
176.007431692
  0
LINE
  5
27A
100
AcDbEntity
  8
03___PRT_ALL_CURVES
100
AcDbLine
 62
7
420
16777202
  6
CONTINUOUS
 10
591.6064799732
 20
203.1082753267
 11
592.1521830981
 21
202.5208865465
  0
LINE
  5
27B
100
AcDbEntity
  8
03___PRT_ALL_CURVES
100
AcDbLine
 62
7
420
16777202
  6
CONTINUOUS
 10
524.9767829955
 20
283.5584896078
 11
524.2159336576
 21
285.0391916474
  0
LINE
  5
27C
100
AcDbEntity
  8
03___PRT_ALL_CURVES
100
AcDbLine
 62
7
420
16777202
  6
CONTINUOUS
 10
523.67229759
 20
284.7680626327
 11
524.4334914375
 21
283.2739247207
  0
LINE
  5
27D
100
AcDbEntity
  8
03___PRT_ALL_CURVES
100
AcDbLine
 62
7
420
16777202
  6
CONTINUOUS
 10
520.8938280812
 20
292.6053103521
 11
520.5911764428
 21
293.3683990021
  0
LINE
  5
27E
100
AcDbEntity
  8
03___PRT_ALL_CURVES
100
AcDbLine
 62
7
420
16777202
  6
CONTINUOUS
 10
520.0523635089
 20
293.1713395403
 11
520.3536371091
 21
292.4013606994
  0
LINE
  5
27F
100
AcDbEntity
  8
03___PRT_ALL_CURVES
100
AcDbLine
 62
7
420
16777202
  6
CONTINUOUS
 10
520.5911764428
 20
293.3683990021
 11
520.3265931095
 21
294.1445790149
  0
LINE
  5
280
100
AcDbEntity
  8
03___PRT_ALL_CURVES
100
AcDbLine
 62
7
420
16777202
  6
CONTINUOUS
 10
519.7884691947
 20
293.9544097441
 11
520.0523635089
 21
293.1713395403
  0
LINE
  5
281
100
AcDbEntity
  8
03___PRT_ALL_CURVES
100
AcDbLine
 62
7
420
16777202
  6
CONTINUOUS
 10
518.3844205297
 20
300.3619428371
 11
518.1647956925
 21
301.1398453977
  0
LINE
  5
282
100
AcDbEntity
  8
03___PRT_ALL_CURVES
100
AcDbLine
 62
7
420
16777202
  6
CONTINUOUS
 10
517.6383851024
 20
301.0044531451
 11
517.8564596466
 21
300.2206939222
  0
LINE
  5
283
100
AcDbEntity
  8
03___PRT_ALL_CURVES
100
AcDbLine
 62
7
420
16777202
  6
CONTINUOUS
 10
518.1647956925
 20
301.1398453977
 11
517.9823778866
 21
301.9256716779
  0
LINE
  5
284
100
AcDbEntity
  8
03___PRT_ALL_CURVES
100
AcDbLine
 62
7
420
16777202
  6
CONTINUOUS
 10
517.4566563155
 20
301.7964805972
 11
517.6383851024
 21
301.0044531451
  0
LINE
  5
285
100
AcDbEntity
  8
03___PRT_ALL_CURVES
100
AcDbLine
 62
7
420
16777202
  6
CONTINUOUS
 10
681.9787415066
 20
169.1727067588
 11
680.7822598446
 21
170.8828521577
  0
LINE
  5
286
100
AcDbEntity
  8
03___PRT_ALL_CURVES
100
AcDbLine
 62
7
420
16777202
  6
CONTINUOUS
 10
683.0701477563
 20
169.1727067588
 11
681.7406854086
 21
171.0723324094
  0
LINE
  5
287
100
AcDbEntity
  8
03___PRT_ALL_CURVES
100
AcDbLine
 62
7
420
16777202
  6
CONTINUOUS
 10
503.2492547891
 20
503.1238988954
 11
503.5687873954
 21
502.1746028344
  0
LINE
  5
288
100
AcDbEntity
  8
03___PRT_ALL_CURVES
100
AcDbLine
 62
7
420
16777202
  6
CONTINUOUS
 10
501.5463440908
 20
510.8944840171
 11
501.2796937002
 21
511.837751161
  0
LINE
  5
289
100
AcDbEntity
  8
03___PRT_ALL_CURVES
100
AcDbLine
 62
7
420
16777202
  6
CONTINUOUS
 10
500.641145252
 20
511.6737646159
 11
500.9057285853
 21
510.722918262
  0
LINE
  5
28A
100
AcDbEntity
  8
03___PRT_ALL_CURVES
100
AcDbLine
 62
7
420
16777202
  6
CONTINUOUS
 10
501.2796937002
 20
511.837751161
 11
501.0585185701
 21
512.7910090818
  0
LINE
  5
28B
100
AcDbEntity
  8
03___PRT_ALL_CURVES
100
AcDbLine
 62
7
420
16777202
  6
CONTINUOUS
 10
500.4213481601
 20
512.6342572372
 11
500.641145252
 21
511.6737646159
  0
LINE
  5
28C
100
AcDbEntity
  8
03___PRT_ALL_CURVES
100
AcDbLine
 62
7
420
16777202
  6
CONTINUOUS
 10
549.5708029004
 20
189.1749311462
 11
549.5708029004
 21
191.9799278903
  0
LINE
  5
28D
100
AcDbEntity
  8
03___PRT_ALL_CURVES
100
AcDbLine
 62
7
420
16777202
  6
CONTINUOUS
 10
550.0706862553
 20
191.9799278903
 11
550.0706862553
 21
189.3816368753
  0
LINE
  5
28E
100
AcDbEntity
  8
03___PRT_ALL_CURVES
100
AcDbLine
 62
7
420
16777202
  6
CONTINUOUS
 10
701.7983758333
 20
169.1713287206
 11
699.7933302608
 21
172.1596045445
  0
LINE
  5
28F
100
AcDbEntity
  8
03___PRT_ALL_CURVES
100
AcDbLine
 62
7
420
16777202
  6
CONTINUOUS
 10
699.7933302608
 20
173.6706234244
 11
701.7976868142
 21
170.6837256387
  0
LINE
  5
290
100
AcDbEntity
  8
03___PRT_ALL_CURVES
100
AcDbLine
 62
7
420
16777202
  6
CONTINUOUS
 10
509.5410326739
 20
490.5165719671
 11
508.6180915934
 21
492.3123279888
  0
LINE
  5
291
100
AcDbEntity
  8
03___PRT_ALL_CURVES
100
AcDbLine
 62
7
420
16777202
  6
CONTINUOUS
 10
507.9588725723
 20
491.9838381343
 11
508.8819859075
 21
490.1715456543
  0
LINE
  5
292
100
AcDbEntity
  8
03___PRT_ALL_CURVES
100
AcDbLine
 62
7
420
16777202
  6
CONTINUOUS
 10
504.5890524234
 20
501.4883398138
 11
504.2224942637
 21
502.4136924611
  0
LINE
  5
293
100
AcDbEntity
  8
03___PRT_ALL_CURVES
100
AcDbLine
 62
7
420
16777202
  6
CONTINUOUS
 10
503.5687873954
 20
502.1746028344
 11
503.9346565359
 21
501.2409819579
  0
LINE
  5
294
100
AcDbEntity
  8
03___PRT_ALL_CURVES
100
AcDbLine
 62
7
420
16777202
  6
CONTINUOUS
 10
504.2224942637
 20
502.4136924611
 11
503.9015836193
 21
503.3548925477
  0
LINE
  5
295
100
AcDbEntity
  8
03___PRT_ALL_CURVES
100
AcDbLine
 62
7
420
16777202
  6
CONTINUOUS
 10
709.8402622245
 20
173.6713124435
 11
711.8442742682
 21
170.6844146577
  0
LINE
  5
296
100
AcDbEntity
  8
03___PRT_ALL_CURVES
100
AcDbLine
 62
7
420
16777202
  6
CONTINUOUS
 10
711.8449632873
 20
169.1727067588
 11
709.8402622245
 21
172.1609825827
  0
LINE
  5
297
100
AcDbEntity
  8
03___PRT_ALL_CURVES
100
AcDbLine
 62
7
420
16777202
  6
CONTINUOUS
 10
613.8554233813
 20
402.0635731285
 11
613.0623624006
 21
402.2055110625
  0
LINE
  5
298
100
AcDbEntity
  8
03___PRT_ALL_CURVES
100
AcDbLine
 62
7
420
16777202
  6
CONTINUOUS
 10
686.2537604943
 20
170.8814741195
 11
685.6643046567
 21
172.3807796747
  0
LINE
  5
299
100
AcDbEntity
  8
03___PRT_ALL_CURVES
100
AcDbLine
 62
7
420
16777202
  6
CONTINUOUS
 10
686.9248650948
 20
169.1727067588
 11
686.571398298
 21
170.0718766805
  0
LINE
  5
29A
100
AcDbEntity
  8
03___PRT_ALL_CURVES
100
AcDbLine
 62
7
420
16777202
  6
CONTINUOUS
 10
686.1194017703
 20
173.6713124435
 11
687.884668697
 21
169.1727067588
  0
LINE
  5
29B
100
AcDbEntity
  8
03___PRT_ALL_CURVES
100
AcDbLine
 62
7
420
16777202
  6
CONTINUOUS
 10
614.0325012892
 20
402.9310481717
 11
613.2308275698
 21
403.0743641439
  0
LINE
  5
29C
100
AcDbEntity
  8
03___PRT_ALL_CURVES
100
AcDbLine
 62
7
420
16777202
  6
CONTINUOUS
 10
621.7257440173
 20
400.0461252124
 11
620.9378506799
 21
400.2697119094
  0
LINE
  5
29D
100
AcDbEntity
  8
03___PRT_ALL_CURVES
100
AcDbLine
 62
7
420
16777202
  6
CONTINUOUS
 10
621.9872267647
 20
400.8894845872
 11
621.1914097076
 21
401.1158273606
  0
LINE
  5
29E
100
AcDbEntity
  8
03___PRT_ALL_CURVES
100
AcDbLine
 62
7
420
16777202
  6
CONTINUOUS
 10
622.7723640258
 20
400.6266238017
 11
621.9872267647
 21
400.8894845872
  0
LINE
  5
29F
100
AcDbEntity
  8
03___PRT_ALL_CURVES
100
AcDbLine
 62
7
420
16777202
  6
CONTINUOUS
 10
622.5019240302
 20
399.7856759937
 11
621.7257440173
 21
400.0461252124
  0
LINE
  5
2A0
100
AcDbEntity
  8
03___PRT_ALL_CURVES
100
AcDbLine
 62
7
420
16777202
  6
CONTINUOUS
 10
631.7385695357
 20
396.195197479
 11
630.2227275222
 21
396.8773263851
  0
LINE
  5
2A1
100
AcDbEntity
  8
03___PRT_ALL_CURVES
100
AcDbLine
 62
7
420
16777202
  6
CONTINUOUS
 10
690.685875836
 20
169.1727067588
 11
689.7005785273
 21
172.0803673484
  0
LINE
  5
2A2
100
AcDbEntity
  8
03___PRT_ALL_CURVES
100
AcDbLine
 62
7
420
16777202
  6
CONTINUOUS
 10
689.9841098857
 20
173.6720014626
 11
690.9725077804
 21
170.7450483383
  0
LINE
  5
2A3
100
AcDbEntity
  8
03___PRT_ALL_CURVES
100
AcDbLine
 62
7
420
16777202
  6
CONTINUOUS
 10
632.319757144
 20
189.0274810594
 11
632.319757144
 21
189.5277089239
  0
LINE
  5
2A4
100
AcDbEntity
  8
03___PRT_ALL_CURVES
100
AcDbLine
 62
7
420
16777202
  6
CONTINUOUS
 10
637.32100226
 20
189.5277089239
 11
637.32100226
 21
189.0274810594
  0
LINE
  5
2A5
100
AcDbEntity
  8
03___PRT_ALL_CURVES
100
AcDbLine
 62
7
420
16777202
  6
CONTINUOUS
 10
577.5484233361
 20
438.2038305522
 11
578.5202847725
 21
438.0303699946
  0
LINE
  5
2A6
100
AcDbEntity
  8
03___PRT_ALL_CURVES
100
AcDbLine
 62
7
420
16777202
  6
CONTINUOUS
 10
578.7242344252
 20
439.0837079392
 11
577.7628805301
 21
439.2559627134
  0
LINE
  5
2A7
100
AcDbEntity
  8
03___PRT_ALL_CURVES
100
AcDbLine
 62
7
420
16777202
  6
CONTINUOUS
 10
567.9018114679
 20
440.6796484227
 11
568.866265949
 21
440.4055910769
  0
LINE
  5
2A8
100
AcDbEntity
  8
03___PRT_ALL_CURVES
100
AcDbLine
 62
7
420
16777202
  6
CONTINUOUS
 10
569.1739129758
 20
441.4315405124
 11
568.2192770168
 21
441.7028417818
  0
LINE
  5
2A9
100
AcDbEntity
  8
03___PRT_ALL_CURVES
100
AcDbLine
 62
7
420
16777202
  6
CONTINUOUS
 10
568.2192770168
 20
441.7028417818
 11
567.2770434016
 21
442.0187570378
  0
LINE
  5
2AA
100
AcDbEntity
  8
03___PRT_ALL_CURVES
100
AcDbLine
 62
7
420
16777202
  6
CONTINUOUS
 10
566.9488980566
 20
440.9993532837
 11
567.9018114679
 21
440.6796484227
  0
LINE
  5
2AB
100
AcDbEntity
  8
03___PRT_ALL_CURVES
100
AcDbLine
 62
7
420
16777202
  6
CONTINUOUS
 10
557.9149964204
 20
445.5451567765
 11
556.07634896
 21
446.3724964573
  0
LINE
  5
2AC
100
AcDbEntity
  8
03___PRT_ALL_CURVES
100
AcDbLine
 62
7
420
16777202
  6
CONTINUOUS
 10
716.805211767
 20
169.1720177397
 11
716.4517449702
 21
170.0718766805
  0
LINE
  5
2AD
100
AcDbEntity
  8
03___PRT_ALL_CURVES
100
AcDbLine
 62
7
420
16777202
  6
CONTINUOUS
 10
716.1337626569
 20
170.8807851004
 11
715.5449958385
 21
172.3800906556
  0
LINE
  5
2AE
100
AcDbEntity
  8
03___PRT_ALL_CURVES
100
AcDbLine
 62
7
420
16777202
  6
CONTINUOUS
 10
715.999403933
 20
173.6713124435
 11
717.7653598787
 21
169.1720177397
  0
LINE
  5
2AF
100
AcDbEntity
  8
03___PRT_ALL_CURVES
100
AcDbLine
 62
7
420
16777202
  6
CONTINUOUS
 10
650.8199198998
 20
189.5277089239
 11
650.8199198998
 21
189.0274810594
  0
LINE
  5
2B0
100
AcDbEntity
  8
03___PRT_ALL_CURVES
100
AcDbLine
 62
7
420
16777202
  6
CONTINUOUS
 10
653.0699117612
 20
191.7773562757
 11
653.0699117612
 21
189.5277089239
  0
LINE
  5
2B1
100
AcDbEntity
  8
03___PRT_ALL_CURVES
100
AcDbLine
 62
7
420
16777202
  6
CONTINUOUS
 10
653.0699117612
 20
189.0274810594
 11
653.0699117612
 21
186.7778337075
  0
LINE
  5
2B2
100
AcDbEntity
  8
03___PRT_ALL_CURVES
100
AcDbLine
 62
7
420
16777202
  6
CONTINUOUS
 10
653.5701396257
 20
186.7778337075
 11
653.5701396257
 21
189.0274810594
  0
LINE
  5
2B3
100
AcDbEntity
  8
03___PRT_ALL_CURVES
100
AcDbLine
 62
7
420
16777202
  6
CONTINUOUS
 10
653.5701396257
 20
189.5277089239
 11
653.5701396257
 21
191.7773562757
  0
LINE
  5
2B4
100
AcDbEntity
  8
03___PRT_ALL_CURVES
100
AcDbLine
 62
7
420
16777202
  6
CONTINUOUS
 10
655.8197869776
 20
189.0274810594
 11
655.8197869776
 21
189.5277089239
  0
LINE
  5
2B5
100
AcDbEntity
  8
03___PRT_ALL_CURVES
100
AcDbLine
 62
7
420
16777202
  6
CONTINUOUS
 10
670.111076579
 20
359.7943185818
 11
670.8717536622
 21
358.3136165423
  0
LINE
  5
2B6
100
AcDbEntity
  8
03___PRT_ALL_CURVES
100
AcDbLine
 62
7
420
16777202
  6
CONTINUOUS
 10
670.6547126466
 20
360.0788834689
 11
671.4160787488
 21
358.5840565379
  0
LINE
  5
2B7
100
AcDbEntity
  8
03___PRT_ALL_CURVES
100
AcDbLine
 62
7
420
16777202
  6
CONTINUOUS
 10
674.1942037481
 20
350.7474978376
 11
674.4970276413
 21
349.9833756589
  0
LINE
  5
2B8
100
AcDbEntity
  8
03___PRT_ALL_CURVES
100
AcDbLine
 62
7
420
16777202
  6
CONTINUOUS
 10
674.7347392298
 20
350.9507584712
 11
675.0354960656
 21
350.1807796302
  0
LINE
  5
2B9
100
AcDbEntity
  8
03___PRT_ALL_CURVES
100
AcDbLine
 62
7
420
16777202
  6
CONTINUOUS
 10
674.4970276413
 20
349.9833756589
 11
674.7616109746
 21
349.2075401557
  0
LINE
  5
2BA
100
AcDbEntity
  8
03___PRT_ALL_CURVES
100
AcDbLine
 62
7
420
16777202
  6
CONTINUOUS
 10
675.0354960656
 20
350.1807796302
 11
675.2993903798
 21
349.3983984455
  0
LINE
  5
2BB
100
AcDbEntity
  8
03___PRT_ALL_CURVES
100
AcDbLine
 62
7
420
16777202
  6
CONTINUOUS
 10
676.7039558091
 20
342.9908653525
 11
676.923063882
 21
342.2129627919
  0
LINE
  5
2BC
100
AcDbEntity
  8
03___PRT_ALL_CURVES
100
AcDbLine
 62
7
420
16777202
  6
CONTINUOUS
 10
677.2317444375
 20
343.1321142674
 11
677.4501634913
 21
342.3483550445
  0
LINE
  5
2BD
100
AcDbEntity
  8
03___PRT_ALL_CURVES
100
AcDbLine
 62
7
420
16777202
  6
CONTINUOUS
 10
692.9444804362
 20
173.6720014626
 11
693.6810418509
 21
169.1727067588
  0
LINE
  5
2BE
100
AcDbEntity
  8
03___PRT_ALL_CURVES
100
AcDbLine
 62
7
420
16777202
  6
CONTINUOUS
 10
692.7181376628
 20
169.1727067588
 11
692.2437480145
 21
172.0824344057
  0
LINE
  5
2BF
100
AcDbEntity
  8
03___PRT_ALL_CURVES
100
AcDbLine
 62
7
420
16777202
  6
CONTINUOUS
 10
671.5211541611
 20
174.6703901342
 11
671.5211541611
 21
168.6711008562
  0
LINE
  5
2C0
100
AcDbEntity
  8
03___PRT_ALL_CURVES
100
AcDbLine
 62
7
420
16777202
  6
CONTINUOUS
 10
676.0810825454
 20
172.8562028516
 11
676.0810825454
 21
173.6706234244
  0
LINE
  5
2C1
100
AcDbEntity
  8
03___PRT_ALL_CURVES
100
AcDbLine
 62
7
420
16777202
  6
CONTINUOUS
 10
677.135970783
 20
169.1720177397
 11
677.135970783
 21
172.8562028516
  0
LINE
  5
2C2
100
AcDbEntity
  8
03___PRT_ALL_CURVES
100
AcDbLine
 62
7
420
16777202
  6
CONTINUOUS
 10
678.1188565249
 20
172.8562028516
 11
678.1188565249
 21
169.1720177397
  0
LINE
  5
2C3
100
AcDbEntity
  8
03___PRT_ALL_CURVES
100
AcDbLine
 62
7
420
16777202
  6
CONTINUOUS
 10
676.923063882
 20
342.2129627919
 11
677.1059984523
 21
341.4271365118
  0
LINE
  5
2C4
100
AcDbEntity
  8
03___PRT_ALL_CURVES
100
AcDbLine
 62
7
420
16777202
  6
CONTINUOUS
 10
677.4501634913
 20
342.3483550445
 11
677.6313755138
 21
341.5563275925
  0
LINE
  5
2C5
100
AcDbEntity
  8
03___PRT_ALL_CURVES
100
AcDbLine
 62
7
420
16777202
  6
CONTINUOUS
 10
680.7822598446
 20
170.8828521577
 11
680.7829488637
 21
169.1727067588
  0
LINE
  5
2C6
100
AcDbEntity
  8
03___PRT_ALL_CURVES
100
AcDbLine
 62
7
420
16777202
  6
CONTINUOUS
 10
679.1737447625
 20
173.6706234244
 11
679.1737447625
 21
172.8562028516
  0
LINE
  5
2C7
100
AcDbEntity
  8
03___PRT_ALL_CURVES
100
AcDbLine
 62
7
420
16777202
  6
CONTINUOUS
 10
679.8004076313
 20
173.6713124435
 11
679.8004076313
 21
169.1727067588
  0
LINE
  5
2C8
100
AcDbEntity
  8
03___PRT_ALL_CURVES
100
AcDbLine
 62
7
420
16777202
  6
CONTINUOUS
 10
680.7815708255
 20
172.8562028516
 11
680.7815708255
 21
171.6676449092
  0
LINE
  5
2C9
100
AcDbEntity
  8
03___PRT_ALL_CURVES
100
AcDbLine
 62
7
420
16777202
  6
CONTINUOUS
 10
693.0064921549
 20
186.1218875272
 11
693.0064921549
 21
192.432613437
  0
LINE
  5
2CA
100
AcDbEntity
  8
03___PRT_ALL_CURVES
100
AcDbLine
 62
7
420
16777202
  6
CONTINUOUS
 10
693.5067200194
 20
192.432613437
 11
693.5067200194
 21
186.1218875272
  0
LINE
  5
2CB
100
AcDbEntity
  8
03___PRT_ALL_CURVES
100
AcDbLine
 62
7
420
16777202
  6
CONTINUOUS
 10
517.2497783317
 20
186.3530534342
 11
518.0211352108
 21
187.1244103134
  0
LINE
  5
2CC
100
AcDbEntity
  8
03___PRT_ALL_CURVES
100
AcDbLine
 62
7
420
16777202
  6
CONTINUOUS
 10
518.5175734702
 20
186.6279720539
 11
518.871040267
 21
186.9814388507
  0
LINE
  5
2CD
100
AcDbEntity
  8
03___PRT_ALL_CURVES
100
AcDbLine
 62
7
420
16777202
  6
CONTINUOUS
 10
520.2638923717
 20
190.0734120487
 11
516.8963115349
 21
186.706520231
  0
LINE
  5
2CE
100
AcDbEntity
  8
03___PRT_ALL_CURVES
100
AcDbLine
 62
7
420
16777202
  6
CONTINUOUS
 10
519.160256033
 20
188.2630143712
 11
520.6173591685
 21
189.7199452519
  0
LINE
  5
2CF
100
AcDbEntity
  8
03___PRT_ALL_CURVES
100
AcDbLine
 62
7
420
16777202
  6
CONTINUOUS
 10
518.3747742624
 20
187.4778771101
 11
518.8066169814
 21
187.9095475744
  0
LINE
  5
2D0
100
AcDbEntity
  8
03___PRT_ALL_CURVES
100
AcDbLine
 62
7
420
16777202
  6
CONTINUOUS
 10
519.4778938367
 20
187.2377539548
 11
519.8315328883
 21
187.5912207516
  0
LINE
  5
2D1
100
AcDbEntity
  8
03___PRT_ALL_CURVES
100
AcDbLine
 62
7
420
16777202
  6
CONTINUOUS
 10
698.8101000094
 20
169.1713287206
 11
698.8101000094
 21
173.6706234244
  0
LINE
  5
2D2
100
AcDbEntity
  8
03___PRT_ALL_CURVES
100
AcDbLine
 62
7
420
16777202
  6
CONTINUOUS
 10
699.7933302608
 20
172.1596045445
 11
699.7933302608
 21
169.1713287206
  0
LINE
  5
2D3
100
AcDbEntity
  8
03___PRT_ALL_CURVES
100
AcDbLine
 62
7
420
16777202
  6
CONTINUOUS
 10
701.7976868142
 20
170.6837256387
 11
701.7976868142
 21
173.6706234244
  0
LINE
  5
2D4
100
AcDbEntity
  8
03___PRT_ALL_CURVES
100
AcDbLine
 62
7
420
16777202
  6
CONTINUOUS
 10
702.7809170656
 20
173.6706234244
 11
702.7809170656
 21
169.1713287206
  0
LINE
  5
2D5
100
AcDbEntity
  8
03___PRT_ALL_CURVES
100
AcDbLine
 62
7
420
16777202
  6
CONTINUOUS
 10
703.4068909153
 20
172.8562028516
 11
703.4068909153
 21
173.6713124435
  0
LINE
  5
2D6
100
AcDbEntity
  8
03___PRT_ALL_CURVES
100
AcDbLine
 62
7
420
16777202
  6
CONTINUOUS
 10
704.4617791529
 20
169.1720177397
 11
704.4617791529
 21
172.8562028516
  0
LINE
  5
2D7
100
AcDbEntity
  8
03___PRT_ALL_CURVES
100
AcDbLine
 62
7
420
16777202
  6
CONTINUOUS
 10
705.4432868567
 20
172.8562028516
 11
705.4432868567
 21
169.1720177397
  0
LINE
  5
2D8
100
AcDbEntity
  8
03___PRT_ALL_CURVES
100
AcDbLine
 62
7
420
16777202
  6
CONTINUOUS
 10
706.4988641133
 20
173.6713124435
 11
706.4988641133
 21
172.8562028516
  0
LINE
  5
2D9
100
AcDbEntity
  8
03___PRT_ALL_CURVES
100
AcDbLine
 62
7
420
16777202
  6
CONTINUOUS
 10
707.1255269821
 20
169.1720177397
 11
707.1255269821
 21
173.6713124435
  0
LINE
  5
2DA
100
AcDbEntity
  8
03___PRT_ALL_CURVES
100
AcDbLine
 62
7
420
16777202
  6
CONTINUOUS
 10
708.1087572336
 20
173.6713124435
 11
708.1087572336
 21
169.1720177397
  0
LINE
  5
2DB
100
AcDbEntity
  8
03___PRT_ALL_CURVES
100
AcDbLine
 62
7
420
16777202
  6
CONTINUOUS
 10
708.857031973
 20
169.1727067588
 11
708.857031973
 21
173.6713124435
  0
LINE
  5
2DC
100
AcDbEntity
  8
03___PRT_ALL_CURVES
100
AcDbLine
 62
7
420
16777202
  6
CONTINUOUS
 10
709.8402622245
 20
172.1609825827
 11
709.8402622245
 21
169.1727067588
  0
LINE
  5
2DD
100
AcDbEntity
  8
03___PRT_ALL_CURVES
100
AcDbLine
 62
7
420
16777202
  6
CONTINUOUS
 10
711.8442742682
 20
170.6844146577
 11
711.8442742682
 21
173.6713124435
  0
LINE
  5
2DE
100
AcDbEntity
  8
03___PRT_ALL_CURVES
100
AcDbLine
 62
7
420
16777202
  6
CONTINUOUS
 10
712.8278490293
 20
173.6713124435
 11
712.8278490293
 21
169.1727067588
  0
LINE
  5
2DF
100
AcDbEntity
  8
03___PRT_ALL_CURVES
100
AcDbLine
 62
7
420
16777202
  6
CONTINUOUS
 10
552.1251689479
 20
187.3259483992
 11
551.7717021511
 21
186.9724816025
  0
LINE
  5
2E0
100
AcDbEntity
  8
03___PRT_ALL_CURVES
100
AcDbLine
 62
7
420
16777202
  6
CONTINUOUS
 10
721.5201694481
 20
168.6711008562
 11
721.5201694481
 21
174.6703901342
  0
LINE
  5
2E1
100
AcDbEntity
  8
03___PRT_ALL_CURVES
100
AcDbLine
 62
7
420
16777202
  6
CONTINUOUS
 10
689.7005785273
 20
172.0803673484
 11
689.2265333885
 21
169.1727067588
  0
LINE
  5
2E2
100
AcDbEntity
  8
03___PRT_ALL_CURVES
100
AcDbLine
 62
7
420
16777202
  6
CONTINUOUS
 10
688.2643182195
 20
169.1727067588
 11
689.0008796342
 21
173.6720014626
  0
LINE
  5
2E3
100
AcDbEntity
  8
03___PRT_ALL_CURVES
100
AcDbLine
 62
7
420
16777202
  6
CONTINUOUS
 10
597.520503138
 20
202.4950483304
 11
598.0352004035
 21
203.1079308172
  0
LINE
  5
2E4
100
AcDbEntity
  8
03___PRT_ALL_CURVES
100
AcDbLine
 62
7
420
16777202
  6
CONTINUOUS
 10
598.6515279858
 20
202.4916032349
 11
598.3810879902
 21
202.190846399
  0
LINE
  5
2E5
100
AcDbEntity
  8
03___PRT_ALL_CURVES
100
AcDbLine
 62
7
420
16777202
  6
CONTINUOUS
 10
693.5418599933
 20
562.5912423592
 11
693.8078213648
 21
561.6479752154
  0
LINE
  5
2E6
100
AcDbEntity
  8
03___PRT_ALL_CURVES
100
AcDbLine
 62
7
420
16777202
  6
CONTINUOUS
 10
694.1816142249
 20
562.7626358596
 11
694.4468865773
 21
561.8119617605
  0
LINE
  5
2E7
100
AcDbEntity
  8
03___PRT_ALL_CURVES
100
AcDbLine
 62
7
420
16777202
  6
CONTINUOUS
 10
693.8078213648
 20
561.6479752154
 11
694.0300300236
 21
560.6947172946
  0
LINE
  5
2E8
100
AcDbEntity
  8
03___PRT_ALL_CURVES
100
AcDbLine
 62
7
420
16777202
  6
CONTINUOUS
 10
694.4468865773
 20
561.8119617605
 11
694.6666836692
 21
560.8512968844
  0
LINE
  5
2E9
100
AcDbEntity
  8
0
100
AcDbLine
 62
7
  6
CONTINUOUS
 10
740.9893765509
 20
148.0743641439
 11
740.9893765509
 21
658.0743641439
  0
LINE
  5
2EA
100
AcDbEntity
  8
03___PRT_ALL_CURVES
100
AcDbLine
 62
7
420
16777202
  6
CONTINUOUS
 10
592.1203159648
 20
176.0332699081
 11
591.6056186993
 21
175.4203874213
  0
LINE
  5
2EB
100
AcDbEntity
  8
03___PRT_ALL_CURVES
100
AcDbLine
 62
7
420
16777202
  6
CONTINUOUS
 10
590.9898078814
 20
176.0367150036
 11
591.2599033674
 21
176.3374718395
  0
LINE
  5
2EC
100
AcDbEntity
  8
03___PRT_ALL_CURVES
100
AcDbLine
 62
7
420
16777202
  6
CONTINUOUS
 10
685.5471714102
 20
582.9689821545
 11
686.4697679812
 21
581.1733983876
  0
LINE
  5
2ED
100
AcDbEntity
  8
03___PRT_ALL_CURVES
100
AcDbLine
 62
7
420
16777202
  6
CONTINUOUS
 10
690.4984626416
 20
571.9973865626
 11
690.8657098204
 21
571.0713448962
  0
LINE
  5
2EE
100
AcDbEntity
  8
03___PRT_ALL_CURVES
100
AcDbLine
 62
7
420
16777202
  6
CONTINUOUS
 10
691.1540643125
 20
572.2438831446
 11
691.5192444339
 21
571.3104345229
  0
LINE
  5
2EF
100
AcDbEntity
  8
03___PRT_ALL_CURVES
100
AcDbLine
 62
7
420
16777202
  6
CONTINUOUS
 10
690.8657098204
 20
571.0713448962
 11
691.1861037005
 21
570.1301448096
  0
LINE
  5
2F0
100
AcDbEntity
  8
03___PRT_ALL_CURVES
100
AcDbLine
 62
7
420
16777202
  6
CONTINUOUS
 10
691.5192444339
 20
571.3104345229
 11
691.8386047854
 21
570.361827481
  0
LINE
  5
2F1
100
AcDbEntity
  8
03___PRT_ALL_CURVES
100
AcDbLine
 62
7
420
16777202
  6
CONTINUOUS
 10
690.9725077804
 20
170.7450483383
 11
691.9612501847
 21
173.6720014626
  0
LINE
  5
2F2
100
AcDbEntity
  8
03___PRT_ALL_CURVES
100
AcDbLine
 62
7
420
16777202
  6
CONTINUOUS
 10
692.2437480145
 20
172.0824344057
 11
691.2598287439
 21
169.1727067588
  0
LINE
  5
2F3
100
AcDbEntity
  8
03___PRT_ALL_CURVES
100
AcDbLine
 62
7
420
16777202
  6
CONTINUOUS
 10
685.6643046567
 20
172.3807796747
 11
685.076571367
 21
170.8814741195
  0
LINE
  5
2F4
100
AcDbEntity
  8
03___PRT_ALL_CURVES
100
AcDbLine
 62
7
420
16777202
  6
CONTINUOUS
 10
683.4453186547
 20
169.1727067588
 11
685.2102410718
 21
173.6713124435
  0
LINE
  5
2F5
100
AcDbEntity
  8
03___PRT_ALL_CURVES
100
AcDbLine
 62
7
420
16777202
  6
CONTINUOUS
 10
684.7582445441
 20
170.0718766805
 11
684.4040887282
 21
169.1727067588
  0
LINE
  5
2F6
100
AcDbEntity
  8
03___PRT_ALL_CURVES
100
AcDbLine
 62
7
420
16777202
  6
CONTINUOUS
 10
686.205873667
 20
583.3141807221
 11
687.1291592571
 21
581.501199223
  0
LINE
  5
2F7
100
AcDbEntity
  8
03___PRT_ALL_CURVES
100
AcDbLine
 62
7
420
16777202
  6
CONTINUOUS
 10
713.3253208174
 20
169.1720177397
 11
715.0912767631
 21
173.6713124435
  0
LINE
  5
2F8
100
AcDbEntity
  8
03___PRT_ALL_CURVES
100
AcDbLine
 62
7
420
16777202
  6
CONTINUOUS
 10
715.5449958385
 20
172.3800906556
 11
714.9565735296
 21
170.8807851004
  0
LINE
  5
2F9
100
AcDbEntity
  8
03___PRT_ALL_CURVES
100
AcDbLine
 62
7
420
16777202
  6
CONTINUOUS
 10
714.6389357259
 20
170.0718766805
 11
714.28477991
 21
169.1720177397
  0
LINE
  5
2FA
100
AcDbEntity
  8
03___PRT_ALL_CURVES
100
AcDbLine
 62
7
420
16777202
  6
CONTINUOUS
 10
617.5399530028
 20
635.2813790598
 11
616.5677470568
 21
635.4553563818
  0
LINE
  5
2FB
100
AcDbEntity
  8
03___PRT_ALL_CURVES
100
AcDbLine
 62
7
420
16777202
  6
CONTINUOUS
 10
617.3246345349
 20
634.2294191534
 11
616.3637974041
 21
634.4016739277
  0
LINE
  5
2FC
100
AcDbEntity
  8
03___PRT_ALL_CURVES
100
AcDbLine
 62
7
420
16777202
  6
CONTINUOUS
 10
626.8692715768
 20
631.782540085
 11
625.9142911083
 21
632.0538413545
  0
LINE
  5
2FD
100
AcDbEntity
  8
03___PRT_ALL_CURVES
100
AcDbLine
 62
7
420
16777202
  6
CONTINUOUS
 10
627.186564871
 20
632.8057334441
 11
626.221249116
 21
633.0801352995
  0
LINE
  5
2FE
100
AcDbEntity
  8
03___PRT_ALL_CURVES
100
AcDbLine
 62
7
420
16777202
  6
CONTINUOUS
 10
627.8111606825
 20
631.4667970838
 11
626.8692715768
 21
631.782540085
  0
LINE
  5
2FF
100
AcDbEntity
  8
03___PRT_ALL_CURVES
100
AcDbLine
 62
7
420
16777202
  6
CONTINUOUS
 10
628.1391337727
 20
632.4863730926
 11
627.186564871
 21
632.8057334441
  0
LINE
  5
300
100
AcDbEntity
  8
03___PRT_ALL_CURVES
100
AcDbLine
 62
7
420
16777202
  6
CONTINUOUS
 10
639.0118551241
 20
627.1128854095
 11
637.1732076636
 21
627.9398805808
  0
LINE
  5
301
100
AcDbEntity
  8
0
100
AcDbLine
 62
7
  6
CONTINUOUS
 10
735.9893765509
 20
663.0743641439
 11
457.9893765509
 21
663.0743641439
  0
CIRCLE
  5
302
100
AcDbEntity
  8
03___PRT_ALL_CURVES
100
AcDbCircle
 62
7
420
16777202
  6
CONTINUOUS
 10
549.8208564025
 20
189.2776097794
 40
5.2495041923
  0
CIRCLE
  5
303
100
AcDbEntity
  8
03___PRT_ALL_CURVES
100
AcDbCircle
 62
7
420
16777202
  6
CONTINUOUS
 10
519.8209647571
 20
189.2774308287
 40
5.2495040116
  0
ARC
  5
304
100
AcDbEntity
  8
0
100
AcDbCircle
 62
7
  6
CONTINUOUS
 10
457.9893765509
 20
148.0743641439
 40
5.0
100
AcDbArc
 50
180.0
 51
270.0
  0
CIRCLE
  5
305
100
AcDbEntity
  8
03___PRT_ALL_CURVES
100
AcDbCircle
 62
7
420
16777202
  6
CONTINUOUS
 10
519.8205569025
 20
189.2769999342
 40
4.7492970512
  0
CIRCLE
  5
306
100
AcDbEntity
  8
03___PRT_ALL_CURVES
100
AcDbCircle
 62
7
420
16777202
  6
CONTINUOUS
 10
549.8204481765
 20
189.2771788242
 40
4.7492968502
  0
ARC
  5
307
100
AcDbEntity
  8
03___PRT_ALL_CURVES
100
AcDbCircle
 62
7
420
16777202
  6
CONTINUOUS
 10
521.4150660917
 20
190.8731165953
 40
1.4020328934
100
AcDbArc
 50
44.9572107593
 51
214.7871769141
  0
ARC
  5
308
100
AcDbEntity
  8
0
100
AcDbCircle
 62
7
  6
CONTINUOUS
 10
457.9893765509
 20
658.0743641439
 40
5.0
100
AcDbArc
 50
90.0
 51
180.0
  0
CIRCLE
  5
309
100
AcDbEntity
  8
03___PRT_ALL_CURVES
100
AcDbCircle
 62
7
420
16777202
  6
CONTINUOUS
 10
653.3204988295
 20
189.2776098215
 40
5.2494922479
  0
CIRCLE
  5
30A
100
AcDbEntity
  8
03___PRT_ALL_CURVES
100
AcDbCircle
 62
7
420
16777202
  6
CONTINUOUS
 10
634.8200788198
 20
189.277609821
 40
5.2494922464
  0
CIRCLE
  5
30B
100
AcDbEntity
  8
03___PRT_ALL_CURVES
100
AcDbCircle
 62
7
420
16777202
  6
CONTINUOUS
 10
693.3201465947
 20
189.2774310798
 40
5.2494211286
  0
ARC
  5
30C
100
AcDbEntity
  8
0
100
AcDbCircle
 62
7
  6
CONTINUOUS
 10
735.9893765509
 20
148.0743641439
 40
5.0
100
AcDbArc
 50
270.0
 51
360.0
  0
CIRCLE
  5
30D
100
AcDbEntity
  8
03___PRT_ALL_CURVES
100
AcDbCircle
 62
7
420
16777202
  6
CONTINUOUS
 10
634.8201703025
 20
189.2771812438
 40
4.7493323772
  0
CIRCLE
  5
30E
100
AcDbEntity
  8
03___PRT_ALL_CURVES
100
AcDbCircle
 62
7
420
16777202
  6
CONTINUOUS
 10
653.3204073484
 20
189.2771812448
 40
4.7493323778
  0
CIRCLE
  5
30F
100
AcDbEntity
  8
03___PRT_ALL_CURVES
100
AcDbCircle
 62
7
420
16777202
  6
CONTINUOUS
 10
693.3200553775
 20
189.2770000457
 40
4.7492616418
  0
ARC
  5
310
100
AcDbEntity
  8
03___PRT_ALL_CURVES
100
AcDbCircle
 62
7
420
16777202
  6
CONTINUOUS
 10
719.5194031161
 20
168.6709553558
 40
2.0007663373
100
AcDbArc
 50
270.035306812
 51
0.0041666825
  0
ARC
  5
311
100
AcDbEntity
  8
03___PRT_ALL_CURVES
100
AcDbCircle
 62
7
420
16777202
  6
CONTINUOUS
 10
673.5213318197
 20
168.6703670877
 40
2.0001777932
100
AcDbArc
 50
179.9789809511
 51
269.9815455544
  0
ARC
  5
312
100
AcDbEntity
  8
03___PRT_ALL_CURVES
100
AcDbCircle
 62
7
420
16777202
  6
CONTINUOUS
 10
673.5201559888
 20
174.6716104434
 40
1.9990022002
100
AcDbArc
 50
89.9847634106
 51
180.0349767372
  0
ARC
  5
313
100
AcDbEntity
  8
03___PRT_ALL_CURVES
100
AcDbCircle
 62
7
420
16777202
  6
CONTINUOUS
 10
681.4808068444
 20
172.3588869295
 40
1.3124628843
100
AcDbArc
 50
281.4198410207
 51
89.9797925777
  0
ARC
  5
314
100
AcDbEntity
  8
0
100
AcDbCircle
 62
7
  6
CONTINUOUS
 10
735.9893765509
 20
658.0743641439
 40
5.0
100
AcDbArc
 50
0.0
 51
90.0
  0
SPLINE
  5
315
100
AcDbEntity
  8
03___PRT_ALL_CURVES
100
AcDbSpline
 62
7
420
16777202
  6
CONTINUOUS
 70
0
 71
3
 72
12
 73
8
 74
0
 42
0.0000001
 43
0.0000001
 44
0.0000000001
 40
0.0
 40
0.0
 40
0.0
 40
0.0
 40
0.2173542186
 40
0.4647337845
 40
0.7120817213
 40
0.9594520201
 40
1.0
 40
1.0
 40
1.0
 40
1.0
 10
598.3810879902
 20
202.190846399
 30
0.0
 10
599.0355702602
 20
201.3940125606
 30
0.0
 10
599.8590805938
 20
199.1281328553
 30
0.0
 10
598.4236264976
 20
195.6759067647
 30
0.0
 10
594.8230500922
 20
194.1722776015
 30
0.0
 10
592.2148447169
 20
195.2724938583
 30
0.0
 10
591.3009596143
 20
196.3075640521
 30
0.0
 10
591.1823860732
 20
196.4607343871
 30
0.0
  0
SPLINE
  5
316
100
AcDbEntity
  8
03___PRT_ALL_CURVES
100
AcDbSpline
 62
7
420
16777202
  6
CONTINUOUS
 70
0
 71
3
 72
15
 73
11
 74
0
 42
0.0000001
 43
0.0000001
 44
0.0000000001
 40
0.0
 40
0.0
 40
0.0
 40
0.0
 40
0.2293609423
 40
0.3448244557
 40
0.4644473453
 40
0.5905406169
 40
0.7122757748
 40
0.8340169726
 40
0.9601256225
 40
1.0
 40
1.0
 40
1.0
 40
1.0
 10
590.9904969005
 20
202.4916032349
 30
0.0
 10
590.2155078821
 20
201.5703090865
 30
0.0
 10
589.5676900615
 20
199.6515186859
 30
0.0
 10
590.1289873333
 20
197.2359693309
 30
0.0
 10
591.218343245
 20
195.6272962458
 30
0.0
 10
592.8684884729
 20
194.5302444603
 30
0.0
 10
594.8205190102
 20
194.152766555
 30
0.0
 10
596.7725520735
 20
194.5303075215
 30
0.0
 10
598.0648568188
 20
195.3891032427
 30
0.0
 10
598.644841879
 20
196.0493324557
 30
0.0
 10
598.7737312515
 20
196.2159629617
 30
0.0
  0
SPLINE
  5
317
100
AcDbEntity
  8
03___PRT_ALL_CURVES
100
AcDbSpline
 62
7
420
16777202
  6
CONTINUOUS
 70
0
 71
3
 72
9
 73
5
 74
0
 42
0.0000001
 43
0.0000001
 44
0.0000000001
 40
0.0
 40
0.0
 40
0.0
 40
0.0
 40
0.4947735608
 40
1.0
 40
1.0
 40
1.0
 40
1.0
 10
645.4124980262
 20
254.6730865118
 30
0.0
 10
645.3959158439
 20
254.6605771461
 30
0.0
 10
645.3319443558
 20
254.6683097876
 30
0.0
 10
645.3423916168
 20
254.7324752367
 30
0.0
 10
645.3594435557
 20
254.7450890074
 30
0.0
  0
SPLINE
  5
318
100
AcDbEntity
  8
03___PRT_ALL_CURVES
100
AcDbSpline
 62
7
420
16777202
  6
CONTINUOUS
 70
0
 71
3
 72
24
 73
20
 74
0
 42
0.0000001
 43
0.0000001
 44
0.0000000001
 40
0.0
 40
0.0
 40
0.0
 40
0.0
 40
0.0329190757
 40
0.0492853176
 40
0.0655798117
 40
0.0979640412
 40
0.1140489253
 40
0.1300775224
 40
0.1619081484
 40
0.1932832944
 40
0.2551881472
 40
0.3155665719
 40
0.5387706024
 40
0.7274705859
 40
0.8062609748
 40
0.8731447324
 40
0.9668477471
 40
0.9915314826
 40
1.0
 40
1.0
 40
1.0
 40
1.0
 10
677.6313755138
 20
341.5563275925
 30
0.0
 10
677.8718437119
 20
340.5053078444
 30
0.0
 10
678.2826332738
 20
338.9419285461
 30
0.0
 10
678.6238706459
 20
336.8204389866
 30
0.0
 10
679.0197691205
 20
334.7268201599
 30
0.0
 10
679.2757038572
 20
332.6201846652
 30
0.0
 10
679.5645565478
 20
330.5270226195
 30
0.0
 10
679.7165856668
 20
328.4376465419
 30
0.0
 10
679.9423992257
 20
325.8514632749
 30
0.0
 10
680.0033924443
 20
321.7525797617
 30
0.0
 10
679.9278327539
 20
316.7163094932
 30
0.0
 10
678.7778015917
 20
305.4521369153
 30
0.0
 10
674.6748907975
 20
290.3236422703
 30
0.0
 10
666.6715865795
 20
276.2226820252
 30
0.0
 10
659.8360733709
 20
267.649199414
 30
0.0
 10
654.4230385755
 20
261.9675840262
 30
0.0
 10
649.8369931186
 20
257.9705092913
 30
0.0
 10
646.510826567
 20
255.4805105565
 30
0.0
 10
645.6359918591
 20
254.8373464214
 30
0.0
 10
645.4124980262
 20
254.6730865118
 30
0.0
  0
SPLINE
  5
319
100
AcDbEntity
  8
03___PRT_ALL_CURVES
100
AcDbSpline
 62
7
420
16777202
  6
CONTINUOUS
 70
0
 71
3
 72
11
 73
7
 74
0
 42
0.0000001
 43
0.0000001
 44
0.0000000001
 40
0.0
 40
0.0
 40
0.0
 40
0.0
 40
0.2511752892
 40
0.5015691662
 40
0.7512388711
 40
1.0
 40
1.0
 40
1.0
 40
1.0
 10
675.2993903798
 20
349.3983984455
 30
0.0
 10
675.4740895683
 20
348.8777398404
 30
0.0
 10
675.8188348536
 20
347.8368335324
 30
0.0
 10
676.365353434
 20
346.286894587
 30
0.0
 10
676.7832120509
 20
344.7029000099
 30
0.0
 10
677.0839640188
 20
343.6555607972
 30
0.0
 10
677.2317444375
 20
343.1321142674
 30
0.0
  0
SPLINE
  5
31A
100
AcDbEntity
  8
03___PRT_ALL_CURVES
100
AcDbSpline
 62
7
420
16777202
  6
CONTINUOUS
 70
0
 71
3
 72
10
 73
6
 74
0
 42
0.0000001
 43
0.0000001
 44
0.0000000001
 40
0.0
 40
0.0
 40
0.0
 40
0.0
 40
0.200860452
 40
0.6014280392
 40
1.0
 40
1.0
 40
1.0
 40
1.0
 10
671.4160787488
 20
358.5840565379
 30
0.0
 10
671.6665221946
 20
358.0859217721
 30
0.0
 10
672.3972237562
 20
356.5849360387
 30
0.0
 10
673.5522769597
 20
354.0588248906
 30
0.0
 10
674.3280818948
 20
351.9796671744
 30
0.0
 10
674.7347392298
 20
350.9507584712
 30
0.0
  0
SPLINE
  5
31B
100
AcDbEntity
  8
03___PRT_ALL_CURVES
100
AcDbSpline
 62
7
420
16777202
  6
CONTINUOUS
 70
0
 71
3
 72
15
 73
11
 74
0
 42
0.0000001
 43
0.0000001
 44
0.0000000001
 40
0.0
 40
0.0
 40
0.0
 40
0.0
 40
0.0517244995
 40
0.1036881861
 40
0.1297657804
 40
0.1558871184
 40
0.3662127167
 40
0.5780936181
 40
0.7898958121
 40
1.0
 40
1.0
 40
1.0
 40
1.0
 10
622.7723640258
 20
400.6266238017
 30
0.0
 10
623.8211802572
 20
400.2681545069
 30
0.0
 10
625.9384439951
 20
399.590620697
 30
0.0
 10
628.5155500733
 20
398.5410919626
 30
0.0
 10
630.5656723183
 20
397.658542249
 30
0.0
 10
635.6843535476
 20
395.3252766968
 30
0.0
 10
644.1001668777
 20
390.5870976282
 30
0.0
 10
654.656927097
 20
381.9411079334
 30
0.0
 10
663.7523089915
 20
371.7776645139
 30
0.0
 10
668.5667547138
 20
364.0676939106
 30
0.0
 10
670.6547126466
 20
360.0788834689
 30
0.0
  0
SPLINE
  5
31C
100
AcDbEntity
  8
03___PRT_ALL_CURVES
100
AcDbSpline
 62
7
420
16777202
  6
CONTINUOUS
 70
0
 71
3
 72
12
 73
8
 74
0
 42
0.0000001
 43
0.0000001
 44
0.0000000001
 40
0.0
 40
0.0
 40
0.0
 40
0.0
 40
0.1103573874
 40
0.3317205681
 40
0.5537513442
 40
0.7766009766
 40
1.0
 40
1.0
 40
1.0
 40
1.0
 10
614.0325012892
 20
402.9310481717
 30
0.0
 10
614.2988123038
 20
402.8768890664
 30
0.0
 10
615.0934587688
 20
402.6866537073
 30
0.0
 10
616.4213173186
 20
402.3774783591
 30
0.0
 10
618.0265780668
 20
402.0340577995
 30
0.0
 10
619.6039405988
 20
401.5617037956
 30
0.0
 10
620.6623122974
 20
401.266506597
 30
0.0
 10
621.1914097076
 20
401.1158273606
 30
0.0
  0
SPLINE
  5
31D
100
AcDbEntity
  8
03___PRT_ALL_CURVES
100
AcDbSpline
 62
7
420
16777202
  6
CONTINUOUS
 70
0
 71
3
 72
18
 73
14
 74
0
 42
0.0000001
 43
0.0000001
 44
0.0000000001
 40
0.0
 40
0.0
 40
0.0
 40
0.0
 40
0.1268135398
 40
0.2723610305
 40
0.4611376729
 40
0.6844977426
 40
0.8064457863
 40
0.8378140412
 40
0.8696778778
 40
0.9018409224
 40
0.9342898237
 40
0.967020527
 40
1.0
 40
1.0
 40
1.0
 40
1.0
 10
515.0600756412
 20
404.2046999726
 30
0.0
 10
519.2137784991
 20
404.246096422
 30
0.0
 10
528.1349432159
 20
404.3203648593
 30
0.0
 10
543.2396007828
 20
404.4302092262
 30
0.0
 10
561.5068639114
 20
404.5215390117
 30
0.0
 10
579.0013699874
 20
404.5978497272
 30
0.0
 10
591.3396069424
 20
404.5885756581
 30
0.0
 10
597.4055666611
 20
404.6196683302
 30
0.0
 10
600.5298937664
 20
404.542173335
 30
0.0
 10
603.6857471411
 20
404.3626031793
 30
0.0
 10
606.8603829452
 20
404.064359286
 30
0.0
 10
610.0554086847
 20
403.6858615006
 30
0.0
 10
612.1674687921
 20
403.2648010983
 30
0.0
 10
613.2308275698
 20
403.0743641439
 30
0.0
  0
SPLINE
  5
31E
100
AcDbEntity
  8
03___PRT_ALL_CURVES
100
AcDbSpline
 62
7
420
16777202
  6
CONTINUOUS
 70
0
 71
3
 72
9
 73
5
 74
0
 42
0.0000001
 43
0.0000001
 44
0.0000000001
 40
0.0
 40
0.0
 40
0.0
 40
0.0
 40
0.5009764926
 40
1.0
 40
1.0
 40
1.0
 40
1.0
 10
515.0600756412
 20
404.1154719996
 30
0.0
 10
515.0391270858
 20
404.1157691422
 30
0.0
 10
514.9927885834
 20
404.1602568146
 30
0.0
 10
515.0392087507
 20
404.2044039884
 30
0.0
 10
515.0600756412
 20
404.2046999726
 30
0.0
  0
SPLINE
  5
31F
100
AcDbEntity
  8
03___PRT_ALL_CURVES
100
AcDbSpline
 62
7
420
16777202
  6
CONTINUOUS
 70
0
 71
3
 72
18
 73
14
 74
0
 42
0.0000001
 43
0.0000001
 44
0.0000000001
 40
0.0
 40
0.0
 40
0.0
 40
0.0
 40
0.032681373
 40
0.0651207109
 40
0.0972827451
 40
0.1291527883
 40
0.1607346103
 40
0.1921572033
 40
0.3143164928
 40
0.5380634922
 40
0.7271671077
 40
0.8729667247
 40
1.0
 40
1.0
 40
1.0
 40
1.0
 10
613.0623624006
 20
402.2055110625
 30
0.0
 10
612.0104164586
 20
402.3937828819
 30
0.0
 10
609.9207000166
 20
402.8091595937
 30
0.0
 10
606.7596257557
 20
403.1830891099
 30
0.0
 10
603.6187215148
 20
403.4770058543
 30
0.0
 10
600.4964285777
 20
403.6534671228
 30
0.0
 10
597.3945434907
 20
403.7315887966
 30
0.0
 10
591.3396025171
 20
403.6942999718
 30
0.0
 10
579.0013723219
 20
403.7494642238
 30
0.0
 10
561.5068673108
 20
403.7914186596
 30
0.0
 10
543.2395969362
 20
403.8903593813
 30
0.0
 10
528.1349459763
 20
403.9992481339
 30
0.0
 10
519.2137658764
 20
404.0726328065
 30
0.0
 10
515.0600756412
 20
404.1154719996
 30
0.0
  0
SPLINE
  5
320
100
AcDbEntity
  8
03___PRT_ALL_CURVES
100
AcDbSpline
 62
7
420
16777202
  6
CONTINUOUS
 70
0
 71
3
 72
12
 73
8
 74
0
 42
0.0000001
 43
0.0000001
 44
0.0000000001
 40
0.0
 40
0.0
 40
0.0
 40
0.0
 40
0.2234689084
 40
0.4461300847
 40
0.6682761786
 40
0.8895636911
 40
1.0
 40
1.0
 40
1.0
 40
1.0
 10
620.9378506799
 20
400.2697119094
 30
0.0
 10
620.4141366231
 20
400.4183303715
 30
0.0
 10
619.3675977245
 20
400.7109059844
 30
0.0
 10
617.807014906
 20
401.1775880154
 30
0.0
 10
616.2191963088
 20
401.5165089284
 30
0.0
 10
614.905190722
 20
401.8217880364
 30
0.0
 10
614.1191531001
 20
402.0104129496
 30
0.0
 10
613.8554233813
 20
402.0635731285
 30
0.0
  0
SPLINE
  5
321
100
AcDbEntity
  8
03___PRT_ALL_CURVES
100
AcDbSpline
 62
7
420
16777202
  6
CONTINUOUS
 70
0
 71
3
 72
10
 73
6
 74
0
 42
0.0000001
 43
0.0000001
 44
0.0000000001
 40
0.0
 40
0.0
 40
0.0
 40
0.0
 40
0.2009267638
 40
0.6014306095
 40
1.0
 40
1.0
 40
1.0
 40
1.0
 10
630.2227275222
 20
396.8773263851
 30
0.0
 10
629.7190700576
 20
397.1052614697
 30
0.0
 10
628.1908250356
 20
397.7403737115
 30
0.0
 10
625.6391655974
 20
398.773808385
 30
0.0
 10
623.5411348032
 20
399.4354733603
 30
0.0
 10
622.5019240302
 20
399.7856759937
 30
0.0
  0
SPLINE
  5
322
100
AcDbEntity
  8
03___PRT_ALL_CURVES
100
AcDbSpline
 62
7
420
16777202
  6
CONTINUOUS
 70
0
 71
3
 72
11
 73
7
 74
0
 42
0.0000001
 43
0.0000001
 44
0.0000000001
 40
0.0
 40
0.0
 40
0.0
 40
0.0
 40
0.2491414873
 40
0.500178899
 40
0.7511290826
 40
1.0
 40
1.0
 40
1.0
 40
1.0
 10
670.111076579
 20
359.7943185818
 30
0.0
 10
668.0244961012
 20
363.7444121689
 30
0.0
 10
663.2207486874
 20
371.3749443846
 30
0.0
 10
654.1667575746
 20
381.4245605895
 30
0.0
 10
643.6618465985
 20
389.9396010855
 30
0.0
 10
635.7903511761
 20
394.3252243719
 30
0.0
 10
631.7385695357
 20
396.195197479
 30
0.0
  0
SPLINE
  5
323
100
AcDbEntity
  8
03___PRT_ALL_CURVES
100
AcDbSpline
 62
7
420
16777202
  6
CONTINUOUS
 70
0
 71
3
 72
10
 73
6
 74
0
 42
0.0000001
 43
0.0000001
 44
0.0000000001
 40
0.0
 40
0.0
 40
0.0
 40
0.0
 40
0.3984503975
 40
0.799066175
 40
1.0
 40
1.0
 40
1.0
 40
1.0
 10
674.1942037481
 20
350.7474978376
 30
0.0
 10
673.787649833
 20
351.7675094869
 30
0.0
 10
673.0107203788
 20
353.8289937205
 30
0.0
 10
671.8531669199
 20
356.3319213827
 30
0.0
 10
671.1228238119
 20
357.8200745357
 30
0.0
 10
670.8717536622
 20
358.3136165423
 30
0.0
  0
SPLINE
  5
324
100
AcDbEntity
  8
03___PRT_ALL_CURVES
100
AcDbSpline
 62
7
420
16777202
  6
CONTINUOUS
 70
0
 71
3
 72
11
 73
7
 74
0
 42
0.0000001
 43
0.0000001
 44
0.0000000001
 40
0.0
 40
0.0
 40
0.0
 40
0.0
 40
0.2488211708
 40
0.4984994334
 40
0.748863867
 40
1.0
 40
1.0
 40
1.0
 40
1.0
 10
676.7039558091
 20
342.9908653525
 30
0.0
 10
676.5555090218
 20
343.5104291084
 30
0.0
 10
676.2513374219
 20
344.5492565406
 30
0.0
 10
675.8323870512
 20
346.1216153421
 30
0.0
 10
675.2829599489
 20
347.6586166525
 30
0.0
 10
674.9369612683
 20
348.6911163494
 30
0.0
 10
674.7616109746
 20
349.2075401557
 30
0.0
  0
SPLINE
  5
325
100
AcDbEntity
  8
03___PRT_ALL_CURVES
100
AcDbSpline
 62
7
420
16777202
  6
CONTINUOUS
 70
0
 71
3
 72
23
 73
19
 74
0
 42
0.0000001
 43
0.0000001
 44
0.0000000001
 40
0.0
 40
0.0
 40
0.0
 40
0.0
 40
0.0085017268
 40
0.0332708585
 40
0.1271855392
 40
0.194195706
 40
0.2731085039
 40
0.4619378492
 40
0.6850299669
 40
0.7453340976
 40
0.8070789153
 40
0.8385810208
 40
0.8702637796
 40
0.8862263916
 40
0.9022753662
 40
0.9345783256
 40
0.9671598975
 40
1.0
 40
1.0
 40
1.0
 40
1.0
 10
645.3594435557
 20
254.7450890074
 30
0.0
 10
645.5824232846
 20
254.910033017
 30
0.0
 10
646.4539736109
 20
255.5569696352
 30
0.0
 10
649.7627556837
 20
258.0607915315
 30
0.0
 10
654.3224293071
 20
262.0726392199
 30
0.0
 10
659.6956076759
 20
267.7702359829
 30
0.0
 10
666.4710248177
 20
276.3521094575
 30
0.0
 10
674.3737825284
 20
290.4416144858
 30
0.0
 10
678.3909987537
 20
305.5274729173
 30
0.0
 10
679.478296679
 20
316.7415636291
 30
0.0
 10
679.5366594537
 20
321.7546043354
 30
0.0
 10
679.4601472192
 20
325.8311946711
 30
0.0
 10
679.226511233
 20
328.4036111257
 30
0.0
 10
679.0671682272
 20
330.4758878832
 30
0.0
 10
678.7774760447
 20
332.5546896622
 30
0.0
 10
678.4167314537
 20
335.169729673
 30
0.0
 10
677.8717833044
 20
338.3134121481
 30
0.0
 10
677.3486077424
 20
340.3836077264
 30
0.0
 10
677.1059984523
 20
341.4271365118
 30
0.0
  0
SPLINE
  5
326
100
AcDbEntity
  8
03___PRT_ALL_CURVES
100
AcDbSpline
 62
7
420
16777202
  6
CONTINUOUS
 70
0
 71
3
 72
23
 73
19
 74
0
 42
0.0000001
 43
0.0000001
 44
0.0000000001
 40
0.0
 40
0.0
 40
0.0
 40
0.0
 40
0.0328295337
 40
0.065415622
 40
0.0977256632
 40
0.1137784103
 40
0.129737728
 40
0.161420864
 40
0.1929228417
 40
0.2546678216
 40
0.3149722683
 40
0.538065171
 40
0.726892108
 40
0.8058008197
 40
0.8728161981
 40
0.9667361769
 40
0.991499001
 40
1.0
 40
1.0
 40
1.0
 40
1.0
 10
517.9823778866
 20
301.9256716779
 30
0.0
 10
517.7395333017
 20
302.9687878522
 30
0.0
 10
517.2169762807
 20
305.0389058842
 30
0.0
 10
516.6710249515
 20
308.182425942
 30
0.0
 10
516.3106824816
 20
310.7980302122
 30
0.0
 10
516.0207156207
 20
312.877033987
 30
0.0
 10
515.8611367193
 20
314.9493100524
 30
0.0
 10
515.6267992872
 20
317.5215826556
 30
0.0
 10
515.5523004842
 20
321.5982296636
 30
0.0
 10
515.6092648547
 20
326.6112502082
 30
0.0
 10
516.6975743968
 20
337.8253072912
 30
0.0
 10
520.7137647661
 20
352.9113181106
 30
0.0
 10
528.6174919945
 20
366.9999014759
 30
0.0
 10
535.3917243503
 20
375.5826674899
 30
0.0
 10
540.765623943
 20
381.2797127174
 30
0.0
 10
545.3238204438
 20
385.2936662031
 30
0.0
 10
548.6344629004
 20
387.7949171783
 30
0.0
 10
549.5054211607
 20
388.4422538969
 30
0.0
 10
549.7277269997
 20
388.6080636918
 30
0.0
  0
SPLINE
  5
327
100
AcDbEntity
  8
03___PRT_ALL_CURVES
100
AcDbSpline
 62
7
420
16777202
  6
CONTINUOUS
 70
0
 71
3
 72
11
 73
7
 74
0
 42
0.0000001
 43
0.0000001
 44
0.0000000001
 40
0.0
 40
0.0
 40
0.0
 40
0.0
 40
0.2511956223
 40
0.5015619498
 40
0.751173172
 40
1.0
 40
1.0
 40
1.0
 40
1.0
 10
520.3265931095
 20
294.1445790149
 30
0.0
 10
520.1508765038
 20
294.6610689207
 30
0.0
 10
519.8061504623
 20
295.6942524394
 30
0.0
 10
519.2555775823
 20
297.2310032246
 30
0.0
 10
518.8362048598
 20
298.8032846507
 30
0.0
 10
518.5328618743
 20
299.8423119283
 30
0.0
 10
518.3844205297
 20
300.3619428371
 30
0.0
  0
SPLINE
  5
328
100
AcDbEntity
  8
03___PRT_ALL_CURVES
100
AcDbSpline
 62
7
420
16777202
  6
CONTINUOUS
 70
0
 71
3
 72
10
 73
6
 74
0
 42
0.0000001
 43
0.0000001
 44
0.0000000001
 40
0.0
 40
0.0
 40
0.0
 40
0.0
 40
0.2008441736
 40
0.6014497612
 40
1.0
 40
1.0
 40
1.0
 40
1.0
 10
524.2159336576
 20
285.0391916474
 30
0.0
 10
523.9652487615
 20
285.5326414498
 30
0.0
 10
523.2344721526
 20
287.0202353517
 30
0.0
 10
522.0777080508
 20
289.5234895274
 30
0.0
 10
521.3006257819
 20
291.5851204496
 30
0.0
 10
520.8938280812
 20
292.6053103521
 30
0.0
  0
SPLINE
  5
329
100
AcDbEntity
  8
03___PRT_ALL_CURVES
100
AcDbSpline
 62
7
420
16777202
  6
CONTINUOUS
 70
0
 71
3
 72
11
 73
7
 74
0
 42
0.0000001
 43
0.0000001
 44
0.0000000001
 40
0.0
 40
0.0
 40
0.0
 40
0.0
 40
0.2488869284
 40
0.4998278693
 40
0.7508610234
 40
1.0
 40
1.0
 40
1.0
 40
1.0
 10
563.349979058
 20
247.1569216916
 30
0.0
 10
559.2979694403
 20
249.0272665474
 30
0.0
 10
551.4261479419
 20
253.4128468052
 30
0.0
 10
540.9212629504
 20
261.9283779807
 30
0.0
 10
531.8672441266
 20
271.9778721469
 30
0.0
 10
527.063513237
 20
279.6084403633
 30
0.0
 10
524.9767829955
 20
283.5584896078
 30
0.0
  0
SPLINE
  5
32A
100
AcDbEntity
  8
03___PRT_ALL_CURVES
100
AcDbSpline
 62
7
420
16777202
  6
CONTINUOUS
 70
0
 71
3
 72
10
 73
6
 74
0
 42
0.0000001
 43
0.0000001
 44
0.0000000001
 40
0.0
 40
0.0
 40
0.0
 40
0.0
 40
0.3985277908
 40
0.7990735251
 40
1.0
 40
1.0
 40
1.0
 40
1.0
 10
572.5859355444
 20
243.567132196
 30
0.0
 10
571.5468441308
 20
243.9170074168
 30
0.0
 10
569.4493384488
 20
244.5795353838
 30
0.0
 10
566.8974805183
 20
245.6117568869
 30
0.0
 10
565.3695011438
 20
246.2473803225
 30
0.0
 10
564.8658210715
 20
246.475137295
 30
0.0
  0
SPLINE
  5
32B
100
AcDbEntity
  8
03___PRT_ALL_CURVES
100
AcDbSpline
 62
7
420
16777202
  6
CONTINUOUS
 70
0
 71
3
 72
13
 73
9
 74
0
 42
0.0000001
 43
0.0000001
 44
0.0000000001
 40
0.0
 40
0.0
 40
0.0
 40
0.0
 40
0.2160877312
 40
0.4620166404
 40
0.7079835043
 40
0.8333550764
 40
0.9587619464
 40
1.0
 40
1.0
 40
1.0
 40
1.0
 10
591.2599033674
 20
176.3374718395
 30
0.0
 10
590.6055333651
 20
177.1343729071
 30
0.0
 10
589.7839619648
 20
179.3986712038
 30
0.0
 10
591.2102341358
 20
182.8583875961
 30
0.0
 10
594.2496916636
 20
184.0941173453
 30
0.0
 10
596.626837632
 20
183.6119128899
 30
0.0
 10
597.8145203619
 20
182.82231239
 30
0.0
 10
598.3437946994
 20
182.2106357454
 30
0.0
 10
598.4647773576
 20
182.0510069343
 30
0.0
  0
SPLINE
  5
32C
100
AcDbEntity
  8
03___PRT_ALL_CURVES
100
AcDbSpline
 62
7
420
16777202
  6
CONTINUOUS
 70
0
 71
3
 72
15
 73
11
 74
0
 42
0.0000001
 43
0.0000001
 44
0.0000000001
 40
0.0
 40
0.0
 40
0.0
 40
0.0
 40
0.2293587794
 40
0.3448228637
 40
0.4644406477
 40
0.5905515739
 40
0.7122962486
 40
0.8340328701
 40
0.9601232918
 40
1.0
 40
1.0
 40
1.0
 40
1.0
 10
598.6508389667
 20
176.0367150036
 30
0.0
 10
599.4257672519
 20
176.9580329941
 30
0.0
 10
600.0734275023
 20
178.8768396628
 30
0.0
 10
599.5121554098
 20
181.2922845561
 30
0.0
 10
598.4229869833
 20
182.9011876558
 30
0.0
 10
596.7725278494
 20
183.9980199962
 30
0.0
 10
594.8204636599
 20
184.3755470456
 30
0.0
 10
592.8684375035
 20
183.9980891951
 30
0.0
 10
591.576432877
 20
183.1391116922
 30
0.0
 10
590.9964673886
 20
182.4789725008
 30
0.0
 10
590.8675582179
 20
182.3123426421
 30
0.0
  0
SPLINE
  5
32D
100
AcDbEntity
  8
03___PRT_ALL_CURVES
100
AcDbSpline
 62
7
420
16777202
  6
CONTINUOUS
 70
0
 71
3
 72
12
 73
8
 74
0
 42
0.0000001
 43
0.0000001
 44
0.0000000001
 40
0.0
 40
0.0
 40
0.0
 40
0.0
 40
0.1103675043
 40
0.3317242357
 40
0.553755819
 40
0.7765307672
 40
1.0
 40
1.0
 40
1.0
 40
1.0
 10
581.232608448
 20
241.2888905516
 30
0.0
 10
580.9691240968
 20
241.3424162061
 30
0.0
 10
580.1829859678
 20
241.5305122686
 30
0.0
 10
578.8692571347
 20
241.8358109467
 30
0.0
 10
577.2813741526
 20
242.1751434516
 30
0.0
 10
575.720683584
 20
242.6414218287
 30
0.0
 10
574.6738695829
 20
242.9340430447
 30
0.0
 10
574.1501811495
 20
243.0827517707
 30
0.0
  0
SPLINE
  5
32E
100
AcDbEntity
  8
03___PRT_ALL_CURVES
100
AcDbSpline
 62
7
420
16777202
  6
CONTINUOUS
 70
0
 71
3
 72
18
 73
14
 74
0
 42
0.0000001
 43
0.0000001
 44
0.0000000001
 40
0.0
 40
0.0
 40
0.0
 40
0.0
 40
0.1270268478
 40
0.2728307311
 40
0.4619353439
 40
0.6856799893
 40
0.8078381551
 40
0.839262666
 40
0.8708444757
 40
0.9027232482
 40
0.934877667
 40
0.9673167293
 40
1.0
 40
1.0
 40
1.0
 40
1.0
 10
680.0274394238
 20
239.2373361901
 30
0.0
 10
675.8739758432
 20
239.2796850475
 30
0.0
 10
666.9529112071
 20
239.3527853964
 30
0.0
 10
651.8483765914
 20
239.4617308735
 30
0.0
 10
633.5811082258
 20
239.561037173
 30
0.0
 10
616.0867751638
 20
239.6035263743
 30
0.0
 10
603.7486577529
 20
239.6574296389
 30
0.0
 10
597.6937248581
 20
239.621497963
 30
0.0
 10
594.5915025044
 20
239.6986378601
 30
0.0
 10
591.4691069604
 20
239.8742277518
 30
0.0
 10
588.3283942717
 20
240.1702945693
 30
0.0
 10
585.1674078315
 20
240.543070673
 30
0.0
 10
583.0776710107
 20
240.9586708401
 30
0.0
 10
582.0256694287
 20
241.1469526176
 30
0.0
  0
SPLINE
  5
32F
100
AcDbEntity
  8
03___PRT_ALL_CURVES
100
AcDbSpline
 62
7
420
16777202
  6
CONTINUOUS
 70
0
 71
3
 72
9
 73
5
 74
0
 42
0.0000001
 43
0.0000001
 44
0.0000000001
 40
0.0
 40
0.0
 40
0.0
 40
0.0
 40
0.4970706096
 40
1.0
 40
1.0
 40
1.0
 40
1.0
 10
680.0274394238
 20
239.148108217
 30
0.0
 10
680.0482270537
 20
239.148108217
 30
0.0
 10
680.0947307654
 20
239.1925000303
 30
0.0
 10
680.0484639598
 20
239.2367521752
 30
0.0
 10
680.0274394238
 20
239.2373361901
 30
0.0
  0
SPLINE
  5
330
100
AcDbEntity
  8
03___PRT_ALL_CURVES
100
AcDbSpline
 62
7
420
16777202
  6
CONTINUOUS
 70
0
 71
3
 72
18
 73
14
 74
0
 42
0.0000001
 43
0.0000001
 44
0.0000000001
 40
0.0
 40
0.0
 40
0.0
 40
0.0
 40
0.0329865011
 40
0.0657208071
 40
0.098166021
 40
0.1303239386
 40
0.1621897374
 40
0.1935598652
 40
0.3155066222
 40
0.5388640398
 40
0.7276414226
 40
0.8731929256
 40
1.0
 40
1.0
 40
1.0
 40
1.0
 10
581.8570320047
 20
240.2780995362
 30
0.0
 10
582.9206781429
 20
240.0879850143
 30
0.0
 10
585.0330089377
 20
239.6665159031
 30
0.0
 10
588.228269416
 20
239.2880658235
 30
0.0
 10
591.4027628272
 20
238.990288189
 30
0.0
 10
594.5583704732
 20
238.8107134084
 30
0.0
 10
597.6826323408
 20
238.7326876896
 30
0.0
 10
603.7486571578
 20
238.7640114109
 30
0.0
 10
616.0867745093
 20
238.7545624281
 30
0.0
 10
633.5811131801
 20
238.8306807015
 30
0.0
 10
651.8483689138
 20
238.9229940668
 30
0.0
 10
666.9529201691
 20
239.0316145956
 30
0.0
 10
675.8739732822
 20
239.1058137712
 30
0.0
 10
680.0274394238
 20
239.148108217
 30
0.0
  0
SPLINE
  5
331
100
AcDbEntity
  8
03___PRT_ALL_CURVES
100
AcDbSpline
 62
7
420
16777202
  6
CONTINUOUS
 70
0
 71
3
 72
9
 73
5
 74
0
 42
0.0000001
 43
0.0000001
 44
0.0000000001
 40
0.0
 40
0.0
 40
0.0
 40
0.0
 40
0.5000174818
 40
1.0
 40
1.0
 40
1.0
 40
1.0
 10
598.0352004035
 20
203.1079308172
 30
0.0
 10
597.1624501614
 20
203.8416409603
 30
0.0
 10
594.8209619774
 20
204.7129680535
 30
0.0
 10
592.4790557512
 20
203.8420690783
 30
0.0
 10
591.6064799732
 20
203.1082753267
 30
0.0
  0
SPLINE
  5
332
100
AcDbEntity
  8
03___PRT_ALL_CURVES
100
AcDbSpline
 62
7
420
16777202
  6
CONTINUOUS
 70
0
 71
3
 72
12
 73
8
 74
0
 42
0.0000001
 43
0.0000001
 44
0.0000000001
 40
0.0
 40
0.0
 40
0.0
 40
0.0
 40
0.2234586243
 40
0.4462205534
 40
0.6682554837
 40
0.8896299662
 40
1.0
 40
1.0
 40
1.0
 40
1.0
 10
573.896449867
 20
242.2369808291
 30
0.0
 10
574.4256849314
 20
242.0860654713
 30
0.0
 10
575.4841269221
 20
241.7910214959
 30
0.0
 10
577.0613991502
 20
241.3179224807
 30
0.0
 10
578.6670641588
 20
240.9763597995
 30
0.0
 10
579.9946702335
 20
240.6652408169
 30
0.0
 10
580.7895023143
 20
240.4752075936
 30
0.0
 10
581.0558750496
 20
240.4210709988
 30
0.0
  0
SPLINE
  5
333
100
AcDbEntity
  8
03___PRT_ALL_CURVES
100
AcDbSpline
 62
7
420
16777202
  6
CONTINUOUS
 70
0
 71
3
 72
9
 73
5
 74
0
 42
0.0000001
 43
0.0000001
 44
0.0000000001
 40
0.0
 40
0.0
 40
0.0
 40
0.0
 40
0.4998606008
 40
1.0
 40
1.0
 40
1.0
 40
1.0
 10
592.1521830981
 20
202.5208865465
 30
0.0
 10
592.8860189578
 20
203.1254801579
 30
0.0
 10
594.8422404747
 20
203.8345970922
 30
0.0
 10
596.7922952402
 20
203.1072333621
 30
0.0
 10
597.520503138
 20
202.4950483304
 30
0.0
  0
SPLINE
  5
334
100
AcDbEntity
  8
03___PRT_ALL_CURVES
100
AcDbSpline
 62
7
420
16777202
  6
CONTINUOUS
 70
0
 71
3
 72
15
 73
11
 74
0
 42
0.0000001
 43
0.0000001
 44
0.0000000001
 40
0.0
 40
0.0
 40
0.0
 40
0.0
 40
0.2101051475
 40
0.4219138346
 40
0.6338003765
 40
0.8441147113
 40
0.8702432348
 40
0.8963135372
 40
0.948280399
 40
1.0
 40
1.0
 40
1.0
 40
1.0
 10
524.4334914375
 20
283.2739247207
 30
0.0
 10
526.521587908
 20
279.2851805792
 30
0.0
 10
531.3352067097
 20
271.5745861013
 30
0.0
 10
540.430822237
 20
261.4108784124
 30
0.0
 10
550.9881819151
 20
252.7656499708
 30
0.0
 10
559.4040245313
 20
248.0276763044
 30
0.0
 10
564.5222595828
 20
245.6940766443
 30
0.0
 10
566.5722625503
 20
244.8110937832
 30
0.0
 10
569.1495143825
 20
243.7624675803
 30
0.0
 10
571.2666460316
 20
243.0847242425
 30
0.0
 10
572.315323294
 20
242.726184388
 30
0.0
  0
SPLINE
  5
335
100
AcDbEntity
  8
03___PRT_ALL_CURVES
100
AcDbSpline
 62
7
420
16777202
  6
CONTINUOUS
 70
0
 71
3
 72
10
 73
6
 74
0
 42
0.0000001
 43
0.0000001
 44
0.0000000001
 40
0.0
 40
0.0
 40
0.0
 40
0.0
 40
0.3984637902
 40
0.799047475
 40
1.0
 40
1.0
 40
1.0
 40
1.0
 10
520.3536371091
 20
292.4013606994
 30
0.0
 10
520.7600355656
 20
291.3726700037
 30
0.0
 10
521.535322621
 20
289.2935714769
 30
0.0
 10
522.6909613495
 20
286.7677099796
 30
0.0
 10
523.4217388057
 20
285.2664268081
 30
0.0
 10
523.67229759
 20
284.7680626327
 30
0.0
  0
SPLINE
  5
336
100
AcDbEntity
  8
03___PRT_ALL_CURVES
100
AcDbSpline
 62
7
420
16777202
  6
CONTINUOUS
 70
0
 71
3
 72
11
 73
7
 74
0
 42
0.0000001
 43
0.0000001
 44
0.0000000001
 40
0.0
 40
0.0
 40
0.0
 40
0.0
 40
0.2488144798
 40
0.4984584827
 40
0.7488469835
 40
1.0
 40
1.0
 40
1.0
 40
1.0
 10
517.8564596466
 20
300.2206939222
 30
0.0
 10
518.0040897047
 20
299.697090118
 30
0.0
 10
518.305346028
 20
298.6498488162
 30
0.0
 10
518.7215453335
 20
297.0653292919
 30
0.0
 10
519.2701392267
 20
295.5162100135
 30
0.0
 10
519.6138383269
 20
294.4750333955
 30
0.0
 10
519.7884691947
 20
293.9544097441
 30
0.0
  0
SPLINE
  5
337
100
AcDbEntity
  8
03___PRT_ALL_CURVES
100
AcDbSpline
 62
7
420
16777202
  6
CONTINUOUS
 70
0
 71
3
 72
24
 73
20
 74
0
 42
0.0000001
 43
0.0000001
 44
0.0000000001
 40
0.0
 40
0.0
 40
0.0
 40
0.0
 40
0.0084684854
 40
0.0331537242
 40
0.126857194
 40
0.1937388594
 40
0.2725362056
 40
0.4612310666
 40
0.6844384984
 40
0.7448137273
 40
0.8067152546
 40
0.8380974813
 40
0.869928262
 40
0.8859534433
 40
0.9020312296
 40
0.9344190887
 40
0.9507177751
 40
0.9670799834
 40
1.0
 40
1.0
 40
1.0
 40
1.0
 10
549.674844784
 20
388.6797216779
 30
0.0
 10
549.4518152133
 20
388.5148359805
 30
0.0
 10
548.5771238484
 20
387.8714065495
 30
0.0
 10
545.2491271109
 20
385.383774546
 30
0.0
 10
540.6644008048
 20
381.3849666133
 30
0.0
 10
535.2512007558
 20
375.7034606515
 30
0.0
 10
528.4160705984
 20
367.1296545035
 30
0.0
 10
520.4140908064
 20
353.0279762018
 30
0.0
 10
516.3101764867
 20
337.9001939777
 30
0.0
 10
515.1595855629
 20
326.6361579078
 30
0.0
 10
515.0851707273
 20
321.5998867958
 30
0.0
 10
515.1453142756
 20
317.5008807989
 30
0.0
 10
515.3712465727
 20
314.9145834952
 30
0.0
 10
515.5233272895
 20
312.8255653606
 30
0.0
 10
515.8119737565
 20
310.732615742
 30
0.0
 10
516.0678701361
 20
308.6259584496
 30
0.0
 10
516.4639241934
 20
306.5322507734
 30
0.0
 10
516.8051024934
 20
304.4107294143
 30
0.0
 10
517.2155309007
 20
302.847376007
 30
0.0
 10
517.4566563155
 20
301.7964805972
 30
0.0
  0
SPLINE
  5
338
100
AcDbEntity
  8
03___PRT_ALL_CURVES
100
AcDbSpline
 62
7
420
16777202
  6
CONTINUOUS
 70
0
 71
3
 72
9
 73
5
 74
0
 42
0.0000001
 43
0.0000001
 44
0.0000000001
 40
0.0
 40
0.0
 40
0.0
 40
0.0
 40
0.498542931
 40
1.0
 40
1.0
 40
1.0
 40
1.0
 10
549.7277269997
 20
388.6080636918
 30
0.0
 10
549.7447130285
 20
388.6202587893
 30
0.0
 10
549.7559072245
 20
388.6842642507
 30
0.0
 10
549.6919698078
 20
388.6919325644
 30
0.0
 10
549.674844784
 20
388.6797216779
 30
0.0
  0
SPLINE
  5
339
100
AcDbEntity
  8
03___PRT_ALL_CURVES
100
AcDbSpline
 62
7
420
16777202
  6
CONTINUOUS
 70
0
 71
3
 72
9
 73
5
 74
0
 42
0.0000001
 43
0.0000001
 44
0.0000000001
 40
0.0
 40
0.0
 40
0.0
 40
0.0
 40
0.4998074444
 40
1.0
 40
1.0
 40
1.0
 40
1.0
 10
597.4891527691
 20
176.007431692
 30
0.0
 10
596.7553654376
 20
175.4028110903
 30
0.0
 10
594.7989064207
 20
174.6937151283
 30
0.0
 10
592.8487976255
 20
175.4211277348
 30
0.0
 10
592.1203159648
 20
176.0332699081
 30
0.0
  0
SPLINE
  5
33A
100
AcDbEntity
  8
03___PRT_ALL_CURVES
100
AcDbSpline
 62
7
420
16777202
  6
CONTINUOUS
 70
0
 71
3
 72
9
 73
5
 74
0
 42
0.0000001
 43
0.0000001
 44
0.0000000001
 40
0.0
 40
0.0
 40
0.0
 40
0.0
 40
0.5000086061
 40
1.0
 40
1.0
 40
1.0
 40
1.0
 10
591.6056186993
 20
175.4203874213
 30
0.0
 10
592.4785909653
 20
174.6867632216
 30
0.0
 10
594.8202739848
 20
173.8152573055
 30
0.0
 10
597.1623380364
 20
174.6863489619
 30
0.0
 10
598.0352004035
 20
175.4200429118
 30
0.0
  0
SPLINE
  5
33B
100
AcDbEntity
  8
03___PRT_ALL_CURVES
100
AcDbSpline
 62
7
420
16777202
  6
CONTINUOUS
 70
0
 71
3
 72
11
 73
7
 74
0
 42
0.0000001
 43
0.0000001
 44
0.0000000001
 40
0.0
 40
0.0
 40
0.0
 40
0.0
 40
0.2498476483
 40
0.4993383713
 40
0.7492071423
 40
1.0
 40
1.0
 40
1.0
 40
1.0
 10
522.0536194763
 20
190.2336089888
 30
0.0
 10
522.2202425459
 20
190.3941014443
 30
0.0
 10
522.4160851628
 20
190.8749252087
 30
0.0
 10
522.1224767188
 20
191.5787382845
 30
0.0
 10
521.4142582906
 20
191.8740826123
 30
0.0
 10
520.9420358358
 20
191.6760236262
 30
0.0
 10
520.7751922264
 20
191.5085124904
 30
0.0
  0
SPLINE
  5
33C
100
AcDbEntity
  8
03___PRT_ALL_CURVES
100
AcDbSpline
 62
7
420
16777202
  6
CONTINUOUS
 70
0
 71
3
 72
10
 73
6
 74
0
 42
0.0000001
 43
0.0000001
 44
0.0000000001
 40
0.0
 40
0.0
 40
0.0
 40
0.0
 40
0.2490706577
 40
0.4994225374
 40
1.0
 40
1.0
 40
1.0
 40
1.0
 10
520.7751922264
 20
191.5085124904
 30
0.0
 10
520.6094943357
 20
191.3421516572
 30
0.0
 10
520.4148045086
 20
190.8737512286
 30
0.0
 10
520.8057106861
 20
189.9119758375
 30
0.0
 10
521.7197850217
 20
189.9120574085
 30
0.0
 10
522.0536194763
 20
190.2336089888
 30
0.0
  0
SPLINE
  5
33D
100
AcDbEntity
  8
03___PRT_ALL_CURVES
100
AcDbSpline
 62
7
420
16777202
  6
CONTINUOUS
 70
0
 71
3
 72
15
 73
11
 74
0
 42
0.0000001
 43
0.0000001
 44
0.0000000001
 40
0.0
 40
0.0
 40
0.0
 40
0.0
 40
0.1254234202
 40
0.2489441091
 40
0.37199956
 40
0.4965198007
 40
0.6218557641
 40
0.7481457286
 40
0.8739730925
 40
1.0
 40
1.0
 40
1.0
 40
1.0
 10
697.1054667632
 20
172.4352121834
 30
0.0
 10
696.976403671
 20
172.5677951675
 30
0.0
 10
696.669336555
 20
172.779091391
 30
0.0
 10
696.1187275838
 20
172.8943397686
 30
0.0
 10
695.5657035568
 20
172.7797240191
 30
0.0
 10
695.1026028775
 20
172.4601316022
 30
0.0
 10
694.7915285788
 20
171.9824852851
 30
0.0
 10
694.684175339
 20
171.4211204353
 30
0.0
 10
694.792049439
 20
170.8578589549
 30
0.0
 10
695.0009098288
 20
170.5374850347
 30
0.0
 10
695.1317108547
 20
170.4036396076
 30
0.0
  0
SPLINE
  5
33E
100
AcDbEntity
  8
03___PRT_ALL_CURVES
100
AcDbSpline
 62
7
420
16777202
  6
CONTINUOUS
 70
0
 71
3
 72
15
 73
11
 74
0
 42
0.0000001
 43
0.0000001
 44
0.0000000001
 40
0.0
 40
0.0
 40
0.0
 40
0.0
 40
0.1236971361
 40
0.2465045019
 40
0.3697761677
 40
0.495132573
 40
0.6209768374
 40
0.7473412694
 40
0.874166848
 40
1.0
 40
1.0
 40
1.0
 40
1.0
 10
695.1317108547
 20
170.4036396076
 30
0.0
 10
695.2600938534
 20
170.2722684872
 30
0.0
 10
695.5663787513
 20
170.061244522
 30
0.0
 10
696.1187318553
 20
169.9480211453
 30
0.0
 10
696.6697761042
 20
170.0620798984
 30
0.0
 10
697.1317055305
 20
170.3803297797
 30
0.0
 10
697.442715846
 20
170.858952858
 30
0.0
 10
697.5518011491
 20
171.4211361356
 30
0.0
 10
697.4431150083
 20
171.9823106482
 30
0.0
 10
697.2349514774
 20
172.3021960786
 30
0.0
 10
697.1054667632
 20
172.4352121834
 30
0.0
  0
SPLINE
  5
33F
100
AcDbEntity
  8
03___PRT_ALL_CURVES
100
AcDbSpline
 62
7
420
16777202
  6
CONTINUOUS
 70
0
 71
3
 72
15
 73
11
 74
0
 42
0.0000001
 43
0.0000001
 44
0.0000000001
 40
0.0
 40
0.0
 40
0.0
 40
0.0
 40
0.1258783379
 40
0.2523246532
 40
0.3785623693
 40
0.5043945152
 40
0.6293297383
 40
0.7541226662
 40
0.8791771625
 40
1.0
 40
1.0
 40
1.0
 40
1.0
 10
698.2619853176
 20
170.5252512463
 30
0.0
 10
698.3786382694
 20
170.8092599977
 30
0.0
 10
698.4983399495
 20
171.4222486901
 30
0.0
 10
698.3180608233
 20
172.3384075355
 30
0.0
 10
697.8029515857
 20
173.1174627825
 30
0.0
 10
697.0352087012
 20
173.6370640646
 30
0.0
 10
696.1233591442
 20
173.8223545241
 30
0.0
 10
695.2128692839
 20
173.6382554398
 30
0.0
 10
694.4511813903
 20
173.1234240543
 30
0.0
 10
694.1134358356
 20
172.6186457141
 30
0.0
 10
693.9981427977
 20
172.3485234783
 30
0.0
  0
SPLINE
  5
340
100
AcDbEntity
  8
03___PRT_ALL_CURVES
100
AcDbSpline
 62
7
420
16777202
  6
CONTINUOUS
 70
0
 71
3
 72
16
 73
12
 74
0
 42
0.0000001
 43
0.0000001
 44
0.0000000001
 40
0.0
 40
0.0
 40
0.0
 40
0.0
 40
0.004831739
 40
0.130539923
 40
0.255683206
 40
0.3805132772
 40
0.5041450074
 40
0.6274101645
 40
0.7508158748
 40
0.8751084451
 40
1.0
 40
1.0
 40
1.0
 40
1.0
 10
693.9981427977
 20
172.3485234783
 30
0.0
 10
693.9935321969
 20
172.3377212146
 30
0.0
 10
693.8711562204
 20
172.0449207414
 30
0.0
 10
693.7482566994
 20
171.422534852
 30
0.0
 10
693.9286263672
 20
170.5028436432
 30
0.0
 10
694.4406237985
 20
169.726432921
 30
0.0
 10
695.2122590258
 20
169.2029221991
 30
0.0
 10
696.1234595844
 20
169.018944551
 30
0.0
 10
697.0351528822
 20
169.2041949301
 30
0.0
 10
697.8034984316
 20
169.7240633216
 30
0.0
 10
698.1462468295
 20
170.2434688909
 30
0.0
 10
698.2619853176
 20
170.5252512463
 30
0.0
  0
SPLINE
  5
341
100
AcDbEntity
  8
03___PRT_ALL_CURVES
100
AcDbSpline
 62
7
420
16777202
  6
CONTINUOUS
 70
0
 71
3
 72
11
 73
7
 74
0
 42
0.0000001
 43
0.0000001
 44
0.0000000001
 40
0.0
 40
0.0
 40
0.0
 40
0.0
 40
0.2059988449
 40
0.4707975711
 40
0.7354853536
 40
1.0
 40
1.0
 40
1.0
 40
1.0
 10
520.6173591685
 20
189.7199452519
 30
0.0
 10
520.8459997681
 20
189.5607436492
 30
0.0
 10
521.4949925947
 20
189.3504035784
 30
0.0
 10
522.5138920384
 20
189.7735195427
 30
0.0
 10
522.9725526665
 20
190.869200103
 30
0.0
 10
522.6603886449
 20
191.6110272233
 30
0.0
 10
522.4072585278
 20
191.8638281724
 30
0.0
  0
SPLINE
  5
342
100
AcDbEntity
  8
03___PRT_ALL_CURVES
100
AcDbSpline
 62
7
420
16777202
  6
CONTINUOUS
 70
0
 71
3
 72
9
 73
5
 74
0
 42
0.0000001
 43
0.0000001
 44
0.0000000001
 40
0.0
 40
0.0
 40
0.0
 40
0.0
 40
0.7162107384
 40
1.0
 40
1.0
 40
1.0
 40
1.0
 10
681.8199226047
 20
172.4572607945
 30
0.0
 10
681.777206969
 20
172.6449601576
 30
0.0
 10
681.5048184579
 20
172.8641543551
 30
0.0
 10
681.2374953983
 20
172.8562028516
 30
0.0
 10
681.161220348
 20
172.8562028516
 30
0.0
  0
SPLINE
  5
343
100
AcDbEntity
  8
03___PRT_ALL_CURVES
100
AcDbSpline
 62
7
420
16777202
  6
CONTINUOUS
 70
0
 71
3
 72
10
 73
6
 74
0
 42
0.0000001
 43
0.0000001
 44
0.0000000001
 40
0.0
 40
0.0
 40
0.0
 40
0.0
 40
0.3905082745
 40
0.8323054659
 40
1.0
 40
1.0
 40
1.0
 40
1.0
 10
681.161220348
 20
171.6676449092
 30
0.0
 10
681.3141053637
 20
171.6676449092
 30
0.0
 10
681.6566884556
 20
171.7539522879
 30
0.0
 10
681.8710430491
 20
172.1545749282
 30
0.0
 10
681.8351916992
 20
172.3934082176
 30
0.0
 10
681.8199226047
 20
172.4572607945
 30
0.0
  0
SPLINE
  5
344
100
AcDbEntity
  8
03___PRT_ALL_CURVES
100
AcDbSpline
 62
7
420
16777202
  6
CONTINUOUS
 70
0
 71
3
 72
10
 73
6
 74
0
 42
0.0000001
 43
0.0000001
 44
0.0000000001
 40
0.0
 40
0.0
 40
0.0
 40
0.0
 40
0.273646642
 40
0.547366897
 40
1.0
 40
1.0
 40
1.0
 40
1.0
 10
681.7406854086
 20
171.0723324094
 30
0.0
 10
682.0688658215
 20
171.1388275197
 30
0.0
 10
682.6881831402
 20
171.5564364864
 30
0.0
 10
682.9866224851
 20
172.880231457
 30
0.0
 10
682.0351366648
 20
173.6713124435
 30
0.0
 10
681.4812697185
 20
173.6713124435
 30
0.0
  0
SPLINE
  5
345
100
AcDbEntity
  8
03___PRT_ALL_CURVES
100
AcDbSpline
 62
7
420
16777202
  6
CONTINUOUS
 70
0
 71
3
 72
8
 73
4
 74
0
 42
0.0000001
 43
0.0000001
 44
0.0000000001
 40
0.0
 40
0.0
 40
0.0
 40
0.0
 40
1.0
 40
1.0
 40
1.0
 40
1.0
 10
720.9345032156
 20
176.0849463404
 30
0.0
 10
720.5737920848
 20
176.4456574713
 30
0.0
 10
720.0307586019
 20
176.6706125729
 30
0.0
 10
719.5206360285
 20
176.6706125729
 30
0.0
  0
SPLINE
  5
346
100
AcDbEntity
  8
03___PRT_ALL_CURVES
100
AcDbSpline
 62
7
420
16777202
  6
CONTINUOUS
 70
0
 71
3
 72
8
 73
4
 74
0
 42
0.0000001
 43
0.0000001
 44
0.0000000001
 40
0.0
 40
0.0
 40
0.0
 40
0.0
 40
1.0
 40
1.0
 40
1.0
 40
1.0
 10
721.5201694481
 20
174.6703901342
 30
0.0
 10
721.5201694481
 20
175.1807249041
 30
0.0
 10
721.2951975199
 20
175.7239183689
 30
0.0
 10
720.9345032156
 20
176.0849463404
 30
0.0
  0
SPLINE
  5
347
100
AcDbEntity
  8
03___PRT_ALL_CURVES
100
AcDbSpline
 62
7
420
16777202
  6
CONTINUOUS
 70
0
 71
3
 72
9
 73
5
 74
0
 42
0.0000001
 43
0.0000001
 44
0.0000000001
 40
0.0
 40
0.0
 40
0.0
 40
0.0
 40
0.4973403164
 40
1.0
 40
1.0
 40
1.0
 40
1.0
 10
539.5567715986
 20
617.911379878
 30
0.0
 10
539.5770379082
 20
617.92654316
 30
0.0
 10
539.5904878155
 20
618.003585493
 30
0.0
 10
539.5131823221
 20
618.013140892
 30
0.0
 10
539.4921760583
 20
617.9985407937
 30
0.0
  0
SPLINE
  5
348
100
AcDbEntity
  8
03___PRT_ALL_CURVES
100
AcDbSpline
 62
7
420
16777202
  6
CONTINUOUS
 70
0
 71
3
 72
23
 73
19
 74
0
 42
0.0000001
 43
0.0000001
 44
0.0000000001
 40
0.0
 40
0.0
 40
0.0
 40
0.0
 40
0.0084663635
 40
0.0331526345
 40
0.1268540614
 40
0.1937362221
 40
0.2725336838
 40
0.4612287402
 40
0.6844363939
 40
0.7448137874
 40
0.8067160302
 40
0.8380988656
 40
0.8699263827
 40
0.8859540773
 40
0.9020361055
 40
0.9344166343
 40
0.967081442
 40
1.0
 40
1.0
 40
1.0
 40
1.0
 10
539.4921760583
 20
617.9985407937
 30
0.0
 10
539.2218636492
 20
617.7985120735
 30
0.0
 10
538.1612009558
 20
617.0181825018
 30
0.0
 10
534.1251307222
 20
614.001870638
 30
0.0
 10
528.5654105818
 20
609.1522240211
 30
0.0
 10
522.0010325137
 20
602.2620827094
 30
0.0
 10
513.7122339908
 20
591.8643604518
 30
0.0
 10
504.0080279564
 20
574.7632789169
 30
0.0
 10
499.0308723985
 20
556.4176421717
 30
0.0
 10
497.6355098702
 20
542.7575752116
 30
0.0
 10
497.5450802019
 20
536.6498730993
 30
0.0
 10
497.6188908419
 20
531.6791329364
 30
0.0
 10
497.8914560168
 20
528.542543702
 30
0.0
 10
498.0777817624
 20
526.0093283805
 30
0.0
 10
498.4214478983
 20
523.470136774
 30
0.0
 10
498.8494479412
 20
520.2770346151
 30
0.0
 10
499.5014668596
 20
516.4380249249
 30
0.0
 10
500.1303431068
 20
513.9089485937
 30
0.0
 10
500.4213481601
 20
512.6342572372
 30
0.0
  0
SPLINE
  5
349
100
AcDbEntity
  8
03___PRT_ALL_CURVES
100
AcDbSpline
 62
7
420
16777202
  6
CONTINUOUS
 70
0
 71
3
 72
11
 73
7
 74
0
 42
0.0000001
 43
0.0000001
 44
0.0000000001
 40
0.0
 40
0.0
 40
0.0
 40
0.0
 40
0.248811421
 40
0.4984410267
 40
0.7488196065
 40
1.0
 40
1.0
 40
1.0
 40
1.0
 10
500.9057285853
 20
510.722918262
 30
0.0
 10
501.0848267794
 20
510.087965127
 30
0.0
 10
501.4508278269
 20
508.8181987749
 30
0.0
 10
501.9549774484
 20
506.8965491519
 30
0.0
 10
502.6202668512
 20
505.017898969
 30
0.0
 10
503.0372517756
 20
503.7552655342
 30
0.0
 10
503.2492547891
 20
503.1238988954
 30
0.0
  0
SPLINE
  5
34A
100
AcDbEntity
  8
03___PRT_ALL_CURVES
100
AcDbSpline
 62
7
420
16777202
  6
CONTINUOUS
 70
0
 71
3
 72
10
 73
6
 74
0
 42
0.0000001
 43
0.0000001
 44
0.0000000001
 40
0.0
 40
0.0
 40
0.0
 40
0.0
 40
0.3985000722
 40
0.7990518542
 40
1.0
 40
1.0
 40
1.0
 40
1.0
 10
503.9346565359
 20
501.2409819579
 30
0.0
 10
504.427047831
 20
499.9931646634
 30
0.0
 10
505.3674750579
 20
497.4718830735
 30
0.0
 10
506.7688891228
 20
494.4087380517
 30
0.0
 10
507.6547076342
 20
492.5880390746
 30
0.0
 10
507.9588725723
 20
491.9838381343
 30
0.0
  0
SPLINE
  5
34B
100
AcDbEntity
  8
03___PRT_ALL_CURVES
100
AcDbSpline
 62
7
420
16777202
  6
CONTINUOUS
 70
0
 71
3
 72
15
 73
11
 74
0
 42
0.0000001
 43
0.0000001
 44
0.0000000001
 40
0.0
 40
0.0
 40
0.0
 40
0.0
 40
0.2100984375
 40
0.4219118072
 40
0.6337986684
 40
0.8441146656
 40
0.8702453501
 40
0.8963081001
 40
0.9482838651
 40
1.0
 40
1.0
 40
1.0
 40
1.0
 10
508.8819859075
 20
490.1715456543
 30
0.0
 10
511.4142876807
 20
485.3345842048
 30
0.0
 10
517.251857212
 20
475.9840090798
 30
0.0
 10
528.2820545179
 20
463.6583043476
 30
0.0
 10
541.0850322093
 20
453.1740059957
 30
0.0
 10
551.2908130575
 20
447.4274152823
 30
0.0
 10
557.4981585178
 20
444.598601787
 30
0.0
 10
559.9840841028
 20
443.527280919
 30
0.0
 10
563.1094029679
 20
442.2553646014
 30
0.0
 10
565.6771171283
 20
441.4337589655
 30
0.0
 10
566.9488980566
 20
440.9993532837
 30
0.0
  0
SPLINE
  5
34C
100
AcDbEntity
  8
03___PRT_ALL_CURVES
100
AcDbSpline
 62
7
420
16777202
  6
CONTINUOUS
 70
0
 71
3
 72
12
 73
8
 74
0
 42
0.0000001
 43
0.0000001
 44
0.0000000001
 40
0.0
 40
0.0
 40
0.0
 40
0.0
 40
0.2234613189
 40
0.4462242339
 40
0.6682825356
 40
0.8896391189
 40
1.0
 40
1.0
 40
1.0
 40
1.0
 10
568.866265949
 20
440.4055910769
 30
0.0
 10
569.5080161632
 20
440.2224058777
 30
0.0
 10
570.7916819702
 20
439.8649709332
 30
0.0
 10
572.704494083
 20
439.2913332651
 30
0.0
 10
574.6514165289
 20
438.8760322829
 30
0.0
 10
576.2614736601
 20
438.4992115706
 30
0.0
 10
577.225430498
 20
438.2694977194
 30
0.0
 10
577.5484233361
 20
438.2038305522
 30
0.0
  0
SPLINE
  5
34D
100
AcDbEntity
  8
03___PRT_ALL_CURVES
100
AcDbSpline
 62
7
420
16777202
  6
CONTINUOUS
 70
0
 71
3
 72
18
 73
14
 74
0
 42
0.0000001
 43
0.0000001
 44
0.0000000001
 40
0.0
 40
0.0
 40
0.0
 40
0.0
 40
0.0329873077
 40
0.0657132042
 40
0.098166118
 40
0.1303271429
 40
0.1621848261
 40
0.1935568549
 40
0.3155066256
 40
0.5388616025
 40
0.7276399492
 40
0.8731887531
 40
1.0
 40
1.0
 40
1.0
 40
1.0
 10
578.5202847725
 20
438.0303699946
 30
0.0
 10
579.8101401332
 20
437.7994074676
 30
0.0
 10
582.3716752029
 20
437.2894441523
 30
0.0
 10
586.2463970731
 20
436.8289893749
 30
0.0
 10
590.0962888501
 20
436.4682022177
 30
0.0
 10
593.9232344334
 20
436.2505277619
 30
0.0
 10
597.7119417262
 20
436.1558974617
 30
0.0
 10
605.0681515136
 20
436.1943196709
 30
0.0
 10
620.0308284984
 20
436.1817716768
 30
0.0
 10
641.246471218
 20
436.2753934908
 30
0.0
 10
663.3992185319
 20
436.3867018298
 30
0.0
 10
681.7167797918
 20
436.5182259362
 30
0.0
 10
692.5355016195
 20
436.6082765165
 30
0.0
 10
697.572621711
 20
436.6597387557
 30
0.0
  0
SPLINE
  5
34E
100
AcDbEntity
  8
03___PRT_ALL_CURVES
100
AcDbSpline
 62
7
420
16777202
  6
CONTINUOUS
 70
0
 71
3
 72
9
 73
5
 74
0
 42
0.0000001
 43
0.0000001
 44
0.0000000001
 40
0.0
 40
0.0
 40
0.0
 40
0.0
 40
0.4996019116
 40
1.0
 40
1.0
 40
1.0
 40
1.0
 10
697.572621711
 20
436.6597387557
 30
0.0
 10
697.5981190384
 20
436.6597387557
 30
0.0
 10
697.6552834252
 20
436.7141165594
 30
0.0
 10
697.5981530785
 20
436.7675067504
 30
0.0
 10
697.572621711
 20
436.7680870088
 30
0.0
  0
SPLINE
  5
34F
100
AcDbEntity
  8
03___PRT_ALL_CURVES
100
AcDbSpline
 62
7
420
16777202
  6
CONTINUOUS
 70
0
 71
3
 72
18
 73
14
 74
0
 42
0.0000001
 43
0.0000001
 44
0.0000000001
 40
0.0
 40
0.0
 40
0.0
 40
0.0
 40
0.127030508
 40
0.27283113
 40
0.4619359556
 40
0.6856772548
 40
0.8078379621
 40
0.8392642537
 40
0.8708481672
 40
0.9027188646
 40
0.9348734424
 40
0.9673107151
 40
1.0
 40
1.0
 40
1.0
 40
1.0
 10
697.572621711
 20
436.7680870088
 30
0.0
 10
692.5355026939
 20
436.8193592355
 30
0.0
 10
681.7167671623
 20
436.9080678989
 30
0.0
 10
663.3992294826
 20
437.040491875
 30
0.0
 10
641.2464675812
 20
437.1607096432
 30
0.0
 10
620.030821323
 20
437.2108948573
 30
0.0
 10
605.0681608543
 20
437.279086365
 30
0.0
 10
597.7249758237
 20
437.2331983903
 30
0.0
 10
593.9630594844
 20
437.3281788974
 30
0.0
 10
590.176678252
 20
437.5403150263
 30
0.0
 10
586.3682734073
 20
437.8995087663
 30
0.0
 10
582.5347230404
 20
438.3515791221
 30
0.0
 10
580.0003038725
 20
438.8556422728
 30
0.0
 10
578.7242344252
 20
439.0837079392
 30
0.0
  0
SPLINE
  5
350
100
AcDbEntity
  8
03___PRT_ALL_CURVES
100
AcDbSpline
 62
7
420
16777202
  6
CONTINUOUS
 70
0
 71
3
 72
12
 73
8
 74
0
 42
0.0000001
 43
0.0000001
 44
0.0000000001
 40
0.0
 40
0.0
 40
0.0
 40
0.0
 40
0.110343617
 40
0.3316832462
 40
0.5537585336
 40
0.7765464367
 40
1.0
 40
1.0
 40
1.0
 40
1.0
 10
577.7628805301
 20
439.2559627134
 30
0.0
 10
577.4434022492
 20
439.320789391
 30
0.0
 10
576.4902877059
 20
439.5494751393
 30
0.0
 10
574.8969653292
 20
439.9191432748
 30
0.0
 10
572.9711397213
 20
440.3304852671
 30
0.0
 10
571.0784501802
 20
440.8963746497
 30
0.0
 10
569.8088386221
 20
441.2507965107
 30
0.0
 10
569.1739129758
 20
441.4315405124
 30
0.0
  0
SPLINE
  5
351
100
AcDbEntity
  8
03___PRT_ALL_CURVES
100
AcDbSpline
 62
7
420
16777202
  6
CONTINUOUS
 70
0
 71
3
 72
10
 73
6
 74
0
 42
0.0000001
 43
0.0000001
 44
0.0000000001
 40
0.0
 40
0.0
 40
0.0
 40
0.0
 40
0.398554014
 40
0.7991099943
 40
1.0
 40
1.0
 40
1.0
 40
1.0
 10
567.2770434016
 20
442.0187570378
 30
0.0
 10
566.0168982325
 20
442.4431251354
 30
0.0
 10
563.4733215605
 20
443.2469798402
 30
0.0
 10
560.378664784
 20
444.4985227141
 30
0.0
 10
558.525802809
 20
445.2692698673
 30
0.0
 10
557.9149964204
 20
445.5451567765
 30
0.0
  0
SPLINE
  5
352
100
AcDbEntity
  8
03___PRT_ALL_CURVES
100
AcDbSpline
 62
7
420
16777202
  6
CONTINUOUS
 70
0
 71
3
 72
11
 73
7
 74
0
 42
0.0000001
 43
0.0000001
 44
0.0000000001
 40
0.0
 40
0.0
 40
0.0
 40
0.0
 40
0.2488835558
 40
0.4998304084
 40
0.7508681895
 40
1.0
 40
1.0
 40
1.0
 40
1.0
 10
556.07634896
 20
446.3724964573
 30
0.0
 10
551.162401132
 20
448.6403524257
 30
0.0
 10
541.6163441016
 20
453.9591061681
 30
0.0
 10
528.8764881906
 20
464.2854522252
 30
0.0
 10
517.8969267745
 20
476.4728817444
 30
0.0
 10
512.0713866157
 20
485.7263919997
 30
0.0
 10
509.5410326739
 20
490.5165719671
 30
0.0
  0
SPLINE
  5
353
100
AcDbEntity
  8
03___PRT_ALL_CURVES
100
AcDbSpline
 62
7
420
16777202
  6
CONTINUOUS
 70
0
 71
3
 72
10
 73
6
 74
0
 42
0.0000001
 43
0.0000001
 44
0.0000000001
 40
0.0
 40
0.0
 40
0.0
 40
0.0
 40
0.2008805176
 40
0.6014595463
 40
1.0
 40
1.0
 40
1.0
 40
1.0
 10
508.6180915934
 20
492.3123279888
 30
0.0
 10
508.3139292569
 20
492.9108409735
 30
0.0
 10
507.4276858659
 20
494.7150178861
 30
0.0
 10
506.0247568311
 20
497.7509010424
 30
0.0
 10
505.0824525843
 20
500.2511263896
 30
0.0
 10
504.5890524234
 20
501.4883398138
 30
0.0
  0
SPLINE
  5
354
100
AcDbEntity
  8
03___PRT_ALL_CURVES
100
AcDbSpline
 62
7
420
16777202
  6
CONTINUOUS
 70
0
 71
3
 72
11
 73
7
 74
0
 42
0.0000001
 43
0.0000001
 44
0.0000000001
 40
0.0
 40
0.0
 40
0.0
 40
0.0
 40
0.251216992
 40
0.5016258646
 40
0.751200733
 40
1.0
 40
1.0
 40
1.0
 40
1.0
 10
503.9015836193
 20
503.3548925477
 30
0.0
 10
503.6884352611
 20
503.9812631467
 30
0.0
 10
503.2704943919
 20
505.2343818926
 30
0.0
 10
502.6020397252
 20
507.0977803177
 30
0.0
 10
502.0947567737
 20
509.0047529541
 30
0.0
 10
501.7264305286
 20
510.2644399821
 30
0.0
 10
501.5463440908
 20
510.8944840171
 30
0.0
  0
SPLINE
  5
355
100
AcDbEntity
  8
03___PRT_ALL_CURVES
100
AcDbSpline
 62
7
420
16777202
  6
CONTINUOUS
 70
0
 71
3
 72
23
 73
19
 74
0
 42
0.0000001
 43
0.0000001
 44
0.0000000001
 40
0.0
 40
0.0
 40
0.0
 40
0.0
 40
0.0328288872
 40
0.0654154086
 40
0.0977234872
 40
0.1137788892
 40
0.1297337311
 40
0.1614238463
 40
0.1929232745
 40
0.2546677066
 40
0.3149735221
 40
0.538062786
 40
0.7268916144
 40
0.8058010721
 40
0.8728143973
 40
0.9667328057
 40
0.9915015975
 40
1.0
 40
1.0
 40
1.0
 40
1.0
 10
501.0585185701
 20
512.7910090818
 30
0.0
 10
500.764027296
 20
514.0559829636
 30
0.0
 10
500.130218436
 20
516.5664038488
 30
0.0
 10
499.4681791967
 20
520.378512827
 30
0.0
 10
499.0317769759
 20
523.5506151249
 30
0.0
 10
498.6802153342
 20
526.0716981612
 30
0.0
 10
498.4861165975
 20
528.5849253298
 30
0.0
 10
498.202498467
 20
531.7043847467
 30
0.0
 10
498.1111560092
 20
536.6482930983
 30
0.0
 10
498.1806176061
 20
542.7275982411
 30
0.0
 10
499.5010153179
 20
556.3267830896
 30
0.0
 10
504.3703933842
 20
574.6221488915
 30
0.0
 10
513.9566371161
 20
591.7066218526
 30
0.0
 10
522.1705988593
 20
602.1160570482
 30
0.0
 10
528.6882191198
 20
609.0241464557
 30
0.0
 10
534.2152491713
 20
613.8929245902
 30
0.0
 10
538.2307379651
 20
616.9255146046
 30
0.0
 10
539.2872485801
 20
617.7103790369
 30
0.0
 10
539.5567715986
 20
617.911379878
 30
0.0
  0
SPLINE
  5
356
100
AcDbEntity
  8
03___PRT_ALL_CURVES
100
AcDbSpline
 62
7
420
16777202
  6
CONTINUOUS
 70
0
 71
3
 72
23
 73
19
 74
0
 42
0.0000001
 43
0.0000001
 44
0.0000000001
 40
0.0
 40
0.0
 40
0.0
 40
0.0
 40
0.0084966648
 40
0.0332683571
 40
0.1271857636
 40
0.1942001133
 40
0.2731058774
 40
0.4619382679
 40
0.6850281796
 40
0.745333073
 40
0.8070767572
 40
0.8385776212
 40
0.8702678311
 40
0.886225171
 40
0.902276804
 40
0.9345805577
 40
0.9671612332
 40
1.0
 40
1.0
 40
1.0
 40
1.0
 10
655.5307434664
 20
455.5743464984
 30
0.0
 10
655.8003477479
 20
455.7751235154
 30
0.0
 10
656.8569756072
 20
456.5599087608
 30
0.0
 10
660.8720675682
 20
459.5930333989
 30
0.0
 10
666.3997081301
 20
464.4612705914
 30
0.0
 10
672.916773551
 20
471.3696937817
 30
0.0
 10
681.1319504292
 20
481.7782256468
 30
0.0
 10
690.7163879204
 20
498.8638369641
 30
0.0
 10
695.5871729134
 20
517.1588146311
 30
0.0
 10
696.9069774905
 20
530.7580634415
 30
0.0
 10
696.9764121918
 20
536.8373333409
 30
0.0
 10
696.8854258343
 20
541.7813102872
 30
0.0
 10
696.6008475571
 20
544.9008439058
 30
0.0
 10
696.4082000111
 20
547.4141643039
 30
0.0
 10
696.055256596
 20
549.9348624536
 30
0.0
 10
695.6190924631
 20
553.1064061829
 30
0.0
 10
694.9587691117
 20
556.9188436862
 30
0.0
 10
694.3238073161
 20
559.4291755115
 30
0.0
 10
694.0300300236
 20
560.6947172946
 30
0.0
  0
SPLINE
  5
357
100
AcDbEntity
  8
03___PRT_ALL_CURVES
100
AcDbSpline
 62
7
420
16777202
  6
CONTINUOUS
 70
0
 71
3
 72
11
 73
7
 74
0
 42
0.0000001
 43
0.0000001
 44
0.0000000001
 40
0.0
 40
0.0
 40
0.0
 40
0.0
 40
0.2488033175
 40
0.4984242159
 40
0.7488142694
 40
1.0
 40
1.0
 40
1.0
 40
1.0
 10
693.5418599933
 20
562.5912423592
 30
0.0
 10
693.3617593677
 20
563.2212495285
 30
0.0
 10
692.9943338154
 20
564.4812485441
 30
0.0
 10
692.4849959987
 20
566.3875631236
 30
0.0
 10
691.8187349725
 20
568.2515353188
 30
0.0
 10
691.399621549
 20
569.5040320847
 30
0.0
 10
691.1861037005
 20
570.1301448096
 30
0.0
  0
SPLINE
  5
358
100
AcDbEntity
  8
03___PRT_ALL_CURVES
100
AcDbSpline
 62
7
420
16777202
  6
CONTINUOUS
 70
0
 71
3
 72
9
 73
5
 74
0
 42
0.0000001
 43
0.0000001
 44
0.0000000001
 40
0.0
 40
0.0
 40
0.0
 40
0.0
 40
0.5019086975
 40
1.0
 40
1.0
 40
1.0
 40
1.0
 10
655.5307434664
 20
455.5743464984
 30
0.0
 10
655.5104390001
 20
455.558897448
 30
0.0
 10
655.4972918259
 20
455.4818779496
 30
0.0
 10
655.5747397863
 20
455.4722249881
 30
0.0
 10
655.5951667519
 20
455.4871855826
 30
0.0
  0
SPLINE
  5
359
100
AcDbEntity
  8
03___PRT_ALL_CURVES
100
AcDbSpline
 62
7
420
16777202
  6
CONTINUOUS
 70
0
 71
3
 72
23
 73
19
 74
0
 42
0.0000001
 43
0.0000001
 44
0.0000000001
 40
0.0
 40
0.0
 40
0.0
 40
0.0
 40
0.008464359
 40
0.0331516771
 40
0.1268546844
 40
0.1937425472
 40
0.272531268
 40
0.461225017
 40
0.6844347477
 40
0.7448140977
 40
0.8067201799
 40
0.8380939884
 40
0.8699228951
 40
0.885950757
 40
0.9020391614
 40
0.9344193308
 40
0.9670839785
 40
1.0
 40
1.0
 40
1.0
 40
1.0
 10
655.5951667519
 20
455.4871855826
 30
0.0
 10
655.8658691483
 20
455.686554763
 30
0.0
 10
656.9267449738
 20
456.4665416341
 30
0.0
 10
660.9613103028
 20
459.4849506363
 30
0.0
 10
666.5222855031
 20
464.3334530986
 30
0.0
 10
673.0870270753
 20
471.2233509357
 30
0.0
 10
681.3758048889
 20
481.6209359925
 30
0.0
 10
691.0802373848
 20
498.721471376
 30
0.0
 10
696.0588425101
 20
517.067212827
 30
0.0
 10
697.4520266297
 20
530.7279393737
 30
0.0
 10
697.5416919469
 20
536.8354859593
 30
0.0
 10
697.4699898252
 20
541.8061557401
 30
0.0
 10
697.196999916
 20
544.9424470152
 30
0.0
 10
697.0103292975
 20
547.475970808
 30
0.0
 10
696.6654899885
 20
550.0152693566
 30
0.0
 10
696.2383432322
 20
553.2087432794
 30
0.0
 10
695.5857447727
 20
557.047541126
 30
0.0
 10
694.9577794521
 20
559.5767230145
 30
0.0
 10
694.6666836692
 20
560.8512968844
 30
0.0
  0
SPLINE
  5
35A
100
AcDbEntity
  8
03___PRT_ALL_CURVES
100
AcDbSpline
 62
7
420
16777202
  6
CONTINUOUS
 70
0
 71
3
 72
11
 73
7
 74
0
 42
0.0000001
 43
0.0000001
 44
0.0000000001
 40
0.0
 40
0.0
 40
0.0
 40
0.0
 40
0.2487092376
 40
0.4983200443
 40
0.7488001077
 40
1.0
 40
1.0
 40
1.0
 40
1.0
 10
694.1816142249
 20
562.7626358596
 30
0.0
 10
694.0034132266
 20
563.397563254
 30
0.0
 10
693.6365719781
 20
564.666768278
 30
0.0
 10
693.1334599484
 20
566.5886592647
 30
0.0
 10
692.4682081403
 20
568.4676350133
 30
0.0
 10
692.0510886949
 20
569.7305646043
 30
0.0
 10
691.8386047854
 20
570.361827481
 30
0.0
  0
SPLINE
  5
35B
100
AcDbEntity
  8
03___PRT_ALL_CURVES
100
AcDbSpline
 62
7
420
16777202
  6
CONTINUOUS
 70
0
 71
3
 72
10
 73
6
 74
0
 42
0.0000001
 43
0.0000001
 44
0.0000000001
 40
0.0
 40
0.0
 40
0.0
 40
0.0
 40
0.3986069071
 40
0.799121355
 40
1.0
 40
1.0
 40
1.0
 40
1.0
 10
691.1540643125
 20
572.2438831446
 30
0.0
 10
690.6611315459
 20
573.4919322586
 30
0.0
 10
689.7198491323
 20
576.0132356557
 30
0.0
 10
688.3193721715
 20
579.0769407968
 30
0.0
 10
687.4334366574
 20
580.8972859421
 30
0.0
 10
687.1291592571
 20
581.501199223
 30
0.0
  0
SPLINE
  5
35C
100
AcDbEntity
  8
03___PRT_ALL_CURVES
100
AcDbSpline
 62
7
420
16777202
  6
CONTINUOUS
 70
0
 71
3
 72
15
 73
11
 74
0
 42
0.0000001
 43
0.0000001
 44
0.0000000001
 40
0.0
 40
0.0
 40
0.0
 40
0.0
 40
0.2100955033
 40
0.4219072742
 40
0.6337895929
 40
0.8441105487
 40
0.870243318
 40
0.8963064167
 40
0.9482843821
 40
1.0
 40
1.0
 40
1.0
 40
1.0
 10
686.205873667
 20
583.3141807221
 30
0.0
 10
683.6737503996
 20
588.1511321196
 30
0.0
 10
677.8368598937
 20
597.5020450005
 30
0.0
 10
666.8055463632
 20
609.8264068408
 30
0.0
 10
654.0031717288
 20
620.3111271126
 30
0.0
 10
643.7976048996
 20
626.0582430763
 30
0.0
 10
637.5901245151
 20
628.8871937511
 30
0.0
 10
635.1038049322
 20
629.9578911324
 30
0.0
 10
631.9785028108
 20
631.2299138463
 30
0.0
 10
629.4108803393
 20
632.051920143
 30
0.0
 10
628.1391337727
 20
632.4863730926
 30
0.0
  0
SPLINE
  5
35D
100
AcDbEntity
  8
03___PRT_ALL_CURVES
100
AcDbSpline
 62
7
420
16777202
  6
CONTINUOUS
 70
0
 71
3
 72
12
 73
8
 74
0
 42
0.0000001
 43
0.0000001
 44
0.0000000001
 40
0.0
 40
0.0
 40
0.0
 40
0.0
 40
0.2234065945
 40
0.4461968244
 40
0.6682593374
 40
0.889716536
 40
1.0
 40
1.0
 40
1.0
 40
1.0
 10
626.221249116
 20
633.0801352995
 30
0.0
 10
625.5795580388
 20
633.2626645845
 30
0.0
 10
624.2964522988
 20
633.6212580404
 30
0.0
 10
622.3834346135
 20
634.1930113337
 30
0.0
 10
620.4368743523
 20
634.6105936291
 30
0.0
 10
618.8263801122
 20
634.9850757101
 30
0.0
 10
617.8627038219
 20
635.2158634021
 30
0.0
 10
617.5399530028
 20
635.2813790598
 30
0.0
  0
SPLINE
  5
35E
100
AcDbEntity
  8
03___PRT_ALL_CURVES
100
AcDbSpline
 62
7
420
16777202
  6
CONTINUOUS
 70
0
 71
3
 72
18
 73
14
 74
0
 42
0.0000001
 43
0.0000001
 44
0.0000000001
 40
0.0
 40
0.0
 40
0.0
 40
0.0
 40
0.0329886462
 40
0.0657137265
 40
0.0981670858
 40
0.1303236992
 40
0.1621869719
 40
0.1935589204
 40
0.3155054903
 40
0.5388642223
 40
0.7276406406
 40
0.8731891028
 40
1.0
 40
1.0
 40
1.0
 40
1.0
 10
616.5677470568
 20
635.4553563818
 30
0.0
 10
615.2778627406
 20
635.6864778261
 30
0.0
 10
612.7162951732
 20
636.1965243232
 30
0.0
 10
608.841361843
 20
636.6555877934
 30
0.0
 10
604.9917912257
 20
637.0177530578
 30
0.0
 10
601.1647425932
 20
637.2353406924
 30
0.0
 10
597.3759680641
 20
637.3291430978
 30
0.0
 10
590.0196538427
 20
637.2911039127
 30
0.0
 10
575.0569146
 20
637.302919658
 30
0.0
 10
553.8412738888
 20
637.2101029478
 30
0.0
 10
531.6884086682
 20
637.0988717938
 30
0.0
 10
513.3709099247
 20
636.9665550419
 30
0.0
 10
502.5521896715
 20
636.8764435307
 30
0.0
 10
497.5150656087
 20
636.8254708563
 30
0.0
  0
SPLINE
  5
35F
100
AcDbEntity
  8
03___PRT_ALL_CURVES
100
AcDbSpline
 62
7
420
16777202
  6
CONTINUOUS
 70
0
 71
3
 72
9
 73
5
 74
0
 42
0.0000001
 43
0.0000001
 44
0.0000000001
 40
0.0
 40
0.0
 40
0.0
 40
0.0
 40
0.4984076677
 40
1.0
 40
1.0
 40
1.0
 40
1.0
 10
497.5150656087
 20
636.8254708563
 30
0.0
 10
497.4896915069
 20
636.8251758086
 30
0.0
 10
497.4323437009
 20
636.7719033655
 30
0.0
 10
497.4895293351
 20
636.717932888
 30
0.0
 10
497.5150656087
 20
636.7176393676
 30
0.0
  0
SPLINE
  5
360
100
AcDbEntity
  8
03___PRT_ALL_CURVES
100
AcDbSpline
 62
7
420
16777202
  6
CONTINUOUS
 70
0
 71
3
 72
18
 73
14
 74
0
 42
0.0000001
 43
0.0000001
 44
0.0000000001
 40
0.0
 40
0.0
 40
0.0
 40
0.0
 40
0.1270302272
 40
0.2728304483
 40
0.4619333327
 40
0.6856783971
 40
0.8078358837
 40
0.8392620926
 40
0.8708445491
 40
0.9027167744
 40
0.9348736232
 40
0.9673093749
 40
1.0
 40
1.0
 40
1.0
 40
1.0
 10
497.5150656087
 20
636.7176393676
 30
0.0
 10
502.5521799702
 20
636.6657168577
 30
0.0
 10
513.3709168867
 20
636.5768469822
 30
0.0
 10
531.6884022683
 20
636.4450205851
 30
0.0
 10
553.8412773274
 20
636.3248711544
 30
0.0
 10
575.0569222506
 20
636.2735434144
 30
0.0
 10
590.0196416929
 20
636.2071253664
 30
0.0
 10
597.3626568253
 20
636.2521461921
 30
0.0
 10
601.124583476
 20
636.1569434484
 30
0.0
 10
604.9110100703
 20
635.9440280429
 30
0.0
 10
608.7196294498
 20
635.5861528426
 30
0.0
 10
612.5532649387
 20
635.1338318867
 30
0.0
 10
615.0876129094
 20
634.6294169111
 30
0.0
 10
616.3637974041
 20
634.4016739277
 30
0.0
  0
SPLINE
  5
361
100
AcDbEntity
  8
03___PRT_ALL_CURVES
100
AcDbSpline
 62
7
420
16777202
  6
CONTINUOUS
 70
0
 71
3
 72
12
 73
8
 74
0
 42
0.0000001
 43
0.0000001
 44
0.0000000001
 40
0.0
 40
0.0
 40
0.0
 40
0.0
 40
0.1103836667
 40
0.3316965918
 40
0.5538397994
 40
0.7765070227
 40
1.0
 40
1.0
 40
1.0
 40
1.0
 10
617.3246345349
 20
634.2294191534
 30
0.0
 10
617.6443065006
 20
634.1648302595
 30
0.0
 10
618.597633211
 20
633.9365158824
 30
0.0
 10
620.1911347852
 20
633.5660434085
 30
0.0
 10
622.1168587964
 20
633.1546488942
 30
0.0
 10
624.0096977304
 20
632.5888986099
 30
0.0
 10
625.2791803324
 20
632.2345401703
 30
0.0
 10
625.9142911083
 20
632.0538413545
 30
0.0
  0
SPLINE
  5
362
100
AcDbEntity
  8
03___PRT_ALL_CURVES
100
AcDbSpline
 62
7
420
16777202
  6
CONTINUOUS
 70
0
 71
3
 72
10
 73
6
 74
0
 42
0.0000001
 43
0.0000001
 44
0.0000000001
 40
0.0
 40
0.0
 40
0.0
 40
0.0
 40
0.3985449676
 40
0.7990851231
 40
1.0
 40
1.0
 40
1.0
 40
1.0
 10
627.8111606825
 20
631.4667970838
 30
0.0
 10
629.0711660272
 20
631.0420160113
 30
0.0
 10
631.6153706433
 20
630.2399941171
 30
0.0
 10
634.7092223375
 20
628.9862238908
 30
0.0
 10
636.5625998213
 20
628.2164439411
 30
0.0
 10
637.1732076636
 20
627.9398805808
 30
0.0
  0
SPLINE
  5
363
100
AcDbEntity
  8
03___PRT_ALL_CURVES
100
AcDbSpline
 62
7
420
16777202
  6
CONTINUOUS
 70
0
 71
3
 72
11
 73
7
 74
0
 42
0.0000001
 43
0.0000001
 44
0.0000000001
 40
0.0
 40
0.0
 40
0.0
 40
0.0
 40
0.2488744086
 40
0.4998257216
 40
0.7508656135
 40
1.0
 40
1.0
 40
1.0
 40
1.0
 10
639.0118551241
 20
627.1128854095
 30
0.0
 10
643.9253923805
 20
624.8446324924
 30
0.0
 10
653.4716673863
 20
619.5266437598
 30
0.0
 10
666.2114571151
 20
609.200255524
 30
0.0
 10
677.1914487094
 20
597.0129466268
 30
0.0
 10
683.0165955398
 20
587.7590997291
 30
0.0
 10
685.5471714102
 20
582.9689821545
 30
0.0
  0
SPLINE
  5
364
100
AcDbEntity
  8
03___PRT_ALL_CURVES
100
AcDbSpline
 62
7
420
16777202
  6
CONTINUOUS
 70
0
 71
3
 72
10
 73
6
 74
0
 42
0.0000001
 43
0.0000001
 44
0.0000000001
 40
0.0
 40
0.0
 40
0.0
 40
0.0
 40
0.200953121
 40
0.6014915367
 40
1.0
 40
1.0
 40
1.0
 40
1.0
 10
686.4697679812
 20
581.1733983876
 30
0.0
 10
686.7738942485
 20
580.5746067945
 30
0.0
 10
687.6594999171
 20
578.770034368
 30
0.0
 10
689.0629382679
 20
575.734467809
 30
0.0
 10
690.0055569272
 20
573.234659351
 30
0.0
 10
690.4984626416
 20
571.9973865626
 30
0.0
  0
SPLINE
  5
365
100
AcDbEntity
  8
03___PRT_ALL_CURVES
100
AcDbSpline
 62
7
420
16777202
  6
CONTINUOUS
 70
0
 71
3
 72
9
 73
5
 74
0
 42
0.0000001
 43
0.0000001
 44
0.0000000001
 40
0.0
 40
0.0
 40
0.0
 40
0.0
 40
0.4533297354
 40
1.0
 40
1.0
 40
1.0
 40
1.0
 10
598.4647773576
 20
182.0510069343
 30
0.0
 10
599.0293630959
 20
181.3060724825
 30
0.0
 10
599.7947763551
 20
179.2658734361
 30
0.0
 10
599.0571429086
 20
177.1416948548
 30
0.0
 10
598.3449144876
 20
176.2937191268
 30
0.0
  0
SPLINE
  5
366
100
AcDbEntity
  8
03___PRT_ALL_CURVES
100
AcDbSpline
 62
7
420
16777202
  6
CONTINUOUS
 70
0
 71
3
 72
10
 73
6
 74
0
 42
0.0000001
 43
0.0000001
 44
0.0000000001
 40
0.0
 40
0.0
 40
0.0
 40
0.0
 40
0.1878510158
 40
0.4598131243
 40
1.0
 40
1.0
 40
1.0
 40
1.0
 10
590.8675582179
 20
182.3123426421
 30
0.0
 10
590.6097398765
 20
181.9790829248
 30
0.0
 10
590.0808663795
 20
181.0848302143
 30
0.0
 10
589.5678073222
 20
178.8767898083
 30
0.0
 10
590.2151797347
 20
176.9581564748
 30
0.0
 10
590.9898078814
 20
176.0367150036
 30
0.0
  0
SPLINE
  5
367
100
AcDbEntity
  8
03___PRT_ALL_CURVES
100
AcDbSpline
 62
7
420
16777202
  6
CONTINUOUS
 70
0
 71
3
 72
10
 73
6
 74
0
 42
0.0000001
 43
0.0000001
 44
0.0000000001
 40
0.0
 40
0.0
 40
0.0
 40
0.0
 40
0.187688507
 40
0.4597605491
 40
1.0
 40
1.0
 40
1.0
 40
1.0
 10
591.1823860732
 20
196.4607343871
 30
0.0
 10
590.945238991
 20
196.7670750571
 30
0.0
 10
590.4635857212
 20
197.5899910519
 30
0.0
 10
589.9897760454
 20
199.6208653886
 30
0.0
 10
590.5840177315
 20
201.386619845
 30
0.0
 10
591.2962491248
 20
202.2345991117
 30
0.0
  0
SPLINE
  5
368
100
AcDbEntity
  8
03___PRT_ALL_CURVES
100
AcDbSpline
 62
7
420
16777202
  6
CONTINUOUS
 70
0
 71
3
 72
10
 73
6
 74
0
 42
0.0000001
 43
0.0000001
 44
0.0000000001
 40
0.0
 40
0.0
 40
0.0
 40
0.0
 40
0.187845209
 40
0.4598118607
 40
1.0
 40
1.0
 40
1.0
 40
1.0
 10
598.7737312515
 20
196.2159629617
 30
0.0
 10
599.0315099964
 20
196.5492239738
 30
0.0
 10
599.560271995
 20
197.443539137
 30
0.0
 10
600.0733108165
 20
199.6514872568
 30
0.0
 10
599.4260953793
 20
201.5701379151
 30
0.0
 10
598.6515279858
 20
202.4916032349
 30
0.0
  0
ENDSEC
  0
SECTION
  2
OBJECTS
  0
DICTIONARY
  5
C
100
AcDbDictionary
280
0
281
1
  3
ACAD_GROUP
350
D
  3
ACAD_MLINESTYLE
350
17
  3
ACAD_LAYOUT
350
1A
  3
ACAD_PLOTSETTINGS
350
19
  3
ACAD_PLOTSTYLENAME
350
E
  0
DICTIONARY
  5
D
102
{ACAD_REACTORS
330
C
102
}
100
AcDbDictionary
280
0
281
1
  0
ACDBDICTIONARYWDFLT
  5
E
102
{ACAD_REACTORS
330
C
102
}
100
AcDbDictionary
281
1
  3
Normal
350
F
100
AcDbDictionaryWithDefault
340
F
  0
DICTIONARY
  5
17
102
{ACAD_REACTORS
330
C
102
}
100
AcDbDictionary
280
0
281
1
  3
Standard
350
18
  0
DICTIONARY
  5
19
102
{ACAD_REACTORS
330
C
102
}
100
AcDbDictionary
281
1
  0
DICTIONARY
  5
1A
102
{ACAD_REACTORS
330
C
102
}
100
AcDbDictionary
281
1
  3
Model
350
369
  3
Layout1
350
36A
  0
ACDBPLACEHOLDER
  5
F
102
{ACAD_REACTORS
330
E
102
}
  0
MLINESTYLE
  5
18
102
{ACAD_REACTORS
330
17
102
}
100
AcDbMlineStyle
  2
STANDARD
 70
0
  3

 62
256
 51
90.0
 52
90.0
 71
2
 49
0.5
 62
256
  6
BYLAYER
 49
-0.5
 62
256
  6
BYLAYER
  0
LAYOUT
  5
369
102
{ACAD_REACTORS
330
1A
102
}
100
AcDbPlotSettings
  1

  2
none_device
  4
ISO_A0_(1189.00_x_841.00_MM)
  6

 40
0.0
 41
0.0
 42
0.0
 43
0.0
 44
1189.0
 45
841.0
 46
0.0
 47
0.0
 48
0.0
 49
0.0
140
0.0
141
0.0
142
1.0
143
1.0
 70
1024
 72
1
 73
0
 74
0
  7

 75
0
147
1.0
148
0.0
149
0.0
100
AcDbLayout
  1
Model
 70
0
 71
0
 10
0.0
 20
0.0
 11
1189.0
 21
841.0
 12
0.0
 22
0.0
 32
0.0
 14
0.0
 24
0.0
 34
0.0
 15
0.0
 25
0.0
 35
0.0
146
0.0
 13
0.0
 23
0.0
 33
0.0
 16
1.0
 26
0.0
 36
0.0
 17
0.0
 27
1.0
 37
0.0
 76
0
330
216
345
0
346
0
  0
LAYOUT
  5
36A
102
{ACAD_REACTORS
330
1A
102
}
100
AcDbPlotSettings
  1

  2
none_device
  4
ISO_A0_(1189.00_x_841.00_MM)
  6

 40
0.0
 41
0.0
 42
0.0
 43
0.0
 44
1189.0
 45
841.0
 46
0.0
 47
0.0
 48
0.0
 49
0.0
140
0.0
141
0.0
142
1.0
143
1.0
 70
0
 72
1
 73
0
 74
0
  7

 75
0
147
1.0
148
0.0
149
0.0
100
AcDbLayout
  1
Layout1
 70
0
 71
1
 10
0.0
 20
0.0
 11
1189.0
 21
841.0
 12
0.0
 22
0.0
 32
0.0
 14
0.0
 24
0.0
 34
0.0
 15
0.0
 25
0.0
 35
0.0
146
0.0
 13
0.0
 23
0.0
 33
0.0
 16
1.0
 26
0.0
 36
0.0
 17
0.0
 27
1.0
 37
0.0
 76
0
330
217
345
0
346
0
  0
ENDSEC
  0
EOF
