999
DXF file: W:\Engenharia\Montagens\Cooktops\Vitroceramico\94747-220\layout_94747.dxf
999
Pro/ENGINEER 2013050 by Parametric Technology Corporation
  0
SECTION
  2
HEADER
  9
$ACADVER
  1
AC1021
  9
$DWGCODEPAGE
  3
ANSI_1252
  9
$EXTMAX
 10
1189.0
 20
841.0
 30
0.0
  9
$EXTMIN
 10
0.0
 20
0.0
 30
0.0
  9
$LIMMIN
 10
0.0
 20
0.0
  9
$LIMMAX
 10
1189.0
 20
841.0
  9
$VIEWCTR
 10
594.5
 20
420.5
  9
$VIEWSIZE
 40
841.0
  9
$CLAYER
  8
0
  9
$LTSCALE
 40
65.395
  9
$CELTYPE
  6
BYLAYER
  9
$DIMSCALE
 40
1.0
  9
$DIMASZ
 40
3.0
  9
$DIMEXO
 40
0.5
  9
$DIMDLI
 40
45.182
  9
$DIMEXE
 40
0.5
  9
$DIMCEN
 40
10.701
  9
$DIMLFAC
 40
1.0
  9
$DIMBLK
  1
_FILLED
  9
$DIMTXT
 40
1.8
  9
$DIMTOL
 70
1
  9
$DIMLIM
 70
0
  9
$DIMTFAC
 40
1.0
  9
$DIMTP
 40
0.001
  9
$DIMTM
 40
0.001
  9
$DIMGAP
 40
0.625
  9
$DIMDSEP
 70
46
  9
$PDMODE
 70
3
  9
$PDSIZE
 40
1.0
  9
$HANDSEED
  5
3CB
  9
$TILEMODE
 70
1
  9
$MEASUREMENT
 70
1
  9
$INSUNITS
 70
4
  0
ENDSEC
  0
SECTION
  2
CLASSES
  0
CLASS
  1
ACDBDICTIONARYWDFLT
  2
AcDbDictionaryWithDefault
  3
AutoCAD 2000
 90
0
 91
1
280
0
281
0
  0
CLASS
  1
ACDBPLACEHOLDER
  2
AcDbPlaceHolder
  3
AutoCAD 2000
 90
0
 91
1
280
0
281
0
  0
CLASS
  1
LAYOUT
  2
AcDbLayout
  3
AutoCAD 2000
 90
0
 91
0
280
0
281
0
  0
ENDSEC
  0
SECTION
  2
TABLES
  0
TABLE
  2
VPORT
  5
8
100
AcDbSymbolTable
 70
2
  0
VPORT
  5
1F4
100
AcDbSymbolTableRecord
100
AcDbViewportTableRecord
  2
*ACTIVE
 70
0
 10
0.0
 20
0.0
 11
1.0
 21
1.0
 12
594.5
 22
420.5
 13
0.0
 23
0.0
 14
1.0
 24
1.0
 15
0.0
 25
0.0
 16
0.0
 26
0.0
 36
1.0
 17
0.0
 27
0.0
 37
0.0
 40
841.0
 41
1.4137931034
 42
50.0
 43
0.0
 44
0.0
 50
0.0
 51
0.0
 71
0
 72
100
 73
1
 74
1
 75
0
 76
0
 77
0
 78
0
  0
ENDTAB
  0
TABLE
  2
LTYPE
  5
5
100
AcDbSymbolTable
 70
6
  0
LTYPE
  5
14
100
AcDbSymbolTableRecord
100
AcDbLinetypeTableRecord
  2
BYBLOCK
 70
0
  3

 72
65
 73
0
 40
0.0
  0
LTYPE
  5
15
100
AcDbSymbolTableRecord
100
AcDbLinetypeTableRecord
  2
BYLAYER
 70
0
  3

 72
65
 73
0
 40
0.0
  0
LTYPE
  5
16
100
AcDbSymbolTableRecord
100
AcDbLinetypeTableRecord
  2
CONTINUOUS
 70
64
  3
Solid line
 72
65
 73
0
 40
0.0
  0
LTYPE
  5
1F5
100
AcDbSymbolTableRecord
100
AcDbLinetypeTableRecord
  2
CENTER
 70
64
  3
____ _ ____ _ ____ _ ____ _ ____ _ ____ _ ____
 72
65
 73
4
 40
0.6
 49
0.375
 74
0
 49
-0.075
 74
0
 49
0.075
 74
0
 49
-0.075
 74
0
  0
LTYPE
  5
1F6
100
AcDbSymbolTableRecord
100
AcDbLinetypeTableRecord
  2
HIDDEN
 70
64
  3
- - - - - - - - - - - - - - - - - - - -
 72
65
 73
2
 40
0.2
 49
0.1
 74
0
 49
-0.1
 74
0
  0
LTYPE
  5
1F7
100
AcDbSymbolTableRecord
100
AcDbLinetypeTableRecord
  2
PHANTOM
 70
64
  3
_____ _ _ _____ _ _ _____ _ _ _____
 72
65
 73
6
 40
0.8
 49
0.45
 74
0
 49
-0.05
 74
0
 49
0.1
 74
0
 49
-0.05
 74
0
 49
0.1
 74
0
 49
-0.05
 74
0
  0
LTYPE
  5
1F8
100
AcDbSymbolTableRecord
100
AcDbLinetypeTableRecord
  2
DOT
 70
64
  3
. . . . . . . . . . . . . . . . . . . .
 72
65
 73
2
 40
0.2
 49
0.1
 74
0
 49
-0.1
 74
0
  0
LTYPE
  5
1F9
100
AcDbSymbolTableRecord
100
AcDbLinetypeTableRecord
  2
DASHED
 70
64
  3
- - - - - - - - - - - - - - - - - - - -
 72
65
 73
2
 40
0.2
 49
0.1
 74
0
 49
-0.1
 74
0
  0
ENDTAB
  0
TABLE
  2
LAYER
  5
2
100
AcDbSymbolTable
 70
36
  0
LAYER
  5
10
100
AcDbSymbolTableRecord
100
AcDbLayerTableRecord
  2
0
 70
0
 62
7
  6
CONTINUOUS
370
-3
390
F
  0
LAYER
  5
1FA
100
AcDbSymbolTableRecord
100
AcDbLayerTableRecord
  2
DEFAULT_1
 70
0
 62
7
  6
CENTER
370
-3
390
F
  0
LAYER
  5
1FB
100
AcDbSymbolTableRecord
100
AcDbLayerTableRecord
  2
DEFAULT_2
 70
0
 62
8
  6
HIDDEN
370
-3
390
F
  0
LAYER
  5
1FC
100
AcDbSymbolTableRecord
100
AcDbLayerTableRecord
  2
DEFAULT_3
 70
0
 62
7
  6
PHANTOM
370
-3
390
F
  0
LAYER
  5
1FD
100
AcDbSymbolTableRecord
100
AcDbLayerTableRecord
  2
01___PRT_ALL_DTM_PLN
 70
0
 62
7
  6
CONTINUOUS
370
-3
390
F
  0
LAYER
  5
1FE
100
AcDbSymbolTableRecord
100
AcDbLayerTableRecord
  2
01___PRT_DEF_DTM_PLN
 70
0
 62
7
  6
CONTINUOUS
370
-3
390
F
  0
LAYER
  5
1FF
100
AcDbSymbolTableRecord
100
AcDbLayerTableRecord
  2
02___PRT_ALL_AXES
 70
0
 62
7
  6
CONTINUOUS
370
-3
390
F
  0
LAYER
  5
200
100
AcDbSymbolTableRecord
100
AcDbLayerTableRecord
  2
03___PRT_ALL_CURVES
 70
0
 62
7
  6
CONTINUOUS
370
-3
390
F
  0
LAYER
  5
201
100
AcDbSymbolTableRecord
100
AcDbLayerTableRecord
  2
04___PRT_ALL_DTM_PNT
 70
0
 62
7
  6
CONTINUOUS
370
-3
390
F
  0
LAYER
  5
202
100
AcDbSymbolTableRecord
100
AcDbLayerTableRecord
  2
05___PRT_ALL_DTM_CSYS
 70
0
 62
7
  6
CONTINUOUS
370
-3
390
F
  0
LAYER
  5
203
100
AcDbSymbolTableRecord
100
AcDbLayerTableRecord
  2
05___PRT_DEF_DTM_CSYS
 70
0
 62
7
  6
CONTINUOUS
370
-3
390
F
  0
LAYER
  5
204
100
AcDbSymbolTableRecord
100
AcDbLayerTableRecord
  2
06___PRT_ALL_SURFS
 70
0
 62
7
  6
CONTINUOUS
370
-3
390
F
  0
ENDTAB
  0
TABLE
  2
STYLE
  5
3
100
AcDbSymbolTable
 70
1
  0
STYLE
  5
11
100
AcDbSymbolTableRecord
100
AcDbTextStyleTableRecord
  2
STANDARD
 70
0
 40
0.0
 41
0.8
 50
0.0
 71
0
 42
0.2
  3
txt
  4

  0
STYLE
  5
205
100
AcDbSymbolTableRecord
100
AcDbTextStyleTableRecord
  2
TEXTSTYLE_1
 70
0
 40
0.0
 41
0.8
 50
0.0
 71
0
 42
0.2
  3
gdt
  4

  0
ENDTAB
  0
TABLE
  2
VIEW
  5
6
100
AcDbSymbolTable
 70
0
  0
ENDTAB
  0
TABLE
  2
UCS
  5
7
100
AcDbSymbolTable
 70
0
  0
ENDTAB
  0
TABLE
  2
APPID
  5
9
100
AcDbSymbolTable
 70
1
  0
APPID
  5
206
100
AcDbSymbolTableRecord
100
AcDbRegAppTableRecord
  2
ACAD
 70
0
  0
ENDTAB
  0
TABLE
  2
BLOCK_RECORD
  5
1
100
AcDbSymbolTable
 70
0
  0
BLOCK_RECORD
  5
207
100
AcDbSymbolTableRecord
100
AcDbBlockTableRecord
  2
*Model_Space
  0
BLOCK_RECORD
  5
208
100
AcDbSymbolTableRecord
100
AcDbBlockTableRecord
  2
*Paper_Space
  0
BLOCK_RECORD
  5
209
100
AcDbSymbolTableRecord
100
AcDbBlockTableRecord
  2
_FILLED
  0
BLOCK_RECORD
  5
20A
100
AcDbSymbolTableRecord
100
AcDbBlockTableRecord
  2
*D0
  0
BLOCK_RECORD
  5
20B
100
AcDbSymbolTableRecord
100
AcDbBlockTableRecord
  2
*D1
  0
ENDTAB
  0
TABLE
  2
DIMSTYLE
  5
A
100
AcDbSymbolTable
 70
1
100
AcDbDimStyleTable
 71
0
  0
DIMSTYLE
105
20C
100
AcDbSymbolTableRecord
100
AcDbDimStyleTableRecord
  2
STANDARD
 70
0
  3

  4

 40
1.0
 41
3.0
 42
0.5
 43
0.38
 44
0.5
 45
0.0
 46
0.0
 47
0.001
 48
0.001
140
1.8
141
0.09
142
0.0
143
25.4
144
1.0
145
0.0
146
1.0
147
0.625
 71
1.0
 72
0.0
 73
0
 74
0
 75
0
 76
0
 77
1
 78
8
170
0
171
2
172
0
173
0
174
0
175
0
176
0
177
0
178
0
270
2
271
3
272
3
273
2
274
2
275
0
280
0
281
0
282
0
283
1
284
8
285
0
286
0
287
3
288
0
340
11
278
46
341
209
342
209
343
209
344
209
  0
DIMSTYLE
105
20D
100
AcDbSymbolTableRecord
100
AcDbDimStyleTableRecord
  2
DIMSTYLE_1
 70
0
  3

  4

 40
1.0
 41
3.0
 42
0.5
 43
0.38
 44
0.5
 45
0.0
 46
0.0
 47
0.001
 48
0.001
140
10.0
141
0.09
142
0.0
143
25.4
144
1.0
145
0.0
146
1.0
147
2.5
 71
0.0
 72
0.0
 73
0
 74
0
 75
0
 76
0
 77
1
 78
8
170
0
171
2
172
0
173
0
174
0
175
0
176
0
177
0
178
0
270
2
271
3
272
3
273
2
274
2
275
0
280
0
281
0
282
0
283
1
284
8
285
0
286
0
287
3
288
0
340
11
278
46
341
209
342
209
343
209
344
209
  0
ENDTAB
  0
ENDSEC
  0
SECTION
  2
BLOCKS
  0
BLOCK
  5
20
100
AcDbEntity
  8
0
100
AcDbBlockBegin
  2
*Model_Space
 70
0
 10
0.0
 20
0.0
 30
0.0
  3
*Model_Space
  1

  0
ENDBLK
  5
21
100
AcDbEntity
  8
0
100
AcDbBlockEnd
  0
BLOCK
  5
1C
100
AcDbEntity
  8
0
100
AcDbBlockBegin
  2
*Paper_Space
 70
0
 10
0.0
 20
0.0
 30
0.0
  3
*Paper_Space
  1

  0
ENDBLK
  5
1D
100
AcDbEntity
  8
0
100
AcDbBlockEnd
  0
BLOCK
  5
20E
100
AcDbEntity
  8
0
100
AcDbBlockBegin
  2
_FILLED
 70
64
 10
0.0
 20
0.0
  3
_FILLED
  1

  0
SOLID
  5
20F
100
AcDbEntity
  8
0
  6
BYBLOCK
 62
0
100
AcDbTrace
 10
0.0
 20
0.0
 11
-1.0
 21
0.1666666667
 12
-1.0
 22
-0.1666666667
 13
-1.0
 23
-0.1666666667
  0
ENDBLK
  5
210
100
AcDbEntity
  8
0
  6
BYBLOCK
 62
0
100
AcDbBlockEnd
  0
BLOCK
  5
211
100
AcDbEntity
  8
0
100
AcDbBlockBegin
 62
2
  6
CONTINUOUS
  2
*D0
 70
65
 10
0.0
 20
0.0
  3
*D0
  1

  0
MTEXT
  5
212
100
AcDbEntity
  8
0
100
AcDbMText
 62
2
  6
CONTINUOUS
  7
STANDARD
 71
2
 72
1
 10
604.4575062035
 20
749.8588313666
 30
0.0
 11
1.0
 21
0.0
 31
0.0
 44
0.9
  1
590
 40
10.0
 41
46.2857142857
  0
LINE
  5
213
100
AcDbEntity
  8
0
100
AcDbLine
 62
2
  6
CONTINUOUS
 10
309.4575062035
 20
689.6915710298
 11
309.4575062035
 21
736.0731170809
  0
LINE
  5
214
100
AcDbEntity
  8
0
100
AcDbLine
 62
2
  6
CONTINUOUS
 10
899.4575062035
 20
689.6915710298
 11
899.4575062035
 21
736.0731170809
  0
LINE
  5
215
100
AcDbEntity
  8
0
100
AcDbLine
 62
2
  6
CONTINUOUS
 10
309.4575062035
 20
735.5731170809
 11
604.4575062035
 21
735.5731170809
  0
LINE
  5
216
100
AcDbEntity
  8
0
100
AcDbLine
 62
2
  6
CONTINUOUS
 10
899.4575062035
 20
735.5731170809
 11
604.4575062035
 21
735.5731170809
  0
INSERT
  5
217
100
AcDbEntity
  8
0
100
AcDbBlockReference
 62
2
  6
CONTINUOUS
  2
_FILLED
 10
309.4575062035
 20
735.5731170809
 41
3.0
 42
3.0
 43
3.0
 50
180.0
  0
INSERT
  5
218
100
AcDbEntity
  8
0
100
AcDbBlockReference
 62
2
  6
CONTINUOUS
  2
_FILLED
 10
899.4575062035
 20
735.5731170809
 41
3.0
 42
3.0
 43
3.0
  0
ENDBLK
  5
219
100
AcDbEntity
  8
0
  6
BYBLOCK
 62
0
100
AcDbBlockEnd
  0
BLOCK
  5
21A
100
AcDbEntity
  8
0
100
AcDbBlockBegin
 62
2
  6
CONTINUOUS
  2
*D1
 70
65
 10
0.0
 20
0.0
  3
*D1
  1

  0
MTEXT
  5
21B
100
AcDbEntity
  8
0
100
AcDbMText
 62
2
  6
CONTINUOUS
  7
STANDARD
 71
2
 72
1
 10
934.7988511386
 20
434.1915710298
 30
0.0
 11
0.0
 21
1.0
 31
0.0
 44
0.9
  1
520
 40
10.0
 41
46.2857142857
  0
LINE
  5
21C
100
AcDbEntity
  8
0
100
AcDbLine
 62
2
  6
CONTINUOUS
 10
894.9575062035
 20
694.1915710298
 11
949.5845654243
 21
694.1915710298
  0
LINE
  5
21D
100
AcDbEntity
  8
0
100
AcDbLine
 62
2
  6
CONTINUOUS
 10
894.9575062035
 20
174.1915710298
 11
949.5845654243
 21
174.1915710298
  0
LINE
  5
21E
100
AcDbEntity
  8
0
100
AcDbLine
 62
2
  6
CONTINUOUS
 10
949.0845654243
 20
694.1915710298
 11
949.0845654243
 21
434.1915710298
  0
LINE
  5
21F
100
AcDbEntity
  8
0
100
AcDbLine
 62
2
  6
CONTINUOUS
 10
949.0845654243
 20
174.1915710298
 11
949.0845654243
 21
434.1915710298
  0
INSERT
  5
220
100
AcDbEntity
  8
0
100
AcDbBlockReference
 62
2
  6
CONTINUOUS
  2
_FILLED
 10
949.0845654243
 20
694.1915710298
 41
3.0
 42
3.0
 43
3.0
 50
90.0
  0
INSERT
  5
221
100
AcDbEntity
  8
0
100
AcDbBlockReference
 62
2
  6
CONTINUOUS
  2
_FILLED
 10
949.0845654243
 20
174.1915710298
 41
3.0
 42
3.0
 43
3.0
 50
270.0
  0
ENDBLK
  5
222
100
AcDbEntity
  8
0
  6
BYBLOCK
 62
0
100
AcDbBlockEnd
  0
ENDSEC
  0
SECTION
  2
ENTITIES
  0
DIMENSION
  5
223
100
AcDbEntity
  8
0
100
AcDbDimension
 62
2
  6
CONTINUOUS
  2
*D0
 10
899.4575062035
 20
735.5731170809
 11
604.4575062035
 21
735.5731170809
 70
160
 71
2
 42
590.0
  3
DIMSTYLE_1
100
AcDbAlignedDimension
 13
309.4575062035
 23
689.1915710298
 14
899.4575062035
 24
689.1915710298
100
AcDbRotatedDimension
  0
DIMENSION
  5
224
100
AcDbEntity
  8
0
100
AcDbDimension
 62
2
  6
CONTINUOUS
  2
*D1
 10
949.0845654243
 20
174.1915710298
 11
949.0845654243
 21
434.1915710298
 70
160
 71
2
 42
520.0
  3
DIMSTYLE_1
100
AcDbAlignedDimension
 13
894.4575062035
 23
694.1915710298
 14
894.4575062035
 24
174.1915710298
 50
270.0
100
AcDbRotatedDimension
  0
LINE
  5
225
100
AcDbEntity
  8
0
100
AcDbLine
 62
7
  6
CONTINUOUS
 10
309.4575062035
 20
689.1915710298
 11
309.4575062035
 21
179.1915710298
  0
LINE
  5
226
100
AcDbEntity
  8
0
100
AcDbLine
 62
7
  6
CONTINUOUS
 10
314.4575062035
 20
174.1915710298
 11
894.4575062035
 21
174.1915710298
  0
LINE
  5
227
100
AcDbEntity
  8
0
100
AcDbLine
 62
7
420
14742271
  6
CONTINUOUS
 10
359.6147423215
 20
339.705865487
 11
360.4915191225
 21
337.9998542027
  0
LINE
  5
228
100
AcDbEntity
  8
0
100
AcDbLine
 62
7
420
14742271
  6
CONTINUOUS
 10
359.8655452729
 20
337.672225622
 11
358.9884239623
 21
339.393739836
  0
LINE
  5
229
100
AcDbEntity
  8
0
100
AcDbLine
 62
7
420
14742271
  6
CONTINUOUS
 10
355.4385975743
 20
349.3028679803
 11
355.7868967279
 21
348.4236796124
  0
LINE
  5
22A
100
AcDbEntity
  8
0
100
AcDbLine
 62
7
420
14742271
  6
CONTINUOUS
 10
355.1650569928
 20
348.1887241003
 11
354.8177913679
 21
349.0758361878
  0
LINE
  5
22B
100
AcDbEntity
  8
0
100
AcDbLine
 62
7
420
14742271
  6
CONTINUOUS
 10
355.1337066239
 20
350.1968702587
 11
355.4385975743
 21
349.3028679803
  0
LINE
  5
22C
100
AcDbEntity
  8
0
100
AcDbLine
 62
7
420
14742271
  6
CONTINUOUS
 10
354.8177913679
 20
349.0758361878
 11
354.5139339461
 21
349.9774176763
  0
LINE
  5
22D
100
AcDbEntity
  8
0
100
AcDbLine
 62
7
420
14742271
  6
CONTINUOUS
 10
352.642902588
 20
358.2556376178
 11
352.8961171062
 21
357.3595682821
  0
LINE
  5
22E
100
AcDbEntity
  8
0
100
AcDbLine
 62
7
420
14742271
  6
CONTINUOUS
 10
352.2877132435
 20
357.1969597752
 11
352.0365657826
 21
358.1002638114
  0
LINE
  5
22F
100
AcDbEntity
  8
0
100
AcDbLine
 62
7
420
14742271
  6
CONTINUOUS
 10
352.4327517634
 20
359.1613532208
 11
352.642902588
 21
358.2556376178
  0
LINE
  5
230
100
AcDbEntity
  8
0
100
AcDbLine
 62
7
420
14742271
  6
CONTINUOUS
 10
352.0365657826
 20
358.1002638114
 11
351.8277929962
 21
359.0125250959
  0
LINE
  5
231
100
AcDbEntity
  8
0
100
AcDbLine
 62
7
420
14742271
  6
CONTINUOUS
 10
537.0667876331
 20
212.4467943383
 11
537.8636382188
 21
212.5163852671
  0
LINE
  5
232
100
AcDbEntity
  8
0
100
AcDbLine
 62
7
420
14742271
  6
CONTINUOUS
 10
607.0477012441
 20
213.3177144769
 11
606.6497927155
 21
213.2832635221
  0
LINE
  5
233
100
AcDbEntity
  8
0
100
AcDbLine
 62
7
420
14742271
  6
CONTINUOUS
 10
537.4698638049
 20
213.3390740689
 11
537.0667876331
 21
213.318403496
  0
LINE
  5
234
100
AcDbEntity
  8
0
100
AcDbLine
 62
7
420
14742271
  6
CONTINUOUS
 10
877.4570354863
 20
194.1915778715
 11
831.4553644909
 21
194.1915778715
  0
LINE
  5
235
100
AcDbEntity
  8
0
100
AcDbLine
 62
7
420
14742271
  6
CONTINUOUS
 10
860.7159384853
 20
196.6927171938
 11
859.7333972529
 21
196.6927171938
  0
LINE
  5
236
100
AcDbEntity
  8
0
100
AcDbLine
 62
7
420
14742271
  6
CONTINUOUS
 10
857.7290406996
 20
196.6927171938
 11
856.745121429
 21
196.6927171938
  0
LINE
  5
237
100
AcDbEntity
  8
0
100
AcDbLine
 62
7
420
14742271
  6
CONTINUOUS
 10
875.700725808
 20
196.6934062128
 11
874.7409222058
 21
196.6934062128
  0
LINE
  5
238
100
AcDbEntity
  8
0
100
AcDbLine
 62
7
420
14742271
  6
CONTINUOUS
 10
872.2211793679
 20
196.6934062128
 11
871.2606867466
 21
196.6934062128
  0
LINE
  5
239
100
AcDbEntity
  8
0
100
AcDbLine
 62
7
420
14742271
  6
CONTINUOUS
 10
866.0434341437
 20
196.6934062128
 11
865.0602038922
 21
196.6934062128
  0
LINE
  5
23A
100
AcDbEntity
  8
0
100
AcDbLine
 62
7
420
14742271
  6
CONTINUOUS
 10
863.3783082763
 20
196.6934062128
 11
862.396456063
 21
196.6934062128
  0
LINE
  5
23B
100
AcDbEntity
  8
0
100
AcDbLine
 62
7
420
14742271
  6
CONTINUOUS
 10
836.0538779446
 20
196.6934062128
 11
835.0706476931
 21
196.6934062128
  0
LINE
  5
23C
100
AcDbEntity
  8
0
100
AcDbLine
 62
7
420
14742271
  6
CONTINUOUS
 10
870.7632149585
 20
196.6940952319
 11
869.7806737261
 21
196.6940952319
  0
LINE
  5
23D
100
AcDbEntity
  8
0
100
AcDbLine
 62
7
420
14742271
  6
CONTINUOUS
 10
867.7763171728
 20
196.6940952319
 11
866.7923979022
 21
196.6940952319
  0
LINE
  5
23E
100
AcDbEntity
  8
0
100
AcDbLine
 62
7
420
14742271
  6
CONTINUOUS
 10
851.6160632706
 20
196.6940952319
 11
850.653503592
 21
196.6940952319
  0
LINE
  5
23F
100
AcDbEntity
  8
0
100
AcDbLine
 62
7
420
14742271
  6
CONTINUOUS
 10
849.1948501636
 20
196.6940952319
 11
848.6208972557
 21
196.6940952319
  0
LINE
  5
240
100
AcDbEntity
  8
0
100
AcDbLine
 62
7
420
14742271
  6
CONTINUOUS
 10
847.1629328464
 20
196.6940952319
 11
846.1996841487
 21
196.6940952319
  0
LINE
  5
241
100
AcDbEntity
  8
0
100
AcDbLine
 62
7
420
14742271
  6
CONTINUOUS
 10
845.8193456071
 20
196.6940952319
 11
844.8595420049
 21
196.6940952319
  0
LINE
  5
242
100
AcDbEntity
  8
0
100
AcDbLine
 62
7
420
14742271
  6
CONTINUOUS
 10
842.339799167
 20
196.6940952319
 11
841.3799955648
 21
196.6940952319
  0
LINE
  5
243
100
AcDbEntity
  8
0
100
AcDbLine
 62
7
420
14742271
  6
CONTINUOUS
 10
841.0058581951
 20
196.6940952319
 11
839.9137629263
 21
196.6940952319
  0
LINE
  5
244
100
AcDbEntity
  8
0
100
AcDbLine
 62
7
420
14742271
  6
CONTINUOUS
 10
838.7176257738
 20
196.6940952319
 11
837.7350845414
 21
196.6940952319
  0
LINE
  5
245
100
AcDbEntity
  8
0
100
AcDbLine
 62
7
420
14742271
  6
CONTINUOUS
 10
874.387455409
 20
197.5932651536
 11
872.5746461647
 21
197.5932651536
  0
LINE
  5
246
100
AcDbEntity
  8
0
100
AcDbLine
 62
7
420
14742271
  6
CONTINUOUS
 10
844.5067642272
 20
197.5932651536
 11
842.6932659638
 21
197.5932651536
  0
LINE
  5
247
100
AcDbEntity
  8
0
100
AcDbLine
 62
7
420
14742271
  6
CONTINUOUS
 10
872.8922839684
 20
198.4021735735
 11
874.0698176052
 21
198.4021735735
  0
LINE
  5
248
100
AcDbEntity
  8
0
100
AcDbLine
 62
7
420
14742271
  6
CONTINUOUS
 10
843.0115927866
 20
198.4028625926
 11
844.1884374044
 21
198.4028625926
  0
LINE
  5
249
100
AcDbEntity
  8
0
100
AcDbLine
 62
7
420
14742271
  6
CONTINUOUS
 10
839.0958972581
 20
199.1890333824
 11
838.7169367547
 21
199.1890333824
  0
LINE
  5
24A
100
AcDbEntity
  8
0
100
AcDbLine
 62
7
420
14742271
  6
CONTINUOUS
 10
864.433885533
 20
200.3775913248
 11
863.3783082763
 21
200.3775913248
  0
LINE
  5
24B
100
AcDbEntity
  8
0
100
AcDbLine
 62
7
420
14742271
  6
CONTINUOUS
 10
862.396456063
 20
200.3775913248
 11
861.3415678254
 21
200.3775913248
  0
LINE
  5
24C
100
AcDbEntity
  8
0
100
AcDbLine
 62
7
420
14742271
  6
CONTINUOUS
 10
837.1094552013
 20
200.3775913248
 11
836.0538779446
 21
200.3775913248
  0
LINE
  5
24D
100
AcDbEntity
  8
0
100
AcDbLine
 62
7
420
14742271
  6
CONTINUOUS
 10
835.0706476931
 20
200.3775913248
 11
834.0157594555
 21
200.3775913248
  0
LINE
  5
24E
100
AcDbEntity
  8
0
100
AcDbLine
 62
7
420
14742271
  6
CONTINUOUS
 10
838.7169367547
 20
200.3775913248
 11
839.0958972581
 21
200.3775913248
  0
LINE
  5
24F
100
AcDbEntity
  8
0
100
AcDbLine
 62
7
420
14742271
  6
CONTINUOUS
 10
834.0157594555
 20
201.1920118975
 11
837.1094552013
 21
201.1920118975
  0
LINE
  5
250
100
AcDbEntity
  8
0
100
AcDbLine
 62
7
420
14742271
  6
CONTINUOUS
 10
856.745121429
 20
201.1920118975
 11
857.7290406996
 21
201.1920118975
  0
LINE
  5
251
100
AcDbEntity
  8
0
100
AcDbLine
 62
7
420
14742271
  6
CONTINUOUS
 10
859.7333972529
 20
201.1920118975
 11
860.7159384853
 21
201.1920118975
  0
LINE
  5
252
100
AcDbEntity
  8
0
100
AcDbLine
 62
7
420
14742271
  6
CONTINUOUS
 10
839.4162911382
 20
201.1927009166
 11
837.7350845414
 21
201.1927009166
  0
LINE
  5
253
100
AcDbEntity
  8
0
100
AcDbLine
 62
7
420
14742271
  6
CONTINUOUS
 10
843.1452624915
 20
201.1927009166
 11
844.0540786805
 21
201.1927009166
  0
LINE
  5
254
100
AcDbEntity
  8
0
100
AcDbLine
 62
7
420
14742271
  6
CONTINUOUS
 10
861.3415678254
 20
201.1927009166
 11
864.433885533
 21
201.1927009166
  0
LINE
  5
255
100
AcDbEntity
  8
0
100
AcDbLine
 62
7
420
14742271
  6
CONTINUOUS
 10
865.0602038922
 20
201.1927009166
 11
866.0434341437
 21
201.1927009166
  0
LINE
  5
256
100
AcDbEntity
  8
0
100
AcDbLine
 62
7
420
14742271
  6
CONTINUOUS
 10
866.7923979022
 20
201.1927009166
 11
867.7763171728
 21
201.1927009166
  0
LINE
  5
257
100
AcDbEntity
  8
0
100
AcDbLine
 62
7
420
14742271
  6
CONTINUOUS
 10
869.779984707
 20
201.1927009166
 11
870.7632149585
 21
201.1927009166
  0
LINE
  5
258
100
AcDbEntity
  8
0
100
AcDbLine
 62
7
420
14742271
  6
CONTINUOUS
 10
873.0273317114
 20
201.1927009166
 11
873.9354588813
 21
201.1927009166
  0
LINE
  5
259
100
AcDbEntity
  8
0
100
AcDbLine
 62
7
420
14742271
  6
CONTINUOUS
 10
846.9362455634
 20
201.1933899357
 11
847.9194758149
 21
201.1933899357
  0
LINE
  5
25A
100
AcDbEntity
  8
0
100
AcDbLine
 62
7
420
14742271
  6
CONTINUOUS
 10
849.8962716044
 20
201.1933899357
 11
850.8795018558
 21
201.1933899357
  0
LINE
  5
25B
100
AcDbEntity
  8
0
100
AcDbLine
 62
7
420
14742271
  6
CONTINUOUS
 10
831.4553644909
 20
204.192001046
 11
877.4570354863
 21
204.192001046
  0
LINE
  5
25C
100
AcDbEntity
  8
0
100
AcDbLine
 62
7
420
14742271
  6
CONTINUOUS
 10
624.6249229194
 20
212.8912116558
 11
629.4893977445
 21
212.8912116558
  0
LINE
  5
25D
100
AcDbEntity
  8
0
100
AcDbLine
 62
7
420
14742271
  6
CONTINUOUS
 10
654.6251589145
 20
212.8912116558
 11
659.4896337396
 21
212.8912116558
  0
LINE
  5
25E
100
AcDbEntity
  8
0
100
AcDbLine
 62
7
420
14742271
  6
CONTINUOUS
 10
606.2470610533
 20
212.4757331403
 11
607.0477012441
 21
212.4461053192
  0
LINE
  5
25F
100
AcDbEntity
  8
0
100
AcDbLine
 62
7
420
14742271
  6
CONTINUOUS
 10
352.3566151532
 20
560.4717182964
 11
352.5281809084
 21
559.7334343339
  0
LINE
  5
260
100
AcDbEntity
  8
0
100
AcDbLine
 62
7
420
14742271
  6
CONTINUOUS
 10
352.0334651967
 20
559.6063103105
 11
351.8629329702
 21
560.3504509353
  0
LINE
  5
261
100
AcDbEntity
  8
0
100
AcDbLine
 62
7
420
14742271
  6
CONTINUOUS
 10
720.0323637592
 20
639.8770351168
 11
720.9370458336
 21
640.1805480291
  0
LINE
  5
262
100
AcDbEntity
  8
0
100
AcDbLine
 62
7
420
14742271
  6
CONTINUOUS
 10
721.2388361982
 20
639.2086865927
 11
720.3434558815
 21
638.9082742664
  0
LINE
  5
263
100
AcDbEntity
  8
0
100
AcDbLine
 62
7
420
14742271
  6
CONTINUOUS
 10
803.8146743937
 20
273.2947598178
 11
803.075012393
 21
273.0846089932
  0
LINE
  5
264
100
AcDbEntity
  8
0
100
AcDbLine
 62
7
420
14742271
  6
CONTINUOUS
 10
804.0606542113
 20
272.5023878562
 11
803.313068491
 21
272.2901699743
  0
LINE
  5
265
100
AcDbEntity
  8
0
100
AcDbLine
 62
7
420
14742271
  6
CONTINUOUS
 10
796.4214994823
 20
271.3996127914
 11
795.6773588575
 21
271.2662875961
  0
LINE
  5
266
100
AcDbEntity
  8
0
100
AcDbLine
 62
7
420
14742271
  6
CONTINUOUS
 10
796.5878975942
 20
270.5845031996
 11
795.8351442307
 21
270.4501444757
  0
LINE
  5
267
100
AcDbEntity
  8
0
100
AcDbLine
 62
7
420
14742271
  6
CONTINUOUS
 10
607.0477012441
 20
233.3364753226
 11
606.2508506583
 21
233.2668843938
  0
LINE
  5
268
100
AcDbEntity
  8
0
100
AcDbLine
 62
7
420
14742271
  6
CONTINUOUS
 10
537.4650406712
 20
232.5000061388
 11
537.0667876331
 21
232.4655551839
  0
LINE
  5
269
100
AcDbEntity
  8
0
100
AcDbLine
 62
7
420
14742271
  6
CONTINUOUS
 10
606.6446250723
 20
232.4441955919
 11
607.0477012441
 21
232.4648661648
  0
LINE
  5
26A
100
AcDbEntity
  8
0
100
AcDbLine
 62
7
420
14742271
  6
CONTINUOUS
 10
537.8674278239
 20
233.3075365205
 11
537.0667876331
 21
233.3371643417
  0
LINE
  5
26B
100
AcDbEntity
  8
0
100
AcDbLine
 62
7
420
14742271
  6
CONTINUOUS
 10
416.8529367517
 20
290.3924242016
 11
415.9365413526
 21
290.6528734203
  0
LINE
  5
26C
100
AcDbEntity
  8
0
100
AcDbLine
 62
7
420
14742271
  6
CONTINUOUS
 10
416.2386762267
 20
291.6250793662
 11
417.1454253584
 21
291.3670417144
  0
LINE
  5
26D
100
AcDbEntity
  8
0
100
AcDbLine
 62
7
420
14742271
  6
CONTINUOUS
 10
415.34329591
 20
291.9248026734
 11
416.2386762267
 21
291.6250793662
  0
LINE
  5
26E
100
AcDbEntity
  8
0
100
AcDbLine
 62
7
420
14742271
  6
CONTINUOUS
 10
415.9365413526
 20
290.6528734203
 11
415.0315147686
 21
290.9567308421
  0
LINE
  5
26F
100
AcDbEntity
  8
0
100
AcDbLine
 62
7
420
14742271
  6
CONTINUOUS
 10
404.7020849752
 20
296.060984313
 11
406.4490928958
 21
295.2751580328
  0
LINE
  5
270
100
AcDbEntity
  8
0
100
AcDbLine
 62
7
420
14742271
  6
CONTINUOUS
 10
354.8074560814
 20
552.4329324911
 11
355.0913319494
 21
551.7160081206
  0
LINE
  5
271
100
AcDbEntity
  8
0
100
AcDbLine
 62
7
420
14742271
  6
CONTINUOUS
 10
354.5845584035
 20
551.5244608116
 11
354.3013715546
 21
552.2479308635
  0
LINE
  5
272
100
AcDbEntity
  8
0
100
AcDbLine
 62
7
420
14742271
  6
CONTINUOUS
 10
354.5583756778
 20
553.1622592053
 11
354.8074560814
 21
552.4329324911
  0
LINE
  5
273
100
AcDbEntity
  8
0
100
AcDbLine
 62
7
420
14742271
  6
CONTINUOUS
 10
354.3013715546
 20
552.2479308635
 11
354.0533246797
 21
552.9834587496
  0
LINE
  5
274
100
AcDbEntity
  8
0
100
AcDbLine
 62
7
420
14742271
  6
CONTINUOUS
 10
352.5281809084
 20
559.7334343339
 11
352.7345421279
 21
559.0027295815
  0
LINE
  5
275
100
AcDbEntity
  8
0
100
AcDbLine
 62
7
420
14742271
  6
CONTINUOUS
 10
352.2381038685
 20
558.8700934053
 11
352.0334651967
 21
559.6063103105
  0
LINE
  5
276
100
AcDbEntity
  8
0
100
AcDbLine
 62
7
420
14742271
  6
CONTINUOUS
 10
711.4495973768
 20
635.557918907
 11
709.7022449467
 21
634.7720926268
  0
LINE
  5
277
100
AcDbEntity
  8
0
100
AcDbLine
 62
7
420
14742271
  6
CONTINUOUS
 10
426.0248144621
 20
288.1355421492
 11
425.101528872
 21
288.3005622229
  0
LINE
  5
278
100
AcDbEntity
  8
0
100
AcDbLine
 62
7
420
14742271
  6
CONTINUOUS
 10
425.3051340152
 20
289.2999844232
 11
426.2191178474
 21
289.1363423877
  0
LINE
  5
279
100
AcDbEntity
  8
0
100
AcDbLine
 62
7
420
14742271
  6
CONTINUOUS
 10
358.2122439495
 20
544.608431625
 11
358.9274457722
 21
543.2173020681
  0
LINE
  5
27A
100
AcDbEntity
  8
0
100
AcDbLine
 62
7
420
14742271
  6
CONTINUOUS
 10
358.4168826213
 20
542.9499626584
 11
357.7016807986
 21
544.3538390686
  0
LINE
  5
27B
100
AcDbEntity
  8
0
100
AcDbLine
 62
7
420
14742271
  6
CONTINUOUS
 10
685.2279421099
 20
211.0618659532
 11
685.9975764413
 21
210.2922316218
  0
LINE
  5
27C
100
AcDbEntity
  8
0
100
AcDbLine
 62
7
420
14742271
  6
CONTINUOUS
 10
664.185298886
 20
230.4887593945
 11
662.0576079143
 21
232.6178284044
  0
LINE
  5
27D
100
AcDbEntity
  8
0
100
AcDbLine
 62
7
420
14742271
  6
CONTINUOUS
 10
685.9975764413
 20
211.8321893037
 11
686.7675552823
 21
211.0618659532
  0
LINE
  5
27E
100
AcDbEntity
  8
0
100
AcDbLine
 62
7
420
14742271
  6
CONTINUOUS
 10
541.6122466163
 20
237.8826233249
 11
541.6825265642
 21
237.0854282297
  0
LINE
  5
27F
100
AcDbEntity
  8
0
100
AcDbLine
 62
7
420
14742271
  6
CONTINUOUS
 10
542.483166755
 20
207.9006463359
 11
542.4487158001
 21
208.2995883931
  0
LINE
  5
280
100
AcDbEntity
  8
0
100
AcDbLine
 62
7
420
14742271
  6
CONTINUOUS
 10
542.4838557741
 20
237.8826233249
 11
542.5052153661
 21
237.4788581341
  0
LINE
  5
281
100
AcDbEntity
  8
0
100
AcDbLine
 62
7
420
14742271
  6
CONTINUOUS
 10
541.6415299279
 20
208.7012865267
 11
541.6122466163
 21
207.9006463359
  0
LINE
  5
282
100
AcDbEntity
  8
0
100
AcDbLine
 62
7
420
14742271
  6
CONTINUOUS
 10
758.1361533547
 20
421.3308573286
 11
758.883739075
 21
421.54341972
  0
LINE
  5
283
100
AcDbEntity
  8
0
100
AcDbLine
 62
7
420
14742271
  6
CONTINUOUS
 10
527.705429671
 20
425.8339416373
 11
528.5818619625
 21
424.127930353
  0
LINE
  5
284
100
AcDbEntity
  8
0
100
AcDbLine
 62
7
420
14742271
  6
CONTINUOUS
 10
528.3310590111
 20
426.161570218
 11
529.2081803217
 21
424.4393669849
  0
LINE
  5
285
100
AcDbEntity
  8
0
100
AcDbLine
 62
7
420
14742271
  6
CONTINUOUS
 10
532.4093630466
 20
415.4101162276
 11
532.7583512192
 21
414.5302388407
  0
LINE
  5
286
100
AcDbEntity
  8
0
100
AcDbLine
 62
7
420
14742271
  6
CONTINUOUS
 10
533.0318918008
 20
415.6443827206
 11
533.3788129161
 21
414.7572706332
  0
LINE
  5
287
100
AcDbEntity
  8
0
100
AcDbLine
 62
7
420
14742271
  6
CONTINUOUS
 10
532.7583512192
 20
414.5302388407
 11
533.0625531506
 21
413.6362365623
  0
LINE
  5
288
100
AcDbEntity
  8
0
100
AcDbLine
 62
7
420
14742271
  6
CONTINUOUS
 10
533.3788129161
 20
414.7572706332
 11
533.6826703379
 21
413.8563781638
  0
LINE
  5
289
100
AcDbEntity
  8
0
100
AcDbLine
 62
7
420
14742271
  6
CONTINUOUS
 10
535.3004871778
 20
406.474227558
 11
535.5533571864
 21
405.5778137127
  0
LINE
  5
28A
100
AcDbEntity
  8
0
100
AcDbLine
 62
7
420
14742271
  6
CONTINUOUS
 10
501.4620703026
 20
599.0492085211
 11
501.667742503
 21
598.3181592591
  0
LINE
  5
28B
100
AcDbEntity
  8
0
100
AcDbLine
 62
7
420
14742271
  6
CONTINUOUS
 10
535.9082020214
 20
406.6368360649
 11
536.1600385014
 21
405.7335320286
  0
LINE
  5
28C
100
AcDbEntity
  8
0
100
AcDbLine
 62
7
420
14742271
  6
CONTINUOUS
 10
501.9578195429
 20
599.1818446973
 11
502.1631472338
 21
598.4456277921
  0
LINE
  5
28D
100
AcDbEntity
  8
0
100
AcDbLine
 62
7
420
14742271
  6
CONTINUOUS
 10
501.667742503
 20
598.3181592591
 11
501.8399972773
 21
597.5802198062
  0
LINE
  5
28E
100
AcDbEntity
  8
0
100
AcDbLine
 62
7
420
14742271
  6
CONTINUOUS
 10
535.5533571864
 20
405.5778137127
 11
535.7641970301
 21
404.6724426192
  0
LINE
  5
28F
100
AcDbEntity
  8
0
100
AcDbLine
 62
7
420
14742271
  6
CONTINUOUS
 10
536.1600385014
 20
405.7335320286
 11
536.3688112878
 21
404.8212707442
  0
LINE
  5
290
100
AcDbEntity
  8
0
100
AcDbLine
 62
7
420
14742271
  6
CONTINUOUS
 10
502.1631472338
 20
598.4456277921
 11
502.3333349508
 21
597.7014871673
  0
LINE
  5
291
100
AcDbEntity
  8
0
100
AcDbLine
 62
7
420
14742271
  6
CONTINUOUS
 10
602.5022422608
 20
207.9006463359
 11
602.4319623129
 21
208.6978414312
  0
LINE
  5
292
100
AcDbEntity
  8
0
100
AcDbLine
 62
7
420
14742271
  6
CONTINUOUS
 10
601.6313221221
 20
237.8826233249
 11
601.665773077
 21
237.4836812678
  0
LINE
  5
293
100
AcDbEntity
  8
0
100
AcDbLine
 62
7
420
14742271
  6
CONTINUOUS
 10
601.609273511
 20
208.3044115268
 11
601.6306331031
 21
207.9006463359
  0
LINE
  5
294
100
AcDbEntity
  8
0
100
AcDbLine
 62
7
420
14742271
  6
CONTINUOUS
 10
659.8179513394
 20
581.7568962425
 11
660.1655614738
 21
582.6440083299
  0
LINE
  5
295
100
AcDbEntity
  8
0
100
AcDbLine
 62
7
420
14742271
  6
CONTINUOUS
 10
660.7874012089
 20
582.4097418369
 11
660.4391020554
 21
581.52986445
  0
LINE
  5
296
100
AcDbEntity
  8
0
100
AcDbLine
 62
7
420
14742271
  6
CONTINUOUS
 10
663.9885839338
 20
591.4389925942
 11
664.8657052444
 21
593.1611958273
  0
LINE
  5
297
100
AcDbEntity
  8
0
100
AcDbLine
 62
7
420
14742271
  6
CONTINUOUS
 10
665.4920236036
 20
592.8335672466
 11
664.614902293
 21
591.1275559623
  0
LINE
  5
298
100
AcDbEntity
  8
0
100
AcDbLine
 62
7
420
14742271
  6
CONTINUOUS
 10
777.2602229029
 20
457.6524990296
 11
776.3434829943
 21
457.3920498109
  0
LINE
  5
299
100
AcDbEntity
  8
0
100
AcDbLine
 62
7
420
14742271
  6
CONTINUOUS
 10
767.8916302403
 20
456.2996100325
 11
766.9783354272
 21
456.1359679969
  0
LINE
  5
29A
100
AcDbEntity
  8
0
100
AcDbLine
 62
7
420
14742271
  6
CONTINUOUS
 10
766.5201377276
 20
422.5669575887
 11
765.7753080837
 21
422.4336323934
  0
LINE
  5
29B
100
AcDbEntity
  8
0
100
AcDbLine
 62
7
420
14742271
  6
CONTINUOUS
 10
768.0952353835
 20
455.3001878322
 11
767.1719497934
 21
455.1351677585
  0
LINE
  5
29C
100
AcDbEntity
  8
0
100
AcDbLine
 62
7
420
14742271
  6
CONTINUOUS
 10
765.6089099718
 20
423.2487419852
 11
766.3623523544
 21
423.3831007091
  0
LINE
  5
29D
100
AcDbEntity
  8
0
100
AcDbLine
 62
7
420
14742271
  6
CONTINUOUS
 10
394.9755468917
 20
509.0212842815
 11
396.3997493653
 21
508.3808410308
  0
LINE
  5
29E
100
AcDbEntity
  8
0
100
AcDbLine
 62
7
420
14742271
  6
CONTINUOUS
 10
483.4945193088
 20
467.7724670175
 11
481.7478558978
 21
468.5582932977
  0
LINE
  5
29F
100
AcDbEntity
  8
0
100
AcDbLine
 62
7
420
14742271
  6
CONTINUOUS
 10
495.2688221487
 20
614.8346360345
 11
495.9836794619
 21
613.4435064776
  0
LINE
  5
2A0
100
AcDbEntity
  8
0
100
AcDbLine
 62
7
420
14742271
  6
CONTINUOUS
 10
495.7797298092
 20
615.1019754442
 11
496.4949316319
 21
613.6974100148
  0
LINE
  5
2A1
100
AcDbEntity
  8
0
100
AcDbLine
 62
7
420
14742271
  6
CONTINUOUS
 10
499.104591462
 20
606.335929982
 11
499.3888118396
 21
605.6179720828
  0
LINE
  5
2A2
100
AcDbEntity
  8
0
100
AcDbLine
 62
7
420
14742271
  6
CONTINUOUS
 10
499.612054027
 20
606.5267882718
 11
499.8948963663
 21
605.8033182199
  0
LINE
  5
2A3
100
AcDbEntity
  8
0
100
AcDbLine
 62
7
420
14742271
  6
CONTINUOUS
 10
499.3888118396
 20
605.6179720828
 11
499.6375477336
 21
604.8889898782
  0
LINE
  5
2A4
100
AcDbEntity
  8
0
100
AcDbLine
 62
7
420
14742271
  6
CONTINUOUS
 10
499.8948963663
 20
605.8033182199
 11
500.1429432413
 21
605.0684793529
  0
LINE
  5
2A5
100
AcDbEntity
  8
0
100
AcDbLine
 62
7
420
14742271
  6
CONTINUOUS
 10
602.5022422608
 20
237.8826233249
 11
602.4729589492
 21
237.0819831342
  0
LINE
  5
2A6
100
AcDbEntity
  8
0
100
AcDbLine
 62
7
420
14742271
  6
CONTINUOUS
 10
656.8282974773
 20
571.8208963534
 11
657.0367257541
 21
572.7331576379
  0
LINE
  5
2A7
100
AcDbEntity
  8
0
100
AcDbLine
 62
7
420
14742271
  6
CONTINUOUS
 10
657.6434070691
 20
572.5777838316
 11
657.4332562445
 21
571.6720682285
  0
LINE
  5
2A8
100
AcDbEntity
  8
0
100
AcDbLine
 62
7
420
14742271
  6
CONTINUOUS
 10
657.0367257541
 20
572.7331576379
 11
657.2885622341
 21
573.6364616742
  0
LINE
  5
2A9
100
AcDbEntity
  8
0
100
AcDbLine
 62
7
420
14742271
  6
CONTINUOUS
 10
657.8966215872
 20
573.4738531673
 11
657.6434070691
 21
572.5777838316
  0
LINE
  5
2AA
100
AcDbEntity
  8
0
100
AcDbLine
 62
7
420
14742271
  6
CONTINUOUS
 10
659.5140939176
 20
580.8560037731
 11
659.8179513394
 21
581.7568962425
  0
LINE
  5
2AB
100
AcDbEntity
  8
0
100
AcDbLine
 62
7
420
14742271
  6
CONTINUOUS
 10
660.4391020554
 20
581.52986445
 11
660.1342111049
 21
580.6358621716
  0
LINE
  5
2AC
100
AcDbEntity
  8
0
100
AcDbLine
 62
7
420
14742271
  6
CONTINUOUS
 10
788.4950237898
 20
463.0606099223
 11
786.7476713597
 21
462.2747836421
  0
LINE
  5
2AD
100
AcDbEntity
  8
0
100
AcDbLine
 62
7
420
14742271
  6
CONTINUOUS
 10
778.1652494869
 20
457.9563564514
 11
777.2602229029
 21
457.6524990296
  0
LINE
  5
2AE
100
AcDbEntity
  8
0
100
AcDbLine
 62
7
420
14742271
  6
CONTINUOUS
 10
777.853812855
 20
458.9244282827
 11
776.9584325384
 21
458.6247049755
  0
LINE
  5
2AF
100
AcDbEntity
  8
0
100
AcDbLine
 62
7
420
14742271
  6
CONTINUOUS
 10
776.9584325384
 20
458.6247049755
 11
776.0516834067
 21
458.3666673236
  0
LINE
  5
2B0
100
AcDbEntity
  8
0
100
AcDbLine
 62
7
420
14742271
  6
CONTINUOUS
 10
759.1217951731
 20
420.7489807011
 11
758.3821331724
 21
420.538485367
  0
LINE
  5
2B1
100
AcDbEntity
  8
0
100
AcDbLine
 62
7
420
14742271
  6
CONTINUOUS
 10
463.0947309024
 20
475.5328891075
 11
462.1714453124
 21
475.6979091813
  0
LINE
  5
2B2
100
AcDbEntity
  8
0
100
AcDbLine
 62
7
420
14742271
  6
CONTINUOUS
 10
462.8911257593
 20
474.5334669073
 11
461.9778309461
 21
474.6971089428
  0
LINE
  5
2B3
100
AcDbEntity
  8
0
100
AcDbLine
 62
7
420
14742271
  6
CONTINUOUS
 10
472.2600629314
 20
473.1809224198
 11
471.3429785132
 21
473.4413716385
  0
LINE
  5
2B4
100
AcDbEntity
  8
0
100
AcDbLine
 62
7
420
14742271
  6
CONTINUOUS
 10
404.8832969977
 20
504.3993441785
 11
404.136055787
 21
504.6115620603
  0
LINE
  5
2B5
100
AcDbEntity
  8
0
100
AcDbLine
 62
7
420
14742271
  6
CONTINUOUS
 10
404.3816910951
 20
505.403934022
 11
405.1213530958
 21
505.1937831974
  0
LINE
  5
2B6
100
AcDbEntity
  8
0
100
AcDbLine
 62
7
420
14742271
  6
CONTINUOUS
 10
471.9582725669
 20
472.2087164738
 11
471.0508344161
 21
472.4667541257
  0
LINE
  5
2B7
100
AcDbEntity
  8
0
100
AcDbLine
 62
7
420
14742271
  6
CONTINUOUS
 10
404.136055787
 20
504.6115620603
 11
403.398116334
 21
504.8589199162
  0
LINE
  5
2B8
100
AcDbEntity
  8
0
100
AcDbLine
 62
7
420
14742271
  6
CONTINUOUS
 10
472.853308374
 20
471.9086486571
 11
471.9582725669
 21
472.2087164738
  0
LINE
  5
2B9
100
AcDbEntity
  8
0
100
AcDbLine
 62
7
420
14742271
  6
CONTINUOUS
 10
473.1647450058
 20
472.8774095075
 11
472.2600629314
 21
473.1809224198
  0
LINE
  5
2BA
100
AcDbEntity
  8
0
100
AcDbLine
 62
7
420
14742271
  6
CONTINUOUS
 10
403.6520198713
 20
505.648880311
 11
404.3816910951
 21
505.403934022
  0
LINE
  5
2BB
100
AcDbEntity
  8
0
100
AcDbLine
 62
7
420
14742271
  6
CONTINUOUS
 10
657.057396327
 20
215.3234490684
 11
657.057396327
 21
210.4589742433
  0
LINE
  5
2BC
100
AcDbEntity
  8
0
100
AcDbLine
 62
7
420
14742271
  6
CONTINUOUS
 10
662.0576079143
 20
232.6178284044
 11
662.0576079143
 21
235.3194722839
  0
LINE
  5
2BD
100
AcDbEntity
  8
0
100
AcDbLine
 62
7
420
14742271
  6
CONTINUOUS
 10
750.4005359521
 20
417.5615783582
 11
748.9756444594
 21
416.9207905979
  0
LINE
  5
2BE
100
AcDbEntity
  8
0
100
AcDbLine
 62
7
420
14742271
  6
CONTINUOUS
 10
757.3989029209
 20
421.0834994727
 11
758.1361533547
 21
421.3308573286
  0
LINE
  5
2BF
100
AcDbEntity
  8
0
100
AcDbLine
 62
7
420
14742271
  6
CONTINUOUS
 10
758.3821331724
 20
420.538485367
 11
757.6524619486
 21
420.2938835875
  0
LINE
  5
2C0
100
AcDbEntity
  8
0
100
AcDbLine
 62
7
420
14742271
  6
CONTINUOUS
 10
412.3615657676
 20
502.5593186798
 11
411.608812404
 21
502.6933328942
  0
LINE
  5
2C1
100
AcDbEntity
  8
0
100
AcDbLine
 62
7
420
14742271
  6
CONTINUOUS
 10
411.7745214969
 20
503.5087869955
 11
412.5193511408
 21
503.3754618002
  0
LINE
  5
2C2
100
AcDbEntity
  8
0
100
AcDbLine
 62
7
420
14742271
  6
CONTINUOUS
 10
841.0058581951
 20
196.6940952319
 11
839.6760513378
 21
198.5937208825
  0
LINE
  5
2C3
100
AcDbEntity
  8
0
100
AcDbLine
 62
7
420
14742271
  6
CONTINUOUS
 10
839.9137629263
 20
196.6940952319
 11
838.7176257738
 21
198.4042406308
  0
LINE
  5
2C4
100
AcDbEntity
  8
0
100
AcDbLine
 62
7
420
14742271
  6
CONTINUOUS
 10
687.0572878126
 20
235.3236063985
 11
687.0572878126
 21
230.4591315733
  0
LINE
  5
2C5
100
AcDbEntity
  8
0
100
AcDbLine
 62
7
420
14742271
  6
CONTINUOUS
 10
705.8633750475
 20
365.5923129632
 11
706.0335627645
 21
366.336453588
  0
LINE
  5
2C6
100
AcDbEntity
  8
0
100
AcDbLine
 62
7
420
14742271
  6
CONTINUOUS
 10
706.5286229857
 20
366.208985055
 11
706.356712721
 21
365.4710456021
  0
LINE
  5
2C7
100
AcDbEntity
  8
0
100
AcDbLine
 62
7
420
14742271
  6
CONTINUOUS
 10
706.0335627645
 20
366.336453588
 11
706.2388904554
 21
367.0726704932
  0
LINE
  5
2C8
100
AcDbEntity
  8
0
100
AcDbLine
 62
7
420
14742271
  6
CONTINUOUS
 10
706.7346396957
 20
366.940034317
 11
706.5286229857
 21
366.208985055
  0
LINE
  5
2C9
100
AcDbEntity
  8
0
100
AcDbLine
 62
7
420
14742271
  6
CONTINUOUS
 10
708.053766757
 20
372.9593051488
 11
708.3018136319
 21
373.6941440158
  0
LINE
  5
2CA
100
AcDbEntity
  8
0
100
AcDbLine
 62
7
420
14742271
  6
CONTINUOUS
 10
708.8078981587
 20
373.5087978787
 11
708.5591622647
 21
372.779815674
  0
LINE
  5
2CB
100
AcDbEntity
  8
0
100
AcDbLine
 62
7
420
14742271
  6
CONTINUOUS
 10
708.3018136319
 20
373.6941440158
 11
708.5846559713
 21
374.4176140677
  0
LINE
  5
2CC
100
AcDbEntity
  8
0
100
AcDbLine
 62
7
420
14742271
  6
CONTINUOUS
 10
709.0921185363
 20
374.2267557778
 11
708.8078981587
 21
373.5087978787
  0
LINE
  5
2CD
100
AcDbEntity
  8
0
100
AcDbLine
 62
7
420
14742271
  6
CONTINUOUS
 10
711.7017783663
 20
381.5882358107
 11
712.4169801891
 21
382.9928012401
  0
LINE
  5
2CE
100
AcDbEntity
  8
0
100
AcDbLine
 62
7
420
14742271
  6
CONTINUOUS
 10
712.9278878495
 20
382.7254618304
 11
712.2130305363
 21
381.3343322735
  0
LINE
  5
2CF
100
AcDbEntity
  8
0
100
AcDbLine
 62
7
420
14742271
  6
CONTINUOUS
 10
857.7290406996
 20
201.1920118975
 11
859.7333972529
 21
198.2051141118
  0
LINE
  5
2D0
100
AcDbEntity
  8
0
100
AcDbLine
 62
7
420
14742271
  6
CONTINUOUS
 10
859.7333972529
 20
196.6927171938
 11
857.7290406996
 21
199.6809930177
  0
LINE
  5
2D1
100
AcDbEntity
  8
0
100
AcDbLine
 62
7
420
14742271
  6
CONTINUOUS
 10
869.7806737261
 20
196.6940952319
 11
867.7763171728
 21
199.6823710559
  0
LINE
  5
2D2
100
AcDbEntity
  8
0
100
AcDbLine
 62
7
420
14742271
  6
CONTINUOUS
 10
867.7763171728
 20
201.1927009166
 11
869.779984707
 21
198.2058031309
  0
LINE
  5
2D3
100
AcDbEntity
  8
0
100
AcDbLine
 62
7
420
14742271
  6
CONTINUOUS
 10
459.2207210293
 20
649.029964802
 11
457.7961740461
 21
649.6707525623
  0
LINE
  5
2D4
100
AcDbEntity
  8
0
100
AcDbLine
 62
7
420
14742271
  6
CONTINUOUS
 10
844.1884374044
 20
198.4028625926
 11
843.6000150955
 21
199.9021681478
  0
LINE
  5
2D5
100
AcDbEntity
  8
0
100
AcDbLine
 62
7
420
14742271
  6
CONTINUOUS
 10
844.8595420049
 20
196.6940952319
 11
844.5067642272
 21
197.5932651536
  0
LINE
  5
2D6
100
AcDbEntity
  8
0
100
AcDbLine
 62
7
420
14742271
  6
CONTINUOUS
 10
844.0540786805
 20
201.1927009166
 11
845.8193456071
 21
196.6940952319
  0
LINE
  5
2D7
100
AcDbEntity
  8
0
100
AcDbLine
 62
7
420
14742271
  6
CONTINUOUS
 10
848.6208972557
 20
196.6940952319
 11
847.636288966
 21
199.6017558215
  0
LINE
  5
2D8
100
AcDbEntity
  8
0
100
AcDbLine
 62
7
420
14742271
  6
CONTINUOUS
 10
847.9194758149
 20
201.1933899357
 11
848.9075292001
 21
198.2664368114
  0
LINE
  5
2D9
100
AcDbEntity
  8
0
100
AcDbLine
 62
7
420
14742271
  6
CONTINUOUS
 10
841.1605429824
 20
525.0998894207
 11
840.9093955215
 21
524.1965853844
  0
LINE
  5
2DA
100
AcDbEntity
  8
0
100
AcDbLine
 62
7
420
14742271
  6
CONTINUOUS
 10
840.5538616675
 20
525.2552632271
 11
840.3006471493
 21
524.3591938913
  0
LINE
  5
2DB
100
AcDbEntity
  8
0
100
AcDbLine
 62
7
420
14742271
  6
CONTINUOUS
 10
838.683174819
 20
516.9770432856
 11
838.3793173972
 21
516.0754617971
  0
LINE
  5
2DC
100
AcDbEntity
  8
0
100
AcDbLine
 62
7
420
14742271
  6
CONTINUOUS
 10
838.0630576316
 20
517.196495868
 11
837.7581666812
 21
516.3024935895
  0
LINE
  5
2DD
100
AcDbEntity
  8
0
100
AcDbLine
 62
7
420
14742271
  6
CONTINUOUS
 10
838.3793173972
 20
516.0754617971
 11
838.0317072627
 21
515.1883497096
  0
LINE
  5
2DE
100
AcDbEntity
  8
0
100
AcDbLine
 62
7
420
14742271
  6
CONTINUOUS
 10
837.7581666812
 20
516.3024935895
 11
837.4098675276
 21
515.4233052217
  0
LINE
  5
2DF
100
AcDbEntity
  8
0
100
AcDbLine
 62
7
420
14742271
  6
CONTINUOUS
 10
834.2086848027
 20
506.3933654453
 11
833.3315634922
 21
504.6718512313
  0
LINE
  5
2E0
100
AcDbEntity
  8
0
100
AcDbLine
 62
7
420
14742271
  6
CONTINUOUS
 10
833.5823664435
 20
506.7054910963
 11
832.705245133
 21
504.999479812
  0
LINE
  5
2E1
100
AcDbEntity
  8
0
100
AcDbLine
 62
7
420
14742271
  6
CONTINUOUS
 10
687.9040922829
 20
213.7387051452
 11
684.4204117282
 21
210.2550245905
  0
LINE
  5
2E2
100
AcDbEntity
  8
0
100
AcDbLine
 62
7
420
14742271
  6
CONTINUOUS
 10
804.5443456174
 20
273.5397061068
 11
803.8146743937
 21
273.2947598178
  0
LINE
  5
2E3
100
AcDbEntity
  8
0
100
AcDbLine
 62
7
420
14742271
  6
CONTINUOUS
 10
804.7985936642
 20
272.7497457121
 11
804.0606542113
 21
272.5023878562
  0
LINE
  5
2E4
100
AcDbEntity
  8
0
100
AcDbLine
 62
7
420
14742271
  6
CONTINUOUS
 10
720.9370458336
 20
640.1805480291
 11
721.8537857423
 21
640.4409972477
  0
LINE
  5
2E5
100
AcDbEntity
  8
0
100
AcDbLine
 62
7
420
14742271
  6
CONTINUOUS
 10
722.146274349
 20
639.466379735
 11
721.2388361982
 21
639.2086865927
  0
LINE
  5
2E6
100
AcDbEntity
  8
0
100
AcDbLine
 62
7
420
14742271
  6
CONTINUOUS
 10
731.2189333094
 20
641.6967345521
 11
730.3056384962
 21
641.5330925166
  0
LINE
  5
2E7
100
AcDbEntity
  8
0
100
AcDbLine
 62
7
420
14742271
  6
CONTINUOUS
 10
730.1020333531
 20
642.5325147168
 11
731.0253189431
 21
642.6975347906
  0
LINE
  5
2E8
100
AcDbEntity
  8
0
100
AcDbLine
 62
7
420
14742271
  6
CONTINUOUS
 10
442.5871110074
 20
655.3579161893
 11
441.8343576439
 21
655.4922749133
  0
LINE
  5
2E9
100
AcDbEntity
  8
0
100
AcDbLine
 62
7
420
14742271
  6
CONTINUOUS
 10
442.421057405
 20
654.5428065975
 11
441.6765722706
 21
654.6761317928
  0
LINE
  5
2EA
100
AcDbEntity
  8
0
100
AcDbLine
 62
7
420
14742271
  6
CONTINUOUS
 10
450.060212134
 20
653.4400315327
 11
449.3126264137
 21
653.6525939241
  0
LINE
  5
2EB
100
AcDbEntity
  8
0
100
AcDbLine
 62
7
420
14742271
  6
CONTINUOUS
 10
449.8142323164
 20
652.6476595711
 11
449.0745703157
 21
652.8581549052
  0
LINE
  5
2EC
100
AcDbEntity
  8
0
100
AcDbLine
 62
7
420
14742271
  6
CONTINUOUS
 10
450.5442480497
 20
652.4030577916
 11
449.8142323164
 21
652.6476595711
  0
LINE
  5
2ED
100
AcDbEntity
  8
0
100
AcDbLine
 62
7
420
14742271
  6
CONTINUOUS
 10
450.7978070774
 20
653.1926736768
 11
450.060212134
 21
653.4400315327
  0
LINE
  5
2EE
100
AcDbEntity
  8
0
100
AcDbLine
 62
7
420
14742271
  6
CONTINUOUS
 10
874.0698176052
 20
198.4021735735
 11
873.4807062773
 21
199.9014791287
  0
LINE
  5
2EF
100
AcDbEntity
  8
0
100
AcDbLine
 62
7
420
14742271
  6
CONTINUOUS
 10
874.7409222058
 20
196.6934062128
 11
874.387455409
 21
197.5932651536
  0
LINE
  5
2F0
100
AcDbEntity
  8
0
100
AcDbLine
 62
7
420
14742271
  6
CONTINUOUS
 10
873.9354588813
 20
201.1927009166
 11
875.700725808
 21
196.6934062128
  0
LINE
  5
2F1
100
AcDbEntity
  8
0
100
AcDbLine
 62
7
420
14742271
  6
CONTINUOUS
 10
829.4558310713
 20
196.1924893293
 11
829.4558310713
 21
202.1917786073
  0
LINE
  5
2F2
100
AcDbEntity
  8
0
100
AcDbLine
 62
7
420
14742271
  6
CONTINUOUS
 10
834.0157594555
 20
200.3775913248
 11
834.0157594555
 21
201.1920118975
  0
LINE
  5
2F3
100
AcDbEntity
  8
0
100
AcDbLine
 62
7
420
14742271
  6
CONTINUOUS
 10
835.0706476931
 20
196.6934062128
 11
835.0706476931
 21
200.3775913248
  0
LINE
  5
2F4
100
AcDbEntity
  8
0
100
AcDbLine
 62
7
420
14742271
  6
CONTINUOUS
 10
836.0538779446
 20
200.3775913248
 11
836.0538779446
 21
196.6934062128
  0
LINE
  5
2F5
100
AcDbEntity
  8
0
100
AcDbLine
 62
7
420
14742271
  6
CONTINUOUS
 10
837.1094552013
 20
201.1920118975
 11
837.1094552013
 21
200.3775913248
  0
LINE
  5
2F6
100
AcDbEntity
  8
0
100
AcDbLine
 62
7
420
14742271
  6
CONTINUOUS
 10
837.7350845414
 20
201.1927009166
 11
837.7350845414
 21
196.6940952319
  0
LINE
  5
2F7
100
AcDbEntity
  8
0
100
AcDbLine
 62
7
420
14742271
  6
CONTINUOUS
 10
838.7169367547
 20
199.1890333824
 11
838.7169367547
 21
200.3775913248
  0
LINE
  5
2F8
100
AcDbEntity
  8
0
100
AcDbLine
 62
7
420
14742271
  6
CONTINUOUS
 10
838.7176257738
 20
198.4042406308
 11
838.7176257738
 21
196.6940952319
  0
LINE
  5
2F9
100
AcDbEntity
  8
0
100
AcDbLine
 62
7
420
14742271
  6
CONTINUOUS
 10
841.3696602784
 20
526.0121507052
 11
841.1605429824
 21
525.0998894207
  0
LINE
  5
2FA
100
AcDbEntity
  8
0
100
AcDbLine
 62
7
420
14742271
  6
CONTINUOUS
 10
840.7640124921
 20
526.1609788301
 11
840.5538616675
 21
525.2552632271
  0
LINE
  5
2FB
100
AcDbEntity
  8
0
100
AcDbLine
 62
7
420
14742271
  6
CONTINUOUS
 10
813.2211631066
 20
276.9121100773
 11
811.796960633
 21
276.2716668266
  0
LINE
  5
2FC
100
AcDbEntity
  8
0
100
AcDbLine
 62
7
420
14742271
  6
CONTINUOUS
 10
850.8795018558
 20
201.1933899357
 11
851.6160632706
 21
196.6940952319
  0
LINE
  5
2FD
100
AcDbEntity
  8
0
100
AcDbLine
 62
7
420
14742271
  6
CONTINUOUS
 10
850.653503592
 20
196.6940952319
 11
850.1794584532
 21
199.6038228788
  0
LINE
  5
2FE
100
AcDbEntity
  8
0
100
AcDbLine
 62
7
420
14742271
  6
CONTINUOUS
 10
856.745121429
 20
196.6927171938
 11
856.745121429
 21
201.1920118975
  0
LINE
  5
2FF
100
AcDbEntity
  8
0
100
AcDbLine
 62
7
420
14742271
  6
CONTINUOUS
 10
857.7290406996
 20
199.6809930177
 11
857.7290406996
 21
196.6927171938
  0
LINE
  5
300
100
AcDbEntity
  8
0
100
AcDbLine
 62
7
420
14742271
  6
CONTINUOUS
 10
859.7333972529
 20
198.2051141118
 11
859.7333972529
 21
201.1920118975
  0
LINE
  5
301
100
AcDbEntity
  8
0
100
AcDbLine
 62
7
420
14742271
  6
CONTINUOUS
 10
860.7159384853
 20
201.1920118975
 11
860.7159384853
 21
196.6927171938
  0
LINE
  5
302
100
AcDbEntity
  8
0
100
AcDbLine
 62
7
420
14742271
  6
CONTINUOUS
 10
861.3415678254
 20
200.3775913248
 11
861.3415678254
 21
201.1927009166
  0
LINE
  5
303
100
AcDbEntity
  8
0
100
AcDbLine
 62
7
420
14742271
  6
CONTINUOUS
 10
862.396456063
 20
196.6934062128
 11
862.396456063
 21
200.3775913248
  0
LINE
  5
304
100
AcDbEntity
  8
0
100
AcDbLine
 62
7
420
14742271
  6
CONTINUOUS
 10
863.3783082763
 20
200.3775913248
 11
863.3783082763
 21
196.6934062128
  0
LINE
  5
305
100
AcDbEntity
  8
0
100
AcDbLine
 62
7
420
14742271
  6
CONTINUOUS
 10
864.433885533
 20
201.1927009166
 11
864.433885533
 21
200.3775913248
  0
LINE
  5
306
100
AcDbEntity
  8
0
100
AcDbLine
 62
7
420
14742271
  6
CONTINUOUS
 10
865.0602038922
 20
196.6934062128
 11
865.0602038922
 21
201.1927009166
  0
LINE
  5
307
100
AcDbEntity
  8
0
100
AcDbLine
 62
7
420
14742271
  6
CONTINUOUS
 10
866.0434341437
 20
201.1927009166
 11
866.0434341437
 21
196.6934062128
  0
LINE
  5
308
100
AcDbEntity
  8
0
100
AcDbLine
 62
7
420
14742271
  6
CONTINUOUS
 10
866.7923979022
 20
196.6940952319
 11
866.7923979022
 21
201.1927009166
  0
LINE
  5
309
100
AcDbEntity
  8
0
100
AcDbLine
 62
7
420
14742271
  6
CONTINUOUS
 10
867.7763171728
 20
199.6823710559
 11
867.7763171728
 21
196.6940952319
  0
LINE
  5
30A
100
AcDbEntity
  8
0
100
AcDbLine
 62
7
420
14742271
  6
CONTINUOUS
 10
869.779984707
 20
198.2058031309
 11
869.779984707
 21
201.1927009166
  0
LINE
  5
30B
100
AcDbEntity
  8
0
100
AcDbLine
 62
7
420
14742271
  6
CONTINUOUS
 10
870.7632149585
 20
201.1927009166
 11
870.7632149585
 21
196.6940952319
  0
LINE
  5
30C
100
AcDbEntity
  8
0
100
AcDbLine
 62
7
420
14742271
  6
CONTINUOUS
 10
879.4558798869
 20
202.1917786073
 11
879.4558798869
 21
196.1924893293
  0
LINE
  5
30D
100
AcDbEntity
  8
0
100
AcDbLine
 62
7
420
14742271
  6
CONTINUOUS
 10
847.636288966
 20
199.6017558215
 11
847.1629328464
 21
196.6940952319
  0
LINE
  5
30E
100
AcDbEntity
  8
0
100
AcDbLine
 62
7
420
14742271
  6
CONTINUOUS
 10
846.1996841487
 20
196.6940952319
 11
846.9362455634
 21
201.1933899357
  0
LINE
  5
30F
100
AcDbEntity
  8
0
100
AcDbLine
 62
7
420
14742271
  6
CONTINUOUS
 10
856.3334325185
 20
328.2412767312
 11
856.1632448016
 21
327.4971361064
  0
LINE
  5
310
100
AcDbEntity
  8
0
100
AcDbLine
 62
7
420
14742271
  6
CONTINUOUS
 10
855.8400948451
 20
328.3625440923
 11
855.6688735994
 21
327.6242601298
  0
LINE
  5
311
100
AcDbEntity
  8
0
100
AcDbLine
 62
7
420
14742271
  6
CONTINUOUS
 10
856.1632448016
 20
327.4971361064
 11
855.9579171106
 21
326.7609192012
  0
LINE
  5
312
100
AcDbEntity
  8
0
100
AcDbLine
 62
7
420
14742271
  6
CONTINUOUS
 10
855.6688735994
 20
327.6242601298
 11
855.4621678703
 21
326.8935553773
  0
LINE
  5
313
100
AcDbEntity
  8
0
100
AcDbLine
 62
7
420
14742271
  6
CONTINUOUS
 10
854.143040809
 20
320.8742845455
 11
853.8953384436
 21
320.1387566594
  0
LINE
  5
314
100
AcDbEntity
  8
0
100
AcDbLine
 62
7
420
14742271
  6
CONTINUOUS
 10
853.6376453013
 20
321.0530850012
 11
853.3889094073
 21
320.323758287
  0
LINE
  5
315
100
AcDbEntity
  8
0
100
AcDbLine
 62
7
420
14742271
  6
CONTINUOUS
 10
853.8953384436
 20
320.1387566594
 11
853.6121515947
 21
319.4152866075
  0
LINE
  5
316
100
AcDbEntity
  8
0
100
AcDbLine
 62
7
420
14742271
  6
CONTINUOUS
 10
853.3889094073
 20
320.323758287
 11
853.1046890298
 21
319.6068339165
  0
LINE
  5
317
100
AcDbEntity
  8
0
100
AcDbLine
 62
7
420
14742271
  6
CONTINUOUS
 10
850.4950291997
 20
312.2446648645
 11
849.779827377
 21
310.8407884543
  0
LINE
  5
318
100
AcDbEntity
  8
0
100
AcDbLine
 62
7
420
14742271
  6
CONTINUOUS
 10
849.9844660488
 20
312.4992574209
 11
849.269264226
 21
311.1081278639
  0
LINE
  5
319
100
AcDbEntity
  8
0
100
AcDbLine
 62
7
  6
CONTINUOUS
 10
894.4575062035
 20
694.1915710298
 11
314.4575062035
 21
694.1915710298
  0
LINE
  5
31A
100
AcDbEntity
  8
0
100
AcDbLine
 62
7
  6
CONTINUOUS
 10
899.4575062035
 20
179.1915710298
 11
899.4575062035
 21
689.1915710298
  0
LINE
  5
31B
100
AcDbEntity
  8
0
100
AcDbLine
 62
7
420
14742271
  6
CONTINUOUS
 10
848.9075292001
 20
198.2664368114
 11
849.8962716044
 21
201.1933899357
  0
LINE
  5
31C
100
AcDbEntity
  8
0
100
AcDbLine
 62
7
420
14742271
  6
CONTINUOUS
 10
850.1794584532
 20
199.6038228788
 11
849.1948501636
 21
196.6940952319
  0
LINE
  5
31D
100
AcDbEntity
  8
0
100
AcDbLine
 62
7
420
14742271
  6
CONTINUOUS
 10
841.3799955648
 20
196.6940952319
 11
843.1452624915
 21
201.1927009166
  0
LINE
  5
31E
100
AcDbEntity
  8
0
100
AcDbLine
 62
7
420
14742271
  6
CONTINUOUS
 10
843.6000150955
 20
199.9021681478
 11
843.0115927866
 21
198.4028625926
  0
LINE
  5
31F
100
AcDbEntity
  8
0
100
AcDbLine
 62
7
420
14742271
  6
CONTINUOUS
 10
842.6932659638
 20
197.5932651536
 11
842.339799167
 21
196.6940952319
  0
LINE
  5
320
100
AcDbEntity
  8
0
100
AcDbLine
 62
7
420
14742271
  6
CONTINUOUS
 10
873.4807062773
 20
199.9014791287
 11
872.8922839684
 21
198.4021735735
  0
LINE
  5
321
100
AcDbEntity
  8
0
100
AcDbLine
 62
7
420
14742271
  6
CONTINUOUS
 10
871.2606867466
 20
196.6934062128
 11
873.0273317114
 21
201.1927009166
  0
LINE
  5
322
100
AcDbEntity
  8
0
100
AcDbLine
 62
7
420
14742271
  6
CONTINUOUS
 10
872.5746461647
 20
197.5932651536
 11
872.2211793679
 21
196.6934062128
  0
ARC
  5
323
100
AcDbEntity
  8
0
100
AcDbCircle
 62
7
420
14742271
  6
CONTINUOUS
 10
542.0495381563
 20
212.883330635
 40
5.0018363343
100
AcDbArc
 50
185.0068709256
 51
264.9844446062
  0
ARC
  5
324
100
AcDbEntity
  8
0
100
AcDbCircle
 62
7
420
14742271
  6
CONTINUOUS
 10
602.0649507208
 20
232.8999390258
 40
5.0018363343
100
AcDbArc
 50
5.0068709256
 51
84.9844446061
  0
CIRCLE
  5
325
100
AcDbEntity
  8
0
100
AcDbCircle
 62
7
420
14742271
  6
CONTINUOUS
 10
662.0571152855
 20
232.6162537041
 40
4.9998760334
  0
ARC
  5
326
100
AcDbEntity
  8
0
100
AcDbCircle
 62
7
420
14742271
  6
CONTINUOUS
 10
602.0656930405
 20
232.9024620619
 40
4.9989655973
100
AcDbArc
 50
94.9847375937
 51
355.0072285486
  0
ARC
  5
327
100
AcDbEntity
  8
0
100
AcDbCircle
 62
7
420
14742271
  6
CONTINUOUS
 10
542.0487961427
 20
212.8808073218
 40
4.9989655396
100
AcDbArc
 50
274.9847343753
 51
175.007372645
  0
ARC
  5
328
100
AcDbEntity
  8
0
100
AcDbCircle
 62
7
420
14742271
  6
CONTINUOUS
 10
542.0464421592
 20
232.8994574645
 40
4.9984247849
100
AcDbArc
 50
184.9798908316
 51
85.0046665939
  0
ARC
  5
329
100
AcDbEntity
  8
0
100
AcDbCircle
 62
7
420
14742271
  6
CONTINUOUS
 10
602.068046942
 20
212.8838123554
 40
4.9984241862
100
AcDbArc
 50
4.9798892385
 51
265.0046651203
  0
CIRCLE
  5
32A
100
AcDbEntity
  8
0
100
AcDbCircle
 62
7
420
14742271
  6
CONTINUOUS
 10
627.0569751782
 20
212.8909722234
 40
4.8077181447
  0
CIRCLE
  5
32B
100
AcDbEntity
  8
0
100
AcDbCircle
 62
7
420
14742271
  6
CONTINUOUS
 10
687.0570772182
 20
212.8909937104
 40
4.8077098364
  0
CIRCLE
  5
32C
100
AcDbEntity
  8
0
100
AcDbCircle
 62
7
420
14742271
  6
CONTINUOUS
 10
657.0568603948
 20
212.8909936314
 40
4.8077096985
  0
CIRCLE
  5
32D
100
AcDbEntity
  8
0
100
AcDbCircle
 62
7
420
14742271
  6
CONTINUOUS
 10
687.0567518803
 20
232.8911509614
 40
4.8077096985
  0
ARC
  5
32E
100
AcDbEntity
  8
0
100
AcDbCircle
 62
7
420
14742271
  6
CONTINUOUS
 10
542.0488355018
 20
232.9011305719
 40
4.6002275317
100
AcDbArc
 50
185.0011703745
 51
4.989367185
  0
ARC
  5
32F
100
AcDbEntity
  8
0
100
AcDbCircle
 62
7
420
14742271
  6
CONTINUOUS
 10
877.4551126262
 20
196.1923442134
 40
2.0007672659
100
AcDbArc
 50
270.0550647684
 51
0.0041556703
  0
ARC
  5
330
100
AcDbEntity
  8
0
100
AcDbCircle
 62
7
420
14742271
  6
CONTINUOUS
 10
831.4565974033
 20
196.1923438289
 40
2.0007663373
100
AcDbArc
 50
179.9958333175
 51
269.9646931881
  0
ARC
  5
331
100
AcDbEntity
  8
0
100
AcDbCircle
 62
7
420
14742271
  6
CONTINUOUS
 10
831.4554207374
 20
202.1924112806
 40
1.9995897662
100
AcDbArc
 50
90.0016116736
 51
180.0181284741
  0
ARC
  5
332
100
AcDbEntity
  8
0
100
AcDbCircle
 62
7
420
14742271
  6
CONTINUOUS
 10
839.4161728328
 20
199.8802753745
 40
1.3124628328
100
AcDbArc
 50
281.4198387308
 51
89.99483521
  0
CIRCLE
  5
333
100
AcDbEntity
  8
0
100
AcDbCircle
 62
7
420
14742271
  6
CONTINUOUS
 10
688.6744205363
 20
214.5088037025
 40
1.0891354647
  0
SPLINE
  5
334
100
AcDbEntity
  8
0
100
AcDbSpline
 62
7
420
14742271
  6
CONTINUOUS
 70
0
 71
3
 72
15
 73
11
 74
0
 42
0.0000001
 43
0.0000001
 44
0.0000000001
 40
0.0
 40
0.0
 40
0.0
 40
0.0
 40
0.1260384394
 40
0.2533745983
 40
0.3802451818
 40
0.5063312549
 40
0.6320912394
 40
0.7561913217
 40
0.8798248622
 40
1.0
 40
1.0
 40
1.0
 40
1.0
 10
855.0404881829
 20
199.9566006565
 30
0.0
 10
855.1699996109
 20
199.8234232789
 30
0.0
 10
855.3784642504
 20
199.5029963138
 30
0.0
 10
855.4866838684
 20
198.9425246603
 30
0.0
 10
855.378122972
 20
198.3810116384
 30
0.0
 10
855.06621245
 20
197.9013582377
 30
0.0
 10
854.6049793781
 20
197.5830028331
 30
0.0
 10
854.0533531223
 20
197.4697372792
 30
0.0
 10
853.5086184775
 20
197.5803418268
 30
0.0
 10
853.2030776015
 20
197.7882763919
 30
0.0
 10
853.0763951664
 20
197.9152508586
 30
0.0
  0
SPLINE
  5
335
100
AcDbEntity
  8
0
100
AcDbSpline
 62
7
420
14742271
  6
CONTINUOUS
 70
0
 71
3
 72
16
 73
12
 74
0
 42
0.0000001
 43
0.0000001
 44
0.0000000001
 40
0.0
 40
0.0
 40
0.0
 40
0.0
 40
0.0038219391
 40
0.1284732406
 40
0.2535508928
 40
0.3790883894
 40
0.5034195267
 40
0.6270998767
 40
0.7505981842
 40
0.874562523
 40
1.0
 40
1.0
 40
1.0
 40
1.0
 10
853.0763951664
 20
197.9152508586
 30
0.0
 10
853.0723662753
 20
197.9192890373
 30
0.0
 10
852.937749699
 20
198.0558634647
 30
0.0
 10
852.7267785272
 20
198.3800320586
 30
0.0
 10
852.6200789386
 20
198.9426224866
 30
0.0
 10
852.7271998471
 20
199.5031858389
 30
0.0
 10
853.0374074392
 20
199.9818434117
 30
0.0
 10
853.5034785622
 20
200.3024582369
 30
0.0
 10
854.053344861
 20
200.415383923
 30
0.0
 10
854.6044856802
 20
200.3010438877
 30
0.0
 10
854.9115942769
 20
200.0891430326
 30
0.0
 10
855.0404881829
 20
199.9566006565
 30
0.0
  0
SPLINE
  5
336
100
AcDbEntity
  8
0
100
AcDbSpline
 62
7
420
14742271
  6
CONTINUOUS
 70
0
 71
3
 72
16
 73
12
 74
0
 42
0.0000001
 43
0.0000001
 44
0.0000000001
 40
0.0
 40
0.0
 40
0.0
 40
0.0
 40
0.1246039482
 40
0.2482153856
 40
0.371460304
 40
0.4947052224
 40
0.6183166536
 40
0.7431262291
 40
0.8681956041
 40
0.9938293063
 40
1.0
 40
1.0
 40
1.0
 40
1.0
 10
856.1966622278
 20
198.0466397195
 30
0.0
 10
856.0811489045
 20
197.7656141592
 30
0.0
 10
855.7393926968
 20
197.2464876618
 30
0.0
 10
854.968677784
 20
196.7245353778
 30
0.0
 10
854.0579272162
 20
196.540540693
 30
0.0
 10
853.1472951867
 20
196.7242660457
 30
0.0
 10
852.3757958621
 20
197.2478619982
 30
0.0
 10
851.8630960509
 20
198.0240025684
 30
0.0
 10
851.6836123221
 20
198.9439554906
 30
0.0
 10
851.8064105009
 20
199.5695651809
 30
0.0
 10
851.9307386249
 20
199.8651311723
 30
0.0
 10
851.9366921813
 20
199.8789105767
 30
0.0
  0
SPLINE
  5
337
100
AcDbEntity
  8
0
100
AcDbSpline
 62
7
420
14742271
  6
CONTINUOUS
 70
0
 71
3
 72
15
 73
11
 74
0
 42
0.0000001
 43
0.0000001
 44
0.0000000001
 40
0.0
 40
0.0
 40
0.0
 40
0.0
 40
0.1194630086
 40
0.2448949024
 40
0.3700644384
 40
0.4952339743
 40
0.6207757467
 40
0.7471261176
 40
0.8738476656
 40
1.0
 40
1.0
 40
1.0
 40
1.0
 10
851.9366921813
 20
199.8789105767
 30
0.0
 10
852.0519514711
 20
200.1456762253
 30
0.0
 10
852.3903238715
 20
200.6478773842
 30
0.0
 10
853.1477848983
 20
201.1594974017
 30
0.0
 10
854.0578606404
 20
201.3435708652
 30
0.0
 10
854.9687208706
 20
201.1595487773
 30
0.0
 10
855.7388789907
 20
200.6375787867
 30
0.0
 10
856.2528563172
 20
199.8593217042
 30
0.0
 10
856.4328776013
 20
198.9434414704
 30
0.0
 10
856.3136109729
 20
198.3311574331
 30
0.0
 10
856.1966622278
 20
198.0466397195
 30
0.0
  0
SPLINE
  5
338
100
AcDbEntity
  8
0
100
AcDbSpline
 62
7
420
14742271
  6
CONTINUOUS
 70
0
 71
3
 72
13
 73
9
 74
0
 42
0.0000001
 43
0.0000001
 44
0.0000000001
 40
0.0
 40
0.0
 40
0.0
 40
0.0
 40
0.2342592088
 40
0.3522288337
 40
0.4743046111
 40
0.7225651598
 40
0.9707939702
 40
1.0
 40
1.0
 40
1.0
 40
1.0
 10
542.4487158001
 20
208.2995883931
 30
0.0
 10
543.5520002799
 20
208.3953573685
 30
0.0
 10
545.2210292453
 20
209.2234726678
 30
0.0
 10
546.4253709332
 20
211.1607519942
 30
0.0
 10
546.8842807519
 20
213.4743771095
 30
0.0
 10
545.6555923221
 20
216.4935490291
 30
0.0
 10
543.1081913784
 20
217.5408865982
 30
0.0
 10
541.7652972287
 20
217.475161776
 30
0.0
 10
541.6245131458
 20
217.4616172903
 30
0.0
  0
SPLINE
  5
339
100
AcDbEntity
  8
0
100
AcDbSpline
 62
7
420
14742271
  6
CONTINUOUS
 70
0
 71
3
 72
9
 73
5
 74
0
 42
0.0000001
 43
0.0000001
 44
0.0000000001
 40
0.0
 40
0.0
 40
0.0
 40
0.0
 40
0.50017923
 40
1.0
 40
1.0
 40
1.0
 40
1.0
 10
537.8636382188
 20
212.5163852671
 30
0.0
 10
537.9458040215
 20
211.5683932593
 30
0.0
 10
538.8101884342
 20
209.6749212321
 30
0.0
 10
540.6950651319
 20
208.7926491539
 30
0.0
 10
541.6415299279
 20
208.7012865267
 30
0.0
  0
SPLINE
  5
33A
100
AcDbEntity
  8
0
100
AcDbSpline
 62
7
420
14742271
  6
CONTINUOUS
 70
0
 71
3
 72
15
 73
11
 74
0
 42
0.0000001
 43
0.0000001
 44
0.0000000001
 40
0.0
 40
0.0
 40
0.0
 40
0.0
 40
0.2293704534
 40
0.3448464221
 40
0.4644919261
 40
0.5905661606
 40
0.7122896959
 40
0.8340213267
 40
0.9601202228
 40
1.0
 40
1.0
 40
1.0
 40
1.0
 10
537.0667876331
 20
232.4655551839
 30
0.0
 10
537.1701897816
 20
231.2660902606
 30
0.0
 10
538.0690293217
 20
229.4511238412
 30
0.0
 10
540.1742833349
 20
228.1401965195
 30
0.0
 10
542.0820906968
 20
227.7730455869
 30
0.0
 10
544.0245437603
 20
228.1641257427
 30
0.0
 10
545.6714406071
 20
229.2774407596
 30
0.0
 10
546.7846367338
 20
230.9245627938
 30
0.0
 10
547.0907908335
 20
232.4455146501
 30
0.0
 10
547.034177875
 20
233.3224450903
 30
0.0
 10
547.0075264917
 20
233.5314359629
 30
0.0
  0
SPLINE
  5
33B
100
AcDbEntity
  8
0
100
AcDbSpline
 62
7
420
14742271
  6
CONTINUOUS
 70
0
 71
3
 72
13
 73
9
 74
0
 42
0.0000001
 43
0.0000001
 44
0.0000000001
 40
0.0
 40
0.0
 40
0.0
 40
0.0
 40
0.2160816236
 40
0.4620357317
 40
0.7079898399
 40
0.8333789997
 40
0.9587583566
 40
1.0
 40
1.0
 40
1.0
 40
1.0
 10
542.5052153661
 20
237.4788581341
 30
0.0
 10
543.5314651512
 20
237.3783767582
 30
0.0
 10
545.7133225379
 20
236.3577509645
 30
0.0
 10
547.1531901805
 20
232.9031642117
 30
0.0
 10
545.8759239623
 20
229.8803180308
 30
0.0
 10
543.8544365624
 20
228.540227668
 30
0.0
 10
542.4562825276
 20
228.2583136939
 30
0.0
 10
541.6496076515
 20
228.3165144126
 30
0.0
 10
541.4511642722
 20
228.3438408107
 30
0.0
  0
SPLINE
  5
33C
100
AcDbEntity
  8
0
100
AcDbSpline
 62
7
420
14742271
  6
CONTINUOUS
 70
0
 71
3
 72
9
 73
5
 74
0
 42
0.0000001
 43
0.0000001
 44
0.0000000001
 40
0.0
 40
0.0
 40
0.0
 40
0.0
 40
0.4999749009
 40
1.0
 40
1.0
 40
1.0
 40
1.0
 10
537.0667876331
 20
233.3371643417
 30
0.0
 10
537.1647089219
 20
234.4729864433
 30
0.0
 10
538.2045142914
 20
236.7449213379
 30
0.0
 10
540.4763382717
 20
237.7843703337
 30
0.0
 10
541.6122466163
 20
237.8826233249
 30
0.0
  0
SPLINE
  5
33D
100
AcDbEntity
  8
0
100
AcDbSpline
 62
7
420
14742271
  6
CONTINUOUS
 70
0
 71
3
 72
9
 73
5
 74
0
 42
0.0000001
 43
0.0000001
 44
0.0000000001
 40
0.0
 40
0.0
 40
0.0
 40
0.0
 40
0.5002094844
 40
1.0
 40
1.0
 40
1.0
 40
1.0
 10
541.6825265642
 20
237.0854282297
 30
0.0
 10
540.7344543093
 20
237.0032836131
 30
0.0
 10
538.8407555672
 20
236.1390522436
 30
0.0
 10
537.9587868949
 20
234.2539644767
 30
0.0
 10
537.8674278239
 20
233.3075365205
 30
0.0
  0
SPLINE
  5
33E
100
AcDbEntity
  8
0
100
AcDbSpline
 62
7
420
14742271
  6
CONTINUOUS
 70
0
 71
3
 72
13
 73
9
 74
0
 42
0.0000001
 43
0.0000001
 44
0.0000000001
 40
0.0
 40
0.0
 40
0.0
 40
0.0
 40
0.2342545699
 40
0.3522218586
 40
0.4742952187
 40
0.7225508512
 40
0.9707971889
 40
1.0
 40
1.0
 40
1.0
 40
1.0
 10
601.665773077
 20
237.4836812678
 30
0.0
 10
600.5624885972
 20
237.3879122924
 30
0.0
 10
598.8934597431
 20
236.559797035
 30
0.0
 10
597.6891177544
 20
234.6225175953
 30
0.0
 10
597.2302092003
 20
232.3088929562
 30
0.0
 10
598.4589323101
 20
229.2896077633
 30
0.0
 10
601.0065261298
 20
228.2423102971
 30
0.0
 10
602.3495099202
 20
228.3081260201
 30
0.0
 10
602.4902801308
 20
228.3216777507
 30
0.0
  0
SPLINE
  5
33F
100
AcDbEntity
  8
0
100
AcDbSpline
 62
7
420
14742271
  6
CONTINUOUS
 70
0
 71
3
 72
9
 73
5
 74
0
 42
0.0000001
 43
0.0000001
 44
0.0000000001
 40
0.0
 40
0.0
 40
0.0
 40
0.0
 40
0.50017923
 40
1.0
 40
1.0
 40
1.0
 40
1.0
 10
606.2508506583
 20
233.2668843938
 30
0.0
 10
606.1686848557
 20
234.2148764016
 30
0.0
 10
605.3043004429
 20
236.1083484288
 30
0.0
 10
603.4194237452
 20
236.990620507
 30
0.0
 10
602.4729589492
 20
237.0819831342
 30
0.0
  0
SPLINE
  5
340
100
AcDbEntity
  8
0
100
AcDbSpline
 62
7
420
14742271
  6
CONTINUOUS
 70
0
 71
3
 72
13
 73
9
 74
0
 42
0.0000001
 43
0.0000001
 44
0.0000000001
 40
0.0
 40
0.0
 40
0.0
 40
0.0
 40
0.2342397135
 40
0.3522232251
 40
0.4743252775
 40
0.7225270612
 40
0.9707923222
 40
1.0
 40
1.0
 40
1.0
 40
1.0
 10
606.6497927155
 20
213.2832635221
 30
0.0
 10
606.553841466
 20
214.3864601819
 30
0.0
 10
605.725384155
 20
216.0552674538
 30
0.0
 10
603.7879525972
 20
217.2595507496
 30
0.0
 10
601.4743298367
 20
217.7184733212
 30
0.0
 10
598.4554045267
 20
216.4898085657
 30
0.0
 10
597.4073680715
 20
213.942493359
 30
0.0
 10
597.4732024807
 20
212.5995017456
 30
0.0
 10
597.4867622405
 20
212.4587195109
 30
0.0
  0
SPLINE
  5
341
100
AcDbEntity
  8
0
100
AcDbSpline
 62
7
420
14742271
  6
CONTINUOUS
 70
0
 71
3
 72
9
 73
5
 74
0
 42
0.0000001
 43
0.0000001
 44
0.0000000001
 40
0.0
 40
0.0
 40
0.0
 40
0.0
 40
0.4999749009
 40
1.0
 40
1.0
 40
1.0
 40
1.0
 10
607.0477012441
 20
212.4461053192
 30
0.0
 10
606.9497799553
 20
211.3102832175
 30
0.0
 10
605.9099745857
 20
209.0383483229
 30
0.0
 10
603.6381506055
 20
207.9988993272
 30
0.0
 10
602.5022422608
 20
207.9006463359
 30
0.0
  0
SPLINE
  5
342
100
AcDbEntity
  8
0
100
AcDbSpline
 62
7
420
14742271
  6
CONTINUOUS
 70
0
 71
3
 72
9
 73
5
 74
0
 42
0.0000001
 43
0.0000001
 44
0.0000000001
 40
0.0
 40
0.0
 40
0.0
 40
0.0
 40
0.5002094844
 40
1.0
 40
1.0
 40
1.0
 40
1.0
 10
602.4319623129
 20
208.6978414312
 30
0.0
 10
603.3800345678
 20
208.7799860478
 30
0.0
 10
605.27373331
 20
209.6442174173
 30
0.0
 10
606.1557019823
 20
211.5293051842
 30
0.0
 10
606.2470610533
 20
212.4757331403
 30
0.0
  0
SPLINE
  5
343
100
AcDbEntity
  8
0
100
AcDbSpline
 62
7
420
14742271
  6
CONTINUOUS
 70
0
 71
3
 72
23
 73
19
 74
0
 42
0.0000001
 43
0.0000001
 44
0.0000000001
 40
0.0
 40
0.0
 40
0.0
 40
0.0
 40
0.0085016187
 40
0.0332681301
 40
0.1271854532
 40
0.1942005205
 40
0.273109688
 40
0.4619357884
 40
0.6850254211
 40
0.7453325863
 40
0.8070760104
 40
0.8385751954
 40
0.8702631821
 40
0.8862222738
 40
0.9022720706
 40
0.9345812883
 40
0.9671672742
 40
1.0
 40
1.0
 40
1.0
 40
1.0
 10
389.0079524921
 20
459.0305372237
 30
0.0
 10
388.7519527972
 20
458.8392953132
 30
0.0
 10
387.748285381
 20
458.0934897526
 30
0.0
 10
383.932893235
 20
455.2130565126
 30
0.0
 10
378.6822227258
 20
450.5871925699
 30
0.0
 10
372.4904633535
 20
444.0239490292
 30
0.0
 10
364.686579892
 20
434.1347626177
 30
0.0
 10
355.5791665876
 20
417.9038760657
 30
0.0
 10
350.9527346817
 20
400.522477708
 30
0.0
 10
349.6988403224
 20
387.602561215
 30
0.0
 10
349.6325374456
 20
381.8269462543
 30
0.0
 10
349.7196806035
 20
377.1301303518
 30
0.0
 10
349.9894293663
 20
374.1664677916
 30
0.0
 10
350.1727546882
 20
371.7788141007
 30
0.0
 10
350.5076874789
 20
369.3837892541
 30
0.0
 10
350.9219258414
 20
366.3702959552
 30
0.0
 10
351.5508810174
 20
362.7484398728
 30
0.0
 10
352.1529543204
 20
360.3632806416
 30
0.0
 10
352.4327517634
 20
359.1613532208
 30
0.0
  0
SPLINE
  5
344
100
AcDbEntity
  8
0
100
AcDbSpline
 62
7
420
14742271
  6
CONTINUOUS
 70
0
 71
3
 72
11
 73
7
 74
0
 42
0.0000001
 43
0.0000001
 44
0.0000000001
 40
0.0
 40
0.0
 40
0.0
 40
0.0
 40
0.2487934758
 40
0.4983875967
 40
0.7488084628
 40
1.0
 40
1.0
 40
1.0
 40
1.0
 10
352.8961171062
 20
357.3595682821
 30
0.0
 10
353.0671325148
 20
356.7610143521
 30
0.0
 10
353.4172165704
 20
355.5643092672
 30
0.0
 10
353.899686773
 20
353.7527562913
 30
0.0
 10
354.5343134103
 20
351.9823568851
 30
0.0
 10
354.9314505991
 20
350.7919432569
 30
0.0
 10
355.1337066239
 20
350.1968702587
 30
0.0
  0
SPLINE
  5
345
100
AcDbEntity
  8
0
100
AcDbSpline
 62
7
420
14742271
  6
CONTINUOUS
 70
0
 71
3
 72
10
 73
6
 74
0
 42
0.0000001
 43
0.0000001
 44
0.0000000001
 40
0.0
 40
0.0
 40
0.0
 40
0.0
 40
0.3985712152
 40
0.7990822898
 40
1.0
 40
1.0
 40
1.0
 40
1.0
 10
355.7868967279
 20
348.4236796124
 30
0.0
 10
356.2559583505
 20
347.2482623062
 30
0.0
 10
357.1509219311
 20
344.8729007658
 30
0.0
 10
358.4840296508
 20
341.9887142446
 30
0.0
 10
359.3260021632
 20
340.2747421042
 30
0.0
 10
359.6147423215
 20
339.705865487
 30
0.0
  0
SPLINE
  5
346
100
AcDbEntity
  8
0
100
AcDbSpline
 62
7
420
14742271
  6
CONTINUOUS
 70
0
 71
3
 72
11
 73
7
 74
0
 42
0.0000001
 43
0.0000001
 44
0.0000000001
 40
0.0
 40
0.0
 40
0.0
 40
0.0
 40
0.2491264784
 40
0.5001678163
 40
0.751120152
 40
1.0
 40
1.0
 40
1.0
 40
1.0
 10
360.4915191225
 20
337.9998542027
 30
0.0
 10
362.8955587921
 20
333.4491525976
 30
0.0
 10
368.4300572387
 20
324.6579722255
 30
0.0
 10
378.8611891306
 20
313.0793746713
 30
0.0
 10
390.9644874656
 20
303.268563974
 30
0.0
 10
400.0337570531
 20
298.215650511
 30
0.0
 10
404.7020849752
 20
296.060984313
 30
0.0
  0
SPLINE
  5
347
100
AcDbEntity
  8
0
100
AcDbSpline
 62
7
420
14742271
  6
CONTINUOUS
 70
0
 71
3
 72
10
 73
6
 74
0
 42
0.0000001
 43
0.0000001
 44
0.0000000001
 40
0.0
 40
0.0
 40
0.0
 40
0.0
 40
0.2008939654
 40
0.6014575154
 40
1.0
 40
1.0
 40
1.0
 40
1.0
 10
406.4490928958
 20
295.2751580328
 30
0.0
 10
407.0292014505
 20
295.0126296655
 30
0.0
 10
408.7896349501
 20
294.2805995719
 30
0.0
 10
411.7296755406
 20
293.0916592064
 30
0.0
 10
414.1461612933
 20
292.3279934664
 30
0.0
 10
415.34329591
 20
291.9248026734
 30
0.0
  0
SPLINE
  5
348
100
AcDbEntity
  8
0
100
AcDbSpline
 62
7
420
14742271
  6
CONTINUOUS
 70
0
 71
3
 72
12
 73
8
 74
0
 42
0.0000001
 43
0.0000001
 44
0.0000000001
 40
0.0
 40
0.0
 40
0.0
 40
0.0
 40
0.2234923604
 40
0.4462391332
 40
0.6682932974
 40
0.8896237074
 40
1.0
 40
1.0
 40
1.0
 40
1.0
 10
417.1454253584
 20
291.3670417144
 30
0.0
 10
417.7486639344
 20
291.1950808888
 30
0.0
 10
418.954835726
 20
290.8584104098
 30
0.0
 10
420.7530191611
 20
290.3213502875
 30
0.0
 10
422.5822329988
 20
289.9298766283
 30
0.0
 10
424.0958989153
 20
289.5784702562
 30
0.0
 10
425.0015742715
 20
289.3618014814
 30
0.0
 10
425.3051340152
 20
289.2999844232
 30
0.0
  0
SPLINE
  5
349
100
AcDbEntity
  8
0
100
AcDbSpline
 62
7
420
14742271
  6
CONTINUOUS
 70
0
 71
3
 72
18
 73
14
 74
0
 42
0.0000001
 43
0.0000001
 44
0.0000000001
 40
0.0
 40
0.0
 40
0.0
 40
0.0
 40
0.0326820541
 40
0.0651210427
 40
0.0972767239
 40
0.1291488508
 40
0.1607317765
 40
0.1921615702
 40
0.3143175442
 40
0.5380644479
 40
0.7271671002
 40
0.8729683419
 40
1.0
 40
1.0
 40
1.0
 40
1.0
 10
426.2191178474
 20
289.1363423877
 30
0.0
 10
427.4312221712
 20
288.92001782
 30
0.0
 10
429.8387382271
 20
288.4407068396
 30
0.0
 10
433.4806638091
 20
288.0115834727
 30
0.0
 10
437.0989754842
 20
287.6705721392
 30
0.0
 10
440.6962199762
 20
287.4683628717
 30
0.0
 10
444.2703654662
 20
287.3787322526
 30
0.0
 10
451.2466040499
 20
287.4222154207
 30
0.0
 10
465.4619261
 20
287.3572069659
 30
0.0
 10
485.6176189169
 20
287.309688762
 30
0.0
 10
506.6638158296
 20
287.1951834212
 30
0.0
 10
524.066224486
 20
287.069680057
 30
0.0
 10
534.3445408389
 20
286.985488022
 30
0.0
 10
539.1300553192
 20
286.9366489203
 30
0.0
  0
SPLINE
  5
34A
100
AcDbEntity
  8
0
100
AcDbSpline
 62
7
420
14742271
  6
CONTINUOUS
 70
0
 71
3
 72
9
 73
5
 74
0
 42
0.0000001
 43
0.0000001
 44
0.0000000001
 40
0.0
 40
0.0
 40
0.0
 40
0.0
 40
0.5016891319
 40
1.0
 40
1.0
 40
1.0
 40
1.0
 10
539.1300553192
 20
286.9366489203
 30
0.0
 10
539.1542385465
 20
286.9357852336
 30
0.0
 10
539.2079217953
 20
286.8854037355
 30
0.0
 10
539.1540910163
 20
286.8339850749
 30
0.0
 10
539.1300553192
 20
286.8339850749
 30
0.0
  0
SPLINE
  5
34B
100
AcDbEntity
  8
0
100
AcDbSpline
 62
7
420
14742271
  6
CONTINUOUS
 70
0
 71
3
 72
18
 73
14
 74
0
 42
0.0000001
 43
0.0000001
 44
0.0000000001
 40
0.0
 40
0.0
 40
0.0
 40
0.0
 40
0.1268117921
 40
0.2723604942
 40
0.4611357219
 40
0.6844951773
 40
0.8064396087
 40
0.8378149767
 40
0.8696750132
 40
0.9018339385
 40
0.9342854662
 40
0.9670166803
 40
1.0
 40
1.0
 40
1.0
 40
1.0
 10
539.1300553192
 20
286.8339850749
 30
0.0
 10
534.3445409554
 20
286.7847420027
 30
0.0
 10
524.0662377044
 20
286.6990558353
 30
0.0
 10
506.6638062704
 20
286.5742820888
 30
0.0
 10
485.6176217972
 20
286.4685128305
 30
0.0
 10
465.4619330372
 20
286.3795808803
 30
0.0
 10
451.2465956883
 20
286.3914134088
 30
0.0
 10
444.2578498954
 20
286.3553865026
 30
0.0
 10
440.6582496829
 20
286.4443735791
 30
0.0
 10
437.0224952158
 20
286.6511711261
 30
0.0
 10
433.3649571583
 20
286.9949068173
 30
0.0
 10
429.6836254709
 20
287.4310679173
 30
0.0
 10
427.2501033565
 20
287.9162257336
 30
0.0
 10
426.0248144621
 20
288.1355421492
 30
0.0
  0
SPLINE
  5
34C
100
AcDbEntity
  8
0
100
AcDbSpline
 62
7
420
14742271
  6
CONTINUOUS
 70
0
 71
3
 72
12
 73
8
 74
0
 42
0.0000001
 43
0.0000001
 44
0.0000000001
 40
0.0
 40
0.0
 40
0.0
 40
0.0
 40
0.1103691793
 40
0.3317028552
 40
0.5537342178
 40
0.7765232639
 40
1.0
 40
1.0
 40
1.0
 40
1.0
 10
425.101528872
 20
288.3005622229
 30
0.0
 10
424.7946459573
 20
288.3629732427
 30
0.0
 10
423.8788093054
 20
288.5809465421
 30
0.0
 10
422.3491791614
 20
288.938559001
 30
0.0
 10
420.4998383809
 20
289.3343148788
 30
0.0
 10
418.682183559
 20
289.8781277488
 30
0.0
 10
417.4626907497
 20
290.2184052941
 30
0.0
 10
416.8529367517
 20
290.3924242016
 30
0.0
  0
SPLINE
  5
34D
100
AcDbEntity
  8
0
100
AcDbSpline
 62
7
420
14742271
  6
CONTINUOUS
 70
0
 71
3
 72
15
 73
11
 74
0
 42
0.0000001
 43
0.0000001
 44
0.0000000001
 40
0.0
 40
0.0
 40
0.0
 40
0.0
 40
0.0517143266
 40
0.1036881405
 40
0.1297599841
 40
0.1558815921
 40
0.3661958297
 40
0.5780869986
 40
0.7899056736
 40
1.0
 40
1.0
 40
1.0
 40
1.0
 10
415.0315147686
 20
290.9567308421
 30
0.0
 10
413.8231189434
 20
291.368856691
 30
0.0
 10
411.3839465783
 20
292.149915582
 30
0.0
 10
408.4146409435
 20
293.3583059234
 30
0.0
 10
406.0528656925
 20
294.3758945385
 30
0.0
 10
400.1555253009
 20
297.0630687056
 30
0.0
 10
390.4598894703
 20
302.5228281885
 30
0.0
 10
378.296399589
 20
312.4834460856
 30
0.0
 10
367.8169859758
 20
324.1933557994
 30
0.0
 10
362.2711293514
 20
333.0769121216
 30
0.0
 10
359.8655452729
 20
337.672225622
 30
0.0
  0
SPLINE
  5
34E
100
AcDbEntity
  8
0
100
AcDbSpline
 62
7
420
14742271
  6
CONTINUOUS
 70
0
 71
3
 72
10
 73
6
 74
0
 42
0.0000001
 43
0.0000001
 44
0.0000000001
 40
0.0
 40
0.0
 40
0.0
 40
0.0
 40
0.2009891206
 40
0.6015269094
 40
1.0
 40
1.0
 40
1.0
 40
1.0
 10
358.9884239623
 20
339.393739836
 30
0.0
 10
358.6997153494
 20
339.9680600684
 30
0.0
 10
357.8576678067
 20
341.6977289443
 30
0.0
 10
356.5265143209
 20
344.6081019845
 30
0.0
 10
355.6330515254
 20
347.0033682067
 30
0.0
 10
355.1650569928
 20
348.1887241003
 30
0.0
  0
SPLINE
  5
34F
100
AcDbEntity
  8
0
100
AcDbSpline
 62
7
420
14742271
  6
CONTINUOUS
 70
0
 71
3
 72
11
 73
7
 74
0
 42
0.0000001
 43
0.0000001
 44
0.0000000001
 40
0.0
 40
0.0
 40
0.0
 40
0.0
 40
0.2511234593
 40
0.5015688649
 40
0.751178728
 40
1.0
 40
1.0
 40
1.0
 40
1.0
 10
354.5139339461
 20
349.9774176763
 30
0.0
 10
354.3124446656
 20
350.5770717807
 30
0.0
 10
353.9168106418
 20
351.7768447688
 30
0.0
 10
353.2847853029
 20
353.5616252398
 30
0.0
 10
352.8045640568
 20
355.3870917231
 30
0.0
 10
352.4577663703
 20
356.5936678508
 30
0.0
 10
352.2877132435
 20
357.1969597752
 30
0.0
  0
SPLINE
  5
350
100
AcDbEntity
  8
0
100
AcDbSpline
 62
7
420
14742271
  6
CONTINUOUS
 70
0
 71
3
 72
23
 73
19
 74
0
 42
0.0000001
 43
0.0000001
 44
0.0000000001
 40
0.0
 40
0.0
 40
0.0
 40
0.0
 40
0.0329192485
 40
0.0655879297
 40
0.0979652051
 40
0.1140480474
 40
0.1300771436
 40
0.1619030807
 40
0.1932845812
 40
0.2551861876
 40
0.3155650709
 40
0.5387705886
 40
0.7274643689
 40
0.8062615258
 40
0.8731462187
 40
0.9668483007
 40
0.9915321839
 40
1.0
 40
1.0
 40
1.0
 40
1.0
 10
351.8277929962
 20
359.0125250959
 30
0.0
 10
351.5508043978
 20
360.2234492288
 30
0.0
 10
350.9535051542
 20
362.6264006808
 30
0.0
 10
350.3338403462
 20
366.2736531404
 30
0.0
 10
349.9276709016
 20
369.3073686418
 30
0.0
 10
349.6009400414
 20
371.7196464969
 30
0.0
 10
349.4236493646
 20
374.1263231311
 30
0.0
 10
349.1648317639
 20
377.1061840337
 30
0.0
 10
349.0948857567
 20
381.8284849162
 30
0.0
 10
349.1805633451
 20
387.6310728174
 30
0.0
 10
350.506365154
 20
400.6087192486
 30
0.0
 10
355.2348641469
 20
418.0378824343
 30
0.0
 10
364.4544508594
 20
434.2843888769
 30
0.0
 10
372.3288011659
 20
444.1631065807
 30
0.0
 10
378.5658069985
 20
450.7086769988
 30
0.0
 10
383.8472929819
 20
455.316696673
 30
0.0
 10
387.6819544943
 20
458.1820545575
 30
0.0
 10
388.6897302546
 20
458.9232125617
 30
0.0
 10
388.9466297925
 20
459.1132195153
 30
0.0
  0
SPLINE
  5
351
100
AcDbEntity
  8
0
100
AcDbSpline
 62
7
420
14742271
  6
CONTINUOUS
 70
0
 71
3
 72
9
 73
5
 74
0
 42
0.0000001
 43
0.0000001
 44
0.0000000001
 40
0.0
 40
0.0
 40
0.0
 40
0.0
 40
0.5027094948
 40
1.0
 40
1.0
 40
1.0
 40
1.0
 10
388.9466297925
 20
459.1132195153
 30
0.0
 10
388.9664222685
 20
459.1273141573
 30
0.0
 10
389.0400993603
 20
459.1180594356
 30
0.0
 10
389.0272514391
 20
459.0448652297
 30
0.0
 10
389.0079524921
 20
459.0305372237
 30
0.0
  0
SPLINE
  5
352
100
AcDbEntity
  8
0
100
AcDbSpline
 62
7
420
14742271
  6
CONTINUOUS
 70
0
 71
3
 72
24
 73
20
 74
0
 42
0.0000001
 43
0.0000001
 44
0.0000000001
 40
0.0
 40
0.0
 40
0.0
 40
0.0
 40
0.0085028569
 40
0.0332681645
 40
0.1271853393
 40
0.1942003008
 40
0.2731045485
 40
0.4619386658
 40
0.6850242023
 40
0.7453325412
 40
0.8070773878
 40
0.8385765231
 40
0.8702644597
 40
0.886220213
 40
0.9022734056
 40
0.9345765242
 40
0.9508390232
 40
0.9671613743
 40
1.0
 40
1.0
 40
1.0
 40
1.0
 10
499.1883072823
 20
304.8032586164
 30
0.0
 10
499.4448535893
 20
304.9938455304
 30
0.0
 10
500.4487458954
 20
305.73935562
 30
0.0
 10
504.2622619221
 20
308.6222674809
 30
0.0
 10
509.5143723612
 20
313.2461769901
 30
0.0
 10
515.7055092011
 20
319.8098885131
 30
0.0
 10
523.5103147677
 20
329.6984335779
 30
0.0
 10
532.6175141855
 20
345.9295752543
 30
0.0
 10
537.244281482
 20
363.3111092573
 30
0.0
 10
538.4974214322
 20
376.2310871856
 30
0.0
 10
538.5636011673
 20
382.0067724042
 30
0.0
 10
538.4768034788
 20
386.7036993282
 30
0.0
 10
538.2061576275
 20
389.6671018035
 30
0.0
 10
538.0247117494
 20
392.055040422
 30
0.0
 10
537.6845402987
 20
394.448905509
 30
0.0
 10
537.3818958338
 20
396.8598535252
 30
0.0
 10
536.9202762048
 20
399.2550710376
 30
0.0
 10
536.5219515831
 20
401.6826738098
 30
0.0
 10
536.0432423741
 20
403.4701107125
 30
0.0
 10
535.7641970301
 20
404.6724426192
 30
0.0
  0
SPLINE
  5
353
100
AcDbEntity
  8
0
100
AcDbSpline
 62
7
420
14742271
  6
CONTINUOUS
 70
0
 71
3
 72
11
 73
7
 74
0
 42
0.0000001
 43
0.0000001
 44
0.0000000001
 40
0.0
 40
0.0
 40
0.0
 40
0.0
 40
0.2487993137
 40
0.4984371789
 40
0.7488471879
 40
1.0
 40
1.0
 40
1.0
 40
1.0
 10
535.3004871778
 20
406.474227558
 30
0.0
 10
535.1296172167
 20
407.0727902097
 30
0.0
 10
534.7801199903
 20
408.2697001518
 30
0.0
 10
534.2960686757
 20
410.0807382908
 30
0.0
 10
533.6631710678
 20
411.8515427466
 30
0.0
 10
533.2651761525
 20
413.0414400083
 30
0.0
 10
533.0625531506
 20
413.6362365623
 30
0.0
  0
SPLINE
  5
354
100
AcDbEntity
  8
0
100
AcDbSpline
 62
7
420
14742271
  6
CONTINUOUS
 70
0
 71
3
 72
10
 73
6
 74
0
 42
0.0000001
 43
0.0000001
 44
0.0000000001
 40
0.0
 40
0.0
 40
0.0
 40
0.0
 40
0.3985166445
 40
0.7990304991
 40
1.0
 40
1.0
 40
1.0
 40
1.0
 10
532.4093630466
 20
415.4101162276
 30
0.0
 10
531.9406704055
 20
416.585474413
 30
0.0
 10
531.0465305001
 20
418.9609815809
 30
0.0
 10
529.7114890441
 20
421.8442175173
 30
0.0
 10
528.8706682258
 20
423.5589132509
 30
0.0
 10
528.5818619625
 20
424.127930353
 30
0.0
  0
SPLINE
  5
355
100
AcDbEntity
  8
0
100
AcDbSpline
 62
7
420
14742271
  6
CONTINUOUS
 70
0
 71
3
 72
11
 73
7
 74
0
 42
0.0000001
 43
0.0000001
 44
0.0000000001
 40
0.0
 40
0.0
 40
0.0
 40
0.0
 40
0.2491261031
 40
0.5001707726
 40
0.751118402
 40
1.0
 40
1.0
 40
1.0
 40
1.0
 10
527.705429671
 20
425.8339416373
 30
0.0
 10
525.3011191916
 20
430.384500169
 30
0.0
 10
519.7670679328
 20
439.1760465755
 30
0.0
 10
509.3353572993
 20
450.7541263654
 30
0.0
 10
497.2325132274
 20
460.5655254809
 30
0.0
 10
488.1629479376
 20
465.6179142665
 30
0.0
 10
483.4945193088
 20
467.7724670175
 30
0.0
  0
SPLINE
  5
356
100
AcDbEntity
  8
0
100
AcDbSpline
 62
7
420
14742271
  6
CONTINUOUS
 70
0
 71
3
 72
10
 73
6
 74
0
 42
0.0000001
 43
0.0000001
 44
0.0000000001
 40
0.0
 40
0.0
 40
0.0
 40
0.0
 40
0.2009058002
 40
0.6014607735
 40
1.0
 40
1.0
 40
1.0
 40
1.0
 10
481.7478558978
 20
468.5582932977
 30
0.0
 10
481.1677506928
 20
468.8209759513
 30
0.0
 10
479.4066890849
 20
469.5517251401
 30
0.0
 10
476.4676281656
 20
470.7434612404
 30
0.0
 10
474.0504765641
 20
471.5054465567
 30
0.0
 10
472.853308374
 20
471.9086486571
 30
0.0
  0
SPLINE
  5
357
100
AcDbEntity
  8
0
100
AcDbSpline
 62
7
420
14742271
  6
CONTINUOUS
 70
0
 71
3
 72
12
 73
8
 74
0
 42
0.0000001
 43
0.0000001
 44
0.0000000001
 40
0.0
 40
0.0
 40
0.0
 40
0.0
 40
0.2234330039
 40
0.446193214
 40
0.6682804011
 40
0.8896315688
 40
1.0
 40
1.0
 40
1.0
 40
1.0
 10
471.0508344161
 20
472.4667541257
 30
0.0
 10
470.4475814389
 20
472.6380311967
 30
0.0
 10
469.2415327386
 20
472.9745994825
 30
0.0
 10
467.443619286
 20
473.5124697375
 30
0.0
 10
465.6139358309
 20
473.9026902933
 30
0.0
 10
464.1005283029
 20
474.25570609
 30
0.0
 10
463.1946743894
 20
474.4717223564
 30
0.0
 10
462.8911257593
 20
474.5334669073
 30
0.0
  0
SPLINE
  5
358
100
AcDbEntity
  8
0
100
AcDbSpline
 62
7
420
14742271
  6
CONTINUOUS
 70
0
 71
3
 72
18
 73
14
 74
0
 42
0.0000001
 43
0.0000001
 44
0.0000000001
 40
0.0
 40
0.0
 40
0.0
 40
0.0
 40
0.0326883954
 40
0.0651241658
 40
0.0972818556
 40
0.1291539659
 40
0.1607367787
 40
0.1921633352
 40
0.3143216211
 40
0.5380671842
 40
0.7271687035
 40
0.8729660017
 40
1.0
 40
1.0
 40
1.0
 40
1.0
 10
461.9778309461
 20
474.6971089428
 30
0.0
 10
460.7654629875
 20
474.9133580408
 30
0.0
 10
458.3578921121
 20
475.3930512388
 30
0.0
 10
454.715777416
 20
475.8226298545
 30
0.0
 10
451.0973202652
 20
476.1617072635
 30
0.0
 10
447.5000563659
 20
476.364871012
 30
0.0
 10
443.9260109755
 20
476.4546704629
 30
0.0
 10
436.9497718828
 20
476.412064089
 30
0.0
 10
422.7344471479
 20
476.4756345025
 30
0.0
 10
402.5786408216
 20
476.5238711705
 30
0.0
 10
381.5325605908
 20
476.6384112287
 30
0.0
 10
364.1301469422
 20
476.7633089483
 30
0.0
 10
353.8518290035
 20
476.847648285
 30
0.0
 10
349.0662044553
 20
476.8971469197
 30
0.0
  0
SPLINE
  5
359
100
AcDbEntity
  8
0
100
AcDbSpline
 62
7
420
14742271
  6
CONTINUOUS
 70
0
 71
3
 72
9
 73
5
 74
0
 42
0.0000001
 43
0.0000001
 44
0.0000000001
 40
0.0
 40
0.0
 40
0.0
 40
0.0
 40
0.5016891319
 40
1.0
 40
1.0
 40
1.0
 40
1.0
 10
349.0662044553
 20
476.8971469197
 30
0.0
 10
349.0420128321
 20
476.8977298504
 30
0.0
 10
348.9883412492
 20
476.948679079
 30
0.0
 10
349.0421705453
 20
476.9995176687
 30
0.0
 10
349.0662044553
 20
476.9998107652
 30
0.0
  0
SPLINE
  5
35A
100
AcDbEntity
  8
0
100
AcDbSpline
 62
7
420
14742271
  6
CONTINUOUS
 70
0
 71
3
 72
18
 73
14
 74
0
 42
0.0000001
 43
0.0000001
 44
0.0000000001
 40
0.0
 40
0.0
 40
0.0
 40
0.0
 40
0.1268147667
 40
0.2723604523
 40
0.461135642
 40
0.6844950612
 40
0.8064425299
 40
0.8378148514
 40
0.8696780025
 40
0.901836924
 40
0.9342887263
 40
0.9670161481
 40
1.0
 40
1.0
 40
1.0
 40
1.0
 10
349.0662044553
 20
476.9998107652
 30
0.0
 10
353.8518405569
 20
477.0481795031
 30
0.0
 10
364.1301406997
 20
477.1339093018
 30
0.0
 10
381.5325640221
 20
477.2598731026
 30
0.0
 10
402.5786380818
 20
477.3649057806
 30
0.0
 10
422.7344468132
 20
477.4530535523
 30
0.0
 10
436.9497735046
 20
477.4422883175
 30
0.0
 10
443.938646679
 20
477.4785285151
 30
0.0
 10
447.5382283851
 20
477.3889102977
 30
0.0
 10
451.1741415556
 20
477.1825089483
 30
0.0
 10
454.831445439
 20
476.8378049613
 30
0.0
 10
458.5128581529
 20
476.4031448745
 30
0.0
 10
460.9461365047
 20
475.9172291612
 30
0.0
 10
462.1714453124
 20
475.6979091813
 30
0.0
  0
SPLINE
  5
35B
100
AcDbEntity
  8
0
100
AcDbSpline
 62
7
420
14742271
  6
CONTINUOUS
 70
0
 71
3
 72
12
 73
8
 74
0
 42
0.0000001
 43
0.0000001
 44
0.0000000001
 40
0.0
 40
0.0
 40
0.0
 40
0.0
 40
0.110383591
 40
0.3317191442
 40
0.5538009741
 40
0.7766010915
 40
1.0
 40
1.0
 40
1.0
 40
1.0
 10
463.0947309024
 20
475.5328891075
 30
0.0
 10
463.4016523112
 20
475.4705403141
 30
0.0
 10
464.3173026347
 20
475.251734035
 30
0.0
 10
465.8472715558
 20
474.8951083773
 30
0.0
 10
467.6966342581
 20
474.4990736313
 30
0.0
 10
469.5142353476
 20
473.9555966846
 30
0.0
 10
470.7333117217
 20
473.6147757372
 30
0.0
 10
471.3429785132
 20
473.4413716385
 30
0.0
  0
SPLINE
  5
35C
100
AcDbEntity
  8
0
100
AcDbSpline
 62
7
420
14742271
  6
CONTINUOUS
 70
0
 71
3
 72
15
 73
11
 74
0
 42
0.0000001
 43
0.0000001
 44
0.0000000001
 40
0.0
 40
0.0
 40
0.0
 40
0.0
 40
0.051721506
 40
0.1036950908
 40
0.1297607043
 40
0.1558906641
 40
0.3662085674
 40
0.578095194
 40
0.7899090759
 40
1.0
 40
1.0
 40
1.0
 40
1.0
 10
473.1647450058
 20
472.8774095075
 30
0.0
 10
474.3731026837
 20
472.4646057839
 30
0.0
 10
476.8125166375
 20
471.6836816517
 30
0.0
 10
479.7817878974
 20
470.4751164958
 30
0.0
 10
482.1437121416
 20
469.457734149
 30
0.0
 10
488.0416760878
 20
466.771504498
 30
0.0
 10
497.7367390397
 20
461.3099794452
 30
0.0
 10
509.8999870152
 20
451.3495452967
 30
0.0
 10
520.380295264
 20
439.6406430005
 30
0.0
 10
525.9255032836
 20
430.7568295604
 30
0.0
 10
528.3310590111
 20
426.161570218
 30
0.0
  0
SPLINE
  5
35D
100
AcDbEntity
  8
0
100
AcDbSpline
 62
7
420
14742271
  6
CONTINUOUS
 70
0
 71
3
 72
10
 73
6
 74
0
 42
0.0000001
 43
0.0000001
 44
0.0000000001
 40
0.0
 40
0.0
 40
0.0
 40
0.0
 40
0.2009062517
 40
0.6014388918
 40
1.0
 40
1.0
 40
1.0
 40
1.0
 10
529.2081803217
 20
424.4393669849
 30
0.0
 10
529.4969100539
 20
423.8653447793
 30
0.0
 10
530.3385890147
 20
422.1357754482
 30
0.0
 10
531.6697395086
 20
419.2253767505
 30
0.0
 10
532.563787877
 20
416.8300156848
 30
0.0
 10
533.0318918008
 20
415.6443827206
 30
0.0
  0
SPLINE
  5
35E
100
AcDbEntity
  8
0
100
AcDbSpline
 62
7
420
14742271
  6
CONTINUOUS
 70
0
 71
3
 72
11
 73
7
 74
0
 42
0.0000001
 43
0.0000001
 44
0.0000000001
 40
0.0
 40
0.0
 40
0.0
 40
0.0
 40
0.2511439701
 40
0.501681818
 40
0.7512729079
 40
1.0
 40
1.0
 40
1.0
 40
1.0
 10
533.6826703379
 20
413.8563781638
 30
0.0
 10
533.8844801617
 20
413.25679327
 30
0.0
 10
534.2801837292
 20
412.0567800894
 30
0.0
 10
534.9123283094
 20
410.2718148373
 30
0.0
 10
535.3911227314
 20
408.4460524113
 30
0.0
 10
535.7389968132
 20
407.2401044297
 30
0.0
 10
535.9082020214
 20
406.6368360649
 30
0.0
  0
SPLINE
  5
35F
100
AcDbEntity
  8
0
100
AcDbSpline
 62
7
420
14742271
  6
CONTINUOUS
 70
0
 71
3
 72
23
 73
19
 74
0
 42
0.0000001
 43
0.0000001
 44
0.0000000001
 40
0.0
 40
0.0
 40
0.0
 40
0.0
 40
0.0329183556
 40
0.0655868236
 40
0.0979634654
 40
0.1140529975
 40
0.1300822483
 40
0.1619079777
 40
0.1932800045
 40
0.2551869028
 40
0.3155685354
 40
0.5387717921
 40
0.727468488
 40
0.8062560962
 40
0.8731445484
 40
0.966846019
 40
0.9915334013
 40
1.0
 40
1.0
 40
1.0
 40
1.0
 10
536.3688112878
 20
404.8212707442
 30
0.0
 10
536.64546799
 20
403.6102969905
 30
0.0
 10
537.2426795054
 20
401.2073591408
 30
0.0
 10
537.8626909738
 20
397.560195564
 30
0.0
 10
538.2678246876
 20
394.5260971748
 30
0.0
 10
538.5957393762
 20
392.1137221027
 30
0.0
 10
538.7734143535
 20
389.706800483
 30
0.0
 10
539.0322765168
 20
386.7272747556
 30
0.0
 10
539.1009024684
 20
382.005079213
 30
0.0
 10
539.0158154628
 20
376.2025304094
 30
0.0
 10
537.6905503568
 20
363.2244862733
 30
0.0
 10
532.9619907761
 20
345.795084515
 30
0.0
 10
523.7426279538
 20
329.5486217764
 30
0.0
 10
515.8678370221
 20
319.670305583
 30
0.0
 10
509.630598491
 20
313.1251269729
 30
0.0
 10
504.3481466992
 20
308.517969451
 30
0.0
 10
500.5145919677
 20
305.6509700091
 30
0.0
 10
499.5065237193
 20
304.9100505342
 30
0.0
 10
499.2492854724
 20
304.7205763247
 30
0.0
  0
SPLINE
  5
360
100
AcDbEntity
  8
0
100
AcDbSpline
 62
7
420
14742271
  6
CONTINUOUS
 70
0
 71
3
 72
9
 73
5
 74
0
 42
0.0000001
 43
0.0000001
 44
0.0000000001
 40
0.0
 40
0.0
 40
0.0
 40
0.0
 40
0.4978193066
 40
1.0
 40
1.0
 40
1.0
 40
1.0
 10
499.2492854724
 20
304.7205763247
 30
0.0
 10
499.2302337674
 20
304.7059211671
 30
0.0
 10
499.1561388885
 20
304.7155099994
 30
0.0
 10
499.1688392576
 20
304.7888050829
 30
0.0
 10
499.1883072823
 20
304.8032586164
 30
0.0
  0
SPLINE
  5
361
100
AcDbEntity
  8
0
100
AcDbSpline
 62
7
420
14742271
  6
CONTINUOUS
 70
0
 71
3
 72
9
 73
5
 74
0
 42
0.0000001
 43
0.0000001
 44
0.0000000001
 40
0.0
 40
0.0
 40
0.0
 40
0.0
 40
0.4971163424
 40
1.0
 40
1.0
 40
1.0
 40
1.0
 10
804.1888117634
 20
626.0301628329
 30
0.0
 10
804.1695262568
 20
626.0444808605
 30
0.0
 10
804.1572470113
 20
626.1177884492
 30
0.0
 10
804.2305870945
 20
626.1267991286
 30
0.0
 10
804.2504789725
 20
626.1128451246
 30
0.0
  0
SPLINE
  5
362
100
AcDbEntity
  8
0
100
AcDbSpline
 62
7
420
14742271
  6
CONTINUOUS
 70
0
 71
3
 72
23
 73
19
 74
0
 42
0.0000001
 43
0.0000001
 44
0.0000000001
 40
0.0
 40
0.0
 40
0.0
 40
0.0
 40
0.0084653924
 40
0.0331493483
 40
0.1268497101
 40
0.1937368047
 40
0.2725360916
 40
0.4612289301
 40
0.6844351051
 40
0.7448142792
 40
0.8067160417
 40
0.8380976345
 40
0.8699236654
 40
0.8859525502
 40
0.9020354399
 40
0.9344132332
 40
0.9670820106
 40
1.0
 40
1.0
 40
1.0
 40
1.0
 10
804.2504789725
 20
626.1128451246
 30
0.0
 10
804.5072234025
 20
625.9227838909
 30
0.0
 10
805.5148289102
 20
625.1815498247
 30
0.0
 10
809.3494719024
 20
622.3164577257
 30
0.0
 10
814.6312124987
 20
617.7086681619
 30
0.0
 10
820.8678179108
 20
611.1626194728
 30
0.0
 10
828.7428722952
 20
601.2843557213
 30
0.0
 10
837.9617617246
 20
585.0372924664
 30
0.0
 10
842.6901567332
 20
567.608333358
 30
0.0
 10
844.0164320535
 20
554.6307061764
 30
0.0
 10
844.1018042005
 20
548.8281126025
 30
0.0
 10
844.0320205404
 20
544.1058028764
 30
0.0
 10
843.7728617446
 20
541.1259797069
 30
0.0
 10
843.5962688566
 20
538.7192543801
 30
0.0
 10
843.2694285441
 20
536.3069758578
 30
0.0
 10
842.8628123111
 20
533.2733117323
 30
0.0
 10
842.2433005154
 20
529.6260718728
 30
0.0
 10
841.6459850398
 20
527.2231740075
 30
0.0
 10
841.3696602784
 20
526.0121507052
 30
0.0
  0
SPLINE
  5
363
100
AcDbEntity
  8
0
100
AcDbSpline
 62
7
420
14742271
  6
CONTINUOUS
 70
0
 71
3
 72
11
 73
7
 74
0
 42
0.0000001
 43
0.0000001
 44
0.0000000001
 40
0.0
 40
0.0
 40
0.0
 40
0.0
 40
0.2488341646
 40
0.4984445656
 40
0.7488905109
 40
1.0
 40
1.0
 40
1.0
 40
1.0
 10
840.9093955215
 20
524.1965853844
 30
0.0
 10
840.7390144595
 20
523.5933536486
 30
0.0
 10
840.3922083776
 20
522.3867472941
 30
0.0
 10
839.9119789929
 20
520.5612508541
 30
0.0
 10
839.2799654036
 20
518.7765049963
 30
0.0
 10
838.8843434374
 20
517.5767664832
 30
0.0
 10
838.683174819
 20
516.9770432856
 30
0.0
  0
SPLINE
  5
364
100
AcDbEntity
  8
0
100
AcDbSpline
 62
7
420
14742271
  6
CONTINUOUS
 70
0
 71
3
 72
10
 73
6
 74
0
 42
0.0000001
 43
0.0000001
 44
0.0000000001
 40
0.0
 40
0.0
 40
0.0
 40
0.0
 40
0.3984793726
 40
0.7990234758
 40
1.0
 40
1.0
 40
1.0
 40
1.0
 10
838.0317072627
 20
515.1883497096
 30
0.0
 10
837.5637127301
 20
514.002993816
 30
0.0
 10
836.6702509528
 20
511.607728398
 30
0.0
 10
835.3391146162
 20
508.6973982089
 30
0.0
 10
834.4970959989
 20
506.9677786748
 30
0.0
 10
834.2086848027
 20
506.3933654453
 30
0.0
  0
SPLINE
  5
365
100
AcDbEntity
  8
0
100
AcDbSpline
 62
7
420
14742271
  6
CONTINUOUS
 70
0
 71
3
 72
15
 73
11
 74
0
 42
0.0000001
 43
0.0000001
 44
0.0000000001
 40
0.0
 40
0.0
 40
0.0
 40
0.0
 40
0.2100961383
 40
0.4219110521
 40
0.6338051593
 40
0.8441187318
 40
0.870236024
 40
0.8963077852
 40
0.9482814347
 40
1.0
 40
1.0
 40
1.0
 40
1.0
 10
833.3315634922
 20
504.6718512313
 30
0.0
 10
830.9259510618
 20
500.0764835713
 30
0.0
 10
825.3796634296
 20
491.1932333096
 30
0.0
 10
814.9007227831
 20
479.4828590469
 30
0.0
 10
802.7369501537
 20
469.5224087602
 30
0.0
 10
793.0411397988
 20
464.0631677529
 30
0.0
 10
787.1441643428
 20
461.3754404406
 30
0.0
 10
784.782456039
 20
460.3579590392
 30
0.0
 10
781.8130814847
 20
459.1494439331
 30
0.0
 10
779.3737481762
 20
458.3685173823
 30
0.0
 10
778.1652494869
 20
457.9563564514
 30
0.0
  0
SPLINE
  5
366
100
AcDbEntity
  8
0
100
AcDbSpline
 62
7
420
14742271
  6
CONTINUOUS
 70
0
 71
3
 72
12
 73
8
 74
0
 42
0.0000001
 43
0.0000001
 44
0.0000000001
 40
0.0
 40
0.0
 40
0.0
 40
0.0
 40
0.2234464016
 40
0.4462050548
 40
0.6682843889
 40
0.8896265764
 40
1.0
 40
1.0
 40
1.0
 40
1.0
 10
776.3434829943
 20
457.3920498109
 30
0.0
 10
775.7338611252
 20
457.2179704284
 30
0.0
 10
774.5145698076
 20
456.877792996
 30
0.0
 10
772.697069734
 20
456.3338294956
 30
0.0
 10
770.8476891721
 20
455.9382263369
 30
0.0
 10
769.3179431447
 20
455.5806312627
 30
0.0
 10
768.402131971
 20
455.3625315835
 30
0.0
 10
768.0952353835
 20
455.3001878322
 30
0.0
  0
SPLINE
  5
367
100
AcDbEntity
  8
0
100
AcDbSpline
 62
7
420
14742271
  6
CONTINUOUS
 70
0
 71
3
 72
18
 73
14
 74
0
 42
0.0000001
 43
0.0000001
 44
0.0000000001
 40
0.0
 40
0.0
 40
0.0
 40
0.0
 40
0.0329833193
 40
0.065714533
 40
0.0981630302
 40
0.1303219551
 40
0.1621850332
 40
0.1935573579
 40
0.3155048308
 40
0.5388642835
 40
0.727639509
 40
0.8731882094
 40
1.0
 40
1.0
 40
1.0
 40
1.0
 10
767.1719497934
 20
455.1351677585
 30
0.0
 10
765.946660899
 20
454.9158513429
 30
0.0
 10
763.5131390703
 20
454.4306904774
 30
0.0
 10
759.8319197433
 20
453.9945564356
 30
0.0
 10
756.1745004827
 20
453.6507781149
 30
0.0
 10
752.5387441772
 20
453.4439942354
 30
0.0
 10
748.939143978
 20
453.3550166813
 30
0.0
 10
741.9502834194
 20
453.3910349989
 30
0.0
 10
727.7349460416
 20
453.3792091168
 30
0.0
 10
707.5791424608
 20
453.4681374483
 30
0.0
 10
686.5329579879
 20
453.5739081973
 30
0.0
 10
669.1305265421
 20
453.6986805169
 30
0.0
 10
658.8522233174
 20
453.7843692931
 30
0.0
 10
654.0667089363
 20
453.8336106842
 30
0.0
  0
SPLINE
  5
368
100
AcDbEntity
  8
0
100
AcDbSpline
 62
7
420
14742271
  6
CONTINUOUS
 70
0
 71
3
 72
9
 73
5
 74
0
 42
0.0000001
 43
0.0000001
 44
0.0000000001
 40
0.0
 40
0.0
 40
0.0
 40
0.0
 40
0.4983108681
 40
1.0
 40
1.0
 40
1.0
 40
1.0
 10
654.0667089363
 20
453.8336106842
 30
0.0
 10
654.0426732392
 20
453.8336106842
 30
0.0
 10
653.9888420825
 20
453.8850397929
 30
0.0
 10
654.0425264695
 20
453.9353898052
 30
0.0
 10
654.0667089363
 20
453.9362745296
 30
0.0
  0
SPLINE
  5
369
100
AcDbEntity
  8
0
100
AcDbSpline
 62
7
420
14742271
  6
CONTINUOUS
 70
0
 71
3
 72
18
 73
14
 74
0
 42
0.0000001
 43
0.0000001
 44
0.0000000001
 40
0.0
 40
0.0
 40
0.0
 40
0.0
 40
0.1270308957
 40
0.2728312624
 40
0.4619327798
 40
0.6856783406
 40
0.8078366297
 40
0.8392631867
 40
0.8708459228
 40
0.9027178584
 40
0.9348733467
 40
0.9673121405
 40
1.0
 40
1.0
 40
1.0
 40
1.0
 10
654.0667089363
 20
453.9362745296
 30
0.0
 10
658.8522234385
 20
453.9851114853
 30
0.0
 10
669.1305397592
 20
454.0693067906
 30
0.0
 10
686.5329484241
 20
454.1948086685
 30
0.0
 10
707.5791453702
 20
454.3093141719
 30
0.0
 10
727.734952873
 20
454.3568340962
 30
0.0
 10
741.9502751993
 20
454.4218398737
 30
0.0
 10
748.9265134823
 20
454.3783605826
 30
0.0
 10
752.5005447948
 20
454.4679858214
 30
0.0
 10
756.0977868105
 20
454.6702086988
 30
0.0
 10
759.7161078648
 20
455.0111674285
 30
0.0
 10
763.3582226781
 20
455.440516427
 30
0.0
 10
765.7660467147
 20
455.919389804
 30
0.0
 10
766.9783354272
 20
456.1359679969
 30
0.0
  0
SPLINE
  5
36A
100
AcDbEntity
  8
0
100
AcDbSpline
 62
7
420
14742271
  6
CONTINUOUS
 70
0
 71
3
 72
12
 73
8
 74
0
 42
0.0000001
 43
0.0000001
 44
0.0000000001
 40
0.0
 40
0.0
 40
0.0
 40
0.0
 40
0.1103719451
 40
0.3316936373
 40
0.5537390552
 40
0.7765164425
 40
1.0
 40
1.0
 40
1.0
 40
1.0
 10
767.8916302403
 20
456.2996100325
 30
0.0
 10
768.1951899839
 20
456.3614270906
 30
0.0
 10
769.1008649722
 20
456.5780971815
 30
0.0
 10
770.6145339669
 20
456.9294925461
 30
0.0
 10
772.4438433557
 20
457.3210344606
 30
0.0
 10
774.2421764791
 20
457.8579710359
 30
0.0
 10
775.4484448307
 20
458.1947064981
 30
0.0
 10
776.0516834067
 20
458.3666673236
 30
0.0
  0
SPLINE
  5
36B
100
AcDbEntity
  8
0
100
AcDbSpline
 62
7
420
14742271
  6
CONTINUOUS
 70
0
 71
3
 72
10
 73
6
 74
0
 42
0.0000001
 43
0.0000001
 44
0.0000000001
 40
0.0
 40
0.0
 40
0.0
 40
0.0
 40
0.3985216721
 40
0.7991325452
 40
1.0
 40
1.0
 40
1.0
 40
1.0
 10
777.853812855
 20
458.9244282827
 30
0.0
 10
779.0508091434
 20
459.3276888683
 30
0.0
 10
781.4672736058
 20
460.0914069642
 30
0.0
 10
784.4072807692
 20
461.2801266241
 30
0.0
 10
786.1677175544
 20
462.0121695451
 30
0.0
 10
786.7476713597
 20
462.2747836421
 30
0.0
  0
SPLINE
  5
36C
100
AcDbEntity
  8
0
100
AcDbSpline
 62
7
420
14742271
  6
CONTINUOUS
 70
0
 71
3
 72
11
 73
7
 74
0
 42
0.0000001
 43
0.0000001
 44
0.0000000001
 40
0.0
 40
0.0
 40
0.0
 40
0.0
 40
0.248885489
 40
0.4998342972
 40
0.7508727266
 40
1.0
 40
1.0
 40
1.0
 40
1.0
 10
788.4950237898
 20
463.0606099223
 30
0.0
 10
793.1635744696
 20
465.2150323968
 30
0.0
 10
802.2328088847
 20
470.2681051285
 30
0.0
 10
814.3359874834
 20
480.0789749372
 30
0.0
 10
824.7665618688
 20
491.6577822393
 30
0.0
 10
830.3014762988
 20
500.4486351406
 30
0.0
 10
832.705245133
 20
504.999479812
 30
0.0
  0
SPLINE
  5
36D
100
AcDbEntity
  8
0
100
AcDbSpline
 62
7
420
14742271
  6
CONTINUOUS
 70
0
 71
3
 72
10
 73
6
 74
0
 42
0.0000001
 43
0.0000001
 44
0.0000000001
 40
0.0
 40
0.0
 40
0.0
 40
0.0
 40
0.2009049252
 40
0.6014224078
 40
1.0
 40
1.0
 40
1.0
 40
1.0
 10
833.5823664435
 20
506.7054910963
 30
0.0
 10
833.8708098802
 20
507.2744612644
 30
0.0
 10
834.7127727216
 20
508.9883759147
 30
0.0
 10
836.0457001369
 20
511.87258432
 30
0.0
 10
836.9411039071
 20
514.2477690386
 30
0.0
 10
837.4098675276
 20
515.4233052217
 30
0.0
  0
SPLINE
  5
36E
100
AcDbEntity
  8
0
100
AcDbSpline
 62
7
420
14742271
  6
CONTINUOUS
 70
0
 71
3
 72
11
 73
7
 74
0
 42
0.0000001
 43
0.0000001
 44
0.0000000001
 40
0.0
 40
0.0
 40
0.0
 40
0.0
 40
0.2512057642
 40
0.5016260877
 40
0.7512070632
 40
1.0
 40
1.0
 40
1.0
 40
1.0
 10
838.0630576316
 20
517.196495868
 30
0.0
 10
838.2656338383
 20
517.7914989878
 30
0.0
 10
838.6627371819
 20
518.9819607528
 30
0.0
 10
839.2975719042
 20
520.7523063231
 30
0.0
 10
839.7792833939
 20
522.5640431308
 30
0.0
 10
840.1299505808
 20
523.7605489561
 30
0.0
 10
840.3006471493
 20
524.3591938913
 30
0.0
  0
SPLINE
  5
36F
100
AcDbEntity
  8
0
100
AcDbSpline
 62
7
420
14742271
  6
CONTINUOUS
 70
0
 71
3
 72
23
 73
19
 74
0
 42
0.0000001
 43
0.0000001
 44
0.0000000001
 40
0.0
 40
0.0
 40
0.0
 40
0.0
 40
0.0328326979
 40
0.0654186561
 40
0.0977278464
 40
0.1137810507
 40
0.1297368156
 40
0.1614247753
 40
0.1929239335
 40
0.2546672539
 40
0.3149743318
 40
0.5380645683
 40
0.7268905083
 40
0.8057996086
 40
0.872814619
 40
0.9667318623
 40
0.9914934886
 40
1.0
 40
1.0
 40
1.0
 40
1.0
 10
840.7640124921
 20
526.1609788301
 30
0.0
 10
841.043809935
 20
527.3629062509
 30
0.0
 10
841.6458543693
 20
529.748068964
 30
0.0
 10
842.2749382767
 20
533.3699095198
 30
0.0
 10
842.6888049323
 20
536.3835771313
 30
0.0
 10
843.0245245649
 20
538.7785112486
 30
0.0
 10
843.2070558952
 20
541.1662452392
 30
0.0
 10
843.4771887354
 20
544.1297469518
 30
0.0
 10
843.564122432
 20
548.8265743822
 30
0.0
 10
843.4983363486
 20
554.6021854243
 30
0.0
 10
842.2443202362
 20
567.5221487686
 30
0.0
 10
837.6175086051
 20
584.9034262032
 30
0.0
 10
828.5102190259
 20
601.1344256613
 30
0.0
 10
820.7062649253
 20
611.0235282989
 30
0.0
 10
814.5146712665
 20
617.5869890128
 30
0.0
 10
809.263526981
 20
622.2119252634
 30
0.0
 10
805.4489377385
 20
625.0934205572
 30
0.0
 10
804.4451785483
 20
625.8391049332
 30
0.0
 10
804.1888117634
 20
626.0301628329
 30
0.0
  0
SPLINE
  5
370
100
AcDbEntity
  8
0
100
AcDbSpline
 62
7
420
14742271
  6
CONTINUOUS
 70
0
 71
3
 72
9
 73
5
 74
0
 42
0.0000001
 43
0.0000001
 44
0.0000000001
 40
0.0
 40
0.0
 40
0.0
 40
0.0
 40
0.5033646298
 40
1.0
 40
1.0
 40
1.0
 40
1.0
 10
694.0084569732
 20
471.8028842257
 30
0.0
 10
694.0279249979
 20
471.7884306922
 30
0.0
 10
694.0406429155
 20
471.7152959499
 30
0.0
 10
693.9667849841
 20
471.7056160175
 30
0.0
 10
693.9478232926
 20
471.720201934
 30
0.0
  0
SPLINE
  5
371
100
AcDbEntity
  8
0
100
AcDbSpline
 62
7
420
14742271
  6
CONTINUOUS
 70
0
 71
3
 72
23
 73
19
 74
0
 42
0.0000001
 43
0.0000001
 44
0.0000000001
 40
0.0
 40
0.0
 40
0.0
 40
0.0
 40
0.0084690577
 40
0.0331540339
 40
0.1268513063
 40
0.1937420309
 40
0.2725297191
 40
0.4612266065
 40
0.6844308943
 40
0.7448127387
 40
0.8067197347
 40
0.838091935
 40
0.8699176968
 40
0.8859469638
 40
0.902035757
 40
0.9344124317
 40
0.9670809328
 40
1.0
 40
1.0
 40
1.0
 40
1.0
 10
693.9478232926
 20
471.720201934
 30
0.0
 10
693.6904028638
 20
471.9095846349
 30
0.0
 10
692.6822880677
 20
472.6504427979
 30
0.0
 10
688.8492693
 20
475.5178840801
 30
0.0
 10
683.5665177935
 20
480.1244005228
 30
0.0
 10
677.3297620554
 20
486.6699610447
 30
0.0
 10
669.4547448632
 20
496.5481745679
 30
0.0
 10
660.235600603
 20
512.7947911541
 30
0.0
 10
655.5065171312
 20
530.2241058277
 30
0.0
 10
654.1813065495
 20
543.2021441688
 30
0.0
 10
654.095291103
 20
549.0047237889
 30
0.0
 10
654.1654606958
 20
553.7268843881
 30
0.0
 10
654.4238829592
 20
556.7064424711
 30
0.0
 10
654.6019368603
 20
559.1132917147
 30
0.0
 10
654.9284169266
 20
561.5258165141
 30
0.0
 10
655.3342550715
 20
564.5597985532
 30
0.0
 10
655.9540363624
 20
568.2070165697
 30
0.0
 10
656.5513088788
 20
570.6099722205
 30
0.0
 10
656.8282974773
 20
571.8208963534
 30
0.0
  0
SPLINE
  5
372
100
AcDbEntity
  8
0
100
AcDbSpline
 62
7
420
14742271
  6
CONTINUOUS
 70
0
 71
3
 72
11
 73
7
 74
0
 42
0.0000001
 43
0.0000001
 44
0.0000000001
 40
0.0
 40
0.0
 40
0.0
 40
0.0
 40
0.2487528482
 40
0.4983449833
 40
0.7488549783
 40
1.0
 40
1.0
 40
1.0
 40
1.0
 10
657.2885622341
 20
573.6364616742
 30
0.0
 10
657.4584242968
 20
574.2396100961
 30
0.0
 10
657.806226462
 20
575.4456471059
 30
0.0
 10
658.2854135284
 20
577.2712672448
 30
0.0
 10
658.9160727938
 20
579.0566526432
 30
0.0
 10
659.3129020425
 20
580.2562112429
 30
0.0
 10
659.5140939176
 20
580.8560037731
 30
0.0
  0
SPLINE
  5
373
100
AcDbEntity
  8
0
100
AcDbSpline
 62
7
420
14742271
  6
CONTINUOUS
 70
0
 71
3
 72
10
 73
6
 74
0
 42
0.0000001
 43
0.0000001
 44
0.0000000001
 40
0.0
 40
0.0
 40
0.0
 40
0.0
 40
0.3985452747
 40
0.7990884592
 40
1.0
 40
1.0
 40
1.0
 40
1.0
 10
660.1655614738
 20
582.6440083299
 30
0.0
 10
660.6330365878
 20
583.829798863
 30
0.0
 10
661.5272483717
 20
586.2249840435
 30
0.0
 10
662.8576518223
 20
589.1356640466
 30
0.0
 10
663.7004032406
 20
590.8646945541
 30
0.0
 10
663.9885839338
 20
591.4389925942
 30
0.0
  0
SPLINE
  5
374
100
AcDbEntity
  8
0
100
AcDbSpline
 62
7
420
14742271
  6
CONTINUOUS
 70
0
 71
3
 72
15
 73
11
 74
0
 42
0.0000001
 43
0.0000001
 44
0.0000000001
 40
0.0
 40
0.0
 40
0.0
 40
0.0
 40
0.2100954184
 40
0.4219026555
 40
0.633798972
 40
0.8441141204
 40
0.8702397896
 40
0.8963096162
 40
0.9482874104
 40
1.0
 40
1.0
 40
1.0
 40
1.0
 10
664.8657052444
 20
593.1611958273
 30
0.0
 10
667.2713176747
 20
597.7565634874
 30
0.0
 10
672.8173691527
 20
606.6397853245
 30
0.0
 10
683.2968640661
 20
618.3495779798
 30
0.0
 10
695.4603934224
 20
628.3100155498
 30
0.0
 10
705.1559695821
 20
633.7705882812
 30
0.0
 10
711.0535566477
 20
636.4575159529
 30
0.0
 10
713.4157050053
 20
637.4746589348
 30
0.0
 10
716.3850132168
 20
638.6830859046
 30
0.0
 10
718.8242117606
 20
639.4643016582
 30
0.0
 10
720.0323637592
 20
639.8770351168
 30
0.0
  0
SPLINE
  5
375
100
AcDbEntity
  8
0
100
AcDbSpline
 62
7
420
14742271
  6
CONTINUOUS
 70
0
 71
3
 72
12
 73
8
 74
0
 42
0.0000001
 43
0.0000001
 44
0.0000000001
 40
0.0
 40
0.0
 40
0.0
 40
0.0
 40
0.2234380567
 40
0.4462773528
 40
0.6682805323
 40
0.8896163014
 40
1.0
 40
1.0
 40
1.0
 40
1.0
 10
721.8537857423
 20
640.4409972477
 30
0.0
 10
722.4635587764
 20
640.6144315645
 30
0.0
 10
723.6828731383
 20
640.9552257283
 30
0.0
 10
725.5005126827
 20
641.4985472553
 30
0.0
 10
727.3497044961
 20
641.8948044894
 30
0.0
 10
728.8794374808
 20
642.2514797305
 30
0.0
 10
729.7951393363
 20
642.4700312331
 30
0.0
 10
730.1020333531
 20
642.5325147168
 30
0.0
  0
SPLINE
  5
376
100
AcDbEntity
  8
0
100
AcDbSpline
 62
7
420
14742271
  6
CONTINUOUS
 70
0
 71
3
 72
18
 73
14
 74
0
 42
0.0000001
 43
0.0000001
 44
0.0000000001
 40
0.0
 40
0.0
 40
0.0
 40
0.0
 40
0.0329838527
 40
0.0657173122
 40
0.098163055
 40
0.1303219773
 40
0.1621851291
 40
0.1935574513
 40
0.3155049229
 40
0.5388643473
 40
0.7276395413
 40
0.8731882731
 40
1.0
 40
1.0
 40
1.0
 40
1.0
 10
731.0253189431
 20
642.6975347906
 30
0.0
 10
732.2506277508
 20
642.9168547704
 30
0.0
 10
734.6841255122
 20
643.4028503299
 30
0.0
 10
738.3655600697
 20
643.8373265997
 30
0.0
 10
742.0228476555
 20
644.1821818417
 30
0.0
 10
745.6585367781
 20
644.3885268614
 30
0.0
 10
749.2581173481
 20
644.4781564001
 30
0.0
 10
756.2469910189
 20
644.4419112597
 30
0.0
 10
770.4623172415
 20
644.4526810799
 30
0.0
 10
790.6181262328
 20
644.3645313294
 30
0.0
 10
811.664315046
 20
644.2594968813
 30
0.0
 10
829.0667384134
 20
644.1335375764
 30
0.0
 10
839.3450385532
 20
644.0478067554
 30
0.0
 10
844.1305598002
 20
643.9994363745
 30
0.0
  0
SPLINE
  5
377
100
AcDbEntity
  8
0
100
AcDbSpline
 62
7
420
14742271
  6
CONTINUOUS
 70
0
 71
3
 72
9
 73
5
 74
0
 42
0.0000001
 43
0.0000001
 44
0.0000000001
 40
0.0
 40
0.0
 40
0.0
 40
0.0
 40
0.4983108681
 40
1.0
 40
1.0
 40
1.0
 40
1.0
 10
844.1305598002
 20
643.9994363745
 30
0.0
 10
844.1545937102
 20
643.999143278
 30
0.0
 10
844.2084229238
 20
643.9483081328
 30
0.0
 10
844.1547515895
 20
643.897348524
 30
0.0
 10
844.1305598002
 20
643.896772529
 30
0.0
  0
SPLINE
  5
378
100
AcDbEntity
  8
0
100
AcDbSpline
 62
7
420
14742271
  6
CONTINUOUS
 70
0
 71
3
 72
18
 73
14
 74
0
 42
0.0000001
 43
0.0000001
 44
0.0000000001
 40
0.0
 40
0.0
 40
0.0
 40
0.0
 40
0.1270309517
 40
0.2728312998
 40
0.4619328213
 40
0.6856783869
 40
0.8078366742
 40
0.8392632311
 40
0.8708460443
 40
0.902718155
 40
0.9348728096
 40
0.9673116042
 40
1.0
 40
1.0
 40
1.0
 40
1.0
 10
844.1305598002
 20
643.896772529
 30
0.0
 10
839.3450501123
 20
643.8472717624
 30
0.0
 10
829.0667321663
 20
643.7629321507
 30
0.0
 10
811.6643184838
 20
643.6380387567
 30
0.0
 10
790.6181234648
 20
643.523496046
 30
0.0
 10
770.4623170062
 20
643.4752611921
 30
0.0
 10
756.2469925079
 20
643.4116883436
 30
0.0
 10
749.2707531652
 20
643.4542972202
 30
0.0
 10
745.6967083401
 20
643.3644921154
 30
0.0
 10
742.0995564861
 20
643.1613564212
 30
0.0
 10
738.4811074329
 20
642.8222036366
 30
0.0
 10
734.8389818702
 20
642.3927166793
 30
0.0
 10
732.431301268
 20
641.9129836501
 30
0.0
 10
731.2189333094
 20
641.6967345521
 30
0.0
  0
SPLINE
  5
379
100
AcDbEntity
  8
0
100
AcDbSpline
 62
7
420
14742271
  6
CONTINUOUS
 70
0
 71
3
 72
12
 73
8
 74
0
 42
0.0000001
 43
0.0000001
 44
0.0000000001
 40
0.0
 40
0.0
 40
0.0
 40
0.0
 40
0.1103728316
 40
0.3317328247
 40
0.5537889961
 40
0.7765580877
 40
1.0
 40
1.0
 40
1.0
 40
1.0
 10
730.3056384962
 20
641.5330925166
 30
0.0
 10
730.0021035936
 20
641.4712805171
 30
0.0
 10
729.0962237192
 20
641.2553923196
 30
0.0
 10
727.5829353043
 20
640.9023477183
 30
0.0
 10
725.7533869573
 20
640.5120431919
 30
0.0
 10
723.9555746659
 20
639.9742308514
 30
0.0
 10
722.7495273261
 20
639.637656806
 30
0.0
 10
722.146274349
 20
639.466379735
 30
0.0
  0
SPLINE
  5
37A
100
AcDbEntity
  8
0
100
AcDbSpline
 62
7
420
14742271
  6
CONTINUOUS
 70
0
 71
3
 72
10
 73
6
 74
0
 42
0.0000001
 43
0.0000001
 44
0.0000000001
 40
0.0
 40
0.0
 40
0.0
 40
0.0
 40
0.3984976039
 40
0.7991472223
 40
1.0
 40
1.0
 40
1.0
 40
1.0
 10
720.3434558815
 20
638.9082742664
 30
0.0
 10
719.146529151
 20
638.5050371143
 30
0.0
 10
716.7295125911
 20
637.74270321
 30
0.0
 10
713.7903473768
 20
636.5518012958
 30
0.0
 10
712.0295101299
 20
635.8205144147
 30
0.0
 10
711.4495973768
 20
635.557918907
 30
0.0
  0
SPLINE
  5
37B
100
AcDbEntity
  8
0
100
AcDbSpline
 62
7
420
14742271
  6
CONTINUOUS
 70
0
 71
3
 72
11
 73
7
 74
0
 42
0.0000001
 43
0.0000001
 44
0.0000000001
 40
0.0
 40
0.0
 40
0.0
 40
0.0
 40
0.2488740091
 40
0.4998324172
 40
0.7508717902
 40
1.0
 40
1.0
 40
1.0
 40
1.0
 10
709.7022449467
 20
634.7720926268
 30
0.0
 10
705.0340589913
 20
632.6174919535
 30
0.0
 10
695.9648442577
 20
627.5646800548
 30
0.0
 10
683.8613214769
 20
617.7542909392
 30
0.0
 10
673.4307295385
 20
606.175240623
 30
0.0
 10
667.8957924378
 20
597.384411918
 30
0.0
 10
665.4920236036
 20
592.8335672466
 30
0.0
  0
SPLINE
  5
37C
100
AcDbEntity
  8
0
100
AcDbSpline
 62
7
420
14742271
  6
CONTINUOUS
 70
0
 71
3
 72
10
 73
6
 74
0
 42
0.0000001
 43
0.0000001
 44
0.0000000001
 40
0.0
 40
0.0
 40
0.0
 40
0.0
 40
0.2009701348
 40
0.6014553487
 40
1.0
 40
1.0
 40
1.0
 40
1.0
 10
664.614902293
 20
591.1275559623
 30
0.0
 10
664.3266432082
 20
590.5582614689
 30
0.0
 10
663.4846433137
 20
588.8442596618
 30
0.0
 10
662.1515745811
 20
585.9601198424
 30
0.0
 10
661.2561253102
 20
583.5851789163
 30
0.0
 10
660.7874012089
 20
582.4097418369
 30
0.0
  0
SPLINE
  5
37D
100
AcDbEntity
  8
0
100
AcDbSpline
 62
7
420
14742271
  6
CONTINUOUS
 70
0
 71
3
 72
11
 73
7
 74
0
 42
0.0000001
 43
0.0000001
 44
0.0000000001
 40
0.0
 40
0.0
 40
0.0
 40
0.0
 40
0.2511406855
 40
0.5015827733
 40
0.7511854402
 40
1.0
 40
1.0
 40
1.0
 40
1.0
 10
660.1342111049
 20
580.6358621716
 30
0.0
 10
659.9316000311
 20
580.0411006323
 30
0.0
 10
659.5343808898
 20
578.8509061674
 30
0.0
 10
658.8998129325
 20
577.0807068513
 30
0.0
 10
658.4175997278
 20
575.2691143643
 30
0.0
 10
658.0681383134
 20
574.0722636365
 30
0.0
 10
657.8966215872
 20
573.4738531673
 30
0.0
  0
SPLINE
  5
37E
100
AcDbEntity
  8
0
100
AcDbSpline
 62
7
420
14742271
  6
CONTINUOUS
 70
0
 71
3
 72
23
 73
19
 74
0
 42
0.0000001
 43
0.0000001
 44
0.0000000001
 40
0.0
 40
0.0
 40
0.0
 40
0.0
 40
0.0328387231
 40
0.0654247541
 40
0.0977279685
 40
0.1137804272
 40
0.1297367683
 40
0.1614243382
 40
0.1929235669
 40
0.2546670253
 40
0.3149742381
 40
0.5380633866
 40
0.7268950829
 40
0.8057995646
 40
0.8728189152
 40
0.9667317756
 40
0.99150202
 40
1.0
 40
1.0
 40
1.0
 40
1.0
 10
657.4332562445
 20
571.6720682285
 30
0.0
 10
657.1535596507
 20
570.4698876542
 30
0.0
 10
656.5513793677
 20
568.0845183391
 30
0.0
 10
655.9226357176
 20
564.4626398769
 30
0.0
 10
655.5077530974
 20
561.4493562358
 30
0.0
 10
655.1738963126
 20
559.054436137
 30
0.0
 10
654.9894523815
 20
556.6669106947
 30
0.0
 10
654.7212451171
 20
553.7032422451
 30
0.0
 10
654.6335678363
 20
549.0064955707
 30
0.0
 10
654.6997007199
 20
543.2308537315
 30
0.0
 10
655.9535783497
 20
530.3109710726
 30
0.0
 10
660.5798906293
 20
512.9294601722
 30
0.0
 10
669.6866071608
 20
496.6980849056
 30
0.0
 10
677.4911587618
 20
486.809187911
 30
0.0
 10
683.6832470598
 20
480.2464768545
 30
0.0
 10
688.9342735066
 20
475.6210152645
 30
0.0
 10
692.7484640007
 20
472.739267528
 30
0.0
 10
693.752288506
 20
471.9936703848
 30
0.0
 10
694.0084569732
 20
471.8028842257
 30
0.0
  0
SPLINE
  5
37F
100
AcDbEntity
  8
0
100
AcDbSpline
 62
7
420
14742271
  6
CONTINUOUS
 70
0
 71
3
 72
23
 73
19
 74
0
 42
0.0000001
 43
0.0000001
 44
0.0000000001
 40
0.0
 40
0.0
 40
0.0
 40
0.0
 40
0.0084999486
 40
0.0332657637
 40
0.1271810093
 40
0.1941975269
 40
0.2731080748
 40
0.4619359184
 40
0.6850280292
 40
0.7453322624
 40
0.8070768301
 40
0.8385788071
 40
0.8702607943
 40
0.8862189054
 40
0.9022716543
 40
0.9345823399
 40
0.967169599
 40
1.0
 40
1.0
 40
1.0
 40
1.0
 10
382.1787397117
 20
641.902062243
 30
0.0
 10
381.9696511745
 20
641.7466893698
 30
0.0
 10
381.1511975815
 20
641.1388245454
 30
0.0
 10
378.0418836732
 20
638.7882521063
 30
0.0
 10
373.7594920221
 20
635.0180545236
 30
0.0
 10
368.7108019002
 20
629.6665222253
 30
0.0
 10
362.3474251976
 20
621.6032605565
 30
0.0
 10
354.9219530374
 20
608.3685271256
 30
0.0
 10
351.1497159824
 20
594.1962922162
 30
0.0
 10
350.1271573729
 20
583.6617209163
 30
0.0
 10
350.0737028293
 20
578.9524157072
 30
0.0
 10
350.1440256882
 20
575.1228272929
 30
0.0
 10
350.3634333455
 20
572.7064105172
 30
0.0
 10
350.514006287
 20
570.7598133391
 30
0.0
 10
350.7862514541
 20
568.8067754112
 30
0.0
 10
351.1236473023
 20
566.3494008794
 30
0.0
 10
351.6382427285
 20
563.3965609801
 30
0.0
 10
352.1283678141
 20
561.4516373236
 30
0.0
 10
352.3566151532
 20
560.4717182964
 30
0.0
  0
SPLINE
  5
380
100
AcDbEntity
  8
0
100
AcDbSpline
 62
7
420
14742271
  6
CONTINUOUS
 70
0
 71
3
 72
11
 73
7
 74
0
 42
0.0000001
 43
0.0000001
 44
0.0000000001
 40
0.0
 40
0.0
 40
0.0
 40
0.0
 40
0.2488481099
 40
0.498461667
 40
0.7488386791
 40
1.0
 40
1.0
 40
1.0
 40
1.0
 10
352.7345421279
 20
559.0027295815
 30
0.0
 10
352.8739231928
 20
558.5145508518
 30
0.0
 10
353.1590073161
 20
557.538527457
 30
0.0
 10
353.5523717008
 20
556.061357428
 30
0.0
 10
354.0700294166
 20
554.6180049152
 30
0.0
 10
354.3936589815
 20
553.6474685133
 30
0.0
 10
354.5583756778
 20
553.1622592053
 30
0.0
  0
SPLINE
  5
381
100
AcDbEntity
  8
0
100
AcDbSpline
 62
7
420
14742271
  6
CONTINUOUS
 70
0
 71
3
 72
10
 73
6
 74
0
 42
0.0000001
 43
0.0000001
 44
0.0000000001
 40
0.0
 40
0.0
 40
0.0
 40
0.0
 40
0.3985346717
 40
0.7991739237
 40
1.0
 40
1.0
 40
1.0
 40
1.0
 10
355.0913319494
 20
551.7160081206
 30
0.0
 10
355.4737239891
 20
550.7577827203
 30
0.0
 10
356.2034357495
 20
548.8209113358
 30
0.0
 10
357.290729004
 20
546.4696489579
 30
0.0
 10
357.9767174013
 20
545.071909306
 30
0.0
 10
358.2122439495
 20
544.608431625
 30
0.0
  0
SPLINE
  5
382
100
AcDbEntity
  8
0
100
AcDbSpline
 62
7
420
14742271
  6
CONTINUOUS
 70
0
 71
3
 72
11
 73
7
 74
0
 42
0.0000001
 43
0.0000001
 44
0.0000000001
 40
0.0
 40
0.0
 40
0.0
 40
0.0
 40
0.2491319812
 40
0.5001731656
 40
0.7511157243
 40
1.0
 40
1.0
 40
1.0
 40
1.0
 10
358.9274457722
 20
543.2173020681
 30
0.0
 10
360.8875628452
 20
539.5066227602
 30
0.0
 10
365.3999943956
 20
532.3381888267
 30
0.0
 10
373.9056606263
 20
522.8977077914
 30
0.0
 10
383.7742699505
 20
514.8981724753
 30
0.0
 10
391.1692129949
 20
510.7785602456
 30
0.0
 10
394.9755468917
 20
509.0212842815
 30
0.0
  0
SPLINE
  5
383
100
AcDbEntity
  8
0
100
AcDbSpline
 62
7
420
14742271
  6
CONTINUOUS
 70
0
 71
3
 72
10
 73
6
 74
0
 42
0.0000001
 43
0.0000001
 44
0.0000000001
 40
0.0
 40
0.0
 40
0.0
 40
0.0
 40
0.2009250181
 40
0.6014668916
 40
1.0
 40
1.0
 40
1.0
 40
1.0
 10
396.3997493653
 20
508.3808410308
 30
0.0
 10
396.8728756499
 20
508.1668159042
 30
0.0
 10
398.3081950501
 20
507.5695552017
 30
0.0
 10
400.7054083227
 20
506.5997974287
 30
0.0
 10
402.6759226278
 20
505.9777000476
 30
0.0
 10
403.6520198713
 20
505.648880311
 30
0.0
  0
SPLINE
  5
384
100
AcDbEntity
  8
0
100
AcDbSpline
 62
7
420
14742271
  6
CONTINUOUS
 70
0
 71
3
 72
12
 73
8
 74
0
 42
0.0000001
 43
0.0000001
 44
0.0000000001
 40
0.0
 40
0.0
 40
0.0
 40
0.0
 40
0.2234822389
 40
0.4462285393
 40
0.6682844301
 40
0.8896820982
 40
1.0
 40
1.0
 40
1.0
 40
1.0
 10
405.1213530958
 20
505.1937831974
 30
0.0
 10
405.6133339625
 20
505.0541019163
 30
0.0
 10
406.5967589593
 20
504.7795703158
 30
0.0
 10
408.0627043047
 20
504.3409436202
 30
0.0
 10
409.5545513383
 20
504.0226804178
 30
0.0
 10
410.7887621365
 20
503.7362448995
 30
0.0
 10
411.5270885642
 20
503.5588956202
 30
0.0
 10
411.7745214969
 20
503.5087869955
 30
0.0
  0
SPLINE
  5
385
100
AcDbEntity
  8
0
100
AcDbSpline
 62
7
420
14742271
  6
CONTINUOUS
 70
0
 71
3
 72
18
 73
14
 74
0
 42
0.0000001
 43
0.0000001
 44
0.0000000001
 40
0.0
 40
0.0
 40
0.0
 40
0.0
 40
0.0326888104
 40
0.0651279865
 40
0.0972819795
 40
0.1291549934
 40
0.160735351
 40
0.1921675367
 40
0.3143225213
 40
0.538065043
 40
0.7271767044
 40
0.8729729634
 40
1.0
 40
1.0
 40
1.0
 40
1.0
 10
412.5193511408
 20
503.3754618002
 30
0.0
 10
413.5078185797
 20
503.198704602
 30
0.0
 10
415.4710988152
 20
502.8080205143
 30
0.0
 10
418.4408084606
 20
502.4582310272
 30
0.0
 10
421.3910226082
 20
502.1795123334
 30
0.0
 10
424.3240663671
 20
502.0150794844
 30
0.0
 10
427.2383601574
 20
501.9421587952
 30
0.0
 10
432.9265971916
 20
501.9761753833
 30
0.0
 10
444.5173609425
 20
501.925334906
 30
0.0
 10
460.9519767532
 20
501.8853760315
 30
0.0
 10
478.1125666594
 20
501.7924563959
 30
0.0
 10
492.3020853447
 20
501.6900890806
 30
0.0
 10
500.6824999693
 20
501.6213860219
 30
0.0
 10
504.5843603409
 20
501.5816005811
 30
0.0
  0
SPLINE
  5
386
100
AcDbEntity
  8
0
100
AcDbSpline
 62
7
420
14742271
  6
CONTINUOUS
 70
0
 71
3
 72
9
 73
5
 74
0
 42
0.0000001
 43
0.0000001
 44
0.0000000001
 40
0.0
 40
0.0
 40
0.0
 40
0.0
 40
0.502066011
 40
1.0
 40
1.0
 40
1.0
 40
1.0
 10
504.5843603409
 20
501.5816005811
 30
0.0
 10
504.6041656517
 20
501.5810180719
 30
0.0
 10
504.6480049812
 20
501.5395175879
 30
0.0
 10
504.6040111472
 20
501.4975402512
 30
0.0
 10
504.5843603409
 20
501.4975402512
 30
0.0
  0
SPLINE
  5
387
100
AcDbEntity
  8
0
100
AcDbSpline
 62
7
420
14742271
  6
CONTINUOUS
 70
0
 71
3
 72
18
 73
14
 74
0
 42
0.0000001
 43
0.0000001
 44
0.0000000001
 40
0.0
 40
0.0
 40
0.0
 40
0.0
 40
0.1268081228
 40
0.272352994
 40
0.4611386898
 40
0.6844954943
 40
0.8064398988
 40
0.8378178999
 40
0.8696762279
 40
0.9018315429
 40
0.9342855426
 40
0.9670127541
 40
1.0
 40
1.0
 40
1.0
 40
1.0
 10
504.5843603409
 20
501.4975402512
 30
0.0
 10
500.682498008
 20
501.4577502657
 30
0.0
 10
492.3020939527
 20
501.3880203844
 30
0.0
 10
478.1125592711
 20
501.2860368262
 30
0.0
 10
460.951980789
 20
501.1995980511
 30
0.0
 10
444.5173634067
 20
501.1280442664
 30
0.0
 10
432.926592431
 20
501.1368288765
 30
0.0
 10
427.2281350771
 20
501.1075336925
 30
0.0
 10
424.2932210461
 20
501.1807602944
 30
0.0
 10
421.3288358561
 20
501.3494967344
 30
0.0
 10
418.3466936464
 20
501.6292145724
 30
0.0
 10
415.3449424711
 20
501.9847249388
 30
0.0
 10
413.3607528632
 20
502.3804878736
 30
0.0
 10
412.3615657676
 20
502.5593186798
 30
0.0
  0
SPLINE
  5
388
100
AcDbEntity
  8
0
100
AcDbSpline
 62
7
420
14742271
  6
CONTINUOUS
 70
0
 71
3
 72
12
 73
8
 74
0
 42
0.0000001
 43
0.0000001
 44
0.0000000001
 40
0.0
 40
0.0
 40
0.0
 40
0.0
 40
0.1103970458
 40
0.3317254004
 40
0.5537791725
 40
0.7766039266
 40
1.0
 40
1.0
 40
1.0
 40
1.0
 10
411.608812404
 20
502.6933328942
 30
0.0
 10
411.3585515847
 20
502.7443502513
 30
0.0
 10
410.6119750785
 20
502.9230193905
 30
0.0
 10
409.3646779299
 20
503.214662111
 30
0.0
 10
407.8563765018
 20
503.536136703
 30
0.0
 10
406.37464199
 20
503.9805260191
 30
0.0
 10
405.3803247976
 20
504.2576310618
 30
0.0
 10
404.8832969977
 20
504.3993441785
 30
0.0
  0
SPLINE
  5
389
100
AcDbEntity
  8
0
100
AcDbSpline
 62
7
420
14742271
  6
CONTINUOUS
 70
0
 71
3
 72
15
 73
11
 74
0
 42
0.0000001
 43
0.0000001
 44
0.0000000001
 40
0.0
 40
0.0
 40
0.0
 40
0.0
 40
0.0517264885
 40
0.1036928961
 40
0.1297579281
 40
0.1558916367
 40
0.3662031476
 40
0.5780885765
 40
0.789896983
 40
1.0
 40
1.0
 40
1.0
 40
1.0
 10
403.398116334
 20
504.8589199162
 30
0.0
 10
402.4128287873
 20
505.1957555957
 30
0.0
 10
400.423786922
 20
505.8323359335
 30
0.0
 10
398.0026059875
 20
506.8173570521
 30
0.0
 10
396.0768910806
 20
507.647040481
 30
0.0
 10
391.2687723925
 20
509.8392216353
 30
0.0
 10
383.3628055597
 20
514.2902617937
 30
0.0
 10
373.4449584261
 20
522.4115005598
 30
0.0
 10
364.900376142
 20
531.9594518245
 30
0.0
 10
360.378704071
 20
539.203029215
 30
0.0
 10
358.4168826213
 20
542.9499626584
 30
0.0
  0
SPLINE
  5
38A
100
AcDbEntity
  8
0
100
AcDbSpline
 62
7
420
14742271
  6
CONTINUOUS
 70
0
 71
3
 72
10
 73
6
 74
0
 42
0.0000001
 43
0.0000001
 44
0.0000000001
 40
0.0
 40
0.0
 40
0.0
 40
0.0
 40
0.200942396
 40
0.6015387561
 40
1.0
 40
1.0
 40
1.0
 40
1.0
 10
357.7016807986
 20
544.3538390686
 30
0.0
 10
357.4662583052
 20
544.821930576
 30
0.0
 10
356.7795987333
 20
546.2321101309
 30
0.0
 10
355.6943907942
 20
548.6049978225
 30
0.0
 10
354.9660178144
 20
550.5580278658
 30
0.0
 10
354.5845584035
 20
551.5244608116
 30
0.0
  0
SPLINE
  5
38B
100
AcDbEntity
  8
0
100
AcDbSpline
 62
7
420
14742271
  6
CONTINUOUS
 70
0
 71
3
 72
11
 73
7
 74
0
 42
0.0000001
 43
0.0000001
 44
0.0000000001
 40
0.0
 40
0.0
 40
0.0
 40
0.0
 40
0.2511972317
 40
0.5015628927
 40
0.7511077465
 40
1.0
 40
1.0
 40
1.0
 40
1.0
 10
354.0533246797
 20
552.9834587496
 30
0.0
 10
353.8891321963
 20
553.4725940094
 30
0.0
 10
353.5660468768
 20
554.4506784589
 30
0.0
 10
353.051290974
 20
555.9059894352
 30
0.0
 10
352.6599378919
 20
557.3943208652
 30
0.0
 10
352.3768150939
 20
558.3780481133
 30
0.0
 10
352.2381038685
 20
558.8700934053
 30
0.0
  0
SPLINE
  5
38C
100
AcDbEntity
  8
0
100
AcDbSpline
 62
7
420
14742271
  6
CONTINUOUS
 70
0
 71
3
 72
23
 73
19
 74
0
 42
0.0000001
 43
0.0000001
 44
0.0000000001
 40
0.0
 40
0.0
 40
0.0
 40
0.0
 40
0.0329218035
 40
0.0655819551
 40
0.0979673436
 40
0.1140476091
 40
0.1300726213
 40
0.161901806
 40
0.1932844834
 40
0.2551863936
 40
0.315562955
 40
0.5387696116
 40
0.7274679277
 40
0.8062626314
 40
0.8731440683
 40
0.9668482143
 40
0.9915340303
 40
1.0
 40
1.0
 40
1.0
 40
1.0
 10
351.8629329702
 20
560.3504509353
 30
0.0
 10
351.6374219324
 20
561.3379627399
 30
0.0
 10
351.150520591
 20
563.2970945757
 30
0.0
 10
350.6448447024
 20
566.2709665035
 30
0.0
 10
350.3144386283
 20
568.7445841447
 30
0.0
 10
350.0472013547
 20
570.7114307356
 30
0.0
 10
349.9030031025
 20
572.6737004956
 30
0.0
 10
349.6916246958
 20
575.1033790362
 30
0.0
 10
349.6350420916
 20
578.9539776431
 30
0.0
 10
349.7048632639
 20
583.6852026963
 30
0.0
 10
350.7854349516
 20
594.2668465007
 30
0.0
 10
354.6410736888
 20
608.4781528436
 30
0.0
 10
362.1582751525
 20
621.7254465708
 30
0.0
 10
368.5794896537
 20
629.7796366788
 30
0.0
 10
373.6644066911
 20
635.117140042
 30
0.0
 10
377.9716406277
 20
638.8733935804
 30
0.0
 10
381.0978007093
 20
641.2105089381
 30
0.0
 10
381.9193597647
 20
641.8150420298
 30
0.0
 10
382.1287858272
 20
641.9699306241
 30
0.0
  0
SPLINE
  5
38D
100
AcDbEntity
  8
0
100
AcDbSpline
 62
7
420
14742271
  6
CONTINUOUS
 70
0
 71
3
 72
9
 73
5
 74
0
 42
0.0000001
 43
0.0000001
 44
0.0000000001
 40
0.0
 40
0.0
 40
0.0
 40
0.0
 40
0.5004395311
 40
1.0
 40
1.0
 40
1.0
 40
1.0
 10
382.1287858272
 20
641.9699306241
 30
0.0
 10
382.1450486533
 20
641.9811667585
 30
0.0
 10
382.2049095049
 20
641.9737361863
 30
0.0
 10
382.1944553299
 20
641.9139944717
 30
0.0
 10
382.1787397117
 20
641.902062243
 30
0.0
  0
SPLINE
  5
38E
100
AcDbEntity
  8
0
100
AcDbSpline
 62
7
420
14742271
  6
CONTINUOUS
 70
0
 71
3
 72
23
 73
19
 74
0
 42
0.0000001
 43
0.0000001
 44
0.0000000001
 40
0.0
 40
0.0
 40
0.0
 40
0.0
 40
0.0084976997
 40
0.0332680157
 40
0.1271831189
 40
0.1941968078
 40
0.2731072361
 40
0.4619380645
 40
0.6850262186
 40
0.7453336687
 40
0.807078674
 40
0.8385808065
 40
0.8702624632
 40
0.8862242824
 40
0.9022732906
 40
0.9345765095
 40
0.9671586994
 40
1.0
 40
1.0
 40
1.0
 40
1.0
 10
472.0171836997
 20
516.14953135
 30
0.0
 10
472.2263858348
 20
516.3046361998
 30
0.0
 10
473.0449225129
 20
516.9125095709
 30
0.0
 10
476.1533815802
 20
519.2643224033
 30
0.0
 10
480.4364318079
 20
523.0337138592
 30
0.0
 10
485.4852012664
 20
528.3851232467
 30
0.0
 10
491.84856701
 20
536.4484127349
 30
0.0
 10
499.2736921761
 20
549.6832584504
 30
0.0
 10
503.0465626927
 20
563.8555131526
 30
0.0
 10
504.0685106944
 20
574.3900853879
 30
0.0
 10
504.1232083148
 20
579.0995305945
 30
0.0
 10
504.0511834469
 20
582.9290804772
 30
0.0
 10
503.8325423779
 20
585.3456531693
 30
0.0
 10
503.6819392724
 20
587.2922423623
 30
0.0
 10
503.409713455
 20
589.2450557078
 30
0.0
 10
503.0719326148
 20
591.7018584807
 30
0.0
 10
502.5587872607
 20
594.6549296501
 30
0.0
 10
502.0675180085
 20
596.5997873342
 30
0.0
 10
501.8399972773
 20
597.5802198062
 30
0.0
  0
SPLINE
  5
38F
100
AcDbEntity
  8
0
100
AcDbSpline
 62
7
420
14742271
  6
CONTINUOUS
 70
0
 71
3
 72
11
 73
7
 74
0
 42
0.0000001
 43
0.0000001
 44
0.0000000001
 40
0.0
 40
0.0
 40
0.0
 40
0.0
 40
0.2488432745
 40
0.4984597788
 40
0.748890518
 40
1.0
 40
1.0
 40
1.0
 40
1.0
 10
501.4620703026
 20
599.0492085211
 30
0.0
 10
501.3225198532
 20
599.5372896721
 30
0.0
 10
501.0365963237
 20
600.5129944884
 30
0.0
 10
500.6438361737
 20
601.9903149135
 30
0.0
 10
500.1270027723
 20
603.4338510027
 30
0.0
 10
499.8025264481
 20
604.4040211986
 30
0.0
 10
499.6375477336
 20
604.8889898782
 30
0.0
  0
SPLINE
  5
390
100
AcDbEntity
  8
0
100
AcDbSpline
 62
7
420
14742271
  6
CONTINUOUS
 70
0
 71
3
 72
10
 73
6
 74
0
 42
0.0000001
 43
0.0000001
 44
0.0000000001
 40
0.0
 40
0.0
 40
0.0
 40
0.0
 40
0.3984185205
 40
0.7990751932
 40
1.0
 40
1.0
 40
1.0
 40
1.0
 10
499.104591462
 20
606.335929982
 30
0.0
 10
498.7226079413
 20
607.2939971488
 30
0.0
 10
497.9931886884
 20
609.2307210919
 30
0.0
 10
496.9053970771
 20
611.5817663342
 30
0.0
 10
496.2193178706
 20
612.9797976092
 30
0.0
 10
495.9836794619
 20
613.4435064776
 30
0.0
  0
SPLINE
  5
391
100
AcDbEntity
  8
0
100
AcDbSpline
 62
7
420
14742271
  6
CONTINUOUS
 70
0
 71
3
 72
11
 73
7
 74
0
 42
0.0000001
 43
0.0000001
 44
0.0000000001
 40
0.0
 40
0.0
 40
0.0
 40
0.0
 40
0.249137519
 40
0.5001760554
 40
0.7511205152
 40
1.0
 40
1.0
 40
1.0
 40
1.0
 10
495.2688221487
 20
614.8346360345
 30
0.0
 10
493.3086763557
 20
618.545369712
 30
0.0
 10
488.795827173
 20
625.7135038893
 30
0.0
 10
480.2906399804
 20
635.1543513504
 30
0.0
 10
470.4221057742
 20
643.1537233882
 30
0.0
 10
463.0271455454
 20
647.2731534869
 30
0.0
 10
459.2207210293
 20
649.029964802
 30
0.0
  0
SPLINE
  5
392
100
AcDbEntity
  8
0
100
AcDbSpline
 62
7
420
14742271
  6
CONTINUOUS
 70
0
 71
3
 72
10
 73
6
 74
0
 42
0.0000001
 43
0.0000001
 44
0.0000000001
 40
0.0
 40
0.0
 40
0.0
 40
0.0
 40
0.2009302201
 40
0.6014986782
 40
1.0
 40
1.0
 40
1.0
 40
1.0
 10
457.7961740461
 20
649.6707525623
 30
0.0
 10
457.3231648765
 20
649.8850363959
 30
0.0
 10
455.8875479488
 20
650.4817282576
 30
0.0
 10
453.4907976519
 20
651.4524557969
 30
0.0
 10
451.5201023704
 20
652.0738580863
 30
0.0
 10
450.5442480497
 20
652.4030577916
 30
0.0
  0
SPLINE
  5
393
100
AcDbEntity
  8
0
100
AcDbSpline
 62
7
420
14742271
  6
CONTINUOUS
 70
0
 71
3
 72
12
 73
8
 74
0
 42
0.0000001
 43
0.0000001
 44
0.0000000001
 40
0.0
 40
0.0
 40
0.0
 40
0.0
 40
0.2234605994
 40
0.4461989936
 40
0.6682470026
 40
0.8895992085
 40
1.0
 40
1.0
 40
1.0
 40
1.0
 10
449.0745703157
 20
652.8581549052
 30
0.0
 10
448.5825037992
 20
652.9974190137
 30
0.0
 10
447.5991410705
 20
653.2720522881
 30
0.0
 10
446.1332333545
 20
653.7107134777
 30
0.0
 10
444.6413929326
 20
654.028622544
 30
0.0
 10
443.4073233752
 20
654.3161618864
 30
0.0
 10
442.6687121821
 20
654.4927927498
 30
0.0
 10
442.421057405
 20
654.5428065975
 30
0.0
  0
SPLINE
  5
394
100
AcDbEntity
  8
0
100
AcDbSpline
 62
7
420
14742271
  6
CONTINUOUS
 70
0
 71
3
 72
18
 73
14
 74
0
 42
0.0000001
 43
0.0000001
 44
0.0000000001
 40
0.0
 40
0.0
 40
0.0
 40
0.0
 40
0.0326888139
 40
0.065124285
 40
0.0972816622
 40
0.1291546796
 40
0.1607352282
 40
0.1921674179
 40
0.3143224156
 40
0.5380649612
 40
0.7271691662
 40
0.872969179
 40
1.0
 40
1.0
 40
1.0
 40
1.0
 10
441.6765722706
 20
654.6761317928
 30
0.0
 10
440.6881048318
 20
654.8528889911
 30
0.0
 10
438.7249310858
 20
655.2435025142
 30
0.0
 10
435.755257195
 20
655.5935195482
 30
0.0
 10
432.8049931517
 20
655.8716662115
 30
0.0
 10
429.8718484213
 20
656.0359265161
 30
0.0
 10
426.9575741129
 20
656.110115581
 30
0.0
 10
421.2693202882
 20
656.0746164598
 30
0.0
 10
409.6785669197
 20
656.1268587991
 30
0.0
 10
393.2441750655
 20
656.1660430071
 30
0.0
 10
376.0837015448
 20
656.2591852973
 30
0.0
 10
361.8941814578
 20
656.3614640848
 30
0.0
 10
353.5135364035
 20
656.4302707324
 30
0.0
 10
349.6115630706
 20
656.4703375215
 30
0.0
  0
SPLINE
  5
395
100
AcDbEntity
  8
0
100
AcDbSpline
 62
7
420
14742271
  6
CONTINUOUS
 70
0
 71
3
 72
9
 73
5
 74
0
 42
0.0000001
 43
0.0000001
 44
0.0000000001
 40
0.0
 40
0.0
 40
0.0
 40
0.0
 40
0.5010330447
 40
1.0
 40
1.0
 40
1.0
 40
1.0
 10
349.6115630706
 20
656.4703375215
 30
0.0
 10
349.5918330287
 20
656.4706276692
 30
0.0
 10
349.5478818324
 20
656.512222502
 30
0.0
 10
349.5919122642
 20
656.5540533418
 30
0.0
 10
349.6115630706
 20
656.5540533418
 30
0.0
  0
SPLINE
  5
396
100
AcDbEntity
  8
0
100
AcDbSpline
 62
7
420
14742271
  6
CONTINUOUS
 70
0
 71
3
 72
18
 73
14
 74
0
 42
0.0000001
 43
0.0000001
 44
0.0000000001
 40
0.0
 40
0.0
 40
0.0
 40
0.0
 40
0.1268117605
 40
0.2723603461
 40
0.4611384471
 40
0.684495156
 40
0.8064395014
 40
0.8378174867
 40
0.86967953
 40
0.9018383406
 40
0.9342855745
 40
0.9670127701
 40
1.0
 40
1.0
 40
1.0
 40
1.0
 10
349.6115630706
 20
656.5540533418
 30
0.0
 10
353.5135464732
 20
656.5931271756
 30
0.0
 10
361.8941761717
 20
656.6631491962
 30
0.0
 10
376.0837032939
 20
656.7664016588
 30
0.0
 10
393.2441757329
 20
656.8509977533
 30
0.0
 10
409.6785620149
 20
656.9241224084
 30
0.0
 10
421.2693269792
 20
656.914174122
 30
0.0
 10
426.9679065095
 20
656.9445596714
 30
0.0
 10
429.9030266953
 20
656.8709534056
 30
0.0
 10
432.8674919599
 20
656.7032083824
 30
0.0
 10
435.8494173388
 20
656.4220885785
 30
0.0
 10
438.8509565033
 20
656.0667788056
 30
0.0
 10
440.8352408241
 20
655.6714979304
 30
0.0
 10
441.8343576439
 20
655.4922749133
 30
0.0
  0
SPLINE
  5
397
100
AcDbEntity
  8
0
100
AcDbSpline
 62
7
420
14742271
  6
CONTINUOUS
 70
0
 71
3
 72
12
 73
8
 74
0
 42
0.0000001
 43
0.0000001
 44
0.0000000001
 40
0.0
 40
0.0
 40
0.0
 40
0.0
 40
0.1103887109
 40
0.3317595154
 40
0.5538297551
 40
0.7765985945
 40
1.0
 40
1.0
 40
1.0
 40
1.0
 10
442.5871110074
 20
655.3579161893
 30
0.0
 10
442.8373606846
 20
655.3069712757
 30
0.0
 10
443.5840916243
 20
655.1286991811
 30
0.0
 10
444.8315870737
 20
654.8375235
 30
0.0
 10
446.3396602825
 20
654.5152281017
 30
0.0
 10
447.8214947746
 20
654.0716529397
 30
0.0
 10
448.815508001
 20
653.7939888498
 30
0.0
 10
449.3126264137
 20
653.6525939241
 30
0.0
  0
SPLINE
  5
398
100
AcDbEntity
  8
0
100
AcDbSpline
 62
7
420
14742271
  6
CONTINUOUS
 70
0
 71
3
 72
15
 73
11
 74
0
 42
0.0000001
 43
0.0000001
 44
0.0000000001
 40
0.0
 40
0.0
 40
0.0
 40
0.0
 40
0.0517244331
 40
0.1036927336
 40
0.129762895
 40
0.155891305
 40
0.3662118744
 40
0.5780956083
 40
0.7899026746
 40
1.0
 40
1.0
 40
1.0
 40
1.0
 10
450.7978070774
 20
653.1926736768
 30
0.0
 10
451.7833428348
 20
652.8566798815
 30
0.0
 10
453.7721951424
 20
652.2194951815
 30
0.0
 10
456.1933138734
 20
651.2340731246
 30
0.0
 10
458.1192215095
 20
650.4047198452
 30
0.0
 10
462.9271729353
 20
648.2116881292
 30
0.0
 10
470.8339514261
 20
643.7619906952
 30
0.0
 10
480.7510698951
 20
635.6394156521
 30
0.0
 10
489.2961667428
 20
626.0922892889
 30
0.0
 10
493.818225401
 20
618.8489651405
 30
0.0
 10
495.7797298092
 20
615.1019754442
 30
0.0
  0
SPLINE
  5
399
100
AcDbEntity
  8
0
100
AcDbSpline
 62
7
420
14742271
  6
CONTINUOUS
 70
0
 71
3
 72
10
 73
6
 74
0
 42
0.0000001
 43
0.0000001
 44
0.0000000001
 40
0.0
 40
0.0
 40
0.0
 40
0.0
 40
0.2008443807
 40
0.6014236079
 40
1.0
 40
1.0
 40
1.0
 40
1.0
 10
496.4949316319
 20
613.6974100148
 30
0.0
 10
496.730238754
 20
613.2295479009
 30
0.0
 10
497.4168323623
 20
611.8196697018
 30
0.0
 10
498.5013729265
 20
609.4465000727
 30
0.0
 10
499.2304852527
 20
607.4934982914
 30
0.0
 10
499.612054027
 20
606.5267882718
 30
0.0
  0
SPLINE
  5
39A
100
AcDbEntity
  8
0
100
AcDbSpline
 62
7
420
14742271
  6
CONTINUOUS
 70
0
 71
3
 72
11
 73
7
 74
0
 42
0.0000001
 43
0.0000001
 44
0.0000000001
 40
0.0
 40
0.0
 40
0.0
 40
0.0
 40
0.2512196649
 40
0.5016075284
 40
0.7512259574
 40
1.0
 40
1.0
 40
1.0
 40
1.0
 10
500.1429432413
 20
605.0684793529
 30
0.0
 10
500.3070435764
 20
604.5792745804
 30
0.0
 10
500.6310783962
 20
603.6014299078
 30
0.0
 10
501.1442194391
 20
602.145361357
 30
0.0
 10
501.536555667
 20
600.6574059393
 30
0.0
 10
501.818996389
 20
599.6735963667
 30
0.0
 10
501.9578195429
 20
599.1818446973
 30
0.0
  0
SPLINE
  5
39B
100
AcDbEntity
  8
0
100
AcDbSpline
 62
7
420
14742271
  6
CONTINUOUS
 70
0
 71
3
 72
23
 73
19
 74
0
 42
0.0000001
 43
0.0000001
 44
0.0000000001
 40
0.0
 40
0.0
 40
0.0
 40
0.0
 40
0.0329215911
 40
0.0655808827
 40
0.0979660624
 40
0.1140503913
 40
0.1300787023
 40
0.1619076816
 40
0.1932827812
 40
0.2551880985
 40
0.3155680306
 40
0.538771274
 40
0.7274720463
 40
0.8062557513
 40
0.8731444756
 40
0.9668423823
 40
0.9915355109
 40
1.0
 40
1.0
 40
1.0
 40
1.0
 10
502.3333349508
 20
597.7014871673
 30
0.0
 10
502.5588459885
 20
596.7139753627
 30
0.0
 10
503.0458463875
 20
594.7548830839
 30
0.0
 10
503.551058063
 20
591.7809414813
 30
0.0
 10
503.8812192856
 20
589.3071949383
 30
0.0
 10
504.1492794567
 20
587.3402084636
 30
0.0
 10
504.2925932695
 20
585.3776226947
 30
0.0
 10
504.5042581164
 20
582.9481035884
 30
0.0
 10
504.5614905139
 20
579.0976165267
 30
0.0
 10
504.4909433811
 20
574.3663898603
 30
0.0
 10
503.4106202677
 20
563.7846075403
 30
0.0
 10
499.5560050878
 20
549.572641424
 30
0.0
 10
492.0375759261
 20
536.3264060148
 30
0.0
 10
485.6169926514
 20
528.2716736334
 30
0.0
 10
480.5312347181
 20
522.9352578375
 30
0.0
 10
476.2237818551
 20
519.1790185474
 30
0.0
 10
473.0985127855
 20
516.8406719151
 30
0.0
 10
472.2765255278
 20
516.2364069494
 30
0.0
 10
472.0667930747
 20
516.0820074785
 30
0.0
  0
SPLINE
  5
39C
100
AcDbEntity
  8
0
100
AcDbSpline
 62
7
420
14742271
  6
CONTINUOUS
 70
0
 71
3
 72
9
 73
5
 74
0
 42
0.0000001
 43
0.0000001
 44
0.0000000001
 40
0.0
 40
0.0
 40
0.0
 40
0.0
 40
0.4971210859
 40
1.0
 40
1.0
 40
1.0
 40
1.0
 10
472.0667930747
 20
516.0820074785
 30
0.0
 10
472.0510284335
 20
516.0703299665
 30
0.0
 10
471.9907216042
 20
516.0776032948
 30
0.0
 10
472.001236467
 20
516.137718585
 30
0.0
 10
472.0171836997
 20
516.14953135
 30
0.0
  0
SPLINE
  5
39D
100
AcDbEntity
  8
0
100
AcDbSpline
 62
7
420
14742271
  6
CONTINUOUS
 70
0
 71
3
 72
9
 73
5
 74
0
 42
0.0000001
 43
0.0000001
 44
0.0000000001
 40
0.0
 40
0.0
 40
0.0
 40
0.0
 40
0.4969048082
 40
1.0
 40
1.0
 40
1.0
 40
1.0
 10
826.017625777
 20
409.7932325485
 30
0.0
 10
826.0018473681
 20
409.8049202587
 30
0.0
 10
825.9911059136
 20
409.8648372932
 30
0.0
 10
826.0512235188
 20
409.8720570277
 30
0.0
 10
826.0675796615
 20
409.86075642
 30
0.0
  0
SPLINE
  5
39E
100
AcDbEntity
  8
0
100
AcDbSpline
 62
7
420
14742271
  6
CONTINUOUS
 70
0
 71
3
 72
23
 73
19
 74
0
 42
0.0000001
 43
0.0000001
 44
0.0000000001
 40
0.0
 40
0.0
 40
0.0
 40
0.0
 40
0.0084689511
 40
0.0331517217
 40
0.126855626
 40
0.1937394632
 40
0.2725339637
 40
0.4612317931
 40
0.6844378739
 40
0.7448139564
 40
0.8067156963
 40
0.838098206
 40
0.8699278443
 40
0.8859524984
 40
0.9020322592
 40
0.9344175642
 40
0.9670782814
 40
1.0
 40
1.0
 40
1.0
 40
1.0
 10
826.0675796615
 20
409.86075642
 30
0.0
 10
826.2771853759
 20
409.7059554378
 30
0.0
 10
827.0987966685
 20
409.1014923194
 30
0.0
 10
830.2245571265
 20
406.7638399089
 30
0.0
 10
834.5319869812
 20
403.007908303
 30
0.0
 10
839.6172246814
 20
397.6705698049
 30
0.0
 10
846.0384023601
 20
389.6162399686
 30
0.0
 10
853.5555648824
 20
376.3689767617
 30
0.0
 10
857.4115387737
 20
362.157731502
 30
0.0
 10
858.491605672
 20
351.5760035757
 30
0.0
 10
858.5608816565
 20
346.8448262691
 30
0.0
 10
858.5055302494
 20
342.9941590548
 30
0.0
 10
858.2926872121
 20
340.5645760472
 30
0.0
 10
858.149194717
 20
338.6022628916
 30
0.0
 10
857.8824311325
 20
336.635373486
 30
0.0
 10
857.5519666033
 20
334.1617499294
 30
0.0
 10
857.0455838232
 20
331.1879951884
 30
0.0
 10
856.5592697501
 20
329.2287139885
 30
0.0
 10
856.3334325185
 20
328.2412767312
 30
0.0
  0
SPLINE
  5
39F
100
AcDbEntity
  8
0
100
AcDbSpline
 62
7
420
14742271
  6
CONTINUOUS
 70
0
 71
3
 72
11
 73
7
 74
0
 42
0.0000001
 43
0.0000001
 44
0.0000000001
 40
0.0
 40
0.0
 40
0.0
 40
0.0
 40
0.248826395
 40
0.4984130223
 40
0.7487818143
 40
1.0
 40
1.0
 40
1.0
 40
1.0
 10
855.9579171106
 20
326.7609192012
 30
0.0
 10
855.8192443234
 20
326.2690102592
 30
0.0
 10
855.5363264444
 20
325.2852893969
 30
0.0
 10
855.1455309229
 20
323.7968681749
 30
0.0
 10
854.63075876
 20
322.341431558
 30
0.0
 10
854.3072449353
 20
321.3634544898
 30
0.0
 10
854.143040809
 20
320.8742845455
 30
0.0
  0
SPLINE
  5
3A0
100
AcDbEntity
  8
0
100
AcDbSpline
 62
7
420
14742271
  6
CONTINUOUS
 70
0
 71
3
 72
10
 73
6
 74
0
 42
0.0000001
 43
0.0000001
 44
0.0000000001
 40
0.0
 40
0.0
 40
0.0
 40
0.0
 40
0.398461757
 40
0.7990766849
 40
1.0
 40
1.0
 40
1.0
 40
1.0
 10
853.6121515947
 20
319.4152866075
 30
0.0
 10
853.2306921839
 20
318.4488536617
 30
0.0
 10
852.5025214506
 20
316.4956774209
 30
0.0
 10
851.4164869484
 20
314.1231790006
 30
0.0
 10
850.730429035
 20
312.7127113207
 30
0.0
 10
850.4950291997
 20
312.2446648645
 30
0.0
  0
SPLINE
  5
3A1
100
AcDbEntity
  8
0
100
AcDbSpline
 62
7
420
14742271
  6
CONTINUOUS
 70
0
 71
3
 72
15
 73
11
 74
0
 42
0.0000001
 43
0.0000001
 44
0.0000000001
 40
0.0
 40
0.0
 40
0.0
 40
0.0
 40
0.2101031595
 40
0.4219155012
 40
0.6337966487
 40
0.8441083022
 40
0.8702472201
 40
0.8963070336
 40
0.9482734764
 40
1.0
 40
1.0
 40
1.0
 40
1.0
 10
849.779827377
 20
310.8407884543
 30
0.0
 10
847.8182778831
 20
307.0937126327
 30
0.0
 10
843.2962433895
 20
299.8502154896
 30
0.0
 10
834.7514644949
 20
290.3024897007
 30
0.0
 10
824.8337924203
 20
282.1811849902
 30
0.0
 10
816.9280796259
 20
277.7294763815
 30
0.0
 10
812.1196324724
 20
275.5380277556
 30
0.0
 10
810.1940576784
 20
274.7080253905
 30
0.0
 10
807.7729045008
 20
273.7232042915
 30
0.0
 10
805.783881211
 20
273.0865813916
 30
0.0
 10
804.7985936642
 20
272.7497457121
 30
0.0
  0
SPLINE
  5
3A2
100
AcDbEntity
  8
0
100
AcDbSpline
 62
7
420
14742271
  6
CONTINUOUS
 70
0
 71
3
 72
12
 73
8
 74
0
 42
0.0000001
 43
0.0000001
 44
0.0000000001
 40
0.0
 40
0.0
 40
0.0
 40
0.0
 40
0.2233615734
 40
0.446247321
 40
0.6683142597
 40
0.8896073785
 40
1.0
 40
1.0
 40
1.0
 40
1.0
 10
803.313068491
 20
272.2901699743
 30
0.0
 10
802.8161727936
 20
272.1483964097
 30
0.0
 10
801.8218647188
 20
271.8712579519
 30
0.0
 10
800.3400898394
 20
271.4270127407
 30
0.0
 10
798.8317901989
 20
271.1055317801
 30
0.0
 10
797.5846604163
 20
270.8138152247
 30
0.0
 10
796.8382008068
 20
270.6351844286
 30
0.0
 10
796.5878975942
 20
270.5845031996
 30
0.0
  0
SPLINE
  5
3A3
100
AcDbEntity
  8
0
100
AcDbSpline
 62
7
420
14742271
  6
CONTINUOUS
 70
0
 71
3
 72
18
 73
14
 74
0
 42
0.0000001
 43
0.0000001
 44
0.0000000001
 40
0.0
 40
0.0
 40
0.0
 40
0.0
 40
0.0329834485
 40
0.065717941
 40
0.0981643863
 40
0.1303233064
 40
0.1621889762
 40
0.1935593958
 40
0.3155033426
 40
0.5388593089
 40
0.7276442963
 40
0.8731886213
 40
1.0
 40
1.0
 40
1.0
 40
1.0
 10
795.8351442307
 20
270.4501444757
 30
0.0
 10
794.8360577604
 20
270.2713930845
 30
0.0
 10
792.8517904799
 20
269.8754002494
 30
0.0
 10
789.8501168421
 20
269.5201607457
 30
0.0
 10
786.8678805533
 20
269.2402555232
 30
0.0
 10
783.9033728169
 20
269.0715907615
 30
0.0
 10
780.9683453755
 20
268.9983657587
 30
0.0
 10
775.2698876517
 20
269.0276488586
 30
0.0
 10
763.6793467754
 20
269.0188742616
 30
0.0
 10
747.2447291587
 20
269.0904227698
 30
0.0
 10
730.084150735
 20
269.1768625717
 30
0.0
 10
715.8945012192
 20
269.2788476778
 30
0.0
 10
707.5139823244
 20
269.3485766146
 30
0.0
 10
703.6120051479
 20
269.3883660471
 30
0.0
  0
SPLINE
  5
3A4
100
AcDbEntity
  8
0
100
AcDbSpline
 62
7
420
14742271
  6
CONTINUOUS
 70
0
 71
3
 72
9
 73
5
 74
0
 42
0.0000001
 43
0.0000001
 44
0.0000000001
 40
0.0
 40
0.0
 40
0.0
 40
0.0
 40
0.4958341823
 40
1.0
 40
1.0
 40
1.0
 40
1.0
 10
703.6120051479
 20
269.3883660471
 30
0.0
 10
703.5925167448
 20
269.3883660471
 30
0.0
 10
703.5489649153
 20
269.430009229
 30
0.0
 10
703.5921980987
 20
269.4718351217
 30
0.0
 10
703.6120051479
 20
269.4724263769
 30
0.0
  0
SPLINE
  5
3A5
100
AcDbEntity
  8
0
100
AcDbSpline
 62
7
420
14742271
  6
CONTINUOUS
 70
0
 71
3
 72
18
 73
14
 74
0
 42
0.0000001
 43
0.0000001
 44
0.0000000001
 40
0.0
 40
0.0
 40
0.0
 40
0.0
 40
0.1270302879
 40
0.2728259881
 40
0.4619369247
 40
0.6856785888
 40
0.8078331053
 40
0.8392576938
 40
0.8708416676
 40
0.9027182916
 40
0.9348718194
 40
0.9673076347
 40
1.0
 40
1.0
 40
1.0
 40
1.0
 10
703.6120051479
 20
269.4724263769
 30
0.0
 10
707.5139803745
 20
269.5122101568
 30
0.0
 10
715.8945098341
 20
269.5809137927
 30
0.0
 10
730.0841432893
 20
269.6832828664
 30
0.0
 10
747.2447335113
 20
269.7761984564
 30
0.0
 10
763.679348101
 20
269.8161727272
 30
0.0
 10
775.2698844151
 20
269.8669840821
 30
0.0
 10
780.9580041966
 20
269.8330008014
 30
0.0
 10
783.8723030345
 20
269.9058653924
 30
0.0
 10
786.8055465489
 20
270.0704847046
 30
0.0
 10
789.7558440433
 20
270.3484286363
 30
0.0
 10
792.7254490882
 20
270.6990938527
 30
0.0
 10
794.6887801351
 20
271.0895104982
 30
0.0
 10
795.6773588575
 20
271.2662875961
 30
0.0
  0
SPLINE
  5
3A6
100
AcDbEntity
  8
0
100
AcDbSpline
 62
7
420
14742271
  6
CONTINUOUS
 70
0
 71
3
 72
12
 73
8
 74
0
 42
0.0000001
 43
0.0000001
 44
0.0000000001
 40
0.0
 40
0.0
 40
0.0
 40
0.0
 40
0.1104103095
 40
0.3317970023
 40
0.5538418851
 40
0.7765288398
 40
1.0
 40
1.0
 40
1.0
 40
1.0
 10
796.4214994823
 20
271.3996127914
 30
0.0
 10
796.6691790976
 20
271.4496316552
 30
0.0
 10
797.4077363982
 20
271.6270045045
 30
0.0
 10
798.6421537851
 20
271.9135207868
 30
0.0
 10
800.1339080346
 20
272.2317095453
 30
0.0
 10
801.5997028897
 20
272.6704615145
 30
0.0
 10
802.5830315262
 20
272.9449277122
 30
0.0
 10
803.075012393
 20
273.0846089932
 30
0.0
  0
SPLINE
  5
3A7
100
AcDbEntity
  8
0
100
AcDbSpline
 62
7
420
14742271
  6
CONTINUOUS
 70
0
 71
3
 72
10
 73
6
 74
0
 42
0.0000001
 43
0.0000001
 44
0.0000000001
 40
0.0
 40
0.0
 40
0.0
 40
0.0
 40
0.3985586317
 40
0.7990424743
 40
1.0
 40
1.0
 40
1.0
 40
1.0
 10
804.5443456174
 20
273.5397061068
 30
0.0
 10
805.5205459835
 20
273.8685605826
 30
0.0
 10
807.4911538727
 20
274.4904062988
 30
0.0
 10
809.8883053368
 20
275.460609744
 30
0.0
 10
811.3237381152
 20
276.0575981677
 30
0.0
 10
811.796960633
 20
276.2716668266
 30
0.0
  0
SPLINE
  5
3A8
100
AcDbEntity
  8
0
100
AcDbSpline
 62
7
420
14742271
  6
CONTINUOUS
 70
0
 71
3
 72
11
 73
7
 74
0
 42
0.0000001
 43
0.0000001
 44
0.0000000001
 40
0.0
 40
0.0
 40
0.0
 40
0.0
 40
0.2488846883
 40
0.4998223548
 40
0.7508639554
 40
1.0
 40
1.0
 40
1.0
 40
1.0
 10
813.2211631066
 20
276.9121100773
 30
0.0
 10
817.0275578802
 20
278.6692541736
 30
0.0
 10
824.4223896061
 20
282.7889471422
 30
0.0
 10
834.2907220535
 20
290.7886414848
 30
0.0
 10
842.7964336152
 20
300.2290557216
 30
0.0
 10
847.3088476375
 20
307.3975372432
 30
0.0
 10
849.269264226
 20
311.1081278639
 30
0.0
  0
SPLINE
  5
3A9
100
AcDbEntity
  8
0
100
AcDbSpline
 62
7
420
14742271
  6
CONTINUOUS
 70
0
 71
3
 72
10
 73
6
 74
0
 42
0.0000001
 43
0.0000001
 44
0.0000000001
 40
0.0
 40
0.0
 40
0.0
 40
0.0
 40
0.2008132999
 40
0.6014845487
 40
1.0
 40
1.0
 40
1.0
 40
1.0
 10
849.9844660488
 20
312.4992574209
 30
0.0
 10
850.219969584
 20
312.9626898161
 30
0.0
 10
850.905338557
 20
314.3607271821
 30
0.0
 10
851.9935839391
 20
316.7114555661
 30
0.0
 10
852.7226264764
 20
318.6485685249
 30
0.0
 10
853.1046890298
 20
319.6068339165
 30
0.0
  0
SPLINE
  5
3AA
100
AcDbEntity
  8
0
100
AcDbSpline
 62
7
420
14742271
  6
CONTINUOUS
 70
0
 71
3
 72
11
 73
7
 74
0
 42
0.0000001
 43
0.0000001
 44
0.0000000001
 40
0.0
 40
0.0
 40
0.0
 40
0.0
 40
0.2511890981
 40
0.5015396358
 40
0.7511602614
 40
1.0
 40
1.0
 40
1.0
 40
1.0
 10
853.6376453013
 20
321.0530850012
 30
0.0
 10
853.8030021294
 20
321.5381546153
 30
0.0
 10
854.1268014234
 20
322.5086747701
 30
0.0
 10
854.6437784145
 20
323.9523219415
 30
0.0
 10
855.0378512464
 20
325.4292762597
 30
0.0
 10
855.3227868055
 20
326.4053766477
 30
0.0
 10
855.4621678703
 20
326.8935553773
 30
0.0
  0
SPLINE
  5
3AB
100
AcDbEntity
  8
0
100
AcDbSpline
 62
7
420
14742271
  6
CONTINUOUS
 70
0
 71
3
 72
23
 73
19
 74
0
 42
0.0000001
 43
0.0000001
 44
0.0000000001
 40
0.0
 40
0.0
 40
0.0
 40
0.0
 40
0.0328304108
 40
0.0654163473
 40
0.0977270425
 40
0.1137807548
 40
0.1297382073
 40
0.1614204868
 40
0.1929224732
 40
0.2546670682
 40
0.3149716285
 40
0.5380638057
 40
0.7268917054
 40
0.8057999543
 40
0.8728139223
 40
0.9667320123
 40
0.991500817
 40
1.0
 40
1.0
 40
1.0
 40
1.0
 10
855.8400948451
 20
328.3625440923
 30
0.0
 10
856.0680165805
 20
329.3425389036
 30
0.0
 10
856.5588084363
 20
331.2872719186
 30
0.0
 10
857.0723145356
 20
334.2402946364
 30
0.0
 10
857.409149258
 20
336.6977031165
 30
0.0
 10
857.6831461925
 20
338.6505419391
 30
0.0
 10
857.8318914127
 20
340.5973311318
 30
0.0
 10
858.0526832272
 20
343.0136143876
 30
0.0
 10
858.122464902
 20
346.8432577022
 30
0.0
 10
858.0693074103
 20
351.5525598917
 30
0.0
 10
857.0458088078
 20
362.0870694725
 30
0.0
 10
853.2743006355
 20
376.2594174095
 30
0.0
 10
845.8484629266
 20
389.4939035027
 30
0.0
 10
839.4855650254
 20
397.5573358915
 30
0.0
 10
834.4371238849
 20
402.9089949317
 30
0.0
 10
830.1548124057
 20
406.6795290943
 30
0.0
 10
827.0448125382
 20
409.0294435941
 30
0.0
 10
826.2264730331
 20
409.6375748938
 30
0.0
 10
826.017625777
 20
409.7932325485
 30
0.0
  0
SPLINE
  5
3AC
100
AcDbEntity
  8
0
100
AcDbSpline
 62
7
420
14742271
  6
CONTINUOUS
 70
0
 71
3
 72
9
 73
5
 74
0
 42
0.0000001
 43
0.0000001
 44
0.0000000001
 40
0.0
 40
0.0
 40
0.0
 40
0.0
 40
0.5047270922
 40
1.0
 40
1.0
 40
1.0
 40
1.0
 10
736.179181789
 20
284.0403571459
 30
0.0
 10
736.1952338671
 20
284.0284667177
 30
0.0
 10
736.2063524008
 20
283.9680924545
 30
0.0
 10
736.1455631008
 20
283.9610248387
 30
0.0
 10
736.1299169236
 20
283.9728332744
 30
0.0
  0
SPLINE
  5
3AD
100
AcDbEntity
  8
0
100
AcDbSpline
 62
7
420
14742271
  6
CONTINUOUS
 70
0
 71
3
 72
23
 73
19
 74
0
 42
0.0000001
 43
0.0000001
 44
0.0000000001
 40
0.0
 40
0.0
 40
0.0
 40
0.0
 40
0.0084644873
 40
0.0331576106
 40
0.1268554973
 40
0.1937415036
 40
0.2725281093
 40
0.4612288412
 40
0.6844320369
 40
0.7448119561
 40
0.8067172601
 40
0.838092353
 40
0.8699213256
 40
0.8859496331
 40
0.9020339586
 40
0.9344191313
 40
0.9670784159
 40
1.0
 40
1.0
 40
1.0
 40
1.0
 10
736.1299169236
 20
283.9728332744
 30
0.0
 10
735.9201871842
 20
284.1272364314
 30
0.0
 10
735.0981937887
 20
284.7314929227
 30
0.0
 10
731.9729258925
 20
287.0698447384
 30
0.0
 10
727.665641523
 20
290.8261240059
 30
0.0
 10
722.5794878498
 20
296.1621820857
 30
0.0
 10
716.1593969375
 20
304.2173350902
 30
0.0
 10
708.6406085289
 20
317.4633867976
 30
0.0
 10
704.786096331
 20
331.6754388437
 30
0.0
 10
703.7057657501
 20
342.2572149327
 30
0.0
 10
703.635219595
 20
346.9884424149
 30
0.0
 10
703.6924518601
 20
350.8389293661
 30
0.0
 10
703.9041167315
 20
353.2684484928
 30
0.0
 10
704.0474305411
 20
355.2310342591
 30
0.0
 10
704.315490713
 20
357.1980207344
 30
0.0
 10
704.6456519351
 20
359.6717672771
 30
0.0
 10
705.1508636108
 20
362.6457088798
 30
0.0
 10
705.6378640097
 20
364.6048011586
 30
0.0
 10
705.8633750475
 20
365.5923129632
 30
0.0
  0
SPLINE
  5
3AE
100
AcDbEntity
  8
0
100
AcDbSpline
 62
7
420
14742271
  6
CONTINUOUS
 70
0
 71
3
 72
11
 73
7
 74
0
 42
0.0000001
 43
0.0000001
 44
0.0000000001
 40
0.0
 40
0.0
 40
0.0
 40
0.0
 40
0.2487740426
 40
0.4983924716
 40
0.7487803351
 40
1.0
 40
1.0
 40
1.0
 40
1.0
 10
706.2388904554
 20
367.0726704932
 30
0.0
 10
706.3777136092
 20
367.5644221626
 30
0.0
 10
706.6601506767
 20
368.5482329607
 30
0.0
 10
707.0525034139
 20
370.0361828424
 30
0.0
 10
707.5655836306
 20
371.4922717897
 30
0.0
 10
707.8897700893
 20
372.470065614
 30
0.0
 10
708.053766757
 20
372.9593051488
 30
0.0
  0
SPLINE
  5
3AF
100
AcDbEntity
  8
0
100
AcDbSpline
 62
7
420
14742271
  6
CONTINUOUS
 70
0
 71
3
 72
10
 73
6
 74
0
 42
0.0000001
 43
0.0000001
 44
0.0000000001
 40
0.0
 40
0.0
 40
0.0
 40
0.0
 40
0.3985763921
 40
0.7991556193
 40
1.0
 40
1.0
 40
1.0
 40
1.0
 10
708.5846559713
 20
374.4176140677
 30
0.0
 10
708.9662247455
 20
375.3843240873
 30
0.0
 10
709.6953370718
 20
377.3373258686
 30
0.0
 10
710.779877636
 20
379.7104954976
 30
0.0
 10
711.4664712443
 20
381.1203736967
 30
0.0
 10
711.7017783663
 20
381.5882358107
 30
0.0
  0
SPLINE
  5
3B0
100
AcDbEntity
  8
0
100
AcDbSpline
 62
7
420
14742271
  6
CONTINUOUS
 70
0
 71
3
 72
15
 73
11
 74
0
 42
0.0000001
 43
0.0000001
 44
0.0000000001
 40
0.0
 40
0.0
 40
0.0
 40
0.0
 40
0.2100973254
 40
0.4219043917
 40
0.6337881256
 40
0.844108695
 40
0.870237105
 40
0.8963072664
 40
0.9482755669
 40
1.0
 40
1.0
 40
1.0
 40
1.0
 10
712.4169801891
 20
382.9928012401
 30
0.0
 10
714.3784845973
 20
386.7397909363
 30
0.0
 10
718.9005432555
 20
393.9831150847
 30
0.0
 10
727.4456401032
 20
403.530241448
 30
0.0
 10
737.3627585722
 20
411.652816491
 30
0.0
 10
745.2695370629
 20
416.102513925
 30
0.0
 10
750.0774884888
 20
418.2955456411
 30
0.0
 10
752.0033961248
 20
419.1248989205
 30
0.0
 10
754.4245148559
 20
420.1103209774
 30
0.0
 10
756.4133671635
 20
420.7475056774
 30
0.0
 10
757.3989029209
 20
421.0834994727
 30
0.0
  0
SPLINE
  5
3B1
100
AcDbEntity
  8
0
100
AcDbSpline
 62
7
420
14742271
  6
CONTINUOUS
 70
0
 71
3
 72
12
 73
8
 74
0
 42
0.0000001
 43
0.0000001
 44
0.0000000001
 40
0.0
 40
0.0
 40
0.0
 40
0.0
 40
0.2233645838
 40
0.446239886
 40
0.6683209859
 40
0.8896058907
 40
1.0
 40
1.0
 40
1.0
 40
1.0
 10
758.883739075
 20
421.54341972
 30
0.0
 10
759.3807254773
 20
421.684874991
 30
0.0
 10
760.374827061
 20
421.9626317671
 30
0.0
 10
761.8568468752
 20
422.4059656748
 30
0.0
 10
763.3649220264
 20
422.7282153236
 30
0.0
 10
764.6121148952
 20
423.0197317861
 30
0.0
 10
765.3586877996
 20
423.1976621487
 30
0.0
 10
765.6089099718
 20
423.2487419852
 30
0.0
  0
SPLINE
  5
3B2
100
AcDbEntity
  8
0
100
AcDbSpline
 62
7
420
14742271
  6
CONTINUOUS
 70
0
 71
3
 72
18
 73
14
 74
0
 42
0.0000001
 43
0.0000001
 44
0.0000000001
 40
0.0
 40
0.0
 40
0.0
 40
0.0
 40
0.0329797574
 40
0.0657142324
 40
0.0981576265
 40
0.1303163149
 40
0.1621819677
 40
0.1935523699
 40
0.3155037153
 40
0.5388595749
 40
0.727636958
 40
0.8731812582
 40
1.0
 40
1.0
 40
1.0
 40
1.0
 10
766.3623523544
 20
423.3831007091
 30
0.0
 10
767.361246645
 20
423.5622838087
 30
0.0
 10
769.3454983323
 20
423.9577669811
 30
0.0
 10
772.3469603275
 20
424.3128189365
 30
0.0
 10
775.3289847056
 20
424.5940660756
 30
0.0
 10
778.2934541979
 20
424.7617804169
 30
0.0
 10
781.2284589232
 20
424.8353797442
 30
0.0
 10
786.9271534738
 20
424.8050031334
 30
0.0
 10
798.5179182192
 20
424.8149466997
 30
0.0
 10
814.952534286
 20
424.7418235784
 30
0.0
 10
832.1128918815
 20
424.6572298216
 30
0.0
 10
846.3025337883
 20
424.5539699753
 30
0.0
 10
854.6832783518
 20
424.4839522615
 30
0.0
 10
858.5854914372
 20
424.4448791377
 30
0.0
  0
SPLINE
  5
3B3
100
AcDbEntity
  8
0
100
AcDbSpline
 62
7
420
14742271
  6
CONTINUOUS
 70
0
 71
3
 72
9
 73
5
 74
0
 42
0.0000001
 43
0.0000001
 44
0.0000000001
 40
0.0
 40
0.0
 40
0.0
 40
0.0
 40
0.4989584181
 40
1.0
 40
1.0
 40
1.0
 40
1.0
 10
858.5854914372
 20
424.4448791377
 30
0.0
 10
858.6050612104
 20
424.4448791377
 30
0.0
 10
858.6485646201
 20
424.4030408252
 30
0.0
 10
858.6051405895
 20
424.361465612
 30
0.0
 10
858.5854914372
 20
424.3611633174
 30
0.0
  0
SPLINE
  5
3B4
100
AcDbEntity
  8
0
100
AcDbSpline
 62
7
420
14742271
  6
CONTINUOUS
 70
0
 71
3
 72
18
 73
14
 74
0
 42
0.0000001
 43
0.0000001
 44
0.0000000001
 40
0.0
 40
0.0
 40
0.0
 40
0.0
 40
0.1270378165
 40
0.2728335392
 40
0.4619370283
 40
0.6856787268
 40
0.8078407388
 40
0.8392653328
 40
0.870849499
 40
0.9027186635
 40
0.9348796417
 40
0.96731499
 40
1.0
 40
1.0
 40
1.0
 40
1.0
 10
858.5854914372
 20
424.3611633174
 30
0.0
 10
854.683288419
 20
424.3210973953
 30
0.0
 10
846.3025285002
 20
424.2522948672
 30
0.0
 10
832.1128936471
 20
424.1500082082
 30
0.0
 10
814.9525348622
 20
424.0568715438
 30
0.0
 10
798.517913642
 20
424.0176765663
 30
0.0
 10
786.9271597264
 20
423.9654510508
 30
0.0
 10
781.2387916935
 20
424.000931136
 30
0.0
 10
778.324745638
 20
423.9267742238
 30
0.0
 10
775.3914896034
 20
423.7624579387
 30
0.0
 10
772.4412222378
 20
423.4843633494
 30
0.0
 10
769.4715418307
 20
423.1343674589
 30
0.0
 10
767.5084938834
 20
422.7436948874
 30
0.0
 10
766.5201377276
 20
422.5669575887
 30
0.0
  0
SPLINE
  5
3B5
100
AcDbEntity
  8
0
100
AcDbSpline
 62
7
420
14742271
  6
CONTINUOUS
 70
0
 71
3
 72
12
 73
8
 74
0
 42
0.0000001
 43
0.0000001
 44
0.0000000001
 40
0.0
 40
0.0
 40
0.0
 40
0.0
 40
0.1104007253
 40
0.3317039073
 40
0.5538495782
 40
0.7765395347
 40
1.0
 40
1.0
 40
1.0
 40
1.0
 10
765.7753080837
 20
422.4336323934
 30
0.0
 10
765.5276533067
 20
422.3836185457
 30
0.0
 10
764.7891454033
 20
422.2070374028
 30
0.0
 10
763.555013542
 20
421.9192734537
 30
0.0
 10
762.0630834115
 20
421.6017335784
 30
0.0
 10
760.5971436679
 20
421.1627540118
 30
0.0
 10
759.6138361641
 20
420.8883349678
 30
0.0
 10
759.1217951731
 20
420.7489807011
 30
0.0
  0
SPLINE
  5
3B6
100
AcDbEntity
  8
0
100
AcDbSpline
 62
7
420
14742271
  6
CONTINUOUS
 70
0
 71
3
 72
10
 73
6
 74
0
 42
0.0000001
 43
0.0000001
 44
0.0000000001
 40
0.0
 40
0.0
 40
0.0
 40
0.0
 40
0.3985847453
 40
0.7991110438
 40
1.0
 40
1.0
 40
1.0
 40
1.0
 10
757.6524619486
 20
420.2938835875
 30
0.0
 10
756.6763661283
 20
419.9647189319
 30
0.0
 10
754.7055094589
 20
419.3434513916
 30
0.0
 10
752.3087769649
 20
418.3726426625
 30
0.0
 10
750.8734489159
 20
417.7758186083
 30
0.0
 10
750.4005359521
 20
417.5615783582
 30
0.0
  0
SPLINE
  5
3B7
100
AcDbEntity
  8
0
100
AcDbSpline
 62
7
420
14742271
  6
CONTINUOUS
 70
0
 71
3
 72
11
 73
7
 74
0
 42
0.0000001
 43
0.0000001
 44
0.0000000001
 40
0.0
 40
0.0
 40
0.0
 40
0.0
 40
0.2488808059
 40
0.4998212895
 40
0.7508611585
 40
1.0
 40
1.0
 40
1.0
 40
1.0
 10
748.9756444594
 20
416.9207905979
 30
0.0
 10
745.1692199433
 20
415.1639792827
 30
0.0
 10
737.7742823981
 20
411.0446626316
 30
0.0
 10
727.9060578978
 20
403.0450505378
 30
0.0
 10
719.4008692232
 20
393.60434666
 30
0.0
 10
714.8880336426
 20
386.4361955079
 30
0.0
 10
712.9278878495
 20
382.7254618304
 30
0.0
  0
SPLINE
  5
3B8
100
AcDbEntity
  8
0
100
AcDbSpline
 62
7
420
14742271
  6
CONTINUOUS
 70
0
 71
3
 72
10
 73
6
 74
0
 42
0.0000001
 43
0.0000001
 44
0.0000000001
 40
0.0
 40
0.0
 40
0.0
 40
0.0
 40
0.2009248068
 40
0.6015814795
 40
1.0
 40
1.0
 40
1.0
 40
1.0
 10
712.2130305363
 20
381.3343322735
 30
0.0
 10
711.9773921277
 20
380.8706234051
 30
0.0
 10
711.2913129212
 20
379.4725921301
 30
0.0
 10
710.2035213099
 20
377.1215468878
 30
0.0
 10
709.474102057
 20
375.1848229447
 30
0.0
 10
709.0921185363
 20
374.2267557778
 30
0.0
  0
SPLINE
  5
3B9
100
AcDbEntity
  8
0
100
AcDbSpline
 62
7
420
14742271
  6
CONTINUOUS
 70
0
 71
3
 72
11
 73
7
 74
0
 42
0.0000001
 43
0.0000001
 44
0.0000000001
 40
0.0
 40
0.0
 40
0.0
 40
0.0
 40
0.2511092811
 40
0.5014864985
 40
0.7511028032
 40
1.0
 40
1.0
 40
1.0
 40
1.0
 10
708.5591622647
 20
372.779815674
 30
0.0
 10
708.3944917058
 20
372.294742274
 30
0.0
 10
708.0696369252
 20
371.3248154366
 30
0.0
 10
707.5528546071
 20
369.8813775694
 30
0.0
 10
707.1600430706
 20
368.4040701106
 30
0.0
 10
706.8742204962
 20
367.4282216216
 30
0.0
 10
706.7346396957
 20
366.940034317
 30
0.0
  0
SPLINE
  5
3BA
100
AcDbEntity
  8
0
100
AcDbSpline
 62
7
420
14742271
  6
CONTINUOUS
 70
0
 71
3
 72
23
 73
19
 74
0
 42
0.0000001
 43
0.0000001
 44
0.0000000001
 40
0.0
 40
0.0
 40
0.0
 40
0.0
 40
0.0328413858
 40
0.0654236603
 40
0.097726963
 40
0.1137760128
 40
0.1297378734
 40
0.1614196123
 40
0.1929218265
 40
0.254666992
 40
0.3149745985
 40
0.5380633314
 40
0.7268946497
 40
0.8058029602
 40
0.8728193928
 40
0.9667319232
 40
0.9915052851
 40
1.0
 40
1.0
 40
1.0
 40
1.0
 10
706.356712721
 20
365.4710456021
 30
0.0
 10
706.1291919898
 20
364.4906131301
 30
0.0
 10
705.6379227376
 20
362.545755446
 30
0.0
 10
705.1247773834
 20
359.5926842765
 30
0.0
 10
704.7869965436
 20
357.135881504
 30
0.0
 10
704.5147707253
 20
355.1830681576
 30
0.0
 10
704.3641676237
 20
353.2364789681
 30
0.0
 10
704.1455265243
 20
350.8199062499
 30
0.0
 10
704.0735018218
 20
346.9903565088
 30
0.0
 10
704.1281982276
 20
342.2809102625
 30
0.0
 10
705.1501555176
 20
331.7463459777
 30
0.0
 10
708.9228977669
 20
317.5739814831
 30
0.0
 10
716.3483799987
 20
304.3395341007
 30
0.0
 10
722.7111018258
 20
296.2756847531
 30
0.0
 10
727.7603851059
 20
290.9248953828
 30
0.0
 10
732.0428667622
 20
287.1547073749
 30
0.0
 10
735.1516663878
 20
284.8034789131
 30
0.0
 10
735.9701681782
 20
284.195561428
 30
0.0
 10
736.179181789
 20
284.0403571459
 30
0.0
  0
SPLINE
  5
3BB
100
AcDbEntity
  8
0
100
AcDbSpline
 62
7
420
14742271
  6
CONTINUOUS
 70
0
 71
3
 72
10
 73
6
 74
0
 42
0.0000001
 43
0.0000001
 44
0.0000000001
 40
0.0
 40
0.0
 40
0.0
 40
0.0
 40
0.1676150194
 40
0.6096863041
 40
1.0
 40
1.0
 40
1.0
 40
1.0
 10
839.755288534
 20
199.9786492676
 30
0.0
 10
839.7698958425
 20
199.9146553446
 30
0.0
 10
839.8064855991
 20
199.6759534515
 30
0.0
 10
839.59139087
 20
199.274897666
 30
0.0
 10
839.2487484142
 20
199.1890333824
 30
0.0
 10
839.0958972581
 20
199.1890333824
 30
0.0
  0
SPLINE
  5
3BC
100
AcDbEntity
  8
0
100
AcDbSpline
 62
7
420
14742271
  6
CONTINUOUS
 70
0
 71
3
 72
9
 73
5
 74
0
 42
0.0000001
 43
0.0000001
 44
0.0000000001
 40
0.0
 40
0.0
 40
0.0
 40
0.0
 40
0.2847949924
 40
1.0
 40
1.0
 40
1.0
 40
1.0
 10
839.0958972581
 20
200.3775913248
 30
0.0
 10
839.1725161955
 20
200.3775913248
 30
0.0
 10
839.4401915661
 20
200.3858524938
 30
0.0
 10
839.7122957333
 20
200.1661975721
 30
0.0
 10
839.755288534
 20
199.9786492676
 30
0.0
  0
SPLINE
  5
3BD
100
AcDbEntity
  8
0
100
AcDbSpline
 62
7
420
14742271
  6
CONTINUOUS
 70
0
 71
3
 72
10
 73
6
 74
0
 42
0.0000001
 43
0.0000001
 44
0.0000000001
 40
0.0
 40
0.0
 40
0.0
 40
0.0
 40
0.2736267657
 40
0.5473271391
 40
1.0
 40
1.0
 40
1.0
 40
1.0
 10
839.6760513378
 20
198.5937208825
 30
0.0
 10
840.0042254731
 20
198.6602469681
 30
0.0
 10
840.6235479114
 20
199.0778010056
 30
0.0
 10
840.9220267591
 20
200.4017668317
 30
0.0
 10
839.970246971
 20
201.1927009166
 30
0.0
 10
839.4162911382
 20
201.1927009166
 30
0.0
  0
SPLINE
  5
3BE
100
AcDbEntity
  8
0
100
AcDbSpline
 62
7
420
14742271
  6
CONTINUOUS
 70
0
 71
3
 72
8
 73
4
 74
0
 42
0.0000001
 43
0.0000001
 44
0.0000000001
 40
0.0
 40
0.0
 40
0.0
 40
0.0
 40
1.0
 40
1.0
 40
1.0
 40
1.0
 10
878.8702136544
 20
203.6063348136
 30
0.0
 10
879.230740855
 20
203.24513997
 30
0.0
 10
879.4558798869
 20
202.7021133772
 30
0.0
 10
879.4558798869
 20
202.1917786073
 30
0.0
  0
SPLINE
  5
3BF
100
AcDbEntity
  8
0
100
AcDbSpline
 62
7
420
14742271
  6
CONTINUOUS
 70
0
 71
3
 72
8
 73
4
 74
0
 42
0.0000001
 43
0.0000001
 44
0.0000000001
 40
0.0
 40
0.0
 40
0.0
 40
0.0
 40
1.0
 40
1.0
 40
1.0
 40
1.0
 10
877.4570354863
 20
204.192001046
 30
0.0
 10
877.9669458783
 20
204.192001046
 30
0.0
 10
878.5096525584
 20
203.9668959095
 30
0.0
 10
878.8702136544
 20
203.6063348136
 30
0.0
  0
SPLINE
  5
3C0
100
AcDbEntity
  8
0
100
AcDbSpline
 62
7
420
14742271
  6
CONTINUOUS
 70
0
 71
3
 72
9
 73
5
 74
0
 42
0.0000001
 43
0.0000001
 44
0.0000000001
 40
0.0
 40
0.0
 40
0.0
 40
0.0
 40
0.5009910783
 40
1.0
 40
1.0
 40
1.0
 40
1.0
 10
541.6245131458
 20
217.4616172903
 30
0.0
 10
540.5686325239
 20
217.3600336482
 30
0.0
 10
538.5266897419
 20
216.4133713914
 30
0.0
 10
537.5706368715
 20
214.3655532125
 30
0.0
 10
537.4698638049
 20
213.3390740689
 30
0.0
  0
SPLINE
  5
3C1
100
AcDbEntity
  8
0
100
AcDbSpline
 62
7
420
14742271
  6
CONTINUOUS
 70
0
 71
3
 72
10
 73
6
 74
0
 42
0.0000001
 43
0.0000001
 44
0.0000000001
 40
0.0
 40
0.0
 40
0.0
 40
0.0
 40
0.1878606604
 40
0.459819081
 40
1.0
 40
1.0
 40
1.0
 40
1.0
 10
547.0075264917
 20
233.5314359629
 30
0.0
 10
546.9542237253
 20
233.9494177082
 30
0.0
 10
546.6959989751
 20
234.9557566187
 30
0.0
 10
545.4976613933
 20
236.8800145304
 30
0.0
 10
543.6831487693
 20
237.7788849656
 30
0.0
 10
542.4838557741
 20
237.8826233249
 30
0.0
  0
SPLINE
  5
3C2
100
AcDbEntity
  8
0
100
AcDbSpline
 62
7
420
14742271
  6
CONTINUOUS
 70
0
 71
3
 72
9
 73
5
 74
0
 42
0.0000001
 43
0.0000001
 44
0.0000000001
 40
0.0
 40
0.0
 40
0.0
 40
0.0
 40
0.4533805275
 40
1.0
 40
1.0
 40
1.0
 40
1.0
 10
541.4511642722
 20
228.3438408107
 30
0.0
 10
540.5250951686
 20
228.4713640017
 30
0.0
 10
538.5412500401
 20
229.3732711389
 30
0.0
 10
537.5608274861
 20
231.3968397471
 30
0.0
 10
537.4650406712
 20
232.5000061388
 30
0.0
  0
SPLINE
  5
3C3
100
AcDbEntity
  8
0
100
AcDbSpline
 62
7
420
14742271
  6
CONTINUOUS
 70
0
 71
3
 72
9
 73
5
 74
0
 42
0.0000001
 43
0.0000001
 44
0.0000000001
 40
0.0
 40
0.0
 40
0.0
 40
0.0
 40
0.5009684759
 40
1.0
 40
1.0
 40
1.0
 40
1.0
 10
602.4902801308
 20
228.3216777507
 30
0.0
 10
603.5460567098
 20
228.4233157297
 30
0.0
 10
605.5878347722
 20
229.3699940278
 30
0.0
 10
606.5438520057
 20
231.4177164484
 30
0.0
 10
606.6446250723
 20
232.4441955919
 30
0.0
  0
SPLINE
  5
3C4
100
AcDbEntity
  8
0
100
AcDbSpline
 62
7
420
14742271
  6
CONTINUOUS
 70
0
 71
3
 72
9
 73
5
 74
0
 42
0.0000001
 43
0.0000001
 44
0.0000000001
 40
0.0
 40
0.0
 40
0.0
 40
0.0
 40
0.5010720346
 40
1.0
 40
1.0
 40
1.0
 40
1.0
 10
597.4867622405
 20
212.4587195109
 30
0.0
 10
597.5884604392
 20
211.4028527503
 30
0.0
 10
598.5356809062
 20
209.361343014
 30
0.0
 10
600.5830237259
 20
208.4048929026
 30
0.0
 10
601.609273511
 20
208.3044115268
 30
0.0
  0
SPLINE
  5
3C5
100
AcDbEntity
  8
0
100
AcDbSpline
 62
7
  6
CONTINUOUS
 70
0
 71
3
 72
9
 73
5
 74
0
 42
0.0000001
 43
0.0000001
 44
0.0000000001
 40
0.0
 40
0.0
 40
0.0
 40
0.0
 40
0.5000220817
 40
1.0
 40
1.0
 40
1.0
 40
1.0
 10
899.4577597647
 20
689.1915099309
 30
0.0
 10
899.4577597647
 20
690.4663688517
 30
0.0
 10
898.3827656107
 20
693.1165142962
 30
0.0
 10
895.7326390085
 20
694.1913770086
 30
0.0
 10
894.457892687
 20
694.1913770086
 30
0.0
  0
SPLINE
  5
3C6
100
AcDbEntity
  8
0
100
AcDbSpline
 62
7
  6
CONTINUOUS
 70
0
 71
3
 72
9
 73
5
 74
0
 42
0.0000001
 43
0.0000001
 44
0.0000000001
 40
0.0
 40
0.0
 40
0.0
 40
0.0
 40
0.4999889593
 40
1.0
 40
1.0
 40
1.0
 40
1.0
 10
314.45711972
 20
694.1913770086
 30
0.0
 10
313.1823336366
 20
694.1913770086
 30
0.0
 10
310.5320905555
 20
693.1166048199
 30
0.0
 10
309.4572526422
 20
690.4663523134
 30
0.0
 10
309.4572526422
 20
689.1915099309
 30
0.0
  0
SPLINE
  5
3C7
100
AcDbEntity
  8
0
100
AcDbSpline
 62
7
  6
CONTINUOUS
 70
0
 71
3
 72
9
 73
5
 74
0
 42
0.0000001
 43
0.0000001
 44
0.0000000001
 40
0.0
 40
0.0
 40
0.0
 40
0.0
 40
0.4999939273
 40
1.0
 40
1.0
 40
1.0
 40
1.0
 10
309.4572526422
 20
179.1912876191
 30
0.0
 10
309.4572526422
 20
177.9165380132
 30
0.0
 10
310.5322152971
 20
175.2664494867
 30
0.0
 10
313.1823391489
 20
174.1917650509
 30
0.0
 10
314.45711972
 20
174.1917650509
 30
0.0
  0
SPLINE
  5
3C8
100
AcDbEntity
  8
0
100
AcDbSpline
 62
7
  6
CONTINUOUS
 70
0
 71
3
 72
9
 73
5
 74
0
 42
0.0000001
 43
0.0000001
 44
0.0000000001
 40
0.0
 40
0.0
 40
0.0
 40
0.0
 40
0.4999950311
 40
1.0
 40
1.0
 40
1.0
 40
1.0
 10
894.457892687
 20
174.1917650509
 30
0.0
 10
895.7326334961
 20
174.1917650509
 30
0.0
 10
898.3826408708
 20
175.2665400112
 30
0.0
 10
899.4577597647
 20
177.9165214736
 30
0.0
 10
899.4577597647
 20
179.1912876191
 30
0.0
  0
ENDSEC
  0
SECTION
  2
OBJECTS
  0
DICTIONARY
  5
C
100
AcDbDictionary
280
0
281
1
  3
ACAD_GROUP
350
D
  3
ACAD_MLINESTYLE
350
17
  3
ACAD_LAYOUT
350
1A
  3
ACAD_PLOTSETTINGS
350
19
  3
ACAD_PLOTSTYLENAME
350
E
  0
DICTIONARY
  5
D
102
{ACAD_REACTORS
330
C
102
}
100
AcDbDictionary
280
0
281
1
  0
ACDBDICTIONARYWDFLT
  5
E
102
{ACAD_REACTORS
330
C
102
}
100
AcDbDictionary
281
1
  3
Normal
350
F
100
AcDbDictionaryWithDefault
340
F
  0
DICTIONARY
  5
17
102
{ACAD_REACTORS
330
C
102
}
100
AcDbDictionary
280
0
281
1
  3
Standard
350
18
  0
DICTIONARY
  5
19
102
{ACAD_REACTORS
330
C
102
}
100
AcDbDictionary
281
1
  0
DICTIONARY
  5
1A
102
{ACAD_REACTORS
330
C
102
}
100
AcDbDictionary
281
1
  3
Model
350
3C9
  3
Layout1
350
3CA
  0
ACDBPLACEHOLDER
  5
F
102
{ACAD_REACTORS
330
E
102
}
  0
MLINESTYLE
  5
18
102
{ACAD_REACTORS
330
17
102
}
100
AcDbMlineStyle
  2
STANDARD
 70
0
  3

 62
256
 51
90.0
 52
90.0
 71
2
 49
0.5
 62
256
  6
BYLAYER
 49
-0.5
 62
256
  6
BYLAYER
  0
LAYOUT
  5
3C9
102
{ACAD_REACTORS
330
1A
102
}
100
AcDbPlotSettings
  1

  2
none_device
  4
ISO_A0_(1189.00_x_841.00_MM)
  6

 40
0.0
 41
0.0
 42
0.0
 43
0.0
 44
1189.0
 45
841.0
 46
0.0
 47
0.0
 48
0.0
 49
0.0
140
0.0
141
0.0
142
1.0
143
1.0
 70
1024
 72
1
 73
0
 74
0
  7

 75
0
147
1.0
148
0.0
149
0.0
100
AcDbLayout
  1
Model
 70
0
 71
0
 10
0.0
 20
0.0
 11
1189.0
 21
841.0
 12
0.0
 22
0.0
 32
0.0
 14
0.0
 24
0.0
 34
0.0
 15
0.0
 25
0.0
 35
0.0
146
0.0
 13
0.0
 23
0.0
 33
0.0
 16
1.0
 26
0.0
 36
0.0
 17
0.0
 27
1.0
 37
0.0
 76
0
330
207
345
0
346
0
  0
LAYOUT
  5
3CA
102
{ACAD_REACTORS
330
1A
102
}
100
AcDbPlotSettings
  1

  2
none_device
  4
ISO_A0_(1189.00_x_841.00_MM)
  6

 40
0.0
 41
0.0
 42
0.0
 43
0.0
 44
1189.0
 45
841.0
 46
0.0
 47
0.0
 48
0.0
 49
0.0
140
0.0
141
0.0
142
1.0
143
1.0
 70
0
 72
1
 73
0
 74
0
  7

 75
0
147
1.0
148
0.0
149
0.0
100
AcDbLayout
  1
Layout1
 70
0
 71
1
 10
0.0
 20
0.0
 11
1189.0
 21
841.0
 12
0.0
 22
0.0
 32
0.0
 14
0.0
 24
0.0
 34
0.0
 15
0.0
 25
0.0
 35
0.0
146
0.0
 13
0.0
 23
0.0
 33
0.0
 16
1.0
 26
0.0
 36
0.0
 17
0.0
 27
1.0
 37
0.0
 76
0
330
208
345
0
346
0
  0
ENDSEC
  0
EOF
