999
DXF file: W:\Engenharia\Montagens\Cooktops\Eletrico_2E\Versao_atual\2ex.dxf
999
Pro/ENGINEER 2013050 by Parametric Technology Corporation
  0
SECTION
  2
HEADER
  9
$ACADVER
  1
AC1021
  9
$DWGCODEPAGE
  3
ANSI_1252
  9
$EXTMAX
 10
841.0
 20
594.0
 30
0.0
  9
$EXTMIN
 10
0.0
 20
0.0
 30
0.0
  9
$LIMMIN
 10
0.0
 20
0.0
  9
$LIMMAX
 10
841.0
 20
594.0
  9
$VIEWCTR
 10
420.5
 20
297.0
  9
$VIEWSIZE
 40
594.0
  9
$CLAYER
  8
0
  9
$LTSCALE
 40
46.255
  9
$CELTYPE
  6
BYLAYER
  9
$DIMSCALE
 40
1.0
  9
$DIMASZ
 40
3.0
  9
$DIMEXO
 40
0.5
  9
$DIMDLI
 40
31.958
  9
$DIMEXE
 40
0.5
  9
$DIMCEN
 40
7.569
  9
$DIMLFAC
 40
1.0
  9
$DIMBLK
  1
_FILLED
  9
$DIMTXT
 40
1.8
  9
$DIMTOL
 70
1
  9
$DIMLIM
 70
0
  9
$DIMTFAC
 40
1.0
  9
$DIMTP
 40
0.001
  9
$DIMTM
 40
0.001
  9
$DIMGAP
 40
0.625
  9
$DIMDSEP
 70
46
  9
$PDMODE
 70
3
  9
$PDSIZE
 40
1.0
  9
$HANDSEED
  5
401
  9
$TILEMODE
 70
1
  9
$MEASUREMENT
 70
1
  9
$INSUNITS
 70
4
  0
ENDSEC
  0
SECTION
  2
CLASSES
  0
CLASS
  1
ACDBDICTIONARYWDFLT
  2
AcDbDictionaryWithDefault
  3
AutoCAD 2000
 90
0
 91
1
280
0
281
0
  0
CLASS
  1
ACDBPLACEHOLDER
  2
AcDbPlaceHolder
  3
AutoCAD 2000
 90
0
 91
1
280
0
281
0
  0
CLASS
  1
LAYOUT
  2
AcDbLayout
  3
AutoCAD 2000
 90
0
 91
0
280
0
281
0
  0
ENDSEC
  0
SECTION
  2
TABLES
  0
TABLE
  2
VPORT
  5
8
100
AcDbSymbolTable
 70
2
  0
VPORT
  5
1F4
100
AcDbSymbolTableRecord
100
AcDbViewportTableRecord
  2
*ACTIVE
 70
0
 10
0.0
 20
0.0
 11
1.0
 21
1.0
 12
420.5
 22
297.0
 13
0.0
 23
0.0
 14
1.0
 24
1.0
 15
0.0
 25
0.0
 16
0.0
 26
0.0
 36
1.0
 17
0.0
 27
0.0
 37
0.0
 40
594.0
 41
1.4158249158
 42
50.0
 43
0.0
 44
0.0
 50
0.0
 51
0.0
 71
0
 72
100
 73
1
 74
1
 75
0
 76
0
 77
0
 78
0
  0
ENDTAB
  0
TABLE
  2
LTYPE
  5
5
100
AcDbSymbolTable
 70
6
  0
LTYPE
  5
14
100
AcDbSymbolTableRecord
100
AcDbLinetypeTableRecord
  2
BYBLOCK
 70
0
  3

 72
65
 73
0
 40
0.0
  0
LTYPE
  5
15
100
AcDbSymbolTableRecord
100
AcDbLinetypeTableRecord
  2
BYLAYER
 70
0
  3

 72
65
 73
0
 40
0.0
  0
LTYPE
  5
16
100
AcDbSymbolTableRecord
100
AcDbLinetypeTableRecord
  2
CONTINUOUS
 70
64
  3
Solid line
 72
65
 73
0
 40
0.0
  0
LTYPE
  5
1F5
100
AcDbSymbolTableRecord
100
AcDbLinetypeTableRecord
  2
CENTER
 70
64
  3
____ _ ____ _ ____ _ ____ _ ____ _ ____ _ ____
 72
65
 73
4
 40
0.6
 49
0.375
 74
0
 49
-0.075
 74
0
 49
0.075
 74
0
 49
-0.075
 74
0
  0
LTYPE
  5
1F6
100
AcDbSymbolTableRecord
100
AcDbLinetypeTableRecord
  2
HIDDEN
 70
64
  3
- - - - - - - - - - - - - - - - - - - -
 72
65
 73
2
 40
0.2
 49
0.1
 74
0
 49
-0.1
 74
0
  0
LTYPE
  5
1F7
100
AcDbSymbolTableRecord
100
AcDbLinetypeTableRecord
  2
PHANTOM
 70
64
  3
_____ _ _ _____ _ _ _____ _ _ _____
 72
65
 73
6
 40
0.8
 49
0.45
 74
0
 49
-0.05
 74
0
 49
0.1
 74
0
 49
-0.05
 74
0
 49
0.1
 74
0
 49
-0.05
 74
0
  0
LTYPE
  5
1F8
100
AcDbSymbolTableRecord
100
AcDbLinetypeTableRecord
  2
DOT
 70
64
  3
. . . . . . . . . . . . . . . . . . . .
 72
65
 73
2
 40
0.2
 49
0.1
 74
0
 49
-0.1
 74
0
  0
LTYPE
  5
1F9
100
AcDbSymbolTableRecord
100
AcDbLinetypeTableRecord
  2
DASHED
 70
64
  3
- - - - - - - - - - - - - - - - - - - -
 72
65
 73
2
 40
0.2
 49
0.1
 74
0
 49
-0.1
 74
0
  0
ENDTAB
  0
TABLE
  2
LAYER
  5
2
100
AcDbSymbolTable
 70
36
  0
LAYER
  5
10
100
AcDbSymbolTableRecord
100
AcDbLayerTableRecord
  2
0
 70
0
 62
7
  6
CONTINUOUS
370
-3
390
F
  0
LAYER
  5
1FA
100
AcDbSymbolTableRecord
100
AcDbLayerTableRecord
  2
DEFAULT_1
 70
0
 62
7
  6
CENTER
370
-3
390
F
  0
LAYER
  5
1FB
100
AcDbSymbolTableRecord
100
AcDbLayerTableRecord
  2
DEFAULT_2
 70
0
 62
8
  6
HIDDEN
370
-3
390
F
  0
LAYER
  5
1FC
100
AcDbSymbolTableRecord
100
AcDbLayerTableRecord
  2
DEFAULT_3
 70
0
 62
7
  6
PHANTOM
370
-3
390
F
  0
LAYER
  5
1FD
100
AcDbSymbolTableRecord
100
AcDbLayerTableRecord
  2
01_ALL_DTM_PLN
 70
0
 62
7
  6
CONTINUOUS
370
-3
390
F
  0
LAYER
  5
1FE
100
AcDbSymbolTableRecord
100
AcDbLayerTableRecord
  2
01__ASM_ALL_DTM_PLN
 70
0
 62
7
  6
CONTINUOUS
370
-3
390
F
  0
LAYER
  5
1FF
100
AcDbSymbolTableRecord
100
AcDbLayerTableRecord
  2
01__ASM_DEF_DTM_PLN
 70
0
 62
7
  6
CONTINUOUS
370
-3
390
F
  0
LAYER
  5
200
100
AcDbSymbolTableRecord
100
AcDbLayerTableRecord
  2
01___PRT_ALL_DTM_PLN
 70
0
 62
7
  6
CONTINUOUS
370
-3
390
F
  0
LAYER
  5
201
100
AcDbSymbolTableRecord
100
AcDbLayerTableRecord
  2
01___PRT_DEF_DTM_PLN
 70
0
 62
7
  6
CONTINUOUS
370
-3
390
F
  0
LAYER
  5
202
100
AcDbSymbolTableRecord
100
AcDbLayerTableRecord
  2
02_ALL_AXES
 70
0
 62
7
  6
CONTINUOUS
370
-3
390
F
  0
LAYER
  5
203
100
AcDbSymbolTableRecord
100
AcDbLayerTableRecord
  2
02__ASM_ALL_AXES
 70
0
 62
7
  6
CONTINUOUS
370
-3
390
F
  0
LAYER
  5
204
100
AcDbSymbolTableRecord
100
AcDbLayerTableRecord
  2
02___PRT_ALL_AXES
 70
0
 62
7
  6
CONTINUOUS
370
-3
390
F
  0
LAYER
  5
205
100
AcDbSymbolTableRecord
100
AcDbLayerTableRecord
  2
03_ALL_CURVES
 70
0
 62
7
  6
CONTINUOUS
370
-3
390
F
  0
LAYER
  5
206
100
AcDbSymbolTableRecord
100
AcDbLayerTableRecord
  2
03__ASM_ALL_CURVES
 70
0
 62
7
  6
CONTINUOUS
370
-3
390
F
  0
LAYER
  5
207
100
AcDbSymbolTableRecord
100
AcDbLayerTableRecord
  2
03___PRT_ALL_CURVES
 70
0
 62
7
  6
CONTINUOUS
370
-3
390
F
  0
LAYER
  5
208
100
AcDbSymbolTableRecord
100
AcDbLayerTableRecord
  2
04_ALL_DTM_PNT
 70
0
 62
7
  6
CONTINUOUS
370
-3
390
F
  0
LAYER
  5
209
100
AcDbSymbolTableRecord
100
AcDbLayerTableRecord
  2
04__ASM_ALL_DTM_PNT
 70
0
 62
7
  6
CONTINUOUS
370
-3
390
F
  0
LAYER
  5
20A
100
AcDbSymbolTableRecord
100
AcDbLayerTableRecord
  2
04___PRT_ALL_DTM_PNT
 70
0
 62
7
  6
CONTINUOUS
370
-3
390
F
  0
LAYER
  5
20B
100
AcDbSymbolTableRecord
100
AcDbLayerTableRecord
  2
05_ALL_DTM_CSYS
 70
0
 62
7
  6
CONTINUOUS
370
-3
390
F
  0
LAYER
  5
20C
100
AcDbSymbolTableRecord
100
AcDbLayerTableRecord
  2
05__ASM_ALL_DTM_CSYS
 70
0
 62
7
  6
CONTINUOUS
370
-3
390
F
  0
LAYER
  5
20D
100
AcDbSymbolTableRecord
100
AcDbLayerTableRecord
  2
05__ASM_DEF_DTM_CSYS
 70
0
 62
7
  6
CONTINUOUS
370
-3
390
F
  0
LAYER
  5
20E
100
AcDbSymbolTableRecord
100
AcDbLayerTableRecord
  2
05___PRT_ALL_DTM_CSYS
 70
0
 62
7
  6
CONTINUOUS
370
-3
390
F
  0
LAYER
  5
20F
100
AcDbSymbolTableRecord
100
AcDbLayerTableRecord
  2
05___PRT_DEF_DTM_CSYS
 70
0
 62
7
  6
CONTINUOUS
370
-3
390
F
  0
LAYER
  5
210
100
AcDbSymbolTableRecord
100
AcDbLayerTableRecord
  2
06_ALL_SURFS
 70
0
 62
7
  6
CONTINUOUS
370
-3
390
F
  0
LAYER
  5
211
100
AcDbSymbolTableRecord
100
AcDbLayerTableRecord
  2
06__ASM_ALL_SURFS
 70
0
 62
7
  6
CONTINUOUS
370
-3
390
F
  0
LAYER
  5
212
100
AcDbSymbolTableRecord
100
AcDbLayerTableRecord
  2
06___PRT_ALL_SURFS
 70
0
 62
7
  6
CONTINUOUS
370
-3
390
F
  0
LAYER
  5
213
100
AcDbSymbolTableRecord
100
AcDbLayerTableRecord
  2
07__ASM_ALL_SKELETONS
 70
0
 62
7
  6
CONTINUOUS
370
-3
390
F
  0
ENDTAB
  0
TABLE
  2
STYLE
  5
3
100
AcDbSymbolTable
 70
1
  0
STYLE
  5
11
100
AcDbSymbolTableRecord
100
AcDbTextStyleTableRecord
  2
STANDARD
 70
0
 40
0.0
 41
0.8
 50
0.0
 71
0
 42
0.2
  3
txt
  4

  0
STYLE
  5
214
100
AcDbSymbolTableRecord
100
AcDbTextStyleTableRecord
  2
TEXTSTYLE_1
 70
0
 40
0.0
 41
0.8
 50
0.0
 71
0
 42
0.2
  3
gdt
  4

  0
ENDTAB
  0
TABLE
  2
VIEW
  5
6
100
AcDbSymbolTable
 70
0
  0
ENDTAB
  0
TABLE
  2
UCS
  5
7
100
AcDbSymbolTable
 70
0
  0
ENDTAB
  0
TABLE
  2
APPID
  5
9
100
AcDbSymbolTable
 70
1
  0
APPID
  5
215
100
AcDbSymbolTableRecord
100
AcDbRegAppTableRecord
  2
ACAD
 70
0
  0
ENDTAB
  0
TABLE
  2
BLOCK_RECORD
  5
1
100
AcDbSymbolTable
 70
0
  0
BLOCK_RECORD
  5
216
100
AcDbSymbolTableRecord
100
AcDbBlockTableRecord
  2
*Model_Space
  0
BLOCK_RECORD
  5
217
100
AcDbSymbolTableRecord
100
AcDbBlockTableRecord
  2
*Paper_Space
  0
BLOCK_RECORD
  5
218
100
AcDbSymbolTableRecord
100
AcDbBlockTableRecord
  2
_FILLED
  0
BLOCK_RECORD
  5
219
100
AcDbSymbolTableRecord
100
AcDbBlockTableRecord
  2
*D0
  0
BLOCK_RECORD
  5
21A
100
AcDbSymbolTableRecord
100
AcDbBlockTableRecord
  2
*D1
  0
ENDTAB
  0
TABLE
  2
DIMSTYLE
  5
A
100
AcDbSymbolTable
 70
1
100
AcDbDimStyleTable
 71
0
  0
DIMSTYLE
105
21B
100
AcDbSymbolTableRecord
100
AcDbDimStyleTableRecord
  2
STANDARD
 70
0
  3

  4

 40
1.0
 41
3.0
 42
0.5
 43
0.38
 44
0.5
 45
0.0
 46
0.0
 47
0.001
 48
0.001
140
1.8
141
0.09
142
0.0
143
25.4
144
1.0
145
0.0
146
1.0
147
0.625
 71
1.0
 72
0.0
 73
0
 74
0
 75
0
 76
0
 77
1
 78
8
170
0
171
2
172
0
173
0
174
0
175
0
176
0
177
0
178
0
270
2
271
3
272
3
273
2
274
2
275
0
280
0
281
0
282
0
283
1
284
8
285
0
286
0
287
3
288
0
340
11
278
46
341
218
342
218
343
218
344
218
  0
DIMSTYLE
105
21C
100
AcDbSymbolTableRecord
100
AcDbDimStyleTableRecord
  2
DIMSTYLE_1
 70
0
  3

  4

 40
1.0
 41
3.0
 42
0.5
 43
0.38
 44
0.5
 45
0.0
 46
0.0
 47
0.5
 48
0.5
140
7.0
141
0.09
142
0.0
143
25.4
144
1.0
145
0.0
146
1.0
147
1.75
 71
0.0
 72
0.0
 73
0
 74
0
 75
0
 76
0
 77
1
 78
8
170
0
171
2
172
0
173
0
174
0
175
0
176
0
177
0
178
0
270
2
271
3
272
3
273
2
274
2
275
0
280
0
281
0
282
0
283
1
284
8
285
0
286
0
287
3
288
0
340
11
278
46
341
218
342
218
343
218
344
218
  0
DIMSTYLE
105
21D
100
AcDbSymbolTableRecord
100
AcDbDimStyleTableRecord
  2
DIMSTYLE_2
 70
0
  3

  4

 40
1.0
 41
3.0
 42
0.5
 43
0.38
 44
0.5
 45
0.0
 46
0.0
 47
0.8
 48
0.8
140
7.0
141
0.09
142
0.0
143
25.4
144
1.0
145
0.0
146
1.0
147
1.75
 71
0.0
 72
0.0
 73
0
 74
0
 75
0
 76
0
 77
1
 78
8
170
0
171
2
172
0
173
0
174
0
175
0
176
0
177
0
178
0
270
2
271
3
272
3
273
2
274
2
275
0
280
0
281
0
282
0
283
1
284
8
285
0
286
0
287
3
288
0
340
11
278
46
341
218
342
218
343
218
344
218
  0
ENDTAB
  0
ENDSEC
  0
SECTION
  2
BLOCKS
  0
BLOCK
  5
20
100
AcDbEntity
  8
0
100
AcDbBlockBegin
  2
*Model_Space
 70
0
 10
0.0
 20
0.0
 30
0.0
  3
*Model_Space
  1

  0
ENDBLK
  5
21
100
AcDbEntity
  8
0
100
AcDbBlockEnd
  0
BLOCK
  5
1C
100
AcDbEntity
  8
0
100
AcDbBlockBegin
  2
*Paper_Space
 70
0
 10
0.0
 20
0.0
 30
0.0
  3
*Paper_Space
  1

  0
ENDBLK
  5
1D
100
AcDbEntity
  8
0
100
AcDbBlockEnd
  0
BLOCK
  5
21E
100
AcDbEntity
  8
0
100
AcDbBlockBegin
  2
_FILLED
 70
64
 10
0.0
 20
0.0
  3
_FILLED
  1

  0
SOLID
  5
21F
100
AcDbEntity
  8
0
  6
BYBLOCK
 62
0
100
AcDbTrace
 10
0.0
 20
0.0
 11
-1.0
 21
0.1666666667
 12
-1.0
 22
-0.1666666667
 13
-1.0
 23
-0.1666666667
  0
ENDBLK
  5
220
100
AcDbEntity
  8
0
  6
BYBLOCK
 62
0
100
AcDbBlockEnd
  0
BLOCK
  5
221
100
AcDbEntity
  8
0
100
AcDbBlockBegin
 62
2
  6
CONTINUOUS
  2
*D0
 70
65
 10
0.0
 20
0.0
  3
*D0
  1

  0
MTEXT
  5
222
100
AcDbEntity
  8
0
100
AcDbMText
 62
2
  6
CONTINUOUS
  7
STANDARD
 71
2
 72
1
 10
403.043238863
 20
578.3528038776
 30
0.0
 11
1.0
 21
0.0
 31
0.0
 44
0.9
  1
300
 40
7.0
 41
32.4
  0
LINE
  5
223
100
AcDbEntity
  8
0
100
AcDbLine
 62
2
  6
CONTINUOUS
 10
549.043238863
 20
540.7936087101
 11
549.043238863
 21
568.8528038776
  0
LINE
  5
224
100
AcDbEntity
  8
0
100
AcDbLine
 62
2
  6
CONTINUOUS
 10
257.043238863
 20
540.7936087101
 11
257.043238863
 21
568.8528038776
  0
LINE
  5
225
100
AcDbEntity
  8
0
100
AcDbLine
 62
2
  6
CONTINUOUS
 10
549.043238863
 20
568.3528038776
 11
403.043238863
 21
568.3528038776
  0
LINE
  5
226
100
AcDbEntity
  8
0
100
AcDbLine
 62
2
  6
CONTINUOUS
 10
257.043238863
 20
568.3528038776
 11
403.043238863
 21
568.3528038776
  0
INSERT
  5
227
100
AcDbEntity
  8
0
100
AcDbBlockReference
 62
2
  6
CONTINUOUS
  2
_FILLED
 10
549.043238863
 20
568.3528038776
 41
3.0
 42
3.0
 43
3.0
  0
INSERT
  5
228
100
AcDbEntity
  8
0
100
AcDbBlockReference
 62
2
  6
CONTINUOUS
  2
_FILLED
 10
257.043238863
 20
568.3528038776
 41
3.0
 42
3.0
 43
3.0
 50
180.0
  0
ENDBLK
  5
229
100
AcDbEntity
  8
0
  6
BYBLOCK
 62
0
100
AcDbBlockEnd
  0
BLOCK
  5
22A
100
AcDbEntity
  8
0
100
AcDbBlockBegin
 62
2
  6
CONTINUOUS
  2
*D1
 70
65
 10
0.0
 20
0.0
  3
*D1
  1

  0
MTEXT
  5
22B
100
AcDbEntity
  8
0
100
AcDbMText
 62
2
  6
CONTINUOUS
  7
STANDARD
 71
2
 72
1
 10
575.5729877481
 20
299.7936087101
 30
0.0
 11
0.0
 21
1.0
 31
0.0
 44
0.9
  1
500
 40
7.0
 41
32.4
  0
LINE
  5
22C
100
AcDbEntity
  8
0
100
AcDbLine
 62
2
  6
CONTINUOUS
 10
541.043238863
 20
50.7936087101
 11
586.0729877481
 21
50.7936087101
  0
LINE
  5
22D
100
AcDbEntity
  8
0
100
AcDbLine
 62
2
  6
CONTINUOUS
 10
541.043238863
 20
548.7936087101
 11
586.0729877481
 21
548.7936087101
  0
LINE
  5
22E
100
AcDbEntity
  8
0
100
AcDbLine
 62
2
  6
CONTINUOUS
 10
585.5729877481
 20
50.7936087101
 11
585.5729877481
 21
299.7936087101
  0
LINE
  5
22F
100
AcDbEntity
  8
0
100
AcDbLine
 62
2
  6
CONTINUOUS
 10
585.5729877481
 20
548.7936087101
 11
585.5729877481
 21
299.7936087101
  0
INSERT
  5
230
100
AcDbEntity
  8
0
100
AcDbBlockReference
 62
2
  6
CONTINUOUS
  2
_FILLED
 10
585.5729877481
 20
50.7936087101
 41
3.0
 42
3.0
 43
3.0
 50
270.0
  0
INSERT
  5
231
100
AcDbEntity
  8
0
100
AcDbBlockReference
 62
2
  6
CONTINUOUS
  2
_FILLED
 10
585.5729877481
 20
548.7936087101
 41
3.0
 42
3.0
 43
3.0
 50
90.0
  0
ENDBLK
  5
232
100
AcDbEntity
  8
0
  6
BYBLOCK
 62
0
100
AcDbBlockEnd
  0
ENDSEC
  0
SECTION
  2
ENTITIES
  0
DIMENSION
  5
233
100
AcDbEntity
  8
0
100
AcDbDimension
 62
2
  6
CONTINUOUS
  2
*D0
 10
257.043238863
 20
568.3528038776
 11
403.043238863
 21
568.3528038776
 70
160
 71
2
 42
292.0
  3
DIMSTYLE_1
100
AcDbAlignedDimension
 13
549.043238863
 23
540.2936087101
 14
257.043238863
 24
540.2936087101
 50
180.0
100
AcDbRotatedDimension
  0
DIMENSION
  5
234
100
AcDbEntity
  8
0
100
AcDbDimension
 62
2
  6
CONTINUOUS
  2
*D1
 10
585.5729877481
 20
548.7936087101
 11
585.5729877481
 21
299.7936087101
 70
160
 71
2
 42
498.0
  3
DIMSTYLE_2
100
AcDbAlignedDimension
 13
540.543238863
 23
50.7936087101
 14
540.543238863
 24
548.7936087101
 50
90.0
100
AcDbRotatedDimension
  0
LINE
  5
235
100
AcDbEntity
  8
0
100
AcDbLine
 62
7
  6
CONTINUOUS
 10
265.543238863
 20
50.7936087101
 11
540.543238863
 21
50.7936087101
  0
LINE
  5
236
100
AcDbEntity
  8
0
100
AcDbLine
 62
7
  6
CONTINUOUS
 10
265.543238863
 20
50.8276828838
 11
540.543238863
 21
50.8276828838
  0
LINE
  5
237
100
AcDbEntity
  8
0
100
AcDbLine
 62
7
  6
CONTINUOUS
 10
540.543238863
 20
53.1641523006
 11
265.543238863
 21
53.1641523006
  0
LINE
  5
238
100
AcDbEntity
  8
0
100
AcDbLine
 62
7
  6
CONTINUOUS
 10
360.39441089
 20
68.7995519637
 11
360.4755715026
 21
68.7883500655
  0
LINE
  5
239
100
AcDbEntity
  8
0
100
AcDbLine
 62
7
  6
CONTINUOUS
 10
360.2996996637
 20
68.813662633
 11
360.39441089
 21
68.7995519637
  0
LINE
  5
23A
100
AcDbEntity
  8
0
100
AcDbLine
 62
7
  6
CONTINUOUS
 10
360.2056561201
 20
68.828793745
 11
360.2996996637
 21
68.813662633
  0
LINE
  5
23B
100
AcDbEntity
  8
0
100
AcDbLine
 62
7
  6
CONTINUOUS
 10
360.1128404883
 20
68.8448402447
 11
360.2056561201
 21
68.828793745
  0
LINE
  5
23C
100
AcDbEntity
  8
0
100
AcDbLine
 62
7
  6
CONTINUOUS
 10
360.0216819944
 20
68.8617007479
 11
360.1128404883
 21
68.8448402447
  0
LINE
  5
23D
100
AcDbEntity
  8
0
100
AcDbLine
 62
7
  6
CONTINUOUS
 10
359.9326159808
 20
68.8792585144
 11
360.0216819944
 21
68.8617007479
  0
LINE
  5
23E
100
AcDbEntity
  8
0
100
AcDbLine
 62
7
  6
CONTINUOUS
 10
359.8460390281
 20
68.8973882726
 11
359.9326159808
 21
68.8792585144
  0
LINE
  5
23F
100
AcDbEntity
  8
0
100
AcDbLine
 62
7
  6
CONTINUOUS
 10
359.7622935357
 20
68.9159634058
 11
359.8460390281
 21
68.8973882726
  0
LINE
  5
240
100
AcDbEntity
  8
0
100
AcDbLine
 62
7
  6
CONTINUOUS
 10
359.6817441414
 20
68.9348389817
 11
359.7622935357
 21
68.9159634058
  0
LINE
  5
241
100
AcDbEntity
  8
0
100
AcDbLine
 62
7
  6
CONTINUOUS
 10
359.6044589015
 20
68.9539307944
 11
359.6817441414
 21
68.9348389817
  0
LINE
  5
242
100
AcDbEntity
  8
0
100
AcDbLine
 62
7
  6
CONTINUOUS
 10
359.5305727512
 20
68.973136824
 11
359.6044589015
 21
68.9539307944
  0
LINE
  5
243
100
AcDbEntity
  8
0
100
AcDbLine
 62
7
  6
CONTINUOUS
 10
359.4600273632
 20
68.9924040257
 11
359.5305727512
 21
68.973136824
  0
LINE
  5
244
100
AcDbEntity
  8
0
100
AcDbLine
 62
7
  6
CONTINUOUS
 10
359.3927905647
 20
69.0116772998
 11
359.4600273632
 21
68.9924040257
  0
LINE
  5
245
100
AcDbEntity
  8
0
100
AcDbLine
 62
7
  6
CONTINUOUS
 10
359.3287563041
 20
69.0309264013
 11
359.3927905647
 21
69.0116772998
  0
LINE
  5
246
100
AcDbEntity
  8
0
100
AcDbLine
 62
7
  6
CONTINUOUS
 10
359.2678243942
 20
69.0501264892
 11
359.3287563041
 21
69.0309264013
  0
LINE
  5
247
100
AcDbEntity
  8
0
100
AcDbLine
 62
7
  6
CONTINUOUS
 10
359.2098163253
 20
69.0692842069
 11
359.2678243942
 21
69.0501264892
  0
LINE
  5
248
100
AcDbEntity
  8
0
100
AcDbLine
 62
7
  6
CONTINUOUS
 10
359.1545705004
 20
69.0884113236
 11
359.2098163253
 21
69.0692842069
  0
LINE
  5
249
100
AcDbEntity
  8
0
100
AcDbLine
 62
7
  6
CONTINUOUS
 10
359.1018454352
 20
69.1075581575
 11
359.1545705004
 21
69.0884113236
  0
LINE
  5
24A
100
AcDbEntity
  8
0
100
AcDbLine
 62
7
  6
CONTINUOUS
 10
359.0514016227
 20
69.1267903502
 11
359.1018454352
 21
69.1075581575
  0
LINE
  5
24B
100
AcDbEntity
  8
0
100
AcDbLine
 62
7
  6
CONTINUOUS
 10
359.003016617
 20
69.1461829916
 11
359.0514016227
 21
69.1267903502
  0
LINE
  5
24C
100
AcDbEntity
  8
0
100
AcDbLine
 62
7
  6
CONTINUOUS
 10
358.9563723162
 20
69.1658698359
 11
359.003016617
 21
69.1461829916
  0
LINE
  5
24D
100
AcDbEntity
  8
0
100
AcDbLine
 62
7
  6
CONTINUOUS
 10
356.1033019306
 20
71.6732249589
 11
357.0929704179
 21
71.2551513401
  0
LINE
  5
24E
100
AcDbEntity
  8
0
100
AcDbLine
 62
7
  6
CONTINUOUS
 10
357.0929704179
 20
71.2551513401
 11
357.22169856
 21
71.2001016085
  0
LINE
  5
24F
100
AcDbEntity
  8
0
100
AcDbLine
 62
7
  6
CONTINUOUS
 10
355.9018855636
 20
71.7595931488
 11
356.1033019306
 21
71.6732249589
  0
LINE
  5
250
100
AcDbEntity
  8
0
100
AcDbLine
 62
7
  6
CONTINUOUS
 10
357.22169856
 20
71.2001016085
 11
357.3398631883
 21
71.1489289711
  0
LINE
  5
251
100
AcDbEntity
  8
0
100
AcDbLine
 62
7
  6
CONTINUOUS
 10
355.6900849003
 20
71.8514293194
 11
355.9018855636
 21
71.7595931488
  0
LINE
  5
252
100
AcDbEntity
  8
0
100
AcDbLine
 62
7
  6
CONTINUOUS
 10
355.468031499
 20
71.9490019943
 11
355.6900849003
 21
71.8514293194
  0
LINE
  5
253
100
AcDbEntity
  8
0
100
AcDbLine
 62
7
  6
CONTINUOUS
 10
357.3398631883
 20
71.1489289711
 11
357.4473339576
 21
71.1016113907
  0
LINE
  5
254
100
AcDbEntity
  8
0
100
AcDbLine
 62
7
  6
CONTINUOUS
 10
355.3532202601
 20
72.0000199845
 11
355.468031499
 21
71.9490019943
  0
LINE
  5
255
100
AcDbEntity
  8
0
100
AcDbLine
 62
7
  6
CONTINUOUS
 10
358.9114450009
 20
69.1858783356
 11
358.9563723162
 21
69.1658698359
  0
LINE
  5
256
100
AcDbEntity
  8
0
100
AcDbLine
 62
7
  6
CONTINUOUS
 10
355.2359320482
 20
72.0525675901
 11
355.3532202601
 21
72.0000199845
  0
LINE
  5
257
100
AcDbEntity
  8
0
100
AcDbLine
 62
7
  6
CONTINUOUS
 10
357.4473339576
 20
71.1016113907
 11
357.5440520343
 21
71.0581371985
  0
LINE
  5
258
100
AcDbEntity
  8
0
100
AcDbLine
 62
7
  6
CONTINUOUS
 10
355.116208971
 20
72.1066709816
 11
355.2359320482
 21
72.0525675901
  0
LINE
  5
259
100
AcDbEntity
  8
0
100
AcDbLine
 62
7
  6
CONTINUOUS
 10
354.9941041229
 20
72.1623535283
 11
355.116208971
 21
72.1066709816
  0
LINE
  5
25A
100
AcDbEntity
  8
0
100
AcDbLine
 62
7
  6
CONTINUOUS
 10
357.5440520343
 20
71.0581371985
 11
357.5883682295
 21
71.0378462044
  0
LINE
  5
25B
100
AcDbEntity
  8
0
100
AcDbLine
 62
7
  6
CONTINUOUS
 10
354.8696724843
 20
72.2196405881
 11
354.9941041229
 21
72.1623535283
  0
LINE
  5
25C
100
AcDbEntity
  8
0
100
AcDbLine
 62
7
  6
CONTINUOUS
 10
357.5883682295
 20
71.0378462044
 11
357.6299960908
 21
71.0185222688
  0
LINE
  5
25D
100
AcDbEntity
  8
0
100
AcDbLine
 62
7
  6
CONTINUOUS
 10
354.742970892
 20
72.2785535028
 11
354.8696724843
 21
72.2196405881
  0
LINE
  5
25E
100
AcDbEntity
  8
0
100
AcDbLine
 62
7
  6
CONTINUOUS
 10
354.6140626679
 20
72.3391136216
 11
354.742970892
 21
72.2785535028
  0
LINE
  5
25F
100
AcDbEntity
  8
0
100
AcDbLine
 62
7
  6
CONTINUOUS
 10
358.8680731351
 20
69.2063038157
 11
358.9114450009
 21
69.1858783356
  0
LINE
  5
260
100
AcDbEntity
  8
0
100
AcDbLine
 62
7
  6
CONTINUOUS
 10
357.6299960908
 20
71.0185222688
 11
357.6689146308
 21
71.0001836103
  0
LINE
  5
261
100
AcDbEntity
  8
0
100
AcDbLine
 62
7
  6
CONTINUOUS
 10
354.4829905805
 20
72.4013510146
 11
354.6140626679
 21
72.3391136216
  0
LINE
  5
262
100
AcDbEntity
  8
0
100
AcDbLine
 62
7
  6
CONTINUOUS
 10
357.6689146308
 20
71.0001836103
 11
357.7051257585
 21
70.9828420969
  0
LINE
  5
263
100
AcDbEntity
  8
0
100
AcDbLine
 62
7
  6
CONTINUOUS
 10
354.3703587684
 20
72.4553769517
 11
354.4829905805
 21
72.4013510146
  0
LINE
  5
264
100
AcDbEntity
  8
0
100
AcDbLine
 62
7
  6
CONTINUOUS
 10
358.8261547208
 20
69.227226996
 11
358.8680731351
 21
69.2063038157
  0
LINE
  5
265
100
AcDbEntity
  8
0
100
AcDbLine
 62
7
  6
CONTINUOUS
 10
446.5538346855
 20
68.9725854199
 11
446.6243801452
 21
68.991825053
  0
LINE
  5
266
100
AcDbEntity
  8
0
100
AcDbLine
 62
7
  6
CONTINUOUS
 10
366.5538346855
 20
68.9725854199
 11
366.6243801452
 21
68.991825053
  0
LINE
  5
267
100
AcDbEntity
  8
0
100
AcDbLine
 62
7
  6
CONTINUOUS
 10
446.479955131
 20
68.9534080279
 11
446.5538346855
 21
68.9725854199
  0
LINE
  5
268
100
AcDbEntity
  8
0
100
AcDbLine
 62
7
  6
CONTINUOUS
 10
366.479955131
 20
68.9534080279
 11
366.5538346855
 21
68.9725854199
  0
LINE
  5
269
100
AcDbEntity
  8
0
100
AcDbLine
 62
7
  6
CONTINUOUS
 10
446.4026829961
 20
68.9343457472
 11
446.479955131
 21
68.9534080279
  0
LINE
  5
26A
100
AcDbEntity
  8
0
100
AcDbLine
 62
7
  6
CONTINUOUS
 10
366.4026829961
 20
68.9343457472
 11
366.479955131
 21
68.9534080279
  0
LINE
  5
26B
100
AcDbEntity
  8
0
100
AcDbLine
 62
7
  6
CONTINUOUS
 10
446.3221563208
 20
68.915501195
 11
446.4026829961
 21
68.9343457472
  0
LINE
  5
26C
100
AcDbEntity
  8
0
100
AcDbLine
 62
7
  6
CONTINUOUS
 10
366.3221563208
 20
68.915501195
 11
366.4026829961
 21
68.9343457472
  0
LINE
  5
26D
100
AcDbEntity
  8
0
100
AcDbLine
 62
7
  6
CONTINUOUS
 10
446.2384456469
 20
68.8969588161
 11
446.3221563208
 21
68.915501195
  0
LINE
  5
26E
100
AcDbEntity
  8
0
100
AcDbLine
 62
7
  6
CONTINUOUS
 10
366.2384456469
 20
68.8969588161
 11
366.3221563208
 21
68.915501195
  0
LINE
  5
26F
100
AcDbEntity
  8
0
100
AcDbLine
 62
7
  6
CONTINUOUS
 10
446.1519176263
 20
68.8788635819
 11
446.2384456469
 21
68.8969588161
  0
LINE
  5
270
100
AcDbEntity
  8
0
100
AcDbLine
 62
7
  6
CONTINUOUS
 10
366.1519176263
 20
68.8788635819
 11
366.2384456469
 21
68.8969588161
  0
LINE
  5
271
100
AcDbEntity
  8
0
100
AcDbLine
 62
7
  6
CONTINUOUS
 10
446.0629168432
 20
68.8613420219
 11
446.1519176263
 21
68.8788635819
  0
LINE
  5
272
100
AcDbEntity
  8
0
100
AcDbLine
 62
7
  6
CONTINUOUS
 10
366.0629168432
 20
68.8613420219
 11
366.1519176263
 21
68.8788635819
  0
LINE
  5
273
100
AcDbEntity
  8
0
100
AcDbLine
 62
7
  6
CONTINUOUS
 10
445.9718412265
 20
68.8445191012
 11
446.0629168432
 21
68.8613420219
  0
LINE
  5
274
100
AcDbEntity
  8
0
100
AcDbLine
 62
7
  6
CONTINUOUS
 10
365.9718412265
 20
68.8445191012
 11
366.0629168432
 21
68.8613420219
  0
LINE
  5
275
100
AcDbEntity
  8
0
100
AcDbLine
 62
7
  6
CONTINUOUS
 10
445.8791274573
 20
68.8285111984
 11
445.9718412265
 21
68.8445191012
  0
LINE
  5
276
100
AcDbEntity
  8
0
100
AcDbLine
 62
7
  6
CONTINUOUS
 10
365.8791274573
 20
68.8285111984
 11
365.9718412265
 21
68.8445191012
  0
LINE
  5
277
100
AcDbEntity
  8
0
100
AcDbLine
 62
7
  6
CONTINUOUS
 10
445.7852052811
 20
68.8134191075
 11
445.8791274573
 21
68.8285111984
  0
LINE
  5
278
100
AcDbEntity
  8
0
100
AcDbLine
 62
7
  6
CONTINUOUS
 10
365.7852052811
 20
68.8134191075
 11
365.8791274573
 21
68.8285111984
  0
LINE
  5
279
100
AcDbEntity
  8
0
100
AcDbLine
 62
7
  6
CONTINUOUS
 10
445.6906362719
 20
68.7993474299
 11
445.7852052811
 21
68.8134191075
  0
LINE
  5
27A
100
AcDbEntity
  8
0
100
AcDbLine
 62
7
  6
CONTINUOUS
 10
365.6906362719
 20
68.7993474299
 11
365.7852052811
 21
68.8134191075
  0
LINE
  5
27B
100
AcDbEntity
  8
0
100
AcDbLine
 62
7
  6
CONTINUOUS
 10
445.610906227
 20
68.7883500644
 11
445.6906362719
 21
68.7993474299
  0
LINE
  5
27C
100
AcDbEntity
  8
0
100
AcDbLine
 62
7
  6
CONTINUOUS
 10
365.610906227
 20
68.7883500644
 11
365.6906362719
 21
68.7993474299
  0
LINE
  5
27D
100
AcDbEntity
  8
0
100
AcDbLine
 62
7
  6
CONTINUOUS
 10
440.39441089
 20
68.7995519637
 11
440.4755715026
 21
68.7883500655
  0
LINE
  5
27E
100
AcDbEntity
  8
0
100
AcDbLine
 62
7
  6
CONTINUOUS
 10
440.2996996637
 20
68.813662633
 11
440.39441089
 21
68.7995519637
  0
LINE
  5
27F
100
AcDbEntity
  8
0
100
AcDbLine
 62
7
  6
CONTINUOUS
 10
440.2056561201
 20
68.828793745
 11
440.2996996637
 21
68.813662633
  0
LINE
  5
280
100
AcDbEntity
  8
0
100
AcDbLine
 62
7
  6
CONTINUOUS
 10
440.1128404883
 20
68.8448402447
 11
440.2056561201
 21
68.828793745
  0
LINE
  5
281
100
AcDbEntity
  8
0
100
AcDbLine
 62
7
  6
CONTINUOUS
 10
440.0216819944
 20
68.8617007479
 11
440.1128404883
 21
68.8448402447
  0
LINE
  5
282
100
AcDbEntity
  8
0
100
AcDbLine
 62
7
  6
CONTINUOUS
 10
439.9326159808
 20
68.8792585144
 11
440.0216819944
 21
68.8617007479
  0
LINE
  5
283
100
AcDbEntity
  8
0
100
AcDbLine
 62
7
  6
CONTINUOUS
 10
439.8460390281
 20
68.8973882726
 11
439.9326159808
 21
68.8792585144
  0
LINE
  5
284
100
AcDbEntity
  8
0
100
AcDbLine
 62
7
  6
CONTINUOUS
 10
439.7622935357
 20
68.9159634058
 11
439.8460390281
 21
68.8973882726
  0
LINE
  5
285
100
AcDbEntity
  8
0
100
AcDbLine
 62
7
  6
CONTINUOUS
 10
439.6817441414
 20
68.9348389817
 11
439.7622935357
 21
68.9159634058
  0
LINE
  5
286
100
AcDbEntity
  8
0
100
AcDbLine
 62
7
  6
CONTINUOUS
 10
439.6044589015
 20
68.9539307944
 11
439.6817441414
 21
68.9348389817
  0
LINE
  5
287
100
AcDbEntity
  8
0
100
AcDbLine
 62
7
  6
CONTINUOUS
 10
439.5305727512
 20
68.973136824
 11
439.6044589015
 21
68.9539307944
  0
LINE
  5
288
100
AcDbEntity
  8
0
100
AcDbLine
 62
7
  6
CONTINUOUS
 10
439.4600273632
 20
68.9924040257
 11
439.5305727512
 21
68.973136824
  0
LINE
  5
289
100
AcDbEntity
  8
0
100
AcDbLine
 62
7
  6
CONTINUOUS
 10
439.3927905647
 20
69.0116772998
 11
439.4600273632
 21
68.9924040257
  0
LINE
  5
28A
100
AcDbEntity
  8
0
100
AcDbLine
 62
7
  6
CONTINUOUS
 10
439.3287563041
 20
69.0309264013
 11
439.3927905647
 21
69.0116772998
  0
LINE
  5
28B
100
AcDbEntity
  8
0
100
AcDbLine
 62
7
  6
CONTINUOUS
 10
439.2678243942
 20
69.0501264892
 11
439.3287563041
 21
69.0309264013
  0
LINE
  5
28C
100
AcDbEntity
  8
0
100
AcDbLine
 62
7
  6
CONTINUOUS
 10
439.2098163253
 20
69.0692842069
 11
439.2678243942
 21
69.0501264892
  0
LINE
  5
28D
100
AcDbEntity
  8
0
100
AcDbLine
 62
7
  6
CONTINUOUS
 10
439.1545705004
 20
69.0884113236
 11
439.2098163253
 21
69.0692842069
  0
LINE
  5
28E
100
AcDbEntity
  8
0
100
AcDbLine
 62
7
  6
CONTINUOUS
 10
439.1018454352
 20
69.1075581575
 11
439.1545705004
 21
69.0884113236
  0
LINE
  5
28F
100
AcDbEntity
  8
0
100
AcDbLine
 62
7
  6
CONTINUOUS
 10
439.0514016227
 20
69.1267903502
 11
439.1018454352
 21
69.1075581575
  0
LINE
  5
290
100
AcDbEntity
  8
0
100
AcDbLine
 62
7
  6
CONTINUOUS
 10
439.003016617
 20
69.1461829916
 11
439.0514016227
 21
69.1267903502
  0
LINE
  5
291
100
AcDbEntity
  8
0
100
AcDbLine
 62
7
  6
CONTINUOUS
 10
438.9563723162
 20
69.1658698359
 11
439.003016617
 21
69.1461829916
  0
LINE
  5
292
100
AcDbEntity
  8
0
100
AcDbLine
 62
7
  6
CONTINUOUS
 10
436.1033019306
 20
71.6732249589
 11
437.0929704179
 21
71.2551513401
  0
LINE
  5
293
100
AcDbEntity
  8
0
100
AcDbLine
 62
7
  6
CONTINUOUS
 10
357.7051257585
 20
70.9828420969
 11
357.7386123404
 21
70.9665231251
  0
LINE
  5
294
100
AcDbEntity
  8
0
100
AcDbLine
 62
7
  6
CONTINUOUS
 10
357.7386123404
 20
70.9665231251
 11
357.7693726081
 21
70.9512492248
  0
LINE
  5
295
100
AcDbEntity
  8
0
100
AcDbLine
 62
7
  6
CONTINUOUS
 10
357.7693726081
 20
70.9512492248
 11
357.8093122842
 21
70.9310156653
  0
LINE
  5
296
100
AcDbEntity
  8
0
100
AcDbLine
 62
7
  6
CONTINUOUS
 10
358.7855344505
 20
69.2487663942
 11
358.8261547208
 21
69.227226996
  0
LINE
  5
297
100
AcDbEntity
  8
0
100
AcDbLine
 62
7
  6
CONTINUOUS
 10
358.7460969662
 20
69.2710340322
 11
358.7855344505
 21
69.2487663942
  0
LINE
  5
298
100
AcDbEntity
  8
0
100
AcDbLine
 62
7
  6
CONTINUOUS
 10
358.7076952323
 20
69.2941747206
 11
358.7460969662
 21
69.2710340322
  0
LINE
  5
299
100
AcDbEntity
  8
0
100
AcDbLine
 62
7
  6
CONTINUOUS
 10
358.6703145348
 20
69.3182650499
 11
358.7076952323
 21
69.2941747206
  0
LINE
  5
29A
100
AcDbEntity
  8
0
100
AcDbLine
 62
7
  6
CONTINUOUS
 10
358.6339710619
 20
69.3433595652
 11
358.6703145348
 21
69.3182650499
  0
LINE
  5
29B
100
AcDbEntity
  8
0
100
AcDbLine
 62
7
  6
CONTINUOUS
 10
358.5985544412
 20
69.3696045289
 11
358.6339710619
 21
69.3433595652
  0
LINE
  5
29C
100
AcDbEntity
  8
0
100
AcDbLine
 62
7
  6
CONTINUOUS
 10
358.5642415067
 20
69.396933034
 11
358.5985544412
 21
69.3696045289
  0
LINE
  5
29D
100
AcDbEntity
  8
0
100
AcDbLine
 62
7
  6
CONTINUOUS
 10
358.5304215845
 20
69.4259383431
 11
358.5642415067
 21
69.396933034
  0
LINE
  5
29E
100
AcDbEntity
  8
0
100
AcDbLine
 62
7
  6
CONTINUOUS
 10
358.4968584586
 20
69.457029897
 11
358.5304215845
 21
69.4259383431
  0
LINE
  5
29F
100
AcDbEntity
  8
0
100
AcDbLine
 62
7
  6
CONTINUOUS
 10
358.4631802523
 20
69.4908740802
 11
358.4968584586
 21
69.457029897
  0
LINE
  5
2A0
100
AcDbEntity
  8
0
100
AcDbLine
 62
7
  6
CONTINUOUS
 10
543.3766759523
 20
122.6063170508
 11
523.690493211
 21
122.6063170508
  0
LINE
  5
2A1
100
AcDbEntity
  8
0
100
AcDbLine
 62
7
  6
CONTINUOUS
 10
519.043238863
 20
124.4415730762
 11
287.043238863
 21
124.4415730762
  0
LINE
  5
2A2
100
AcDbEntity
  8
0
100
AcDbLine
 62
7
  6
CONTINUOUS
 10
261.7438762531
 20
122.7320803154
 11
544.3468730714
 21
122.6063170508
  0
LINE
  5
2A3
100
AcDbEntity
  8
0
100
AcDbLine
 62
7
  6
CONTINUOUS
 10
437.0929704179
 20
71.2551513401
 11
437.22169856
 21
71.2001016085
  0
LINE
  5
2A4
100
AcDbEntity
  8
0
100
AcDbLine
 62
7
  6
CONTINUOUS
 10
435.9018855636
 20
71.7595931488
 11
436.1033019306
 21
71.6732249589
  0
LINE
  5
2A5
100
AcDbEntity
  8
0
100
AcDbLine
 62
7
  6
CONTINUOUS
 10
437.22169856
 20
71.2001016085
 11
437.3398631883
 21
71.1489289711
  0
LINE
  5
2A6
100
AcDbEntity
  8
0
100
AcDbLine
 62
7
  6
CONTINUOUS
 10
435.6900849003
 20
71.8514293194
 11
435.9018855636
 21
71.7595931488
  0
LINE
  5
2A7
100
AcDbEntity
  8
0
100
AcDbLine
 62
7
  6
CONTINUOUS
 10
435.468031499
 20
71.9490019943
 11
435.6900849003
 21
71.8514293194
  0
LINE
  5
2A8
100
AcDbEntity
  8
0
100
AcDbLine
 62
7
  6
CONTINUOUS
 10
437.3398631883
 20
71.1489289711
 11
437.4473339576
 21
71.1016113907
  0
LINE
  5
2A9
100
AcDbEntity
  8
0
100
AcDbLine
 62
7
  6
CONTINUOUS
 10
435.3532202601
 20
72.0000199845
 11
435.468031499
 21
71.9490019943
  0
LINE
  5
2AA
100
AcDbEntity
  8
0
100
AcDbLine
 62
7
  6
CONTINUOUS
 10
438.9114450009
 20
69.1858783356
 11
438.9563723162
 21
69.1658698359
  0
LINE
  5
2AB
100
AcDbEntity
  8
0
100
AcDbLine
 62
7
  6
CONTINUOUS
 10
435.2359320482
 20
72.0525675901
 11
435.3532202601
 21
72.0000199845
  0
LINE
  5
2AC
100
AcDbEntity
  8
0
100
AcDbLine
 62
7
  6
CONTINUOUS
 10
437.4473339576
 20
71.1016113907
 11
437.5440520343
 21
71.0581371985
  0
LINE
  5
2AD
100
AcDbEntity
  8
0
100
AcDbLine
 62
7
  6
CONTINUOUS
 10
435.116208971
 20
72.1066709816
 11
435.2359320482
 21
72.0525675901
  0
LINE
  5
2AE
100
AcDbEntity
  8
0
100
AcDbLine
 62
7
  6
CONTINUOUS
 10
434.9941041229
 20
72.1623535283
 11
435.116208971
 21
72.1066709816
  0
LINE
  5
2AF
100
AcDbEntity
  8
0
100
AcDbLine
 62
7
  6
CONTINUOUS
 10
437.5440520343
 20
71.0581371985
 11
437.5883682295
 21
71.0378462044
  0
LINE
  5
2B0
100
AcDbEntity
  8
0
100
AcDbLine
 62
7
  6
CONTINUOUS
 10
434.8696724843
 20
72.2196405881
 11
434.9941041229
 21
72.1623535283
  0
LINE
  5
2B1
100
AcDbEntity
  8
0
100
AcDbLine
 62
7
  6
CONTINUOUS
 10
437.5883682295
 20
71.0378462044
 11
437.6299960908
 21
71.0185222688
  0
LINE
  5
2B2
100
AcDbEntity
  8
0
100
AcDbLine
 62
7
  6
CONTINUOUS
 10
434.742970892
 20
72.2785535028
 11
434.8696724843
 21
72.2196405881
  0
LINE
  5
2B3
100
AcDbEntity
  8
0
100
AcDbLine
 62
7
  6
CONTINUOUS
 10
434.6140626679
 20
72.3391136216
 11
434.742970892
 21
72.2785535028
  0
LINE
  5
2B4
100
AcDbEntity
  8
0
100
AcDbLine
 62
7
  6
CONTINUOUS
 10
438.8680731351
 20
69.2063038157
 11
438.9114450009
 21
69.1858783356
  0
LINE
  5
2B5
100
AcDbEntity
  8
0
100
AcDbLine
 62
7
  6
CONTINUOUS
 10
437.6299960908
 20
71.0185222688
 11
437.6689146308
 21
71.0001836103
  0
LINE
  5
2B6
100
AcDbEntity
  8
0
100
AcDbLine
 62
7
  6
CONTINUOUS
 10
434.4829905805
 20
72.4013510146
 11
434.6140626679
 21
72.3391136216
  0
LINE
  5
2B7
100
AcDbEntity
  8
0
100
AcDbLine
 62
7
  6
CONTINUOUS
 10
437.6689146308
 20
71.0001836103
 11
437.7051257585
 21
70.9828420969
  0
LINE
  5
2B8
100
AcDbEntity
  8
0
100
AcDbLine
 62
7
  6
CONTINUOUS
 10
434.3703587684
 20
72.4553769517
 11
434.4829905805
 21
72.4013510146
  0
LINE
  5
2B9
100
AcDbEntity
  8
0
100
AcDbLine
 62
7
  6
CONTINUOUS
 10
437.7051257585
 20
70.9828420969
 11
437.7386123404
 21
70.9665231251
  0
LINE
  5
2BA
100
AcDbEntity
  8
0
100
AcDbLine
 62
7
  6
CONTINUOUS
 10
437.7386123404
 20
70.9665231251
 11
437.7693726081
 21
70.9512492248
  0
LINE
  5
2BB
100
AcDbEntity
  8
0
100
AcDbLine
 62
7
  6
CONTINUOUS
 10
438.8261547208
 20
69.227226996
 11
438.8680731351
 21
69.2063038157
  0
LINE
  5
2BC
100
AcDbEntity
  8
0
100
AcDbLine
 62
7
  6
CONTINUOUS
 10
437.7693726081
 20
70.9512492248
 11
437.8093122842
 21
70.9310156653
  0
LINE
  5
2BD
100
AcDbEntity
  8
0
100
AcDbLine
 62
7
  6
CONTINUOUS
 10
438.7855344505
 20
69.2487663942
 11
438.8261547208
 21
69.227226996
  0
LINE
  5
2BE
100
AcDbEntity
  8
0
100
AcDbLine
 62
7
  6
CONTINUOUS
 10
438.7460969662
 20
69.2710340322
 11
438.7855344505
 21
69.2487663942
  0
LINE
  5
2BF
100
AcDbEntity
  8
0
100
AcDbLine
 62
7
  6
CONTINUOUS
 10
438.7076952323
 20
69.2941747206
 11
438.7460969662
 21
69.2710340322
  0
LINE
  5
2C0
100
AcDbEntity
  8
0
100
AcDbLine
 62
7
  6
CONTINUOUS
 10
438.6703145348
 20
69.3182650499
 11
438.7076952323
 21
69.2941747206
  0
LINE
  5
2C1
100
AcDbEntity
  8
0
100
AcDbLine
 62
7
  6
CONTINUOUS
 10
438.6339710619
 20
69.3433595652
 11
438.6703145348
 21
69.3182650499
  0
LINE
  5
2C2
100
AcDbEntity
  8
0
100
AcDbLine
 62
7
  6
CONTINUOUS
 10
358.4290127539
 20
69.5283562074
 11
358.4631802523
 21
69.4908740802
  0
LINE
  5
2C3
100
AcDbEntity
  8
0
100
AcDbLine
 62
7
  6
CONTINUOUS
 10
358.3948650163
 20
69.569564349
 11
358.4290127539
 21
69.5283562074
  0
LINE
  5
2C4
100
AcDbEntity
  8
0
100
AcDbLine
 62
7
  6
CONTINUOUS
 10
358.3608765917
 20
69.615095248
 11
358.3948650163
 21
69.569564349
  0
LINE
  5
2C5
100
AcDbEntity
  8
0
100
AcDbLine
 62
7
  6
CONTINUOUS
 10
358.3281575103
 20
69.6642480212
 11
358.3608765917
 21
69.615095248
  0
LINE
  5
2C6
100
AcDbEntity
  8
0
100
AcDbLine
 62
7
  6
CONTINUOUS
 10
257.043238863
 20
540.2936087101
 11
257.043238863
 21
59.2936087101
  0
LINE
  5
2C7
100
AcDbEntity
  8
0
100
AcDbLine
 62
7
  6
CONTINUOUS
 10
257.0773130367
 20
540.2936087101
 11
257.0773130367
 21
59.2936087101
  0
LINE
  5
2C8
100
AcDbEntity
  8
0
100
AcDbLine
 62
7
  6
CONTINUOUS
 10
258.9882335642
 20
184.4544837286
 11
258.9882335642
 21
540.2936087101
  0
LINE
  5
2C9
100
AcDbEntity
  8
0
100
AcDbLine
 62
7
  6
CONTINUOUS
 10
274.6305466897
 20
184.4544837286
 11
274.6305466897
 21
518.7936087101
  0
LINE
  5
2CA
100
AcDbEntity
  8
0
100
AcDbLine
 62
7
  6
CONTINUOUS
 10
277.1181072022
 20
518.7936087101
 11
277.1181072022
 21
138.7936087101
  0
LINE
  5
2CB
100
AcDbEntity
  8
0
100
AcDbLine
 62
7
  6
CONTINUOUS
 10
274.5751967197
 20
180.9645419202
 11
274.5125440597
 21
138.849777972
  0
LINE
  5
2CC
100
AcDbEntity
  8
0
100
AcDbLine
 62
7
  6
CONTINUOUS
 10
259.5891637866
 20
59.2936087101
 11
261.7438762537
 21
122.732080332
  0
LINE
  5
2CD
100
AcDbEntity
  8
0
100
AcDbLine
 62
7
  6
CONTINUOUS
 10
287.043238863
 20
128.8684770492
 11
519.043238863
 21
128.8684770492
  0
LINE
  5
2CE
100
AcDbEntity
  8
0
100
AcDbLine
 62
7
  6
CONTINUOUS
 10
438.5985544412
 20
69.3696045289
 11
438.6339710619
 21
69.3433595652
  0
LINE
  5
2CF
100
AcDbEntity
  8
0
100
AcDbLine
 62
7
  6
CONTINUOUS
 10
438.5642415067
 20
69.396933034
 11
438.5985544412
 21
69.3696045289
  0
LINE
  5
2D0
100
AcDbEntity
  8
0
100
AcDbLine
 62
7
  6
CONTINUOUS
 10
438.5304215845
 20
69.4259383431
 11
438.5642415067
 21
69.396933034
  0
LINE
  5
2D1
100
AcDbEntity
  8
0
100
AcDbLine
 62
7
  6
CONTINUOUS
 10
438.4968584586
 20
69.457029897
 11
438.5304215845
 21
69.4259383431
  0
LINE
  5
2D2
100
AcDbEntity
  8
0
100
AcDbLine
 62
7
  6
CONTINUOUS
 10
438.4631802523
 20
69.4908740802
 11
438.4968584586
 21
69.457029897
  0
LINE
  5
2D3
100
AcDbEntity
  8
0
100
AcDbLine
 62
7
  6
CONTINUOUS
 10
358.29744908
 20
69.7165389329
 11
358.3281575103
 21
69.6642480212
  0
LINE
  5
2D4
100
AcDbEntity
  8
0
100
AcDbLine
 62
7
  6
CONTINUOUS
 10
358.2694657031
 20
69.7712075685
 11
358.29744908
 21
69.7165389329
  0
LINE
  5
2D5
100
AcDbEntity
  8
0
100
AcDbLine
 62
7
  6
CONTINUOUS
 10
358.2448930161
 20
69.8270332681
 11
358.2694657031
 21
69.7712075685
  0
LINE
  5
2D6
100
AcDbEntity
  8
0
100
AcDbLine
 62
7
  6
CONTINUOUS
 10
259.9995934474
 20
181.0615743646
 11
273.6245616521
 21
181.0614853011
  0
LINE
  5
2D7
100
AcDbEntity
  8
0
100
AcDbLine
 62
7
  6
CONTINUOUS
 10
532.4619157431
 20
181.0615193984
 11
546.0868836181
 21
181.0614988645
  0
LINE
  5
2D8
100
AcDbEntity
  8
0
100
AcDbLine
 62
7
  6
CONTINUOUS
 10
438.4290127539
 20
69.5283562074
 11
438.4631802523
 21
69.4908740802
  0
LINE
  5
2D9
100
AcDbEntity
  8
0
100
AcDbLine
 62
7
  6
CONTINUOUS
 10
438.3948650163
 20
69.569564349
 11
438.4290127539
 21
69.5283562074
  0
LINE
  5
2DA
100
AcDbEntity
  8
0
100
AcDbLine
 62
7
  6
CONTINUOUS
 10
438.3608765917
 20
69.615095248
 11
438.3948650163
 21
69.569564349
  0
LINE
  5
2DB
100
AcDbEntity
  8
0
100
AcDbLine
 62
7
  6
CONTINUOUS
 10
358.2416504924
 20
69.8351225855
 11
358.2448930161
 21
69.8270332681
  0
LINE
  5
2DC
100
AcDbEntity
  8
0
100
AcDbLine
 62
7
  6
CONTINUOUS
 10
357.8889459968
 20
70.7284428993
 11
358.2416504136
 21
69.8351225543
  0
LINE
  5
2DD
100
AcDbEntity
  8
0
100
AcDbLine
 62
7
  6
CONTINUOUS
 10
357.8093122842
 20
70.9310156653
 11
357.8889459968
 21
70.7284428993
  0
LINE
  5
2DE
100
AcDbEntity
  8
0
100
AcDbLine
 62
7
  6
CONTINUOUS
 10
343.5354137498
 20
86.6284779697
 11
343.7437270068
 21
85.7182620993
  0
LINE
  5
2DF
100
AcDbEntity
  8
0
100
AcDbLine
 62
7
  6
CONTINUOUS
 10
258.9882335642
 20
184.4544837286
 11
274.6305466897
 21
184.4544837286
  0
LINE
  5
2E0
100
AcDbEntity
  8
0
100
AcDbLine
 62
7
  6
CONTINUOUS
 10
531.4559310363
 20
184.4544837286
 11
547.0982441619
 21
184.4544837286
  0
LINE
  5
2E1
100
AcDbEntity
  8
0
100
AcDbLine
 62
7
  6
CONTINUOUS
 10
438.3281575103
 20
69.6642480212
 11
438.3608765917
 21
69.615095248
  0
LINE
  5
2E2
100
AcDbEntity
  8
0
100
AcDbLine
 62
7
  6
CONTINUOUS
 10
438.29744908
 20
69.7165389329
 11
438.3281575103
 21
69.6642480212
  0
LINE
  5
2E3
100
AcDbEntity
  8
0
100
AcDbLine
 62
7
  6
CONTINUOUS
 10
438.2694657031
 20
69.7712075685
 11
438.29744908
 21
69.7165389329
  0
LINE
  5
2E4
100
AcDbEntity
  8
0
100
AcDbLine
 62
7
  6
CONTINUOUS
 10
362.3406841185
 20
103.7510727157
 11
362.3406841185
 21
97.5634360981
  0
LINE
  5
2E5
100
AcDbEntity
  8
0
100
AcDbLine
 62
7
  6
CONTINUOUS
 10
363.7457936076
 20
97.5634360981
 11
363.7457936076
 21
103.7510727157
  0
LINE
  5
2E6
100
AcDbEntity
  8
0
100
AcDbLine
 62
7
  6
CONTINUOUS
 10
438.2448930161
 20
69.8270332681
 11
438.2694657031
 21
69.7712075685
  0
LINE
  5
2E7
100
AcDbEntity
  8
0
100
AcDbLine
 62
7
  6
CONTINUOUS
 10
438.2416504924
 20
69.8351225855
 11
438.2448930161
 21
69.8270332681
  0
LINE
  5
2E8
100
AcDbEntity
  8
0
100
AcDbLine
 62
7
  6
CONTINUOUS
 10
437.8889459968
 20
70.7284428993
 11
438.2416504136
 21
69.8351225543
  0
LINE
  5
2E9
100
AcDbEntity
  8
0
100
AcDbLine
 62
7
  6
CONTINUOUS
 10
437.8093122842
 20
70.9310156653
 11
437.8889459968
 21
70.7284428993
  0
LINE
  5
2EA
100
AcDbEntity
  8
0
100
AcDbLine
 62
7
  6
CONTINUOUS
 10
423.5354137498
 20
86.6284779697
 11
423.7437270068
 21
85.7182620993
  0
LINE
  5
2EB
100
AcDbEntity
  8
0
100
AcDbLine
 62
7
  6
CONTINUOUS
 10
442.3406841185
 20
103.7510727157
 11
442.3406841185
 21
97.5634360981
  0
LINE
  5
2EC
100
AcDbEntity
  8
0
100
AcDbLine
 62
7
  6
CONTINUOUS
 10
443.7457936076
 20
97.5634360981
 11
443.7457936076
 21
103.7510727157
  0
LINE
  5
2ED
100
AcDbEntity
  8
0
100
AcDbLine
 62
7
  6
CONTINUOUS
 10
382.5510639763
 20
86.6284779697
 11
382.3427507192
 21
85.7182620993
  0
LINE
  5
2EE
100
AcDbEntity
  8
0
100
AcDbLine
 62
7
  6
CONTINUOUS
 10
368.020034812
 20
70.278230537
 11
368.2769225853
 21
70.9307587244
  0
LINE
  5
2EF
100
AcDbEntity
  8
0
100
AcDbLine
 62
7
  6
CONTINUOUS
 10
368.020034812
 20
70.278230537
 11
367.8446313628
 21
69.8346281077
  0
LINE
  5
2F0
100
AcDbEntity
  8
0
100
AcDbLine
 62
7
  6
CONTINUOUS
 10
367.8399318867
 20
69.8229837381
 11
367.8446312804
 21
69.8346281404
  0
LINE
  5
2F1
100
AcDbEntity
  8
0
100
AcDbLine
 62
7
  6
CONTINUOUS
 10
367.815171042
 20
69.7673559171
 11
367.8399318867
 21
69.8229837381
  0
LINE
  5
2F2
100
AcDbEntity
  8
0
100
AcDbLine
 62
7
  6
CONTINUOUS
 10
367.7870315702
 20
69.7129200935
 11
367.815171042
 21
69.7673559171
  0
LINE
  5
2F3
100
AcDbEntity
  8
0
100
AcDbLine
 62
7
  6
CONTINUOUS
 10
462.5510639763
 20
86.6284779697
 11
462.3427507192
 21
85.7182620993
  0
LINE
  5
2F4
100
AcDbEntity
  8
0
100
AcDbLine
 62
7
  6
CONTINUOUS
 10
367.7562103935
 20
69.6608938369
 11
367.7870315702
 21
69.7129200935
  0
LINE
  5
2F5
100
AcDbEntity
  8
0
100
AcDbLine
 62
7
  6
CONTINUOUS
 10
367.723433554
 20
69.6120373933
 11
367.7562103935
 21
69.6608938369
  0
LINE
  5
2F6
100
AcDbEntity
  8
0
100
AcDbLine
 62
7
  6
CONTINUOUS
 10
544.3426016107
 20
122.7320762607
 11
546.4973139394
 21
59.2936087101
  0
LINE
  5
2F7
100
AcDbEntity
  8
0
100
AcDbLine
 62
7
  6
CONTINUOUS
 10
528.9683705239
 20
138.7936087101
 11
528.9683705239
 21
518.7936087101
  0
LINE
  5
2F8
100
AcDbEntity
  8
0
100
AcDbLine
 62
7
  6
CONTINUOUS
 10
531.4559310363
 20
518.7936087101
 11
531.4559310363
 21
184.4544837286
  0
LINE
  5
2F9
100
AcDbEntity
  8
0
100
AcDbLine
 62
7
  6
CONTINUOUS
 10
531.5112819627
 20
180.9645422313
 11
531.5112819627
 21
138.7936087101
  0
LINE
  5
2FA
100
AcDbEntity
  8
0
100
AcDbLine
 62
7
  6
CONTINUOUS
 10
448.020034812
 20
70.278230537
 11
448.2769225853
 21
70.9307587244
  0
LINE
  5
2FB
100
AcDbEntity
  8
0
100
AcDbLine
 62
7
  6
CONTINUOUS
 10
448.020034812
 20
70.278230537
 11
447.8446313628
 21
69.8346281077
  0
LINE
  5
2FC
100
AcDbEntity
  8
0
100
AcDbLine
 62
7
  6
CONTINUOUS
 10
447.8399318867
 20
69.8229837381
 11
447.8446312804
 21
69.8346281404
  0
LINE
  5
2FD
100
AcDbEntity
  8
0
100
AcDbLine
 62
7
  6
CONTINUOUS
 10
447.815171042
 20
69.7673559171
 11
447.8399318867
 21
69.8229837381
  0
LINE
  5
2FE
100
AcDbEntity
  8
0
100
AcDbLine
 62
7
  6
CONTINUOUS
 10
367.689438958
 20
69.566815516
 11
367.723433554
 21
69.6120373933
  0
LINE
  5
2FF
100
AcDbEntity
  8
0
100
AcDbLine
 62
7
  6
CONTINUOUS
 10
367.6553417004
 20
69.5259245546
 11
367.689438958
 21
69.566815516
  0
LINE
  5
300
100
AcDbEntity
  8
0
100
AcDbLine
 62
7
  6
CONTINUOUS
 10
367.6212501943
 20
69.4887337312
 11
367.6553417004
 21
69.5259245546
  0
LINE
  5
301
100
AcDbEntity
  8
0
100
AcDbLine
 62
7
  6
CONTINUOUS
 10
547.0982441619
 20
540.2936087101
 11
547.0982441619
 21
184.4544837286
  0
LINE
  5
302
100
AcDbEntity
  8
0
100
AcDbLine
 62
7
  6
CONTINUOUS
 10
549.0091646893
 20
59.2936087101
 11
549.0091646893
 21
540.2936087101
  0
LINE
  5
303
100
AcDbEntity
  8
0
100
AcDbLine
 62
7
  6
CONTINUOUS
 10
549.043238863
 20
59.2936087101
 11
549.043238863
 21
540.2936087101
  0
LINE
  5
304
100
AcDbEntity
  8
0
100
AcDbLine
 62
7
  6
CONTINUOUS
 10
447.7870315702
 20
69.7129200935
 11
447.815171042
 21
69.7673559171
  0
LINE
  5
305
100
AcDbEntity
  8
0
100
AcDbLine
 62
7
  6
CONTINUOUS
 10
447.7562103935
 20
69.6608938369
 11
447.7870315702
 21
69.7129200935
  0
LINE
  5
306
100
AcDbEntity
  8
0
100
AcDbLine
 62
7
  6
CONTINUOUS
 10
447.723433554
 20
69.6120373933
 11
447.7562103935
 21
69.6608938369
  0
LINE
  5
307
100
AcDbEntity
  8
0
100
AcDbLine
 62
7
  6
CONTINUOUS
 10
367.587635511
 20
69.4551226682
 11
367.6212501943
 21
69.4887337312
  0
LINE
  5
308
100
AcDbEntity
  8
0
100
AcDbLine
 62
7
  6
CONTINUOUS
 10
367.5541236235
 20
69.4242209621
 11
367.587635511
 21
69.4551226682
  0
LINE
  5
309
100
AcDbEntity
  8
0
100
AcDbLine
 62
7
  6
CONTINUOUS
 10
367.5203292703
 20
69.3953611396
 11
367.5541236235
 21
69.4242209621
  0
LINE
  5
30A
100
AcDbEntity
  8
0
100
AcDbLine
 62
7
  6
CONTINUOUS
 10
367.486024094
 20
69.3681486854
 11
367.5203292703
 21
69.3953611396
  0
LINE
  5
30B
100
AcDbEntity
  8
0
100
AcDbLine
 62
7
  6
CONTINUOUS
 10
447.689438958
 20
69.566815516
 11
447.723433554
 21
69.6120373933
  0
LINE
  5
30C
100
AcDbEntity
  8
0
100
AcDbLine
 62
7
  6
CONTINUOUS
 10
447.6553417004
 20
69.5259245546
 11
447.689438958
 21
69.566815516
  0
LINE
  5
30D
100
AcDbEntity
  8
0
100
AcDbLine
 62
7
  6
CONTINUOUS
 10
447.6212501943
 20
69.4887337312
 11
447.6553417004
 21
69.5259245546
  0
LINE
  5
30E
100
AcDbEntity
  8
0
100
AcDbLine
 62
7
  6
CONTINUOUS
 10
367.450601459
 20
69.3419997633
 11
367.486024094
 21
69.3681486854
  0
LINE
  5
30F
100
AcDbEntity
  8
0
100
AcDbLine
 62
7
  6
CONTINUOUS
 10
367.414245542
 20
69.3169885298
 11
367.450601459
 21
69.3419997633
  0
LINE
  5
310
100
AcDbEntity
  8
0
100
AcDbLine
 62
7
  6
CONTINUOUS
 10
367.3768598571
 20
69.2929790524
 11
367.414245542
 21
69.3169885298
  0
LINE
  5
311
100
AcDbEntity
  8
0
100
AcDbLine
 62
7
  6
CONTINUOUS
 10
367.3384541055
 20
69.2699124677
 11
367.3768598571
 21
69.2929790524
  0
LINE
  5
312
100
AcDbEntity
  8
0
100
AcDbLine
 62
7
  6
CONTINUOUS
 10
367.2990132623
 20
69.2477123446
 11
367.3384541055
 21
69.2699124677
  0
LINE
  5
313
100
AcDbEntity
  8
0
100
AcDbLine
 62
7
  6
CONTINUOUS
 10
367.2583891123
 20
69.226233861
 11
367.2990132623
 21
69.2477123446
  0
LINE
  5
314
100
AcDbEntity
  8
0
100
AcDbLine
 62
7
  6
CONTINUOUS
 10
368.2769225853
 20
70.9307587244
 11
368.2859256768
 21
70.9354346683
  0
LINE
  5
315
100
AcDbEntity
  8
0
100
AcDbLine
 62
7
  6
CONTINUOUS
 10
368.2859256768
 20
70.9354346683
 11
368.3160252902
 21
70.9507074842
  0
LINE
  5
316
100
AcDbEntity
  8
0
100
AcDbLine
 62
7
  6
CONTINUOUS
 10
368.3160252902
 20
70.9507074842
 11
368.3492585875
 21
70.9672081189
  0
LINE
  5
317
100
AcDbEntity
  8
0
100
AcDbLine
 62
7
  6
CONTINUOUS
 10
447.587635511
 20
69.4551226682
 11
447.6212501943
 21
69.4887337312
  0
LINE
  5
318
100
AcDbEntity
  8
0
100
AcDbLine
 62
7
  6
CONTINUOUS
 10
447.5541236235
 20
69.4242209621
 11
447.587635511
 21
69.4551226682
  0
LINE
  5
319
100
AcDbEntity
  8
0
100
AcDbLine
 62
7
  6
CONTINUOUS
 10
447.5203292703
 20
69.3953611396
 11
447.5541236235
 21
69.4242209621
  0
LINE
  5
31A
100
AcDbEntity
  8
0
100
AcDbLine
 62
7
  6
CONTINUOUS
 10
447.486024094
 20
69.3681486854
 11
447.5203292703
 21
69.3953611396
  0
LINE
  5
31B
100
AcDbEntity
  8
0
100
AcDbLine
 62
7
  6
CONTINUOUS
 10
447.450601459
 20
69.3419997633
 11
447.486024094
 21
69.3681486854
  0
LINE
  5
31C
100
AcDbEntity
  8
0
100
AcDbLine
 62
7
  6
CONTINUOUS
 10
447.414245542
 20
69.3169885298
 11
447.450601459
 21
69.3419997633
  0
LINE
  5
31D
100
AcDbEntity
  8
0
100
AcDbLine
 62
7
  6
CONTINUOUS
 10
447.3768598571
 20
69.2929790524
 11
447.414245542
 21
69.3169885298
  0
LINE
  5
31E
100
AcDbEntity
  8
0
100
AcDbLine
 62
7
  6
CONTINUOUS
 10
447.3384541055
 20
69.2699124677
 11
447.3768598571
 21
69.2929790524
  0
LINE
  5
31F
100
AcDbEntity
  8
0
100
AcDbLine
 62
7
  6
CONTINUOUS
 10
367.2164663075
 20
69.2053656493
 11
367.2583891123
 21
69.226233861
  0
LINE
  5
320
100
AcDbEntity
  8
0
100
AcDbLine
 62
7
  6
CONTINUOUS
 10
368.3492585875
 20
70.9672081189
 11
368.3856371962
 21
70.9849098395
  0
LINE
  5
321
100
AcDbEntity
  8
0
100
AcDbLine
 62
7
  6
CONTINUOUS
 10
371.5913311764
 20
72.3955505162
 11
371.7161189653
 21
72.4553769551
  0
LINE
  5
322
100
AcDbEntity
  8
0
100
AcDbLine
 62
7
  6
CONTINUOUS
 10
368.3856371962
 20
70.9849098395
 11
368.4251645079
 21
71.0037882789
  0
LINE
  5
323
100
AcDbEntity
  8
0
100
AcDbLine
 62
7
  6
CONTINUOUS
 10
371.4501161052
 20
72.3285920529
 11
371.5913311764
 21
72.3955505162
  0
LINE
  5
324
100
AcDbEntity
  8
0
100
AcDbLine
 62
7
  6
CONTINUOUS
 10
367.1730889637
 20
69.1849895544
 11
367.2164663075
 21
69.2053656493
  0
LINE
  5
325
100
AcDbEntity
  8
0
100
AcDbLine
 62
7
  6
CONTINUOUS
 10
368.4251645079
 20
71.0037882789
 11
368.4678488021
 21
71.0238268693
  0
LINE
  5
326
100
AcDbEntity
  8
0
100
AcDbLine
 62
7
  6
CONTINUOUS
 10
371.3114408812
 20
72.2635872854
 11
371.4501161052
 21
72.3285920529
  0
LINE
  5
327
100
AcDbEntity
  8
0
100
AcDbLine
 62
7
  6
CONTINUOUS
 10
371.1753569482
 20
72.2004962628
 11
371.3114408812
 21
72.2635872854
  0
LINE
  5
328
100
AcDbEntity
  8
0
100
AcDbLine
 62
7
  6
CONTINUOUS
 10
368.4678488021
 20
71.0238268693
 11
368.5136786588
 21
71.0450054813
  0
LINE
  5
329
100
AcDbEntity
  8
0
100
AcDbLine
 62
7
  6
CONTINUOUS
 10
371.0419390325
 20
72.1392912741
 11
371.1753569482
 21
72.2004962628
  0
LINE
  5
32A
100
AcDbEntity
  8
0
100
AcDbLine
 62
7
  6
CONTINUOUS
 10
368.5136786588
 20
71.0450054813
 11
368.5626639552
 21
71.067319267
  0
LINE
  5
32B
100
AcDbEntity
  8
0
100
AcDbLine
 62
7
  6
CONTINUOUS
 10
370.9112598152
 20
72.0799448264
 11
371.0419390325
 21
72.1392912741
  0
LINE
  5
32C
100
AcDbEntity
  8
0
100
AcDbLine
 62
7
  6
CONTINUOUS
 10
370.7833873844
 20
72.0224250739
 11
370.9112598152
 21
72.0799448264
  0
LINE
  5
32D
100
AcDbEntity
  8
0
100
AcDbLine
 62
7
  6
CONTINUOUS
 10
368.5626639552
 20
71.067319267
 11
368.6147928139
 21
71.0907571251
  0
LINE
  5
32E
100
AcDbEntity
  8
0
100
AcDbLine
 62
7
  6
CONTINUOUS
 10
370.6583802451
 20
71.9667014923
 11
370.7833873844
 21
72.0224250739
  0
LINE
  5
32F
100
AcDbEntity
  8
0
100
AcDbLine
 62
7
  6
CONTINUOUS
 10
367.1281551601
 20
69.1650255131
 11
367.1730889637
 21
69.1849895544
  0
LINE
  5
330
100
AcDbEntity
  8
0
100
AcDbLine
 62
7
  6
CONTINUOUS
 10
368.6147928139
 20
71.0907571251
 11
368.7284890483
 21
71.1410078936
  0
LINE
  5
331
100
AcDbEntity
  8
0
100
AcDbLine
 62
7
  6
CONTINUOUS
 10
370.5362896974
 20
71.9127374204
 11
370.6583802451
 21
71.9667014923
  0
LINE
  5
332
100
AcDbEntity
  8
0
100
AcDbLine
 62
7
  6
CONTINUOUS
 10
370.3010049129
 20
71.8099305962
 11
370.5362896974
 21
71.9127374204
  0
LINE
  5
333
100
AcDbEntity
  8
0
100
AcDbLine
 62
7
  6
CONTINUOUS
 10
368.7284890483
 20
71.1410078936
 11
368.8546972226
 21
71.195763087
  0
LINE
  5
334
100
AcDbEntity
  8
0
100
AcDbLine
 62
7
  6
CONTINUOUS
 10
370.0777541067
 20
71.7136734305
 11
370.3010049129
 21
71.8099305962
  0
LINE
  5
335
100
AcDbEntity
  8
0
100
AcDbLine
 62
7
  6
CONTINUOUS
 10
368.8546972226
 20
71.195763087
 11
368.9932430222
 21
71.2550388862
  0
LINE
  5
336
100
AcDbEntity
  8
0
100
AcDbLine
 62
7
  6
CONTINUOUS
 10
369.7656771125
 20
71.580818373
 11
370.0777541067
 21
71.7136734305
  0
LINE
  5
337
100
AcDbEntity
  8
0
100
AcDbLine
 62
7
  6
CONTINUOUS
 10
368.9932430222
 20
71.2550388862
 11
369.2236726893
 21
71.3525220887
  0
LINE
  5
338
100
AcDbEntity
  8
0
100
AcDbLine
 62
7
  6
CONTINUOUS
 10
369.3922355916
 20
71.4234473853
 11
369.7656771125
 21
71.580818373
  0
LINE
  5
339
100
AcDbEntity
  8
0
100
AcDbLine
 62
7
  6
CONTINUOUS
 10
367.0815024563
 20
69.1453784952
 11
367.1281551601
 21
69.1650255131
  0
LINE
  5
33A
100
AcDbEntity
  8
0
100
AcDbLine
 62
7
  6
CONTINUOUS
 10
369.2236726893
 20
71.3525220887
 11
369.3922355916
 21
71.4234473853
  0
LINE
  5
33B
100
AcDbEntity
  8
0
100
AcDbLine
 62
7
  6
CONTINUOUS
 10
367.0331056645
 20
69.1260209908
 11
367.0815024563
 21
69.1453784952
  0
LINE
  5
33C
100
AcDbEntity
  8
0
100
AcDbLine
 62
7
  6
CONTINUOUS
 10
366.9826474987
 20
69.1068204061
 11
367.0331056645
 21
69.1260209908
  0
LINE
  5
33D
100
AcDbEntity
  8
0
100
AcDbLine
 62
7
  6
CONTINUOUS
 10
366.9299047731
 20
69.0877019413
 11
366.9826474987
 21
69.1068204061
  0
LINE
  5
33E
100
AcDbEntity
  8
0
100
AcDbLine
 62
7
  6
CONTINUOUS
 10
366.874640459
 20
69.0686013881
 11
366.9299047731
 21
69.0877019413
  0
LINE
  5
33F
100
AcDbEntity
  8
0
100
AcDbLine
 62
7
  6
CONTINUOUS
 10
366.8166150741
 20
69.0494694243
 11
366.874640459
 21
69.0686013881
  0
LINE
  5
340
100
AcDbEntity
  8
0
100
AcDbLine
 62
7
  6
CONTINUOUS
 10
366.7556682432
 20
69.0302948863
 11
366.8166150741
 21
69.0494694243
  0
LINE
  5
341
100
AcDbEntity
  8
0
100
AcDbLine
 62
7
  6
CONTINUOUS
 10
366.6916230172
 20
69.0110717113
 11
366.7556682432
 21
69.0302948863
  0
LINE
  5
342
100
AcDbEntity
  8
0
100
AcDbLine
 62
7
  6
CONTINUOUS
 10
366.6243801452
 20
68.991825053
 11
366.6916230172
 21
69.0110717113
  0
LINE
  5
343
100
AcDbEntity
  8
0
100
AcDbLine
 62
7
  6
CONTINUOUS
 10
447.2990132623
 20
69.2477123446
 11
447.3384541055
 21
69.2699124677
  0
LINE
  5
344
100
AcDbEntity
  8
0
100
AcDbLine
 62
7
  6
CONTINUOUS
 10
447.2583891123
 20
69.226233861
 11
447.2990132623
 21
69.2477123446
  0
LINE
  5
345
100
AcDbEntity
  8
0
100
AcDbLine
 62
7
  6
CONTINUOUS
 10
448.2769225853
 20
70.9307587244
 11
448.2859256768
 21
70.9354346683
  0
LINE
  5
346
100
AcDbEntity
  8
0
100
AcDbLine
 62
7
  6
CONTINUOUS
 10
448.2859256768
 20
70.9354346683
 11
448.3160252902
 21
70.9507074842
  0
LINE
  5
347
100
AcDbEntity
  8
0
100
AcDbLine
 62
7
  6
CONTINUOUS
 10
447.2164663075
 20
69.2053656493
 11
447.2583891123
 21
69.226233861
  0
LINE
  5
348
100
AcDbEntity
  8
0
100
AcDbLine
 62
7
  6
CONTINUOUS
 10
448.3160252902
 20
70.9507074842
 11
448.3492585875
 21
70.9672081189
  0
LINE
  5
349
100
AcDbEntity
  8
0
100
AcDbLine
 62
7
  6
CONTINUOUS
 10
448.3492585875
 20
70.9672081189
 11
448.3856371962
 21
70.9849098395
  0
LINE
  5
34A
100
AcDbEntity
  8
0
100
AcDbLine
 62
7
  6
CONTINUOUS
 10
451.5913311764
 20
72.3955505162
 11
451.7161189653
 21
72.4553769551
  0
LINE
  5
34B
100
AcDbEntity
  8
0
100
AcDbLine
 62
7
  6
CONTINUOUS
 10
448.3856371962
 20
70.9849098395
 11
448.4251645079
 21
71.0037882789
  0
LINE
  5
34C
100
AcDbEntity
  8
0
100
AcDbLine
 62
7
  6
CONTINUOUS
 10
451.4501161052
 20
72.3285920529
 11
451.5913311764
 21
72.3955505162
  0
LINE
  5
34D
100
AcDbEntity
  8
0
100
AcDbLine
 62
7
  6
CONTINUOUS
 10
447.1730889637
 20
69.1849895544
 11
447.2164663075
 21
69.2053656493
  0
LINE
  5
34E
100
AcDbEntity
  8
0
100
AcDbLine
 62
7
  6
CONTINUOUS
 10
448.4251645079
 20
71.0037882789
 11
448.4678488021
 21
71.0238268693
  0
LINE
  5
34F
100
AcDbEntity
  8
0
100
AcDbLine
 62
7
  6
CONTINUOUS
 10
451.3114408812
 20
72.2635872854
 11
451.4501161052
 21
72.3285920529
  0
LINE
  5
350
100
AcDbEntity
  8
0
100
AcDbLine
 62
7
  6
CONTINUOUS
 10
451.1753569482
 20
72.2004962628
 11
451.3114408812
 21
72.2635872854
  0
LINE
  5
351
100
AcDbEntity
  8
0
100
AcDbLine
 62
7
  6
CONTINUOUS
 10
448.4678488021
 20
71.0238268693
 11
448.5136786588
 21
71.0450054813
  0
LINE
  5
352
100
AcDbEntity
  8
0
100
AcDbLine
 62
7
  6
CONTINUOUS
 10
451.0419390325
 20
72.1392912741
 11
451.1753569482
 21
72.2004962628
  0
LINE
  5
353
100
AcDbEntity
  8
0
100
AcDbLine
 62
7
  6
CONTINUOUS
 10
448.5136786588
 20
71.0450054813
 11
448.5626639552
 21
71.067319267
  0
LINE
  5
354
100
AcDbEntity
  8
0
100
AcDbLine
 62
7
  6
CONTINUOUS
 10
450.9112598152
 20
72.0799448264
 11
451.0419390325
 21
72.1392912741
  0
LINE
  5
355
100
AcDbEntity
  8
0
100
AcDbLine
 62
7
  6
CONTINUOUS
 10
450.7833873844
 20
72.0224250739
 11
450.9112598152
 21
72.0799448264
  0
LINE
  5
356
100
AcDbEntity
  8
0
100
AcDbLine
 62
7
  6
CONTINUOUS
 10
448.5626639552
 20
71.067319267
 11
448.6147928139
 21
71.0907571251
  0
LINE
  5
357
100
AcDbEntity
  8
0
100
AcDbLine
 62
7
  6
CONTINUOUS
 10
450.6583802451
 20
71.9667014923
 11
450.7833873844
 21
72.0224250739
  0
LINE
  5
358
100
AcDbEntity
  8
0
100
AcDbLine
 62
7
  6
CONTINUOUS
 10
447.1281551601
 20
69.1650255131
 11
447.1730889637
 21
69.1849895544
  0
LINE
  5
359
100
AcDbEntity
  8
0
100
AcDbLine
 62
7
  6
CONTINUOUS
 10
448.6147928139
 20
71.0907571251
 11
448.7284890483
 21
71.1410078936
  0
LINE
  5
35A
100
AcDbEntity
  8
0
100
AcDbLine
 62
7
  6
CONTINUOUS
 10
450.5362896974
 20
71.9127374204
 11
450.6583802451
 21
71.9667014923
  0
LINE
  5
35B
100
AcDbEntity
  8
0
100
AcDbLine
 62
7
  6
CONTINUOUS
 10
450.3010049129
 20
71.8099305962
 11
450.5362896974
 21
71.9127374204
  0
LINE
  5
35C
100
AcDbEntity
  8
0
100
AcDbLine
 62
7
  6
CONTINUOUS
 10
448.7284890483
 20
71.1410078936
 11
448.8546972226
 21
71.195763087
  0
LINE
  5
35D
100
AcDbEntity
  8
0
100
AcDbLine
 62
7
  6
CONTINUOUS
 10
450.0777541067
 20
71.7136734305
 11
450.3010049129
 21
71.8099305962
  0
LINE
  5
35E
100
AcDbEntity
  8
0
100
AcDbLine
 62
7
  6
CONTINUOUS
 10
448.8546972226
 20
71.195763087
 11
448.9932430222
 21
71.2550388862
  0
LINE
  5
35F
100
AcDbEntity
  8
0
100
AcDbLine
 62
7
  6
CONTINUOUS
 10
449.7656771125
 20
71.580818373
 11
450.0777541067
 21
71.7136734305
  0
LINE
  5
360
100
AcDbEntity
  8
0
100
AcDbLine
 62
7
  6
CONTINUOUS
 10
448.9932430222
 20
71.2550388862
 11
449.2236726893
 21
71.3525220887
  0
LINE
  5
361
100
AcDbEntity
  8
0
100
AcDbLine
 62
7
  6
CONTINUOUS
 10
449.3922355916
 20
71.4234473853
 11
449.7656771125
 21
71.580818373
  0
LINE
  5
362
100
AcDbEntity
  8
0
100
AcDbLine
 62
7
  6
CONTINUOUS
 10
447.0815024563
 20
69.1453784952
 11
447.1281551601
 21
69.1650255131
  0
LINE
  5
363
100
AcDbEntity
  8
0
100
AcDbLine
 62
7
  6
CONTINUOUS
 10
449.2236726893
 20
71.3525220887
 11
449.3922355916
 21
71.4234473853
  0
LINE
  5
364
100
AcDbEntity
  8
0
100
AcDbLine
 62
7
  6
CONTINUOUS
 10
447.0331056645
 20
69.1260209908
 11
447.0815024563
 21
69.1453784952
  0
LINE
  5
365
100
AcDbEntity
  8
0
100
AcDbLine
 62
7
  6
CONTINUOUS
 10
446.9826474987
 20
69.1068204061
 11
447.0331056645
 21
69.1260209908
  0
LINE
  5
366
100
AcDbEntity
  8
0
100
AcDbLine
 62
7
  6
CONTINUOUS
 10
446.9299047731
 20
69.0877019413
 11
446.9826474987
 21
69.1068204061
  0
LINE
  5
367
100
AcDbEntity
  8
0
100
AcDbLine
 62
7
  6
CONTINUOUS
 10
446.874640459
 20
69.0686013881
 11
446.9299047731
 21
69.0877019413
  0
LINE
  5
368
100
AcDbEntity
  8
0
100
AcDbLine
 62
7
  6
CONTINUOUS
 10
446.8166150741
 20
69.0494694243
 11
446.874640459
 21
69.0686013881
  0
LINE
  5
369
100
AcDbEntity
  8
0
100
AcDbLine
 62
7
  6
CONTINUOUS
 10
446.7556682432
 20
69.0302948863
 11
446.8166150741
 21
69.0494694243
  0
LINE
  5
36A
100
AcDbEntity
  8
0
100
AcDbLine
 62
7
  6
CONTINUOUS
 10
446.6916230172
 20
69.0110717113
 11
446.7556682432
 21
69.0302948863
  0
LINE
  5
36B
100
AcDbEntity
  8
0
100
AcDbLine
 62
7
  6
CONTINUOUS
 10
446.6243801452
 20
68.991825053
 11
446.6916230172
 21
69.0110717113
  0
LINE
  5
36C
100
AcDbEntity
  8
0
100
AcDbLine
 62
7
  6
CONTINUOUS
 10
519.043238863
 20
528.718740371
 11
287.043238863
 21
528.718740371
  0
LINE
  5
36D
100
AcDbEntity
  8
0
100
AcDbLine
 62
7
  6
CONTINUOUS
 10
287.043238863
 20
531.2063008834
 11
519.043238863
 21
531.2063008834
  0
LINE
  5
36E
100
AcDbEntity
  8
0
100
AcDbLine
 62
7
  6
CONTINUOUS
 10
265.543238863
 20
546.848614009
 11
540.543238863
 21
546.848614009
  0
LINE
  5
36F
100
AcDbEntity
  8
0
100
AcDbLine
 62
7
  6
CONTINUOUS
 10
540.543238863
 20
548.7595345364
 11
265.543238863
 21
548.7595345364
  0
LINE
  5
370
100
AcDbEntity
  8
0
100
AcDbLine
 62
7
  6
CONTINUOUS
 10
540.543238863
 20
548.7936087101
 11
265.543238863
 21
548.7936087101
  0
ARC
  5
371
100
AcDbEntity
  8
0
100
AcDbCircle
 62
7
  6
CONTINUOUS
 10
-873.1593584741
 20
217.88359915
 40
1420.6919508297
100
AcDbArc
 50
356.1597130346
 51
358.5109056786
  0
ARC
  5
372
100
AcDbEntity
  8
0
100
AcDbCircle
 62
7
  6
CONTINUOUS
 10
392.7602863485
 20
184.4507913382
 40
133.7720528353
100
AcDbArc
 50
179.9984185158
 51
181.4933610767
  0
ARC
  5
373
100
AcDbEntity
  8
0
100
AcDbCircle
 62
7
  6
CONTINUOUS
 10
254.5253672722
 20
182.7263105274
 40
20.0952979876
100
AcDbArc
 50
355.6804227156
 51
0.0642834507
  0
ARC
  5
374
100
AcDbEntity
  8
0
100
AcDbCircle
 62
7
  6
CONTINUOUS
 10
362.5643452326
 20
90.9843211006
 40
19.5211063762
100
AcDbArc
 50
180.0015017574
 51
192.8932366991
  0
ARC
  5
375
100
AcDbEntity
  8
0
100
AcDbCircle
 62
7
  6
CONTINUOUS
 10
363.5221324935
 20
90.9843211006
 40
19.5211063762
100
AcDbArc
 50
347.1067633009
 51
359.9984982426
  0
ARC
  5
376
100
AcDbEntity
  8
0
100
AcDbCircle
 62
7
  6
CONTINUOUS
 10
363.043238863
 20
87.1680175886
 40
19.4922018142
100
AcDbArc
 50
82.4260007999
 51
97.5739992001
  0
ARC
  5
377
100
AcDbEntity
  8
0
100
AcDbCircle
 62
7
  6
CONTINUOUS
 10
363.043238863
 20
88.098853686
 40
19.4804637242
100
AcDbArc
 50
262.4259582183
 51
277.5740417843
  0
ARC
  5
378
100
AcDbEntity
  8
0
100
AcDbCircle
 62
7
  6
CONTINUOUS
 10
362.5902803672
 20
90.031484471
 40
19.3338165091
100
AcDbArc
 50
190.1251826829
 51
192.8907140651
  0
ARC
  5
379
100
AcDbEntity
  8
0
100
AcDbCircle
 62
7
  6
CONTINUOUS
 10
363.5170547483
 20
90.0275865366
 40
19.3126152013
100
AcDbArc
 50
347.1067540379
 51
359.9985132456
  0
ARC
  5
37A
100
AcDbEntity
  8
0
100
AcDbCircle
 62
7
  6
CONTINUOUS
 10
362.5654521677
 20
90.027328601
 40
19.3086443862
100
AcDbArc
 50
180.0007216711
 51
190.1259946619
  0
ARC
  5
37B
100
AcDbEntity
  8
0
100
AcDbCircle
 62
7
  6
CONTINUOUS
 10
289.0365610364
 20
138.8281711004
 40
14.5240330486
100
AcDbArc
 50
179.9147631375
 51
262.1116569998
  0
ARC
  5
37C
100
AcDbEntity
  8
0
100
AcDbCircle
 62
7
  6
CONTINUOUS
 10
287.043238863
 20
138.7936087101
 40
9.9251316609
100
AcDbArc
 50
180.0
 51
270.0
  0
ARC
  5
37D
100
AcDbEntity
  8
0
100
AcDbCircle
 62
7
  6
CONTINUOUS
 10
265.543238863
 20
59.2936087101
 40
8.5
100
AcDbArc
 50
179.9999998592
 51
270.0000007739
  0
ARC
  5
37E
100
AcDbEntity
  8
0
100
AcDbCircle
 62
7
  6
CONTINUOUS
 10
265.543238863
 20
59.2936087101
 40
8.4659258263
100
AcDbArc
 50
180.0
 51
270.0
  0
ARC
  5
37F
100
AcDbEntity
  8
0
100
AcDbCircle
 62
7
  6
CONTINUOUS
 10
323.0506073604
 20
90.9328668143
 40
3.0930902264
100
AcDbArc
 50
11.5579928697
 51
15.6410591099
  0
ARC
  5
380
100
AcDbEntity
  8
0
100
AcDbCircle
 62
7
  6
CONTINUOUS
 10
323.0063338015
 20
90.9380946676
 40
3.0636169896
100
AcDbArc
 50
146.0261281498
 51
157.3396812985
  0
ARC
  5
381
100
AcDbEntity
  8
0
100
AcDbCircle
 62
7
  6
CONTINUOUS
 10
323.0838320933
 20
90.9426636222
 40
3.0584545384
100
AcDbArc
 50
15.6321361416
 51
22.6079522723
  0
ARC
  5
382
100
AcDbEntity
  8
0
100
AcDbCircle
 62
7
  6
CONTINUOUS
 10
323.0853805262
 20
90.9386703521
 40
3.0578596501
100
AcDbArc
 50
0.0531007486
 51
11.5820005735
  0
ARC
  5
383
100
AcDbEntity
  8
0
100
AcDbCircle
 62
7
  6
CONTINUOUS
 10
359.1537833083
 20
70.1962112115
 40
0.9810052411
100
AcDbArc
 50
180.0644689607
 51
201.5972683268
  0
ARC
  5
384
100
AcDbEntity
  8
0
100
AcDbCircle
 62
7
  6
CONTINUOUS
 10
366.9326945293
 20
70.1962112363
 40
0.9810052312
100
AcDbArc
 50
338.4027279766
 51
359.9355295425
  0
ARC
  5
385
100
AcDbEntity
  8
0
100
AcDbCircle
 62
7
  6
CONTINUOUS
 10
363.0428991127
 20
103.7924005466
 40
0.6865264997
100
AcDbArc
 50
51.7636602786
 51
89.9716452887
  0
ARC
  5
386
100
AcDbEntity
  8
0
100
AcDbCircle
 62
7
  6
CONTINUOUS
 10
363.0435752591
 20
103.7924105783
 40
0.6865164663
100
AcDbArc
 50
90.0280751864
 51
128.2365475662
  0
ARC
  5
387
100
AcDbEntity
  8
0
100
AcDbCircle
 62
7
  6
CONTINUOUS
 10
287.043238863
 20
518.7936087101
 40
12.4126921733
100
AcDbArc
 50
90.0
 51
180.0
  0
ARC
  5
388
100
AcDbEntity
  8
0
100
AcDbCircle
 62
7
  6
CONTINUOUS
 10
287.043238863
 20
518.7936087101
 40
9.9251316609
100
AcDbArc
 50
90.0
 51
180.0
  0
ARC
  5
389
100
AcDbEntity
  8
0
100
AcDbCircle
 62
7
  6
CONTINUOUS
 10
265.543238863
 20
540.2936087101
 40
8.5
100
AcDbArc
 50
90.0
 51
180.0
  0
ARC
  5
38A
100
AcDbEntity
  8
0
100
AcDbCircle
 62
7
  6
CONTINUOUS
 10
265.543238863
 20
540.2936087101
 40
8.4659258263
100
AcDbArc
 50
90.0
 51
180.0
  0
ARC
  5
38B
100
AcDbEntity
  8
0
100
AcDbCircle
 62
7
  6
CONTINUOUS
 10
265.543238863
 20
540.2936087101
 40
6.5550052989
100
AcDbArc
 50
90.0
 51
180.0
  0
ARC
  5
38C
100
AcDbEntity
  8
0
100
AcDbCircle
 62
7
  6
CONTINUOUS
 10
1662.2217594537
 20
217.0912668874
 40
1403.6530758773
100
AcDbArc
 50
181.4748212932
 51
183.8545588737
  0
ARC
  5
38D
100
AcDbEntity
  8
0
100
AcDbCircle
 62
7
  6
CONTINUOUS
 10
413.3261787257
 20
184.4507573599
 40
133.7720654881
100
AcDbArc
 50
358.506653475
 51
0.0015960373
  0
ARC
  5
38E
100
AcDbEntity
  8
0
100
AcDbCircle
 62
7
  6
CONTINUOUS
 10
641.2844425088
 20
184.4509404338
 40
109.8285115296
100
AcDbArc
 50
179.9981515197
 51
181.8191039807
  0
CIRCLE
  5
38F
100
AcDbEntity
  8
0
100
AcDbCircle
 62
7
  6
CONTINUOUS
 10
403.043238863
 20
221.2936087101
 40
89.5387861869
  0
CIRCLE
  5
390
100
AcDbEntity
  8
0
100
AcDbCircle
 62
7
  6
CONTINUOUS
 10
403.043238863
 20
221.2936087101
 40
84.682942263
  0
CIRCLE
  5
391
100
AcDbEntity
  8
0
100
AcDbCircle
 62
7
  6
CONTINUOUS
 10
403.043238863
 20
219.5936087101
 40
77.5
  0
ARC
  5
392
100
AcDbEntity
  8
0
100
AcDbCircle
 62
7
  6
CONTINUOUS
 10
442.5643452326
 20
90.9843211006
 40
19.5211063762
100
AcDbArc
 50
180.0015017574
 51
192.8932366991
  0
ARC
  5
393
100
AcDbEntity
  8
0
100
AcDbCircle
 62
7
  6
CONTINUOUS
 10
443.5221324935
 20
90.9843211006
 40
19.5211063762
100
AcDbArc
 50
347.1067633009
 51
359.9984982426
  0
ARC
  5
394
100
AcDbEntity
  8
0
100
AcDbCircle
 62
7
  6
CONTINUOUS
 10
443.043238863
 20
87.1680175886
 40
19.4922018142
100
AcDbArc
 50
82.4260007999
 51
97.5739992001
  0
ARC
  5
395
100
AcDbEntity
  8
0
100
AcDbCircle
 62
7
  6
CONTINUOUS
 10
443.043238863
 20
88.098853686
 40
19.4804637242
100
AcDbArc
 50
262.4259582183
 51
277.5740417843
  0
ARC
  5
396
100
AcDbEntity
  8
0
100
AcDbCircle
 62
7
  6
CONTINUOUS
 10
442.5902803672
 20
90.031484471
 40
19.3338165091
100
AcDbArc
 50
190.1251826829
 51
192.8907140651
  0
ARC
  5
397
100
AcDbEntity
  8
0
100
AcDbCircle
 62
7
  6
CONTINUOUS
 10
443.5170547483
 20
90.0275865366
 40
19.3126152013
100
AcDbArc
 50
347.1067540379
 51
359.9985132456
  0
ARC
  5
398
100
AcDbEntity
  8
0
100
AcDbCircle
 62
7
  6
CONTINUOUS
 10
442.5654521677
 20
90.027328601
 40
19.3086443862
100
AcDbArc
 50
180.0007216711
 51
190.1259946619
  0
ARC
  5
399
100
AcDbEntity
  8
0
100
AcDbCircle
 62
7
  6
CONTINUOUS
 10
517.0169053118
 20
138.7936087101
 40
14.4943766509
100
AcDbArc
 50
278.0363519061
 51
360.0
  0
CIRCLE
  5
39A
100
AcDbEntity
  8
0
100
AcDbCircle
 62
7
  6
CONTINUOUS
 10
403.043238863
 20
219.5936087101
 40
14.0
  0
ARC
  5
39B
100
AcDbEntity
  8
0
100
AcDbCircle
 62
7
  6
CONTINUOUS
 10
519.043238863
 20
138.7936087101
 40
9.9251316609
100
AcDbArc
 50
270.0
 51
360.0
  0
ARC
  5
39C
100
AcDbEntity
  8
0
100
AcDbCircle
 62
7
  6
CONTINUOUS
 10
540.543238863
 20
59.2936087101
 40
8.5
100
AcDbArc
 50
269.9999998592
 51
0.0000007739
  0
ARC
  5
39D
100
AcDbEntity
  8
0
100
AcDbCircle
 62
7
  6
CONTINUOUS
 10
540.543238863
 20
59.2936087101
 40
8.4659258263
100
AcDbArc
 50
270.0
 51
360.0
  0
ARC
  5
39E
100
AcDbEntity
  8
0
100
AcDbCircle
 62
7
  6
CONTINUOUS
 10
483.0506073603
 20
90.9328668143
 40
3.0930902265
100
AcDbArc
 50
11.5579928697
 51
15.6410591099
  0
ARC
  5
39F
100
AcDbEntity
  8
0
100
AcDbCircle
 62
7
  6
CONTINUOUS
 10
483.0063338015
 20
90.9380946676
 40
3.0636169896
100
AcDbArc
 50
146.0261281498
 51
157.3396812985
  0
ARC
  5
3A0
100
AcDbEntity
  8
0
100
AcDbCircle
 62
7
  6
CONTINUOUS
 10
483.0838320933
 20
90.9426636222
 40
3.0584545384
100
AcDbArc
 50
15.6321361415
 51
22.6079522723
  0
ARC
  5
3A1
100
AcDbEntity
  8
0
100
AcDbCircle
 62
7
  6
CONTINUOUS
 10
483.0853805262
 20
90.9386703521
 40
3.0578596501
100
AcDbArc
 50
0.0531007486
 51
11.5820005735
  0
ARC
  5
3A2
100
AcDbEntity
  8
0
100
AcDbCircle
 62
7
  6
CONTINUOUS
 10
439.1537833083
 20
70.1962112115
 40
0.9810052411
100
AcDbArc
 50
180.0644689607
 51
201.5972683268
  0
ARC
  5
3A3
100
AcDbEntity
  8
0
100
AcDbCircle
 62
7
  6
CONTINUOUS
 10
446.9326945293
 20
70.1962112363
 40
0.9810052312
100
AcDbArc
 50
338.4027279766
 51
359.9355295425
  0
ARC
  5
3A4
100
AcDbEntity
  8
0
100
AcDbCircle
 62
7
  6
CONTINUOUS
 10
443.0428991127
 20
103.7924005466
 40
0.6865264997
100
AcDbArc
 50
51.7636602786
 51
89.9716452887
  0
ARC
  5
3A5
100
AcDbEntity
  8
0
100
AcDbCircle
 62
7
  6
CONTINUOUS
 10
443.0435752591
 20
103.7924105783
 40
0.6865164663
100
AcDbArc
 50
90.0280751863
 51
128.2365475662
  0
CIRCLE
  5
3A6
100
AcDbEntity
  8
0
100
AcDbCircle
 62
7
  6
CONTINUOUS
 10
403.043238863
 20
421.2936087101
 40
105.9823293943
  0
CIRCLE
  5
3A7
100
AcDbEntity
  8
0
100
AcDbCircle
 62
7
  6
CONTINUOUS
 10
403.043238863
 20
421.2936087101
 40
101.0581110661
  0
CIRCLE
  5
3A8
100
AcDbEntity
  8
0
100
AcDbCircle
 62
7
  6
CONTINUOUS
 10
403.043238863
 20
419.5936087101
 40
96.0
  0
CIRCLE
  5
3A9
100
AcDbEntity
  8
0
100
AcDbCircle
 62
7
  6
CONTINUOUS
 10
403.043238863
 20
419.5936087101
 40
14.0
  0
ARC
  5
3AA
100
AcDbEntity
  8
0
100
AcDbCircle
 62
7
  6
CONTINUOUS
 10
519.043238863
 20
518.7936087101
 40
12.4126921733
100
AcDbArc
 50
0.0
 51
90.0
  0
ARC
  5
3AB
100
AcDbEntity
  8
0
100
AcDbCircle
 62
7
  6
CONTINUOUS
 10
519.043238863
 20
518.7936087101
 40
9.9251316609
100
AcDbArc
 50
0.0
 51
90.0
  0
ARC
  5
3AC
100
AcDbEntity
  8
0
100
AcDbCircle
 62
7
  6
CONTINUOUS
 10
540.543238863
 20
540.2936087101
 40
8.5
100
AcDbArc
 50
359.9999998592
 51
90.0
  0
ARC
  5
3AD
100
AcDbEntity
  8
0
100
AcDbCircle
 62
7
  6
CONTINUOUS
 10
540.543238863
 20
540.2936087101
 40
8.4659258263
100
AcDbArc
 50
0.0
 51
90.0
  0
ARC
  5
3AE
100
AcDbEntity
  8
0
100
AcDbCircle
 62
7
  6
CONTINUOUS
 10
540.543238863
 20
540.2936087101
 40
6.5550052989
100
AcDbArc
 50
0.0
 51
90.0
  0
SPLINE
  5
3AF
100
AcDbEntity
  8
0
100
AcDbSpline
 62
7
  6
CONTINUOUS
 70
0
 71
3
 72
39
 73
35
 74
0
 42
0.0000001
 43
0.0000001
 44
0.0000000001
 40
0.0
 40
0.0
 40
0.0
 40
0.0
 40
0.0310570732
 40
0.0621216047
 40
0.0932007355
 40
0.1243010549
 40
0.155428322
 40
0.1865872465
 40
0.2177813093
 40
0.2490126313
 40
0.2802818969
 40
0.3115883323
 40
0.3429297406
 40
0.3743025903
 40
0.4057021541
 40
0.4371226911
 40
0.4685576665
 40
0.5
 40
0.5314423335
 40
0.5628773089
 40
0.5942978459
 40
0.6256974097
 40
0.6570702594
 40
0.6884116677
 40
0.7197181031
 40
0.7509873687
 40
0.7822186907
 40
0.8134127535
 40
0.844571678
 40
0.8756989451
 40
0.9067992645
 40
0.9378783953
 40
0.9689429268
 40
1.0
 40
1.0
 40
1.0
 40
1.0
 10
423.043238863
 20
90.9838094405
 30
0.0
 10
423.043238863
 20
91.6300097657
 30
0.0
 10
423.1075638848
 20
92.9234859188
 30
0.0
 10
423.3960833419
 20
94.8441902184
 30
0.0
 10
423.8738542234
 20
96.7278889341
 30
0.0
 10
424.5362657816
 20
98.5561796624
 30
0.0
 10
425.3769267429
 20
100.3115155613
 30
0.0
 10
426.3877277422
 20
101.9769707389
 30
0.0
 10
427.5589206527
 20
103.5365118407
 30
0.0
 10
428.8792136533
 20
104.9751232681
 30
0.0
 10
430.3358810566
 20
106.2789590953
 30
0.0
 10
431.9148867362
 20
107.4354735505
 30
0.0
 10
433.6010199052
 20
108.4335414255
 30
0.0
 10
435.3780418951
 20
109.2635639776
 30
0.0
 10
437.2288425134
 20
109.9175603023
 30
0.0
 10
439.1356044876
 20
110.3892431411
 30
0.0
 10
441.079974449
 20
110.6740785395
 30
0.0
 10
443.043238863
 20
110.7693288242
 30
0.0
 10
445.0065032771
 20
110.6740785395
 30
0.0
 10
446.9508732385
 20
110.3892431411
 30
0.0
 10
448.8576352127
 20
109.9175603023
 30
0.0
 10
450.708435831
 20
109.2635639776
 30
0.0
 10
452.4854578209
 20
108.4335414255
 30
0.0
 10
454.1715909898
 20
107.4354735505
 30
0.0
 10
455.7505966695
 20
106.2789590953
 30
0.0
 10
457.2072640727
 20
104.9751232681
 30
0.0
 10
458.5275570734
 20
103.5365118407
 30
0.0
 10
459.6987499839
 20
101.9769707389
 30
0.0
 10
460.7095509832
 20
100.3115155613
 30
0.0
 10
461.5502119445
 20
98.5561796624
 30
0.0
 10
462.2126235027
 20
96.7278889341
 30
0.0
 10
462.6903943842
 20
94.8441902184
 30
0.0
 10
462.9789138413
 20
92.9234859188
 30
0.0
 10
463.043238863
 20
91.6300097657
 30
0.0
 10
463.043238863
 20
90.9838094405
 30
0.0
  0
SPLINE
  5
3B0
100
AcDbEntity
  8
0
100
AcDbSpline
 62
7
  6
CONTINUOUS
 70
0
 71
3
 72
15
 73
11
 74
0
 42
0.0000001
 43
0.0000001
 44
0.0000000001
 40
0.0
 40
0.0
 40
0.0
 40
0.0
 40
0.1255054397
 40
0.2508701273
 40
0.3760827791
 40
0.5011396637
 40
0.6260448092
 40
0.7508098203
 40
0.8754533143
 40
1.0
 40
1.0
 40
1.0
 40
1.0
 10
451.7161189462
 20
72.4553768526
 30
0.0
 10
452.3782376863
 20
72.7744830215
 30
0.0
 10
453.6674831815
 20
73.4864277258
 30
0.0
 10
455.4689036322
 20
74.7611437055
 30
0.0
 10
457.1155591956
 20
76.2268333046
 30
0.0
 10
458.5865220259
 20
77.8651011741
 30
0.0
 10
459.8634388745
 20
79.6555424569
 30
0.0
 10
460.9302882923
 20
81.5758989385
 30
0.0
 10
461.7735945454
 20
83.6018254993
 30
0.0
 10
462.1800289394
 20
85.0072562393
 30
0.0
 10
462.3427507192
 20
85.7182620994
 30
0.0
  0
SPLINE
  5
3B1
100
AcDbEntity
  8
0
100
AcDbSpline
 62
7
  6
CONTINUOUS
 70
0
 71
3
 72
15
 73
11
 74
0
 42
0.0000001
 43
0.0000001
 44
0.0000000001
 40
0.0
 40
0.0
 40
0.0
 40
0.0
 40
0.1245466845
 40
0.2491901784
 40
0.3739551897
 40
0.4988603357
 40
0.6239172208
 40
0.749129873
 40
0.8744945611
 40
1.0
 40
1.0
 40
1.0
 40
1.0
 10
423.7437270068
 20
85.7182620994
 30
0.0
 10
423.9064487852
 20
85.0072562457
 30
0.0
 10
424.3128831766
 20
83.6018255126
 30
0.0
 10
425.156189425
 20
81.5758989567
 30
0.0
 10
426.223038842
 20
79.6555424717
 30
0.0
 10
427.4999556929
 20
77.8651011827
 30
0.0
 10
428.9709185281
 20
76.2268333065
 30
0.0
 10
430.6175740978
 20
74.7611437019
 30
0.0
 10
432.4189945498
 20
73.4864277228
 30
0.0
 10
433.7082400431
 20
72.7744830199
 30
0.0
 10
434.370358779
 20
72.455376853
 30
0.0
  0
SPLINE
  5
3B2
100
AcDbEntity
  8
0
100
AcDbSpline
 62
7
  6
CONTINUOUS
 70
0
 71
3
 72
13
 73
9
 74
0
 42
0.0000001
 43
0.0000001
 44
0.0000000001
 40
0.0
 40
0.0
 40
0.0
 40
0.0
 40
0.1253188199
 40
0.2506325047
 40
0.375938331
 40
0.5012331366
 40
0.7506128428
 40
1.0
 40
1.0
 40
1.0
 40
1.0
 10
443.043238863
 20
96.8481006081
 30
0.0
 10
443.0895759959
 20
96.8481018705
 30
0.0
 10
443.1825198052
 20
96.8575043824
 30
0.0
 10
443.3160640776
 20
96.8991686429
 30
0.0
 10
443.4387100557
 20
96.9665984547
 30
0.0
 10
443.5808366234
 20
97.0864307272
 30
0.0
 10
443.7100950624
 20
97.2849447727
 30
0.0
 10
443.7457912109
 20
97.4712242033
 30
0.0
 10
443.7457936076
 20
97.5634360981
 30
0.0
  0
SPLINE
  5
3B3
100
AcDbEntity
  8
0
100
AcDbSpline
 62
7
  6
CONTINUOUS
 70
0
 71
3
 72
11
 73
7
 74
0
 42
0.0000001
 43
0.0000001
 44
0.0000000001
 40
0.0
 40
0.0
 40
0.0
 40
0.0
 40
0.2494504359
 40
0.4991396291
 40
0.7492769892
 40
1.0
 40
1.0
 40
1.0
 40
1.0
 10
443.7457936076
 20
103.7510727157
 30
0.0
 10
443.7457924894
 20
103.8063388384
 30
0.0
 10
443.73357892
 20
103.917306963
 30
0.0
 10
443.6792040393
 20
104.0755590268
 30
0.0
 10
443.5908186485
 20
104.2180381074
 30
0.0
 10
443.511452041
 20
104.2972967605
 30
0.0
 10
443.4677949624
 20
104.331642748
 30
0.0
  0
SPLINE
  5
3B4
100
AcDbEntity
  8
0
100
AcDbSpline
 62
7
  6
CONTINUOUS
 70
0
 71
3
 72
11
 73
7
 74
0
 42
0.0000001
 43
0.0000001
 44
0.0000000001
 40
0.0
 40
0.0
 40
0.0
 40
0.0
 40
0.2507230192
 40
0.5008603476
 40
0.7505495316
 40
1.0
 40
1.0
 40
1.0
 40
1.0
 10
442.6186836631
 20
104.3316433575
 30
0.0
 10
442.5750264768
 20
104.29729736
 30
0.0
 10
442.4956595294
 20
104.2180388061
 30
0.0
 10
442.4072738896
 20
104.0755595322
 30
0.0
 10
442.3528989375
 20
103.9173072376
 30
0.0
 10
442.3406851531
 20
103.8063389341
 30
0.0
 10
442.3406841185
 20
103.7510727157
 30
0.0
  0
SPLINE
  5
3B5
100
AcDbEntity
  8
0
100
AcDbSpline
 62
7
  6
CONTINUOUS
 70
0
 71
3
 72
13
 73
9
 74
0
 42
0.0000001
 43
0.0000001
 44
0.0000000001
 40
0.0
 40
0.0
 40
0.0
 40
0.0
 40
0.2493871084
 40
0.4987668441
 40
0.6240616696
 40
0.7493674818
 40
0.8746811424
 40
1.0
 40
1.0
 40
1.0
 40
1.0
 10
442.3406841185
 20
97.5634360981
 30
0.0
 10
442.3406866123
 20
97.4712242166
 30
0.0
 10
442.3763826104
 20
97.2849447735
 30
0.0
 10
442.5056411342
 20
97.0864307586
 30
0.0
 10
442.6477676652
 20
96.9665983903
 30
0.0
 10
442.7704136353
 20
96.8991686447
 30
0.0
 10
442.9039578575
 20
96.8575039401
 30
0.0
 10
442.9969017139
 20
96.8481021793
 30
0.0
 10
443.043238863
 20
96.8481006081
 30
0.0
  0
SPLINE
  5
3B6
100
AcDbEntity
  8
0
100
AcDbSpline
 62
7
  6
CONTINUOUS
 70
0
 71
3
 72
11
 73
7
 74
0
 42
0.0000001
 43
0.0000001
 44
0.0000000001
 40
0.0
 40
0.0
 40
0.0
 40
0.0
 40
0.2357083181
 40
0.4860447772
 40
0.7434128057
 40
1.0
 40
1.0
 40
1.0
 40
1.0
 10
438.1727780614
 20
70.1951087161
 30
0.0
 10
438.2296510857
 20
72.9714456658
 30
0.0
 10
438.312245258
 20
78.6971587036
 30
0.0
 10
438.351686144
 20
87.4554621135
 30
0.0
 10
438.309980912
 20
96.4597317882
 30
0.0
 10
438.2279450143
 20
102.5142675371
 30
0.0
 10
438.1727780622
 20
105.5366610708
 30
0.0
  0
SPLINE
  5
3B7
100
AcDbEntity
  8
0
100
AcDbSpline
 62
7
  6
CONTINUOUS
 70
0
 71
3
 72
11
 73
7
 74
0
 42
0.0000001
 43
0.0000001
 44
0.0000000001
 40
0.0
 40
0.0
 40
0.0
 40
0.0
 40
0.2565413387
 40
0.513704964
 40
0.7639651936
 40
1.0
 40
1.0
 40
1.0
 40
1.0
 10
440.5622983811
 20
105.7010400353
 30
0.0
 10
440.6180833593
 20
102.5887112622
 30
0.0
 10
440.7010511237
 20
96.3559577761
 30
0.0
 10
440.7432506908
 20
87.0861144557
 30
0.0
 10
440.7033016995
 20
78.0650827453
 30
0.0
 10
440.6197718641
 20
72.1649218197
 30
0.0
 10
440.562298377
 20
69.3014926294
 30
0.0
  0
SPLINE
  5
3B8
100
AcDbEntity
  8
0
100
AcDbSpline
 62
7
  6
CONTINUOUS
 70
0
 71
3
 72
11
 73
7
 74
0
 42
0.0000001
 43
0.0000001
 44
0.0000000001
 40
0.0
 40
0.0
 40
0.0
 40
0.0
 40
0.236034809
 40
0.4862950381
 40
0.7434586642
 40
1.0
 40
1.0
 40
1.0
 40
1.0
 10
445.5241796072
 20
69.3014926521
 30
0.0
 10
445.4667061405
 20
72.1649218711
 30
0.0
 10
445.3831758788
 20
78.0650828101
 30
0.0
 10
445.3432271097
 20
87.0861145476
 30
0.0
 10
445.3854264574
 20
96.3559578289
 30
0.0
 10
445.4683946552
 20
102.5887112773
 30
0.0
 10
445.5241796116
 20
105.7010400133
 30
0.0
  0
SPLINE
  5
3B9
100
AcDbEntity
  8
0
100
AcDbSpline
 62
7
  6
CONTINUOUS
 70
0
 71
3
 72
11
 73
7
 74
0
 42
0.0000001
 43
0.0000001
 44
0.0000000001
 40
0.0
 40
0.0
 40
0.0
 40
0.0
 40
0.2565871941
 40
0.5139552234
 40
0.7642916831
 40
1.0
 40
1.0
 40
1.0
 40
1.0
 10
447.9136996727
 20
105.536661101
 30
0.0
 10
447.8585327204
 20
102.5142675679
 30
0.0
 10
447.7764968102
 20
96.4597318108
 30
0.0
 10
447.734791584
 20
87.4554621193
 30
0.0
 10
447.7742324641
 20
78.6971587048
 30
0.0
 10
447.8568266479
 20
72.9714456715
 30
0.0
 10
447.913699672
 20
70.1951087346
 30
0.0
  0
SPLINE
  5
3BA
100
AcDbEntity
  8
0
100
AcDbSpline
 62
7
  6
CONTINUOUS
 70
0
 71
3
 72
11
 73
7
 74
0
 42
0.0000001
 43
0.0000001
 44
0.0000000001
 40
0.0
 40
0.0
 40
0.0
 40
0.0
 40
0.2480525121
 40
0.4975141392
 40
0.7483720157
 40
1.0
 40
1.0
 40
1.0
 40
1.0
 10
438.1727785865
 20
105.5366592666
 30
0.0
 10
438.1729222004
 20
105.6475179193
 30
0.0
 10
438.2121479365
 20
105.8716334591
 30
0.0
 10
438.3801893388
 20
106.1680133366
 30
0.0
 10
438.6375562798
 20
106.3935248975
 30
0.0
 10
438.8502557978
 20
106.4796873237
 30
0.0
 10
438.9600216839
 20
106.5041404586
 30
0.0
  0
SPLINE
  5
3BB
100
AcDbEntity
  8
0
100
AcDbSpline
 62
7
  6
CONTINUOUS
 70
0
 71
3
 72
13
 73
9
 74
0
 42
0.0000001
 43
0.0000001
 44
0.0000000001
 40
0.0
 40
0.0
 40
0.0
 40
0.0
 40
0.3524244998
 40
0.6530254874
 40
0.7753864547
 40
0.8753752245
 40
0.9507913489
 40
1.0
 40
1.0
 40
1.0
 40
1.0
 10
440.5622847353
 20
105.70103891
 30
0.0
 10
440.550356308
 20
105.7935666073
 30
0.0
 10
440.5287767687
 20
105.965083317
 30
0.0
 10
440.5046334717
 20
106.1689227354
 30
0.0
 10
440.4896316173
 20
106.3065417129
 30
0.0
 10
440.4817177571
 20
106.3849725443
 30
0.0
 10
440.4765696263
 20
106.4442031394
 30
0.0
 10
440.4743570664
 20
106.4771362632
 30
0.0
 10
440.4740387274
 20
106.4901588319
 30
0.0
  0
SPLINE
  5
3BC
100
AcDbEntity
  8
0
100
AcDbSpline
 62
7
  6
CONTINUOUS
 70
0
 71
3
 72
13
 73
9
 74
0
 42
0.0000001
 43
0.0000001
 44
0.0000000001
 40
0.0
 40
0.0
 40
0.0
 40
0.0
 40
0.3524244998
 40
0.6530254875
 40
0.7753864548
 40
0.8753752246
 40
0.950791349
 40
1.0
 40
1.0
 40
1.0
 40
1.0
 10
445.5241929907
 20
105.70103891
 30
0.0
 10
445.5361214173
 20
105.7935666074
 30
0.0
 10
445.5577009554
 20
105.9650833172
 30
0.0
 10
445.5818442517
 20
106.1689227357
 30
0.0
 10
445.5968461063
 20
106.3065417131
 30
0.0
 10
445.604759967
 20
106.3849725445
 30
0.0
 10
445.6099080985
 20
106.4442031395
 30
0.0
 10
445.6121206591
 20
106.4771362632
 30
0.0
 10
445.6124389987
 20
106.4901588319
 30
0.0
  0
SPLINE
  5
3BD
100
AcDbEntity
  8
0
100
AcDbSpline
 62
7
  6
CONTINUOUS
 70
0
 71
3
 72
11
 73
7
 74
0
 42
0.0000001
 43
0.0000001
 44
0.0000000001
 40
0.0
 40
0.0
 40
0.0
 40
0.0
 40
0.2480525115
 40
0.4975141385
 40
0.7483720153
 40
1.0
 40
1.0
 40
1.0
 40
1.0
 10
447.9136990325
 20
105.5366592675
 30
0.0
 10
447.9135554218
 20
105.6475179131
 30
0.0
 10
447.8743296969
 20
105.8716334397
 30
0.0
 10
447.7062883231
 20
106.1680133084
 30
0.0
 10
447.4489214163
 20
106.3935248756
 30
0.0
 10
447.2362219199
 20
106.4796873173
 30
0.0
 10
447.126456043
 20
106.5041404625
 30
0.0
  0
SPLINE
  5
3BE
100
AcDbEntity
  8
0
100
AcDbSpline
 62
7
  6
CONTINUOUS
 70
0
 71
3
 72
15
 73
11
 74
0
 42
0.0000001
 43
0.0000001
 44
0.0000000001
 40
0.0
 40
0.0
 40
0.0
 40
0.0
 40
0.3429254186
 40
0.502945931
 40
0.6483010089
 40
0.7742827881
 40
0.8768457196
 40
0.9527728543
 40
0.9800450993
 40
1.0
 40
1.0
 40
1.0
 40
1.0
 10
451.3201834997
 20
106.6303999135
 30
0.0
 10
451.372289175
 20
106.7374952744
 30
0.0
 10
451.4468557844
 20
106.8954805491
 30
0.0
 10
451.5388357468
 20
107.1009991922
 30
0.0
 10
451.5978882445
 20
107.2386852211
 30
0.0
 10
451.6467822072
 20
107.3590056496
 30
0.0
 10
451.6838800217
 20
107.4580225005
 30
0.0
 10
451.7063405605
 20
107.5259437162
 30
0.0
 10
451.7168172238
 20
107.56741506
 30
0.0
 10
451.7196636961
 20
107.5836184264
 30
0.0
 10
451.720228052
 20
107.5905257674
 30
0.0
  0
SPLINE
  5
3BF
100
AcDbEntity
  8
0
100
AcDbSpline
 62
7
  6
CONTINUOUS
 70
0
 71
3
 72
18
 73
14
 74
0
 42
0.0000001
 43
0.0000001
 44
0.0000000001
 40
0.0
 40
0.0
 40
0.0
 40
0.0
 40
0.2041023062
 40
0.3943928312
 40
0.565582652
 40
0.7129161783
 40
0.8323486579
 40
0.9207008718
 40
0.9525465711
 40
0.9760179276
 40
0.9846722698
 40
0.9913770682
 40
1.0
 40
1.0
 40
1.0
 40
1.0
 10
451.3201834998
 20
73.1230114932
 30
0.0
 10
451.3440269176
 20
73.0754932125
 30
0.0
 10
451.3906396704
 20
72.9839415531
 30
0.0
 10
451.459220548
 20
72.853547804
 30
0.0
 10
451.5227599752
 20
72.7372297432
 30
0.0
 10
451.5794145854
 20
72.638195188
 30
0.0
 10
451.6276359462
 20
72.5592521005
 30
0.0
 10
451.6623318313
 20
72.5073004222
 30
0.0
 10
451.685446084
 20
72.477826648
 30
0.0
 10
451.6966535293
 20
72.4654926691
 30
0.0
 10
451.7044852218
 20
72.4589480239
 30
0.0
 10
451.7095808365
 20
72.4556021831
 30
0.0
 10
451.7140958446
 20
72.4544011102
 30
0.0
 10
451.7161187803
 20
72.455377197
 30
0.0
  0
SPLINE
  5
3C0
100
AcDbEntity
  8
0
100
AcDbSpline
 62
7
  6
CONTINUOUS
 70
0
 71
3
 72
20
 73
16
 74
0
 42
0.0000001
 43
0.0000001
 44
0.0000000001
 40
0.0
 40
0.0
 40
0.0
 40
0.0
 40
0.2163665758
 40
0.4124117038
 40
0.5846501168
 40
0.7300024724
 40
0.7917700953
 40
0.8458861739
 40
0.8921150364
 40
0.9302534881
 40
0.9601415385
 40
0.9816678739
 40
0.9947974976
 40
0.9982834251
 40
1.0
 40
1.0
 40
1.0
 40
1.0
 10
445.5241929907
 20
69.301493828
 30
0.0
 10
445.5295719847
 20
69.2642997862
 30
0.0
 10
445.5399468797
 20
69.1934225702
 30
0.0
 10
445.5550783017
 20
69.0930072859
 30
0.0
 10
445.5688364994
 20
69.0048598645
 30
0.0
 10
445.5794463394
 20
68.9398279098
 30
0.0
 10
445.5871170383
 20
68.8951055558
 30
0.0
 10
445.5920623464
 20
68.8673872208
 30
0.0
 10
445.5964997285
 20
68.8437409191
 30
0.0
 10
445.6003900336
 20
68.8242952295
 30
0.0
 10
445.6037501202
 20
68.8090668839
 30
0.0
 10
445.6064414368
 20
68.7982733772
 30
0.0
 10
445.6085362825
 20
68.7918133424
 30
0.0
 10
445.6098299579
 20
68.7890673212
 30
0.0
 10
445.6106106764
 20
68.7883104659
 30
0.0
 10
445.6109061975
 20
68.788350002
 30
0.0
  0
SPLINE
  5
3C1
100
AcDbEntity
  8
0
100
AcDbSpline
 62
7
  6
CONTINUOUS
 70
0
 71
3
 72
20
 73
16
 74
0
 42
0.0000001
 43
0.0000001
 44
0.0000000001
 40
0.0
 40
0.0
 40
0.0
 40
0.0
 40
0.2163665756
 40
0.4124117033
 40
0.5846501162
 40
0.7300024718
 40
0.7917700946
 40
0.8458861732
 40
0.8921150357
 40
0.9302534874
 40
0.9601415378
 40
0.9816678733
 40
0.9947974971
 40
0.9982834248
 40
1.0
 40
1.0
 40
1.0
 40
1.0
 10
440.5622847353
 20
69.301493828
 30
0.0
 10
440.5569057417
 20
69.2642997861
 30
0.0
 10
440.5465308473
 20
69.1934225701
 30
0.0
 10
440.531399426
 20
69.0930072857
 30
0.0
 10
440.5176412288
 20
69.0048598642
 30
0.0
 10
440.507031389
 20
68.9398279096
 30
0.0
 10
440.4993606902
 20
68.8951055555
 30
0.0
 10
440.4944153821
 20
68.8673872205
 30
0.0
 10
440.4899779999
 20
68.8437409188
 30
0.0
 10
440.4860876946
 20
68.8242952292
 30
0.0
 10
440.4827276078
 20
68.8090668837
 30
0.0
 10
440.4800362909
 20
68.798273377
 30
0.0
 10
440.477941445
 20
68.7918133422
 30
0.0
 10
440.4766477693
 20
68.7890673209
 30
0.0
 10
440.4758670506
 20
68.7883104658
 30
0.0
 10
440.4755715294
 20
68.7883500019
 30
0.0
  0
SPLINE
  5
3C2
100
AcDbEntity
  8
0
100
AcDbSpline
 62
7
  6
CONTINUOUS
 70
0
 71
3
 72
18
 73
14
 74
0
 42
0.0000001
 43
0.0000001
 44
0.0000000001
 40
0.0
 40
0.0
 40
0.0
 40
0.0
 40
0.2041023065
 40
0.3943928317
 40
0.5655826528
 40
0.7129161793
 40
0.8323486591
 40
0.920700873
 40
0.9525465722
 40
0.9760179285
 40
0.9846722706
 40
0.9913770688
 40
1.0
 40
1.0
 40
1.0
 40
1.0
 10
434.7662942261
 20
73.1230115015
 30
0.0
 10
434.742450804
 20
73.0754932224
 30
0.0
 10
434.6958380476
 20
72.9839415638
 30
0.0
 10
434.6272571728
 20
72.8535478118
 30
0.0
 10
434.5637177456
 20
72.7372297496
 30
0.0
 10
434.5070631363
 20
72.6381951928
 30
0.0
 10
434.4588417763
 20
72.5592521038
 30
0.0
 10
434.4241458919
 20
72.5073004245
 30
0.0
 10
434.4010316398
 20
72.4778266495
 30
0.0
 10
434.3898241949
 20
72.4654926703
 30
0.0
 10
434.3819925027
 20
72.4589480247
 30
0.0
 10
434.3768968884
 20
72.4556021838
 30
0.0
 10
434.3723818805
 20
72.4544011106
 30
0.0
 10
434.370358945
 20
72.4553771974
 30
0.0
  0
SPLINE
  5
3C3
100
AcDbEntity
  8
0
100
AcDbSpline
 62
7
  6
CONTINUOUS
 70
0
 71
3
 72
15
 73
11
 74
0
 42
0.0000001
 43
0.0000001
 44
0.0000000001
 40
0.0
 40
0.0
 40
0.0
 40
0.0
 40
0.3429254184
 40
0.5029459305
 40
0.6483010083
 40
0.7742827874
 40
0.8768457189
 40
0.9527728538
 40
0.980045099
 40
1.0
 40
1.0
 40
1.0
 40
1.0
 10
434.7662942269
 20
106.6303999206
 30
0.0
 10
434.7141885494
 20
106.7374952795
 30
0.0
 10
434.6396219397
 20
106.8954805528
 30
0.0
 10
434.5476419766
 20
107.100999194
 30
0.0
 10
434.488589479
 20
107.2386852218
 30
0.0
 10
434.4396955166
 20
107.3590056496
 30
0.0
 10
434.4025977027
 20
107.4580225001
 30
0.0
 10
434.3801371647
 20
107.5259437157
 30
0.0
 10
434.3696605021
 20
107.5674150598
 30
0.0
 10
434.3668140303
 20
107.5836184264
 30
0.0
 10
434.3662496746
 20
107.5905257675
 30
0.0
  0
SPLINE
  5
3C4
100
AcDbEntity
  8
0
100
AcDbSpline
 62
7
  6
CONTINUOUS
 70
0
 71
3
 72
22
 73
18
 74
0
 42
0.0000001
 43
0.0000001
 44
0.0000000001
 40
0.0
 40
0.0
 40
0.0
 40
0.0
 40
0.0087157555
 40
0.0181634664
 40
0.028816915
 40
0.041000266
 40
0.0706431898
 40
0.1078994639
 40
0.1528443896
 40
0.2052152597
 40
0.2645486034
 40
0.3302505857
 40
0.4016426293
 40
0.4779970908
 40
0.6425843313
 40
0.818284402
 40
1.0
 40
1.0
 40
1.0
 40
1.0
 10
438.4065415059
 20
108.3153573946
 30
0.0
 10
438.4029207551
 20
108.3271743457
 30
0.0
 10
438.3917257569
 20
108.3507946538
 30
0.0
 10
438.3651087537
 20
108.3822578638
 30
0.0
 10
438.3288039202
 20
108.4105622712
 30
0.0
 10
438.263382989
 20
108.4465175209
 30
0.0
 10
438.1559393583
 20
108.4813846967
 30
0.0
 10
437.999367309
 20
108.5082205821
 30
0.0
 10
437.8087104466
 20
108.5212812901
 30
0.0
 10
437.5864263989
 20
108.5194678232
 30
0.0
 10
437.3353398518
 20
108.5017894984
 30
0.0
 10
437.0588060116
 20
108.4674854833
 30
0.0
 10
436.7604230981
 20
108.4160577441
 30
0.0
 10
436.3275186033
 20
108.3219606148
 30
0.0
 10
435.758411489
 20
108.1608682671
 30
0.0
 10
435.06219564
 20
107.9078227873
 30
0.0
 10
434.5983764296
 20
107.7023977027
 30
0.0
 10
434.3662496746
 20
107.5905257675
 30
0.0
  0
SPLINE
  5
3C5
100
AcDbEntity
  8
0
100
AcDbSpline
 62
7
  6
CONTINUOUS
 70
0
 71
3
 72
15
 73
11
 74
0
 42
0.0000001
 43
0.0000001
 44
0.0000000001
 40
0.0
 40
0.0
 40
0.0
 40
0.0
 40
0.125662709
 40
0.2511257816
 40
0.3763741544
 40
0.5014096487
 40
0.6262505492
 40
0.7509303319
 40
0.8754951716
 40
1.0
 40
1.0
 40
1.0
 40
1.0
 10
434.3662496746
 20
107.5905257675
 30
0.0
 10
433.5400138051
 20
107.1923238334
 30
0.0
 10
431.9417626259
 20
106.2808834947
 30
0.0
 10
429.7603270877
 20
104.597335642
 30
0.0
 10
427.836707465
 20
102.6299434486
 30
0.0
 10
426.2090041664
 20
100.4172257255
 30
0.0
 10
424.9088001859
 20
98.0021779439
 30
0.0
 10
423.9615108678
 20
95.4316300175
 30
0.0
 10
423.38563194
 20
92.7563418258
 30
0.0
 10
423.256807783
 20
90.9358204486
 30
0.0
 10
423.256807783
 20
90.0270853982
 30
0.0
  0
SPLINE
  5
3C6
100
AcDbEntity
  8
0
100
AcDbSpline
 62
7
  6
CONTINUOUS
 70
0
 71
3
 72
15
 73
11
 74
0
 42
0.0000001
 43
0.0000001
 44
0.0000000001
 40
0.0
 40
0.0
 40
0.0
 40
0.0
 40
0.1245048284
 40
0.2490696681
 40
0.3737494508
 40
0.4985903513
 40
0.6236258456
 40
0.7488742184
 40
0.874337291
 40
1.0
 40
1.0
 40
1.0
 40
1.0
 10
462.829669943
 20
90.0270853982
 30
0.0
 10
462.829669943
 20
90.9358204486
 30
0.0
 10
462.7008457861
 20
92.7563418258
 30
0.0
 10
462.1249668583
 20
95.4316300173
 30
0.0
 10
461.1776775403
 20
98.0021779437
 30
0.0
 10
459.8774735598
 20
100.4172257252
 30
0.0
 10
458.2497702613
 20
102.6299434483
 30
0.0
 10
456.3261506387
 20
104.5973356417
 30
0.0
 10
454.1447151005
 20
106.2808834943
 30
0.0
 10
452.5464639216
 20
107.1923238334
 30
0.0
 10
451.720228052
 20
107.5905257674
 30
0.0
  0
SPLINE
  5
3C7
100
AcDbEntity
  8
0
100
AcDbSpline
 62
7
  6
CONTINUOUS
 70
0
 71
3
 72
22
 73
18
 74
0
 42
0.0000001
 43
0.0000001
 44
0.0000000001
 40
0.0
 40
0.0
 40
0.0
 40
0.0
 40
0.1817156058
 40
0.3574156827
 40
0.5220029323
 40
0.5983573961
 40
0.6697494403
 40
0.7354514224
 40
0.794784765
 40
0.8471556333
 40
0.892100557
 40
0.9293568287
 40
0.9589997514
 40
0.9711831043
 40
0.9818365499
 40
0.9912842523
 40
1.0
 40
1.0
 40
1.0
 40
1.0
 10
451.720228052
 20
107.5905257674
 30
0.0
 10
451.4881012856
 20
107.7023977045
 30
0.0
 10
451.0242820576
 20
107.9078227994
 30
0.0
 10
450.3280661761
 20
108.1608682881
 30
0.0
 10
449.7589590359
 20
108.3219606375
 30
0.0
 10
449.3260545224
 20
108.4160577631
 30
0.0
 10
449.027671604
 20
108.4674854981
 30
0.0
 10
448.7511377639
 20
108.501789509
 30
0.0
 10
448.5000512207
 20
108.5194678265
 30
0.0
 10
448.2777671797
 20
108.5212812854
 30
0.0
 10
448.0871103266
 20
108.50822057
 30
0.0
 10
447.9305382859
 20
108.481384676
 30
0.0
 10
447.8230946614
 20
108.4465174911
 30
0.0
 10
447.7576737374
 20
108.4105622285
 30
0.0
 10
447.7213689381
 20
108.3822578048
 30
0.0
 10
447.6947519275
 20
108.3507946357
 30
0.0
 10
447.6835569622
 20
108.3271743354
 30
0.0
 10
447.6799362195
 20
108.3153573933
 30
0.0
  0
SPLINE
  5
3C8
100
AcDbEntity
  8
0
100
AcDbSpline
 62
7
  6
CONTINUOUS
 70
0
 71
3
 72
9
 73
5
 74
0
 42
0.0000001
 43
0.0000001
 44
0.0000000001
 40
0.0
 40
0.0
 40
0.0
 40
0.0
 40
0.2494178138
 40
1.0
 40
1.0
 40
1.0
 40
1.0
 10
447.6799362195
 20
108.3153573933
 30
0.0
 10
447.633815081
 20
108.164806317
 30
0.0
 10
447.4490044506
 20
107.5611643369
 30
0.0
 10
447.2646148422
 20
106.9573934539
 30
0.0
 10
447.1264560414
 20
106.5041404551
 30
0.0
  0
SPLINE
  5
3C9
100
AcDbEntity
  8
0
100
AcDbSpline
 62
7
  6
CONTINUOUS
 70
0
 71
3
 72
19
 73
15
 74
0
 42
0.0000001
 43
0.0000001
 44
0.0000000001
 40
0.0
 40
0.0
 40
0.0
 40
0.0
 40
0.0184374935
 40
0.0409470268
 40
0.069576725
 40
0.105279871
 40
0.148402628
 40
0.1989381206
 40
0.25664372
 40
0.3211036281
 40
0.467989041
 40
0.6342236004
 40
0.8136655754
 40
1.0
 40
1.0
 40
1.0
 40
1.0
 10
447.1264560414
 20
106.5041404551
 30
0.0
 10
447.1236826933
 20
106.4950440426
 30
0.0
 10
447.1120481861
 20
106.4764407783
 30
0.0
 10
447.0826102189
 20
106.4550861973
 30
0.0
 10
447.0412163171
 20
106.4374112391
 30
0.0
 10
446.9875160329
 20
106.4231942987
 30
0.0
 10
446.9216094079
 20
106.4123673288
 30
0.0
 10
446.8438459639
 20
106.4049675516
 30
0.0
 10
446.754832521
 20
106.4009533648
 30
0.0
 10
446.6160383197
 20
106.3999798034
 30
0.0
 10
446.4213438173
 20
106.4074189291
 30
0.0
 10
446.1679724094
 20
106.4264823688
 30
0.0
 10
445.8949636438
 20
106.4543769391
 30
0.0
 10
445.7077089326
 20
106.4774897513
 30
0.0
 10
445.6124389987
 20
106.4901588319
 30
0.0
  0
SPLINE
  5
3CA
100
AcDbEntity
  8
0
100
AcDbSpline
 62
7
  6
CONTINUOUS
 70
0
 71
3
 72
19
 73
15
 74
0
 42
0.0000001
 43
0.0000001
 44
0.0000000001
 40
0.0
 40
0.0
 40
0.0
 40
0.0
 40
0.1863344236
 40
0.3657763988
 40
0.5320109585
 40
0.6788963716
 40
0.7433562797
 40
0.8010618792
 40
0.8515973719
 40
0.8947201292
 40
0.9304232751
 40
0.9590529743
 40
0.9815625062
 40
1.0
 40
1.0
 40
1.0
 40
1.0
 10
440.4740387274
 20
106.4901588319
 30
0.0
 10
440.3787687939
 20
106.4774897521
 30
0.0
 10
440.191514083
 20
106.4543769398
 30
0.0
 10
439.9185053177
 20
106.426482369
 30
0.0
 10
439.6651339094
 20
106.4074189292
 30
0.0
 10
439.4704394067
 20
106.3999798033
 30
0.0
 10
439.3316452053
 20
106.4009533647
 30
0.0
 10
439.2426317621
 20
106.4049675514
 30
0.0
 10
439.1648683181
 20
106.4123673288
 30
0.0
 10
439.0989616921
 20
106.4231942978
 30
0.0
 10
439.0452614093
 20
106.4374112402
 30
0.0
 10
439.0038675027
 20
106.4550861938
 30
0.0
 10
438.9744295466
 20
106.4764407816
 30
0.0
 10
438.9627950239
 20
106.4950440398
 30
0.0
 10
438.9600216847
 20
106.5041404551
 30
0.0
  0
SPLINE
  5
3CB
100
AcDbEntity
  8
0
100
AcDbSpline
 62
7
  6
CONTINUOUS
 70
0
 71
3
 72
9
 73
5
 74
0
 42
0.0000001
 43
0.0000001
 44
0.0000000001
 40
0.0
 40
0.0
 40
0.0
 40
0.0
 40
0.2505863892
 40
1.0
 40
1.0
 40
1.0
 40
1.0
 10
438.9600216847
 20
106.5041404551
 30
0.0
 10
438.9138965358
 20
106.6554617022
 30
0.0
 10
438.7297205904
 20
107.259297634
 30
0.0
 10
438.5451194546
 20
107.8630038755
 30
0.0
 10
438.4065415059
 20
108.3153573946
 30
0.0
  0
SPLINE
  5
3CC
100
AcDbEntity
  8
0
100
AcDbSpline
 62
7
  6
CONTINUOUS
 70
0
 71
3
 72
19
 73
15
 74
0
 42
0.0000001
 43
0.0000001
 44
0.0000000001
 40
0.0
 40
0.0
 40
0.0
 40
0.0
 40
0.1263744789
 40
0.252672439
 40
0.3157638817
 40
0.3787836793
 40
0.4416858351
 40
0.5044079993
 40
0.5668981437
 40
0.6291510976
 40
0.6912064271
 40
0.7531162953
 40
0.8766614984
 40
1.0
 40
1.0
 40
1.0
 40
1.0
 10
434.7662862347
 20
106.6303960687
 30
0.0
 10
434.7796855205
 20
105.2188635243
 30
0.0
 10
434.8088246327
 20
102.3966738483
 30
0.0
 10
434.8545062001
 20
98.8698992392
 30
0.0
 10
434.8966573603
 20
96.050816772
 30
0.0
 10
434.9287247093
 20
93.9397912968
 30
0.0
 10
434.9553004466
 20
91.8328070069
 30
0.0
 10
434.9662162582
 20
89.7315745708
 30
0.0
 10
434.9553714734
 20
87.6375929702
 30
0.0
 10
434.9288034026
 20
85.5512260232
 30
0.0
 10
434.8967134635
 20
83.4714272637
 30
0.0
 10
434.8545787021
 20
80.7070701492
 30
0.0
 10
434.8088763692
 20
77.2581605169
 30
0.0
 10
434.7796947689
 20
74.5006346211
 30
0.0
 10
434.7662860581
 20
73.123015438
 30
0.0
  0
SPLINE
  5
3CD
100
AcDbEntity
  8
0
100
AcDbSpline
 62
7
  6
CONTINUOUS
 70
0
 71
3
 72
19
 73
15
 74
0
 42
0.0000001
 43
0.0000001
 44
0.0000000001
 40
0.0
 40
0.0
 40
0.0
 40
0.0
 40
0.1233385015
 40
0.2468837052
 40
0.3087935726
 40
0.3708489004
 40
0.4331018524
 40
0.4955919961
 40
0.5583141614
 40
0.6212163191
 40
0.6842361179
 40
0.7473275611
 40
0.8736255211
 40
1.0
 40
1.0
 40
1.0
 40
1.0
 10
451.3201915808
 20
73.1230153878
 30
0.0
 10
451.3067828673
 20
74.5006345705
 30
0.0
 10
451.2776014096
 20
77.2581604745
 30
0.0
 10
451.2318989856
 20
80.707070103
 30
0.0
 10
451.1897642588
 20
83.4714271967
 30
0.0
 10
451.157674345
 20
85.551225907
 30
0.0
 10
451.1311062389
 20
87.6375928058
 30
0.0
 10
451.1202614701
 20
89.7315743893
 30
0.0
 10
451.1311772988
 20
91.8328068507
 30
0.0
 10
451.1577529786
 20
93.939791188
 30
0.0
 10
451.1898204017
 20
96.0508167033
 30
0.0
 10
451.2319715096
 20
98.8698991895
 30
0.0
 10
451.2776530705
 20
102.3966738035
 30
0.0
 10
451.3067922795
 20
105.2188634774
 30
0.0
 10
451.3201915743
 20
106.630396022
 30
0.0
  0
SPLINE
  5
3CE
100
AcDbEntity
  8
0
100
AcDbSpline
 62
7
  6
CONTINUOUS
 70
0
 71
3
 72
39
 73
35
 74
0
 42
0.0000001
 43
0.0000001
 44
0.0000000001
 40
0.0
 40
0.0
 40
0.0
 40
0.0
 40
0.0310570732
 40
0.0621216047
 40
0.0932007355
 40
0.1243010549
 40
0.155428322
 40
0.1865872465
 40
0.2177813093
 40
0.2490126313
 40
0.2802818969
 40
0.3115883323
 40
0.3429297406
 40
0.3743025903
 40
0.4057021541
 40
0.4371226911
 40
0.4685576665
 40
0.5
 40
0.5314423335
 40
0.5628773089
 40
0.5942978459
 40
0.6256974097
 40
0.6570702594
 40
0.6884116677
 40
0.7197181031
 40
0.7509873687
 40
0.7822186907
 40
0.8134127535
 40
0.844571678
 40
0.8756989451
 40
0.9067992645
 40
0.9378783953
 40
0.9689429268
 40
1.0
 40
1.0
 40
1.0
 40
1.0
 10
343.043238863
 20
90.9838094405
 30
0.0
 10
343.043238863
 20
91.6300097657
 30
0.0
 10
343.1075638848
 20
92.9234859188
 30
0.0
 10
343.3960833419
 20
94.8441902184
 30
0.0
 10
343.8738542234
 20
96.7278889341
 30
0.0
 10
344.5362657816
 20
98.5561796624
 30
0.0
 10
345.3769267429
 20
100.3115155613
 30
0.0
 10
346.3877277422
 20
101.9769707389
 30
0.0
 10
347.5589206527
 20
103.5365118407
 30
0.0
 10
348.8792136533
 20
104.9751232681
 30
0.0
 10
350.3358810566
 20
106.2789590953
 30
0.0
 10
351.9148867362
 20
107.4354735505
 30
0.0
 10
353.6010199052
 20
108.4335414255
 30
0.0
 10
355.3780418951
 20
109.2635639776
 30
0.0
 10
357.2288425134
 20
109.9175603023
 30
0.0
 10
359.1356044876
 20
110.3892431411
 30
0.0
 10
361.079974449
 20
110.6740785395
 30
0.0
 10
363.043238863
 20
110.7693288242
 30
0.0
 10
365.0065032771
 20
110.6740785395
 30
0.0
 10
366.9508732385
 20
110.3892431411
 30
0.0
 10
368.8576352127
 20
109.9175603023
 30
0.0
 10
370.708435831
 20
109.2635639776
 30
0.0
 10
372.4854578209
 20
108.4335414255
 30
0.0
 10
374.1715909898
 20
107.4354735505
 30
0.0
 10
375.7505966695
 20
106.2789590953
 30
0.0
 10
377.2072640727
 20
104.9751232681
 30
0.0
 10
378.5275570734
 20
103.5365118407
 30
0.0
 10
379.6987499839
 20
101.9769707389
 30
0.0
 10
380.7095509832
 20
100.3115155613
 30
0.0
 10
381.5502119445
 20
98.5561796624
 30
0.0
 10
382.2126235027
 20
96.7278889341
 30
0.0
 10
382.6903943842
 20
94.8441902184
 30
0.0
 10
382.9789138413
 20
92.9234859188
 30
0.0
 10
383.043238863
 20
91.6300097657
 30
0.0
 10
383.043238863
 20
90.9838094405
 30
0.0
  0
SPLINE
  5
3CF
100
AcDbEntity
  8
0
100
AcDbSpline
 62
7
  6
CONTINUOUS
 70
0
 71
3
 72
15
 73
11
 74
0
 42
0.0000001
 43
0.0000001
 44
0.0000000001
 40
0.0
 40
0.0
 40
0.0
 40
0.0
 40
0.1255054397
 40
0.2508701273
 40
0.3760827791
 40
0.5011396637
 40
0.6260448092
 40
0.7508098203
 40
0.8754533143
 40
1.0
 40
1.0
 40
1.0
 40
1.0
 10
371.7161189462
 20
72.4553768526
 30
0.0
 10
372.3782376863
 20
72.7744830215
 30
0.0
 10
373.6674831815
 20
73.4864277258
 30
0.0
 10
375.4689036322
 20
74.7611437055
 30
0.0
 10
377.1155591956
 20
76.2268333046
 30
0.0
 10
378.5865220259
 20
77.8651011741
 30
0.0
 10
379.8634388745
 20
79.6555424569
 30
0.0
 10
380.9302882923
 20
81.5758989385
 30
0.0
 10
381.7735945454
 20
83.6018254993
 30
0.0
 10
382.1800289394
 20
85.0072562393
 30
0.0
 10
382.3427507192
 20
85.7182620994
 30
0.0
  0
SPLINE
  5
3D0
100
AcDbEntity
  8
0
100
AcDbSpline
 62
7
  6
CONTINUOUS
 70
0
 71
3
 72
15
 73
11
 74
0
 42
0.0000001
 43
0.0000001
 44
0.0000000001
 40
0.0
 40
0.0
 40
0.0
 40
0.0
 40
0.1245466845
 40
0.2491901784
 40
0.3739551897
 40
0.4988603357
 40
0.6239172208
 40
0.749129873
 40
0.8744945611
 40
1.0
 40
1.0
 40
1.0
 40
1.0
 10
343.7437270068
 20
85.7182620994
 30
0.0
 10
343.9064487852
 20
85.0072562457
 30
0.0
 10
344.3128831766
 20
83.6018255126
 30
0.0
 10
345.156189425
 20
81.5758989567
 30
0.0
 10
346.223038842
 20
79.6555424717
 30
0.0
 10
347.4999556929
 20
77.8651011827
 30
0.0
 10
348.9709185281
 20
76.2268333065
 30
0.0
 10
350.6175740978
 20
74.7611437019
 30
0.0
 10
352.4189945498
 20
73.4864277228
 30
0.0
 10
353.7082400431
 20
72.7744830199
 30
0.0
 10
354.370358779
 20
72.455376853
 30
0.0
  0
SPLINE
  5
3D1
100
AcDbEntity
  8
0
100
AcDbSpline
 62
7
  6
CONTINUOUS
 70
0
 71
3
 72
13
 73
9
 74
0
 42
0.0000001
 43
0.0000001
 44
0.0000000001
 40
0.0
 40
0.0
 40
0.0
 40
0.0
 40
0.1253188199
 40
0.2506325047
 40
0.375938331
 40
0.5012331366
 40
0.7506128428
 40
1.0
 40
1.0
 40
1.0
 40
1.0
 10
363.043238863
 20
96.8481006081
 30
0.0
 10
363.0895759959
 20
96.8481018705
 30
0.0
 10
363.1825198052
 20
96.8575043824
 30
0.0
 10
363.3160640776
 20
96.8991686429
 30
0.0
 10
363.4387100557
 20
96.9665984547
 30
0.0
 10
363.5808366234
 20
97.0864307272
 30
0.0
 10
363.7100950624
 20
97.2849447727
 30
0.0
 10
363.7457912109
 20
97.4712242033
 30
0.0
 10
363.7457936076
 20
97.5634360981
 30
0.0
  0
SPLINE
  5
3D2
100
AcDbEntity
  8
0
100
AcDbSpline
 62
7
  6
CONTINUOUS
 70
0
 71
3
 72
11
 73
7
 74
0
 42
0.0000001
 43
0.0000001
 44
0.0000000001
 40
0.0
 40
0.0
 40
0.0
 40
0.0
 40
0.2494504359
 40
0.4991396291
 40
0.7492769892
 40
1.0
 40
1.0
 40
1.0
 40
1.0
 10
363.7457936076
 20
103.7510727157
 30
0.0
 10
363.7457924894
 20
103.8063388384
 30
0.0
 10
363.73357892
 20
103.917306963
 30
0.0
 10
363.6792040393
 20
104.0755590268
 30
0.0
 10
363.5908186485
 20
104.2180381074
 30
0.0
 10
363.511452041
 20
104.2972967605
 30
0.0
 10
363.4677949624
 20
104.331642748
 30
0.0
  0
SPLINE
  5
3D3
100
AcDbEntity
  8
0
100
AcDbSpline
 62
7
  6
CONTINUOUS
 70
0
 71
3
 72
11
 73
7
 74
0
 42
0.0000001
 43
0.0000001
 44
0.0000000001
 40
0.0
 40
0.0
 40
0.0
 40
0.0
 40
0.2507230192
 40
0.5008603476
 40
0.7505495316
 40
1.0
 40
1.0
 40
1.0
 40
1.0
 10
362.6186836631
 20
104.3316433575
 30
0.0
 10
362.5750264768
 20
104.29729736
 30
0.0
 10
362.4956595294
 20
104.2180388061
 30
0.0
 10
362.4072738896
 20
104.0755595322
 30
0.0
 10
362.3528989375
 20
103.9173072376
 30
0.0
 10
362.3406851531
 20
103.8063389341
 30
0.0
 10
362.3406841185
 20
103.7510727157
 30
0.0
  0
SPLINE
  5
3D4
100
AcDbEntity
  8
0
100
AcDbSpline
 62
7
  6
CONTINUOUS
 70
0
 71
3
 72
13
 73
9
 74
0
 42
0.0000001
 43
0.0000001
 44
0.0000000001
 40
0.0
 40
0.0
 40
0.0
 40
0.0
 40
0.2493871084
 40
0.4987668441
 40
0.6240616696
 40
0.7493674818
 40
0.8746811424
 40
1.0
 40
1.0
 40
1.0
 40
1.0
 10
362.3406841185
 20
97.5634360981
 30
0.0
 10
362.3406866123
 20
97.4712242166
 30
0.0
 10
362.3763826104
 20
97.2849447735
 30
0.0
 10
362.5056411342
 20
97.0864307586
 30
0.0
 10
362.6477676652
 20
96.9665983903
 30
0.0
 10
362.7704136353
 20
96.8991686447
 30
0.0
 10
362.9039578575
 20
96.8575039401
 30
0.0
 10
362.9969017139
 20
96.8481021793
 30
0.0
 10
363.043238863
 20
96.8481006081
 30
0.0
  0
SPLINE
  5
3D5
100
AcDbEntity
  8
0
100
AcDbSpline
 62
7
  6
CONTINUOUS
 70
0
 71
3
 72
11
 73
7
 74
0
 42
0.0000001
 43
0.0000001
 44
0.0000000001
 40
0.0
 40
0.0
 40
0.0
 40
0.0
 40
0.2357083181
 40
0.4860447772
 40
0.7434128057
 40
1.0
 40
1.0
 40
1.0
 40
1.0
 10
358.1727780614
 20
70.1951087161
 30
0.0
 10
358.2296510857
 20
72.9714456658
 30
0.0
 10
358.312245258
 20
78.6971587036
 30
0.0
 10
358.351686144
 20
87.4554621135
 30
0.0
 10
358.309980912
 20
96.4597317882
 30
0.0
 10
358.2279450143
 20
102.5142675371
 30
0.0
 10
358.1727780622
 20
105.5366610708
 30
0.0
  0
SPLINE
  5
3D6
100
AcDbEntity
  8
0
100
AcDbSpline
 62
7
  6
CONTINUOUS
 70
0
 71
3
 72
11
 73
7
 74
0
 42
0.0000001
 43
0.0000001
 44
0.0000000001
 40
0.0
 40
0.0
 40
0.0
 40
0.0
 40
0.2565413387
 40
0.513704964
 40
0.7639651936
 40
1.0
 40
1.0
 40
1.0
 40
1.0
 10
360.5622983811
 20
105.7010400353
 30
0.0
 10
360.6180833593
 20
102.5887112622
 30
0.0
 10
360.7010511237
 20
96.3559577761
 30
0.0
 10
360.7432506908
 20
87.0861144557
 30
0.0
 10
360.7033016995
 20
78.0650827453
 30
0.0
 10
360.6197718641
 20
72.1649218197
 30
0.0
 10
360.562298377
 20
69.3014926294
 30
0.0
  0
SPLINE
  5
3D7
100
AcDbEntity
  8
0
100
AcDbSpline
 62
7
  6
CONTINUOUS
 70
0
 71
3
 72
11
 73
7
 74
0
 42
0.0000001
 43
0.0000001
 44
0.0000000001
 40
0.0
 40
0.0
 40
0.0
 40
0.0
 40
0.236034809
 40
0.4862950381
 40
0.7434586642
 40
1.0
 40
1.0
 40
1.0
 40
1.0
 10
365.5241796072
 20
69.3014926521
 30
0.0
 10
365.4667061405
 20
72.1649218711
 30
0.0
 10
365.3831758788
 20
78.0650828101
 30
0.0
 10
365.3432271097
 20
87.0861145476
 30
0.0
 10
365.3854264574
 20
96.3559578289
 30
0.0
 10
365.4683946552
 20
102.5887112773
 30
0.0
 10
365.5241796116
 20
105.7010400133
 30
0.0
  0
SPLINE
  5
3D8
100
AcDbEntity
  8
0
100
AcDbSpline
 62
7
  6
CONTINUOUS
 70
0
 71
3
 72
11
 73
7
 74
0
 42
0.0000001
 43
0.0000001
 44
0.0000000001
 40
0.0
 40
0.0
 40
0.0
 40
0.0
 40
0.2565871941
 40
0.5139552234
 40
0.7642916831
 40
1.0
 40
1.0
 40
1.0
 40
1.0
 10
367.9136996727
 20
105.536661101
 30
0.0
 10
367.8585327204
 20
102.5142675679
 30
0.0
 10
367.7764968102
 20
96.4597318108
 30
0.0
 10
367.734791584
 20
87.4554621193
 30
0.0
 10
367.7742324641
 20
78.6971587048
 30
0.0
 10
367.8568266479
 20
72.9714456715
 30
0.0
 10
367.913699672
 20
70.1951087346
 30
0.0
  0
SPLINE
  5
3D9
100
AcDbEntity
  8
0
100
AcDbSpline
 62
7
  6
CONTINUOUS
 70
0
 71
3
 72
11
 73
7
 74
0
 42
0.0000001
 43
0.0000001
 44
0.0000000001
 40
0.0
 40
0.0
 40
0.0
 40
0.0
 40
0.2480525121
 40
0.4975141392
 40
0.7483720157
 40
1.0
 40
1.0
 40
1.0
 40
1.0
 10
358.1727785865
 20
105.5366592666
 30
0.0
 10
358.1729222004
 20
105.6475179193
 30
0.0
 10
358.2121479365
 20
105.8716334591
 30
0.0
 10
358.3801893388
 20
106.1680133366
 30
0.0
 10
358.6375562798
 20
106.3935248975
 30
0.0
 10
358.8502557978
 20
106.4796873237
 30
0.0
 10
358.9600216839
 20
106.5041404586
 30
0.0
  0
SPLINE
  5
3DA
100
AcDbEntity
  8
0
100
AcDbSpline
 62
7
  6
CONTINUOUS
 70
0
 71
3
 72
13
 73
9
 74
0
 42
0.0000001
 43
0.0000001
 44
0.0000000001
 40
0.0
 40
0.0
 40
0.0
 40
0.0
 40
0.3524244998
 40
0.6530254874
 40
0.7753864547
 40
0.8753752245
 40
0.9507913489
 40
1.0
 40
1.0
 40
1.0
 40
1.0
 10
360.5622847353
 20
105.70103891
 30
0.0
 10
360.550356308
 20
105.7935666073
 30
0.0
 10
360.5287767687
 20
105.965083317
 30
0.0
 10
360.5046334717
 20
106.1689227354
 30
0.0
 10
360.4896316173
 20
106.3065417129
 30
0.0
 10
360.4817177571
 20
106.3849725443
 30
0.0
 10
360.4765696263
 20
106.4442031394
 30
0.0
 10
360.4743570664
 20
106.4771362632
 30
0.0
 10
360.4740387274
 20
106.4901588319
 30
0.0
  0
SPLINE
  5
3DB
100
AcDbEntity
  8
0
100
AcDbSpline
 62
7
  6
CONTINUOUS
 70
0
 71
3
 72
13
 73
9
 74
0
 42
0.0000001
 43
0.0000001
 44
0.0000000001
 40
0.0
 40
0.0
 40
0.0
 40
0.0
 40
0.3524244998
 40
0.6530254875
 40
0.7753864548
 40
0.8753752246
 40
0.950791349
 40
1.0
 40
1.0
 40
1.0
 40
1.0
 10
365.5241929907
 20
105.70103891
 30
0.0
 10
365.5361214173
 20
105.7935666074
 30
0.0
 10
365.5577009554
 20
105.9650833172
 30
0.0
 10
365.5818442517
 20
106.1689227357
 30
0.0
 10
365.5968461063
 20
106.3065417131
 30
0.0
 10
365.604759967
 20
106.3849725445
 30
0.0
 10
365.6099080985
 20
106.4442031395
 30
0.0
 10
365.6121206591
 20
106.4771362632
 30
0.0
 10
365.6124389987
 20
106.4901588319
 30
0.0
  0
SPLINE
  5
3DC
100
AcDbEntity
  8
0
100
AcDbSpline
 62
7
  6
CONTINUOUS
 70
0
 71
3
 72
11
 73
7
 74
0
 42
0.0000001
 43
0.0000001
 44
0.0000000001
 40
0.0
 40
0.0
 40
0.0
 40
0.0
 40
0.2480525115
 40
0.4975141385
 40
0.7483720153
 40
1.0
 40
1.0
 40
1.0
 40
1.0
 10
367.9136990325
 20
105.5366592675
 30
0.0
 10
367.9135554218
 20
105.6475179131
 30
0.0
 10
367.8743296969
 20
105.8716334397
 30
0.0
 10
367.7062883231
 20
106.1680133084
 30
0.0
 10
367.4489214163
 20
106.3935248756
 30
0.0
 10
367.2362219199
 20
106.4796873173
 30
0.0
 10
367.126456043
 20
106.5041404625
 30
0.0
  0
SPLINE
  5
3DD
100
AcDbEntity
  8
0
100
AcDbSpline
 62
7
  6
CONTINUOUS
 70
0
 71
3
 72
15
 73
11
 74
0
 42
0.0000001
 43
0.0000001
 44
0.0000000001
 40
0.0
 40
0.0
 40
0.0
 40
0.0
 40
0.3429254186
 40
0.502945931
 40
0.6483010089
 40
0.7742827881
 40
0.8768457196
 40
0.9527728543
 40
0.9800450993
 40
1.0
 40
1.0
 40
1.0
 40
1.0
 10
371.3201834997
 20
106.6303999135
 30
0.0
 10
371.372289175
 20
106.7374952744
 30
0.0
 10
371.4468557844
 20
106.8954805491
 30
0.0
 10
371.5388357468
 20
107.1009991922
 30
0.0
 10
371.5978882445
 20
107.2386852211
 30
0.0
 10
371.6467822072
 20
107.3590056496
 30
0.0
 10
371.6838800217
 20
107.4580225005
 30
0.0
 10
371.7063405605
 20
107.5259437162
 30
0.0
 10
371.7168172238
 20
107.56741506
 30
0.0
 10
371.7196636961
 20
107.5836184264
 30
0.0
 10
371.720228052
 20
107.5905257674
 30
0.0
  0
SPLINE
  5
3DE
100
AcDbEntity
  8
0
100
AcDbSpline
 62
7
  6
CONTINUOUS
 70
0
 71
3
 72
18
 73
14
 74
0
 42
0.0000001
 43
0.0000001
 44
0.0000000001
 40
0.0
 40
0.0
 40
0.0
 40
0.0
 40
0.2041023062
 40
0.3943928312
 40
0.565582652
 40
0.7129161783
 40
0.8323486579
 40
0.9207008718
 40
0.9525465711
 40
0.9760179276
 40
0.9846722698
 40
0.9913770682
 40
1.0
 40
1.0
 40
1.0
 40
1.0
 10
371.3201834998
 20
73.1230114932
 30
0.0
 10
371.3440269176
 20
73.0754932125
 30
0.0
 10
371.3906396704
 20
72.9839415531
 30
0.0
 10
371.459220548
 20
72.853547804
 30
0.0
 10
371.5227599752
 20
72.7372297432
 30
0.0
 10
371.5794145854
 20
72.638195188
 30
0.0
 10
371.6276359462
 20
72.5592521005
 30
0.0
 10
371.6623318313
 20
72.5073004222
 30
0.0
 10
371.685446084
 20
72.477826648
 30
0.0
 10
371.6966535293
 20
72.4654926691
 30
0.0
 10
371.7044852218
 20
72.4589480239
 30
0.0
 10
371.7095808365
 20
72.4556021831
 30
0.0
 10
371.7140958446
 20
72.4544011102
 30
0.0
 10
371.7161187803
 20
72.455377197
 30
0.0
  0
SPLINE
  5
3DF
100
AcDbEntity
  8
0
100
AcDbSpline
 62
7
  6
CONTINUOUS
 70
0
 71
3
 72
20
 73
16
 74
0
 42
0.0000001
 43
0.0000001
 44
0.0000000001
 40
0.0
 40
0.0
 40
0.0
 40
0.0
 40
0.2163665758
 40
0.4124117038
 40
0.5846501168
 40
0.7300024724
 40
0.7917700953
 40
0.8458861739
 40
0.8921150364
 40
0.9302534881
 40
0.9601415385
 40
0.9816678739
 40
0.9947974975
 40
0.9982834251
 40
1.0
 40
1.0
 40
1.0
 40
1.0
 10
365.5241929907
 20
69.301493828
 30
0.0
 10
365.5295719847
 20
69.2642997862
 30
0.0
 10
365.5399468797
 20
69.1934225702
 30
0.0
 10
365.5550783017
 20
69.0930072859
 30
0.0
 10
365.5688364994
 20
69.0048598645
 30
0.0
 10
365.5794463394
 20
68.9398279098
 30
0.0
 10
365.5871170383
 20
68.8951055558
 30
0.0
 10
365.5920623464
 20
68.8673872208
 30
0.0
 10
365.5964997285
 20
68.8437409191
 30
0.0
 10
365.6003900336
 20
68.8242952295
 30
0.0
 10
365.6037501202
 20
68.8090668839
 30
0.0
 10
365.6064414368
 20
68.7982733772
 30
0.0
 10
365.6085362825
 20
68.7918133424
 30
0.0
 10
365.6098299579
 20
68.7890673212
 30
0.0
 10
365.6106106764
 20
68.7883104659
 30
0.0
 10
365.6109061975
 20
68.788350002
 30
0.0
  0
SPLINE
  5
3E0
100
AcDbEntity
  8
0
100
AcDbSpline
 62
7
  6
CONTINUOUS
 70
0
 71
3
 72
20
 73
16
 74
0
 42
0.0000001
 43
0.0000001
 44
0.0000000001
 40
0.0
 40
0.0
 40
0.0
 40
0.0
 40
0.2163665756
 40
0.4124117033
 40
0.5846501162
 40
0.7300024718
 40
0.7917700946
 40
0.8458861732
 40
0.8921150357
 40
0.9302534874
 40
0.9601415378
 40
0.9816678733
 40
0.9947974971
 40
0.9982834248
 40
1.0
 40
1.0
 40
1.0
 40
1.0
 10
360.5622847353
 20
69.301493828
 30
0.0
 10
360.5569057417
 20
69.2642997861
 30
0.0
 10
360.5465308473
 20
69.1934225701
 30
0.0
 10
360.531399426
 20
69.0930072857
 30
0.0
 10
360.5176412288
 20
69.0048598642
 30
0.0
 10
360.507031389
 20
68.9398279096
 30
0.0
 10
360.4993606902
 20
68.8951055555
 30
0.0
 10
360.4944153821
 20
68.8673872205
 30
0.0
 10
360.4899779999
 20
68.8437409188
 30
0.0
 10
360.4860876946
 20
68.8242952292
 30
0.0
 10
360.4827276078
 20
68.8090668837
 30
0.0
 10
360.4800362909
 20
68.798273377
 30
0.0
 10
360.477941445
 20
68.7918133422
 30
0.0
 10
360.4766477693
 20
68.7890673209
 30
0.0
 10
360.4758670506
 20
68.7883104658
 30
0.0
 10
360.4755715294
 20
68.7883500019
 30
0.0
  0
SPLINE
  5
3E1
100
AcDbEntity
  8
0
100
AcDbSpline
 62
7
  6
CONTINUOUS
 70
0
 71
3
 72
18
 73
14
 74
0
 42
0.0000001
 43
0.0000001
 44
0.0000000001
 40
0.0
 40
0.0
 40
0.0
 40
0.0
 40
0.2041023065
 40
0.3943928317
 40
0.5655826528
 40
0.7129161793
 40
0.8323486591
 40
0.920700873
 40
0.9525465722
 40
0.9760179285
 40
0.9846722706
 40
0.9913770688
 40
1.0
 40
1.0
 40
1.0
 40
1.0
 10
354.7662942261
 20
73.1230115015
 30
0.0
 10
354.742450804
 20
73.0754932224
 30
0.0
 10
354.6958380476
 20
72.9839415638
 30
0.0
 10
354.6272571728
 20
72.8535478118
 30
0.0
 10
354.5637177456
 20
72.7372297496
 30
0.0
 10
354.5070631363
 20
72.6381951928
 30
0.0
 10
354.4588417763
 20
72.5592521038
 30
0.0
 10
354.4241458919
 20
72.5073004245
 30
0.0
 10
354.4010316398
 20
72.4778266495
 30
0.0
 10
354.3898241949
 20
72.4654926703
 30
0.0
 10
354.3819925027
 20
72.4589480247
 30
0.0
 10
354.3768968884
 20
72.4556021838
 30
0.0
 10
354.3723818805
 20
72.4544011106
 30
0.0
 10
354.370358945
 20
72.4553771974
 30
0.0
  0
SPLINE
  5
3E2
100
AcDbEntity
  8
0
100
AcDbSpline
 62
7
  6
CONTINUOUS
 70
0
 71
3
 72
15
 73
11
 74
0
 42
0.0000001
 43
0.0000001
 44
0.0000000001
 40
0.0
 40
0.0
 40
0.0
 40
0.0
 40
0.3429254184
 40
0.5029459305
 40
0.6483010083
 40
0.7742827874
 40
0.8768457189
 40
0.9527728538
 40
0.980045099
 40
1.0
 40
1.0
 40
1.0
 40
1.0
 10
354.7662942269
 20
106.6303999206
 30
0.0
 10
354.7141885494
 20
106.7374952795
 30
0.0
 10
354.6396219397
 20
106.8954805528
 30
0.0
 10
354.5476419766
 20
107.100999194
 30
0.0
 10
354.488589479
 20
107.2386852218
 30
0.0
 10
354.4396955166
 20
107.3590056496
 30
0.0
 10
354.4025977027
 20
107.4580225001
 30
0.0
 10
354.3801371647
 20
107.5259437157
 30
0.0
 10
354.3696605021
 20
107.5674150598
 30
0.0
 10
354.3668140303
 20
107.5836184264
 30
0.0
 10
354.3662496746
 20
107.5905257675
 30
0.0
  0
SPLINE
  5
3E3
100
AcDbEntity
  8
0
100
AcDbSpline
 62
7
  6
CONTINUOUS
 70
0
 71
3
 72
22
 73
18
 74
0
 42
0.0000001
 43
0.0000001
 44
0.0000000001
 40
0.0
 40
0.0
 40
0.0
 40
0.0
 40
0.0087157555
 40
0.0181634664
 40
0.028816915
 40
0.041000266
 40
0.0706431898
 40
0.1078994639
 40
0.1528443896
 40
0.2052152597
 40
0.2645486034
 40
0.3302505857
 40
0.4016426293
 40
0.4779970908
 40
0.6425843313
 40
0.818284402
 40
1.0
 40
1.0
 40
1.0
 40
1.0
 10
358.4065415059
 20
108.3153573946
 30
0.0
 10
358.4029207551
 20
108.3271743457
 30
0.0
 10
358.3917257569
 20
108.3507946538
 30
0.0
 10
358.3651087537
 20
108.3822578638
 30
0.0
 10
358.3288039202
 20
108.4105622712
 30
0.0
 10
358.263382989
 20
108.4465175209
 30
0.0
 10
358.1559393583
 20
108.4813846967
 30
0.0
 10
357.999367309
 20
108.5082205821
 30
0.0
 10
357.8087104466
 20
108.5212812901
 30
0.0
 10
357.5864263989
 20
108.5194678232
 30
0.0
 10
357.3353398518
 20
108.5017894984
 30
0.0
 10
357.0588060116
 20
108.4674854833
 30
0.0
 10
356.7604230981
 20
108.4160577441
 30
0.0
 10
356.3275186033
 20
108.3219606148
 30
0.0
 10
355.758411489
 20
108.1608682671
 30
0.0
 10
355.06219564
 20
107.9078227873
 30
0.0
 10
354.5983764296
 20
107.7023977027
 30
0.0
 10
354.3662496746
 20
107.5905257675
 30
0.0
  0
SPLINE
  5
3E4
100
AcDbEntity
  8
0
100
AcDbSpline
 62
7
  6
CONTINUOUS
 70
0
 71
3
 72
15
 73
11
 74
0
 42
0.0000001
 43
0.0000001
 44
0.0000000001
 40
0.0
 40
0.0
 40
0.0
 40
0.0
 40
0.125662709
 40
0.2511257816
 40
0.3763741544
 40
0.5014096487
 40
0.6262505492
 40
0.7509303319
 40
0.8754951716
 40
1.0
 40
1.0
 40
1.0
 40
1.0
 10
354.3662496746
 20
107.5905257675
 30
0.0
 10
353.5400138051
 20
107.1923238334
 30
0.0
 10
351.9417626259
 20
106.2808834947
 30
0.0
 10
349.7603270877
 20
104.597335642
 30
0.0
 10
347.836707465
 20
102.6299434486
 30
0.0
 10
346.2090041664
 20
100.4172257255
 30
0.0
 10
344.9088001859
 20
98.0021779439
 30
0.0
 10
343.9615108678
 20
95.4316300175
 30
0.0
 10
343.38563194
 20
92.7563418258
 30
0.0
 10
343.256807783
 20
90.9358204486
 30
0.0
 10
343.256807783
 20
90.0270853982
 30
0.0
  0
SPLINE
  5
3E5
100
AcDbEntity
  8
0
100
AcDbSpline
 62
7
  6
CONTINUOUS
 70
0
 71
3
 72
15
 73
11
 74
0
 42
0.0000001
 43
0.0000001
 44
0.0000000001
 40
0.0
 40
0.0
 40
0.0
 40
0.0
 40
0.1245048284
 40
0.2490696681
 40
0.3737494508
 40
0.4985903513
 40
0.6236258456
 40
0.7488742184
 40
0.874337291
 40
1.0
 40
1.0
 40
1.0
 40
1.0
 10
382.829669943
 20
90.0270853982
 30
0.0
 10
382.829669943
 20
90.9358204486
 30
0.0
 10
382.7008457861
 20
92.7563418258
 30
0.0
 10
382.1249668583
 20
95.4316300173
 30
0.0
 10
381.1776775403
 20
98.0021779437
 30
0.0
 10
379.8774735598
 20
100.4172257252
 30
0.0
 10
378.2497702613
 20
102.6299434483
 30
0.0
 10
376.3261506387
 20
104.5973356417
 30
0.0
 10
374.1447151005
 20
106.2808834943
 30
0.0
 10
372.5464639216
 20
107.1923238334
 30
0.0
 10
371.720228052
 20
107.5905257674
 30
0.0
  0
SPLINE
  5
3E6
100
AcDbEntity
  8
0
100
AcDbSpline
 62
7
  6
CONTINUOUS
 70
0
 71
3
 72
22
 73
18
 74
0
 42
0.0000001
 43
0.0000001
 44
0.0000000001
 40
0.0
 40
0.0
 40
0.0
 40
0.0
 40
0.1817156058
 40
0.3574156827
 40
0.5220029323
 40
0.5983573961
 40
0.6697494403
 40
0.7354514224
 40
0.794784765
 40
0.8471556333
 40
0.892100557
 40
0.9293568287
 40
0.9589997514
 40
0.9711831043
 40
0.9818365499
 40
0.9912842523
 40
1.0
 40
1.0
 40
1.0
 40
1.0
 10
371.720228052
 20
107.5905257674
 30
0.0
 10
371.4881012856
 20
107.7023977045
 30
0.0
 10
371.0242820576
 20
107.9078227994
 30
0.0
 10
370.3280661761
 20
108.1608682881
 30
0.0
 10
369.7589590359
 20
108.3219606375
 30
0.0
 10
369.3260545224
 20
108.4160577631
 30
0.0
 10
369.027671604
 20
108.4674854981
 30
0.0
 10
368.7511377639
 20
108.501789509
 30
0.0
 10
368.5000512207
 20
108.5194678265
 30
0.0
 10
368.2777671797
 20
108.5212812854
 30
0.0
 10
368.0871103266
 20
108.50822057
 30
0.0
 10
367.9305382859
 20
108.481384676
 30
0.0
 10
367.8230946614
 20
108.4465174911
 30
0.0
 10
367.7576737374
 20
108.4105622285
 30
0.0
 10
367.7213689381
 20
108.3822578048
 30
0.0
 10
367.6947519275
 20
108.3507946357
 30
0.0
 10
367.6835569622
 20
108.3271743354
 30
0.0
 10
367.6799362195
 20
108.3153573933
 30
0.0
  0
SPLINE
  5
3E7
100
AcDbEntity
  8
0
100
AcDbSpline
 62
7
  6
CONTINUOUS
 70
0
 71
3
 72
9
 73
5
 74
0
 42
0.0000001
 43
0.0000001
 44
0.0000000001
 40
0.0
 40
0.0
 40
0.0
 40
0.0
 40
0.2494178138
 40
1.0
 40
1.0
 40
1.0
 40
1.0
 10
367.6799362195
 20
108.3153573933
 30
0.0
 10
367.633815081
 20
108.164806317
 30
0.0
 10
367.4490044506
 20
107.5611643369
 30
0.0
 10
367.2646148422
 20
106.9573934539
 30
0.0
 10
367.1264560414
 20
106.5041404551
 30
0.0
  0
SPLINE
  5
3E8
100
AcDbEntity
  8
0
100
AcDbSpline
 62
7
  6
CONTINUOUS
 70
0
 71
3
 72
19
 73
15
 74
0
 42
0.0000001
 43
0.0000001
 44
0.0000000001
 40
0.0
 40
0.0
 40
0.0
 40
0.0
 40
0.0184374935
 40
0.0409470268
 40
0.069576725
 40
0.105279871
 40
0.148402628
 40
0.1989381206
 40
0.25664372
 40
0.3211036281
 40
0.467989041
 40
0.6342236004
 40
0.8136655754
 40
1.0
 40
1.0
 40
1.0
 40
1.0
 10
367.1264560414
 20
106.5041404551
 30
0.0
 10
367.1236826933
 20
106.4950440426
 30
0.0
 10
367.1120481861
 20
106.4764407783
 30
0.0
 10
367.0826102189
 20
106.4550861973
 30
0.0
 10
367.0412163171
 20
106.4374112391
 30
0.0
 10
366.9875160329
 20
106.4231942987
 30
0.0
 10
366.9216094079
 20
106.4123673288
 30
0.0
 10
366.8438459639
 20
106.4049675516
 30
0.0
 10
366.754832521
 20
106.4009533648
 30
0.0
 10
366.6160383197
 20
106.3999798034
 30
0.0
 10
366.4213438173
 20
106.4074189291
 30
0.0
 10
366.1679724094
 20
106.4264823688
 30
0.0
 10
365.8949636438
 20
106.4543769391
 30
0.0
 10
365.7077089326
 20
106.4774897513
 30
0.0
 10
365.6124389987
 20
106.4901588319
 30
0.0
  0
SPLINE
  5
3E9
100
AcDbEntity
  8
0
100
AcDbSpline
 62
7
  6
CONTINUOUS
 70
0
 71
3
 72
19
 73
15
 74
0
 42
0.0000001
 43
0.0000001
 44
0.0000000001
 40
0.0
 40
0.0
 40
0.0
 40
0.0
 40
0.1863344236
 40
0.3657763988
 40
0.5320109585
 40
0.6788963716
 40
0.7433562797
 40
0.8010618792
 40
0.8515973719
 40
0.8947201292
 40
0.9304232751
 40
0.9590529743
 40
0.9815625062
 40
1.0
 40
1.0
 40
1.0
 40
1.0
 10
360.4740387274
 20
106.4901588319
 30
0.0
 10
360.3787687939
 20
106.4774897521
 30
0.0
 10
360.191514083
 20
106.4543769398
 30
0.0
 10
359.9185053177
 20
106.426482369
 30
0.0
 10
359.6651339094
 20
106.4074189292
 30
0.0
 10
359.4704394067
 20
106.3999798033
 30
0.0
 10
359.3316452053
 20
106.4009533647
 30
0.0
 10
359.2426317621
 20
106.4049675514
 30
0.0
 10
359.1648683181
 20
106.4123673288
 30
0.0
 10
359.0989616921
 20
106.4231942978
 30
0.0
 10
359.0452614093
 20
106.4374112402
 30
0.0
 10
359.0038675027
 20
106.4550861938
 30
0.0
 10
358.9744295466
 20
106.4764407816
 30
0.0
 10
358.9627950239
 20
106.4950440398
 30
0.0
 10
358.9600216847
 20
106.5041404551
 30
0.0
  0
SPLINE
  5
3EA
100
AcDbEntity
  8
0
100
AcDbSpline
 62
7
  6
CONTINUOUS
 70
0
 71
3
 72
9
 73
5
 74
0
 42
0.0000001
 43
0.0000001
 44
0.0000000001
 40
0.0
 40
0.0
 40
0.0
 40
0.0
 40
0.2505863892
 40
1.0
 40
1.0
 40
1.0
 40
1.0
 10
358.9600216847
 20
106.5041404551
 30
0.0
 10
358.9138965358
 20
106.6554617022
 30
0.0
 10
358.7297205904
 20
107.259297634
 30
0.0
 10
358.5451194546
 20
107.8630038755
 30
0.0
 10
358.4065415059
 20
108.3153573946
 30
0.0
  0
SPLINE
  5
3EB
100
AcDbEntity
  8
0
100
AcDbSpline
 62
7
  6
CONTINUOUS
 70
0
 71
3
 72
19
 73
15
 74
0
 42
0.0000001
 43
0.0000001
 44
0.0000000001
 40
0.0
 40
0.0
 40
0.0
 40
0.0
 40
0.1263744789
 40
0.252672439
 40
0.3157638817
 40
0.3787836793
 40
0.4416858351
 40
0.5044079993
 40
0.5668981437
 40
0.6291510976
 40
0.6912064271
 40
0.7531162953
 40
0.8766614984
 40
1.0
 40
1.0
 40
1.0
 40
1.0
 10
354.7662862347
 20
106.6303960687
 30
0.0
 10
354.7796855205
 20
105.2188635243
 30
0.0
 10
354.8088246327
 20
102.3966738483
 30
0.0
 10
354.8545062001
 20
98.8698992392
 30
0.0
 10
354.8966573603
 20
96.050816772
 30
0.0
 10
354.9287247093
 20
93.9397912968
 30
0.0
 10
354.9553004466
 20
91.8328070069
 30
0.0
 10
354.9662162582
 20
89.7315745708
 30
0.0
 10
354.9553714734
 20
87.6375929702
 30
0.0
 10
354.9288034026
 20
85.5512260232
 30
0.0
 10
354.8967134635
 20
83.4714272637
 30
0.0
 10
354.8545787021
 20
80.7070701492
 30
0.0
 10
354.8088763692
 20
77.2581605169
 30
0.0
 10
354.7796947689
 20
74.5006346211
 30
0.0
 10
354.7662860581
 20
73.123015438
 30
0.0
  0
SPLINE
  5
3EC
100
AcDbEntity
  8
0
100
AcDbSpline
 62
7
  6
CONTINUOUS
 70
0
 71
3
 72
19
 73
15
 74
0
 42
0.0000001
 43
0.0000001
 44
0.0000000001
 40
0.0
 40
0.0
 40
0.0
 40
0.0
 40
0.1233385015
 40
0.2468837052
 40
0.3087935726
 40
0.3708489004
 40
0.4331018524
 40
0.4955919961
 40
0.5583141614
 40
0.6212163191
 40
0.6842361179
 40
0.7473275611
 40
0.8736255211
 40
1.0
 40
1.0
 40
1.0
 40
1.0
 10
371.3201915808
 20
73.1230153878
 30
0.0
 10
371.3067828673
 20
74.5006345705
 30
0.0
 10
371.2776014096
 20
77.2581604745
 30
0.0
 10
371.2318989856
 20
80.707070103
 30
0.0
 10
371.1897642588
 20
83.4714271967
 30
0.0
 10
371.157674345
 20
85.551225907
 30
0.0
 10
371.1311062389
 20
87.6375928058
 30
0.0
 10
371.1202614701
 20
89.7315743893
 30
0.0
 10
371.1311772988
 20
91.8328068507
 30
0.0
 10
371.1577529786
 20
93.939791188
 30
0.0
 10
371.1898204017
 20
96.0508167033
 30
0.0
 10
371.2319715096
 20
98.8698991895
 30
0.0
 10
371.2776530705
 20
102.3966738035
 30
0.0
 10
371.3067922795
 20
105.2188634774
 30
0.0
 10
371.3201915743
 20
106.630396022
 30
0.0
  0
SPLINE
  5
3ED
100
AcDbEntity
  8
0
100
AcDbSpline
 62
7
  6
CONTINUOUS
 70
0
 71
3
 72
11
 73
7
 74
0
 42
0.0000001
 43
0.0000001
 44
0.0000000001
 40
0.0
 40
0.0
 40
0.0
 40
0.0
 40
0.2493626048
 40
0.4997226881
 40
0.7502705688
 40
1.0
 40
1.0
 40
1.0
 40
1.0
 10
325.9072654138
 20
92.1184052809
 30
0.0
 10
325.6962717488
 20
92.6246652737
 30
0.0
 10
324.977345022
 20
93.5393614004
 30
0.0
 10
323.3612254731
 20
94.1526066954
 30
0.0
 10
321.656093101
 20
93.8636102964
 30
0.0
 10
320.7725808304
 20
93.1056403272
 30
0.0
 10
320.4656992375
 20
92.6500891393
 30
0.0
  0
SPLINE
  5
3EE
100
AcDbEntity
  8
0
100
AcDbSpline
 62
7
  6
CONTINUOUS
 70
0
 71
3
 72
8
 73
4
 74
0
 42
0.0000001
 43
0.0000001
 44
0.0000000001
 40
0.0
 40
0.0
 40
0.0
 40
0.0
 40
1.0
 40
1.0
 40
1.0
 40
1.0
 10
320.1792123122
 20
92.1184052809
 30
0.0
 10
320.0252922103
 20
91.7490880803
 30
0.0
 10
319.943238863
 20
91.3416125496
 30
0.0
 10
319.943238863
 20
90.9415043237
 30
0.0
  0
SPLINE
  5
3EF
100
AcDbEntity
  8
0
100
AcDbSpline
 62
7
  6
CONTINUOUS
 70
0
 71
3
 72
11
 73
7
 74
0
 42
0.0000001
 43
0.0000001
 44
0.0000000001
 40
0.0
 40
0.0
 40
0.0
 40
0.0
 40
0.2493626048
 40
0.4997226881
 40
0.7502705688
 40
1.0
 40
1.0
 40
1.0
 40
1.0
 10
485.9072654138
 20
92.1184052809
 30
0.0
 10
485.6962717488
 20
92.6246652737
 30
0.0
 10
484.977345022
 20
93.5393614004
 30
0.0
 10
483.3612254731
 20
94.1526066954
 30
0.0
 10
481.656093101
 20
93.8636102964
 30
0.0
 10
480.7725808304
 20
93.1056403272
 30
0.0
 10
480.4656992375
 20
92.6500891393
 30
0.0
  0
SPLINE
  5
3F0
100
AcDbEntity
  8
0
100
AcDbSpline
 62
7
  6
CONTINUOUS
 70
0
 71
3
 72
8
 73
4
 74
0
 42
0.0000001
 43
0.0000001
 44
0.0000000001
 40
0.0
 40
0.0
 40
0.0
 40
0.0
 40
1.0
 40
1.0
 40
1.0
 40
1.0
 10
480.1792123122
 20
92.1184052809
 30
0.0
 10
480.0252922103
 20
91.7490880803
 30
0.0
 10
479.943238863
 20
91.3416125496
 30
0.0
 10
479.943238863
 20
90.9415043237
 30
0.0
  0
SPLINE
  5
3F1
100
AcDbEntity
  8
0
100
AcDbSpline
 62
7
  6
CONTINUOUS
 70
0
 71
3
 72
9
 73
5
 74
0
 42
0.0000001
 43
0.0000001
 44
0.0000000001
 40
0.0
 40
0.0
 40
0.0
 40
0.0
 40
0.6276147655
 40
1.0
 40
1.0
 40
1.0
 40
1.0
 10
259.999596299
 20
181.0614856546
 30
0.0
 10
259.7962801932
 20
181.0562292259
 30
0.0
 10
259.4760540783
 20
181.0312066218
 30
0.0
 10
259.1461126203
 20
181.0083510408
 30
0.0
 10
259.0336705466
 20
180.9645428245
 30
0.0
  0
SPLINE
  5
3F2
100
AcDbEntity
  8
0
100
AcDbSpline
 62
7
  6
CONTINUOUS
 70
0
 71
3
 72
9
 73
5
 74
0
 42
0.0000001
 43
0.0000001
 44
0.0000000001
 40
0.0
 40
0.0
 40
0.0
 40
0.0
 40
0.6276146989
 40
1.0
 40
1.0
 40
1.0
 40
1.0
 10
546.0868831745
 20
181.0614849741
 30
0.0
 10
546.2901992677
 20
181.0562285457
 30
0.0
 10
546.6104253965
 20
181.0312059416
 30
0.0
 10
546.9403668707
 20
181.0083503671
 30
0.0
 10
547.0528089694
 20
180.964542141
 30
0.0
  0
SPLINE
  5
3F3
100
AcDbEntity
  8
0
100
AcDbSpline
 62
7
  6
CONTINUOUS
 70
0
 71
3
 72
9
 73
5
 74
0
 42
0.0000001
 43
0.0000001
 44
0.0000000001
 40
0.0
 40
0.0
 40
0.0
 40
0.0
 40
0.6154036997
 40
1.0
 40
1.0
 40
1.0
 40
1.0
 10
532.4619170418
 20
181.061485064
 30
0.0
 10
532.2657595719
 20
181.0553069734
 30
0.0
 10
531.9492750043
 20
181.0320008117
 30
0.0
 10
531.6277468962
 20
181.0029970769
 30
0.0
 10
531.5112819627
 20
180.9645422313
 30
0.0
  0
SPLINE
  5
3F4
100
AcDbEntity
  8
0
100
AcDbSpline
 62
7
  6
CONTINUOUS
 70
0
 71
3
 72
9
 73
5
 74
0
 42
0.0000001
 43
0.0000001
 44
0.0000000001
 40
0.0
 40
0.0
 40
0.0
 40
0.0
 40
0.6154036699
 40
1.0
 40
1.0
 40
1.0
 40
1.0
 10
273.6245616224
 20
181.0614847543
 30
0.0
 10
273.8207190866
 20
181.0553066639
 30
0.0
 10
274.1372036601
 20
181.0320005022
 30
0.0
 10
274.4587317749
 20
181.0029967695
 30
0.0
 10
274.5751967197
 20
180.9645419202
 30
0.0
  0
SPLINE
  5
3F5
100
AcDbEntity
  8
0
100
AcDbSpline
 62
7
  6
CONTINUOUS
 70
0
 71
3
 72
8
 73
4
 74
0
 42
0.0000001
 43
0.0000001
 44
0.0000000001
 40
0.0
 40
0.0
 40
0.0
 40
0.0
 40
1.0
 40
1.0
 40
1.0
 40
1.0
 10
479.943238863
 20
90.9415043237
 30
0.0
 10
479.943238863
 20
90.5413960978
 30
0.0
 10
480.0252922103
 20
90.1339205671
 30
0.0
 10
480.1792123122
 20
89.7646033665
 30
0.0
  0
SPLINE
  5
3F6
100
AcDbEntity
  8
0
100
AcDbSpline
 62
7
  6
CONTINUOUS
 70
0
 71
3
 72
11
 73
7
 74
0
 42
0.0000001
 43
0.0000001
 44
0.0000000001
 40
0.0
 40
0.0
 40
0.0
 40
0.0
 40
0.2494838469
 40
0.5
 40
0.7505161531
 40
1.0
 40
1.0
 40
1.0
 40
1.0
 10
480.1792123122
 20
89.7646033665
 30
0.0
 10
480.4088912999
 20
89.2135096519
 30
0.0
 10
481.2239200061
 20
88.2267246891
 30
0.0
 10
483.043238863
 20
87.6854362682
 30
0.0
 10
484.8625577199
 20
88.2267246891
 30
0.0
 10
485.6775864262
 20
89.2135096519
 30
0.0
 10
485.9072654138
 20
89.7646033665
 30
0.0
  0
SPLINE
  5
3F7
100
AcDbEntity
  8
0
100
AcDbSpline
 62
7
  6
CONTINUOUS
 70
0
 71
3
 72
8
 73
4
 74
0
 42
0.0000001
 43
0.0000001
 44
0.0000000001
 40
0.0
 40
0.0
 40
0.0
 40
0.0
 40
1.0
 40
1.0
 40
1.0
 40
1.0
 10
485.9072654138
 20
89.7646033665
 30
0.0
 10
486.0611855158
 20
90.1339205671
 30
0.0
 10
486.143238863
 20
90.5413960978
 30
0.0
 10
486.143238863
 20
90.9415043237
 30
0.0
  0
SPLINE
  5
3F8
100
AcDbEntity
  8
0
100
AcDbSpline
 62
7
  6
CONTINUOUS
 70
0
 71
3
 72
8
 73
4
 74
0
 42
0.0000001
 43
0.0000001
 44
0.0000000001
 40
0.0
 40
0.0
 40
0.0
 40
0.0
 40
1.0
 40
1.0
 40
1.0
 40
1.0
 10
319.943238863
 20
90.9415043237
 30
0.0
 10
319.943238863
 20
90.5413960978
 30
0.0
 10
320.0252922103
 20
90.1339205671
 30
0.0
 10
320.1792123122
 20
89.7646033665
 30
0.0
  0
SPLINE
  5
3F9
100
AcDbEntity
  8
0
100
AcDbSpline
 62
7
  6
CONTINUOUS
 70
0
 71
3
 72
11
 73
7
 74
0
 42
0.0000001
 43
0.0000001
 44
0.0000000001
 40
0.0
 40
0.0
 40
0.0
 40
0.0
 40
0.2494838469
 40
0.5
 40
0.7505161531
 40
1.0
 40
1.0
 40
1.0
 40
1.0
 10
320.1792123122
 20
89.7646033665
 30
0.0
 10
320.4088912999
 20
89.2135096519
 30
0.0
 10
321.2239200061
 20
88.2267246891
 30
0.0
 10
323.043238863
 20
87.6854362682
 30
0.0
 10
324.8625577199
 20
88.2267246891
 30
0.0
 10
325.6775864262
 20
89.2135096519
 30
0.0
 10
325.9072654138
 20
89.7646033665
 30
0.0
  0
SPLINE
  5
3FA
100
AcDbEntity
  8
0
100
AcDbSpline
 62
7
  6
CONTINUOUS
 70
0
 71
3
 72
8
 73
4
 74
0
 42
0.0000001
 43
0.0000001
 44
0.0000000001
 40
0.0
 40
0.0
 40
0.0
 40
0.0
 40
1.0
 40
1.0
 40
1.0
 40
1.0
 10
325.9072654138
 20
89.7646033665
 30
0.0
 10
326.0611855158
 20
90.1339205671
 30
0.0
 10
326.143238863
 20
90.5413960978
 30
0.0
 10
326.143238863
 20
90.9415043237
 30
0.0
  0
SPLINE
  5
3FB
100
AcDbEntity
  8
0
100
AcDbSpline
 62
7
  6
CONTINUOUS
 70
0
 71
3
 72
8
 73
4
 74
0
 42
0.0000001
 43
0.0000001
 44
0.0000000001
 40
0.0
 40
0.0
 40
0.0
 40
0.0
 40
1.0
 40
1.0
 40
1.0
 40
1.0
 10
274.6206526119
 20
182.7488566004
 30
0.0
 10
274.6294517078
 20
183.3173404491
 30
0.0
 10
274.630546648
 20
183.8859317869
 30
0.0
 10
274.6305466897
 20
184.4544837286
 30
0.0
  0
SPLINE
  5
3FC
100
AcDbEntity
  8
0
100
AcDbSpline
 62
7
  6
CONTINUOUS
 70
0
 71
3
 72
11
 73
7
 74
0
 42
0.0000001
 43
0.0000001
 44
0.0000000001
 40
0.0
 40
0.0
 40
0.0
 40
0.0
 40
0.2495380116
 40
0.4992769363
 40
0.7493797919
 40
1.0
 40
1.0
 40
1.0
 40
1.0
 10
546.4973139394
 20
59.2936087101
 30
0.0
 10
546.5196483307
 20
58.5066026431
 30
0.0
 10
546.2450988432
 20
56.9050616162
 30
0.0
 10
544.9340274408
 20
54.8638592024
 30
0.0
 10
542.9319012314
 20
53.4872351764
 30
0.0
 10
541.333976241
 20
53.164184252
 30
0.0
 10
540.543238863
 20
53.1641523006
 30
0.0
  0
SPLINE
  5
3FD
100
AcDbEntity
  8
0
100
AcDbSpline
 62
7
  6
CONTINUOUS
 70
0
 71
3
 72
8
 73
4
 74
0
 42
0.0000001
 43
0.0000001
 44
0.0000000001
 40
0.0
 40
0.0
 40
0.0
 40
0.0
 40
1.0
 40
1.0
 40
1.0
 40
1.0
 10
274.5598874491
 20
180.96959665
 30
0.0
 10
274.5517455795
 20
181.0502451118
 30
0.0
 10
274.5523052758
 20
181.1324738292
 30
0.0
 10
274.5635836812
 20
181.2127437614
 30
0.0
  0
SPLINE
  5
3FE
100
AcDbEntity
  8
0
100
AcDbSpline
 62
7
  6
CONTINUOUS
 70
0
 71
3
 72
11
 73
7
 74
0
 42
0.0000001
 43
0.0000001
 44
0.0000000001
 40
0.0
 40
0.0
 40
0.0
 40
0.0
 40
0.2507846827
 40
0.5010525777
 40
0.7506329223
 40
1.0
 40
1.0
 40
1.0
 40
1.0
 10
265.543238863
 20
53.1641523006
 30
0.0
 10
264.7519824435
 20
53.1642042441
 30
0.0
 10
263.1529925674
 20
53.487685019
 30
0.0
 10
261.1508626835
 20
54.8654627708
 30
0.0
 10
259.8409876311
 20
56.9066878468
 30
0.0
 10
259.5668239834
 20
58.5071422268
 30
0.0
 10
259.5891637866
 20
59.2936087101
 30
0.0
  0
ENDSEC
  0
SECTION
  2
OBJECTS
  0
DICTIONARY
  5
C
100
AcDbDictionary
280
0
281
1
  3
ACAD_GROUP
350
D
  3
ACAD_MLINESTYLE
350
17
  3
ACAD_LAYOUT
350
1A
  3
ACAD_PLOTSETTINGS
350
19
  3
ACAD_PLOTSTYLENAME
350
E
  0
DICTIONARY
  5
D
102
{ACAD_REACTORS
330
C
102
}
100
AcDbDictionary
280
0
281
1
  0
ACDBDICTIONARYWDFLT
  5
E
102
{ACAD_REACTORS
330
C
102
}
100
AcDbDictionary
281
1
  3
Normal
350
F
100
AcDbDictionaryWithDefault
340
F
  0
DICTIONARY
  5
17
102
{ACAD_REACTORS
330
C
102
}
100
AcDbDictionary
280
0
281
1
  3
Standard
350
18
  0
DICTIONARY
  5
19
102
{ACAD_REACTORS
330
C
102
}
100
AcDbDictionary
281
1
  0
DICTIONARY
  5
1A
102
{ACAD_REACTORS
330
C
102
}
100
AcDbDictionary
281
1
  3
Model
350
3FF
  3
Layout1
350
400
  0
ACDBPLACEHOLDER
  5
F
102
{ACAD_REACTORS
330
E
102
}
  0
MLINESTYLE
  5
18
102
{ACAD_REACTORS
330
17
102
}
100
AcDbMlineStyle
  2
STANDARD
 70
0
  3

 62
256
 51
90.0
 52
90.0
 71
2
 49
0.5
 62
256
  6
BYLAYER
 49
-0.5
 62
256
  6
BYLAYER
  0
LAYOUT
  5
3FF
102
{ACAD_REACTORS
330
1A
102
}
100
AcDbPlotSettings
  1

  2
none_device
  4
ISO_A1_(594.00_x_841.00_MM)
  6

 40
0.0
 41
0.0
 42
0.0
 43
0.0
 44
841.0
 45
594.0
 46
0.0
 47
0.0
 48
0.0
 49
0.0
140
0.0
141
0.0
142
1.0
143
1.0
 70
1024
 72
1
 73
0
 74
0
  7

 75
0
147
1.0
148
0.0
149
0.0
100
AcDbLayout
  1
Model
 70
0
 71
0
 10
0.0
 20
0.0
 11
841.0
 21
594.0
 12
0.0
 22
0.0
 32
0.0
 14
0.0
 24
0.0
 34
0.0
 15
0.0
 25
0.0
 35
0.0
146
0.0
 13
0.0
 23
0.0
 33
0.0
 16
1.0
 26
0.0
 36
0.0
 17
0.0
 27
1.0
 37
0.0
 76
0
330
216
345
0
346
0
  0
LAYOUT
  5
400
102
{ACAD_REACTORS
330
1A
102
}
100
AcDbPlotSettings
  1

  2
none_device
  4
ISO_A1_(594.00_x_841.00_MM)
  6

 40
0.0
 41
0.0
 42
0.0
 43
0.0
 44
841.0
 45
594.0
 46
0.0
 47
0.0
 48
0.0
 49
0.0
140
0.0
141
0.0
142
1.0
143
1.0
 70
0
 72
1
 73
0
 74
0
  7

 75
0
147
1.0
148
0.0
149
0.0
100
AcDbLayout
  1
Layout1
 70
0
 71
1
 10
0.0
 20
0.0
 11
841.0
 21
594.0
 12
0.0
 22
0.0
 32
0.0
 14
0.0
 24
0.0
 34
0.0
 15
0.0
 25
0.0
 35
0.0
146
0.0
 13
0.0
 23
0.0
 33
0.0
 16
1.0
 26
0.0
 36
0.0
 17
0.0
 27
1.0
 37
0.0
 76
0
330
217
345
0
346
0
  0
ENDSEC
  0
EOF
