999
DXF file: S:\Engenharia\Wildfire\Engenharia\Produtos\Lixeiras\94544030\94544030.dxf
999
Pro/ENGINEER 2013150 by Parametric Technology Corporation
  0
SECTION
  2
HEADER
  9
$ACADVER
  1
AC1021
  9
$DWGCODEPAGE
  3
ANSI_1252
  9
$EXTMAX
 10
1200.0
 20
1400.0
 30
0.0
  9
$EXTMIN
 10
0.0
 20
0.0
 30
0.0
  9
$LIMMIN
 10
0.0
 20
0.0
  9
$LIMMAX
 10
1200.0
 20
1400.0
  9
$VIEWCTR
 10
600.0
 20
700.0
  9
$VIEWSIZE
 40
1400.0
  9
$CLAYER
  8
0
  9
$LTSCALE
 40
91.2592592593
  9
$CELTYPE
  6
BYLAYER
  9
$DIMSCALE
 40
1.0
  9
$DIMASZ
 40
3.0
  9
$DIMEXO
 40
0.5
  9
$DIMDLI
 40
63.0518518519
  9
$DIMEXE
 40
0.5
  9
$DIMCEN
 40
14.9333333333
  9
$DIMLFAC
 40
1.0
  9
$DIMBLK
  1
_FILLED
  9
$DIMTXT
 40
1.8
  9
$DIMTOL
 70
1
  9
$DIMLIM
 70
0
  9
$DIMTFAC
 40
1.0
  9
$DIMTP
 40
0.001
  9
$DIMTM
 40
0.001
  9
$DIMGAP
 40
0.625
  9
$DIMDSEP
 70
46
  9
$PDMODE
 70
3
  9
$PDSIZE
 40
1.0
  9
$HANDSEED
  5
A4E
  9
$TILEMODE
 70
1
  9
$MEASUREMENT
 70
1
  9
$INSUNITS
 70
4
  0
ENDSEC
  0
SECTION
  2
CLASSES
  0
CLASS
  1
ACDBDICTIONARYWDFLT
  2
AcDbDictionaryWithDefault
  3
AutoCAD 2000
 90
0
 91
1
280
0
281
0
  0
CLASS
  1
ACDBPLACEHOLDER
  2
AcDbPlaceHolder
  3
AutoCAD 2000
 90
0
 91
1
280
0
281
0
  0
CLASS
  1
LAYOUT
  2
AcDbLayout
  3
AutoCAD 2000
 90
0
 91
0
280
0
281
0
  0
ENDSEC
  0
SECTION
  2
TABLES
  0
TABLE
  2
VPORT
  5
8
100
AcDbSymbolTable
 70
2
  0
VPORT
  5
1F4
100
AcDbSymbolTableRecord
100
AcDbViewportTableRecord
  2
*ACTIVE
 70
0
 10
0.0
 20
0.0
 11
1.0
 21
1.0
 12
600.0
 22
700.0
 13
0.0
 23
0.0
 14
1.0
 24
1.0
 15
0.0
 25
0.0
 16
0.0
 26
0.0
 36
1.0
 17
0.0
 27
0.0
 37
0.0
 40
1400.0
 41
0.8571428571
 42
50.0
 43
0.0
 44
0.0
 50
0.0
 51
0.0
 71
0
 72
100
 73
1
 74
1
 75
0
 76
0
 77
0
 78
0
  0
ENDTAB
  0
TABLE
  2
LTYPE
  5
5
100
AcDbSymbolTable
 70
6
  0
LTYPE
  5
14
100
AcDbSymbolTableRecord
100
AcDbLinetypeTableRecord
  2
BYBLOCK
 70
0
  3

 72
65
 73
0
 40
0.0
  0
LTYPE
  5
15
100
AcDbSymbolTableRecord
100
AcDbLinetypeTableRecord
  2
BYLAYER
 70
0
  3

 72
65
 73
0
 40
0.0
  0
LTYPE
  5
16
100
AcDbSymbolTableRecord
100
AcDbLinetypeTableRecord
  2
CONTINUOUS
 70
64
  3
Solid line
 72
65
 73
0
 40
0.0
  0
LTYPE
  5
1F5
100
AcDbSymbolTableRecord
100
AcDbLinetypeTableRecord
  2
CENTER
 70
64
  3
____ _ ____ _ ____ _ ____ _ ____ _ ____ _ ____
 72
65
 73
4
 40
0.6
 49
0.375
 74
0
 49
-0.075
 74
0
 49
0.075
 74
0
 49
-0.075
 74
0
  0
LTYPE
  5
1F6
100
AcDbSymbolTableRecord
100
AcDbLinetypeTableRecord
  2
HIDDEN
 70
64
  3
- - - - - - - - - - - - - - - - - - - -
 72
65
 73
2
 40
0.2
 49
0.1
 74
0
 49
-0.1
 74
0
  0
LTYPE
  5
1F7
100
AcDbSymbolTableRecord
100
AcDbLinetypeTableRecord
  2
PHANTOM
 70
64
  3
_____ _ _ _____ _ _ _____ _ _ _____
 72
65
 73
6
 40
0.8
 49
0.45
 74
0
 49
-0.05
 74
0
 49
0.1
 74
0
 49
-0.05
 74
0
 49
0.1
 74
0
 49
-0.05
 74
0
  0
LTYPE
  5
1F8
100
AcDbSymbolTableRecord
100
AcDbLinetypeTableRecord
  2
DOT
 70
64
  3
. . . . . . . . . . . . . . . . . . . .
 72
65
 73
2
 40
0.2
 49
0.1
 74
0
 49
-0.1
 74
0
  0
LTYPE
  5
1F9
100
AcDbSymbolTableRecord
100
AcDbLinetypeTableRecord
  2
DASHED
 70
64
  3
- - - - - - - - - - - - - - - - - - - -
 72
65
 73
2
 40
0.2
 49
0.1
 74
0
 49
-0.1
 74
0
  0
ENDTAB
  0
TABLE
  2
LAYER
  5
2
100
AcDbSymbolTable
 70
36
  0
LAYER
  5
10
100
AcDbSymbolTableRecord
100
AcDbLayerTableRecord
  2
0
 70
0
 62
7
  6
CONTINUOUS
370
-3
390
F
  0
LAYER
  5
1FA
100
AcDbSymbolTableRecord
100
AcDbLayerTableRecord
  2
DEFAULT_1
 70
0
 62
7
  6
CENTER
370
-3
390
F
  0
LAYER
  5
1FB
100
AcDbSymbolTableRecord
100
AcDbLayerTableRecord
  2
DEFAULT_2
 70
0
 62
8
  6
HIDDEN
370
-3
390
F
  0
LAYER
  5
1FC
100
AcDbSymbolTableRecord
100
AcDbLayerTableRecord
  2
DEFAULT_3
 70
0
 62
7
  6
PHANTOM
370
-3
390
F
  0
LAYER
  5
1FD
100
AcDbSymbolTableRecord
100
AcDbLayerTableRecord
  2
01___PRT_ALL_DTM_PLN
 70
0
 62
7
  6
CONTINUOUS
370
-3
390
F
  0
LAYER
  5
1FE
100
AcDbSymbolTableRecord
100
AcDbLayerTableRecord
  2
01___PRT_DEF_DTM_PLN
 70
0
 62
7
  6
CONTINUOUS
370
-3
390
F
  0
LAYER
  5
1FF
100
AcDbSymbolTableRecord
100
AcDbLayerTableRecord
  2
02___PRT_ALL_AXES
 70
0
 62
7
  6
CONTINUOUS
370
-3
390
F
  0
LAYER
  5
200
100
AcDbSymbolTableRecord
100
AcDbLayerTableRecord
  2
03___PRT_ALL_CURVES
 70
0
 62
7
  6
CONTINUOUS
370
-3
390
F
  0
LAYER
  5
201
100
AcDbSymbolTableRecord
100
AcDbLayerTableRecord
  2
04___PRT_ALL_DTM_PNT
 70
0
 62
7
  6
CONTINUOUS
370
-3
390
F
  0
LAYER
  5
202
100
AcDbSymbolTableRecord
100
AcDbLayerTableRecord
  2
05___PRT_ALL_DTM_CSYS
 70
0
 62
7
  6
CONTINUOUS
370
-3
390
F
  0
LAYER
  5
203
100
AcDbSymbolTableRecord
100
AcDbLayerTableRecord
  2
05___PRT_DEF_DTM_CSYS
 70
0
 62
7
  6
CONTINUOUS
370
-3
390
F
  0
LAYER
  5
204
100
AcDbSymbolTableRecord
100
AcDbLayerTableRecord
  2
06___PRT_ALL_SURFS
 70
0
 62
7
  6
CONTINUOUS
370
-3
390
F
  0
LAYER
  5
205
100
AcDbSymbolTableRecord
100
AcDbLayerTableRecord
  2
CAMADA_1
 70
0
 62
7
  6
CONTINUOUS
370
-3
390
F
  0
LAYER
  5
206
100
AcDbSymbolTableRecord
100
AcDbLayerTableRecord
  2
INTFCLR_3
 70
0
 62
7
  6
CONTINUOUS
370
-3
390
F
  0
ENDTAB
  0
TABLE
  2
STYLE
  5
3
100
AcDbSymbolTable
 70
1
  0
STYLE
  5
11
100
AcDbSymbolTableRecord
100
AcDbTextStyleTableRecord
  2
STANDARD
 70
0
 40
0.0
 41
0.8
 50
0.0
 71
0
 42
0.2
  3
txt
  4

  0
STYLE
  5
207
100
AcDbSymbolTableRecord
100
AcDbTextStyleTableRecord
  2
TEXTSTYLE_1
 70
0
 40
0.0
 41
0.8
 50
0.0
 71
0
 42
0.2
  3
gdt
  4

  0
ENDTAB
  0
TABLE
  2
VIEW
  5
6
100
AcDbSymbolTable
 70
0
  0
ENDTAB
  0
TABLE
  2
UCS
  5
7
100
AcDbSymbolTable
 70
0
  0
ENDTAB
  0
TABLE
  2
APPID
  5
9
100
AcDbSymbolTable
 70
1
  0
APPID
  5
208
100
AcDbSymbolTableRecord
100
AcDbRegAppTableRecord
  2
ACAD
 70
0
  0
ENDTAB
  0
TABLE
  2
BLOCK_RECORD
  5
1
100
AcDbSymbolTable
 70
0
  0
BLOCK_RECORD
  5
209
100
AcDbSymbolTableRecord
100
AcDbBlockTableRecord
  2
*Model_Space
  0
BLOCK_RECORD
  5
20A
100
AcDbSymbolTableRecord
100
AcDbBlockTableRecord
  2
*Paper_Space
  0
BLOCK_RECORD
  5
20B
100
AcDbSymbolTableRecord
100
AcDbBlockTableRecord
  2
_FILLED
  0
BLOCK_RECORD
  5
20C
100
AcDbSymbolTableRecord
100
AcDbBlockTableRecord
  2
*D0
  0
BLOCK_RECORD
  5
20D
100
AcDbSymbolTableRecord
100
AcDbBlockTableRecord
  2
*D1
  0
BLOCK_RECORD
  5
20E
100
AcDbSymbolTableRecord
100
AcDbBlockTableRecord
  2
*D2
  0
BLOCK_RECORD
  5
20F
100
AcDbSymbolTableRecord
100
AcDbBlockTableRecord
  2
*D3
  0
ENDTAB
  0
TABLE
  2
DIMSTYLE
  5
A
100
AcDbSymbolTable
 70
1
100
AcDbDimStyleTable
 71
0
  0
DIMSTYLE
105
210
100
AcDbSymbolTableRecord
100
AcDbDimStyleTableRecord
  2
STANDARD
 70
0
  3

  4

 40
1.0
 41
3.0
 42
0.5
 43
0.38
 44
0.5
 45
0.0
 46
0.0
 47
0.001
 48
0.001
140
1.8
141
0.09
142
0.0
143
25.4
144
1.0
145
0.0
146
1.0
147
0.625
 71
1.0
 72
0.0
 73
0
 74
0
 75
0
 76
0
 77
1
 78
8
170
0
171
2
172
0
173
0
174
0
175
0
176
0
177
0
178
0
270
2
271
3
272
3
273
2
274
2
275
0
280
0
281
0
282
0
283
1
284
8
285
0
286
0
287
3
288
0
340
11
278
46
341
20B
342
20B
343
20B
344
20B
  0
DIMSTYLE
105
211
100
AcDbSymbolTableRecord
100
AcDbDimStyleTableRecord
  2
DIMSTYLE_1
 70
0
  3

  4

 40
1.0
 41
3.0
 42
0.5
 43
0.38
 44
0.5
 45
0.0
 46
0.0
 47
0.001
 48
0.001
140
1.8
141
0.09
142
0.0
143
25.4
144
1.0
145
0.0
146
1.0
147
0.45
 71
0.0
 72
0.0
 73
0
 74
0
 75
0
 76
0
 77
1
 78
8
170
0
171
2
172
0
173
0
174
0
175
0
176
0
177
0
178
0
270
2
271
3
272
3
273
2
274
2
275
0
280
0
281
0
282
0
283
1
284
8
285
0
286
0
287
3
288
0
340
11
278
46
341
20B
342
20B
343
20B
344
20B
  0
ENDTAB
  0
ENDSEC
  0
SECTION
  2
BLOCKS
  0
BLOCK
  5
20
100
AcDbEntity
  8
0
100
AcDbBlockBegin
  2
*Model_Space
 70
0
 10
0.0
 20
0.0
 30
0.0
  3
*Model_Space
  1

  0
ENDBLK
  5
21
100
AcDbEntity
  8
0
100
AcDbBlockEnd
  0
BLOCK
  5
1C
100
AcDbEntity
  8
0
100
AcDbBlockBegin
  2
*Paper_Space
 70
0
 10
0.0
 20
0.0
 30
0.0
  3
*Paper_Space
  1

  0
ENDBLK
  5
1D
100
AcDbEntity
  8
0
100
AcDbBlockEnd
  0
BLOCK
  5
212
100
AcDbEntity
  8
0
100
AcDbBlockBegin
  2
_FILLED
 70
64
 10
0.0
 20
0.0
  3
_FILLED
  1

  0
SOLID
  5
213
100
AcDbEntity
  8
0
  6
BYBLOCK
 62
0
100
AcDbTrace
 10
0.0
 20
0.0
 11
-1.0
 21
0.1666666667
 12
-1.0
 22
-0.1666666667
 13
-1.0
 23
-0.1666666667
  0
ENDBLK
  5
214
100
AcDbEntity
  8
0
  6
BYBLOCK
 62
0
100
AcDbBlockEnd
  0
BLOCK
  5
215
100
AcDbEntity
  8
0
100
AcDbBlockBegin
 62
2
  6
CONTINUOUS
  2
*D0
 70
65
 10
0.0
 20
0.0
  3
*D0
  1

  0
MTEXT
  5
216
100
AcDbEntity
  8
0
100
AcDbMText
 62
2
  6
CONTINUOUS
  7
STANDARD
 71
2
 72
1
 10
889.1975988058
 20
511.5012798352
 30
0.0
 11
1.0
 21
0.0
 31
0.0
 44
0.9
  1
346
 40
1.8
 41
8.3314285714
  0
LINE
  5
217
100
AcDbEntity
  8
0
100
AcDbLine
 62
2
  6
CONTINUOUS
 10
686.6390756359
 20
624.6150935714
 11
686.6390756359
 21
508.4298512637
  0
LINE
  5
218
100
AcDbEntity
  8
0
100
AcDbLine
 62
2
  6
CONTINUOUS
 10
1091.7561219756
 20
621.414255356
 11
1091.7561219756
 21
508.4298512637
  0
LINE
  5
219
100
AcDbEntity
  8
0
100
AcDbLine
 62
2
  6
CONTINUOUS
 10
686.6390756359
 20
508.9298512637
 11
889.1975988058
 21
508.9298512637
  0
LINE
  5
21A
100
AcDbEntity
  8
0
100
AcDbLine
 62
2
  6
CONTINUOUS
 10
1091.7561219756
 20
508.9298512637
 11
889.1975988058
 21
508.9298512637
  0
INSERT
  5
21B
100
AcDbEntity
  8
0
100
AcDbBlockReference
 62
2
  6
CONTINUOUS
  2
_FILLED
 10
686.6390756359
 20
508.9298512637
 41
3.0
 42
3.0
 43
3.0
 50
180.0
  0
INSERT
  5
21C
100
AcDbEntity
  8
0
100
AcDbBlockReference
 62
2
  6
CONTINUOUS
  2
_FILLED
 10
1091.7561219756
 20
508.9298512637
 41
3.0
 42
3.0
 43
3.0
  0
ENDBLK
  5
21D
100
AcDbEntity
  8
0
  6
BYBLOCK
 62
0
100
AcDbBlockEnd
  0
BLOCK
  5
21E
100
AcDbEntity
  8
0
100
AcDbBlockBegin
 62
2
  6
CONTINUOUS
  2
*D1
 70
65
 10
0.0
 20
0.0
  3
*D1
  1

  0
MTEXT
  5
21F
100
AcDbEntity
  8
0
100
AcDbMText
 62
2
  6
CONTINUOUS
  7
STANDARD
 71
2
 72
1
 10
240.1297238053
 20
515.0236385575
 30
0.0
 11
1.0
 21
0.0
 31
0.0
 44
0.9
  1
305
 40
1.8
 41
8.3314285714
  0
LINE
  5
220
100
AcDbEntity
  8
0
100
AcDbLine
 62
2
  6
CONTINUOUS
 10
63.0428586152
 20
598.0089656483
 11
63.0428586152
 21
511.9522099861
  0
LINE
  5
221
100
AcDbEntity
  8
0
100
AcDbLine
 62
2
  6
CONTINUOUS
 10
417.2165889954
 20
623.0775474563
 11
417.2165889954
 21
511.9522099861
  0
LINE
  5
222
100
AcDbEntity
  8
0
100
AcDbLine
 62
2
  6
CONTINUOUS
 10
63.0428586152
 20
512.4522099861
 11
240.1297238053
 21
512.4522099861
  0
LINE
  5
223
100
AcDbEntity
  8
0
100
AcDbLine
 62
2
  6
CONTINUOUS
 10
417.2165889954
 20
512.4522099861
 11
240.1297238053
 21
512.4522099861
  0
INSERT
  5
224
100
AcDbEntity
  8
0
100
AcDbBlockReference
 62
2
  6
CONTINUOUS
  2
_FILLED
 10
63.0428586152
 20
512.4522099861
 41
3.0
 42
3.0
 43
3.0
 50
180.0
  0
INSERT
  5
225
100
AcDbEntity
  8
0
100
AcDbBlockReference
 62
2
  6
CONTINUOUS
  2
_FILLED
 10
417.2165889954
 20
512.4522099861
 41
3.0
 42
3.0
 43
3.0
  0
ENDBLK
  5
226
100
AcDbEntity
  8
0
  6
BYBLOCK
 62
0
100
AcDbBlockEnd
  0
BLOCK
  5
227
100
AcDbEntity
  8
0
100
AcDbBlockBegin
 62
2
  6
CONTINUOUS
  2
*D2
 70
65
 10
0.0
 20
0.0
  3
*D2
  1

  0
MTEXT
  5
228
100
AcDbEntity
  8
0
100
AcDbMText
 62
2
  6
CONTINUOUS
  7
STANDARD
 71
2
 72
1
 10
487.3318377669
 20
966.6404142596
 30
0.0
 11
0.0
 21
1.0
 31
0.0
 44
0.9
  1
810
 40
1.8
 41
8.3314285714
  0
LINE
  5
229
100
AcDbEntity
  8
0
100
AcDbLine
 62
2
  6
CONTINUOUS
 10
263.2040564819
 20
1373.9770494931
 11
490.4032663383
 21
1373.9770494931
  0
LINE
  5
22A
100
AcDbEntity
  8
0
100
AcDbLine
 62
2
  6
CONTINUOUS
 10
414.252545485
 20
559.3037790262
 11
490.4032663383
 21
559.3037790262
  0
LINE
  5
22B
100
AcDbEntity
  8
0
100
AcDbLine
 62
2
  6
CONTINUOUS
 10
489.9032663383
 20
1373.9770494931
 11
489.9032663383
 21
966.6404142596
  0
LINE
  5
22C
100
AcDbEntity
  8
0
100
AcDbLine
 62
2
  6
CONTINUOUS
 10
489.9032663383
 20
559.3037790262
 11
489.9032663383
 21
966.6404142596
  0
INSERT
  5
22D
100
AcDbEntity
  8
0
100
AcDbBlockReference
 62
2
  6
CONTINUOUS
  2
_FILLED
 10
489.9032663383
 20
1373.9770494931
 41
3.0
 42
3.0
 43
3.0
 50
90.0
  0
INSERT
  5
22E
100
AcDbEntity
  8
0
100
AcDbBlockReference
 62
2
  6
CONTINUOUS
  2
_FILLED
 10
489.9032663383
 20
559.3037790262
 41
3.0
 42
3.0
 43
3.0
 50
270.0
  0
ENDBLK
  5
22F
100
AcDbEntity
  8
0
  6
BYBLOCK
 62
0
100
AcDbBlockEnd
  0
BLOCK
  5
230
100
AcDbEntity
  8
0
100
AcDbBlockBegin
 62
2
  6
CONTINUOUS
  2
*D3
 70
65
 10
0.0
 20
0.0
  3
*D3
  1

  0
MTEXT
  5
231
100
AcDbEntity
  8
0
100
AcDbMText
 62
2
  6
CONTINUOUS
  7
STANDARD
 71
2
 72
1
 10
632.6109592557
 20
860.742399285
 30
0.0
 11
0.0
 21
1.0
 31
0.0
 44
0.9
  1
605
 40
1.8
 41
8.3314285714
  0
LINE
  5
232
100
AcDbEntity
  8
0
100
AcDbLine
 62
2
  6
CONTINUOUS
 10
856.2954422384
 20
1163.8439671346
 11
634.6823878271
 21
1163.8439671346
  0
LINE
  5
233
100
AcDbEntity
  8
0
100
AcDbLine
 62
2
  6
CONTINUOUS
 10
689.6069087514
 20
557.6408314354
 11
634.6823878271
 21
557.6408314354
  0
LINE
  5
234
100
AcDbEntity
  8
0
100
AcDbLine
 62
2
  6
CONTINUOUS
 10
635.1823878271
 20
1163.8439671346
 11
635.1823878271
 21
860.742399285
  0
LINE
  5
235
100
AcDbEntity
  8
0
100
AcDbLine
 62
2
  6
CONTINUOUS
 10
635.1823878271
 20
557.6408314354
 11
635.1823878271
 21
860.742399285
  0
INSERT
  5
236
100
AcDbEntity
  8
0
100
AcDbBlockReference
 62
2
  6
CONTINUOUS
  2
_FILLED
 10
635.1823878271
 20
1163.8439671346
 41
3.0
 42
3.0
 43
3.0
 50
90.0
  0
INSERT
  5
237
100
AcDbEntity
  8
0
100
AcDbBlockReference
 62
2
  6
CONTINUOUS
  2
_FILLED
 10
635.1823878271
 20
557.6408314354
 41
3.0
 42
3.0
 43
3.0
 50
270.0
  0
ENDBLK
  5
238
100
AcDbEntity
  8
0
  6
BYBLOCK
 62
0
100
AcDbBlockEnd
  0
ENDSEC
  0
SECTION
  2
ENTITIES
  0
DIMENSION
  5
239
100
AcDbEntity
  8
0
100
AcDbDimension
 62
2
  6
CONTINUOUS
  2
*D0
 10
1091.7561219756
 20
508.9298512637
 11
889.1975988058
 21
508.9298512637
 70
160
 71
2
 42
405.1170463397
  3
DIMSTYLE_1
100
AcDbAlignedDimension
 13
686.6390756359
 23
625.1150935714
 14
1091.7561219756
 24
621.914255356
100
AcDbRotatedDimension
  0
DIMENSION
  5
23A
100
AcDbEntity
  8
0
100
AcDbDimension
 62
2
  6
CONTINUOUS
  2
*D1
 10
417.2165889954
 20
512.4522099861
 11
240.1297238053
 21
512.4522099861
 70
160
 71
2
 42
354.1737303802
  3
DIMSTYLE_1
100
AcDbAlignedDimension
 13
63.0428586152
 23
598.5089656483
 14
417.2165889954
 24
623.5775474563
100
AcDbRotatedDimension
  0
DIMENSION
  5
23B
100
AcDbEntity
  8
0
100
AcDbDimension
 62
2
  6
CONTINUOUS
  2
*D2
 10
489.9032663383
 20
559.3037790262
 11
489.9032663383
 21
966.6404142596
 70
160
 71
2
 42
814.6732704669
  3
DIMSTYLE_1
100
AcDbAlignedDimension
 13
262.7040564819
 23
1373.9770494931
 14
413.752545485
 24
559.3037790262
 50
270.0
100
AcDbRotatedDimension
  0
DIMENSION
  5
23C
100
AcDbEntity
  8
0
100
AcDbDimension
 62
2
  6
CONTINUOUS
  2
*D3
 10
635.1823878271
 20
557.6408314354
 11
635.1823878271
 21
860.742399285
 70
160
 71
2
 42
606.2031356991
  3
DIMSTYLE_1
100
AcDbAlignedDimension
 13
856.7954422384
 23
1163.8439671346
 14
690.1069087514
 24
557.6408314354
 50
270.0
100
AcDbRotatedDimension
  0
LINE
  5
23D
100
AcDbEntity
  8
0
100
AcDbLine
 62
7
  6
CONTINUOUS
 10
254.1350704815
 20
1373.2411770974
 11
253.9163069182
 21
1373.0901096604
  0
LINE
  5
23E
100
AcDbEntity
  8
0
100
AcDbLine
 62
7
  6
CONTINUOUS
 10
268.1211246229
 20
1346.9189250424
 11
268.3374766194
 21
1347.0699924794
  0
LINE
  5
23F
100
AcDbEntity
  8
0
100
AcDbLine
 62
7
  6
CONTINUOUS
 10
267.9023610596
 20
1346.7678576054
 11
268.1211246229
 21
1346.9189250424
  0
LINE
  5
240
100
AcDbEntity
  8
0
100
AcDbLine
 62
7
  6
CONTINUOUS
 10
268.3374766194
 20
1347.0699924794
 11
269.2149424395
 21
1347.6768460491
  0
LINE
  5
241
100
AcDbEntity
  8
0
100
AcDbLine
 62
7
  6
CONTINUOUS
 10
269.5043304603
 20
1348.2029121297
 11
270.3817962804
 21
1348.8071818778
  0
LINE
  5
242
100
AcDbEntity
  8
0
100
AcDbLine
 62
7
  6
CONTINUOUS
 10
261.7349511219
 20
1361.3127062345
 11
262.5476491469
 21
1361.5497288039
  0
LINE
  5
243
100
AcDbEntity
  8
0
100
AcDbLine
 62
7
  6
CONTINUOUS
 10
253.3251285329
 20
1373.0081163879
 11
252.825245178
 21
1372.3309828702
  0
LINE
  5
244
100
AcDbEntity
  8
0
100
AcDbLine
 62
7
  6
CONTINUOUS
 10
260.7217485397
 20
1359.9636068425
 11
261.7349511219
 21
1361.3127062345
  0
LINE
  5
245
100
AcDbEntity
  8
0
100
AcDbLine
 62
7
  6
CONTINUOUS
 10
252.825245178
 20
1372.3309828702
 11
252.3146820271
 21
1371.6576389576
  0
LINE
  5
246
100
AcDbEntity
  8
0
100
AcDbLine
 62
7
  6
CONTINUOUS
 10
125.1827349017
 20
1117.5053658007
 11
124.9171180398
 21
1117.2397489388
  0
LINE
  5
247
100
AcDbEntity
  8
0
100
AcDbLine
 62
7
  6
CONTINUOUS
 10
124.385884316
 20
1120.706204016
 11
124.1175113777
 21
1120.1723864706
  0
LINE
  5
248
100
AcDbEntity
  8
0
100
AcDbLine
 62
7
  6
CONTINUOUS
 10
124.385884316
 20
1116.9713760005
 11
124.1175113777
 21
1116.437558455
  0
LINE
  5
249
100
AcDbEntity
  8
0
100
AcDbLine
 62
7
  6
CONTINUOUS
 10
138.7860389348
 20
1120.706204016
 11
138.2520491346
 21
1119.6383966704
  0
LINE
  5
24A
100
AcDbEntity
  8
0
100
AcDbLine
 62
7
  6
CONTINUOUS
 10
269.2149424395
 20
1347.6768460491
 11
269.5043304603
 21
1348.2029121297
  0
LINE
  5
24B
100
AcDbEntity
  8
0
100
AcDbLine
 62
7
  6
CONTINUOUS
 10
138.5176659965
 20
1116.437558455
 11
139.0540673635
 21
1117.2397489388
  0
LINE
  5
24C
100
AcDbEntity
  8
0
100
AcDbLine
 62
7
  6
CONTINUOUS
 10
152.1209700296
 20
1117.7709826626
 11
152.3889984583
 21
1118.0391833461
  0
LINE
  5
24D
100
AcDbEntity
  8
0
100
AcDbLine
 62
7
  6
CONTINUOUS
 10
124.9171180398
 20
1117.2397489388
 11
124.385884316
 21
1116.9713760005
  0
LINE
  5
24E
100
AcDbEntity
  8
0
100
AcDbLine
 62
7
  6
CONTINUOUS
 10
126.2507145022
 20
1118.0391833461
 11
125.7194807783
 21
1117.7709826626
  0
LINE
  5
24F
100
AcDbEntity
  8
0
100
AcDbLine
 62
7
  6
CONTINUOUS
 10
124.9171180398
 20
1120.9718208779
 11
124.385884316
 21
1120.706204016
  0
LINE
  5
250
100
AcDbEntity
  8
0
100
AcDbLine
 62
7
  6
CONTINUOUS
 10
139.0540673635
 20
1117.2397489388
 11
140.1192908876
 21
1117.7709826626
  0
LINE
  5
251
100
AcDbEntity
  8
0
100
AcDbLine
 62
7
  6
CONTINUOUS
 10
139.320028735
 20
1120.9718208779
 11
138.7860389348
 21
1120.706204016
  0
LINE
  5
252
100
AcDbEntity
  8
0
100
AcDbLine
 62
7
  6
CONTINUOUS
 10
125.7194807783
 20
1117.7709826626
 11
125.1827349017
 21
1117.5053658007
  0
LINE
  5
253
100
AcDbEntity
  8
0
100
AcDbLine
 62
7
  6
CONTINUOUS
 10
891.2009218305
 20
97.7402211989
 11
887.4164844399
 21
98.1805044019
  0
LINE
  5
254
100
AcDbEntity
  8
0
100
AcDbLine
 62
7
  6
CONTINUOUS
 10
63.0428586152
 20
598.2409372196
 11
63.0428586152
 21
608.6430585277
  0
LINE
  5
255
100
AcDbEntity
  8
0
100
AcDbLine
 62
7
  6
CONTINUOUS
 10
63.3112315535
 20
597.7069474194
 11
63.3112315535
 21
597.9753203577
  0
LINE
  5
256
100
AcDbEntity
  8
0
100
AcDbLine
 62
7
  6
CONTINUOUS
 10
63.8424652773
 20
609.1770483279
 11
63.8424652773
 21
608.1094132371
  0
LINE
  5
257
100
AcDbEntity
  8
0
100
AcDbLine
 62
7
  6
CONTINUOUS
 10
68.1112830931
 20
597.4413305574
 11
68.1112830931
 21
606.7758167747
  0
LINE
  5
258
100
AcDbEntity
  8
0
100
AcDbLine
 62
7
  6
CONTINUOUS
 10
68.6449283838
 20
596.6417238953
 11
68.6449283838
 21
595.8421172332
  0
LINE
  5
259
100
AcDbEntity
  8
0
100
AcDbLine
 62
7
  6
CONTINUOUS
 10
70.244141708
 20
612.1098581145
 11
70.244141708
 21
612.3754749764
  0
LINE
  5
25A
100
AcDbEntity
  8
0
100
AcDbLine
 62
7
  6
CONTINUOUS
 10
70.5097585699
 20
612.3754749764
 11
70.5097585699
 21
612.9094647767
  0
LINE
  5
25B
100
AcDbEntity
  8
0
100
AcDbLine
 62
7
  6
CONTINUOUS
 10
70.7781315082
 20
612.9094647767
 11
70.7781315082
 21
613.4434545769
  0
LINE
  5
25C
100
AcDbEntity
  8
0
100
AcDbLine
 62
7
  6
CONTINUOUS
 10
71.0465044465
 20
613.4434545769
 11
71.0465044465
 21
613.7087269292
  0
LINE
  5
25D
100
AcDbEntity
  8
0
100
AcDbLine
 62
7
  6
CONTINUOUS
 10
71.5777381703
 20
613.7087269292
 11
71.5777381703
 21
613.9770998675
  0
LINE
  5
25E
100
AcDbEntity
  8
0
100
AcDbLine
 62
7
  6
CONTINUOUS
 10
73.7133528617
 20
595.0400990042
 11
73.7133528617
 21
596.1077340951
  0
LINE
  5
25F
100
AcDbEntity
  8
0
100
AcDbLine
 62
7
  6
CONTINUOUS
 10
74.5102034474
 20
611.3102514524
 11
74.5102034474
 21
610.7762616522
  0
LINE
  5
260
100
AcDbEntity
  8
0
100
AcDbLine
 62
7
  6
CONTINUOUS
 10
74.7785763857
 20
611.8442412526
 11
74.7785763857
 21
611.5758683143
  0
LINE
  5
261
100
AcDbEntity
  8
0
100
AcDbLine
 62
7
  6
CONTINUOUS
 10
138.2520491346
 20
1115.3721626762
 11
138.5176659965
 21
1116.437558455
  0
LINE
  5
262
100
AcDbEntity
  8
0
100
AcDbLine
 62
7
  6
CONTINUOUS
 10
260.3703488002
 20
1359.068915545
 11
260.7217485397
 21
1359.9636068425
  0
LINE
  5
263
100
AcDbEntity
  8
0
100
AcDbLine
 62
7
  6
CONTINUOUS
 10
140.1192908876
 20
1117.7709826626
 11
140.9188975497
 21
1118.0391833461
  0
LINE
  5
264
100
AcDbEntity
  8
0
100
AcDbLine
 62
7
  6
CONTINUOUS
 10
134.2516042571
 20
571.3051136586
 11
133.9859873952
 21
574.5062963835
  0
LINE
  5
265
100
AcDbEntity
  8
0
100
AcDbLine
 62
7
  6
CONTINUOUS
 10
132.9180077948
 20
621.978334132
 11
133.1836246567
 21
618.7771514071
  0
LINE
  5
266
100
AcDbEntity
  8
0
100
AcDbLine
 62
7
  6
CONTINUOUS
 10
132.9180077948
 20
621.978334132
 11
133.1836246567
 21
616.6442927922
  0
LINE
  5
267
100
AcDbEntity
  8
0
100
AcDbLine
 62
7
  6
CONTINUOUS
 10
130.5167762415
 20
613.7087269292
 11
130.2511593796
 21
621.4443443318
  0
LINE
  5
268
100
AcDbEntity
  8
0
100
AcDbLine
 62
7
  6
CONTINUOUS
 10
130.7851491799
 20
588.1068443402
 11
131.3187944705
 21
571.3051136586
  0
LINE
  5
269
100
AcDbEntity
  8
0
100
AcDbLine
 62
7
  6
CONTINUOUS
 10
129.1831797792
 20
588.3724612021
 11
129.7199256558
 21
571.3051136586
  0
LINE
  5
26A
100
AcDbEntity
  8
0
100
AcDbLine
 62
7
  6
CONTINUOUS
 10
128.9175629173
 20
613.1774932054
 11
128.6519460554
 21
621.978334132
  0
LINE
  5
26B
100
AcDbEntity
  8
0
100
AcDbLine
 62
7
  6
CONTINUOUS
 10
129.7199256558
 20
574.5062963835
 11
129.4515527175
 21
586.5076310159
  0
LINE
  5
26C
100
AcDbEntity
  8
0
100
AcDbLine
 62
7
  6
CONTINUOUS
 10
133.1836246567
 20
618.7771514071
 11
133.451997595
 21
606.7758167747
  0
LINE
  5
26D
100
AcDbEntity
  8
0
100
AcDbLine
 62
7
  6
CONTINUOUS
 10
133.9859873952
 20
574.5062963835
 11
133.7203705333
 21
586.5076310159
  0
LINE
  5
26E
100
AcDbEntity
  8
0
100
AcDbLine
 62
7
  6
CONTINUOUS
 10
127.0527327311
 20
588.6408341404
 11
127.5843109645
 21
564.3694474277
  0
LINE
  5
26F
100
AcDbEntity
  8
0
100
AcDbLine
 62
7
  6
CONTINUOUS
 10
133.1836246567
 20
616.6442927922
 11
133.9859873952
 21
571.3051136586
  0
LINE
  5
270
100
AcDbEntity
  8
0
100
AcDbLine
 62
7
  6
CONTINUOUS
 10
133.1836246567
 20
621.978334132
 11
133.9859873952
 21
571.3051136586
  0
LINE
  5
271
100
AcDbEntity
  8
0
100
AcDbLine
 62
7
  6
CONTINUOUS
 10
77.7137977391
 20
614.5110896678
 11
77.7137977391
 21
614.7767065297
  0
LINE
  5
272
100
AcDbEntity
  8
0
100
AcDbLine
 62
7
  6
CONTINUOUS
 10
77.979414601
 20
612.6435034052
 11
77.979414601
 21
611.5758683143
  0
LINE
  5
273
100
AcDbEntity
  8
0
100
AcDbLine
 62
7
  6
CONTINUOUS
 10
78.245031463
 20
614.7767065297
 11
78.245031463
 21
614.5110896678
  0
LINE
  5
274
100
AcDbEntity
  8
0
100
AcDbLine
 62
7
  6
CONTINUOUS
 10
78.245031463
 20
611.5758683143
 11
78.245031463
 21
611.0418785141
  0
LINE
  5
275
100
AcDbEntity
  8
0
100
AcDbLine
 62
7
  6
CONTINUOUS
 10
79.5786279253
 20
612.6435034052
 11
79.5786279253
 21
611.0418785141
  0
LINE
  5
276
100
AcDbEntity
  8
0
100
AcDbLine
 62
7
  6
CONTINUOUS
 10
82.2454763404
 20
613.1774932054
 11
82.2454763404
 21
612.9094647767
  0
LINE
  5
277
100
AcDbEntity
  8
0
100
AcDbLine
 62
7
  6
CONTINUOUS
 10
82.5110932023
 20
595.308127433
 11
82.5110932023
 21
608.6430585277
  0
LINE
  5
278
100
AcDbEntity
  8
0
100
AcDbLine
 62
7
  6
CONTINUOUS
 10
82.7794661406
 20
612.9094647767
 11
82.7794661406
 21
612.6435034052
  0
LINE
  5
279
100
AcDbEntity
  8
0
100
AcDbLine
 62
7
  6
CONTINUOUS
 10
82.7794661406
 20
609.7082820518
 11
82.7794661406
 21
609.1770483279
  0
LINE
  5
27A
100
AcDbEntity
  8
0
100
AcDbLine
 62
7
  6
CONTINUOUS
 10
83.0478390789
 20
612.6435034052
 11
83.0478390789
 21
612.3754749764
  0
LINE
  5
27B
100
AcDbEntity
  8
0
100
AcDbLine
 62
7
  6
CONTINUOUS
 10
84.6470524032
 20
593.7065025419
 11
84.6470524032
 21
594.7744821423
  0
LINE
  5
27C
100
AcDbEntity
  8
0
100
AcDbLine
 62
7
  6
CONTINUOUS
 10
124.1175113777
 20
1120.1723864706
 11
124.1175113777
 21
1119.1044068702
  0
LINE
  5
27D
100
AcDbEntity
  8
0
100
AcDbLine
 62
7
  6
CONTINUOUS
 10
124.1175113777
 20
1116.437558455
 11
124.1175113777
 21
628.9112442866
  0
LINE
  5
27E
100
AcDbEntity
  8
0
100
AcDbLine
 62
7
  6
CONTINUOUS
 10
124.1175113777
 20
627.0440025335
 11
124.1175113777
 21
623.0435576561
  0
LINE
  5
27F
100
AcDbEntity
  8
0
100
AcDbLine
 62
7
  6
CONTINUOUS
 10
124.385884316
 20
627.3120309623
 11
124.385884316
 21
627.0440025335
  0
LINE
  5
280
100
AcDbEntity
  8
0
100
AcDbLine
 62
7
  6
CONTINUOUS
 10
124.385884316
 20
622.7775962846
 11
124.385884316
 21
622.2439509939
  0
LINE
  5
281
100
AcDbEntity
  8
0
100
AcDbLine
 62
7
  6
CONTINUOUS
 10
124.6515011779
 20
589.9740860932
 11
124.6515011779
 21
609.1770483279
  0
LINE
  5
282
100
AcDbEntity
  8
0
100
AcDbLine
 62
7
  6
CONTINUOUS
 10
124.9171180398
 20
611.0418785141
 11
124.9171180398
 21
609.7082820518
  0
LINE
  5
283
100
AcDbEntity
  8
0
100
AcDbLine
 62
7
  6
CONTINUOUS
 10
125.1827349017
 20
611.8442412526
 11
125.1827349017
 21
611.3102514524
  0
LINE
  5
284
100
AcDbEntity
  8
0
100
AcDbLine
 62
7
  6
CONTINUOUS
 10
125.45110784
 20
561.7025990126
 11
125.45110784
 21
561.1710207792
  0
LINE
  5
285
100
AcDbEntity
  8
0
100
AcDbLine
 62
7
  6
CONTINUOUS
 10
125.45110784
 20
560.3690025502
 11
125.45110784
 21
559.8377688264
  0
LINE
  5
286
100
AcDbEntity
  8
0
100
AcDbLine
 62
7
  6
CONTINUOUS
 10
125.7194807783
 20
561.9709719509
 11
125.7194807783
 21
561.7025990126
  0
LINE
  5
287
100
AcDbEntity
  8
0
100
AcDbLine
 62
7
  6
CONTINUOUS
 10
126.5163313641
 20
621.4443443318
 11
126.5163313641
 21
613.1774932054
  0
LINE
  5
288
100
AcDbEntity
  8
0
100
AcDbLine
 62
7
  6
CONTINUOUS
 10
126.7847043024
 20
588.6408341404
 11
126.7847043024
 21
589.7060576644
  0
LINE
  5
289
100
AcDbEntity
  8
0
100
AcDbLine
 62
7
  6
CONTINUOUS
 10
127.8499278264
 20
610.5106447903
 11
127.8499278264
 21
608.375030099
  0
LINE
  5
28A
100
AcDbEntity
  8
0
100
AcDbLine
 62
7
  6
CONTINUOUS
 10
128.1179562552
 20
611.5758683143
 11
128.1179562552
 21
611.0418785141
  0
LINE
  5
28B
100
AcDbEntity
  8
0
100
AcDbLine
 62
7
  6
CONTINUOUS
 10
128.3863291935
 20
612.1098581145
 11
128.3863291935
 21
611.8442412526
  0
LINE
  5
28C
100
AcDbEntity
  8
0
100
AcDbLine
 62
7
  6
CONTINUOUS
 10
128.3863291935
 20
589.4404408025
 11
128.3863291935
 21
590.7740372648
  0
LINE
  5
28D
100
AcDbEntity
  8
0
100
AcDbLine
 62
7
  6
CONTINUOUS
 10
128.6519460554
 20
621.978334132
 11
128.6519460554
 21
613.7087269292
  0
LINE
  5
28E
100
AcDbEntity
  8
0
100
AcDbLine
 62
7
  6
CONTINUOUS
 10
128.6519460554
 20
565.70304389
 11
128.6519460554
 21
565.9714168283
  0
LINE
  5
28F
100
AcDbEntity
  8
0
100
AcDbLine
 62
7
  6
CONTINUOUS
 10
129.1831797792
 20
561.7025990126
 11
129.1831797792
 21
561.1710207792
  0
LINE
  5
290
100
AcDbEntity
  8
0
100
AcDbLine
 62
7
  6
CONTINUOUS
 10
129.4515527175
 20
586.5076310159
 11
129.4515527175
 21
588.3724612021
  0
LINE
  5
291
100
AcDbEntity
  8
0
100
AcDbLine
 62
7
  6
CONTINUOUS
 10
129.7199256558
 20
568.1042754432
 11
129.7199256558
 21
567.8386585813
  0
LINE
  5
292
100
AcDbEntity
  8
0
100
AcDbLine
 62
7
  6
CONTINUOUS
 10
129.7199256558
 20
570.505851506
 11
129.7199256558
 21
574.5062963835
  0
LINE
  5
293
100
AcDbEntity
  8
0
100
AcDbLine
 62
7
  6
CONTINUOUS
 10
130.2511593796
 20
621.4443443318
 11
130.2511593796
 21
613.7087269292
  0
LINE
  5
294
100
AcDbEntity
  8
0
100
AcDbLine
 62
7
  6
CONTINUOUS
 10
130.5167762415
 20
613.7087269292
 11
130.5167762415
 21
616.110302992
  0
LINE
  5
295
100
AcDbEntity
  8
0
100
AcDbLine
 62
7
  6
CONTINUOUS
 10
131.8503727039
 20
564.637820366
 11
131.8503727039
 21
564.9034372279
  0
LINE
  5
296
100
AcDbEntity
  8
0
100
AcDbLine
 62
7
  6
CONTINUOUS
 10
132.1184011326
 20
564.3694474277
 11
132.1184011326
 21
564.1038305658
  0
LINE
  5
297
100
AcDbEntity
  8
0
100
AcDbLine
 62
7
  6
CONTINUOUS
 10
132.1184011326
 20
564.9034372279
 11
132.1184011326
 21
565.1718101662
  0
LINE
  5
298
100
AcDbEntity
  8
0
100
AcDbLine
 62
7
  6
CONTINUOUS
 10
132.3867740709
 20
565.4374270281
 11
132.3867740709
 21
565.1718101662
  0
LINE
  5
299
100
AcDbEntity
  8
0
100
AcDbLine
 62
7
  6
CONTINUOUS
 10
132.3867740709
 20
564.1038305658
 11
132.3867740709
 21
563.8382137039
  0
LINE
  5
29A
100
AcDbEntity
  8
0
100
AcDbLine
 62
7
  6
CONTINUOUS
 10
132.3867740709
 20
588.1068443402
 11
132.3867740709
 21
612.1098581145
  0
LINE
  5
29B
100
AcDbEntity
  8
0
100
AcDbLine
 62
7
  6
CONTINUOUS
 10
406.4889061639
 20
1166.0164443476
 11
401.1052554491
 21
1160.6720677213
  0
LINE
  5
29C
100
AcDbEntity
  8
0
100
AcDbLine
 62
7
  6
CONTINUOUS
 10
423.795343334
 20
1188.355132493
 11
422.6284894932
 21
1187.2247966643
  0
LINE
  5
29D
100
AcDbEntity
  8
0
100
AcDbLine
 62
7
  6
CONTINUOUS
 10
418.8416405358
 20
1133.5073175653
 11
418.6256330489
 21
1133.3536663067
  0
LINE
  5
29E
100
AcDbEntity
  8
0
100
AcDbLine
 62
7
  6
CONTINUOUS
 10
439.7895436338
 20
1166.2586345602
 11
439.5731916374
 21
1166.1049833016
  0
LINE
  5
29F
100
AcDbEntity
  8
0
100
AcDbLine
 62
7
  6
CONTINUOUS
 10
445.8811614709
 20
1157.1716784535
 11
446.0975134673
 21
1157.3253297122
  0
LINE
  5
2A0
100
AcDbEntity
  8
0
100
AcDbLine
 62
7
  6
CONTINUOUS
 10
418.7531015818
 20
1134.095912129
 11
419.1882171416
 21
1134.4057984679
  0
LINE
  5
2A1
100
AcDbEntity
  8
0
100
AcDbLine
 62
7
  6
CONTINUOUS
 10
419.6491709175
 20
1133.749507778
 11
419.2168114341
 21
1133.4422052607
  0
LINE
  5
2A2
100
AcDbEntity
  8
0
100
AcDbLine
 62
7
  6
CONTINUOUS
 10
439.9431948925
 20
1166.0398709969
 11
439.2920718458
 21
1165.578917221
  0
LINE
  5
2A3
100
AcDbEntity
  8
0
100
AcDbLine
 62
7
  6
CONTINUOUS
 10
440.4692609731
 20
1165.7585789505
 11
440.0341454133
 21
1165.4512764332
  0
LINE
  5
2A4
100
AcDbEntity
  8
0
100
AcDbLine
 62
7
  6
CONTINUOUS
 10
439.5731916374
 20
1166.1049833016
 11
439.1356645107
 21
1165.7976807843
  0
LINE
  5
2A5
100
AcDbEntity
  8
0
100
AcDbLine
 62
7
  6
CONTINUOUS
 10
440.1619584558
 20
1166.1935222555
 11
439.9431948925
 21
1166.0398709969
  0
LINE
  5
2A6
100
AcDbEntity
  8
0
100
AcDbLine
 62
7
  6
CONTINUOUS
 10
419.2168114341
 20
1133.4422052607
 11
418.7792843075
 21
1133.1349027434
  0
LINE
  5
2A7
100
AcDbEntity
  8
0
100
AcDbLine
 62
7
  6
CONTINUOUS
 10
399.3499792993
 20
1159.4583605819
 11
399.787506426
 21
1159.7630792775
  0
LINE
  5
2A8
100
AcDbEntity
  8
0
100
AcDbLine
 62
7
  6
CONTINUOUS
 10
397.8861582277
 20
1158.7681357014
 11
398.3212737874
 21
1159.0702705755
  0
LINE
  5
2A9
100
AcDbEntity
  8
0
100
AcDbLine
 62
7
  6
CONTINUOUS
 10
416.4900183576
 20
1134.6662476866
 11
417.1487206143
 21
1135.1220338193
  0
LINE
  5
2AA
100
AcDbEntity
  8
0
100
AcDbLine
 62
7
  6
CONTINUOUS
 10
399.787506426
 20
1159.7630792775
 11
401.1052554491
 21
1160.6720677213
  0
LINE
  5
2AB
100
AcDbEntity
  8
0
100
AcDbLine
 62
7
  6
CONTINUOUS
 10
398.3212737874
 20
1159.0702705755
 11
398.7612124809
 21
1159.3724054495
  0
LINE
  5
2AC
100
AcDbEntity
  8
0
100
AcDbLine
 62
7
  6
CONTINUOUS
 10
419.4093922718
 20
1134.5568659049
 11
419.1882171416
 21
1134.4057984679
  0
LINE
  5
2AD
100
AcDbEntity
  8
0
100
AcDbLine
 62
7
  6
CONTINUOUS
 10
424.3031504086
 20
1189.0270983674
 11
424.079219202
 21
1188.8760309304
  0
LINE
  5
2AE
100
AcDbEntity
  8
0
100
AcDbLine
 62
7
  6
CONTINUOUS
 10
440.734877835
 20
1166.6675673943
 11
440.5133581953
 21
1166.5190837789
  0
LINE
  5
2AF
100
AcDbEntity
  8
0
100
AcDbLine
 62
7
  6
CONTINUOUS
 10
421.7534352399
 20
1120.1723864706
 11
421.2170338729
 21
1119.9065973539
  0
LINE
  5
2B0
100
AcDbEntity
  8
0
100
AcDbLine
 62
7
  6
CONTINUOUS
 10
423.1652353698
 20
1129.6994535255
 11
422.357704988
 21
1129.4572633129
  0
LINE
  5
2B1
100
AcDbEntity
  8
0
100
AcDbLine
 62
7
  6
CONTINUOUS
 10
129.1831797792
 20
560.3690025502
 11
129.4515527175
 21
559.8377688264
  0
LINE
  5
2B2
100
AcDbEntity
  8
0
100
AcDbLine
 62
7
  6
CONTINUOUS
 10
125.1827349017
 20
560.9029923504
 11
125.7194807783
 21
559.8377688264
  0
LINE
  5
2B3
100
AcDbEntity
  8
0
100
AcDbLine
 62
7
  6
CONTINUOUS
 10
128.9175629173
 20
560.9029923504
 11
129.1831797792
 21
560.3690025502
  0
LINE
  5
2B4
100
AcDbEntity
  8
0
100
AcDbLine
 62
7
  6
CONTINUOUS
 10
136.1188460101
 20
563.5698407656
 11
135.8508175814
 21
564.637820366
  0
LINE
  5
2B5
100
AcDbEntity
  8
0
100
AcDbLine
 62
7
  6
CONTINUOUS
 10
134.517221119
 20
621.4443443318
 11
135.5852007194
 21
571.3051136586
  0
LINE
  5
2B6
100
AcDbEntity
  8
0
100
AcDbLine
 62
7
  6
CONTINUOUS
 10
135.8508175814
 20
564.637820366
 11
134.7855940573
 21
621.4443443318
  0
LINE
  5
2B7
100
AcDbEntity
  8
0
100
AcDbLine
 62
7
  6
CONTINUOUS
 10
141.7212602882
 20
559.3037790262
 11
140.6532806878
 21
621.4443443318
  0
LINE
  5
2B8
100
AcDbEntity
  8
0
100
AcDbLine
 62
7
  6
CONTINUOUS
 10
152.3889984583
 20
621.4443443318
 11
153.4542219823
 21
559.3037790262
  0
LINE
  5
2B9
100
AcDbEntity
  8
0
100
AcDbLine
 62
7
  6
CONTINUOUS
 10
133.1836246567
 20
565.1718101662
 11
133.1836246567
 21
564.9034372279
  0
LINE
  5
2BA
100
AcDbEntity
  8
0
100
AcDbLine
 62
7
  6
CONTINUOUS
 10
135.5852007194
 20
571.3051136586
 11
135.5852007194
 21
569.4378719056
  0
LINE
  5
2BB
100
AcDbEntity
  8
0
100
AcDbLine
 62
7
  6
CONTINUOUS
 10
135.5852007194
 20
559.3037790262
 11
135.5852007194
 21
559.5693958881
  0
LINE
  5
2BC
100
AcDbEntity
  8
0
100
AcDbLine
 62
7
  6
CONTINUOUS
 10
135.8508175814
 20
560.6373754885
 11
135.8508175814
 21
561.9709719509
  0
LINE
  5
2BD
100
AcDbEntity
  8
0
100
AcDbLine
 62
7
  6
CONTINUOUS
 10
138.2520491346
 20
623.5775474563
 11
138.2520491346
 21
627.0440025335
  0
LINE
  5
2BE
100
AcDbEntity
  8
0
100
AcDbLine
 62
7
  6
CONTINUOUS
 10
138.2520491346
 20
629.979223887
 11
138.2520491346
 21
1115.3721626762
  0
LINE
  5
2BF
100
AcDbEntity
  8
0
100
AcDbLine
 62
7
  6
CONTINUOUS
 10
138.5176659965
 20
623.0435576561
 11
138.5176659965
 21
622.7775962846
  0
LINE
  5
2C0
100
AcDbEntity
  8
0
100
AcDbLine
 62
7
  6
CONTINUOUS
 10
138.5176659965
 20
627.0440025335
 11
138.5176659965
 21
627.3120309623
  0
LINE
  5
2C1
100
AcDbEntity
  8
0
100
AcDbLine
 62
7
  6
CONTINUOUS
 10
152.1209700296
 20
621.4443443318
 11
152.1209700296
 21
627.3120309623
  0
LINE
  5
2C2
100
AcDbEntity
  8
0
100
AcDbLine
 62
7
  6
CONTINUOUS
 10
152.1209700296
 20
627.5779923338
 11
152.1209700296
 21
1117.7709826626
  0
LINE
  5
2C3
100
AcDbEntity
  8
0
100
AcDbLine
 62
7
  6
CONTINUOUS
 10
152.1209700296
 20
1118.0391833461
 11
152.1209700296
 21
1120.9718208779
  0
LINE
  5
2C4
100
AcDbEntity
  8
0
100
AcDbLine
 62
7
  6
CONTINUOUS
 10
133.9859873952
 20
571.3051136586
 11
133.7203705333
 21
568.1042754432
  0
LINE
  5
2C5
100
AcDbEntity
  8
0
100
AcDbLine
 62
7
  6
CONTINUOUS
 10
129.4515527175
 20
568.1042754432
 11
129.7199256558
 21
571.3051136586
  0
LINE
  5
2C6
100
AcDbEntity
  8
0
100
AcDbLine
 62
7
  6
CONTINUOUS
 10
131.3187944705
 20
571.3051136586
 11
130.7851491799
 21
567.5706301526
  0
LINE
  5
2C7
100
AcDbEntity
  8
0
100
AcDbLine
 62
7
  6
CONTINUOUS
 10
133.9859873952
 20
569.7034887675
 11
134.2516042571
 21
571.3051136586
  0
LINE
  5
2C8
100
AcDbEntity
  8
0
100
AcDbLine
 62
7
  6
CONTINUOUS
 10
135.8508175814
 20
561.9709719509
 11
136.1188460101
 21
563.5698407656
  0
LINE
  5
2C9
100
AcDbEntity
  8
0
100
AcDbLine
 62
7
  6
CONTINUOUS
 10
252.3146820271
 20
1371.6576389576
 11
252.0463090888
 21
1370.1717692748
  0
LINE
  5
2CA
100
AcDbEntity
  8
0
100
AcDbLine
 62
7
  6
CONTINUOUS
 10
260.2297889044
 20
1358.3292535443
 11
260.3703488002
 21
1359.068915545
  0
LINE
  5
2CB
100
AcDbEntity
  8
0
100
AcDbLine
 62
7
  6
CONTINUOUS
 10
129.7199256558
 20
569.7034887675
 11
129.1831797792
 21
567.3046687811
  0
LINE
  5
2CC
100
AcDbEntity
  8
0
100
AcDbLine
 62
7
  6
CONTINUOUS
 10
128.6519460554
 20
565.70304389
 11
129.1831797792
 21
567.8386585813
  0
LINE
  5
2CD
100
AcDbEntity
  8
0
100
AcDbLine
 62
7
  6
CONTINUOUS
 10
135.5852007194
 20
559.5693958881
 11
135.8508175814
 21
560.6373754885
  0
LINE
  5
2CE
100
AcDbEntity
  8
0
100
AcDbLine
 62
7
  6
CONTINUOUS
 10
133.1836246567
 20
567.0366403524
 11
132.9180077948
 21
565.9714168283
  0
LINE
  5
2CF
100
AcDbEntity
  8
0
100
AcDbLine
 62
7
  6
CONTINUOUS
 10
132.9180077948
 20
565.70304389
 11
133.9859873952
 21
569.7034887675
  0
LINE
  5
2D0
100
AcDbEntity
  8
0
100
AcDbLine
 62
7
  6
CONTINUOUS
 10
63.5768484154
 20
609.9766549901
 11
63.0428586152
 21
608.6430585277
  0
LINE
  5
2D1
100
AcDbEntity
  8
0
100
AcDbLine
 62
7
  6
CONTINUOUS
 10
64.3764550775
 20
609.9766549901
 11
64.1108382156
 21
609.4426651899
  0
LINE
  5
2D2
100
AcDbEntity
  8
0
100
AcDbLine
 62
7
  6
CONTINUOUS
 10
68.9105452457
 20
608.375030099
 11
68.1112830931
 21
606.7758167747
  0
LINE
  5
2D3
100
AcDbEntity
  8
0
100
AcDbLine
 62
7
  6
CONTINUOUS
 10
82.7794661406
 20
609.1770483279
 11
82.5110932023
 21
608.6430585277
  0
LINE
  5
2D4
100
AcDbEntity
  8
0
100
AcDbLine
 62
7
  6
CONTINUOUS
 10
422.6284894932
 20
1187.2247966643
 11
419.3887216988
 21
1182.0626655892
  0
LINE
  5
2D5
100
AcDbEntity
  8
0
100
AcDbLine
 62
7
  6
CONTINUOUS
 10
419.3887216988
 20
1182.0626655892
 11
414.8308603719
 21
1175.9943021467
  0
LINE
  5
2D6
100
AcDbEntity
  8
0
100
AcDbLine
 62
7
  6
CONTINUOUS
 10
423.972421242
 20
1143.078826352
 11
421.438209003
 21
1139.7086616936
  0
LINE
  5
2D7
100
AcDbEntity
  8
0
100
AcDbLine
 62
7
  6
CONTINUOUS
 10
417.7374874328
 20
1135.2079889516
 11
418.2480505837
 21
1135.8825386477
  0
LINE
  5
2D8
100
AcDbEntity
  8
0
100
AcDbLine
 62
7
  6
CONTINUOUS
 10
414.8308603719
 20
1175.9943021467
 11
411.0674380638
 21
1171.1239706592
  0
LINE
  5
2D9
100
AcDbEntity
  8
0
100
AcDbLine
 62
7
  6
CONTINUOUS
 10
421.438209003
 20
1139.7086616936
 11
418.2480505837
 21
1135.8825386477
  0
LINE
  5
2DA
100
AcDbEntity
  8
0
100
AcDbLine
 62
7
  6
CONTINUOUS
 10
425.4545013197
 20
1140.7868043257
 11
419.9330467855
 21
1134.2755738586
  0
LINE
  5
2DB
100
AcDbEntity
  8
0
100
AcDbLine
 62
7
  6
CONTINUOUS
 10
430.3014061579
 20
1125.6027182292
 11
429.5879268829
 21
1124.7691773766
  0
LINE
  5
2DC
100
AcDbEntity
  8
0
100
AcDbLine
 62
7
  6
CONTINUOUS
 10
425.0455684856
 20
1128.4208063362
 11
425.7645599134
 21
1129.254174934
  0
LINE
  5
2DD
100
AcDbEntity
  8
0
100
AcDbLine
 62
7
  6
CONTINUOUS
 10
411.0674380638
 20
1171.1239706592
 11
406.4889061639
 21
1166.0164443476
  0
LINE
  5
2DE
100
AcDbEntity
  8
0
100
AcDbLine
 62
7
  6
CONTINUOUS
 10
431.1244394693
 20
1122.5918770299
 11
432.059438384
 21
1123.5763130648
  0
LINE
  5
2DF
100
AcDbEntity
  8
0
100
AcDbLine
 62
7
  6
CONTINUOUS
 10
432.4187618432
 20
1121.2193509886
 11
433.3565168342
 21
1122.2037870235
  0
LINE
  5
2E0
100
AcDbEntity
  8
0
100
AcDbLine
 62
7
  6
CONTINUOUS
 10
421.2170338729
 20
1119.9065973539
 11
420.951417011
 21
1119.6383966704
  0
LINE
  5
2E1
100
AcDbEntity
  8
0
100
AcDbLine
 62
7
  6
CONTINUOUS
 10
422.0190521018
 20
1120.706204016
 11
421.7534352399
 21
1120.4380033325
  0
LINE
  5
2E2
100
AcDbEntity
  8
0
100
AcDbLine
 62
7
  6
CONTINUOUS
 10
412.4189490226
 20
1118.5731731463
 11
411.8825476556
 21
1118.0391833461
  0
LINE
  5
2E3
100
AcDbEntity
  8
0
100
AcDbLine
 62
7
  6
CONTINUOUS
 10
433.2652218039
 20
1122.7977214851
 11
432.1114593259
 21
1121.6542942936
  0
LINE
  5
2E4
100
AcDbEntity
  8
0
100
AcDbLine
 62
7
  6
CONTINUOUS
 10
439.0447139899
 20
1130.7960274185
 11
438.8259504266
 21
1130.6397923382
  0
LINE
  5
2E5
100
AcDbEntity
  8
0
100
AcDbLine
 62
7
  6
CONTINUOUS
 10
421.9828785992
 20
1129.5223756176
 11
421.7665266028
 21
1129.3687243589
  0
LINE
  5
2E6
100
AcDbEntity
  8
0
100
AcDbLine
 62
7
  6
CONTINUOUS
 10
439.2607214769
 20
1130.9496786771
 11
439.4770734733
 21
1131.1033299357
  0
LINE
  5
2E7
100
AcDbEntity
  8
0
100
AcDbLine
 62
7
  6
CONTINUOUS
 10
425.9833234767
 20
1129.4052423711
 11
426.8556216536
 21
1130.0224312272
  0
LINE
  5
2E8
100
AcDbEntity
  8
0
100
AcDbLine
 62
7
  6
CONTINUOUS
 10
430.2517967829
 20
1121.9746881737
 11
431.1244394693
 21
1122.5918770299
  0
LINE
  5
2E9
100
AcDbEntity
  8
0
100
AcDbLine
 62
7
  6
CONTINUOUS
 10
423.2561858906
 20
1123.5633939567
 11
422.818658764
 21
1123.2535076178
  0
LINE
  5
2EA
100
AcDbEntity
  8
0
100
AcDbLine
 62
7
  6
CONTINUOUS
 10
422.2274803787
 20
1123.1647964091
 11
422.4490000184
 21
1123.3212037441
  0
LINE
  5
2EB
100
AcDbEntity
  8
0
100
AcDbLine
 62
7
  6
CONTINUOUS
 10
429.5879268829
 20
1124.7691773766
 11
428.7152841965
 21
1124.1519885204
  0
LINE
  5
2EC
100
AcDbEntity
  8
0
100
AcDbLine
 62
7
  6
CONTINUOUS
 10
422.818658764
 20
1123.2535076178
 11
422.602651277
 21
1123.1024401808
  0
LINE
  5
2ED
100
AcDbEntity
  8
0
100
AcDbLine
 62
7
  6
CONTINUOUS
 10
439.9015092371
 20
1134.6662476866
 11
440.117516724
 21
1134.8173151236
  0
LINE
  5
2EE
100
AcDbEntity
  8
0
100
AcDbLine
 62
7
  6
CONTINUOUS
 10
423.4725378871
 20
1123.7144613938
 11
423.2561858906
 21
1123.5633939567
  0
LINE
  5
2EF
100
AcDbEntity
  8
0
100
AcDbLine
 62
7
  6
CONTINUOUS
 10
439.3234222147
 20
1131.3169258558
 11
439.1070702182
 21
1131.1658584188
  0
LINE
  5
2F0
100
AcDbEntity
  8
0
100
AcDbLine
 62
7
  6
CONTINUOUS
 10
433.2652218039
 20
1122.7977214851
 11
433.0440466737
 21
1122.6438979717
  0
LINE
  5
2F1
100
AcDbEntity
  8
0
100
AcDbLine
 62
7
  6
CONTINUOUS
 10
425.7645599134
 20
1129.254174934
 11
425.9833234767
 21
1129.4052423711
  0
LINE
  5
2F2
100
AcDbEntity
  8
0
100
AcDbLine
 62
7
  6
CONTINUOUS
 10
435.3539831966
 20
1120.706204016
 11
435.8852169204
 21
1120.9718208779
  0
LINE
  5
2F3
100
AcDbEntity
  8
0
100
AcDbLine
 62
7
  6
CONTINUOUS
 10
430.6503943306
 20
1120.9537341266
 11
429.1893293353
 21
1120.2452502401
  0
LINE
  5
2F4
100
AcDbEntity
  8
0
100
AcDbLine
 62
7
  6
CONTINUOUS
 10
429.4966318526
 20
1119.8077231135
 11
432.4187618432
 21
1121.2193509886
  0
LINE
  5
2F5
100
AcDbEntity
  8
0
100
AcDbLine
 62
7
  6
CONTINUOUS
 10
432.1114593259
 20
1121.6542942936
 11
430.6503943306
 21
1120.9537341266
  0
LINE
  5
2F6
100
AcDbEntity
  8
0
100
AcDbLine
 62
7
  6
CONTINUOUS
 10
704.241618763
 20
1159.8435222571
 11
703.4420121009
 21
1159.5751493188
  0
LINE
  5
2F7
100
AcDbEntity
  8
0
100
AcDbLine
 62
7
  6
CONTINUOUS
 10
701.8415929932
 20
1159.043915595
 11
701.0419863311
 21
1158.7782987331
  0
LINE
  5
2F8
100
AcDbEntity
  8
0
100
AcDbLine
 62
7
  6
CONTINUOUS
 10
702.6410274006
 20
1159.5751493188
 11
700.2410016308
 21
1158.7782987331
  0
LINE
  5
2F9
100
AcDbEntity
  8
0
100
AcDbLine
 62
7
  6
CONTINUOUS
 10
63.3112315535
 20
597.9753203577
 11
63.0428586152
 21
598.2409372196
  0
LINE
  5
2FA
100
AcDbEntity
  8
0
100
AcDbLine
 62
7
  6
CONTINUOUS
 10
70.7781315082
 20
612.6435034052
 11
70.5097585699
 21
612.9094647767
  0
LINE
  5
2FB
100
AcDbEntity
  8
0
100
AcDbLine
 62
7
  6
CONTINUOUS
 10
82.7794661406
 20
595.0400990042
 11
82.5110932023
 21
595.308127433
  0
LINE
  5
2FC
100
AcDbEntity
  8
0
100
AcDbLine
 62
7
  6
CONTINUOUS
 10
130.5167762415
 20
567.8386585813
 11
130.7851491799
 21
567.5706301526
  0
LINE
  5
2FD
100
AcDbEntity
  8
0
100
AcDbLine
 62
7
  6
CONTINUOUS
 10
63.5768484154
 20
597.4413305574
 11
63.3112315535
 21
597.7069474194
  0
LINE
  5
2FE
100
AcDbEntity
  8
0
100
AcDbLine
 62
7
  6
CONTINUOUS
 10
64.3764550775
 20
597.1757136955
 11
64.1108382156
 21
597.4413305574
  0
LINE
  5
2FF
100
AcDbEntity
  8
0
100
AcDbLine
 62
7
  6
CONTINUOUS
 10
65.9780799686
 20
611.5758683143
 11
66.2436968305
 21
611.3102514524
  0
LINE
  5
300
100
AcDbEntity
  8
0
100
AcDbLine
 62
7
  6
CONTINUOUS
 10
69.7129079842
 20
612.1098581145
 11
69.9785248461
 21
611.8442412526
  0
LINE
  5
301
100
AcDbEntity
  8
0
100
AcDbLine
 62
7
  6
CONTINUOUS
 10
70.5097585699
 20
611.8442412526
 11
70.7781315082
 21
611.5758683143
  0
LINE
  5
302
100
AcDbEntity
  8
0
100
AcDbLine
 62
7
  6
CONTINUOUS
 10
125.9850976403
 20
559.5693958881
 11
126.2507145022
 21
559.3037790262
  0
LINE
  5
303
100
AcDbEntity
  8
0
100
AcDbLine
 62
7
  6
CONTINUOUS
 10
129.4515527175
 20
559.8377688264
 11
129.9855425177
 21
559.3037790262
  0
LINE
  5
304
100
AcDbEntity
  8
0
100
AcDbLine
 62
7
  6
CONTINUOUS
 10
79.3130110634
 20
613.9770998675
 11
78.7790212632
 21
614.5110896678
  0
LINE
  5
305
100
AcDbEntity
  8
0
100
AcDbLine
 62
7
  6
CONTINUOUS
 10
83.0478390789
 20
612.3754749764
 11
83.5790728028
 21
611.8442412526
  0
LINE
  5
306
100
AcDbEntity
  8
0
100
AcDbLine
 62
7
  6
CONTINUOUS
 10
132.9180077948
 20
563.5698407656
 11
133.1836246567
 21
563.3042239036
  0
LINE
  5
307
100
AcDbEntity
  8
0
100
AcDbLine
 62
7
  6
CONTINUOUS
 10
132.6523909329
 20
565.4374270281
 11
132.9180077948
 21
565.1718101662
  0
LINE
  5
308
100
AcDbEntity
  8
0
100
AcDbLine
 62
7
  6
CONTINUOUS
 10
133.7203705333
 20
564.9034372279
 11
133.9859873952
 21
564.637820366
  0
LINE
  5
309
100
AcDbEntity
  8
0
100
AcDbLine
 62
7
  6
CONTINUOUS
 10
68.9105452457
 20
596.6417238953
 11
68.1112830931
 21
597.4413305574
  0
LINE
  5
30A
100
AcDbEntity
  8
0
100
AcDbLine
 62
7
  6
CONTINUOUS
 10
71.5777381703
 20
612.3754749764
 11
71.3121213084
 21
612.6435034052
  0
LINE
  5
30B
100
AcDbEntity
  8
0
100
AcDbLine
 62
7
  6
CONTINUOUS
 10
71.5777381703
 20
613.9770998675
 11
71.8433550323
 21
613.7087269292
  0
LINE
  5
30C
100
AcDbEntity
  8
0
100
AcDbLine
 62
7
  6
CONTINUOUS
 10
125.7194807783
 20
559.8377688264
 11
125.9850976403
 21
559.5693958881
  0
LINE
  5
30D
100
AcDbEntity
  8
0
100
AcDbLine
 62
7
  6
CONTINUOUS
 10
132.6523909329
 20
563.8382137039
 11
132.9180077948
 21
563.5698407656
  0
LINE
  5
30E
100
AcDbEntity
  8
0
100
AcDbLine
 62
7
  6
CONTINUOUS
 10
139.0540673635
 20
628.1116376244
 11
138.5176659965
 21
628.9112442866
  0
LINE
  5
30F
100
AcDbEntity
  8
0
100
AcDbLine
 62
7
  6
CONTINUOUS
 10
138.5176659965
 20
622.7775962846
 11
138.7860389348
 21
622.2439509939
  0
LINE
  5
310
100
AcDbEntity
  8
0
100
AcDbLine
 62
7
  6
CONTINUOUS
 10
138.2520491346
 20
623.5775474563
 11
138.5176659965
 21
623.0435576561
  0
LINE
  5
311
100
AcDbEntity
  8
0
100
AcDbLine
 62
7
  6
CONTINUOUS
 10
138.5176659965
 20
628.9112442866
 11
138.2520491346
 21
629.979223887
  0
LINE
  5
312
100
AcDbEntity
  8
0
100
AcDbLine
 62
7
  6
CONTINUOUS
 10
135.5852007194
 20
569.4378719056
 11
134.2516042571
 21
565.1718101662
  0
LINE
  5
313
100
AcDbEntity
  8
0
100
AcDbLine
 62
7
  6
CONTINUOUS
 10
133.9859873952
 20
564.637820366
 11
133.451997595
 21
563.3042239036
  0
LINE
  5
314
100
AcDbEntity
  8
0
100
AcDbLine
 62
7
  6
CONTINUOUS
 10
129.1831797792
 20
567.3046687811
 11
128.3863291935
 21
565.70304389
  0
LINE
  5
315
100
AcDbEntity
  8
0
100
AcDbLine
 62
7
  6
CONTINUOUS
 10
134.2516042571
 20
565.1718101662
 11
133.9859873952
 21
564.637820366
  0
LINE
  5
316
100
AcDbEntity
  8
0
100
AcDbLine
 62
7
  6
CONTINUOUS
 10
125.9850976403
 20
562.5046172415
 11
125.7194807783
 21
561.9709719509
  0
LINE
  5
317
100
AcDbEntity
  8
0
100
AcDbLine
 62
7
  6
CONTINUOUS
 10
130.2511593796
 20
566.7706789809
 11
129.7199256558
 21
565.70304389
  0
LINE
  5
318
100
AcDbEntity
  8
0
100
AcDbLine
 62
7
  6
CONTINUOUS
 10
128.1179562552
 20
565.4374270281
 11
127.5843109645
 21
564.3694474277
  0
LINE
  5
319
100
AcDbEntity
  8
0
100
AcDbLine
 62
7
  6
CONTINUOUS
 10
124.9171180398
 20
609.7082820518
 11
124.6515011779
 21
609.1770483279
  0
LINE
  5
31A
100
AcDbEntity
  8
0
100
AcDbLine
 62
7
  6
CONTINUOUS
 10
132.1184011326
 20
564.3694474277
 11
132.6523909329
 21
565.4374270281
  0
LINE
  5
31B
100
AcDbEntity
  8
0
100
AcDbLine
 62
7
  6
CONTINUOUS
 10
412.6849103941
 20
1119.1044068702
 11
412.4189490226
 21
1118.5731731463
  0
LINE
  5
31C
100
AcDbEntity
  8
0
100
AcDbLine
 62
7
  6
CONTINUOUS
 10
125.45110784
 20
561.4369821506
 11
125.1827349017
 21
560.9029923504
  0
LINE
  5
31D
100
AcDbEntity
  8
0
100
AcDbLine
 62
7
  6
CONTINUOUS
 10
128.1179562552
 20
564.637820366
 11
128.6519460554
 21
565.70304389
  0
LINE
  5
31E
100
AcDbEntity
  8
0
100
AcDbLine
 62
7
  6
CONTINUOUS
 10
132.6523909329
 20
565.9714168283
 11
132.1184011326
 21
564.9034372279
  0
LINE
  5
31F
100
AcDbEntity
  8
0
100
AcDbLine
 62
7
  6
CONTINUOUS
 10
133.7203705333
 20
568.1042754432
 11
133.1836246567
 21
567.0366403524
  0
LINE
  5
320
100
AcDbEntity
  8
0
100
AcDbLine
 62
7
  6
CONTINUOUS
 10
434.0310665303
 20
1160.4142023242
 11
429.5228145783
 21
1151.4600546485
  0
LINE
  5
321
100
AcDbEntity
  8
0
100
AcDbLine
 62
7
  6
CONTINUOUS
 10
128.1179562552
 20
611.0418785141
 11
127.8499278264
 21
610.5106447903
  0
LINE
  5
322
100
AcDbEntity
  8
0
100
AcDbLine
 62
7
  6
CONTINUOUS
 10
419.1882171416
 20
1134.4057984679
 11
418.9067528405
 21
1133.8797323873
  0
LINE
  5
323
100
AcDbEntity
  8
0
100
AcDbLine
 62
7
  6
CONTINUOUS
 10
431.6790998425
 20
1151.3897747006
 11
429.9889359974
 21
1148.2356175291
  0
LINE
  5
324
100
AcDbEntity
  8
0
100
AcDbLine
 62
7
  6
CONTINUOUS
 10
438.4456118851
 20
1164.0033028008
 11
437.5991519243
 21
1162.4249323042
  0
LINE
  5
325
100
AcDbEntity
  8
0
100
AcDbLine
 62
7
  6
CONTINUOUS
 10
439.1356645107
 20
1165.7976807843
 11
438.2919606264
 21
1164.2220663641
  0
LINE
  5
326
100
AcDbEntity
  8
0
100
AcDbLine
 62
7
  6
CONTINUOUS
 10
438.7139848234
 20
1162.2321792118
 11
437.5860605615
 21
1160.1329102779
  0
LINE
  5
327
100
AcDbEntity
  8
0
100
AcDbLine
 62
7
  6
CONTINUOUS
 10
419.9330467855
 20
1134.2755738586
 11
419.6491709175
 21
1133.749507778
  0
LINE
  5
328
100
AcDbEntity
  8
0
100
AcDbLine
 62
7
  6
CONTINUOUS
 10
439.2920718458
 20
1165.578917221
 11
438.7243201098
 21
1164.5293688814
  0
LINE
  5
329
100
AcDbEntity
  8
0
100
AcDbLine
 62
7
  6
CONTINUOUS
 10
424.079219202
 20
1188.8760309304
 11
423.795343334
 21
1188.355132493
  0
LINE
  5
32A
100
AcDbEntity
  8
0
100
AcDbLine
 62
7
  6
CONTINUOUS
 10
434.486852663
 20
1154.351006525
 11
432.5803368214
 21
1151.0433703496
  0
LINE
  5
32B
100
AcDbEntity
  8
0
100
AcDbLine
 62
7
  6
CONTINUOUS
 10
436.1146602797
 20
1157.1325766198
 11
434.486852663
 21
1154.351006525
  0
LINE
  5
32C
100
AcDbEntity
  8
0
100
AcDbLine
 62
7
  6
CONTINUOUS
 10
427.9366926168
 20
1149.0665745602
 11
426.279946198
 21
1146.3030912167
  0
LINE
  5
32D
100
AcDbEntity
  8
0
100
AcDbLine
 62
7
  6
CONTINUOUS
 10
429.5228145783
 20
1151.4600546485
 11
427.9366926168
 21
1149.0665745602
  0
LINE
  5
32E
100
AcDbEntity
  8
0
100
AcDbLine
 62
7
  6
CONTINUOUS
 10
433.742023019
 20
1154.4786473127
 11
431.6790998425
 21
1151.3897747006
  0
LINE
  5
32F
100
AcDbEntity
  8
0
100
AcDbLine
 62
7
  6
CONTINUOUS
 10
432.5803368214
 20
1151.0433703496
 11
430.5174136448
 21
1147.9543254827
  0
LINE
  5
330
100
AcDbEntity
  8
0
100
AcDbLine
 62
7
  6
CONTINUOUS
 10
435.9010643596
 20
1129.2307482847
 11
432.059438384
 21
1123.5763130648
  0
LINE
  5
331
100
AcDbEntity
  8
0
100
AcDbLine
 62
7
  6
CONTINUOUS
 10
433.2652218039
 20
1122.7977214851
 11
437.1068477795
 21
1128.4468168071
  0
LINE
  5
332
100
AcDbEntity
  8
0
100
AcDbLine
 62
7
  6
CONTINUOUS
 10
437.6980261648
 20
1128.535355761
 11
433.3565168342
 21
1122.2037870235
  0
LINE
  5
333
100
AcDbEntity
  8
0
100
AcDbLine
 62
7
  6
CONTINUOUS
 10
430.5174136448
 20
1147.9543254827
 11
425.4545013197
 21
1140.7868043257
  0
LINE
  5
334
100
AcDbEntity
  8
0
100
AcDbLine
 62
7
  6
CONTINUOUS
 10
426.279946198
 20
1146.3030912167
 11
423.972421242
 21
1143.078826352
  0
LINE
  5
335
100
AcDbEntity
  8
0
100
AcDbLine
 62
7
  6
CONTINUOUS
 10
445.7564490143
 20
1045.7621135942
 11
446.0220658762
 21
1046.0303142778
  0
LINE
  5
336
100
AcDbEntity
  8
0
100
AcDbLine
 62
7
  6
CONTINUOUS
 10
446.0220658762
 20
1046.0303142778
 11
446.2876827381
 21
1046.2961033944
  0
LINE
  5
337
100
AcDbEntity
  8
0
100
AcDbLine
 62
7
  6
CONTINUOUS
 10
446.2876827381
 20
1042.0298694003
 11
446.5532996
 21
1042.2954862622
  0
LINE
  5
338
100
AcDbEntity
  8
0
100
AcDbLine
 62
7
  6
CONTINUOUS
 10
445.7564490143
 20
1041.4960518548
 11
446.0220658762
 21
1041.7616687168
  0
LINE
  5
339
100
AcDbEntity
  8
0
100
AcDbLine
 62
7
  6
CONTINUOUS
 10
445.2197031377
 20
1055.6305896117
 11
445.488076076
 21
1055.8987902953
  0
LINE
  5
33A
100
AcDbEntity
  8
0
100
AcDbLine
 62
7
  6
CONTINUOUS
 10
446.8216725383
 20
1036.162010515
 11
447.0897009671
 21
1036.4276273769
  0
LINE
  5
33B
100
AcDbEntity
  8
0
100
AcDbLine
 62
7
  6
CONTINUOUS
 10
445.2197031377
 20
1067.9002971824
 11
445.488076076
 21
1068.1659140444
  0
LINE
  5
33C
100
AcDbEntity
  8
0
100
AcDbLine
 62
7
  6
CONTINUOUS
 10
445.2197031377
 20
1058.0318211649
 11
445.488076076
 21
1058.2974380269
  0
LINE
  5
33D
100
AcDbEntity
  8
0
100
AcDbLine
 62
7
  6
CONTINUOUS
 10
445.2197031377
 20
1045.4964967323
 11
445.488076076
 21
1045.7621135942
  0
LINE
  5
33E
100
AcDbEntity
  8
0
100
AcDbLine
 62
7
  6
CONTINUOUS
 10
445.488076076
 20
1044.6968900702
 11
445.7564490143
 21
1044.9625069321
  0
LINE
  5
33F
100
AcDbEntity
  8
0
100
AcDbLine
 62
7
  6
CONTINUOUS
 10
443.8864511849
 20
1035.3624038529
 11
443.3548729515
 21
1035.0942031694
  0
LINE
  5
340
100
AcDbEntity
  8
0
100
AcDbLine
 62
7
  6
CONTINUOUS
 10
702.9080223007
 20
1159.5751493188
 11
701.8415929932
 21
1159.043915595
  0
LINE
  5
341
100
AcDbEntity
  8
0
100
AcDbLine
 62
7
  6
CONTINUOUS
 10
700.2410016308
 20
1158.7782987331
 11
697.840975861
 21
1157.7103191326
  0
LINE
  5
342
100
AcDbEntity
  8
0
100
AcDbLine
 62
7
  6
CONTINUOUS
 10
436.421962797
 20
1037.7610515845
 11
437.2188133828
 21
1038.0294245228
  0
LINE
  5
343
100
AcDbEntity
  8
0
100
AcDbLine
 62
7
  6
CONTINUOUS
 10
443.8864511849
 20
1035.3624038529
 11
446.5532996
 21
1036.162010515
  0
LINE
  5
344
100
AcDbEntity
  8
0
100
AcDbLine
 62
7
  6
CONTINUOUS
 10
887.9659771698
 20
366.6512834146
 11
891.2009218305
 21
367.1146487574
  0
LINE
  5
345
100
AcDbEntity
  8
0
100
AcDbLine
 62
7
  6
CONTINUOUS
 10
122.7842594249
 20
613.7087269292
 11
121.4506629626
 21
614.7767065297
  0
LINE
  5
346
100
AcDbEntity
  8
0
100
AcDbLine
 62
7
  6
CONTINUOUS
 10
125.1827349017
 20
621.7099611937
 11
125.45110784
 21
621.4443443318
  0
LINE
  5
347
100
AcDbEntity
  8
0
100
AcDbLine
 62
7
  6
CONTINUOUS
 10
124.1175113777
 20
628.9112442866
 11
124.385884316
 21
628.6456274246
  0
LINE
  5
348
100
AcDbEntity
  8
0
100
AcDbLine
 62
7
  6
CONTINUOUS
 10
133.451997595
 20
621.7099611937
 11
133.7203705333
 21
621.4443443318
  0
LINE
  5
349
100
AcDbEntity
  8
0
100
AcDbLine
 62
7
  6
CONTINUOUS
 10
124.1175113777
 20
623.0435576561
 11
124.385884316
 21
622.7775962846
  0
LINE
  5
34A
100
AcDbEntity
  8
0
100
AcDbLine
 62
7
  6
CONTINUOUS
 10
138.7860389348
 20
622.2439509939
 11
139.0540673635
 21
621.978334132
  0
LINE
  5
34B
100
AcDbEntity
  8
0
100
AcDbLine
 62
7
  6
CONTINUOUS
 10
152.3889984583
 20
627.3120309623
 11
152.1209700296
 21
627.5779923338
  0
LINE
  5
34C
100
AcDbEntity
  8
0
100
AcDbLine
 62
7
  6
CONTINUOUS
 10
119.0518429762
 20
616.110302992
 11
119.3174598381
 21
615.8446861301
  0
LINE
  5
34D
100
AcDbEntity
  8
0
100
AcDbLine
 62
7
  6
CONTINUOUS
 10
128.9175629173
 20
621.7099611937
 11
129.1831797792
 21
621.4443443318
  0
LINE
  5
34E
100
AcDbEntity
  8
0
100
AcDbLine
 62
7
  6
CONTINUOUS
 10
133.1836246567
 20
621.978334132
 11
133.451997595
 21
621.7099611937
  0
LINE
  5
34F
100
AcDbEntity
  8
0
100
AcDbLine
 62
7
  6
CONTINUOUS
 10
124.385884316
 20
628.6456274246
 11
125.1827349017
 21
627.8460207625
  0
LINE
  5
350
100
AcDbEntity
  8
0
100
AcDbLine
 62
7
  6
CONTINUOUS
 10
139.0540673635
 20
621.978334132
 11
139.320028735
 21
621.7099611937
  0
LINE
  5
351
100
AcDbEntity
  8
0
100
AcDbLine
 62
7
  6
CONTINUOUS
 10
124.9171180398
 20
621.978334132
 11
125.1827349017
 21
621.7099611937
  0
LINE
  5
352
100
AcDbEntity
  8
0
100
AcDbLine
 62
7
  6
CONTINUOUS
 10
128.6519460554
 20
621.978334132
 11
128.9175629173
 21
621.7099611937
  0
LINE
  5
353
100
AcDbEntity
  8
0
100
AcDbLine
 62
7
  6
CONTINUOUS
 10
424.7045040326
 20
1127.5195693572
 11
425.0455684856
 21
1128.4208063362
  0
LINE
  5
354
100
AcDbEntity
  8
0
100
AcDbLine
 62
7
  6
CONTINUOUS
 10
430.6476382542
 20
1126.5011991318
 11
430.3014061579
 21
1125.6027182292
  0
LINE
  5
355
100
AcDbEntity
  8
0
100
AcDbLine
 62
7
  6
CONTINUOUS
 10
437.2267371024
 20
1168.4569499893
 11
434.0310665303
 21
1160.4142023242
  0
LINE
  5
356
100
AcDbEntity
  8
0
100
AcDbLine
 62
7
  6
CONTINUOUS
 10
440.2739240591
 20
1134.6011353819
 11
441.8731373833
 21
1138.3438871171
  0
LINE
  5
357
100
AcDbEntity
  8
0
100
AcDbLine
 62
7
  6
CONTINUOUS
 10
442.2062781168
 20
1142.4979832532
 11
439.0002722582
 21
1135.0152358592
  0
LINE
  5
358
100
AcDbEntity
  8
0
100
AcDbLine
 62
7
  6
CONTINUOUS
 10
439.4770734733
 20
1131.1033299357
 11
442.8339745142
 21
1138.369897588
  0
LINE
  5
359
100
AcDbEntity
  8
0
100
AcDbLine
 62
7
  6
CONTINUOUS
 10
439.6252125792
 20
1164.1803807087
 11
438.7139848234
 21
1162.2321792118
  0
LINE
  5
35A
100
AcDbEntity
  8
0
100
AcDbLine
 62
7
  6
CONTINUOUS
 10
437.5991519243
 20
1162.4249323042
 11
435.218590944
 21
1157.4789809708
  0
LINE
  5
35B
100
AcDbEntity
  8
0
100
AcDbLine
 62
7
  6
CONTINUOUS
 10
437.5860605615
 20
1160.1329102779
 11
436.1146602797
 21
1157.1325766198
  0
LINE
  5
35C
100
AcDbEntity
  8
0
100
AcDbLine
 62
7
  6
CONTINUOUS
 10
435.218590944
 20
1157.4789809708
 11
433.742023019
 21
1154.4786473127
  0
LINE
  5
35D
100
AcDbEntity
  8
0
100
AcDbLine
 62
7
  6
CONTINUOUS
 10
437.1068477795
 20
1128.4468168071
 11
440.2739240591
 21
1134.6011353819
  0
LINE
  5
35E
100
AcDbEntity
  8
0
100
AcDbLine
 62
7
  6
CONTINUOUS
 10
438.2606102575
 20
1129.5928278202
 11
437.6980261648
 21
1128.535355761
  0
LINE
  5
35F
100
AcDbEntity
  8
0
100
AcDbLine
 62
7
  6
CONTINUOUS
 10
439.0002722582
 20
1135.0152358592
 11
435.9010643596
 21
1129.2307482847
  0
LINE
  5
360
100
AcDbEntity
  8
0
100
AcDbLine
 62
7
  6
CONTINUOUS
 10
438.8259504266
 20
1130.6397923382
 11
438.2606102575
 21
1129.5928278202
  0
LINE
  5
361
100
AcDbEntity
  8
0
100
AcDbLine
 62
7
  6
CONTINUOUS
 10
127.5843109645
 20
564.3694474277
 11
126.7847043024
 21
563.0361954749
  0
LINE
  5
362
100
AcDbEntity
  8
0
100
AcDbLine
 62
7
  6
CONTINUOUS
 10
130.7851491799
 20
567.5706301526
 11
130.2511593796
 21
566.7706789809
  0
LINE
  5
363
100
AcDbEntity
  8
0
100
AcDbLine
 62
7
  6
CONTINUOUS
 10
133.451997595
 20
563.3042239036
 11
131.3187944705
 21
560.1033856883
  0
LINE
  5
364
100
AcDbEntity
  8
0
100
AcDbLine
 62
7
  6
CONTINUOUS
 10
127.5843109645
 20
564.3694474277
 11
126.7847043024
 21
563.3042239036
  0
LINE
  5
365
100
AcDbEntity
  8
0
100
AcDbLine
 62
7
  6
CONTINUOUS
 10
77.979414601
 20
612.6435034052
 11
77.7137977391
 21
612.3754749764
  0
LINE
  5
366
100
AcDbEntity
  8
0
100
AcDbLine
 62
7
  6
CONTINUOUS
 10
64.3764550775
 20
610.7762616522
 11
63.5768484154
 21
609.9766549901
  0
LINE
  5
367
100
AcDbEntity
  8
0
100
AcDbLine
 62
7
  6
CONTINUOUS
 10
65.7097070303
 20
610.7762616522
 11
65.4440901684
 21
610.5106447903
  0
LINE
  5
368
100
AcDbEntity
  8
0
100
AcDbLine
 62
7
  6
CONTINUOUS
 10
69.4445350459
 20
608.9090198992
 11
68.9105452457
 21
608.375030099
  0
LINE
  5
369
100
AcDbEntity
  8
0
100
AcDbLine
 62
7
  6
CONTINUOUS
 10
75.5781830478
 20
612.3754749764
 11
75.3125661859
 21
612.1098581145
  0
LINE
  5
36A
100
AcDbEntity
  8
0
100
AcDbLine
 62
7
  6
CONTINUOUS
 10
74.2445865855
 20
610.7762616522
 11
73.9789697236
 21
610.5106447903
  0
LINE
  5
36B
100
AcDbEntity
  8
0
100
AcDbLine
 62
7
  6
CONTINUOUS
 10
83.3134559409
 20
610.242271852
 11
82.7794661406
 21
609.7082820518
  0
LINE
  5
36C
100
AcDbEntity
  8
0
100
AcDbLine
 62
7
  6
CONTINUOUS
 10
81.7142426166
 20
613.1774932054
 11
81.4458696783
 21
612.9094647767
  0
LINE
  5
36D
100
AcDbEntity
  8
0
100
AcDbLine
 62
7
  6
CONTINUOUS
 10
64.1108382156
 20
609.4426651899
 11
63.8424652773
 21
609.1770483279
  0
LINE
  5
36E
100
AcDbEntity
  8
0
100
AcDbLine
 62
7
  6
CONTINUOUS
 10
75.046949324
 20
612.1098581145
 11
74.7785763857
 21
611.8442412526
  0
LINE
  5
36F
100
AcDbEntity
  8
0
100
AcDbLine
 62
7
  6
CONTINUOUS
 10
74.7785763857
 20
611.5758683143
 11
74.5102034474
 21
611.3102514524
  0
LINE
  5
370
100
AcDbEntity
  8
0
100
AcDbLine
 62
7
  6
CONTINUOUS
 10
697.840975861
 20
1157.7103191326
 11
695.4409500912
 21
1155.8430773796
  0
LINE
  5
371
100
AcDbEntity
  8
0
100
AcDbLine
 62
7
  6
CONTINUOUS
 10
692.7739294213
 20
1116.1039009573
 11
691.972944721
 21
1115.5724949787
  0
LINE
  5
372
100
AcDbEntity
  8
0
100
AcDbLine
 62
7
  6
CONTINUOUS
 10
691.1735103136
 20
1124.1047907122
 11
692.2399396211
 21
1124.6387805124
  0
LINE
  5
373
100
AcDbEntity
  8
0
100
AcDbLine
 62
7
  6
CONTINUOUS
 10
687.4398880815
 20
1119.3047391726
 11
686.9058982813
 21
1119.0391223107
  0
LINE
  5
374
100
AcDbEntity
  8
0
100
AcDbLine
 62
7
  6
CONTINUOUS
 10
688.2394947436
 20
1116.1039009573
 11
687.1728931814
 21
1115.5724949787
  0
LINE
  5
375
100
AcDbEntity
  8
0
100
AcDbLine
 62
7
  6
CONTINUOUS
 10
959.3993430374
 20
402.5839738353
 11
938.0972841234
 21
402.5839738353
  0
LINE
  5
376
100
AcDbEntity
  8
0
100
AcDbLine
 62
7
  6
CONTINUOUS
 10
123.3179047156
 20
613.4434545769
 11
122.7842594249
 21
613.7087269292
  0
LINE
  5
377
100
AcDbEntity
  8
0
100
AcDbLine
 62
7
  6
CONTINUOUS
 10
132.9180077948
 20
565.70304389
 11
133.451997595
 21
565.4374270281
  0
LINE
  5
378
100
AcDbEntity
  8
0
100
AcDbLine
 62
7
  6
CONTINUOUS
 10
122.7842594249
 20
613.9770998675
 11
122.2502696247
 21
614.2427167295
  0
LINE
  5
379
100
AcDbEntity
  8
0
100
AcDbLine
 62
7
  6
CONTINUOUS
 10
120.6510563004
 20
615.3106963299
 11
120.1170665002
 21
615.5763131918
  0
LINE
  5
37A
100
AcDbEntity
  8
0
100
AcDbLine
 62
7
  6
CONTINUOUS
 10
68.1112830931
 20
606.2418269745
 11
68.6449283838
 21
605.9762101126
  0
LINE
  5
37B
100
AcDbEntity
  8
0
100
AcDbLine
 62
7
  6
CONTINUOUS
 10
80.9122243876
 20
613.4434545769
 11
80.3806461543
 21
613.7087269292
  0
LINE
  5
37C
100
AcDbEntity
  8
0
100
AcDbLine
 62
7
  6
CONTINUOUS
 10
72.1117279706
 20
611.3102514524
 11
73.7133528617
 21
610.5106447903
  0
LINE
  5
37D
100
AcDbEntity
  8
0
100
AcDbLine
 62
7
  6
CONTINUOUS
 10
133.7203705333
 20
565.4374270281
 11
134.2516042571
 21
565.1718101662
  0
LINE
  5
37E
100
AcDbEntity
  8
0
100
AcDbLine
 62
7
  6
CONTINUOUS
 10
71.5777381703
 20
609.4426651899
 11
71.0465044465
 21
609.7082820518
  0
LINE
  5
37F
100
AcDbEntity
  8
0
100
AcDbLine
 62
7
  6
CONTINUOUS
 10
119.3174598381
 20
615.5763131918
 11
118.2498247472
 21
616.110302992
  0
LINE
  5
380
100
AcDbEntity
  8
0
100
AcDbLine
 62
7
  6
CONTINUOUS
 10
125.45110784
 20
559.8377688264
 11
126.5163313641
 21
559.3037790262
  0
LINE
  5
381
100
AcDbEntity
  8
0
100
AcDbLine
 62
7
  6
CONTINUOUS
 10
123.3179047156
 20
613.7087269292
 11
122.7842594249
 21
613.9770998675
  0
LINE
  5
382
100
AcDbEntity
  8
0
100
AcDbLine
 62
7
  6
CONTINUOUS
 10
125.45110784
 20
613.7087269292
 11
128.3863291935
 21
612.1098581145
  0
LINE
  5
383
100
AcDbEntity
  8
0
100
AcDbLine
 62
7
  6
CONTINUOUS
 10
121.4506629626
 20
614.2427167295
 11
119.3174598381
 21
615.5763131918
  0
LINE
  5
384
100
AcDbEntity
  8
0
100
AcDbLine
 62
7
  6
CONTINUOUS
 10
121.4506629626
 20
614.7767065297
 11
120.6510563004
 21
615.3106963299
  0
LINE
  5
385
100
AcDbEntity
  8
0
100
AcDbLine
 62
7
  6
CONTINUOUS
 10
418.6879892771
 20
1133.723497307
 11
418.6256330489
 21
1133.3536663067
  0
LINE
  5
386
100
AcDbEntity
  8
0
100
AcDbLine
 62
7
  6
CONTINUOUS
 10
418.7531015818
 20
1134.095912129
 11
418.6879892771
 21
1133.723497307
  0
LINE
  5
387
100
AcDbEntity
  8
0
100
AcDbLine
 62
7
  6
CONTINUOUS
 10
418.9067528405
 20
1133.8797323873
 11
418.8416405358
 21
1133.5073175653
  0
LINE
  5
388
100
AcDbEntity
  8
0
100
AcDbLine
 62
7
  6
CONTINUOUS
 10
422.691190231
 20
1128.0613106223
 11
422.4307410123
 21
1126.5740629013
  0
LINE
  5
389
100
AcDbEntity
  8
0
100
AcDbLine
 62
7
  6
CONTINUOUS
 10
444.8941416143
 20
1152.5590401083
 11
444.1648149001
 21
1149.4284818409
  0
LINE
  5
38A
100
AcDbEntity
  8
0
100
AcDbLine
 62
7
  6
CONTINUOUS
 10
444.05043773
 20
1145.4332046066
 11
445.5115027253
 21
1151.6891534983
  0
LINE
  5
38B
100
AcDbEntity
  8
0
100
AcDbLine
 62
7
  6
CONTINUOUS
 10
442.8339745142
 20
1138.369897588
 11
445.3967810456
 21
1147.6912924424
  0
LINE
  5
38C
100
AcDbEntity
  8
0
100
AcDbLine
 62
7
  6
CONTINUOUS
 10
443.2170691321
 20
1146.1520237796
 11
442.2062781168
 21
1142.4979832532
  0
LINE
  5
38D
100
AcDbEntity
  8
0
100
AcDbLine
 62
7
  6
CONTINUOUS
 10
443.0399912242
 20
1141.7817479018
 11
444.05043773
 21
1145.4332046066
  0
LINE
  5
38E
100
AcDbEntity
  8
0
100
AcDbLine
 62
7
  6
CONTINUOUS
 10
423.1652353698
 20
1129.6994535255
 11
422.691190231
 21
1128.0613106223
  0
LINE
  5
38F
100
AcDbEntity
  8
0
100
AcDbLine
 62
7
  6
CONTINUOUS
 10
444.1648149001
 20
1149.4284818409
 11
443.2170691321
 21
1146.1520237796
  0
LINE
  5
390
100
AcDbEntity
  8
0
100
AcDbLine
 62
7
  6
CONTINUOUS
 10
421.3968678572
 20
1129.431252842
 11
420.920066642
 21
1127.7905261171
  0
LINE
  5
391
100
AcDbEntity
  8
0
100
AcDbLine
 62
7
  6
CONTINUOUS
 10
440.0341454133
 20
1165.4512764332
 11
439.6252125792
 21
1164.1803807087
  0
LINE
  5
392
100
AcDbEntity
  8
0
100
AcDbLine
 62
7
  6
CONTINUOUS
 10
441.8731373833
 20
1138.3438871171
 11
443.0399912242
 21
1141.7817479018
  0
LINE
  5
393
100
AcDbEntity
  8
0
100
AcDbLine
 62
7
  6
CONTINUOUS
 10
125.1827349017
 20
611.3102514524
 11
124.9171180398
 21
611.0418785141
  0
LINE
  5
394
100
AcDbEntity
  8
0
100
AcDbLine
 62
7
  6
CONTINUOUS
 10
128.3863291935
 20
564.9034372279
 11
128.6519460554
 21
565.1718101662
  0
LINE
  5
395
100
AcDbEntity
  8
0
100
AcDbLine
 62
7
  6
CONTINUOUS
 10
126.2507145022
 20
562.5046172415
 11
125.9850976403
 21
562.2362443032
  0
LINE
  5
396
100
AcDbEntity
  8
0
100
AcDbLine
 62
7
  6
CONTINUOUS
 10
132.9180077948
 20
565.9714168283
 11
132.6523909329
 21
565.70304389
  0
LINE
  5
397
100
AcDbEntity
  8
0
100
AcDbLine
 62
7
  6
CONTINUOUS
 10
129.1831797792
 20
561.1710207792
 11
128.9175629173
 21
560.9029923504
  0
LINE
  5
398
100
AcDbEntity
  8
0
100
AcDbLine
 62
7
  6
CONTINUOUS
 10
701.0419863311
 20
1158.7782987331
 11
700.5079965309
 21
1158.2417251112
  0
LINE
  5
399
100
AcDbEntity
  8
0
100
AcDbLine
 62
7
  6
CONTINUOUS
 10
128.3863291935
 20
611.8442412526
 11
128.1179562552
 21
611.5758683143
  0
LINE
  5
39A
100
AcDbEntity
  8
0
100
AcDbLine
 62
7
  6
CONTINUOUS
 10
126.7847043024
 20
563.3042239036
 11
125.9850976403
 21
562.5046172415
  0
LINE
  5
39B
100
AcDbEntity
  8
0
100
AcDbLine
 62
7
  6
CONTINUOUS
 10
128.9175629173
 20
565.1718101662
 11
129.1831797792
 21
565.4374270281
  0
LINE
  5
39C
100
AcDbEntity
  8
0
100
AcDbLine
 62
7
  6
CONTINUOUS
 10
132.6523909329
 20
565.70304389
 11
132.3867740709
 21
565.4374270281
  0
LINE
  5
39D
100
AcDbEntity
  8
0
100
AcDbLine
 62
7
  6
CONTINUOUS
 10
132.6523909329
 20
565.4374270281
 11
132.9180077948
 21
565.70304389
  0
LINE
  5
39E
100
AcDbEntity
  8
0
100
AcDbLine
 62
7
  6
CONTINUOUS
 10
129.4515527175
 20
561.9709719509
 11
129.1831797792
 21
561.7025990126
  0
LINE
  5
39F
100
AcDbEntity
  8
0
100
AcDbLine
 62
7
  6
CONTINUOUS
 10
125.9850976403
 20
562.2362443032
 11
125.45110784
 21
561.7025990126
  0
LINE
  5
3A0
100
AcDbEntity
  8
0
100
AcDbLine
 62
7
  6
CONTINUOUS
 10
125.45110784
 20
561.1710207792
 11
125.1827349017
 21
560.9029923504
  0
LINE
  5
3A1
100
AcDbEntity
  8
0
100
AcDbLine
 62
7
  6
CONTINUOUS
 10
130.2511593796
 20
562.5046172415
 11
132.1184011326
 21
564.3694474277
  0
LINE
  5
3A2
100
AcDbEntity
  8
0
100
AcDbLine
 62
7
  6
CONTINUOUS
 10
700.5079965309
 20
1158.2417251112
 11
699.7083898688
 21
1157.4447022707
  0
LINE
  5
3A3
100
AcDbEntity
  8
0
100
AcDbLine
 62
7
  6
CONTINUOUS
 10
126.7847043024
 20
563.0361954749
 11
126.2507145022
 21
562.5046172415
  0
LINE
  5
3A4
100
AcDbEntity
  8
0
100
AcDbLine
 62
7
  6
CONTINUOUS
 10
699.7083898688
 20
1156.9083009037
 11
699.4413949687
 21
1156.6426840418
  0
LINE
  5
3A5
100
AcDbEntity
  8
0
100
AcDbLine
 62
7
  6
CONTINUOUS
 10
132.1184011326
 20
564.9034372279
 11
131.8503727039
 21
564.637820366
  0
LINE
  5
3A6
100
AcDbEntity
  8
0
100
AcDbLine
 62
7
  6
CONTINUOUS
 10
125.7194807783
 20
612.1098581145
 11
125.45110784
 21
611.8442412526
  0
LINE
  5
3A7
100
AcDbEntity
  8
0
100
AcDbLine
 62
7
  6
CONTINUOUS
 10
129.1831797792
 20
567.8386585813
 11
129.4515527175
 21
568.1042754432
  0
LINE
  5
3A8
100
AcDbEntity
  8
0
100
AcDbLine
 62
7
  6
CONTINUOUS
 10
128.3863291935
 20
565.70304389
 11
128.1179562552
 21
565.4374270281
  0
LINE
  5
3A9
100
AcDbEntity
  8
0
100
AcDbLine
 62
7
  6
CONTINUOUS
 10
128.1179562552
 20
564.637820366
 11
128.3863291935
 21
564.9034372279
  0
LINE
  5
3AA
100
AcDbEntity
  8
0
100
AcDbLine
 62
7
  6
CONTINUOUS
 10
129.7199256558
 20
565.70304389
 11
129.4515527175
 21
565.4374270281
  0
LINE
  5
3AB
100
AcDbEntity
  8
0
100
AcDbLine
 62
7
  6
CONTINUOUS
 10
1026.6829191382
 20
560.573641222
 11
1027.7507264838
 21
560.8416696508
  0
LINE
  5
3AC
100
AcDbEntity
  8
0
100
AcDbLine
 62
7
  6
CONTINUOUS
 10
1026.1503073761
 20
563.2404896372
 11
1025.0837058139
 21
562.9748727753
  0
LINE
  5
3AD
100
AcDbEntity
  8
0
100
AcDbLine
 62
7
  6
CONTINUOUS
 10
1026.9497417835
 20
557.9064482974
 11
1025.6163175759
 21
557.6408314354
  0
LINE
  5
3AE
100
AcDbEntity
  8
0
100
AcDbLine
 62
7
  6
CONTINUOUS
 10
69.7129079842
 20
596.6417238953
 11
70.7781315082
 21
596.373350957
  0
LINE
  5
3AF
100
AcDbEntity
  8
0
100
AcDbLine
 62
7
  6
CONTINUOUS
 10
84.113062603
 20
611.8442412526
 11
83.3134559409
 21
612.1098581145
  0
LINE
  5
3B0
100
AcDbEntity
  8
0
100
AcDbLine
 62
7
  6
CONTINUOUS
 10
74.5102034474
 20
611.3102514524
 11
72.9113346327
 21
611.8442412526
  0
LINE
  5
3B1
100
AcDbEntity
  8
0
100
AcDbLine
 62
7
  6
CONTINUOUS
 10
68.9105452457
 20
595.8421172332
 11
69.7129079842
 21
595.5737442949
  0
LINE
  5
3B2
100
AcDbEntity
  8
0
100
AcDbLine
 62
7
  6
CONTINUOUS
 10
68.1112830931
 20
606.2418269745
 11
63.3112315535
 21
607.8437963752
  0
LINE
  5
3B3
100
AcDbEntity
  8
0
100
AcDbLine
 62
7
  6
CONTINUOUS
 10
66.2436968305
 20
611.3102514524
 11
71.0465044465
 21
609.7082820518
  0
LINE
  5
3B4
100
AcDbEntity
  8
0
100
AcDbLine
 62
7
  6
CONTINUOUS
 10
72.9113346327
 20
613.4434545769
 11
75.8437999097
 21
612.3754749764
  0
LINE
  5
3B5
100
AcDbEntity
  8
0
100
AcDbLine
 62
7
  6
CONTINUOUS
 10
72.9113346327
 20
611.8442412526
 11
71.5777381703
 21
612.3754749764
  0
LINE
  5
3B6
100
AcDbEntity
  8
0
100
AcDbLine
 62
7
  6
CONTINUOUS
 10
81.4458696783
 20
613.1774932054
 11
78.7790212632
 21
614.2427167295
  0
LINE
  5
3B7
100
AcDbEntity
  8
0
100
AcDbLine
 62
7
  6
CONTINUOUS
 10
126.2507145022
 20
627.5779923338
 11
126.7847043024
 21
627.3120309623
  0
LINE
  5
3B8
100
AcDbEntity
  8
0
100
AcDbLine
 62
7
  6
CONTINUOUS
 10
125.1827349017
 20
627.8460207625
 11
125.7194807783
 21
627.5779923338
  0
LINE
  5
3B9
100
AcDbEntity
  8
0
100
AcDbLine
 62
7
  6
CONTINUOUS
 10
124.385884316
 20
622.2439509939
 11
124.9171180398
 21
621.978334132
  0
LINE
  5
3BA
100
AcDbEntity
  8
0
100
AcDbLine
 62
7
  6
CONTINUOUS
 10
139.320028735
 20
621.7099611937
 11
139.8512624588
 21
621.4443443318
  0
LINE
  5
3BB
100
AcDbEntity
  8
0
100
AcDbLine
 62
7
  6
CONTINUOUS
 10
140.1192908876
 20
627.5779923338
 11
139.0540673635
 21
628.1116376244
  0
LINE
  5
3BC
100
AcDbEntity
  8
0
100
AcDbLine
 62
7
  6
CONTINUOUS
 10
381.7489864652
 20
621.4443443318
 11
381.7489864652
 21
621.978334132
  0
LINE
  5
3BD
100
AcDbEntity
  8
0
100
AcDbLine
 62
7
  6
CONTINUOUS
 10
381.7489864652
 20
627.3120309623
 11
381.7489864652
 21
627.5779923338
  0
LINE
  5
3BE
100
AcDbEntity
  8
0
100
AcDbLine
 62
7
  6
CONTINUOUS
 10
381.7489864652
 20
1117.7709826626
 11
381.7489864652
 21
1118.0391833461
  0
LINE
  5
3BF
100
AcDbEntity
  8
0
100
AcDbLine
 62
7
  6
CONTINUOUS
 10
382.0146033271
 20
1120.9718208779
 11
382.0146033271
 21
1118.0391833461
  0
LINE
  5
3C0
100
AcDbEntity
  8
0
100
AcDbLine
 62
7
  6
CONTINUOUS
 10
382.0146033271
 20
622.2439509939
 11
382.0146033271
 21
627.3120309623
  0
LINE
  5
3C1
100
AcDbEntity
  8
0
100
AcDbLine
 62
7
  6
CONTINUOUS
 10
382.0146033271
 20
628.1116376244
 11
382.0146033271
 21
1117.2397489388
  0
LINE
  5
3C2
100
AcDbEntity
  8
0
100
AcDbLine
 62
7
  6
CONTINUOUS
 10
412.4189490226
 20
622.2439509939
 11
412.4189490226
 21
622.7775962846
  0
LINE
  5
3C3
100
AcDbEntity
  8
0
100
AcDbLine
 62
7
  6
CONTINUOUS
 10
412.4189490226
 20
627.0440025335
 11
412.4189490226
 21
627.3120309623
  0
LINE
  5
3C4
100
AcDbEntity
  8
0
100
AcDbLine
 62
7
  6
CONTINUOUS
 10
412.6849103941
 20
1120.1723864706
 11
412.6849103941
 21
1119.1044068702
  0
LINE
  5
3C5
100
AcDbEntity
  8
0
100
AcDbLine
 62
7
  6
CONTINUOUS
 10
412.6849103941
 20
623.0435576561
 11
412.6849103941
 21
627.0440025335
  0
LINE
  5
3C6
100
AcDbEntity
  8
0
100
AcDbLine
 62
7
  6
CONTINUOUS
 10
412.6849103941
 20
629.979223887
 11
412.6849103941
 21
1115.3721626762
  0
LINE
  5
3C7
100
AcDbEntity
  8
0
100
AcDbLine
 62
7
  6
CONTINUOUS
 10
410.2833343313
 20
621.4443443318
 11
409.2156992405
 21
559.3037790262
  0
LINE
  5
3C8
100
AcDbEntity
  8
0
100
AcDbLine
 62
7
  6
CONTINUOUS
 10
381.2122405886
 20
590.7740372648
 11
381.7489864652
 21
621.4443443318
  0
LINE
  5
3C9
100
AcDbEntity
  8
0
100
AcDbLine
 62
7
  6
CONTINUOUS
 10
380.4153900029
 20
559.3037790262
 11
381.2122405886
 21
590.7740372648
  0
LINE
  5
3CA
100
AcDbEntity
  8
0
100
AcDbLine
 62
7
  6
CONTINUOUS
 10
445.3967810456
 20
1147.6912924424
 11
446.496111015
 21
1156.3017918435
  0
LINE
  5
3CB
100
AcDbEntity
  8
0
100
AcDbLine
 62
7
  6
CONTINUOUS
 10
439.1070702182
 20
1131.1658584188
 11
439.0447139899
 21
1130.7960274185
  0
LINE
  5
3CC
100
AcDbEntity
  8
0
100
AcDbLine
 62
7
  6
CONTINUOUS
 10
445.7902109501
 20
1157.7628568388
 11
444.8941416143
 21
1152.5590401083
  0
LINE
  5
3CD
100
AcDbEntity
  8
0
100
AcDbLine
 62
7
  6
CONTINUOUS
 10
445.5869503164
 20
1154.3561741682
 11
446.0348127295
 21
1156.9554987118
  0
LINE
  5
3CE
100
AcDbEntity
  8
0
100
AcDbLine
 62
7
  6
CONTINUOUS
 10
439.1956091722
 20
1130.5772638551
 11
439.2607214769
 21
1130.9496786771
  0
LINE
  5
3CF
100
AcDbEntity
  8
0
100
AcDbLine
 62
7
  6
CONTINUOUS
 10
441.086622084
 20
1167.5608806536
 11
440.8857730173
 21
1166.4462200094
  0
LINE
  5
3D0
100
AcDbEntity
  8
0
100
AcDbLine
 62
7
  6
CONTINUOUS
 10
695.4409500912
 20
1155.8430773796
 11
693.5735360834
 21
1153.4442573933
  0
LINE
  5
3D1
100
AcDbEntity
  8
0
100
AcDbLine
 62
7
  6
CONTINUOUS
 10
687.1728931814
 20
1115.5724949787
 11
686.9058982813
 21
1115.3042942952
  0
LINE
  5
3D2
100
AcDbEntity
  8
0
100
AcDbLine
 62
7
  6
CONTINUOUS
 10
688.5064896437
 20
1116.3721016408
 11
688.2394947436
 21
1116.1039009573
  0
LINE
  5
3D3
100
AcDbEntity
  8
0
100
AcDbLine
 62
7
  6
CONTINUOUS
 10
131.3187944705
 20
560.1033856883
 11
130.7851491799
 21
559.5693958881
  0
LINE
  5
3D4
100
AcDbEntity
  8
0
100
AcDbLine
 62
7
  6
CONTINUOUS
 10
691.972944721
 20
1119.3047391726
 11
691.1735103136
 21
1118.5051325105
  0
LINE
  5
3D5
100
AcDbEntity
  8
0
100
AcDbLine
 62
7
  6
CONTINUOUS
 10
130.7851491799
 20
559.5693958881
 11
130.5167762415
 21
559.3037790262
  0
LINE
  5
3D6
100
AcDbEntity
  8
0
100
AcDbLine
 62
7
  6
CONTINUOUS
 10
129.4515527175
 20
561.9709719509
 11
129.7199256558
 21
562.2362443032
  0
LINE
  5
3D7
100
AcDbEntity
  8
0
100
AcDbLine
 62
7
  6
CONTINUOUS
 10
1084.2878439827
 20
625.6490833716
 11
1085.3544455449
 21
625.9147002335
  0
LINE
  5
3D8
100
AcDbEntity
  8
0
100
AcDbLine
 62
7
  6
CONTINUOUS
 10
791.7205168532
 20
560.573641222
 11
790.6525372527
 21
560.3080243601
  0
LINE
  5
3D9
100
AcDbEntity
  8
0
100
AcDbLine
 62
7
  6
CONTINUOUS
 10
790.9195321528
 20
557.6408314354
 11
792.2531286152
 21
557.9064482974
  0
LINE
  5
3DA
100
AcDbEntity
  8
0
100
AcDbLine
 62
7
  6
CONTINUOUS
 10
1011.2153016833
 20
605.112869184
 11
1018.6823738928
 21
606.4464656463
  0
LINE
  5
3DB
100
AcDbEntity
  8
0
100
AcDbLine
 62
7
  6
CONTINUOUS
 10
1015.749736361
 20
609.9129207236
 11
1008.281458368
 21
608.5793242613
  0
LINE
  5
3DC
100
AcDbEntity
  8
0
100
AcDbLine
 62
7
  6
CONTINUOUS
 10
1018.4167570309
 20
584.310693625
 11
1020.549443391
 21
584.5763104869
  0
LINE
  5
3DD
100
AcDbEntity
  8
0
100
AcDbLine
 62
7
  6
CONTINUOUS
 10
79.3130110634
 20
594.5085207708
 11
77.1773963721
 21
594.7744821423
  0
LINE
  5
3DE
100
AcDbEntity
  8
0
100
AcDbLine
 62
7
  6
CONTINUOUS
 10
72.3797563993
 20
596.373350957
 11
74.5102034474
 21
596.1077340951
  0
LINE
  5
3DF
100
AcDbEntity
  8
0
100
AcDbLine
 62
7
  6
CONTINUOUS
 10
95.0491737114
 20
593.9745309706
 11
82.7794661406
 21
595.5737442949
  0
LINE
  5
3E0
100
AcDbEntity
  8
0
100
AcDbLine
 62
7
  6
CONTINUOUS
 10
126.7847043024
 20
588.6408341404
 11
112.6501665455
 21
590.5080758934
  0
LINE
  5
3E1
100
AcDbEntity
  8
0
100
AcDbLine
 62
7
  6
CONTINUOUS
 10
96.6483870356
 20
593.44088568
 11
110.7825802829
 21
591.5732994174
  0
LINE
  5
3E2
100
AcDbEntity
  8
0
100
AcDbLine
 62
7
  6
CONTINUOUS
 10
124.6515011779
 20
591.0393096172
 11
110.5145518542
 21
592.9068958798
  0
LINE
  5
3E3
100
AcDbEntity
  8
0
100
AcDbLine
 62
7
  6
CONTINUOUS
 10
96.3827701737
 20
594.5085207708
 11
82.5110932023
 21
596.373350957
  0
LINE
  5
3E4
100
AcDbEntity
  8
0
100
AcDbLine
 62
7
  6
CONTINUOUS
 10
77.1773963721
 20
594.7744821423
 11
75.3125661859
 21
595.0400990042
  0
LINE
  5
3E5
100
AcDbEntity
  8
0
100
AcDbLine
 62
7
  6
CONTINUOUS
 10
63.8424652773
 20
598.5089656483
 11
65.7097070303
 21
598.2409372196
  0
LINE
  5
3E6
100
AcDbEntity
  8
0
100
AcDbLine
 62
7
  6
CONTINUOUS
 10
71.5777381703
 20
597.4413305574
 11
69.9785248461
 21
597.7069474194
  0
LINE
  5
3E7
100
AcDbEntity
  8
0
100
AcDbLine
 62
7
  6
CONTINUOUS
 10
66.7776866307
 20
596.9073407572
 11
65.1760617397
 21
597.1757136955
  0
LINE
  5
3E8
100
AcDbEntity
  8
0
100
AcDbLine
 62
7
  6
CONTINUOUS
 10
128.3863291935
 20
588.3724612021
 11
126.7847043024
 21
588.6408341404
  0
LINE
  5
3E9
100
AcDbEntity
  8
0
100
AcDbLine
 62
7
  6
CONTINUOUS
 10
84.6470524032
 20
593.7065025419
 11
81.7142426166
 21
594.2404923421
  0
LINE
  5
3EA
100
AcDbEntity
  8
0
100
AcDbLine
 62
7
  6
CONTINUOUS
 10
76.9117795102
 20
595.8421172332
 11
79.8442447872
 21
595.308127433
  0
LINE
  5
3EB
100
AcDbEntity
  8
0
100
AcDbLine
 62
7
  6
CONTINUOUS
 10
131.8503727039
 20
588.1068443402
 11
130.5167762415
 21
588.3724612021
  0
LINE
  5
3EC
100
AcDbEntity
  8
0
100
AcDbLine
 62
7
  6
CONTINUOUS
 10
127.0527327311
 20
589.7060576644
 11
128.3863291935
 21
589.4404408025
  0
LINE
  5
3ED
100
AcDbEntity
  8
0
100
AcDbLine
 62
7
  6
CONTINUOUS
 10
70.7781315082
 20
611.5758683143
 11
72.1117279706
 21
611.3102514524
  0
LINE
  5
3EE
100
AcDbEntity
  8
0
100
AcDbLine
 62
7
  6
CONTINUOUS
 10
76.3802012768
 20
596.9073407572
 11
73.7133528617
 21
597.4413305574
  0
LINE
  5
3EF
100
AcDbEntity
  8
0
100
AcDbLine
 62
7
  6
CONTINUOUS
 10
133.7203705333
 20
590.2400474646
 11
132.3867740709
 21
590.5080758934
  0
LINE
  5
3F0
100
AcDbEntity
  8
0
100
AcDbLine
 62
7
  6
CONTINUOUS
 10
69.9785248461
 20
597.7069474194
 11
68.6449283838
 21
597.9753203577
  0
LINE
  5
3F1
100
AcDbEntity
  8
0
100
AcDbLine
 62
7
  6
CONTINUOUS
 10
80.6462630162
 20
613.7087269292
 11
79.3130110634
 21
613.9770998675
  0
LINE
  5
3F2
100
AcDbEntity
  8
0
100
AcDbLine
 62
7
  6
CONTINUOUS
 10
71.3121213084
 20
595.5737442949
 11
73.7133528617
 21
595.0400990042
  0
LINE
  5
3F3
100
AcDbEntity
  8
0
100
AcDbLine
 62
7
  6
CONTINUOUS
 10
71.8433550323
 20
613.7087269292
 11
72.9113346327
 21
613.4434545769
  0
LINE
  5
3F4
100
AcDbEntity
  8
0
100
AcDbLine
 62
7
  6
CONTINUOUS
 10
127.0527327311
 20
590.7740372648
 11
125.9850976403
 21
591.0393096172
  0
LINE
  5
3F5
100
AcDbEntity
  8
0
100
AcDbLine
 62
7
  6
CONTINUOUS
 10
121.4506629626
 20
614.2427167295
 11
122.5158864866
 21
613.9770998675
  0
LINE
  5
3F6
100
AcDbEntity
  8
0
100
AcDbLine
 62
7
  6
CONTINUOUS
 10
124.9171180398
 20
589.9740860932
 11
125.9850976403
 21
589.7060576644
  0
LINE
  5
3F7
100
AcDbEntity
  8
0
100
AcDbLine
 62
7
  6
CONTINUOUS
 10
125.1827349017
 20
613.9770998675
 11
126.2507145022
 21
613.7087269292
  0
LINE
  5
3F8
100
AcDbEntity
  8
0
100
AcDbLine
 62
7
  6
CONTINUOUS
 10
78.7790212632
 20
614.2427167295
 11
77.7137977391
 21
614.5110896678
  0
LINE
  5
3F9
100
AcDbEntity
  8
0
100
AcDbLine
 62
7
  6
CONTINUOUS
 10
140.9188975497
 20
627.3120309623
 11
140.1192908876
 21
627.5779923338
  0
LINE
  5
3FA
100
AcDbEntity
  8
0
100
AcDbLine
 62
7
  6
CONTINUOUS
 10
417.4849619337
 20
626.5127688097
 11
417.2165889954
 21
626.7780411621
  0
LINE
  5
3FB
100
AcDbEntity
  8
0
100
AcDbLine
 62
7
  6
CONTINUOUS
 10
417.2165889954
 20
627.0440025335
 11
416.9509721335
 21
627.3120309623
  0
LINE
  5
3FC
100
AcDbEntity
  8
0
100
AcDbLine
 62
7
  6
CONTINUOUS
 10
124.1175113777
 20
1119.1044068702
 11
124.385884316
 21
1118.5731731463
  0
LINE
  5
3FD
100
AcDbEntity
  8
0
100
AcDbLine
 62
7
  6
CONTINUOUS
 10
138.5176659965
 20
1119.1044068702
 11
138.7860389348
 21
1118.5731731463
  0
LINE
  5
3FE
100
AcDbEntity
  8
0
100
AcDbLine
 62
7
  6
CONTINUOUS
 10
138.2520491346
 20
1119.6383966704
 11
138.5176659965
 21
1119.1044068702
  0
LINE
  5
3FF
100
AcDbEntity
  8
0
100
AcDbLine
 62
7
  6
CONTINUOUS
 10
420.920066642
 20
1127.7905261171
 11
421.0371998885
 21
1126.2381660915
  0
LINE
  5
400
100
AcDbEntity
  8
0
100
AcDbLine
 62
7
  6
CONTINUOUS
 10
446.2876827381
 20
1046.8299209399
 11
446.0220658762
 21
1050.8303658174
  0
LINE
  5
401
100
AcDbEntity
  8
0
100
AcDbLine
 62
7
  6
CONTINUOUS
 10
444.9540862758
 20
1050.03093141
 11
445.2197031377
 21
1045.4964967323
  0
LINE
  5
402
100
AcDbEntity
  8
0
100
AcDbLine
 62
7
  6
CONTINUOUS
 10
447.355317829
 20
1036.9616171772
 11
445.7564490143
 21
1065.2332765125
  0
LINE
  5
403
100
AcDbEntity
  8
0
100
AcDbLine
 62
7
  6
CONTINUOUS
 10
446.0220658762
 20
1050.8303658174
 11
445.7564490143
 21
1055.8987902953
  0
LINE
  5
404
100
AcDbEntity
  8
0
100
AcDbLine
 62
7
  6
CONTINUOUS
 10
430.6218000381
 20
1127.4622085174
 11
430.6476382542
 21
1126.5011991318
  0
LINE
  5
405
100
AcDbEntity
  8
0
100
AcDbLine
 62
7
  6
CONTINUOUS
 10
424.7251746055
 20
1126.5637276148
 11
424.7045040326
 21
1127.5195693572
  0
LINE
  5
406
100
AcDbEntity
  8
0
100
AcDbLine
 62
7
  6
CONTINUOUS
 10
441.0707746448
 20
1168.5246461156
 11
441.086622084
 21
1167.5608806536
  0
LINE
  5
407
100
AcDbEntity
  8
0
100
AcDbLine
 62
7
  6
CONTINUOUS
 10
437.1929751666
 20
1170.3789687606
 11
437.2267371024
 21
1168.4569499893
  0
LINE
  5
408
100
AcDbEntity
  8
0
100
AcDbLine
 62
7
  6
CONTINUOUS
 10
416.4197384097
 20
1120.9718208779
 11
416.4197384097
 21
1042.5638592005
  0
LINE
  5
409
100
AcDbEntity
  8
0
100
AcDbLine
 62
7
  6
CONTINUOUS
 10
416.6853552716
 20
1040.6964451927
 11
416.6853552716
 21
1035.6280207148
  0
LINE
  5
40A
100
AcDbEntity
  8
0
100
AcDbLine
 62
7
  6
CONTINUOUS
 10
417.2165889954
 20
622.7775962846
 11
417.2165889954
 21
623.5775474563
  0
LINE
  5
40B
100
AcDbEntity
  8
0
100
AcDbLine
 62
7
  6
CONTINUOUS
 10
417.2165889954
 20
626.7780411621
 11
417.2165889954
 21
627.0440025335
  0
LINE
  5
40C
100
AcDbEntity
  8
0
100
AcDbLine
 62
7
  6
CONTINUOUS
 10
417.2165889954
 20
628.9112442866
 11
417.2165889954
 21
629.4452340868
  0
LINE
  5
40D
100
AcDbEntity
  8
0
100
AcDbLine
 62
7
  6
CONTINUOUS
 10
417.4849619337
 20
629.979223887
 11
417.4849619337
 21
1035.6280207148
  0
LINE
  5
40E
100
AcDbEntity
  8
0
100
AcDbLine
 62
7
  6
CONTINUOUS
 10
420.951417011
 20
1119.6383966704
 11
420.951417011
 21
1120.9718208779
  0
LINE
  5
40F
100
AcDbEntity
  8
0
100
AcDbLine
 62
7
  6
CONTINUOUS
 10
421.7534352399
 20
1120.4380033325
 11
421.7534352399
 21
1120.1723864706
  0
LINE
  5
410
100
AcDbEntity
  8
0
100
AcDbLine
 62
7
  6
CONTINUOUS
 10
427.8843271655
 20
1118.0391833461
 11
427.8843271655
 21
1117.7709826626
  0
LINE
  5
411
100
AcDbEntity
  8
0
100
AcDbLine
 62
7
  6
CONTINUOUS
 10
428.1527001038
 20
1117.5053658007
 11
428.1527001038
 21
1116.437558455
  0
LINE
  5
412
100
AcDbEntity
  8
0
100
AcDbLine
 62
7
  6
CONTINUOUS
 10
434.5519649676
 20
1123.1050240024
 11
434.5519649676
 21
1123.3732246859
  0
LINE
  5
413
100
AcDbEntity
  8
0
100
AcDbLine
 62
7
  6
CONTINUOUS
 10
435.8852169204
 20
1116.7057591386
 11
435.8852169204
 21
1117.7709826626
  0
LINE
  5
414
100
AcDbEntity
  8
0
100
AcDbLine
 62
7
  6
CONTINUOUS
 10
436.9531965208
 20
1117.2397489388
 11
436.9531965208
 21
1116.7057591386
  0
LINE
  5
415
100
AcDbEntity
  8
0
100
AcDbLine
 62
7
  6
CONTINUOUS
 10
436.9531965208
 20
1119.3727798085
 11
436.9531965208
 21
1120.4380033325
  0
LINE
  5
416
100
AcDbEntity
  8
0
100
AcDbLine
 62
7
  6
CONTINUOUS
 10
437.2188133828
 20
1118.3049724628
 11
437.2188133828
 21
1118.8387900083
  0
LINE
  5
417
100
AcDbEntity
  8
0
100
AcDbLine
 62
7
  6
CONTINUOUS
 10
437.4871863211
 20
1117.5053658007
 11
437.4871863211
 21
1118.0391833461
  0
LINE
  5
418
100
AcDbEntity
  8
0
100
AcDbLine
 62
7
  6
CONTINUOUS
 10
441.2192582602
 20
1038.5632420683
 11
441.2192582602
 21
1037.7610515845
  0
LINE
  5
419
100
AcDbEntity
  8
0
100
AcDbLine
 62
7
  6
CONTINUOUS
 10
441.4876311985
 20
1036.162010515
 11
441.4876311985
 21
1037.7610515845
  0
LINE
  5
41A
100
AcDbEntity
  8
0
100
AcDbLine
 62
7
  6
CONTINUOUS
 10
443.8864511849
 20
1035.8963936531
 11
443.8864511849
 21
1035.3624038529
  0
LINE
  5
41B
100
AcDbEntity
  8
0
100
AcDbLine
 62
7
  6
CONTINUOUS
 10
445.2197031377
 20
1045.4964967323
 11
445.2197031377
 21
1044.6968900702
  0
LINE
  5
41C
100
AcDbEntity
  8
0
100
AcDbLine
 62
7
  6
CONTINUOUS
 10
445.2197031377
 20
1067.6319242441
 11
445.2197031377
 21
1068.6999038446
  0
LINE
  5
41D
100
AcDbEntity
  8
0
100
AcDbLine
 62
7
  6
CONTINUOUS
 10
445.488076076
 20
1042.5638592005
 11
445.488076076
 21
1041.4960518548
  0
LINE
  5
41E
100
AcDbEntity
  8
0
100
AcDbLine
 62
7
  6
CONTINUOUS
 10
446.0220658762
 20
1044.9625069321
 11
446.0220658762
 21
1045.2308798704
  0
LINE
  5
41F
100
AcDbEntity
  8
0
100
AcDbLine
 62
7
  6
CONTINUOUS
 10
446.2876827381
 20
1036.6958280605
 11
446.2876827381
 21
1036.162010515
  0
LINE
  5
420
100
AcDbEntity
  8
0
100
AcDbLine
 62
7
  6
CONTINUOUS
 10
446.2876827381
 20
1041.7616687168
 11
446.2876827381
 21
1042.0298694003
  0
LINE
  5
421
100
AcDbEntity
  8
0
100
AcDbLine
 62
7
  6
CONTINUOUS
 10
446.2876827381
 20
1045.2308798704
 11
446.2876827381
 21
1046.8299209399
  0
LINE
  5
422
100
AcDbEntity
  8
0
100
AcDbLine
 62
7
  6
CONTINUOUS
 10
446.5532996
 20
1042.2954862622
 11
446.5532996
 21
1044.16290027
  0
LINE
  5
423
100
AcDbEntity
  8
0
100
AcDbLine
 62
7
  6
CONTINUOUS
 10
447.0897009671
 20
1036.4276273769
 11
447.0897009671
 21
1036.6958280605
  0
LINE
  5
424
100
AcDbEntity
  8
0
100
AcDbLine
 62
7
  6
CONTINUOUS
 10
447.355317829
 20
1036.6958280605
 11
447.355317829
 21
1038.0294245228
  0
LINE
  5
425
100
AcDbEntity
  8
0
100
AcDbLine
 62
7
  6
CONTINUOUS
 10
413.752545485
 20
559.3037790262
 11
415.0861419473
 21
621.4443443318
  0
LINE
  5
426
100
AcDbEntity
  8
0
100
AcDbLine
 62
7
  6
CONTINUOUS
 10
445.5115027253
 20
1151.6891534983
 11
445.5869503164
 21
1154.3561741682
  0
LINE
  5
427
100
AcDbEntity
  8
0
100
AcDbLine
 62
7
  6
CONTINUOUS
 10
417.2165889954
 20
623.5775474563
 11
417.4849619337
 21
626.5127688097
  0
LINE
  5
428
100
AcDbEntity
  8
0
100
AcDbLine
 62
7
  6
CONTINUOUS
 10
412.4189490226
 20
628.9112442866
 11
412.6849103941
 21
629.979223887
  0
LINE
  5
429
100
AcDbEntity
  8
0
100
AcDbLine
 62
7
  6
CONTINUOUS
 10
416.6853552716
 20
628.1116376244
 11
416.9509721335
 21
628.6456274246
  0
LINE
  5
42A
100
AcDbEntity
  8
0
100
AcDbLine
 62
7
  6
CONTINUOUS
 10
381.7489864652
 20
627.5779923338
 11
382.0146033271
 21
628.1116376244
  0
LINE
  5
42B
100
AcDbEntity
  8
0
100
AcDbLine
 62
7
  6
CONTINUOUS
 10
416.9509721335
 20
622.2439509939
 11
417.2165889954
 21
622.7775962846
  0
LINE
  5
42C
100
AcDbEntity
  8
0
100
AcDbLine
 62
7
  6
CONTINUOUS
 10
417.2165889954
 20
629.4452340868
 11
417.4849619337
 21
629.979223887
  0
LINE
  5
42D
100
AcDbEntity
  8
0
100
AcDbLine
 62
7
  6
CONTINUOUS
 10
691.972944721
 20
1115.5724949787
 11
691.440332959
 21
1114.7703044949
  0
LINE
  5
42E
100
AcDbEntity
  8
0
100
AcDbLine
 62
7
  6
CONTINUOUS
 10
83.3134559409
 20
611.5758683143
 11
83.8446896647
 21
611.8442412526
  0
LINE
  5
42F
100
AcDbEntity
  8
0
100
AcDbLine
 62
7
  6
CONTINUOUS
 10
70.5097585699
 20
609.4426651899
 11
69.4445350459
 21
608.9090198992
  0
LINE
  5
430
100
AcDbEntity
  8
0
100
AcDbLine
 62
7
  6
CONTINUOUS
 10
1090.155702868
 20
1121.1721531804
 11
1090.6881423752
 21
1121.4377700423
  0
LINE
  5
431
100
AcDbEntity
  8
0
100
AcDbLine
 62
7
  6
CONTINUOUS
 10
1085.088828683
 20
1121.1721531804
 11
1085.621440445
 21
1121.4377700423
  0
LINE
  5
432
100
AcDbEntity
  8
0
100
AcDbLine
 62
7
  6
CONTINUOUS
 10
65.4440901684
 20
610.5106447903
 11
64.3764550775
 21
609.9766549901
  0
LINE
  5
433
100
AcDbEntity
  8
0
100
AcDbLine
 62
7
  6
CONTINUOUS
 10
65.9780799686
 20
611.5758683143
 11
64.3764550775
 21
610.7762616522
  0
LINE
  5
434
100
AcDbEntity
  8
0
100
AcDbLine
 62
7
  6
CONTINUOUS
 10
66.2436968305
 20
611.0418785141
 11
65.7097070303
 21
610.7762616522
  0
LINE
  5
435
100
AcDbEntity
  8
0
100
AcDbLine
 62
7
  6
CONTINUOUS
 10
71.0465044465
 20
609.7082820518
 11
70.5097585699
 21
609.4426651899
  0
LINE
  5
436
100
AcDbEntity
  8
0
100
AcDbLine
 62
7
  6
CONTINUOUS
 10
83.0478390789
 20
612.3754749764
 11
82.5110932023
 21
612.1098581145
  0
LINE
  5
437
100
AcDbEntity
  8
0
100
AcDbLine
 62
7
  6
CONTINUOUS
 10
787.9855165828
 20
612.3141522768
 11
786.9190872754
 21
612.0461238481
  0
LINE
  5
438
100
AcDbEntity
  8
0
100
AcDbLine
 62
7
  6
CONTINUOUS
 10
771.7177757015
 20
594.1791696425
 11
769.5835390484
 21
593.6451798422
  0
LINE
  5
439
100
AcDbEntity
  8
0
100
AcDbLine
 62
7
  6
CONTINUOUS
 10
770.6499683558
 20
595.2443931665
 11
773.0513721638
 21
595.7783829667
  0
LINE
  5
43A
100
AcDbEntity
  8
0
100
AcDbLine
 62
7
  6
CONTINUOUS
 10
769.5835390484
 20
593.6451798422
 11
768.249942586
 21
593.3771514135
  0
LINE
  5
43B
100
AcDbEntity
  8
0
100
AcDbLine
 62
7
  6
CONTINUOUS
 10
755.7158239368
 20
610.4469105238
 11
754.3822274745
 21
610.1809491523
  0
LINE
  5
43C
100
AcDbEntity
  8
0
100
AcDbLine
 62
7
  6
CONTINUOUS
 10
766.9163461237
 20
594.7104033663
 11
768.5169374861
 21
594.9787763046
  0
LINE
  5
43D
100
AcDbEntity
  8
0
100
AcDbLine
 62
7
  6
CONTINUOUS
 10
773.8509788259
 20
592.5775447514
 11
775.7183928337
 21
592.8455731801
  0
LINE
  5
43E
100
AcDbEntity
  8
0
100
AcDbLine
 62
7
  6
CONTINUOUS
 10
1007.4818517059
 20
608.5793242613
 11
1005.6144376981
 21
608.3137073993
  0
LINE
  5
43F
100
AcDbEntity
  8
0
100
AcDbLine
 62
7
  6
CONTINUOUS
 10
781.8520408357
 20
584.5763104869
 11
779.9846268279
 21
584.310693625
  0
LINE
  5
440
100
AcDbEntity
  8
0
100
AcDbLine
 62
7
  6
CONTINUOUS
 10
1005.6144376981
 20
608.3137073993
 11
1003.4812345737
 21
608.045334461
  0
LINE
  5
441
100
AcDbEntity
  8
0
100
AcDbLine
 62
7
  6
CONTINUOUS
 10
772.5173823636
 20
593.6451798422
 11
774.6505854881
 21
593.9107967042
  0
LINE
  5
442
100
AcDbEntity
  8
0
100
AcDbLine
 62
7
  6
CONTINUOUS
 10
768.5169374861
 20
594.9787763046
 11
770.6499683558
 21
595.2443931665
  0
LINE
  5
443
100
AcDbEntity
  8
0
100
AcDbLine
 62
7
  6
CONTINUOUS
 10
1008.281458368
 20
604.8472523221
 11
1010.4156950211
 21
605.112869184
  0
LINE
  5
444
100
AcDbEntity
  8
0
100
AcDbLine
 62
7
  6
CONTINUOUS
 10
1005.8812603435
 20
604.5788793838
 11
1008.281458368
 21
604.8472523221
  0
LINE
  5
445
100
AcDbEntity
  8
0
100
AcDbLine
 62
7
  6
CONTINUOUS
 10
786.9190872754
 20
587.5115318403
 11
784.5190615056
 21
587.2435034116
  0
LINE
  5
446
100
AcDbEntity
  8
0
100
AcDbLine
 62
7
  6
CONTINUOUS
 10
774.6505854881
 20
593.9107967042
 11
777.0518170413
 21
594.1791696425
  0
LINE
  5
447
100
AcDbEntity
  8
0
100
AcDbLine
 62
7
  6
CONTINUOUS
 10
775.7183928337
 20
592.8455731801
 11
778.1184186035
 21
593.111190042
  0
LINE
  5
448
100
AcDbEntity
  8
0
100
AcDbLine
 62
7
  6
CONTINUOUS
 10
774.117973726
 20
594.4447865044
 11
771.7177757015
 21
594.1791696425
  0
LINE
  5
449
100
AcDbEntity
  8
0
100
AcDbLine
 62
7
  6
CONTINUOUS
 10
789.5861079453
 20
587.7774932118
 11
786.9190872754
 21
587.5115318403
  0
LINE
  5
44A
100
AcDbEntity
  8
0
100
AcDbLine
 62
7
  6
CONTINUOUS
 10
778.1184186035
 20
593.111190042
 11
780.7854392734
 21
593.3771514135
  0
LINE
  5
44B
100
AcDbEntity
  8
0
100
AcDbLine
 62
7
  6
CONTINUOUS
 10
776.784994396
 20
594.7104033663
 11
774.117973726
 21
594.4447865044
  0
LINE
  5
44C
100
AcDbEntity
  8
0
100
AcDbLine
 62
7
  6
CONTINUOUS
 10
1001.0812088039
 20
608.045334461
 11
998.1471932338
 21
607.7797175991
  0
LINE
  5
44D
100
AcDbEntity
  8
0
100
AcDbLine
 62
7
  6
CONTINUOUS
 10
777.0518170413
 20
594.1791696425
 11
779.9846268279
 21
594.4447865044
  0
LINE
  5
44E
100
AcDbEntity
  8
0
100
AcDbLine
 62
7
  6
CONTINUOUS
 10
1021.8830398533
 20
610.4469105238
 11
1015.749736361
 21
609.9129207236
  0
LINE
  5
44F
100
AcDbEntity
  8
0
100
AcDbLine
 62
7
  6
CONTINUOUS
 10
782.9184701431
 20
594.9787763046
 11
779.7188377112
 21
594.7104033663
  0
LINE
  5
450
100
AcDbEntity
  8
0
100
AcDbLine
 62
7
  6
CONTINUOUS
 10
1002.6804221281
 20
604.3132625219
 11
1005.8812603435
 21
604.5788793838
  0
LINE
  5
451
100
AcDbEntity
  8
0
100
AcDbLine
 62
7
  6
CONTINUOUS
 10
779.9846268279
 20
594.4447865044
 11
783.1854650432
 21
594.7104033663
  0
LINE
  5
452
100
AcDbEntity
  8
0
100
AcDbLine
 62
7
  6
CONTINUOUS
 10
775.9840096956
 20
595.7783829667
 11
779.1850201658
 21
596.0439998286
  0
LINE
  5
453
100
AcDbEntity
  8
0
100
AcDbLine
 62
7
  6
CONTINUOUS
 10
783.1854650432
 20
607.7797175991
 11
786.3864755133
 21
608.045334461
  0
LINE
  5
454
100
AcDbEntity
  8
0
100
AcDbLine
 62
7
  6
CONTINUOUS
 10
779.1850201658
 20
596.0439998286
 11
782.6516474978
 21
596.3123727669
  0
LINE
  5
455
100
AcDbEntity
  8
0
100
AcDbLine
 62
7
  6
CONTINUOUS
 10
796.2535734926
 20
588.0431100737
 11
792.7869461606
 21
587.7774932118
  0
LINE
  5
456
100
AcDbEntity
  8
0
100
AcDbLine
 62
7
  6
CONTINUOUS
 10
786.1194806132
 20
604.5788793838
 11
782.3858583811
 21
604.3132625219
  0
LINE
  5
457
100
AcDbEntity
  8
0
100
AcDbLine
 62
7
  6
CONTINUOUS
 10
1018.6823738928
 20
606.4464656463
 11
1025.0837058139
 21
606.7117379987
  0
LINE
  5
458
100
AcDbEntity
  8
0
100
AcDbLine
 62
7
  6
CONTINUOUS
 10
786.9190872754
 20
593.3771514135
 11
815.9893197442
 21
593.9107967042
  0
LINE
  5
459
100
AcDbEntity
  8
0
100
AcDbLine
 62
7
  6
CONTINUOUS
 10
845.0607579965
 20
593.9107967042
 11
874.3979853655
 21
594.1791696425
  0
LINE
  5
45A
100
AcDbEntity
  8
0
100
AcDbLine
 62
7
  6
CONTINUOUS
 10
833.3248679712
 20
588.3111385024
 11
796.2535734926
 21
588.0431100737
  0
LINE
  5
45B
100
AcDbEntity
  8
0
100
AcDbLine
 62
7
  6
CONTINUOUS
 10
690.1069087514
 20
557.6408314354
 11
1088.0211217053
 21
557.6408314354
  0
LINE
  5
45C
100
AcDbEntity
  8
0
100
AcDbLine
 62
7
  6
CONTINUOUS
 10
126.2507145022
 20
559.3037790262
 11
413.752545485
 21
559.3037790262
  0
LINE
  5
45D
100
AcDbEntity
  8
0
100
AcDbLine
 62
7
  6
CONTINUOUS
 10
790.6525372527
 20
560.3080243601
 11
752.5148134667
 21
560.3080243601
  0
LINE
  5
45E
100
AcDbEntity
  8
0
100
AcDbLine
 62
7
  6
CONTINUOUS
 10
987.479282809
 20
560.3080243601
 11
1025.883312476
 21
560.3080243601
  0
LINE
  5
45F
100
AcDbEntity
  8
0
100
AcDbLine
 62
7
  6
CONTINUOUS
 10
125.7194807783
 20
561.7025990126
 11
125.45110784
 21
561.7025990126
  0
LINE
  5
460
100
AcDbEntity
  8
0
100
AcDbLine
 62
7
  6
CONTINUOUS
 10
125.7194807783
 20
561.9709719509
 11
129.4515527175
 21
561.9709719509
  0
LINE
  5
461
100
AcDbEntity
  8
0
100
AcDbLine
 62
7
  6
CONTINUOUS
 10
982.6778532312
 20
562.1752661131
 11
982.4120641145
 21
562.1752661131
  0
LINE
  5
462
100
AcDbEntity
  8
0
100
AcDbLine
 62
7
  6
CONTINUOUS
 10
795.4539668305
 20
562.1752661131
 11
795.7209617306
 21
562.1752661131
  0
LINE
  5
463
100
AcDbEntity
  8
0
100
AcDbLine
 62
7
  6
CONTINUOUS
 10
1030.4174026442
 20
562.1752661131
 11
1030.6833640156
 21
562.1752661131
  0
LINE
  5
464
100
AcDbEntity
  8
0
100
AcDbLine
 62
7
  6
CONTINUOUS
 10
748.2473736891
 20
562.440882975
 11
747.980378789
 21
562.440882975
  0
LINE
  5
465
100
AcDbEntity
  8
0
100
AcDbLine
 62
7
  6
CONTINUOUS
 10
1029.8839296083
 20
562.440882975
 11
1030.1505799988
 21
562.440882975
  0
LINE
  5
466
100
AcDbEntity
  8
0
100
AcDbLine
 62
7
  6
CONTINUOUS
 10
748.5143685892
 20
562.706499837
 11
794.9201492851
 21
562.706499837
  0
LINE
  5
467
100
AcDbEntity
  8
0
100
AcDbLine
 62
7
  6
CONTINUOUS
 10
983.2116707766
 20
562.706499837
 11
1029.6169347082
 21
562.706499837
  0
LINE
  5
468
100
AcDbEntity
  8
0
100
AcDbLine
 62
7
  6
CONTINUOUS
 10
1025.0837058139
 20
562.9748727753
 11
987.479282809
 21
562.9748727753
  0
LINE
  5
469
100
AcDbEntity
  8
0
100
AcDbLine
 62
7
  6
CONTINUOUS
 10
753.0488032669
 20
562.9748727753
 11
790.6525372527
 21
562.9748727753
  0
LINE
  5
46A
100
AcDbEntity
  8
0
100
AcDbLine
 62
7
  6
CONTINUOUS
 10
747.447767027
 20
563.2404896372
 11
747.1807721269
 21
563.2404896372
  0
LINE
  5
46B
100
AcDbEntity
  8
0
100
AcDbLine
 62
7
  6
CONTINUOUS
 10
1030.6833640156
 20
563.2404896372
 11
1030.9500144062
 21
563.2404896372
  0
LINE
  5
46C
100
AcDbEntity
  8
0
100
AcDbLine
 62
7
  6
CONTINUOUS
 10
133.1836246567
 20
563.3042239036
 11
133.451997595
 21
563.3042239036
  0
LINE
  5
46D
100
AcDbEntity
  8
0
100
AcDbLine
 62
7
  6
CONTINUOUS
 10
982.6778532312
 20
563.5088625755
 11
982.4120641145
 21
563.5088625755
  0
LINE
  5
46E
100
AcDbEntity
  8
0
100
AcDbLine
 62
7
  6
CONTINUOUS
 10
747.980378789
 20
563.5088625755
 11
747.7147619271
 21
563.5088625755
  0
LINE
  5
46F
100
AcDbEntity
  8
0
100
AcDbLine
 62
7
  6
CONTINUOUS
 10
795.4539668305
 20
563.5088625755
 11
796.2535734926
 21
563.5088625755
  0
LINE
  5
470
100
AcDbEntity
  8
0
100
AcDbLine
 62
7
  6
CONTINUOUS
 10
1030.1505799988
 20
563.5088625755
 11
1030.4174026442
 21
563.5088625755
  0
LINE
  5
471
100
AcDbEntity
  8
0
100
AcDbLine
 62
7
  6
CONTINUOUS
 10
982.4120641145
 20
563.7744794374
 11
982.1452414692
 21
563.7744794374
  0
LINE
  5
472
100
AcDbEntity
  8
0
100
AcDbLine
 62
7
  6
CONTINUOUS
 10
983.7456605769
 20
563.7744794374
 11
982.9446758765
 21
563.7744794374
  0
LINE
  5
473
100
AcDbEntity
  8
0
100
AcDbLine
 62
7
  6
CONTINUOUS
 10
790.6525372527
 20
563.7744794374
 11
752.5148134667
 21
563.7744794374
  0
LINE
  5
474
100
AcDbEntity
  8
0
100
AcDbLine
 62
7
  6
CONTINUOUS
 10
748.5143685892
 20
563.7744794374
 11
748.2473736891
 21
563.7744794374
  0
LINE
  5
475
100
AcDbEntity
  8
0
100
AcDbLine
 62
7
  6
CONTINUOUS
 10
747.7147619271
 20
563.7744794374
 11
747.447767027
 21
563.7744794374
  0
LINE
  5
476
100
AcDbEntity
  8
0
100
AcDbLine
 62
7
  6
CONTINUOUS
 10
794.3875375231
 20
563.7744794374
 11
795.1871441852
 21
563.7744794374
  0
LINE
  5
477
100
AcDbEntity
  8
0
100
AcDbLine
 62
7
  6
CONTINUOUS
 10
987.479282809
 20
563.7744794374
 11
1025.6163175759
 21
563.7744794374
  0
LINE
  5
478
100
AcDbEntity
  8
0
100
AcDbLine
 62
7
  6
CONTINUOUS
 10
1029.6169347082
 20
563.7744794374
 11
1029.8839296083
 21
563.7744794374
  0
LINE
  5
479
100
AcDbEntity
  8
0
100
AcDbLine
 62
7
  6
CONTINUOUS
 10
1030.4174026442
 20
563.7744794374
 11
1030.9500144062
 21
563.7744794374
  0
LINE
  5
47A
100
AcDbEntity
  8
0
100
AcDbLine
 62
7
  6
CONTINUOUS
 10
132.3867740709
 20
563.8382137039
 11
132.6523909329
 21
563.8382137039
  0
LINE
  5
47B
100
AcDbEntity
  8
0
100
AcDbLine
 62
7
  6
CONTINUOUS
 10
985.3447016463
 20
564.0400962993
 11
982.4120641145
 21
564.0400962993
  0
LINE
  5
47C
100
AcDbEntity
  8
0
100
AcDbLine
 62
7
  6
CONTINUOUS
 10
747.980378789
 20
564.0400962993
 11
750.381782597
 21
564.0400962993
  0
LINE
  5
47D
100
AcDbEntity
  8
0
100
AcDbLine
 62
7
  6
CONTINUOUS
 10
792.7869461606
 20
564.0400962993
 11
795.7209617306
 21
564.0400962993
  0
LINE
  5
47E
100
AcDbEntity
  8
0
100
AcDbLine
 62
7
  6
CONTINUOUS
 10
1027.7507264838
 20
564.0400962993
 11
1030.1505799988
 21
564.0400962993
  0
LINE
  5
47F
100
AcDbEntity
  8
0
100
AcDbLine
 62
7
  6
CONTINUOUS
 10
132.1184011326
 20
564.1038305658
 11
132.3867740709
 21
564.1038305658
  0
LINE
  5
480
100
AcDbEntity
  8
0
100
AcDbLine
 62
7
  6
CONTINUOUS
 10
132.1184011326
 20
564.3694474277
 11
127.5843109645
 21
564.3694474277
  0
LINE
  5
481
100
AcDbEntity
  8
0
100
AcDbLine
 62
7
  6
CONTINUOUS
 10
1026.9497417835
 20
564.5740860995
 11
1026.6829191382
 21
564.5740860995
  0
LINE
  5
482
100
AcDbEntity
  8
0
100
AcDbLine
 62
7
  6
CONTINUOUS
 10
792.2531286152
 20
564.5740860995
 11
791.7205168532
 21
564.5740860995
  0
LINE
  5
483
100
AcDbEntity
  8
0
100
AcDbLine
 62
7
  6
CONTINUOUS
 10
751.1812170044
 20
564.5740860995
 11
751.7152068046
 21
564.5740860995
  0
LINE
  5
484
100
AcDbEntity
  8
0
100
AcDbLine
 62
7
  6
CONTINUOUS
 10
986.1456863467
 20
564.5740860995
 11
986.4126812468
 21
564.5740860995
  0
LINE
  5
485
100
AcDbEntity
  8
0
100
AcDbLine
 62
7
  6
CONTINUOUS
 10
135.8508175814
 20
564.637820366
 11
133.9859873952
 21
564.637820366
  0
LINE
  5
486
100
AcDbEntity
  8
0
100
AcDbLine
 62
7
  6
CONTINUOUS
 10
131.8503727039
 20
564.637820366
 11
128.1179562552
 21
564.637820366
  0
LINE
  5
487
100
AcDbEntity
  8
0
100
AcDbLine
 62
7
  6
CONTINUOUS
 10
131.8503727039
 20
564.9034372279
 11
132.1184011326
 21
564.9034372279
  0
LINE
  5
488
100
AcDbEntity
  8
0
100
AcDbLine
 62
7
  6
CONTINUOUS
 10
133.1836246567
 20
564.9034372279
 11
133.7203705333
 21
564.9034372279
  0
LINE
  5
489
100
AcDbEntity
  8
0
100
AcDbLine
 62
7
  6
CONTINUOUS
 10
132.3867740709
 20
565.1718101662
 11
132.1184011326
 21
565.1718101662
  0
LINE
  5
48A
100
AcDbEntity
  8
0
100
AcDbLine
 62
7
  6
CONTINUOUS
 10
128.6519460554
 20
565.1718101662
 11
128.9175629173
 21
565.1718101662
  0
LINE
  5
48B
100
AcDbEntity
  8
0
100
AcDbLine
 62
7
  6
CONTINUOUS
 10
132.9180077948
 20
565.1718101662
 11
133.1836246567
 21
565.1718101662
  0
LINE
  5
48C
100
AcDbEntity
  8
0
100
AcDbLine
 62
7
  6
CONTINUOUS
 10
129.1831797792
 20
565.4374270281
 11
132.3867740709
 21
565.4374270281
  0
LINE
  5
48D
100
AcDbEntity
  8
0
100
AcDbLine
 62
7
  6
CONTINUOUS
 10
133.451997595
 20
565.4374270281
 11
133.7203705333
 21
565.4374270281
  0
LINE
  5
48E
100
AcDbEntity
  8
0
100
AcDbLine
 62
7
  6
CONTINUOUS
 10
132.9180077948
 20
565.70304389
 11
132.6523909329
 21
565.70304389
  0
LINE
  5
48F
100
AcDbEntity
  8
0
100
AcDbLine
 62
7
  6
CONTINUOUS
 10
128.6519460554
 20
565.70304389
 11
128.3863291935
 21
565.70304389
  0
LINE
  5
490
100
AcDbEntity
  8
0
100
AcDbLine
 62
7
  6
CONTINUOUS
 10
1027.7507264838
 20
566.1757109906
 11
1027.2167366836
 21
566.1757109906
  0
LINE
  5
491
100
AcDbEntity
  8
0
100
AcDbLine
 62
7
  6
CONTINUOUS
 10
792.7869461606
 20
566.1757109906
 11
792.2531286152
 21
566.1757109906
  0
LINE
  5
492
100
AcDbEntity
  8
0
100
AcDbLine
 62
7
  6
CONTINUOUS
 10
750.6473994589
 20
566.1757109906
 11
750.914394359
 21
566.1757109906
  0
LINE
  5
493
100
AcDbEntity
  8
0
100
AcDbLine
 62
7
  6
CONTINUOUS
 10
985.3447016463
 20
566.1757109906
 11
985.8786914465
 21
566.1757109906
  0
LINE
  5
494
100
AcDbEntity
  8
0
100
AcDbLine
 62
7
  6
CONTINUOUS
 10
129.1831797792
 20
566.2370336902
 11
129.9855425177
 21
566.2370336902
  0
LINE
  5
495
100
AcDbEntity
  8
0
100
AcDbLine
 62
7
  6
CONTINUOUS
 10
1028.8173280461
 20
566.4413278525
 11
1028.0163433457
 21
566.4413278525
  0
LINE
  5
496
100
AcDbEntity
  8
0
100
AcDbLine
 62
7
  6
CONTINUOUS
 10
793.8535477229
 20
566.4413278525
 11
793.0539410607
 21
566.4413278525
  0
LINE
  5
497
100
AcDbEntity
  8
0
100
AcDbLine
 62
7
  6
CONTINUOUS
 10
749.3138029966
 20
566.4413278525
 11
750.381782597
 21
566.4413278525
  0
LINE
  5
498
100
AcDbEntity
  8
0
100
AcDbLine
 62
7
  6
CONTINUOUS
 10
984.545267239
 20
566.4413278525
 11
985.3447016463
 21
566.4413278525
  0
LINE
  5
499
100
AcDbEntity
  8
0
100
AcDbLine
 62
7
  6
CONTINUOUS
 10
130.7851491799
 20
567.5706301526
 11
133.451997595
 21
567.5706301526
  0
LINE
  5
49A
100
AcDbEntity
  8
0
100
AcDbLine
 62
7
  6
CONTINUOUS
 10
129.7199256558
 20
567.8386585813
 11
130.5167762415
 21
567.8386585813
  0
LINE
  5
49B
100
AcDbEntity
  8
0
100
AcDbLine
 62
7
  6
CONTINUOUS
 10
983.7456605769
 20
568.0405411768
 11
982.1452414692
 21
568.0405411768
  0
LINE
  5
49C
100
AcDbEntity
  8
0
100
AcDbLine
 62
7
  6
CONTINUOUS
 10
794.3875375231
 20
568.0405411768
 11
796.2535734926
 21
568.0405411768
  0
LINE
  5
49D
100
AcDbEntity
  8
0
100
AcDbLine
 62
7
  6
CONTINUOUS
 10
129.4515527175
 20
568.1042754432
 11
129.7199256558
 21
568.1042754432
  0
LINE
  5
49E
100
AcDbEntity
  8
0
100
AcDbLine
 62
7
  6
CONTINUOUS
 10
747.1807721269
 20
569.6425105774
 11
750.914394359
 21
569.6425105774
  0
LINE
  5
49F
100
AcDbEntity
  8
0
100
AcDbLine
 62
7
  6
CONTINUOUS
 10
792.2531286152
 20
569.6425105774
 11
796.2535734926
 21
569.6425105774
  0
LINE
  5
4A0
100
AcDbEntity
  8
0
100
AcDbLine
 62
7
  6
CONTINUOUS
 10
982.1452414692
 20
569.6425105774
 11
985.8786914465
 21
569.6425105774
  0
LINE
  5
4A1
100
AcDbEntity
  8
0
100
AcDbLine
 62
7
  6
CONTINUOUS
 10
1027.2167366836
 20
569.6425105774
 11
1030.9500144062
 21
569.6425105774
  0
LINE
  5
4A2
100
AcDbEntity
  8
0
100
AcDbLine
 62
7
  6
CONTINUOUS
 10
129.7199256558
 20
571.3051136586
 11
131.3187944705
 21
571.3051136586
  0
LINE
  5
4A3
100
AcDbEntity
  8
0
100
AcDbLine
 62
7
  6
CONTINUOUS
 10
133.9859873952
 20
571.3051136586
 11
135.5852007194
 21
571.3051136586
  0
LINE
  5
4A4
100
AcDbEntity
  8
0
100
AcDbLine
 62
7
  6
CONTINUOUS
 10
761.0496930219
 20
579.2426136566
 11
778.6510303655
 21
579.2426136566
  0
LINE
  5
4A5
100
AcDbEntity
  8
0
100
AcDbLine
 62
7
  6
CONTINUOUS
 10
999.4807896962
 20
579.2426136566
 11
1017.0831605685
 21
579.2426136566
  0
LINE
  5
4A6
100
AcDbEntity
  8
0
100
AcDbLine
 62
7
  6
CONTINUOUS
 10
760.5158754764
 20
579.5106420854
 11
760.7828703765
 21
579.5106420854
  0
LINE
  5
4A7
100
AcDbEntity
  8
0
100
AcDbLine
 62
7
  6
CONTINUOUS
 10
778.9180252656
 20
579.5106420854
 11
779.1850201658
 21
579.5106420854
  0
LINE
  5
4A8
100
AcDbEntity
  8
0
100
AcDbLine
 62
7
  6
CONTINUOUS
 10
1017.3487774304
 20
579.5106420854
 11
1017.6157723305
 21
579.5106420854
  0
LINE
  5
4A9
100
AcDbEntity
  8
0
100
AcDbLine
 62
7
  6
CONTINUOUS
 10
1018.1497621308
 20
580.3102487475
 11
998.6798049959
 21
580.3102487475
  0
LINE
  5
4AA
100
AcDbEntity
  8
0
100
AcDbLine
 62
7
  6
CONTINUOUS
 10
779.7188377112
 20
580.3102487475
 11
759.9818856762
 21
580.3102487475
  0
LINE
  5
4AB
100
AcDbEntity
  8
0
100
AcDbLine
 62
7
  6
CONTINUOUS
 10
1027.2167366836
 20
582.17783501
 11
985.8786914465
 21
582.17783501
  0
LINE
  5
4AC
100
AcDbEntity
  8
0
100
AcDbLine
 62
7
  6
CONTINUOUS
 10
792.2531286152
 20
582.17783501
 11
750.914394359
 21
582.17783501
  0
LINE
  5
4AD
100
AcDbEntity
  8
0
100
AcDbLine
 62
7
  6
CONTINUOUS
 10
1025.0837058139
 20
582.443451872
 11
1024.8170554234
 21
582.443451872
  0
LINE
  5
4AE
100
AcDbEntity
  8
0
100
AcDbLine
 62
7
  6
CONTINUOUS
 10
753.0488032669
 20
582.443451872
 11
753.3144201288
 21
582.443451872
  0
LINE
  5
4AF
100
AcDbEntity
  8
0
100
AcDbLine
 62
7
  6
CONTINUOUS
 10
750.914394359
 20
582.9774416722
 11
752.2478185666
 21
582.9774416722
  0
LINE
  5
4B0
100
AcDbEntity
  8
0
100
AcDbLine
 62
7
  6
CONTINUOUS
 10
1026.1503073761
 20
582.9774416722
 11
1027.2167366836
 21
582.9774416722
  0
LINE
  5
4B1
100
AcDbEntity
  8
0
100
AcDbLine
 62
7
  6
CONTINUOUS
 10
751.7152068046
 20
583.7767038247
 11
792.2531286152
 21
583.7767038247
  0
LINE
  5
4B2
100
AcDbEntity
  8
0
100
AcDbLine
 62
7
  6
CONTINUOUS
 10
985.8786914465
 20
583.7767038247
 11
1026.6829191382
 21
583.7767038247
  0
LINE
  5
4B3
100
AcDbEntity
  8
0
100
AcDbLine
 62
7
  6
CONTINUOUS
 10
779.9846268279
 20
584.310693625
 11
759.7162688143
 21
584.310693625
  0
LINE
  5
4B4
100
AcDbEntity
  8
0
100
AcDbLine
 62
7
  6
CONTINUOUS
 10
998.414188134
 20
584.310693625
 11
1018.4167570309
 21
584.310693625
  0
LINE
  5
4B5
100
AcDbEntity
  8
0
100
AcDbLine
 62
7
  6
CONTINUOUS
 10
786.3864755133
 20
584.8446834252
 11
753.5814150289
 21
584.8446834252
  0
LINE
  5
4B6
100
AcDbEntity
  8
0
100
AcDbLine
 62
7
  6
CONTINUOUS
 10
992.0123394485
 20
584.8446834252
 11
1024.5500605232
 21
584.8446834252
  0
LINE
  5
4B7
100
AcDbEntity
  8
0
100
AcDbLine
 62
7
  6
CONTINUOUS
 10
782.118863481
 20
586.4438967494
 11
758.1158497066
 21
586.4438967494
  0
LINE
  5
4B8
100
AcDbEntity
  8
0
100
AcDbLine
 62
7
  6
CONTINUOUS
 10
996.012784326
 20
586.4438967494
 11
1020.0157981003
 21
586.4438967494
  0
LINE
  5
4B9
100
AcDbEntity
  8
0
100
AcDbLine
 62
7
  6
CONTINUOUS
 10
1026.6829191382
 20
586.7095136113
 11
1026.4173022763
 21
586.7095136113
  0
LINE
  5
4BA
100
AcDbEntity
  8
0
100
AcDbLine
 62
7
  6
CONTINUOUS
 10
782.9184701431
 20
586.7095136113
 11
758.3828446067
 21
586.7095136113
  0
LINE
  5
4BB
100
AcDbEntity
  8
0
100
AcDbLine
 62
7
  6
CONTINUOUS
 10
751.7152068046
 20
586.7095136113
 11
751.4482119045
 21
586.7095136113
  0
LINE
  5
4BC
100
AcDbEntity
  8
0
100
AcDbLine
 62
7
  6
CONTINUOUS
 10
995.2133499186
 20
586.7095136113
 11
1020.0157981003
 21
586.7095136113
  0
LINE
  5
4BD
100
AcDbEntity
  8
0
100
AcDbLine
 62
7
  6
CONTINUOUS
 10
758.3828446067
 20
586.9778865496
 11
758.6484614686
 21
586.9778865496
  0
LINE
  5
4BE
100
AcDbEntity
  8
0
100
AcDbLine
 62
7
  6
CONTINUOUS
 10
756.7822532443
 20
587.2435034116
 11
753.5814150289
 21
587.2435034116
  0
LINE
  5
4BF
100
AcDbEntity
  8
0
100
AcDbLine
 62
7
  6
CONTINUOUS
 10
1021.6160449532
 20
587.2435034116
 11
1024.5500605232
 21
587.2435034116
  0
LINE
  5
4C0
100
AcDbEntity
  8
0
100
AcDbLine
 62
7
  6
CONTINUOUS
 10
753.5814150289
 20
587.5115318403
 11
752.7818083668
 21
587.5115318403
  0
LINE
  5
4C1
100
AcDbEntity
  8
0
100
AcDbLine
 62
7
  6
CONTINUOUS
 10
1024.5500605232
 20
587.5115318403
 11
1025.3496671854
 21
587.5115318403
  0
LINE
  5
4C2
100
AcDbEntity
  8
0
100
AcDbLine
 62
7
  6
CONTINUOUS
 10
1021.0834331912
 20
587.7774932118
 11
1020.0157981003
 21
587.7774932118
  0
LINE
  5
4C3
100
AcDbEntity
  8
0
100
AcDbLine
 62
7
  6
CONTINUOUS
 10
792.7869461606
 20
587.7774932118
 11
789.5861079453
 21
587.7774932118
  0
LINE
  5
4C4
100
AcDbEntity
  8
0
100
AcDbLine
 62
7
  6
CONTINUOUS
 10
758.1158497066
 20
587.7774932118
 11
757.0492481444
 21
587.7774932118
  0
LINE
  5
4C5
100
AcDbEntity
  8
0
100
AcDbLine
 62
7
  6
CONTINUOUS
 10
756.7822532443
 20
587.7774932118
 11
753.3144201288
 21
587.7774932118
  0
LINE
  5
4C6
100
AcDbEntity
  8
0
100
AcDbLine
 62
7
  6
CONTINUOUS
 10
751.1812170044
 20
587.7774932118
 11
750.914394359
 21
587.7774932118
  0
LINE
  5
4C7
100
AcDbEntity
  8
0
100
AcDbLine
 62
7
  6
CONTINUOUS
 10
985.3447016463
 20
587.7774932118
 11
988.5457121165
 21
587.7774932118
  0
LINE
  5
4C8
100
AcDbEntity
  8
0
100
AcDbLine
 62
7
  6
CONTINUOUS
 10
1021.3490500531
 20
587.7774932118
 11
1024.8170554234
 21
587.7774932118
  0
LINE
  5
4C9
100
AcDbEntity
  8
0
100
AcDbLine
 62
7
  6
CONTINUOUS
 10
1025.3496671854
 20
587.7774932118
 11
1025.6163175759
 21
587.7774932118
  0
LINE
  5
4CA
100
AcDbEntity
  8
0
100
AcDbLine
 62
7
  6
CONTINUOUS
 10
753.0488032669
 20
588.0431100737
 11
752.7818083668
 21
588.0431100737
  0
LINE
  5
4CB
100
AcDbEntity
  8
0
100
AcDbLine
 62
7
  6
CONTINUOUS
 10
754.1152325744
 20
588.0431100737
 11
753.848409929
 21
588.0431100737
  0
LINE
  5
4CC
100
AcDbEntity
  8
0
100
AcDbLine
 62
7
  6
CONTINUOUS
 10
1024.016070723
 20
588.0431100737
 11
1024.2830656231
 21
588.0431100737
  0
LINE
  5
4CD
100
AcDbEntity
  8
0
100
AcDbLine
 62
7
  6
CONTINUOUS
 10
1025.0837058139
 20
588.0431100737
 11
1025.3496671854
 21
588.0431100737
  0
LINE
  5
4CE
100
AcDbEntity
  8
0
100
AcDbLine
 62
7
  6
CONTINUOUS
 10
133.7203705333
 20
588.1068443402
 11
131.8503727039
 21
588.1068443402
  0
LINE
  5
4CF
100
AcDbEntity
  8
0
100
AcDbLine
 62
7
  6
CONTINUOUS
 10
1020.549443391
 20
588.3111385024
 11
1019.7501812384
 21
588.3111385024
  0
LINE
  5
4D0
100
AcDbEntity
  8
0
100
AcDbLine
 62
7
  6
CONTINUOUS
 10
944.8069520905
 20
588.3111385024
 11
833.3248679712
 21
588.3111385024
  0
LINE
  5
4D1
100
AcDbEntity
  8
0
100
AcDbLine
 62
7
  6
CONTINUOUS
 10
758.3828446067
 20
588.3111385024
 11
757.8488548065
 21
588.3111385024
  0
LINE
  5
4D2
100
AcDbEntity
  8
0
100
AcDbLine
 62
7
  6
CONTINUOUS
 10
754.3822274745
 20
588.3111385024
 11
753.848409929
 21
588.3111385024
  0
LINE
  5
4D3
100
AcDbEntity
  8
0
100
AcDbLine
 62
7
  6
CONTINUOUS
 10
1023.7504538611
 20
588.3111385024
 11
1024.5500605232
 21
588.3111385024
  0
LINE
  5
4D4
100
AcDbEntity
  8
0
100
AcDbLine
 62
7
  6
CONTINUOUS
 10
130.5167762415
 20
588.3724612021
 11
128.3863291935
 21
588.3724612021
  0
LINE
  5
4D5
100
AcDbEntity
  8
0
100
AcDbLine
 62
7
  6
CONTINUOUS
 10
750.914394359
 20
588.8451283026
 11
751.1812170044
 21
588.8451283026
  0
LINE
  5
4D6
100
AcDbEntity
  8
0
100
AcDbLine
 62
7
  6
CONTINUOUS
 10
752.5148134667
 20
589.1107451646
 11
752.7818083668
 21
589.1107451646
  0
LINE
  5
4D7
100
AcDbEntity
  8
0
100
AcDbLine
 62
7
  6
CONTINUOUS
 10
1024.8170554234
 20
589.1107451646
 11
1025.0837058139
 21
589.1107451646
  0
LINE
  5
4D8
100
AcDbEntity
  8
0
100
AcDbLine
 62
7
  6
CONTINUOUS
 10
132.3867740709
 20
589.1748239406
 11
133.7203705333
 21
589.1748239406
  0
LINE
  5
4D9
100
AcDbEntity
  8
0
100
AcDbLine
 62
7
  6
CONTINUOUS
 10
1025.3496671854
 20
589.3763620265
 11
1025.0837058139
 21
589.3763620265
  0
LINE
  5
4DA
100
AcDbEntity
  8
0
100
AcDbLine
 62
7
  6
CONTINUOUS
 10
753.0488032669
 20
589.3763620265
 11
753.3144201288
 21
589.3763620265
  0
LINE
  5
4DB
100
AcDbEntity
  8
0
100
AcDbLine
 62
7
  6
CONTINUOUS
 10
125.9850976403
 20
589.7060576644
 11
127.0527327311
 21
589.7060576644
  0
LINE
  5
4DC
100
AcDbEntity
  8
0
100
AcDbLine
 62
7
  6
CONTINUOUS
 10
124.9171180398
 20
589.9740860932
 11
124.6515011779
 21
589.9740860932
  0
LINE
  5
4DD
100
AcDbEntity
  8
0
100
AcDbLine
 62
7
  6
CONTINUOUS
 10
128.3863291935
 20
590.7740372648
 11
127.0527327311
 21
590.7740372648
  0
LINE
  5
4DE
100
AcDbEntity
  8
0
100
AcDbLine
 62
7
  6
CONTINUOUS
 10
125.9850976403
 20
591.0393096172
 11
124.6515011779
 21
591.0393096172
  0
LINE
  5
4DF
100
AcDbEntity
  8
0
100
AcDbLine
 62
7
  6
CONTINUOUS
 10
981.8782465691
 20
588.0431100737
 11
944.8069520905
 21
588.3111385024
  0
LINE
  5
4E0
100
AcDbEntity
  8
0
100
AcDbLine
 62
7
  6
CONTINUOUS
 10
128.3863291935
 20
589.4404408025
 11
132.3867740709
 21
589.1748239406
  0
LINE
  5
4E1
100
AcDbEntity
  8
0
100
AcDbLine
 62
7
  6
CONTINUOUS
 10
132.3867740709
 20
590.5080758934
 11
128.3863291935
 21
590.7740372648
  0
LINE
  5
4E2
100
AcDbEntity
  8
0
100
AcDbLine
 62
7
  6
CONTINUOUS
 10
82.5110932023
 20
596.373350957
 11
79.3130110634
 21
596.6417238953
  0
LINE
  5
4E3
100
AcDbEntity
  8
0
100
AcDbLine
 62
7
  6
CONTINUOUS
 10
79.3130110634
 20
596.6417238953
 11
76.3802012768
 21
596.9073407572
  0
LINE
  5
4E4
100
AcDbEntity
  8
0
100
AcDbLine
 62
7
  6
CONTINUOUS
 10
79.8442447872
 20
595.308127433
 11
82.7794661406
 21
595.0400990042
  0
LINE
  5
4E5
100
AcDbEntity
  8
0
100
AcDbLine
 62
7
  6
CONTINUOUS
 10
107.3161252057
 20
592.6412790178
 11
95.0491737114
 21
593.9745309706
  0
LINE
  5
4E6
100
AcDbEntity
  8
0
100
AcDbLine
 62
7
  6
CONTINUOUS
 10
74.5102034474
 20
596.1077340951
 11
76.9117795102
 21
595.8421172332
  0
LINE
  5
4E7
100
AcDbEntity
  8
0
100
AcDbLine
 62
7
  6
CONTINUOUS
 10
65.7097070303
 20
598.2409372196
 11
68.1112830931
 21
597.9753203577
  0
LINE
  5
4E8
100
AcDbEntity
  8
0
100
AcDbLine
 62
7
  6
CONTINUOUS
 10
69.1765066171
 20
596.6417238953
 11
66.7776866307
 21
596.9073407572
  0
LINE
  5
4E9
100
AcDbEntity
  8
0
100
AcDbLine
 62
7
  6
CONTINUOUS
 10
81.7142426166
 20
594.2404923421
 11
79.3130110634
 21
594.5085207708
  0
LINE
  5
4EA
100
AcDbEntity
  8
0
100
AcDbLine
 62
7
  6
CONTINUOUS
 10
110.7825802829
 20
591.5732994174
 11
124.9171180398
 21
589.9740860932
  0
LINE
  5
4EB
100
AcDbEntity
  8
0
100
AcDbLine
 62
7
  6
CONTINUOUS
 10
110.5145518542
 20
592.9068958798
 11
96.3827701737
 21
594.5085207708
  0
LINE
  5
4EC
100
AcDbEntity
  8
0
100
AcDbLine
 62
7
  6
CONTINUOUS
 10
112.6501665455
 20
590.5080758934
 11
84.6470524032
 21
593.7065025419
  0
LINE
  5
4ED
100
AcDbEntity
  8
0
100
AcDbLine
 62
7
  6
CONTINUOUS
 10
82.7794661406
 20
595.0400990042
 11
96.6483870356
 21
593.44088568
  0
LINE
  5
4EE
100
AcDbEntity
  8
0
100
AcDbLine
 62
7
  6
CONTINUOUS
 10
124.9171180398
 20
590.5080758934
 11
107.3161252057
 21
592.6412790178
  0
LINE
  5
4EF
100
AcDbEntity
  8
0
100
AcDbLine
 62
7
  6
CONTINUOUS
 10
125.7194807783
 20
613.7087269292
 11
124.1175113777
 21
613.9770998675
  0
LINE
  5
4F0
100
AcDbEntity
  8
0
100
AcDbLine
 62
7
  6
CONTINUOUS
 10
260.471979117
 20
1357.5165555193
 11
260.2297889044
 21
1358.3292535443
  0
LINE
  5
4F1
100
AcDbEntity
  8
0
100
AcDbLine
 62
7
  6
CONTINUOUS
 10
252.0463090888
 20
1370.1717692748
 11
252.2809200913
 21
1369.3644111479
  0
LINE
  5
4F2
100
AcDbEntity
  8
0
100
AcDbLine
 62
7
  6
CONTINUOUS
 10
416.4197384097
 20
1042.5638592005
 11
416.6853552716
 21
1040.6964451927
  0
LINE
  5
4F3
100
AcDbEntity
  8
0
100
AcDbLine
 62
7
  6
CONTINUOUS
 10
440.9536413983
 20
1087.3688762791
 11
444.1544796137
 21
1058.0318211649
  0
LINE
  5
4F4
100
AcDbEntity
  8
0
100
AcDbLine
 62
7
  6
CONTINUOUS
 10
445.488076076
 20
1058.2974380269
 11
442.2872378607
 21
1087.6344931411
  0
LINE
  5
4F5
100
AcDbEntity
  8
0
100
AcDbLine
 62
7
  6
CONTINUOUS
 10
444.6884694139
 20
1073.2341662675
 11
444.9540862758
 21
1070.5673178524
  0
LINE
  5
4F6
100
AcDbEntity
  8
0
100
AcDbLine
 62
7
  6
CONTINUOUS
 10
444.422852552
 20
1055.6305896117
 11
444.9540862758
 21
1050.03093141
  0
LINE
  5
4F7
100
AcDbEntity
  8
0
100
AcDbLine
 62
7
  6
CONTINUOUS
 10
444.422852552
 20
1076.1669760541
 11
444.6884694139
 21
1073.2341662675
  0
LINE
  5
4F8
100
AcDbEntity
  8
0
100
AcDbLine
 62
7
  6
CONTINUOUS
 10
693.5735360834
 20
1153.4442573933
 11
691.972944721
 21
1149.7094293777
  0
LINE
  5
4F9
100
AcDbEntity
  8
0
100
AcDbLine
 62
7
  6
CONTINUOUS
 10
691.972944721
 20
1149.7094293777
 11
691.7073278591
 21
1149.1754395775
  0
LINE
  5
4FA
100
AcDbEntity
  8
0
100
AcDbLine
 62
7
  6
CONTINUOUS
 10
686.6390756359
 20
1114.2390707711
 11
686.3732865193
 21
1113.7050809709
  0
LINE
  5
4FB
100
AcDbEntity
  8
0
100
AcDbLine
 62
7
  6
CONTINUOUS
 10
686.9058982813
 20
1119.0391223107
 11
686.3732865193
 21
1117.9711427103
  0
LINE
  5
4FC
100
AcDbEntity
  8
0
100
AcDbLine
 62
7
  6
CONTINUOUS
 10
686.9058982813
 20
1115.3042942952
 11
686.6390756359
 21
1114.7703044949
  0
LINE
  5
4FD
100
AcDbEntity
  8
0
100
AcDbLine
 62
7
  6
CONTINUOUS
 10
691.7073278591
 20
1148.6416220321
 11
691.1735103136
 21
1147.5738146864
  0
LINE
  5
4FE
100
AcDbEntity
  8
0
100
AcDbLine
 62
7
  6
CONTINUOUS
 10
704.241618763
 20
1116.1039009573
 11
703.9746238629
 21
1115.5724949787
  0
LINE
  5
4FF
100
AcDbEntity
  8
0
100
AcDbLine
 62
7
  6
CONTINUOUS
 10
411.8825476556
 20
628.1116376244
 11
412.4189490226
 21
628.9112442866
  0
LINE
  5
500
100
AcDbEntity
  8
0
100
AcDbLine
 62
7
  6
CONTINUOUS
 10
411.6169307937
 20
621.7099611937
 11
411.8825476556
 21
621.978334132
  0
LINE
  5
501
100
AcDbEntity
  8
0
100
AcDbLine
 62
7
  6
CONTINUOUS
 10
416.4197384097
 20
621.7099611937
 11
416.6853552716
 21
621.978334132
  0
LINE
  5
502
100
AcDbEntity
  8
0
100
AcDbLine
 62
7
  6
CONTINUOUS
 10
381.7489864652
 20
621.978334132
 11
382.0146033271
 21
622.2439509939
  0
LINE
  5
503
100
AcDbEntity
  8
0
100
AcDbLine
 62
7
  6
CONTINUOUS
 10
416.9509721335
 20
628.6456274246
 11
417.2165889954
 21
628.9112442866
  0
LINE
  5
504
100
AcDbEntity
  8
0
100
AcDbLine
 62
7
  6
CONTINUOUS
 10
412.4189490226
 20
622.7775962846
 11
412.6849103941
 21
623.0435576561
  0
LINE
  5
505
100
AcDbEntity
  8
0
100
AcDbLine
 62
7
  6
CONTINUOUS
 10
411.3513139318
 20
621.4443443318
 11
411.6169307937
 21
621.7099611937
  0
LINE
  5
506
100
AcDbEntity
  8
0
100
AcDbLine
 62
7
  6
CONTINUOUS
 10
416.6853552716
 20
621.978334132
 11
416.9509721335
 21
622.2439509939
  0
LINE
  5
507
100
AcDbEntity
  8
0
100
AcDbLine
 62
7
  6
CONTINUOUS
 10
129.7199256558
 20
562.2362443032
 11
130.2511593796
 21
562.5046172415
  0
LINE
  5
508
100
AcDbEntity
  8
0
100
AcDbLine
 62
7
  6
CONTINUOUS
 10
128.6519460554
 20
565.9714168283
 11
129.1831797792
 21
566.2370336902
  0
LINE
  5
509
100
AcDbEntity
  8
0
100
AcDbLine
 62
7
  6
CONTINUOUS
 10
79.5786279253
 20
611.8442412526
 11
78.7790212632
 21
611.5758683143
  0
LINE
  5
50A
100
AcDbEntity
  8
0
100
AcDbLine
 62
7
  6
CONTINUOUS
 10
80.3806461543
 20
612.9094647767
 11
79.5786279253
 21
612.6435034052
  0
LINE
  5
50B
100
AcDbEntity
  8
0
100
AcDbLine
 62
7
  6
CONTINUOUS
 10
81.7142426166
 20
612.1098581145
 11
80.9122243876
 21
611.8442412526
  0
LINE
  5
50C
100
AcDbEntity
  8
0
100
AcDbLine
 62
7
  6
CONTINUOUS
 10
77.4454248008
 20
606.5101999128
 11
80.6462630162
 21
606.7758167747
  0
LINE
  5
50D
100
AcDbEntity
  8
0
100
AcDbLine
 62
7
  6
CONTINUOUS
 10
82.5110932023
 20
606.7758167747
 11
103.3156803282
 21
608.1094132371
  0
LINE
  5
50E
100
AcDbEntity
  8
0
100
AcDbLine
 62
7
  6
CONTINUOUS
 10
104.1152869903
 20
611.5758683143
 11
83.3134559409
 21
610.242271852
  0
LINE
  5
50F
100
AcDbEntity
  8
0
100
AcDbLine
 62
7
  6
CONTINUOUS
 10
847.7277786664
 20
610.1809491523
 11
843.1933439887
 21
609.9129207236
  0
LINE
  5
510
100
AcDbEntity
  8
0
100
AcDbLine
 62
7
  6
CONTINUOUS
 10
843.1933439887
 20
610.7125273857
 11
847.7277786664
 21
610.9805558145
  0
LINE
  5
511
100
AcDbEntity
  8
0
100
AcDbLine
 62
7
  6
CONTINUOUS
 10
796.2535734926
 20
612.5797691387
 11
791.7205168532
 21
612.3141522768
  0
LINE
  5
512
100
AcDbEntity
  8
0
100
AcDbLine
 62
7
  6
CONTINUOUS
 10
784.2520666055
 20
612.0461238481
 11
755.4488290367
 21
610.4469105238
  0
LINE
  5
513
100
AcDbEntity
  8
0
100
AcDbLine
 62
7
  6
CONTINUOUS
 10
786.9190872754
 20
612.0461238481
 11
755.9814407987
 21
610.4469105238
  0
LINE
  5
514
100
AcDbEntity
  8
0
100
AcDbLine
 62
7
  6
CONTINUOUS
 10
861.8624886781
 20
613.9133656011
 11
856.2614524382
 21
613.6477487392
  0
LINE
  5
515
100
AcDbEntity
  8
0
100
AcDbLine
 62
7
  6
CONTINUOUS
 10
833.5918628713
 20
613.9133656011
 11
796.2535734926
 21
612.5797691387
  0
LINE
  5
516
100
AcDbEntity
  8
0
100
AcDbLine
 62
7
  6
CONTINUOUS
 10
820.2567595218
 20
609.6473038617
 11
797.3201750549
 21
608.8476971996
  0
LINE
  5
517
100
AcDbEntity
  8
0
100
AcDbLine
 62
7
  6
CONTINUOUS
 10
786.3864755133
 20
608.045334461
 11
823.7245926373
 21
609.1133140615
  0
LINE
  5
518
100
AcDbEntity
  8
0
100
AcDbLine
 62
7
  6
CONTINUOUS
 10
823.7245926373
 20
605.6465144747
 11
786.1194806132
 21
604.5788793838
  0
LINE
  5
519
100
AcDbEntity
  8
0
100
AcDbLine
 62
7
  6
CONTINUOUS
 10
828.2578215315
 20
612.3141522768
 11
797.8539926003
 21
611.5145456147
  0
LINE
  5
51A
100
AcDbEntity
  8
0
100
AcDbLine
 62
7
  6
CONTINUOUS
 10
117.9842078853
 20
616.110302992
 11
107.5817420676
 21
615.8446861301
  0
LINE
  5
51B
100
AcDbEntity
  8
0
100
AcDbLine
 62
7
  6
CONTINUOUS
 10
125.7194807783
 20
612.1098581145
 11
104.1152869903
 21
611.5758683143
  0
LINE
  5
51C
100
AcDbEntity
  8
0
100
AcDbLine
 62
7
  6
CONTINUOUS
 10
850.3947993363
 20
613.6477487392
 11
839.1928991113
 21
613.3793758009
  0
LINE
  5
51D
100
AcDbEntity
  8
0
100
AcDbLine
 62
7
  6
CONTINUOUS
 10
797.3201750549
 20
609.6473038617
 11
843.1933439887
 21
610.7125273857
  0
LINE
  5
51E
100
AcDbEntity
  8
0
100
AcDbLine
 62
7
  6
CONTINUOUS
 10
797.3201750549
 20
610.7125273857
 11
843.1933439887
 21
611.7801624766
  0
LINE
  5
51F
100
AcDbEntity
  8
0
100
AcDbLine
 62
7
  6
CONTINUOUS
 10
858.661478208
 20
612.848142077
 11
828.2578215315
 21
612.3141522768
  0
LINE
  5
520
100
AcDbEntity
  8
0
100
AcDbLine
 62
7
  6
CONTINUOUS
 10
883.9982606994
 20
610.4469105238
 11
865.8629335555
 21
610.1809491523
  0
LINE
  5
521
100
AcDbEntity
  8
0
100
AcDbLine
 62
7
  6
CONTINUOUS
 10
865.8629335555
 20
610.9805558145
 11
883.9982606994
 21
611.2461726764
  0
LINE
  5
522
100
AcDbEntity
  8
0
100
AcDbLine
 62
7
  6
CONTINUOUS
 10
861.3284988779
 20
606.1805042749
 11
823.7245926373
 21
605.6465144747
  0
LINE
  5
523
100
AcDbEntity
  8
0
100
AcDbLine
 62
7
  6
CONTINUOUS
 10
823.7245926373
 20
609.1133140615
 11
861.3284988779
 21
609.6473038617
  0
LINE
  5
524
100
AcDbEntity
  8
0
100
AcDbLine
 62
7
  6
CONTINUOUS
 10
871.1969748954
 20
614.4473554013
 11
833.5918628713
 21
613.9133656011
  0
LINE
  5
525
100
AcDbEntity
  8
0
100
AcDbLine
 62
7
  6
CONTINUOUS
 10
103.3156803282
 20
608.1094132371
 11
124.6515011779
 21
608.375030099
  0
LINE
  5
526
100
AcDbEntity
  8
0
100
AcDbLine
 62
7
  6
CONTINUOUS
 10
843.1933439887
 20
609.9129207236
 11
820.2567595218
 21
609.6473038617
  0
LINE
  5
527
100
AcDbEntity
  8
0
100
AcDbLine
 62
7
  6
CONTINUOUS
 10
843.1933439887
 20
611.7801624766
 11
889.0665129226
 21
612.3141522768
  0
LINE
  5
528
100
AcDbEntity
  8
0
100
AcDbLine
 62
7
  6
CONTINUOUS
 10
865.0633268934
 20
596.3123727669
 11
841.060313119
 21
596.0439998286
  0
LINE
  5
529
100
AcDbEntity
  8
0
100
AcDbLine
 62
7
  6
CONTINUOUS
 10
813.5892939744
 20
596.0439998286
 11
786.3864755133
 21
595.7783829667
  0
LINE
  5
52A
100
AcDbEntity
  8
0
100
AcDbLine
 62
7
  6
CONTINUOUS
 10
861.3284988779
 20
609.6473038617
 11
889.0665129226
 21
609.9129207236
  0
LINE
  5
52B
100
AcDbEntity
  8
0
100
AcDbLine
 62
7
  6
CONTINUOUS
 10
786.6520923753
 20
594.7104033663
 11
845.0607579965
 21
595.2443931665
  0
LINE
  5
52C
100
AcDbEntity
  8
0
100
AcDbLine
 62
7
  6
CONTINUOUS
 10
845.0607579965
 20
595.5127661048
 11
786.3864755133
 21
594.9787763046
  0
LINE
  5
52D
100
AcDbEntity
  8
0
100
AcDbLine
 62
7
  6
CONTINUOUS
 10
786.1194806132
 20
596.3123727669
 11
845.0607579965
 21
596.8460180576
  0
LINE
  5
52E
100
AcDbEntity
  8
0
100
AcDbLine
 62
7
  6
CONTINUOUS
 10
889.0665129226
 20
613.1137589389
 11
858.661478208
 21
612.848142077
  0
LINE
  5
52F
100
AcDbEntity
  8
0
100
AcDbLine
 62
7
  6
CONTINUOUS
 10
997.3463807883
 20
593.3771514135
 11
991.4797276865
 21
593.3771514135
  0
LINE
  5
530
100
AcDbEntity
  8
0
100
AcDbLine
 62
7
  6
CONTINUOUS
 10
768.249942586
 20
593.3771514135
 11
767.717330824
 21
593.3771514135
  0
LINE
  5
531
100
AcDbEntity
  8
0
100
AcDbLine
 62
7
  6
CONTINUOUS
 10
780.7854392734
 20
593.3771514135
 11
786.9190872754
 21
593.3771514135
  0
LINE
  5
532
100
AcDbEntity
  8
0
100
AcDbLine
 62
7
  6
CONTINUOUS
 10
1010.1488723758
 20
593.3771514135
 11
1010.4156950211
 21
593.3771514135
  0
LINE
  5
533
100
AcDbEntity
  8
0
100
AcDbLine
 62
7
  6
CONTINUOUS
 10
767.4503359239
 20
593.6451798422
 11
767.1833410238
 21
593.6451798422
  0
LINE
  5
534
100
AcDbEntity
  8
0
100
AcDbLine
 62
7
  6
CONTINUOUS
 10
1010.6814841378
 20
593.6451798422
 11
1010.9484790379
 21
593.6451798422
  0
LINE
  5
535
100
AcDbEntity
  8
0
100
AcDbLine
 62
7
  6
CONTINUOUS
 10
815.9893197442
 20
593.9107967042
 11
845.0607579965
 21
593.9107967042
  0
LINE
  5
536
100
AcDbEntity
  8
0
100
AcDbLine
 62
7
  6
CONTINUOUS
 10
933.0722678486
 20
593.9107967042
 11
962.1425003175
 21
593.9107967042
  0
LINE
  5
537
100
AcDbEntity
  8
0
100
AcDbLine
 62
7
  6
CONTINUOUS
 10
874.3979853655
 20
594.1791696425
 11
903.7352127344
 21
594.1791696425
  0
LINE
  5
538
100
AcDbEntity
  8
0
100
AcDbLine
 62
7
  6
CONTINUOUS
 10
994.9463550185
 20
594.7104033663
 11
991.4797276865
 21
594.7104033663
  0
LINE
  5
539
100
AcDbEntity
  8
0
100
AcDbLine
 62
7
  6
CONTINUOUS
 10
779.7188377112
 20
594.7104033663
 11
776.784994396
 21
594.7104033663
  0
LINE
  5
53A
100
AcDbEntity
  8
0
100
AcDbLine
 62
7
  6
CONTINUOUS
 10
783.1854650432
 20
594.7104033663
 11
786.6520923753
 21
594.7104033663
  0
LINE
  5
53B
100
AcDbEntity
  8
0
100
AcDbLine
 62
7
  6
CONTINUOUS
 10
998.414188134
 20
594.7104033663
 11
1001.3468256658
 21
594.7104033663
  0
LINE
  5
53C
100
AcDbEntity
  8
0
100
AcDbLine
 62
7
  6
CONTINUOUS
 10
786.3864755133
 20
594.9787763046
 11
782.9184701431
 21
594.9787763046
  0
LINE
  5
53D
100
AcDbEntity
  8
0
100
AcDbLine
 62
7
  6
CONTINUOUS
 10
991.7467225866
 20
594.9787763046
 11
995.2133499186
 21
594.9787763046
  0
LINE
  5
53E
100
AcDbEntity
  8
0
100
AcDbLine
 62
7
  6
CONTINUOUS
 10
75.3125661859
 20
595.0400990042
 11
73.7133528617
 21
595.0400990042
  0
LINE
  5
53F
100
AcDbEntity
  8
0
100
AcDbLine
 62
7
  6
CONTINUOUS
 10
845.0607579965
 20
595.2443931665
 11
933.0722678486
 21
595.2443931665
  0
LINE
  5
540
100
AcDbEntity
  8
0
100
AcDbLine
 62
7
  6
CONTINUOUS
 10
933.0722678486
 20
595.5127661048
 11
845.0607579965
 21
595.5127661048
  0
LINE
  5
541
100
AcDbEntity
  8
0
100
AcDbLine
 62
7
  6
CONTINUOUS
 10
69.7129079842
 20
595.5737442949
 11
71.3121213084
 21
595.5737442949
  0
LINE
  5
542
100
AcDbEntity
  8
0
100
AcDbLine
 62
7
  6
CONTINUOUS
 10
1005.0818259361
 20
595.7783829667
 11
1002.1478103661
 21
595.7783829667
  0
LINE
  5
543
100
AcDbEntity
  8
0
100
AcDbLine
 62
7
  6
CONTINUOUS
 10
773.0513721638
 20
595.7783829667
 11
775.9840096956
 21
595.7783829667
  0
LINE
  5
544
100
AcDbEntity
  8
0
100
AcDbLine
 62
7
  6
CONTINUOUS
 10
68.6449283838
 20
595.8421172332
 11
68.9105452457
 21
595.8421172332
  0
LINE
  5
545
100
AcDbEntity
  8
0
100
AcDbLine
 62
7
  6
CONTINUOUS
 10
841.060313119
 20
596.0439998286
 11
813.5892939744
 21
596.0439998286
  0
LINE
  5
546
100
AcDbEntity
  8
0
100
AcDbLine
 62
7
  6
CONTINUOUS
 10
995.4801725639
 20
596.3123727669
 11
992.0123394485
 21
596.3123727669
  0
LINE
  5
547
100
AcDbEntity
  8
0
100
AcDbLine
 62
7
  6
CONTINUOUS
 10
889.0665129226
 20
596.3123727669
 11
865.0633268934
 21
596.3123727669
  0
LINE
  5
548
100
AcDbEntity
  8
0
100
AcDbLine
 62
7
  6
CONTINUOUS
 10
782.6516474978
 20
596.3123727669
 11
786.1194806132
 21
596.3123727669
  0
LINE
  5
549
100
AcDbEntity
  8
0
100
AcDbLine
 62
7
  6
CONTINUOUS
 10
70.7781315082
 20
596.373350957
 11
72.3797563993
 21
596.373350957
  0
LINE
  5
54A
100
AcDbEntity
  8
0
100
AcDbLine
 62
7
  6
CONTINUOUS
 10
68.9105452457
 20
596.6417238953
 11
69.7129079842
 21
596.6417238953
  0
LINE
  5
54B
100
AcDbEntity
  8
0
100
AcDbLine
 62
7
  6
CONTINUOUS
 10
845.0607579965
 20
596.8460180576
 11
933.3378847105
 21
596.8460180576
  0
LINE
  5
54C
100
AcDbEntity
  8
0
100
AcDbLine
 62
7
  6
CONTINUOUS
 10
65.1760617397
 20
597.1757136955
 11
64.3764550775
 21
597.1757136955
  0
LINE
  5
54D
100
AcDbEntity
  8
0
100
AcDbLine
 62
7
  6
CONTINUOUS
 10
73.7133528617
 20
597.4413305574
 11
71.5777381703
 21
597.4413305574
  0
LINE
  5
54E
100
AcDbEntity
  8
0
100
AcDbLine
 62
7
  6
CONTINUOUS
 10
64.1108382156
 20
597.4413305574
 11
63.5768484154
 21
597.4413305574
  0
LINE
  5
54F
100
AcDbEntity
  8
0
100
AcDbLine
 62
7
  6
CONTINUOUS
 10
68.6449283838
 20
597.9753203577
 11
68.1112830931
 21
597.9753203577
  0
LINE
  5
550
100
AcDbEntity
  8
0
100
AcDbLine
 62
7
  6
CONTINUOUS
 10
63.0428586152
 20
598.5089656483
 11
63.8424652773
 21
598.5089656483
  0
LINE
  5
551
100
AcDbEntity
  8
0
100
AcDbLine
 62
7
  6
CONTINUOUS
 10
782.3858583811
 20
604.3132625219
 11
775.4513979336
 21
604.3132625219
  0
LINE
  5
552
100
AcDbEntity
  8
0
100
AcDbLine
 62
7
  6
CONTINUOUS
 10
995.747167464
 20
604.3132625219
 11
1002.6804221281
 21
604.3132625219
  0
LINE
  5
553
100
AcDbEntity
  8
0
100
AcDbLine
 62
7
  6
CONTINUOUS
 10
767.717330824
 20
605.112869184
 11
766.9163461237
 21
605.112869184
  0
LINE
  5
554
100
AcDbEntity
  8
0
100
AcDbLine
 62
7
  6
CONTINUOUS
 10
1010.4156950211
 20
605.112869184
 11
1011.2153016833
 21
605.112869184
  0
LINE
  5
555
100
AcDbEntity
  8
0
100
AcDbLine
 62
7
  6
CONTINUOUS
 10
68.6449283838
 20
605.9762101126
 11
71.8433550323
 21
605.9762101126
  0
LINE
  5
556
100
AcDbEntity
  8
0
100
AcDbLine
 62
7
  6
CONTINUOUS
 10
912.8027040516
 20
606.1805042749
 11
861.3284988779
 21
606.1805042749
  0
LINE
  5
557
100
AcDbEntity
  8
0
100
AcDbLine
 62
7
  6
CONTINUOUS
 10
753.3144201288
 20
606.7117379987
 11
752.2478185666
 21
606.7117379987
  0
LINE
  5
558
100
AcDbEntity
  8
0
100
AcDbLine
 62
7
  6
CONTINUOUS
 10
1025.0837058139
 20
606.7117379987
 11
1025.883312476
 21
606.7117379987
  0
LINE
  5
559
100
AcDbEntity
  8
0
100
AcDbLine
 62
7
  6
CONTINUOUS
 10
80.6462630162
 20
606.7758167747
 11
82.5110932023
 21
606.7758167747
  0
LINE
  5
55A
100
AcDbEntity
  8
0
100
AcDbLine
 62
7
  6
CONTINUOUS
 10
998.1471932338
 20
607.7797175991
 11
994.9463550185
 21
607.7797175991
  0
LINE
  5
55B
100
AcDbEntity
  8
0
100
AcDbLine
 62
7
  6
CONTINUOUS
 10
779.9846268279
 20
607.7797175991
 11
783.1854650432
 21
607.7797175991
  0
LINE
  5
55C
100
AcDbEntity
  8
0
100
AcDbLine
 62
7
  6
CONTINUOUS
 10
63.3112315535
 20
607.8437963752
 11
63.0428586152
 21
607.8437963752
  0
LINE
  5
55D
100
AcDbEntity
  8
0
100
AcDbLine
 62
7
  6
CONTINUOUS
 10
1003.4812345737
 20
608.045334461
 11
1001.0812088039
 21
608.045334461
  0
LINE
  5
55E
100
AcDbEntity
  8
0
100
AcDbLine
 62
7
  6
CONTINUOUS
 10
774.6505854881
 20
608.045334461
 11
777.317606158
 21
608.045334461
  0
LINE
  5
55F
100
AcDbEntity
  8
0
100
AcDbLine
 62
7
  6
CONTINUOUS
 10
124.6515011779
 20
608.375030099
 11
133.1836246567
 21
608.375030099
  0
LINE
  5
560
100
AcDbEntity
  8
0
100
AcDbLine
 62
7
  6
CONTINUOUS
 10
769.3165441483
 20
608.5793242613
 11
770.6499683558
 21
608.5793242613
  0
LINE
  5
561
100
AcDbEntity
  8
0
100
AcDbLine
 62
7
  6
CONTINUOUS
 10
1007.4818517059
 20
608.5793242613
 11
1008.8152759135
 21
608.5793242613
  0
LINE
  5
562
100
AcDbEntity
  8
0
100
AcDbLine
 62
7
  6
CONTINUOUS
 10
797.3201750549
 20
608.8476971996
 11
794.120542623
 21
608.8476971996
  0
LINE
  5
563
100
AcDbEntity
  8
0
100
AcDbLine
 62
7
  6
CONTINUOUS
 10
980.8116450068
 20
608.8476971996
 11
984.0112774388
 21
608.8476971996
  0
LINE
  5
564
100
AcDbEntity
  8
0
100
AcDbLine
 62
7
  6
CONTINUOUS
 10
793.8535477229
 20
609.3789309234
 11
793.3195579226
 21
609.3789309234
  0
LINE
  5
565
100
AcDbEntity
  8
0
100
AcDbLine
 62
7
  6
CONTINUOUS
 10
984.2782723389
 20
609.3789309234
 11
985.0790847844
 21
609.3789309234
  0
LINE
  5
566
100
AcDbEntity
  8
0
100
AcDbLine
 62
7
  6
CONTINUOUS
 10
72.9113346327
 20
609.4426651899
 11
71.5777381703
 21
609.4426651899
  0
LINE
  5
567
100
AcDbEntity
  8
0
100
AcDbLine
 62
7
  6
CONTINUOUS
 10
984.8120898843
 20
609.6473038617
 11
984.2782723389
 21
609.6473038617
  0
LINE
  5
568
100
AcDbEntity
  8
0
100
AcDbLine
 62
7
  6
CONTINUOUS
 10
983.2116707766
 20
609.6473038617
 11
980.8116450068
 21
609.6473038617
  0
LINE
  5
569
100
AcDbEntity
  8
0
100
AcDbLine
 62
7
  6
CONTINUOUS
 10
794.120542623
 20
609.6473038617
 11
793.5865528227
 21
609.6473038617
  0
LINE
  5
56A
100
AcDbEntity
  8
0
100
AcDbLine
 62
7
  6
CONTINUOUS
 10
794.9201492851
 20
609.6473038617
 11
797.3201750549
 21
609.6473038617
  0
LINE
  5
56B
100
AcDbEntity
  8
0
100
AcDbLine
 62
7
  6
CONTINUOUS
 10
76.6458181387
 20
609.7082820518
 11
74.5102034474
 21
609.7082820518
  0
LINE
  5
56C
100
AcDbEntity
  8
0
100
AcDbLine
 62
7
  6
CONTINUOUS
 10
984.2782723389
 20
609.9129207236
 11
983.7456605769
 21
609.9129207236
  0
LINE
  5
56D
100
AcDbEntity
  8
0
100
AcDbLine
 62
7
  6
CONTINUOUS
 10
793.8535477229
 20
609.9129207236
 11
794.3875375231
 21
609.9129207236
  0
LINE
  5
56E
100
AcDbEntity
  8
0
100
AcDbLine
 62
7
  6
CONTINUOUS
 10
865.8629335555
 20
610.1809491523
 11
847.7277786664
 21
610.1809491523
  0
LINE
  5
56F
100
AcDbEntity
  8
0
100
AcDbLine
 62
7
  6
CONTINUOUS
 10
794.3875375231
 20
610.1809491523
 11
794.120542623
 21
610.1809491523
  0
LINE
  5
570
100
AcDbEntity
  8
0
100
AcDbLine
 62
7
  6
CONTINUOUS
 10
755.7158239368
 20
610.1809491523
 11
755.1818341366
 21
610.1809491523
  0
LINE
  5
571
100
AcDbEntity
  8
0
100
AcDbLine
 62
7
  6
CONTINUOUS
 10
912.5357091515
 20
610.1809491523
 11
930.6710362954
 21
610.1809491523
  0
LINE
  5
572
100
AcDbEntity
  8
0
100
AcDbLine
 62
7
  6
CONTINUOUS
 10
1022.4170296536
 20
610.1809491523
 11
1022.9496414156
 21
610.1809491523
  0
LINE
  5
573
100
AcDbEntity
  8
0
100
AcDbLine
 62
7
  6
CONTINUOUS
 10
83.3134559409
 20
610.242271852
 11
81.7142426166
 21
610.242271852
  0
LINE
  5
574
100
AcDbEntity
  8
0
100
AcDbLine
 62
7
  6
CONTINUOUS
 10
1023.483458961
 20
610.4469105238
 11
1021.8830398533
 21
610.4469105238
  0
LINE
  5
575
100
AcDbEntity
  8
0
100
AcDbLine
 62
7
  6
CONTINUOUS
 10
794.3875375231
 20
610.4469105238
 11
794.120542623
 21
610.4469105238
  0
LINE
  5
576
100
AcDbEntity
  8
0
100
AcDbLine
 62
7
  6
CONTINUOUS
 10
755.7158239368
 20
610.4469105238
 11
756.5152583442
 21
610.4469105238
  0
LINE
  5
577
100
AcDbEntity
  8
0
100
AcDbLine
 62
7
  6
CONTINUOUS
 10
883.9982606994
 20
610.4469105238
 11
894.4005542624
 21
610.4469105238
  0
LINE
  5
578
100
AcDbEntity
  8
0
100
AcDbLine
 62
7
  6
CONTINUOUS
 10
73.7133528617
 20
610.5106447903
 11
75.3125661859
 21
610.5106447903
  0
LINE
  5
579
100
AcDbEntity
  8
0
100
AcDbLine
 62
7
  6
CONTINUOUS
 10
982.9446758765
 20
610.7125273857
 11
980.8116450068
 21
610.7125273857
  0
LINE
  5
57A
100
AcDbEntity
  8
0
100
AcDbLine
 62
7
  6
CONTINUOUS
 10
794.3875375231
 20
610.7125273857
 11
797.3201750549
 21
610.7125273857
  0
LINE
  5
57B
100
AcDbEntity
  8
0
100
AcDbLine
 62
7
  6
CONTINUOUS
 10
983.2116707766
 20
610.7125273857
 11
983.7456605769
 21
610.7125273857
  0
LINE
  5
57C
100
AcDbEntity
  8
0
100
AcDbLine
 62
7
  6
CONTINUOUS
 10
74.5102034474
 20
610.7762616522
 11
74.2445865855
 21
610.7762616522
  0
LINE
  5
57D
100
AcDbEntity
  8
0
100
AcDbLine
 62
7
  6
CONTINUOUS
 10
930.4052471787
 20
610.9805558145
 11
912.2688865062
 21
610.9805558145
  0
LINE
  5
57E
100
AcDbEntity
  8
0
100
AcDbLine
 62
7
  6
CONTINUOUS
 10
795.1871441852
 20
610.9805558145
 11
794.653154385
 21
610.9805558145
  0
LINE
  5
57F
100
AcDbEntity
  8
0
100
AcDbLine
 62
7
  6
CONTINUOUS
 10
847.7277786664
 20
610.9805558145
 11
865.8629335555
 21
610.9805558145
  0
LINE
  5
580
100
AcDbEntity
  8
0
100
AcDbLine
 62
7
  6
CONTINUOUS
 10
982.9446758765
 20
610.9805558145
 11
983.4786656767
 21
610.9805558145
  0
LINE
  5
581
100
AcDbEntity
  8
0
100
AcDbLine
 62
7
  6
CONTINUOUS
 10
78.245031463
 20
611.0418785141
 11
79.8442447872
 21
611.0418785141
  0
LINE
  5
582
100
AcDbEntity
  8
0
100
AcDbLine
 62
7
  6
CONTINUOUS
 10
982.6778532312
 20
611.2461726764
 11
981.8782465691
 21
611.2461726764
  0
LINE
  5
583
100
AcDbEntity
  8
0
100
AcDbLine
 62
7
  6
CONTINUOUS
 10
796.2535734926
 20
611.2461726764
 11
795.4539668305
 21
611.2461726764
  0
LINE
  5
584
100
AcDbEntity
  8
0
100
AcDbLine
 62
7
  6
CONTINUOUS
 10
883.9982606994
 20
611.2461726764
 11
894.4005542624
 21
611.2461726764
  0
LINE
  5
585
100
AcDbEntity
  8
0
100
AcDbLine
 62
7
  6
CONTINUOUS
 10
75.8437999097
 20
611.3102514524
 11
74.5102034474
 21
611.3102514524
  0
LINE
  5
586
100
AcDbEntity
  8
0
100
AcDbLine
 62
7
  6
CONTINUOUS
 10
797.8539926003
 20
611.5145456147
 11
797.054558193
 21
611.5145456147
  0
LINE
  5
587
100
AcDbEntity
  8
0
100
AcDbLine
 62
7
  6
CONTINUOUS
 10
976.2772103292
 20
611.5145456147
 11
981.0786399069
 21
611.5145456147
  0
LINE
  5
588
100
AcDbEntity
  8
0
100
AcDbLine
 62
7
  6
CONTINUOUS
 10
78.7790212632
 20
611.5758683143
 11
76.9117795102
 21
611.5758683143
  0
LINE
  5
589
100
AcDbEntity
  8
0
100
AcDbLine
 62
7
  6
CONTINUOUS
 10
82.5110932023
 20
611.5758683143
 11
83.3134559409
 21
611.5758683143
  0
LINE
  5
58A
100
AcDbEntity
  8
0
100
AcDbLine
 62
7
  6
CONTINUOUS
 10
125.45110784
 20
611.8442412526
 11
125.1827349017
 21
611.8442412526
  0
LINE
  5
58B
100
AcDbEntity
  8
0
100
AcDbLine
 62
7
  6
CONTINUOUS
 10
80.9122243876
 20
611.8442412526
 11
79.5786279253
 21
611.8442412526
  0
LINE
  5
58C
100
AcDbEntity
  8
0
100
AcDbLine
 62
7
  6
CONTINUOUS
 10
69.9785248461
 20
611.8442412526
 11
70.5097585699
 21
611.8442412526
  0
LINE
  5
58D
100
AcDbEntity
  8
0
100
AcDbLine
 62
7
  6
CONTINUOUS
 10
83.5790728028
 20
611.8442412526
 11
84.113062603
 21
611.8442412526
  0
LINE
  5
58E
100
AcDbEntity
  8
0
100
AcDbLine
 62
7
  6
CONTINUOUS
 10
786.9190872754
 20
612.0461238481
 11
784.2520666055
 21
612.0461238481
  0
LINE
  5
58F
100
AcDbEntity
  8
0
100
AcDbLine
 62
7
  6
CONTINUOUS
 10
991.4797276865
 20
612.0461238481
 11
994.1467483564
 21
612.0461238481
  0
LINE
  5
590
100
AcDbEntity
  8
0
100
AcDbLine
 62
7
  6
CONTINUOUS
 10
133.1836246567
 20
612.1098581145
 11
125.7194807783
 21
612.1098581145
  0
LINE
  5
591
100
AcDbEntity
  8
0
100
AcDbLine
 62
7
  6
CONTINUOUS
 10
82.5110932023
 20
612.1098581145
 11
81.7142426166
 21
612.1098581145
  0
LINE
  5
592
100
AcDbEntity
  8
0
100
AcDbLine
 62
7
  6
CONTINUOUS
 10
75.3125661859
 20
612.1098581145
 11
75.046949324
 21
612.1098581145
  0
LINE
  5
593
100
AcDbEntity
  8
0
100
AcDbLine
 62
7
  6
CONTINUOUS
 10
69.7129079842
 20
612.1098581145
 11
70.244141708
 21
612.1098581145
  0
LINE
  5
594
100
AcDbEntity
  8
0
100
AcDbLine
 62
7
  6
CONTINUOUS
 10
990.6787429861
 20
612.3141522768
 11
990.4131261242
 21
612.3141522768
  0
LINE
  5
595
100
AcDbEntity
  8
0
100
AcDbLine
 62
7
  6
CONTINUOUS
 10
791.7205168532
 20
612.3141522768
 11
787.9855165828
 21
612.3141522768
  0
LINE
  5
596
100
AcDbEntity
  8
0
100
AcDbLine
 62
7
  6
CONTINUOUS
 10
986.4126812468
 20
612.3141522768
 11
990.1461312241
 21
612.3141522768
  0
LINE
  5
597
100
AcDbEntity
  8
0
100
AcDbLine
 62
7
  6
CONTINUOUS
 10
77.7137977391
 20
612.3754749764
 11
75.5781830478
 21
612.3754749764
  0
LINE
  5
598
100
AcDbEntity
  8
0
100
AcDbLine
 62
7
  6
CONTINUOUS
 10
70.244141708
 20
612.3754749764
 11
70.5097585699
 21
612.3754749764
  0
LINE
  5
599
100
AcDbEntity
  8
0
100
AcDbLine
 62
7
  6
CONTINUOUS
 10
79.5786279253
 20
612.6435034052
 11
77.979414601
 21
612.6435034052
  0
LINE
  5
59A
100
AcDbEntity
  8
0
100
AcDbLine
 62
7
  6
CONTINUOUS
 10
71.3121213084
 20
612.6435034052
 11
70.7781315082
 21
612.6435034052
  0
LINE
  5
59B
100
AcDbEntity
  8
0
100
AcDbLine
 62
7
  6
CONTINUOUS
 10
82.7794661406
 20
612.6435034052
 11
83.0478390789
 21
612.6435034052
  0
LINE
  5
59C
100
AcDbEntity
  8
0
100
AcDbLine
 62
7
  6
CONTINUOUS
 10
81.4458696783
 20
612.9094647767
 11
80.3806461543
 21
612.9094647767
  0
LINE
  5
59D
100
AcDbEntity
  8
0
100
AcDbLine
 62
7
  6
CONTINUOUS
 10
70.5097585699
 20
612.9094647767
 11
70.7781315082
 21
612.9094647767
  0
LINE
  5
59E
100
AcDbEntity
  8
0
100
AcDbLine
 62
7
  6
CONTINUOUS
 10
82.2454763404
 20
612.9094647767
 11
82.7794661406
 21
612.9094647767
  0
LINE
  5
59F
100
AcDbEntity
  8
0
100
AcDbLine
 62
7
  6
CONTINUOUS
 10
81.4458696783
 20
613.1774932054
 11
82.2454763404
 21
613.1774932054
  0
LINE
  5
5A0
100
AcDbEntity
  8
0
100
AcDbLine
 62
7
  6
CONTINUOUS
 10
70.7781315082
 20
613.4434545769
 11
71.0465044465
 21
613.4434545769
  0
LINE
  5
5A1
100
AcDbEntity
  8
0
100
AcDbLine
 62
7
  6
CONTINUOUS
 10
1024.016070723
 20
613.6477487392
 11
992.5463292487
 21
613.6477487392
  0
LINE
  5
5A2
100
AcDbEntity
  8
0
100
AcDbLine
 62
7
  6
CONTINUOUS
 10
856.2614524382
 20
613.6477487392
 11
850.3947993363
 21
613.6477487392
  0
LINE
  5
5A3
100
AcDbEntity
  8
0
100
AcDbLine
 62
7
  6
CONTINUOUS
 10
754.1152325744
 20
613.6477487392
 11
785.585490813
 21
613.6477487392
  0
LINE
  5
5A4
100
AcDbEntity
  8
0
100
AcDbLine
 62
7
  6
CONTINUOUS
 10
71.0465044465
 20
613.7087269292
 11
71.5777381703
 21
613.7087269292
  0
LINE
  5
5A5
100
AcDbEntity
  8
0
100
AcDbLine
 62
7
  6
CONTINUOUS
 10
125.45110784
 20
613.7087269292
 11
133.1836246567
 21
613.7087269292
  0
LINE
  5
5A6
100
AcDbEntity
  8
0
100
AcDbLine
 62
7
  6
CONTINUOUS
 10
135.0536224861
 20
613.7087269292
 11
153.7225949206
 21
613.7087269292
  0
LINE
  5
5A7
100
AcDbEntity
  8
0
100
AcDbLine
 62
7
  6
CONTINUOUS
 10
122.5158864866
 20
613.9770998675
 11
125.1827349017
 21
613.9770998675
  0
LINE
  5
5A8
100
AcDbEntity
  8
0
100
AcDbLine
 62
7
  6
CONTINUOUS
 10
122.2502696247
 20
614.2427167295
 11
121.4506629626
 21
614.2427167295
  0
LINE
  5
5A9
100
AcDbEntity
  8
0
100
AcDbLine
 62
7
  6
CONTINUOUS
 10
94.2468109728
 20
614.2427167295
 11
93.9811941109
 21
614.2427167295
  0
LINE
  5
5AA
100
AcDbEntity
  8
0
100
AcDbLine
 62
7
  6
CONTINUOUS
 10
917.8697504913
 20
614.4473554013
 11
871.1969748954
 21
614.4473554013
  0
LINE
  5
5AB
100
AcDbEntity
  8
0
100
AcDbLine
 62
7
  6
CONTINUOUS
 10
752.7818083668
 20
614.4473554013
 11
790.1199254907
 21
614.4473554013
  0
LINE
  5
5AC
100
AcDbEntity
  8
0
100
AcDbLine
 62
7
  6
CONTINUOUS
 10
987.479282809
 20
614.4473554013
 11
1024.8170554234
 21
614.4473554013
  0
LINE
  5
5AD
100
AcDbEntity
  8
0
100
AcDbLine
 62
7
  6
CONTINUOUS
 10
78.245031463
 20
614.5110896678
 11
78.7790212632
 21
614.5110896678
  0
LINE
  5
5AE
100
AcDbEntity
  8
0
100
AcDbLine
 62
7
  6
CONTINUOUS
 10
77.7137977391
 20
614.7767065297
 11
78.245031463
 21
614.7767065297
  0
LINE
  5
5AF
100
AcDbEntity
  8
0
100
AcDbLine
 62
7
  6
CONTINUOUS
 10
119.3174598381
 20
615.8446861301
 11
119.8490380715
 21
615.8446861301
  0
LINE
  5
5B0
100
AcDbEntity
  8
0
100
AcDbLine
 62
7
  6
CONTINUOUS
 10
132.9180077948
 20
616.110302992
 11
130.5167762415
 21
616.110302992
  0
LINE
  5
5B1
100
AcDbEntity
  8
0
100
AcDbLine
 62
7
  6
CONTINUOUS
 10
117.9842078853
 20
616.110302992
 11
119.0518429762
 21
616.110302992
  0
LINE
  5
5B2
100
AcDbEntity
  8
0
100
AcDbLine
 62
7
  6
CONTINUOUS
 10
687.9724998435
 20
619.7810522315
 11
747.447767027
 21
619.7810522315
  0
LINE
  5
5B3
100
AcDbEntity
  8
0
100
AcDbLine
 62
7
  6
CONTINUOUS
 10
750.6473994589
 20
619.7810522315
 11
792.5201235153
 21
619.7810522315
  0
LINE
  5
5B4
100
AcDbEntity
  8
0
100
AcDbLine
 62
7
  6
CONTINUOUS
 10
795.7209617306
 20
619.7810522315
 11
982.4120641145
 21
619.7810522315
  0
LINE
  5
5B5
100
AcDbEntity
  8
0
100
AcDbLine
 62
7
  6
CONTINUOUS
 10
985.6116965464
 20
619.7810522315
 11
1027.4837315837
 21
619.7810522315
  0
LINE
  5
5B6
100
AcDbEntity
  8
0
100
AcDbLine
 62
7
  6
CONTINUOUS
 10
1030.6833640156
 20
619.7810522315
 11
1090.155702868
 21
619.7810522315
  0
LINE
  5
5B7
100
AcDbEntity
  8
0
100
AcDbLine
 62
7
  6
CONTINUOUS
 10
748.2473736891
 20
620.3150420318
 11
749.8477927968
 21
620.3150420318
  0
LINE
  5
5B8
100
AcDbEntity
  8
0
100
AcDbLine
 62
7
  6
CONTINUOUS
 10
793.3195579226
 20
620.3150420318
 11
794.9201492851
 21
620.3150420318
  0
LINE
  5
5B9
100
AcDbEntity
  8
0
100
AcDbLine
 62
7
  6
CONTINUOUS
 10
983.2116707766
 20
620.3150420318
 11
984.8120898843
 21
620.3150420318
  0
LINE
  5
5BA
100
AcDbEntity
  8
0
100
AcDbLine
 62
7
  6
CONTINUOUS
 10
1028.5503331459
 20
620.3150420318
 11
1030.1505799988
 21
620.3150420318
  0
LINE
  5
5BB
100
AcDbEntity
  8
0
100
AcDbLine
 62
7
  6
CONTINUOUS
 10
125.45110784
 20
621.4443443318
 11
128.3863291935
 21
621.4443443318
  0
LINE
  5
5BC
100
AcDbEntity
  8
0
100
AcDbLine
 62
7
  6
CONTINUOUS
 10
129.1831797792
 20
621.4443443318
 11
132.9180077948
 21
621.4443443318
  0
LINE
  5
5BD
100
AcDbEntity
  8
0
100
AcDbLine
 62
7
  6
CONTINUOUS
 10
133.7203705333
 20
621.4443443318
 11
415.8829925331
 21
621.4443443318
  0
LINE
  5
5BE
100
AcDbEntity
  8
0
100
AcDbLine
 62
7
  6
CONTINUOUS
 10
686.6390756359
 20
621.914255356
 11
1091.7561219756
 21
621.914255356
  0
LINE
  5
5BF
100
AcDbEntity
  8
0
100
AcDbLine
 62
7
  6
CONTINUOUS
 10
133.1836246567
 20
621.978334132
 11
132.9180077948
 21
621.978334132
  0
LINE
  5
5C0
100
AcDbEntity
  8
0
100
AcDbLine
 62
7
  6
CONTINUOUS
 10
124.1175113777
 20
623.5775474563
 11
417.2165889954
 21
623.5775474563
  0
LINE
  5
5C1
100
AcDbEntity
  8
0
100
AcDbLine
 62
7
  6
CONTINUOUS
 10
686.3732865193
 20
624.8494767094
 11
1091.7561219756
 21
624.8494767094
  0
LINE
  5
5C2
100
AcDbEntity
  8
0
100
AcDbLine
 62
7
  6
CONTINUOUS
 10
1091.7561219756
 20
625.3807104333
 11
1091.4891270755
 21
625.3807104333
  0
LINE
  5
5C3
100
AcDbEntity
  8
0
100
AcDbLine
 62
7
  6
CONTINUOUS
 10
1086.9548646526
 20
625.3807104333
 11
1086.6880420073
 21
625.3807104333
  0
LINE
  5
5C4
100
AcDbEntity
  8
0
100
AcDbLine
 62
7
  6
CONTINUOUS
 10
691.1735103136
 20
625.3807104333
 11
691.440332959
 21
625.3807104333
  0
LINE
  5
5C5
100
AcDbEntity
  8
0
100
AcDbLine
 62
7
  6
CONTINUOUS
 10
686.9058982813
 20
625.6490833716
 11
1091.2221321754
 21
625.6490833716
  0
LINE
  5
5C6
100
AcDbEntity
  8
0
100
AcDbLine
 62
7
  6
CONTINUOUS
 10
688.2394947436
 20
625.9147002335
 11
688.5064896437
 21
625.9147002335
  0
LINE
  5
5C7
100
AcDbEntity
  8
0
100
AcDbLine
 62
7
  6
CONTINUOUS
 10
1089.6217130677
 20
625.9147002335
 11
1090.155702868
 21
625.9147002335
  0
LINE
  5
5C8
100
AcDbEntity
  8
0
100
AcDbLine
 62
7
  6
CONTINUOUS
 10
417.4849619337
 20
626.5127688097
 11
124.1175113777
 21
626.5127688097
  0
LINE
  5
5C9
100
AcDbEntity
  8
0
100
AcDbLine
 62
7
  6
CONTINUOUS
 10
412.6849103941
 20
627.0440025335
 11
412.4189490226
 21
627.0440025335
  0
LINE
  5
5CA
100
AcDbEntity
  8
0
100
AcDbLine
 62
7
  6
CONTINUOUS
 10
124.385884316
 20
627.0440025335
 11
124.1175113777
 21
627.0440025335
  0
LINE
  5
5CB
100
AcDbEntity
  8
0
100
AcDbLine
 62
7
  6
CONTINUOUS
 10
138.2520491346
 20
627.0440025335
 11
138.5176659965
 21
627.0440025335
  0
LINE
  5
5CC
100
AcDbEntity
  8
0
100
AcDbLine
 62
7
  6
CONTINUOUS
 10
124.385884316
 20
627.3120309623
 11
416.9509721335
 21
627.3120309623
  0
LINE
  5
5CD
100
AcDbEntity
  8
0
100
AcDbLine
 62
7
  6
CONTINUOUS
 10
125.7194807783
 20
627.5779923338
 11
126.2507145022
 21
627.5779923338
  0
LINE
  5
5CE
100
AcDbEntity
  8
0
100
AcDbLine
 62
7
  6
CONTINUOUS
 10
415.3517588092
 20
627.5779923338
 11
415.6173756711
 21
627.5779923338
  0
LINE
  5
5CF
100
AcDbEntity
  8
0
100
AcDbLine
 62
7
  6
CONTINUOUS
 10
686.3732865193
 20
628.3159317867
 11
1091.7561219756
 21
628.3159317867
  0
LINE
  5
5D0
100
AcDbEntity
  8
0
100
AcDbLine
 62
7
  6
CONTINUOUS
 10
124.1175113777
 20
629.979223887
 11
417.4849619337
 21
629.979223887
  0
LINE
  5
5D1
100
AcDbEntity
  8
0
100
AcDbLine
 62
7
  6
CONTINUOUS
 10
898.1341764945
 20
612.0461238481
 11
939.4729107507
 21
611.7801624766
  0
LINE
  5
5D2
100
AcDbEntity
  8
0
100
AcDbLine
 62
7
  6
CONTINUOUS
 10
937.3385018428
 20
612.5797691387
 11
898.1341764945
 21
612.848142077
  0
LINE
  5
5D3
100
AcDbEntity
  8
0
100
AcDbLine
 62
7
  6
CONTINUOUS
 10
903.7352127344
 20
594.1791696425
 11
933.0722678486
 21
593.9107967042
  0
LINE
  5
5D4
100
AcDbEntity
  8
0
100
AcDbLine
 62
7
  6
CONTINUOUS
 10
933.0722678486
 20
595.2443931665
 11
991.4797276865
 21
594.7104033663
  0
LINE
  5
5D5
100
AcDbEntity
  8
0
100
AcDbLine
 62
7
  6
CONTINUOUS
 10
991.7467225866
 20
594.9787763046
 11
933.0722678486
 21
595.5127661048
  0
LINE
  5
5D6
100
AcDbEntity
  8
0
100
AcDbLine
 62
7
  6
CONTINUOUS
 10
933.3378847105
 20
596.8460180576
 11
992.0123394485
 21
596.3123727669
  0
LINE
  5
5D7
100
AcDbEntity
  8
0
100
AcDbLine
 62
7
  6
CONTINUOUS
 10
936.8058900808
 20
605.9124758461
 11
912.8027040516
 21
606.1805042749
  0
LINE
  5
5D8
100
AcDbEntity
  8
0
100
AcDbLine
 62
7
  6
CONTINUOUS
 10
889.0665129226
 20
609.9129207236
 11
936.5388951807
 21
609.3789309234
  0
LINE
  5
5D9
100
AcDbEntity
  8
0
100
AcDbLine
 62
7
  6
CONTINUOUS
 10
934.938476073
 20
609.9129207236
 11
958.14205544
 21
609.6473038617
  0
LINE
  5
5DA
100
AcDbEntity
  8
0
100
AcDbLine
 62
7
  6
CONTINUOUS
 10
894.4005542624
 20
610.4469105238
 11
912.5357091515
 21
610.1809491523
  0
LINE
  5
5DB
100
AcDbEntity
  8
0
100
AcDbLine
 62
7
  6
CONTINUOUS
 10
912.2688865062
 20
610.9805558145
 11
894.4005542624
 21
611.2461726764
  0
LINE
  5
5DC
100
AcDbEntity
  8
0
100
AcDbLine
 62
7
  6
CONTINUOUS
 10
962.1425003175
 20
593.9107967042
 11
991.4797276865
 21
593.3771514135
  0
LINE
  5
5DD
100
AcDbEntity
  8
0
100
AcDbLine
 62
7
  6
CONTINUOUS
 10
946.4073711982
 20
613.9133656011
 11
917.8697504913
 21
614.4473554013
  0
LINE
  5
5DE
100
AcDbEntity
  8
0
100
AcDbLine
 62
7
  6
CONTINUOUS
 10
936.5388951807
 20
609.3789309234
 11
964.275703442
 21
608.8476971996
  0
LINE
  5
5DF
100
AcDbEntity
  8
0
100
AcDbLine
 62
7
  6
CONTINUOUS
 10
964.275703442
 20
605.3784860459
 11
936.8058900808
 21
605.9124758461
  0
LINE
  5
5E0
100
AcDbEntity
  8
0
100
AcDbLine
 62
7
  6
CONTINUOUS
 10
980.8116450068
 20
609.6473038617
 11
934.938476073
 21
610.7125273857
  0
LINE
  5
5E1
100
AcDbEntity
  8
0
100
AcDbLine
 62
7
  6
CONTINUOUS
 10
939.4729107507
 20
611.7801624766
 11
980.8116450068
 21
610.7125273857
  0
LINE
  5
5E2
100
AcDbEntity
  8
0
100
AcDbLine
 62
7
  6
CONTINUOUS
 10
976.2772103292
 20
611.5145456147
 11
937.3385018428
 21
612.5797691387
  0
LINE
  5
5E3
100
AcDbEntity
  8
0
100
AcDbLine
 62
7
  6
CONTINUOUS
 10
992.0123394485
 20
604.5788793838
 11
964.275703442
 21
605.3784860459
  0
LINE
  5
5E4
100
AcDbEntity
  8
0
100
AcDbLine
 62
7
  6
CONTINUOUS
 10
964.275703442
 20
608.8476971996
 11
991.7467225866
 21
608.045334461
  0
LINE
  5
5E5
100
AcDbEntity
  8
0
100
AcDbLine
 62
7
  6
CONTINUOUS
 10
898.1341764945
 20
612.848142077
 11
889.0665129226
 21
613.1137589389
  0
LINE
  5
5E6
100
AcDbEntity
  8
0
100
AcDbLine
 62
7
  6
CONTINUOUS
 10
889.0665129226
 20
612.3141522768
 11
898.1341764945
 21
612.0461238481
  0
LINE
  5
5E7
100
AcDbEntity
  8
0
100
AcDbLine
 62
7
  6
CONTINUOUS
 10
958.14205544
 20
609.6473038617
 11
980.8116450068
 21
608.8476971996
  0
LINE
  5
5E8
100
AcDbEntity
  8
0
100
AcDbLine
 62
7
  6
CONTINUOUS
 10
981.8782465691
 20
612.5797691387
 11
946.4073711982
 21
613.9133656011
  0
LINE
  5
5E9
100
AcDbEntity
  8
0
100
AcDbLine
 62
7
  6
CONTINUOUS
 10
759.4492739142
 20
606.4464656463
 11
753.3144201288
 21
606.7117379987
  0
LINE
  5
5EA
100
AcDbEntity
  8
0
100
AcDbLine
 62
7
  6
CONTINUOUS
 10
991.4797276865
 20
612.0461238481
 11
1022.4170296536
 21
610.4469105238
  0
LINE
  5
5EB
100
AcDbEntity
  8
0
100
AcDbLine
 62
7
  6
CONTINUOUS
 10
1022.6826465155
 20
610.4469105238
 11
994.1467483564
 21
612.0461238481
  0
LINE
  5
5EC
100
AcDbEntity
  8
0
100
AcDbLine
 62
7
  6
CONTINUOUS
 10
981.8782465691
 20
612.5797691387
 11
986.4126812468
 21
612.3141522768
  0
LINE
  5
5ED
100
AcDbEntity
  8
0
100
AcDbLine
 62
7
  6
CONTINUOUS
 10
934.938476073
 20
610.7125273857
 11
930.4052471787
 21
610.9805558145
  0
LINE
  5
5EE
100
AcDbEntity
  8
0
100
AcDbLine
 62
7
  6
CONTINUOUS
 10
930.6710362954
 20
610.1809491523
 11
934.938476073
 21
609.9129207236
  0
LINE
  5
5EF
100
AcDbEntity
  8
0
100
AcDbLine
 62
7
  6
CONTINUOUS
 10
992.0123394485
 20
604.5788793838
 11
995.747167464
 21
604.3132625219
  0
LINE
  5
5F0
100
AcDbEntity
  8
0
100
AcDbLine
 62
7
  6
CONTINUOUS
 10
981.8782465691
 20
588.0431100737
 11
985.3447016463
 21
587.7774932118
  0
LINE
  5
5F1
100
AcDbEntity
  8
0
100
AcDbLine
 62
7
  6
CONTINUOUS
 10
998.946799896
 20
596.0439998286
 11
995.4801725639
 21
596.3123727669
  0
LINE
  5
5F2
100
AcDbEntity
  8
0
100
AcDbLine
 62
7
  6
CONTINUOUS
 10
998.1471932338
 20
594.4447865044
 11
994.9463550185
 21
594.7104033663
  0
LINE
  5
5F3
100
AcDbEntity
  8
0
100
AcDbLine
 62
7
  6
CONTINUOUS
 10
1002.1478103661
 20
595.7783829667
 11
998.946799896
 21
596.0439998286
  0
LINE
  5
5F4
100
AcDbEntity
  8
0
100
AcDbLine
 62
7
  6
CONTINUOUS
 10
994.9463550185
 20
607.7797175991
 11
991.7467225866
 21
608.045334461
  0
LINE
  5
5F5
100
AcDbEntity
  8
0
100
AcDbLine
 62
7
  6
CONTINUOUS
 10
995.2133499186
 20
594.9787763046
 11
998.414188134
 21
594.7104033663
  0
LINE
  5
5F6
100
AcDbEntity
  8
0
100
AcDbLine
 62
7
  6
CONTINUOUS
 10
756.5152583442
 20
610.4469105238
 11
762.6489063461
 21
609.9129207236
  0
LINE
  5
5F7
100
AcDbEntity
  8
0
100
AcDbLine
 62
7
  6
CONTINUOUS
 10
775.4513979336
 20
604.3132625219
 11
772.5173823636
 21
604.5788793838
  0
LINE
  5
5F8
100
AcDbEntity
  8
0
100
AcDbLine
 62
7
  6
CONTINUOUS
 10
988.5457121165
 20
587.7774932118
 11
991.4797276865
 21
587.5115318403
  0
LINE
  5
5F9
100
AcDbEntity
  8
0
100
AcDbLine
 62
7
  6
CONTINUOUS
 10
1001.0812088039
 20
594.1791696425
 11
998.1471932338
 21
594.4447865044
  0
LINE
  5
5FA
100
AcDbEntity
  8
0
100
AcDbLine
 62
7
  6
CONTINUOUS
 10
1001.3468256658
 20
594.7104033663
 11
1004.2808412358
 21
594.4447865044
  0
LINE
  5
5FB
100
AcDbEntity
  8
0
100
AcDbLine
 62
7
  6
CONTINUOUS
 10
777.317606158
 20
608.045334461
 11
779.9846268279
 21
607.7797175991
  0
LINE
  5
5FC
100
AcDbEntity
  8
0
100
AcDbLine
 62
7
  6
CONTINUOUS
 10
1000.0134014582
 20
593.111190042
 11
997.3463807883
 21
593.3771514135
  0
LINE
  5
5FD
100
AcDbEntity
  8
0
100
AcDbLine
 62
7
  6
CONTINUOUS
 10
772.5173823636
 20
604.5788793838
 11
769.8503616937
 21
604.8472523221
  0
LINE
  5
5FE
100
AcDbEntity
  8
0
100
AcDbLine
 62
7
  6
CONTINUOUS
 10
1002.4148052662
 20
592.8455731801
 11
1000.0134014582
 21
593.111190042
  0
LINE
  5
5FF
100
AcDbEntity
  8
0
100
AcDbLine
 62
7
  6
CONTINUOUS
 10
1004.2808412358
 20
594.4447865044
 11
1006.6808670056
 21
594.1791696425
  0
LINE
  5
600
100
AcDbEntity
  8
0
100
AcDbLine
 62
7
  6
CONTINUOUS
 10
1003.4812345737
 20
593.9107967042
 11
1001.0812088039
 21
594.1791696425
  0
LINE
  5
601
100
AcDbEntity
  8
0
100
AcDbLine
 62
7
  6
CONTINUOUS
 10
759.7162688143
 20
584.310693625
 11
757.5818599064
 21
584.5763104869
  0
LINE
  5
602
100
AcDbEntity
  8
0
100
AcDbLine
 62
7
  6
CONTINUOUS
 10
769.8503616937
 20
604.8472523221
 11
767.717330824
 21
605.112869184
  0
LINE
  5
603
100
AcDbEntity
  8
0
100
AcDbLine
 62
7
  6
CONTINUOUS
 10
996.2797792261
 20
584.5763104869
 11
998.414188134
 21
584.310693625
  0
LINE
  5
604
100
AcDbEntity
  8
0
100
AcDbLine
 62
7
  6
CONTINUOUS
 10
1005.6144376981
 20
593.6451798422
 11
1003.4812345737
 21
593.9107967042
  0
LINE
  5
605
100
AcDbEntity
  8
0
100
AcDbLine
 62
7
  6
CONTINUOUS
 10
1009.6148825756
 20
594.9787763046
 11
1007.4818517059
 21
595.2443931665
  0
LINE
  5
606
100
AcDbEntity
  8
0
100
AcDbLine
 62
7
  6
CONTINUOUS
 10
991.4797276865
 20
587.5115318403
 11
993.6127585562
 21
587.2435034116
  0
LINE
  5
607
100
AcDbEntity
  8
0
100
AcDbLine
 62
7
  6
CONTINUOUS
 10
772.5173823636
 20
608.3137073993
 11
774.6505854881
 21
608.045334461
  0
LINE
  5
608
100
AcDbEntity
  8
0
100
AcDbLine
 62
7
  6
CONTINUOUS
 10
770.6499683558
 20
608.5793242613
 11
772.5173823636
 21
608.3137073993
  0
LINE
  5
609
100
AcDbEntity
  8
0
100
AcDbLine
 62
7
  6
CONTINUOUS
 10
766.9163461237
 20
605.112869184
 11
759.4492739142
 21
606.4464656463
  0
LINE
  5
60A
100
AcDbEntity
  8
0
100
AcDbLine
 62
7
  6
CONTINUOUS
 10
762.6489063461
 20
609.9129207236
 11
770.1173565938
 21
608.5793242613
  0
LINE
  5
60B
100
AcDbEntity
  8
0
100
AcDbLine
 62
7
  6
CONTINUOUS
 10
751.1812170044
 20
557.9064482974
 11
752.5148134667
 21
557.6408314354
  0
LINE
  5
60C
100
AcDbEntity
  8
0
100
AcDbLine
 62
7
  6
CONTINUOUS
 10
987.2122879089
 20
557.6408314354
 11
985.8786914465
 21
557.9064482974
  0
LINE
  5
60D
100
AcDbEntity
  8
0
100
AcDbLine
 62
7
  6
CONTINUOUS
 10
751.9808236665
 20
563.2404896372
 11
753.0488032669
 21
562.9748727753
  0
LINE
  5
60E
100
AcDbEntity
  8
0
100
AcDbLine
 62
7
  6
CONTINUOUS
 10
752.5148134667
 20
560.3080243601
 11
750.381782597
 21
560.8416696508
  0
LINE
  5
60F
100
AcDbEntity
  8
0
100
AcDbLine
 62
7
  6
CONTINUOUS
 10
749.5807978967
 20
558.4404380976
 11
751.1812170044
 21
557.9064482974
  0
LINE
  5
610
100
AcDbEntity
  8
0
100
AcDbLine
 62
7
  6
CONTINUOUS
 10
412.6849103941
 20
1115.3721626762
 11
412.4189490226
 21
1116.437558455
  0
LINE
  5
611
100
AcDbEntity
  8
0
100
AcDbLine
 62
7
  6
CONTINUOUS
 10
422.4307410123
 20
1126.5740629013
 11
422.7666378221
 21
1125.1781102107
  0
LINE
  5
612
100
AcDbEntity
  8
0
100
AcDbLine
 62
7
  6
CONTINUOUS
 10
443.3548729515
 20
1038.2950413847
 11
443.8864511849
 21
1035.8963936531
  0
LINE
  5
613
100
AcDbEntity
  8
0
100
AcDbLine
 62
7
  6
CONTINUOUS
 10
435.9896033136
 20
1124.3421577912
 11
436.6875796589
 21
1120.9718208779
  0
LINE
  5
614
100
AcDbEntity
  8
0
100
AcDbLine
 62
7
  6
CONTINUOUS
 10
436.6875796589
 20
1120.9718208779
 11
441.2192582602
 21
1098.5707765042
  0
LINE
  5
615
100
AcDbEntity
  8
0
100
AcDbLine
 62
7
  6
CONTINUOUS
 10
435.3539831966
 20
1120.706204016
 11
435.8852169204
 21
1118.0391833461
  0
LINE
  5
616
100
AcDbEntity
  8
0
100
AcDbLine
 62
7
  6
CONTINUOUS
 10
442.0216209987
 20
1094.3019586884
 11
436.9531965208
 21
1120.4380033325
  0
LINE
  5
617
100
AcDbEntity
  8
0
100
AcDbLine
 62
7
  6
CONTINUOUS
 10
445.488076076
 20
1041.4960518548
 11
446.0220658762
 21
1038.5632420683
  0
LINE
  5
618
100
AcDbEntity
  8
0
100
AcDbLine
 62
7
  6
CONTINUOUS
 10
442.2872378607
 20
1087.6344931411
 11
436.9531965208
 21
1116.9713760005
  0
LINE
  5
619
100
AcDbEntity
  8
0
100
AcDbLine
 62
7
  6
CONTINUOUS
 10
435.8852169204
 20
1116.7057591386
 11
440.9536413983
 21
1087.3688762791
  0
LINE
  5
61A
100
AcDbEntity
  8
0
100
AcDbLine
 62
7
  6
CONTINUOUS
 10
447.0897009671
 20
1039.8968385306
 11
446.5532996
 21
1043.0950929243
  0
LINE
  5
61B
100
AcDbEntity
  8
0
100
AcDbLine
 62
7
  6
CONTINUOUS
 10
445.2197031377
 20
1068.4315309063
 11
444.9540862758
 21
1070.0333280521
  0
LINE
  5
61C
100
AcDbEntity
  8
0
100
AcDbLine
 62
7
  6
CONTINUOUS
 10
433.3565168342
 20
1122.2037870235
 11
433.2652218039
 21
1122.7977214851
  0
LINE
  5
61D
100
AcDbEntity
  8
0
100
AcDbLine
 62
7
  6
CONTINUOUS
 10
430.4419660537
 20
1128.6395698995
 11
430.6218000381
 21
1127.4622085174
  0
LINE
  5
61E
100
AcDbEntity
  8
0
100
AcDbLine
 62
7
  6
CONTINUOUS
 10
421.0371998885
 20
1126.2381660915
 11
421.3055728268
 21
1124.4723824005
  0
LINE
  5
61F
100
AcDbEntity
  8
0
100
AcDbLine
 62
7
  6
CONTINUOUS
 10
446.3162770307
 20
1157.4789809708
 11
446.496111015
 21
1156.3017918435
  0
LINE
  5
620
100
AcDbEntity
  8
0
100
AcDbLine
 62
7
  6
CONTINUOUS
 10
437.0234764687
 20
1171.5614977859
 11
437.1929751666
 21
1170.3789687606
  0
LINE
  5
621
100
AcDbEntity
  8
0
100
AcDbLine
 62
7
  6
CONTINUOUS
 10
441.2192582602
 20
1098.5707765042
 11
444.422852552
 21
1076.1669760541
  0
LINE
  5
622
100
AcDbEntity
  8
0
100
AcDbLine
 62
7
  6
CONTINUOUS
 10
446.0220658762
 20
1038.5632420683
 11
446.2876827381
 21
1036.6958280605
  0
LINE
  5
623
100
AcDbEntity
  8
0
100
AcDbLine
 62
7
  6
CONTINUOUS
 10
447.355317829
 20
1038.0294245228
 11
447.0897009671
 21
1039.8968385306
  0
LINE
  5
624
100
AcDbEntity
  8
0
100
AcDbLine
 62
7
  6
CONTINUOUS
 10
446.5532996
 20
1044.16290027
 11
446.2876827381
 21
1046.0303142778
  0
LINE
  5
625
100
AcDbEntity
  8
0
100
AcDbLine
 62
7
  6
CONTINUOUS
 10
444.9540862758
 20
1070.5673178524
 11
445.2197031377
 21
1068.6999038446
  0
LINE
  5
626
100
AcDbEntity
  8
0
100
AcDbLine
 62
7
  6
CONTINUOUS
 10
445.2197031377
 20
1044.6968900702
 11
445.488076076
 21
1042.5638592005
  0
LINE
  5
627
100
AcDbEntity
  8
0
100
AcDbLine
 62
7
  6
CONTINUOUS
 10
445.2197031377
 20
1068.4315309063
 11
442.0216209987
 21
1094.3019586884
  0
LINE
  5
628
100
AcDbEntity
  8
0
100
AcDbLine
 62
7
  6
CONTINUOUS
 10
445.7564490143
 20
1055.8987902953
 11
445.488076076
 21
1058.2974380269
  0
LINE
  5
629
100
AcDbEntity
  8
0
100
AcDbLine
 62
7
  6
CONTINUOUS
 10
444.1544796137
 20
1058.0318211649
 11
444.422852552
 21
1055.6305896117
  0
LINE
  5
62A
100
AcDbEntity
  8
0
100
AcDbLine
 62
7
  6
CONTINUOUS
 10
691.7073278591
 20
1149.1754395775
 11
691.1735103136
 21
1147.3081978245
  0
LINE
  5
62B
100
AcDbEntity
  8
0
100
AcDbLine
 62
7
  6
CONTINUOUS
 10
691.1735103136
 20
1147.3081978245
 11
689.3059240511
 21
1141.1745498225
  0
LINE
  5
62C
100
AcDbEntity
  8
0
100
AcDbLine
 62
7
  6
CONTINUOUS
 10
703.1750172008
 20
1124.906981196
 11
702.9080223007
 21
1124.1047907122
  0
LINE
  5
62D
100
AcDbEntity
  8
0
100
AcDbLine
 62
7
  6
CONTINUOUS
 10
411.0856970698
 20
627.5779923338
 11
411.8825476556
 21
628.1116376244
  0
LINE
  5
62E
100
AcDbEntity
  8
0
100
AcDbLine
 62
7
  6
CONTINUOUS
 10
414.817769009
 20
627.3120309623
 11
415.3517588092
 21
627.5779923338
  0
LINE
  5
62F
100
AcDbEntity
  8
0
100
AcDbLine
 62
7
  6
CONTINUOUS
 10
415.6173756711
 20
627.5779923338
 11
416.6853552716
 21
628.1116376244
  0
LINE
  5
630
100
AcDbEntity
  8
0
100
AcDbLine
 62
7
  6
CONTINUOUS
 10
411.8825476556
 20
621.978334132
 11
412.4189490226
 21
622.2439509939
  0
LINE
  5
631
100
AcDbEntity
  8
0
100
AcDbLine
 62
7
  6
CONTINUOUS
 10
415.8829925331
 20
621.4443443318
 11
416.4197384097
 21
621.7099611937
  0
LINE
  5
632
100
AcDbEntity
  8
0
100
AcDbLine
 62
7
  6
CONTINUOUS
 10
410.0177174694
 20
627.3120309623
 11
411.0856970698
 21
627.5779923338
  0
LINE
  5
633
100
AcDbEntity
  8
0
100
AcDbLine
 62
7
  6
CONTINUOUS
 10
74.5102034474
 20
609.7082820518
 11
72.9113346327
 21
609.4426651899
  0
LINE
  5
634
100
AcDbEntity
  8
0
100
AcDbLine
 62
7
  6
CONTINUOUS
 10
76.6458181387
 20
610.7762616522
 11
78.245031463
 21
611.0418785141
  0
LINE
  5
635
100
AcDbEntity
  8
0
100
AcDbLine
 62
7
  6
CONTINUOUS
 10
86.5115380798
 20
614.2427167295
 11
80.9122243876
 21
613.4434545769
  0
LINE
  5
636
100
AcDbEntity
  8
0
100
AcDbLine
 62
7
  6
CONTINUOUS
 10
69.7129079842
 20
611.8442412526
 11
65.7097070303
 21
611.3102514524
  0
LINE
  5
637
100
AcDbEntity
  8
0
100
AcDbLine
 62
7
  6
CONTINUOUS
 10
77.7137977391
 20
614.5110896678
 11
71.5777381703
 21
613.7087269292
  0
LINE
  5
638
100
AcDbEntity
  8
0
100
AcDbLine
 62
7
  6
CONTINUOUS
 10
79.0473942015
 20
609.9766549901
 11
76.6458181387
 21
609.7082820518
  0
LINE
  5
639
100
AcDbEntity
  8
0
100
AcDbLine
 62
7
  6
CONTINUOUS
 10
71.8433550323
 20
605.9762101126
 11
74.5102034474
 21
606.2418269745
  0
LINE
  5
63A
100
AcDbEntity
  8
0
100
AcDbLine
 62
7
  6
CONTINUOUS
 10
81.7142426166
 20
610.242271852
 11
79.0473942015
 21
609.9766549901
  0
LINE
  5
63B
100
AcDbEntity
  8
0
100
AcDbLine
 62
7
  6
CONTINUOUS
 10
74.5102034474
 20
606.2418269745
 11
77.4454248008
 21
606.5101999128
  0
LINE
  5
63C
100
AcDbEntity
  8
0
100
AcDbLine
 62
7
  6
CONTINUOUS
 10
107.5817420676
 20
615.8446861301
 11
86.5115380798
 21
614.2427167295
  0
LINE
  5
63D
100
AcDbEntity
  8
0
100
AcDbLine
 62
7
  6
CONTINUOUS
 10
1004.2808412358
 20
592.5775447514
 11
1002.4148052662
 21
592.8455731801
  0
LINE
  5
63E
100
AcDbEntity
  8
0
100
AcDbLine
 62
7
  6
CONTINUOUS
 10
1008.5484532681
 20
593.6451798422
 11
1010.1488723758
 21
593.3771514135
  0
LINE
  5
63F
100
AcDbEntity
  8
0
100
AcDbLine
 62
7
  6
CONTINUOUS
 10
1011.2153016833
 20
594.7104033663
 11
1009.6148825756
 21
594.9787763046
  0
LINE
  5
640
100
AcDbEntity
  8
0
100
AcDbLine
 62
7
  6
CONTINUOUS
 10
990.1461312241
 20
612.3141522768
 11
991.4797276865
 21
612.0461238481
  0
LINE
  5
641
100
AcDbEntity
  8
0
100
AcDbLine
 62
7
  6
CONTINUOUS
 10
1007.4818517059
 20
595.2443931665
 11
1005.0818259361
 21
595.7783829667
  0
LINE
  5
642
100
AcDbEntity
  8
0
100
AcDbLine
 62
7
  6
CONTINUOUS
 10
692.7739294213
 20
625.9147002335
 11
693.8405309835
 21
625.6490833716
  0
LINE
  5
643
100
AcDbEntity
  8
0
100
AcDbLine
 62
7
  6
CONTINUOUS
 10
986.4126812468
 20
560.573641222
 11
987.479282809
 21
560.3080243601
  0
LINE
  5
644
100
AcDbEntity
  8
0
100
AcDbLine
 62
7
  6
CONTINUOUS
 10
790.1199254907
 20
614.4473554013
 11
790.9195321528
 21
614.1813940298
  0
LINE
  5
645
100
AcDbEntity
  8
0
100
AcDbLine
 62
7
  6
CONTINUOUS
 10
985.6116965464
 20
560.8416696508
 11
986.4126812468
 21
560.573641222
  0
LINE
  5
646
100
AcDbEntity
  8
0
100
AcDbLine
 62
7
  6
CONTINUOUS
 10
785.585490813
 20
613.6477487392
 11
786.3864755133
 21
613.3793758009
  0
LINE
  5
647
100
AcDbEntity
  8
0
100
AcDbLine
 62
7
  6
CONTINUOUS
 10
752.5148134667
 20
563.7744794374
 11
751.9808236665
 21
564.0400962993
  0
LINE
  5
648
100
AcDbEntity
  8
0
100
AcDbLine
 62
7
  6
CONTINUOUS
 10
687.1728931814
 20
626.4486900337
 11
687.7068829816
 21
626.1830731718
  0
LINE
  5
649
100
AcDbEntity
  8
0
100
AcDbLine
 62
7
  6
CONTINUOUS
 10
688.5064896437
 20
625.9147002335
 11
689.0403071892
 21
625.6490833716
  0
LINE
  5
64A
100
AcDbEntity
  8
0
100
AcDbLine
 62
7
  6
CONTINUOUS
 10
753.3144201288
 20
585.1103002871
 11
752.7818083668
 21
585.375917149
  0
LINE
  5
64B
100
AcDbEntity
  8
0
100
AcDbLine
 62
7
  6
CONTINUOUS
 10
687.4398880815
 20
620.047013603
 11
687.9724998435
 21
619.7810522315
  0
LINE
  5
64C
100
AcDbEntity
  8
0
100
AcDbLine
 62
7
  6
CONTINUOUS
 10
750.381782597
 20
564.0400962993
 11
751.9808236665
 21
563.2404896372
  0
LINE
  5
64D
100
AcDbEntity
  8
0
100
AcDbLine
 62
7
  6
CONTINUOUS
 10
750.381782597
 20
620.047013603
 11
749.8477927968
 21
620.3150420318
  0
LINE
  5
64E
100
AcDbEntity
  8
0
100
AcDbLine
 62
7
  6
CONTINUOUS
 10
687.7068829816
 20
626.1830731718
 11
688.2394947436
 21
625.9147002335
  0
LINE
  5
64F
100
AcDbEntity
  8
0
100
AcDbLine
 62
7
  6
CONTINUOUS
 10
752.5148134667
 20
582.7090687339
 11
753.3144201288
 21
582.17783501
  0
LINE
  5
650
100
AcDbEntity
  8
0
100
AcDbLine
 62
7
  6
CONTINUOUS
 10
691.972944721
 20
626.4486900337
 11
692.7739294213
 21
625.9147002335
  0
LINE
  5
651
100
AcDbEntity
  8
0
100
AcDbLine
 62
7
  6
CONTINUOUS
 10
138.7860389348
 20
1118.5731731463
 11
139.320028735
 21
1118.0391833461
  0
LINE
  5
652
100
AcDbEntity
  8
0
100
AcDbLine
 62
7
  6
CONTINUOUS
 10
124.385884316
 20
1118.5731731463
 11
124.9171180398
 21
1118.0391833461
  0
LINE
  5
653
100
AcDbEntity
  8
0
100
AcDbLine
 62
7
  6
CONTINUOUS
 10
441.4876311985
 20
1036.9616171772
 11
441.2192582602
 21
1037.7610515845
  0
LINE
  5
654
100
AcDbEntity
  8
0
100
AcDbLine
 62
7
  6
CONTINUOUS
 10
445.7564490143
 20
1065.2332765125
 11
445.488076076
 21
1066.0328831747
  0
LINE
  5
655
100
AcDbEntity
  8
0
100
AcDbLine
 62
7
  6
CONTINUOUS
 10
435.3539831966
 20
1120.706204016
 11
434.5519649676
 21
1123.1050240024
  0
LINE
  5
656
100
AcDbEntity
  8
0
100
AcDbLine
 62
7
  6
CONTINUOUS
 10
435.5258934613
 20
1125.7849637804
 11
435.9896033136
 21
1124.3421577912
  0
LINE
  5
657
100
AcDbEntity
  8
0
100
AcDbLine
 62
7
  6
CONTINUOUS
 10
435.8852169204
 20
1124.0999675786
 11
435.3539831966
 21
1125.7849637804
  0
LINE
  5
658
100
AcDbEntity
  8
0
100
AcDbLine
 62
7
  6
CONTINUOUS
 10
440.8365081518
 20
1169.3320042426
 11
441.0707746448
 21
1168.5246461156
  0
LINE
  5
659
100
AcDbEntity
  8
0
100
AcDbLine
 62
7
  6
CONTINUOUS
 10
419.0734954619
 20
1134.6688315082
 11
418.8261376061
 21
1135.5257990102
  0
LINE
  5
65A
100
AcDbEntity
  8
0
100
AcDbLine
 62
7
  6
CONTINUOUS
 10
445.2197031377
 20
1067.9002971824
 11
445.7564490143
 21
1066.0328831747
  0
LINE
  5
65B
100
AcDbEntity
  8
0
100
AcDbLine
 62
7
  6
CONTINUOUS
 10
436.6875796589
 20
1120.9718208779
 11
435.8852169204
 21
1124.0999675786
  0
LINE
  5
65C
100
AcDbEntity
  8
0
100
AcDbLine
 62
7
  6
CONTINUOUS
 10
690.9065154135
 20
1144.6410048998
 11
690.6395205134
 21
1142.7761747136
  0
LINE
  5
65D
100
AcDbEntity
  8
0
100
AcDbLine
 62
7
  6
CONTINUOUS
 10
698.3749656612
 20
1119.3047391726
 11
698.6405825231
 21
1120.9063640637
  0
LINE
  5
65E
100
AcDbEntity
  8
0
100
AcDbLine
 62
7
  6
CONTINUOUS
 10
687.1728931814
 20
1130.5064671429
 11
686.1062916191
 21
1124.3729913958
  0
LINE
  5
65F
100
AcDbEntity
  8
0
100
AcDbLine
 62
7
  6
CONTINUOUS
 10
688.2394947436
 20
1136.108881421
 11
687.1728931814
 21
1130.5064671429
  0
LINE
  5
660
100
AcDbEntity
  8
0
100
AcDbLine
 62
7
  6
CONTINUOUS
 10
691.1735103136
 20
1145.9746013621
 11
690.9065154135
 21
1144.6410048998
  0
LINE
  5
661
100
AcDbEntity
  8
0
100
AcDbLine
 62
7
  6
CONTINUOUS
 10
689.3059240511
 20
1141.1745498225
 11
688.2394947436
 21
1136.108881421
  0
LINE
  5
662
100
AcDbEntity
  8
0
100
AcDbLine
 62
7
  6
CONTINUOUS
 10
691.440332959
 20
1114.7703044949
 11
691.1735103136
 21
1113.7050809709
  0
LINE
  5
663
100
AcDbEntity
  8
0
100
AcDbLine
 62
7
  6
CONTINUOUS
 10
1085.621440445
 20
1121.4377700423
 11
1086.1554302453
 21
1121.9715875878
  0
LINE
  5
664
100
AcDbEntity
  8
0
100
AcDbLine
 62
7
  6
CONTINUOUS
 10
1090.6881423752
 20
1121.4377700423
 11
1091.7561219756
 21
1122.505577388
  0
LINE
  5
665
100
AcDbEntity
  8
0
100
AcDbLine
 62
7
  6
CONTINUOUS
 10
1074.6868796296
 20
1120.9063640637
 11
1074.9538745297
 21
1121.1721531804
  0
LINE
  5
666
100
AcDbEntity
  8
0
100
AcDbLine
 62
7
  6
CONTINUOUS
 10
76.9117795102
 20
611.5758683143
 11
75.8437999097
 21
611.3102514524
  0
LINE
  5
667
100
AcDbEntity
  8
0
100
AcDbLine
 62
7
  6
CONTINUOUS
 10
79.8442447872
 20
611.0418785141
 11
82.5110932023
 21
611.5758683143
  0
LINE
  5
668
100
AcDbEntity
  8
0
100
AcDbLine
 62
7
  6
CONTINUOUS
 10
75.3125661859
 20
610.5106447903
 11
76.6458181387
 21
610.7762616522
  0
LINE
  5
669
100
AcDbEntity
  8
0
100
AcDbLine
 62
7
  6
CONTINUOUS
 10
981.8782465691
 20
611.2461726764
 11
980.8116450068
 21
611.5145456147
  0
LINE
  5
66A
100
AcDbEntity
  8
0
100
AcDbLine
 62
7
  6
CONTINUOUS
 10
1006.6808670056
 20
594.1791696425
 11
1008.5484532681
 21
593.6451798422
  0
LINE
  5
66B
100
AcDbEntity
  8
0
100
AcDbLine
 62
7
  6
CONTINUOUS
 10
1012.5488981456
 20
591.5123212273
 11
1007.2148568058
 21
593.111190042
  0
LINE
  5
66C
100
AcDbEntity
  8
0
100
AcDbLine
 62
7
  6
CONTINUOUS
 10
1010.9484790379
 20
590.4443416269
 11
1005.8812603435
 21
592.0435549511
  0
LINE
  5
66D
100
AcDbEntity
  8
0
100
AcDbLine
 62
7
  6
CONTINUOUS
 10
1010.1488723758
 20
593.3771514135
 11
1015.2157465607
 21
591.7779380892
  0
LINE
  5
66E
100
AcDbEntity
  8
0
100
AcDbLine
 62
7
  6
CONTINUOUS
 10
1023.483458961
 20
609.9129207236
 11
1024.2830656231
 21
609.6473038617
  0
LINE
  5
66F
100
AcDbEntity
  8
0
100
AcDbLine
 62
7
  6
CONTINUOUS
 10
1015.749736361
 20
588.8451283026
 11
1010.9484790379
 21
590.4443416269
  0
LINE
  5
670
100
AcDbEntity
  8
0
100
AcDbLine
 62
7
  6
CONTINUOUS
 10
1005.8812603435
 20
592.0435549511
 11
1004.2808412358
 21
592.5775447514
  0
LINE
  5
671
100
AcDbEntity
  8
0
100
AcDbLine
 62
7
  6
CONTINUOUS
 10
1007.2148568058
 20
593.111190042
 11
1005.6144376981
 21
593.6451798422
  0
LINE
  5
672
100
AcDbEntity
  8
0
100
AcDbLine
 62
7
  6
CONTINUOUS
 10
1024.8170554234
 20
614.4473554013
 11
1026.4173022763
 21
613.9133656011
  0
LINE
  5
673
100
AcDbEntity
  8
0
100
AcDbLine
 62
7
  6
CONTINUOUS
 10
1023.2166363157
 20
610.1809491523
 11
1024.016070723
 21
609.9129207236
  0
LINE
  5
674
100
AcDbEntity
  8
0
100
AcDbLine
 62
7
  6
CONTINUOUS
 10
993.6127585562
 20
587.2435034116
 11
996.012784326
 21
586.4438967494
  0
LINE
  5
675
100
AcDbEntity
  8
0
100
AcDbLine
 62
7
  6
CONTINUOUS
 10
981.0786399069
 20
611.5145456147
 11
981.8782465691
 21
611.2461726764
  0
LINE
  5
676
100
AcDbEntity
  8
0
100
AcDbLine
 62
7
  6
CONTINUOUS
 10
1021.0834331912
 20
591.243948289
 11
1011.2153016833
 21
594.7104033663
  0
LINE
  5
677
100
AcDbEntity
  8
0
100
AcDbLine
 62
7
  6
CONTINUOUS
 10
1010.9484790379
 20
592.0435549511
 11
1015.749736361
 21
590.178724765
  0
LINE
  5
678
100
AcDbEntity
  8
0
100
AcDbLine
 62
7
  6
CONTINUOUS
 10
1019.7501812384
 20
589.9103518267
 11
1023.7504538611
 21
588.3111385024
  0
LINE
  5
679
100
AcDbEntity
  8
0
100
AcDbLine
 62
7
  6
CONTINUOUS
 10
1021.0834331912
 20
588.0431100737
 11
1017.0831605685
 21
589.6447349648
  0
LINE
  5
67A
100
AcDbEntity
  8
0
100
AcDbLine
 62
7
  6
CONTINUOUS
 10
794.120542623
 20
608.8476971996
 11
793.5865528227
 21
609.1133140615
  0
LINE
  5
67B
100
AcDbEntity
  8
0
100
AcDbLine
 62
7
  6
CONTINUOUS
 10
786.6520923753
 20
613.1137589389
 11
787.1860821755
 21
612.848142077
  0
LINE
  5
67C
100
AcDbEntity
  8
0
100
AcDbLine
 62
7
  6
CONTINUOUS
 10
986.9452930088
 20
564.0400962993
 11
987.479282809
 21
563.7744794374
  0
LINE
  5
67D
100
AcDbEntity
  8
0
100
AcDbLine
 62
7
  6
CONTINUOUS
 10
984.545267239
 20
561.3732478842
 11
985.6116965464
 21
560.8416696508
  0
LINE
  5
67E
100
AcDbEntity
  8
0
100
AcDbLine
 62
7
  6
CONTINUOUS
 10
794.3875375231
 20
609.9129207236
 11
794.9201492851
 21
609.6473038617
  0
LINE
  5
67F
100
AcDbEntity
  8
0
100
AcDbLine
 62
7
  6
CONTINUOUS
 10
985.8786914465
 20
557.9064482974
 11
984.8120898843
 21
558.4404380976
  0
LINE
  5
680
100
AcDbEntity
  8
0
100
AcDbLine
 62
7
  6
CONTINUOUS
 10
987.479282809
 20
562.9748727753
 11
985.3447016463
 21
564.0400962993
  0
LINE
  5
681
100
AcDbEntity
  8
0
100
AcDbLine
 62
7
  6
CONTINUOUS
 10
790.9195321528
 20
614.1813940298
 11
791.4535219531
 21
613.9133656011
  0
LINE
  5
682
100
AcDbEntity
  8
0
100
AcDbLine
 62
7
  6
CONTINUOUS
 10
795.4539668305
 20
620.047013603
 11
794.9201492851
 21
620.3150420318
  0
LINE
  5
683
100
AcDbEntity
  8
0
100
AcDbLine
 62
7
  6
CONTINUOUS
 10
782.118863481
 20
614.4473554013
 11
783.1854650432
 21
613.6477487392
  0
LINE
  5
684
100
AcDbEntity
  8
0
100
AcDbLine
 62
7
  6
CONTINUOUS
 10
752.7818083668
 20
582.7090687339
 11
753.0488032669
 21
582.443451872
  0
LINE
  5
685
100
AcDbEntity
  8
0
100
AcDbLine
 62
7
  6
CONTINUOUS
 10
753.3144201288
 20
582.443451872
 11
753.5814150289
 21
582.17783501
  0
LINE
  5
686
100
AcDbEntity
  8
0
100
AcDbLine
 62
7
  6
CONTINUOUS
 10
752.5148134667
 20
583.2430585341
 11
752.7818083668
 21
582.9774416722
  0
LINE
  5
687
100
AcDbEntity
  8
0
100
AcDbLine
 62
7
  6
CONTINUOUS
 10
752.5148134667
 20
585.6442900873
 11
752.2478185666
 21
585.9099069492
  0
LINE
  5
688
100
AcDbEntity
  8
0
100
AcDbLine
 62
7
  6
CONTINUOUS
 10
753.5814150289
 20
584.8446834252
 11
753.3144201288
 21
585.1103002871
  0
LINE
  5
689
100
AcDbEntity
  8
0
100
AcDbLine
 62
7
  6
CONTINUOUS
 10
760.2488805763
 20
579.7762589473
 11
760.5158754764
 21
579.5106420854
  0
LINE
  5
68A
100
AcDbEntity
  8
0
100
AcDbLine
 62
7
  6
CONTINUOUS
 10
752.7818083668
 20
588.3111385024
 11
752.5148134667
 21
588.5767553643
  0
LINE
  5
68B
100
AcDbEntity
  8
0
100
AcDbLine
 62
7
  6
CONTINUOUS
 10
753.848409929
 20
588.3111385024
 11
753.5814150289
 21
588.5767553643
  0
LINE
  5
68C
100
AcDbEntity
  8
0
100
AcDbLine
 62
7
  6
CONTINUOUS
 10
790.6525372527
 20
557.9064482974
 11
790.9195321528
 21
557.6408314354
  0
LINE
  5
68D
100
AcDbEntity
  8
0
100
AcDbLine
 62
7
  6
CONTINUOUS
 10
792.5201235153
 20
564.3084692376
 11
792.2531286152
 21
564.5740860995
  0
LINE
  5
68E
100
AcDbEntity
  8
0
100
AcDbLine
 62
7
  6
CONTINUOUS
 10
795.9865785925
 20
563.2404896372
 11
796.2535734926
 21
562.9748727753
  0
LINE
  5
68F
100
AcDbEntity
  8
0
100
AcDbLine
 62
7
  6
CONTINUOUS
 10
691.440332959
 20
621.1146486939
 11
691.1735103136
 21
621.3802655558
  0
LINE
  5
690
100
AcDbEntity
  8
0
100
AcDbLine
 62
7
  6
CONTINUOUS
 10
686.6390756359
 20
627.2482966958
 11
686.9058982813
 21
626.9826798339
  0
LINE
  5
691
100
AcDbEntity
  8
0
100
AcDbLine
 62
7
  6
CONTINUOUS
 10
758.9154563687
 20
581.9094620717
 11
759.1822790141
 21
581.6438452098
  0
LINE
  5
692
100
AcDbEntity
  8
0
100
AcDbLine
 62
7
  6
CONTINUOUS
 10
794.9201492851
 20
562.706499837
 11
795.4539668305
 21
562.1752661131
  0
LINE
  5
693
100
AcDbEntity
  8
0
100
AcDbLine
 62
7
  6
CONTINUOUS
 10
795.1871441852
 20
563.7744794374
 11
795.4539668305
 21
563.5088625755
  0
LINE
  5
694
100
AcDbEntity
  8
0
100
AcDbLine
 62
7
  6
CONTINUOUS
 10
752.7818083668
 20
587.5115318403
 11
752.5148134667
 21
587.7774932118
  0
LINE
  5
695
100
AcDbEntity
  8
0
100
AcDbLine
 62
7
  6
CONTINUOUS
 10
750.381782597
 20
560.8416696508
 11
749.3138029966
 21
561.9068931748
  0
LINE
  5
696
100
AcDbEntity
  8
0
100
AcDbLine
 62
7
  6
CONTINUOUS
 10
750.381782597
 20
566.4413278525
 11
750.6473994589
 21
566.1757109906
  0
LINE
  5
697
100
AcDbEntity
  8
0
100
AcDbLine
 62
7
  6
CONTINUOUS
 10
751.1812170044
 20
588.8451283026
 11
751.7152068046
 21
588.3111385024
  0
LINE
  5
698
100
AcDbEntity
  8
0
100
AcDbLine
 62
7
  6
CONTINUOUS
 10
759.4492739142
 20
581.3754722715
 11
759.9818856762
 21
580.8442385477
  0
LINE
  5
699
100
AcDbEntity
  8
0
100
AcDbLine
 62
7
  6
CONTINUOUS
 10
753.3144201288
 20
587.7774932118
 11
753.0488032669
 21
588.0431100737
  0
LINE
  5
69A
100
AcDbEntity
  8
0
100
AcDbLine
 62
7
  6
CONTINUOUS
 10
795.7209617306
 20
564.0400962993
 11
795.9865785925
 21
563.7744794374
  0
LINE
  5
69B
100
AcDbEntity
  8
0
100
AcDbLine
 62
7
  6
CONTINUOUS
 10
686.9058982813
 20
620.5810034032
 11
687.4398880815
 21
620.047013603
  0
LINE
  5
69C
100
AcDbEntity
  8
0
100
AcDbLine
 62
7
  6
CONTINUOUS
 10
692.5069345212
 20
619.7810522315
 11
691.7073278591
 21
620.5810034032
  0
LINE
  5
69D
100
AcDbEntity
  8
0
100
AcDbLine
 62
7
  6
CONTINUOUS
 10
703.9746238629
 20
620.3150420318
 11
704.241618763
 21
620.047013603
  0
LINE
  5
69E
100
AcDbEntity
  8
0
100
AcDbLine
 62
7
  6
CONTINUOUS
 10
752.5148134667
 20
588.0431100737
 11
752.2478185666
 21
588.3111385024
  0
LINE
  5
69F
100
AcDbEntity
  8
0
100
AcDbLine
 62
7
  6
CONTINUOUS
 10
753.3144201288
 20
587.5115318403
 11
753.5814150289
 21
587.2435034116
  0
LINE
  5
6A0
100
AcDbEntity
  8
0
100
AcDbLine
 62
7
  6
CONTINUOUS
 10
767.717330824
 20
593.3771514135
 11
767.4503359239
 21
593.6451798422
  0
LINE
  5
6A1
100
AcDbEntity
  8
0
100
AcDbLine
 62
7
  6
CONTINUOUS
 10
760.7828703765
 20
579.5106420854
 11
761.0496930219
 21
579.2426136566
  0
LINE
  5
6A2
100
AcDbEntity
  8
0
100
AcDbLine
 62
7
  6
CONTINUOUS
 10
750.1147876969
 20
564.3084692376
 11
750.381782597
 21
564.0400962993
  0
LINE
  5
6A3
100
AcDbEntity
  8
0
100
AcDbLine
 62
7
  6
CONTINUOUS
 10
752.2478185666
 20
582.9774416722
 11
752.5148134667
 21
582.7090687339
  0
LINE
  5
6A4
100
AcDbEntity
  8
0
100
AcDbLine
 62
7
  6
CONTINUOUS
 10
752.2478185666
 20
585.9099069492
 11
751.9808236665
 21
586.1782798875
  0
LINE
  5
6A5
100
AcDbEntity
  8
0
100
AcDbLine
 62
7
  6
CONTINUOUS
 10
752.7818083668
 20
585.375917149
 11
752.5148134667
 21
585.6442900873
  0
LINE
  5
6A6
100
AcDbEntity
  8
0
100
AcDbLine
 62
7
  6
CONTINUOUS
 10
759.9818856762
 20
580.3102487475
 11
760.2488805763
 21
580.0418758092
  0
LINE
  5
6A7
100
AcDbEntity
  8
0
100
AcDbLine
 62
7
  6
CONTINUOUS
 10
758.6484614686
 20
582.17783501
 11
758.9154563687
 21
581.9094620717
  0
LINE
  5
6A8
100
AcDbEntity
  8
0
100
AcDbLine
 62
7
  6
CONTINUOUS
 10
759.1822790141
 20
581.6438452098
 11
759.4492739142
 21
581.3754722715
  0
LINE
  5
6A9
100
AcDbEntity
  8
0
100
AcDbLine
 62
7
  6
CONTINUOUS
 10
753.5814150289
 20
588.5767553643
 11
753.3144201288
 21
588.8451283026
  0
LINE
  5
6AA
100
AcDbEntity
  8
0
100
AcDbLine
 62
7
  6
CONTINUOUS
 10
757.5818599064
 20
584.5763104869
 11
757.3148650063
 21
584.8446834252
  0
LINE
  5
6AB
100
AcDbEntity
  8
0
100
AcDbLine
 62
7
  6
CONTINUOUS
 10
767.1833410238
 20
593.9107967042
 11
766.9163461237
 21
594.1791696425
  0
LINE
  5
6AC
100
AcDbEntity
  8
0
100
AcDbLine
 62
7
  6
CONTINUOUS
 10
792.7869461606
 20
564.0400962993
 11
792.5201235153
 21
564.3084692376
  0
LINE
  5
6AD
100
AcDbEntity
  8
0
100
AcDbLine
 62
7
  6
CONTINUOUS
 10
795.7209617306
 20
562.1752661131
 11
795.9865785925
 21
561.9068931748
  0
LINE
  5
6AE
100
AcDbEntity
  8
0
100
AcDbLine
 62
7
  6
CONTINUOUS
 10
748.2473736891
 20
560.0396514218
 11
749.5807978967
 21
558.4404380976
  0
LINE
  5
6AF
100
AcDbEntity
  8
0
100
AcDbLine
 62
7
  6
CONTINUOUS
 10
691.440332959
 20
627.2482966958
 11
691.972944721
 21
626.4486900337
  0
LINE
  5
6B0
100
AcDbEntity
  8
0
100
AcDbLine
 62
7
  6
CONTINUOUS
 10
270.3817962804
 20
1348.8071818778
 11
266.1026431781
 21
1356.8733561922
  0
LINE
  5
6B1
100
AcDbEntity
  8
0
100
AcDbLine
 62
7
  6
CONTINUOUS
 10
437.2188133828
 20
1117.7709826626
 11
437.4871863211
 21
1117.2397489388
  0
LINE
  5
6B2
100
AcDbEntity
  8
0
100
AcDbLine
 62
7
  6
CONTINUOUS
 10
441.4876311985
 20
1036.6958280605
 11
441.7556596273
 21
1036.162010515
  0
LINE
  5
6B3
100
AcDbEntity
  8
0
100
AcDbLine
 62
7
  6
CONTINUOUS
 10
437.7552147498
 20
1116.9713760005
 11
437.4871863211
 21
1117.5053658007
  0
LINE
  5
6B4
100
AcDbEntity
  8
0
100
AcDbLine
 62
7
  6
CONTINUOUS
 10
382.0146033271
 20
1117.2397489388
 11
381.7489864652
 21
1117.7709826626
  0
LINE
  5
6B5
100
AcDbEntity
  8
0
100
AcDbLine
 62
7
  6
CONTINUOUS
 10
686.6390756359
 20
621.1146486939
 11
686.9058982813
 21
620.5810034032
  0
LINE
  5
6B6
100
AcDbEntity
  8
0
100
AcDbLine
 62
7
  6
CONTINUOUS
 10
412.4189490226
 20
1120.706204016
 11
412.6849103941
 21
1120.1723864706
  0
LINE
  5
6B7
100
AcDbEntity
  8
0
100
AcDbLine
 62
7
  6
CONTINUOUS
 10
436.9531965208
 20
1120.4380033325
 11
436.6875796589
 21
1120.9718208779
  0
LINE
  5
6B8
100
AcDbEntity
  8
0
100
AcDbLine
 62
7
  6
CONTINUOUS
 10
437.2188133828
 20
1118.8387900083
 11
436.9531965208
 21
1119.3727798085
  0
LINE
  5
6B9
100
AcDbEntity
  8
0
100
AcDbLine
 62
7
  6
CONTINUOUS
 10
422.7666378221
 20
1125.1781102107
 11
423.4725378871
 21
1123.7144613938
  0
LINE
  5
6BA
100
AcDbEntity
  8
0
100
AcDbLine
 62
7
  6
CONTINUOUS
 10
425.12618372
 20
1125.5376059245
 11
424.7251746055
 21
1126.5637276148
  0
LINE
  5
6BB
100
AcDbEntity
  8
0
100
AcDbLine
 62
7
  6
CONTINUOUS
 10
440.4482458906
 20
1170.3634658309
 11
440.8365081518
 21
1169.3320042426
  0
LINE
  5
6BC
100
AcDbEntity
  8
0
100
AcDbLine
 62
7
  6
CONTINUOUS
 10
686.3732865193
 20
624.8494767094
 11
686.6390756359
 21
621.914255356
  0
LINE
  5
6BD
100
AcDbEntity
  8
0
100
AcDbLine
 62
7
  6
CONTINUOUS
 10
688.7733122891
 20
619.7810522315
 11
690.1069087514
 21
557.6408314354
  0
LINE
  5
6BE
100
AcDbEntity
  8
0
100
AcDbLine
 62
7
  6
CONTINUOUS
 10
693.5735360834
 20
619.7810522315
 11
694.6399653909
 21
557.6408314354
  0
LINE
  5
6BF
100
AcDbEntity
  8
0
100
AcDbLine
 62
7
  6
CONTINUOUS
 10
686.3732865193
 20
1113.7050809709
 11
686.3732865193
 21
628.3159317867
  0
LINE
  5
6C0
100
AcDbEntity
  8
0
100
AcDbLine
 62
7
  6
CONTINUOUS
 10
686.6390756359
 20
1114.7703044949
 11
686.6390756359
 21
1114.2390707711
  0
LINE
  5
6C1
100
AcDbEntity
  8
0
100
AcDbLine
 62
7
  6
CONTINUOUS
 10
686.6390756359
 20
627.782286496
 11
686.6390756359
 21
627.2482966958
  0
LINE
  5
6C2
100
AcDbEntity
  8
0
100
AcDbLine
 62
7
  6
CONTINUOUS
 10
686.6390756359
 20
625.3807104333
 11
686.6390756359
 21
625.1150935714
  0
LINE
  5
6C3
100
AcDbEntity
  8
0
100
AcDbLine
 62
7
  6
CONTINUOUS
 10
686.6390756359
 20
621.914255356
 11
686.6390756359
 21
621.1146486939
  0
LINE
  5
6C4
100
AcDbEntity
  8
0
100
AcDbLine
 62
7
  6
CONTINUOUS
 10
690.6395205134
 20
1142.7761747136
 11
690.6395205134
 21
1135.0409018206
  0
LINE
  5
6C5
100
AcDbEntity
  8
0
100
AcDbLine
 62
7
  6
CONTINUOUS
 10
690.9065154135
 20
1134.2388835916
 11
690.9065154135
 21
1128.1078194113
  0
LINE
  5
6C6
100
AcDbEntity
  8
0
100
AcDbLine
 62
7
  6
CONTINUOUS
 10
691.1735103136
 20
1147.5738146864
 11
691.1735103136
 21
1145.9746013621
  0
LINE
  5
6C7
100
AcDbEntity
  8
0
100
AcDbLine
 62
7
  6
CONTINUOUS
 10
691.1735103136
 20
1127.5712457895
 11
691.1735103136
 21
1124.1047907122
  0
LINE
  5
6C8
100
AcDbEntity
  8
0
100
AcDbLine
 62
7
  6
CONTINUOUS
 10
691.1735103136
 20
1118.5051325105
 11
691.1735103136
 21
1117.4373251649
  0
LINE
  5
6C9
100
AcDbEntity
  8
0
100
AcDbLine
 62
7
  6
CONTINUOUS
 10
691.1735103136
 20
1113.7050809709
 11
691.1735103136
 21
628.3159317867
  0
LINE
  5
6CA
100
AcDbEntity
  8
0
100
AcDbLine
 62
7
  6
CONTINUOUS
 10
691.1735103136
 20
621.3802655558
 11
691.1735103136
 21
625.3807104333
  0
LINE
  5
6CB
100
AcDbEntity
  8
0
100
AcDbLine
 62
7
  6
CONTINUOUS
 10
691.440332959
 20
625.3807104333
 11
691.440332959
 21
625.6490833716
  0
LINE
  5
6CC
100
AcDbEntity
  8
0
100
AcDbLine
 62
7
  6
CONTINUOUS
 10
691.7073278591
 20
1149.1754395775
 11
691.7073278591
 21
1148.6416220321
  0
LINE
  5
6CD
100
AcDbEntity
  8
0
100
AcDbLine
 62
7
  6
CONTINUOUS
 10
1086.1554302453
 20
1116.3721016408
 11
1086.6880420073
 21
1116.9059191863
  0
LINE
  5
6CE
100
AcDbEntity
  8
0
100
AcDbLine
 62
7
  6
CONTINUOUS
 10
1090.6881423752
 20
1116.3721016408
 11
1091.2221321754
 21
1116.9059191863
  0
LINE
  5
6CF
100
AcDbEntity
  8
0
100
AcDbLine
 62
7
  6
CONTINUOUS
 10
1017.0831605685
 20
589.6447349648
 11
1012.5488981456
 21
591.5123212273
  0
LINE
  5
6D0
100
AcDbEntity
  8
0
100
AcDbLine
 62
7
  6
CONTINUOUS
 10
1015.2157465607
 20
591.7779380892
 11
1019.7501812384
 21
589.9103518267
  0
LINE
  5
6D1
100
AcDbEntity
  8
0
100
AcDbLine
 62
7
  6
CONTINUOUS
 10
1015.749736361
 20
590.178724765
 11
1019.4833585931
 21
588.5767553643
  0
LINE
  5
6D2
100
AcDbEntity
  8
0
100
AcDbLine
 62
7
  6
CONTINUOUS
 10
1025.0837058139
 20
589.3763620265
 11
1021.0834331912
 21
591.243948289
  0
LINE
  5
6D3
100
AcDbEntity
  8
0
100
AcDbLine
 62
7
  6
CONTINUOUS
 10
1027.4837315837
 20
564.3084692376
 11
1026.9497417835
 21
564.5740860995
  0
LINE
  5
6D4
100
AcDbEntity
  8
0
100
AcDbLine
 62
7
  6
CONTINUOUS
 10
997.3463807883
 20
581.9094620717
 11
997.8803705885
 21
581.6438452098
  0
LINE
  5
6D5
100
AcDbEntity
  8
0
100
AcDbLine
 62
7
  6
CONTINUOUS
 10
1024.016070723
 20
609.9129207236
 11
1024.5500605232
 21
609.6473038617
  0
LINE
  5
6D6
100
AcDbEntity
  8
0
100
AcDbLine
 62
7
  6
CONTINUOUS
 10
983.2116707766
 20
610.9805558145
 11
982.6778532312
 21
611.2461726764
  0
LINE
  5
6D7
100
AcDbEntity
  8
0
100
AcDbLine
 62
7
  6
CONTINUOUS
 10
1021.8830398533
 20
610.4469105238
 11
1022.4170296536
 21
610.1809491523
  0
LINE
  5
6D8
100
AcDbEntity
  8
0
100
AcDbLine
 62
7
  6
CONTINUOUS
 10
1022.6826465155
 20
610.4469105238
 11
1023.2166363157
 21
610.1809491523
  0
LINE
  5
6D9
100
AcDbEntity
  8
0
100
AcDbLine
 62
7
  6
CONTINUOUS
 10
990.9457378863
 20
585.375917149
 11
992.0123394485
 21
584.8446834252
  0
LINE
  5
6DA
100
AcDbEntity
  8
0
100
AcDbLine
 62
7
  6
CONTINUOUS
 10
1019.4833585931
 20
586.9778865496
 11
1015.749736361
 21
588.8451283026
  0
LINE
  5
6DB
100
AcDbEntity
  8
0
100
AcDbLine
 62
7
  6
CONTINUOUS
 10
1024.5500605232
 20
609.9129207236
 11
1023.483458961
 21
610.4469105238
  0
LINE
  5
6DC
100
AcDbEntity
  8
0
100
AcDbLine
 62
7
  6
CONTINUOUS
 10
1022.4170296536
 20
610.4469105238
 11
1023.483458961
 21
609.9129207236
  0
LINE
  5
6DD
100
AcDbEntity
  8
0
100
AcDbLine
 62
7
  6
CONTINUOUS
 10
1008.8152759135
 20
608.5793242613
 11
1009.8818774757
 21
608.045334461
  0
LINE
  5
6DE
100
AcDbEntity
  8
0
100
AcDbLine
 62
7
  6
CONTINUOUS
 10
1026.6829191382
 20
600.8468074446
 11
1027.2167366836
 21
600.5784345063
  0
LINE
  5
6DF
100
AcDbEntity
  8
0
100
AcDbLine
 62
7
  6
CONTINUOUS
 10
1010.4156950211
 20
592.3115833799
 11
1010.9484790379
 21
592.0435549511
  0
LINE
  5
6E0
100
AcDbEntity
  8
0
100
AcDbLine
 62
7
  6
CONTINUOUS
 10
984.8120898843
 20
620.3150420318
 11
985.3447016463
 21
620.047013603
  0
LINE
  5
6E1
100
AcDbEntity
  8
0
100
AcDbLine
 62
7
  6
CONTINUOUS
 10
984.8120898843
 20
558.4404380976
 11
983.2116707766
 21
559.508417698
  0
LINE
  5
6E2
100
AcDbEntity
  8
0
100
AcDbLine
 62
7
  6
CONTINUOUS
 10
786.3864755133
 20
595.5127661048
 11
786.1194806132
 21
595.7783829667
  0
LINE
  5
6E3
100
AcDbEntity
  8
0
100
AcDbLine
 62
7
  6
CONTINUOUS
 10
793.5865528227
 20
609.1133140615
 11
793.3195579226
 21
609.3789309234
  0
LINE
  5
6E4
100
AcDbEntity
  8
0
100
AcDbLine
 62
7
  6
CONTINUOUS
 10
795.7209617306
 20
619.7810522315
 11
795.4539668305
 21
620.047013603
  0
LINE
  5
6E5
100
AcDbEntity
  8
0
100
AcDbLine
 62
7
  6
CONTINUOUS
 10
786.3864755133
 20
613.3793758009
 11
786.6520923753
 21
613.1137589389
  0
LINE
  5
6E6
100
AcDbEntity
  8
0
100
AcDbLine
 62
7
  6
CONTINUOUS
 10
787.1860821755
 20
612.848142077
 11
787.7198997209
 21
612.3141522768
  0
LINE
  5
6E7
100
AcDbEntity
  8
0
100
AcDbLine
 62
7
  6
CONTINUOUS
 10
750.6473994589
 20
619.7810522315
 11
750.381782597
 21
620.047013603
  0
LINE
  5
6E8
100
AcDbEntity
  8
0
100
AcDbLine
 62
7
  6
CONTINUOUS
 10
791.4535219531
 20
613.9133656011
 11
791.9861337151
 21
613.3793758009
  0
LINE
  5
6E9
100
AcDbEntity
  8
0
100
AcDbLine
 62
7
  6
CONTINUOUS
 10
421.3055728268
 20
1124.4723824005
 11
423.4622026006
 21
1121.4198555458
  0
LINE
  5
6EA
100
AcDbEntity
  8
0
100
AcDbLine
 62
7
  6
CONTINUOUS
 10
425.7407887545
 20
1124.6651354929
 11
425.12618372
 21
1125.5376059245
  0
LINE
  5
6EB
100
AcDbEntity
  8
0
100
AcDbLine
 62
7
  6
CONTINUOUS
 10
422.4490000184
 20
1123.3212037441
 11
422.602651277
 21
1123.1024401808
  0
LINE
  5
6EC
100
AcDbEntity
  8
0
100
AcDbLine
 62
7
  6
CONTINUOUS
 10
418.6256330489
 20
1133.3536663067
 11
421.3968678572
 21
1129.431252842
  0
LINE
  5
6ED
100
AcDbEntity
  8
0
100
AcDbLine
 62
7
  6
CONTINUOUS
 10
375.0189924348
 20
1198.4032702401
 11
348.8624494726
 21
1235.7620579369
  0
LINE
  5
6EE
100
AcDbEntity
  8
0
100
AcDbLine
 62
7
  6
CONTINUOUS
 10
322.7734303819
 20
1273.4984280989
 11
296.4708153711
 21
1311.0759793591
  0
LINE
  5
6EF
100
AcDbEntity
  8
0
100
AcDbLine
 62
7
  6
CONTINUOUS
 10
413.5079437055
 20
1136.1689983373
 11
414.1146250205
 21
1135.2965279056
  0
LINE
  5
6F0
100
AcDbEntity
  8
0
100
AcDbLine
 62
7
  6
CONTINUOUS
 10
296.4708153711
 20
1311.0759793591
 11
270.3817962804
 21
1348.8071818778
  0
LINE
  5
6F1
100
AcDbEntity
  8
0
100
AcDbLine
 62
7
  6
CONTINUOUS
 10
348.8624494726
 20
1235.7620579369
 11
322.7734303819
 21
1273.4984280989
  0
LINE
  5
6F2
100
AcDbEntity
  8
0
100
AcDbLine
 62
7
  6
CONTINUOUS
 10
264.198883413
 20
1360.0964152735
 11
259.4977061138
 21
1366.8941054302
  0
LINE
  5
6F3
100
AcDbEntity
  8
0
100
AcDbLine
 62
7
  6
CONTINUOUS
 10
256.697877013
 20
1370.4752821871
 11
254.7265933763
 21
1373.3259264464
  0
LINE
  5
6F4
100
AcDbEntity
  8
0
100
AcDbLine
 62
7
  6
CONTINUOUS
 10
404.1472747626
 20
1156.2575223665
 11
375.0189924348
 21
1198.4032702401
  0
LINE
  5
6F5
100
AcDbEntity
  8
0
100
AcDbLine
 62
7
  6
CONTINUOUS
 10
418.8261376061
 20
1135.5257990102
 11
408.0774396921
 21
1151.0771322853
  0
LINE
  5
6F6
100
AcDbEntity
  8
0
100
AcDbLine
 62
7
  6
CONTINUOUS
 10
252.2809200913
 20
1369.3644111479
 11
413.2058088315
 21
1136.6118653619
  0
LINE
  5
6F7
100
AcDbEntity
  8
0
100
AcDbLine
 62
7
  6
CONTINUOUS
 10
413.2058088315
 20
1136.6118653619
 11
413.5079437055
 21
1136.1689983373
  0
LINE
  5
6F8
100
AcDbEntity
  8
0
100
AcDbLine
 62
7
  6
CONTINUOUS
 10
412.4189490226
 20
1116.437558455
 11
411.8825476556
 21
1117.2397489388
  0
LINE
  5
6F9
100
AcDbEntity
  8
0
100
AcDbLine
 62
7
  6
CONTINUOUS
 10
749.3138029966
 20
561.9068931748
 11
748.7811912346
 21
562.706499837
  0
LINE
  5
6FA
100
AcDbEntity
  8
0
100
AcDbLine
 62
7
  6
CONTINUOUS
 10
435.9896033136
 20
1139.7398398077
 11
439.0002722582
 21
1135.0152358592
  0
LINE
  5
6FB
100
AcDbEntity
  8
0
100
AcDbLine
 62
7
  6
CONTINUOUS
 10
266.1026431781
 20
1356.8733561922
 11
264.198883413
 21
1360.0964152735
  0
LINE
  5
6FC
100
AcDbEntity
  8
0
100
AcDbLine
 62
7
  6
CONTINUOUS
 10
749.5807978967
 20
565.3736927616
 11
750.1147876969
 21
564.3084692376
  0
LINE
  5
6FD
100
AcDbEntity
  8
0
100
AcDbLine
 62
7
  6
CONTINUOUS
 10
691.7073278591
 20
620.5810034032
 11
691.440332959
 21
621.1146486939
  0
LINE
  5
6FE
100
AcDbEntity
  8
0
100
AcDbLine
 62
7
  6
CONTINUOUS
 10
686.9058982813
 20
626.9826798339
 11
687.1728931814
 21
626.4486900337
  0
LINE
  5
6FF
100
AcDbEntity
  8
0
100
AcDbLine
 62
7
  6
CONTINUOUS
 10
703.9746238629
 20
626.4486900337
 11
704.241618763
 21
625.9147002335
  0
LINE
  5
700
100
AcDbEntity
  8
0
100
AcDbLine
 62
7
  6
CONTINUOUS
 10
752.2478185666
 20
559.2400447597
 11
752.5148134667
 21
558.7060549595
  0
LINE
  5
701
100
AcDbEntity
  8
0
100
AcDbLine
 62
7
  6
CONTINUOUS
 10
751.9808236665
 20
586.1782798875
 11
751.7152068046
 21
586.7095136113
  0
LINE
  5
702
100
AcDbEntity
  8
0
100
AcDbLine
 62
7
  6
CONTINUOUS
 10
751.4482119045
 20
587.2435034116
 11
751.1812170044
 21
587.7774932118
  0
LINE
  5
703
100
AcDbEntity
  8
0
100
AcDbLine
 62
7
  6
CONTINUOUS
 10
751.1812170044
 20
565.3736927616
 11
750.914394359
 21
565.9076825619
  0
LINE
  5
704
100
AcDbEntity
  8
0
100
AcDbLine
 62
7
  6
CONTINUOUS
 10
747.447767027
 20
561.6412763129
 11
748.2473736891
 21
560.0396514218
  0
LINE
  5
705
100
AcDbEntity
  8
0
100
AcDbLine
 62
7
  6
CONTINUOUS
 10
686.3732865193
 20
628.3159317867
 11
686.6390756359
 21
627.782286496
  0
LINE
  5
706
100
AcDbEntity
  8
0
100
AcDbLine
 62
7
  6
CONTINUOUS
 10
751.9808236665
 20
564.0400962993
 11
751.7152068046
 21
564.5740860995
  0
LINE
  5
707
100
AcDbEntity
  8
0
100
AcDbLine
 62
7
  6
CONTINUOUS
 10
691.1735103136
 20
628.3159317867
 11
691.440332959
 21
627.2482966958
  0
LINE
  5
708
100
AcDbEntity
  8
0
100
AcDbLine
 62
7
  6
CONTINUOUS
 10
751.7152068046
 20
583.7767038247
 11
751.4482119045
 21
586.7095136113
  0
LINE
  5
709
100
AcDbEntity
  8
0
100
AcDbLine
 62
7
  6
CONTINUOUS
 10
705.0424312086
 20
588.8451283026
 11
704.241618763
 21
619.7810522315
  0
LINE
  5
70A
100
AcDbEntity
  8
0
100
AcDbLine
 62
7
  6
CONTINUOUS
 10
705.5750429706
 20
557.6408314354
 11
705.0424312086
 21
588.8451283026
  0
LINE
  5
70B
100
AcDbEntity
  8
0
100
AcDbLine
 62
7
  6
CONTINUOUS
 10
699.4413949687
 20
1156.6426840418
 11
699.4413949687
 21
1154.241107979
  0
LINE
  5
70C
100
AcDbEntity
  8
0
100
AcDbLine
 62
7
  6
CONTINUOUS
 10
699.7083898688
 20
1157.4447022707
 11
699.7083898688
 21
1156.9083009037
  0
LINE
  5
70D
100
AcDbEntity
  8
0
100
AcDbLine
 62
7
  6
CONTINUOUS
 10
699.7083898688
 20
1153.9754911171
 11
699.7083898688
 21
1152.9078560262
  0
LINE
  5
70E
100
AcDbEntity
  8
0
100
AcDbLine
 62
7
  6
CONTINUOUS
 10
699.9740067307
 20
1152.3764500476
 11
699.9740067307
 21
1151.5742595639
  0
LINE
  5
70F
100
AcDbEntity
  8
0
100
AcDbLine
 62
7
  6
CONTINUOUS
 10
700.5079965309
 20
1149.9750462396
 11
700.5079965309
 21
1149.1754395775
  0
LINE
  5
710
100
AcDbEntity
  8
0
100
AcDbLine
 62
7
  6
CONTINUOUS
 10
702.6410274006
 20
1139.3071358148
 11
702.6410274006
 21
1137.7080947453
  0
LINE
  5
711
100
AcDbEntity
  8
0
100
AcDbLine
 62
7
  6
CONTINUOUS
 10
702.9080223007
 20
1136.108881421
 11
702.9080223007
 21
1133.9732667297
  0
LINE
  5
712
100
AcDbEntity
  8
0
100
AcDbLine
 62
7
  6
CONTINUOUS
 10
702.9080223007
 20
1124.1047907122
 11
702.9080223007
 21
1123.3051840501
  0
LINE
  5
713
100
AcDbEntity
  8
0
100
AcDbLine
 62
7
  6
CONTINUOUS
 10
703.1750172008
 20
1131.571690667
 11
703.1750172008
 21
1124.906981196
  0
LINE
  5
714
100
AcDbEntity
  8
0
100
AcDbLine
 62
7
  6
CONTINUOUS
 10
703.1750172008
 20
1122.505577388
 11
703.1750172008
 21
1121.1721531804
  0
LINE
  5
715
100
AcDbEntity
  8
0
100
AcDbLine
 62
7
  6
CONTINUOUS
 10
703.9746238629
 20
1119.3047391726
 11
703.9746238629
 21
1116.3721016408
  0
LINE
  5
716
100
AcDbEntity
  8
0
100
AcDbLine
 62
7
  6
CONTINUOUS
 10
703.9746238629
 20
1115.5724949787
 11
703.9746238629
 21
626.4486900337
  0
LINE
  5
717
100
AcDbEntity
  8
0
100
AcDbLine
 62
7
  6
CONTINUOUS
 10
703.9746238629
 20
620.3150420318
 11
703.9746238629
 21
625.6490833716
  0
LINE
  5
718
100
AcDbEntity
  8
0
100
AcDbLine
 62
7
  6
CONTINUOUS
 10
704.241618763
 20
1116.3721016408
 11
704.241618763
 21
1116.1039009573
  0
LINE
  5
719
100
AcDbEntity
  8
0
100
AcDbLine
 62
7
  6
CONTINUOUS
 10
704.241618763
 20
625.9147002335
 11
704.241618763
 21
625.6490833716
  0
LINE
  5
71A
100
AcDbEntity
  8
0
100
AcDbLine
 62
7
  6
CONTINUOUS
 10
704.241618763
 20
620.047013603
 11
704.241618763
 21
619.7810522315
  0
LINE
  5
71B
100
AcDbEntity
  8
0
100
AcDbLine
 62
7
  6
CONTINUOUS
 10
735.446087885
 20
1119.3047391726
 11
735.446087885
 21
1120.9063640637
  0
LINE
  5
71C
100
AcDbEntity
  8
0
100
AcDbLine
 62
7
  6
CONTINUOUS
 10
747.1807721269
 20
619.7810522315
 11
747.1807721269
 21
562.9748727753
  0
LINE
  5
71D
100
AcDbEntity
  8
0
100
AcDbLine
 62
7
  6
CONTINUOUS
 10
747.447767027
 20
561.9068931748
 11
747.447767027
 21
561.6412763129
  0
LINE
  5
71E
100
AcDbEntity
  8
0
100
AcDbLine
 62
7
  6
CONTINUOUS
 10
748.5143685892
 20
563.7744794374
 11
748.5143685892
 21
620.3150420318
  0
LINE
  5
71F
100
AcDbEntity
  8
0
100
AcDbLine
 62
7
  6
CONTINUOUS
 10
749.3138029966
 20
620.3150420318
 11
749.3138029966
 21
566.4413278525
  0
LINE
  5
720
100
AcDbEntity
  8
0
100
AcDbLine
 62
7
  6
CONTINUOUS
 10
750.914394359
 20
565.9076825619
 11
750.914394359
 21
619.7810522315
  0
LINE
  5
721
100
AcDbEntity
  8
0
100
AcDbLine
 62
7
  6
CONTINUOUS
 10
751.4482119045
 20
586.7095136113
 11
751.4482119045
 21
587.2435034116
  0
LINE
  5
722
100
AcDbEntity
  8
0
100
AcDbLine
 62
7
  6
CONTINUOUS
 10
751.7152068046
 20
582.17783501
 11
751.7152068046
 21
583.7767038247
  0
LINE
  5
723
100
AcDbEntity
  8
0
100
AcDbLine
 62
7
  6
CONTINUOUS
 10
751.7152068046
 20
586.7095136113
 11
751.7152068046
 21
611.2461726764
  0
LINE
  5
724
100
AcDbEntity
  8
0
100
AcDbLine
 62
7
  6
CONTINUOUS
 10
751.9808236665
 20
611.5145456147
 11
751.9808236665
 21
613.9133656011
  0
LINE
  5
725
100
AcDbEntity
  8
0
100
AcDbLine
 62
7
  6
CONTINUOUS
 10
752.2478185666
 20
559.508417698
 11
752.2478185666
 21
559.2400447597
  0
LINE
  5
726
100
AcDbEntity
  8
0
100
AcDbLine
 62
7
  6
CONTINUOUS
 10
752.2478185666
 20
588.3111385024
 11
752.2478185666
 21
607.5141007372
  0
LINE
  5
727
100
AcDbEntity
  8
0
100
AcDbLine
 62
7
  6
CONTINUOUS
 10
752.5148134667
 20
607.5141007372
 11
752.5148134667
 21
606.7117379987
  0
LINE
  5
728
100
AcDbEntity
  8
0
100
AcDbLine
 62
7
  6
CONTINUOUS
 10
752.5148134667
 20
588.0431100737
 11
752.5148134667
 21
587.7774932118
  0
LINE
  5
729
100
AcDbEntity
  8
0
100
AcDbLine
 62
7
  6
CONTINUOUS
 10
752.5148134667
 20
583.7767038247
 11
752.5148134667
 21
583.2430585341
  0
LINE
  5
72A
100
AcDbEntity
  8
0
100
AcDbLine
 62
7
  6
CONTINUOUS
 10
752.5148134667
 20
560.3080243601
 11
752.5148134667
 21
560.0396514218
  0
LINE
  5
72B
100
AcDbEntity
  8
0
100
AcDbLine
 62
7
  6
CONTINUOUS
 10
752.5148134667
 20
558.7060549595
 11
752.5148134667
 21
557.6408314354
  0
LINE
  5
72C
100
AcDbEntity
  8
0
100
AcDbLine
 62
7
  6
CONTINUOUS
 10
752.5148134667
 20
588.5767553643
 11
752.5148134667
 21
589.1107451646
  0
LINE
  5
72D
100
AcDbEntity
  8
0
100
AcDbLine
 62
7
  6
CONTINUOUS
 10
752.7818083668
 20
608.8476971996
 11
752.7818083668
 21
608.5793242613
  0
LINE
  5
72E
100
AcDbEntity
  8
0
100
AcDbLine
 62
7
  6
CONTINUOUS
 10
752.7818083668
 20
582.9774416722
 11
752.7818083668
 21
582.7090687339
  0
LINE
  5
72F
100
AcDbEntity
  8
0
100
AcDbLine
 62
7
  6
CONTINUOUS
 10
752.7818083668
 20
588.0431100737
 11
752.7818083668
 21
588.3111385024
  0
LINE
  5
730
100
AcDbEntity
  8
0
100
AcDbLine
 62
7
  6
CONTINUOUS
 10
753.0488032669
 20
562.9748727753
 11
753.0488032669
 21
563.2404896372
  0
LINE
  5
731
100
AcDbEntity
  8
0
100
AcDbLine
 62
7
  6
CONTINUOUS
 10
753.3144201288
 20
614.4473554013
 11
753.3144201288
 21
613.3793758009
  0
LINE
  5
732
100
AcDbEntity
  8
0
100
AcDbLine
 62
7
  6
CONTINUOUS
 10
753.3144201288
 20
563.5088625755
 11
753.3144201288
 21
563.7744794374
  0
LINE
  5
733
100
AcDbEntity
  8
0
100
AcDbLine
 62
7
  6
CONTINUOUS
 10
753.3144201288
 20
588.8451283026
 11
753.3144201288
 21
608.045334461
  0
LINE
  5
734
100
AcDbEntity
  8
0
100
AcDbLine
 62
7
  6
CONTINUOUS
 10
753.5814150289
 20
587.5115318403
 11
753.5814150289
 21
587.2435034116
  0
LINE
  5
735
100
AcDbEntity
  8
0
100
AcDbLine
 62
7
  6
CONTINUOUS
 10
753.848409929
 20
588.0431100737
 11
753.848409929
 21
587.7774932118
  0
LINE
  5
736
100
AcDbEntity
  8
0
100
AcDbLine
 62
7
  6
CONTINUOUS
 10
753.848409929
 20
584.8446834252
 11
753.848409929
 21
582.17783501
  0
LINE
  5
737
100
AcDbEntity
  8
0
100
AcDbLine
 62
7
  6
CONTINUOUS
 10
686.9058982813
 20
625.6490833716
 11
686.6390756359
 21
625.3807104333
  0
LINE
  5
738
100
AcDbEntity
  8
0
100
AcDbLine
 62
7
  6
CONTINUOUS
 10
686.6390756359
 20
625.1150935714
 11
686.3732865193
 21
624.8494767094
  0
LINE
  5
739
100
AcDbEntity
  8
0
100
AcDbLine
 62
7
  6
CONTINUOUS
 10
747.7147619271
 20
620.047013603
 11
747.447767027
 21
619.7810522315
  0
LINE
  5
73A
100
AcDbEntity
  8
0
100
AcDbLine
 62
7
  6
CONTINUOUS
 10
756.2484356988
 20
613.6477487392
 11
757.3148650063
 21
614.4473554013
  0
LINE
  5
73B
100
AcDbEntity
  8
0
100
AcDbLine
 62
7
  6
CONTINUOUS
 10
751.9808236665
 20
613.9133656011
 11
752.7818083668
 21
614.4473554013
  0
LINE
  5
73C
100
AcDbEntity
  8
0
100
AcDbLine
 62
7
  6
CONTINUOUS
 10
754.3822274745
 20
610.1809491523
 11
753.5814150289
 21
609.6473038617
  0
LINE
  5
73D
100
AcDbEntity
  8
0
100
AcDbLine
 62
7
  6
CONTINUOUS
 10
754.6478443364
 20
609.6473038617
 11
754.1152325744
 21
609.3789309234
  0
LINE
  5
73E
100
AcDbEntity
  8
0
100
AcDbLine
 62
7
  6
CONTINUOUS
 10
748.2473736891
 20
620.3150420318
 11
747.7147619271
 21
620.047013603
  0
LINE
  5
73F
100
AcDbEntity
  8
0
100
AcDbLine
 62
7
  6
CONTINUOUS
 10
754.9148392365
 20
610.1809491523
 11
754.3822274745
 21
609.9129207236
  0
LINE
  5
740
100
AcDbEntity
  8
0
100
AcDbLine
 62
7
  6
CONTINUOUS
 10
753.3144201288
 20
589.3763620265
 11
757.0492481444
 21
591.243948289
  0
LINE
  5
741
100
AcDbEntity
  8
0
100
AcDbLine
 62
7
  6
CONTINUOUS
 10
751.4482119045
 20
613.6477487392
 11
751.9808236665
 21
613.9133656011
  0
LINE
  5
742
100
AcDbEntity
  8
0
100
AcDbLine
 62
7
  6
CONTINUOUS
 10
753.0488032669
 20
613.1137589389
 11
754.1152325744
 21
613.6477487392
  0
LINE
  5
743
100
AcDbEntity
  8
0
100
AcDbLine
 62
7
  6
CONTINUOUS
 10
755.1818341366
 20
610.1809491523
 11
753.5814150289
 21
609.3789309234
  0
LINE
  5
744
100
AcDbEntity
  8
0
100
AcDbLine
 62
7
  6
CONTINUOUS
 10
753.3144201288
 20
609.1133140615
 11
752.7818083668
 21
608.8476971996
  0
LINE
  5
745
100
AcDbEntity
  8
0
100
AcDbLine
 62
7
  6
CONTINUOUS
 10
769.3165441483
 20
608.5793242613
 11
768.249942586
 21
608.045334461
  0
LINE
  5
746
100
AcDbEntity
  8
0
100
AcDbLine
 62
7
  6
CONTINUOUS
 10
793.0539410607
 20
620.047013603
 11
792.5201235153
 21
619.7810522315
  0
LINE
  5
747
100
AcDbEntity
  8
0
100
AcDbLine
 62
7
  6
CONTINUOUS
 10
754.3822274745
 20
609.9129207236
 11
753.848409929
 21
609.6473038617
  0
LINE
  5
748
100
AcDbEntity
  8
0
100
AcDbLine
 62
7
  6
CONTINUOUS
 10
795.4539668305
 20
611.2461726764
 11
794.9201492851
 21
610.9805558145
  0
LINE
  5
749
100
AcDbEntity
  8
0
100
AcDbLine
 62
7
  6
CONTINUOUS
 10
758.6484614686
 20
586.9778865496
 11
762.6489063461
 21
588.8451283026
  0
LINE
  5
74A
100
AcDbEntity
  8
0
100
AcDbLine
 62
7
  6
CONTINUOUS
 10
762.9159012462
 20
591.7779380892
 11
758.3828446067
 21
589.9103518267
  0
LINE
  5
74B
100
AcDbEntity
  8
0
100
AcDbLine
 62
7
  6
CONTINUOUS
 10
761.0496930219
 20
589.6447349648
 11
765.5829219161
 21
591.5123212273
  0
LINE
  5
74C
100
AcDbEntity
  8
0
100
AcDbLine
 62
7
  6
CONTINUOUS
 10
762.6489063461
 20
590.178724765
 11
767.1833410238
 21
592.0435549511
  0
LINE
  5
74D
100
AcDbEntity
  8
0
100
AcDbLine
 62
7
  6
CONTINUOUS
 10
757.0492481444
 20
588.0431100737
 11
761.0496930219
 21
589.6447349648
  0
LINE
  5
74E
100
AcDbEntity
  8
0
100
AcDbLine
 62
7
  6
CONTINUOUS
 10
758.6484614686
 20
588.5767553643
 11
762.6489063461
 21
590.178724765
  0
LINE
  5
74F
100
AcDbEntity
  8
0
100
AcDbLine
 62
7
  6
CONTINUOUS
 10
758.3828446067
 20
589.9103518267
 11
754.3822274745
 21
588.3111385024
  0
LINE
  5
750
100
AcDbEntity
  8
0
100
AcDbLine
 62
7
  6
CONTINUOUS
 10
761.849299684
 20
592.8455731801
 11
766.9163461237
 21
594.7104033663
  0
LINE
  5
751
100
AcDbEntity
  8
0
100
AcDbLine
 62
7
  6
CONTINUOUS
 10
762.6489063461
 20
588.8451283026
 11
767.1833410238
 21
590.4443416269
  0
LINE
  5
752
100
AcDbEntity
  8
0
100
AcDbLine
 62
7
  6
CONTINUOUS
 10
797.054558193
 20
611.5145456147
 11
796.2535734926
 21
611.2461726764
  0
LINE
  5
753
100
AcDbEntity
  8
0
100
AcDbLine
 62
7
  6
CONTINUOUS
 10
757.0492481444
 20
591.243948289
 11
761.849299684
 21
592.8455731801
  0
LINE
  5
754
100
AcDbEntity
  8
0
100
AcDbLine
 62
7
  6
CONTINUOUS
 10
770.9169632559
 20
593.111190042
 11
772.5173823636
 21
593.6451798422
  0
LINE
  5
755
100
AcDbEntity
  8
0
100
AcDbLine
 62
7
  6
CONTINUOUS
 10
772.2503874635
 20
592.0435549511
 11
773.8509788259
 21
592.5775447514
  0
LINE
  5
756
100
AcDbEntity
  8
0
100
AcDbLine
 62
7
  6
CONTINUOUS
 10
755.9814407987
 20
610.4469105238
 11
755.1818341366
 21
610.1809491523
  0
LINE
  5
757
100
AcDbEntity
  8
0
100
AcDbLine
 62
7
  6
CONTINUOUS
 10
756.5152583442
 20
610.4469105238
 11
755.7158239368
 21
610.1809491523
  0
LINE
  5
758
100
AcDbEntity
  8
0
100
AcDbLine
 62
7
  6
CONTINUOUS
 10
755.7158239368
 20
610.4469105238
 11
754.9148392365
 21
610.1809491523
  0
LINE
  5
759
100
AcDbEntity
  8
0
100
AcDbLine
 62
7
  6
CONTINUOUS
 10
784.5190615056
 20
587.2435034116
 11
782.118863481
 21
586.4438967494
  0
LINE
  5
75A
100
AcDbEntity
  8
0
100
AcDbLine
 62
7
  6
CONTINUOUS
 10
767.1833410238
 20
590.4443416269
 11
772.2503874635
 21
592.0435549511
  0
LINE
  5
75B
100
AcDbEntity
  8
0
100
AcDbLine
 62
7
  6
CONTINUOUS
 10
768.249942586
 20
593.3771514135
 11
762.9159012462
 21
591.7779380892
  0
LINE
  5
75C
100
AcDbEntity
  8
0
100
AcDbLine
 62
7
  6
CONTINUOUS
 10
765.5829219161
 20
591.5123212273
 11
770.9169632559
 21
593.111190042
  0
LINE
  5
75D
100
AcDbEntity
  8
0
100
AcDbLine
 62
7
  6
CONTINUOUS
 10
1025.6163175759
 20
612.848142077
 11
1024.016070723
 21
613.6477487392
  0
LINE
  5
75E
100
AcDbEntity
  8
0
100
AcDbLine
 62
7
  6
CONTINUOUS
 10
1023.483458961
 20
609.6473038617
 11
1024.016070723
 21
609.3789309234
  0
LINE
  5
75F
100
AcDbEntity
  8
0
100
AcDbLine
 62
7
  6
CONTINUOUS
 10
441.7556596273
 20
1035.8963936531
 11
441.4876311985
 21
1036.162010515
  0
LINE
  5
760
100
AcDbEntity
  8
0
100
AcDbLine
 62
7
  6
CONTINUOUS
 10
441.7556596273
 20
1036.162010515
 11
442.5528547226
 21
1035.3624038529
  0
LINE
  5
761
100
AcDbEntity
  8
0
100
AcDbLine
 62
7
  6
CONTINUOUS
 10
442.0216209987
 20
1038.2950413847
 11
441.7556596273
 21
1038.5632420683
  0
LINE
  5
762
100
AcDbEntity
  8
0
100
AcDbLine
 62
7
  6
CONTINUOUS
 10
259.4977061138
 20
1366.8941054302
 11
256.697877013
 21
1370.4752821871
  0
LINE
  5
763
100
AcDbEntity
  8
0
100
AcDbLine
 62
7
  6
CONTINUOUS
 10
414.4374304674
 20
1199.0700684713
 11
411.3358110021
 21
1203.0861885332
  0
LINE
  5
764
100
AcDbEntity
  8
0
100
AcDbLine
 62
7
  6
CONTINUOUS
 10
374.8887678254
 20
1258.6176826599
 11
356.6521548743
 21
1282.6518745485
  0
LINE
  5
765
100
AcDbEntity
  8
0
100
AcDbLine
 62
7
  6
CONTINUOUS
 10
408.0774396921
 20
1151.0771322853
 11
404.1472747626
 21
1156.2575223665
  0
LINE
  5
766
100
AcDbEntity
  8
0
100
AcDbLine
 62
7
  6
CONTINUOUS
 10
370.0105126183
 20
1258.1672364252
 11
365.8484927626
 21
1263.7198690736
  0
LINE
  5
767
100
AcDbEntity
  8
0
100
AcDbLine
 62
7
  6
CONTINUOUS
 10
395.4301496562
 20
1225.1618436384
 11
383.092918214
 21
1241.5935710648
  0
LINE
  5
768
100
AcDbEntity
  8
0
100
AcDbLine
 62
7
  6
CONTINUOUS
 10
378.7093787186
 20
1246.9951362761
 11
374.5477033724
 21
1252.5505250009
  0
LINE
  5
769
100
AcDbEntity
  8
0
100
AcDbLine
 62
7
  6
CONTINUOUS
 10
391.9244204904
 20
1235.3870592934
 11
374.8887678254
 21
1258.6176826599
  0
LINE
  5
76A
100
AcDbEntity
  8
0
100
AcDbLine
 62
7
  6
CONTINUOUS
 10
440.117516724
 20
1134.8173151236
 11
440.2739240591
 21
1134.6011353819
  0
LINE
  5
76B
100
AcDbEntity
  8
0
100
AcDbLine
 62
7
  6
CONTINUOUS
 10
403.2277787775
 20
1214.3426935217
 11
395.4301496562
 21
1225.1618436384
  0
LINE
  5
76C
100
AcDbEntity
  8
0
100
AcDbLine
 62
7
  6
CONTINUOUS
 10
439.4770734733
 20
1131.1033299357
 11
439.3234222147
 21
1131.3169258558
  0
LINE
  5
76D
100
AcDbEntity
  8
0
100
AcDbLine
 62
7
  6
CONTINUOUS
 10
440.3156097144
 20
1165.9775147686
 11
440.1619584558
 21
1166.1935222555
  0
LINE
  5
76E
100
AcDbEntity
  8
0
100
AcDbLine
 62
7
  6
CONTINUOUS
 10
432.3694969777
 20
1123.1413697598
 11
432.059438384
 21
1123.5763130648
  0
LINE
  5
76F
100
AcDbEntity
  8
0
100
AcDbLine
 62
7
  6
CONTINUOUS
 10
432.8928069819
 20
1122.8600777134
 11
432.7391557233
 21
1123.0762574551
  0
LINE
  5
770
100
AcDbEntity
  8
0
100
AcDbLine
 62
7
  6
CONTINUOUS
 10
439.7478579785
 20
1134.8824274283
 11
439.9015092371
 21
1134.6662476866
  0
LINE
  5
771
100
AcDbEntity
  8
0
100
AcDbLine
 62
7
  6
CONTINUOUS
 10
367.0883826277
 20
1277.8714600531
 11
392.5521168878
 21
1241.9776992114
  0
LINE
  5
772
100
AcDbEntity
  8
0
100
AcDbLine
 62
7
  6
CONTINUOUS
 10
419.4093922718
 20
1134.5568659049
 11
419.5606319636
 21
1134.3432699848
  0
LINE
  5
773
100
AcDbEntity
  8
0
100
AcDbLine
 62
7
  6
CONTINUOUS
 10
419.237482007
 20
1134.4371488368
 11
419.0734954619
 21
1134.6688315082
  0
LINE
  5
774
100
AcDbEntity
  8
0
100
AcDbLine
 62
7
  6
CONTINUOUS
 10
445.8811614709
 20
1157.1716784535
 11
446.496111015
 21
1156.3017918435
  0
LINE
  5
775
100
AcDbEntity
  8
0
100
AcDbLine
 62
7
  6
CONTINUOUS
 10
443.5477982987
 20
1161.4039782572
 11
446.3162770307
 21
1157.4789809708
  0
LINE
  5
776
100
AcDbEntity
  8
0
100
AcDbLine
 62
7
  6
CONTINUOUS
 10
408.3768184898
 20
1212.0611790366
 11
391.9244204904
 21
1235.3870592934
  0
LINE
  5
777
100
AcDbEntity
  8
0
100
AcDbLine
 62
7
  6
CONTINUOUS
 10
419.9330467855
 20
1134.2755738586
 11
423.1652353698
 21
1129.6994535255
  0
LINE
  5
778
100
AcDbEntity
  8
0
100
AcDbLine
 62
7
  6
CONTINUOUS
 10
429.9889359974
 20
1148.2356175291
 11
430.1425872561
 21
1148.0168539658
  0
LINE
  5
779
100
AcDbEntity
  8
0
100
AcDbLine
 62
7
  6
CONTINUOUS
 10
438.2919606264
 20
1164.2220663641
 11
438.4456118851
 21
1164.0033028008
  0
LINE
  5
77A
100
AcDbEntity
  8
0
100
AcDbLine
 62
7
  6
CONTINUOUS
 10
436.5521874064
 20
1168.9673408855
 11
436.2448848891
 21
1169.4048680121
  0
LINE
  5
77B
100
AcDbEntity
  8
0
100
AcDbLine
 62
7
  6
CONTINUOUS
 10
439.9431948925
 20
1166.0398709969
 11
439.7895436338
 21
1166.2586345602
  0
LINE
  5
77C
100
AcDbEntity
  8
0
100
AcDbLine
 62
7
  6
CONTINUOUS
 10
446.0975134673
 20
1157.3253297122
 11
445.7902109501
 21
1157.7628568388
  0
LINE
  5
77D
100
AcDbEntity
  8
0
100
AcDbLine
 62
7
  6
CONTINUOUS
 10
440.4692609731
 20
1165.7585789505
 11
440.3156097144
 21
1165.9775147686
  0
LINE
  5
77E
100
AcDbEntity
  8
0
100
AcDbLine
 62
7
  6
CONTINUOUS
 10
440.5133581953
 20
1166.5190837789
 11
440.3597069367
 21
1166.738019597
  0
LINE
  5
77F
100
AcDbEntity
  8
0
100
AcDbLine
 62
7
  6
CONTINUOUS
 10
433.0440466737
 20
1122.6438979717
 11
432.8928069819
 21
1122.8600777134
  0
LINE
  5
780
100
AcDbEntity
  8
0
100
AcDbLine
 62
7
  6
CONTINUOUS
 10
436.5704464124
 20
1172.222956119
 11
436.265555462
 21
1172.6604832457
  0
LINE
  5
781
100
AcDbEntity
  8
0
100
AcDbLine
 62
7
  6
CONTINUOUS
 10
437.2267371024
 20
1168.4569499893
 11
437.0730858437
 21
1168.6782973743
  0
LINE
  5
782
100
AcDbEntity
  8
0
100
AcDbLine
 62
7
  6
CONTINUOUS
 10
435.7942663996
 20
1170.0639147784
 11
434.5805592602
 21
1171.8167793613
  0
LINE
  5
783
100
AcDbEntity
  8
0
100
AcDbLine
 62
7
  6
CONTINUOUS
 10
438.9430836731
 20
1167.3786351025
 11
438.7918439813
 21
1167.5973986658
  0
LINE
  5
784
100
AcDbEntity
  8
0
100
AcDbLine
 62
7
  6
CONTINUOUS
 10
411.3358110021
 20
1203.0861885332
 11
406.0276078784
 21
1210.7642728412
  0
LINE
  5
785
100
AcDbEntity
  8
0
100
AcDbLine
 62
7
  6
CONTINUOUS
 10
422.6284894932
 20
1187.2247966643
 11
414.4374304674
 21
1199.0700684713
  0
LINE
  5
786
100
AcDbEntity
  8
0
100
AcDbLine
 62
7
  6
CONTINUOUS
 10
430.4991546388
 20
1176.7782336244
 11
428.2257361281
 21
1180.0677830485
  0
LINE
  5
787
100
AcDbEntity
  8
0
100
AcDbLine
 62
7
  6
CONTINUOUS
 10
430.6710649035
 20
1179.812501473
 11
408.3768184898
 21
1212.0611790366
  0
LINE
  5
788
100
AcDbEntity
  8
0
100
AcDbLine
 62
7
  6
CONTINUOUS
 10
435.2916269683
 20
1173.60340588
 11
432.559321739
 21
1177.5569974589
  0
LINE
  5
789
100
AcDbEntity
  8
0
100
AcDbLine
 62
7
  6
CONTINUOUS
 10
436.5704464124
 20
1172.222956119
 11
437.0234764687
 21
1171.5614977859
  0
LINE
  5
78A
100
AcDbEntity
  8
0
100
AcDbLine
 62
7
  6
CONTINUOUS
 10
436.2448848891
 20
1169.4048680121
 11
435.7942663996
 21
1170.0639147784
  0
LINE
  5
78B
100
AcDbEntity
  8
0
100
AcDbLine
 62
7
  6
CONTINUOUS
 10
392.5521168878
 20
1241.9776992114
 11
416.9092864781
 21
1206.2896105702
  0
LINE
  5
78C
100
AcDbEntity
  8
0
100
AcDbLine
 62
7
  6
CONTINUOUS
 10
440.8857730173
 20
1166.4462200094
 11
440.734877835
 21
1166.6675673943
  0
LINE
  5
78D
100
AcDbEntity
  8
0
100
AcDbLine
 62
7
  6
CONTINUOUS
 10
437.3752207178
 20
1168.238186426
 11
437.2267371024
 21
1168.4569499893
  0
LINE
  5
78E
100
AcDbEntity
  8
0
100
AcDbLine
 62
7
  6
CONTINUOUS
 10
430.5174136448
 20
1147.9543254827
 11
435.9896033136
 21
1139.7398398077
  0
LINE
  5
78F
100
AcDbEntity
  8
0
100
AcDbLine
 62
7
  6
CONTINUOUS
 10
445.7902109501
 20
1157.7628568388
 11
440.4692609731
 21
1165.7585789505
  0
LINE
  5
790
100
AcDbEntity
  8
0
100
AcDbLine
 62
7
  6
CONTINUOUS
 10
416.9092864781
 20
1206.2896105702
 11
440.4482458906
 21
1170.3634658309
  0
LINE
  5
791
100
AcDbEntity
  8
0
100
AcDbLine
 62
7
  6
CONTINUOUS
 10
440.9953270537
 20
1165.4774591589
 11
443.5477982987
 21
1161.4039782572
  0
LINE
  5
792
100
AcDbEntity
  8
0
100
AcDbLine
 62
7
  6
CONTINUOUS
 10
751.4482119045
 20
564.5740860995
 11
751.1812170044
 21
565.3736927616
  0
LINE
  5
793
100
AcDbEntity
  8
0
100
AcDbLine
 62
7
  6
CONTINUOUS
 10
791.9861337151
 20
613.3793758009
 11
792.2531286152
 21
612.5797691387
  0
LINE
  5
794
100
AcDbEntity
  8
0
100
AcDbLine
 62
7
  6
CONTINUOUS
 10
749.3138029966
 20
566.4413278525
 11
749.5807978967
 21
565.3736927616
  0
LINE
  5
795
100
AcDbEntity
  8
0
100
AcDbLine
 62
7
  6
CONTINUOUS
 10
748.7811912346
 20
562.706499837
 11
748.5143685892
 21
563.7744794374
  0
LINE
  5
796
100
AcDbEntity
  8
0
100
AcDbLine
 62
7
  6
CONTINUOUS
 10
747.1807721269
 20
562.9748727753
 11
747.447767027
 21
561.6412763129
  0
LINE
  5
797
100
AcDbEntity
  8
0
100
AcDbLine
 62
7
  6
CONTINUOUS
 10
752.5148134667
 20
583.7767038247
 11
752.2478185666
 21
585.6442900873
  0
LINE
  5
798
100
AcDbEntity
  8
0
100
AcDbLine
 62
7
  6
CONTINUOUS
 10
702.9080223007
 20
1133.9732667297
 11
703.1750172008
 21
1131.571690667
  0
LINE
  5
799
100
AcDbEntity
  8
0
100
AcDbLine
 62
7
  6
CONTINUOUS
 10
756.5152583442
 20
587.5115318403
 11
756.5152583442
 21
587.2435034116
  0
LINE
  5
79A
100
AcDbEntity
  8
0
100
AcDbLine
 62
7
  6
CONTINUOUS
 10
758.1158497066
 20
588.0431100737
 11
758.1158497066
 21
586.4438967494
  0
LINE
  5
79B
100
AcDbEntity
  8
0
100
AcDbLine
 62
7
  6
CONTINUOUS
 10
758.3828446067
 20
586.7095136113
 11
758.3828446067
 21
586.9778865496
  0
LINE
  5
79C
100
AcDbEntity
  8
0
100
AcDbLine
 62
7
  6
CONTINUOUS
 10
758.6484614686
 20
586.9778865496
 11
758.6484614686
 21
588.5767553643
  0
LINE
  5
79D
100
AcDbEntity
  8
0
100
AcDbLine
 62
7
  6
CONTINUOUS
 10
759.7162688143
 20
584.8446834252
 11
759.7162688143
 21
584.310693625
  0
LINE
  5
79E
100
AcDbEntity
  8
0
100
AcDbLine
 62
7
  6
CONTINUOUS
 10
759.7162688143
 20
613.6477487392
 11
759.7162688143
 21
614.4473554013
  0
LINE
  5
79F
100
AcDbEntity
  8
0
100
AcDbLine
 62
7
  6
CONTINUOUS
 10
759.9818856762
 20
580.8442385477
 11
759.9818856762
 21
580.3102487475
  0
LINE
  5
7A0
100
AcDbEntity
  8
0
100
AcDbLine
 62
7
  6
CONTINUOUS
 10
760.2488805763
 20
580.0418758092
 11
760.2488805763
 21
579.7762589473
  0
LINE
  5
7A1
100
AcDbEntity
  8
0
100
AcDbLine
 62
7
  6
CONTINUOUS
 10
766.9163461237
 20
594.1791696425
 11
766.9163461237
 21
605.9124758461
  0
LINE
  5
7A2
100
AcDbEntity
  8
0
100
AcDbLine
 62
7
  6
CONTINUOUS
 10
767.1833410238
 20
593.6451798422
 11
767.1833410238
 21
593.9107967042
  0
LINE
  5
7A3
100
AcDbEntity
  8
0
100
AcDbLine
 62
7
  6
CONTINUOUS
 10
772.2503874635
 20
592.0435549511
 11
772.2503874635
 21
593.6451798422
  0
LINE
  5
7A4
100
AcDbEntity
  8
0
100
AcDbLine
 62
7
  6
CONTINUOUS
 10
777.0518170413
 20
579.2426136566
 11
777.0518170413
 21
563.7744794374
  0
LINE
  5
7A5
100
AcDbEntity
  8
0
100
AcDbLine
 62
7
  6
CONTINUOUS
 10
779.1850201658
 20
579.5106420854
 11
779.1850201658
 21
579.7762589473
  0
LINE
  5
7A6
100
AcDbEntity
  8
0
100
AcDbLine
 62
7
  6
CONTINUOUS
 10
779.4520150659
 20
580.0418758092
 11
779.4520150659
 21
580.3102487475
  0
LINE
  5
7A7
100
AcDbEntity
  8
0
100
AcDbLine
 62
7
  6
CONTINUOUS
 10
779.7188377112
 20
580.3102487475
 11
779.7188377112
 21
580.8442385477
  0
LINE
  5
7A8
100
AcDbEntity
  8
0
100
AcDbLine
 62
7
  6
CONTINUOUS
 10
779.9846268279
 20
614.4473554013
 11
779.9846268279
 21
613.6477487392
  0
LINE
  5
7A9
100
AcDbEntity
  8
0
100
AcDbLine
 62
7
  6
CONTINUOUS
 10
779.9846268279
 20
581.1098554096
 11
779.9846268279
 21
581.3754722715
  0
LINE
  5
7AA
100
AcDbEntity
  8
0
100
AcDbLine
 62
7
  6
CONTINUOUS
 10
779.9846268279
 20
584.310693625
 11
779.9846268279
 21
584.8446834252
  0
LINE
  5
7AB
100
AcDbEntity
  8
0
100
AcDbLine
 62
7
  6
CONTINUOUS
 10
786.1194806132
 20
595.7783829667
 11
786.1194806132
 21
606.7117379987
  0
LINE
  5
7AC
100
AcDbEntity
  8
0
100
AcDbLine
 62
7
  6
CONTINUOUS
 10
786.3864755133
 20
608.045334461
 11
786.3864755133
 21
607.2457277989
  0
LINE
  5
7AD
100
AcDbEntity
  8
0
100
AcDbLine
 62
7
  6
CONTINUOUS
 10
786.3864755133
 20
594.9787763046
 11
786.3864755133
 21
595.5127661048
  0
LINE
  5
7AE
100
AcDbEntity
  8
0
100
AcDbLine
 62
7
  6
CONTINUOUS
 10
786.9190872754
 20
593.3771514135
 11
786.9190872754
 21
594.7104033663
  0
LINE
  5
7AF
100
AcDbEntity
  8
0
100
AcDbLine
 62
7
  6
CONTINUOUS
 10
787.9855165828
 20
586.7095136113
 11
787.9855165828
 21
586.1782798875
  0
LINE
  5
7B0
100
AcDbEntity
  8
0
100
AcDbLine
 62
7
  6
CONTINUOUS
 10
788.2525114829
 20
587.5115318403
 11
788.2525114829
 21
587.2435034116
  0
LINE
  5
7B1
100
AcDbEntity
  8
0
100
AcDbLine
 62
7
  6
CONTINUOUS
 10
790.1199254907
 20
563.2404896372
 11
790.1199254907
 21
563.7744794374
  0
LINE
  5
7B2
100
AcDbEntity
  8
0
100
AcDbLine
 62
7
  6
CONTINUOUS
 10
790.6525372527
 20
560.3080243601
 11
790.6525372527
 21
557.9064482974
  0
LINE
  5
7B3
100
AcDbEntity
  8
0
100
AcDbLine
 62
7
  6
CONTINUOUS
 10
792.2531286152
 20
619.7810522315
 11
792.2531286152
 21
612.0461238481
  0
LINE
  5
7B4
100
AcDbEntity
  8
0
100
AcDbLine
 62
7
  6
CONTINUOUS
 10
792.2531286152
 20
587.7774932118
 11
792.2531286152
 21
565.1080758997
  0
LINE
  5
7B5
100
AcDbEntity
  8
0
100
AcDbLine
 62
7
  6
CONTINUOUS
 10
793.8535477229
 20
609.9129207236
 11
793.8535477229
 21
609.3789309234
  0
LINE
  5
7B6
100
AcDbEntity
  8
0
100
AcDbLine
 62
7
  6
CONTINUOUS
 10
793.8535477229
 20
566.1757109906
 11
793.8535477229
 21
587.7774932118
  0
LINE
  5
7B7
100
AcDbEntity
  8
0
100
AcDbLine
 62
7
  6
CONTINUOUS
 10
793.8535477229
 20
612.3141522768
 11
793.8535477229
 21
620.3150420318
  0
LINE
  5
7B8
100
AcDbEntity
  8
0
100
AcDbLine
 62
7
  6
CONTINUOUS
 10
794.120542623
 20
610.4469105238
 11
794.120542623
 21
609.6473038617
  0
LINE
  5
7B9
100
AcDbEntity
  8
0
100
AcDbLine
 62
7
  6
CONTINUOUS
 10
794.3875375231
 20
620.3150420318
 11
794.3875375231
 21
612.5797691387
  0
LINE
  5
7BA
100
AcDbEntity
  8
0
100
AcDbLine
 62
7
  6
CONTINUOUS
 10
794.3875375231
 20
610.7125273857
 11
794.3875375231
 21
610.1809491523
  0
LINE
  5
7BB
100
AcDbEntity
  8
0
100
AcDbLine
 62
7
  6
CONTINUOUS
 10
794.3875375231
 20
587.7774932118
 11
794.3875375231
 21
562.706499837
  0
LINE
  5
7BC
100
AcDbEntity
  8
0
100
AcDbLine
 62
7
  6
CONTINUOUS
 10
794.653154385
 20
610.9805558145
 11
794.653154385
 21
610.7125273857
  0
LINE
  5
7BD
100
AcDbEntity
  8
0
100
AcDbLine
 62
7
  6
CONTINUOUS
 10
795.1871441852
 20
610.9805558145
 11
795.1871441852
 21
610.7125273857
  0
LINE
  5
7BE
100
AcDbEntity
  8
0
100
AcDbLine
 62
7
  6
CONTINUOUS
 10
795.9865785925
 20
563.7744794374
 11
795.9865785925
 21
563.2404896372
  0
LINE
  5
7BF
100
AcDbEntity
  8
0
100
AcDbLine
 62
7
  6
CONTINUOUS
 10
795.9865785925
 20
561.9068931748
 11
795.9865785925
 21
561.6412763129
  0
LINE
  5
7C0
100
AcDbEntity
  8
0
100
AcDbLine
 62
7
  6
CONTINUOUS
 10
796.2535734926
 20
619.7810522315
 11
796.2535734926
 21
612.5797691387
  0
LINE
  5
7C1
100
AcDbEntity
  8
0
100
AcDbLine
 62
7
  6
CONTINUOUS
 10
796.2535734926
 20
562.9748727753
 11
796.2535734926
 21
588.0431100737
  0
LINE
  5
7C2
100
AcDbEntity
  8
0
100
AcDbLine
 62
7
  6
CONTINUOUS
 10
797.3201750549
 20
610.7125273857
 11
797.3201750549
 21
608.8476971996
  0
LINE
  5
7C3
100
AcDbEntity
  8
0
100
AcDbLine
 62
7
  6
CONTINUOUS
 10
778.6510303655
 20
563.7744794374
 11
778.9180252656
 21
579.5106420854
  0
LINE
  5
7C4
100
AcDbEntity
  8
0
100
AcDbLine
 62
7
  6
CONTINUOUS
 10
753.0488032669
 20
608.8476971996
 11
752.7818083668
 21
608.045334461
  0
LINE
  5
7C5
100
AcDbEntity
  8
0
100
AcDbLine
 62
7
  6
CONTINUOUS
 10
750.914394359
 20
612.0461238481
 11
751.4482119045
 21
613.6477487392
  0
LINE
  5
7C6
100
AcDbEntity
  8
0
100
AcDbLine
 62
7
  6
CONTINUOUS
 10
794.653154385
 20
610.9805558145
 11
794.3875375231
 21
610.4469105238
  0
LINE
  5
7C7
100
AcDbEntity
  8
0
100
AcDbLine
 62
7
  6
CONTINUOUS
 10
751.7152068046
 20
611.2461726764
 11
752.2478185666
 21
612.3141522768
  0
LINE
  5
7C8
100
AcDbEntity
  8
0
100
AcDbLine
 62
7
  6
CONTINUOUS
 10
786.3864755133
 20
607.2457277989
 11
786.1194806132
 21
606.7117379987
  0
LINE
  5
7C9
100
AcDbEntity
  8
0
100
AcDbLine
 62
7
  6
CONTINUOUS
 10
767.4503359239
 20
606.980110937
 11
766.9163461237
 21
605.9124758461
  0
LINE
  5
7CA
100
AcDbEntity
  8
0
100
AcDbLine
 62
7
  6
CONTINUOUS
 10
754.1152325744
 20
609.3789309234
 11
753.848409929
 21
608.8476971996
  0
LINE
  5
7CB
100
AcDbEntity
  8
0
100
AcDbLine
 62
7
  6
CONTINUOUS
 10
752.7818083668
 20
608.5793242613
 11
752.2478185666
 21
607.5141007372
  0
LINE
  5
7CC
100
AcDbEntity
  8
0
100
AcDbLine
 62
7
  6
CONTINUOUS
 10
752.7818083668
 20
608.045334461
 11
752.5148134667
 21
607.5141007372
  0
LINE
  5
7CD
100
AcDbEntity
  8
0
100
AcDbLine
 62
7
  6
CONTINUOUS
 10
751.4482119045
 20
600.8468074446
 11
751.7152068046
 21
601.3780411684
  0
LINE
  5
7CE
100
AcDbEntity
  8
0
100
AcDbLine
 62
7
  6
CONTINUOUS
 10
768.249942586
 20
608.045334461
 11
767.9829476859
 21
607.5141007372
  0
LINE
  5
7CF
100
AcDbEntity
  8
0
100
AcDbLine
 62
7
  6
CONTINUOUS
 10
752.5148134667
 20
560.0396514218
 11
752.2478185666
 21
559.508417698
  0
LINE
  5
7D0
100
AcDbEntity
  8
0
100
AcDbLine
 62
7
  6
CONTINUOUS
 10
753.848409929
 20
608.8476971996
 11
753.3144201288
 21
608.045334461
  0
LINE
  5
7D1
100
AcDbEntity
  8
0
100
AcDbLine
 62
7
  6
CONTINUOUS
 10
750.381782597
 20
564.0400962993
 11
750.6473994589
 21
564.3084692376
  0
LINE
  5
7D2
100
AcDbEntity
  8
0
100
AcDbLine
 62
7
  6
CONTINUOUS
 10
753.0488032669
 20
563.2404896372
 11
753.3144201288
 21
563.5088625755
  0
LINE
  5
7D3
100
AcDbEntity
  8
0
100
AcDbLine
 62
7
  6
CONTINUOUS
 10
787.9855165828
 20
586.1782798875
 11
787.7198997209
 21
585.9099069492
  0
LINE
  5
7D4
100
AcDbEntity
  8
0
100
AcDbLine
 62
7
  6
CONTINUOUS
 10
793.3195579226
 20
620.3150420318
 11
793.0539410607
 21
620.047013603
  0
LINE
  5
7D5
100
AcDbEntity
  8
0
100
AcDbLine
 62
7
  6
CONTINUOUS
 10
787.4529048208
 20
585.6442900873
 11
787.1860821755
 21
585.375917149
  0
LINE
  5
7D6
100
AcDbEntity
  8
0
100
AcDbLine
 62
7
  6
CONTINUOUS
 10
751.1812170044
 20
600.5784345063
 11
751.4482119045
 21
600.8468074446
  0
LINE
  5
7D7
100
AcDbEntity
  8
0
100
AcDbLine
 62
7
  6
CONTINUOUS
 10
793.5865528227
 20
609.6473038617
 11
793.3195579226
 21
609.3789309234
  0
LINE
  5
7D8
100
AcDbEntity
  8
0
100
AcDbLine
 62
7
  6
CONTINUOUS
 10
747.7147619271
 20
563.5088625755
 11
747.447767027
 21
563.2404896372
  0
LINE
  5
7D9
100
AcDbEntity
  8
0
100
AcDbLine
 62
7
  6
CONTINUOUS
 10
780.7854392734
 20
581.9094620717
 11
781.0524341735
 21
582.17783501
  0
LINE
  5
7DA
100
AcDbEntity
  8
0
100
AcDbLine
 62
7
  6
CONTINUOUS
 10
754.3822274745
 20
588.3111385024
 11
754.1152325744
 21
588.0431100737
  0
LINE
  5
7DB
100
AcDbEntity
  8
0
100
AcDbLine
 62
7
  6
CONTINUOUS
 10
778.6510303655
 20
579.2426136566
 11
778.9180252656
 21
579.5106420854
  0
LINE
  5
7DC
100
AcDbEntity
  8
0
100
AcDbLine
 62
7
  6
CONTINUOUS
 10
767.9829476859
 20
607.5141007372
 11
767.4503359239
 21
606.980110937
  0
LINE
  5
7DD
100
AcDbEntity
  8
0
100
AcDbLine
 62
7
  6
CONTINUOUS
 10
753.5814150289
 20
609.6473038617
 11
752.7818083668
 21
608.8476971996
  0
LINE
  5
7DE
100
AcDbEntity
  8
0
100
AcDbLine
 62
7
  6
CONTINUOUS
 10
758.1158497066
 20
588.0431100737
 11
758.6484614686
 21
588.5767553643
  0
LINE
  5
7DF
100
AcDbEntity
  8
0
100
AcDbLine
 62
7
  6
CONTINUOUS
 10
747.980378789
 20
564.0400962993
 11
747.7147619271
 21
563.7744794374
  0
LINE
  5
7E0
100
AcDbEntity
  8
0
100
AcDbLine
 62
7
  6
CONTINUOUS
 10
747.980378789
 20
562.440882975
 11
747.447767027
 21
561.9068931748
  0
LINE
  5
7E1
100
AcDbEntity
  8
0
100
AcDbLine
 62
7
  6
CONTINUOUS
 10
786.6520923753
 20
585.1103002871
 11
786.3864755133
 21
584.8446834252
  0
LINE
  5
7E2
100
AcDbEntity
  8
0
100
AcDbLine
 62
7
  6
CONTINUOUS
 10
755.1818341366
 20
610.1809491523
 11
754.6478443364
 21
609.6473038617
  0
LINE
  5
7E3
100
AcDbEntity
  8
0
100
AcDbLine
 62
7
  6
CONTINUOUS
 10
779.7188377112
 20
580.8442385477
 11
779.9846268279
 21
581.1098554096
  0
LINE
  5
7E4
100
AcDbEntity
  8
0
100
AcDbLine
 62
7
  6
CONTINUOUS
 10
753.848409929
 20
609.6473038617
 11
753.0488032669
 21
608.8476971996
  0
LINE
  5
7E5
100
AcDbEntity
  8
0
100
AcDbLine
 62
7
  6
CONTINUOUS
 10
753.848409929
 20
587.7774932118
 11
753.5814150289
 21
587.5115318403
  0
LINE
  5
7E6
100
AcDbEntity
  8
0
100
AcDbLine
 62
7
  6
CONTINUOUS
 10
794.653154385
 20
610.7125273857
 11
794.120542623
 21
610.1809491523
  0
LINE
  5
7E7
100
AcDbEntity
  8
0
100
AcDbLine
 62
7
  6
CONTINUOUS
 10
795.4539668305
 20
611.2461726764
 11
795.1871441852
 21
610.9805558145
  0
LINE
  5
7E8
100
AcDbEntity
  8
0
100
AcDbLine
 62
7
  6
CONTINUOUS
 10
752.2478185666
 20
612.3141522768
 11
753.0488032669
 21
613.1137589389
  0
LINE
  5
7E9
100
AcDbEntity
  8
0
100
AcDbLine
 62
7
  6
CONTINUOUS
 10
752.2478185666
 20
588.8451283026
 11
752.5148134667
 21
589.1107451646
  0
LINE
  5
7EA
100
AcDbEntity
  8
0
100
AcDbLine
 62
7
  6
CONTINUOUS
 10
752.7818083668
 20
589.1107451646
 11
753.0488032669
 21
589.3763620265
  0
LINE
  5
7EB
100
AcDbEntity
  8
0
100
AcDbLine
 62
7
  6
CONTINUOUS
 10
756.5152583442
 20
587.5115318403
 11
757.0492481444
 21
588.0431100737
  0
LINE
  5
7EC
100
AcDbEntity
  8
0
100
AcDbLine
 62
7
  6
CONTINUOUS
 10
758.1158497066
 20
586.4438967494
 11
758.3828446067
 21
586.7095136113
  0
LINE
  5
7ED
100
AcDbEntity
  8
0
100
AcDbLine
 62
7
  6
CONTINUOUS
 10
747.447767027
 20
563.7744794374
 11
747.1807721269
 21
563.5088625755
  0
LINE
  5
7EE
100
AcDbEntity
  8
0
100
AcDbLine
 62
7
  6
CONTINUOUS
 10
794.120542623
 20
609.9129207236
 11
793.8535477229
 21
609.6473038617
  0
LINE
  5
7EF
100
AcDbEntity
  8
0
100
AcDbLine
 62
7
  6
CONTINUOUS
 10
748.2473736891
 20
563.7744794374
 11
747.980378789
 21
563.5088625755
  0
LINE
  5
7F0
100
AcDbEntity
  8
0
100
AcDbLine
 62
7
  6
CONTINUOUS
 10
748.5143685892
 20
562.706499837
 11
748.2473736891
 21
562.440882975
  0
LINE
  5
7F1
100
AcDbEntity
  8
0
100
AcDbLine
 62
7
  6
CONTINUOUS
 10
780.5184443733
 20
581.6438452098
 11
780.7854392734
 21
581.9094620717
  0
LINE
  5
7F2
100
AcDbEntity
  8
0
100
AcDbLine
 62
7
  6
CONTINUOUS
 10
779.1850201658
 20
579.7762589473
 11
779.4520150659
 21
580.0418758092
  0
LINE
  5
7F3
100
AcDbEntity
  8
0
100
AcDbLine
 62
7
  6
CONTINUOUS
 10
787.7198997209
 20
585.9099069492
 11
787.4529048208
 21
585.6442900873
  0
LINE
  5
7F4
100
AcDbEntity
  8
0
100
AcDbLine
 62
7
  6
CONTINUOUS
 10
782.3858583811
 20
584.8446834252
 11
781.8520408357
 21
584.5763104869
  0
LINE
  5
7F5
100
AcDbEntity
  8
0
100
AcDbLine
 62
7
  6
CONTINUOUS
 10
779.9846268279
 20
581.3754722715
 11
780.5184443733
 21
581.6438452098
  0
LINE
  5
7F6
100
AcDbEntity
  8
0
100
AcDbLine
 62
7
  6
CONTINUOUS
 10
767.1833410238
 20
592.0435549511
 11
767.717330824
 21
592.3115833799
  0
LINE
  5
7F7
100
AcDbEntity
  8
0
100
AcDbLine
 62
7
  6
CONTINUOUS
 10
793.5865528227
 20
561.3732478842
 11
792.5201235153
 21
560.8416696508
  0
LINE
  5
7F8
100
AcDbEntity
  8
0
100
AcDbLine
 62
7
  6
CONTINUOUS
 10
790.6525372527
 20
562.9748727753
 11
792.7869461606
 21
564.0400962993
  0
LINE
  5
7F9
100
AcDbEntity
  8
0
100
AcDbLine
 62
7
  6
CONTINUOUS
 10
750.6473994589
 20
564.3084692376
 11
751.1812170044
 21
564.5740860995
  0
LINE
  5
7FA
100
AcDbEntity
  8
0
100
AcDbLine
 62
7
  6
CONTINUOUS
 10
787.1860821755
 20
585.375917149
 11
786.6520923753
 21
585.1103002871
  0
LINE
  5
7FB
100
AcDbEntity
  8
0
100
AcDbLine
 62
7
  6
CONTINUOUS
 10
791.1865270529
 20
564.0400962993
 11
790.6525372527
 21
563.7744794374
  0
LINE
  5
7FC
100
AcDbEntity
  8
0
100
AcDbLine
 62
7
  6
CONTINUOUS
 10
792.2531286152
 20
557.9064482974
 11
793.5865528227
 21
558.4404380976
  0
LINE
  5
7FD
100
AcDbEntity
  8
0
100
AcDbLine
 62
7
  6
CONTINUOUS
 10
792.5201235153
 20
560.8416696508
 11
791.7205168532
 21
560.573641222
  0
LINE
  5
7FE
100
AcDbEntity
  8
0
100
AcDbLine
 62
7
  6
CONTINUOUS
 10
984.0112774388
 20
608.8476971996
 11
984.8120898843
 21
609.1133140615
  0
LINE
  5
7FF
100
AcDbEntity
  8
0
100
AcDbLine
 62
7
  6
CONTINUOUS
 10
1021.8830398533
 20
613.6477487392
 11
1020.8164382911
 21
614.4473554013
  0
LINE
  5
800
100
AcDbEntity
  8
0
100
AcDbLine
 62
7
  6
CONTINUOUS
 10
422.5506303352
 20
1118.3049724628
 11
420.951417011
 21
1119.6383966704
  0
LINE
  5
801
100
AcDbEntity
  8
0
100
AcDbLine
 62
7
  6
CONTINUOUS
 10
424.46231382
 20
1122.7820463007
 11
425.2929263415
 21
1122.0658109493
  0
LINE
  5
802
100
AcDbEntity
  8
0
100
AcDbLine
 62
7
  6
CONTINUOUS
 10
429.6113535322
 20
1129.3558052508
 11
430.4419660537
 21
1128.6395698995
  0
LINE
  5
803
100
AcDbEntity
  8
0
100
AcDbLine
 62
7
  6
CONTINUOUS
 10
423.4725378871
 20
1123.7144613938
 11
424.46231382
 21
1122.7820463007
  0
LINE
  5
804
100
AcDbEntity
  8
0
100
AcDbLine
 62
7
  6
CONTINUOUS
 10
416.4197384097
 20
1117.2397489388
 11
416.1513654714
 21
1117.5053658007
  0
LINE
  5
805
100
AcDbEntity
  8
0
100
AcDbLine
 62
7
  6
CONTINUOUS
 10
427.8843271655
 20
1117.7709826626
 11
428.1527001038
 21
1117.5053658007
  0
LINE
  5
806
100
AcDbEntity
  8
0
100
AcDbLine
 62
7
  6
CONTINUOUS
 10
437.4871863211
 20
1118.0391833461
 11
437.2188133828
 21
1118.3049724628
  0
LINE
  5
807
100
AcDbEntity
  8
0
100
AcDbLine
 62
7
  6
CONTINUOUS
 10
421.4854068112
 20
1120.9718208779
 11
421.7534352399
 21
1120.706204016
  0
LINE
  5
808
100
AcDbEntity
  8
0
100
AcDbLine
 62
7
  6
CONTINUOUS
 10
998.6798049959
 20
580.0418758092
 11
999.2137947961
 21
579.5106420854
  0
LINE
  5
809
100
AcDbEntity
  8
0
100
AcDbLine
 62
7
  6
CONTINUOUS
 10
998.1471932338
 20
581.3754722715
 11
998.414188134
 21
581.1098554096
  0
LINE
  5
80A
100
AcDbEntity
  8
0
100
AcDbLine
 62
7
  6
CONTINUOUS
 10
1029.6169347082
 20
562.706499837
 11
1029.8839296083
 21
562.440882975
  0
LINE
  5
80B
100
AcDbEntity
  8
0
100
AcDbLine
 62
7
  6
CONTINUOUS
 10
984.0112774388
 20
609.9129207236
 11
984.2782723389
 21
609.6473038617
  0
LINE
  5
80C
100
AcDbEntity
  8
0
100
AcDbLine
 62
7
  6
CONTINUOUS
 10
988.2787172163
 20
563.5088625755
 11
988.011894571
 21
563.7744794374
  0
LINE
  5
80D
100
AcDbEntity
  8
0
100
AcDbLine
 62
7
  6
CONTINUOUS
 10
1030.1505799988
 20
562.440882975
 11
1030.4174026442
 21
562.1752661131
  0
LINE
  5
80E
100
AcDbEntity
  8
0
100
AcDbLine
 62
7
  6
CONTINUOUS
 10
1030.1505799988
 20
564.0400962993
 11
1030.4174026442
 21
563.7744794374
  0
LINE
  5
80F
100
AcDbEntity
  8
0
100
AcDbLine
 62
7
  6
CONTINUOUS
 10
1019.4833585931
 20
588.5767553643
 11
1019.7501812384
 21
588.3111385024
  0
LINE
  5
810
100
AcDbEntity
  8
0
100
AcDbLine
 62
7
  6
CONTINUOUS
 10
1025.0837058139
 20
563.5088625755
 11
1024.8170554234
 21
563.7744794374
  0
LINE
  5
811
100
AcDbEntity
  8
0
100
AcDbLine
 62
7
  6
CONTINUOUS
 10
1029.8839296083
 20
563.7744794374
 11
1030.1505799988
 21
563.5088625755
  0
LINE
  5
812
100
AcDbEntity
  8
0
100
AcDbLine
 62
7
  6
CONTINUOUS
 10
985.3447016463
 20
620.047013603
 11
985.6116965464
 21
619.7810522315
  0
LINE
  5
813
100
AcDbEntity
  8
0
100
AcDbLine
 62
7
  6
CONTINUOUS
 10
423.3526485642
 20
1119.3727798085
 11
422.0190521018
 21
1120.706204016
  0
LINE
  5
814
100
AcDbEntity
  8
0
100
AcDbLine
 62
7
  6
CONTINUOUS
 10
436.1535898587
 20
1118.0391833461
 11
436.9531965208
 21
1117.2397489388
  0
LINE
  5
815
100
AcDbEntity
  8
0
100
AcDbLine
 62
7
  6
CONTINUOUS
 10
991.7467225866
 20
607.7797175991
 11
992.0123394485
 21
607.5141007372
  0
LINE
  5
816
100
AcDbEntity
  8
0
100
AcDbLine
 62
7
  6
CONTINUOUS
 10
437.4871863211
 20
1117.2397489388
 11
437.7552147498
 21
1116.9713760005
  0
LINE
  5
817
100
AcDbEntity
  8
0
100
AcDbLine
 62
7
  6
CONTINUOUS
 10
984.0112774388
 20
610.1809491523
 11
983.7456605769
 21
610.4469105238
  0
LINE
  5
818
100
AcDbEntity
  8
0
100
AcDbLine
 62
7
  6
CONTINUOUS
 10
985.8786914465
 20
565.1080758997
 11
986.9452930088
 21
564.0400962993
  0
LINE
  5
819
100
AcDbEntity
  8
0
100
AcDbLine
 62
7
  6
CONTINUOUS
 10
999.2137947961
 20
579.5106420854
 11
999.4807896962
 21
579.2426136566
  0
LINE
  5
81A
100
AcDbEntity
  8
0
100
AcDbLine
 62
7
  6
CONTINUOUS
 10
982.6778532312
 20
611.2461726764
 11
983.2116707766
 21
610.7125273857
  0
LINE
  5
81B
100
AcDbEntity
  8
0
100
AcDbLine
 62
7
  6
CONTINUOUS
 10
984.0112774388
 20
610.4469105238
 11
983.4786656767
 21
610.9805558145
  0
LINE
  5
81C
100
AcDbEntity
  8
0
100
AcDbLine
 62
7
  6
CONTINUOUS
 10
990.1461312241
 20
586.1782798875
 11
990.9457378863
 21
585.375917149
  0
LINE
  5
81D
100
AcDbEntity
  8
0
100
AcDbLine
 62
7
  6
CONTINUOUS
 10
996.012784326
 20
584.8446834252
 11
996.2797792261
 21
584.5763104869
  0
LINE
  5
81E
100
AcDbEntity
  8
0
100
AcDbLine
 62
7
  6
CONTINUOUS
 10
1027.7507264838
 20
564.0400962993
 11
1027.4837315837
 21
564.3084692376
  0
LINE
  5
81F
100
AcDbEntity
  8
0
100
AcDbLine
 62
7
  6
CONTINUOUS
 10
985.0790847844
 20
609.3789309234
 11
984.8120898843
 21
609.6473038617
  0
LINE
  5
820
100
AcDbEntity
  8
0
100
AcDbLine
 62
7
  6
CONTINUOUS
 10
997.8803705885
 20
581.6438452098
 11
998.1471932338
 21
581.3754722715
  0
LINE
  5
821
100
AcDbEntity
  8
0
100
AcDbLine
 62
7
  6
CONTINUOUS
 10
984.545267239
 20
609.6473038617
 11
984.8120898843
 21
609.3789309234
  0
LINE
  5
822
100
AcDbEntity
  8
0
100
AcDbLine
 62
7
  6
CONTINUOUS
 10
1030.4174026442
 20
563.5088625755
 11
1030.6833640156
 21
563.2404896372
  0
LINE
  5
823
100
AcDbEntity
  8
0
100
AcDbLine
 62
7
  6
CONTINUOUS
 10
435.8852169204
 20
1117.7709826626
 11
435.6196000585
 21
1118.0391833461
  0
LINE
  5
824
100
AcDbEntity
  8
0
100
AcDbLine
 62
7
  6
CONTINUOUS
 10
997.0807639264
 20
582.17783501
 11
997.3463807883
 21
581.9094620717
  0
LINE
  5
825
100
AcDbEntity
  8
0
100
AcDbLine
 62
7
  6
CONTINUOUS
 10
346.2135155539
 20
1287.4284994388
 11
335.0558848059
 21
1299.8180963324
  0
LINE
  5
826
100
AcDbEntity
  8
0
100
AcDbLine
 62
7
  6
CONTINUOUS
 10
337.2386973053
 20
1306.5129503889
 11
326.9040998687
 21
1318.1745986064
  0
LINE
  5
827
100
AcDbEntity
  8
0
100
AcDbLine
 62
7
  6
CONTINUOUS
 10
356.78513556
 20
1274.9582873108
 11
346.2135155539
 21
1287.4284994388
  0
LINE
  5
828
100
AcDbEntity
  8
0
100
AcDbLine
 62
7
  6
CONTINUOUS
 10
330.0449934226
 20
1324.8849555926
 11
342.9527326772
 21
1309.4938192575
  0
LINE
  5
829
100
AcDbEntity
  8
0
100
AcDbLine
 62
7
  6
CONTINUOUS
 10
432.559321739
 20
1177.5569974589
 11
430.6710649035
 21
1179.812501473
  0
LINE
  5
82A
100
AcDbEntity
  8
0
100
AcDbLine
 62
7
  6
CONTINUOUS
 10
434.5805592602
 20
1171.8167793613
 11
432.6923024247
 21
1174.0774510187
  0
LINE
  5
82B
100
AcDbEntity
  8
0
100
AcDbLine
 62
7
  6
CONTINUOUS
 10
347.1302554626
 20
1294.5479615138
 11
337.2386973053
 21
1306.5129503889
  0
LINE
  5
82C
100
AcDbEntity
  8
0
100
AcDbLine
 62
7
  6
CONTINUOUS
 10
360.8610280286
 20
1269.9968330477
 11
356.78513556
 21
1274.9582873108
  0
LINE
  5
82D
100
AcDbEntity
  8
0
100
AcDbLine
 62
7
  6
CONTINUOUS
 10
432.6923024247
 20
1174.0774510187
 11
430.4991546388
 21
1176.7782336244
  0
LINE
  5
82E
100
AcDbEntity
  8
0
100
AcDbLine
 62
7
  6
CONTINUOUS
 10
383.092918214
 20
1241.5935710648
 11
378.7093787186
 21
1246.9951362761
  0
LINE
  5
82F
100
AcDbEntity
  8
0
100
AcDbLine
 62
7
  6
CONTINUOUS
 10
374.5477033724
 20
1252.5505250009
 11
370.0105126183
 21
1258.1672364252
  0
LINE
  5
830
100
AcDbEntity
  8
0
100
AcDbLine
 62
7
  6
CONTINUOUS
 10
356.6521548743
 20
1282.6518745485
 11
347.1302554626
 21
1294.5479615138
  0
LINE
  5
831
100
AcDbEntity
  8
0
100
AcDbLine
 62
7
  6
CONTINUOUS
 10
365.8484927626
 20
1263.7198690736
 11
360.8610280286
 21
1269.9968330477
  0
LINE
  5
832
100
AcDbEntity
  8
0
100
AcDbLine
 62
7
  6
CONTINUOUS
 10
406.0276078784
 20
1210.7642728412
 11
403.2277787775
 21
1214.3426935217
  0
LINE
  5
833
100
AcDbEntity
  8
0
100
AcDbLine
 62
7
  6
CONTINUOUS
 10
428.2257361281
 20
1180.0677830485
 11
422.6284894932
 21
1187.2247966643
  0
LINE
  5
834
100
AcDbEntity
  8
0
100
AcDbLine
 62
7
  6
CONTINUOUS
 10
342.9527326772
 20
1309.4938192575
 11
355.2069373182
 21
1293.6481025731
  0
LINE
  5
835
100
AcDbEntity
  8
0
100
AcDbLine
 62
7
  6
CONTINUOUS
 10
355.2069373182
 20
1293.6481025731
 11
367.0883826277
 21
1277.8714600531
  0
LINE
  5
836
100
AcDbEntity
  8
0
100
AcDbLine
 62
7
  6
CONTINUOUS
 10
691.1735103136
 20
1124.1047907122
 11
691.440332959
 21
1123.0395671882
  0
LINE
  5
837
100
AcDbEntity
  8
0
100
AcDbLine
 62
7
  6
CONTINUOUS
 10
700.5079965309
 20
1149.1754395775
 11
701.307603193
 21
1145.9746013621
  0
LINE
  5
838
100
AcDbEntity
  8
0
100
AcDbLine
 62
7
  6
CONTINUOUS
 10
686.1062916191
 20
1124.3729913958
 11
686.3732865193
 21
1123.0395671882
  0
LINE
  5
839
100
AcDbEntity
  8
0
100
AcDbLine
 62
7
  6
CONTINUOUS
 10
702.6410274006
 20
1137.7080947453
 11
702.9080223007
 21
1136.108881421
  0
LINE
  5
83A
100
AcDbEntity
  8
0
100
AcDbLine
 62
7
  6
CONTINUOUS
 10
701.307603193
 20
1145.9746013621
 11
701.5745980931
 21
1144.3753880379
  0
LINE
  5
83B
100
AcDbEntity
  8
0
100
AcDbLine
 62
7
  6
CONTINUOUS
 10
702.1084156386
 20
1142.5081462849
 11
702.6410274006
 21
1139.3071358148
  0
LINE
  5
83C
100
AcDbEntity
  8
0
100
AcDbLine
 62
7
  6
CONTINUOUS
 10
795.9865785925
 20
561.6412763129
 11
796.2535734926
 21
562.9748727753
  0
LINE
  5
83D
100
AcDbEntity
  8
0
100
AcDbLine
 62
7
  6
CONTINUOUS
 10
793.5865528227
 20
565.1080758997
 11
793.8535477229
 21
566.1757109906
  0
LINE
  5
83E
100
AcDbEntity
  8
0
100
AcDbLine
 62
7
  6
CONTINUOUS
 10
1091.7561219756
 20
1122.505577388
 11
1092.0217388375
 21
1123.0395671882
  0
LINE
  5
83F
100
AcDbEntity
  8
0
100
AcDbLine
 62
7
  6
CONTINUOUS
 10
788.2525114829
 20
587.2435034116
 11
787.9855165828
 21
586.7095136113
  0
LINE
  5
840
100
AcDbEntity
  8
0
100
AcDbLine
 62
7
  6
CONTINUOUS
 10
794.9201492851
 20
559.508417698
 11
795.9865785925
 21
561.6412763129
  0
LINE
  5
841
100
AcDbEntity
  8
0
100
AcDbLine
 62
7
  6
CONTINUOUS
 10
1086.1554302453
 20
1121.9715875878
 11
1086.6880420073
 21
1123.0395671882
  0
LINE
  5
842
100
AcDbEntity
  8
0
100
AcDbLine
 62
7
  6
CONTINUOUS
 10
1086.6880420073
 20
1116.9059191863
 11
1086.9548646526
 21
1117.4373251649
  0
LINE
  5
843
100
AcDbEntity
  8
0
100
AcDbLine
 62
7
  6
CONTINUOUS
 10
1091.2221321754
 20
1116.9059191863
 11
1091.7561219756
 21
1117.9711427103
  0
LINE
  5
844
100
AcDbEntity
  8
0
100
AcDbLine
 62
7
  6
CONTINUOUS
 10
794.3875375231
 20
562.706499837
 11
793.5865528227
 21
561.3732478842
  0
LINE
  5
845
100
AcDbEntity
  8
0
100
AcDbLine
 62
7
  6
CONTINUOUS
 10
792.7869461606
 20
564.0400962993
 11
793.5865528227
 21
565.1080758997
  0
LINE
  5
846
100
AcDbEntity
  8
0
100
AcDbLine
 62
7
  6
CONTINUOUS
 10
792.2531286152
 20
565.1080758997
 11
791.1865270529
 21
564.0400962993
  0
LINE
  5
847
100
AcDbEntity
  8
0
100
AcDbLine
 62
7
  6
CONTINUOUS
 10
789.8531028454
 20
562.9748727753
 11
790.1199254907
 21
563.2404896372
  0
LINE
  5
848
100
AcDbEntity
  8
0
100
AcDbLine
 62
7
  6
CONTINUOUS
 10
793.0539410607
 20
566.4413278525
 11
792.7869461606
 21
566.1757109906
  0
LINE
  5
849
100
AcDbEntity
  8
0
100
AcDbLine
 62
7
  6
CONTINUOUS
 10
793.5865528227
 20
558.4404380976
 11
794.9201492851
 21
559.508417698
  0
LINE
  5
84A
100
AcDbEntity
  8
0
100
AcDbLine
 62
7
  6
CONTINUOUS
 10
982.6778532312
 20
620.047013603
 11
983.2116707766
 21
620.3150420318
  0
LINE
  5
84B
100
AcDbEntity
  8
0
100
AcDbLine
 62
7
  6
CONTINUOUS
 10
1027.4837315837
 20
619.7810522315
 11
1028.5503331459
 21
620.3150420318
  0
LINE
  5
84C
100
AcDbEntity
  8
0
100
AcDbLine
 62
7
  6
CONTINUOUS
 10
986.4126812468
 20
613.6477487392
 11
986.9452930088
 21
613.9133656011
  0
LINE
  5
84D
100
AcDbEntity
  8
0
100
AcDbLine
 62
7
  6
CONTINUOUS
 10
983.7456605769
 20
609.9129207236
 11
983.2116707766
 21
609.6473038617
  0
LINE
  5
84E
100
AcDbEntity
  8
0
100
AcDbLine
 62
7
  6
CONTINUOUS
 10
992.5463292487
 20
613.6477487392
 11
990.9457378863
 21
612.848142077
  0
LINE
  5
84F
100
AcDbEntity
  8
0
100
AcDbLine
 62
7
  6
CONTINUOUS
 10
1028.5503331459
 20
558.4404380976
 11
1026.9497417835
 21
557.9064482974
  0
LINE
  5
850
100
AcDbEntity
  8
0
100
AcDbLine
 62
7
  6
CONTINUOUS
 10
1025.883312476
 20
560.3080243601
 11
1026.6829191382
 21
560.573641222
  0
LINE
  5
851
100
AcDbEntity
  8
0
100
AcDbLine
 62
7
  6
CONTINUOUS
 10
1084.0208490826
 20
1120.9063640637
 11
1085.088828683
 21
1121.1721531804
  0
LINE
  5
852
100
AcDbEntity
  8
0
100
AcDbLine
 62
7
  6
CONTINUOUS
 10
443.0892560896
 20
1035.0942031694
 11
442.5528547226
 21
1035.3624038529
  0
LINE
  5
853
100
AcDbEntity
  8
0
100
AcDbLine
 62
7
  6
CONTINUOUS
 10
442.8212276609
 20
1038.5632420683
 11
443.3548729515
 21
1038.2950413847
  0
LINE
  5
854
100
AcDbEntity
  8
0
100
AcDbLine
 62
7
  6
CONTINUOUS
 10
442.2872378607
 20
1035.6280207148
 11
441.7556596273
 21
1035.8963936531
  0
LINE
  5
855
100
AcDbEntity
  8
0
100
AcDbLine
 62
7
  6
CONTINUOUS
 10
424.1522552263
 20
1117.2397489388
 11
422.5506303352
 21
1118.3049724628
  0
LINE
  5
856
100
AcDbEntity
  8
0
100
AcDbLine
 62
7
  6
CONTINUOUS
 10
411.8825476556
 20
1117.2397489388
 11
411.0856970698
 21
1117.7709826626
  0
LINE
  5
857
100
AcDbEntity
  8
0
100
AcDbLine
 62
7
  6
CONTINUOUS
 10
416.1513654714
 20
1117.5053658007
 11
415.3517588092
 21
1118.0391833461
  0
LINE
  5
858
100
AcDbEntity
  8
0
100
AcDbLine
 62
7
  6
CONTINUOUS
 10
428.9288801166
 20
1129.8558608605
 11
429.6113535322
 21
1129.3558052508
  0
LINE
  5
859
100
AcDbEntity
  8
0
100
AcDbLine
 62
7
  6
CONTINUOUS
 10
424.5143347618
 20
1120.8572714531
 11
423.1521440069
 21
1121.8573826724
  0
LINE
  5
85A
100
AcDbEntity
  8
0
100
AcDbLine
 62
7
  6
CONTINUOUS
 10
423.4622026006
 20
1121.4198555458
 11
424.8188812027
 21
1120.422328148
  0
LINE
  5
85B
100
AcDbEntity
  8
0
100
AcDbLine
 62
7
  6
CONTINUOUS
 10
323.3904469833
 20
1311.53314353
 11
316.1736609608
 21
1318.2149062236
  0
LINE
  5
85C
100
AcDbEntity
  8
0
100
AcDbLine
 62
7
  6
CONTINUOUS
 10
316.1319753054
 20
1329.5327339117
 11
304.7035600522
 21
1340.437666906
  0
LINE
  5
85D
100
AcDbEntity
  8
0
100
AcDbLine
 62
7
  6
CONTINUOUS
 10
436.265555462
 20
1172.6604832457
 11
435.2916269683
 21
1173.60340588
  0
LINE
  5
85E
100
AcDbEntity
  8
0
100
AcDbLine
 62
7
  6
CONTINUOUS
 10
329.4093733055
 20
1305.6416857406
 11
323.3904469833
 21
1311.53314353
  0
LINE
  5
85F
100
AcDbEntity
  8
0
100
AcDbLine
 62
7
  6
CONTINUOUS
 10
1024.016070723
 20
609.3789309234
 11
1024.5500605232
 21
608.8476971996
  0
LINE
  5
860
100
AcDbEntity
  8
0
100
AcDbLine
 62
7
  6
CONTINUOUS
 10
1009.8818774757
 20
608.045334461
 11
1010.4156950211
 21
607.5141007372
  0
LINE
  5
861
100
AcDbEntity
  8
0
100
AcDbLine
 62
7
  6
CONTINUOUS
 10
1024.5500605232
 20
609.3789309234
 11
1025.0837058139
 21
608.8476971996
  0
LINE
  5
862
100
AcDbEntity
  8
0
100
AcDbLine
 62
7
  6
CONTINUOUS
 10
1024.2830656231
 20
587.7774932118
 11
1024.5500605232
 21
587.5115318403
  0
LINE
  5
863
100
AcDbEntity
  8
0
100
AcDbLine
 62
7
  6
CONTINUOUS
 10
1025.883312476
 20
588.8451283026
 11
1025.3496671854
 21
589.3763620265
  0
LINE
  5
864
100
AcDbEntity
  8
0
100
AcDbLine
 62
7
  6
CONTINUOUS
 10
1022.9496414156
 20
610.1809491523
 11
1023.483458961
 21
609.6473038617
  0
LINE
  5
865
100
AcDbEntity
  8
0
100
AcDbLine
 62
7
  6
CONTINUOUS
 10
1021.6160449532
 20
587.5115318403
 11
1021.0834331912
 21
588.0431100737
  0
LINE
  5
866
100
AcDbEntity
  8
0
100
AcDbLine
 62
7
  6
CONTINUOUS
 10
1024.5500605232
 20
609.6473038617
 11
1025.3496671854
 21
608.8476971996
  0
LINE
  5
867
100
AcDbEntity
  8
0
100
AcDbLine
 62
7
  6
CONTINUOUS
 10
1026.4173022763
 20
613.9133656011
 11
1026.9497417835
 21
613.3793758009
  0
LINE
  5
868
100
AcDbEntity
  8
0
100
AcDbLine
 62
7
  6
CONTINUOUS
 10
1030.1505799988
 20
620.3150420318
 11
1030.6833640156
 21
619.7810522315
  0
LINE
  5
869
100
AcDbEntity
  8
0
100
AcDbLine
 62
7
  6
CONTINUOUS
 10
307.0710296696
 20
1349.2057794255
 11
316.6266910171
 21
1339.6029202699
  0
LINE
  5
86A
100
AcDbEntity
  8
0
100
AcDbLine
 62
7
  6
CONTINUOUS
 10
1024.2830656231
 20
609.6473038617
 11
1024.5500605232
 21
609.3789309234
  0
LINE
  5
86B
100
AcDbEntity
  8
0
100
AcDbLine
 62
7
  6
CONTINUOUS
 10
1019.7501812384
 20
586.7095136113
 11
1019.4833585931
 21
586.9778865496
  0
LINE
  5
86C
100
AcDbEntity
  8
0
100
AcDbLine
 62
7
  6
CONTINUOUS
 10
1019.7501812384
 20
588.3111385024
 11
1020.0157981003
 21
588.0431100737
  0
LINE
  5
86D
100
AcDbEntity
  8
0
100
AcDbLine
 62
7
  6
CONTINUOUS
 10
1023.7504538611
 20
588.3111385024
 11
1024.016070723
 21
588.0431100737
  0
LINE
  5
86E
100
AcDbEntity
  8
0
100
AcDbLine
 62
7
  6
CONTINUOUS
 10
335.0558848059
 20
1299.8180963324
 11
329.4093733055
 21
1305.6416857406
  0
LINE
  5
86F
100
AcDbEntity
  8
0
100
AcDbLine
 62
7
  6
CONTINUOUS
 10
326.9040998687
 20
1318.1745986064
 11
316.1319753054
 21
1329.5327339117
  0
LINE
  5
870
100
AcDbEntity
  8
0
100
AcDbLine
 62
7
  6
CONTINUOUS
 10
316.6266910171
 20
1339.6029202699
 11
330.0449934226
 21
1324.8849555926
  0
LINE
  5
871
100
AcDbEntity
  8
0
100
AcDbLine
 62
7
  6
CONTINUOUS
 10
983.7456605769
 20
562.706499837
 11
984.545267239
 21
561.3732478842
  0
LINE
  5
872
100
AcDbEntity
  8
0
100
AcDbLine
 62
7
  6
CONTINUOUS
 10
686.3732865193
 20
1117.9711427103
 11
686.9058982813
 21
1116.9059191863
  0
LINE
  5
873
100
AcDbEntity
  8
0
100
AcDbLine
 62
7
  6
CONTINUOUS
 10
686.3732865193
 20
1123.0395671882
 11
686.9058982813
 21
1121.9715875878
  0
LINE
  5
874
100
AcDbEntity
  8
0
100
AcDbLine
 62
7
  6
CONTINUOUS
 10
691.7073278591
 20
1116.9059191863
 11
691.972944721
 21
1116.3721016408
  0
LINE
  5
875
100
AcDbEntity
  8
0
100
AcDbLine
 62
7
  6
CONTINUOUS
 10
691.7073278591
 20
1122.505577388
 11
691.972944721
 21
1121.9715875878
  0
LINE
  5
876
100
AcDbEntity
  8
0
100
AcDbLine
 62
7
  6
CONTINUOUS
 10
702.9080223007
 20
1123.3051840501
 11
703.1750172008
 21
1122.505577388
  0
LINE
  5
877
100
AcDbEntity
  8
0
100
AcDbLine
 62
7
  6
CONTINUOUS
 10
690.6395205134
 20
1135.0409018206
 11
690.9065154135
 21
1134.2388835916
  0
LINE
  5
878
100
AcDbEntity
  8
0
100
AcDbLine
 62
7
  6
CONTINUOUS
 10
699.9740067307
 20
1151.5742595639
 11
700.5079965309
 21
1149.9750462396
  0
LINE
  5
879
100
AcDbEntity
  8
0
100
AcDbLine
 62
7
  6
CONTINUOUS
 10
701.5745980931
 20
1144.3753880379
 11
702.1084156386
 21
1142.5081462849
  0
LINE
  5
87A
100
AcDbEntity
  8
0
100
AcDbLine
 62
7
  6
CONTINUOUS
 10
889.0665129226
 20
610.4469105238
 11
889.0665129226
 21
611.2461726764
  0
LINE
  5
87B
100
AcDbEntity
  8
0
100
AcDbLine
 62
7
  6
CONTINUOUS
 10
1074.9538745297
 20
1121.7059707259
 11
1075.2208694299
 21
1122.505577388
  0
LINE
  5
87C
100
AcDbEntity
  8
0
100
AcDbLine
 62
7
  6
CONTINUOUS
 10
982.4120641145
 20
619.7810522315
 11
982.6778532312
 21
620.047013603
  0
LINE
  5
87D
100
AcDbEntity
  8
0
100
AcDbLine
 62
7
  6
CONTINUOUS
 10
996.012784326
 20
614.4473554013
 11
994.9463550185
 21
613.6477487392
  0
LINE
  5
87E
100
AcDbEntity
  8
0
100
AcDbLine
 62
7
  6
CONTINUOUS
 10
1085.3544455449
 20
625.9147002335
 11
1086.1554302453
 21
626.4486900337
  0
LINE
  5
87F
100
AcDbEntity
  8
0
100
AcDbLine
 62
7
  6
CONTINUOUS
 10
1024.8170554234
 20
582.17783501
 11
1025.6163175759
 21
582.7090687339
  0
LINE
  5
880
100
AcDbEntity
  8
0
100
AcDbLine
 62
7
  6
CONTINUOUS
 10
1026.6829191382
 20
588.5767553643
 11
1027.2167366836
 21
588.8451283026
  0
LINE
  5
881
100
AcDbEntity
  8
0
100
AcDbLine
 62
7
  6
CONTINUOUS
 10
1019.216363693
 20
581.9094620717
 11
1019.7501812384
 21
582.17783501
  0
LINE
  5
882
100
AcDbEntity
  8
0
100
AcDbLine
 62
7
  6
CONTINUOUS
 10
985.3447016463
 20
564.0400962993
 11
985.8786914465
 21
564.3084692376
  0
LINE
  5
883
100
AcDbEntity
  8
0
100
AcDbLine
 62
7
  6
CONTINUOUS
 10
1025.6163175759
 20
582.7090687339
 11
1026.1503073761
 21
582.9774416722
  0
LINE
  5
884
100
AcDbEntity
  8
0
100
AcDbLine
 62
7
  6
CONTINUOUS
 10
1024.5500605232
 20
587.2435034116
 11
1025.0837058139
 21
587.5115318403
  0
LINE
  5
885
100
AcDbEntity
  8
0
100
AcDbLine
 62
7
  6
CONTINUOUS
 10
1085.8884353452
 20
620.047013603
 11
1086.4224251454
 21
620.3150420318
  0
LINE
  5
886
100
AcDbEntity
  8
0
100
AcDbLine
 62
7
  6
CONTINUOUS
 10
1090.155702868
 20
619.7810522315
 11
1090.6881423752
 21
620.047013603
  0
LINE
  5
887
100
AcDbEntity
  8
0
100
AcDbLine
 62
7
  6
CONTINUOUS
 10
1089.0891013057
 20
625.6490833716
 11
1089.6217130677
 21
625.9147002335
  0
LINE
  5
888
100
AcDbEntity
  8
0
100
AcDbLine
 62
7
  6
CONTINUOUS
 10
1090.4225255133
 20
626.1830731718
 11
1090.9551372753
 21
626.4486900337
  0
LINE
  5
889
100
AcDbEntity
  8
0
100
AcDbLine
 62
7
  6
CONTINUOUS
 10
1024.5500605232
 20
584.8446834252
 11
1025.0837058139
 21
585.1103002871
  0
LINE
  5
88A
100
AcDbEntity
  8
0
100
AcDbLine
 62
7
  6
CONTINUOUS
 10
1025.6163175759
 20
585.6442900873
 11
1026.1503073761
 21
585.9099069492
  0
LINE
  5
88B
100
AcDbEntity
  8
0
100
AcDbLine
 62
7
  6
CONTINUOUS
 10
1025.6163175759
 20
563.7744794374
 11
1026.1503073761
 21
564.0400962993
  0
LINE
  5
88C
100
AcDbEntity
  8
0
100
AcDbLine
 62
7
  6
CONTINUOUS
 10
1027.7507264838
 20
564.0400962993
 11
1026.1503073761
 21
563.2404896372
  0
LINE
  5
88D
100
AcDbEntity
  8
0
100
AcDbLine
 62
7
  6
CONTINUOUS
 10
1088.8221064056
 20
1120.9063640637
 11
1090.155702868
 21
1121.1721531804
  0
LINE
  5
88E
100
AcDbEntity
  8
0
100
AcDbLine
 62
7
  6
CONTINUOUS
 10
1091.7561219756
 20
1124.3729913958
 11
1090.155702868
 21
1124.1047907122
  0
LINE
  5
88F
100
AcDbEntity
  8
0
100
AcDbLine
 62
7
  6
CONTINUOUS
 10
443.3548729515
 20
1035.0942031694
 11
443.0892560896
 21
1035.0942031694
  0
LINE
  5
890
100
AcDbEntity
  8
0
100
AcDbLine
 62
7
  6
CONTINUOUS
 10
442.5528547226
 20
1035.3624038529
 11
443.8864511849
 21
1035.3624038529
  0
LINE
  5
891
100
AcDbEntity
  8
0
100
AcDbLine
 62
7
  6
CONTINUOUS
 10
416.6853552716
 20
1035.6280207148
 11
416.9509721335
 21
1035.6280207148
  0
LINE
  5
892
100
AcDbEntity
  8
0
100
AcDbLine
 62
7
  6
CONTINUOUS
 10
446.2876827381
 20
1036.162010515
 11
446.8216725383
 21
1036.162010515
  0
LINE
  5
893
100
AcDbEntity
  8
0
100
AcDbLine
 62
7
  6
CONTINUOUS
 10
447.0897009671
 20
1036.6958280605
 11
447.355317829
 21
1036.6958280605
  0
LINE
  5
894
100
AcDbEntity
  8
0
100
AcDbLine
 62
7
  6
CONTINUOUS
 10
436.421962797
 20
1037.7610515845
 11
436.1535898587
 21
1037.7610515845
  0
LINE
  5
895
100
AcDbEntity
  8
0
100
AcDbLine
 62
7
  6
CONTINUOUS
 10
443.3548729515
 20
1038.2950413847
 11
442.0216209987
 21
1038.2950413847
  0
LINE
  5
896
100
AcDbEntity
  8
0
100
AcDbLine
 62
7
  6
CONTINUOUS
 10
441.4876311985
 20
1038.5632420683
 11
442.8212276609
 21
1038.5632420683
  0
LINE
  5
897
100
AcDbEntity
  8
0
100
AcDbLine
 62
7
  6
CONTINUOUS
 10
445.488076076
 20
1041.4960518548
 11
445.7564490143
 21
1041.4960518548
  0
LINE
  5
898
100
AcDbEntity
  8
0
100
AcDbLine
 62
7
  6
CONTINUOUS
 10
446.0220658762
 20
1041.7616687168
 11
446.2876827381
 21
1041.7616687168
  0
LINE
  5
899
100
AcDbEntity
  8
0
100
AcDbLine
 62
7
  6
CONTINUOUS
 10
445.2197031377
 20
1044.6968900702
 11
445.488076076
 21
1044.6968900702
  0
LINE
  5
89A
100
AcDbEntity
  8
0
100
AcDbLine
 62
7
  6
CONTINUOUS
 10
445.7564490143
 20
1044.9625069321
 11
446.0220658762
 21
1044.9625069321
  0
LINE
  5
89B
100
AcDbEntity
  8
0
100
AcDbLine
 62
7
  6
CONTINUOUS
 10
446.0220658762
 20
1045.2308798704
 11
446.2876827381
 21
1045.2308798704
  0
LINE
  5
89C
100
AcDbEntity
  8
0
100
AcDbLine
 62
7
  6
CONTINUOUS
 10
445.488076076
 20
1045.7621135942
 11
445.7564490143
 21
1045.7621135942
  0
LINE
  5
89D
100
AcDbEntity
  8
0
100
AcDbLine
 62
7
  6
CONTINUOUS
 10
427.532927426
 20
1123.9723267908
 11
425.7407887545
 21
1124.6651354929
  0
LINE
  5
89E
100
AcDbEntity
  8
0
100
AcDbLine
 62
7
  6
CONTINUOUS
 10
424.6862450265
 20
1118.8387900083
 11
423.3526485642
 21
1119.3727798085
  0
LINE
  5
89F
100
AcDbEntity
  8
0
100
AcDbLine
 62
7
  6
CONTINUOUS
 10
414.1146250205
 20
1135.2965279056
 11
415.0027706366
 21
1134.9372044465
  0
LINE
  5
8A0
100
AcDbEntity
  8
0
100
AcDbLine
 62
7
  6
CONTINUOUS
 10
411.8825476556
 20
1120.9718208779
 11
412.4189490226
 21
1120.706204016
  0
LINE
  5
8A1
100
AcDbEntity
  8
0
100
AcDbLine
 62
7
  6
CONTINUOUS
 10
436.6875796589
 20
1118.0391833461
 11
437.2188133828
 21
1117.7709826626
  0
LINE
  5
8A2
100
AcDbEntity
  8
0
100
AcDbLine
 62
7
  6
CONTINUOUS
 10
440.4692609731
 20
1165.7585789505
 11
440.9953270537
 21
1165.4774591589
  0
LINE
  5
8A3
100
AcDbEntity
  8
0
100
AcDbLine
 62
7
  6
CONTINUOUS
 10
446.3162770307
 20
1157.4789809708
 11
445.7902109501
 21
1157.7628568388
  0
LINE
  5
8A4
100
AcDbEntity
  8
0
100
AcDbLine
 62
7
  6
CONTINUOUS
 10
440.3597069367
 20
1166.738019597
 11
439.8363969324
 21
1167.021895465
  0
LINE
  5
8A5
100
AcDbEntity
  8
0
100
AcDbLine
 62
7
  6
CONTINUOUS
 10
437.0730858437
 20
1168.6782973743
 11
436.5521874064
 21
1168.9673408855
  0
LINE
  5
8A6
100
AcDbEntity
  8
0
100
AcDbLine
 62
7
  6
CONTINUOUS
 10
440.0785871451
 20
1170.4311619572
 11
439.4012813727
 21
1170.9389690317
  0
LINE
  5
8A7
100
AcDbEntity
  8
0
100
AcDbLine
 62
7
  6
CONTINUOUS
 10
304.7035600522
 20
1340.437666906
 11
292.3270545214
 21
1350.3621257251
  0
LINE
  5
8A8
100
AcDbEntity
  8
0
100
AcDbLine
 62
7
  6
CONTINUOUS
 10
308.7405229418
 20
1324.7469795184
 11
301.4558685382
 21
1331.0589112117
  0
LINE
  5
8A9
100
AcDbEntity
  8
0
100
AcDbLine
 62
7
  6
CONTINUOUS
 10
316.1736609608
 20
1318.2149062236
 11
308.7405229418
 21
1324.7469795184
  0
LINE
  5
8AA
100
AcDbEntity
  8
0
100
AcDbLine
 62
7
  6
CONTINUOUS
 10
297.0048051713
 20
1358.1365004519
 11
307.0710296696
 21
1349.2057794255
  0
LINE
  5
8AB
100
AcDbEntity
  8
0
100
AcDbLine
 62
7
  6
CONTINUOUS
 10
1091.4891270755
 20
625.3807104333
 11
1091.2221321754
 21
625.6490833716
  0
LINE
  5
8AC
100
AcDbEntity
  8
0
100
AcDbLine
 62
7
  6
CONTINUOUS
 10
1025.0837058139
 20
609.1133140615
 11
1024.5500605232
 21
609.9129207236
  0
LINE
  5
8AD
100
AcDbEntity
  8
0
100
AcDbLine
 62
7
  6
CONTINUOUS
 10
691.440332959
 20
1123.0395671882
 11
691.7073278591
 21
1122.505577388
  0
LINE
  5
8AE
100
AcDbEntity
  8
0
100
AcDbLine
 62
7
  6
CONTINUOUS
 10
983.2116707766
 20
559.508417698
 11
982.1452414692
 21
561.6412763129
  0
LINE
  5
8AF
100
AcDbEntity
  8
0
100
AcDbLine
 62
7
  6
CONTINUOUS
 10
699.7083898688
 20
1152.9078560262
 11
699.9740067307
 21
1152.3764500476
  0
LINE
  5
8B0
100
AcDbEntity
  8
0
100
AcDbLine
 62
7
  6
CONTINUOUS
 10
985.3447016463
 20
564.0400962993
 11
984.8120898843
 21
565.1080758997
  0
LINE
  5
8B1
100
AcDbEntity
  8
0
100
AcDbLine
 62
7
  6
CONTINUOUS
 10
1010.4156950211
 20
607.5141007372
 11
1011.2153016833
 21
605.9124758461
  0
LINE
  5
8B2
100
AcDbEntity
  8
0
100
AcDbLine
 62
7
  6
CONTINUOUS
 10
690.9065154135
 20
1128.1078194113
 11
691.1735103136
 21
1127.5712457895
  0
LINE
  5
8B3
100
AcDbEntity
  8
0
100
AcDbLine
 62
7
  6
CONTINUOUS
 10
998.414188134
 20
580.8442385477
 11
998.6798049959
 21
580.3102487475
  0
LINE
  5
8B4
100
AcDbEntity
  8
0
100
AcDbLine
 62
7
  6
CONTINUOUS
 10
980.8116450068
 20
610.7125273857
 11
980.8116450068
 21
608.8476971996
  0
LINE
  5
8B5
100
AcDbEntity
  8
0
100
AcDbLine
 62
7
  6
CONTINUOUS
 10
982.1452414692
 20
619.7810522315
 11
982.1452414692
 21
612.5797691387
  0
LINE
  5
8B6
100
AcDbEntity
  8
0
100
AcDbLine
 62
7
  6
CONTINUOUS
 10
982.1452414692
 20
561.6412763129
 11
982.1452414692
 21
588.0431100737
  0
LINE
  5
8B7
100
AcDbEntity
  8
0
100
AcDbLine
 62
7
  6
CONTINUOUS
 10
982.4120641145
 20
564.0400962993
 11
982.4120641145
 21
563.7744794374
  0
LINE
  5
8B8
100
AcDbEntity
  8
0
100
AcDbLine
 62
7
  6
CONTINUOUS
 10
982.4120641145
 20
562.1752661131
 11
982.4120641145
 21
561.9068931748
  0
LINE
  5
8B9
100
AcDbEntity
  8
0
100
AcDbLine
 62
7
  6
CONTINUOUS
 10
1078.4215353904
 20
1153.175884455
 11
1077.8875455902
 21
1150.7772367234
  0
LINE
  5
8BA
100
AcDbEntity
  8
0
100
AcDbLine
 62
7
  6
CONTINUOUS
 10
1077.8875455902
 20
1150.7772367234
 11
1077.0882834376
 21
1147.5738146864
  0
LINE
  5
8BB
100
AcDbEntity
  8
0
100
AcDbLine
 62
7
  6
CONTINUOUS
 10
1086.6880420073
 20
1123.0395671882
 11
1086.9548646526
 21
1124.1047907122
  0
LINE
  5
8BC
100
AcDbEntity
  8
0
100
AcDbLine
 62
7
  6
CONTINUOUS
 10
985.8786914465
 20
612.848142077
 11
986.4126812468
 21
613.6477487392
  0
LINE
  5
8BD
100
AcDbEntity
  8
0
100
AcDbLine
 62
7
  6
CONTINUOUS
 10
1017.0831605685
 20
579.2426136566
 11
1017.3487774304
 21
579.5106420854
  0
LINE
  5
8BE
100
AcDbEntity
  8
0
100
AcDbLine
 62
7
  6
CONTINUOUS
 10
1010.4156950211
 20
593.3771514135
 11
1010.6814841378
 21
593.6451798422
  0
LINE
  5
8BF
100
AcDbEntity
  8
0
100
AcDbLine
 62
7
  6
CONTINUOUS
 10
1010.9484790379
 20
593.9107967042
 11
1011.2153016833
 21
594.1791696425
  0
LINE
  5
8C0
100
AcDbEntity
  8
0
100
AcDbLine
 62
7
  6
CONTINUOUS
 10
982.4120641145
 20
563.5088625755
 11
982.1452414692
 21
563.2404896372
  0
LINE
  5
8C1
100
AcDbEntity
  8
0
100
AcDbLine
 62
7
  6
CONTINUOUS
 10
1020.549443391
 20
584.5763104869
 11
1020.8164382911
 21
584.8446834252
  0
LINE
  5
8C2
100
AcDbEntity
  8
0
100
AcDbLine
 62
7
  6
CONTINUOUS
 10
1024.5500605232
 20
588.5767553643
 11
1024.8170554234
 21
588.8451283026
  0
LINE
  5
8C3
100
AcDbEntity
  8
0
100
AcDbLine
 62
7
  6
CONTINUOUS
 10
1017.8827672306
 20
580.0418758092
 11
1018.1497621308
 21
580.3102487475
  0
LINE
  5
8C4
100
AcDbEntity
  8
0
100
AcDbLine
 62
7
  6
CONTINUOUS
 10
1025.6163175759
 20
588.0431100737
 11
1025.883312476
 21
588.3111385024
  0
LINE
  5
8C5
100
AcDbEntity
  8
0
100
AcDbLine
 62
7
  6
CONTINUOUS
 10
1025.883312476
 20
583.5110869628
 11
1025.6163175759
 21
583.2430585341
  0
LINE
  5
8C6
100
AcDbEntity
  8
0
100
AcDbLine
 62
7
  6
CONTINUOUS
 10
986.9452930088
 20
613.9133656011
 11
987.479282809
 21
614.4473554013
  0
LINE
  5
8C7
100
AcDbEntity
  8
0
100
AcDbLine
 62
7
  6
CONTINUOUS
 10
991.7467225866
 20
594.9787763046
 11
992.0123394485
 21
595.2443931665
  0
LINE
  5
8C8
100
AcDbEntity
  8
0
100
AcDbLine
 62
7
  6
CONTINUOUS
 10
1018.4167570309
 20
581.1098554096
 11
1018.9493687929
 21
581.6438452098
  0
LINE
  5
8C9
100
AcDbEntity
  8
0
100
AcDbLine
 62
7
  6
CONTINUOUS
 10
1025.0837058139
 20
587.5115318403
 11
1025.3496671854
 21
587.7774932118
  0
LINE
  5
8CA
100
AcDbEntity
  8
0
100
AcDbLine
 62
7
  6
CONTINUOUS
 10
1026.6829191382
 20
583.7767038247
 11
1026.4173022763
 21
583.5110869628
  0
LINE
  5
8CB
100
AcDbEntity
  8
0
100
AcDbLine
 62
7
  6
CONTINUOUS
 10
1025.0837058139
 20
585.1103002871
 11
1025.6163175759
 21
585.6442900873
  0
LINE
  5
8CC
100
AcDbEntity
  8
0
100
AcDbLine
 62
7
  6
CONTINUOUS
 10
1025.6163175759
 20
582.9774416722
 11
1025.0837058139
 21
582.443451872
  0
LINE
  5
8CD
100
AcDbEntity
  8
0
100
AcDbLine
 62
7
  6
CONTINUOUS
 10
1025.3496671854
 20
588.3111385024
 11
1025.6163175759
 21
588.5767553643
  0
LINE
  5
8CE
100
AcDbEntity
  8
0
100
AcDbLine
 62
7
  6
CONTINUOUS
 10
1024.8170554234
 20
587.7774932118
 11
1025.0837058139
 21
588.0431100737
  0
LINE
  5
8CF
100
AcDbEntity
  8
0
100
AcDbLine
 62
7
  6
CONTINUOUS
 10
1027.2167366836
 20
587.7774932118
 11
1026.6829191382
 21
587.2435034116
  0
LINE
  5
8D0
100
AcDbEntity
  8
0
100
AcDbLine
 62
7
  6
CONTINUOUS
 10
982.9446758765
 20
563.7744794374
 11
982.6778532312
 21
563.5088625755
  0
LINE
  5
8D1
100
AcDbEntity
  8
0
100
AcDbLine
 62
7
  6
CONTINUOUS
 10
982.4120641145
 20
561.9068931748
 11
982.1452414692
 21
561.6412763129
  0
LINE
  5
8D2
100
AcDbEntity
  8
0
100
AcDbLine
 62
7
  6
CONTINUOUS
 10
984.8120898843
 20
609.1133140615
 11
985.0790847844
 21
609.3789309234
  0
LINE
  5
8D3
100
AcDbEntity
  8
0
100
AcDbLine
 62
7
  6
CONTINUOUS
 10
983.2116707766
 20
562.706499837
 11
982.6778532312
 21
562.1752661131
  0
LINE
  5
8D4
100
AcDbEntity
  8
0
100
AcDbLine
 62
7
  6
CONTINUOUS
 10
985.8786914465
 20
564.3084692376
 11
986.1456863467
 21
564.5740860995
  0
LINE
  5
8D5
100
AcDbEntity
  8
0
100
AcDbLine
 62
7
  6
CONTINUOUS
 10
1018.9493687929
 20
581.6438452098
 11
1019.216363693
 21
581.9094620717
  0
LINE
  5
8D6
100
AcDbEntity
  8
0
100
AcDbLine
 62
7
  6
CONTINUOUS
 10
1025.3496671854
 20
587.5115318403
 11
1025.883312476
 21
588.0431100737
  0
LINE
  5
8D7
100
AcDbEntity
  8
0
100
AcDbLine
 62
7
  6
CONTINUOUS
 10
1017.6157723305
 20
579.5106420854
 11
1017.8827672306
 21
579.7762589473
  0
LINE
  5
8D8
100
AcDbEntity
  8
0
100
AcDbLine
 62
7
  6
CONTINUOUS
 10
1024.8170554234
 20
582.443451872
 11
1024.5500605232
 21
582.17783501
  0
LINE
  5
8D9
100
AcDbEntity
  8
0
100
AcDbLine
 62
7
  6
CONTINUOUS
 10
693.8405309835
 20
1116.3721016408
 11
692.7739294213
 21
1116.1039009573
  0
LINE
  5
8DA
100
AcDbEntity
  8
0
100
AcDbLine
 62
7
  6
CONTINUOUS
 10
692.2399396211
 20
1124.6387805124
 11
694.374348529
 21
1125.1725980579
  0
LINE
  5
8DB
100
AcDbEntity
  8
0
100
AcDbLine
 62
7
  6
CONTINUOUS
 10
436.1535898587
 20
1037.7610515845
 11
437.7552147498
 21
1038.0294245228
  0
LINE
  5
8DC
100
AcDbEntity
  8
0
100
AcDbLine
 62
7
  6
CONTINUOUS
 10
437.2188133828
 20
1038.0294245228
 11
439.0888112121
 21
1038.2950413847
  0
LINE
  5
8DD
100
AcDbEntity
  8
0
100
AcDbLine
 62
7
  6
CONTINUOUS
 10
426.2854583508
 20
1036.4276273769
 11
436.421962797
 21
1037.7610515845
  0
LINE
  5
8DE
100
AcDbEntity
  8
0
100
AcDbLine
 62
7
  6
CONTINUOUS
 10
439.0888112121
 20
1038.2950413847
 11
441.4876311985
 21
1038.5632420683
  0
LINE
  5
8DF
100
AcDbEntity
  8
0
100
AcDbLine
 62
7
  6
CONTINUOUS
 10
416.9509721335
 20
1035.6280207148
 11
426.2854583508
 21
1036.4276273769
  0
LINE
  5
8E0
100
AcDbEntity
  8
0
100
AcDbLine
 62
7
  6
CONTINUOUS
 10
416.6853552716
 20
1035.6280207148
 11
426.5510752127
 21
1036.4276273769
  0
LINE
  5
8E1
100
AcDbEntity
  8
0
100
AcDbLine
 62
7
  6
CONTINUOUS
 10
444.422852552
 20
1055.6305896117
 11
445.2197031377
 21
1055.6305896117
  0
LINE
  5
8E2
100
AcDbEntity
  8
0
100
AcDbLine
 62
7
  6
CONTINUOUS
 10
445.488076076
 20
1055.8987902953
 11
445.7564490143
 21
1055.8987902953
  0
LINE
  5
8E3
100
AcDbEntity
  8
0
100
AcDbLine
 62
7
  6
CONTINUOUS
 10
444.1544796137
 20
1058.0318211649
 11
445.2197031377
 21
1058.0318211649
  0
LINE
  5
8E4
100
AcDbEntity
  8
0
100
AcDbLine
 62
7
  6
CONTINUOUS
 10
428.1527001038
 20
1116.437558455
 11
426.0194969793
 21
1116.7057591386
  0
LINE
  5
8E5
100
AcDbEntity
  8
0
100
AcDbLine
 62
7
  6
CONTINUOUS
 10
427.8843271655
 20
1118.0391833461
 11
426.2854583508
 21
1118.3049724628
  0
LINE
  5
8E6
100
AcDbEntity
  8
0
100
AcDbLine
 62
7
  6
CONTINUOUS
 10
422.602651277
 20
1123.1024401808
 11
422.2274803787
 21
1123.1647964091
  0
LINE
  5
8E7
100
AcDbEntity
  8
0
100
AcDbLine
 62
7
  6
CONTINUOUS
 10
421.7665266028
 20
1129.3687243589
 11
421.3968678572
 21
1129.431252842
  0
LINE
  5
8E8
100
AcDbEntity
  8
0
100
AcDbLine
 62
7
  6
CONTINUOUS
 10
427.639725386
 20
1120.1281169936
 11
426.1552337414
 21
1120.3832263143
  0
LINE
  5
8E9
100
AcDbEntity
  8
0
100
AcDbLine
 62
7
  6
CONTINUOUS
 10
426.4597801823
 20
1119.9508668309
 11
427.9470279033
 21
1119.6931736886
  0
LINE
  5
8EA
100
AcDbEntity
  8
0
100
AcDbLine
 62
7
  6
CONTINUOUS
 10
427.816803294
 20
1130.0486139529
 11
428.9288801166
 21
1129.8558608605
  0
LINE
  5
8EB
100
AcDbEntity
  8
0
100
AcDbLine
 62
7
  6
CONTINUOUS
 10
422.357704988
 20
1129.4572633129
 11
421.9828785992
 21
1129.5223756176
  0
LINE
  5
8EC
100
AcDbEntity
  8
0
100
AcDbLine
 62
7
  6
CONTINUOUS
 10
426.5614104991
 20
1121.6542942936
 11
427.6762433982
 21
1121.4589573796
  0
LINE
  5
8ED
100
AcDbEntity
  8
0
100
AcDbLine
 62
7
  6
CONTINUOUS
 10
432.7391557233
 20
1123.0762574551
 11
432.3694969777
 21
1123.1413697598
  0
LINE
  5
8EE
100
AcDbEntity
  8
0
100
AcDbLine
 62
7
  6
CONTINUOUS
 10
419.5606319636
 20
1134.3432699848
 11
419.9330467855
 21
1134.2755738586
  0
LINE
  5
8EF
100
AcDbEntity
  8
0
100
AcDbLine
 62
7
  6
CONTINUOUS
 10
415.0027706366
 20
1134.9372044465
 11
416.4900183576
 21
1134.6662476866
  0
LINE
  5
8F0
100
AcDbEntity
  8
0
100
AcDbLine
 62
7
  6
CONTINUOUS
 10
411.0856970698
 20
1117.7709826626
 11
410.0177174694
 21
1118.0391833461
  0
LINE
  5
8F1
100
AcDbEntity
  8
0
100
AcDbLine
 62
7
  6
CONTINUOUS
 10
426.0194969793
 20
1116.7057591386
 11
424.1522552263
 21
1117.2397489388
  0
LINE
  5
8F2
100
AcDbEntity
  8
0
100
AcDbLine
 62
7
  6
CONTINUOUS
 10
424.8188812027
 20
1120.422328148
 11
426.4597801823
 21
1119.9508668309
  0
LINE
  5
8F3
100
AcDbEntity
  8
0
100
AcDbLine
 62
7
  6
CONTINUOUS
 10
426.1552337414
 20
1120.3832263143
 11
424.5143347618
 21
1120.8572714531
  0
LINE
  5
8F4
100
AcDbEntity
  8
0
100
AcDbLine
 62
7
  6
CONTINUOUS
 10
425.2929263415
 20
1122.0658109493
 11
426.5614104991
 21
1121.6542942936
  0
LINE
  5
8F5
100
AcDbEntity
  8
0
100
AcDbLine
 62
7
  6
CONTINUOUS
 10
426.2854583508
 20
1118.3049724628
 11
424.6862450265
 21
1118.8387900083
  0
LINE
  5
8F6
100
AcDbEntity
  8
0
100
AcDbLine
 62
7
  6
CONTINUOUS
 10
439.8363969324
 20
1167.021895465
 11
438.9430836731
 21
1167.3786351025
  0
LINE
  5
8F7
100
AcDbEntity
  8
0
100
AcDbLine
 62
7
  6
CONTINUOUS
 10
438.3570729311
 20
1171.5093045893
 11
436.5704464124
 21
1172.222956119
  0
LINE
  5
8F8
100
AcDbEntity
  8
0
100
AcDbLine
 62
7
  6
CONTINUOUS
 10
438.7918439813
 20
1167.5973986658
 11
437.3752207178
 21
1168.238186426
  0
LINE
  5
8F9
100
AcDbEntity
  8
0
100
AcDbLine
 62
7
  6
CONTINUOUS
 10
439.4012813727
 20
1170.9389690317
 11
438.3570729311
 21
1171.5093045893
  0
LINE
  5
8FA
100
AcDbEntity
  8
0
100
AcDbLine
 62
7
  6
CONTINUOUS
 10
287.3161631381
 20
1340.7332560986
 11
281.7816172411
 21
1344.0448541338
  0
LINE
  5
8FB
100
AcDbEntity
  8
0
100
AcDbLine
 62
7
  6
CONTINUOUS
 10
293.8194698856
 20
1336.4801134673
 11
287.3161631381
 21
1340.7332560986
  0
LINE
  5
8FC
100
AcDbEntity
  8
0
100
AcDbLine
 62
7
  6
CONTINUOUS
 10
292.3270545214
 20
1350.3621257251
 11
285.664928872
 21
1354.8379937795
  0
LINE
  5
8FD
100
AcDbEntity
  8
0
100
AcDbLine
 62
7
  6
CONTINUOUS
 10
285.7741383989
 20
1365.9356798662
 11
297.0048051713
 21
1358.1365004519
  0
LINE
  5
8FE
100
AcDbEntity
  8
0
100
AcDbLine
 62
7
  6
CONTINUOUS
 10
301.4558685382
 20
1331.0589112117
 11
293.8194698856
 21
1336.4801134673
  0
LINE
  5
8FF
100
AcDbEntity
  8
0
100
AcDbLine
 62
7
  6
CONTINUOUS
 10
691.1735103136
 20
1117.4373251649
 11
691.7073278591
 21
1116.9059191863
  0
LINE
  5
900
100
AcDbEntity
  8
0
100
AcDbLine
 62
7
  6
CONTINUOUS
 10
703.1750172008
 20
1121.1721531804
 11
703.4420121009
 21
1120.9063640637
  0
LINE
  5
901
100
AcDbEntity
  8
0
100
AcDbLine
 62
7
  6
CONTINUOUS
 10
686.9058982813
 20
1116.9059191863
 11
687.4398880815
 21
1116.3721016408
  0
LINE
  5
902
100
AcDbEntity
  8
0
100
AcDbLine
 62
7
  6
CONTINUOUS
 10
686.9058982813
 20
1121.9715875878
 11
687.4398880815
 21
1121.4377700423
  0
LINE
  5
903
100
AcDbEntity
  8
0
100
AcDbLine
 62
7
  6
CONTINUOUS
 10
691.972944721
 20
1121.9715875878
 11
692.5069345212
 21
1121.4377700423
  0
LINE
  5
904
100
AcDbEntity
  8
0
100
AcDbLine
 62
7
  6
CONTINUOUS
 10
1025.3496671854
 20
608.045334461
 11
1025.6163175759
 21
607.5141007372
  0
LINE
  5
905
100
AcDbEntity
  8
0
100
AcDbLine
 62
7
  6
CONTINUOUS
 10
1026.4173022763
 20
601.3780411684
 11
1026.6829191382
 21
600.8468074446
  0
LINE
  5
906
100
AcDbEntity
  8
0
100
AcDbLine
 62
7
  6
CONTINUOUS
 10
1026.4173022763
 20
611.2461726764
 11
1025.6163175759
 21
612.848142077
  0
LINE
  5
907
100
AcDbEntity
  8
0
100
AcDbLine
 62
7
  6
CONTINUOUS
 10
1025.3496671854
 20
608.5793242613
 11
1025.883312476
 21
607.5141007372
  0
LINE
  5
908
100
AcDbEntity
  8
0
100
AcDbLine
 62
7
  6
CONTINUOUS
 10
1026.9497417835
 20
613.3793758009
 11
1027.2167366836
 21
612.5797691387
  0
LINE
  5
909
100
AcDbEntity
  8
0
100
AcDbLine
 62
7
  6
CONTINUOUS
 10
1024.5500605232
 20
608.8476971996
 11
1024.8170554234
 21
608.045334461
  0
LINE
  5
90A
100
AcDbEntity
  8
0
100
AcDbLine
 62
7
  6
CONTINUOUS
 10
1024.8170554234
 20
607.5141007372
 11
1025.0837058139
 21
606.7117379987
  0
LINE
  5
90B
100
AcDbEntity
  8
0
100
AcDbLine
 62
7
  6
CONTINUOUS
 10
1025.0837058139
 20
608.8476971996
 11
1025.3496671854
 21
608.045334461
  0
LINE
  5
90C
100
AcDbEntity
  8
0
100
AcDbLine
 62
7
  6
CONTINUOUS
 10
984.8120898843
 20
565.1080758997
 11
984.545267239
 21
566.1757109906
  0
LINE
  5
90D
100
AcDbEntity
  8
0
100
AcDbLine
 62
7
  6
CONTINUOUS
 10
999.4807896962
 20
563.7744794374
 11
999.2137947961
 21
579.5106420854
  0
LINE
  5
90E
100
AcDbEntity
  8
0
100
AcDbLine
 62
7
  6
CONTINUOUS
 10
982.9446758765
 20
610.9805558145
 11
982.9446758765
 21
610.7125273857
  0
LINE
  5
90F
100
AcDbEntity
  8
0
100
AcDbLine
 62
7
  6
CONTINUOUS
 10
983.7456605769
 20
620.3150420318
 11
983.7456605769
 21
612.5797691387
  0
LINE
  5
910
100
AcDbEntity
  8
0
100
AcDbLine
 62
7
  6
CONTINUOUS
 10
983.7456605769
 20
610.7125273857
 11
983.7456605769
 21
610.4469105238
  0
LINE
  5
911
100
AcDbEntity
  8
0
100
AcDbLine
 62
7
  6
CONTINUOUS
 10
983.7456605769
 20
587.7774932118
 11
983.7456605769
 21
562.706499837
  0
LINE
  5
912
100
AcDbEntity
  8
0
100
AcDbLine
 62
7
  6
CONTINUOUS
 10
984.0112774388
 20
610.4469105238
 11
984.0112774388
 21
609.9129207236
  0
LINE
  5
913
100
AcDbEntity
  8
0
100
AcDbLine
 62
7
  6
CONTINUOUS
 10
984.2782723389
 20
609.9129207236
 11
984.2782723389
 21
609.3789309234
  0
LINE
  5
914
100
AcDbEntity
  8
0
100
AcDbLine
 62
7
  6
CONTINUOUS
 10
984.545267239
 20
566.1757109906
 11
984.545267239
 21
587.7774932118
  0
LINE
  5
915
100
AcDbEntity
  8
0
100
AcDbLine
 62
7
  6
CONTINUOUS
 10
984.545267239
 20
612.3141522768
 11
984.545267239
 21
620.3150420318
  0
LINE
  5
916
100
AcDbEntity
  8
0
100
AcDbLine
 62
7
  6
CONTINUOUS
 10
985.3447016463
 20
566.4413278525
 11
985.3447016463
 21
566.1757109906
  0
LINE
  5
917
100
AcDbEntity
  8
0
100
AcDbLine
 62
7
  6
CONTINUOUS
 10
985.8786914465
 20
587.7774932118
 11
985.8786914465
 21
565.1080758997
  0
LINE
  5
918
100
AcDbEntity
  8
0
100
AcDbLine
 62
7
  6
CONTINUOUS
 10
985.8786914465
 20
612.0461238481
 11
985.8786914465
 21
619.7810522315
  0
LINE
  5
919
100
AcDbEntity
  8
0
100
AcDbLine
 62
7
  6
CONTINUOUS
 10
987.479282809
 20
560.3080243601
 11
987.479282809
 21
557.6408314354
  0
LINE
  5
91A
100
AcDbEntity
  8
0
100
AcDbLine
 62
7
  6
CONTINUOUS
 10
988.2787172163
 20
562.9748727753
 11
988.2787172163
 21
563.5088625755
  0
LINE
  5
91B
100
AcDbEntity
  8
0
100
AcDbLine
 62
7
  6
CONTINUOUS
 10
990.1461312241
 20
587.5115318403
 11
990.1461312241
 21
586.1782798875
  0
LINE
  5
91C
100
AcDbEntity
  8
0
100
AcDbLine
 62
7
  6
CONTINUOUS
 10
991.4797276865
 20
593.3771514135
 11
991.4797276865
 21
594.7104033663
  0
LINE
  5
91D
100
AcDbEntity
  8
0
100
AcDbLine
 62
7
  6
CONTINUOUS
 10
991.7467225866
 20
608.045334461
 11
991.7467225866
 21
607.7797175991
  0
LINE
  5
91E
100
AcDbEntity
  8
0
100
AcDbLine
 62
7
  6
CONTINUOUS
 10
992.0123394485
 20
595.2443931665
 11
992.0123394485
 21
607.5141007372
  0
LINE
  5
91F
100
AcDbEntity
  8
0
100
AcDbLine
 62
7
  6
CONTINUOUS
 10
998.414188134
 20
614.4473554013
 11
998.414188134
 21
613.6477487392
  0
LINE
  5
920
100
AcDbEntity
  8
0
100
AcDbLine
 62
7
  6
CONTINUOUS
 10
998.414188134
 20
581.1098554096
 11
998.414188134
 21
580.8442385477
  0
LINE
  5
921
100
AcDbEntity
  8
0
100
AcDbLine
 62
7
  6
CONTINUOUS
 10
998.414188134
 20
584.310693625
 11
998.414188134
 21
584.8446834252
  0
LINE
  5
922
100
AcDbEntity
  8
0
100
AcDbLine
 62
7
  6
CONTINUOUS
 10
998.6798049959
 20
580.3102487475
 11
998.6798049959
 21
580.0418758092
  0
LINE
  5
923
100
AcDbEntity
  8
0
100
AcDbLine
 62
7
  6
CONTINUOUS
 10
1001.0812088039
 20
579.2426136566
 11
1001.0812088039
 21
563.7744794374
  0
LINE
  5
924
100
AcDbEntity
  8
0
100
AcDbLine
 62
7
  6
CONTINUOUS
 10
1005.8812603435
 20
592.0435549511
 11
1005.8812603435
 21
593.6451798422
  0
LINE
  5
925
100
AcDbEntity
  8
0
100
AcDbLine
 62
7
  6
CONTINUOUS
 10
1010.9484790379
 20
593.6451798422
 11
1010.9484790379
 21
593.9107967042
  0
LINE
  5
926
100
AcDbEntity
  8
0
100
AcDbLine
 62
7
  6
CONTINUOUS
 10
1011.2153016833
 20
594.1791696425
 11
1011.2153016833
 21
605.9124758461
  0
LINE
  5
927
100
AcDbEntity
  8
0
100
AcDbLine
 62
7
  6
CONTINUOUS
 10
1017.8827672306
 20
579.7762589473
 11
1017.8827672306
 21
580.0418758092
  0
LINE
  5
928
100
AcDbEntity
  8
0
100
AcDbLine
 62
7
  6
CONTINUOUS
 10
1018.4167570309
 20
584.8446834252
 11
1018.4167570309
 21
584.310693625
  0
LINE
  5
929
100
AcDbEntity
  8
0
100
AcDbLine
 62
7
  6
CONTINUOUS
 10
1018.4167570309
 20
580.8442385477
 11
1018.4167570309
 21
581.1098554096
  0
LINE
  5
92A
100
AcDbEntity
  8
0
100
AcDbLine
 62
7
  6
CONTINUOUS
 10
1018.4167570309
 20
613.6477487392
 11
1018.4167570309
 21
614.4473554013
  0
LINE
  5
92B
100
AcDbEntity
  8
0
100
AcDbLine
 62
7
  6
CONTINUOUS
 10
1019.4833585931
 20
586.9778865496
 11
1019.4833585931
 21
588.5767553643
  0
LINE
  5
92C
100
AcDbEntity
  8
0
100
AcDbLine
 62
7
  6
CONTINUOUS
 10
1020.0157981003
 20
586.4438967494
 11
1020.0157981003
 21
588.0431100737
  0
LINE
  5
92D
100
AcDbEntity
  8
0
100
AcDbLine
 62
7
  6
CONTINUOUS
 10
1021.6160449532
 20
587.5115318403
 11
1021.6160449532
 21
587.2435034116
  0
LINE
  5
92E
100
AcDbEntity
  8
0
100
AcDbLine
 62
7
  6
CONTINUOUS
 10
1024.2830656231
 20
588.0431100737
 11
1024.2830656231
 21
587.7774932118
  0
LINE
  5
92F
100
AcDbEntity
  8
0
100
AcDbLine
 62
7
  6
CONTINUOUS
 10
1024.2830656231
 20
584.8446834252
 11
1024.2830656231
 21
582.17783501
  0
LINE
  5
930
100
AcDbEntity
  8
0
100
AcDbLine
 62
7
  6
CONTINUOUS
 10
1024.5500605232
 20
587.5115318403
 11
1024.5500605232
 21
587.2435034116
  0
LINE
  5
931
100
AcDbEntity
  8
0
100
AcDbLine
 62
7
  6
CONTINUOUS
 10
1024.5500605232
 20
588.3111385024
 11
1024.5500605232
 21
588.5767553643
  0
LINE
  5
932
100
AcDbEntity
  8
0
100
AcDbLine
 62
7
  6
CONTINUOUS
 10
1024.8170554234
 20
614.4473554013
 11
1024.8170554234
 21
613.3793758009
  0
LINE
  5
933
100
AcDbEntity
  8
0
100
AcDbLine
 62
7
  6
CONTINUOUS
 10
1024.8170554234
 20
608.045334461
 11
1024.8170554234
 21
607.5141007372
  0
LINE
  5
934
100
AcDbEntity
  8
0
100
AcDbLine
 62
7
  6
CONTINUOUS
 10
1024.8170554234
 20
588.8451283026
 11
1024.8170554234
 21
589.1107451646
  0
LINE
  5
935
100
AcDbEntity
  8
0
100
AcDbLine
 62
7
  6
CONTINUOUS
 10
1025.0837058139
 20
562.9748727753
 11
1025.0837058139
 21
563.5088625755
  0
LINE
  5
936
100
AcDbEntity
  8
0
100
AcDbLine
 62
7
  6
CONTINUOUS
 10
1025.0837058139
 20
589.1107451646
 11
1025.0837058139
 21
606.7117379987
  0
LINE
  5
937
100
AcDbEntity
  8
0
100
AcDbLine
 62
7
  6
CONTINUOUS
 10
1025.3496671854
 20
608.8476971996
 11
1025.3496671854
 21
608.5793242613
  0
LINE
  5
938
100
AcDbEntity
  8
0
100
AcDbLine
 62
7
  6
CONTINUOUS
 10
1025.3496671854
 20
588.0431100737
 11
1025.3496671854
 21
588.3111385024
  0
LINE
  5
939
100
AcDbEntity
  8
0
100
AcDbLine
 62
7
  6
CONTINUOUS
 10
1025.6163175759
 20
607.5141007372
 11
1025.6163175759
 21
606.7117379987
  0
LINE
  5
93A
100
AcDbEntity
  8
0
100
AcDbLine
 62
7
  6
CONTINUOUS
 10
1025.6163175759
 20
583.2430585341
 11
1025.6163175759
 21
582.9774416722
  0
LINE
  5
93B
100
AcDbEntity
  8
0
100
AcDbLine
 62
7
  6
CONTINUOUS
 10
1025.6163175759
 20
557.9064482974
 11
1025.6163175759
 21
557.6408314354
  0
LINE
  5
93C
100
AcDbEntity
  8
0
100
AcDbLine
 62
7
  6
CONTINUOUS
 10
1025.6163175759
 20
587.7774932118
 11
1025.6163175759
 21
588.0431100737
  0
LINE
  5
93D
100
AcDbEntity
  8
0
100
AcDbLine
 62
7
  6
CONTINUOUS
 10
1025.6163175759
 20
588.5767553643
 11
1025.6163175759
 21
589.1107451646
  0
LINE
  5
93E
100
AcDbEntity
  8
0
100
AcDbLine
 62
7
  6
CONTINUOUS
 10
1025.883312476
 20
560.3080243601
 11
1025.883312476
 21
558.1748212357
  0
LINE
  5
93F
100
AcDbEntity
  8
0
100
AcDbLine
 62
7
  6
CONTINUOUS
 10
1025.883312476
 20
583.5110869628
 11
1025.883312476
 21
585.6442900873
  0
LINE
  5
940
100
AcDbEntity
  8
0
100
AcDbLine
 62
7
  6
CONTINUOUS
 10
1025.883312476
 20
588.0431100737
 11
1025.883312476
 21
607.5141007372
  0
LINE
  5
941
100
AcDbEntity
  8
0
100
AcDbLine
 62
7
  6
CONTINUOUS
 10
1026.1503073761
 20
585.9099069492
 11
1026.1503073761
 21
586.1782798875
  0
LINE
  5
942
100
AcDbEntity
  8
0
100
AcDbLine
 62
7
  6
CONTINUOUS
 10
1026.4173022763
 20
582.17783501
 11
1026.4173022763
 21
583.5110869628
  0
LINE
  5
943
100
AcDbEntity
  8
0
100
AcDbLine
 62
7
  6
CONTINUOUS
 10
1026.4173022763
 20
586.7095136113
 11
1026.4173022763
 21
611.2461726764
  0
LINE
  5
944
100
AcDbEntity
  8
0
100
AcDbLine
 62
7
  6
CONTINUOUS
 10
1026.6829191382
 20
587.2435034116
 11
1026.6829191382
 21
583.7767038247
  0
LINE
  5
945
100
AcDbEntity
  8
0
100
AcDbLine
 62
7
  6
CONTINUOUS
 10
1027.2167366836
 20
565.9076825619
 11
1027.2167366836
 21
619.7810522315
  0
LINE
  5
946
100
AcDbEntity
  8
0
100
AcDbLine
 62
7
  6
CONTINUOUS
 10
1028.8173280461
 20
620.3150420318
 11
1028.8173280461
 21
566.4413278525
  0
LINE
  5
947
100
AcDbEntity
  8
0
100
AcDbLine
 62
7
  6
CONTINUOUS
 10
1029.6169347082
 20
563.7744794374
 11
1029.6169347082
 21
620.3150420318
  0
LINE
  5
948
100
AcDbEntity
  8
0
100
AcDbLine
 62
7
  6
CONTINUOUS
 10
1030.6833640156
 20
562.1752661131
 11
1030.6833640156
 21
561.6412763129
  0
LINE
  5
949
100
AcDbEntity
  8
0
100
AcDbLine
 62
7
  6
CONTINUOUS
 10
1030.9500144062
 20
619.7810522315
 11
1030.9500144062
 21
562.9748727753
  0
LINE
  5
94A
100
AcDbEntity
  8
0
100
AcDbLine
 62
7
  6
CONTINUOUS
 10
1026.1503073761
 20
611.5145456147
 11
1026.4173022763
 21
613.9133656011
  0
LINE
  5
94B
100
AcDbEntity
  8
0
100
AcDbLine
 62
7
  6
CONTINUOUS
 10
1078.6871522523
 20
1155.0434707175
 11
1078.4215353904
 21
1153.175884455
  0
LINE
  5
94C
100
AcDbEntity
  8
0
100
AcDbLine
 62
7
  6
CONTINUOUS
 10
1075.7548592301
 20
1140.1093262985
 11
1075.2208694299
 21
1136.3744982829
  0
LINE
  5
94D
100
AcDbEntity
  8
0
100
AcDbLine
 62
7
  6
CONTINUOUS
 10
1077.0882834376
 20
1147.5738146864
 11
1076.2872987373
 21
1143.0419638303
  0
LINE
  5
94E
100
AcDbEntity
  8
0
100
AcDbLine
 62
7
  6
CONTINUOUS
 10
1076.2872987373
 20
1143.0419638303
 11
1075.7548592301
 21
1140.1093262985
  0
LINE
  5
94F
100
AcDbEntity
  8
0
100
AcDbLine
 62
7
  6
CONTINUOUS
 10
1026.4173022763
 20
588.0431100737
 11
1026.6829191382
 21
588.5767553643
  0
LINE
  5
950
100
AcDbEntity
  8
0
100
AcDbLine
 62
7
  6
CONTINUOUS
 10
990.9457378863
 20
612.848142077
 11
990.6787429861
 21
612.3141522768
  0
LINE
  5
951
100
AcDbEntity
  8
0
100
AcDbLine
 62
7
  6
CONTINUOUS
 10
1018.1497621308
 20
580.3102487475
 11
1018.4167570309
 21
580.8442385477
  0
LINE
  5
952
100
AcDbEntity
  8
0
100
AcDbLine
 62
7
  6
CONTINUOUS
 10
1026.9497417835
 20
565.3736927616
 11
1027.2167366836
 21
565.9076825619
  0
LINE
  5
953
100
AcDbEntity
  8
0
100
AcDbLine
 62
7
  6
CONTINUOUS
 10
1026.1503073761
 20
586.1782798875
 11
1026.4173022763
 21
586.7095136113
  0
LINE
  5
954
100
AcDbEntity
  8
0
100
AcDbLine
 62
7
  6
CONTINUOUS
 10
1028.8173280461
 20
561.9068931748
 11
1029.3499398081
 21
562.706499837
  0
LINE
  5
955
100
AcDbEntity
  8
0
100
AcDbLine
 62
7
  6
CONTINUOUS
 10
1028.0163433457
 20
564.3084692376
 11
1027.7507264838
 21
564.0400962993
  0
LINE
  5
956
100
AcDbEntity
  8
0
100
AcDbLine
 62
7
  6
CONTINUOUS
 10
1090.155702868
 20
625.9147002335
 11
1090.4225255133
 21
626.1830731718
  0
LINE
  5
957
100
AcDbEntity
  8
0
100
AcDbLine
 62
7
  6
CONTINUOUS
 10
1025.883312476
 20
558.1748212357
 11
1025.6163175759
 21
557.9064482974
  0
LINE
  5
958
100
AcDbEntity
  8
0
100
AcDbLine
 62
7
  6
CONTINUOUS
 10
1026.1503073761
 20
564.0400962993
 11
1026.6829191382
 21
564.5740860995
  0
LINE
  5
959
100
AcDbEntity
  8
0
100
AcDbLine
 62
7
  6
CONTINUOUS
 10
1086.4224251454
 20
620.3150420318
 11
1086.6880420073
 21
620.5810034032
  0
LINE
  5
95A
100
AcDbEntity
  8
0
100
AcDbLine
 62
7
  6
CONTINUOUS
 10
1028.0163433457
 20
566.4413278525
 11
1027.7507264838
 21
566.1757109906
  0
LINE
  5
95B
100
AcDbEntity
  8
0
100
AcDbLine
 62
7
  6
CONTINUOUS
 10
1030.1505799988
 20
560.0396514218
 11
1028.5503331459
 21
558.4404380976
  0
LINE
  5
95C
100
AcDbEntity
  8
0
100
AcDbLine
 62
7
  6
CONTINUOUS
 10
1027.7507264838
 20
560.8416696508
 11
1028.8173280461
 21
561.9068931748
  0
LINE
  5
95D
100
AcDbEntity
  8
0
100
AcDbLine
 62
7
  6
CONTINUOUS
 10
1074.1542678676
 20
620.047013603
 11
1073.8872729675
 21
619.7810522315
  0
LINE
  5
95E
100
AcDbEntity
  8
0
100
AcDbLine
 62
7
  6
CONTINUOUS
 10
1085.621440445
 20
619.7810522315
 11
1085.8884353452
 21
620.047013603
  0
LINE
  5
95F
100
AcDbEntity
  8
0
100
AcDbLine
 62
7
  6
CONTINUOUS
 10
1090.6881423752
 20
620.047013603
 11
1091.2221321754
 21
620.5810034032
  0
LINE
  5
960
100
AcDbEntity
  8
0
100
AcDbLine
 62
7
  6
CONTINUOUS
 10
1086.6880420073
 20
621.1146486939
 11
1086.9548646526
 21
621.3802655558
  0
LINE
  5
961
100
AcDbEntity
  8
0
100
AcDbLine
 62
7
  6
CONTINUOUS
 10
1091.2221321754
 20
626.9826798339
 11
1091.4891270755
 21
627.2482966958
  0
LINE
  5
962
100
AcDbEntity
  8
0
100
AcDbLine
 62
7
  6
CONTINUOUS
 10
428.8558440923
 20
1121.6412029307
 11
430.2517967829
 21
1121.9746881737
  0
LINE
  5
963
100
AcDbEntity
  8
0
100
AcDbLine
 62
7
  6
CONTINUOUS
 10
438.6071868633
 20
1130.4861410796
 11
439.1956091722
 21
1130.5772638551
  0
LINE
  5
964
100
AcDbEntity
  8
0
100
AcDbLine
 62
7
  6
CONTINUOUS
 10
427.6762433982
 20
1121.4589573796
 11
428.8558440923
 21
1121.6412029307
  0
LINE
  5
965
100
AcDbEntity
  8
0
100
AcDbLine
 62
7
  6
CONTINUOUS
 10
428.7152841965
 20
1124.1519885204
 11
427.532927426
 21
1123.9723267908
  0
LINE
  5
966
100
AcDbEntity
  8
0
100
AcDbLine
 62
7
  6
CONTINUOUS
 10
417.1487206143
 20
1135.1220338193
 11
417.7374874328
 21
1135.2079889516
  0
LINE
  5
967
100
AcDbEntity
  8
0
100
AcDbLine
 62
7
  6
CONTINUOUS
 10
705.0424312086
 20
1159.8435222571
 11
702.6410274006
 21
1159.5751493188
  0
LINE
  5
968
100
AcDbEntity
  8
0
100
AcDbLine
 62
7
  6
CONTINUOUS
 10
429.1893293353
 20
1120.2452502401
 11
427.639725386
 21
1120.1281169936
  0
LINE
  5
969
100
AcDbEntity
  8
0
100
AcDbLine
 62
7
  6
CONTINUOUS
 10
427.9470279033
 20
1119.6931736886
 11
429.4966318526
 21
1119.8077231135
  0
LINE
  5
96A
100
AcDbEntity
  8
0
100
AcDbLine
 62
7
  6
CONTINUOUS
 10
694.374348529
 20
1125.1725980579
 11
698.1079707611
 21
1125.4407987414
  0
LINE
  5
96B
100
AcDbEntity
  8
0
100
AcDbLine
 62
7
  6
CONTINUOUS
 10
721.5771669901
 20
1160.6431289192
 11
706.1090327708
 21
1159.8435222571
  0
LINE
  5
96C
100
AcDbEntity
  8
0
100
AcDbLine
 62
7
  6
CONTINUOUS
 10
435.8852169204
 20
1116.7057591386
 11
428.1527001038
 21
1116.437558455
  0
LINE
  5
96D
100
AcDbEntity
  8
0
100
AcDbLine
 62
7
  6
CONTINUOUS
 10
769.0507550316
 20
1162.2421699887
 11
721.5771669901
 21
1160.6431289192
  0
LINE
  5
96E
100
AcDbEntity
  8
0
100
AcDbLine
 62
7
  6
CONTINUOUS
 10
426.8556216536
 20
1130.0224312272
 11
427.816803294
 21
1130.0486139529
  0
LINE
  5
96F
100
AcDbEntity
  8
0
100
AcDbLine
 62
7
  6
CONTINUOUS
 10
792.7869461606
 20
1162.7787436105
 11
769.0507550316
 21
1162.2421699887
  0
LINE
  5
970
100
AcDbEntity
  8
0
100
AcDbLine
 62
7
  6
CONTINUOUS
 10
1028.8173280461
 20
1125.4407987414
 11
982.4120641145
 21
1125.1725980579
  0
LINE
  5
971
100
AcDbEntity
  8
0
100
AcDbLine
 62
7
  6
CONTINUOUS
 10
1091.7561219756
 20
1113.7050809709
 11
686.3732865193
 21
1113.7050809709
  0
LINE
  5
972
100
AcDbEntity
  8
0
100
AcDbLine
 62
7
  6
CONTINUOUS
 10
416.4197384097
 20
1115.3721626762
 11
124.1175113777
 21
1115.3721626762
  0
LINE
  5
973
100
AcDbEntity
  8
0
100
AcDbLine
 62
7
  6
CONTINUOUS
 10
687.4398880815
 20
1116.3721016408
 11
687.9724998435
 21
1116.3721016408
  0
LINE
  5
974
100
AcDbEntity
  8
0
100
AcDbLine
 62
7
  6
CONTINUOUS
 10
688.2394947436
 20
1116.3721016408
 11
1089.8887079679
 21
1116.3721016408
  0
LINE
  5
975
100
AcDbEntity
  8
0
100
AcDbLine
 62
7
  6
CONTINUOUS
 10
1090.155702868
 20
1116.3721016408
 11
1090.6881423752
 21
1116.3721016408
  0
LINE
  5
976
100
AcDbEntity
  8
0
100
AcDbLine
 62
7
  6
CONTINUOUS
 10
436.9531965208
 20
1116.7057591386
 11
435.8852169204
 21
1116.7057591386
  0
LINE
  5
977
100
AcDbEntity
  8
0
100
AcDbLine
 62
7
  6
CONTINUOUS
 10
436.9531965208
 20
1116.9713760005
 11
437.7552147498
 21
1116.9713760005
  0
LINE
  5
978
100
AcDbEntity
  8
0
100
AcDbLine
 62
7
  6
CONTINUOUS
 10
124.9171180398
 20
1118.0391833461
 11
415.6173756711
 21
1118.0391833461
  0
LINE
  5
979
100
AcDbEntity
  8
0
100
AcDbLine
 62
7
  6
CONTINUOUS
 10
415.8829925331
 20
1118.0391833461
 11
416.4197384097
 21
1118.0391833461
  0
LINE
  5
97A
100
AcDbEntity
  8
0
100
AcDbLine
 62
7
  6
CONTINUOUS
 10
427.8843271655
 20
1118.0391833461
 11
436.6875796589
 21
1118.0391833461
  0
LINE
  5
97B
100
AcDbEntity
  8
0
100
AcDbLine
 62
7
  6
CONTINUOUS
 10
1090.6881423752
 20
1119.3047391726
 11
1090.155702868
 21
1119.3047391726
  0
LINE
  5
97C
100
AcDbEntity
  8
0
100
AcDbLine
 62
7
  6
CONTINUOUS
 10
687.9724998435
 20
1119.3047391726
 11
687.4398880815
 21
1119.3047391726
  0
LINE
  5
97D
100
AcDbEntity
  8
0
100
AcDbLine
 62
7
  6
CONTINUOUS
 10
688.2394947436
 20
1119.3047391726
 11
1089.8887079679
 21
1119.3047391726
  0
LINE
  5
97E
100
AcDbEntity
  8
0
100
AcDbLine
 62
7
  6
CONTINUOUS
 10
420.951417011
 20
1119.6383966704
 11
416.4197384097
 21
1119.6383966704
  0
LINE
  5
97F
100
AcDbEntity
  8
0
100
AcDbLine
 62
7
  6
CONTINUOUS
 10
421.7534352399
 20
1120.706204016
 11
422.0190521018
 21
1120.706204016
  0
LINE
  5
980
100
AcDbEntity
  8
0
100
AcDbLine
 62
7
  6
CONTINUOUS
 10
688.5064896437
 20
1120.9063640637
 11
1088.8221064056
 21
1120.9063640637
  0
LINE
  5
981
100
AcDbEntity
  8
0
100
AcDbLine
 62
7
  6
CONTINUOUS
 10
124.9171180398
 20
1120.9718208779
 11
415.6173756711
 21
1120.9718208779
  0
LINE
  5
982
100
AcDbEntity
  8
0
100
AcDbLine
 62
7
  6
CONTINUOUS
 10
415.8829925331
 20
1120.9718208779
 11
421.4854068112
 21
1120.9718208779
  0
LINE
  5
983
100
AcDbEntity
  8
0
100
AcDbLine
 62
7
  6
CONTINUOUS
 10
435.8852169204
 20
1120.9718208779
 11
436.6875796589
 21
1120.9718208779
  0
LINE
  5
984
100
AcDbEntity
  8
0
100
AcDbLine
 62
7
  6
CONTINUOUS
 10
1090.155702868
 20
1124.1047907122
 11
1086.9548646526
 21
1124.1047907122
  0
LINE
  5
985
100
AcDbEntity
  8
0
100
AcDbLine
 62
7
  6
CONTINUOUS
 10
687.9724998435
 20
1124.1047907122
 11
691.1735103136
 21
1124.1047907122
  0
LINE
  5
986
100
AcDbEntity
  8
0
100
AcDbLine
 62
7
  6
CONTINUOUS
 10
795.7209617306
 20
1125.1725980579
 11
982.4120641145
 21
1125.1725980579
  0
LINE
  5
987
100
AcDbEntity
  8
0
100
AcDbLine
 62
7
  6
CONTINUOUS
 10
1080.0205764599
 20
1125.4407987414
 11
1028.8173280461
 21
1125.4407987414
  0
LINE
  5
988
100
AcDbEntity
  8
0
100
AcDbLine
 62
7
  6
CONTINUOUS
 10
698.1079707611
 20
1125.4407987414
 11
749.3138029966
 21
1125.4407987414
  0
LINE
  5
989
100
AcDbEntity
  8
0
100
AcDbLine
 62
7
  6
CONTINUOUS
 10
749.3138029966
 20
1125.4407987414
 11
795.7209617306
 21
1125.1725980579
  0
LINE
  5
98A
100
AcDbEntity
  8
0
100
AcDbLine
 62
7
  6
CONTINUOUS
 10
430.1425872561
 20
1148.0168539658
 11
430.5174136448
 21
1147.9543254827
  0
LINE
  5
98B
100
AcDbEntity
  8
0
100
AcDbLine
 62
7
  6
CONTINUOUS
 10
686.3732865193
 20
1124.3729913958
 11
687.9724998435
 21
1124.1047907122
  0
LINE
  5
98C
100
AcDbEntity
  8
0
100
AcDbLine
 62
7
  6
CONTINUOUS
 10
439.3754431565
 20
1134.947539733
 11
439.7478579785
 21
1134.8824274283
  0
LINE
  5
98D
100
AcDbEntity
  8
0
100
AcDbLine
 62
7
  6
CONTINUOUS
 10
439.0002722582
 20
1135.0152358592
 11
439.3754431565
 21
1134.947539733
  0
LINE
  5
98E
100
AcDbEntity
  8
0
100
AcDbLine
 62
7
  6
CONTINUOUS
 10
440.4482458906
 20
1170.3634658309
 11
440.0785871451
 21
1170.4311619572
  0
LINE
  5
98F
100
AcDbEntity
  8
0
100
AcDbLine
 62
7
  6
CONTINUOUS
 10
693.0409243214
 20
1121.1721531804
 11
694.1073536289
 21
1120.9063640637
  0
LINE
  5
990
100
AcDbEntity
  8
0
100
AcDbLine
 62
7
  6
CONTINUOUS
 10
281.7816172411
 20
1344.0448541338
 11
275.963195476
 21
1346.8317641266
  0
LINE
  5
991
100
AcDbEntity
  8
0
100
AcDbLine
 62
7
  6
CONTINUOUS
 10
692.5069345212
 20
1121.4377700423
 11
693.0409243214
 21
1121.1721531804
  0
LINE
  5
992
100
AcDbEntity
  8
0
100
AcDbLine
 62
7
  6
CONTINUOUS
 10
687.4398880815
 20
1121.4377700423
 11
688.5064896437
 21
1120.9063640637
  0
LINE
  5
993
100
AcDbEntity
  8
0
100
AcDbLine
 62
7
  6
CONTINUOUS
 10
285.664928872
 20
1354.8379937795
 11
278.65381505
 21
1358.4177924983
  0
LINE
  5
994
100
AcDbEntity
  8
0
100
AcDbLine
 62
7
  6
CONTINUOUS
 10
278.6093733182
 20
1369.7356201864
 11
285.7741383989
 21
1365.9356798662
  0
LINE
  5
995
100
AcDbEntity
  8
0
100
AcDbLine
 62
7
  6
CONTINUOUS
 10
699.4413949687
 20
1154.241107979
 11
699.7083898688
 21
1153.9754911171
  0
LINE
  5
996
100
AcDbEntity
  8
0
100
AcDbLine
 62
7
  6
CONTINUOUS
 10
1042.9511767838
 20
1119.3047391726
 11
1042.9511767838
 21
1121.4377700423
  0
LINE
  5
997
100
AcDbEntity
  8
0
100
AcDbLine
 62
7
  6
CONTINUOUS
 10
1073.8872729675
 20
625.6490833716
 11
1073.8872729675
 21
625.9147002335
  0
LINE
  5
998
100
AcDbEntity
  8
0
100
AcDbLine
 62
7
  6
CONTINUOUS
 10
1073.8872729675
 20
1116.1039009573
 11
1073.8872729675
 21
1116.3721016408
  0
LINE
  5
999
100
AcDbEntity
  8
0
100
AcDbLine
 62
7
  6
CONTINUOUS
 10
1074.1542678676
 20
1119.3047391726
 11
1074.1542678676
 21
1116.3721016408
  0
LINE
  5
99A
100
AcDbEntity
  8
0
100
AcDbLine
 62
7
  6
CONTINUOUS
 10
1074.1542678676
 20
620.047013603
 11
1074.1542678676
 21
625.6490833716
  0
LINE
  5
99B
100
AcDbEntity
  8
0
100
AcDbLine
 62
7
  6
CONTINUOUS
 10
1074.1542678676
 20
626.4486900337
 11
1074.1542678676
 21
1115.5724949787
  0
LINE
  5
99C
100
AcDbEntity
  8
0
100
AcDbLine
 62
7
  6
CONTINUOUS
 10
1074.9538745297
 20
1131.571690667
 11
1074.9538745297
 21
1127.8396187278
  0
LINE
  5
99D
100
AcDbEntity
  8
0
100
AcDbLine
 62
7
  6
CONTINUOUS
 10
1074.9538745297
 20
1121.1721531804
 11
1074.9538745297
 21
1121.7059707259
  0
LINE
  5
99E
100
AcDbEntity
  8
0
100
AcDbLine
 62
7
  6
CONTINUOUS
 10
1075.2208694299
 20
1122.505577388
 11
1075.2208694299
 21
1125.4407987414
  0
LINE
  5
99F
100
AcDbEntity
  8
0
100
AcDbLine
 62
7
  6
CONTINUOUS
 10
1078.6871522523
 20
1156.3768949251
 11
1078.6871522523
 21
1155.0434707175
  0
LINE
  5
9A0
100
AcDbEntity
  8
0
100
AcDbLine
 62
7
  6
CONTINUOUS
 10
1086.4224251454
 20
1149.4438125158
 11
1086.4224251454
 21
1149.1754395775
  0
LINE
  5
9A1
100
AcDbEntity
  8
0
100
AcDbLine
 62
7
  6
CONTINUOUS
 10
1086.6880420073
 20
620.5810034032
 11
1086.6880420073
 21
621.1146486939
  0
LINE
  5
9A2
100
AcDbEntity
  8
0
100
AcDbLine
 62
7
  6
CONTINUOUS
 10
1086.6880420073
 20
625.3807104333
 11
1086.6880420073
 21
625.6490833716
  0
LINE
  5
9A3
100
AcDbEntity
  8
0
100
AcDbLine
 62
7
  6
CONTINUOUS
 10
1086.9548646526
 20
621.3802655558
 11
1086.9548646526
 21
625.3807104333
  0
LINE
  5
9A4
100
AcDbEntity
  8
0
100
AcDbLine
 62
7
  6
CONTINUOUS
 10
1086.9548646526
 20
628.3159317867
 11
1086.9548646526
 21
1113.7050809709
  0
LINE
  5
9A5
100
AcDbEntity
  8
0
100
AcDbLine
 62
7
  6
CONTINUOUS
 10
1086.9548646526
 20
1117.4373251649
 11
1086.9548646526
 21
1118.5051325105
  0
LINE
  5
9A6
100
AcDbEntity
  8
0
100
AcDbLine
 62
7
  6
CONTINUOUS
 10
1087.2218595527
 20
1130.7748400812
 11
1087.2218595527
 21
1127.5712457895
  0
LINE
  5
9A7
100
AcDbEntity
  8
0
100
AcDbLine
 62
7
  6
CONTINUOUS
 10
1087.4885099433
 20
1141.9741564847
 11
1087.4885099433
 21
1133.4418607511
  0
LINE
  5
9A8
100
AcDbEntity
  8
0
100
AcDbLine
 62
7
  6
CONTINUOUS
 10
1091.4891270755
 20
621.1146486939
 11
1091.4891270755
 21
621.3802655558
  0
LINE
  5
9A9
100
AcDbEntity
  8
0
100
AcDbLine
 62
7
  6
CONTINUOUS
 10
1091.7561219756
 20
621.914255356
 11
1091.7561219756
 21
625.3807104333
  0
LINE
  5
9AA
100
AcDbEntity
  8
0
100
AcDbLine
 62
7
  6
CONTINUOUS
 10
1091.7561219756
 20
627.782286496
 11
1091.7561219756
 21
1114.2390707711
  0
LINE
  5
9AB
100
AcDbEntity
  8
0
100
AcDbLine
 62
7
  6
CONTINUOUS
 10
1092.0217388375
 20
1123.0395671882
 11
1092.0217388375
 21
1124.3729913958
  0
LINE
  5
9AC
100
AcDbEntity
  8
0
100
AcDbLine
 62
7
  6
CONTINUOUS
 10
1073.3532831673
 20
588.8451283026
 11
1073.8872729675
 21
619.7810522315
  0
LINE
  5
9AD
100
AcDbEntity
  8
0
100
AcDbLine
 62
7
  6
CONTINUOUS
 10
1084.5548388828
 20
619.7810522315
 11
1083.4882373206
 21
557.6408314354
  0
LINE
  5
9AE
100
AcDbEntity
  8
0
100
AcDbLine
 62
7
  6
CONTINUOUS
 10
1088.0211217053
 20
557.6408314354
 11
1089.3547181676
 21
619.7810522315
  0
LINE
  5
9AF
100
AcDbEntity
  8
0
100
AcDbLine
 62
7
  6
CONTINUOUS
 10
1072.5538487599
 20
557.6408314354
 11
1073.3532831673
 21
588.8451283026
  0
LINE
  5
9B0
100
AcDbEntity
  8
0
100
AcDbLine
 62
7
  6
CONTINUOUS
 10
1075.2208694299
 20
1136.3744982829
 11
1074.9538745297
 21
1131.571690667
  0
LINE
  5
9B1
100
AcDbEntity
  8
0
100
AcDbLine
 62
7
  6
CONTINUOUS
 10
1087.2218595527
 20
1127.5712457895
 11
1086.9548646526
 21
1124.1047907122
  0
LINE
  5
9B2
100
AcDbEntity
  8
0
100
AcDbLine
 62
7
  6
CONTINUOUS
 10
1087.4885099433
 20
1133.4418607511
 11
1087.2218595527
 21
1130.7748400812
  0
LINE
  5
9B3
100
AcDbEntity
  8
0
100
AcDbLine
 62
7
  6
CONTINUOUS
 10
1030.9500144062
 20
562.9748727753
 11
1030.6833640156
 21
561.6412763129
  0
LINE
  5
9B4
100
AcDbEntity
  8
0
100
AcDbLine
 62
7
  6
CONTINUOUS
 10
1086.6880420073
 20
627.2482966958
 11
1086.9548646526
 21
628.3159317867
  0
LINE
  5
9B5
100
AcDbEntity
  8
0
100
AcDbLine
 62
7
  6
CONTINUOUS
 10
1028.8173280461
 20
566.4413278525
 11
1028.5503331459
 21
565.3736927616
  0
LINE
  5
9B6
100
AcDbEntity
  8
0
100
AcDbLine
 62
7
  6
CONTINUOUS
 10
1029.3499398081
 20
562.706499837
 11
1029.6169347082
 21
563.7744794374
  0
LINE
  5
9B7
100
AcDbEntity
  8
0
100
AcDbLine
 62
7
  6
CONTINUOUS
 10
1030.6833640156
 20
561.6412763129
 11
1030.1505799988
 21
560.0396514218
  0
LINE
  5
9B8
100
AcDbEntity
  8
0
100
AcDbLine
 62
7
  6
CONTINUOUS
 10
1026.6829191382
 20
564.5740860995
 11
1026.9497417835
 21
565.3736927616
  0
LINE
  5
9B9
100
AcDbEntity
  8
0
100
AcDbLine
 62
7
  6
CONTINUOUS
 10
1073.8872729675
 20
625.9147002335
 11
1074.1542678676
 21
626.4486900337
  0
LINE
  5
9BA
100
AcDbEntity
  8
0
100
AcDbLine
 62
7
  6
CONTINUOUS
 10
1090.9551372753
 20
626.4486900337
 11
1091.2221321754
 21
626.9826798339
  0
LINE
  5
9BB
100
AcDbEntity
  8
0
100
AcDbLine
 62
7
  6
CONTINUOUS
 10
1091.4891270755
 20
627.2482966958
 11
1091.7561219756
 21
627.782286496
  0
LINE
  5
9BC
100
AcDbEntity
  8
0
100
AcDbLine
 62
7
  6
CONTINUOUS
 10
1091.4891270755
 20
621.3802655558
 11
1091.7561219756
 21
621.914255356
  0
LINE
  5
9BD
100
AcDbEntity
  8
0
100
AcDbLine
 62
7
  6
CONTINUOUS
 10
1091.2221321754
 20
620.5810034032
 11
1091.4891270755
 21
621.1146486939
  0
LINE
  5
9BE
100
AcDbEntity
  8
0
100
AcDbLine
 62
7
  6
CONTINUOUS
 10
1028.5503331459
 20
565.3736927616
 11
1028.0163433457
 21
564.3084692376
  0
LINE
  5
9BF
100
AcDbEntity
  8
0
100
AcDbLine
 62
7
  6
CONTINUOUS
 10
1086.1554302453
 20
626.4486900337
 11
1086.6880420073
 21
627.2482966958
  0
LINE
  5
9C0
100
AcDbEntity
  8
0
100
AcDbLine
 62
7
  6
CONTINUOUS
 10
398.7612124809
 20
1159.3724054495
 11
399.3499792993
 21
1159.4583605819
  0
LINE
  5
9C1
100
AcDbEntity
  8
0
100
AcDbLine
 62
7
  6
CONTINUOUS
 10
856.7954422384
 20
1163.8439671346
 11
792.7869461606
 21
1162.7787436105
  0
LINE
  5
9C2
100
AcDbEntity
  8
0
100
AcDbLine
 62
7
  6
CONTINUOUS
 10
703.4420121009
 20
1159.5751493188
 11
702.9080223007
 21
1159.5751493188
  0
LINE
  5
9C3
100
AcDbEntity
  8
0
100
AcDbLine
 62
7
  6
CONTINUOUS
 10
706.908639433
 20
1159.8435222571
 11
704.241618763
 21
1159.8435222571
  0
LINE
  5
9C4
100
AcDbEntity
  8
0
100
AcDbLine
 62
7
  6
CONTINUOUS
 10
1072.0202034693
 20
1159.8435222571
 11
1073.6202780674
 21
1159.8435222571
  0
LINE
  5
9C5
100
AcDbEntity
  8
0
100
AcDbLine
 62
7
  6
CONTINUOUS
 10
921.3363778234
 20
1163.8439671346
 11
856.7954422384
 21
1163.8439671346
  0
LINE
  5
9C6
100
AcDbEntity
  8
0
100
AcDbLine
 62
7
  6
CONTINUOUS
 10
985.3447016463
 20
1162.7787436105
 11
921.3363778234
 21
1163.8439671346
  0
LINE
  5
9C7
100
AcDbEntity
  8
0
100
AcDbLine
 62
7
  6
CONTINUOUS
 10
1009.0822708136
 20
1162.2421699887
 11
985.3447016463
 21
1162.7787436105
  0
LINE
  5
9C8
100
AcDbEntity
  8
0
100
AcDbLine
 62
7
  6
CONTINUOUS
 10
1056.5524137596
 20
1160.6431289192
 11
1009.0822708136
 21
1162.2421699887
  0
LINE
  5
9C9
100
AcDbEntity
  8
0
100
AcDbLine
 62
7
  6
CONTINUOUS
 10
1072.0202034693
 20
1159.8435222571
 11
1056.5524137596
 21
1160.6431289192
  0
LINE
  5
9CA
100
AcDbEntity
  8
0
100
AcDbLine
 62
7
  6
CONTINUOUS
 10
1083.7552322207
 20
1125.1725980579
 11
1080.0205764599
 21
1125.4407987414
  0
LINE
  5
9CB
100
AcDbEntity
  8
0
100
AcDbLine
 62
7
  6
CONTINUOUS
 10
275.963195476
 20
1346.8317641266
 11
270.3817962804
 21
1348.8071818778
  0
LINE
  5
9CC
100
AcDbEntity
  8
0
100
AcDbLine
 62
7
  6
CONTINUOUS
 10
1076.2872987373
 20
1159.3095324569
 11
1073.3532831673
 21
1159.8435222571
  0
LINE
  5
9CD
100
AcDbEntity
  8
0
100
AcDbLine
 62
7
  6
CONTINUOUS
 10
1086.1554302453
 20
1124.6387805124
 11
1083.7552322207
 21
1125.1725980579
  0
LINE
  5
9CE
100
AcDbEntity
  8
0
100
AcDbLine
 62
7
  6
CONTINUOUS
 10
1085.3544455449
 20
1116.1039009573
 11
1084.2878439827
 21
1116.3721016408
  0
LINE
  5
9CF
100
AcDbEntity
  8
0
100
AcDbLine
 62
7
  6
CONTINUOUS
 10
1073.6202780674
 20
1159.8435222571
 11
1074.6868796296
 21
1159.5751493188
  0
LINE
  5
9D0
100
AcDbEntity
  8
0
100
AcDbLine
 62
7
  6
CONTINUOUS
 10
278.65381505
 20
1358.4177924983
 11
271.064269696
 21
1360.9545885588
  0
LINE
  5
9D1
100
AcDbEntity
  8
0
100
AcDbLine
 62
7
  6
CONTINUOUS
 10
270.868932782
 20
1372.4898017721
 11
278.6093733182
 21
1369.7356201864
  0
LINE
  5
9D2
100
AcDbEntity
  8
0
100
AcDbLine
 62
7
  6
CONTINUOUS
 10
1079.4881369527
 20
1120.9063640637
 11
1079.754959598
 21
1119.3047391726
  0
LINE
  5
9D3
100
AcDbEntity
  8
0
100
AcDbLine
 62
7
  6
CONTINUOUS
 10
1086.9548646526
 20
1146.5085911624
 11
1087.2218595527
 21
1144.3753880379
  0
LINE
  5
9D4
100
AcDbEntity
  8
0
100
AcDbLine
 62
7
  6
CONTINUOUS
 10
1074.9538745297
 20
1127.8396187278
 11
1075.2208694299
 21
1125.4407987414
  0
LINE
  5
9D5
100
AcDbEntity
  8
0
100
AcDbLine
 62
7
  6
CONTINUOUS
 10
1087.2218595527
 20
1144.3753880379
 11
1087.4885099433
 21
1141.9741564847
  0
LINE
  5
9D6
100
AcDbEntity
  8
0
100
AcDbLine
 62
7
  6
CONTINUOUS
 10
268.4649451524
 20
1361.426049876
 11
266.0192718674
 21
1361.6773695916
  0
LINE
  5
9D7
100
AcDbEntity
  8
0
100
AcDbLine
 62
7
  6
CONTINUOUS
 10
271.064269696
 20
1360.9545885588
 11
268.4649451524
 21
1361.426049876
  0
LINE
  5
9D8
100
AcDbEntity
  8
0
100
AcDbLine
 62
7
  6
CONTINUOUS
 10
262.7040564819
 20
1373.9770494931
 11
270.868932782
 21
1372.4898017721
  0
LINE
  5
9D9
100
AcDbEntity
  8
0
100
AcDbLine
 62
7
  6
CONTINUOUS
 10
1079.2211420526
 20
1158.2417251112
 11
1076.2872987373
 21
1159.3095324569
  0
LINE
  5
9DA
100
AcDbEntity
  8
0
100
AcDbLine
 62
7
  6
CONTINUOUS
 10
1074.6868796296
 20
1159.5751493188
 11
1076.820944028
 21
1158.7782987331
  0
LINE
  5
9DB
100
AcDbEntity
  8
0
100
AcDbLine
 62
7
  6
CONTINUOUS
 10
1091.2221321754
 20
1119.0391223107
 11
1090.6881423752
 21
1119.3047391726
  0
LINE
  5
9DC
100
AcDbEntity
  8
0
100
AcDbLine
 62
7
  6
CONTINUOUS
 10
1090.9551372753
 20
1115.5724949787
 11
1090.4225255133
 21
1115.8381118406
  0
LINE
  5
9DD
100
AcDbEntity
  8
0
100
AcDbLine
 62
7
  6
CONTINUOUS
 10
1086.6880420073
 20
1119.0391223107
 11
1086.1554302453
 21
1119.3047391726
  0
LINE
  5
9DE
100
AcDbEntity
  8
0
100
AcDbLine
 62
7
  6
CONTINUOUS
 10
1090.155702868
 20
1116.1039009573
 11
1089.6217130677
 21
1116.3721016408
  0
LINE
  5
9DF
100
AcDbEntity
  8
0
100
AcDbLine
 62
7
  6
CONTINUOUS
 10
1086.1554302453
 20
1115.5724949787
 11
1085.3544455449
 21
1116.1039009573
  0
LINE
  5
9E0
100
AcDbEntity
  8
0
100
AcDbLine
 62
7
  6
CONTINUOUS
 10
1074.1542678676
 20
1115.5724949787
 11
1073.8872729675
 21
1116.1039009573
  0
LINE
  5
9E1
100
AcDbEntity
  8
0
100
AcDbLine
 62
7
  6
CONTINUOUS
 10
1087.7555048434
 20
1144.9067940165
 11
1086.4224251454
 21
1149.1754395775
  0
LINE
  5
9E2
100
AcDbEntity
  8
0
100
AcDbLine
 62
7
  6
CONTINUOUS
 10
1086.9548646526
 20
1113.7050809709
 11
1086.6880420073
 21
1114.7703044949
  0
LINE
  5
9E3
100
AcDbEntity
  8
0
100
AcDbLine
 62
7
  6
CONTINUOUS
 10
1089.6217130677
 20
1137.4423056286
 11
1087.7555048434
 21
1144.9067940165
  0
LINE
  5
9E4
100
AcDbEntity
  8
0
100
AcDbLine
 62
7
  6
CONTINUOUS
 10
1086.4224251454
 20
1149.1754395775
 11
1086.6880420073
 21
1148.1102160535
  0
LINE
  5
9E5
100
AcDbEntity
  8
0
100
AcDbLine
 62
7
  6
CONTINUOUS
 10
1078.4215353904
 20
1157.4447022707
 11
1078.6871522523
 21
1156.3768949251
  0
LINE
  5
9E6
100
AcDbEntity
  8
0
100
AcDbLine
 62
7
  6
CONTINUOUS
 10
1090.9551372753
 20
1130.5064671429
 11
1089.6217130677
 21
1137.4423056286
  0
LINE
  5
9E7
100
AcDbEntity
  8
0
100
AcDbLine
 62
7
  6
CONTINUOUS
 10
1092.0217388375
 20
1124.3729913958
 11
1090.9551372753
 21
1130.5064671429
  0
LINE
  5
9E8
100
AcDbEntity
  8
0
100
AcDbLine
 62
7
  6
CONTINUOUS
 10
1086.6880420073
 20
1148.1102160535
 11
1086.9548646526
 21
1146.5085911624
  0
LINE
  5
9E9
100
AcDbEntity
  8
0
100
AcDbLine
 62
7
  6
CONTINUOUS
 10
266.0192718674
 20
1361.6773695916
 11
263.1364159653
 21
1361.6317220765
  0
LINE
  5
9EA
100
AcDbEntity
  8
0
100
AcDbLine
 62
7
  6
CONTINUOUS
 10
1081.6211678223
 20
1156.6426840418
 11
1079.2211420526
 21
1158.2417251112
  0
LINE
  5
9EB
100
AcDbEntity
  8
0
100
AcDbLine
 62
7
  6
CONTINUOUS
 10
1086.9548646526
 20
1124.1047907122
 11
1086.1554302453
 21
1124.6387805124
  0
LINE
  5
9EC
100
AcDbEntity
  8
0
100
AcDbLine
 62
7
  6
CONTINUOUS
 10
1076.820944028
 20
1158.7782987331
 11
1078.4215353904
 21
1157.4447022707
  0
LINE
  5
9ED
100
AcDbEntity
  8
0
100
AcDbLine
 62
7
  6
CONTINUOUS
 10
1083.2212424205
 20
1155.3090875794
 11
1081.6211678223
 21
1156.6426840418
  0
LINE
  5
9EE
100
AcDbEntity
  8
0
100
AcDbLine
 62
7
  6
CONTINUOUS
 10
1086.1554302453
 20
1149.7094293777
 11
1086.4224251454
 21
1149.4438125158
  0
LINE
  5
9EF
100
AcDbEntity
  8
0
100
AcDbLine
 62
7
  6
CONTINUOUS
 10
1090.4225255133
 20
1115.8381118406
 11
1090.155702868
 21
1116.1039009573
  0
LINE
  5
9F0
100
AcDbEntity
  8
0
100
AcDbLine
 62
7
  6
CONTINUOUS
 10
1091.2221321754
 20
1115.3042942952
 11
1090.9551372753
 21
1115.5724949787
  0
LINE
  5
9F1
100
AcDbEntity
  8
0
100
AcDbLine
 62
7
  6
CONTINUOUS
 10
1084.5548388828
 20
1153.7098742552
 11
1083.2212424205
 21
1155.3090875794
  0
LINE
  5
9F2
100
AcDbEntity
  8
0
100
AcDbLine
 62
7
  6
CONTINUOUS
 10
1086.6880420073
 20
1114.7703044949
 11
1086.1554302453
 21
1115.5724949787
  0
LINE
  5
9F3
100
AcDbEntity
  8
0
100
AcDbLine
 62
7
  6
CONTINUOUS
 10
1085.621440445
 20
1151.8424602474
 11
1084.5548388828
 21
1153.7098742552
  0
LINE
  5
9F4
100
AcDbEntity
  8
0
100
AcDbLine
 62
7
  6
CONTINUOUS
 10
1091.7561219756
 20
1114.2390707711
 11
1091.2221321754
 21
1115.3042942952
  0
LINE
  5
9F5
100
AcDbEntity
  8
0
100
AcDbLine
 62
7
  6
CONTINUOUS
 10
1091.7561219756
 20
1117.9711427103
 11
1091.2221321754
 21
1119.0391223107
  0
LINE
  5
9F6
100
AcDbEntity
  8
0
100
AcDbLine
 62
7
  6
CONTINUOUS
 10
1086.9548646526
 20
1118.5051325105
 11
1086.6880420073
 21
1119.0391223107
  0
LINE
  5
9F7
100
AcDbEntity
  8
0
100
AcDbLine
 62
7
  6
CONTINUOUS
 10
1086.4224251454
 20
1149.7094293777
 11
1085.621440445
 21
1151.8424602474
  0
LINE
  5
9F8
100
AcDbEntity
  8
0
100
AcDbLine
 62
7
  6
CONTINUOUS
 10
937.323860187
 20
34.2808733415
 11
937.1702089283
 21
34.1334232547
  0
LINE
  5
9F9
100
AcDbEntity
  8
0
100
AcDbLine
 62
7
  6
CONTINUOUS
 10
254.7265933763
 20
1373.3259264464
 11
254.1350704815
 21
1373.2411770974
  0
LINE
  5
9FA
100
AcDbEntity
  8
0
100
AcDbLine
 62
7
  6
CONTINUOUS
 10
262.5476491469
 20
1361.5497288039
 11
263.1364159653
 21
1361.6317220765
  0
LINE
  5
9FB
100
AcDbEntity
  8
0
100
AcDbLine
 62
7
  6
CONTINUOUS
 10
253.9163069182
 20
1373.0901096604
 11
253.3251285329
 21
1373.0081163879
  0
LINE
  5
9FC
100
AcDbEntity
  8
0
100
AcDbLine
 62
7
  6
CONTINUOUS
 10
254.5753536845
 20
1373.5458957931
 11
262.7040564819
 21
1373.9770494931
  0
ARC
  5
9FD
100
AcDbEntity
  8
0
100
AcDbCircle
 62
7
  6
CONTINUOUS
 10
864.4247727635
 20
-40667.0288703835
 40
41051.6229737631
100
AcDbArc
 50
89.8849538333
 51
90.0470717891
  0
ARC
  5
9FE
100
AcDbEntity
  8
0
100
AcDbCircle
 62
7
  6
CONTINUOUS
 10
882.7921327701
 20
-29962.7476305233
 40
30373.0552069439
100
AcDbArc
 50
89.9110998202
 51
90.0889001798
  0
ARC
  5
9FF
100
AcDbEntity
  8
0
100
AcDbCircle
 62
7
  6
CONTINUOUS
 10
-3815.0936491263
 20
-213.1923301006
 40
4914.4067980914
100
AcDbArc
 50
5.8575944754
 51
6.4504416854
  0
ARC
  5
A00
100
AcDbEntity
  8
0
100
AcDbCircle
 62
7
  6
CONTINUOUS
 10
887.6653006394
 20
5308.1865114714
 40
4909.3659700866
100
AcDbArc
 50
269.588777432
 51
270.4775758191
  0
ARC
  5
A01
100
AcDbEntity
  8
0
100
AcDbCircle
 62
7
  6
CONTINUOUS
 10
759.2657527149
 20
2597.5682844374
 40
2570.7818566995
100
AcDbArc
 50
274.134722564
 51
275.0388084579
  0
ARC
  5
A02
100
AcDbEntity
  8
0
100
AcDbCircle
 62
7
  6
CONTINUOUS
 10
928.3377807196
 20
-445.3808676571
 40
855.6533440187
100
AcDbArc
 50
88.0663778366
 51
89.894121099
  0
ARC
  5
A03
100
AcDbEntity
  8
0
100
AcDbCircle
 62
7
  6
CONTINUOUS
 10
790.5415894719
 20
503.9401107032
 40
414.6509557716
100
AcDbArc
 50
259.7638843411
 51
263.918898474
  0
SPLINE
  5
A04
100
AcDbEntity
  8
0
100
AcDbSpline
 62
7
  6
CONTINUOUS
 70
0
 71
3
 72
9
 73
5
 74
0
 42
0.0000001
 43
0.0000001
 44
0.0000000001
 40
0.0
 40
0.0
 40
0.0
 40
0.0
 40
0.2585688396
 40
1.0
 40
1.0
 40
1.0
 40
1.0
 10
811.3522212211
 20
381.0018286584
 30
0.0
 10
811.5637095436
 20
382.8047772035
 30
0.0
 10
812.4694072974
 20
389.7644181955
 30
0.0
 10
813.4601055012
 20
396.7325603688
 30
0.0
 10
813.6883404696
 20
401.9328507886
 30
0.0
  0
SPLINE
  5
A05
100
AcDbEntity
  8
0
100
AcDbSpline
 62
7
  6
CONTINUOUS
 70
0
 71
3
 72
9
 73
5
 74
0
 42
0.0000001
 43
0.0000001
 44
0.0000000001
 40
0.0
 40
0.0
 40
0.0
 40
0.0
 40
0.5085687891
 40
1.0
 40
1.0
 40
1.0
 40
1.0
 10
813.6883404696
 20
401.9328507886
 30
0.0
 10
813.7873791935
 20
404.1700781832
 30
0.0
 10
815.3902206257
 20
409.2015435923
 30
0.0
 10
820.4146293325
 20
409.7241028377
 30
0.0
 10
822.5777203502
 20
409.7852569281
 30
0.0
  0
SPLINE
  5
A06
100
AcDbEntity
  8
0
100
AcDbSpline
 62
7
  6
CONTINUOUS
 70
0
 71
3
 72
8
 73
4
 74
0
 42
0.0000001
 43
0.0000001
 44
0.0000000001
 40
0.0
 40
0.0
 40
0.0
 40
0.0
 40
1.0
 40
1.0
 40
1.0
 40
1.0
 10
822.5777203502
 20
409.7852569281
 30
0.0
 10
826.941487484
 20
409.9092471545
 30
0.0
 10
831.2997718963
 20
410.2634309742
 30
0.0
 10
835.6652935891
 20
410.2710153916
 30
0.0
  0
SPLINE
  5
A07
100
AcDbEntity
  8
0
100
AcDbSpline
 62
7
  6
CONTINUOUS
 70
0
 71
3
 72
9
 73
5
 74
0
 42
0.0000001
 43
0.0000001
 44
0.0000000001
 40
0.0
 40
0.0
 40
0.0
 40
0.0
 40
0.4841561794
 40
1.0
 40
1.0
 40
1.0
 40
1.0
 10
957.2089513278
 20
409.7852569281
 30
0.0
 10
959.3174427267
 20
409.7139933951
 30
0.0
 10
964.21206766
 20
408.2392063878
 30
0.0
 10
965.0240959992
 20
403.2902725779
 30
0.0
 10
965.1447287781
 20
401.0457387012
 30
0.0
  0
SPLINE
  5
A08
100
AcDbEntity
  8
0
100
AcDbSpline
 62
7
  6
CONTINUOUS
 70
0
 71
3
 72
9
 73
5
 74
0
 42
0.0000001
 43
0.0000001
 44
0.0000000001
 40
0.0
 40
0.0
 40
0.0
 40
0.0
 40
0.7401227246
 40
1.0
 40
1.0
 40
1.0
 40
1.0
 10
965.1447287781
 20
401.0457387012
 30
0.0
 10
965.4171655202
 20
395.9396535465
 30
0.0
 10
966.1133801385
 20
389.0618831603
 30
0.0
 10
966.7692945797
 20
382.1848492751
 30
0.0
 10
966.9289437299
 20
380.3965253817
 30
0.0
  0
SPLINE
  5
A09
100
AcDbEntity
  8
0
100
AcDbSpline
 62
7
  6
CONTINUOUS
 70
0
 71
3
 72
10
 73
6
 74
0
 42
0.0000001
 43
0.0000001
 44
0.0000000001
 40
0.0
 40
0.0
 40
0.0
 40
0.0
 40
0.2049285983
 40
0.6681381854
 40
1.0
 40
1.0
 40
1.0
 40
1.0
 10
966.9289437299
 20
380.3965253817
 30
0.0
 10
973.276689478
 20
380.0978906903
 30
0.0
 10
993.966565962
 20
378.9737456182
 30
0.0
 10
1025.0057333699
 20
379.0697632254
 30
0.0
 10
1049.5844471801
 20
376.9583651719
 30
0.0
 10
1059.8469585722
 20
376.1941979088
 30
0.0
  0
SPLINE
  5
A0A
100
AcDbEntity
  8
0
100
AcDbSpline
 62
7
  6
CONTINUOUS
 70
0
 71
3
 72
9
 73
5
 74
0
 42
0.0000001
 43
0.0000001
 44
0.0000000001
 40
0.0
 40
0.0
 40
0.0
 40
0.0
 40
0.4962290428
 40
1.0
 40
1.0
 40
1.0
 40
1.0
 10
1059.8469585722
 20
376.1941979088
 30
0.0
 10
1066.9797946357
 20
375.6616463626
 30
0.0
 10
1080.1233765661
 20
367.2526985509
 30
0.0
 10
1088.3166795777
 20
354.0788252761
 30
0.0
 10
1088.904960952
 20
346.8412953553
 30
0.0
  0
SPLINE
  5
A0B
100
AcDbEntity
  8
0
100
AcDbSpline
 62
7
  6
CONTINUOUS
 70
0
 71
3
 72
8
 73
4
 74
0
 42
0.0000001
 43
0.0000001
 44
0.0000000001
 40
0.0
 40
0.0
 40
0.0
 40
0.0
 40
1.0
 40
1.0
 40
1.0
 40
1.0
 10
1088.904960952
 20
346.8412953553
 30
0.0
 10
1089.8296869148
 20
335.4603442643
 30
0.0
 10
1090.1835700359
 20
324.0364787256
 30
0.0
 10
1091.1787239723
 20
312.6614695175
 30
0.0
  0
SPLINE
  5
A0C
100
AcDbEntity
  8
0
100
AcDbSpline
 62
7
  6
CONTINUOUS
 70
0
 71
3
 72
8
 73
4
 74
0
 42
0.0000001
 43
0.0000001
 44
0.0000000001
 40
0.0
 40
0.0
 40
0.0
 40
0.0
 40
1.0
 40
1.0
 40
1.0
 40
1.0
 10
1091.1787239723
 20
312.6614695175
 30
0.0
 10
1094.8934229172
 20
270.2614676303
 30
0.0
 10
1093.1634459804
 20
227.551741137
 30
0.0
 10
1093.1427729084
 20
184.9893314201
 30
0.0
  0
SPLINE
  5
A0D
100
AcDbEntity
  8
0
100
AcDbSpline
 62
7
  6
CONTINUOUS
 70
0
 71
3
 72
8
 73
4
 74
0
 42
0.0000001
 43
0.0000001
 44
0.0000000001
 40
0.0
 40
0.0
 40
0.0
 40
0.0
 40
1.0
 40
1.0
 40
1.0
 40
1.0
 10
1093.1427729084
 20
184.9893314201
 30
0.0
 10
1093.1320793752
 20
164.8361607718
 30
0.0
 10
1091.1551397782
 20
144.7316515289
 30
0.0
 10
1090.0118701314
 20
124.6109324552
 30
0.0
  0
SPLINE
  5
A0E
100
AcDbEntity
  8
0
100
AcDbSpline
 62
7
  6
CONTINUOUS
 70
0
 71
3
 72
8
 73
4
 74
0
 42
0.0000001
 43
0.0000001
 44
0.0000000001
 40
0.0
 40
0.0
 40
0.0
 40
0.0
 40
1.0
 40
1.0
 40
1.0
 40
1.0
 10
1090.0118701314
 20
124.6109324552
 30
0.0
 10
1089.7878312293
 20
120.6413077837
 30
0.0
 10
1089.2749676048
 20
116.6931108555
 30
0.0
 10
1088.9494026838
 20
112.7305206743
 30
0.0
  0
SPLINE
  5
A0F
100
AcDbEntity
  8
0
100
AcDbSpline
 62
7
  6
CONTINUOUS
 70
0
 71
3
 72
9
 73
5
 74
0
 42
0.0000001
 43
0.0000001
 44
0.0000000001
 40
0.0
 40
0.0
 40
0.0
 40
0.0
 40
0.2260844575
 40
1.0
 40
1.0
 40
1.0
 40
1.0
 10
1088.9494026838
 20
112.7305206743
 30
0.0
 10
1088.7848754452
 20
110.7377389041
 30
0.0
 10
1085.4824410162
 20
102.1722960609
 30
0.0
 10
1076.000482357
 20
97.5411326216
 30
0.0
 10
1069.1969477191
 20
96.7910973927
 30
0.0
  0
SPLINE
  5
A10
100
AcDbEntity
  8
0
100
AcDbSpline
 62
7
  6
CONTINUOUS
 70
0
 71
3
 72
8
 73
4
 74
0
 42
0.0000001
 43
0.0000001
 44
0.0000000001
 40
0.0
 40
0.0
 40
0.0
 40
0.0
 40
1.0
 40
1.0
 40
1.0
 40
1.0
 10
1069.1969477191
 20
96.7910973927
 30
0.0
 10
1056.744410658
 20
95.4182411054
 30
0.0
 10
1044.3479937445
 20
93.5037838644
 30
0.0
 10
1032.0205778282
 20
91.2710208967
 30
0.0
  0
SPLINE
  5
A11
100
AcDbEntity
  8
0
100
AcDbSpline
 62
7
  6
CONTINUOUS
 70
0
 71
3
 72
8
 73
4
 74
0
 42
0.0000001
 43
0.0000001
 44
0.0000000001
 40
0.0
 40
0.0
 40
0.0
 40
0.0
 40
1.0
 40
1.0
 40
1.0
 40
1.0
 10
1032.0205778282
 20
91.2710208967
 30
0.0
 10
1029.4157554469
 20
90.7999064419
 30
0.0
 10
1027.0262631591
 20
88.4250043628
 30
0.0
 10
1026.1446229686
 20
85.9290558372
 30
0.0
  0
SPLINE
  5
A12
100
AcDbEntity
  8
0
100
AcDbSpline
 62
7
  6
CONTINUOUS
 70
0
 71
3
 72
8
 73
4
 74
0
 42
0.0000001
 43
0.0000001
 44
0.0000000001
 40
0.0
 40
0.0
 40
0.0
 40
0.0
 40
1.0
 40
1.0
 40
1.0
 40
1.0
 10
1026.1446229686
 20
85.9290558372
 30
0.0
 10
1022.2854311445
 20
74.9781336999
 30
0.0
 10
1018.6759173307
 20
63.9246093172
 30
0.0
 10
1015.6432829105
 20
52.7166128117
 30
0.0
  0
SPLINE
  5
A13
100
AcDbEntity
  8
0
100
AcDbSpline
 62
7
  6
CONTINUOUS
 70
0
 71
3
 72
9
 73
5
 74
0
 42
0.0000001
 43
0.0000001
 44
0.0000000001
 40
0.0
 40
0.0
 40
0.0
 40
0.0
 40
0.5085917445
 40
1.0
 40
1.0
 40
1.0
 40
1.0
 10
1015.6432829105
 20
52.7166128117
 30
0.0
 10
1013.719496181
 20
45.6091981122
 30
0.0
 10
1006.4804142666
 20
31.1559810081
 30
0.0
 10
990.9043717703
 20
27.9716744143
 30
0.0
 10
983.8033659262
 20
27.5353763813
 30
0.0
  0
SPLINE
  5
A14
100
AcDbEntity
  8
0
100
AcDbSpline
 62
7
  6
CONTINUOUS
 70
0
 71
3
 72
8
 73
4
 74
0
 42
0.0000001
 43
0.0000001
 44
0.0000000001
 40
0.0
 40
0.0
 40
0.0
 40
0.0
 40
1.0
 40
1.0
 40
1.0
 40
1.0
 10
983.8033659262
 20
27.5353763813
 30
0.0
 10
965.9921600082
 20
26.4409350325
 30
0.0
 10
948.2331277204
 20
24.6118206164
 30
0.0
 10
930.4347027451
 20
23.3261587175
 30
0.0
  0
SPLINE
  5
A15
100
AcDbEntity
  8
0
100
AcDbSpline
 62
7
  6
CONTINUOUS
 70
0
 71
3
 72
8
 73
4
 74
0
 42
0.0000001
 43
0.0000001
 44
0.0000000001
 40
0.0
 40
0.0
 40
0.0
 40
0.0
 40
1.0
 40
1.0
 40
1.0
 40
1.0
 10
930.4347027451
 20
23.3261587175
 30
0.0
 10
927.2175002421
 20
23.0941623597
 30
0.0
 10
924.0236624879
 20
24.3680403148
 30
0.0
 10
920.8008377302
 20
24.235319416
 30
0.0
  0
SPLINE
  5
A16
100
AcDbEntity
  8
0
100
AcDbSpline
 62
7
  6
CONTINUOUS
 70
0
 71
3
 72
8
 73
4
 74
0
 42
0.0000001
 43
0.0000001
 44
0.0000000001
 40
0.0
 40
0.0
 40
0.0
 40
0.0
 40
1.0
 40
1.0
 40
1.0
 40
1.0
 10
920.8008377302
 20
24.235319416
 30
0.0
 10
913.2299730032
 20
23.92665605
 30
0.0
 10
905.6954500007
 20
22.7218328963
 30
0.0
 10
898.1183290553
 20
22.74428209
 30
0.0
  0
SPLINE
  5
A17
100
AcDbEntity
  8
0
100
AcDbSpline
 62
7
  6
CONTINUOUS
 70
0
 71
3
 72
8
 73
4
 74
0
 42
0.0000001
 43
0.0000001
 44
0.0000000001
 40
0.0
 40
0.0
 40
0.0
 40
0.0
 40
1.0
 40
1.0
 40
1.0
 40
1.0
 10
898.1183290553
 20
22.74428209
 30
0.0
 10
888.063050188
 20
22.7756542015
 30
0.0
 10
878.0269906921
 20
23.6286497251
 30
0.0
 10
867.9844233554
 20
24.1350671374
 30
0.0
  0
SPLINE
  5
A18
100
AcDbEntity
  8
0
100
AcDbSpline
 62
7
  6
CONTINUOUS
 70
0
 71
3
 72
8
 73
4
 74
0
 42
0.0000001
 43
0.0000001
 44
0.0000000001
 40
0.0
 40
0.0
 40
0.0
 40
0.0
 40
1.0
 40
1.0
 40
1.0
 40
1.0
 10
867.9844233554
 20
24.1350671374
 30
0.0
 10
867.2606878587
 20
24.1715637895
 30
0.0
 10
866.5417316489
 20
24.2858691084
 30
0.0
 10
865.8174582951
 20
24.309388969
 30
0.0
  0
SPLINE
  5
A19
100
AcDbEntity
  8
0
100
AcDbSpline
 62
7
  6
CONTINUOUS
 70
0
 71
3
 72
8
 73
4
 74
0
 42
0.0000001
 43
0.0000001
 44
0.0000000001
 40
0.0
 40
0.0
 40
0.0
 40
0.0
 40
1.0
 40
1.0
 40
1.0
 40
1.0
 10
865.8174582951
 20
24.309388969
 30
0.0
 10
855.8176305476
 20
24.6338641072
 30
0.0
 10
845.807765787
 20
24.7419095801
 30
0.0
 10
835.8189448478
 20
25.3122562647
 30
0.0
  0
SPLINE
  5
A1A
100
AcDbEntity
  8
0
100
AcDbSpline
 62
7
  6
CONTINUOUS
 70
0
 71
3
 72
8
 73
4
 74
0
 42
0.0000001
 43
0.0000001
 44
0.0000000001
 40
0.0
 40
0.0
 40
0.0
 40
0.0
 40
1.0
 40
1.0
 40
1.0
 40
1.0
 10
835.8189448478
 20
25.3122562647
 30
0.0
 10
818.4709239578
 20
26.3056384199
 30
0.0
 10
801.1053616603
 20
27.220203368
 30
0.0
 10
783.8200516316
 20
28.9974749053
 30
0.0
  0
SPLINE
  5
A1B
100
AcDbEntity
  8
0
100
AcDbSpline
 62
7
  6
CONTINUOUS
 70
0
 71
3
 72
9
 73
5
 74
0
 42
0.0000001
 43
0.0000001
 44
0.0000000001
 40
0.0
 40
0.0
 40
0.0
 40
0.0
 40
0.470784029
 40
1.0
 40
1.0
 40
1.0
 40
1.0
 10
783.8200516316
 20
28.9974749053
 30
0.0
 10
781.5716091842
 20
29.2292619122
 30
0.0
 10
776.6892747525
 20
30.3946218548
 30
0.0
 10
773.4771318726
 20
34.6470844674
 30
0.0
 10
772.7251216214
 20
37.0741567609
 30
0.0
  0
SPLINE
  5
A1C
100
AcDbEntity
  8
0
100
AcDbSpline
 62
7
  6
CONTINUOUS
 70
0
 71
3
 72
8
 73
4
 74
0
 42
0.0000001
 43
0.0000001
 44
0.0000000001
 40
0.0
 40
0.0
 40
0.0
 40
0.0
 40
1.0
 40
1.0
 40
1.0
 40
1.0
 10
772.7251216214
 20
37.0741567609
 30
0.0
 10
771.8504875993
 20
39.8893253678
 30
0.0
 10
768.0097199419
 20
40.9290111894
 30
0.0
 10
766.7502925213
 20
43.5943444763
 30
0.0
  0
SPLINE
  5
A1D
100
AcDbEntity
  8
0
100
AcDbSpline
 62
7
  6
CONTINUOUS
 70
0
 71
3
 72
9
 73
5
 74
0
 42
0.0000001
 43
0.0000001
 44
0.0000000001
 40
0.0
 40
0.0
 40
0.0
 40
0.0
 40
0.4316461558
 40
1.0
 40
1.0
 40
1.0
 40
1.0
 10
766.7502925213
 20
43.5943444763
 30
0.0
 10
764.0878125741
 20
49.2321103362
 30
0.0
 10
759.2786731575
 20
62.9182199812
 30
0.0
 10
755.8014770177
 20
76.9333220149
 30
0.0
 10
753.4232851462
 20
84.7907962889
 30
0.0
  0
SPLINE
  5
A1E
100
AcDbEntity
  8
0
100
AcDbSpline
 62
7
  6
CONTINUOUS
 70
0
 71
3
 72
9
 73
5
 74
0
 42
0.0000001
 43
0.0000001
 44
0.0000000001
 40
0.0
 40
0.0
 40
0.0
 40
0.0
 40
0.4835207855
 40
1.0
 40
1.0
 40
1.0
 40
1.0
 10
753.4232851462
 20
84.7907962889
 30
0.0
 10
752.9454541206
 20
86.3674432414
 30
0.0
 10
751.8820375944
 20
89.815573511
 30
0.0
 10
748.3647714955
 20
91.4343667606
 30
0.0
 10
746.6150874482
 20
91.6224206362
 30
0.0
  0
SPLINE
  5
A1F
100
AcDbEntity
  8
0
100
AcDbSpline
 62
7
  6
CONTINUOUS
 70
0
 71
3
 72
9
 73
5
 74
0
 42
0.0000001
 43
0.0000001
 44
0.0000000001
 40
0.0
 40
0.0
 40
0.0
 40
0.0
 40
0.5043886791
 40
1.0
 40
1.0
 40
1.0
 40
1.0
 10
716.8560081371
 20
95.8888268851
 30
0.0
 10
713.3778607129
 20
96.5218898772
 30
0.0
 10
706.4208432909
 20
96.2510679299
 30
0.0
 10
699.2807289327
 20
99.1050506875
 30
0.0
 10
697.004678932
 20
101.7292972612
 30
0.0
  0
SPLINE
  5
A20
100
AcDbEntity
  8
0
100
AcDbSpline
 62
7
  6
CONTINUOUS
 70
0
 71
3
 72
8
 73
4
 74
0
 42
0.0000001
 43
0.0000001
 44
0.0000000001
 40
0.0
 40
0.0
 40
0.0
 40
0.0
 40
1.0
 40
1.0
 40
1.0
 40
1.0
 10
697.004678932
 20
101.7292972612
 30
0.0
 10
693.987336892
 20
105.2092101061
 30
0.0
 10
691.1516368003
 20
109.2595378987
 30
0.0
 10
690.2302431698
 20
113.772317549
 30
0.0
  0
SPLINE
  5
A21
100
AcDbEntity
  8
0
100
AcDbSpline
 62
7
  6
CONTINUOUS
 70
0
 71
3
 72
11
 73
7
 74
0
 42
0.0000001
 43
0.0000001
 44
0.0000000001
 40
0.0
 40
0.0
 40
0.0
 40
0.0
 40
0.2440865876
 40
0.3917673151
 40
0.539475432
 40
1.0
 40
1.0
 40
1.0
 40
1.0
 10
690.2302431698
 20
113.772317549
 30
0.0
 10
688.6046003121
 20
121.7315259329
 30
0.0
 10
688.0102715762
 20
134.8386938463
 30
0.0
 10
687.0957840757
 20
152.7493218607
 30
0.0
 10
686.4080631994
 20
177.906036422
 30
0.0
 10
686.0034417436
 20
198.1411182793
 30
0.0
 10
685.5631723159
 20
213.4616675675
 30
0.0
  0
SPLINE
  5
A22
100
AcDbEntity
  8
0
100
AcDbSpline
 62
7
  6
CONTINUOUS
 70
0
 71
3
 72
8
 73
4
 74
0
 42
0.0000001
 43
0.0000001
 44
0.0000000001
 40
0.0
 40
0.0
 40
0.0
 40
0.0
 40
1.0
 40
1.0
 40
1.0
 40
1.0
 10
685.5631723159
 20
213.4616675675
 30
0.0
 10
685.3158005579
 20
222.0059845558
 30
0.0
 10
684.508223557
 20
230.538237847
 30
0.0
 10
684.5654726634
 20
239.0859432772
 30
0.0
  0
SPLINE
  5
A23
100
AcDbEntity
  8
0
100
AcDbSpline
 62
7
  6
CONTINUOUS
 70
0
 71
3
 72
11
 73
7
 74
0
 42
0.0000001
 43
0.0000001
 44
0.0000000001
 40
0.0
 40
0.0
 40
0.0
 40
0.0
 40
0.4311836092
 40
0.6091432994
 40
0.7871029384
 40
1.0
 40
1.0
 40
1.0
 40
1.0
 10
684.5654726634
 20
239.0859432772
 30
0.0
 10
684.6722718502
 20
255.1440623034
 30
0.0
 10
685.1793432987
 20
277.8227706562
 30
0.0
 10
686.4753591746
 20
307.1243963098
 30
0.0
 10
688.0158647721
 20
328.2124632358
 30
0.0
 10
688.6677129212
 20
342.8777440177
 30
0.0
 10
690.5117074709
 20
350.5892147337
 30
0.0
  0
SPLINE
  5
A24
100
AcDbEntity
  8
0
100
AcDbSpline
 62
7
  6
CONTINUOUS
 70
0
 71
3
 72
9
 73
5
 74
0
 42
0.0000001
 43
0.0000001
 44
0.0000000001
 40
0.0
 40
0.0
 40
0.0
 40
0.0
 40
0.2348367532
 40
1.0
 40
1.0
 40
1.0
 40
1.0
 10
690.5117074709
 20
350.5892147337
 30
0.0
 10
691.255119367
 20
353.6996848909
 30
0.0
 10
696.9525988807
 20
366.1313622583
 30
0.0
 10
710.2648955358
 20
375.7206333825
 30
0.0
 10
720.6717958965
 20
376.2472523792
 30
0.0
  0
SPLINE
  5
A25
100
AcDbEntity
  8
0
100
AcDbSpline
 62
7
  6
CONTINUOUS
 70
0
 71
3
 72
10
 73
6
 74
0
 42
0.0000001
 43
0.0000001
 44
0.0000000001
 40
0.0
 40
0.0
 40
0.0
 40
0.0
 40
0.4155514047
 40
0.7077905487
 40
1.0
 40
1.0
 40
1.0
 40
1.0
 10
720.6717958965
 20
376.2472523792
 30
0.0
 10
732.0385615396
 20
376.8229810746
 30
0.0
 10
751.362399997
 20
378.5233808876
 30
0.0
 10
778.7556141669
 20
378.976037042
 30
0.0
 10
794.7578799953
 20
379.3192073518
 30
0.0
 10
802.7573970045
 20
379.561434236
 30
0.0
  0
SPLINE
  5
A26
100
AcDbEntity
  8
0
100
AcDbSpline
 62
7
  6
CONTINUOUS
 70
0
 71
3
 72
8
 73
4
 74
0
 42
0.0000001
 43
0.0000001
 44
0.0000000001
 40
0.0
 40
0.0
 40
0.0
 40
0.0
 40
1.0
 40
1.0
 40
1.0
 40
1.0
 10
802.7573970045
 20
379.561434236
 30
0.0
 10
805.6609363762
 20
379.6501732144
 30
0.0
 10
808.4905758186
 20
380.5024279372
 30
0.0
 10
811.3522212211
 20
381.0018286584
 30
0.0
  0
SPLINE
  5
A27
100
AcDbEntity
  8
0
100
AcDbSpline
 62
7
  6
CONTINUOUS
 70
0
 71
3
 72
8
 73
4
 74
0
 42
0.0000001
 43
0.0000001
 44
0.0000000001
 40
0.0
 40
0.0
 40
0.0
 40
0.0
 40
1.0
 40
1.0
 40
1.0
 40
1.0
 10
937.1702089283
 20
34.1334232547
 30
0.0
 10
939.6530437151
 20
33.8955365606
 30
0.0
 10
942.1362576519
 20
33.2982858506
 30
0.0
 10
944.6240175202
 20
33.4774770743
 30
0.0
  0
SPLINE
  5
A28
100
AcDbEntity
  8
0
100
AcDbSpline
 62
7
  6
CONTINUOUS
 70
0
 71
3
 72
10
 73
6
 74
0
 42
0.0000001
 43
0.0000001
 44
0.0000000001
 40
0.0
 40
0.0
 40
0.0
 40
0.0
 40
0.4995423212
 40
0.7372524531
 40
1.0
 40
1.0
 40
1.0
 40
1.0
 10
985.0587587211
 20
36.7213789832
 30
0.0
 10
989.1407869591
 20
37.0799946171
 30
0.0
 10
995.334809147
 20
37.6805834386
 30
0.0
 10
1002.5014910281
 20
42.1042756433
 30
0.0
 10
1004.7028122921
 20
45.772850753
 30
0.0
 10
1005.4571690892
 20
47.7918488155
 30
0.0
  0
SPLINE
  5
A29
100
AcDbEntity
  8
0
100
AcDbSpline
 62
7
  6
CONTINUOUS
 70
0
 71
3
 72
9
 73
5
 74
0
 42
0.0000001
 43
0.0000001
 44
0.0000000001
 40
0.0
 40
0.0
 40
0.0
 40
0.0
 40
0.2456568306
 40
1.0
 40
1.0
 40
1.0
 40
1.0
 10
1005.4571690892
 20
47.7918488155
 30
0.0
 10
1006.8073767266
 20
51.4065453301
 30
0.0
 10
1012.0948994582
 20
66.1992798902
 30
0.0
 10
1016.8486833443
 20
81.1729625818
 30
0.0
 10
1020.6335037208
 20
92.4010122158
 30
0.0
  0
SPLINE
  5
A2A
100
AcDbEntity
  8
0
100
AcDbSpline
 62
7
  6
CONTINUOUS
 70
0
 71
3
 72
9
 73
5
 74
0
 42
0.0000001
 43
0.0000001
 44
0.0000000001
 40
0.0
 40
0.0
 40
0.0
 40
0.0
 40
0.2606337099
 40
1.0
 40
1.0
 40
1.0
 40
1.0
 10
1020.6335037208
 20
92.4010122158
 30
0.0
 10
1017.3675200729
 20
91.860912084
 30
0.0
 10
1004.7812337484
 20
90.4945121765
 30
0.0
 10
991.7279418213
 20
89.9318386763
 30
0.0
 10
983.0065153405
 20
86.4499542746
 30
0.0
  0
SPLINE
  5
A2B
100
AcDbEntity
  8
0
100
AcDbSpline
 62
7
  6
CONTINUOUS
 70
0
 71
3
 72
8
 73
4
 74
0
 42
0.0000001
 43
0.0000001
 44
0.0000000001
 40
0.0
 40
0.0
 40
0.0
 40
0.0
 40
1.0
 40
1.0
 40
1.0
 40
1.0
 10
983.0065153405
 20
86.4499542746
 30
0.0
 10
976.867580945
 20
84.0018496718
 30
0.0
 10
969.9275901615
 20
84.333471985
 30
0.0
 10
963.3243403237
 20
84.0563019314
 30
0.0
  0
SPLINE
  5
A2C
100
AcDbEntity
  8
0
100
AcDbSpline
 62
7
  6
CONTINUOUS
 70
0
 71
3
 72
12
 73
8
 74
0
 42
0.0000001
 43
0.0000001
 44
0.0000000001
 40
0.0
 40
0.0
 40
0.0
 40
0.0
 40
0.3868995375
 40
0.5599574823
 40
0.7330874021
 40
0.883132814
 40
1.0
 40
1.0
 40
1.0
 40
1.0
 10
963.3243403237
 20
84.0563019314
 30
0.0
 10
941.3767499723
 20
83.1385462226
 30
0.0
 10
909.6043244386
 20
81.5517325814
 30
0.0
 10
867.976827439
 20
82.0940288751
 30
0.0
 10
839.8142444949
 20
82.8506584487
 30
0.0
 10
814.8402415118
 20
83.6448955551
 30
0.0
 10
799.7389716567
 20
85.2063054026
 30
0.0
 10
793.1938119374
 20
86.296303016
 30
0.0
  0
SPLINE
  5
A2D
100
AcDbEntity
  8
0
100
AcDbSpline
 62
7
  6
CONTINUOUS
 70
0
 71
3
 72
8
 73
4
 74
0
 42
0.0000001
 43
0.0000001
 44
0.0000000001
 40
0.0
 40
0.0
 40
0.0
 40
0.0
 40
1.0
 40
1.0
 40
1.0
 40
1.0
 10
793.1938119374
 20
86.296303016
 30
0.0
 10
790.5935913456
 20
86.7299698215
 30
0.0
 10
788.595431569
 20
89.227608816
 30
0.0
 10
785.9766814054
 20
89.5298696384
 30
0.0
  0
SPLINE
  5
A2E
100
AcDbEntity
  8
0
100
AcDbSpline
 62
7
  6
CONTINUOUS
 70
0
 71
3
 72
9
 73
5
 74
0
 42
0.0000001
 43
0.0000001
 44
0.0000000001
 40
0.0
 40
0.0
 40
0.0
 40
0.0
 40
0.2392202618
 40
1.0
 40
1.0
 40
1.0
 40
1.0
 10
785.9766814054
 20
89.5298696384
 30
0.0
 10
783.5764881039
 20
89.8074430134
 30
0.0
 10
773.5268144373
 20
90.8285770926
 30
0.0
 10
763.4468999866
 20
91.495547143
 30
0.0
 10
755.7879986872
 20
92.1171363478
 30
0.0
  0
SPLINE
  5
A2F
100
AcDbEntity
  8
0
100
AcDbSpline
 62
7
  6
CONTINUOUS
 70
0
 71
3
 72
9
 73
5
 74
0
 42
0.0000001
 43
0.0000001
 44
0.0000000001
 40
0.0
 40
0.0
 40
0.0
 40
0.0
 40
0.2546206195
 40
1.0
 40
1.0
 40
1.0
 40
1.0
 10
755.7879986872
 20
92.1171363478
 30
0.0
 10
757.1382188194
 20
88.2442240734
 30
0.0
 10
762.3766942569
 20
73.0121093843
 30
0.0
 10
767.5787453562
 20
57.7614882075
 30
0.0
 10
771.8369760053
 20
46.5350779825
 30
0.0
  0
SPLINE
  5
A30
100
AcDbEntity
  8
0
100
AcDbSpline
 62
7
  6
CONTINUOUS
 70
0
 71
3
 72
9
 73
5
 74
0
 42
0.0000001
 43
0.0000001
 44
0.0000000001
 40
0.0
 40
0.0
 40
0.0
 40
0.0
 40
0.4867542966
 40
1.0
 40
1.0
 40
1.0
 40
1.0
 10
771.8369760053
 20
46.5350779825
 30
0.0
 10
772.7886413321
 20
44.0214163903
 30
0.0
 10
776.5452249895
 20
39.3511189087
 30
0.0
 10
782.1863976387
 20
37.9660277105
 30
0.0
 10
785.0103321218
 20
37.7266578458
 30
0.0
  0
SPLINE
  5
A31
100
AcDbEntity
  8
0
100
AcDbSpline
 62
7
  6
CONTINUOUS
 70
0
 71
3
 72
8
 73
4
 74
0
 42
0.0000001
 43
0.0000001
 44
0.0000000001
 40
0.0
 40
0.0
 40
0.0
 40
0.0
 40
1.0
 40
1.0
 40
1.0
 40
1.0
 10
785.0103321218
 20
37.7266578458
 30
0.0
 10
795.0369519342
 20
36.8762610041
 30
0.0
 10
804.993939649
 20
35.2501993705
 30
0.0
 10
815.0350282948
 20
34.5923099733
 30
0.0
  0
SPLINE
  5
A32
100
AcDbEntity
  8
0
100
AcDbSpline
 62
7
  6
CONTINUOUS
 70
0
 71
3
 72
8
 73
4
 74
0
 42
0.0000001
 43
0.0000001
 44
0.0000000001
 40
0.0
 40
0.0
 40
0.0
 40
0.0
 40
1.0
 40
1.0
 40
1.0
 40
1.0
 10
815.0350282948
 20
34.5923099733
 30
0.0
 10
830.9455744715
 20
33.5489728756
 30
0.0
 10
846.8803011657
 20
32.8629528744
 30
0.0
 10
862.817124637
 20
32.3612661371
 30
0.0
  0
SPLINE
  5
A33
100
AcDbEntity
  8
0
100
AcDbSpline
 62
7
  6
CONTINUOUS
 70
0
 71
3
 72
12
 73
8
 74
0
 42
0.0000001
 43
0.0000001
 44
0.0000000001
 40
0.0
 40
0.0
 40
0.0
 40
0.0
 40
0.4185690645
 40
0.5844069199
 40
0.7501262189
 40
0.8749366434
 40
1.0
 40
1.0
 40
1.0
 40
1.0
 10
862.817124637
 20
32.3612661371
 30
0.0
 10
873.2212567271
 20
32.0345322045
 30
0.0
 10
887.7625718325
 20
32.4112393191
 30
0.0
 10
906.4117655656
 20
32.208661453
 30
0.0
 10
917.7710225797
 20
32.1802913026
 30
0.0
 10
928.0728712264
 20
33.1218564989
 30
0.0
 10
934.2310327688
 20
33.9529715717
 30
0.0
 10
937.323860187
 20
34.2808733415
 30
0.0
  0
SPLINE
  5
A34
100
AcDbEntity
  8
0
100
AcDbSpline
 62
7
  6
CONTINUOUS
 70
0
 71
3
 72
8
 73
4
 74
0
 42
0.0000001
 43
0.0000001
 44
0.0000000001
 40
0.0
 40
0.0
 40
0.0
 40
0.0
 40
1.0
 40
1.0
 40
1.0
 40
1.0
 10
887.9659771698
 20
366.6512834146
 30
0.0
 10
887.6045268608
 20
366.7938007868
 30
0.0
 10
887.2503160941
 20
367.0303417584
 30
0.0
 10
886.8618240668
 20
367.0247317652
 30
0.0
  0
SPLINE
  5
A35
100
AcDbEntity
  8
0
100
AcDbSpline
 62
7
  6
CONTINUOUS
 70
0
 71
3
 72
12
 73
8
 74
0
 42
0.0000001
 43
0.0000001
 44
0.0000000001
 40
0.0
 40
0.0
 40
0.0
 40
0.0
 40
0.3742477989
 40
0.5343042973
 40
0.6943651158
 40
0.8472340938
 40
1.0
 40
1.0
 40
1.0
 40
1.0
 10
886.8618240668
 20
367.0247317652
 30
0.0
 10
867.9407379084
 20
366.7043506909
 30
0.0
 10
840.9271564529
 20
366.2598291283
 30
0.0
 10
805.8249002808
 20
365.5074071183
 30
0.0
 10
781.9160884699
 20
364.8651498838
 30
0.0
 10
758.3715400422
 20
364.5716476696
 30
0.0
 10
742.9175092869
 20
364.1445008838
 30
0.0
 10
735.2073427679
 20
363.6726538581
 30
0.0
  0
SPLINE
  5
A36
100
AcDbEntity
  8
0
100
AcDbSpline
 62
7
  6
CONTINUOUS
 70
0
 71
3
 72
9
 73
5
 74
0
 42
0.0000001
 43
0.0000001
 44
0.0000000001
 40
0.0
 40
0.0
 40
0.0
 40
0.0
 40
0.4838882852
 40
1.0
 40
1.0
 40
1.0
 40
1.0
 10
735.2073427679
 20
363.6726538581
 30
0.0
 10
730.0101848013
 20
363.3546134586
 30
0.0
 10
718.389732819
 20
361.4085743492
 30
0.0
 10
712.9132853034
 20
350.3130430806
 30
0.0
 10
711.9805090063
 20
344.8383168402
 30
0.0
  0
SPLINE
  5
A37
100
AcDbEntity
  8
0
100
AcDbSpline
 62
7
  6
CONTINUOUS
 70
0
 71
3
 72
9
 73
5
 74
0
 42
0.0000001
 43
0.0000001
 44
0.0000000001
 40
0.0
 40
0.0
 40
0.0
 40
0.0
 40
0.4827844162
 40
1.0
 40
1.0
 40
1.0
 40
1.0
 10
711.9805090063
 20
344.8383168402
 30
0.0
 10
710.140548067
 20
334.033674562
 30
0.0
 10
707.5164713871
 20
311.4698504118
 30
0.0
 10
705.1413061703
 20
288.8865144691
 30
0.0
 10
704.406466582
 20
277.1676842616
 30
0.0
  0
SPLINE
  5
A38
100
AcDbEntity
  8
0
100
AcDbSpline
 62
7
  6
CONTINUOUS
 70
0
 71
3
 72
13
 73
9
 74
0
 42
0.0000001
 43
0.0000001
 44
0.0000000001
 40
0.0
 40
0.0
 40
0.0
 40
0.0
 40
0.1937850312
 40
0.3874241625
 40
0.5648438689
 40
0.7424632573
 40
0.8716706346
 40
1.0
 40
1.0
 40
1.0
 40
1.0
 10
704.406466582
 20
277.1676842616
 30
0.0
 10
703.7433891573
 20
266.5594793704
 30
0.0
 10
702.2937891519
 20
245.3624058735
 30
0.0
 10
700.860181134
 20
214.3947099369
 30
0.0
 10
701.750104619
 20
184.2961602517
 30
0.0
 10
703.1663512178
 20
157.7761052131
 30
0.0
 10
704.1731899623
 20
133.9286459685
 30
0.0
 10
704.8930734534
 20
119.8213986481
 30
0.0
 10
705.2243322502
 20
112.7904653357
 30
0.0
  0
SPLINE
  5
A39
100
AcDbEntity
  8
0
100
AcDbSpline
 62
7
  6
CONTINUOUS
 70
0
 71
3
 72
13
 73
9
 74
0
 42
0.0000001
 43
0.0000001
 44
0.0000000001
 40
0.0
 40
0.0
 40
0.0
 40
0.0
 40
0.0736762991
 40
0.1881963521
 40
0.4877243137
 40
0.7933721095
 40
0.9155603834
 40
1.0
 40
1.0
 40
1.0
 40
1.0
 10
705.2243322502
 20
112.7904653357
 30
0.0
 10
709.4907317032
 20
111.3640827829
 30
0.0
 10
720.8521129387
 20
109.2925039824
 30
0.0
 10
750.2819315911
 20
104.9880703773
 30
0.0
 10
794.0683341361
 20
100.8294419473
 30
0.0
 10
838.3986923844
 20
97.7916918644
 30
0.0
 10
869.6525080975
 20
97.1849027619
 30
0.0
 10
882.307927451
 20
97.4847961805
 30
0.0
 10
887.4164844399
 20
98.1805044019
 30
0.0
  0
SPLINE
  5
A3A
100
AcDbEntity
  8
0
100
AcDbSpline
 62
7
  6
CONTINUOUS
 70
0
 71
3
 72
8
 73
4
 74
0
 42
0.0000001
 43
0.0000001
 44
0.0000000001
 40
0.0
 40
0.0
 40
0.0
 40
0.0
 40
1.0
 40
1.0
 40
1.0
 40
1.0
 10
891.9767573337
 20
97.6544383213
 30
0.0
 10
895.5202445651
 20
97.2490947634
 30
0.0
 10
899.065561909
 20
96.6223638367
 30
0.0
 10
902.6317486505
 20
96.676375713
 30
0.0
  0
SPLINE
  5
A3B
100
AcDbEntity
  8
0
100
AcDbSpline
 62
7
  6
CONTINUOUS
 70
0
 71
3
 72
13
 73
9
 74
0
 42
0.0000001
 43
0.0000001
 44
0.0000000001
 40
0.0
 40
0.0
 40
0.0
 40
0.0
 40
0.2818186146
 40
0.3920053821
 40
0.5022161758
 40
0.6454856602
 40
0.8241098871
 40
1.0
 40
1.0
 40
1.0
 40
1.0
 10
902.6317486505
 20
96.676375713
 30
0.0
 10
912.6058128168
 20
96.8262554253
 30
0.0
 10
926.4696339302
 20
97.4618309754
 30
0.0
 10
944.2304120375
 20
98.212335543
 30
0.0
 10
957.0822749933
 20
98.903815968
 30
0.0
 10
972.3801766669
 20
99.4424650906
 30
0.0
 10
989.8124820631
 20
102.458829356
 30
0.0
 10
1002.4019595386
 20
102.0576133507
 30
0.0
 10
1008.6270014452
 20
102.1526994964
 30
0.0
  0
SPLINE
  5
A3C
100
AcDbEntity
  8
0
100
AcDbSpline
 62
7
  6
CONTINUOUS
 70
0
 71
3
 72
8
 73
4
 74
0
 42
0.0000001
 43
0.0000001
 44
0.0000000001
 40
0.0
 40
0.0
 40
0.0
 40
0.0
 40
1.0
 40
1.0
 40
1.0
 40
1.0
 10
1008.6270014452
 20
102.1526994964
 30
0.0
 10
1008.9870089854
 20
102.1590525706
 30
0.0
 10
1009.3217871534
 20
102.3531503627
 30
0.0
 10
1009.6791336064
 20
102.3973012758
 30
0.0
  0
SPLINE
  5
A3D
100
AcDbEntity
  8
0
100
AcDbSpline
 62
7
  6
CONTINUOUS
 70
0
 71
3
 72
13
 73
9
 74
0
 42
0.0000001
 43
0.0000001
 44
0.0000000001
 40
0.0
 40
0.0
 40
0.0
 40
0.0
 40
0.1913119448
 40
0.3825879274
 40
0.542086391
 40
0.701064262
 40
0.8505748852
 40
1.0
 40
1.0
 40
1.0
 40
1.0
 10
1009.6791336064
 20
102.3973012758
 30
0.0
 10
1012.2925631896
 20
102.7302485857
 30
0.0
 10
1017.5159128946
 20
103.4090271726
 30
0.0
 10
1024.9220844248
 20
104.3897712645
 30
0.0
 10
1031.9208807892
 20
104.8534110396
 30
0.0
 10
1038.3760504446
 20
105.3155593164
 30
0.0
 10
1044.4536326251
 20
107.0619119586
 30
0.0
 10
1048.4101020053
 20
108.2387330976
 30
0.0
 10
1050.4418478974
 20
108.5647112135
 30
0.0
  0
SPLINE
  5
A3E
100
AcDbEntity
  8
0
100
AcDbSpline
 62
7
  6
CONTINUOUS
 70
0
 71
3
 72
8
 73
4
 74
0
 42
0.0000001
 43
0.0000001
 44
0.0000000001
 40
0.0
 40
0.0
 40
0.0
 40
0.0
 40
1.0
 40
1.0
 40
1.0
 40
1.0
 10
1050.4418478974
 20
108.5647112135
 30
0.0
 10
1056.9988174697
 20
109.6156732817
 30
0.0
 10
1063.6544371631
 20
109.9949119111
 30
0.0
 10
1070.1998150149
 20
111.1158044203
 30
0.0
  0
SPLINE
  5
A3F
100
AcDbEntity
  8
0
100
AcDbSpline
 62
7
  6
CONTINUOUS
 70
0
 71
3
 72
8
 73
4
 74
0
 42
0.0000001
 43
0.0000001
 44
0.0000000001
 40
0.0
 40
0.0
 40
0.0
 40
0.0
 40
1.0
 40
1.0
 40
1.0
 40
1.0
 10
1070.1998150149
 20
111.1158044203
 30
0.0
 10
1071.864146238
 20
111.3995214835
 30
0.0
 10
1073.4533366211
 20
113.2169521074
 30
0.0
 10
1073.5646397753
 20
114.9016198491
 30
0.0
  0
SPLINE
  5
A40
100
AcDbEntity
  8
0
100
AcDbSpline
 62
7
  6
CONTINUOUS
 70
0
 71
3
 72
11
 73
7
 74
0
 42
0.0000001
 43
0.0000001
 44
0.0000000001
 40
0.0
 40
0.0
 40
0.0
 40
0.0
 40
0.229258349
 40
0.458341139
 40
0.7291131808
 40
1.0
 40
1.0
 40
1.0
 40
1.0
 10
1073.5646397753
 20
114.9016198491
 30
0.0
 10
1074.215995349
 20
124.7746539632
 30
0.0
 10
1075.7240743552
 20
144.4979138195
 30
0.0
 10
1077.1878734958
 20
175.9449141682
 30
0.0
 10
1076.7267943734
 20
209.2183813522
 30
0.0
 10
1076.101477226
 20
232.5849796755
 30
0.0
 10
1075.8749208077
 20
244.2739125685
 30
0.0
  0
SPLINE
  5
A41
100
AcDbEntity
  8
0
100
AcDbSpline
 62
7
  6
CONTINUOUS
 70
0
 71
3
 72
9
 73
5
 74
0
 42
0.0000001
 43
0.0000001
 44
0.0000000001
 40
0.0
 40
0.0
 40
0.0
 40
0.0
 40
0.6429965914
 40
1.0
 40
1.0
 40
1.0
 40
1.0
 10
1075.8749208077
 20
244.2739125685
 30
0.0
 10
1075.6871449273
 20
253.7329933438
 30
0.0
 10
1075.0570501616
 20
268.4333998065
 30
0.0
 10
1074.1953781565
 20
283.1290784584
 30
0.0
 10
1073.6531787293
 20
288.3539093022
 30
0.0
  0
SPLINE
  5
A42
100
AcDbEntity
  8
0
100
AcDbSpline
 62
7
  6
CONTINUOUS
 70
0
 71
3
 72
9
 73
5
 74
0
 42
0.0000001
 43
0.0000001
 44
0.0000000001
 40
0.0
 40
0.0
 40
0.0
 40
0.0
 40
0.5044395375
 40
1.0
 40
1.0
 40
1.0
 40
1.0
 10
1068.202004143
 20
338.9106855483
 30
0.0
 10
1067.463736743
 20
345.4030319133
 30
0.0
 10
1063.7420472594
 20
359.7257616462
 30
0.0
 10
1049.2999059707
 20
363.3665285847
 30
0.0
 10
1042.8915766319
 20
363.7394887105
 30
0.0
  0
SPLINE
  5
A43
100
AcDbEntity
  8
0
100
AcDbSpline
 62
7
  6
CONTINUOUS
 70
0
 71
3
 72
12
 73
8
 74
0
 42
0.0000001
 43
0.0000001
 44
0.0000000001
 40
0.0
 40
0.0
 40
0.0
 40
0.0
 40
0.3620500252
 40
0.5436625669
 40
0.7252850792
 40
0.9202088487
 40
1.0
 40
1.0
 40
1.0
 40
1.0
 10
1042.8915766319
 20
363.7394887105
 30
0.0
 10
1024.6089946937
 20
364.8020449199
 30
0.0
 10
997.1214917284
 20
365.8057447043
 30
0.0
 10
960.4455795412
 20
366.6487448152
 30
0.0
 10
932.2163901718
 20
367.2133749816
 30
0.0
 10
909.1326603505
 20
367.1034006819
 30
0.0
 10
895.2369660279
 20
367.1146487574
 30
0.0
 10
891.2009218305
 20
367.1146487574
 30
0.0
  0
SPLINE
  5
A44
100
AcDbEntity
  8
0
100
AcDbSpline
 62
7
  6
CONTINUOUS
 70
0
 71
3
 72
8
 73
4
 74
0
 42
0.0000001
 43
0.0000001
 44
0.0000000001
 40
0.0
 40
0.0
 40
0.0
 40
0.0
 40
1.0
 40
1.0
 40
1.0
 40
1.0
 10
891.2009218305
 20
97.7402211989
 30
0.0
 10
891.4597357845
 20
97.7135181719
 30
0.0
 10
891.7181566537
 20
97.6831333165
 30
0.0
 10
891.9767573337
 20
97.6544383213
 30
0.0
  0
SPLINE
  5
A45
100
AcDbEntity
  8
0
100
AcDbSpline
 62
7
  6
CONTINUOUS
 70
0
 71
3
 72
8
 73
4
 74
0
 42
0.0000001
 43
0.0000001
 44
0.0000000001
 40
0.0
 40
0.0
 40
0.0
 40
0.0
 40
1.0
 40
1.0
 40
1.0
 40
1.0
 10
938.0972841234
 20
402.5839738353
 30
0.0
 10
935.2161721503
 20
400.7991160622
 30
0.0
 10
931.9747691393
 20
399.0205691918
 30
0.0
 10
928.5857199982
 20
398.9910837538
 30
0.0
  0
SPLINE
  5
A46
100
AcDbEntity
  8
0
100
AcDbSpline
 62
7
  6
CONTINUOUS
 70
0
 71
3
 72
10
 73
6
 74
0
 42
0.0000001
 43
0.0000001
 44
0.0000000001
 40
0.0
 40
0.0
 40
0.0
 40
0.0
 40
0.4834697447
 40
0.7160989289
 40
1.0
 40
1.0
 40
1.0
 40
1.0
 10
852.430161749
 20
398.9469865315
 30
0.0
 10
850.1505771464
 20
398.9610703018
 30
0.0
 10
846.8025942864
 20
398.085057073
 30
0.0
 10
842.0337698816
 20
399.4271179508
 30
0.0
 10
840.5607323785
 20
401.6121499357
 30
0.0
 10
840.0226503589
 20
402.8378773726
 30
0.0
  0
SPLINE
  5
A47
100
AcDbEntity
  8
0
100
AcDbSpline
 62
7
  6
CONTINUOUS
 70
0
 71
3
 72
9
 73
5
 74
0
 42
0.0000001
 43
0.0000001
 44
0.0000000001
 40
0.0
 40
0.0
 40
0.0
 40
0.0
 40
0.1626310909
 40
1.0
 40
1.0
 40
1.0
 40
1.0
 10
840.0226503589
 20
402.8378773726
 30
0.0
 10
839.9641800127
 20
402.9691942602
 30
0.0
 10
839.0360488855
 20
403.3425874402
 30
0.0
 10
838.1856377194
 20
403.2322119443
 30
0.0
 10
837.4467524646
 20
403.1892771121
 30
0.0
  0
SPLINE
  5
A48
100
AcDbEntity
  8
0
100
AcDbSpline
 62
7
  6
CONTINUOUS
 70
0
 71
3
 72
8
 73
4
 74
0
 42
0.0000001
 43
0.0000001
 44
0.0000000001
 40
0.0
 40
0.0
 40
0.0
 40
0.0
 40
1.0
 40
1.0
 40
1.0
 40
1.0
 10
837.4467524646
 20
403.1892771121
 30
0.0
 10
832.2350120498
 20
402.8861087114
 30
0.0
 10
827.0319873813
 20
402.4313928448
 30
0.0
 10
821.8170432671
 20
402.1895104023
 30
0.0
  0
SPLINE
  5
A49
100
AcDbEntity
  8
0
100
AcDbSpline
 62
7
  6
CONTINUOUS
 70
0
 71
3
 72
9
 73
5
 74
0
 42
0.0000001
 43
0.0000001
 44
0.0000000001
 40
0.0
 40
0.0
 40
0.0
 40
0.0
 40
0.5024792368
 40
1.0
 40
1.0
 40
1.0
 40
1.0
 10
821.8170432671
 20
402.1895104023
 30
0.0
 10
820.1216032267
 20
402.1104657856
 30
0.0
 10
816.1555864846
 20
400.9354686453
 30
0.0
 10
816.1654245379
 20
396.7797659748
 30
0.0
 10
816.6211502562
 20
395.1622046314
 30
0.0
  0
SPLINE
  5
A4A
100
AcDbEntity
  8
0
100
AcDbSpline
 62
7
  6
CONTINUOUS
 70
0
 71
3
 72
9
 73
5
 74
0
 42
0.0000001
 43
0.0000001
 44
0.0000000001
 40
0.0
 40
0.0
 40
0.0
 40
0.0
 40
0.4970880581
 40
1.0
 40
1.0
 40
1.0
 40
1.0
 10
816.6211502562
 20
395.1622046314
 30
0.0
 10
817.454730824
 20
392.2012828169
 30
0.0
 10
821.2386099437
 20
386.6809780733
 30
0.0
 10
827.5864388426
 20
384.5822095892
 30
0.0
 10
830.698499428
 20
384.580249339
 30
0.0
  0
SPLINE
  5
A4B
100
AcDbEntity
  8
0
100
AcDbSpline
 62
7
  6
CONTINUOUS
 70
0
 71
3
 72
9
 73
5
 74
0
 42
0.0000001
 43
0.0000001
 44
0.0000000001
 40
0.0
 40
0.0
 40
0.0
 40
0.0
 40
0.4718988941
 40
1.0
 40
1.0
 40
1.0
 40
1.0
 10
946.8536833183
 20
384.5113474292
 30
0.0
 10
950.7431177891
 20
384.4978705253
 30
0.0
 10
959.4673241377
 20
388.7000226347
 30
0.0
 10
960.6951818432
 20
398.4286563191
 30
0.0
 10
959.3993430374
 20
402.5839738353
 30
0.0
  0
ENDSEC
  0
SECTION
  2
OBJECTS
  0
DICTIONARY
  5
C
100
AcDbDictionary
280
0
281
1
  3
ACAD_GROUP
350
D
  3
ACAD_MLINESTYLE
350
17
  3
ACAD_LAYOUT
350
1A
  3
ACAD_PLOTSETTINGS
350
19
  3
ACAD_PLOTSTYLENAME
350
E
  0
DICTIONARY
  5
D
102
{ACAD_REACTORS
330
C
102
}
100
AcDbDictionary
280
0
281
1
  0
ACDBDICTIONARYWDFLT
  5
E
102
{ACAD_REACTORS
330
C
102
}
100
AcDbDictionary
281
1
  3
Normal
350
F
100
AcDbDictionaryWithDefault
340
F
  0
DICTIONARY
  5
17
102
{ACAD_REACTORS
330
C
102
}
100
AcDbDictionary
280
0
281
1
  3
Standard
350
18
  0
DICTIONARY
  5
19
102
{ACAD_REACTORS
330
C
102
}
100
AcDbDictionary
281
1
  0
DICTIONARY
  5
1A
102
{ACAD_REACTORS
330
C
102
}
100
AcDbDictionary
281
1
  3
Model
350
A4C
  3
Layout1
350
A4D
  0
ACDBPLACEHOLDER
  5
F
102
{ACAD_REACTORS
330
E
102
}
  0
MLINESTYLE
  5
18
102
{ACAD_REACTORS
330
17
102
}
100
AcDbMlineStyle
  2
STANDARD
 70
0
  3

 62
256
 51
90.0
 52
90.0
 71
2
 49
0.5
 62
256
  6
BYLAYER
 49
-0.5
 62
256
  6
BYLAYER
  0
LAYOUT
  5
A4C
102
{ACAD_REACTORS
330
1A
102
}
100
AcDbPlotSettings
  1

  2
none_device
  4

  6

 40
0.0
 41
0.0
 42
0.0
 43
0.0
 44
1200.0
 45
1400.0
 46
0.0
 47
0.0
 48
0.0
 49
0.0
140
0.0
141
0.0
142
1.0
143
1.0
 70
1024
 72
1
 73
0
 74
0
  7

 75
0
147
1.0
148
0.0
149
0.0
100
AcDbLayout
  1
Model
 70
0
 71
0
 10
0.0
 20
0.0
 11
1200.0
 21
1400.0
 12
0.0
 22
0.0
 32
0.0
 14
0.0
 24
0.0
 34
0.0
 15
0.0
 25
0.0
 35
0.0
146
0.0
 13
0.0
 23
0.0
 33
0.0
 16
1.0
 26
0.0
 36
0.0
 17
0.0
 27
1.0
 37
0.0
 76
0
330
209
345
0
346
0
  0
LAYOUT
  5
A4D
102
{ACAD_REACTORS
330
1A
102
}
100
AcDbPlotSettings
  1

  2
none_device
  4

  6

 40
0.0
 41
0.0
 42
0.0
 43
0.0
 44
1200.0
 45
1400.0
 46
0.0
 47
0.0
 48
0.0
 49
0.0
140
0.0
141
0.0
142
1.0
143
1.0
 70
0
 72
1
 73
0
 74
0
  7

 75
0
147
1.0
148
0.0
149
0.0
100
AcDbLayout
  1
Layout1
 70
0
 71
1
 10
0.0
 20
0.0
 11
1200.0
 21
1400.0
 12
0.0
 22
0.0
 32
0.0
 14
0.0
 24
0.0
 34
0.0
 15
0.0
 25
0.0
 35
0.0
146
0.0
 13
0.0
 23
0.0
 33
0.0
 16
1.0
 26
0.0
 36
0.0
 17
0.0
 27
1.0
 37
0.0
 76
0
330
20A
345
0
346
0
  0
ENDSEC
  0
EOF
