999
DXF file: S:\Engenharia\Wildfire\Engenharia\Produtos\Lixeiras\94542120\94542120.dxf
999
Pro/ENGINEER 2012230 by Parametric Technology Corporation
  0
SECTION
  2
HEADER
  9
$ACADVER
  1
AC1021
  9
$DWGCODEPAGE
  3
ANSI_1252
  9
$EXTMAX
 10
875.0
 20
875.0
 30
0.0
  9
$EXTMIN
 10
0.0
 20
0.0
 30
0.0
  9
$LIMMIN
 10
0.0
 20
0.0
  9
$LIMMAX
 10
875.0
 20
875.0
  9
$VIEWCTR
 10
437.5
 20
437.5
  9
$VIEWSIZE
 40
875.0
  9
$CLAYER
  8
0
  9
$LTSCALE
 40
57.037037037
  9
$CELTYPE
  6
BYLAYER
  9
$DIMSCALE
 40
1.0
  9
$DIMASZ
 40
3.0
  9
$DIMEXO
 40
0.5
  9
$DIMDLI
 40
39.4074074074
  9
$DIMEXE
 40
0.5
  9
$DIMCEN
 40
9.3333333333
  9
$DIMLFAC
 40
1.0
  9
$DIMBLK
  1
_FILLED
  9
$DIMTXT
 40
1.8
  9
$DIMTOL
 70
1
  9
$DIMLIM
 70
0
  9
$DIMTFAC
 40
1.0
  9
$DIMTP
 40
0.001
  9
$DIMTM
 40
0.001
  9
$DIMGAP
 40
0.625
  9
$DIMDSEP
 70
46
  9
$PDMODE
 70
3
  9
$PDSIZE
 40
1.0
  9
$HANDSEED
  5
2E8
  9
$TILEMODE
 70
1
  9
$MEASUREMENT
 70
1
  9
$INSUNITS
 70
4
  0
ENDSEC
  0
SECTION
  2
CLASSES
  0
CLASS
  1
ACDBDICTIONARYWDFLT
  2
AcDbDictionaryWithDefault
  3
AutoCAD 2000
 90
0
 91
1
280
0
281
0
  0
CLASS
  1
ACDBPLACEHOLDER
  2
AcDbPlaceHolder
  3
AutoCAD 2000
 90
0
 91
1
280
0
281
0
  0
CLASS
  1
LAYOUT
  2
AcDbLayout
  3
AutoCAD 2000
 90
0
 91
0
280
0
281
0
  0
ENDSEC
  0
SECTION
  2
TABLES
  0
TABLE
  2
VPORT
  5
8
100
AcDbSymbolTable
 70
2
  0
VPORT
  5
1F4
100
AcDbSymbolTableRecord
100
AcDbViewportTableRecord
  2
*ACTIVE
 70
0
 10
0.0
 20
0.0
 11
1.0
 21
1.0
 12
437.5
 22
437.5
 13
0.0
 23
0.0
 14
1.0
 24
1.0
 15
0.0
 25
0.0
 16
0.0
 26
0.0
 36
1.0
 17
0.0
 27
0.0
 37
0.0
 40
875.0
 41
1.0
 42
50.0
 43
0.0
 44
0.0
 50
0.0
 51
0.0
 71
0
 72
100
 73
1
 74
1
 75
0
 76
0
 77
0
 78
0
  0
ENDTAB
  0
TABLE
  2
LTYPE
  5
5
100
AcDbSymbolTable
 70
6
  0
LTYPE
  5
14
100
AcDbSymbolTableRecord
100
AcDbLinetypeTableRecord
  2
BYBLOCK
 70
0
  3

 72
65
 73
0
 40
0.0
  0
LTYPE
  5
15
100
AcDbSymbolTableRecord
100
AcDbLinetypeTableRecord
  2
BYLAYER
 70
0
  3

 72
65
 73
0
 40
0.0
  0
LTYPE
  5
16
100
AcDbSymbolTableRecord
100
AcDbLinetypeTableRecord
  2
CONTINUOUS
 70
64
  3
Solid line
 72
65
 73
0
 40
0.0
  0
LTYPE
  5
1F5
100
AcDbSymbolTableRecord
100
AcDbLinetypeTableRecord
  2
CENTER
 70
64
  3
____ _ ____ _ ____ _ ____ _ ____ _ ____ _ ____
 72
65
 73
4
 40
0.6
 49
0.375
 74
0
 49
-0.075
 74
0
 49
0.075
 74
0
 49
-0.075
 74
0
  0
LTYPE
  5
1F6
100
AcDbSymbolTableRecord
100
AcDbLinetypeTableRecord
  2
HIDDEN
 70
64
  3
- - - - - - - - - - - - - - - - - - - -
 72
65
 73
2
 40
0.2
 49
0.1
 74
0
 49
-0.1
 74
0
  0
LTYPE
  5
1F7
100
AcDbSymbolTableRecord
100
AcDbLinetypeTableRecord
  2
PHANTOM
 70
64
  3
_____ _ _ _____ _ _ _____ _ _ _____
 72
65
 73
6
 40
0.8
 49
0.45
 74
0
 49
-0.05
 74
0
 49
0.1
 74
0
 49
-0.05
 74
0
 49
0.1
 74
0
 49
-0.05
 74
0
  0
LTYPE
  5
1F8
100
AcDbSymbolTableRecord
100
AcDbLinetypeTableRecord
  2
DOT
 70
64
  3
. . . . . . . . . . . . . . . . . . . .
 72
65
 73
2
 40
0.2
 49
0.1
 74
0
 49
-0.1
 74
0
  0
LTYPE
  5
1F9
100
AcDbSymbolTableRecord
100
AcDbLinetypeTableRecord
  2
DASHED
 70
64
  3
- - - - - - - - - - - - - - - - - - - -
 72
65
 73
2
 40
0.2
 49
0.1
 74
0
 49
-0.1
 74
0
  0
ENDTAB
  0
TABLE
  2
LAYER
  5
2
100
AcDbSymbolTable
 70
36
  0
LAYER
  5
10
100
AcDbSymbolTableRecord
100
AcDbLayerTableRecord
  2
0
 70
0
 62
7
  6
CONTINUOUS
370
-3
390
F
  0
LAYER
  5
1FA
100
AcDbSymbolTableRecord
100
AcDbLayerTableRecord
  2
DEFAULT_1
 70
0
 62
7
  6
CENTER
370
-3
390
F
  0
LAYER
  5
1FB
100
AcDbSymbolTableRecord
100
AcDbLayerTableRecord
  2
DEFAULT_2
 70
0
 62
8
  6
HIDDEN
370
-3
390
F
  0
LAYER
  5
1FC
100
AcDbSymbolTableRecord
100
AcDbLayerTableRecord
  2
DEFAULT_3
 70
0
 62
7
  6
PHANTOM
370
-3
390
F
  0
LAYER
  5
1FD
100
AcDbSymbolTableRecord
100
AcDbLayerTableRecord
  2
01_ALL_DTM_PLN
 70
0
 62
7
  6
CONTINUOUS
370
-3
390
F
  0
LAYER
  5
1FE
100
AcDbSymbolTableRecord
100
AcDbLayerTableRecord
  2
01__ASM_ALL_DTM_PLN
 70
0
 62
7
  6
CONTINUOUS
370
-3
390
F
  0
LAYER
  5
1FF
100
AcDbSymbolTableRecord
100
AcDbLayerTableRecord
  2
01__ASM_DEF_DTM_PLN
 70
0
 62
7
  6
CONTINUOUS
370
-3
390
F
  0
LAYER
  5
200
100
AcDbSymbolTableRecord
100
AcDbLayerTableRecord
  2
01___PRT_ALL_DTM_PLN
 70
0
 62
7
  6
CONTINUOUS
370
-3
390
F
  0
LAYER
  5
201
100
AcDbSymbolTableRecord
100
AcDbLayerTableRecord
  2
01___PRT_DEF_DTM_PLN
 70
0
 62
7
  6
CONTINUOUS
370
-3
390
F
  0
LAYER
  5
202
100
AcDbSymbolTableRecord
100
AcDbLayerTableRecord
  2
02_ALL_AXES
 70
0
 62
7
  6
CONTINUOUS
370
-3
390
F
  0
LAYER
  5
203
100
AcDbSymbolTableRecord
100
AcDbLayerTableRecord
  2
02__ASM_ALL_AXES
 70
0
 62
7
  6
CONTINUOUS
370
-3
390
F
  0
LAYER
  5
204
100
AcDbSymbolTableRecord
100
AcDbLayerTableRecord
  2
02___PRT_ALL_AXES
 70
0
 62
7
  6
CONTINUOUS
370
-3
390
F
  0
LAYER
  5
205
100
AcDbSymbolTableRecord
100
AcDbLayerTableRecord
  2
03_ALL_CURVES
 70
0
 62
7
  6
CONTINUOUS
370
-3
390
F
  0
LAYER
  5
206
100
AcDbSymbolTableRecord
100
AcDbLayerTableRecord
  2
03__ASM_ALL_CURVES
 70
0
 62
7
  6
CONTINUOUS
370
-3
390
F
  0
LAYER
  5
207
100
AcDbSymbolTableRecord
100
AcDbLayerTableRecord
  2
03___PRT_ALL_CURVES
 70
0
 62
7
  6
CONTINUOUS
370
-3
390
F
  0
LAYER
  5
208
100
AcDbSymbolTableRecord
100
AcDbLayerTableRecord
  2
04_ALL_DTM_PNT
 70
0
 62
7
  6
CONTINUOUS
370
-3
390
F
  0
LAYER
  5
209
100
AcDbSymbolTableRecord
100
AcDbLayerTableRecord
  2
04__ASM_ALL_DTM_PNT
 70
0
 62
7
  6
CONTINUOUS
370
-3
390
F
  0
LAYER
  5
20A
100
AcDbSymbolTableRecord
100
AcDbLayerTableRecord
  2
04___PRT_ALL_DTM_PNT
 70
0
 62
7
  6
CONTINUOUS
370
-3
390
F
  0
LAYER
  5
20B
100
AcDbSymbolTableRecord
100
AcDbLayerTableRecord
  2
05_ALL_DTM_CSYS
 70
0
 62
7
  6
CONTINUOUS
370
-3
390
F
  0
LAYER
  5
20C
100
AcDbSymbolTableRecord
100
AcDbLayerTableRecord
  2
05__ASM_ALL_DTM_CSYS
 70
0
 62
7
  6
CONTINUOUS
370
-3
390
F
  0
LAYER
  5
20D
100
AcDbSymbolTableRecord
100
AcDbLayerTableRecord
  2
05__ASM_DEF_DTM_CSYS
 70
0
 62
7
  6
CONTINUOUS
370
-3
390
F
  0
LAYER
  5
20E
100
AcDbSymbolTableRecord
100
AcDbLayerTableRecord
  2
05___PRT_ALL_DTM_CSYS
 70
0
 62
7
  6
CONTINUOUS
370
-3
390
F
  0
LAYER
  5
20F
100
AcDbSymbolTableRecord
100
AcDbLayerTableRecord
  2
05___PRT_DEF_DTM_CSYS
 70
0
 62
7
  6
CONTINUOUS
370
-3
390
F
  0
LAYER
  5
210
100
AcDbSymbolTableRecord
100
AcDbLayerTableRecord
  2
06_ALL_SURFS
 70
0
 62
7
  6
CONTINUOUS
370
-3
390
F
  0
LAYER
  5
211
100
AcDbSymbolTableRecord
100
AcDbLayerTableRecord
  2
06__ASM_ALL_SURFS
 70
0
 62
7
  6
CONTINUOUS
370
-3
390
F
  0
LAYER
  5
212
100
AcDbSymbolTableRecord
100
AcDbLayerTableRecord
  2
06___PRT_ALL_SURFS
 70
0
 62
7
  6
CONTINUOUS
370
-3
390
F
  0
LAYER
  5
213
100
AcDbSymbolTableRecord
100
AcDbLayerTableRecord
  2
07__ASM_ALL_SKELETONS
 70
0
 62
7
  6
CONTINUOUS
370
-3
390
F
  0
ENDTAB
  0
TABLE
  2
STYLE
  5
3
100
AcDbSymbolTable
 70
1
  0
STYLE
  5
11
100
AcDbSymbolTableRecord
100
AcDbTextStyleTableRecord
  2
STANDARD
 70
0
 40
0.0
 41
0.8
 50
0.0
 71
0
 42
0.2
  3
txt
  4

  0
STYLE
  5
214
100
AcDbSymbolTableRecord
100
AcDbTextStyleTableRecord
  2
TEXTSTYLE_1
 70
0
 40
0.0
 41
0.8
 50
0.0
 71
0
 42
0.2
  3
gdt
  4

  0
ENDTAB
  0
TABLE
  2
VIEW
  5
6
100
AcDbSymbolTable
 70
0
  0
ENDTAB
  0
TABLE
  2
UCS
  5
7
100
AcDbSymbolTable
 70
0
  0
ENDTAB
  0
TABLE
  2
APPID
  5
9
100
AcDbSymbolTable
 70
1
  0
APPID
  5
215
100
AcDbSymbolTableRecord
100
AcDbRegAppTableRecord
  2
ACAD
 70
0
  0
ENDTAB
  0
TABLE
  2
BLOCK_RECORD
  5
1
100
AcDbSymbolTable
 70
0
  0
BLOCK_RECORD
  5
216
100
AcDbSymbolTableRecord
100
AcDbBlockTableRecord
  2
*Model_Space
  0
BLOCK_RECORD
  5
217
100
AcDbSymbolTableRecord
100
AcDbBlockTableRecord
  2
*Paper_Space
  0
BLOCK_RECORD
  5
218
100
AcDbSymbolTableRecord
100
AcDbBlockTableRecord
  2
_FILLED
  0
BLOCK_RECORD
  5
219
100
AcDbSymbolTableRecord
100
AcDbBlockTableRecord
  2
*D0
  0
BLOCK_RECORD
  5
21A
100
AcDbSymbolTableRecord
100
AcDbBlockTableRecord
  2
*D1
  0
ENDTAB
  0
TABLE
  2
DIMSTYLE
  5
A
100
AcDbSymbolTable
 70
1
100
AcDbDimStyleTable
 71
0
  0
DIMSTYLE
105
21B
100
AcDbSymbolTableRecord
100
AcDbDimStyleTableRecord
  2
STANDARD
 70
0
  3

  4

 40
1.0
 41
3.0
 42
0.5
 43
0.38
 44
0.5
 45
0.0
 46
0.0
 47
0.001
 48
0.001
140
1.8
141
0.09
142
0.0
143
25.4
144
1.0
145
0.0
146
1.0
147
0.625
 71
1.0
 72
0.0
 73
0
 74
0
 75
0
 76
0
 77
1
 78
8
170
0
171
2
172
0
173
0
174
0
175
0
176
0
177
0
178
0
270
2
271
3
272
3
273
2
274
2
275
0
280
0
281
0
282
0
283
1
284
8
285
0
286
0
287
3
288
0
340
11
278
46
341
218
342
218
343
218
344
218
  0
DIMSTYLE
105
21C
100
AcDbSymbolTableRecord
100
AcDbDimStyleTableRecord
  2
DIMSTYLE_1
 70
0
  3

  4

 40
1.0
 41
3.0
 42
0.5
 43
0.38
 44
0.5
 45
0.0
 46
0.0
 47
0.001
 48
0.001
140
1.8
141
0.09
142
0.0
143
25.4
144
1.0
145
0.0
146
1.0
147
0.625
 71
0.0
 72
0.0
 73
0
 74
0
 75
0
 76
0
 77
1
 78
8
170
0
171
2
172
0
173
0
174
0
175
0
176
0
177
0
178
0
270
2
271
3
272
3
273
2
274
2
275
0
280
0
281
0
282
0
283
1
284
8
285
0
286
0
287
3
288
0
340
11
278
46
341
218
342
218
343
218
344
218
  0
DIMSTYLE
105
21D
100
AcDbSymbolTableRecord
100
AcDbDimStyleTableRecord
  2
DIMSTYLE_2
 70
0
  3

  4

 40
1.0
 41
3.0
 42
0.5
 43
0.38
 44
0.5
 45
0.0
 46
0.0
 47
0.001
 48
0.001
140
1.8
141
0.09
142
0.0
143
25.4
144
1.0
145
0.0
146
1.0
147
0.45
 71
0.0
 72
0.0
 73
0
 74
0
 75
0
 76
0
 77
1
 78
8
170
0
171
2
172
0
173
0
174
0
175
0
176
0
177
0
178
0
270
2
271
0
272
0
273
2
274
2
275
0
280
0
281
0
282
0
283
1
284
8
285
0
286
0
287
3
288
0
340
11
278
46
341
218
342
218
343
218
344
218
  0
ENDTAB
  0
ENDSEC
  0
SECTION
  2
BLOCKS
  0
BLOCK
  5
20
100
AcDbEntity
  8
0
100
AcDbBlockBegin
  2
*Model_Space
 70
0
 10
0.0
 20
0.0
 30
0.0
  3
*Model_Space
  1

  0
ENDBLK
  5
21
100
AcDbEntity
  8
0
100
AcDbBlockEnd
  0
BLOCK
  5
1C
100
AcDbEntity
  8
0
100
AcDbBlockBegin
  2
*Paper_Space
 70
0
 10
0.0
 20
0.0
 30
0.0
  3
*Paper_Space
  1

  0
ENDBLK
  5
1D
100
AcDbEntity
  8
0
100
AcDbBlockEnd
  0
BLOCK
  5
21E
100
AcDbEntity
  8
0
100
AcDbBlockBegin
  2
_FILLED
 70
64
 10
0.0
 20
0.0
  3
_FILLED
  1

  0
SOLID
  5
21F
100
AcDbEntity
  8
0
  6
BYBLOCK
 62
0
100
AcDbTrace
 10
0.0
 20
0.0
 11
-1.0
 21
0.1666666667
 12
-1.0
 22
-0.1666666667
 13
-1.0
 23
-0.1666666667
  0
ENDBLK
  5
220
100
AcDbEntity
  8
0
  6
BYBLOCK
 62
0
100
AcDbBlockEnd
  0
BLOCK
  5
221
100
AcDbEntity
  8
0
100
AcDbBlockBegin
 62
2
  6
CONTINUOUS
  2
*D0
 70
65
 10
0.0
 20
0.0
  3
*D0
  1

  0
MTEXT
  5
222
100
AcDbEntity
  8
0
100
AcDbMText
 62
2
  6
CONTINUOUS
  7
TEXTSTYLE_1
 71
1
 72
1
 10
582.564748159
 20
295.5678330262
 30
0.0
 11
0.8471674541
 21
0.5313259873
 31
0.0
 44
0.9
  1
{\Fgdt;n}\Ftxt;257.9
 40
1.8
 41
11.6571428571
  0
LINE
  5
223
100
AcDbEntity
  8
0
100
AcDbLine
 62
2
  6
CONTINUOUS
 10
547.5945611076
 20
270.599926585
 11
438.3523179071
 21
202.0854405216
  0
LINE
  5
224
100
AcDbEntity
  8
0
100
AcDbLine
 62
2
  6
CONTINUOUS
 10
438.3523179071
 20
202.0854405216
 11
593.8065670193
 21
299.5831453678
  0
LINE
  5
225
100
AcDbEntity
  8
0
100
AcDbLine
 62
2
  6
CONTINUOUS
 10
329.1100747067
 20
133.5709544582
 11
438.3523179071
 21
202.0854405216
  0
INSERT
  5
226
100
AcDbEntity
  8
0
100
AcDbBlockReference
 62
2
  6
CONTINUOUS
  2
_FILLED
 10
547.5945611076
 20
270.599926585
 41
3.0
 42
3.0
 43
3.0
 50
32.0950902988
  0
INSERT
  5
227
100
AcDbEntity
  8
0
100
AcDbBlockReference
 62
2
  6
CONTINUOUS
  2
_FILLED
 10
329.1100747067
 20
133.5709544582
 41
3.0
 42
3.0
 43
3.0
 50
212.0950902988
  0
ENDBLK
  5
228
100
AcDbEntity
  8
0
  6
BYBLOCK
 62
0
100
AcDbBlockEnd
  0
BLOCK
  5
229
100
AcDbEntity
  8
0
100
AcDbBlockBegin
 62
2
  6
CONTINUOUS
  2
*D1
 70
65
 10
0.0
 20
0.0
  3
*D1
  1

  0
MTEXT
  5
22A
100
AcDbEntity
  8
0
100
AcDbMText
 62
2
  6
CONTINUOUS
  7
STANDARD
 71
2
 72
1
 10
276.5637064382
 20
605.6492468986
 30
0.0
 11
0.0
 21
1.0
 31
0.0
 44
0.9
  1
409
 40
1.8
 41
5.5542857143
  0
LINE
  5
22B
100
AcDbEntity
  8
0
100
AcDbLine
 62
2
  6
CONTINUOUS
 10
437.8523179071
 20
401.0124189413
 11
278.6351350096
 21
401.0124189413
  0
LINE
  5
22C
100
AcDbEntity
  8
0
100
AcDbLine
 62
2
  6
CONTINUOUS
 10
331.9427321083
 20
810.2860748559
 11
278.6351350096
 21
810.2860748559
  0
LINE
  5
22D
100
AcDbEntity
  8
0
100
AcDbLine
 62
2
  6
CONTINUOUS
 10
279.1351350096
 20
401.0124189413
 11
279.1351350096
 21
605.6492468986
  0
LINE
  5
22E
100
AcDbEntity
  8
0
100
AcDbLine
 62
2
  6
CONTINUOUS
 10
279.1351350096
 20
810.2860748559
 11
279.1351350096
 21
605.6492468986
  0
INSERT
  5
22F
100
AcDbEntity
  8
0
100
AcDbBlockReference
 62
2
  6
CONTINUOUS
  2
_FILLED
 10
279.1351350096
 20
401.0124189413
 41
3.0
 42
3.0
 43
3.0
 50
270.0
  0
INSERT
  5
230
100
AcDbEntity
  8
0
100
AcDbBlockReference
 62
2
  6
CONTINUOUS
  2
_FILLED
 10
279.1351350096
 20
810.2860748559
 41
3.0
 42
3.0
 43
3.0
 50
90.0
  0
ENDBLK
  5
231
100
AcDbEntity
  8
0
  6
BYBLOCK
 62
0
100
AcDbBlockEnd
  0
ENDSEC
  0
SECTION
  2
ENTITIES
  0
DIMENSION
  5
232
100
AcDbEntity
  8
0
100
AcDbDimension
 62
2
  6
CONTINUOUS
  2
*D0
 10
547.5945611076
 20
270.599926585
 11
587.9807175655
 21
297.9022537864
 70
163
 71
1
 42
257.9
  1
<>
  3
DIMSTYLE_1
100
AcDbDiametricDimension
 15
329.1100747067
 25
133.5709544582
  0
DIMENSION
  5
233
100
AcDbEntity
  8
0
100
AcDbDimension
 62
2
  6
CONTINUOUS
  2
*D1
 10
279.1351350096
 20
810.2860748559
 11
279.1351350096
 21
605.6492468986
 70
160
 71
2
 42
409.2736559146
  3
DIMSTYLE_2
100
AcDbAlignedDimension
 13
438.3523179071
 23
401.0124189413
 14
332.4427321083
 24
810.2860748559
 50
90.0
100
AcDbRotatedDimension
  0
LINE
  5
234
100
AcDbEntity
  8
0
100
AcDbLine
 62
7
  6
CONTINUOUS
 10
561.4282280506
 20
401.0124189413
 11
315.2743294892
 21
401.0124189413
  0
LINE
  5
235
100
AcDbEntity
  8
0
100
AcDbLine
 62
7
  6
CONTINUOUS
 10
563.3523179071
 20
402.9124189413
 11
313.3523179071
 21
402.9124189413
  0
LINE
  5
236
100
AcDbEntity
  8
02___PRT_ALL_AXES
100
AcDbLine
 62
3
  6
CONTINUOUS
 10
311.7023179071
 20
806.8036011096
 11
311.7023179071
 21
794.3150252368
  0
LINE
  5
237
100
AcDbEntity
  8
02___PRT_ALL_AXES
100
AcDbLine
 62
3
  6
CONTINUOUS
 10
311.7023179071
 20
791.2668126458
 11
311.7023179071
 21
781.9909189413
  0
LINE
  5
238
100
AcDbEntity
  8
02___PRT_ALL_AXES
100
AcDbLine
 62
7
  6
CONTINUOUS
 10
313.3523179071
 20
779.2909189413
 11
313.3523179071
 21
402.9124189413
  0
LINE
  5
239
100
AcDbEntity
  8
03___PRT_ALL_CURVES
100
AcDbLine
 62
2
  6
CONTINUOUS
 10
434.7045968715
 20
752.4701997032
 11
433.9136125145
 21
750.1292160022
  0
LINE
  5
23A
100
AcDbEntity
  8
03___PRT_ALL_CURVES
100
AcDbLine
 62
2
  6
CONTINUOUS
 10
434.1434272017
 20
748.8709049403
 11
434.9307662689
 21
751.1992416999
  0
LINE
  5
23B
100
AcDbEntity
  8
03___PRT_ALL_CURVES
100
AcDbLine
 62
2
  6
CONTINUOUS
 10
429.6670943756
 20
751.4374586519
 11
429.1969077628
 21
750.2383599036
  0
LINE
  5
23C
100
AcDbEntity
  8
03___PRT_ALL_CURVES
100
AcDbLine
 62
2
  6
CONTINUOUS
 10
429.3038990976
 20
752.4701997032
 11
427.8913368512
 21
748.8709049403
  0
LINE
  5
23D
100
AcDbEntity
  8
03___PRT_ALL_CURVES
100
AcDbLine
 62
2
  6
CONTINUOUS
 10
428.9423442225
 20
749.5906896946
 11
428.659061259
 21
748.8709049403
  0
LINE
  5
23E
100
AcDbEntity
  8
03___PRT_ALL_CURVES
100
AcDbLine
 62
2
  6
CONTINUOUS
 10
453.2088097499
 20
752.4701997032
 11
451.7963217763
 21
748.8709049403
  0
LINE
  5
23F
100
AcDbEntity
  8
03___PRT_ALL_CURVES
100
AcDbLine
 62
2
  6
CONTINUOUS
 10
453.5721985458
 20
751.4375987683
 11
453.1014607037
 21
750.2383599036
  0
LINE
  5
240
100
AcDbEntity
  8
03___PRT_ALL_CURVES
100
AcDbLine
 62
2
  6
CONTINUOUS
 10
452.5640461841
 20
748.8709049403
 11
452.8473291476
 21
749.5906896946
  0
LINE
  5
241
100
AcDbEntity
  8
03___PRT_ALL_CURVES
100
AcDbLine
 62
2
  6
CONTINUOUS
 10
418.352188106
 20
748.4694711206
 11
418.352188106
 21
753.2696311394
  0
LINE
  5
242
100
AcDbEntity
  8
03___PRT_ALL_CURVES
100
AcDbLine
 62
2
  6
CONTINUOUS
 10
418.7522983808
 20
748.469490279
 11
418.7522983808
 21
753.2696502979
  0
LINE
  5
243
100
AcDbEntity
  8
03___PRT_ALL_CURVES
100
AcDbLine
 62
2
  6
CONTINUOUS
 10
422.000378892
 20
752.4701997032
 11
422.000378892
 21
751.818005133
  0
LINE
  5
244
100
AcDbEntity
  8
03___PRT_ALL_CURVES
100
AcDbLine
 62
2
  6
CONTINUOUS
 10
422.8442807057
 20
751.818005133
 11
422.8442807057
 21
748.8709049403
  0
LINE
  5
245
100
AcDbEntity
  8
03___PRT_ALL_CURVES
100
AcDbLine
 62
2
  6
CONTINUOUS
 10
423.6306068521
 20
751.818005133
 11
423.6306068521
 21
748.8709049403
  0
LINE
  5
246
100
AcDbEntity
  8
03___PRT_ALL_CURVES
100
AcDbLine
 62
2
  6
CONTINUOUS
 10
432.5174542688
 20
748.8709049403
 11
432.8967170745
 21
751.1975074626
  0
LINE
  5
247
100
AcDbEntity
  8
03___PRT_ALL_CURVES
100
AcDbLine
 62
2
  6
CONTINUOUS
 10
432.3368373347
 20
752.4701997032
 11
431.7473892925
 21
748.8709049403
  0
LINE
  5
248
100
AcDbEntity
  8
03___PRT_ALL_CURVES
100
AcDbLine
 62
2
  6
CONTINUOUS
 10
424.4745086658
 20
752.4701997032
 11
424.4745086658
 21
751.818005133
  0
LINE
  5
249
100
AcDbEntity
  8
03___PRT_ALL_CURVES
100
AcDbLine
 62
2
  6
CONTINUOUS
 10
424.9750194332
 20
748.8709049403
 11
424.9750194332
 21
752.4701997032
  0
LINE
  5
24A
100
AcDbEntity
  8
03___PRT_ALL_CURVES
100
AcDbLine
 62
2
  6
CONTINUOUS
 10
425.7613455797
 20
750.2390701044
 11
425.7613455797
 21
748.8709049403
  0
LINE
  5
24B
100
AcDbEntity
  8
03___PRT_ALL_CURVES
100
AcDbLine
 62
2
  6
CONTINUOUS
 10
425.7613455797
 20
750.8676209965
 11
425.7613455797
 21
751.818005133
  0
LINE
  5
24C
100
AcDbEntity
  8
03___PRT_ALL_CURVES
100
AcDbLine
 62
2
  6
CONTINUOUS
 10
440.183894433
 20
752.4701997032
 11
440.183894433
 21
748.8709049403
  0
LINE
  5
24D
100
AcDbEntity
  8
03___PRT_ALL_CURVES
100
AcDbLine
 62
2
  6
CONTINUOUS
 10
440.9702205795
 20
748.8709049403
 11
440.9702205795
 21
751.2609876798
  0
LINE
  5
24E
100
AcDbEntity
  8
03___PRT_ALL_CURVES
100
AcDbLine
 62
2
  6
CONTINUOUS
 10
442.5740046428
 20
752.4701997032
 11
442.5740046428
 21
750.0801169637
  0
LINE
  5
24F
100
AcDbEntity
  8
03___PRT_ALL_CURVES
100
AcDbLine
 62
2
  6
CONTINUOUS
 10
443.3603307892
 20
748.8709049403
 11
443.3603307892
 21
752.4701997032
  0
LINE
  5
250
100
AcDbEntity
  8
03___PRT_ALL_CURVES
100
AcDbLine
 62
2
  6
CONTINUOUS
 10
443.8606121766
 20
752.4701997032
 11
443.8606121766
 21
751.818005133
  0
LINE
  5
251
100
AcDbEntity
  8
03___PRT_ALL_CURVES
100
AcDbLine
 62
2
  6
CONTINUOUS
 10
444.7045139902
 20
751.818005133
 11
444.7045139902
 21
748.8709049403
  0
LINE
  5
252
100
AcDbEntity
  8
03___PRT_ALL_CURVES
100
AcDbLine
 62
2
  6
CONTINUOUS
 10
445.4908401367
 20
748.8709049403
 11
445.4908401367
 21
751.818005133
  0
LINE
  5
253
100
AcDbEntity
  8
03___PRT_ALL_CURVES
100
AcDbLine
 62
2
  6
CONTINUOUS
 10
446.3347419503
 20
751.818005133
 11
446.3347419503
 21
752.4701997032
  0
LINE
  5
254
100
AcDbEntity
  8
03___PRT_ALL_CURVES
100
AcDbLine
 62
2
  6
CONTINUOUS
 10
446.8359256651
 20
752.4701997032
 11
446.8359256651
 21
748.8709049403
  0
LINE
  5
255
100
AcDbEntity
  8
03___PRT_ALL_CURVES
100
AcDbLine
 62
2
  6
CONTINUOUS
 10
447.6222518116
 20
748.8709049403
 11
447.6222518116
 21
752.4701997032
  0
LINE
  5
256
100
AcDbEntity
  8
03___PRT_ALL_CURVES
100
AcDbLine
 62
2
  6
CONTINUOUS
 10
448.2217156117
 20
752.4701997032
 11
448.2217156117
 21
748.8709049403
  0
LINE
  5
257
100
AcDbEntity
  8
03___PRT_ALL_CURVES
100
AcDbLine
 62
2
  6
CONTINUOUS
 10
449.0080417582
 20
748.8709049403
 11
449.0080417582
 21
751.2609876798
  0
LINE
  5
258
100
AcDbEntity
  8
03___PRT_ALL_CURVES
100
AcDbLine
 62
2
  6
CONTINUOUS
 10
450.6118258215
 20
752.4701997032
 11
450.6118258215
 21
750.0801169637
  0
LINE
  5
259
100
AcDbEntity
  8
03___PRT_ALL_CURVES
100
AcDbLine
 62
2
  6
CONTINUOUS
 10
451.3981519679
 20
748.8709049403
 11
451.3981519679
 21
752.4701997032
  0
LINE
  5
25A
100
AcDbEntity
  8
03___PRT_ALL_CURVES
100
AcDbLine
 62
2
  6
CONTINUOUS
 10
457.9523374335
 20
753.2696502977
 11
457.9523374335
 21
748.4694902789
  0
LINE
  5
25B
100
AcDbEntity
  8
03___PRT_ALL_CURVES
100
AcDbLine
 62
2
  6
CONTINUOUS
 10
458.3524477082
 20
753.2696311394
 11
458.3524477082
 21
748.4694711206
  0
LINE
  5
25C
100
AcDbEntity
  8
03___PRT_ALL_CURVES
100
AcDbLine
 62
2
  6
CONTINUOUS
 10
436.0801893826
 20
748.8709049403
 11
435.4909230179
 21
752.4701997032
  0
LINE
  5
25D
100
AcDbEntity
  8
03___PRT_ALL_CURVES
100
AcDbLine
 62
2
  6
CONTINUOUS
 10
434.9307662689
 20
751.1992416999
 11
435.3101244063
 21
748.8709049403
  0
LINE
  5
25E
100
AcDbEntity
  8
03___PRT_ALL_CURVES
100
AcDbLine
 62
2
  6
CONTINUOUS
 10
429.6670943756
 20
751.4374586519
 11
430.138383447
 21
750.2383599036
  0
LINE
  5
25F
100
AcDbEntity
  8
03___PRT_ALL_CURVES
100
AcDbLine
 62
2
  6
CONTINUOUS
 10
430.3926311643
 20
749.5906896946
 11
430.6753671983
 21
748.8709049403
  0
LINE
  5
260
100
AcDbEntity
  8
03___PRT_ALL_CURVES
100
AcDbLine
 62
2
  6
CONTINUOUS
 10
430.0306773279
 20
752.4701997032
 11
431.4430916061
 21
748.8709049403
  0
LINE
  5
261
100
AcDbEntity
  8
03___PRT_ALL_CURVES
100
AcDbLine
 62
2
  6
CONTINUOUS
 10
432.8967170745
 20
751.1975074626
 11
433.6845432364
 21
748.8709049403
  0
LINE
  5
262
100
AcDbEntity
  8
03___PRT_ALL_CURVES
100
AcDbLine
 62
2
  6
CONTINUOUS
 10
433.9136125145
 20
750.1292160022
 11
433.1231634812
 21
752.4701997032
  0
LINE
  5
263
100
AcDbEntity
  8
03___PRT_ALL_CURVES
100
AcDbLine
 62
2
  6
CONTINUOUS
 10
426.7188054885
 20
748.8709049403
 11
425.7613455797
 21
750.2390701044
  0
LINE
  5
264
100
AcDbEntity
  8
03___PRT_ALL_CURVES
100
AcDbLine
 62
2
  6
CONTINUOUS
 10
426.5279232117
 20
750.3912217992
 11
427.5918046449
 21
748.8709049403
  0
LINE
  5
265
100
AcDbEntity
  8
03___PRT_ALL_CURVES
100
AcDbLine
 62
2
  6
CONTINUOUS
 10
454.2976160894
 20
749.5906896946
 11
454.5803521234
 21
748.8709049403
  0
LINE
  5
266
100
AcDbEntity
  8
03___PRT_ALL_CURVES
100
AcDbLine
 62
2
  6
CONTINUOUS
 10
453.5721985458
 20
751.4375987683
 11
454.0429363879
 21
750.2383599036
  0
LINE
  5
267
100
AcDbEntity
  8
03___PRT_ALL_CURVES
100
AcDbLine
 62
2
  6
CONTINUOUS
 10
455.3480765312
 20
748.8709049403
 11
453.9355879801
 21
752.4701997032
  0
LINE
  5
268
100
AcDbEntity
  8
03___PRT_ALL_CURVES
100
AcDbLine
 62
2
  6
CONTINUOUS
 10
440.9702205795
 20
751.2609876798
 11
442.5740046428
 21
748.8709049403
  0
LINE
  5
269
100
AcDbEntity
  8
03___PRT_ALL_CURVES
100
AcDbLine
 62
2
  6
CONTINUOUS
 10
442.5740046428
 20
750.0801169637
 11
440.9702205795
 21
752.4701997032
  0
LINE
  5
26A
100
AcDbEntity
  8
03___PRT_ALL_CURVES
100
AcDbLine
 62
2
  6
CONTINUOUS
 10
449.0080417582
 20
751.2609876798
 11
450.6118258215
 21
748.8709049403
  0
LINE
  5
26B
100
AcDbEntity
  8
03___PRT_ALL_CURVES
100
AcDbLine
 62
2
  6
CONTINUOUS
 10
450.6118258215
 20
750.0801169637
 11
449.0080417582
 21
752.4701997032
  0
LINE
  5
26C
100
AcDbEntity
  8
02___PRT_ALL_AXES
100
AcDbLine
 62
7
  6
CONTINUOUS
 10
563.3523179071
 20
779.2909189413
 11
563.3523179071
 21
402.9124189413
  0
LINE
  5
26D
100
AcDbEntity
  8
02___PRT_ALL_AXES
100
AcDbLine
 62
3
  6
CONTINUOUS
 10
565.0023179071
 20
806.8036011096
 11
565.0023179071
 21
794.3150252368
  0
LINE
  5
26E
100
AcDbEntity
  8
02___PRT_ALL_AXES
100
AcDbLine
 62
3
  6
CONTINUOUS
 10
565.0023179071
 20
791.2668126458
 11
565.0023179071
 21
781.9909189413
  0
LINE
  5
26F
100
AcDbEntity
  8
03___PRT_ALL_CURVES
100
AcDbLine
 62
2
  6
CONTINUOUS
 10
456.7526599062
 20
746.8696833186
 11
419.951975273
 21
746.8696833186
  0
LINE
  5
270
100
AcDbEntity
  8
03___PRT_ALL_CURVES
100
AcDbLine
 62
2
  6
CONTINUOUS
 10
456.7526599062
 20
747.2696077243
 11
419.951975273
 21
747.2696077243
  0
LINE
  5
271
100
AcDbEntity
  8
03___PRT_ALL_CURVES
100
AcDbLine
 62
2
  6
CONTINUOUS
 10
431.4430916061
 20
748.8709049403
 11
430.6753672263
 21
748.8709049403
  0
LINE
  5
272
100
AcDbEntity
  8
03___PRT_ALL_CURVES
100
AcDbLine
 62
2
  6
CONTINUOUS
 10
428.659061259
 20
748.8709049403
 11
427.8913368438
 21
748.8709049403
  0
LINE
  5
273
100
AcDbEntity
  8
03___PRT_ALL_CURVES
100
AcDbLine
 62
2
  6
CONTINUOUS
 10
427.5918046449
 20
748.8709049403
 11
426.7188054628
 21
748.8709049403
  0
LINE
  5
274
100
AcDbEntity
  8
03___PRT_ALL_CURVES
100
AcDbLine
 62
2
  6
CONTINUOUS
 10
425.7613455797
 20
748.8709049403
 11
424.9750194435
 21
748.8709049403
  0
LINE
  5
275
100
AcDbEntity
  8
03___PRT_ALL_CURVES
100
AcDbLine
 62
2
  6
CONTINUOUS
 10
423.6306068521
 20
748.8709049403
 11
422.8442806834
 21
748.8709049403
  0
LINE
  5
276
100
AcDbEntity
  8
03___PRT_ALL_CURVES
100
AcDbLine
 62
2
  6
CONTINUOUS
 10
431.7473892925
 20
748.8709049403
 11
432.5174542522
 21
748.8709049403
  0
LINE
  5
277
100
AcDbEntity
  8
03___PRT_ALL_CURVES
100
AcDbLine
 62
2
  6
CONTINUOUS
 10
433.6845432364
 20
748.8709049403
 11
434.1434271931
 21
748.8709049403
  0
LINE
  5
278
100
AcDbEntity
  8
03___PRT_ALL_CURVES
100
AcDbLine
 62
2
  6
CONTINUOUS
 10
435.3101244063
 20
748.8709049403
 11
436.080189407
 21
748.8709049403
  0
LINE
  5
279
100
AcDbEntity
  8
03___PRT_ALL_CURVES
100
AcDbLine
 62
2
  6
CONTINUOUS
 10
440.183894433
 20
748.8709049403
 11
440.9702205947
 21
748.8709049403
  0
LINE
  5
27A
100
AcDbEntity
  8
03___PRT_ALL_CURVES
100
AcDbLine
 62
2
  6
CONTINUOUS
 10
442.5740046428
 20
748.8709049403
 11
443.3603308172
 21
748.8709049403
  0
LINE
  5
27B
100
AcDbEntity
  8
03___PRT_ALL_CURVES
100
AcDbLine
 62
2
  6
CONTINUOUS
 10
444.7045139902
 20
748.8709049403
 11
445.4908401378
 21
748.8709049403
  0
LINE
  5
27C
100
AcDbEntity
  8
03___PRT_ALL_CURVES
100
AcDbLine
 62
2
  6
CONTINUOUS
 10
446.8359256651
 20
748.8709049403
 11
447.6222517843
 21
748.8709049403
  0
LINE
  5
27D
100
AcDbEntity
  8
03___PRT_ALL_CURVES
100
AcDbLine
 62
2
  6
CONTINUOUS
 10
448.2217156117
 20
748.8709049403
 11
449.0080417391
 21
748.8709049403
  0
LINE
  5
27E
100
AcDbEntity
  8
03___PRT_ALL_CURVES
100
AcDbLine
 62
2
  6
CONTINUOUS
 10
450.6118258215
 20
748.8709049403
 11
451.3981519707
 21
748.8709049403
  0
LINE
  5
27F
100
AcDbEntity
  8
03___PRT_ALL_CURVES
100
AcDbLine
 62
2
  6
CONTINUOUS
 10
451.7963217763
 20
748.8709049403
 11
452.5640461639
 21
748.8709049403
  0
LINE
  5
280
100
AcDbEntity
  8
03___PRT_ALL_CURVES
100
AcDbLine
 62
2
  6
CONTINUOUS
 10
454.5803521234
 20
748.8709049403
 11
455.3480765304
 21
748.8709049403
  0
LINE
  5
281
100
AcDbEntity
  8
03___PRT_ALL_CURVES
100
AcDbLine
 62
2
  6
CONTINUOUS
 10
430.3926311643
 20
749.5906896946
 11
428.9423441651
 21
749.5906896946
  0
LINE
  5
282
100
AcDbEntity
  8
03___PRT_ALL_CURVES
100
AcDbLine
 62
2
  6
CONTINUOUS
 10
452.8473291476
 20
749.5906896946
 11
454.297616054
 21
749.5906896946
  0
LINE
  5
283
100
AcDbEntity
  8
03___PRT_ALL_CURVES
100
AcDbLine
 62
2
  6
CONTINUOUS
 10
454.0429363879
 20
750.2383599036
 11
453.101460695
 21
750.2383599036
  0
LINE
  5
284
100
AcDbEntity
  8
03___PRT_ALL_CURVES
100
AcDbLine
 62
2
  6
CONTINUOUS
 10
430.138383447
 20
750.2383599036
 11
429.1969077575
 21
750.2383599036
  0
LINE
  5
285
100
AcDbEntity
  8
03___PRT_ALL_CURVES
100
AcDbLine
 62
2
  6
CONTINUOUS
 10
426.0643513114
 20
750.8676209965
 11
425.7613455937
 21
750.8676209965
  0
LINE
  5
286
100
AcDbEntity
  8
03___PRT_ALL_CURVES
100
AcDbLine
 62
2
  6
CONTINUOUS
 10
424.4745086658
 20
751.818005133
 11
423.6306068681
 21
751.818005133
  0
LINE
  5
287
100
AcDbEntity
  8
03___PRT_ALL_CURVES
100
AcDbLine
 62
2
  6
CONTINUOUS
 10
422.8442807057
 20
751.818005133
 11
422.0003788697
 21
751.818005133
  0
LINE
  5
288
100
AcDbEntity
  8
03___PRT_ALL_CURVES
100
AcDbLine
 62
2
  6
CONTINUOUS
 10
425.7613455797
 20
751.818005133
 11
426.064350863
 21
751.818005133
  0
LINE
  5
289
100
AcDbEntity
  8
03___PRT_ALL_CURVES
100
AcDbLine
 62
2
  6
CONTINUOUS
 10
443.8606121766
 20
751.818005133
 11
444.7045139948
 21
751.818005133
  0
LINE
  5
28A
100
AcDbEntity
  8
03___PRT_ALL_CURVES
100
AcDbLine
 62
2
  6
CONTINUOUS
 10
445.4908401367
 20
751.818005133
 11
446.3347419566
 21
751.818005133
  0
LINE
  5
28B
100
AcDbEntity
  8
03___PRT_ALL_CURVES
100
AcDbLine
 62
2
  6
CONTINUOUS
 10
453.9355879801
 20
752.4701997032
 11
453.208809721
 21
752.4701997032
  0
LINE
  5
28C
100
AcDbEntity
  8
03___PRT_ALL_CURVES
100
AcDbLine
 62
2
  6
CONTINUOUS
 10
451.3981519679
 20
752.4701997032
 11
450.6118258186
 21
752.4701997032
  0
LINE
  5
28D
100
AcDbEntity
  8
03___PRT_ALL_CURVES
100
AcDbLine
 62
2
  6
CONTINUOUS
 10
449.0080417582
 20
752.4701997032
 11
448.2217156307
 21
752.4701997032
  0
LINE
  5
28E
100
AcDbEntity
  8
03___PRT_ALL_CURVES
100
AcDbLine
 62
2
  6
CONTINUOUS
 10
447.6222518116
 20
752.4701997032
 11
446.8359256924
 21
752.4701997032
  0
LINE
  5
28F
100
AcDbEntity
  8
03___PRT_ALL_CURVES
100
AcDbLine
 62
2
  6
CONTINUOUS
 10
446.3347419503
 20
752.4701997032
 11
443.8606121646
 21
752.4701997032
  0
LINE
  5
290
100
AcDbEntity
  8
03___PRT_ALL_CURVES
100
AcDbLine
 62
2
  6
CONTINUOUS
 10
443.3603307892
 20
752.4701997032
 11
442.5740046148
 21
752.4701997032
  0
LINE
  5
291
100
AcDbEntity
  8
03___PRT_ALL_CURVES
100
AcDbLine
 62
2
  6
CONTINUOUS
 10
440.9702205795
 20
752.4701997032
 11
440.1838944178
 21
752.4701997032
  0
LINE
  5
292
100
AcDbEntity
  8
03___PRT_ALL_CURVES
100
AcDbLine
 62
2
  6
CONTINUOUS
 10
435.4909230179
 20
752.4701997032
 11
434.7045968631
 21
752.4701997032
  0
LINE
  5
293
100
AcDbEntity
  8
03___PRT_ALL_CURVES
100
AcDbLine
 62
2
  6
CONTINUOUS
 10
433.1231634812
 20
752.4701997032
 11
432.3368373567
 21
752.4701997032
  0
LINE
  5
294
100
AcDbEntity
  8
03___PRT_ALL_CURVES
100
AcDbLine
 62
2
  6
CONTINUOUS
 10
430.0306773279
 20
752.4701997032
 11
429.3038991237
 21
752.4701997032
  0
LINE
  5
295
100
AcDbEntity
  8
03___PRT_ALL_CURVES
100
AcDbLine
 62
2
  6
CONTINUOUS
 10
424.4745086658
 20
752.4701997032
 11
422.0003788634
 21
752.4701997032
  0
LINE
  5
296
100
AcDbEntity
  8
03___PRT_ALL_CURVES
100
AcDbLine
 62
2
  6
CONTINUOUS
 10
424.9750194332
 20
752.4701997032
 11
426.3206665357
 21
752.4701997032
  0
LINE
  5
297
100
AcDbEntity
  8
03___PRT_ALL_CURVES
100
AcDbLine
 62
2
  6
CONTINUOUS
 10
419.9519759081
 20
754.4695328525
 11
456.7526605413
 21
754.4695328525
  0
LINE
  5
298
100
AcDbEntity
  8
03___PRT_ALL_CURVES
100
AcDbLine
 62
2
  6
CONTINUOUS
 10
419.951975908
 20
754.8694189413
 11
456.7526605413
 21
754.8694189413
  0
LINE
  5
299
100
AcDbEntity
  8
0
100
AcDbLine
 62
7
  6
CONTINUOUS
 10
310.7523179071
 20
779.2909189413
 11
565.9523179071
 21
779.2909189413
  0
LINE
  5
29A
100
AcDbEntity
  8
0
100
AcDbLine
 62
7
  6
CONTINUOUS
 10
310.7523179071
 20
781.9909189413
 11
565.9523179071
 21
781.9909189413
  0
LINE
  5
29B
100
AcDbEntity
  8
0
100
AcDbLine
 62
7
  6
CONTINUOUS
 10
332.4523179071
 20
810.286125906
 11
332.4427321083
 21
810.2860748559
  0
LINE
  5
29C
100
AcDbEntity
  8
0
100
AcDbLine
 62
3
  6
CONTINUOUS
 10
311.7023179071
 20
806.8036011096
 11
565.0023179071
 21
806.8036011096
  0
LINE
  5
29D
100
AcDbEntity
  8
0
100
AcDbLine
 62
3
  6
CONTINUOUS
 10
312.38131199
 20
807.6760438783
 11
564.3233238243
 21
807.6760438783
  0
LINE
  5
29E
100
AcDbEntity
  8
0
100
AcDbLine
 62
3
  6
CONTINUOUS
 10
332.4427321083
 20
810.2860748559
 11
544.2619037059
 21
810.2860748559
  0
LINE
  5
29F
100
AcDbEntity
  8
0
100
AcDbLine
 62
7
  6
CONTINUOUS
 10
544.2523179071
 20
810.286125906
 11
544.2619037059
 21
810.2860748559
  0
LINE
  5
2A0
100
AcDbEntity
  8
02___PRT_ALL_AXES
100
AcDbLine
 62
7
  6
CONTINUOUS
 10
543.3368160758
 20
200.5854405216
 11
541.3413947855
 21
200.5854405216
  0
LINE
  5
2A1
100
AcDbEntity
  8
02___PRT_ALL_AXES
100
AcDbLine
 62
7
  6
CONTINUOUS
 10
335.3632410313
 20
200.5854405216
 11
333.3678197384
 21
200.5854405216
  0
LINE
  5
2A2
100
AcDbEntity
  8
0
100
AcDbLine
 62
7
  6
CONTINUOUS
 10
567.3023179071
 20
202.0854405216
 11
565.084554634
 21
202.0854405216
  0
LINE
  5
2A3
100
AcDbEntity
  8
0
100
AcDbLine
 62
3
  6
CONTINUOUS
 10
311.6854474156
 20
202.0854405216
 11
311.6200811802
 21
202.0854405216
  0
LINE
  5
2A4
100
AcDbEntity
  8
0
100
AcDbLine
 62
7
  6
CONTINUOUS
 10
309.4023179071
 20
202.0854405216
 11
311.6200811802
 21
202.0854405216
  0
LINE
  5
2A5
100
AcDbEntity
  8
0
100
AcDbLine
 62
3
  6
CONTINUOUS
 10
565.0191883987
 20
202.0854405216
 11
565.084554634
 21
202.0854405216
  0
LINE
  5
2A6
100
AcDbEntity
  8
02___PRT_ALL_AXES
100
AcDbLine
 62
7
  6
CONTINUOUS
 10
543.3368160758
 20
203.5854405216
 11
541.3413944996
 21
203.5854405216
  0
LINE
  5
2A7
100
AcDbEntity
  8
02___PRT_ALL_AXES
100
AcDbLine
 62
7
  6
CONTINUOUS
 10
335.3632413159
 20
203.5854405216
 11
333.3678197384
 21
203.5854405216
  0
ARC
  5
2A8
100
AcDbEntity
  8
02___PRT_ALL_AXES
100
AcDbCircle
 62
3
  6
CONTINUOUS
 10
184.1968722554
 20
792.7909189413
 40
127.514554349
100
AcDbArc
 50
359.3151610179
 51
0.6848389821
  0
ARC
  5
2A9
100
AcDbEntity
  8
02___PRT_ALL_AXES
100
AcDbCircle
 62
3
  6
CONTINUOUS
 10
692.5077635588
 20
792.7909189413
 40
127.514554349
100
AcDbArc
 50
179.3151610179
 51
180.6848389821
  0
ARC
  5
2AA
100
AcDbEntity
  8
0
100
AcDbCircle
 62
3
  6
CONTINUOUS
 10
333.3523179071
 20
724.8909189413
 40
85.4
100
AcDbArc
 50
90.6102624446
 51
104.2150562986
  0
ARC
  5
2AB
100
AcDbEntity
  8
02___PRT_ALL_AXES
100
AcDbCircle
 62
3
  6
CONTINUOUS
 10
333.3523179071
 20
724.8909189413
 40
85.4
100
AcDbArc
 50
90.6102624446
 51
104.2150562986
  0
ARC
  5
2AC
100
AcDbEntity
  8
02___PRT_ALL_AXES
100
AcDbCircle
 62
3
  6
CONTINUOUS
 10
543.3523179071
 20
724.8909189413
 40
85.4
100
AcDbArc
 50
75.7849437014
 51
89.3897375554
  0
ARC
  5
2AD
100
AcDbEntity
  8
0
100
AcDbCircle
 62
7
  6
CONTINUOUS
 10
315.2523179071
 20
402.9124189413
 40
1.9
100
AcDbArc
 50
180.0
 51
270.0
  0
ARC
  5
2AE
100
AcDbEntity
  8
0
100
AcDbCircle
 62
7
  6
CONTINUOUS
 10
561.4523179071
 20
402.9124189413
 40
1.9
100
AcDbArc
 50
270.0
 51
360.0
  0
ARC
  5
2AF
100
AcDbEntity
  8
03___PRT_ALL_CURVES
100
AcDbCircle
 62
2
  6
CONTINUOUS
 10
419.951975908
 20
753.2696311394
 40
1.599787802
100
AcDbArc
 50
90.0
 51
180.0
  0
ARC
  5
2B0
100
AcDbEntity
  8
03___PRT_ALL_CURVES
100
AcDbCircle
 62
2
  6
CONTINUOUS
 10
456.7526599062
 20
748.4694711206
 40
1.599787802
100
AcDbArc
 50
270.0
 51
360.0
  0
ARC
  5
2B1
100
AcDbEntity
  8
03___PRT_ALL_CURVES
100
AcDbCircle
 62
2
  6
CONTINUOUS
 10
419.951975908
 20
748.4694711206
 40
1.599787802
100
AcDbArc
 50
180.0
 51
270.0
  0
ARC
  5
2B2
100
AcDbEntity
  8
0
100
AcDbCircle
 62
7
  6
CONTINUOUS
 10
565.9523179071
 20
780.6409189413
 40
1.35
100
AcDbArc
 50
270.0
 51
90.0
  0
ARC
  5
2B3
100
AcDbEntity
  8
0
100
AcDbCircle
 62
7
  6
CONTINUOUS
 10
310.7523179071
 20
780.6409189413
 40
1.35
100
AcDbArc
 50
90.0
 51
270.0
  0
ARC
  5
2B4
100
AcDbEntity
  8
03___PRT_ALL_CURVES
100
AcDbCircle
 62
2
  6
CONTINUOUS
 10
426.3202202955
 20
751.4203353879
 40
1.0498644102
100
AcDbArc
 50
281.4105507001
 51
89.9756484538
  0
ARC
  5
2B5
100
AcDbEntity
  8
0
100
AcDbCircle
 62
7
  6
CONTINUOUS
 10
312.6023179071
 20
806.8036011096
 40
0.9
100
AcDbArc
 50
104.2150562986
 51
180.0
  0
ARC
  5
2B6
100
AcDbEntity
  8
0
100
AcDbCircle
 62
7
  6
CONTINUOUS
 10
564.1023179071
 20
806.8036011096
 40
0.9
100
AcDbArc
 50
0.0
 51
75.7849437014
  0
ARC
  5
2B7
100
AcDbEntity
  8
03___PRT_ALL_CURVES
100
AcDbCircle
 62
2
  6
CONTINUOUS
 10
425.9324050836
 20
751.342978845
 40
0.6771582773
100
AcDbArc
 50
359.966412893
 51
13.3320254934
  0
ARC
  5
2B8
100
AcDbEntity
  8
03___PRT_ALL_CURVES
100
AcDbCircle
 62
2
  6
CONTINUOUS
 10
426.0640638983
 20
751.4918403781
 40
0.6242194477
100
AcDbArc
 50
270.0263810421
 51
304.1952312736
  0
ARC
  5
2B9
100
AcDbEntity
  8
03___PRT_ALL_CURVES
100
AcDbCircle
 62
2
  6
CONTINUOUS
 10
426.1654541965
 20
751.342978845
 40
0.4441092254
100
AcDbArc
 50
304.1693843942
 51
359.9487878678
  0
CIRCLE
  5
2BA
100
AcDbEntity
  8
0
100
AcDbCircle
 62
7
  6
CONTINUOUS
 10
438.3523179071
 20
202.0854405216
 40
128.95
  0
CIRCLE
  5
2BB
100
AcDbEntity
  8
0
100
AcDbCircle
 62
7
  6
CONTINUOUS
 10
438.3523179071
 20
202.0854405216
 40
126.7322367269
  0
CIRCLE
  5
2BC
100
AcDbEntity
  8
0
100
AcDbCircle
 62
3
  6
CONTINUOUS
 10
438.3523179071
 20
202.0854405216
 40
126.65
  0
CIRCLE
  5
2BD
100
AcDbEntity
  8
0
100
AcDbCircle
 62
3
  6
CONTINUOUS
 10
438.3523179071
 20
202.0854405216
 40
125.9710059172
  0
CIRCLE
  5
2BE
100
AcDbEntity
  8
0
100
AcDbCircle
 62
3
  6
CONTINUOUS
 10
438.3523179071
 20
202.0854405216
 40
105.9095857988
  0
CIRCLE
  5
2BF
100
AcDbEntity
  8
0
100
AcDbCircle
 62
3
  6
CONTINUOUS
 10
438.3523179071
 20
202.0854405216
 40
105.0
  0
ARC
  5
2C0
100
AcDbEntity
  8
0
100
AcDbCircle
 62
3
  6
CONTINUOUS
 10
438.3523179071
 20
202.0854405216
 40
104.168374946
100
AcDbArc
 50
0.8278707724
 51
179.1721290329
  0
ARC
  5
2C1
100
AcDbEntity
  8
0
100
AcDbCircle
 62
3
  6
CONTINUOUS
 10
438.3523179071
 20
202.0854405216
 40
104.168374946
100
AcDbArc
 50
180.8278707724
 51
359.1721290329
  0
ARC
  5
2C2
100
AcDbEntity
  8
0
100
AcDbCircle
 62
3
  6
CONTINUOUS
 10
438.3523179071
 20
202.0854405216
 40
103.4001536664
100
AcDbArc
 50
180.8318792133
 51
359.1681209858
  0
ARC
  5
2C3
100
AcDbEntity
  8
0
100
AcDbCircle
 62
3
  6
CONTINUOUS
 10
438.3523179071
 20
202.0854405216
 40
103.4001536664
100
AcDbArc
 50
0.8318792133
 51
179.1681209858
  0
ARC
  5
2C4
100
AcDbEntity
  8
0
100
AcDbCircle
 62
3
  6
CONTINUOUS
 10
438.3523179071
 20
202.0854405216
 40
103.1197848671
100
AcDbArc
 50
180.8341435072
 51
359.1658560851
  0
ARC
  5
2C5
100
AcDbEntity
  8
0
100
AcDbCircle
 62
3
  6
CONTINUOUS
 10
438.3523179071
 20
202.0854405216
 40
103.1197848671
100
AcDbArc
 50
0.8341435072
 51
179.1658560851
  0
CIRCLE
  5
2C6
100
AcDbEntity
  8
0
100
AcDbCircle
 62
3
  6
CONTINUOUS
 10
438.3523179071
 20
202.0854405216
 40
103.0
  0
CIRCLE
  5
2C7
100
AcDbEntity
  8
0
100
AcDbCircle
 62
3
  6
CONTINUOUS
 10
438.3523179071
 20
202.0854405216
 40
101.8
  0
CIRCLE
  5
2C8
100
AcDbEntity
  8
0
100
AcDbCircle
 62
3
  6
CONTINUOUS
 10
438.3523179071
 20
202.0854405216
 40
96.2870707832
  0
CIRCLE
  5
2C9
100
AcDbEntity
  8
0
100
AcDbCircle
 62
3
  6
CONTINUOUS
 10
438.3523179071
 20
202.0854405216
 40
95.7447301873
  0
SPLINE
  5
2CA
100
AcDbEntity
  8
03___PRT_ALL_CURVES
100
AcDbSpline
 62
2
  6
CONTINUOUS
 70
0
 71
3
 72
17
 73
13
 74
0
 42
0.0000001
 43
0.0000001
 44
0.0000000001
 40
0.0
 40
0.0
 40
0.0
 40
0.0
 40
0.1
 40
0.2
 40
0.3
 40
0.4
 40
0.5
 40
0.6
 40
0.7
 40
0.8
 40
0.9
 40
1.0
 40
1.0
 40
1.0
 40
1.0
 10
419.951975908
 20
747.2696077243
 30
0.0
 10
419.88966782
 20
747.2696077243
 30
0.0
 10
419.7666657683
 20
747.2807742576
 30
0.0
 10
419.5856936551
 20
747.3250153567
 30
0.0
 10
419.4120932058
 20
747.3952027937
 30
0.0
 10
419.2498148148
 20
747.4914655099
 30
0.0
 10
419.1042186219
 20
747.612754634
 30
0.0
 10
418.9807176594
 20
747.757759961
 30
0.0
 10
418.8820343479
 20
747.9210037825
 30
0.0
 10
418.8099049302
 20
748.0960052464
 30
0.0
 10
418.7639327919
 20
748.2803408288
 30
0.0
 10
418.7522983808
 20
748.4058049483
 30
0.0
 10
418.7522983808
 20
748.469490279
 30
0.0
  0
SPLINE
  5
2CB
100
AcDbEntity
  8
03___PRT_ALL_CURVES
100
AcDbSpline
 62
2
  6
CONTINUOUS
 70
0
 71
3
 72
14
 73
10
 74
0
 42
0.0000001
 43
0.0000001
 44
0.0000000001
 40
0.0
 40
0.0
 40
0.0
 40
0.0
 40
0.1428571429
 40
0.2857142857
 40
0.4285714286
 40
0.5714285714
 40
0.7142857143
 40
0.8571428571
 40
1.0
 40
1.0
 40
1.0
 40
1.0
 10
419.9516828784
 20
747.2696077243
 30
0.0
 10
419.8638620186
 20
747.2696203906
 30
0.0
 10
419.6908815551
 20
747.2912567645
 30
0.0
 10
419.4331018612
 20
747.3791259879
 30
0.0
 10
419.1957623716
 20
747.5242408025
 30
0.0
 10
419.0013468665
 20
747.7204079506
 30
0.0
 10
418.8589442108
 20
747.9571883927
 30
0.0
 10
418.7732362591
 20
748.2125480238
 30
0.0
 10
418.7522983808
 20
748.383115093
 30
0.0
 10
418.7522983808
 20
748.469490279
 30
0.0
  0
SPLINE
  5
2CC
100
AcDbEntity
  8
03___PRT_ALL_CURVES
100
AcDbSpline
 62
2
  6
CONTINUOUS
 70
0
 71
3
 72
21
 73
17
 74
0
 42
0.0000001
 43
0.0000001
 44
0.0000000001
 40
0.0
 40
0.0
 40
0.0
 40
0.0
 40
0.0714285714
 40
0.1428571429
 40
0.2142857143
 40
0.2857142857
 40
0.3571428571
 40
0.4285714286
 40
0.5
 40
0.5714285714
 40
0.6428571429
 40
0.7142857143
 40
0.7857142857
 40
0.8571428571
 40
0.9285714286
 40
1.0
 40
1.0
 40
1.0
 40
1.0
 10
457.9523374335
 20
748.4694902788
 30
0.0
 10
457.9523316187
 20
748.4291790257
 30
0.0
 10
457.9477656879
 20
748.3489088407
 30
0.0
 10
457.927433764
 20
748.2239764224
 30
0.0
 10
457.8924135674
 20
748.095431961
 30
0.0
 10
457.8425312578
 20
747.9680667494
 30
0.0
 10
457.7778521789
 20
747.8448202647
 30
0.0
 10
457.6996118143
 20
747.7290254612
 30
0.0
 10
457.6052844894
 20
747.6207450998
 30
0.0
 10
457.4974057541
 20
747.5258753371
 30
0.0
 10
457.3818450393
 20
747.4470386237
 30
0.0
 10
457.258541539
 20
747.3816504032
 30
0.0
 10
457.1308423672
 20
747.3310193951
 30
0.0
 10
457.0015487884
 20
747.2952832719
 30
0.0
 10
456.8752005828
 20
747.2743515717
 30
0.0
 10
456.7936906689
 20
747.2696077243
 30
0.0
 10
456.7526599062
 20
747.2696077243
 30
0.0
  0
SPLINE
  5
2CD
100
AcDbEntity
  8
03___PRT_ALL_CURVES
100
AcDbSpline
 62
2
  6
CONTINUOUS
 70
0
 71
3
 72
17
 73
13
 74
0
 42
0.0000001
 43
0.0000001
 44
0.0000000001
 40
0.0
 40
0.0
 40
0.0
 40
0.0
 40
0.1
 40
0.2
 40
0.3
 40
0.4
 40
0.5
 40
0.6
 40
0.7
 40
0.8
 40
0.9
 40
1.0
 40
1.0
 40
1.0
 40
1.0
 10
457.9523374335
 20
748.469490279
 30
0.0
 10
457.9523374335
 20
748.4067457305
 30
0.0
 10
457.9412501851
 20
748.2831495923
 30
0.0
 10
457.8968905231
 20
748.102143778
 30
0.0
 10
457.8263393866
 20
747.9293230781
 30
0.0
 10
457.7304482632
 20
747.7674875576
 30
0.0
 10
457.6100698454
 20
747.6223134138
 30
0.0
 10
457.4650231288
 20
747.4988852544
 30
0.0
 10
457.3013048245
 20
747.3999252432
 30
0.0
 10
457.1261517337
 20
747.3270276069
 30
0.0
 10
456.9417373978
 20
747.2810422885
 30
0.0
 10
456.8163081033
 20
747.2696077243
 30
0.0
 10
456.7526599062
 20
747.2696077243
 30
0.0
  0
SPLINE
  5
2CE
100
AcDbEntity
  8
03___PRT_ALL_CURVES
100
AcDbSpline
 62
2
  6
CONTINUOUS
 70
0
 71
3
 72
15
 73
11
 74
0
 42
0.0000001
 43
0.0000001
 44
0.0000000001
 40
0.0
 40
0.0
 40
0.0
 40
0.0
 40
0.125
 40
0.25
 40
0.375
 40
0.5
 40
0.625
 40
0.75
 40
0.875
 40
1.0
 40
1.0
 40
1.0
 40
1.0
 10
457.6007655437
 20
754.1183534967
 30
0.0
 10
457.6269299074
 20
754.0921451141
 30
0.0
 10
457.6765595276
 20
754.0370142059
 30
0.0
 10
457.7452711336
 20
753.94404655
 30
0.0
 10
457.8082848649
 20
753.8386753315
 30
0.0
 10
457.8611882254
 20
753.7262815757
 30
0.0
 10
457.9025974343
 20
753.6095180506
 30
0.0
 10
457.9319098086
 20
753.4912135306
 30
0.0
 10
457.9485987801
 20
753.3783082811
 30
0.0
 10
457.9523374335
 20
753.3058136006
 30
0.0
 10
457.9523374335
 20
753.2696502977
 30
0.0
  0
SPLINE
  5
2CF
100
AcDbEntity
  8
03___PRT_ALL_CURVES
100
AcDbSpline
 62
2
  6
CONTINUOUS
 70
0
 71
3
 72
11
 73
7
 74
0
 42
0.0000001
 43
0.0000001
 44
0.0000000001
 40
0.0
 40
0.0
 40
0.0
 40
0.0
 40
0.25
 40
0.5
 40
0.75
 40
1.0
 40
1.0
 40
1.0
 40
1.0
 10
456.7526599063
 20
754.4695328525
 30
0.0
 10
456.8317600838
 20
754.4695328525
 30
0.0
 10
456.9866769379
 20
754.4520515044
 30
0.0
 10
457.2124431917
 20
754.3830478058
 30
0.0
 10
457.4220583892
 20
754.2724500153
 30
0.0
 10
457.5444647015
 20
754.174699731
 30
0.0
 10
457.6007655437
 20
754.1183534967
 30
0.0
  0
SPLINE
  5
2D0
100
AcDbEntity
  8
03___PRT_ALL_CURVES
100
AcDbSpline
 62
2
  6
CONTINUOUS
 70
0
 71
3
 72
31
 73
27
 74
0
 42
0.0000001
 43
0.0000001
 44
0.0000000001
 40
0.0
 40
0.0
 40
0.0
 40
0.0
 40
0.0666666667
 40
0.1333333333
 40
0.2
 40
0.2333333333
 40
0.2666666667
 40
0.3
 40
0.3333333333
 40
0.3666666667
 40
0.4
 40
0.4333333333
 40
0.4666666667
 40
0.5
 40
0.5333333333
 40
0.5666666667
 40
0.6
 40
0.6333333333
 40
0.6666666667
 40
0.7
 40
0.7333333333
 40
0.7666666667
 40
0.8
 40
0.8666666667
 40
0.9333333333
 40
1.0
 40
1.0
 40
1.0
 40
1.0
 10
439.7449633059
 20
749.9536572024
 30
0.0
 10
439.7948151603
 20
750.0750034262
 30
0.0
 10
439.8674779355
 20
750.3226121129
 30
0.0
 10
439.8992506025
 20
750.7177191494
 30
0.0
 10
439.856815081
 20
751.0422305971
 30
0.0
 10
439.7831865536
 20
751.2949239697
 30
0.0
 10
439.7082937257
 20
751.4774731855
 30
0.0
 10
439.6155205406
 20
751.6496788001
 30
0.0
 10
439.5056936725
 20
751.8112520312
 30
0.0
 10
439.3788274874
 20
751.9615727349
 30
0.0
 10
439.2369269942
 20
752.0972824483
 30
0.0
 10
439.0833459289
 20
752.2159822029
 30
0.0
 10
438.9185885417
 20
752.3180276715
 30
0.0
 10
438.7426338207
 20
752.402913532
 30
0.0
 10
438.558711245
 20
752.4683888437
 30
0.0
 10
438.3711258685
 20
752.5137479154
 30
0.0
 10
438.1800368399
 20
752.5394871711
 30
0.0
 10
437.9853918595
 20
752.5449104245
 30
0.0
 10
437.7913960734
 20
752.5292256622
 30
0.0
 10
437.6019576962
 20
752.4936100838
 30
0.0
 10
437.4171923707
 20
752.4385684123
 30
0.0
 10
437.2377756483
 20
752.3637532541
 30
0.0
 10
437.0103794514
 20
752.2390791694
 30
0.0
 10
436.7545254143
 20
752.0423685395
 30
0.0
 10
436.5004344389
 20
751.7431977855
 30
0.0
 10
436.3772270078
 20
751.5166164023
 30
0.0
 10
436.3268121632
 20
751.3950673342
 30
0.0
  0
SPLINE
  5
2D1
100
AcDbEntity
  8
03___PRT_ALL_CURVES
100
AcDbSpline
 62
2
  6
CONTINUOUS
 70
0
 71
3
 72
31
 73
27
 74
0
 42
0.0000001
 43
0.0000001
 44
0.0000000001
 40
0.0
 40
0.0
 40
0.0
 40
0.0
 40
0.0666666667
 40
0.1333333333
 40
0.2
 40
0.2333333333
 40
0.2666666667
 40
0.3
 40
0.3333333333
 40
0.3666666667
 40
0.4
 40
0.4333333333
 40
0.4666666667
 40
0.5
 40
0.5333333333
 40
0.5666666667
 40
0.6
 40
0.6333333333
 40
0.6666666667
 40
0.7
 40
0.7333333333
 40
0.7666666667
 40
0.8
 40
0.8666666667
 40
0.9333333333
 40
1.0
 40
1.0
 40
1.0
 40
1.0
 10
436.3268121632
 20
751.3950673342
 30
0.0
 10
436.276097219
 20
751.2727947326
 30
0.0
 10
436.202293372
 20
751.0234707257
 30
0.0
 10
436.169099346
 20
750.6274196354
 30
0.0
 10
436.2104830745
 20
750.3020132203
 30
0.0
 10
436.2833695644
 20
750.0488361576
 30
0.0
 10
436.3577810985
 20
749.8659244471
 30
0.0
 10
436.4503878339
 20
749.6931023133
 30
0.0
 10
436.5602841407
 20
749.5309176494
 30
0.0
 10
436.6874126131
 20
749.3800030163
 30
0.0
 10
436.8297805378
 20
749.2436529158
 30
0.0
 10
436.9838461897
 20
749.1243840828
 30
0.0
 10
437.1491271263
 20
749.0217982724
 30
0.0
 10
437.3257137434
 20
748.9364446665
 30
0.0
 10
437.5102386249
 20
748.8707671663
 30
0.0
 10
437.6984265924
 20
748.8254482774
 30
0.0
 10
437.8901296392
 20
748.7999680964
 30
0.0
 10
438.0852694175
 20
748.7949806758
 30
0.0
 10
438.2798062921
 20
748.8111756624
 30
0.0
 10
438.4697952558
 20
748.847350969
 30
0.0
 10
438.6550803809
 20
748.9029873867
 30
0.0
 10
438.8352459213
 20
748.9786162116
 30
0.0
 10
439.0633114317
 20
749.1045709381
 30
0.0
 10
439.3191587033
 20
749.3032085931
 30
0.0
 10
439.5725535098
 20
749.6049277809
 30
0.0
 10
439.6949987445
 20
749.8320366344
 30
0.0
 10
439.7449633061
 20
749.9536572029
 30
0.0
  0
SPLINE
  5
2D2
100
AcDbEntity
  8
03___PRT_ALL_CURVES
100
AcDbSpline
 62
2
  6
CONTINUOUS
 70
0
 71
3
 72
25
 73
21
 74
0
 42
0.0000001
 43
0.0000001
 44
0.0000000001
 40
0.0
 40
0.0
 40
0.0
 40
0.0
 40
0.0333333333
 40
0.0666666667
 40
0.1
 40
0.1333333333
 40
0.1666666667
 40
0.2
 40
0.2666666667
 40
0.3333333333
 40
0.4
 40
0.4666666667
 40
0.5333333333
 40
0.6
 40
0.6666666667
 40
0.7333333333
 40
0.8
 40
0.8666666667
 40
0.9333333333
 40
1.0
 40
1.0
 40
1.0
 40
1.0
 10
439.7449633063
 20
749.9536572034
 30
0.0
 10
439.7199533004
 20
749.8927782706
 30
0.0
 10
439.6642431607
 20
749.7753348176
 30
0.0
 10
439.5624511029
 20
749.6075008504
 30
0.0
 10
439.4411624648
 20
749.4478914705
 30
0.0
 10
439.3034976075
 20
749.3024058643
 30
0.0
 10
439.1531716518
 20
749.1744514329
 30
0.0
 10
438.936778742
 20
749.0264908045
 30
0.0
 10
438.64284429
 20
748.88795418
 30
0.0
 10
438.2649232507
 20
748.7988104114
 30
0.0
 10
437.8730782192
 20
748.7908472695
 30
0.0
 10
437.4910112007
 20
748.8661008342
 30
0.0
 10
437.1358249446
 20
749.0175820568
 30
0.0
 10
436.8123275741
 20
749.2445073785
 30
0.0
 10
436.5406840878
 20
749.5394747673
 30
0.0
 10
436.3409924559
 20
749.8782482363
 30
0.0
 10
436.2168508596
 20
750.2466405504
 30
0.0
 10
436.1691325684
 20
750.6345120357
 30
0.0
 10
436.2032364998
 20
751.0269510364
 30
0.0
 10
436.2764052541
 20
751.2733378947
 30
0.0
 10
436.3263939721
 20
751.3940582595
 30
0.0
  0
SPLINE
  5
2D3
100
AcDbEntity
  8
03___PRT_ALL_CURVES
100
AcDbSpline
 62
2
  6
CONTINUOUS
 70
0
 71
3
 72
23
 73
19
 74
0
 42
0.0000001
 43
0.0000001
 44
0.0000000001
 40
0.0
 40
0.0
 40
0.0
 40
0.0
 40
0.0625
 40
0.125
 40
0.1875
 40
0.25
 40
0.3125
 40
0.375
 40
0.4375
 40
0.5
 40
0.5625
 40
0.625
 40
0.6875
 40
0.75
 40
0.8125
 40
0.875
 40
0.9375
 40
1.0
 40
1.0
 40
1.0
 40
1.0
 10
436.3266661557
 20
751.3947152151
 30
0.0
 10
436.3739565015
 20
751.5087959467
 30
0.0
 10
436.4886857963
 20
751.7228603153
 30
0.0
 10
436.7211981947
 20
752.0078764291
 30
0.0
 10
437.0065030967
 20
752.2413900918
 30
0.0
 10
437.3283811445
 20
752.413852725
 30
0.0
 10
437.6831683125
 20
752.5205827747
 30
0.0
 10
438.0516433378
 20
752.554303722
 30
0.0
 10
438.4129560949
 20
752.5138674335
 30
0.0
 10
438.7581990796
 20
752.4056282849
 30
0.0
 10
439.0796939267
 20
752.2289110672
 30
0.0
 10
439.3589654801
 20
751.9944656393
 30
0.0
 10
439.5875901362
 20
751.7095170363
 30
0.0
 10
439.7575064808
 20
751.3865581244
 30
0.0
 10
439.862235014
 20
751.0347138085
 30
0.0
 10
439.8981797566
 20
750.6682968816
 30
0.0
 10
439.8614909196
 20
750.3002465192
 30
0.0
 10
439.7918147219
 20
750.0677021254
 30
0.0
 10
439.7449633058
 20
749.9536572021
 30
0.0
  0
SPLINE
  5
2D4
100
AcDbEntity
  8
03___PRT_ALL_CURVES
100
AcDbSpline
 62
2
  6
CONTINUOUS
 70
0
 71
3
 72
31
 73
27
 74
0
 42
0.0000001
 43
0.0000001
 44
0.0000000001
 40
0.0
 40
0.0
 40
0.0
 40
0.0
 40
0.0384615385
 40
0.0769230769
 40
0.1153846154
 40
0.1538461538
 40
0.1923076923
 40
0.2307692308
 40
0.2692307692
 40
0.3076923077
 40
0.3846153846
 40
0.4615384615
 40
0.5
 40
0.5384615385
 40
0.5769230769
 40
0.6153846154
 40
0.6538461538
 40
0.6923076923
 40
0.7307692308
 40
0.7692307692
 40
0.8076923077
 40
0.8461538462
 40
0.8846153846
 40
0.9230769231
 40
0.9615384615
 40
1.0
 40
1.0
 40
1.0
 40
1.0
 10
438.8199543434
 20
751.4815596908
 30
0.0
 10
438.8518351428
 20
751.4488516487
 30
0.0
 10
438.9105144665
 20
751.3807617493
 30
0.0
 10
438.9867351154
 20
751.2681264533
 30
0.0
 10
439.0504190462
 20
751.1449212913
 30
0.0
 10
439.0990882233
 20
751.0144200921
 30
0.0
 10
439.1319724764
 20
750.8788519901
 30
0.0
 10
439.1487000787
 20
750.7399568031
 30
0.0
 10
439.1486833205
 20
750.5991598565
 30
0.0
 10
439.1260502898
 20
750.4127611333
 30
0.0
 10
439.0578258082
 20
750.190452544
 30
0.0
 10
438.9375291994
 20
749.9894196023
 30
0.0
 10
438.8178194462
 20
749.8521642462
 30
0.0
 10
438.7170384096
 20
749.7612453277
 30
0.0
 10
438.6051242517
 20
749.6825274101
 30
0.0
 10
438.4848937983
 20
749.6184757313
 30
0.0
 10
438.3602629251
 20
749.5707418491
 30
0.0
 10
438.2311000372
 20
749.5383054712
 30
0.0
 10
438.0973941984
 20
749.5214325008
 30
0.0
 10
437.9627814178
 20
749.5213303819
 30
0.0
 10
437.8308848426
 20
749.5375911742
 30
0.0
 10
437.7016684621
 20
749.5695191459
 30
0.0
 10
437.5756027293
 20
749.6176129074
 30
0.0
 10
437.4559704055
 20
749.6813757798
 30
0.0
 10
437.3453765491
 20
749.7588024728
 30
0.0
 10
437.2778783724
 20
749.819094839
 30
0.0
 10
437.2453322371
 20
749.8519882398
 30
0.0
  0
SPLINE
  5
2D5
100
AcDbEntity
  8
03___PRT_ALL_CURVES
100
AcDbSpline
 62
2
  6
CONTINUOUS
 70
0
 71
3
 72
33
 73
29
 74
0
 42
0.0000001
 43
0.0000001
 44
0.0000000001
 40
0.0
 40
0.0
 40
0.0
 40
0.0
 40
0.0357142857
 40
0.0714285714
 40
0.1071428571
 40
0.1428571429
 40
0.1785714286
 40
0.2142857143
 40
0.25
 40
0.2857142857
 40
0.3214285714
 40
0.3571428571
 40
0.3928571429
 40
0.4285714286
 40
0.5
 40
0.5714285714
 40
0.6071428571
 40
0.6428571429
 40
0.6785714286
 40
0.7142857143
 40
0.75
 40
0.7857142857
 40
0.8214285714
 40
0.8571428571
 40
0.8928571429
 40
0.9285714286
 40
0.9642857143
 40
1.0
 40
1.0
 40
1.0
 40
1.0
 10
437.2453333959
 20
749.8519870686
 30
0.0
 10
437.2151182605
 20
749.8825245091
 30
0.0
 10
437.1590551669
 20
749.9460452215
 30
0.0
 10
437.0853524578
 20
750.0507033685
 30
0.0
 10
437.0225227846
 20
750.1651675109
 30
0.0
 10
436.9730492786
 20
750.2865216768
 30
0.0
 10
436.937905465
 20
750.4115669781
 30
0.0
 10
436.9165105903
 20
750.539956456
 30
0.0
 10
436.9092389988
 20
750.6718092739
 30
0.0
 10
436.9168386256
 20
750.8034139646
 30
0.0
 10
436.9385499695
 20
750.93128186
 30
0.0
 10
436.9739595976
 20
751.0556089486
 30
0.0
 10
437.0233107502
 20
751.1758014753
 30
0.0
 10
437.1063096819
 20
751.3269860617
 30
0.0
 10
437.2387615167
 20
751.4946317294
 30
0.0
 10
437.4028161797
 20
751.6268220372
 30
0.0
 10
437.5497135606
 20
751.7092270929
 30
0.0
 10
437.6660172009
 20
751.75785835
 30
0.0
 10
437.7853779253
 20
751.7924472898
 30
0.0
 10
437.9076887941
 20
751.8135034155
 30
0.0
 10
438.0334889286
 20
751.8205057987
 30
0.0
 10
438.1592681064
 20
751.8124476795
 30
0.0
 10
438.281666085
 20
751.7903768042
 30
0.0
 10
438.4010152454
 20
751.7547922786
 30
0.0
 10
438.5169161028
 20
751.7053369841
 30
0.0
 10
438.6266650726
 20
751.6428007787
 30
0.0
 10
438.7279687148
 20
751.5689536392
 30
0.0
 10
438.789819331
 20
751.5124484356
 30
0.0
 10
438.819596234
 20
751.4819269238
 30
0.0
  0
SPLINE
  5
2D6
100
AcDbEntity
  8
03___PRT_ALL_CURVES
100
AcDbSpline
 62
2
  6
CONTINUOUS
 70
0
 71
3
 72
30
 73
26
 74
0
 42
0.0000001
 43
0.0000001
 44
0.0000000001
 40
0.0
 40
0.0
 40
0.0
 40
0.0
 40
0.0357142857
 40
0.0714285714
 40
0.1071428571
 40
0.1428571429
 40
0.1785714286
 40
0.2142857143
 40
0.25
 40
0.2857142857
 40
0.3571428571
 40
0.3928571429
 40
0.4285714286
 40
0.4642857143
 40
0.5
 40
0.5714285714
 40
0.6428571429
 40
0.7142857143
 40
0.7857142857
 40
0.8214285714
 40
0.8571428571
 40
0.8928571429
 40
0.9285714286
 40
0.9642857143
 40
1.0
 40
1.0
 40
1.0
 40
1.0
 10
438.8201016736
 20
751.4814085092
 30
0.0
 10
438.7905632093
 20
751.5117248938
 30
0.0
 10
438.7291792501
 20
751.5679194703
 30
0.0
 10
438.6287385093
 20
751.6414266685
 30
0.0
 10
438.5194226002
 20
751.7040873547
 30
0.0
 10
438.4041157088
 20
751.7535948738
 30
0.0
 10
438.287877843
 20
751.788745628
 30
0.0
 10
438.1685569379
 20
751.8111755778
 30
0.0
 10
438.0452929896
 20
751.8202824009
 30
0.0
 10
437.8796243513
 20
751.8132248128
 30
0.0
 10
437.7116022354
 20
751.7764304299
 30
0.0
 10
437.5537191665
 20
751.7112546323
 30
0.0
 10
437.4416973921
 20
751.6488239942
 30
0.0
 10
437.3402824742
 20
751.5762959127
 30
0.0
 10
437.2160324011
 20
751.4650648255
 30
0.0
 10
437.0831041144
 20
751.298950322
 30
0.0
 10
436.9676100632
 20
751.0609404186
 30
0.0
 10
436.9096015952
 20
750.8024697141
 30
0.0
 10
436.9091580477
 20
750.5882595027
 30
0.0
 10
436.9364609171
 20
750.4182372857
 30
0.0
 10
436.9706474067
 20
750.2935978045
 30
0.0
 10
437.0197913045
 20
750.1707711067
 30
0.0
 10
437.0829670627
 20
750.0544254207
 30
0.0
 10
437.157265679
 20
749.9482153908
 30
0.0
 10
437.2140933321
 20
749.883603012
 30
0.0
 10
437.2447912123
 20
749.8525354088
 30
0.0
  0
SPLINE
  5
2D7
100
AcDbEntity
  8
03___PRT_ALL_CURVES
100
AcDbSpline
 62
2
  6
CONTINUOUS
 70
0
 71
3
 72
29
 73
25
 74
0
 42
0.0000001
 43
0.0000001
 44
0.0000000001
 40
0.0
 40
0.0
 40
0.0
 40
0.0
 40
0.0333333333
 40
0.0666666667
 40
0.1
 40
0.1333333333
 40
0.1666666667
 40
0.2
 40
0.2333333333
 40
0.2666666667
 40
0.3
 40
0.3333333333
 40
0.3666666667
 40
0.4
 40
0.4333333333
 40
0.4666666667
 40
0.5333333333
 40
0.6
 40
0.6666666667
 40
0.7333333333
 40
0.8
 40
0.8666666667
 40
0.9333333333
 40
1.0
 40
1.0
 40
1.0
 40
1.0
 10
437.2452069992
 20
749.8521148339
 30
0.0
 10
437.274629242
 20
749.822369307
 30
0.0
 10
437.3355615644
 20
749.7672755061
 30
0.0
 10
437.4346621573
 20
749.6953589757
 30
0.0
 10
437.5417147282
 20
749.6343162474
 30
0.0
 10
437.6540950052
 20
749.5861429736
 30
0.0
 10
437.7681956246
 20
749.5515936123
 30
0.0
 10
437.8847286475
 20
749.5295578621
 30
0.0
 10
438.0025923789
 20
749.520219425
 30
0.0
 10
438.1208182527
 20
749.5238161533
 30
0.0
 10
438.2391534282
 20
749.5404065142
 30
0.0
 10
438.3554227283
 20
749.5696928327
 30
0.0
 10
438.4702648696
 20
749.6124364855
 30
0.0
 10
438.5794121601
 20
749.6678828254
 30
0.0
 10
438.680062593
 20
749.7337244554
 30
0.0
 10
438.8036424254
 20
749.8349352235
 30
0.0
 10
438.9341221986
 20
749.9820022016
 30
0.0
 10
439.0530468277
 20
750.1873659973
 30
0.0
 10
439.1273540822
 20
750.4126121987
 30
0.0
 10
439.1551802499
 20
750.642971489
 30
0.0
 10
439.1379982408
 20
750.8718292204
 30
0.0
 10
439.0762590155
 20
751.0958069011
 30
0.0
 10
438.970010262
 20
751.304642137
 30
0.0
 10
438.8748189796
 20
751.4252199051
 30
0.0
 10
438.820312104
 20
751.4811924786
 30
0.0
  0
SPLINE
  5
2D8
100
AcDbEntity
  8
03___PRT_ALL_CURVES
100
AcDbSpline
 62
2
  6
CONTINUOUS
 70
0
 71
3
 72
13
 73
9
 74
0
 42
0.0000001
 43
0.0000001
 44
0.0000000001
 40
0.0
 40
0.0
 40
0.0
 40
0.0
 40
0.1666666667
 40
0.3333333333
 40
0.5
 40
0.6666666667
 40
0.8333333333
 40
1.0
 40
1.0
 40
1.0
 40
1.0
 10
457.6007655437
 20
754.1183534967
 30
0.0
 10
457.6380611004
 20
754.0809951941
 30
0.0
 10
457.7063060709
 20
754.0016378439
 30
0.0
 10
457.7923011985
 20
753.8702416637
 30
0.0
 10
457.861277933
 20
753.7292505006
 30
0.0
 10
457.912151572
 20
753.5807819906
 30
0.0
 10
457.9443844243
 20
753.4268322135
 30
0.0
 10
457.9523374335
 20
753.3224438224
 30
0.0
 10
457.9523374335
 20
753.2696502977
 30
0.0
  0
SPLINE
  5
2D9
100
AcDbEntity
  8
03___PRT_ALL_CURVES
100
AcDbSpline
 62
2
  6
CONTINUOUS
 70
0
 71
3
 72
13
 73
9
 74
0
 42
0.0000001
 43
0.0000001
 44
0.0000000001
 40
0.0
 40
0.0
 40
0.0
 40
0.0
 40
0.1666666667
 40
0.3333333333
 40
0.5
 40
0.6666666667
 40
0.8333333333
 40
1.0
 40
1.0
 40
1.0
 40
1.0
 10
456.7526599063
 20
754.4695328525
 30
0.0
 10
456.8045895995
 20
754.4695328525
 30
0.0
 10
456.9074264447
 20
754.4618341926
 30
0.0
 10
457.059202812
 20
754.4305899158
 30
0.0
 10
457.2067734914
 20
754.3808486052
 30
0.0
 10
457.3482485766
 20
754.3125422731
 30
0.0
 10
457.4813970263
 20
754.2261701228
 30
0.0
 10
457.5624936761
 20
754.1566562206
 30
0.0
 10
457.6007655436
 20
754.1183534967
 30
0.0
  0
SPLINE
  5
2DA
100
AcDbEntity
  8
03___PRT_ALL_CURVES
100
AcDbSpline
 62
2
  6
CONTINUOUS
 70
0
 71
3
 72
21
 73
17
 74
0
 42
0.0000001
 43
0.0000001
 44
0.0000000001
 40
0.0
 40
0.0
 40
0.0
 40
0.0
 40
0.0714285714
 40
0.1428571429
 40
0.2142857143
 40
0.2857142857
 40
0.3571428571
 40
0.4285714286
 40
0.5
 40
0.5714285714
 40
0.6428571429
 40
0.7142857143
 40
0.7857142857
 40
0.8571428571
 40
0.9285714286
 40
1.0
 40
1.0
 40
1.0
 40
1.0
 10
418.7522983808
 20
753.269650298
 30
0.0
 10
418.752304258
 20
753.3103940034
 30
0.0
 10
418.7569780808
 20
753.3914203813
 30
0.0
 10
418.7776927896
 20
753.5173166915
 30
0.0
 10
418.8132396311
 20
753.6465500239
 30
0.0
 10
418.8637494575
 20
753.7743514406
 30
0.0
 10
418.9290306074
 20
753.8977781937
 30
0.0
 10
419.0076077307
 20
754.0134256424
 30
0.0
 10
419.1021571814
 20
754.1212040632
 30
0.0
 10
419.2105610188
 20
754.2158763589
 30
0.0
 10
419.3263468418
 20
754.2945795759
 30
0.0
 10
419.4491754202
 20
754.3591463288
 30
0.0
 10
419.5763166607
 20
754.4089521662
 30
0.0
 10
419.7050536301
 20
754.4441916047
 30
0.0
 10
419.8305936635
 20
754.4648395868
 30
0.0
 10
419.9113311826
 20
754.4695328525
 30
0.0
 10
419.9519759081
 20
754.4695328525
 30
0.0
  0
SPLINE
  5
2DB
100
AcDbEntity
  8
03___PRT_ALL_CURVES
100
AcDbSpline
 62
2
  6
CONTINUOUS
 70
0
 71
3
 72
17
 73
13
 74
0
 42
0.0000001
 43
0.0000001
 44
0.0000000001
 40
0.0
 40
0.0
 40
0.0
 40
0.0
 40
0.1
 40
0.2
 40
0.3
 40
0.4
 40
0.5
 40
0.6
 40
0.7
 40
0.8
 40
0.9
 40
1.0
 40
1.0
 40
1.0
 40
1.0
 10
418.7522983808
 20
753.2696502977
 30
0.0
 10
418.7522983808
 20
753.3324036445
 30
0.0
 10
418.7634187653
 20
753.4560093311
 30
0.0
 10
418.8078402143
 20
753.6370076084
 30
0.0
 10
418.8784814763
 20
753.8097940844
 30
0.0
 10
418.9743678587
 20
753.9717698292
 30
0.0
 10
419.0946170733
 20
754.116885353
 30
0.0
 10
419.2398226262
 20
754.240508248
 30
0.0
 10
419.4032320351
 20
754.3395778709
 30
0.0
 10
419.5784550171
 20
754.4120835605
 30
0.0
 10
419.7629431306
 20
754.4580162652
 30
0.0
 10
419.8883500047
 20
754.4695328525
 30
0.0
 10
419.9519759081
 20
754.4695328525
 30
0.0
  0
SPLINE
  5
2DC
100
AcDbEntity
  8
03___PRT_ALL_CURVES
100
AcDbSpline
 62
2
  6
CONTINUOUS
 70
0
 71
3
 72
11
 73
7
 74
0
 42
0.0000001
 43
0.0000001
 44
0.0000000001
 40
0.0
 40
0.0
 40
0.0
 40
0.0
 40
0.25
 40
0.5
 40
0.75
 40
1.0
 40
1.0
 40
1.0
 40
1.0
 10
456.7526599062
 20
754.8694189413
 30
0.0
 10
456.8587900654
 20
754.8694189413
 30
0.0
 10
457.0663743251
 20
754.8469376672
 30
0.0
 10
457.368210373
 20
754.7541653053
 30
0.0
 10
457.6472011033
 20
754.6065022483
 30
0.0
 10
457.8091288459
 20
754.4758137495
 30
0.0
 10
457.8838044475
 20
754.4009998665
 30
0.0
  0
SPLINE
  5
2DD
100
AcDbEntity
  8
03___PRT_ALL_CURVES
100
AcDbSpline
 62
2
  6
CONTINUOUS
 70
0
 71
3
 72
11
 73
7
 74
0
 42
0.0000001
 43
0.0000001
 44
0.0000000001
 40
0.0
 40
0.0
 40
0.0
 40
0.0
 40
0.25
 40
0.5
 40
0.75
 40
1.0
 40
1.0
 40
1.0
 40
1.0
 10
457.8838044475
 20
754.4009998665
 30
0.0
 10
457.9593586448
 20
754.3253057608
 30
0.0
 10
458.090926378
 20
754.1615288947
 30
0.0
 10
458.238574575
 20
753.8811085735
 30
0.0
 10
458.3305380784
 20
753.5796430796
 30
0.0
 10
458.3524477082
 20
753.3742421975
 30
0.0
 10
458.3524477082
 20
753.2696311394
 30
0.0
  0
SPLINE
  5
2DE
100
AcDbEntity
  8
03___PRT_ALL_CURVES
100
AcDbSpline
 62
2
  6
CONTINUOUS
 70
0
 71
3
 72
13
 73
9
 74
0
 42
0.0000001
 43
0.0000001
 44
0.0000000001
 40
0.0
 40
0.0
 40
0.0
 40
0.0
 40
0.1666666667
 40
0.3333333333
 40
0.5
 40
0.6666666667
 40
0.8333333333
 40
1.0
 40
1.0
 40
1.0
 40
1.0
 10
456.7529578714
 20
754.8694189413
 30
0.0
 10
456.8224263228
 20
754.8694118672
 30
0.0
 10
456.9600115619
 20
754.8596082383
 30
0.0
 10
457.1633593656
 20
754.818075152
 30
0.0
 10
457.3606280315
 20
754.7511743915
 30
0.0
 10
457.5493836924
 20
754.6597262162
 30
0.0
 10
457.7263558244
 20
754.5440139699
 30
0.0
 10
457.8332739113
 20
754.4515668901
 30
0.0
 10
457.8838044475
 20
754.4009998665
 30
0.0
  0
SPLINE
  5
2DF
100
AcDbEntity
  8
03___PRT_ALL_CURVES
100
AcDbSpline
 62
2
  6
CONTINUOUS
 70
0
 71
3
 72
13
 73
9
 74
0
 42
0.0000001
 43
0.0000001
 44
0.0000000001
 40
0.0
 40
0.0
 40
0.0
 40
0.0
 40
0.1666666667
 40
0.3333333333
 40
0.5
 40
0.6666666667
 40
0.8333333333
 40
1.0
 40
1.0
 40
1.0
 40
1.0
 10
457.8838044475
 20
754.4009998665
 30
0.0
 10
457.9336910775
 20
754.3510377931
 30
0.0
 10
458.0252015134
 20
754.2452577154
 30
0.0
 10
458.1402758382
 20
754.0700860969
 30
0.0
 10
458.232133373
 20
753.8820660637
 30
0.0
 10
458.3000042296
 20
753.6841057894
 30
0.0
 10
458.3424453289
 20
753.4786136804
 30
0.0
 10
458.3524358191
 20
753.3397763919
 30
0.0
 10
458.3524477082
 20
753.2696311394
 30
0.0
  0
SPLINE
  5
2E0
100
AcDbEntity
  8
03___PRT_ALL_CURVES
100
AcDbSpline
 62
2
  6
CONTINUOUS
 70
0
 71
3
 72
10
 73
6
 74
0
 42
0.0000001
 43
0.0000001
 44
0.0000000001
 40
0.0
 40
0.0
 40
0.0
 40
0.0
 40
0.3333333333
 40
0.6666666667
 40
1.0
 40
1.0
 40
1.0
 40
1.0
 10
426.0643513114
 20
751.818005133
 30
0.0
 10
426.0839522447
 20
751.818005133
 30
0.0
 10
426.1236430844
 20
751.8172134859
 30
0.0
 10
426.1846876295
 20
751.81363228
 30
0.0
 10
426.2263073088
 20
751.8096481448
 30
0.0
 10
426.2473548025
 20
751.8072563776
 30
0.0
  0
SPLINE
  5
2E1
100
AcDbEntity
  8
03___PRT_ALL_CURVES
100
AcDbSpline
 62
2
  6
CONTINUOUS
 70
0
 71
3
 72
15
 73
11
 74
0
 42
0.0000001
 43
0.0000001
 44
0.0000000001
 40
0.0
 40
0.0
 40
0.0
 40
0.0
 40
0.125
 40
0.25
 40
0.375
 40
0.5
 40
0.625
 40
0.75
 40
0.875
 40
1.0
 40
1.0
 40
1.0
 40
1.0
 10
426.2473548024
 20
751.8072563776
 30
0.0
 10
426.2684869541
 20
751.804804807
 30
0.0
 10
426.3090263513
 20
751.7967973248
 30
0.0
 10
426.3666403383
 20
751.7760378724
 30
0.0
 10
426.4210932162
 20
751.7463101155
 30
0.0
 10
426.4700653959
 20
751.7087119032
 30
0.0
 10
426.5126725364
 20
751.6641063028
 30
0.0
 10
426.5479294404
 20
751.6133393048
 30
0.0
 10
426.574516906
 20
751.5586819654
 30
0.0
 10
426.5866724277
 20
751.5196389083
 30
0.0
 10
426.5913140363
 20
751.4991272504
 30
0.0
  0
SPLINE
  5
2E2
100
AcDbEntity
  8
03___PRT_ALL_CURVES
100
AcDbSpline
 62
2
  6
CONTINUOUS
 70
0
 71
3
 72
9
 73
5
 74
0
 42
0.0000001
 43
0.0000001
 44
0.0000000001
 40
0.0
 40
0.0
 40
0.0
 40
0.0
 40
0.5
 40
1.0
 40
1.0
 40
1.0
 40
1.0
 10
426.0643508643
 20
751.818005133
 30
0.0
 10
426.0939170339
 20
751.818005133
 30
0.0
 10
426.1539840381
 20
751.8162031318
 30
0.0
 10
426.2159189314
 20
751.8108286454
 30
0.0
 10
426.2473548025
 20
751.8072563776
 30
0.0
  0
SPLINE
  5
2E3
100
AcDbEntity
  8
03___PRT_ALL_CURVES
100
AcDbSpline
 62
2
  6
CONTINUOUS
 70
0
 71
3
 72
12
 73
8
 74
0
 42
0.0000001
 43
0.0000001
 44
0.0000000001
 40
0.0
 40
0.0
 40
0.0
 40
0.0
 40
0.2
 40
0.4
 40
0.6
 40
0.8
 40
1.0
 40
1.0
 40
1.0
 40
1.0
 10
426.2473548024
 20
751.8072563776
 30
0.0
 10
426.2811663351
 20
751.8033338542
 30
0.0
 10
426.345282147
 20
751.7875751781
 30
0.0
 10
426.4338393624
 20
751.740728032
 30
0.0
 10
426.5067202839
 20
751.6747434129
 30
0.0
 10
426.5608144988
 20
751.5947283111
 30
0.0
 10
426.5837410208
 20
751.5325930412
 30
0.0
 10
426.5913140363
 20
751.4991272504
 30
0.0
  0
SPLINE
  5
2E4
100
AcDbEntity
  8
02___PRT_ALL_AXES
100
AcDbSpline
 62
3
  6
CONTINUOUS
 70
0
 71
3
 72
15
 73
11
 74
0
 42
0.0000001
 43
0.0000001
 44
0.0000000001
 40
0.0
 40
0.0
 40
0.0
 40
0.0
 40
0.1249934972
 40
0.2499896796
 40
0.3749919785
 40
0.5000000005
 40
0.6250080234
 40
0.7500103219
 40
0.8750065041
 40
1.0
 40
1.0
 40
1.0
 40
1.0
 10
438.3523179071
 20
791.2668126458
 30
0.0
 10
438.1544386706
 20
791.2668126458
 30
0.0
 10
437.7543094854
 20
791.3464746691
 30
0.0
 10
437.2494079067
 20
791.6862109505
 30
0.0
 10
436.9121243137
 20
792.1934994185
 30
0.0
 10
436.7940179492
 20
792.7909189452
 30
0.0
 10
436.9121243155
 20
793.3883384716
 30
0.0
 10
437.2494079133
 20
793.8956269366
 30
0.0
 10
437.7543094896
 20
794.2353632159
 30
0.0
 10
438.1544386727
 20
794.3150252368
 30
0.0
 10
438.3523179071
 20
794.3150252368
 30
0.0
  0
SPLINE
  5
2E5
100
AcDbEntity
  8
02___PRT_ALL_AXES
100
AcDbSpline
 62
3
  6
CONTINUOUS
 70
0
 71
3
 72
15
 73
11
 74
0
 42
0.0000001
 43
0.0000001
 44
0.0000000001
 40
0.0
 40
0.0
 40
0.0
 40
0.0
 40
0.1249934972
 40
0.2499896796
 40
0.3749919785
 40
0.5000000005
 40
0.6250080234
 40
0.7500103219
 40
0.8750065041
 40
1.0
 40
1.0
 40
1.0
 40
1.0
 10
438.3523179071
 20
794.3150252368
 30
0.0
 10
438.5501971437
 20
794.3150252368
 30
0.0
 10
438.9503263289
 20
794.2353632136
 30
0.0
 10
439.4552279075
 20
793.8956269321
 30
0.0
 10
439.7925115005
 20
793.3883384642
 30
0.0
 10
439.910617865
 20
792.7909189375
 30
0.0
 10
439.7925114988
 20
792.193499411
 30
0.0
 10
439.455227901
 20
791.6862109461
 30
0.0
 10
438.9503263247
 20
791.3464746667
 30
0.0
 10
438.5501971415
 20
791.2668126458
 30
0.0
 10
438.3523179071
 20
791.2668126458
 30
0.0
  0
ENDSEC
  0
SECTION
  2
OBJECTS
  0
DICTIONARY
  5
C
100
AcDbDictionary
280
0
281
1
  3
ACAD_GROUP
350
D
  3
ACAD_MLINESTYLE
350
17
  3
ACAD_LAYOUT
350
1A
  3
ACAD_PLOTSETTINGS
350
19
  3
ACAD_PLOTSTYLENAME
350
E
  0
DICTIONARY
  5
D
102
{ACAD_REACTORS
330
C
102
}
100
AcDbDictionary
280
0
281
1
  0
ACDBDICTIONARYWDFLT
  5
E
102
{ACAD_REACTORS
330
C
102
}
100
AcDbDictionary
281
1
  3
Normal
350
F
100
AcDbDictionaryWithDefault
340
F
  0
DICTIONARY
  5
17
102
{ACAD_REACTORS
330
C
102
}
100
AcDbDictionary
280
0
281
1
  3
Standard
350
18
  0
DICTIONARY
  5
19
102
{ACAD_REACTORS
330
C
102
}
100
AcDbDictionary
281
1
  0
DICTIONARY
  5
1A
102
{ACAD_REACTORS
330
C
102
}
100
AcDbDictionary
281
1
  3
Model
350
2E6
  3
Layout1
350
2E7
  0
ACDBPLACEHOLDER
  5
F
102
{ACAD_REACTORS
330
E
102
}
  0
MLINESTYLE
  5
18
102
{ACAD_REACTORS
330
17
102
}
100
AcDbMlineStyle
  2
STANDARD
 70
0
  3

 62
256
 51
90.0
 52
90.0
 71
2
 49
0.5
 62
256
  6
BYLAYER
 49
-0.5
 62
256
  6
BYLAYER
  0
LAYOUT
  5
2E6
102
{ACAD_REACTORS
330
1A
102
}
100
AcDbPlotSettings
  1

  2
none_device
  4

  6

 40
0.0
 41
0.0
 42
0.0
 43
0.0
 44
875.0
 45
875.0
 46
0.0
 47
0.0
 48
0.0
 49
0.0
140
0.0
141
0.0
142
1.0
143
1.0
 70
1024
 72
1
 73
0
 74
0
  7

 75
0
147
1.0
148
0.0
149
0.0
100
AcDbLayout
  1
Model
 70
0
 71
0
 10
0.0
 20
0.0
 11
875.0
 21
875.0
 12
0.0
 22
0.0
 32
0.0
 14
0.0
 24
0.0
 34
0.0
 15
0.0
 25
0.0
 35
0.0
146
0.0
 13
0.0
 23
0.0
 33
0.0
 16
1.0
 26
0.0
 36
0.0
 17
0.0
 27
1.0
 37
0.0
 76
0
330
216
345
0
346
0
  0
LAYOUT
  5
2E7
102
{ACAD_REACTORS
330
1A
102
}
100
AcDbPlotSettings
  1

  2
none_device
  4

  6

 40
0.0
 41
0.0
 42
0.0
 43
0.0
 44
875.0
 45
875.0
 46
0.0
 47
0.0
 48
0.0
 49
0.0
140
0.0
141
0.0
142
1.0
143
1.0
 70
0
 72
1
 73
0
 74
0
  7

 75
0
147
1.0
148
0.0
149
0.0
100
AcDbLayout
  1
Layout1
 70
0
 71
1
 10
0.0
 20
0.0
 11
875.0
 21
875.0
 12
0.0
 22
0.0
 32
0.0
 14
0.0
 24
0.0
 34
0.0
 15
0.0
 25
0.0
 35
0.0
146
0.0
 13
0.0
 23
0.0
 33
0.0
 16
1.0
 26
0.0
 36
0.0
 17
0.0
 27
1.0
 37
0.0
 76
0
330
217
345
0
346
0
  0
ENDSEC
  0
EOF
