999
DXF file: S:\Engenharia\Wildfire\Engenharia\Produtos\Lixeiras\94542112\94542112.dxf
999
Pro/ENGINEER 2012230 by Parametric Technology Corporation
  0
SECTION
  2
HEADER
  9
$ACADVER
  1
AC1021
  9
$DWGCODEPAGE
  3
ANSI_1252
  9
$EXTMAX
 10
1223.0
 20
875.0
 30
0.0
  9
$EXTMIN
 10
0.0
 20
0.0
 30
0.0
  9
$LIMMIN
 10
0.0
 20
0.0
  9
$LIMMAX
 10
1223.0
 20
875.0
  9
$VIEWCTR
 10
611.5
 20
437.5
  9
$VIEWSIZE
 40
875.0
  9
$CLAYER
  8
0
  9
$LTSCALE
 40
67.265
  9
$CELTYPE
  6
BYLAYER
  9
$DIMSCALE
 40
1.0
  9
$DIMASZ
 40
3.0
  9
$DIMEXO
 40
0.5
  9
$DIMDLI
 40
46.474
  9
$DIMEXE
 40
0.5
  9
$DIMCEN
 40
11.007
  9
$DIMLFAC
 40
1.0
  9
$DIMBLK
  1
_FILLED
  9
$DIMTXT
 40
1.8
  9
$DIMTOL
 70
1
  9
$DIMLIM
 70
0
  9
$DIMTFAC
 40
1.0
  9
$DIMTP
 40
0.001
  9
$DIMTM
 40
0.001
  9
$DIMGAP
 40
0.625
  9
$DIMDSEP
 70
46
  9
$PDMODE
 70
3
  9
$PDSIZE
 40
1.0
  9
$HANDSEED
  5
2E8
  9
$TILEMODE
 70
1
  9
$MEASUREMENT
 70
1
  9
$INSUNITS
 70
4
  0
ENDSEC
  0
SECTION
  2
CLASSES
  0
CLASS
  1
ACDBDICTIONARYWDFLT
  2
AcDbDictionaryWithDefault
  3
AutoCAD 2000
 90
0
 91
1
280
0
281
0
  0
CLASS
  1
ACDBPLACEHOLDER
  2
AcDbPlaceHolder
  3
AutoCAD 2000
 90
0
 91
1
280
0
281
0
  0
CLASS
  1
LAYOUT
  2
AcDbLayout
  3
AutoCAD 2000
 90
0
 91
0
280
0
281
0
  0
ENDSEC
  0
SECTION
  2
TABLES
  0
TABLE
  2
VPORT
  5
8
100
AcDbSymbolTable
 70
2
  0
VPORT
  5
1F4
100
AcDbSymbolTableRecord
100
AcDbViewportTableRecord
  2
*ACTIVE
 70
0
 10
0.0
 20
0.0
 11
1.0
 21
1.0
 12
611.5
 22
437.5
 13
0.0
 23
0.0
 14
1.0
 24
1.0
 15
0.0
 25
0.0
 16
0.0
 26
0.0
 36
1.0
 17
0.0
 27
0.0
 37
0.0
 40
875.0
 41
1.3977142857
 42
50.0
 43
0.0
 44
0.0
 50
0.0
 51
0.0
 71
0
 72
100
 73
1
 74
1
 75
0
 76
0
 77
0
 78
0
  0
ENDTAB
  0
TABLE
  2
LTYPE
  5
5
100
AcDbSymbolTable
 70
6
  0
LTYPE
  5
14
100
AcDbSymbolTableRecord
100
AcDbLinetypeTableRecord
  2
BYBLOCK
 70
0
  3

 72
65
 73
0
 40
0.0
  0
LTYPE
  5
15
100
AcDbSymbolTableRecord
100
AcDbLinetypeTableRecord
  2
BYLAYER
 70
0
  3

 72
65
 73
0
 40
0.0
  0
LTYPE
  5
16
100
AcDbSymbolTableRecord
100
AcDbLinetypeTableRecord
  2
CONTINUOUS
 70
64
  3
Solid line
 72
65
 73
0
 40
0.0
  0
LTYPE
  5
1F5
100
AcDbSymbolTableRecord
100
AcDbLinetypeTableRecord
  2
CENTER
 70
64
  3
____ _ ____ _ ____ _ ____ _ ____ _ ____ _ ____
 72
65
 73
4
 40
0.6
 49
0.375
 74
0
 49
-0.075
 74
0
 49
0.075
 74
0
 49
-0.075
 74
0
  0
LTYPE
  5
1F6
100
AcDbSymbolTableRecord
100
AcDbLinetypeTableRecord
  2
HIDDEN
 70
64
  3
- - - - - - - - - - - - - - - - - - - -
 72
65
 73
2
 40
0.2
 49
0.1
 74
0
 49
-0.1
 74
0
  0
LTYPE
  5
1F7
100
AcDbSymbolTableRecord
100
AcDbLinetypeTableRecord
  2
PHANTOM
 70
64
  3
_____ _ _ _____ _ _ _____ _ _ _____
 72
65
 73
6
 40
0.8
 49
0.45
 74
0
 49
-0.05
 74
0
 49
0.1
 74
0
 49
-0.05
 74
0
 49
0.1
 74
0
 49
-0.05
 74
0
  0
LTYPE
  5
1F8
100
AcDbSymbolTableRecord
100
AcDbLinetypeTableRecord
  2
DOT
 70
64
  3
. . . . . . . . . . . . . . . . . . . .
 72
65
 73
2
 40
0.2
 49
0.1
 74
0
 49
-0.1
 74
0
  0
LTYPE
  5
1F9
100
AcDbSymbolTableRecord
100
AcDbLinetypeTableRecord
  2
DASHED
 70
64
  3
- - - - - - - - - - - - - - - - - - - -
 72
65
 73
2
 40
0.2
 49
0.1
 74
0
 49
-0.1
 74
0
  0
ENDTAB
  0
TABLE
  2
LAYER
  5
2
100
AcDbSymbolTable
 70
36
  0
LAYER
  5
10
100
AcDbSymbolTableRecord
100
AcDbLayerTableRecord
  2
0
 70
0
 62
7
  6
CONTINUOUS
370
-3
390
F
  0
LAYER
  5
1FA
100
AcDbSymbolTableRecord
100
AcDbLayerTableRecord
  2
DEFAULT_1
 70
0
 62
7
  6
CENTER
370
-3
390
F
  0
LAYER
  5
1FB
100
AcDbSymbolTableRecord
100
AcDbLayerTableRecord
  2
DEFAULT_2
 70
0
 62
8
  6
HIDDEN
370
-3
390
F
  0
LAYER
  5
1FC
100
AcDbSymbolTableRecord
100
AcDbLayerTableRecord
  2
DEFAULT_3
 70
0
 62
7
  6
PHANTOM
370
-3
390
F
  0
LAYER
  5
1FD
100
AcDbSymbolTableRecord
100
AcDbLayerTableRecord
  2
01_ALL_DTM_PLN
 70
0
 62
7
  6
CONTINUOUS
370
-3
390
F
  0
LAYER
  5
1FE
100
AcDbSymbolTableRecord
100
AcDbLayerTableRecord
  2
01__ASM_ALL_DTM_PLN
 70
0
 62
7
  6
CONTINUOUS
370
-3
390
F
  0
LAYER
  5
1FF
100
AcDbSymbolTableRecord
100
AcDbLayerTableRecord
  2
01__ASM_DEF_DTM_PLN
 70
0
 62
7
  6
CONTINUOUS
370
-3
390
F
  0
LAYER
  5
200
100
AcDbSymbolTableRecord
100
AcDbLayerTableRecord
  2
01___PRT_ALL_DTM_PLN
 70
0
 62
7
  6
CONTINUOUS
370
-3
390
F
  0
LAYER
  5
201
100
AcDbSymbolTableRecord
100
AcDbLayerTableRecord
  2
01___PRT_DEF_DTM_PLN
 70
0
 62
7
  6
CONTINUOUS
370
-3
390
F
  0
LAYER
  5
202
100
AcDbSymbolTableRecord
100
AcDbLayerTableRecord
  2
02_ALL_AXES
 70
0
 62
7
  6
CONTINUOUS
370
-3
390
F
  0
LAYER
  5
203
100
AcDbSymbolTableRecord
100
AcDbLayerTableRecord
  2
02__ASM_ALL_AXES
 70
0
 62
7
  6
CONTINUOUS
370
-3
390
F
  0
LAYER
  5
204
100
AcDbSymbolTableRecord
100
AcDbLayerTableRecord
  2
02___PRT_ALL_AXES
 70
0
 62
7
  6
CONTINUOUS
370
-3
390
F
  0
LAYER
  5
205
100
AcDbSymbolTableRecord
100
AcDbLayerTableRecord
  2
03_ALL_CURVES
 70
0
 62
7
  6
CONTINUOUS
370
-3
390
F
  0
LAYER
  5
206
100
AcDbSymbolTableRecord
100
AcDbLayerTableRecord
  2
03__ASM_ALL_CURVES
 70
0
 62
7
  6
CONTINUOUS
370
-3
390
F
  0
LAYER
  5
207
100
AcDbSymbolTableRecord
100
AcDbLayerTableRecord
  2
03___PRT_ALL_CURVES
 70
0
 62
7
  6
CONTINUOUS
370
-3
390
F
  0
LAYER
  5
208
100
AcDbSymbolTableRecord
100
AcDbLayerTableRecord
  2
04_ALL_DTM_PNT
 70
0
 62
7
  6
CONTINUOUS
370
-3
390
F
  0
LAYER
  5
209
100
AcDbSymbolTableRecord
100
AcDbLayerTableRecord
  2
04__ASM_ALL_DTM_PNT
 70
0
 62
7
  6
CONTINUOUS
370
-3
390
F
  0
LAYER
  5
20A
100
AcDbSymbolTableRecord
100
AcDbLayerTableRecord
  2
04___PRT_ALL_DTM_PNT
 70
0
 62
7
  6
CONTINUOUS
370
-3
390
F
  0
LAYER
  5
20B
100
AcDbSymbolTableRecord
100
AcDbLayerTableRecord
  2
05_ALL_DTM_CSYS
 70
0
 62
7
  6
CONTINUOUS
370
-3
390
F
  0
LAYER
  5
20C
100
AcDbSymbolTableRecord
100
AcDbLayerTableRecord
  2
05__ASM_ALL_DTM_CSYS
 70
0
 62
7
  6
CONTINUOUS
370
-3
390
F
  0
LAYER
  5
20D
100
AcDbSymbolTableRecord
100
AcDbLayerTableRecord
  2
05__ASM_DEF_DTM_CSYS
 70
0
 62
7
  6
CONTINUOUS
370
-3
390
F
  0
LAYER
  5
20E
100
AcDbSymbolTableRecord
100
AcDbLayerTableRecord
  2
05___PRT_ALL_DTM_CSYS
 70
0
 62
7
  6
CONTINUOUS
370
-3
390
F
  0
LAYER
  5
20F
100
AcDbSymbolTableRecord
100
AcDbLayerTableRecord
  2
05___PRT_DEF_DTM_CSYS
 70
0
 62
7
  6
CONTINUOUS
370
-3
390
F
  0
LAYER
  5
210
100
AcDbSymbolTableRecord
100
AcDbLayerTableRecord
  2
06_ALL_SURFS
 70
0
 62
7
  6
CONTINUOUS
370
-3
390
F
  0
LAYER
  5
211
100
AcDbSymbolTableRecord
100
AcDbLayerTableRecord
  2
06__ASM_ALL_SURFS
 70
0
 62
7
  6
CONTINUOUS
370
-3
390
F
  0
LAYER
  5
212
100
AcDbSymbolTableRecord
100
AcDbLayerTableRecord
  2
06___PRT_ALL_SURFS
 70
0
 62
7
  6
CONTINUOUS
370
-3
390
F
  0
LAYER
  5
213
100
AcDbSymbolTableRecord
100
AcDbLayerTableRecord
  2
07__ASM_ALL_SKELETONS
 70
0
 62
7
  6
CONTINUOUS
370
-3
390
F
  0
ENDTAB
  0
TABLE
  2
STYLE
  5
3
100
AcDbSymbolTable
 70
1
  0
STYLE
  5
11
100
AcDbSymbolTableRecord
100
AcDbTextStyleTableRecord
  2
STANDARD
 70
0
 40
0.0
 41
0.8
 50
0.0
 71
0
 42
0.2
  3
txt
  4

  0
STYLE
  5
214
100
AcDbSymbolTableRecord
100
AcDbTextStyleTableRecord
  2
TEXTSTYLE_1
 70
0
 40
0.0
 41
0.8
 50
0.0
 71
0
 42
0.2
  3
gdt
  4

  0
ENDTAB
  0
TABLE
  2
VIEW
  5
6
100
AcDbSymbolTable
 70
0
  0
ENDTAB
  0
TABLE
  2
UCS
  5
7
100
AcDbSymbolTable
 70
0
  0
ENDTAB
  0
TABLE
  2
APPID
  5
9
100
AcDbSymbolTable
 70
1
  0
APPID
  5
215
100
AcDbSymbolTableRecord
100
AcDbRegAppTableRecord
  2
ACAD
 70
0
  0
ENDTAB
  0
TABLE
  2
BLOCK_RECORD
  5
1
100
AcDbSymbolTable
 70
0
  0
BLOCK_RECORD
  5
216
100
AcDbSymbolTableRecord
100
AcDbBlockTableRecord
  2
*Model_Space
  0
BLOCK_RECORD
  5
217
100
AcDbSymbolTableRecord
100
AcDbBlockTableRecord
  2
*Paper_Space
  0
BLOCK_RECORD
  5
218
100
AcDbSymbolTableRecord
100
AcDbBlockTableRecord
  2
_FILLED
  0
BLOCK_RECORD
  5
219
100
AcDbSymbolTableRecord
100
AcDbBlockTableRecord
  2
*D0
  0
BLOCK_RECORD
  5
21A
100
AcDbSymbolTableRecord
100
AcDbBlockTableRecord
  2
*D1
  0
ENDTAB
  0
TABLE
  2
DIMSTYLE
  5
A
100
AcDbSymbolTable
 70
1
100
AcDbDimStyleTable
 71
0
  0
DIMSTYLE
105
21B
100
AcDbSymbolTableRecord
100
AcDbDimStyleTableRecord
  2
STANDARD
 70
0
  3

  4

 40
1.0
 41
3.0
 42
0.5
 43
0.38
 44
0.5
 45
0.0
 46
0.0
 47
0.001
 48
0.001
140
1.8
141
0.09
142
0.0
143
25.4
144
1.0
145
0.0
146
1.0
147
0.625
 71
1.0
 72
0.0
 73
0
 74
0
 75
0
 76
0
 77
1
 78
8
170
0
171
2
172
0
173
0
174
0
175
0
176
0
177
0
178
0
270
2
271
3
272
3
273
2
274
2
275
0
280
0
281
0
282
0
283
1
284
8
285
0
286
0
287
3
288
0
340
11
278
46
341
218
342
218
343
218
344
218
  0
DIMSTYLE
105
21C
100
AcDbSymbolTableRecord
100
AcDbDimStyleTableRecord
  2
DIMSTYLE_1
 70
0
  3

  4

 40
1.0
 41
3.0
 42
0.5
 43
0.38
 44
0.5
 45
0.0
 46
0.0
 47
0.001
 48
0.001
140
1.8
141
0.09
142
0.0
143
25.4
144
1.0
145
0.0
146
1.0
147
0.45
 71
0.0
 72
0.0
 73
0
 74
0
 75
0
 76
0
 77
1
 78
8
170
0
171
2
172
0
173
0
174
0
175
0
176
0
177
0
178
0
270
2
271
1
272
1
273
2
274
2
275
0
280
0
281
0
282
0
283
1
284
8
285
0
286
0
287
3
288
0
340
11
278
46
341
218
342
218
343
218
344
218
  0
DIMSTYLE
105
21D
100
AcDbSymbolTableRecord
100
AcDbDimStyleTableRecord
  2
DIMSTYLE_2
 70
0
  3

  4

 40
1.0
 41
3.0
 42
0.5
 43
0.38
 44
0.5
 45
0.0
 46
0.0
 47
0.001
 48
0.001
140
1.8
141
0.09
142
0.0
143
25.4
144
1.0
145
0.0
146
1.0
147
0.625
 71
0.0
 72
0.0
 73
0
 74
0
 75
0
 76
0
 77
1
 78
8
170
0
171
2
172
0
173
0
174
0
175
0
176
0
177
0
178
0
270
2
271
3
272
3
273
2
274
2
275
0
280
0
281
0
282
0
283
1
284
8
285
0
286
0
287
3
288
0
340
11
278
46
341
218
342
218
343
218
344
218
  0
ENDTAB
  0
ENDSEC
  0
SECTION
  2
BLOCKS
  0
BLOCK
  5
20
100
AcDbEntity
  8
0
100
AcDbBlockBegin
  2
*Model_Space
 70
0
 10
0.0
 20
0.0
 30
0.0
  3
*Model_Space
  1

  0
ENDBLK
  5
21
100
AcDbEntity
  8
0
100
AcDbBlockEnd
  0
BLOCK
  5
1C
100
AcDbEntity
  8
0
100
AcDbBlockBegin
  2
*Paper_Space
 70
0
 10
0.0
 20
0.0
 30
0.0
  3
*Paper_Space
  1

  0
ENDBLK
  5
1D
100
AcDbEntity
  8
0
100
AcDbBlockEnd
  0
BLOCK
  5
21E
100
AcDbEntity
  8
0
100
AcDbBlockBegin
  2
_FILLED
 70
64
 10
0.0
 20
0.0
  3
_FILLED
  1

  0
SOLID
  5
21F
100
AcDbEntity
  8
0
  6
BYBLOCK
 62
0
100
AcDbTrace
 10
0.0
 20
0.0
 11
-1.0
 21
0.1666666667
 12
-1.0
 22
-0.1666666667
 13
-1.0
 23
-0.1666666667
  0
ENDBLK
  5
220
100
AcDbEntity
  8
0
  6
BYBLOCK
 62
0
100
AcDbBlockEnd
  0
BLOCK
  5
221
100
AcDbEntity
  8
0
100
AcDbBlockBegin
 62
2
  6
CONTINUOUS
  2
*D0
 70
65
 10
0.0
 20
0.0
  3
*D0
  1

  0
MTEXT
  5
222
100
AcDbEntity
  8
0
100
AcDbMText
 62
2
  6
CONTINUOUS
  7
STANDARD
 71
2
 72
1
 10
314.8160387339
 20
594.415218566
 30
0.0
 11
0.0
 21
1.0
 31
0.0
 44
0.9
  1
283.4
 40
1.8
 41
9.2571428571
  0
LINE
  5
223
100
AcDbEntity
  8
0
100
AcDbLine
 62
2
  6
CONTINUOUS
 10
475.0300647016
 20
452.7033906087
 11
316.8874673054
 21
452.7033906087
  0
LINE
  5
224
100
AcDbEntity
  8
0
100
AcDbLine
 62
2
  6
CONTINUOUS
 10
369.1204789028
 20
736.1270465233
 11
316.8874673054
 21
736.1270465233
  0
LINE
  5
225
100
AcDbEntity
  8
0
100
AcDbLine
 62
2
  6
CONTINUOUS
 10
317.3874673054
 20
452.7033906087
 11
317.3874673054
 21
594.415218566
  0
LINE
  5
226
100
AcDbEntity
  8
0
100
AcDbLine
 62
2
  6
CONTINUOUS
 10
317.3874673054
 20
736.1270465233
 11
317.3874673054
 21
594.415218566
  0
INSERT
  5
227
100
AcDbEntity
  8
0
100
AcDbBlockReference
 62
2
  6
CONTINUOUS
  2
_FILLED
 10
317.3874673054
 20
452.7033906087
 41
3.0
 42
3.0
 43
3.0
 50
270.0
  0
INSERT
  5
228
100
AcDbEntity
  8
0
100
AcDbBlockReference
 62
2
  6
CONTINUOUS
  2
_FILLED
 10
317.3874673054
 20
736.1270465233
 41
3.0
 42
3.0
 43
3.0
 50
90.0
  0
ENDBLK
  5
229
100
AcDbEntity
  8
0
  6
BYBLOCK
 62
0
100
AcDbBlockEnd
  0
BLOCK
  5
22A
100
AcDbEntity
  8
0
100
AcDbBlockBegin
 62
2
  6
CONTINUOUS
  2
*D1
 70
65
 10
0.0
 20
0.0
  3
*D1
  1

  0
MTEXT
  5
22B
100
AcDbEntity
  8
0
100
AcDbMText
 62
2
  6
CONTINUOUS
  7
TEXTSTYLE_1
 71
1
 72
1
 10
603.7601787894
 20
308.4301449707
 30
0.0
 11
0.9324883534
 21
0.3612000426
 31
0.0
 44
0.9
  1
{\Fgdt;n}\Ftxt;257.9
 40
1.8
 41
11.6571428571
  0
LINE
  5
22C
100
AcDbEntity
  8
0
100
AcDbLine
 62
2
  6
CONTINUOUS
 10
595.7744378739
 20
302.5792638202
 11
475.5300647016
 21
256.0025183306
  0
LINE
  5
22D
100
AcDbEntity
  8
0
100
AcDbLine
 62
2
  6
CONTINUOUS
 10
475.5300647016
 20
256.0025183306
 11
615.5591288472
 21
310.2428782725
  0
LINE
  5
22E
100
AcDbEntity
  8
0
100
AcDbLine
 62
2
  6
CONTINUOUS
 10
355.2856915293
 20
209.425772841
 11
475.5300647016
 21
256.0025183306
  0
INSERT
  5
22F
100
AcDbEntity
  8
0
100
AcDbBlockReference
 62
2
  6
CONTINUOUS
  2
_FILLED
 10
595.7744378739
 20
302.5792638202
 41
3.0
 42
3.0
 43
3.0
 50
21.1739130462
  0
INSERT
  5
230
100
AcDbEntity
  8
0
100
AcDbBlockReference
 62
2
  6
CONTINUOUS
  2
_FILLED
 10
355.2856915293
 20
209.425772841
 41
3.0
 42
3.0
 43
3.0
 50
201.1739130462
  0
ENDBLK
  5
231
100
AcDbEntity
  8
0
  6
BYBLOCK
 62
0
100
AcDbBlockEnd
  0
ENDSEC
  0
SECTION
  2
ENTITIES
  0
DIMENSION
  5
232
100
AcDbEntity
  8
0
100
AcDbDimension
 62
2
  6
CONTINUOUS
  2
*D0
 10
317.3874673054
 20
736.1270465233
 11
317.3874673054
 21
594.415218566
 70
160
 71
2
 42
283.4236559146
  3
DIMSTYLE_1
100
AcDbAlignedDimension
 13
475.5300647016
 23
452.7033906087
 14
369.6204789028
 24
736.1270465233
 50
90.0
100
AcDbRotatedDimension
  0
DIMENSION
  5
233
100
AcDbEntity
  8
0
100
AcDbDimension
 62
2
  6
CONTINUOUS
  2
*D1
 10
595.7744378739
 20
302.5792638202
 11
609.5203338019
 21
309.6961857008
 70
163
 71
1
 42
257.9
  1
<>
  3
DIMSTYLE_2
100
AcDbDiametricDimension
 15
355.2856915293
 25
209.425772841
  0
LINE
  5
234
100
AcDbEntity
  8
0
100
AcDbLine
 62
7
  6
CONTINUOUS
 10
598.5335060817
 20
452.7033906087
 11
352.5183025873
 21
452.7033906087
  0
LINE
  5
235
100
AcDbEntity
  8
0
100
AcDbLine
 62
7
  6
CONTINUOUS
 10
600.5300647016
 20
454.6033906087
 11
350.5300647016
 21
454.6033906087
  0
LINE
  5
236
100
AcDbEntity
  8
02___PRT_ALL_AXES
100
AcDbLine
 62
3
  6
CONTINUOUS
 10
348.8800647016
 20
732.644572777
 11
348.8800647016
 21
720.1559969042
  0
LINE
  5
237
100
AcDbEntity
  8
02___PRT_ALL_AXES
100
AcDbLine
 62
3
  6
CONTINUOUS
 10
348.8800647016
 20
717.1077843132
 11
348.8800647016
 21
707.8318906087
  0
LINE
  5
238
100
AcDbEntity
  8
02___PRT_ALL_AXES
100
AcDbLine
 62
7
  6
CONTINUOUS
 10
350.5300647016
 20
705.1318906087
 11
350.5300647016
 21
454.6033906087
  0
LINE
  5
239
100
AcDbEntity
  8
03___PRT_ALL_CURVES
100
AcDbLine
 62
2
  6
CONTINUOUS
 10
466.84484117
 20
677.1284303193
 11
466.3746545573
 21
675.929331571
  0
LINE
  5
23A
100
AcDbEntity
  8
03___PRT_ALL_CURVES
100
AcDbLine
 62
2
  6
CONTINUOUS
 10
466.4816458921
 20
678.1611713706
 11
465.0690836456
 21
674.5618766077
  0
LINE
  5
23B
100
AcDbEntity
  8
03___PRT_ALL_CURVES
100
AcDbLine
 62
2
  6
CONTINUOUS
 10
466.120091017
 20
675.281661362
 11
465.8368080535
 21
674.5618766077
  0
LINE
  5
23C
100
AcDbEntity
  8
03___PRT_ALL_CURVES
100
AcDbLine
 62
2
  6
CONTINUOUS
 10
471.882343666
 20
678.1611713706
 11
471.091359309
 21
675.8201876696
  0
LINE
  5
23D
100
AcDbEntity
  8
03___PRT_ALL_CURVES
100
AcDbLine
 62
2
  6
CONTINUOUS
 10
471.3211739961
 20
674.5618766077
 11
472.1085130634
 21
676.8902133673
  0
LINE
  5
23E
100
AcDbEntity
  8
03___PRT_ALL_CURVES
100
AcDbLine
 62
2
  6
CONTINUOUS
 10
455.5299349005
 20
674.160442788
 11
455.5299349005
 21
678.9606028067
  0
LINE
  5
23F
100
AcDbEntity
  8
03___PRT_ALL_CURVES
100
AcDbLine
 62
2
  6
CONTINUOUS
 10
455.9300451753
 20
674.1604619464
 11
455.9300451753
 21
678.9606219652
  0
LINE
  5
240
100
AcDbEntity
  8
03___PRT_ALL_CURVES
100
AcDbLine
 62
2
  6
CONTINUOUS
 10
459.1781256865
 20
678.1611713706
 11
459.1781256865
 21
677.5089768004
  0
LINE
  5
241
100
AcDbEntity
  8
03___PRT_ALL_CURVES
100
AcDbLine
 62
2
  6
CONTINUOUS
 10
460.0220275001
 20
677.5089768004
 11
460.0220275001
 21
674.5618766077
  0
LINE
  5
242
100
AcDbEntity
  8
03___PRT_ALL_CURVES
100
AcDbLine
 62
2
  6
CONTINUOUS
 10
460.8083536466
 20
677.5089768004
 11
460.8083536466
 21
674.5618766077
  0
LINE
  5
243
100
AcDbEntity
  8
03___PRT_ALL_CURVES
100
AcDbLine
 62
2
  6
CONTINUOUS
 10
461.6522554603
 20
678.1611713706
 11
461.6522554603
 21
677.5089768004
  0
LINE
  5
244
100
AcDbEntity
  8
03___PRT_ALL_CURVES
100
AcDbLine
 62
2
  6
CONTINUOUS
 10
462.1527662277
 20
674.5618766077
 11
462.1527662277
 21
678.1611713706
  0
LINE
  5
245
100
AcDbEntity
  8
03___PRT_ALL_CURVES
100
AcDbLine
 62
2
  6
CONTINUOUS
 10
462.9390923742
 20
675.9300417717
 11
462.9390923742
 21
674.5618766077
  0
LINE
  5
246
100
AcDbEntity
  8
03___PRT_ALL_CURVES
100
AcDbLine
 62
2
  6
CONTINUOUS
 10
462.9390923742
 20
676.5585926639
 11
462.9390923742
 21
677.5089768004
  0
LINE
  5
247
100
AcDbEntity
  8
03___PRT_ALL_CURVES
100
AcDbLine
 62
2
  6
CONTINUOUS
 10
469.6952010633
 20
674.5618766077
 11
470.074463869
 21
676.88847913
  0
LINE
  5
248
100
AcDbEntity
  8
03___PRT_ALL_CURVES
100
AcDbLine
 62
2
  6
CONTINUOUS
 10
469.5145841292
 20
678.1611713706
 11
468.925136087
 21
674.5618766077
  0
LINE
  5
249
100
AcDbEntity
  8
03___PRT_ALL_CURVES
100
AcDbLine
 62
2
  6
CONTINUOUS
 10
490.3865565443
 20
678.1611713706
 11
488.9740685707
 21
674.5618766077
  0
LINE
  5
24A
100
AcDbEntity
  8
03___PRT_ALL_CURVES
100
AcDbLine
 62
2
  6
CONTINUOUS
 10
490.7499453403
 20
677.1285704357
 11
490.2792074982
 21
675.929331571
  0
LINE
  5
24B
100
AcDbEntity
  8
03___PRT_ALL_CURVES
100
AcDbLine
 62
2
  6
CONTINUOUS
 10
489.7417929786
 20
674.5618766077
 11
490.0250759421
 21
675.281661362
  0
LINE
  5
24C
100
AcDbEntity
  8
03___PRT_ALL_CURVES
100
AcDbLine
 62
2
  6
CONTINUOUS
 10
477.3616412275
 20
678.1611713706
 11
477.3616412275
 21
674.5618766077
  0
LINE
  5
24D
100
AcDbEntity
  8
03___PRT_ALL_CURVES
100
AcDbLine
 62
2
  6
CONTINUOUS
 10
478.1479673739
 20
674.5618766077
 11
478.1479673739
 21
676.9519593472
  0
LINE
  5
24E
100
AcDbEntity
  8
03___PRT_ALL_CURVES
100
AcDbLine
 62
2
  6
CONTINUOUS
 10
479.7517514372
 20
678.1611713706
 11
479.7517514372
 21
675.7710886311
  0
LINE
  5
24F
100
AcDbEntity
  8
03___PRT_ALL_CURVES
100
AcDbLine
 62
2
  6
CONTINUOUS
 10
480.5380775837
 20
674.5618766077
 11
480.5380775837
 21
678.1611713706
  0
LINE
  5
250
100
AcDbEntity
  8
03___PRT_ALL_CURVES
100
AcDbLine
 62
2
  6
CONTINUOUS
 10
481.038358971
 20
678.1611713706
 11
481.038358971
 21
677.5089768004
  0
LINE
  5
251
100
AcDbEntity
  8
03___PRT_ALL_CURVES
100
AcDbLine
 62
2
  6
CONTINUOUS
 10
481.8822607847
 20
677.5089768004
 11
481.8822607847
 21
674.5618766077
  0
LINE
  5
252
100
AcDbEntity
  8
03___PRT_ALL_CURVES
100
AcDbLine
 62
2
  6
CONTINUOUS
 10
482.6685869312
 20
674.5618766077
 11
482.6685869312
 21
677.5089768004
  0
LINE
  5
253
100
AcDbEntity
  8
03___PRT_ALL_CURVES
100
AcDbLine
 62
2
  6
CONTINUOUS
 10
483.5124887448
 20
677.5089768004
 11
483.5124887448
 21
678.1611713706
  0
LINE
  5
254
100
AcDbEntity
  8
03___PRT_ALL_CURVES
100
AcDbLine
 62
2
  6
CONTINUOUS
 10
484.0136724596
 20
678.1611713706
 11
484.0136724596
 21
674.5618766077
  0
LINE
  5
255
100
AcDbEntity
  8
03___PRT_ALL_CURVES
100
AcDbLine
 62
2
  6
CONTINUOUS
 10
484.799998606
 20
674.5618766077
 11
484.799998606
 21
678.1611713706
  0
LINE
  5
256
100
AcDbEntity
  8
03___PRT_ALL_CURVES
100
AcDbLine
 62
2
  6
CONTINUOUS
 10
485.3994624062
 20
678.1611713706
 11
485.3994624062
 21
674.5618766077
  0
LINE
  5
257
100
AcDbEntity
  8
03___PRT_ALL_CURVES
100
AcDbLine
 62
2
  6
CONTINUOUS
 10
486.1857885526
 20
674.5618766077
 11
486.1857885526
 21
676.9519593472
  0
LINE
  5
258
100
AcDbEntity
  8
03___PRT_ALL_CURVES
100
AcDbLine
 62
2
  6
CONTINUOUS
 10
487.7895726159
 20
678.1611713706
 11
487.7895726159
 21
675.7710886311
  0
LINE
  5
259
100
AcDbEntity
  8
03___PRT_ALL_CURVES
100
AcDbLine
 62
2
  6
CONTINUOUS
 10
488.5758987624
 20
674.5618766077
 11
488.5758987624
 21
678.1611713706
  0
LINE
  5
25A
100
AcDbEntity
  8
03___PRT_ALL_CURVES
100
AcDbLine
 62
2
  6
CONTINUOUS
 10
473.2579361771
 20
674.5618766077
 11
472.6686698124
 21
678.1611713706
  0
LINE
  5
25B
100
AcDbEntity
  8
03___PRT_ALL_CURVES
100
AcDbLine
 62
2
  6
CONTINUOUS
 10
472.1085130634
 20
676.8902133673
 11
472.4878712008
 21
674.5618766077
  0
LINE
  5
25C
100
AcDbEntity
  8
03___PRT_ALL_CURVES
100
AcDbLine
 62
2
  6
CONTINUOUS
 10
495.130084228
 20
678.9606219651
 11
495.130084228
 21
674.1604619463
  0
LINE
  5
25D
100
AcDbEntity
  8
03___PRT_ALL_CURVES
100
AcDbLine
 62
2
  6
CONTINUOUS
 10
495.5301945027
 20
678.9606028067
 11
495.5301945027
 21
674.160442788
  0
LINE
  5
25E
100
AcDbEntity
  8
03___PRT_ALL_CURVES
100
AcDbLine
 62
2
  6
CONTINUOUS
 10
466.84484117
 20
677.1284303193
 11
467.3161302415
 21
675.929331571
  0
LINE
  5
25F
100
AcDbEntity
  8
03___PRT_ALL_CURVES
100
AcDbLine
 62
2
  6
CONTINUOUS
 10
467.5703779588
 20
675.281661362
 11
467.8531139928
 21
674.5618766077
  0
LINE
  5
260
100
AcDbEntity
  8
03___PRT_ALL_CURVES
100
AcDbLine
 62
2
  6
CONTINUOUS
 10
467.2084241224
 20
678.1611713706
 11
468.6208384006
 21
674.5618766077
  0
LINE
  5
261
100
AcDbEntity
  8
03___PRT_ALL_CURVES
100
AcDbLine
 62
2
  6
CONTINUOUS
 10
470.074463869
 20
676.88847913
 11
470.8622900308
 21
674.5618766077
  0
LINE
  5
262
100
AcDbEntity
  8
03___PRT_ALL_CURVES
100
AcDbLine
 62
2
  6
CONTINUOUS
 10
471.091359309
 20
675.8201876696
 11
470.3009102757
 21
678.1611713706
  0
LINE
  5
263
100
AcDbEntity
  8
03___PRT_ALL_CURVES
100
AcDbLine
 62
2
  6
CONTINUOUS
 10
463.8965522829
 20
674.5618766077
 11
462.9390923742
 21
675.9300417717
  0
LINE
  5
264
100
AcDbEntity
  8
03___PRT_ALL_CURVES
100
AcDbLine
 62
2
  6
CONTINUOUS
 10
463.7056700062
 20
676.0821934666
 11
464.7695514394
 21
674.5618766077
  0
LINE
  5
265
100
AcDbEntity
  8
03___PRT_ALL_CURVES
100
AcDbLine
 62
2
  6
CONTINUOUS
 10
478.1479673739
 20
676.9519593472
 11
479.7517514372
 21
674.5618766077
  0
LINE
  5
266
100
AcDbEntity
  8
03___PRT_ALL_CURVES
100
AcDbLine
 62
2
  6
CONTINUOUS
 10
479.7517514372
 20
675.7710886311
 11
478.1479673739
 21
678.1611713706
  0
LINE
  5
267
100
AcDbEntity
  8
03___PRT_ALL_CURVES
100
AcDbLine
 62
2
  6
CONTINUOUS
 10
491.4753628839
 20
675.281661362
 11
491.7580989179
 21
674.5618766077
  0
LINE
  5
268
100
AcDbEntity
  8
03___PRT_ALL_CURVES
100
AcDbLine
 62
2
  6
CONTINUOUS
 10
490.7499453403
 20
677.1285704357
 11
491.2206831824
 21
675.929331571
  0
LINE
  5
269
100
AcDbEntity
  8
03___PRT_ALL_CURVES
100
AcDbLine
 62
2
  6
CONTINUOUS
 10
492.5258233257
 20
674.5618766077
 11
491.1133347746
 21
678.1611713706
  0
LINE
  5
26A
100
AcDbEntity
  8
03___PRT_ALL_CURVES
100
AcDbLine
 62
2
  6
CONTINUOUS
 10
486.1857885526
 20
676.9519593472
 11
487.7895726159
 21
674.5618766077
  0
LINE
  5
26B
100
AcDbEntity
  8
03___PRT_ALL_CURVES
100
AcDbLine
 62
2
  6
CONTINUOUS
 10
487.7895726159
 20
675.7710886311
 11
486.1857885526
 21
678.1611713706
  0
LINE
  5
26C
100
AcDbEntity
  8
03___PRT_ALL_CURVES
100
AcDbLine
 62
2
  6
CONTINUOUS
 10
493.9304067007
 20
672.560654986
 11
457.1297220675
 21
672.560654986
  0
LINE
  5
26D
100
AcDbEntity
  8
03___PRT_ALL_CURVES
100
AcDbLine
 62
2
  6
CONTINUOUS
 10
493.9304067007
 20
672.9605793916
 11
457.1297220675
 21
672.9605793916
  0
LINE
  5
26E
100
AcDbEntity
  8
03___PRT_ALL_CURVES
100
AcDbLine
 62
2
  6
CONTINUOUS
 10
468.6208384006
 20
674.5618766077
 11
467.8531140208
 21
674.5618766077
  0
LINE
  5
26F
100
AcDbEntity
  8
03___PRT_ALL_CURVES
100
AcDbLine
 62
2
  6
CONTINUOUS
 10
465.8368080535
 20
674.5618766077
 11
465.0690836383
 21
674.5618766077
  0
LINE
  5
270
100
AcDbEntity
  8
03___PRT_ALL_CURVES
100
AcDbLine
 62
2
  6
CONTINUOUS
 10
464.7695514394
 20
674.5618766077
 11
463.8965522573
 21
674.5618766077
  0
LINE
  5
271
100
AcDbEntity
  8
03___PRT_ALL_CURVES
100
AcDbLine
 62
2
  6
CONTINUOUS
 10
462.9390923742
 20
674.5618766077
 11
462.152766238
 21
674.5618766077
  0
LINE
  5
272
100
AcDbEntity
  8
03___PRT_ALL_CURVES
100
AcDbLine
 62
2
  6
CONTINUOUS
 10
460.8083536466
 20
674.5618766077
 11
460.0220274779
 21
674.5618766077
  0
LINE
  5
273
100
AcDbEntity
  8
03___PRT_ALL_CURVES
100
AcDbLine
 62
2
  6
CONTINUOUS
 10
468.925136087
 20
674.5618766077
 11
469.6952010467
 21
674.5618766077
  0
LINE
  5
274
100
AcDbEntity
  8
03___PRT_ALL_CURVES
100
AcDbLine
 62
2
  6
CONTINUOUS
 10
470.8622900308
 20
674.5618766077
 11
471.3211739876
 21
674.5618766077
  0
LINE
  5
275
100
AcDbEntity
  8
03___PRT_ALL_CURVES
100
AcDbLine
 62
2
  6
CONTINUOUS
 10
472.4878712008
 20
674.5618766077
 11
473.2579362015
 21
674.5618766077
  0
LINE
  5
276
100
AcDbEntity
  8
03___PRT_ALL_CURVES
100
AcDbLine
 62
2
  6
CONTINUOUS
 10
477.3616412275
 20
674.5618766077
 11
478.1479673892
 21
674.5618766077
  0
LINE
  5
277
100
AcDbEntity
  8
03___PRT_ALL_CURVES
100
AcDbLine
 62
2
  6
CONTINUOUS
 10
479.7517514372
 20
674.5618766077
 11
480.5380776116
 21
674.5618766077
  0
LINE
  5
278
100
AcDbEntity
  8
03___PRT_ALL_CURVES
100
AcDbLine
 62
2
  6
CONTINUOUS
 10
481.8822607847
 20
674.5618766077
 11
482.6685869323
 21
674.5618766077
  0
LINE
  5
279
100
AcDbEntity
  8
03___PRT_ALL_CURVES
100
AcDbLine
 62
2
  6
CONTINUOUS
 10
484.0136724596
 20
674.5618766077
 11
484.7999985788
 21
674.5618766077
  0
LINE
  5
27A
100
AcDbEntity
  8
03___PRT_ALL_CURVES
100
AcDbLine
 62
2
  6
CONTINUOUS
 10
485.3994624062
 20
674.5618766077
 11
486.1857885336
 21
674.5618766077
  0
LINE
  5
27B
100
AcDbEntity
  8
03___PRT_ALL_CURVES
100
AcDbLine
 62
2
  6
CONTINUOUS
 10
487.7895726159
 20
674.5618766077
 11
488.5758987652
 21
674.5618766077
  0
LINE
  5
27C
100
AcDbEntity
  8
03___PRT_ALL_CURVES
100
AcDbLine
 62
2
  6
CONTINUOUS
 10
488.9740685707
 20
674.5618766077
 11
489.7417929584
 21
674.5618766077
  0
LINE
  5
27D
100
AcDbEntity
  8
03___PRT_ALL_CURVES
100
AcDbLine
 62
2
  6
CONTINUOUS
 10
491.7580989179
 20
674.5618766077
 11
492.5258233249
 21
674.5618766077
  0
LINE
  5
27E
100
AcDbEntity
  8
03___PRT_ALL_CURVES
100
AcDbLine
 62
2
  6
CONTINUOUS
 10
467.5703779588
 20
675.281661362
 11
466.1200909595
 21
675.281661362
  0
LINE
  5
27F
100
AcDbEntity
  8
03___PRT_ALL_CURVES
100
AcDbLine
 62
2
  6
CONTINUOUS
 10
490.0250759421
 20
675.281661362
 11
491.4753628484
 21
675.281661362
  0
LINE
  5
280
100
AcDbEntity
  8
03___PRT_ALL_CURVES
100
AcDbLine
 62
2
  6
CONTINUOUS
 10
491.2206831824
 20
675.929331571
 11
490.2792074895
 21
675.929331571
  0
LINE
  5
281
100
AcDbEntity
  8
03___PRT_ALL_CURVES
100
AcDbLine
 62
2
  6
CONTINUOUS
 10
467.3161302415
 20
675.929331571
 11
466.3746545519
 21
675.929331571
  0
LINE
  5
282
100
AcDbEntity
  8
03___PRT_ALL_CURVES
100
AcDbLine
 62
2
  6
CONTINUOUS
 10
463.2420981058
 20
676.5585926639
 11
462.9390923881
 21
676.5585926639
  0
LINE
  5
283
100
AcDbEntity
  8
03___PRT_ALL_CURVES
100
AcDbLine
 62
2
  6
CONTINUOUS
 10
461.6522554603
 20
677.5089768004
 11
460.8083536625
 21
677.5089768004
  0
LINE
  5
284
100
AcDbEntity
  8
03___PRT_ALL_CURVES
100
AcDbLine
 62
2
  6
CONTINUOUS
 10
460.0220275001
 20
677.5089768004
 11
459.1781256641
 21
677.5089768004
  0
LINE
  5
285
100
AcDbEntity
  8
03___PRT_ALL_CURVES
100
AcDbLine
 62
2
  6
CONTINUOUS
 10
462.9390923742
 20
677.5089768004
 11
463.2420976575
 21
677.5089768004
  0
LINE
  5
286
100
AcDbEntity
  8
03___PRT_ALL_CURVES
100
AcDbLine
 62
2
  6
CONTINUOUS
 10
481.038358971
 20
677.5089768004
 11
481.8822607893
 21
677.5089768004
  0
LINE
  5
287
100
AcDbEntity
  8
03___PRT_ALL_CURVES
100
AcDbLine
 62
2
  6
CONTINUOUS
 10
482.6685869312
 20
677.5089768004
 11
483.512488751
 21
677.5089768004
  0
LINE
  5
288
100
AcDbEntity
  8
03___PRT_ALL_CURVES
100
AcDbLine
 62
2
  6
CONTINUOUS
 10
491.1133347746
 20
678.1611713706
 11
490.3865565154
 21
678.1611713706
  0
LINE
  5
289
100
AcDbEntity
  8
03___PRT_ALL_CURVES
100
AcDbLine
 62
2
  6
CONTINUOUS
 10
488.5758987624
 20
678.1611713706
 11
487.7895726131
 21
678.1611713706
  0
LINE
  5
28A
100
AcDbEntity
  8
03___PRT_ALL_CURVES
100
AcDbLine
 62
2
  6
CONTINUOUS
 10
486.1857885526
 20
678.1611713706
 11
485.3994624252
 21
678.1611713706
  0
LINE
  5
28B
100
AcDbEntity
  8
03___PRT_ALL_CURVES
100
AcDbLine
 62
2
  6
CONTINUOUS
 10
484.799998606
 20
678.1611713706
 11
484.0136724869
 21
678.1611713706
  0
LINE
  5
28C
100
AcDbEntity
  8
03___PRT_ALL_CURVES
100
AcDbLine
 62
2
  6
CONTINUOUS
 10
483.5124887448
 20
678.1611713706
 11
481.0383589591
 21
678.1611713706
  0
LINE
  5
28D
100
AcDbEntity
  8
03___PRT_ALL_CURVES
100
AcDbLine
 62
2
  6
CONTINUOUS
 10
480.5380775837
 20
678.1611713706
 11
479.7517514093
 21
678.1611713706
  0
LINE
  5
28E
100
AcDbEntity
  8
03___PRT_ALL_CURVES
100
AcDbLine
 62
2
  6
CONTINUOUS
 10
478.1479673739
 20
678.1611713706
 11
477.3616412122
 21
678.1611713706
  0
LINE
  5
28F
100
AcDbEntity
  8
03___PRT_ALL_CURVES
100
AcDbLine
 62
2
  6
CONTINUOUS
 10
472.6686698124
 20
678.1611713706
 11
471.8823436575
 21
678.1611713706
  0
LINE
  5
290
100
AcDbEntity
  8
03___PRT_ALL_CURVES
100
AcDbLine
 62
2
  6
CONTINUOUS
 10
470.3009102757
 20
678.1611713706
 11
469.5145841512
 21
678.1611713706
  0
LINE
  5
291
100
AcDbEntity
  8
03___PRT_ALL_CURVES
100
AcDbLine
 62
2
  6
CONTINUOUS
 10
467.2084241224
 20
678.1611713706
 11
466.4816459182
 21
678.1611713706
  0
LINE
  5
292
100
AcDbEntity
  8
03___PRT_ALL_CURVES
100
AcDbLine
 62
2
  6
CONTINUOUS
 10
461.6522554603
 20
678.1611713706
 11
459.1781256578
 21
678.1611713706
  0
LINE
  5
293
100
AcDbEntity
  8
03___PRT_ALL_CURVES
100
AcDbLine
 62
2
  6
CONTINUOUS
 10
462.1527662277
 20
678.1611713706
 11
463.4984133301
 21
678.1611713706
  0
LINE
  5
294
100
AcDbEntity
  8
03___PRT_ALL_CURVES
100
AcDbLine
 62
2
  6
CONTINUOUS
 10
457.1297227026
 20
680.1605045198
 11
493.9304073358
 21
680.1605045198
  0
LINE
  5
295
100
AcDbEntity
  8
03___PRT_ALL_CURVES
100
AcDbLine
 62
2
  6
CONTINUOUS
 10
457.1297227025
 20
680.5603906087
 11
493.9304073357
 21
680.5603906087
  0
LINE
  5
296
100
AcDbEntity
  8
0
100
AcDbLine
 62
7
  6
CONTINUOUS
 10
347.9300647016
 20
705.1318906087
 11
603.1300647016
 21
705.1318906087
  0
LINE
  5
297
100
AcDbEntity
  8
0
100
AcDbLine
 62
7
  6
CONTINUOUS
 10
347.9300647016
 20
707.8318906087
 11
603.1300647016
 21
707.8318906087
  0
LINE
  5
298
100
AcDbEntity
  8
02___PRT_ALL_AXES
100
AcDbLine
 62
7
  6
CONTINUOUS
 10
600.5300647016
 20
705.1318906087
 11
600.5300647016
 21
454.6033906087
  0
LINE
  5
299
100
AcDbEntity
  8
02___PRT_ALL_AXES
100
AcDbLine
 62
3
  6
CONTINUOUS
 10
602.1800647016
 20
732.644572777
 11
602.1800647016
 21
720.1559969042
  0
LINE
  5
29A
100
AcDbEntity
  8
02___PRT_ALL_AXES
100
AcDbLine
 62
3
  6
CONTINUOUS
 10
602.1800647016
 20
717.1077843132
 11
602.1800647016
 21
707.8318906087
  0
LINE
  5
29B
100
AcDbEntity
  8
0
100
AcDbLine
 62
3
  6
CONTINUOUS
 10
348.8800647016
 20
732.644572777
 11
602.1800647016
 21
732.644572777
  0
LINE
  5
29C
100
AcDbEntity
  8
0
100
AcDbLine
 62
3
  6
CONTINUOUS
 10
349.5590587844
 20
733.5170155456
 11
601.5010706188
 21
733.5170155456
  0
LINE
  5
29D
100
AcDbEntity
  8
0
100
AcDbLine
 62
3
  6
CONTINUOUS
 10
369.6204789028
 20
736.1270465233
 11
581.4396505004
 21
736.1270465233
  0
LINE
  5
29E
100
AcDbEntity
  8
0
100
AcDbLine
 62
7
  6
CONTINUOUS
 10
369.6300647016
 20
736.1270975734
 11
369.6204789028
 21
736.1270465233
  0
LINE
  5
29F
100
AcDbEntity
  8
0
100
AcDbLine
 62
7
  6
CONTINUOUS
 10
581.4300647016
 20
736.1270975734
 11
581.4396505004
 21
736.1270465233
  0
LINE
  5
2A0
100
AcDbEntity
  8
02___PRT_ALL_AXES
100
AcDbLine
 62
7
  6
CONTINUOUS
 10
580.5145628703
 20
254.5025183306
 11
578.51914158
 21
254.5025183306
  0
LINE
  5
2A1
100
AcDbEntity
  8
02___PRT_ALL_AXES
100
AcDbLine
 62
7
  6
CONTINUOUS
 10
372.5409878258
 20
254.5025183306
 11
370.5455665329
 21
254.5025183306
  0
LINE
  5
2A2
100
AcDbEntity
  8
0
100
AcDbLine
 62
7
  6
CONTINUOUS
 10
604.4800647016
 20
256.0025183306
 11
602.2623014285
 21
256.0025183306
  0
LINE
  5
2A3
100
AcDbEntity
  8
0
100
AcDbLine
 62
3
  6
CONTINUOUS
 10
348.86319421
 20
256.0025183306
 11
348.7978279747
 21
256.0025183306
  0
LINE
  5
2A4
100
AcDbEntity
  8
0
100
AcDbLine
 62
7
  6
CONTINUOUS
 10
346.5800647016
 20
256.0025183306
 11
348.7978279747
 21
256.0025183306
  0
LINE
  5
2A5
100
AcDbEntity
  8
0
100
AcDbLine
 62
3
  6
CONTINUOUS
 10
602.1969351932
 20
256.0025183306
 11
602.2623014285
 21
256.0025183306
  0
LINE
  5
2A6
100
AcDbEntity
  8
02___PRT_ALL_AXES
100
AcDbLine
 62
7
  6
CONTINUOUS
 10
580.5145628703
 20
257.5025183306
 11
578.5191412941
 21
257.5025183306
  0
LINE
  5
2A7
100
AcDbEntity
  8
02___PRT_ALL_AXES
100
AcDbLine
 62
7
  6
CONTINUOUS
 10
372.5409881104
 20
257.5025183306
 11
370.5455665329
 21
257.5025183306
  0
ARC
  5
2A8
100
AcDbEntity
  8
02___PRT_ALL_AXES
100
AcDbCircle
 62
3
  6
CONTINUOUS
 10
221.37461905
 20
718.6318906087
 40
127.514554349
100
AcDbArc
 50
359.3151610179
 51
0.6848389821
  0
ARC
  5
2A9
100
AcDbEntity
  8
02___PRT_ALL_AXES
100
AcDbCircle
 62
3
  6
CONTINUOUS
 10
729.6855103522
 20
718.6318906087
 40
127.514554348
100
AcDbArc
 50
179.3151610179
 51
180.6848389821
  0
ARC
  5
2AA
100
AcDbEntity
  8
0
100
AcDbCircle
 62
3
  6
CONTINUOUS
 10
370.5300647016
 20
650.7318906087
 40
85.4
100
AcDbArc
 50
90.6102624446
 51
104.2150562986
  0
ARC
  5
2AB
100
AcDbEntity
  8
02___PRT_ALL_AXES
100
AcDbCircle
 62
3
  6
CONTINUOUS
 10
370.5300647016
 20
650.7318906087
 40
85.4
100
AcDbArc
 50
90.6102624446
 51
104.2150562986
  0
ARC
  5
2AC
100
AcDbEntity
  8
02___PRT_ALL_AXES
100
AcDbCircle
 62
3
  6
CONTINUOUS
 10
580.5300647016
 20
650.7318906087
 40
85.4
100
AcDbArc
 50
75.7849437014
 51
89.3897375554
  0
ARC
  5
2AD
100
AcDbEntity
  8
0
100
AcDbCircle
 62
7
  6
CONTINUOUS
 10
352.4300647016
 20
454.6033906087
 40
1.9
100
AcDbArc
 50
180.0
 51
270.0
  0
ARC
  5
2AE
100
AcDbEntity
  8
0
100
AcDbCircle
 62
7
  6
CONTINUOUS
 10
598.6300647016
 20
454.6033906087
 40
1.9
100
AcDbArc
 50
270.0
 51
360.0
  0
ARC
  5
2AF
100
AcDbEntity
  8
03___PRT_ALL_CURVES
100
AcDbCircle
 62
2
  6
CONTINUOUS
 10
457.1297227025
 20
678.9606028067
 40
1.599787802
100
AcDbArc
 50
90.0
 51
180.0
  0
ARC
  5
2B0
100
AcDbEntity
  8
03___PRT_ALL_CURVES
100
AcDbCircle
 62
2
  6
CONTINUOUS
 10
493.9304067007
 20
674.160442788
 40
1.599787802
100
AcDbArc
 50
270.0
 51
360.0
  0
ARC
  5
2B1
100
AcDbEntity
  8
03___PRT_ALL_CURVES
100
AcDbCircle
 62
2
  6
CONTINUOUS
 10
457.1297227025
 20
674.160442788
 40
1.599787802
100
AcDbArc
 50
180.0
 51
270.0
  0
ARC
  5
2B2
100
AcDbEntity
  8
0
100
AcDbCircle
 62
7
  6
CONTINUOUS
 10
603.1300647016
 20
706.4818906087
 40
1.35
100
AcDbArc
 50
270.0
 51
90.0
  0
ARC
  5
2B3
100
AcDbEntity
  8
0
100
AcDbCircle
 62
7
  6
CONTINUOUS
 10
347.9300647016
 20
706.4818906087
 40
1.35
100
AcDbArc
 50
90.0
 51
270.0
  0
ARC
  5
2B4
100
AcDbEntity
  8
03___PRT_ALL_CURVES
100
AcDbCircle
 62
2
  6
CONTINUOUS
 10
463.49796709
 20
677.1113070552
 40
1.0498644102
100
AcDbArc
 50
281.4105507001
 51
89.9756484536
  0
ARC
  5
2B5
100
AcDbEntity
  8
0
100
AcDbCircle
 62
7
  6
CONTINUOUS
 10
349.7800647016
 20
732.644572777
 40
0.9
100
AcDbArc
 50
104.2150562986
 51
180.0
  0
ARC
  5
2B6
100
AcDbEntity
  8
0
100
AcDbCircle
 62
7
  6
CONTINUOUS
 10
601.2800647016
 20
732.644572777
 40
0.9
100
AcDbArc
 50
0.0
 51
75.7849437014
  0
ARC
  5
2B7
100
AcDbEntity
  8
03___PRT_ALL_CURVES
100
AcDbCircle
 62
2
  6
CONTINUOUS
 10
463.1101518781
 20
677.0339505124
 40
0.6771582773
100
AcDbArc
 50
359.966412893
 51
13.3320254935
  0
ARC
  5
2B8
100
AcDbEntity
  8
03___PRT_ALL_CURVES
100
AcDbCircle
 62
2
  6
CONTINUOUS
 10
463.2418106928
 20
677.1828120454
 40
0.6242194477
100
AcDbArc
 50
270.0263810393
 51
304.1952312723
  0
ARC
  5
2B9
100
AcDbEntity
  8
03___PRT_ALL_CURVES
100
AcDbCircle
 62
2
  6
CONTINUOUS
 10
463.343200991
 20
677.0339505124
 40
0.4441092254
100
AcDbArc
 50
304.169384422
 51
359.9487878719
  0
CIRCLE
  5
2BA
100
AcDbEntity
  8
0
100
AcDbCircle
 62
7
  6
CONTINUOUS
 10
475.5300647016
 20
256.0025183306
 40
128.95
  0
CIRCLE
  5
2BB
100
AcDbEntity
  8
0
100
AcDbCircle
 62
7
  6
CONTINUOUS
 10
475.5300647016
 20
256.0025183306
 40
126.7322367269
  0
CIRCLE
  5
2BC
100
AcDbEntity
  8
0
100
AcDbCircle
 62
3
  6
CONTINUOUS
 10
475.5300647016
 20
256.0025183306
 40
126.65
  0
CIRCLE
  5
2BD
100
AcDbEntity
  8
0
100
AcDbCircle
 62
3
  6
CONTINUOUS
 10
475.5300647016
 20
256.0025183306
 40
125.9710059172
  0
CIRCLE
  5
2BE
100
AcDbEntity
  8
0
100
AcDbCircle
 62
3
  6
CONTINUOUS
 10
475.5300647016
 20
256.0025183306
 40
105.9095857988
  0
CIRCLE
  5
2BF
100
AcDbEntity
  8
0
100
AcDbCircle
 62
3
  6
CONTINUOUS
 10
475.5300647016
 20
256.0025183306
 40
105.0
  0
ARC
  5
2C0
100
AcDbEntity
  8
0
100
AcDbCircle
 62
3
  6
CONTINUOUS
 10
475.5300647016
 20
256.0025183306
 40
104.168374946
100
AcDbArc
 50
0.8278707724
 51
179.1721290329
  0
ARC
  5
2C1
100
AcDbEntity
  8
0
100
AcDbCircle
 62
3
  6
CONTINUOUS
 10
475.5300647016
 20
256.0025183306
 40
104.168374946
100
AcDbArc
 50
180.8278707724
 51
359.1721290329
  0
ARC
  5
2C2
100
AcDbEntity
  8
0
100
AcDbCircle
 62
3
  6
CONTINUOUS
 10
475.5300647016
 20
256.0025183306
 40
103.4001536664
100
AcDbArc
 50
180.8318792133
 51
359.1681209858
  0
ARC
  5
2C3
100
AcDbEntity
  8
0
100
AcDbCircle
 62
3
  6
CONTINUOUS
 10
475.5300647016
 20
256.0025183306
 40
103.4001536664
100
AcDbArc
 50
0.8318792133
 51
179.1681209858
  0
ARC
  5
2C4
100
AcDbEntity
  8
0
100
AcDbCircle
 62
3
  6
CONTINUOUS
 10
475.5300647016
 20
256.0025183306
 40
103.1197848671
100
AcDbArc
 50
180.8341435072
 51
359.1658560851
  0
ARC
  5
2C5
100
AcDbEntity
  8
0
100
AcDbCircle
 62
3
  6
CONTINUOUS
 10
475.5300647016
 20
256.0025183306
 40
103.1197848671
100
AcDbArc
 50
0.8341435072
 51
179.1658560851
  0
CIRCLE
  5
2C6
100
AcDbEntity
  8
0
100
AcDbCircle
 62
3
  6
CONTINUOUS
 10
475.5300647016
 20
256.0025183306
 40
103.0
  0
CIRCLE
  5
2C7
100
AcDbEntity
  8
0
100
AcDbCircle
 62
3
  6
CONTINUOUS
 10
475.5300647016
 20
256.0025183306
 40
101.8
  0
CIRCLE
  5
2C8
100
AcDbEntity
  8
0
100
AcDbCircle
 62
3
  6
CONTINUOUS
 10
475.5300647016
 20
256.0025183306
 40
96.2870707832
  0
CIRCLE
  5
2C9
100
AcDbEntity
  8
0
100
AcDbCircle
 62
3
  6
CONTINUOUS
 10
475.5300647016
 20
256.0025183306
 40
95.7447301873
  0
SPLINE
  5
2CA
100
AcDbEntity
  8
03___PRT_ALL_CURVES
100
AcDbSpline
 62
2
  6
CONTINUOUS
 70
0
 71
3
 72
17
 73
13
 74
0
 42
0.0000001
 43
0.0000001
 44
0.0000000001
 40
0.0
 40
0.0
 40
0.0
 40
0.0
 40
0.1
 40
0.2
 40
0.3
 40
0.4
 40
0.5
 40
0.6
 40
0.7
 40
0.8
 40
0.9
 40
1.0
 40
1.0
 40
1.0
 40
1.0
 10
457.1297227025
 20
672.9605793916
 30
0.0
 10
457.0670617539
 20
672.9605793916
 30
0.0
 10
456.9435731022
 20
672.9718762873
 30
0.0
 10
456.7627719728
 20
673.0162210462
 30
0.0
 10
456.5894979443
 20
673.0863530653
 30
0.0
 10
456.427266038
 20
673.1826451036
 30
0.0
 10
456.2817423305
 20
673.3039512314
 30
0.0
 10
456.1583178286
 20
673.4489446513
 30
0.0
 10
456.0597199784
 20
673.6121067483
 30
0.0
 10
455.9876232894
 20
673.7870701792
 30
0.0
 10
455.9416752839
 20
673.9713533166
 30
0.0
 10
455.9300451753
 20
674.0967899255
 30
0.0
 10
455.9300451753
 20
674.1604619464
 30
0.0
  0
SPLINE
  5
2CB
100
AcDbEntity
  8
03___PRT_ALL_CURVES
100
AcDbSpline
 62
2
  6
CONTINUOUS
 70
0
 71
3
 72
14
 73
10
 74
0
 42
0.0000001
 43
0.0000001
 44
0.0000000001
 40
0.0
 40
0.0
 40
0.0
 40
0.0
 40
0.1428571429
 40
0.2857142857
 40
0.4285714286
 40
0.5714285714
 40
0.7142857143
 40
0.8571428571
 40
1.0
 40
1.0
 40
1.0
 40
1.0
 10
457.1294296729
 20
672.9605793916
 30
0.0
 10
457.0416058793
 20
672.9605920584
 30
0.0
 10
456.8686246342
 20
672.9822298669
 30
0.0
 10
456.6108635724
 20
673.070093208
 30
0.0
 10
456.3735484273
 20
673.2151840001
 30
0.0
 10
456.1791263258
 20
673.4113364439
 30
0.0
 10
456.0367068995
 20
673.6481220393
 30
0.0
 10
455.9509857427
 20
673.9035015983
 30
0.0
 10
455.9300451753
 20
674.0740803588
 30
0.0
 10
455.9300451753
 20
674.1604619464
 30
0.0
  0
SPLINE
  5
2CC
100
AcDbEntity
  8
03___PRT_ALL_CURVES
100
AcDbSpline
 62
2
  6
CONTINUOUS
 70
0
 71
3
 72
21
 73
17
 74
0
 42
0.0000001
 43
0.0000001
 44
0.0000000001
 40
0.0
 40
0.0
 40
0.0
 40
0.0
 40
0.0714285714
 40
0.1428571429
 40
0.2142857143
 40
0.2857142857
 40
0.3571428571
 40
0.4285714286
 40
0.5
 40
0.5714285714
 40
0.6428571429
 40
0.7142857143
 40
0.7857142857
 40
0.8571428571
 40
0.9285714286
 40
1.0
 40
1.0
 40
1.0
 40
1.0
 10
495.130084228
 20
674.1604619462
 30
0.0
 10
495.1300784132
 20
674.1201510533
 30
0.0
 10
495.1255125606
 20
674.0398814779
 30
0.0
 10
495.1051809064
 20
673.9149497776
 30
0.0
 10
495.070161011
 20
673.7864056132
 30
0.0
 10
495.0202790005
 20
673.6590405236
 30
0.0
 10
494.9556004156
 20
673.5357943895
 30
0.0
 10
494.877360571
 20
673.4199997026
 30
0.0
 10
494.7830335847
 20
673.311719077
 30
0.0
 10
494.6751550672
 20
673.2168489395
 30
0.0
 10
494.5595941877
 20
673.1380116833
 30
0.0
 10
494.4362902983
 20
673.0726229633
 30
0.0
 10
494.308591004
 20
673.021991673
 30
0.0
 10
494.1792971504
 20
672.9862552674
 30
0.0
 10
494.0529482734
 20
672.9653233127
 30
0.0
 10
493.9714377964
 20
672.9605793916
 30
0.0
 10
493.9304067007
 20
672.9605793916
 30
0.0
  0
SPLINE
  5
2CD
100
AcDbEntity
  8
03___PRT_ALL_CURVES
100
AcDbSpline
 62
2
  6
CONTINUOUS
 70
0
 71
3
 72
17
 73
13
 74
0
 42
0.0000001
 43
0.0000001
 44
0.0000000001
 40
0.0
 40
0.0
 40
0.0
 40
0.0
 40
0.1
 40
0.2
 40
0.3
 40
0.4
 40
0.5
 40
0.6
 40
0.7
 40
0.8
 40
0.9
 40
1.0
 40
1.0
 40
1.0
 40
1.0
 10
495.130084228
 20
674.1604619464
 30
0.0
 10
495.130084228
 20
674.0977901778
 30
0.0
 10
495.1190198225
 20
673.9743168133
 30
0.0
 10
495.0747508198
 20
673.7934861107
 30
0.0
 10
495.0042703189
 20
673.6206543874
 30
0.0
 10
494.9083277208
 20
673.4586249823
 30
0.0
 10
494.7877732996
 20
673.3132162621
 30
0.0
 10
494.6424926715
 20
673.1896445834
 30
0.0
 10
494.4786293997
 20
673.0906821877
 30
0.0
 10
494.3035367575
 20
673.0178897055
 30
0.0
 10
494.1193248826
 20
672.9719968695
 30
0.0
 10
493.9939999379
 20
672.9605793916
 30
0.0
 10
493.9304067007
 20
672.9605793916
 30
0.0
  0
SPLINE
  5
2CE
100
AcDbEntity
  8
03___PRT_ALL_CURVES
100
AcDbSpline
 62
2
  6
CONTINUOUS
 70
0
 71
3
 72
15
 73
11
 74
0
 42
0.0000001
 43
0.0000001
 44
0.0000000001
 40
0.0
 40
0.0
 40
0.0
 40
0.0
 40
0.125
 40
0.25
 40
0.375
 40
0.5
 40
0.625
 40
0.75
 40
0.875
 40
1.0
 40
1.0
 40
1.0
 40
1.0
 10
494.7785123381
 20
679.8093251641
 30
0.0
 10
494.8046790728
 20
679.7831144066
 30
0.0
 10
494.8543120271
 20
679.727979211
 30
0.0
 10
494.9230255933
 20
679.6350068228
 30
0.0
 10
494.9860379388
 20
679.5296350764
 30
0.0
 10
495.0389391365
 20
679.41724297
 30
0.0
 10
495.0803461783
 20
679.300482728
 30
0.0
 10
495.10965708
 20
679.1821822747
 30
0.0
 10
495.1263456424
 20
679.0692788681
 30
0.0
 10
495.130084228
 20
678.9967850025
 30
0.0
 10
495.130084228
 20
678.9606219651
 30
0.0
  0
SPLINE
  5
2CF
100
AcDbEntity
  8
03___PRT_ALL_CURVES
100
AcDbSpline
 62
2
  6
CONTINUOUS
 70
0
 71
3
 72
11
 73
7
 74
0
 42
0.0000001
 43
0.0000001
 44
0.0000000001
 40
0.0
 40
0.0
 40
0.0
 40
0.0
 40
0.25
 40
0.5
 40
0.75
 40
1.0
 40
1.0
 40
1.0
 40
1.0
 10
493.9304067008
 20
680.1605045198
 30
0.0
 10
494.0095067331
 20
680.1605045198
 30
0.0
 10
494.1644234356
 20
680.1430226755
 30
0.0
 10
494.390180358
 20
680.074023466
 30
0.0
 10
494.5998057619
 20
679.9634219743
 30
0.0
 10
494.7222115589
 20
679.8656713354
 30
0.0
 10
494.7785123381
 20
679.8093251641
 30
0.0
  0
SPLINE
  5
2D0
100
AcDbEntity
  8
03___PRT_ALL_CURVES
100
AcDbSpline
 62
2
  6
CONTINUOUS
 70
0
 71
3
 72
31
 73
27
 74
0
 42
0.0000001
 43
0.0000001
 44
0.0000000001
 40
0.0
 40
0.0
 40
0.0
 40
0.0
 40
0.0666666667
 40
0.1333333333
 40
0.2
 40
0.2333333333
 40
0.2666666667
 40
0.3
 40
0.3333333333
 40
0.3666666667
 40
0.4
 40
0.4333333333
 40
0.4666666667
 40
0.5
 40
0.5333333333
 40
0.5666666667
 40
0.6
 40
0.6333333333
 40
0.6666666667
 40
0.7
 40
0.7333333333
 40
0.7666666667
 40
0.8
 40
0.8666666667
 40
0.9333333333
 40
1.0
 40
1.0
 40
1.0
 40
1.0
 10
476.9227101005
 20
675.6446288701
 30
0.0
 10
476.9725623915
 20
675.7659761566
 30
0.0
 10
477.0452247311
 20
676.0135864733
 30
0.0
 10
477.0769974398
 20
676.4086835921
 30
0.0
 10
477.0345623467
 20
676.733199011
 30
0.0
 10
476.9609366598
 20
676.9858853141
 30
0.0
 10
476.8860475431
 20
677.1684298174
 30
0.0
 10
476.7932756662
 20
677.3406368921
 30
0.0
 10
476.6834494221
 20
677.5022118053
 30
0.0
 10
476.5565869206
 20
677.65253071
 30
0.0
 10
476.414690147
 20
677.7882400199
 30
0.0
 10
476.2611094349
 20
677.9069423592
 30
0.0
 10
476.0963512198
 20
678.0089907652
 30
0.0
 10
475.9203921058
 20
678.0938806641
 30
0.0
 10
475.7364640943
 20
678.1593588556
 30
0.0
 10
475.5488769038
 20
678.2047188253
 30
0.0
 10
475.3577862549
 20
678.2304587107
 30
0.0
 10
475.1631384088
 20
678.2358821883
 30
0.0
 10
474.9691402166
 20
678.2201970447
 30
0.0
 10
474.7797001522
 20
678.1845807616
 30
0.0
 10
474.594933701
 20
678.1295381522
 30
0.0
 10
474.4155180547
 20
678.0547227212
 30
0.0
 10
474.1881235257
 20
677.9300491021
 30
0.0
 10
473.9322666875
 20
677.7333347593
 30
0.0
 10
473.6781822843
 20
677.43417016
 30
0.0
 10
473.5549740002
 20
677.2075885467
 30
0.0
 10
473.5045589577
 20
677.0860390016
 30
0.0
  0
SPLINE
  5
2D1
100
AcDbEntity
  8
03___PRT_ALL_CURVES
100
AcDbSpline
 62
2
  6
CONTINUOUS
 70
0
 71
3
 72
31
 73
27
 74
0
 42
0.0000001
 43
0.0000001
 44
0.0000000001
 40
0.0
 40
0.0
 40
0.0
 40
0.0
 40
0.0666666667
 40
0.1333333333
 40
0.2
 40
0.2666666667
 40
0.3333333333
 40
0.3666666667
 40
0.4
 40
0.4333333333
 40
0.4666666667
 40
0.5
 40
0.5333333333
 40
0.5666666667
 40
0.6
 40
0.6333333333
 40
0.6666666667
 40
0.7
 40
0.7333333333
 40
0.7666666667
 40
0.8
 40
0.8333333333
 40
0.8666666667
 40
0.9
 40
0.9333333333
 40
1.0
 40
1.0
 40
1.0
 40
1.0
 10
473.5045589577
 20
677.0860390016
 30
0.0
 10
473.4538403164
 20
676.9637574864
 30
0.0
 10
473.3800490874
 20
676.7144334313
 30
0.0
 10
473.3468889438
 20
676.3188002824
 30
0.0
 10
473.396283689
 20
675.9282398156
 30
0.0
 10
473.5258995645
 20
675.5528588563
 30
0.0
 10
473.6951781132
 20
675.2729798621
 30
0.0
 10
473.8642731535
 20
675.0719255202
 30
0.0
 10
474.0063676155
 20
674.9356315204
 30
0.0
 10
474.1603548317
 20
674.8162122149
 30
0.0
 10
474.3256115924
 20
674.7134649952
 30
0.0
 10
474.5021165468
 20
674.6279797201
 30
0.0
 10
474.68660055
 20
674.5621495813
 30
0.0
 10
474.8748051354
 20
674.5166736708
 30
0.0
 10
475.0665635371
 20
674.4910399327
 30
0.0
 10
475.2618966381
 20
674.4859115081
 30
0.0
 10
475.4566488316
 20
674.5020191318
 30
0.0
 10
475.646707814
 20
674.5381187359
 30
0.0
 10
475.8320724634
 20
674.5936816443
 30
0.0
 10
476.0124420899
 20
674.6693215695
 30
0.0
 10
476.1837177631
 20
674.7638079529
 30
0.0
 10
476.3429761991
 20
674.8748372275
 30
0.0
 10
476.4899559679
 20
675.0018988558
 30
0.0
 10
476.6234342491
 20
675.1444868219
 30
0.0
 10
476.780900167
 20
675.3528438424
 30
0.0
 10
476.8727387105
 20
675.5229916803
 30
0.0
 10
476.9227101003
 20
675.6446288696
 30
0.0
  0
SPLINE
  5
2D2
100
AcDbEntity
  8
03___PRT_ALL_CURVES
100
AcDbSpline
 62
2
  6
CONTINUOUS
 70
0
 71
3
 72
25
 73
21
 74
0
 42
0.0000001
 43
0.0000001
 44
0.0000000001
 40
0.0
 40
0.0
 40
0.0
 40
0.0
 40
0.0333333333
 40
0.0666666667
 40
0.1
 40
0.1333333333
 40
0.1666666667
 40
0.2
 40
0.2666666667
 40
0.3333333333
 40
0.4
 40
0.4666666667
 40
0.5333333333
 40
0.6
 40
0.6666666667
 40
0.7333333333
 40
0.8
 40
0.8666666667
 40
0.9333333333
 40
1.0
 40
1.0
 40
1.0
 40
1.0
 10
476.9227101008
 20
675.6446288707
 30
0.0
 10
476.8973516505
 20
675.5829017606
 30
0.0
 10
476.8408216361
 20
675.4639645611
 30
0.0
 10
476.7374530534
 20
675.2943091823
 30
0.0
 10
476.6143188478
 20
675.1333511795
 30
0.0
 10
476.4745805582
 20
674.9869947878
 30
0.0
 10
476.3222003266
 20
674.8587264111
 30
0.0
 10
476.1029105967
 20
674.7108108205
 30
0.0
 10
475.8047291788
 20
674.5731723004
 30
0.0
 10
475.4210952994
 20
674.4867001241
 30
0.0
 10
475.0227926552
 20
674.4841412719
 30
0.0
 10
474.6383191534
 20
674.566519265
 30
0.0
 10
474.284974894
 20
674.724911377
 30
0.0
 10
473.9677171965
 20
674.9557664785
 30
0.0
 10
473.7045656314
 20
675.2502593231
 30
0.0
 10
473.5120501573
 20
675.5850313933
 30
0.0
 10
473.3922645452
 20
675.9494070455
 30
0.0
 10
473.3469993832
 20
676.333600308
 30
0.0
 10
473.3820587013
 20
676.7221249833
 30
0.0
 10
473.4547427232
 20
676.9657429619
 30
0.0
 10
473.5041554426
 20
677.0850653677
 30
0.0
  0
SPLINE
  5
2D3
100
AcDbEntity
  8
03___PRT_ALL_CURVES
100
AcDbSpline
 62
2
  6
CONTINUOUS
 70
0
 71
3
 72
22
 73
18
 74
0
 42
0.0000001
 43
0.0000001
 44
0.0000000001
 40
0.0
 40
0.0
 40
0.0
 40
0.0
 40
0.0666666667
 40
0.1333333333
 40
0.2
 40
0.2666666667
 40
0.3333333333
 40
0.4
 40
0.4666666667
 40
0.5333333333
 40
0.6
 40
0.6666666667
 40
0.7333333333
 40
0.8
 40
0.8666666667
 40
0.9333333333
 40
1.0
 40
1.0
 40
1.0
 40
1.0
 10
473.5044441604
 20
677.0857621679
 30
0.0
 10
473.5548561525
 20
677.2073583587
 30
0.0
 10
473.6782641821
 20
677.4343723128
 30
0.0
 10
473.933317966
 20
677.7346627918
 30
0.0
 10
474.2444453154
 20
677.9728497284
 30
0.0
 10
474.5974088646
 20
678.1417038884
 30
0.0
 10
474.983594527
 20
678.2329182132
 30
0.0
 10
475.3752178287
 20
678.2392420293
 30
0.0
 10
475.7546395824
 20
678.1643580523
 30
0.0
 10
476.1126446972
 20
678.0117044362
 30
0.0
 10
476.4320517778
 20
677.7866648217
 30
0.0
 10
476.6967913299
 20
677.5010131476
 30
0.0
 10
476.8977411023
 20
677.1671913729
 30
0.0
 10
477.0261259485
 20
676.7975856619
 30
0.0
 10
477.0769704859
 20
676.408256626
 30
0.0
 10
477.0453194756
 20
676.0143477192
 30
0.0
 10
476.9726893226
 20
675.7662874457
 30
0.0
 10
476.9227101006
 20
675.6446288704
 30
0.0
  0
SPLINE
  5
2D4
100
AcDbEntity
  8
03___PRT_ALL_CURVES
100
AcDbSpline
 62
2
  6
CONTINUOUS
 70
0
 71
3
 72
26
 73
22
 74
0
 42
0.0000001
 43
0.0000001
 44
0.0000000001
 40
0.0
 40
0.0
 40
0.0
 40
0.0
 40
0.0714285714
 40
0.1428571429
 40
0.2142857143
 40
0.2857142857
 40
0.3571428571
 40
0.3928571429
 40
0.4285714286
 40
0.4642857143
 40
0.5
 40
0.5714285714
 40
0.6428571429
 40
0.7142857143
 40
0.7857142857
 40
0.8214285714
 40
0.8571428571
 40
0.8928571429
 40
0.9285714286
 40
0.9642857143
 40
1.0
 40
1.0
 40
1.0
 40
1.0
 10
475.9976907014
 20
677.1725420653
 30
0.0
 10
476.0555119553
 20
677.113222054
 30
0.0
 10
476.1553526676
 20
676.985321107
 30
0.0
 10
476.2638782734
 20
676.7626321515
 30
0.0
 10
476.3220416985
 20
676.5273741156
 30
0.0
 10
476.3318301538
 20
676.2854480944
 30
0.0
 10
476.2971415392
 20
676.0808535601
 30
0.0
 10
476.2433839422
 20
675.9228355545
 30
0.0
 10
476.1899455913
 20
675.8085910839
 30
0.0
 10
476.1250860269
 20
675.7016742309
 30
0.0
 10
476.0228548462
 20
675.5677404921
 30
0.0
 10
475.8628936892
 20
675.4178028468
 30
0.0
 10
475.6264089809
 20
675.2848677166
 30
0.0
 10
475.3723582248
 20
675.2158171411
 30
0.0
 10
475.1616130682
 20
675.2081860469
 30
0.0
 10
474.9928041461
 20
675.2317844138
 30
0.0
 10
474.8685050043
 20
675.2641370881
 30
0.0
 10
474.7459504661
 20
675.3121195158
 30
0.0
 10
474.6291682472
 20
675.3752884928
 30
0.0
 10
474.5211530204
 20
675.4514726115
 30
0.0
 10
474.454963047
 20
675.5107315831
 30
0.0
 10
474.4230282915
 20
675.5430111919
 30
0.0
  0
SPLINE
  5
2D5
100
AcDbEntity
  8
03___PRT_ALL_CURVES
100
AcDbSpline
 62
2
  6
CONTINUOUS
 70
0
 71
3
 72
30
 73
26
 74
0
 42
0.0000001
 43
0.0000001
 44
0.0000000001
 40
0.0
 40
0.0
 40
0.0
 40
0.0
 40
0.0384615385
 40
0.0769230769
 40
0.1153846154
 40
0.1538461538
 40
0.1923076923
 40
0.2307692308
 40
0.2692307692
 40
0.3076923077
 40
0.3461538462
 40
0.3846153846
 40
0.4230769231
 40
0.4615384615
 40
0.5384615385
 40
0.6153846154
 40
0.6923076923
 40
0.7307692308
 40
0.7692307692
 40
0.8076923077
 40
0.8461538462
 40
0.8846153846
 40
0.9230769231
 40
0.9615384615
 40
1.0
 40
1.0
 40
1.0
 40
1.0
 10
474.4229458711
 20
675.5430945109
 30
0.0
 10
474.3892314639
 20
675.5771800413
 30
0.0
 10
474.3275707582
 20
675.6480420575
 30
0.0
 10
474.2486110259
 20
675.7645932702
 30
0.0
 10
474.1835722057
 20
675.8915987489
 30
0.0
 10
474.1351335719
 20
676.0254690891
 30
0.0
 10
474.1040003977
 20
676.1601992486
 30
0.0
 10
474.0884037808
 20
676.297675413
 30
0.0
 10
474.089216895
 20
676.4398062981
 30
0.0
 10
474.1071691065
 20
676.5808022645
 30
0.0
 10
474.142272158
 20
676.7199877766
 30
0.0
 10
474.1942220506
 20
676.8532327615
 30
0.0
 10
474.2597944406
 20
676.9751215984
 30
0.0
 10
474.3650601983
 20
677.125296663
 30
0.0
 10
474.5263038013
 20
677.2849062861
 30
0.0
 10
474.7646598996
 20
677.4276794293
 30
0.0
 10
474.9862788142
 20
677.4926211832
 30
0.0
 10
475.1622546929
 20
677.5107574617
 30
0.0
 10
475.2939439326
 20
677.5080707544
 30
0.0
 10
475.4231632496
 20
677.489587465
 30
0.0
 10
475.5493921404
 20
677.4561717592
 30
0.0
 10
475.6736570079
 20
677.406822199
 30
0.0
 10
475.791523829
 20
677.342345468
 30
0.0
 10
475.9001032535
 20
677.2648781125
 30
0.0
 10
475.9662881528
 20
677.204794731
 30
0.0
 10
475.9981247178
 20
677.1720965511
 30
0.0
  0
SPLINE
  5
2D6
100
AcDbEntity
  8
03___PRT_ALL_CURVES
100
AcDbSpline
 62
2
  6
CONTINUOUS
 70
0
 71
3
 72
27
 73
23
 74
0
 42
0.0000001
 43
0.0000001
 44
0.0000000001
 40
0.0
 40
0.0
 40
0.0
 40
0.0
 40
0.0384615385
 40
0.0769230769
 40
0.1153846154
 40
0.1538461538
 40
0.1923076923
 40
0.2307692308
 40
0.2692307692
 40
0.3076923077
 40
0.3846153846
 40
0.4615384615
 40
0.5384615385
 40
0.6153846154
 40
0.6923076923
 40
0.7692307692
 40
0.8076923077
 40
0.8461538462
 40
0.8846153846
 40
0.9230769231
 40
0.9615384615
 40
1.0
 40
1.0
 40
1.0
 40
1.0
 10
475.9977540864
 20
677.1724770321
 30
0.0
 10
475.9657893188
 20
677.205275676
 30
0.0
 10
475.8993107416
 20
677.265543224
 30
0.0
 10
475.7901527878
 20
677.3432387094
 30
0.0
 10
475.6713461803
 20
677.4079585863
 30
0.0
 10
475.5459615229
 20
677.4573186712
 30
0.0
 10
475.4197050033
 20
677.4902631608
 30
0.0
 10
475.2903685124
 20
677.5084220639
 30
0.0
 10
475.1558772441
 20
677.5105957053
 30
0.0
 10
474.9765349837
 20
677.490796991
 30
0.0
 10
474.753563865
 20
677.4226702949
 30
0.0
 10
474.5194782475
 20
677.2791778648
 30
0.0
 10
474.3286233834
 20
677.0880339018
 30
0.0
 10
474.1820658874
 20
676.8480673917
 30
0.0
 10
474.0972471841
 20
676.5733117356
 30
0.0
 10
474.0833466765
 20
676.341965048
 30
0.0
 10
474.1043361601
 20
676.1579128372
 30
0.0
 10
474.1359633805
 20
676.0226532012
 30
0.0
 10
474.1847217418
 20
675.8889789947
 30
0.0
 10
474.2499441242
 20
675.7624080531
 30
0.0
 10
474.3283751376
 20
675.6471092683
 30
0.0
 10
474.3892061247
 20
675.5772563098
 30
0.0
 10
474.4223498479
 20
675.5436975462
 30
0.0
  0
SPLINE
  5
2D7
100
AcDbEntity
  8
03___PRT_ALL_CURVES
100
AcDbSpline
 62
2
  6
CONTINUOUS
 70
0
 71
3
 72
25
 73
21
 74
0
 42
0.0000001
 43
0.0000001
 44
0.0000000001
 40
0.0
 40
0.0
 40
0.0
 40
0.0
 40
0.0357142857
 40
0.0714285714
 40
0.1071428571
 40
0.1428571429
 40
0.1785714286
 40
0.2142857143
 40
0.25
 40
0.2857142857
 40
0.3571428571
 40
0.4285714286
 40
0.5
 40
0.5714285714
 40
0.6428571429
 40
0.7142857143
 40
0.7857142857
 40
0.8571428571
 40
0.9285714286
 40
1.0
 40
1.0
 40
1.0
 40
1.0
 10
474.4230650047
 20
675.5429740839
 30
0.0
 10
474.4551446188
 20
675.5105510404
 30
0.0
 10
474.5216291079
 20
675.4510679225
 30
0.0
 10
474.6300954019
 20
675.3746943559
 30
0.0
 10
474.747301632
 20
675.3114723557
 30
0.0
 10
474.8703214605
 20
675.2635405776
 30
0.0
 10
474.9945862314
 20
675.2314468411
 30
0.0
 10
475.1212414926
 20
675.2138892868
 30
0.0
 10
475.2495426323
 20
675.2113428686
 30
0.0
 10
475.4204939732
 20
675.2282760224
 30
0.0
 10
475.6339869647
 20
675.2879824758
 30
0.0
 10
475.8665148413
 20
675.4211441183
 30
0.0
 10
476.0528148691
 20
675.595950722
 30
0.0
 10
476.1952053247
 20
675.8039925004
 30
0.0
 10
476.2893497843
 20
676.0371313896
 30
0.0
 10
476.3313000229
 20
676.2797007941
 30
0.0
 10
476.3229266339
 20
676.5221946526
 30
0.0
 10
476.2649242679
 20
676.7602555663
 30
0.0
 10
476.1557984792
 20
676.9847487078
 30
0.0
 10
476.0558720779
 20
677.112781842
 30
0.0
 10
475.9981542672
 20
677.1720662007
 30
0.0
  0
SPLINE
  5
2D8
100
AcDbEntity
  8
03___PRT_ALL_CURVES
100
AcDbSpline
 62
2
  6
CONTINUOUS
 70
0
 71
3
 72
13
 73
9
 74
0
 42
0.0000001
 43
0.0000001
 44
0.0000000001
 40
0.0
 40
0.0
 40
0.0
 40
0.0
 40
0.1666666667
 40
0.3333333333
 40
0.5
 40
0.6666666667
 40
0.8333333333
 40
1.0
 40
1.0
 40
1.0
 40
1.0
 10
494.7785123381
 20
679.8093251641
 30
0.0
 10
494.8158060247
 20
679.7719687348
 30
0.0
 10
494.8840483615
 20
679.6926150621
 30
0.0
 10
494.9700415613
 20
679.5612243205
 30
0.0
 10
495.0390193816
 20
679.4202351956
 30
0.0
 10
495.0898956957
 20
679.2717641857
 30
0.0
 10
495.1221307755
 20
679.1178086656
 30
0.0
 10
495.130084228
 20
679.0134171289
 30
0.0
 10
495.130084228
 20
678.9606219651
 30
0.0
  0
SPLINE
  5
2D9
100
AcDbEntity
  8
03___PRT_ALL_CURVES
100
AcDbSpline
 62
2
  6
CONTINUOUS
 70
0
 71
3
 72
13
 73
9
 74
0
 42
0.0000001
 43
0.0000001
 44
0.0000000001
 40
0.0
 40
0.0
 40
0.0
 40
0.0
 40
0.1666666667
 40
0.3333333333
 40
0.5
 40
0.6666666667
 40
0.8333333333
 40
1.0
 40
1.0
 40
1.0
 40
1.0
 10
493.9304067008
 20
680.1605045198
 30
0.0
 10
493.9822674523
 20
680.1605045198
 30
0.0
 10
494.0849842539
 20
680.15282468
 30
0.0
 10
494.236594747
 20
680.1216520195
 30
0.0
 10
494.3841311741
 20
680.0719799159
 30
0.0
 10
494.5257125581
 20
680.0036805044
 30
0.0
 10
494.6590299511
 20
679.9172360064
 30
0.0
 10
494.7402045372
 20
679.8476638504
 30
0.0
 10
494.7785123381
 20
679.8093251641
 30
0.0
  0
SPLINE
  5
2DA
100
AcDbEntity
  8
03___PRT_ALL_CURVES
100
AcDbSpline
 62
2
  6
CONTINUOUS
 70
0
 71
3
 72
21
 73
17
 74
0
 42
0.0000001
 43
0.0000001
 44
0.0000000001
 40
0.0
 40
0.0
 40
0.0
 40
0.0
 40
0.0714285714
 40
0.1428571429
 40
0.2142857143
 40
0.2857142857
 40
0.3571428571
 40
0.4285714286
 40
0.5
 40
0.5714285714
 40
0.6428571429
 40
0.7142857143
 40
0.7857142857
 40
0.8571428571
 40
0.9285714286
 40
1.0
 40
1.0
 40
1.0
 40
1.0
 10
455.9300451753
 20
678.9606219653
 30
0.0
 10
455.9300510525
 20
679.0013655295
 30
0.0
 10
455.9347248442
 20
679.0823916681
 30
0.0
 10
455.9554394462
 20
679.2082876961
 30
0.0
 10
455.9909861665
 20
679.3375209052
 30
0.0
 10
456.0414958714
 20
679.4653222704
 30
0.0
 10
456.1067768335
 20
679.5887489004
 30
0.0
 10
456.185353765
 20
679.7043963189
 30
0.0
 10
456.2799030941
 20
679.8121748538
 30
0.0
 10
456.3883068641
 20
679.9068473015
 30
0.0
 10
456.5040927804
 20
679.9855507416
 30
0.0
 10
456.6269215288
 20
680.0501176889
 30
0.0
 10
456.7540628002
 20
680.0999236179
 30
0.0
 10
456.8827998523
 20
680.1351631529
 30
0.0
 10
457.0083401295
 20
680.1558112272
 30
0.0
 10
457.0890778544
 20
680.1605045198
 30
0.0
 10
457.1297227026
 20
680.1605045198
 30
0.0
  0
SPLINE
  5
2DB
100
AcDbEntity
  8
03___PRT_ALL_CURVES
100
AcDbSpline
 62
2
  6
CONTINUOUS
 70
0
 71
3
 72
17
 73
13
 74
0
 42
0.0000001
 43
0.0000001
 44
0.0000000001
 40
0.0
 40
0.0
 40
0.0
 40
0.0
 40
0.1
 40
0.2
 40
0.3
 40
0.4
 40
0.5
 40
0.6
 40
0.7
 40
0.8
 40
0.9
 40
1.0
 40
1.0
 40
1.0
 40
1.0
 10
455.9300451753
 20
678.9606219651
 30
0.0
 10
455.9300451753
 20
679.02330257
 30
0.0
 10
455.9411426803
 20
679.1467853747
 30
0.0
 10
455.9854730699
 20
679.3276075772
 30
0.0
 10
456.0560430394
 20
679.5004040531
 30
0.0
 10
456.1519804394
 20
679.6625731427
 30
0.0
 10
456.2724047416
 20
679.8079230734
 30
0.0
 10
456.4178428305
 20
679.9316903942
 30
0.0
 10
456.5813972956
 20
680.030761868
 30
0.0
 10
456.7565609632
 20
680.1031634889
 30
0.0
 10
456.940847781
 20
680.149005019
 30
0.0
 10
457.0661512548
 20
680.1605045198
 30
0.0
 10
457.1297227026
 20
680.1605045198
 30
0.0
  0
SPLINE
  5
2DC
100
AcDbEntity
  8
03___PRT_ALL_CURVES
100
AcDbSpline
 62
2
  6
CONTINUOUS
 70
0
 71
3
 72
11
 73
7
 74
0
 42
0.0000001
 43
0.0000001
 44
0.0000000001
 40
0.0
 40
0.0
 40
0.0
 40
0.0
 40
0.25
 40
0.5
 40
0.75
 40
1.0
 40
1.0
 40
1.0
 40
1.0
 10
493.9304067007
 20
680.5603906087
 30
0.0
 10
494.0365368598
 20
680.5603906087
 30
0.0
 10
494.2441211195
 20
680.5379093347
 30
0.0
 10
494.5459571692
 20
680.4451369719
 30
0.0
 10
494.8249478976
 20
680.2974739156
 30
0.0
 10
494.9868756404
 20
680.1667854169
 30
0.0
 10
495.061551242
 20
680.0919715338
 30
0.0
  0
SPLINE
  5
2DD
100
AcDbEntity
  8
03___PRT_ALL_CURVES
100
AcDbSpline
 62
2
  6
CONTINUOUS
 70
0
 71
3
 72
11
 73
7
 74
0
 42
0.0000001
 43
0.0000001
 44
0.0000000001
 40
0.0
 40
0.0
 40
0.0
 40
0.0
 40
0.25
 40
0.5
 40
0.75
 40
1.0
 40
1.0
 40
1.0
 40
1.0
 10
495.061551242
 20
680.0919715338
 30
0.0
 10
495.1371054393
 20
680.0162774281
 30
0.0
 10
495.2686731723
 20
679.8525005617
 30
0.0
 10
495.4163213671
 20
679.5720802467
 30
0.0
 10
495.5082848732
 20
679.2706147469
 30
0.0
 10
495.5301945027
 20
679.0652138648
 30
0.0
 10
495.5301945027
 20
678.9606028067
 30
0.0
  0
SPLINE
  5
2DE
100
AcDbEntity
  8
03___PRT_ALL_CURVES
100
AcDbSpline
 62
2
  6
CONTINUOUS
 70
0
 71
3
 72
13
 73
9
 74
0
 42
0.0000001
 43
0.0000001
 44
0.0000000001
 40
0.0
 40
0.0
 40
0.0
 40
0.0
 40
0.1666666667
 40
0.3333333333
 40
0.5
 40
0.6666666667
 40
0.8333333333
 40
1.0
 40
1.0
 40
1.0
 40
1.0
 10
493.9307046658
 20
680.5603906087
 30
0.0
 10
494.0001734453
 20
680.5603835346
 30
0.0
 10
494.1377593121
 20
680.5505798169
 30
0.0
 10
494.3411080618
 20
680.5090463433
 30
0.0
 10
494.538377409
 20
680.4421450346
 30
0.0
 10
494.7271334233
 20
680.3506962339
 30
0.0
 10
494.9041048205
 20
680.2349838988
 30
0.0
 10
495.0110215003
 20
680.1425377624
 30
0.0
 10
495.061551242
 20
680.0919715338
 30
0.0
  0
SPLINE
  5
2DF
100
AcDbEntity
  8
03___PRT_ALL_CURVES
100
AcDbSpline
 62
2
  6
CONTINUOUS
 70
0
 71
3
 72
13
 73
9
 74
0
 42
0.0000001
 43
0.0000001
 44
0.0000000001
 40
0.0
 40
0.0
 40
0.0
 40
0.0
 40
0.1666666667
 40
0.3333333333
 40
0.5
 40
0.6666666667
 40
0.8333333333
 40
1.0
 40
1.0
 40
1.0
 40
1.0
 10
495.061551242
 20
680.0919715338
 30
0.0
 10
495.111435966
 20
680.0420113693
 30
0.0
 10
495.2029437587
 20
679.9362349709
 30
0.0
 10
495.318016431
 20
679.7610683848
 30
0.0
 10
495.4098751443
 20
679.5730500063
 30
0.0
 10
495.47774857
 20
679.3750872096
 30
0.0
 10
495.5201917545
 20
679.1695896578
 30
0.0
 10
495.5301826134
 20
679.0307495178
 30
0.0
 10
495.5301945027
 20
678.9606028068
 30
0.0
  0
SPLINE
  5
2E0
100
AcDbEntity
  8
03___PRT_ALL_CURVES
100
AcDbSpline
 62
2
  6
CONTINUOUS
 70
0
 71
3
 72
10
 73
6
 74
0
 42
0.0000001
 43
0.0000001
 44
0.0000000001
 40
0.0
 40
0.0
 40
0.0
 40
0.0
 40
0.3333333333
 40
0.6666666667
 40
1.0
 40
1.0
 40
1.0
 40
1.0
 10
463.2420981058
 20
677.5089768004
 30
0.0
 10
463.2617319433
 20
677.5089768004
 30
0.0
 10
463.3014666667
 20
677.5081825298
 30
0.0
 10
463.3625129943
 20
677.5045974355
 30
0.0
 10
463.4040876794
 20
677.5006159967
 30
0.0
 10
463.4251015969
 20
677.4982280449
 30
0.0
  0
SPLINE
  5
2E1
100
AcDbEntity
  8
03___PRT_ALL_CURVES
100
AcDbSpline
 62
2
  6
CONTINUOUS
 70
0
 71
3
 72
15
 73
11
 74
0
 42
0.0000001
 43
0.0000001
 44
0.0000000001
 40
0.0
 40
0.0
 40
0.0
 40
0.0
 40
0.125
 40
0.25
 40
0.375
 40
0.5
 40
0.625
 40
0.75
 40
0.875
 40
1.0
 40
1.0
 40
1.0
 40
1.0
 10
463.4251015969
 20
677.4982280449
 30
0.0
 10
463.4462337486
 20
677.4957764743
 30
0.0
 10
463.4867731458
 20
677.4877689922
 30
0.0
 10
463.5443871328
 20
677.4670095398
 30
0.0
 10
463.5988400107
 20
677.4372817829
 30
0.0
 10
463.6478121904
 20
677.3996835706
 30
0.0
 10
463.6904193308
 20
677.3550779701
 30
0.0
 10
463.7256762348
 20
677.3043109721
 30
0.0
 10
463.7522637004
 20
677.2496536328
 30
0.0
 10
463.7644192221
 20
677.2106105757
 30
0.0
 10
463.7690608308
 20
677.1900989178
 30
0.0
  0
SPLINE
  5
2E2
100
AcDbEntity
  8
03___PRT_ALL_CURVES
100
AcDbSpline
 62
2
  6
CONTINUOUS
 70
0
 71
3
 72
9
 73
5
 74
0
 42
0.0000001
 43
0.0000001
 44
0.0000000001
 40
0.0
 40
0.0
 40
0.0
 40
0.0
 40
0.5
 40
1.0
 40
1.0
 40
1.0
 40
1.0
 10
463.2420976588
 20
677.5089768004
 30
0.0
 10
463.2717051804
 20
677.5089768004
 30
0.0
 10
463.3318136673
 20
677.5071698346
 30
0.0
 10
463.393706831
 20
677.5017956418
 30
0.0
 10
463.4251015969
 20
677.4982280449
 30
0.0
  0
SPLINE
  5
2E3
100
AcDbEntity
  8
03___PRT_ALL_CURVES
100
AcDbSpline
 62
2
  6
CONTINUOUS
 70
0
 71
3
 72
12
 73
8
 74
0
 42
0.0000001
 43
0.0000001
 44
0.0000000001
 40
0.0
 40
0.0
 40
0.0
 40
0.0
 40
0.2
 40
0.4
 40
0.6
 40
0.8
 40
1.0
 40
1.0
 40
1.0
 40
1.0
 10
463.4251015969
 20
677.4982280449
 30
0.0
 10
463.4589131296
 20
677.4943055215
 30
0.0
 10
463.5230289415
 20
677.4785468455
 30
0.0
 10
463.6115861569
 20
677.4316996994
 30
0.0
 10
463.6844670783
 20
677.3657150803
 30
0.0
 10
463.7385612933
 20
677.2856999784
 30
0.0
 10
463.7614878152
 20
677.2235647086
 30
0.0
 10
463.7690608308
 20
677.1900989178
 30
0.0
  0
SPLINE
  5
2E4
100
AcDbEntity
  8
02___PRT_ALL_AXES
100
AcDbSpline
 62
3
  6
CONTINUOUS
 70
0
 71
3
 72
15
 73
11
 74
0
 42
0.0000001
 43
0.0000001
 44
0.0000000001
 40
0.0
 40
0.0
 40
0.0
 40
0.0
 40
0.1249934972
 40
0.2499896796
 40
0.3749919785
 40
0.5000000005
 40
0.6250080234
 40
0.7500103219
 40
0.8750065041
 40
1.0
 40
1.0
 40
1.0
 40
1.0
 10
475.5300647016
 20
717.1077843132
 30
0.0
 10
475.3321854651
 20
717.1077843132
 30
0.0
 10
474.9320562798
 20
717.1874463364
 30
0.0
 10
474.4271547012
 20
717.5271826179
 30
0.0
 10
474.0898711082
 20
718.0344710859
 30
0.0
 10
473.9717647437
 20
718.6318906126
 30
0.0
 10
474.08987111
 20
719.229310139
 30
0.0
 10
474.4271547078
 20
719.7365986039
 30
0.0
 10
474.932056284
 20
720.0763348833
 30
0.0
 10
475.3321854672
 20
720.1559969042
 30
0.0
 10
475.5300647016
 20
720.1559969042
 30
0.0
  0
SPLINE
  5
2E5
100
AcDbEntity
  8
02___PRT_ALL_AXES
100
AcDbSpline
 62
3
  6
CONTINUOUS
 70
0
 71
3
 72
15
 73
11
 74
0
 42
0.0000001
 43
0.0000001
 44
0.0000000001
 40
0.0
 40
0.0
 40
0.0
 40
0.0
 40
0.1249934972
 40
0.2499896796
 40
0.3749919785
 40
0.5000000005
 40
0.6250080234
 40
0.7500103219
 40
0.8750065041
 40
1.0
 40
1.0
 40
1.0
 40
1.0
 10
475.5300647016
 20
720.1559969042
 30
0.0
 10
475.7279439381
 20
720.1559969042
 30
0.0
 10
476.1280731234
 20
720.076334881
 30
0.0
 10
476.632974702
 20
719.7365985995
 30
0.0
 10
476.970258295
 20
719.2293101315
 30
0.0
 10
477.0883646595
 20
718.6318906048
 30
0.0
 10
476.9702582932
 20
718.0344710784
 30
0.0
 10
476.6329746954
 20
717.5271826135
 30
0.0
 10
476.1280731192
 20
717.1874463341
 30
0.0
 10
475.727943936
 20
717.1077843132
 30
0.0
 10
475.5300647016
 20
717.1077843132
 30
0.0
  0
ENDSEC
  0
SECTION
  2
OBJECTS
  0
DICTIONARY
  5
C
100
AcDbDictionary
280
0
281
1
  3
ACAD_GROUP
350
D
  3
ACAD_MLINESTYLE
350
17
  3
ACAD_LAYOUT
350
1A
  3
ACAD_PLOTSETTINGS
350
19
  3
ACAD_PLOTSTYLENAME
350
E
  0
DICTIONARY
  5
D
102
{ACAD_REACTORS
330
C
102
}
100
AcDbDictionary
280
0
281
1
  0
ACDBDICTIONARYWDFLT
  5
E
102
{ACAD_REACTORS
330
C
102
}
100
AcDbDictionary
281
1
  3
Normal
350
F
100
AcDbDictionaryWithDefault
340
F
  0
DICTIONARY
  5
17
102
{ACAD_REACTORS
330
C
102
}
100
AcDbDictionary
280
0
281
1
  3
Standard
350
18
  0
DICTIONARY
  5
19
102
{ACAD_REACTORS
330
C
102
}
100
AcDbDictionary
281
1
  0
DICTIONARY
  5
1A
102
{ACAD_REACTORS
330
C
102
}
100
AcDbDictionary
281
1
  3
Model
350
2E6
  3
Layout1
350
2E7
  0
ACDBPLACEHOLDER
  5
F
102
{ACAD_REACTORS
330
E
102
}
  0
MLINESTYLE
  5
18
102
{ACAD_REACTORS
330
17
102
}
100
AcDbMlineStyle
  2
STANDARD
 70
0
  3

 62
256
 51
90.0
 52
90.0
 71
2
 49
0.5
 62
256
  6
BYLAYER
 49
-0.5
 62
256
  6
BYLAYER
  0
LAYOUT
  5
2E6
102
{ACAD_REACTORS
330
1A
102
}
100
AcDbPlotSettings
  1

  2
none_device
  4

  6

 40
0.0
 41
0.0
 42
0.0
 43
0.0
 44
1223.0
 45
875.0
 46
0.0
 47
0.0
 48
0.0
 49
0.0
140
0.0
141
0.0
142
1.0
143
1.0
 70
1024
 72
1
 73
0
 74
0
  7

 75
0
147
1.0
148
0.0
149
0.0
100
AcDbLayout
  1
Model
 70
0
 71
0
 10
0.0
 20
0.0
 11
1223.0
 21
875.0
 12
0.0
 22
0.0
 32
0.0
 14
0.0
 24
0.0
 34
0.0
 15
0.0
 25
0.0
 35
0.0
146
0.0
 13
0.0
 23
0.0
 33
0.0
 16
1.0
 26
0.0
 36
0.0
 17
0.0
 27
1.0
 37
0.0
 76
0
330
216
345
0
346
0
  0
LAYOUT
  5
2E7
102
{ACAD_REACTORS
330
1A
102
}
100
AcDbPlotSettings
  1

  2
none_device
  4

  6

 40
0.0
 41
0.0
 42
0.0
 43
0.0
 44
1223.0
 45
875.0
 46
0.0
 47
0.0
 48
0.0
 49
0.0
140
0.0
141
0.0
142
1.0
143
1.0
 70
0
 72
1
 73
0
 74
0
  7

 75
0
147
1.0
148
0.0
149
0.0
100
AcDbLayout
  1
Layout1
 70
0
 71
1
 10
0.0
 20
0.0
 11
1223.0
 21
875.0
 12
0.0
 22
0.0
 32
0.0
 14
0.0
 24
0.0
 34
0.0
 15
0.0
 25
0.0
 35
0.0
146
0.0
 13
0.0
 23
0.0
 33
0.0
 16
1.0
 26
0.0
 36
0.0
 17
0.0
 27
1.0
 37
0.0
 76
0
330
217
345
0
346
0
  0
ENDSEC
  0
EOF
