999
DXF file: S:\Engenharia\Wildfire\Engenharia\Produtos\Lixeiras\94542105\94542105.dxf
999
Pro/ENGINEER 2013150 by Parametric Technology Corporation
  0
SECTION
  2
HEADER
  9
$ACADVER
  1
AC1021
  9
$DWGCODEPAGE
  3
ANSI_1252
  9
$EXTMAX
 10
875.0
 20
628.0
 30
0.0
  9
$EXTMIN
 10
0.0
 20
0.0
 30
0.0
  9
$LIMMIN
 10
0.0
 20
0.0
  9
$LIMMAX
 10
875.0
 20
628.0
  9
$VIEWCTR
 10
437.5
 20
314.0
  9
$VIEWSIZE
 40
628.0
  9
$CLAYER
  8
0
  9
$LTSCALE
 40
48.125
  9
$CELTYPE
  6
BYLAYER
  9
$DIMSCALE
 40
1.0
  9
$DIMASZ
 40
3.0
  9
$DIMEXO
 40
0.5
  9
$DIMDLI
 40
33.25
  9
$DIMEXE
 40
0.5
  9
$DIMCEN
 40
7.875
  9
$DIMLFAC
 40
1.0
  9
$DIMBLK
  1
_FILLED
  9
$DIMTXT
 40
1.8
  9
$DIMTOL
 70
1
  9
$DIMLIM
 70
0
  9
$DIMTFAC
 40
1.0
  9
$DIMTP
 40
0.001
  9
$DIMTM
 40
0.001
  9
$DIMGAP
 40
0.625
  9
$DIMDSEP
 70
46
  9
$PDMODE
 70
3
  9
$PDSIZE
 40
1.0
  9
$HANDSEED
  5
33B
  9
$TILEMODE
 70
1
  9
$MEASUREMENT
 70
1
  9
$INSUNITS
 70
4
  0
ENDSEC
  0
SECTION
  2
CLASSES
  0
CLASS
  1
ACDBDICTIONARYWDFLT
  2
AcDbDictionaryWithDefault
  3
AutoCAD 2000
 90
0
 91
1
280
0
281
0
  0
CLASS
  1
ACDBPLACEHOLDER
  2
AcDbPlaceHolder
  3
AutoCAD 2000
 90
0
 91
1
280
0
281
0
  0
CLASS
  1
LAYOUT
  2
AcDbLayout
  3
AutoCAD 2000
 90
0
 91
0
280
0
281
0
  0
ENDSEC
  0
SECTION
  2
TABLES
  0
TABLE
  2
VPORT
  5
8
100
AcDbSymbolTable
 70
2
  0
VPORT
  5
1F4
100
AcDbSymbolTableRecord
100
AcDbViewportTableRecord
  2
*ACTIVE
 70
0
 10
0.0
 20
0.0
 11
1.0
 21
1.0
 12
437.5
 22
314.0
 13
0.0
 23
0.0
 14
1.0
 24
1.0
 15
0.0
 25
0.0
 16
0.0
 26
0.0
 36
1.0
 17
0.0
 27
0.0
 37
0.0
 40
628.0
 41
1.3933121019
 42
50.0
 43
0.0
 44
0.0
 50
0.0
 51
0.0
 71
0
 72
100
 73
1
 74
1
 75
0
 76
0
 77
0
 78
0
  0
ENDTAB
  0
TABLE
  2
LTYPE
  5
5
100
AcDbSymbolTable
 70
6
  0
LTYPE
  5
14
100
AcDbSymbolTableRecord
100
AcDbLinetypeTableRecord
  2
BYBLOCK
 70
0
  3

 72
65
 73
0
 40
0.0
  0
LTYPE
  5
15
100
AcDbSymbolTableRecord
100
AcDbLinetypeTableRecord
  2
BYLAYER
 70
0
  3

 72
65
 73
0
 40
0.0
  0
LTYPE
  5
16
100
AcDbSymbolTableRecord
100
AcDbLinetypeTableRecord
  2
CONTINUOUS
 70
64
  3
Solid line
 72
65
 73
0
 40
0.0
  0
LTYPE
  5
1F5
100
AcDbSymbolTableRecord
100
AcDbLinetypeTableRecord
  2
CENTER
 70
64
  3
____ _ ____ _ ____ _ ____ _ ____ _ ____ _ ____
 72
65
 73
4
 40
0.6
 49
0.375
 74
0
 49
-0.075
 74
0
 49
0.075
 74
0
 49
-0.075
 74
0
  0
LTYPE
  5
1F6
100
AcDbSymbolTableRecord
100
AcDbLinetypeTableRecord
  2
HIDDEN
 70
64
  3
- - - - - - - - - - - - - - - - - - - -
 72
65
 73
2
 40
0.2
 49
0.1
 74
0
 49
-0.1
 74
0
  0
LTYPE
  5
1F7
100
AcDbSymbolTableRecord
100
AcDbLinetypeTableRecord
  2
PHANTOM
 70
64
  3
_____ _ _ _____ _ _ _____ _ _ _____
 72
65
 73
6
 40
0.8
 49
0.45
 74
0
 49
-0.05
 74
0
 49
0.1
 74
0
 49
-0.05
 74
0
 49
0.1
 74
0
 49
-0.05
 74
0
  0
LTYPE
  5
1F8
100
AcDbSymbolTableRecord
100
AcDbLinetypeTableRecord
  2
DOT
 70
64
  3
. . . . . . . . . . . . . . . . . . . .
 72
65
 73
2
 40
0.2
 49
0.1
 74
0
 49
-0.1
 74
0
  0
LTYPE
  5
1F9
100
AcDbSymbolTableRecord
100
AcDbLinetypeTableRecord
  2
DASHED
 70
64
  3
- - - - - - - - - - - - - - - - - - - -
 72
65
 73
2
 40
0.2
 49
0.1
 74
0
 49
-0.1
 74
0
  0
ENDTAB
  0
TABLE
  2
LAYER
  5
2
100
AcDbSymbolTable
 70
36
  0
LAYER
  5
10
100
AcDbSymbolTableRecord
100
AcDbLayerTableRecord
  2
0
 70
0
 62
7
  6
CONTINUOUS
370
-3
390
F
  0
LAYER
  5
1FA
100
AcDbSymbolTableRecord
100
AcDbLayerTableRecord
  2
DEFAULT_1
 70
0
 62
7
  6
CENTER
370
-3
390
F
  0
LAYER
  5
1FB
100
AcDbSymbolTableRecord
100
AcDbLayerTableRecord
  2
DEFAULT_2
 70
0
 62
8
  6
HIDDEN
370
-3
390
F
  0
LAYER
  5
1FC
100
AcDbSymbolTableRecord
100
AcDbLayerTableRecord
  2
DEFAULT_3
 70
0
 62
7
  6
PHANTOM
370
-3
390
F
  0
LAYER
  5
1FD
100
AcDbSymbolTableRecord
100
AcDbLayerTableRecord
  2
01_ALL_DTM_PLN
 70
0
 62
7
  6
CONTINUOUS
370
-3
390
F
  0
LAYER
  5
1FE
100
AcDbSymbolTableRecord
100
AcDbLayerTableRecord
  2
01__ASM_ALL_DTM_PLN
 70
0
 62
7
  6
CONTINUOUS
370
-3
390
F
  0
LAYER
  5
1FF
100
AcDbSymbolTableRecord
100
AcDbLayerTableRecord
  2
01__ASM_DEF_DTM_PLN
 70
0
 62
7
  6
CONTINUOUS
370
-3
390
F
  0
LAYER
  5
200
100
AcDbSymbolTableRecord
100
AcDbLayerTableRecord
  2
01___PRT_ALL_DTM_PLN
 70
0
 62
7
  6
CONTINUOUS
370
-3
390
F
  0
LAYER
  5
201
100
AcDbSymbolTableRecord
100
AcDbLayerTableRecord
  2
01___PRT_DEF_DTM_PLN
 70
0
 62
7
  6
CONTINUOUS
370
-3
390
F
  0
LAYER
  5
202
100
AcDbSymbolTableRecord
100
AcDbLayerTableRecord
  2
02_ALL_AXES
 70
0
 62
7
  6
CONTINUOUS
370
-3
390
F
  0
LAYER
  5
203
100
AcDbSymbolTableRecord
100
AcDbLayerTableRecord
  2
02__ASM_ALL_AXES
 70
0
 62
7
  6
CONTINUOUS
370
-3
390
F
  0
LAYER
  5
204
100
AcDbSymbolTableRecord
100
AcDbLayerTableRecord
  2
02___PRT_ALL_AXES
 70
0
 62
7
  6
CONTINUOUS
370
-3
390
F
  0
LAYER
  5
205
100
AcDbSymbolTableRecord
100
AcDbLayerTableRecord
  2
03_ALL_CURVES
 70
0
 62
7
  6
CONTINUOUS
370
-3
390
F
  0
LAYER
  5
206
100
AcDbSymbolTableRecord
100
AcDbLayerTableRecord
  2
03__ASM_ALL_CURVES
 70
0
 62
7
  6
CONTINUOUS
370
-3
390
F
  0
LAYER
  5
207
100
AcDbSymbolTableRecord
100
AcDbLayerTableRecord
  2
03___PRT_ALL_CURVES
 70
0
 62
7
  6
CONTINUOUS
370
-3
390
F
  0
LAYER
  5
208
100
AcDbSymbolTableRecord
100
AcDbLayerTableRecord
  2
04_ALL_DTM_PNT
 70
0
 62
7
  6
CONTINUOUS
370
-3
390
F
  0
LAYER
  5
209
100
AcDbSymbolTableRecord
100
AcDbLayerTableRecord
  2
04__ASM_ALL_DTM_PNT
 70
0
 62
7
  6
CONTINUOUS
370
-3
390
F
  0
LAYER
  5
20A
100
AcDbSymbolTableRecord
100
AcDbLayerTableRecord
  2
04___PRT_ALL_DTM_PNT
 70
0
 62
7
  6
CONTINUOUS
370
-3
390
F
  0
LAYER
  5
20B
100
AcDbSymbolTableRecord
100
AcDbLayerTableRecord
  2
05_ALL_DTM_CSYS
 70
0
 62
7
  6
CONTINUOUS
370
-3
390
F
  0
LAYER
  5
20C
100
AcDbSymbolTableRecord
100
AcDbLayerTableRecord
  2
05__ASM_ALL_DTM_CSYS
 70
0
 62
7
  6
CONTINUOUS
370
-3
390
F
  0
LAYER
  5
20D
100
AcDbSymbolTableRecord
100
AcDbLayerTableRecord
  2
05__ASM_DEF_DTM_CSYS
 70
0
 62
7
  6
CONTINUOUS
370
-3
390
F
  0
LAYER
  5
20E
100
AcDbSymbolTableRecord
100
AcDbLayerTableRecord
  2
05___PRT_ALL_DTM_CSYS
 70
0
 62
7
  6
CONTINUOUS
370
-3
390
F
  0
LAYER
  5
20F
100
AcDbSymbolTableRecord
100
AcDbLayerTableRecord
  2
05___PRT_DEF_DTM_CSYS
 70
0
 62
7
  6
CONTINUOUS
370
-3
390
F
  0
LAYER
  5
210
100
AcDbSymbolTableRecord
100
AcDbLayerTableRecord
  2
06_ALL_SURFS
 70
0
 62
7
  6
CONTINUOUS
370
-3
390
F
  0
LAYER
  5
211
100
AcDbSymbolTableRecord
100
AcDbLayerTableRecord
  2
06__ASM_ALL_SURFS
 70
0
 62
7
  6
CONTINUOUS
370
-3
390
F
  0
LAYER
  5
212
100
AcDbSymbolTableRecord
100
AcDbLayerTableRecord
  2
06___PRT_ALL_SURFS
 70
0
 62
7
  6
CONTINUOUS
370
-3
390
F
  0
LAYER
  5
213
100
AcDbSymbolTableRecord
100
AcDbLayerTableRecord
  2
07__ASM_ALL_SKELETONS
 70
0
 62
7
  6
CONTINUOUS
370
-3
390
F
  0
ENDTAB
  0
TABLE
  2
STYLE
  5
3
100
AcDbSymbolTable
 70
1
  0
STYLE
  5
11
100
AcDbSymbolTableRecord
100
AcDbTextStyleTableRecord
  2
STANDARD
 70
0
 40
0.0
 41
0.8
 50
0.0
 71
0
 42
0.2
  3
txt
  4

  0
STYLE
  5
214
100
AcDbSymbolTableRecord
100
AcDbTextStyleTableRecord
  2
TEXTSTYLE_1
 70
0
 40
0.0
 41
0.8
 50
0.0
 71
0
 42
0.2
  3
gdt
  4

  0
ENDTAB
  0
TABLE
  2
VIEW
  5
6
100
AcDbSymbolTable
 70
0
  0
ENDTAB
  0
TABLE
  2
UCS
  5
7
100
AcDbSymbolTable
 70
0
  0
ENDTAB
  0
TABLE
  2
APPID
  5
9
100
AcDbSymbolTable
 70
1
  0
APPID
  5
215
100
AcDbSymbolTableRecord
100
AcDbRegAppTableRecord
  2
ACAD
 70
0
  0
ENDTAB
  0
TABLE
  2
BLOCK_RECORD
  5
1
100
AcDbSymbolTable
 70
0
  0
BLOCK_RECORD
  5
216
100
AcDbSymbolTableRecord
100
AcDbBlockTableRecord
  2
*Model_Space
  0
BLOCK_RECORD
  5
217
100
AcDbSymbolTableRecord
100
AcDbBlockTableRecord
  2
*Paper_Space
  0
BLOCK_RECORD
  5
218
100
AcDbSymbolTableRecord
100
AcDbBlockTableRecord
  2
_FILLED
  0
BLOCK_RECORD
  5
219
100
AcDbSymbolTableRecord
100
AcDbBlockTableRecord
  2
*D0
  0
BLOCK_RECORD
  5
21A
100
AcDbSymbolTableRecord
100
AcDbBlockTableRecord
  2
*D1
  0
ENDTAB
  0
TABLE
  2
DIMSTYLE
  5
A
100
AcDbSymbolTable
 70
1
100
AcDbDimStyleTable
 71
0
  0
DIMSTYLE
105
21B
100
AcDbSymbolTableRecord
100
AcDbDimStyleTableRecord
  2
STANDARD
 70
0
  3

  4

 40
1.0
 41
3.0
 42
0.5
 43
0.38
 44
0.5
 45
0.0
 46
0.0
 47
0.001
 48
0.001
140
1.8
141
0.09
142
0.0
143
25.4
144
1.0
145
0.0
146
1.0
147
0.625
 71
1.0
 72
0.0
 73
0
 74
0
 75
0
 76
0
 77
1
 78
8
170
0
171
2
172
0
173
0
174
0
175
0
176
0
177
0
178
0
270
2
271
3
272
3
273
2
274
2
275
0
280
0
281
0
282
0
283
1
284
8
285
0
286
0
287
3
288
0
340
11
278
46
341
218
342
218
343
218
344
218
  0
DIMSTYLE
105
21C
100
AcDbSymbolTableRecord
100
AcDbDimStyleTableRecord
  2
DIMSTYLE_1
 70
0
  3

  4

 40
1.0
 41
3.0
 42
0.5
 43
0.38
 44
0.5
 45
0.0
 46
0.0
 47
0.001
 48
0.001
140
1.8
141
0.09
142
0.0
143
25.4
144
1.0
145
0.0
146
1.0
147
0.45
 71
0.0
 72
0.0
 73
0
 74
0
 75
0
 76
0
 77
1
 78
8
170
0
171
2
172
0
173
0
174
0
175
0
176
0
177
0
178
0
270
2
271
0
272
0
273
2
274
2
275
0
280
0
281
0
282
0
283
1
284
8
285
0
286
0
287
3
288
0
340
11
278
46
341
218
342
218
343
218
344
218
  0
DIMSTYLE
105
21D
100
AcDbSymbolTableRecord
100
AcDbDimStyleTableRecord
  2
DIMSTYLE_2
 70
0
  3
<>
  4

 40
1.0
 41
3.0
 42
0.5
 43
0.38
 44
0.5
 45
0.0
 46
0.0
 47
0.001
 48
0.001
140
1.8
141
0.09
142
0.0
143
25.4
144
1.0
145
0.0
146
1.0
147
0.625
 71
0.0
 72
0.0
 73
0
 74
0
 75
0
 76
0
 77
1
 78
8
170
0
171
2
172
1
173
0
174
0
175
0
176
0
177
0
178
0
270
2
271
3
272
3
273
2
274
2
275
0
280
0
281
0
282
0
283
1
284
8
285
0
286
0
287
3
288
1
340
11
278
46
289
2
341
218
342
218
343
218
344
218
  0
ENDTAB
  0
ENDSEC
  0
SECTION
  2
BLOCKS
  0
BLOCK
  5
20
100
AcDbEntity
  8
0
100
AcDbBlockBegin
  2
*Model_Space
 70
0
 10
0.0
 20
0.0
 30
0.0
  3
*Model_Space
  1

  0
ENDBLK
  5
21
100
AcDbEntity
  8
0
100
AcDbBlockEnd
  0
BLOCK
  5
1C
100
AcDbEntity
  8
0
100
AcDbBlockBegin
  2
*Paper_Space
 70
0
 10
0.0
 20
0.0
 30
0.0
  3
*Paper_Space
  1

  0
ENDBLK
  5
1D
100
AcDbEntity
  8
0
100
AcDbBlockEnd
  0
BLOCK
  5
21E
100
AcDbEntity
  8
0
100
AcDbBlockBegin
  2
_FILLED
 70
64
 10
0.0
 20
0.0
  3
_FILLED
  1

  0
SOLID
  5
21F
100
AcDbEntity
  8
0
  6
BYBLOCK
 62
0
100
AcDbTrace
 10
0.0
 20
0.0
 11
-1.0
 21
0.1666666667
 12
-1.0
 22
-0.1666666667
 13
-1.0
 23
-0.1666666667
  0
ENDBLK
  5
220
100
AcDbEntity
  8
0
  6
BYBLOCK
 62
0
100
AcDbBlockEnd
  0
BLOCK
  5
221
100
AcDbEntity
  8
0
100
AcDbBlockBegin
 62
2
  6
CONTINUOUS
  2
*D0
 70
65
 10
0.0
 20
0.0
  3
*D0
  1

  0
MTEXT
  5
222
100
AcDbEntity
  8
0
100
AcDbMText
 62
2
  6
CONTINUOUS
  7
STANDARD
 71
2
 72
1
 10
300.5932981332
 20
447.7274473558
 30
0.0
 11
0.0
 21
1.0
 31
0.0
 44
0.9
  1
231
 40
1.8
 41
8.3314285714
  0
LINE
  5
223
100
AcDbEntity
  8
0
100
AcDbLine
 62
2
  6
CONTINUOUS
 10
417.9381748324
 20
332.2989473558
 11
302.6647267046
 21
332.2989473558
  0
LINE
  5
224
100
AcDbEntity
  8
0
100
AcDbLine
 62
2
  6
CONTINUOUS
 10
325.6881748324
 20
563.1559473558
 11
302.6647267046
 21
563.1559473558
  0
LINE
  5
225
100
AcDbEntity
  8
0
100
AcDbLine
 62
2
  6
CONTINUOUS
 10
303.1647267046
 20
332.2989473558
 11
303.1647267046
 21
447.7274473558
  0
LINE
  5
226
100
AcDbEntity
  8
0
100
AcDbLine
 62
2
  6
CONTINUOUS
 10
303.1647267046
 20
563.1559473558
 11
303.1647267046
 21
447.7274473558
  0
INSERT
  5
227
100
AcDbEntity
  8
0
100
AcDbBlockReference
 62
2
  6
CONTINUOUS
  2
_FILLED
 10
303.1647267046
 20
332.2989473558
 41
3.0
 42
3.0
 43
3.0
 50
270.0
  0
INSERT
  5
228
100
AcDbEntity
  8
0
100
AcDbBlockReference
 62
2
  6
CONTINUOUS
  2
_FILLED
 10
303.1647267046
 20
563.1559473558
 41
3.0
 42
3.0
 43
3.0
 50
90.0
  0
ENDBLK
  5
229
100
AcDbEntity
  8
0
  6
BYBLOCK
 62
0
100
AcDbBlockEnd
  0
BLOCK
  5
22A
100
AcDbEntity
  8
0
100
AcDbBlockBegin
 62
2
  6
CONTINUOUS
  2
*D1
 70
65
 10
0.0
 20
0.0
  3
*D1
  1

  0
MTEXT
  5
22B
100
AcDbEntity
  8
0
100
AcDbMText
 62
2
  6
CONTINUOUS
  7
TEXTSTYLE_1
 71
1
 72
1
 10
509.3499479557
 20
247.1224577265
 30
0.0
 11
0.8997037629
 21
0.4365010183
 31
0.0
 44
0.9
  1
{\Fgdt;n}\Ftxt;189.5
 40
1.8
 41
17.4857142857
  0
LINE
  5
22C
100
AcDbEntity
  8
0
100
AcDbLine
 62
2
  6
CONTINUOUS
 10
503.685106368
 20
241.516014916
 11
418.4381748324
 21
200.1575434287
  0
LINE
  5
22D
100
AcDbEntity
  8
0
100
AcDbLine
 62
2
  6
CONTINUOUS
 10
418.4381748324
 20
200.1575434287
 11
520.960354439
 21
249.8972884927
  0
LINE
  5
22E
100
AcDbEntity
  8
0
100
AcDbLine
 62
2
  6
CONTINUOUS
 10
333.1912432968
 20
158.7990719415
 11
418.4381748324
 21
200.1575434287
  0
INSERT
  5
22F
100
AcDbEntity
  8
0
100
AcDbBlockReference
 62
2
  6
CONTINUOUS
  2
_FILLED
 10
503.685106368
 20
241.516014916
 41
3.0
 42
3.0
 43
3.0
 50
25.8808445266
  0
INSERT
  5
230
100
AcDbEntity
  8
0
100
AcDbBlockReference
 62
2
  6
CONTINUOUS
  2
_FILLED
 10
333.1912432968
 20
158.7990719415
 41
3.0
 42
3.0
 43
3.0
 50
205.8808445266
  0
ENDBLK
  5
231
100
AcDbEntity
  8
0
  6
BYBLOCK
 62
0
100
AcDbBlockEnd
  0
ENDSEC
  0
SECTION
  2
ENTITIES
  0
DIMENSION
  5
232
100
AcDbEntity
  8
0
100
AcDbDimension
 62
2
  6
CONTINUOUS
  2
*D0
 10
303.1647267046
 20
563.1559473558
 11
303.1647267046
 21
447.7274473558
 70
160
 71
2
 42
230.857
  3
DIMSTYLE_1
100
AcDbAlignedDimension
 13
418.4381748324
 23
332.2989473558
 14
326.1881748324
 24
563.1559473558
 50
90.0
100
AcDbRotatedDimension
  0
DIMENSION
  5
233
100
AcDbEntity
  8
0
100
AcDbDimension
 62
2
  6
CONTINUOUS
  2
*D1
 10
503.685106368
 20
241.516014916
 11
514.9867865189
 21
248.8569017039
 70
163
 71
1
 42
189.5
  1
%%c<>
  3
DIMSTYLE_2
100
AcDbDiametricDimension
 15
333.1912432968
 25
158.7990719415
  0
LINE
  5
234
100
AcDbEntity
  8
0
100
AcDbLine
 62
3
  6
CONTINUOUS
 10
509.7880965695
 20
332.2989473558
 11
327.1114081018
 21
332.2989473558
  0
LINE
  5
235
100
AcDbEntity
  8
02___PRT_ALL_AXES
100
AcDbLine
 62
7
  6
CONTINUOUS
 10
323.6881748324
 20
560.6559473558
 11
323.6881748324
 21
547.1559473558
  0
LINE
  5
236
100
AcDbEntity
  8
02___PRT_ALL_AXES
100
AcDbLine
 62
3
  6
CONTINUOUS
 10
325.1881748324
 20
547.1559473558
 11
325.1881748324
 21
334.1989473558
  0
LINE
  5
237
100
AcDbEntity
  8
03___PRT_ALL_CURVES
100
AcDbLine
 62
2
  6
CONTINUOUS
 10
407.6067879103
 20
528.0417641434
 11
409.0122146135
 21
531.7119966186
  0
LINE
  5
238
100
AcDbEntity
  8
03___PRT_ALL_CURVES
100
AcDbLine
 62
2
  6
CONTINUOUS
 10
408.6096552061
 20
528.8511893276
 11
408.3247458094
 21
528.0417641434
  0
LINE
  5
239
100
AcDbEntity
  8
03___PRT_ALL_CURVES
100
AcDbLine
 62
2
  6
CONTINUOUS
 10
409.3527623022
 20
530.9232420072
 11
408.8390985654
 21
529.4924938522
  0
LINE
  5
23A
100
AcDbEntity
  8
03___PRT_ALL_CURVES
100
AcDbLine
 62
2
  6
CONTINUOUS
 10
407.3670092645
 20
522.1408323415
 11
407.6045485982
 21
522.7705957962
  0
LINE
  5
23B
100
AcDbEntity
  8
03___PRT_ALL_CURVES
100
AcDbLine
 62
2
  6
CONTINUOUS
 10
414.6068774268
 20
530.5217161284
 11
413.7822938224
 21
528.3471718581
  0
LINE
  5
23C
100
AcDbEntity
  8
03___PRT_ALL_CURVES
100
AcDbLine
 62
2
  6
CONTINUOUS
 10
413.4922167825
 20
529.2180919968
 11
414.4447856842
 21
531.7119966186
  0
LINE
  5
23D
100
AcDbEntity
  8
03___PRT_ALL_CURVES
100
AcDbLine
 62
2
  6
CONTINUOUS
 10
407.867237129
 20
524.8872624623
 11
406.7958124331
 21
522.1408323415
  0
LINE
  5
23E
100
AcDbEntity
  8
03___PRT_ALL_CURVES
100
AcDbLine
 62
2
  6
CONTINUOUS
 10
429.8870816873
 20
524.4573145457
 11
428.5917257848
 21
522.5886947545
  0
LINE
  5
23F
100
AcDbEntity
  8
03___PRT_ALL_CURVES
100
AcDbLine
 62
2
  6
CONTINUOUS
 10
429.16774575
 20
522.5731918249
 11
430.4717143911
 21
524.441122597
  0
LINE
  5
240
100
AcDbEntity
  8
03___PRT_ALL_CURVES
100
AcDbLine
 62
2
  6
CONTINUOUS
 10
398.376860341
 20
527.767362288
 11
398.376860341
 21
532.4048053207
  0
LINE
  5
241
100
AcDbEntity
  8
03___PRT_ALL_CURVES
100
AcDbLine
 62
2
  6
CONTINUOUS
 10
411.3235291746
 20
528.0417641434
 11
411.8936924774
 21
531.7119966186
  0
LINE
  5
242
100
AcDbEntity
  8
03___PRT_ALL_CURVES
100
AcDbLine
 62
2
  6
CONTINUOUS
 10
426.2097867663
 20
522.1384207746
 11
426.4502544312
 21
522.7709403057
  0
LINE
  5
243
100
AcDbEntity
  8
03___PRT_ALL_CURVES
100
AcDbLine
 62
2
  6
CONTINUOUS
 10
426.7120816881
 20
524.8900185387
 11
425.6399679731
 21
522.1384207746
  0
LINE
  5
244
100
AcDbEntity
  8
03___PRT_ALL_CURVES
100
AcDbLine
 62
2
  6
CONTINUOUS
 10
401.6402270394
 20
531.3352754273
 11
401.6402270394
 21
531.7119966186
  0
LINE
  5
245
100
AcDbEntity
  8
03___PRT_ALL_CURVES
100
AcDbLine
 62
2
  6
CONTINUOUS
 10
402.6532573668
 20
528.3220226611
 11
402.6532573668
 21
531.0560504382
  0
LINE
  5
246
100
AcDbEntity
  8
03___PRT_ALL_CURVES
100
AcDbLine
 62
2
  6
CONTINUOUS
 10
403.3564013554
 20
524.8900185387
 11
403.3564013554
 21
522.1384207746
  0
LINE
  5
247
100
AcDbEntity
  8
03___PRT_ALL_CURVES
100
AcDbLine
 62
2
  6
CONTINUOUS
 10
403.3767274187
 20
531.0560504382
 11
403.3767274187
 21
528.0417641434
  0
LINE
  5
248
100
AcDbEntity
  8
03___PRT_ALL_CURVES
100
AcDbLine
 62
2
  6
CONTINUOUS
 10
404.3899300009
 20
531.7119966186
 11
404.3899300009
 21
531.0560504382
  0
LINE
  5
249
100
AcDbEntity
  8
03___PRT_ALL_CURVES
100
AcDbLine
 62
2
  6
CONTINUOUS
 10
404.8279738919
 20
528.3220226611
 11
404.8279738919
 21
531.7119966186
  0
LINE
  5
24A
100
AcDbEntity
  8
03___PRT_ALL_CURVES
100
AcDbLine
 62
2
  6
CONTINUOUS
 10
405.5150981864
 20
531.08137189
 11
405.5150981864
 21
530.0216605187
  0
LINE
  5
24B
100
AcDbEntity
  8
03___PRT_ALL_CURVES
100
AcDbLine
 62
2
  6
CONTINUOUS
 10
405.5150981864
 20
529.3965479429
 11
405.5150981864
 21
528.0417641434
  0
LINE
  5
24C
100
AcDbEntity
  8
03___PRT_ALL_CURVES
100
AcDbLine
 62
2
  6
CONTINUOUS
 10
405.9105951481
 20
524.4094277185
 11
405.9105951481
 21
522.1384207746
  0
LINE
  5
24D
100
AcDbEntity
  8
03___PRT_ALL_CURVES
100
AcDbLine
 62
2
  6
CONTINUOUS
 10
406.4382115217
 20
522.1384207746
 11
406.4382115217
 21
524.8900185387
  0
LINE
  5
24E
100
AcDbEntity
  8
03___PRT_ALL_CURVES
100
AcDbLine
 62
2
  6
CONTINUOUS
 10
412.3463780241
 20
530.5615069813
 11
412.0161656219
 21
528.0417641434
  0
LINE
  5
24F
100
AcDbEntity
  8
03___PRT_ALL_CURVES
100
AcDbLine
 62
2
  6
CONTINUOUS
 10
432.7771722899
 20
528.8511893276
 11
432.4912293646
 21
528.0417641434
  0
LINE
  5
250
100
AcDbEntity
  8
03___PRT_ALL_CURVES
100
AcDbLine
 62
2
  6
CONTINUOUS
 10
433.5199348765
 20
530.9232420072
 11
433.0059266301
 21
529.4924938522
  0
LINE
  5
251
100
AcDbEntity
  8
03___PRT_ALL_CURVES
100
AcDbLine
 62
2
  6
CONTINUOUS
 10
431.773615975
 20
528.0417641434
 11
433.179214933
 21
531.7119966186
  0
LINE
  5
252
100
AcDbEntity
  8
03___PRT_ALL_CURVES
100
AcDbLine
 62
2
  6
CONTINUOUS
 10
409.928265503
 20
524.8900185387
 11
409.928265503
 21
522.1384207746
  0
LINE
  5
253
100
AcDbEntity
  8
03___PRT_ALL_CURVES
100
AcDbLine
 62
2
  6
CONTINUOUS
 10
410.4781027425
 20
522.5731918249
 11
410.4781027425
 21
524.4573145457
  0
LINE
  5
254
100
AcDbEntity
  8
03___PRT_ALL_CURVES
100
AcDbLine
 62
2
  6
CONTINUOUS
 10
412.7720195713
 20
524.8872624623
 11
412.7720195713
 21
522.1408323415
  0
LINE
  5
255
100
AcDbEntity
  8
03___PRT_ALL_CURVES
100
AcDbLine
 62
2
  6
CONTINUOUS
 10
413.3249573967
 20
522.577670449
 11
413.3249573967
 21
523.3469602708
  0
LINE
  5
256
100
AcDbEntity
  8
03___PRT_ALL_CURVES
100
AcDbLine
 62
2
  6
CONTINUOUS
 10
413.3249573967
 20
523.7841428879
 11
413.3249573967
 21
524.4504243548
  0
LINE
  5
257
100
AcDbEntity
  8
03___PRT_ALL_CURVES
100
AcDbLine
 62
2
  6
CONTINUOUS
 10
414.3076708839
 20
523.3469602708
 11
414.3076708839
 21
523.7841428879
  0
LINE
  5
258
100
AcDbEntity
  8
03___PRT_ALL_CURVES
100
AcDbLine
 62
2
  6
CONTINUOUS
 10
414.3962098379
 20
524.4504243548
 11
414.3962098379
 21
524.8872624623
  0
LINE
  5
259
100
AcDbEntity
  8
03___PRT_ALL_CURVES
100
AcDbLine
 62
2
  6
CONTINUOUS
 10
414.4027555193
 20
522.1408323415
 11
414.4027555193
 21
522.577670449
  0
LINE
  5
25A
100
AcDbEntity
  8
03___PRT_ALL_CURVES
100
AcDbLine
 62
2
  6
CONTINUOUS
 10
416.0150602064
 20
524.8872624623
 11
416.0150602064
 21
522.1408323415
  0
LINE
  5
25B
100
AcDbEntity
  8
03___PRT_ALL_CURVES
100
AcDbLine
 62
2
  6
CONTINUOUS
 10
416.5650697006
 20
522.1408323415
 11
416.5650697006
 21
524.8872624623
  0
LINE
  5
25C
100
AcDbEntity
  8
03___PRT_ALL_CURVES
100
AcDbLine
 62
2
  6
CONTINUOUS
 10
417.1317879079
 20
524.8900185387
 11
417.1317879079
 21
522.1384207746
  0
LINE
  5
25D
100
AcDbEntity
  8
03___PRT_ALL_CURVES
100
AcDbLine
 62
2
  6
CONTINUOUS
 10
419.3943543679
 20
522.1384207746
 11
419.3943543679
 21
524.8900185387
  0
LINE
  5
25E
100
AcDbEntity
  8
03___PRT_ALL_CURVES
100
AcDbLine
 62
2
  6
CONTINUOUS
 10
420.1250591203
 20
528.3220226611
 11
420.1250591203
 21
531.7119966186
  0
LINE
  5
25F
100
AcDbEntity
  8
03___PRT_ALL_CURVES
100
AcDbLine
 62
2
  6
CONTINUOUS
 10
420.7927186253
 20
530.5921683311
 11
420.7927186253
 21
528.0417641434
  0
LINE
  5
260
100
AcDbEntity
  8
03___PRT_ALL_CURVES
100
AcDbLine
 62
2
  6
CONTINUOUS
 10
421.1062223145
 20
524.8900185387
 11
421.1062223145
 21
522.1384207746
  0
LINE
  5
261
100
AcDbEntity
  8
03___PRT_ALL_CURVES
100
AcDbLine
 62
2
  6
CONTINUOUS
 10
421.6536479871
 20
522.5731918249
 11
421.6536479871
 21
523.3686643724
  0
LINE
  5
262
100
AcDbEntity
  8
03___PRT_ALL_CURVES
100
AcDbLine
 62
2
  6
CONTINUOUS
 10
421.6536479871
 20
523.7779417161
 11
421.6536479871
 21
524.4573145457
  0
LINE
  5
263
100
AcDbEntity
  8
03___PRT_ALL_CURVES
100
AcDbLine
 62
2
  6
CONTINUOUS
 10
422.5483392846
 20
529.1162894252
 11
422.5483392846
 21
531.7119966186
  0
LINE
  5
264
100
AcDbEntity
  8
03___PRT_ALL_CURVES
100
AcDbLine
 62
2
  6
CONTINUOUS
 10
423.2159987896
 20
531.7119966186
 11
423.2159987896
 21
528.0417641434
  0
LINE
  5
265
100
AcDbEntity
  8
03___PRT_ALL_CURVES
100
AcDbLine
 62
2
  6
CONTINUOUS
 10
423.4654237028
 20
524.8900185387
 11
423.4654237028
 21
522.1384207746
  0
LINE
  5
266
100
AcDbEntity
  8
03___PRT_ALL_CURVES
100
AcDbLine
 62
2
  6
CONTINUOUS
 10
423.6531814067
 20
531.3352754273
 11
423.6531814067
 21
531.7119966186
  0
LINE
  5
267
100
AcDbEntity
  8
03___PRT_ALL_CURVES
100
AcDbLine
 62
2
  6
CONTINUOUS
 10
424.0176725091
 20
522.1384207746
 11
424.0176725091
 21
523.2818479662
  0
LINE
  5
268
100
AcDbEntity
  8
03___PRT_ALL_CURVES
100
AcDbLine
 62
2
  6
CONTINUOUS
 10
424.0176725091
 20
523.7142074496
 11
424.0176725091
 21
524.4573145457
  0
LINE
  5
269
100
AcDbEntity
  8
03___PRT_ALL_CURVES
100
AcDbLine
 62
2
  6
CONTINUOUS
 10
424.6667284985
 20
528.3220226611
 11
424.6667284985
 21
531.0560504382
  0
LINE
  5
26A
100
AcDbEntity
  8
03___PRT_ALL_CURVES
100
AcDbLine
 62
2
  6
CONTINUOUS
 10
425.3901985504
 20
531.0560504382
 11
425.3901985504
 21
528.0417641434
  0
LINE
  5
26B
100
AcDbEntity
  8
03___PRT_ALL_CURVES
100
AcDbLine
 62
2
  6
CONTINUOUS
 10
426.4034011326
 20
531.7119966186
 11
426.4034011326
 21
531.0560504382
  0
LINE
  5
26C
100
AcDbEntity
  8
03___PRT_ALL_CURVES
100
AcDbLine
 62
2
  6
CONTINUOUS
 10
426.8719341186
 20
528.3220226611
 11
426.8719341186
 21
531.7119966186
  0
LINE
  5
26D
100
AcDbEntity
  8
03___PRT_ALL_CURVES
100
AcDbLine
 62
2
  6
CONTINUOUS
 10
427.5940261323
 20
531.7119966186
 11
427.5940261323
 21
528.0417641434
  0
LINE
  5
26E
100
AcDbEntity
  8
03___PRT_ALL_CURVES
100
AcDbLine
 62
2
  6
CONTINUOUS
 10
428.2916579681
 20
528.3220226611
 11
428.2916579681
 21
531.7119966186
  0
LINE
  5
26F
100
AcDbEntity
  8
03___PRT_ALL_CURVES
100
AcDbLine
 62
2
  6
CONTINUOUS
 10
428.5917257848
 20
522.5886947545
 11
428.5917257848
 21
522.1384207746
  0
LINE
  5
270
100
AcDbEntity
  8
03___PRT_ALL_CURVES
100
AcDbLine
 62
2
  6
CONTINUOUS
 10
428.646502803
 20
524.8900185387
 11
428.646502803
 21
524.4573145457
  0
LINE
  5
271
100
AcDbEntity
  8
03___PRT_ALL_CURVES
100
AcDbLine
 62
2
  6
CONTINUOUS
 10
428.9579394349
 20
530.5921683311
 11
428.9579394349
 21
528.0417641434
  0
LINE
  5
272
100
AcDbEntity
  8
03___PRT_ALL_CURVES
100
AcDbLine
 62
2
  6
CONTINUOUS
 10
403.8929749772
 20
524.4094277185
 11
404.6338427613
 21
522.1384207746
  0
LINE
  5
273
100
AcDbEntity
  8
03___PRT_ALL_CURVES
100
AcDbLine
 62
2
  6
CONTINUOUS
 10
404.8941197252
 20
522.8036687128
 11
404.239551583
 21
524.8900185387
  0
LINE
  5
274
100
AcDbEntity
  8
03___PRT_ALL_CURVES
100
AcDbLine
 62
2
  6
CONTINUOUS
 10
415.0855734445
 20
531.7119966186
 11
415.6562535116
 21
528.0417641434
  0
LINE
  5
275
100
AcDbEntity
  8
03___PRT_ALL_CURVES
100
AcDbLine
 62
2
  6
CONTINUOUS
 10
414.9022943646
 20
528.3113428651
 11
414.6068774268
 21
530.5217161284
  0
LINE
  5
276
100
AcDbEntity
  8
03___PRT_ALL_CURVES
100
AcDbLine
 62
2
  6
CONTINUOUS
 10
430.4717143911
 20
524.441122597
 11
430.4717143911
 21
524.8900185387
  0
LINE
  5
277
100
AcDbEntity
  8
03___PRT_ALL_CURVES
100
AcDbLine
 62
2
  6
CONTINUOUS
 10
430.499275155
 20
522.1384207746
 11
430.499275155
 21
522.5731918249
  0
LINE
  5
278
100
AcDbEntity
  8
03___PRT_ALL_CURVES
100
AcDbLine
 62
2
  6
CONTINUOUS
 10
430.7145936228
 20
529.1162894252
 11
430.7145936228
 21
531.7119966186
  0
LINE
  5
279
100
AcDbEntity
  8
03___PRT_ALL_CURVES
100
AcDbLine
 62
2
  6
CONTINUOUS
 10
430.9154426896
 20
524.8900185387
 11
430.9154426896
 21
522.1384207746
  0
LINE
  5
27A
100
AcDbEntity
  8
03___PRT_ALL_CURVES
100
AcDbLine
 62
2
  6
CONTINUOUS
 10
431.3822531279
 20
531.7119966186
 11
431.3822531279
 21
528.0417641434
  0
LINE
  5
27B
100
AcDbEntity
  8
03___PRT_ALL_CURVES
100
AcDbLine
 62
2
  6
CONTINUOUS
 10
431.4676914959
 20
522.1384207746
 11
431.4676914959
 21
524.8900185387
  0
LINE
  5
27C
100
AcDbEntity
  8
03___PRT_ALL_CURVES
100
AcDbLine
 62
2
  6
CONTINUOUS
 10
432.0616259576
 20
524.8900185387
 11
432.0616259576
 21
522.1384207746
  0
LINE
  5
27D
100
AcDbEntity
  8
03___PRT_ALL_CURVES
100
AcDbLine
 62
2
  6
CONTINUOUS
 10
432.6093961397
 20
522.5731918249
 11
432.6093961397
 21
524.8900185387
  0
LINE
  5
27E
100
AcDbEntity
  8
03___PRT_ALL_CURVES
100
AcDbLine
 62
2
  6
CONTINUOUS
 10
433.6787537783
 20
522.1384207746
 11
433.6787537783
 21
522.5731918249
  0
LINE
  5
27F
100
AcDbEntity
  8
03___PRT_ALL_CURVES
100
AcDbLine
 62
2
  6
CONTINUOUS
 10
438.3768304916
 20
532.4048053207
 11
438.3768304916
 21
527.767362288
  0
LINE
  5
280
100
AcDbEntity
  8
03___PRT_ALL_CURVES
100
AcDbLine
 62
2
  6
CONTINUOUS
 10
409.5701478273
 20
522.1408323415
 11
408.4901103927
 21
524.8872624623
  0
LINE
  5
281
100
AcDbEntity
  8
03___PRT_ALL_CURVES
100
AcDbLine
 62
2
  6
CONTINUOUS
 10
408.7231711023
 20
522.7705957962
 11
408.9588156335
 21
522.1408323415
  0
LINE
  5
282
100
AcDbEntity
  8
03___PRT_ALL_CURVES
100
AcDbLine
 62
2
  6
CONTINUOUS
 10
410.2996467963
 20
528.2915335661
 11
410.0958693984
 21
528.8511893276
  0
LINE
  5
283
100
AcDbEntity
  8
03___PRT_ALL_CURVES
100
AcDbLine
 62
2
  6
CONTINUOUS
 10
409.8672873129
 20
529.4924938522
 11
409.3527623022
 21
530.9232420072
  0
LINE
  5
284
100
AcDbEntity
  8
03___PRT_ALL_CURVES
100
AcDbLine
 62
2
  6
CONTINUOUS
 10
408.170922296
 20
524.3370807133
 11
408.5693475889
 21
523.2077784132
  0
LINE
  5
285
100
AcDbEntity
  8
03___PRT_ALL_CURVES
100
AcDbLine
 62
2
  6
CONTINUOUS
 10
406.6344097096
 20
529.5283228453
 11
407.4751852628
 21
528.0417641434
  0
LINE
  5
286
100
AcDbEntity
  8
03___PRT_ALL_CURVES
100
AcDbLine
 62
2
  6
CONTINUOUS
 10
406.5734315195
 20
528.2507091846
 11
405.9887988157
 21
529.3965479429
  0
LINE
  5
287
100
AcDbEntity
  8
03___PRT_ALL_CURVES
100
AcDbLine
 62
2
  6
CONTINUOUS
 10
409.7091574302
 20
531.7119966186
 11
411.1250916746
 21
528.0417641434
  0
LINE
  5
288
100
AcDbEntity
  8
03___PRT_ALL_CURVES
100
AcDbLine
 62
2
  6
CONTINUOUS
 10
413.0949972731
 20
528.6124442105
 11
412.3463780241
 21
530.5615069813
  0
LINE
  5
289
100
AcDbEntity
  8
03___PRT_ALL_CURVES
100
AcDbLine
 62
2
  6
CONTINUOUS
 10
412.5405091547
 20
531.7119966186
 11
413.4922167825
 21
529.2180919968
  0
LINE
  5
28A
100
AcDbEntity
  8
03___PRT_ALL_CURVES
100
AcDbLine
 62
2
  6
CONTINUOUS
 10
417.668189275
 20
524.1968653271
 11
418.7191156527
 21
522.1384207746
  0
LINE
  5
28B
100
AcDbEntity
  8
03___PRT_ALL_CURVES
100
AcDbLine
 62
2
  6
CONTINUOUS
 10
418.8589865294
 20
522.8329520244
 11
417.8109884828
 21
524.8900185387
  0
LINE
  5
28C
100
AcDbEntity
  8
03___PRT_ALL_CURVES
100
AcDbLine
 62
2
  6
CONTINUOUS
 10
425.5214566884
 20
522.1384207746
 11
425.082207014
 21
523.213290566
  0
LINE
  5
28D
100
AcDbEntity
  8
03___PRT_ALL_CURVES
100
AcDbLine
 62
2
  6
CONTINUOUS
 10
428.4163704246
 20
522.1384207746
 11
427.3328878945
 21
524.8900185387
  0
LINE
  5
28E
100
AcDbEntity
  8
03___PRT_ALL_CURVES
100
AcDbLine
 62
2
  6
CONTINUOUS
 10
424.5799120923
 20
522.9983166077
 11
424.9106412588
 21
522.1384207746
  0
LINE
  5
28F
100
AcDbEntity
  8
03___PRT_ALL_CURVES
100
AcDbLine
 62
2
  6
CONTINUOUS
 10
427.5692214448
 20
522.7709403057
 11
427.8045214664
 21
522.1384207746
  0
LINE
  5
290
100
AcDbEntity
  8
03___PRT_ALL_CURVES
100
AcDbLine
 62
2
  6
CONTINUOUS
 10
427.0162836194
 20
524.3370807133
 11
427.4148811671
 21
523.2032997891
  0
LINE
  5
291
100
AcDbEntity
  8
03___PRT_ALL_CURVES
100
AcDbLine
 62
2
  6
CONTINUOUS
 10
422.3864197968
 20
528.2963566998
 11
420.7927186253
 21
530.5921683311
  0
LINE
  5
292
100
AcDbEntity
  8
03___PRT_ALL_CURVES
100
AcDbLine
 62
2
  6
CONTINUOUS
 10
420.7775602052
 20
531.7119966186
 11
422.5483392846
 21
529.1162894252
  0
LINE
  5
293
100
AcDbEntity
  8
03___PRT_ALL_CURVES
100
AcDbLine
 62
2
  6
CONTINUOUS
 10
433.8768467687
 20
531.7119966186
 11
435.2917474845
 21
528.0417641434
  0
LINE
  5
294
100
AcDbEntity
  8
03___PRT_ALL_CURVES
100
AcDbLine
 62
2
  6
CONTINUOUS
 10
434.4673361349
 20
528.2915335661
 11
434.2626974631
 21
528.8511893276
  0
LINE
  5
295
100
AcDbEntity
  8
03___PRT_ALL_CURVES
100
AcDbLine
 62
2
  6
CONTINUOUS
 10
434.0335986133
 20
529.4924938522
 11
433.5199348765
 21
530.9232420072
  0
LINE
  5
296
100
AcDbEntity
  8
03___PRT_ALL_CURVES
100
AcDbLine
 62
2
  6
CONTINUOUS
 10
430.5523296255
 20
528.2963566997
 11
428.9579394349
 21
530.5921683311
  0
LINE
  5
297
100
AcDbEntity
  8
03___PRT_ALL_CURVES
100
AcDbLine
 62
2
  6
CONTINUOUS
 10
428.9431255243
 20
531.7119966186
 11
430.7145936228
 21
529.1162894252
  0
LINE
  5
298
100
AcDbEntity
  8
03___PRT_ALL_CURVES
100
AcDbLine
 62
2
  6
CONTINUOUS
 10
403.3564013554
 20
522.1384207746
 11
403.8838454785
 21
522.1384207746
  0
LINE
  5
299
100
AcDbEntity
  8
03___PRT_ALL_CURVES
100
AcDbLine
 62
2
  6
CONTINUOUS
 10
404.6338427613
 20
522.1384207746
 11
405.1609423521
 21
522.1384207746
  0
LINE
  5
29A
100
AcDbEntity
  8
03___PRT_ALL_CURVES
100
AcDbLine
 62
2
  6
CONTINUOUS
 10
405.9105951481
 20
522.1384207746
 11
406.438211509
 21
522.1384207746
  0
LINE
  5
29B
100
AcDbEntity
  8
03___PRT_ALL_CURVES
100
AcDbLine
 62
2
  6
CONTINUOUS
 10
409.928265503
 20
522.1384207746
 11
410.6798131141
 21
522.1384207746
  0
LINE
  5
29C
100
AcDbEntity
  8
03___PRT_ALL_CURVES
100
AcDbLine
 62
2
  6
CONTINUOUS
 10
417.1317879079
 20
522.1384207746
 11
417.661299082
 21
522.1384207746
  0
LINE
  5
29D
100
AcDbEntity
  8
03___PRT_ALL_CURVES
100
AcDbLine
 62
2
  6
CONTINUOUS
 10
418.7191156527
 20
522.1384207746
 11
419.3943543524
 21
522.1384207746
  0
LINE
  5
29E
100
AcDbEntity
  8
03___PRT_ALL_CURVES
100
AcDbLine
 62
2
  6
CONTINUOUS
 10
421.1062223145
 20
522.1384207746
 11
422.0653369093
 21
522.1384207746
  0
LINE
  5
29F
100
AcDbEntity
  8
03___PRT_ALL_CURVES
100
AcDbLine
 62
2
  6
CONTINUOUS
 10
423.4654237028
 20
522.1384207746
 11
424.0176725189
 21
522.1384207746
  0
LINE
  5
2A0
100
AcDbEntity
  8
03___PRT_ALL_CURVES
100
AcDbLine
 62
2
  6
CONTINUOUS
 10
424.9106412588
 20
522.1384207746
 11
425.5214567075
 21
522.1384207746
  0
LINE
  5
2A1
100
AcDbEntity
  8
03___PRT_ALL_CURVES
100
AcDbLine
 62
2
  6
CONTINUOUS
 10
425.6399679731
 20
522.1384207746
 11
426.2097867453
 21
522.1384207746
  0
LINE
  5
2A2
100
AcDbEntity
  8
03___PRT_ALL_CURVES
100
AcDbLine
 62
2
  6
CONTINUOUS
 10
427.8045214664
 20
522.1384207746
 11
428.4163704395
 21
522.1384207746
  0
LINE
  5
2A3
100
AcDbEntity
  8
03___PRT_ALL_CURVES
100
AcDbLine
 62
2
  6
CONTINUOUS
 10
428.5917257848
 20
522.1384207746
 11
430.4992751381
 21
522.1384207746
  0
LINE
  5
2A4
100
AcDbEntity
  8
03___PRT_ALL_CURVES
100
AcDbLine
 62
2
  6
CONTINUOUS
 10
430.9154426896
 20
522.1384207746
 11
431.4676914825
 21
522.1384207746
  0
LINE
  5
2A5
100
AcDbEntity
  8
03___PRT_ALL_CURVES
100
AcDbLine
 62
2
  6
CONTINUOUS
 10
432.0616259576
 20
522.1384207746
 11
433.6787538162
 21
522.1384207746
  0
LINE
  5
2A6
100
AcDbEntity
  8
03___PRT_ALL_CURVES
100
AcDbLine
 62
2
  6
CONTINUOUS
 10
406.7958124331
 20
522.1408323415
 11
407.3670092456
 21
522.1408323415
  0
LINE
  5
2A7
100
AcDbEntity
  8
03___PRT_ALL_CURVES
100
AcDbLine
 62
2
  6
CONTINUOUS
 10
408.9588156335
 20
522.1408323415
 11
409.5701478427
 21
522.1408323415
  0
LINE
  5
2A8
100
AcDbEntity
  8
03___PRT_ALL_CURVES
100
AcDbLine
 62
2
  6
CONTINUOUS
 10
412.7720195713
 20
522.1408323415
 11
414.4027555426
 21
522.1408323415
  0
LINE
  5
2A9
100
AcDbEntity
  8
03___PRT_ALL_CURVES
100
AcDbLine
 62
2
  6
CONTINUOUS
 10
416.0150602064
 20
522.1408323415
 11
416.5650697209
 21
522.1408323415
  0
LINE
  5
2AA
100
AcDbEntity
  8
03___PRT_ALL_CURVES
100
AcDbLine
 62
2
  6
CONTINUOUS
 10
433.6787537783
 20
522.5731918249
 11
432.6093961672
 21
522.5731918249
  0
LINE
  5
2AB
100
AcDbEntity
  8
03___PRT_ALL_CURVES
100
AcDbLine
 62
2
  6
CONTINUOUS
 10
430.499275155
 20
522.5731918249
 11
429.1677457085
 21
522.5731918249
  0
LINE
  5
2AC
100
AcDbEntity
  8
03___PRT_ALL_CURVES
100
AcDbLine
 62
2
  6
CONTINUOUS
 10
421.9165087726
 20
522.5731918249
 11
421.6536479783
 21
522.5731918249
  0
LINE
  5
2AD
100
AcDbEntity
  8
03___PRT_ALL_CURVES
100
AcDbLine
 62
2
  6
CONTINUOUS
 10
410.7860942789
 20
522.5731918249
 11
410.4781027507
 21
522.5731918249
  0
LINE
  5
2AE
100
AcDbEntity
  8
03___PRT_ALL_CURVES
100
AcDbLine
 62
2
  6
CONTINUOUS
 10
414.4027555193
 20
522.577670449
 11
413.3249574018
 21
522.577670449
  0
LINE
  5
2AF
100
AcDbEntity
  8
03___PRT_ALL_CURVES
100
AcDbLine
 62
2
  6
CONTINUOUS
 10
407.6045485982
 20
522.7705957962
 11
408.7231711119
 21
522.7705957962
  0
LINE
  5
2B0
100
AcDbEntity
  8
03___PRT_ALL_CURVES
100
AcDbLine
 62
2
  6
CONTINUOUS
 10
426.4502544312
 20
522.7709403057
 11
427.569221484
 21
522.7709403057
  0
LINE
  5
2B1
100
AcDbEntity
  8
03___PRT_ALL_CURVES
100
AcDbLine
 62
2
  6
CONTINUOUS
 10
427.4148811671
 20
523.2032997891
 11
426.6083842851
 21
523.2032997891
  0
LINE
  5
2B2
100
AcDbEntity
  8
03___PRT_ALL_CURVES
100
AcDbLine
 62
2
  6
CONTINUOUS
 10
408.5693475889
 20
523.2077784132
 11
407.7652622978
 21
523.2077784132
  0
LINE
  5
2B3
100
AcDbEntity
  8
03___PRT_ALL_CURVES
100
AcDbLine
 62
2
  6
CONTINUOUS
 10
424.0176725091
 20
523.2818479662
 11
424.1947504152
 21
523.2818479662
  0
LINE
  5
2B4
100
AcDbEntity
  8
03___PRT_ALL_CURVES
100
AcDbLine
 62
2
  6
CONTINUOUS
 10
413.3249573967
 20
523.3469602708
 11
414.3076708863
 21
523.3469602708
  0
LINE
  5
2B5
100
AcDbEntity
  8
03___PRT_ALL_CURVES
100
AcDbLine
 62
2
  6
CONTINUOUS
 10
421.6536479871
 20
523.3686643724
 11
421.9165087814
 21
523.3686643724
  0
LINE
  5
2B6
100
AcDbEntity
  8
03___PRT_ALL_CURVES
100
AcDbLine
 62
2
  6
CONTINUOUS
 10
424.1999180602
 20
523.7142074496
 11
424.0176725175
 21
523.7142074496
  0
LINE
  5
2B7
100
AcDbEntity
  8
03___PRT_ALL_CURVES
100
AcDbLine
 62
2
  6
CONTINUOUS
 10
424.1999180602
 20
523.7186860737
 11
424.0176725175
 21
523.7186860737
  0
LINE
  5
2B8
100
AcDbEntity
  8
03___PRT_ALL_CURVES
100
AcDbLine
 62
2
  6
CONTINUOUS
 10
421.8806797796
 20
523.7779417161
 11
421.6536479828
 21
523.7779417161
  0
LINE
  5
2B9
100
AcDbEntity
  8
03___PRT_ALL_CURVES
100
AcDbLine
 62
2
  6
CONTINUOUS
 10
414.3076708839
 20
523.7841428879
 11
413.3249573943
 21
523.7841428879
  0
LINE
  5
2BA
100
AcDbEntity
  8
03___PRT_ALL_CURVES
100
AcDbLine
 62
2
  6
CONTINUOUS
 10
413.3249573967
 20
524.4504243548
 11
414.3962098389
 21
524.4504243548
  0
LINE
  5
2BB
100
AcDbEntity
  8
03___PRT_ALL_CURVES
100
AcDbLine
 62
2
  6
CONTINUOUS
 10
424.0176725091
 20
524.4504243548
 11
424.1999180518
 21
524.4504243548
  0
LINE
  5
2BC
100
AcDbEntity
  8
03___PRT_ALL_CURVES
100
AcDbLine
 62
2
  6
CONTINUOUS
 10
410.4781027425
 20
524.4573145457
 11
410.7860942707
 21
524.4573145457
  0
LINE
  5
2BD
100
AcDbEntity
  8
03___PRT_ALL_CURVES
100
AcDbLine
 62
2
  6
CONTINUOUS
 10
421.6536479871
 20
524.4573145457
 11
421.8668993962
 21
524.4573145457
  0
LINE
  5
2BE
100
AcDbEntity
  8
03___PRT_ALL_CURVES
100
AcDbLine
 62
2
  6
CONTINUOUS
 10
424.0176725091
 20
524.4573145457
 11
424.1999180518
 21
524.4573145457
  0
LINE
  5
2BF
100
AcDbEntity
  8
03___PRT_ALL_CURVES
100
AcDbLine
 62
2
  6
CONTINUOUS
 10
428.646502803
 20
524.4573145457
 11
429.887081672
 21
524.4573145457
  0
LINE
  5
2C0
100
AcDbEntity
  8
03___PRT_ALL_CURVES
100
AcDbLine
 62
2
  6
CONTINUOUS
 10
416.5650697006
 20
524.8872624623
 11
416.0150601861
 21
524.8872624623
  0
LINE
  5
2C1
100
AcDbEntity
  8
03___PRT_ALL_CURVES
100
AcDbLine
 62
2
  6
CONTINUOUS
 10
414.3962098379
 20
524.8872624623
 11
412.7720195419
 21
524.8872624623
  0
LINE
  5
2C2
100
AcDbEntity
  8
03___PRT_ALL_CURVES
100
AcDbLine
 62
2
  6
CONTINUOUS
 10
408.4901103927
 20
524.8872624623
 11
407.8672371407
 21
524.8872624623
  0
LINE
  5
2C3
100
AcDbEntity
  8
03___PRT_ALL_CURVES
100
AcDbLine
 62
2
  6
CONTINUOUS
 10
432.6093961397
 20
524.8900185387
 11
432.0616259781
 21
524.8900185387
  0
LINE
  5
2C4
100
AcDbEntity
  8
03___PRT_ALL_CURVES
100
AcDbLine
 62
2
  6
CONTINUOUS
 10
431.4676914959
 20
524.8900185387
 11
430.9154427031
 21
524.8900185387
  0
LINE
  5
2C5
100
AcDbEntity
  8
03___PRT_ALL_CURVES
100
AcDbLine
 62
2
  6
CONTINUOUS
 10
430.4717143911
 20
524.8900185387
 11
428.6465027649
 21
524.8900185387
  0
LINE
  5
2C6
100
AcDbEntity
  8
03___PRT_ALL_CURVES
100
AcDbLine
 62
2
  6
CONTINUOUS
 10
427.3328878945
 20
524.8900185387
 11
426.7120816782
 21
524.8900185387
  0
LINE
  5
2C7
100
AcDbEntity
  8
03___PRT_ALL_CURVES
100
AcDbLine
 62
2
  6
CONTINUOUS
 10
424.063492279
 20
524.8900185387
 11
423.4654237145
 21
524.8900185387
  0
LINE
  5
2C8
100
AcDbEntity
  8
03___PRT_ALL_CURVES
100
AcDbLine
 62
2
  6
CONTINUOUS
 10
422.0653368976
 20
524.8900185387
 11
421.1062223028
 21
524.8900185387
  0
LINE
  5
2C9
100
AcDbEntity
  8
03___PRT_ALL_CURVES
100
AcDbLine
 62
2
  6
CONTINUOUS
 10
419.3943543679
 20
524.8900185387
 11
418.868632818
 21
524.8900185387
  0
LINE
  5
2CA
100
AcDbEntity
  8
03___PRT_ALL_CURVES
100
AcDbLine
 62
2
  6
CONTINUOUS
 10
417.8109884828
 20
524.8900185387
 11
417.1317879283
 21
524.8900185387
  0
LINE
  5
2CB
100
AcDbEntity
  8
03___PRT_ALL_CURVES
100
AcDbLine
 62
2
  6
CONTINUOUS
 10
410.6798130831
 20
524.8900185387
 11
409.9282654721
 21
524.8900185387
  0
LINE
  5
2CC
100
AcDbEntity
  8
03___PRT_ALL_CURVES
100
AcDbLine
 62
2
  6
CONTINUOUS
 10
406.4382115217
 20
524.8900185387
 11
405.5555780856
 21
524.8900185387
  0
LINE
  5
2CD
100
AcDbEntity
  8
03___PRT_ALL_CURVES
100
AcDbLine
 62
2
  6
CONTINUOUS
 10
404.239551583
 20
524.8900185387
 11
403.3564013201
 21
524.8900185387
  0
LINE
  5
2CE
100
AcDbEntity
  8
03___PRT_ALL_CURVES
100
AcDbLine
 62
2
  6
CONTINUOUS
 10
436.6256884564
 20
526.0162202528
 11
400.1280025396
 21
526.0162202528
  0
LINE
  5
2CF
100
AcDbEntity
  8
03___PRT_ALL_CURVES
100
AcDbLine
 62
2
  6
CONTINUOUS
 10
435.2917474845
 20
528.0417641434
 11
434.797376263
 21
528.0417641434
  0
LINE
  5
2D0
100
AcDbEntity
  8
03___PRT_ALL_CURVES
100
AcDbLine
 62
2
  6
CONTINUOUS
 10
432.4912293646
 20
528.0417641434
 11
431.7736159877
 21
528.0417641434
  0
LINE
  5
2D1
100
AcDbEntity
  8
03___PRT_ALL_CURVES
100
AcDbLine
 62
2
  6
CONTINUOUS
 10
431.3822531279
 20
528.0417641434
 11
430.9898567341
 21
528.0417641434
  0
LINE
  5
2D2
100
AcDbEntity
  8
03___PRT_ALL_CURVES
100
AcDbLine
 62
2
  6
CONTINUOUS
 10
428.9579394349
 20
528.0417641434
 11
428.5710552305
 21
528.0417641434
  0
LINE
  5
2D3
100
AcDbEntity
  8
03___PRT_ALL_CURVES
100
AcDbLine
 62
2
  6
CONTINUOUS
 10
427.5940261323
 20
528.0417641434
 11
427.1506423577
 21
528.0417641434
  0
LINE
  5
2D4
100
AcDbEntity
  8
03___PRT_ALL_CURVES
100
AcDbLine
 62
2
  6
CONTINUOUS
 10
425.3901985504
 20
528.0417641434
 11
424.9468147457
 21
528.0417641434
  0
LINE
  5
2D5
100
AcDbEntity
  8
03___PRT_ALL_CURVES
100
AcDbLine
 62
2
  6
CONTINUOUS
 10
423.2159987896
 20
528.0417641434
 11
422.8236024
 21
528.0417641434
  0
LINE
  5
2D6
100
AcDbEntity
  8
03___PRT_ALL_CURVES
100
AcDbLine
 62
2
  6
CONTINUOUS
 10
420.7927186253
 20
528.0417641434
 11
420.4061789208
 21
528.0417641434
  0
LINE
  5
2D7
100
AcDbEntity
  8
03___PRT_ALL_CURVES
100
AcDbLine
 62
2
  6
CONTINUOUS
 10
415.6562535116
 20
528.0417641434
 11
415.2331957832
 21
528.0417641434
  0
LINE
  5
2D8
100
AcDbEntity
  8
03___PRT_ALL_CURVES
100
AcDbLine
 62
2
  6
CONTINUOUS
 10
412.0161656219
 20
528.0417641434
 11
411.3235291767
 21
528.0417641434
  0
LINE
  5
2D9
100
AcDbEntity
  8
03___PRT_ALL_CURVES
100
AcDbLine
 62
2
  6
CONTINUOUS
 10
411.1250916746
 20
528.0417641434
 11
410.6307204518
 21
528.0417641434
  0
LINE
  5
2DA
100
AcDbEntity
  8
03___PRT_ALL_CURVES
100
AcDbLine
 62
2
  6
CONTINUOUS
 10
408.3247458094
 20
528.0417641434
 11
407.6067879293
 21
528.0417641434
  0
LINE
  5
2DB
100
AcDbEntity
  8
03___PRT_ALL_CURVES
100
AcDbLine
 62
2
  6
CONTINUOUS
 10
407.4751852628
 20
528.0417641434
 11
406.9243144939
 21
528.0417641434
  0
LINE
  5
2DC
100
AcDbEntity
  8
03___PRT_ALL_CURVES
100
AcDbLine
 62
2
  6
CONTINUOUS
 10
405.5150981864
 20
528.0417641434
 11
405.1077156258
 21
528.0417641434
  0
LINE
  5
2DD
100
AcDbEntity
  8
03___PRT_ALL_CURVES
100
AcDbLine
 62
2
  6
CONTINUOUS
 10
403.3767274187
 20
528.0417641434
 11
402.9336881549
 21
528.0417641434
  0
LINE
  5
2DE
100
AcDbEntity
  8
03___PRT_ALL_CURVES
100
AcDbLine
 62
2
  6
CONTINUOUS
 10
413.7822938224
 20
528.3471718581
 11
413.4512201396
 21
528.3471718581
  0
LINE
  5
2DF
100
AcDbEntity
  8
03___PRT_ALL_CURVES
100
AcDbLine
 62
2
  6
CONTINUOUS
 10
434.2626974631
 20
528.8511893276
 11
432.7771722483
 21
528.8511893276
  0
LINE
  5
2E0
100
AcDbEntity
  8
03___PRT_ALL_CURVES
100
AcDbLine
 62
2
  6
CONTINUOUS
 10
410.0958693984
 20
528.8511893276
 11
408.6096551484
 21
528.8511893276
  0
LINE
  5
2E1
100
AcDbEntity
  8
03___PRT_ALL_CURVES
100
AcDbLine
 62
2
  6
CONTINUOUS
 10
405.9887988157
 20
529.3965479429
 11
405.5150981823
 21
529.3965479429
  0
LINE
  5
2E2
100
AcDbEntity
  8
03___PRT_ALL_CURVES
100
AcDbLine
 62
2
  6
CONTINUOUS
 10
408.8390985654
 20
529.4924938522
 11
409.8672872887
 21
529.4924938522
  0
LINE
  5
2E3
100
AcDbEntity
  8
03___PRT_ALL_CURVES
100
AcDbLine
 62
2
  6
CONTINUOUS
 10
433.0059266301
 20
529.4924938522
 11
434.0335986099
 21
529.4924938522
  0
LINE
  5
2E4
100
AcDbEntity
  8
03___PRT_ALL_CURVES
100
AcDbLine
 62
2
  6
CONTINUOUS
 10
405.5150981864
 20
530.0216605187
 11
405.9937942046
 21
530.0216605187
  0
LINE
  5
2E5
100
AcDbEntity
  8
03___PRT_ALL_CURVES
100
AcDbLine
 62
2
  6
CONTINUOUS
 10
426.4034011326
 20
531.0560504382
 11
425.3901985118
 21
531.0560504382
  0
LINE
  5
2E6
100
AcDbEntity
  8
03___PRT_ALL_CURVES
100
AcDbLine
 62
2
  6
CONTINUOUS
 10
424.6667284985
 20
531.0560504382
 11
423.9339566881
 21
531.0560504382
  0
LINE
  5
2E7
100
AcDbEntity
  8
03___PRT_ALL_CURVES
100
AcDbLine
 62
2
  6
CONTINUOUS
 10
404.3899300009
 20
531.0560504382
 11
403.3767273953
 21
531.0560504382
  0
LINE
  5
2E8
100
AcDbEntity
  8
03___PRT_ALL_CURVES
100
AcDbLine
 62
2
  6
CONTINUOUS
 10
402.6532573668
 20
531.0560504382
 11
401.920485578
 21
531.0560504382
  0
LINE
  5
2E9
100
AcDbEntity
  8
03___PRT_ALL_CURVES
100
AcDbLine
 62
2
  6
CONTINUOUS
 10
405.9937942041
 20
531.08137189
 11
405.515098186
 21
531.08137189
  0
LINE
  5
2EA
100
AcDbEntity
  8
03___PRT_ALL_CURVES
100
AcDbLine
 62
2
  6
CONTINUOUS
 10
401.6402270394
 20
531.7119966186
 11
404.3899300176
 21
531.7119966186
  0
LINE
  5
2EB
100
AcDbEntity
  8
03___PRT_ALL_CURVES
100
AcDbLine
 62
2
  6
CONTINUOUS
 10
404.8279738919
 20
531.7119966186
 11
406.0544278585
 21
531.7119966186
  0
LINE
  5
2EC
100
AcDbEntity
  8
03___PRT_ALL_CURVES
100
AcDbLine
 62
2
  6
CONTINUOUS
 10
409.0122146135
 20
531.7119966186
 11
409.7091574484
 21
531.7119966186
  0
LINE
  5
2ED
100
AcDbEntity
  8
03___PRT_ALL_CURVES
100
AcDbLine
 62
2
  6
CONTINUOUS
 10
411.8936924774
 20
531.7119966186
 11
412.540509141
 21
531.7119966186
  0
LINE
  5
2EE
100
AcDbEntity
  8
03___PRT_ALL_CURVES
100
AcDbLine
 62
2
  6
CONTINUOUS
 10
414.4447856842
 20
531.7119966186
 11
415.0855734289
 21
531.7119966186
  0
LINE
  5
2EF
100
AcDbEntity
  8
03___PRT_ALL_CURVES
100
AcDbLine
 62
2
  6
CONTINUOUS
 10
420.1250591203
 20
531.7119966186
 11
420.7775602118
 21
531.7119966186
  0
LINE
  5
2F0
100
AcDbEntity
  8
03___PRT_ALL_CURVES
100
AcDbLine
 62
2
  6
CONTINUOUS
 10
422.5483392846
 20
531.7119966186
 11
423.2159988047
 21
531.7119966186
  0
LINE
  5
2F1
100
AcDbEntity
  8
03___PRT_ALL_CURVES
100
AcDbLine
 62
2
  6
CONTINUOUS
 10
423.6531814067
 20
531.7119966186
 11
426.4034011487
 21
531.7119966186
  0
LINE
  5
2F2
100
AcDbEntity
  8
03___PRT_ALL_CURVES
100
AcDbLine
 62
2
  6
CONTINUOUS
 10
426.8719341186
 20
531.7119966186
 11
427.5940261227
 21
531.7119966186
  0
LINE
  5
2F3
100
AcDbEntity
  8
03___PRT_ALL_CURVES
100
AcDbLine
 62
2
  6
CONTINUOUS
 10
428.2916579681
 20
531.7119966186
 11
428.9431255287
 21
531.7119966186
  0
LINE
  5
2F4
100
AcDbEntity
  8
03___PRT_ALL_CURVES
100
AcDbLine
 62
2
  6
CONTINUOUS
 10
430.7145936228
 20
531.7119966186
 11
431.3822531102
 21
531.7119966186
  0
LINE
  5
2F5
100
AcDbEntity
  8
03___PRT_ALL_CURVES
100
AcDbLine
 62
2
  6
CONTINUOUS
 10
433.179214933
 20
531.7119966186
 11
433.8768467818
 21
531.7119966186
  0
LINE
  5
2F6
100
AcDbEntity
  8
03___PRT_ALL_CURVES
100
AcDbLine
 62
2
  6
CONTINUOUS
 10
400.1280023761
 20
534.1559473558
 11
436.625688293
 21
534.1559473558
  0
LINE
  5
2F7
100
AcDbEntity
  8
02___PRT_ALL_AXES
100
AcDbLine
 62
3
  6
CONTINUOUS
 10
511.6881748324
 20
547.1559473558
 11
511.6881748324
 21
334.1989473558
  0
LINE
  5
2F8
100
AcDbEntity
  8
02___PRT_ALL_AXES
100
AcDbLine
 62
7
  6
CONTINUOUS
 10
513.1881748324
 20
560.6559473558
 11
513.1881748324
 21
547.1559473558
  0
LINE
  5
2F9
100
AcDbEntity
  8
02___PRT_ALL_AXES
100
AcDbLine
 62
7
  6
CONTINUOUS
 10
513.1881748324
 20
547.1559473558
 11
323.6881748324
 21
547.1559473558
  0
LINE
  5
2FA
100
AcDbEntity
  8
02___PRT_ALL_AXES
100
AcDbLine
 62
7
  6
CONTINUOUS
 10
510.6881748324
 20
563.1559473558
 11
326.1881748324
 21
563.1559473558
  0
LINE
  5
2FB
100
AcDbEntity
  8
02___PRT_ALL_AXES
100
AcDbLine
 62
7
  6
CONTINUOUS
 10
488.9381748324
 20
564.0559473558
 11
347.9381748324
 21
564.0559473558
  0
ARC
  5
2FC
100
AcDbEntity
  8
02___PRT_ALL_AXES
100
AcDbCircle
 62
7
  6
CONTINUOUS
 10
510.6881748324
 20
560.6559473558
 40
2.5
100
AcDbArc
 50
0.0
 51
90.0
  0
ARC
  5
2FD
100
AcDbEntity
  8
02___PRT_ALL_AXES
100
AcDbCircle
 62
7
  6
CONTINUOUS
 10
326.1881748324
 20
560.6559473558
 40
2.5
100
AcDbArc
 50
90.0
 51
180.0
  0
ARC
  5
2FE
100
AcDbEntity
  8
02___PRT_ALL_AXES
100
AcDbCircle
 62
7
  6
CONTINUOUS
 10
488.9381748324
 20
562.0559473558
 40
2.0
100
AcDbArc
 50
33.4582914192
 51
90.0
  0
ARC
  5
2FF
100
AcDbEntity
  8
02___PRT_ALL_AXES
100
AcDbCircle
 62
7
  6
CONTINUOUS
 10
347.9381748324
 20
562.0559473558
 40
2.0
100
AcDbArc
 50
90.0
 51
146.5417085808
  0
ARC
  5
300
100
AcDbEntity
  8
0
100
AcDbCircle
 62
3
  6
CONTINUOUS
 10
327.0881748324
 20
334.1989473558
 40
1.9
100
AcDbArc
 50
180.0
 51
270.0
  0
ARC
  5
301
100
AcDbEntity
  8
0
100
AcDbCircle
 62
3
  6
CONTINUOUS
 10
509.7881748324
 20
334.1989473558
 40
1.9
100
AcDbArc
 50
270.0
 51
360.0
  0
CIRCLE
  5
302
100
AcDbEntity
  8
02___PRT_ALL_AXES
100
AcDbCircle
 62
7
  6
CONTINUOUS
 10
418.4381748324
 20
200.1575434287
 40
94.75
  0
ARC
  5
303
100
AcDbEntity
  8
0
100
AcDbCircle
 62
2
  6
CONTINUOUS
 10
418.4381748324
 20
200.1575434287
 40
94.75
100
AcDbArc
 50
180.0
 51
206.1831941186
  0
CIRCLE
  5
304
100
AcDbEntity
  8
02___PRT_ALL_AXES
100
AcDbCircle
 62
7
  6
CONTINUOUS
 10
418.4381748324
 20
200.1575434287
 40
74.75
  0
CIRCLE
  5
305
100
AcDbEntity
  8
02___PRT_ALL_AXES
100
AcDbCircle
 62
7
  6
CONTINUOUS
 10
418.4381748324
 20
200.1575434287
 40
72.5
  0
ARC
  5
306
100
AcDbEntity
  8
0
100
AcDbCircle
 62
7
  6
CONTINUOUS
 10
418.4381748324
 20
282.4075434287
 40
8.0
100
AcDbArc
 50
251.0743297433
 51
288.9256702567
  0
ARC
  5
307
100
AcDbEntity
  8
0
100
AcDbCircle
 62
7
  6
CONTINUOUS
 10
418.4381748324
 20
117.9075434287
 40
8.0
100
AcDbArc
 50
71.0743297433
 51
108.9256702567
  0
SPLINE
  5
308
100
AcDbEntity
  8
03___PRT_ALL_CURVES
100
AcDbSpline
 62
2
  6
CONTINUOUS
 70
0
 71
3
 72
15
 73
11
 74
0
 42
0.0000001
 43
0.0000001
 44
0.0000000001
 40
0.0
 40
0.0
 40
0.0
 40
0.0
 40
0.1666666667
 40
0.3333333333
 40
0.5
 40
0.6666666667
 40
0.75
 40
0.8333333333
 40
0.9166666667
 40
1.0
 40
1.0
 40
1.0
 40
1.0
 10
423.9339566888
 20
531.0560504382
 30
0.0
 10
423.9082133315
 20
531.0560504382
 30
0.0
 10
423.8579234136
 20
531.0595578829
 30
0.0
 10
423.7819905647
 20
531.079173317
 30
0.0
 10
423.7176729686
 20
531.1185332896
 30
0.0
 10
423.6839099057
 20
531.1719020431
 30
0.0
 10
423.6670745604
 20
531.2203518266
 30
0.0
 10
423.6586947349
 20
531.2586438071
 30
0.0
 10
423.654136241
 20
531.2971467843
 30
0.0
 10
423.6531814067
 20
531.3223063341
 30
0.0
 10
423.6531814067
 20
531.3352754273
 30
0.0
  0
SPLINE
  5
309
100
AcDbEntity
  8
03___PRT_ALL_CURVES
100
AcDbSpline
 62
2
  6
CONTINUOUS
 70
0
 71
3
 72
13
 73
9
 74
0
 42
0.0000001
 43
0.0000001
 44
0.0000000001
 40
0.0
 40
0.0
 40
0.0
 40
0.0
 40
0.1666666667
 40
0.3333333333
 40
0.5
 40
0.6666666667
 40
0.8333333333
 40
1.0
 40
1.0
 40
1.0
 40
1.0
 10
427.1506423433
 20
528.0417641434
 30
0.0
 10
427.12490593
 20
528.0417641434
 30
0.0
 10
427.0746686927
 20
528.0453658628
 30
0.0
 10
426.9988575864
 20
528.0652690069
 30
0.0
 10
426.9349326475
 20
528.105158712
 30
0.0
 10
426.8951863411
 20
528.1693112444
 30
0.0
 10
426.8754433006
 20
528.2456342357
 30
0.0
 10
426.8719341186
 20
528.2961443589
 30
0.0
 10
426.8719341186
 20
528.3220226611
 30
0.0
  0
SPLINE
  5
30A
100
AcDbEntity
  8
03___PRT_ALL_CURVES
100
AcDbSpline
 62
2
  6
CONTINUOUS
 70
0
 71
3
 72
17
 73
13
 74
0
 42
0.0000001
 43
0.0000001
 44
0.0000000001
 40
0.0
 40
0.0
 40
0.0
 40
0.0
 40
0.1
 40
0.2
 40
0.25
 40
0.3
 40
0.4
 40
0.5
 40
0.6
 40
0.7
 40
0.8
 40
1.0
 40
1.0
 40
1.0
 40
1.0
 10
434.7973762824
 20
528.0417641434
 30
0.0
 10
434.7821435386
 20
528.0417641434
 30
0.0
 10
434.7526369017
 20
528.0434277305
 30
0.0
 10
434.7157422117
 20
528.0496049765
 30
0.0
 10
434.686795689
 20
528.0571885455
 30
0.0
 10
434.6581983088
 20
528.066667409
 30
0.0
 10
434.6242470914
 20
528.0819199229
 30
0.0
 10
434.5872640911
 20
528.106020265
 30
0.0
 10
434.555007812
 20
528.1361951554
 30
0.0
 10
434.5271468662
 20
528.1710512316
 30
0.0
 10
434.4953666801
 20
528.2224864894
 30
0.0
 10
434.477672072
 20
528.2630659426
 30
0.0
 10
434.4673361349
 20
528.2915335661
 30
0.0
  0
SPLINE
  5
30B
100
AcDbEntity
  8
03___PRT_ALL_CURVES
100
AcDbSpline
 62
2
  6
CONTINUOUS
 70
0
 71
3
 72
16
 73
12
 74
0
 42
0.0000001
 43
0.0000001
 44
0.0000000001
 40
0.0
 40
0.0
 40
0.0
 40
0.0
 40
0.1
 40
0.2
 40
0.3
 40
0.4
 40
0.5
 40
0.6
 40
0.7
 40
0.8
 40
1.0
 40
1.0
 40
1.0
 40
1.0
 10
410.6307204725
 20
528.0417641434
 30
0.0
 10
410.6153767137
 20
528.0417641434
 30
0.0
 10
410.5856662897
 20
528.0434430854
 30
0.0
 10
410.5411738482
 20
528.0508834846
 30
0.0
 10
410.4975585294
 20
528.0637466295
 30
0.0
 10
410.4565808548
 20
528.0821843845
 30
0.0
 10
410.4195493534
 20
528.1063883688
 30
0.0
 10
410.3872811122
 20
528.1366271987
 30
0.0
 10
410.3594433472
 20
528.1714619353
 30
0.0
 10
410.3276912508
 20
528.2227734653
 30
0.0
 10
410.3099920619
 20
528.2632003248
 30
0.0
 10
410.2996467963
 20
528.291533566
 30
0.0
  0
SPLINE
  5
30C
100
AcDbEntity
  8
03___PRT_ALL_CURVES
100
AcDbSpline
 62
2
  6
CONTINUOUS
 70
0
 71
3
 72
17
 73
13
 74
0
 42
0.0000001
 43
0.0000001
 44
0.0000000001
 40
0.0
 40
0.0
 40
0.0
 40
0.0
 40
0.1666666667
 40
0.3333333333
 40
0.4166666667
 40
0.5
 40
0.5833333333
 40
0.6666666667
 40
0.75
 40
0.8333333333
 40
0.9166666667
 40
1.0
 40
1.0
 40
1.0
 40
1.0
 10
402.9336881393
 20
528.0417641434
 30
0.0
 10
402.9080835757
 20
528.0417641434
 30
0.0
 10
402.8580329175
 20
528.0452477643
 30
0.0
 10
402.7950537367
 20
528.0613903798
 30
0.0
 10
402.7503076102
 20
528.0841686343
 30
0.0
 10
402.7210138937
 20
528.1068086296
 30
0.0
 10
402.6976116317
 20
528.1357072388
 30
0.0
 10
402.6798206681
 20
528.1693990311
 30
0.0
 10
402.6671295027
 20
528.2060102614
 30
0.0
 10
402.6587409319
 20
528.2446795856
 30
0.0
 10
402.6542023005
 20
528.2835373008
 30
0.0
 10
402.6532573668
 20
528.3089278754
 30
0.0
 10
402.6532573668
 20
528.3220226611
 30
0.0
  0
SPLINE
  5
30D
100
AcDbEntity
  8
03___PRT_ALL_CURVES
100
AcDbSpline
 62
2
  6
CONTINUOUS
 70
0
 71
3
 72
13
 73
9
 74
0
 42
0.0000001
 43
0.0000001
 44
0.0000000001
 40
0.0
 40
0.0
 40
0.0
 40
0.0
 40
0.1666666667
 40
0.3333333333
 40
0.5
 40
0.6666666667
 40
0.8333333333
 40
1.0
 40
1.0
 40
1.0
 40
1.0
 10
420.4061789119
 20
528.0417641434
 30
0.0
 10
420.3803128268
 20
528.0417641434
 30
0.0
 10
420.3297992111
 20
528.0452806321
 30
0.0
 10
420.2535222038
 20
528.0649685285
 30
0.0
 10
420.1890672964
 20
528.104673846
 30
0.0
 10
420.1488006574
 20
528.1688522572
 30
0.0
 10
420.1286810763
 20
528.2453723021
 30
0.0
 10
420.1250591203
 20
528.2960473595
 30
0.0
 10
420.1250591203
 20
528.3220226611
 30
0.0
  0
SPLINE
  5
30E
100
AcDbEntity
  8
03___PRT_ALL_CURVES
100
AcDbSpline
 62
2
  6
CONTINUOUS
 70
0
 71
3
 72
17
 73
13
 74
0
 42
0.0000001
 43
0.0000001
 44
0.0000000001
 40
0.0
 40
0.0
 40
0.0
 40
0.0
 40
0.125
 40
0.25
 40
0.375
 40
0.5
 40
0.625
 40
0.6875
 40
0.75
 40
0.8125
 40
0.875
 40
1.0
 40
1.0
 40
1.0
 40
1.0
 10
422.8236024139
 20
528.0417641434
 30
0.0
 10
422.8021494082
 20
528.0417641434
 30
0.0
 10
422.7602453992
 20
528.044845787
 30
0.0
 10
422.6972435479
 20
528.0578344665
 30
0.0
 10
422.6351291087
 20
528.0790701061
 30
0.0
 10
422.5755682675
 20
528.1081289033
 30
0.0
 10
422.5290259195
 20
528.1387675974
 30
0.0
 10
422.4943036266
 20
528.1672215434
 30
0.0
 10
422.4700581341
 20
528.1903220202
 30
0.0
 10
422.447572692
 20
528.2149865407
 30
0.0
 10
422.419246629
 20
528.2497726529
 30
0.0
 10
422.3995803904
 20
528.277331059
 30
0.0
 10
422.3864197968
 20
528.2963566998
 30
0.0
  0
SPLINE
  5
30F
100
AcDbEntity
  8
03___PRT_ALL_CURVES
100
AcDbSpline
 62
2
  6
CONTINUOUS
 70
0
 71
3
 72
17
 73
13
 74
0
 42
0.0000001
 43
0.0000001
 44
0.0000000001
 40
0.0
 40
0.0
 40
0.0
 40
0.0
 40
0.1666666667
 40
0.3333333333
 40
0.4166666667
 40
0.5
 40
0.5833333333
 40
0.6666666667
 40
0.75
 40
0.8333333333
 40
0.9166666667
 40
1.0
 40
1.0
 40
1.0
 40
1.0
 10
401.9204855571
 20
531.0560504382
 30
0.0
 10
401.8950072228
 20
531.0560504382
 30
0.0
 10
401.8451844709
 20
531.0595250008
 30
0.0
 10
401.7824956584
 20
531.0755699816
 30
0.0
 10
401.7378672242
 20
531.0981828227
 30
0.0
 10
401.7085762804
 20
531.1206430406
 30
0.0
 10
401.6850688223
 20
531.1493601072
 30
0.0
 10
401.667150192
 20
531.1828973617
 30
0.0
 10
401.6543166124
 20
531.2194141425
 30
0.0
 10
401.6458098147
 20
531.2580219583
 30
0.0
 10
401.6411934453
 20
531.2968223072
 30
0.0
 10
401.6402270394
 20
531.3221895366
 30
0.0
 10
401.6402270394
 20
531.3352754273
 30
0.0
  0
SPLINE
  5
310
100
AcDbEntity
  8
03___PRT_ALL_CURVES
100
AcDbSpline
 62
2
  6
CONTINUOUS
 70
0
 71
3
 72
13
 73
9
 74
0
 42
0.0000001
 43
0.0000001
 44
0.0000000001
 40
0.0
 40
0.0
 40
0.0
 40
0.0
 40
0.1666666667
 40
0.3333333333
 40
0.5
 40
0.6666666667
 40
0.8333333333
 40
1.0
 40
1.0
 40
1.0
 40
1.0
 10
428.5710552119
 20
528.0417641434
 30
0.0
 10
428.5453349603
 20
528.0417641434
 30
0.0
 10
428.4951084684
 20
528.0453332008
 30
0.0
 10
428.419301869
 20
528.065111373
 30
0.0
 10
428.3552096433
 20
528.104817585
 30
0.0
 10
428.3151659117
 20
528.1689368915
 30
0.0
 10
428.2952184538
 20
528.2454340558
 30
0.0
 10
428.2916579681
 20
528.2960690555
 30
0.0
 10
428.2916579681
 20
528.3220226611
 30
0.0
  0
SPLINE
  5
311
100
AcDbEntity
  8
03___PRT_ALL_CURVES
100
AcDbSpline
 62
2
  6
CONTINUOUS
 70
0
 71
3
 72
13
 73
9
 74
0
 42
0.0000001
 43
0.0000001
 44
0.0000000001
 40
0.0
 40
0.0
 40
0.0
 40
0.0
 40
0.1666666667
 40
0.3333333333
 40
0.5
 40
0.6666666667
 40
0.8333333333
 40
1.0
 40
1.0
 40
1.0
 40
1.0
 10
424.9468147614
 20
528.0417641434
 30
0.0
 10
424.9210115443
 20
528.0417641434
 30
0.0
 10
424.8706277698
 20
528.04531363
 30
0.0
 10
424.7945669449
 20
528.0650765569
 30
0.0
 10
424.7303286169
 20
528.1048352499
 30
0.0
 10
424.6902650935
 20
528.1690013835
 30
0.0
 10
424.6703014833
 20
528.2454614292
 30
0.0
 10
424.6667284985
 20
528.2960804332
 30
0.0
 10
424.6667284985
 20
528.3220226611
 30
0.0
  0
SPLINE
  5
312
100
AcDbEntity
  8
03___PRT_ALL_CURVES
100
AcDbSpline
 62
2
  6
CONTINUOUS
 70
0
 71
3
 72
17
 73
13
 74
0
 42
0.0000001
 43
0.0000001
 44
0.0000000001
 40
0.0
 40
0.0
 40
0.0
 40
0.0
 40
0.125
 40
0.25
 40
0.375
 40
0.5
 40
0.625
 40
0.6875
 40
0.75
 40
0.8125
 40
0.875
 40
1.0
 40
1.0
 40
1.0
 40
1.0
 10
430.9898567521
 20
528.0417641434
 30
0.0
 10
430.9682644926
 20
528.0417641434
 30
0.0
 10
430.9261173137
 20
528.0448772662
 30
0.0
 10
430.8628871644
 20
528.0579496506
 30
0.0
 10
430.8006881595
 20
528.0792563795
 30
0.0
 10
430.7411350713
 20
528.1083575866
 30
0.0
 10
430.6946550257
 20
528.1390041785
 30
0.0
 10
430.6600035139
 20
528.1674494325
 30
0.0
 10
430.6358152342
 20
528.1905424466
 30
0.0
 10
430.6133849078
 20
528.2151903524
 30
0.0
 10
430.5851243689
 20
528.2499276506
 30
0.0
 10
430.5654871313
 20
528.2774108011
 30
0.0
 10
430.5523296255
 20
528.2963566997
 30
0.0
  0
SPLINE
  5
313
100
AcDbEntity
  8
03___PRT_ALL_CURVES
100
AcDbSpline
 62
2
  6
CONTINUOUS
 70
0
 71
3
 72
17
 73
13
 74
0
 42
0.0000001
 43
0.0000001
 44
0.0000000001
 40
0.0
 40
0.0
 40
0.0
 40
0.0
 40
0.1
 40
0.2
 40
0.3
 40
0.4
 40
0.5
 40
0.6
 40
0.7
 40
0.8
 40
0.9
 40
1.0
 40
1.0
 40
1.0
 40
1.0
 10
406.0544278846
 20
531.7119966186
 30
0.0
 10
406.1086720746
 20
531.7119966186
 30
0.0
 10
406.2166479428
 20
531.7058664451
 30
0.0
 10
406.378362353
 20
531.6784583256
 30
0.0
 10
406.5359577613
 20
531.6323715744
 30
0.0
 10
406.6857082536
 20
531.5669280119
 30
0.0
 10
406.8240440066
 20
531.4816683122
 30
0.0
 10
406.9529629427
 20
531.3689908911
 30
0.0
 10
407.0663154614
 20
531.2229395881
 30
0.0
 10
407.1606763263
 20
531.0443346399
 30
0.0
 10
407.2330889987
 20
530.8191929475
 30
0.0
 10
407.2553881708
 20
530.6390796999
 30
0.0
 10
407.2553881708
 20
530.5413531727
 30
0.0
  0
SPLINE
  5
314
100
AcDbEntity
  8
03___PRT_ALL_CURVES
100
AcDbSpline
 62
2
  6
CONTINUOUS
 70
0
 71
3
 72
26
 73
22
 74
0
 42
0.0000001
 43
0.0000001
 44
0.0000000001
 40
0.0
 40
0.0
 40
0.0
 40
0.0
 40
0.0909090909
 40
0.1363636364
 40
0.1818181818
 40
0.2272727273
 40
0.2727272727
 40
0.3181818182
 40
0.3636363636
 40
0.4090909091
 40
0.4545454545
 40
0.5454545455
 40
0.5909090909
 40
0.6363636364
 40
0.6818181818
 40
0.7272727273
 40
0.7727272727
 40
0.8181818182
 40
0.8636363636
 40
0.9090909091
 40
1.0
 40
1.0
 40
1.0
 40
1.0
 10
405.9937942041
 20
530.0216605187
 30
0.0
 10
406.0525786124
 20
530.0216605187
 30
0.0
 10
406.1353157496
 20
530.0306985522
 30
0.0
 10
406.2362364288
 20
530.0600141923
 30
0.0
 10
406.3060660983
 20
530.090738003
 30
0.0
 10
406.3692186165
 20
530.1309710683
 30
0.0
 10
406.4241765336
 20
530.1812291608
 30
0.0
 10
406.4717115247
 20
530.2422240488
 30
0.0
 10
406.5082260532
 20
530.3113155214
 30
0.0
 10
406.5322978816
 20
530.3864541399
 30
0.0
 10
406.5502176071
 20
530.4919748947
 30
0.0
 10
406.5499462293
 20
530.6058759157
 30
0.0
 10
406.5318326178
 20
530.7119811917
 30
0.0
 10
406.5078989704
 20
530.7878086968
 30
0.0
 10
406.4715396318
 20
530.8578169672
 30
0.0
 10
406.4241141995
 20
530.9197902678
 30
0.0
 10
406.3689984615
 20
530.9709953181
 30
0.0
 10
406.3055150944
 20
531.0118913788
 30
0.0
 10
406.2354545477
 20
531.0429904019
 30
0.0
 10
406.1343982184
 20
531.0724937689
 30
0.0
 10
406.052120161
 20
531.08137189
 30
0.0
 10
405.9937942041
 20
531.08137189
 30
0.0
  0
SPLINE
  5
315
100
AcDbEntity
  8
03___PRT_ALL_CURVES
100
AcDbSpline
 62
2
  6
CONTINUOUS
 70
0
 71
3
 72
13
 73
9
 74
0
 42
0.0000001
 43
0.0000001
 44
0.0000000001
 40
0.0
 40
0.0
 40
0.0
 40
0.0
 40
0.1666666667
 40
0.3333333333
 40
0.5
 40
0.6666666667
 40
0.8333333333
 40
1.0
 40
1.0
 40
1.0
 40
1.0
 10
405.1077156453
 20
528.0417641434
 30
0.0
 10
405.082056983
 20
528.0417641434
 30
0.0
 10
405.0319231734
 20
528.0452873076
 30
0.0
 10
404.956275196
 20
528.0648486135
 30
0.0
 10
404.8920234453
 20
528.1042168291
 30
0.0
 10
404.8516498001
 20
528.168295456
 30
0.0
 10
404.8315522729
 20
528.2451138064
 30
0.0
 10
404.8279738919
 20
528.2959501106
 30
0.0
 10
404.8279738919
 20
528.3220226611
 30
0.0
  0
SPLINE
  5
316
100
AcDbEntity
  8
03___PRT_ALL_CURVES
100
AcDbSpline
 62
2
  6
CONTINUOUS
 70
0
 71
3
 72
16
 73
12
 74
0
 42
0.0000001
 43
0.0000001
 44
0.0000000001
 40
0.0
 40
0.0
 40
0.0
 40
0.0
 40
0.125
 40
0.25
 40
0.3125
 40
0.375
 40
0.5
 40
0.625
 40
0.75
 40
0.875
 40
1.0
 40
1.0
 40
1.0
 40
1.0
 10
406.9243144947
 20
528.0417641434
 30
0.0
 10
406.9058236102
 20
528.0417641434
 30
0.0
 10
406.8702388622
 20
528.0430562466
 30
0.0
 10
406.8254201036
 20
528.0488631137
 30
0.0
 10
406.7902737822
 20
528.0568190331
 30
0.0
 10
406.7556064025
 20
528.0673543237
 30
0.0
 10
406.7147308938
 20
528.0855213409
 30
0.0
 10
406.670741476
 20
528.1173738287
 30
0.0
 10
406.6323661142
 20
528.157108997
 30
0.0
 10
406.5999498628
 20
528.2018160486
 30
0.0
 10
406.5819626626
 20
528.233608383
 30
0.0
 10
406.5734315195
 20
528.2507091846
 30
0.0
  0
SPLINE
  5
317
100
AcDbEntity
  8
03___PRT_ALL_CURVES
100
AcDbSpline
 62
2
  6
CONTINUOUS
 70
0
 71
3
 72
22
 73
18
 74
0
 42
0.0000001
 43
0.0000001
 44
0.0000000001
 40
0.0
 40
0.0
 40
0.0
 40
0.0
 40
0.0666666667
 40
0.1333333333
 40
0.2
 40
0.2666666667
 40
0.3333333333
 40
0.4
 40
0.4666666667
 40
0.5333333333
 40
0.6
 40
0.6666666667
 40
0.7333333333
 40
0.8
 40
0.8666666667
 40
0.9333333333
 40
1.0
 40
1.0
 40
1.0
 40
1.0
 10
419.6576850227
 20
529.8502468589
 30
0.0
 10
419.6556567073
 20
529.7168329693
 30
0.0
 10
419.6248642277
 20
529.4567204276
 30
0.0
 10
419.4975598803
 20
529.0796177363
 30
0.0
 10
419.2935817917
 20
528.7367933849
 30
0.0
 10
419.0228433326
 20
528.4423135398
 30
0.0
 10
418.6919556956
 20
528.2074327088
 30
0.0
 10
418.3248459972
 20
528.0489755777
 30
0.0
 10
417.9378809237
 20
527.9708436261
 30
0.0
 10
417.5410769809
 20
527.9725319611
 30
0.0
 10
417.1547790551
 20
528.0557309492
 30
0.0
 10
416.7955071096
 20
528.2186512809
 30
0.0
 10
416.4768750276
 20
528.452656768
 30
0.0
 10
416.2123640979
 20
528.7481663166
 30
0.0
 10
416.0140191173
 20
529.0932615004
 30
0.0
 10
415.8917184693
 20
529.4744331814
 30
0.0
 10
415.8643682505
 20
529.7360279604
 30
0.0
 10
415.8645095337
 20
529.8700763174
 30
0.0
  0
SPLINE
  5
318
100
AcDbEntity
  8
03___PRT_ALL_CURVES
100
AcDbSpline
 62
2
  6
CONTINUOUS
 70
0
 71
3
 72
26
 73
22
 74
0
 42
0.0000001
 43
0.0000001
 44
0.0000000001
 40
0.0
 40
0.0
 40
0.0
 40
0.0
 40
0.0333333333
 40
0.0666666667
 40
0.1
 40
0.1333333333
 40
0.2
 40
0.2666666667
 40
0.3333333333
 40
0.4
 40
0.4666666667
 40
0.5333333333
 40
0.6
 40
0.6666666667
 40
0.7333333333
 40
0.8
 40
0.8666666667
 40
0.9
 40
0.9333333333
 40
0.9666666667
 40
1.0
 40
1.0
 40
1.0
 40
1.0
 10
415.8645095337
 20
529.8700763174
 30
0.0
 10
415.8645807813
 20
529.9376755021
 30
0.0
 10
415.8716620809
 20
530.0693509727
 30
0.0
 10
415.902014947
 20
530.2672679503
 30
0.0
 10
415.9530514298
 20
530.4598633427
 30
0.0
 10
416.047727507
 20
530.7072552659
 30
0.0
 10
416.2141370451
 20
530.9969631684
 30
0.0
 10
416.4820383481
 20
531.2965813277
 30
0.0
 10
416.8086325751
 20
531.5351076479
 30
0.0
 10
417.177629064
 20
531.7000641136
 30
0.0
 10
417.5736927543
 20
531.7826756982
 30
0.0
 10
417.9748616578
 20
531.7810236618
 30
0.0
 10
418.3619885421
 20
531.6975453476
 30
0.0
 10
418.7282819348
 20
531.5309450249
 30
0.0
 10
419.0531608508
 20
531.2894526022
 30
0.0
 10
419.3191770373
 20
530.9869620719
 30
0.0
 10
419.484313403
 20
530.6928710844
 30
0.0
 10
419.5766182872
 20
530.4428690469
 30
0.0
 10
419.6255867956
 20
530.2486513585
 30
0.0
 10
419.6536033936
 20
530.050361347
 30
0.0
 10
419.6587137598
 20
529.91791277
 30
0.0
 10
419.6576850227
 20
529.8502468589
 30
0.0
  0
SPLINE
  5
319
100
AcDbEntity
  8
03___PRT_ALL_CURVES
100
AcDbSpline
 62
2
  6
CONTINUOUS
 70
0
 71
3
 72
24
 73
20
 74
0
 42
0.0000001
 43
0.0000001
 44
0.0000000001
 40
0.0
 40
0.0
 40
0.0
 40
0.0
 40
0.0357142857
 40
0.0714285714
 40
0.1071428571
 40
0.1428571429
 40
0.1785714286
 40
0.2142857143
 40
0.2857142857
 40
0.3571428571
 40
0.4285714286
 40
0.5
 40
0.5714285714
 40
0.6428571429
 40
0.7142857143
 40
0.7857142857
 40
0.8571428571
 40
0.9285714286
 40
1.0
 40
1.0
 40
1.0
 40
1.0
 10
418.9137627377
 20
529.8757204408
 30
0.0
 10
418.9137061344
 20
529.9273558403
 30
0.0
 10
418.9071105568
 20
530.0281000515
 30
0.0
 10
418.8791462232
 20
530.1785535798
 30
0.0
 10
418.8317247907
 20
530.3286340403
 30
0.0
 10
418.7662337779
 20
530.4693957099
 30
0.0
 10
418.6859714783
 20
530.5968679691
 30
0.0
 10
418.5617540279
 20
530.7491120931
 30
0.0
 10
418.3825239439
 20
530.9018372424
 30
0.0
 10
418.1504292881
 20
531.0190745787
 30
0.0
 10
417.9119824234
 20
531.079297121
 30
0.0
 10
417.6669418609
 20
531.0868778511
 30
0.0
 10
417.4219346036
 20
531.0379945761
 30
0.0
 10
417.195092172
 20
530.9373491993
 30
0.0
 10
416.9970587394
 20
530.7900083196
 30
0.0
 10
416.8310451831
 20
530.6026081034
 30
0.0
 10
416.7046379113
 20
530.3807789871
 30
0.0
 10
416.6262203235
 20
530.1325287946
 30
0.0
 10
416.6077809603
 20
529.9618698718
 30
0.0
 10
416.6077888846
 20
529.874210432
 30
0.0
  0
SPLINE
  5
31A
100
AcDbEntity
  8
03___PRT_ALL_CURVES
100
AcDbSpline
 62
2
  6
CONTINUOUS
 70
0
 71
3
 72
25
 73
21
 74
0
 42
0.0000001
 43
0.0000001
 44
0.0000000001
 40
0.0
 40
0.0
 40
0.0
 40
0.0
 40
0.0714285714
 40
0.1428571429
 40
0.2142857143
 40
0.2857142857
 40
0.3571428571
 40
0.4285714286
 40
0.5
 40
0.5714285714
 40
0.6428571429
 40
0.7142857143
 40
0.75
 40
0.7857142857
 40
0.8214285714
 40
0.8571428571
 40
0.8928571429
 40
0.9285714286
 40
0.9642857143
 40
1.0
 40
1.0
 40
1.0
 40
1.0
 10
416.6077888846
 20
529.874210432
 30
0.0
 10
416.6077968171
 20
529.7864608259
 30
0.0
 10
416.6263148778
 20
529.6160904931
 30
0.0
 10
416.7043344256
 20
529.3700210875
 30
0.0
 10
416.8291841441
 20
529.1510792438
 30
0.0
 10
416.994383042
 20
528.9646879652
 30
0.0
 10
417.1924502117
 20
528.8173912424
 30
0.0
 10
417.4222105346
 20
528.7161445861
 30
0.0
 10
417.6658100566
 20
528.6683158407
 30
0.0
 10
417.90849678
 20
528.6749641853
 30
0.0
 10
418.1498314581
 20
528.734595334
 30
0.0
 10
418.3452266654
 20
528.8326266634
 30
0.0
 10
418.4926021087
 20
528.9442999575
 30
0.0
 10
418.5953487116
 20
529.0433071464
 30
0.0
 10
418.6900724528
 20
529.1595070549
 30
0.0
 10
418.7707682936
 20
529.2890789805
 30
0.0
 10
418.8348730082
 20
529.4292492657
 30
0.0
 10
418.8808843084
 20
529.5778160651
 30
0.0
 10
418.9077092292
 20
529.7262902983
 30
0.0
 10
418.9138181699
 20
529.8251533137
 30
0.0
 10
418.9137627377
 20
529.8757204408
 30
0.0
  0
SPLINE
  5
31B
100
AcDbEntity
  8
03___PRT_ALL_CURVES
100
AcDbSpline
 62
2
  6
CONTINUOUS
 70
0
 71
3
 72
43
 73
39
 74
0
 42
0.0000001
 43
0.0000001
 44
0.0000000001
 40
0.0
 40
0.0
 40
0.0
 40
0.0
 40
0.0384615385
 40
0.0769230769
 40
0.1153846154
 40
0.1538461538
 40
0.1923076923
 40
0.2307692308
 40
0.2692307692
 40
0.3076923077
 40
0.3461538462
 40
0.3846153846
 40
0.4230769231
 40
0.4615384615
 40
0.5
 40
0.5384615385
 40
0.5769230769
 40
0.6153846154
 40
0.6346153846
 40
0.6538461538
 40
0.6730769231
 40
0.6923076923
 40
0.7307692308
 40
0.7692307692
 40
0.8076923077
 40
0.8269230769
 40
0.8461538462
 40
0.8653846154
 40
0.8846153846
 40
0.9038461538
 40
0.9230769231
 40
0.9423076923
 40
0.9519230769
 40
0.9615384615
 40
0.9711538462
 40
0.9807692308
 40
0.9903846154
 40
1.0
 40
1.0
 40
1.0
 40
1.0
 10
403.8838454742
 20
522.1384207746
 30
0.0
 10
403.8838454742
 20
522.2049951104
 30
0.0
 10
403.883969346
 20
522.3336265113
 30
0.0
 10
403.8840352545
 20
522.5126269411
 30
0.0
 10
403.8837534344
 20
522.6788658968
 30
0.0
 10
403.8835043761
 20
522.833088084
 30
0.0
 10
403.8834810096
 20
522.9761770471
 30
0.0
 10
403.883816368
 20
523.1089949256
 30
0.0
 10
403.8845493333
 20
523.2322621408
 30
0.0
 10
403.8857856055
 20
523.3466521411
 30
0.0
 10
403.8869534485
 20
523.452872131
 30
0.0
 10
403.8874296565
 20
523.5513800185
 30
0.0
 10
403.8869739297
 20
523.6426236027
 30
0.0
 10
403.8853017622
 20
523.7271181301
 30
0.0
 10
403.8831760889
 20
523.8054226922
 30
0.0
 10
403.8818948997
 20
523.877955863
 30
0.0
 10
403.8820998714
 20
523.9450862679
 30
0.0
 10
403.8838714796
 20
523.9966885436
 30
0.0
 10
403.8863438251
 20
524.03558926
 30
0.0
 10
403.8887704548
 20
524.0635236962
 30
0.0
 10
403.891576247
 20
524.0902650374
 30
0.0
 10
403.8952698153
 20
524.1245042841
 30
0.0
 10
403.8990532644
 20
524.1649330266
 30
0.0
 10
403.9007066315
 20
524.2098461396
 30
0.0
 10
403.8993083556
 20
524.2442510409
 30
0.0
 10
403.8967068403
 20
524.2697974636
 30
0.0
 10
403.894071888
 20
524.2881476793
 30
0.0
 10
403.8908921185
 20
524.3054831691
 30
0.0
 10
403.8870976915
 20
524.3222665616
 30
0.0
 10
403.8833273634
 20
524.338669771
 30
0.0
 10
403.8803074963
 20
524.3544613815
 30
0.0
 10
403.8789064444
 20
524.3684477249
 30
0.0
 10
403.8792408005
 20
524.3791061157
 30
0.0
 10
403.8802822336
 20
524.386393129
 30
0.0
 10
403.8821051893
 20
524.3929925886
 30
0.0
 10
403.8847990287
 20
524.3990986216
 30
0.0
 10
403.888370867
 20
524.404610895
 30
0.0
 10
403.8913553314
 20
524.4078997508
 30
0.0
 10
403.8929749772
 20
524.4094277185
 30
0.0
  0
SPLINE
  5
31C
100
AcDbEntity
  8
03___PRT_ALL_CURVES
100
AcDbSpline
 62
2
  6
CONTINUOUS
 70
0
 71
3
 72
62
 73
58
 74
0
 42
0.0000001
 43
0.0000001
 44
0.0000000001
 40
0.0
 40
0.0
 40
0.0
 40
0.0
 40
0.0277777778
 40
0.0555555556
 40
0.0833333333
 40
0.1111111111
 40
0.1388888889
 40
0.1666666667
 40
0.1944444444
 40
0.2222222222
 40
0.25
 40
0.2777777778
 40
0.3055555556
 40
0.3333333333
 40
0.3611111111
 40
0.3888888889
 40
0.4166666667
 40
0.4444444444
 40
0.4722222222
 40
0.5
 40
0.5277777778
 40
0.5555555556
 40
0.5833333333
 40
0.6111111111
 40
0.6388888889
 40
0.6666666667
 40
0.6944444444
 40
0.7222222222
 40
0.75
 40
0.7777777778
 40
0.7916666667
 40
0.8055555556
 40
0.8194444444
 40
0.8333333333
 40
0.8472222222
 40
0.8611111111
 40
0.8888888889
 40
0.9027777778
 40
0.9166666667
 40
0.9236111111
 40
0.9305555556
 40
0.9375
 40
0.9444444444
 40
0.9513888889
 40
0.9583333333
 40
0.9652777778
 40
0.9722222222
 40
0.9756944444
 40
0.9791666667
 40
0.9826388889
 40
0.9861111111
 40
0.9895833333
 40
0.9930555556
 40
0.9947916667
 40
0.9965277778
 40
0.9982638889
 40
1.0
 40
1.0
 40
1.0
 40
1.0
 10
405.1609423705
 20
522.1384207746
 30
0.0
 10
405.1807181838
 20
522.1990402402
 30
0.0
 10
405.2189654203
 20
522.3161529652
 30
0.0
 10
405.2722179915
 20
522.479102828
 30
0.0
 10
405.3216533522
 20
522.6304585131
 30
0.0
 10
405.3675383039
 20
522.7709164601
 30
0.0
 10
405.410165126
 20
522.9012816991
 30
0.0
 10
405.449809291
 20
523.0223500547
 30
0.0
 10
405.4866841967
 20
523.1347494732
 30
0.0
 10
405.5209878939
 20
523.2390886506
 30
0.0
 10
405.5529189132
 20
523.3359556997
 30
0.0
 10
405.5825850685
 20
523.4258633915
 30
0.0
 10
405.6101022916
 20
523.5093666171
 30
0.0
 10
405.6355824997
 20
523.5869136061
 30
0.0
 10
405.6591480448
 20
523.6589238693
 30
0.0
 10
405.6809126495
 20
523.7258100484
 30
0.0
 10
405.7010660588
 20
523.7879111565
 30
0.0
 10
405.7198296166
 20
523.8455432736
 30
0.0
 10
405.7373597375
 20
523.8990056846
 30
0.0
 10
405.7537761051
 20
523.9485580449
 30
0.0
 10
405.7691867526
 20
523.9944775981
 30
0.0
 10
405.7836613474
 20
524.0370099491
 30
0.0
 10
405.797312684
 20
524.076394968
 30
0.0
 10
405.8099943774
 20
524.1129272782
 30
0.0
 10
405.8214728714
 20
524.1468913373
 30
0.0
 10
405.831682292
 20
524.1784477572
 30
0.0
 10
405.8406068161
 20
524.2078753505
 30
0.0
 10
405.8485220928
 20
524.2352631271
 30
0.0
 10
405.8561781792
 20
524.2605233475
 30
0.0
 10
405.8626707758
 20
524.2797631499
 30
0.0
 10
405.8681360465
 20
524.2941405963
 30
0.0
 10
405.8723748158
 20
524.3043446137
 30
0.0
 10
405.8768251211
 20
524.3140047181
 30
0.0
 10
405.8813962353
 20
524.3230417288
 30
0.0
 10
405.8857602631
 20
524.331703548
 30
0.0
 10
405.8910177579
 20
524.3429574633
 30
0.0
 10
405.8950961632
 20
524.3539629816
 30
0.0
 10
405.8978707948
 20
524.3646052275
 30
0.0
 10
405.8991348325
 20
524.3711028777
 30
0.0
 10
405.8998877685
 20
524.376100788
 30
0.0
 10
405.9003370229
 20
524.3797343835
 30
0.0
 10
405.9006919303
 20
524.3833172651
 30
0.0
 10
405.9009603531
 20
524.3869370679
 30
0.0
 10
405.9012020892
 20
524.3905001691
 30
0.0
 10
405.9014781015
 20
524.3939139373
 30
0.0
 10
405.901852893
 20
524.3972302085
 30
0.0
 10
405.902314166
 20
524.3999257884
 30
0.0
 10
405.9028397314
 20
524.4020348037
 30
0.0
 10
405.9033333053
 20
524.403567791
 30
0.0
 10
405.9039625829
 20
524.4050497405
 30
0.0
 10
405.9047818914
 20
524.4064594941
 30
0.0
 10
405.905866268
 20
524.4077390062
 30
0.0
 10
405.9070329165
 20
524.4085768671
 30
0.0
 10
405.9080813086
 20
524.4090349127
 30
0.0
 10
405.9089028568
 20
524.4092694825
 30
0.0
 10
405.9097427012
 20
524.4094009769
 30
0.0
 10
405.9103104234
 20
524.4094276738
 30
0.0
 10
405.9105951481
 20
524.4094277185
 30
0.0
  0
SPLINE
  5
31D
100
AcDbEntity
  8
03___PRT_ALL_CURVES
100
AcDbSpline
 62
2
  6
CONTINUOUS
 70
0
 71
3
 72
60
 73
56
 74
0
 42
0.0000001
 43
0.0000001
 44
0.0000000001
 40
0.0
 40
0.0
 40
0.0
 40
0.0
 40
0.0285714286
 40
0.0571428571
 40
0.0857142857
 40
0.1142857143
 40
0.1428571429
 40
0.1714285714
 40
0.2
 40
0.2285714286
 40
0.2571428571
 40
0.2857142857
 40
0.3142857143
 40
0.3428571429
 40
0.3714285714
 40
0.4
 40
0.4285714286
 40
0.4571428571
 40
0.4857142857
 40
0.5142857143
 40
0.5428571429
 40
0.5714285714
 40
0.6
 40
0.6285714286
 40
0.6571428571
 40
0.6857142857
 40
0.7142857143
 40
0.7428571429
 40
0.7714285714
 40
0.8
 40
0.8142857143
 40
0.8285714286
 40
0.8428571429
 40
0.8571428571
 40
0.8857142857
 40
0.9
 40
0.9142857143
 40
0.9285714286
 40
0.9428571429
 40
0.9571428571
 40
0.9642857143
 40
0.9678571429
 40
0.9714285714
 40
0.975
 40
0.9785714286
 40
0.9821428571
 40
0.9857142857
 40
0.9875
 40
0.9892857143
 40
0.9910714286
 40
0.9928571429
 40
0.9946428571
 40
0.9964285714
 40
0.9982142857
 40
1.0
 40
1.0
 40
1.0
 40
1.0
 10
405.5555780584
 20
524.8900185387
 30
0.0
 10
405.5381239888
 20
524.8343859883
 30
0.0
 10
405.5043607777
 20
524.7268797737
 30
0.0
 10
405.4573296466
 20
524.577208362
 30
0.0
 10
405.413648617
 20
524.4381027232
 30
0.0
 10
405.3730817594
 20
524.3089289712
 30
0.0
 10
405.335370598
 20
524.1889522723
 30
0.0
 10
405.3002760305
 20
524.0774589778
 30
0.0
 10
405.2676150814
 20
523.973892767
 30
0.0
 10
405.2372094754
 20
523.8776854443
 30
0.0
 10
405.2088906944
 20
523.7883212704
 30
0.0
 10
405.1825650423
 20
523.7053196273
 30
0.0
 10
405.1581349606
 20
523.6281751853
 30
0.0
 10
405.1355098017
 20
523.5564958082
 30
0.0
 10
405.1145793461
 20
523.4898875408
 30
0.0
 10
405.0952479856
 20
523.4279815062
 30
0.0
 10
405.07733406
 20
523.3704668063
 30
0.0
 10
405.0606371094
 20
523.3170540544
 30
0.0
 10
405.0450210589
 20
523.2674866749
 30
0.0
 10
405.0303728508
 20
523.2215091458
 30
0.0
 10
405.0165999367
 20
523.1788787161
 30
0.0
 10
405.0036419132
 20
523.1393735662
 30
0.0
 10
404.9913994505
 20
523.1027713063
 30
0.0
 10
404.9801025636
 20
523.068809557
 30
0.0
 10
404.9699523177
 20
523.03722288
 30
0.0
 10
404.9609858616
 20
523.0078382775
 30
0.0
 10
404.9532436787
 20
522.9803765825
 30
0.0
 10
404.9462011473
 20
522.9549107529
 30
0.0
 10
404.9391795819
 20
522.9314618496
 30
0.0
 10
404.9330260513
 20
522.9136558981
 30
0.0
 10
404.9277163276
 20
522.9003798003
 30
0.0
 10
404.9235289546
 20
522.8910442477
 30
0.0
 10
404.9191981781
 20
522.8822984911
 30
0.0
 10
404.9137103791
 20
522.8710949217
 30
0.0
 10
404.9091668359
 20
522.8601521486
 30
0.0
 10
404.9060474833
 20
522.8494827242
 30
0.0
 10
404.9043466688
 20
522.8415967926
 30
0.0
 10
404.9032533341
 20
522.8341687246
 30
0.0
 10
404.9026111355
 20
522.8268734153
 30
0.0
 10
404.902377607
 20
522.8209666192
 30
0.0
 10
404.9020940368
 20
522.8170480094
 30
0.0
 10
404.9018570225
 20
522.8148298861
 30
0.0
 10
404.9016255238
 20
522.8131733656
 30
0.0
 10
404.901322455
 20
522.811536402
 30
0.0
 10
404.9009273676
 20
522.8099437115
 30
0.0
 10
404.9004045709
 20
522.8083959668
 30
0.0
 10
404.899815446
 20
522.8071546947
 30
0.0
 10
404.8992084829
 20
522.8062174514
 30
0.0
 10
404.8986735253
 20
522.8055586825
 30
0.0
 10
404.8980515777
 20
522.8049667564
 30
0.0
 10
404.8973459567
 20
522.8044695363
 30
0.0
 10
404.8965749996
 20
522.8040899872
 30
0.0
 10
404.89576641
 20
522.8038354378
 30
0.0
 10
404.89494512
 20
522.8036961563
 30
0.0
 10
404.8943944826
 20
522.8036688267
 30
0.0
 10
404.8941197252
 20
522.8036687128
 30
0.0
  0
SPLINE
  5
31E
100
AcDbEntity
  8
03___PRT_ALL_CURVES
100
AcDbSpline
 62
2
  6
CONTINUOUS
 70
0
 71
3
 72
48
 73
44
 74
0
 42
0.0000001
 43
0.0000001
 44
0.0000000001
 40
0.0
 40
0.0
 40
0.0
 40
0.0
 40
0.0357142857
 40
0.0714285714
 40
0.1071428571
 40
0.1428571429
 40
0.1785714286
 40
0.2142857143
 40
0.25
 40
0.2857142857
 40
0.3214285714
 40
0.3571428571
 40
0.3928571429
 40
0.4285714286
 40
0.4642857143
 40
0.5
 40
0.5357142857
 40
0.5714285714
 40
0.5892857143
 40
0.6071428571
 40
0.625
 40
0.6428571429
 40
0.6607142857
 40
0.6785714286
 40
0.7142857143
 40
0.75
 40
0.7857142857
 40
0.8214285714
 40
0.8392857143
 40
0.8571428571
 40
0.875
 40
0.8928571429
 40
0.9107142857
 40
0.9285714286
 40
0.9464285714
 40
0.9553571429
 40
0.9642857143
 40
0.9732142857
 40
0.9821428571
 40
0.9866071429
 40
0.9910714286
 40
0.9955357143
 40
1.0
 40
1.0
 40
1.0
 40
1.0
 10
407.7652623026
 20
523.2077784132
 30
0.0
 10
407.7767385851
 20
523.2402648157
 30
0.0
 10
407.7989905866
 20
523.3030109033
 30
0.0
 10
407.8299040197
 20
523.3903605651
 30
0.0
 10
407.8584058335
 20
523.4715795346
 30
0.0
 10
407.8848487977
 20
523.5469497265
 30
0.0
 10
407.9095097134
 20
523.6168685787
 30
0.0
 10
407.9326192323
 20
523.6817260967
 30
0.0
 10
407.9543218069
 20
523.7418430033
 30
0.0
 10
407.9747968049
 20
523.7975222149
 30
0.0
 10
407.9939214351
 20
523.8491493019
 30
0.0
 10
408.0113644004
 20
523.8971325978
 30
0.0
 10
408.0270242899
 20
523.9417538103
 30
0.0
 10
408.0408975677
 20
523.9833356655
 30
0.0
 10
408.0531491434
 20
524.0221116822
 30
0.0
 10
408.0646209228
 20
524.0579829017
 30
0.0
 10
408.0758170971
 20
524.0910012
 30
0.0
 10
408.0852200291
 20
524.1161751557
 30
0.0
 10
408.0929228266
 20
524.1349506085
 30
0.0
 10
408.0988011088
 20
524.1483232892
 30
0.0
 10
408.104818957
 20
524.1610235669
 30
0.0
 10
408.1109532735
 20
524.172985488
 30
0.0
 10
408.1170089866
 20
524.1844378441
 30
0.0
 10
408.1246995338
 20
524.1991434659
 30
0.0
 10
408.1331750785
 20
524.2166864621
 30
0.0
 10
408.1409346499
 20
524.2367466018
 30
0.0
 10
408.1463756278
 20
524.2558087065
 30
0.0
 10
408.1492919724
 20
524.2707537934
 30
0.0
 10
408.1508705162
 20
524.2819322236
 30
0.0
 10
408.1517406475
 20
524.290048144
 30
0.0
 10
408.1523771833
 20
524.2978786929
 30
0.0
 10
408.1530179885
 20
524.3053935212
 30
0.0
 10
408.1538337495
 20
524.3125863068
 30
0.0
 10
408.1549791503
 20
524.3193523976
 30
0.0
 10
408.1565323647
 20
524.3249579636
 30
0.0
 10
408.1582955614
 20
524.3289443082
 30
0.0
 10
408.1598944665
 20
524.3315674759
 30
0.0
 10
408.1618586375
 20
524.3338222507
 30
0.0
 10
408.1639208732
 20
524.335336434
 30
0.0
 10
408.1658445758
 20
524.3362295354
 30
0.0
 10
408.1674212437
 20
524.3367191021
 30
0.0
 10
408.1690974541
 20
524.3370151388
 30
0.0
 10
408.170330442
 20
524.3370807133
 30
0.0
 10
408.170922296
 20
524.3370807133
 30
0.0
  0
SPLINE
  5
31F
100
AcDbEntity
  8
03___PRT_ALL_CURVES
100
AcDbSpline
 62
2
  6
CONTINUOUS
 70
0
 71
3
 72
27
 73
23
 74
0
 42
0.0000001
 43
0.0000001
 44
0.0000000001
 40
0.0
 40
0.0
 40
0.0
 40
0.0
 40
0.0357142857
 40
0.0714285714
 40
0.1071428571
 40
0.1428571429
 40
0.1785714286
 40
0.2142857143
 40
0.2857142857
 40
0.3571428571
 40
0.4285714286
 40
0.5
 40
0.5714285714
 40
0.6428571429
 40
0.7142857143
 40
0.7857142857
 40
0.8214285714
 40
0.8571428571
 40
0.8928571429
 40
0.9285714286
 40
0.9642857143
 40
1.0
 40
1.0
 40
1.0
 40
1.0
 10
410.6798130831
 20
522.1384207746
 30
0.0
 10
410.7559975095
 20
522.1384207746
 30
0.0
 10
410.9019701141
 20
522.1426461708
 30
0.0
 10
411.1050949967
 20
522.1634122104
 30
0.0
 10
411.2876646405
 20
522.1978928072
 30
0.0
 10
411.4551769663
 20
522.2456272722
 30
0.0
 10
411.6094464973
 20
522.3077369134
 30
0.0
 10
411.794147178
 20
522.4094645903
 30
0.0
 10
411.9853793039
 20
522.5735304225
 30
0.0
 10
412.150205406
 20
522.8304517543
 30
0.0
 10
412.2480048156
 20
523.1457709978
 30
0.0
 10
412.2777432411
 20
523.5147184272
 30
0.0
 10
412.2480013122
 20
523.8831731918
 30
0.0
 10
412.1502354564
 20
524.1979586273
 30
0.0
 10
411.9857179103
 20
524.4544115705
 30
0.0
 10
411.7945340072
 20
524.6185695606
 30
0.0
 10
411.6098638644
 20
524.7203731183
 30
0.0
 10
411.4555829876
 20
524.7825649762
 30
0.0
 10
411.2879944626
 20
524.830390968
 30
0.0
 10
411.1053186086
 20
524.8649517743
 30
0.0
 10
410.9020904547
 20
524.8857759705
 30
0.0
 10
410.756039267
 20
524.8900185387
 30
0.0
 10
410.6798130831
 20
524.8900185387
 30
0.0
  0
SPLINE
  5
320
100
AcDbEntity
  8
03___PRT_ALL_CURVES
100
AcDbSpline
 62
2
  6
CONTINUOUS
 70
0
 71
3
 72
27
 73
23
 74
0
 42
0.0000001
 43
0.0000001
 44
0.0000000001
 40
0.0
 40
0.0
 40
0.0
 40
0.0
 40
0.0416666667
 40
0.0833333333
 40
0.125
 40
0.1666666667
 40
0.2083333333
 40
0.25
 40
0.2916666667
 40
0.3333333333
 40
0.4166666667
 40
0.5
 40
0.5833333333
 40
0.6666666667
 40
0.7083333333
 40
0.75
 40
0.7916666667
 40
0.8333333333
 40
0.875
 40
0.9166666667
 40
0.9583333333
 40
1.0
 40
1.0
 40
1.0
 40
1.0
 10
410.7860942789
 20
524.4573145457
 30
0.0
 10
410.8270904634
 20
524.4573145457
 30
0.0
 10
410.9067956219
 20
524.4519346185
 30
0.0
 10
411.024513813
 20
524.4288561835
 30
0.0
 10
411.1391635684
 20
524.3904531246
 30
0.0
 10
411.2473269265
 20
524.3372269314
 30
0.0
 10
411.3461383484
 20
524.2709653145
 30
0.0
 10
411.4353094933
 20
524.191735557
 30
0.0
 10
411.5146366961
 20
524.0980367054
 30
0.0
 10
411.6027023227
 20
523.9588243316
 30
0.0
 10
411.6741390553
 20
523.7672445577
 30
0.0
 10
411.7011118377
 20
523.514978424
 30
0.0
 10
411.6743395462
 20
523.2628069824
 30
0.0
 10
411.6033235109
 20
523.0713645352
 30
0.0
 10
411.5155191374
 20
522.9322485923
 30
0.0
 10
411.4363567754
 20
522.8386126686
 30
0.0
 10
411.3472903461
 20
522.7594516771
 30
0.0
 10
411.2484984463
 20
522.6932538104
 30
0.0
 10
411.1402624233
 20
522.6400643833
 30
0.0
 10
411.025435274
 20
522.6016706915
 30
0.0
 10
410.9073474993
 20
522.5785771512
 30
0.0
 10
410.8272905982
 20
522.5731918249
 30
0.0
 10
410.7860942789
 20
522.5731918249
 30
0.0
  0
SPLINE
  5
321
100
AcDbEntity
  8
03___PRT_ALL_CURVES
100
AcDbSpline
 62
2
  6
CONTINUOUS
 70
0
 71
3
 72
64
 73
60
 74
0
 42
0.0000001
 43
0.0000001
 44
0.0000000001
 40
0.0
 40
0.0
 40
0.0
 40
0.0
 40
0.0294117647
 40
0.0588235294
 40
0.0882352941
 40
0.1176470588
 40
0.1470588235
 40
0.1764705882
 40
0.2058823529
 40
0.2352941176
 40
0.2647058824
 40
0.2941176471
 40
0.3235294118
 40
0.3529411765
 40
0.3823529412
 40
0.4117647059
 40
0.4411764706
 40
0.4705882353
 40
0.5
 40
0.5294117647
 40
0.5588235294
 40
0.5882352941
 40
0.6176470588
 40
0.6470588235
 40
0.6764705882
 40
0.7058823529
 40
0.7352941176
 40
0.7647058824
 40
0.7941176471
 40
0.8088235294
 40
0.8235294118
 40
0.8382352941
 40
0.8529411765
 40
0.8676470588
 40
0.8823529412
 40
0.8970588235
 40
0.9117647059
 40
0.9264705882
 40
0.9411764706
 40
0.9485294118
 40
0.9558823529
 40
0.9632352941
 40
0.9669117647
 40
0.9705882353
 40
0.9742647059
 40
0.9779411765
 40
0.9816176471
 40
0.9834558824
 40
0.9852941176
 40
0.9871323529
 40
0.9889705882
 40
0.9908088235
 40
0.9926470588
 40
0.9944852941
 40
0.9963235294
 40
0.9972426471
 40
0.9981617647
 40
0.9990808824
 40
1.0
 40
1.0
 40
1.0
 40
1.0
 10
417.661299084
 20
522.1384207746
 30
0.0
 10
417.661299084
 20
522.1945548032
 30
0.0
 10
417.6613343653
 20
522.3029669607
 30
0.0
 10
417.6614091721
 20
522.4536647419
 30
0.0
 10
417.6614500317
 20
522.5935003589
 30
0.0
 10
417.6614966327
 20
522.7231510564
 30
0.0
 10
417.6615749928
 20
522.8434041688
 30
0.0
 10
417.6616996883
 20
522.9549951691
 30
0.0
 10
417.6618779562
 20
523.058497902
 30
0.0
 10
417.6621100806
 20
523.1545200339
 30
0.0
 10
417.6623985705
 20
523.2435730256
 30
0.0
 10
417.6626734104
 20
523.3261713843
 30
0.0
 10
417.6628825499
 20
523.4027986861
 30
0.0
 10
417.6629974366
 20
523.4738563246
 30
0.0
 10
417.6630058613
 20
523.5397468158
 30
0.0
 10
417.6629000886
 20
523.600856883
 30
0.0
 10
417.6628019146
 20
523.6575229702
 30
0.0
 10
417.6627956168
 20
523.7100738257
 30
0.0
 10
417.6629288513
 20
523.7587876548
 30
0.0
 10
417.6632287937
 20
523.8039505135
 30
0.0
 10
417.6636975044
 20
523.8457974862
 30
0.0
 10
417.6643572297
 20
523.8845842039
 30
0.0
 10
417.6651002626
 20
523.9204997062
 30
0.0
 10
417.6655319243
 20
523.9537543263
 30
0.0
 10
417.6655000436
 20
523.9844923183
 30
0.0
 10
417.6648966523
 20
524.0129766363
 30
0.0
 10
417.6639244937
 20
524.0393017571
 30
0.0
 10
417.6633787433
 20
524.0636850762
 30
0.0
 10
417.6636446757
 20
524.0823973031
 30
0.0
 10
417.664543516
 20
524.096675187
 30
0.0
 10
417.6656057103
 20
524.1068358369
 30
0.0
 10
417.6671539235
 20
524.1163984551
 30
0.0
 10
417.6687453772
 20
524.1254931836
 30
0.0
 10
417.6699353279
 20
524.1342847677
 30
0.0
 10
417.6704957021
 20
524.142877594
 30
0.0
 10
417.6703850452
 20
524.1510797107
 30
0.0
 10
417.6696862841
 20
524.1590180664
 30
0.0
 10
417.6685544038
 20
524.166414404
 30
0.0
 10
417.667331172
 20
524.172327233
 30
0.0
 10
417.6662188072
 20
524.1769211816
 30
0.0
 10
417.6654225411
 20
524.1801704328
 30
0.0
 10
417.6648075176
 20
524.1828419352
 30
0.0
 10
417.6643715309
 20
524.1849879049
 30
0.0
 10
417.6640827614
 20
524.1866157206
 30
0.0
 10
417.6638527573
 20
524.1882422481
 30
0.0
 10
417.6637064143
 20
524.1898376857
 30
0.0
 10
417.6636769298
 20
524.1911487703
 30
0.0
 10
417.6637357373
 20
524.192193228
 30
0.0
 10
417.6638333528
 20
524.1929774293
 30
0.0
 10
417.6640026714
 20
524.1937634498
 30
0.0
 10
417.6642718147
 20
524.1945446675
 30
0.0
 10
417.6646781725
 20
524.1952934238
 30
0.0
 10
417.6652495991
 20
524.195945148
 30
0.0
 10
417.66595665
 20
524.196421403
 30
0.0
 10
417.6665864487
 20
524.196657501
 30
0.0
 10
417.6670850728
 20
524.1967725559
 30
0.0
 10
417.6674553507
 20
524.1968284072
 30
0.0
 10
417.6678223892
 20
524.1968591183
 30
0.0
 10
417.6680667352
 20
524.1968652462
 30
0.0
 10
417.668189275
 20
524.1968653271
 30
0.0
  0
SPLINE
  5
322
100
AcDbEntity
  8
03___PRT_ALL_CURVES
100
AcDbSpline
 62
2
  6
CONTINUOUS
 70
0
 71
3
 72
64
 73
60
 74
0
 42
0.0000001
 43
0.0000001
 44
0.0000000001
 40
0.0
 40
0.0
 40
0.0
 40
0.0
 40
0.0294117647
 40
0.0588235294
 40
0.0882352941
 40
0.1176470588
 40
0.1470588235
 40
0.1764705882
 40
0.2058823529
 40
0.2352941176
 40
0.2647058824
 40
0.2941176471
 40
0.3235294118
 40
0.3529411765
 40
0.3823529412
 40
0.4117647059
 40
0.4411764706
 40
0.4705882353
 40
0.5
 40
0.5294117647
 40
0.5588235294
 40
0.5882352941
 40
0.6176470588
 40
0.6470588235
 40
0.6764705882
 40
0.7058823529
 40
0.7352941176
 40
0.7647058824
 40
0.7941176471
 40
0.8088235294
 40
0.8235294118
 40
0.8382352941
 40
0.8529411765
 40
0.8676470588
 40
0.8823529412
 40
0.8970588235
 40
0.9117647059
 40
0.9264705882
 40
0.9411764706
 40
0.9485294118
 40
0.9558823529
 40
0.9632352941
 40
0.9669117647
 40
0.9705882353
 40
0.9742647059
 40
0.9779411765
 40
0.9816176471
 40
0.9834558824
 40
0.9852941176
 40
0.9871323529
 40
0.9889705882
 40
0.9908088235
 40
0.9926470588
 40
0.9944852941
 40
0.9963235294
 40
0.9972426471
 40
0.9981617647
 40
0.9990808824
 40
1.0
 40
1.0
 40
1.0
 40
1.0
 10
418.8686327968
 20
524.8900185387
 30
0.0
 10
418.8686327968
 20
524.8340449895
 30
0.0
 10
418.8685884195
 20
524.7259396161
 30
0.0
 10
418.8684834419
 20
524.5756633269
 30
0.0
 10
418.8684040007
 20
524.4361989914
 30
0.0
 10
418.8683129897
 20
524.3068639053
 30
0.0
 10
418.868185954
 20
524.1868528614
 30
0.0
 10
418.8680097112
 20
524.0754766563
 30
0.0
 10
418.8677780917
 20
523.972148207
 30
0.0
 10
418.8674917033
 20
523.8762627152
 30
0.0
 10
418.8671485512
 20
523.787323148
 30
0.0
 10
418.8668140995
 20
523.7047783722
 30
0.0
 10
418.8665390647
 20
523.6282030204
 30
0.0
 10
418.8663513782
 20
523.5571628534
 30
0.0
 10
418.8662631967
 20
523.4912675404
 30
0.0
 10
418.8662843838
 20
523.4301402212
 30
0.0
 10
418.8663004091
 20
523.373440032
 30
0.0
 10
418.8662288485
 20
523.3208545923
 30
0.0
 10
418.8660235859
 20
523.2720744447
 30
0.0
 10
418.8656586457
 20
523.2268600997
 30
0.0
 10
418.8651309115
 20
523.1849405392
 30
0.0
 10
418.8644228286
 20
523.1461133575
 30
0.0
 10
418.8636239018
 20
523.1101183311
 30
0.0
 10
418.863112251
 20
523.076741119
 30
0.0
 10
418.8630429106
 20
523.0458377065
 30
0.0
 10
418.8635167457
 20
523.017304157
 30
0.0
 10
418.8643616574
 20
522.9908160398
 30
0.0
 10
418.8648017741
 20
522.9663420557
 30
0.0
 10
418.8644760046
 20
522.9475518182
 30
0.0
 10
418.8635557823
 20
522.9332481953
 30
0.0
 10
418.8624951035
 20
522.923064895
 30
0.0
 10
418.8609515625
 20
522.9134046543
 30
0.0
 10
418.8593586282
 20
522.9042206346
 30
0.0
 10
418.8581635587
 20
522.8954127311
 30
0.0
 10
418.8575700746
 20
522.8868167961
 30
0.0
 10
418.8576174437
 20
522.8786388545
 30
0.0
 10
418.8582216064
 20
522.8707335344
 30
0.0
 10
418.859244926
 20
522.8633356802
 30
0.0
 10
418.8603687182
 20
522.8574180211
 30
0.0
 10
418.8613985601
 20
522.8528110178
 30
0.0
 10
418.862133574
 20
522.8495479778
 30
0.0
 10
418.8626942252
 20
522.8468686444
 30
0.0
 10
418.8630831953
 20
522.8447213379
 30
0.0
 10
418.8633344626
 20
522.8430957974
 30
0.0
 10
418.8635252718
 20
522.841473987
 30
0.0
 10
418.86363146
 20
522.8398844478
 30
0.0
 10
418.8636261795
 20
522.8385794956
 30
0.0
 10
418.8635382806
 20
522.8375415305
 30
0.0
 10
418.8634180921
 20
522.8367636892
 30
0.0
 10
418.8632256446
 20
522.8359866502
 30
0.0
 10
418.8629339959
 20
522.8352186243
 30
0.0
 10
418.8625091451
 20
522.8344881184
 30
0.0
 10
418.8619287079
 20
522.8338560968
 30
0.0
 10
418.8612223695
 20
522.833392586
 30
0.0
 10
418.8605942436
 20
522.8331595875
 30
0.0
 10
418.8600951633
 20
522.8330450535
 30
0.0
 10
418.8597238006
 20
522.8329891437
 30
0.0
 10
418.8593551608
 20
522.8329582837
 30
0.0
 10
418.8591096321
 20
522.8329520982
 30
0.0
 10
418.8589865294
 20
522.8329520244
 30
0.0
  0
SPLINE
  5
323
100
AcDbEntity
  8
03___PRT_ALL_CURVES
100
AcDbSpline
 62
2
  6
CONTINUOUS
 70
0
 71
3
 72
16
 73
12
 74
0
 42
0.0000001
 43
0.0000001
 44
0.0000000001
 40
0.0
 40
0.0
 40
0.0
 40
0.0
 40
0.1428571429
 40
0.2857142857
 40
0.4285714286
 40
0.5714285714
 40
0.6428571429
 40
0.7142857143
 40
0.7857142857
 40
0.8571428571
 40
1.0
 40
1.0
 40
1.0
 40
1.0
 10
422.0653368976
 20
522.1384207746
 30
0.0
 10
422.1593866847
 20
522.1384207746
 30
0.0
 10
422.3334644025
 20
522.1509361494
 30
0.0
 10
422.5516931418
 20
522.2067406745
 30
0.0
 10
422.7295518054
 20
522.297116764
 30
0.0
 10
422.8483358668
 20
522.4005126859
 30
0.0
 10
422.9205721255
 20
522.4941630893
 30
0.0
 10
422.9635629245
 20
522.5710574075
 30
0.0
 10
422.9959584925
 20
522.6542609929
 30
0.0
 10
423.0263408856
 20
522.7728209026
 30
0.0
 10
423.0354757862
 20
522.8687759226
 30
0.0
 10
423.0354757862
 20
522.936304889
 30
0.0
  0
SPLINE
  5
324
100
AcDbEntity
  8
03___PRT_ALL_CURVES
100
AcDbSpline
 62
2
  6
CONTINUOUS
 70
0
 71
3
 72
17
 73
13
 74
0
 42
0.0000001
 43
0.0000001
 44
0.0000000001
 40
0.0
 40
0.0
 40
0.0
 40
0.0
 40
0.1
 40
0.2
 40
0.25
 40
0.3
 40
0.4
 40
0.5
 40
0.6
 40
0.7
 40
0.8
 40
1.0
 40
1.0
 40
1.0
 40
1.0
 10
423.0354757862
 20
522.936304889
 30
0.0
 10
423.0354757862
 20
522.9653677351
 30
0.0
 10
423.0309338433
 20
523.0219398731
 30
0.0
 10
423.0147218417
 20
523.0932309533
 30
0.0
 10
422.9955532241
 20
523.1492785327
 30
0.0
 10
422.9721795428
 20
523.2046809594
 30
0.0
 10
422.9353405951
 20
523.2716210867
 30
0.0
 10
422.8771699716
 20
523.3480952233
 30
0.0
 10
422.8051313795
 20
523.4154297821
 30
0.0
 10
422.7211360346
 20
523.4718021523
 30
0.0
 10
422.5934398617
 20
523.5324973588
 30
0.0
 10
422.4850847458
 20
523.560095689
 30
0.0
 10
422.4057123315
 20
523.5691689296
 30
0.0
  0
SPLINE
  5
325
100
AcDbEntity
  8
03___PRT_ALL_CURVES
100
AcDbSpline
 62
2
  6
CONTINUOUS
 70
0
 71
3
 72
15
 73
11
 74
0
 42
0.0000001
 43
0.0000001
 44
0.0000000001
 40
0.0
 40
0.0
 40
0.0
 40
0.0
 40
0.2
 40
0.3
 40
0.4
 40
0.5
 40
0.6
 40
0.7
 40
0.8
 40
1.0
 40
1.0
 40
1.0
 40
1.0
 10
422.4057123315
 20
523.5691689296
 30
0.0
 10
422.4752575269
 20
523.5817399956
 30
0.0
 10
422.5699345905
 20
523.6119652587
 30
0.0
 10
422.680151603
 20
523.6714493392
 30
0.0
 10
422.7526646052
 20
523.7248819524
 30
0.0
 10
422.8152599277
 20
523.7880696935
 30
0.0
 10
422.8656660415
 20
523.8597212228
 30
0.0
 10
422.9040639389
 20
523.9354191755
 30
0.0
 10
422.9414298494
 20
524.042558331
 30
0.0
 10
422.9538270232
 20
524.1270033003
 30
0.0
 10
422.9538270232
 20
524.1858410215
 30
0.0
  0
SPLINE
  5
326
100
AcDbEntity
  8
03___PRT_ALL_CURVES
100
AcDbSpline
 62
2
  6
CONTINUOUS
 70
0
 71
3
 72
16
 73
12
 74
0
 42
0.0000001
 43
0.0000001
 44
0.0000000001
 40
0.0
 40
0.0
 40
0.0
 40
0.0
 40
0.1428571429
 40
0.2142857143
 40
0.2857142857
 40
0.3571428571
 40
0.4285714286
 40
0.5714285714
 40
0.7142857143
 40
0.8571428571
 40
1.0
 40
1.0
 40
1.0
 40
1.0
 10
422.9538270232
 20
524.1858410215
 30
0.0
 10
422.9538270232
 20
524.2467279855
 30
0.0
 10
422.9452884567
 20
524.3331150965
 30
0.0
 10
422.9166412355
 20
524.4400008337
 30
0.0
 10
422.8860209447
 20
524.5147644726
 30
0.0
 10
422.8452479642
 20
524.5833620662
 30
0.0
 10
422.7773083238
 20
524.6664219236
 30
0.0
 10
422.666796582
 20
524.7569754608
 30
0.0
 10
422.5038813025
 20
524.8339442484
 30
0.0
 10
422.3061949736
 20
524.8802202787
 30
0.0
 10
422.1496615162
 20
524.8900185387
 30
0.0
 10
422.0653368976
 20
524.8900185387
 30
0.0
  0
SPLINE
  5
327
100
AcDbEntity
  8
03___PRT_ALL_CURVES
100
AcDbSpline
 62
2
  6
CONTINUOUS
 70
0
 71
3
 72
18
 73
14
 74
0
 42
0.0000001
 43
0.0000001
 44
0.0000000001
 40
0.0
 40
0.0
 40
0.0
 40
0.0
 40
0.1428571429
 40
0.2857142857
 40
0.4285714286
 40
0.5
 40
0.5714285714
 40
0.6428571429
 40
0.7142857143
 40
0.7857142857
 40
0.8571428571
 40
0.9285714286
 40
1.0
 40
1.0
 40
1.0
 40
1.0
 10
421.8668993976
 20
524.4573145457
 30
0.0
 10
421.912342407
 20
524.4573145457
 30
0.0
 10
421.9979535425
 20
524.457337636
 30
0.0
 10
422.1095947648
 20
524.4461870023
 30
0.0
 10
422.1914185638
 20
524.4233084122
 30
0.0
 10
422.2507540375
 20
524.3947818811
 30
0.0
 10
422.2911926103
 20
524.3684451812
 30
0.0
 10
422.326217075
 20
524.3375443308
 30
0.0
 10
422.3551237624
 20
524.3016730308
 30
0.0
 10
422.3766579777
 20
524.2598332584
 30
0.0
 10
422.3912134679
 20
524.2136796029
 30
0.0
 10
422.399471211
 20
524.1643261258
 30
0.0
 10
422.4012337074
 20
524.1305978199
 30
0.0
 10
422.4012337074
 20
524.1128049972
 30
0.0
  0
SPLINE
  5
328
100
AcDbEntity
  8
03___PRT_ALL_CURVES
100
AcDbSpline
 62
2
  6
CONTINUOUS
 70
0
 71
3
 72
18
 73
14
 74
0
 42
0.0000001
 43
0.0000001
 44
0.0000000001
 40
0.0
 40
0.0
 40
0.0
 40
0.0
 40
0.0833333333
 40
0.1666666667
 40
0.25
 40
0.3333333333
 40
0.4166666667
 40
0.5
 40
0.5833333333
 40
0.6666666667
 40
0.75
 40
0.8333333333
 40
1.0
 40
1.0
 40
1.0
 40
1.0
 10
422.4012337074
 20
524.1128049972
 30
0.0
 10
422.4012337074
 20
524.0982778087
 30
0.0
 10
422.3984950151
 20
524.0696697108
 30
0.0
 10
422.3865917067
 20
524.0258538912
 30
0.0
 10
422.3667187357
 20
523.981738471
 30
0.0
 10
422.3392384116
 20
523.9387448256
 30
0.0
 10
422.3044337252
 20
523.8980371917
 30
0.0
 10
422.2625314763
 20
523.8609020319
 30
0.0
 10
422.2127722691
 20
523.8289521062
 30
0.0
 10
422.1562211777
 20
523.8052935946
 30
0.0
 10
422.0939669686
 20
523.7896460443
 30
0.0
 10
422.0036746106
 20
523.7781690418
 30
0.0
 10
421.9316870308
 20
523.7779417161
 30
0.0
 10
421.8806797796
 20
523.7779417161
 30
0.0
  0
SPLINE
  5
329
100
AcDbEntity
  8
03___PRT_ALL_CURVES
100
AcDbSpline
 62
2
  6
CONTINUOUS
 70
0
 71
3
 72
18
 73
14
 74
0
 42
0.0000001
 43
0.0000001
 44
0.0000000001
 40
0.0
 40
0.0
 40
0.0
 40
0.0
 40
0.125
 40
0.25
 40
0.3125
 40
0.375
 40
0.4375
 40
0.5
 40
0.5625
 40
0.625
 40
0.75
 40
0.875
 40
1.0
 40
1.0
 40
1.0
 40
1.0
 10
421.9165087726
 20
523.3686643724
 30
0.0
 10
421.9542667572
 20
523.3686643724
 30
0.0
 10
422.0277086997
 20
523.3685377327
 30
0.0
 10
422.112974179
 20
523.3619232271
 30
0.0
 10
422.1798570522
 20
523.3491551762
 30
0.0
 10
422.2276744175
 20
523.335041861
 30
0.0
 10
422.2730944488
 20
523.3154676458
 30
0.0
 10
422.3147806705
 20
523.2898240906
 30
0.0
 10
422.3518294924
 20
523.2585669037
 30
0.0
 10
422.3956473164
 20
523.2107690457
 30
0.0
 10
422.4395854701
 20
523.1419530805
 30
0.0
 10
422.4738823015
 20
523.050365135
 30
0.0
 10
422.4828824704
 20
522.9864649041
 30
0.0
 10
422.4828824704
 20
522.9535303664
 30
0.0
  0
SPLINE
  5
32A
100
AcDbEntity
  8
03___PRT_ALL_CURVES
100
AcDbSpline
 62
2
  6
CONTINUOUS
 70
0
 71
3
 72
18
 73
14
 74
0
 42
0.0000001
 43
0.0000001
 44
0.0000000001
 40
0.0
 40
0.0
 40
0.0
 40
0.0
 40
0.0555555556
 40
0.1111111111
 40
0.1666666667
 40
0.2222222222
 40
0.3333333333
 40
0.4444444444
 40
0.5555555556
 40
0.6666666667
 40
0.7777777778
 40
0.8888888889
 40
1.0
 40
1.0
 40
1.0
 40
1.0
 10
422.4828824704
 20
522.9535303664
 30
0.0
 10
422.4828824704
 20
522.9397665861
 30
0.0
 10
422.4807707991
 20
522.9127906185
 30
0.0
 10
422.4721585935
 20
522.8731020582
 30
0.0
 10
422.458570745
 20
522.834288749
 30
0.0
 10
422.4346804882
 20
522.7847582769
 30
0.0
 10
422.3961132416
 20
522.7286947685
 30
0.0
 10
422.3379557532
 20
522.6710323525
 30
0.0
 10
422.2706881867
 20
522.6267880083
 30
0.0
 10
422.1929824533
 20
522.5970685584
 30
0.0
 10
422.1091456696
 20
522.5805376157
 30
0.0
 10
422.0184007306
 20
522.5735813489
 30
0.0
 10
421.9514509791
 20
522.5731918249
 30
0.0
 10
421.9165087726
 20
522.5731918249
 30
0.0
  0
SPLINE
  5
32B
100
AcDbEntity
  8
03___PRT_ALL_CURVES
100
AcDbSpline
 62
2
  6
CONTINUOUS
 70
0
 71
3
 72
13
 73
9
 74
0
 42
0.0000001
 43
0.0000001
 44
0.0000000001
 40
0.0
 40
0.0
 40
0.0
 40
0.0
 40
0.1666666667
 40
0.3333333333
 40
0.5
 40
0.6666666667
 40
0.8333333333
 40
1.0
 40
1.0
 40
1.0
 40
1.0
 10
424.194750417
 20
523.2818479662
 30
0.0
 10
424.2248752128
 20
523.2818479662
 30
0.0
 10
424.2838729611
 20
523.2786563879
 30
0.0
 10
424.3721320871
 20
523.2595509538
 30
0.0
 10
424.4497937311
 20
523.2198794273
 30
0.0
 10
424.5063700549
 20
523.1550996632
 30
0.0
 10
424.5477212321
 20
523.0778380652
 30
0.0
 10
424.5692287542
 20
523.0249800649
 30
0.0
 10
424.5799120923
 20
522.9983166077
 30
0.0
  0
SPLINE
  5
32C
100
AcDbEntity
  8
03___PRT_ALL_CURVES
100
AcDbSpline
 62
2
  6
CONTINUOUS
 70
0
 71
3
 72
14
 73
10
 74
0
 42
0.0000001
 43
0.0000001
 44
0.0000000001
 40
0.0
 40
0.0
 40
0.0
 40
0.0
 40
0.25
 40
0.375
 40
0.5
 40
0.625
 40
0.75
 40
0.875
 40
1.0
 40
1.0
 40
1.0
 40
1.0
 10
425.082207014
 20
523.213290566
 30
0.0
 10
425.0643744887
 20
523.253839684
 30
0.0
 10
425.0352318274
 20
523.3089975022
 30
0.0
 10
424.9908510949
 20
523.3730878417
 30
0.0
 10
424.9555399013
 20
523.4147301923
 30
0.0
 10
424.9171966683
 20
523.4504517615
 30
0.0
 10
424.876877021
 20
523.4782769709
 30
0.0
 10
424.8354372563
 20
523.4974449587
 30
0.0
 10
424.8070185204
 20
523.5044481867
 30
0.0
 10
424.7924744837
 20
523.5064681918
 30
0.0
  0
SPLINE
  5
32D
100
AcDbEntity
  8
03___PRT_ALL_CURVES
100
AcDbSpline
 62
2
  6
CONTINUOUS
 70
0
 71
3
 72
19
 73
15
 74
0
 42
0.0000001
 43
0.0000001
 44
0.0000000001
 40
0.0
 40
0.0
 40
0.0
 40
0.0
 40
0.1
 40
0.2
 40
0.25
 40
0.3
 40
0.4
 40
0.5
 40
0.6
 40
0.7
 40
0.75
 40
0.8
 40
0.9
 40
1.0
 40
1.0
 40
1.0
 40
1.0
 10
424.7924744837
 20
523.5064681918
 30
0.0
 10
424.8252796952
 20
523.5108767973
 30
0.0
 10
424.8877239424
 20
523.5239655091
 30
0.0
 10
424.9628404257
 20
523.550429532
 30
0.0
 10
425.0197287153
 20
523.5771744648
 30
0.0
 10
425.0745746604
 20
523.60770077
 30
0.0
 10
425.1380004651
 20
523.6523047395
 30
0.0
 10
425.205860621
 20
523.7174212423
 30
0.0
 10
425.2614157498
 20
523.7928583542
 30
0.0
 10
425.2968997101
 20
523.8606775423
 30
0.0
 10
425.3195608189
 20
523.9179156342
 30
0.0
 10
425.3381735314
 20
523.9763896959
 30
0.0
 10
425.3540077656
 20
524.0519429897
 30
0.0
 10
425.3585036719
 20
524.1131234701
 30
0.0
 10
425.3585036719
 20
524.1448443852
 30
0.0
  0
SPLINE
  5
32E
100
AcDbEntity
  8
03___PRT_ALL_CURVES
100
AcDbSpline
 62
2
  6
CONTINUOUS
 70
0
 71
3
 72
21
 73
17
 74
0
 42
0.0000001
 43
0.0000001
 44
0.0000000001
 40
0.0
 40
0.0
 40
0.0
 40
0.0
 40
0.125
 40
0.1875
 40
0.25
 40
0.3125
 40
0.375
 40
0.4375
 40
0.5
 40
0.5625
 40
0.625
 40
0.6875
 40
0.75
 40
0.8125
 40
0.875
 40
1.0
 40
1.0
 40
1.0
 40
1.0
 10
425.3585036719
 20
524.1448443852
 30
0.0
 10
425.3585036719
 20
524.2256347374
 30
0.0
 10
425.3459028899
 20
524.3360702146
 30
0.0
 10
425.3069621242
 20
524.4627614489
 30
0.0
 10
425.2667077193
 20
524.5467141906
 30
0.0
 10
425.2143256669
 20
524.6195032629
 30
0.0
 10
425.1503953603
 20
524.6815945379
 30
0.0
 10
425.0775192582
 20
524.7343564903
 30
0.0
 10
424.9956852979
 20
524.7792212623
 30
0.0
 10
424.9037694456
 20
524.8165987727
 30
0.0
 10
424.8040903797
 20
524.8449716645
 30
0.0
 10
424.6942867276
 20
524.8652351235
 30
0.0
 10
424.5774610551
 20
524.8777022522
 30
0.0
 10
424.4559597281
 20
524.8848977128
 30
0.0
 10
424.2872377456
 20
524.8901130767
 30
0.0
 10
424.1548164697
 20
524.8900185387
 30
0.0
 10
424.063492279
 20
524.8900185387
 30
0.0
  0
SPLINE
  5
32F
100
AcDbEntity
  8
03___PRT_ALL_CURVES
100
AcDbSpline
 62
2
  6
CONTINUOUS
 70
0
 71
3
 72
33
 73
29
 74
0
 42
0.0000001
 43
0.0000001
 44
0.0000000001
 40
0.0
 40
0.0
 40
0.0
 40
0.0
 40
0.0625
 40
0.125
 40
0.1875
 40
0.25
 40
0.3125
 40
0.34375
 40
0.359375
 40
0.375
 40
0.390625
 40
0.40625
 40
0.421875
 40
0.4375
 40
0.46875
 40
0.5
 40
0.53125
 40
0.5625
 40
0.59375
 40
0.609375
 40
0.625
 40
0.65625
 40
0.6875
 40
0.75
 40
0.8125
 40
0.875
 40
0.9375
 40
1.0
 40
1.0
 40
1.0
 40
1.0
 10
424.1999180602
 20
524.4504243548
 30
0.0
 10
424.2301455393
 20
524.4504243548
 30
0.0
 10
424.2906378955
 20
524.4497692644
 30
0.0
 10
424.3813488085
 20
524.4447950346
 30
0.0
 10
424.4724786541
 20
524.4341559456
 30
0.0
 10
424.5598518585
 20
524.4134084704
 30
0.0
 10
424.6323906023
 20
524.3802873485
 30
0.0
 10
424.6796591743
 20
524.345458791
 30
0.0
 10
424.7043083753
 20
524.3219612658
 30
0.0
 10
424.72101997
 20
524.3028082746
 30
0.0
 10
424.7358177364
 20
524.2819068593
 30
0.0
 10
424.7485884637
 20
524.259098756
 30
0.0
 10
424.7593060893
 20
524.2347107581
 30
0.0
 10
424.7708168834
 20
524.2007354519
 30
0.0
 10
424.7804178315
 20
524.1541157611
 30
0.0
 10
424.7838522345
 20
524.0962683548
 30
0.0
 10
424.7810951195
 20
524.0376631051
 30
0.0
 10
424.7703617174
 20
523.980788242
 30
0.0
 10
424.7550046708
 20
523.9385563832
 30
0.0
 10
424.7386976276
 20
523.9072180804
 30
0.0
 10
424.7198950842
 20
523.8783357594
 30
0.0
 10
424.6915764307
 20
523.8462979809
 30
0.0
 10
424.6394747748
 20
523.8037673292
 30
0.0
 10
424.5678787536
 20
523.7663672168
 30
0.0
 10
424.4793320973
 20
523.7407714178
 30
0.0
 10
424.3860132846
 20
523.7267166004
 30
0.0
 10
424.2928325044
 20
523.7197792567
 30
0.0
 10
424.2308680909
 20
523.7186860737
 30
0.0
 10
424.1999180602
 20
523.7186860737
 30
0.0
  0
SPLINE
  5
330
100
AcDbEntity
  8
03___PRT_ALL_CURVES
100
AcDbSpline
 62
2
  6
CONTINUOUS
 70
0
 71
3
 72
32
 73
28
 74
0
 42
0.0000001
 43
0.0000001
 44
0.0000000001
 40
0.0
 40
0.0
 40
0.0
 40
0.0
 40
0.0625
 40
0.125
 40
0.1875
 40
0.25
 40
0.3125
 40
0.34375
 40
0.359375
 40
0.375
 40
0.390625
 40
0.40625
 40
0.421875
 40
0.4375
 40
0.453125
 40
0.46875
 40
0.5
 40
0.53125
 40
0.5625
 40
0.59375
 40
0.625
 40
0.6875
 40
0.75
 40
0.8125
 40
0.875
 40
0.9375
 40
1.0
 40
1.0
 40
1.0
 40
1.0
 10
424.1999180602
 20
524.4573145457
 30
0.0
 10
424.2298352475
 20
524.4573145457
 30
0.0
 10
424.2897969282
 20
524.4565874158
 30
0.0
 10
424.3801816248
 20
524.4513316929
 30
0.0
 10
424.47085345
 20
524.4403120952
 30
0.0
 10
424.5574598758
 20
524.4194093407
 30
0.0
 10
424.6285491956
 20
524.3871678395
 30
0.0
 10
424.6753480159
 20
524.3534775985
 30
0.0
 10
424.6999624784
 20
524.3307995758
 30
0.0
 10
424.7168575482
 20
524.3122488352
 30
0.0
 10
424.7320661074
 20
524.2919360502
 30
0.0
 10
424.7453444746
 20
524.2696532165
 30
0.0
 10
424.7566132469
 20
524.2457070282
 30
0.0
 10
424.7658255841
 20
524.2204593262
 30
0.0
 10
424.7731157113
 20
524.1936676128
 30
0.0
 10
424.7801808406
 20
524.1558252737
 30
0.0
 10
424.7837735526
 20
524.1074836838
 30
0.0
 10
424.7818218284
 20
524.0479632385
 30
0.0
 10
424.7722238846
 20
523.989820436
 30
0.0
 10
424.7550101722
 20
523.9372316816
 30
0.0
 10
424.7213946804
 20
523.8738389051
 30
0.0
 10
424.6585266975
 20
523.8116045951
 30
0.0
 10
424.5714894843
 20
523.7638337134
 30
0.0
 10
424.4819332177
 20
523.7370749509
 30
0.0
 10
424.3879218489
 20
523.7225041212
 30
0.0
 10
424.2941564965
 20
523.7153380249
 30
0.0
 10
424.2313551842
 20
523.7142074496
 30
0.0
 10
424.1999180602
 20
523.7142074496
 30
0.0
  0
SPLINE
  5
331
100
AcDbEntity
  8
03___PRT_ALL_CURVES
100
AcDbSpline
 62
2
  6
CONTINUOUS
 70
0
 71
3
 72
48
 73
44
 74
0
 42
0.0000001
 43
0.0000001
 44
0.0000000001
 40
0.0
 40
0.0
 40
0.0
 40
0.0
 40
0.0357142857
 40
0.0714285714
 40
0.1071428571
 40
0.1428571429
 40
0.1785714286
 40
0.2142857143
 40
0.25
 40
0.2857142857
 40
0.3214285714
 40
0.3571428571
 40
0.3928571429
 40
0.4285714286
 40
0.4642857143
 40
0.5
 40
0.5357142857
 40
0.5714285714
 40
0.5892857143
 40
0.6071428571
 40
0.625
 40
0.6428571429
 40
0.6607142857
 40
0.6785714286
 40
0.7142857143
 40
0.75
 40
0.7857142857
 40
0.8214285714
 40
0.8392857143
 40
0.8571428571
 40
0.875
 40
0.8928571429
 40
0.9107142857
 40
0.9285714286
 40
0.9464285714
 40
0.9553571429
 40
0.9642857143
 40
0.9732142857
 40
0.9821428571
 40
0.9866071429
 40
0.9910714286
 40
0.9955357143
 40
1.0
 40
1.0
 40
1.0
 40
1.0
 10
426.608384314
 20
523.2032997891
 30
0.0
 10
426.619878103
 20
523.2359930128
 30
0.0
 10
426.642168767
 20
523.2991276111
 30
0.0
 10
426.6731431164
 20
523.386983186
 30
0.0
 10
426.7017072726
 20
523.4686416044
 30
0.0
 10
426.7282104208
 20
523.5443934077
 30
0.0
 10
426.7529265949
 20
523.6146450567
 30
0.0
 10
426.7760850568
 20
523.6797948649
 30
0.0
 10
426.7978293655
 20
523.7401692525
 30
0.0
 10
426.8183377108
 20
523.7960768792
 30
0.0
 10
426.8374881011
 20
523.8479075566
 30
0.0
 10
426.8549653231
 20
523.8960673768
 30
0.0
 10
426.870675655
 20
523.9408380434
 30
0.0
 10
426.8846178155
 20
523.982546478
 30
0.0
 10
426.8969655387
 20
524.021425845
 30
0.0
 10
426.9085384729
 20
524.0573854419
 30
0.0
 10
426.9198236651
 20
524.0904838972
 30
0.0
 10
426.929281205
 20
524.1157205588
 30
0.0
 10
426.9370126539
 20
524.1345471961
 30
0.0
 10
426.9429039805
 20
524.1479597324
 30
0.0
 10
426.9489278038
 20
524.1607022888
 30
0.0
 10
426.9550554007
 20
524.1727118646
 30
0.0
 10
426.9610960862
 20
524.1842147549
 30
0.0
 10
426.9687676876
 20
524.1989860534
 30
0.0
 10
426.9772371688
 20
524.2165979568
 30
0.0
 10
426.9850469887
 20
524.2367068439
 30
0.0
 10
426.9905987723
 20
524.2557935902
 30
0.0
 10
426.9936474753
 20
524.2707605046
 30
0.0
 10
426.9953441394
 20
524.2819634093
 30
0.0
 10
426.9963063482
 20
524.2901003339
 30
0.0
 10
426.9970426435
 20
524.2979495019
 30
0.0
 10
426.9977888064
 20
524.305477837
 30
0.0
 10
426.9987141301
 20
524.3126770624
 30
0.0
 10
426.9999719635
 20
524.3194420682
 30
0.0
 10
427.0016249366
 20
524.3250289545
 30
0.0
 10
427.0034636839
 20
524.3289964832
 30
0.0
 10
427.0051161894
 20
524.3316070795
 30
0.0
 10
427.0071300266
 20
524.333848526
 30
0.0
 10
427.0092259663
 20
524.3353501628
 30
0.0
 10
427.0111708382
 20
524.3362356737
 30
0.0
 10
427.0127608903
 20
524.3367213967
 30
0.0
 10
427.0144491874
 20
524.3370154725
 30
0.0
 10
427.0156879931
 20
524.3370807133
 30
0.0
 10
427.0162836194
 20
524.3370807133
 30
0.0
  0
SPLINE
  5
332
100
AcDbEntity
  8
03___PRT_ALL_CURVES
100
AcDbSpline
 62
2
  6
CONTINUOUS
 70
0
 71
3
 72
19
 73
15
 74
0
 42
0.0000001
 43
0.0000001
 44
0.0000000001
 40
0.0
 40
0.0
 40
0.0
 40
0.0
 40
0.0833333333
 40
0.1666666667
 40
0.25
 40
0.3333333333
 40
0.4166666667
 40
0.5
 40
0.5833333333
 40
0.6666666667
 40
0.75
 40
0.8333333333
 40
0.9166666667
 40
1.0
 40
1.0
 40
1.0
 40
1.0
 10
436.6256884564
 20
534.1559473558
 30
0.0
 10
436.7127251825
 20
534.1559473558
 30
0.0
 10
436.8810739154
 20
534.1447000392
 30
0.0
 10
437.1154825993
 20
534.1013200264
 30
0.0
 10
437.334795299
 20
534.0341618252
 30
0.0
 10
437.5396037642
 20
533.9435229609
 30
0.0
 10
437.7305542576
 20
533.8268127387
 30
0.0
 10
437.9023961451
 20
533.6822848118
 30
0.0
 10
438.0481363106
 20
533.5092503216
 30
0.0
 10
438.1655882101
 20
533.3165301799
 30
0.0
 10
438.2560377415
 20
533.1111674368
 30
0.0
 10
438.3226781981
 20
532.8924423803
 30
0.0
 10
438.3656670364
 20
532.6591543628
 30
0.0
 10
438.3768304916
 20
532.4914811537
 30
0.0
 10
438.3768304916
 20
532.4048053207
 30
0.0
  0
SPLINE
  5
333
100
AcDbEntity
  8
03___PRT_ALL_CURVES
100
AcDbSpline
 62
2
  6
CONTINUOUS
 70
0
 71
3
 72
19
 73
15
 74
0
 42
0.0000001
 43
0.0000001
 44
0.0000000001
 40
0.0
 40
0.0
 40
0.0
 40
0.0
 40
0.0833333333
 40
0.1666666667
 40
0.25
 40
0.3333333333
 40
0.4166666667
 40
0.5
 40
0.5833333333
 40
0.6666666667
 40
0.75
 40
0.8333333333
 40
0.9166666667
 40
1.0
 40
1.0
 40
1.0
 40
1.0
 10
438.3768304916
 20
527.767362288
 30
0.0
 10
438.3768304916
 20
527.6796028155
 30
0.0
 10
438.3654132235
 20
527.5096252066
 30
0.0
 10
438.3210230328
 20
527.2719721421
 30
0.0
 10
438.2520151933
 20
527.0494718172
 30
0.0
 10
438.1588720988
 20
526.8423234581
 30
0.0
 10
438.0393525555
 20
526.6504501518
 30
0.0
 10
437.8924386259
 20
526.4797174424
 30
0.0
 10
437.718352808
 20
526.3364243197
 30
0.0
 10
437.5267871617
 20
526.2219430337
 30
0.0
 10
437.3240203403
 20
526.1340892224
 30
0.0
 10
437.1085453593
 20
526.069291258
 30
0.0
 10
436.8783228406
 20
526.0272545723
 30
0.0
 10
436.7118927046
 20
526.0162202528
 30
0.0
 10
436.6256884564
 20
526.0162202528
 30
0.0
  0
SPLINE
  5
334
100
AcDbEntity
  8
03___PRT_ALL_CURVES
100
AcDbSpline
 62
2
  6
CONTINUOUS
 70
0
 71
3
 72
19
 73
15
 74
0
 42
0.0000001
 43
0.0000001
 44
0.0000000001
 40
0.0
 40
0.0
 40
0.0
 40
0.0
 40
0.0833333333
 40
0.1666666667
 40
0.25
 40
0.3333333333
 40
0.4166666667
 40
0.5
 40
0.5833333333
 40
0.6666666667
 40
0.75
 40
0.8333333333
 40
0.9166666667
 40
1.0
 40
1.0
 40
1.0
 40
1.0
 10
400.1280023761
 20
526.0162202528
 30
0.0
 10
400.0409215736
 20
526.0162202528
 30
0.0
 10
399.8725061453
 20
526.0274648274
 30
0.0
 10
399.6380771006
 20
526.0708170809
 30
0.0
 10
399.4187762512
 20
526.1379244326
 30
0.0
 10
399.2139897464
 20
526.2284980295
 30
0.0
 10
399.0230456135
 20
526.3451495622
 30
0.0
 10
398.8512018365
 20
526.4896455283
 30
0.0
 10
398.7054735791
 20
526.6626769698
 30
0.0
 10
398.5880459232
 20
526.8554065314
 30
0.0
 10
398.4976257386
 20
527.0607802292
 30
0.0
 10
398.4310058623
 20
527.2795346597
 30
0.0
 10
398.3880254079
 20
527.5128822794
 30
0.0
 10
398.376860341
 20
527.680637021
 30
0.0
 10
398.376860341
 20
527.767362288
 30
0.0
  0
SPLINE
  5
335
100
AcDbEntity
  8
03___PRT_ALL_CURVES
100
AcDbSpline
 62
2
  6
CONTINUOUS
 70
0
 71
3
 72
18
 73
14
 74
0
 42
0.0000001
 43
0.0000001
 44
0.0000000001
 40
0.0
 40
0.0
 40
0.0
 40
0.0
 40
0.0909090909
 40
0.1818181818
 40
0.2727272727
 40
0.3636363636
 40
0.4545454545
 40
0.5454545455
 40
0.6363636364
 40
0.7272727273
 40
0.8181818182
 40
0.9090909091
 40
1.0
 40
1.0
 40
1.0
 40
1.0
 10
398.376860341
 20
532.4048053207
 30
0.0
 10
398.376860341
 20
532.4894763935
 30
0.0
 10
398.3873231913
 20
532.6596020928
 30
0.0
 10
398.4371600184
 20
532.9235679503
 30
0.0
 10
398.5216694635
 20
533.1770443973
 30
0.0
 10
398.6349126919
 20
533.4025360019
 30
0.0
 10
398.7723236622
 20
533.5965814643
 30
0.0
 10
398.9381984621
 20
533.7621411098
 30
0.0
 10
399.132573909
 20
533.8992831855
 30
0.0
 10
399.3582753164
 20
534.0121768599
 30
0.0
 10
399.6116400766
 20
534.0962528353
 30
0.0
 10
399.8749385775
 20
534.1456543372
 30
0.0
 10
400.0439999532
 20
534.1559473558
 30
0.0
 10
400.1280023761
 20
534.1559473558
 30
0.0
  0
SPLINE
  5
336
100
AcDbEntity
  8
03___PRT_ALL_CURVES
100
AcDbSpline
 62
2
  6
CONTINUOUS
 70
0
 71
3
 72
16
 73
12
 74
0
 42
0.0000001
 43
0.0000001
 44
0.0000000001
 40
0.0
 40
0.0
 40
0.0
 40
0.0
 40
0.1
 40
0.2
 40
0.3
 40
0.4
 40
0.5
 40
0.6
 40
0.7
 40
0.8
 40
1.0
 40
1.0
 40
1.0
 40
1.0
 10
413.4512201463
 20
528.3471718581
 30
0.0
 10
413.4347471899
 20
528.3471718581
 30
0.0
 10
413.4028619059
 20
528.3490256
 30
0.0
 10
413.3551940773
 20
528.3571754871
 30
0.0
 10
413.3085306557
 20
528.3711742879
 30
0.0
 10
413.2647366544
 20
528.3911174375
 30
0.0
 10
413.2252685274
 20
528.4171095689
 30
0.0
 10
413.1908025718
 20
528.449335042
 30
0.0
 10
413.1609502325
 20
528.486190341
 30
0.0
 10
413.1265585389
 20
528.5402431854
 30
0.0
 10
413.1068441872
 20
528.5827841049
 30
0.0
 10
413.0949972731
 20
528.6124442105
 30
0.0
  0
SPLINE
  5
337
100
AcDbEntity
  8
03___PRT_ALL_CURVES
100
AcDbSpline
 62
2
  6
CONTINUOUS
 70
0
 71
3
 72
17
 73
13
 74
0
 42
0.0000001
 43
0.0000001
 44
0.0000000001
 40
0.0
 40
0.0
 40
0.0
 40
0.0
 40
0.1
 40
0.2
 40
0.3
 40
0.4
 40
0.5
 40
0.6
 40
0.7
 40
0.8
 40
0.9
 40
1.0
 40
1.0
 40
1.0
 40
1.0
 10
415.233195786
 20
528.0417641434
 30
0.0
 10
415.2169702666
 20
528.0417641434
 30
0.0
 10
415.1856079861
 20
528.0431704604
 30
0.0
 10
415.1384234528
 20
528.0498880663
 30
0.0
 10
415.0919707338
 20
528.0622392827
 30
0.0
 10
415.0485175758
 20
528.0808025773
 30
0.0
 10
415.009522886
 20
528.1062160238
 30
0.0
 10
414.976187439
 20
528.1388704092
 30
0.0
 10
414.9482643816
 20
528.1774479378
 30
0.0
 10
414.9262672519
 20
528.2202823285
 30
0.0
 10
414.9106871977
 20
528.2649888377
 30
0.0
 10
414.9043930163
 20
528.2953816915
 30
0.0
 10
414.9022943646
 20
528.3113428651
 30
0.0
  0
SPLINE
  5
338
100
AcDbEntity
  8
03___PRT_ALL_CURVES
100
AcDbSpline
 62
2
  6
CONTINUOUS
 70
0
 71
3
 72
15
 73
11
 74
0
 42
0.0000001
 43
0.0000001
 44
0.0000000001
 40
0.0
 40
0.0
 40
0.0
 40
0.0
 40
0.2
 40
0.3
 40
0.4
 40
0.5
 40
0.6
 40
0.7
 40
0.8
 40
1.0
 40
1.0
 40
1.0
 40
1.0
 10
407.2553881708
 20
530.5413531727
 30
0.0
 10
407.2553881708
 20
530.4518355851
 30
0.0
 10
407.2409768663
 20
530.3229236487
 30
0.0
 10
407.1960441373
 20
530.1589838216
 30
0.0
 10
407.149786349
 20
530.0423960939
 30
0.0
 10
407.0905293261
 20
529.9320573515
 30
0.0
 10
407.0184895442
 20
529.8306299657
 30
0.0
 10
406.9362201274
 20
529.7394542867
 30
0.0
 10
406.813391882
 20
529.6305717541
 30
0.0
 10
406.7097538586
 20
529.5648629889
 30
0.0
 10
406.6344097096
 20
529.5283228453
 30
0.0
  0
ENDSEC
  0
SECTION
  2
OBJECTS
  0
DICTIONARY
  5
C
100
AcDbDictionary
280
0
281
1
  3
ACAD_GROUP
350
D
  3
ACAD_MLINESTYLE
350
17
  3
ACAD_LAYOUT
350
1A
  3
ACAD_PLOTSETTINGS
350
19
  3
ACAD_PLOTSTYLENAME
350
E
  0
DICTIONARY
  5
D
102
{ACAD_REACTORS
330
C
102
}
100
AcDbDictionary
280
0
281
1
  0
ACDBDICTIONARYWDFLT
  5
E
102
{ACAD_REACTORS
330
C
102
}
100
AcDbDictionary
281
1
  3
Normal
350
F
100
AcDbDictionaryWithDefault
340
F
  0
DICTIONARY
  5
17
102
{ACAD_REACTORS
330
C
102
}
100
AcDbDictionary
280
0
281
1
  3
Standard
350
18
  0
DICTIONARY
  5
19
102
{ACAD_REACTORS
330
C
102
}
100
AcDbDictionary
281
1
  0
DICTIONARY
  5
1A
102
{ACAD_REACTORS
330
C
102
}
100
AcDbDictionary
281
1
  3
Model
350
339
  3
Layout1
350
33A
  0
ACDBPLACEHOLDER
  5
F
102
{ACAD_REACTORS
330
E
102
}
  0
MLINESTYLE
  5
18
102
{ACAD_REACTORS
330
17
102
}
100
AcDbMlineStyle
  2
STANDARD
 70
0
  3

 62
256
 51
90.0
 52
90.0
 71
2
 49
0.5
 62
256
  6
BYLAYER
 49
-0.5
 62
256
  6
BYLAYER
  0
LAYOUT
  5
339
102
{ACAD_REACTORS
330
1A
102
}
100
AcDbPlotSettings
  1

  2
none_device
  4

  6

 40
0.0
 41
0.0
 42
0.0
 43
0.0
 44
875.0
 45
628.0
 46
0.0
 47
0.0
 48
0.0
 49
0.0
140
0.0
141
0.0
142
1.0
143
1.0
 70
1024
 72
1
 73
0
 74
0
  7

 75
0
147
1.0
148
0.0
149
0.0
100
AcDbLayout
  1
Model
 70
0
 71
0
 10
0.0
 20
0.0
 11
875.0
 21
628.0
 12
0.0
 22
0.0
 32
0.0
 14
0.0
 24
0.0
 34
0.0
 15
0.0
 25
0.0
 35
0.0
146
0.0
 13
0.0
 23
0.0
 33
0.0
 16
1.0
 26
0.0
 36
0.0
 17
0.0
 27
1.0
 37
0.0
 76
0
330
216
345
0
346
0
  0
LAYOUT
  5
33A
102
{ACAD_REACTORS
330
1A
102
}
100
AcDbPlotSettings
  1

  2
none_device
  4

  6

 40
0.0
 41
0.0
 42
0.0
 43
0.0
 44
875.0
 45
628.0
 46
0.0
 47
0.0
 48
0.0
 49
0.0
140
0.0
141
0.0
142
1.0
143
1.0
 70
0
 72
1
 73
0
 74
0
  7

 75
0
147
1.0
148
0.0
149
0.0
100
AcDbLayout
  1
Layout1
 70
0
 71
1
 10
0.0
 20
0.0
 11
875.0
 21
628.0
 12
0.0
 22
0.0
 32
0.0
 14
0.0
 24
0.0
 34
0.0
 15
0.0
 25
0.0
 35
0.0
146
0.0
 13
0.0
 23
0.0
 33
0.0
 16
1.0
 26
0.0
 36
0.0
 17
0.0
 27
1.0
 37
0.0
 76
0
330
217
345
0
346
0
  0
ENDSEC
  0
EOF
