999
DXF file: tampa9.dxf
999
Pro/ENGINEER 2013150 by Parametric Technology Corporation
  0
SECTION
  2
HEADER
  9
$ACADVER
  1
AC1021
  9
$DWGCODEPAGE
  3
ANSI_1252
  9
$EXTMAX
 10
875.0
 20
628.0
 30
0.0
  9
$EXTMIN
 10
0.0
 20
0.0
 30
0.0
  9
$LIMMIN
 10
0.0
 20
0.0
  9
$LIMMAX
 10
875.0
 20
628.0
  9
$VIEWCTR
 10
437.5
 20
314.0
  9
$VIEWSIZE
 40
628.0
  9
$CLAYER
  8
0
  9
$LTSCALE
 40
48.125
  9
$CELTYPE
  6
BYLAYER
  9
$DIMSCALE
 40
1.0
  9
$DIMASZ
 40
3.0
  9
$DIMEXO
 40
0.5
  9
$DIMDLI
 40
33.25
  9
$DIMEXE
 40
0.5
  9
$DIMCEN
 40
7.875
  9
$DIMLFAC
 40
1.0
  9
$DIMBLK
  1
_FILLED
  9
$DIMTXT
 40
1.8
  9
$DIMTOL
 70
1
  9
$DIMLIM
 70
0
  9
$DIMTFAC
 40
1.0
  9
$DIMTP
 40
0.001
  9
$DIMTM
 40
0.001
  9
$DIMGAP
 40
0.625
  9
$DIMDSEP
 70
46
  9
$PDMODE
 70
3
  9
$PDSIZE
 40
1.0
  9
$HANDSEED
  5
2CD
  9
$TILEMODE
 70
1
  9
$MEASUREMENT
 70
1
  9
$INSUNITS
 70
4
  0
ENDSEC
  0
SECTION
  2
CLASSES
  0
CLASS
  1
ACDBDICTIONARYWDFLT
  2
AcDbDictionaryWithDefault
  3
AutoCAD 2000
 90
0
 91
1
280
0
281
0
  0
CLASS
  1
ACDBPLACEHOLDER
  2
AcDbPlaceHolder
  3
AutoCAD 2000
 90
0
 91
1
280
0
281
0
  0
CLASS
  1
LAYOUT
  2
AcDbLayout
  3
AutoCAD 2000
 90
0
 91
0
280
0
281
0
  0
ENDSEC
  0
SECTION
  2
TABLES
  0
TABLE
  2
VPORT
  5
8
100
AcDbSymbolTable
 70
2
  0
VPORT
  5
1F4
100
AcDbSymbolTableRecord
100
AcDbViewportTableRecord
  2
*ACTIVE
 70
0
 10
0.0
 20
0.0
 11
1.0
 21
1.0
 12
437.5
 22
314.0
 13
0.0
 23
0.0
 14
1.0
 24
1.0
 15
0.0
 25
0.0
 16
0.0
 26
0.0
 36
1.0
 17
0.0
 27
0.0
 37
0.0
 40
628.0
 41
1.3933121019
 42
50.0
 43
0.0
 44
0.0
 50
0.0
 51
0.0
 71
0
 72
100
 73
1
 74
1
 75
0
 76
0
 77
0
 78
0
  0
ENDTAB
  0
TABLE
  2
LTYPE
  5
5
100
AcDbSymbolTable
 70
6
  0
LTYPE
  5
14
100
AcDbSymbolTableRecord
100
AcDbLinetypeTableRecord
  2
BYBLOCK
 70
0
  3

 72
65
 73
0
 40
0.0
  0
LTYPE
  5
15
100
AcDbSymbolTableRecord
100
AcDbLinetypeTableRecord
  2
BYLAYER
 70
0
  3

 72
65
 73
0
 40
0.0
  0
LTYPE
  5
16
100
AcDbSymbolTableRecord
100
AcDbLinetypeTableRecord
  2
CONTINUOUS
 70
64
  3
Solid line
 72
65
 73
0
 40
0.0
  0
LTYPE
  5
1F5
100
AcDbSymbolTableRecord
100
AcDbLinetypeTableRecord
  2
CENTER
 70
64
  3
____ _ ____ _ ____ _ ____ _ ____ _ ____ _ ____
 72
65
 73
4
 40
0.6
 49
0.375
 74
0
 49
-0.075
 74
0
 49
0.075
 74
0
 49
-0.075
 74
0
  0
LTYPE
  5
1F6
100
AcDbSymbolTableRecord
100
AcDbLinetypeTableRecord
  2
HIDDEN
 70
64
  3
- - - - - - - - - - - - - - - - - - - -
 72
65
 73
2
 40
0.2
 49
0.1
 74
0
 49
-0.1
 74
0
  0
LTYPE
  5
1F7
100
AcDbSymbolTableRecord
100
AcDbLinetypeTableRecord
  2
PHANTOM
 70
64
  3
_____ _ _ _____ _ _ _____ _ _ _____
 72
65
 73
6
 40
0.8
 49
0.45
 74
0
 49
-0.05
 74
0
 49
0.1
 74
0
 49
-0.05
 74
0
 49
0.1
 74
0
 49
-0.05
 74
0
  0
LTYPE
  5
1F8
100
AcDbSymbolTableRecord
100
AcDbLinetypeTableRecord
  2
DOT
 70
64
  3
. . . . . . . . . . . . . . . . . . . .
 72
65
 73
2
 40
0.2
 49
0.1
 74
0
 49
-0.1
 74
0
  0
LTYPE
  5
1F9
100
AcDbSymbolTableRecord
100
AcDbLinetypeTableRecord
  2
DASHED
 70
64
  3
- - - - - - - - - - - - - - - - - - - -
 72
65
 73
2
 40
0.2
 49
0.1
 74
0
 49
-0.1
 74
0
  0
ENDTAB
  0
TABLE
  2
LAYER
  5
2
100
AcDbSymbolTable
 70
36
  0
LAYER
  5
10
100
AcDbSymbolTableRecord
100
AcDbLayerTableRecord
  2
0
 70
0
 62
7
  6
CONTINUOUS
370
-3
390
F
  0
LAYER
  5
1FA
100
AcDbSymbolTableRecord
100
AcDbLayerTableRecord
  2
DEFAULT_1
 70
0
 62
7
  6
CENTER
370
-3
390
F
  0
LAYER
  5
1FB
100
AcDbSymbolTableRecord
100
AcDbLayerTableRecord
  2
DEFAULT_2
 70
0
 62
8
  6
HIDDEN
370
-3
390
F
  0
LAYER
  5
1FC
100
AcDbSymbolTableRecord
100
AcDbLayerTableRecord
  2
DEFAULT_3
 70
0
 62
7
  6
PHANTOM
370
-3
390
F
  0
LAYER
  5
1FD
100
AcDbSymbolTableRecord
100
AcDbLayerTableRecord
  2
01_ALL_DTM_PLN
 70
0
 62
7
  6
CONTINUOUS
370
-3
390
F
  0
LAYER
  5
1FE
100
AcDbSymbolTableRecord
100
AcDbLayerTableRecord
  2
01__ASM_ALL_DTM_PLN
 70
0
 62
7
  6
CONTINUOUS
370
-3
390
F
  0
LAYER
  5
1FF
100
AcDbSymbolTableRecord
100
AcDbLayerTableRecord
  2
01__ASM_DEF_DTM_PLN
 70
0
 62
7
  6
CONTINUOUS
370
-3
390
F
  0
LAYER
  5
200
100
AcDbSymbolTableRecord
100
AcDbLayerTableRecord
  2
01___PRT_ALL_DTM_PLN
 70
0
 62
7
  6
CONTINUOUS
370
-3
390
F
  0
LAYER
  5
201
100
AcDbSymbolTableRecord
100
AcDbLayerTableRecord
  2
01___PRT_DEF_DTM_PLN
 70
0
 62
7
  6
CONTINUOUS
370
-3
390
F
  0
LAYER
  5
202
100
AcDbSymbolTableRecord
100
AcDbLayerTableRecord
  2
02_ALL_AXES
 70
0
 62
7
  6
CONTINUOUS
370
-3
390
F
  0
LAYER
  5
203
100
AcDbSymbolTableRecord
100
AcDbLayerTableRecord
  2
02__ASM_ALL_AXES
 70
0
 62
7
  6
CONTINUOUS
370
-3
390
F
  0
LAYER
  5
204
100
AcDbSymbolTableRecord
100
AcDbLayerTableRecord
  2
02___PRT_ALL_AXES
 70
0
 62
7
  6
CONTINUOUS
370
-3
390
F
  0
LAYER
  5
205
100
AcDbSymbolTableRecord
100
AcDbLayerTableRecord
  2
03_ALL_CURVES
 70
0
 62
7
  6
CONTINUOUS
370
-3
390
F
  0
LAYER
  5
206
100
AcDbSymbolTableRecord
100
AcDbLayerTableRecord
  2
03__ASM_ALL_CURVES
 70
0
 62
7
  6
CONTINUOUS
370
-3
390
F
  0
LAYER
  5
207
100
AcDbSymbolTableRecord
100
AcDbLayerTableRecord
  2
03___PRT_ALL_CURVES
 70
0
 62
7
  6
CONTINUOUS
370
-3
390
F
  0
LAYER
  5
208
100
AcDbSymbolTableRecord
100
AcDbLayerTableRecord
  2
04_ALL_DTM_PNT
 70
0
 62
7
  6
CONTINUOUS
370
-3
390
F
  0
LAYER
  5
209
100
AcDbSymbolTableRecord
100
AcDbLayerTableRecord
  2
04__ASM_ALL_DTM_PNT
 70
0
 62
7
  6
CONTINUOUS
370
-3
390
F
  0
LAYER
  5
20A
100
AcDbSymbolTableRecord
100
AcDbLayerTableRecord
  2
04___PRT_ALL_DTM_PNT
 70
0
 62
7
  6
CONTINUOUS
370
-3
390
F
  0
LAYER
  5
20B
100
AcDbSymbolTableRecord
100
AcDbLayerTableRecord
  2
05_ALL_DTM_CSYS
 70
0
 62
7
  6
CONTINUOUS
370
-3
390
F
  0
LAYER
  5
20C
100
AcDbSymbolTableRecord
100
AcDbLayerTableRecord
  2
05__ASM_ALL_DTM_CSYS
 70
0
 62
7
  6
CONTINUOUS
370
-3
390
F
  0
LAYER
  5
20D
100
AcDbSymbolTableRecord
100
AcDbLayerTableRecord
  2
05__ASM_DEF_DTM_CSYS
 70
0
 62
7
  6
CONTINUOUS
370
-3
390
F
  0
LAYER
  5
20E
100
AcDbSymbolTableRecord
100
AcDbLayerTableRecord
  2
05___PRT_ALL_DTM_CSYS
 70
0
 62
7
  6
CONTINUOUS
370
-3
390
F
  0
LAYER
  5
20F
100
AcDbSymbolTableRecord
100
AcDbLayerTableRecord
  2
05___PRT_DEF_DTM_CSYS
 70
0
 62
7
  6
CONTINUOUS
370
-3
390
F
  0
LAYER
  5
210
100
AcDbSymbolTableRecord
100
AcDbLayerTableRecord
  2
06_ALL_SURFS
 70
0
 62
7
  6
CONTINUOUS
370
-3
390
F
  0
LAYER
  5
211
100
AcDbSymbolTableRecord
100
AcDbLayerTableRecord
  2
06__ASM_ALL_SURFS
 70
0
 62
7
  6
CONTINUOUS
370
-3
390
F
  0
LAYER
  5
212
100
AcDbSymbolTableRecord
100
AcDbLayerTableRecord
  2
06___PRT_ALL_SURFS
 70
0
 62
7
  6
CONTINUOUS
370
-3
390
F
  0
LAYER
  5
213
100
AcDbSymbolTableRecord
100
AcDbLayerTableRecord
  2
07__ASM_ALL_SKELETONS
 70
0
 62
7
  6
CONTINUOUS
370
-3
390
F
  0
ENDTAB
  0
TABLE
  2
STYLE
  5
3
100
AcDbSymbolTable
 70
1
  0
STYLE
  5
11
100
AcDbSymbolTableRecord
100
AcDbTextStyleTableRecord
  2
STANDARD
 70
0
 40
0.0
 41
0.8
 50
0.0
 71
0
 42
0.2
  3
txt
  4

  0
STYLE
  5
214
100
AcDbSymbolTableRecord
100
AcDbTextStyleTableRecord
  2
TEXTSTYLE_1
 70
0
 40
0.0
 41
0.8
 50
0.0
 71
0
 42
0.2
  3
gdt
  4

  0
ENDTAB
  0
TABLE
  2
VIEW
  5
6
100
AcDbSymbolTable
 70
0
  0
ENDTAB
  0
TABLE
  2
UCS
  5
7
100
AcDbSymbolTable
 70
0
  0
ENDTAB
  0
TABLE
  2
APPID
  5
9
100
AcDbSymbolTable
 70
1
  0
APPID
  5
215
100
AcDbSymbolTableRecord
100
AcDbRegAppTableRecord
  2
ACAD
 70
0
  0
ENDTAB
  0
TABLE
  2
BLOCK_RECORD
  5
1
100
AcDbSymbolTable
 70
0
  0
BLOCK_RECORD
  5
216
100
AcDbSymbolTableRecord
100
AcDbBlockTableRecord
  2
*Model_Space
  0
BLOCK_RECORD
  5
217
100
AcDbSymbolTableRecord
100
AcDbBlockTableRecord
  2
*Paper_Space
  0
BLOCK_RECORD
  5
218
100
AcDbSymbolTableRecord
100
AcDbBlockTableRecord
  2
_FILLED
  0
BLOCK_RECORD
  5
219
100
AcDbSymbolTableRecord
100
AcDbBlockTableRecord
  2
*D0
  0
BLOCK_RECORD
  5
21A
100
AcDbSymbolTableRecord
100
AcDbBlockTableRecord
  2
*D1
  0
BLOCK_RECORD
  5
21B
100
AcDbSymbolTableRecord
100
AcDbBlockTableRecord
  2
*D2
  0
ENDTAB
  0
TABLE
  2
DIMSTYLE
  5
A
100
AcDbSymbolTable
 70
1
100
AcDbDimStyleTable
 71
0
  0
DIMSTYLE
105
21C
100
AcDbSymbolTableRecord
100
AcDbDimStyleTableRecord
  2
STANDARD
 70
0
  3

  4

 40
1.0
 41
3.0
 42
0.5
 43
0.38
 44
0.5
 45
0.0
 46
0.0
 47
0.001
 48
0.001
140
1.8
141
0.09
142
0.0
143
25.4
144
1.0
145
0.0
146
1.0
147
0.625
 71
1.0
 72
0.0
 73
0
 74
0
 75
0
 76
0
 77
1
 78
8
170
0
171
2
172
0
173
0
174
0
175
0
176
0
177
0
178
0
270
2
271
3
272
3
273
2
274
2
275
0
280
0
281
0
282
0
283
1
284
8
285
0
286
0
287
3
288
0
340
11
278
46
341
218
342
218
343
218
344
218
  0
DIMSTYLE
105
21D
100
AcDbSymbolTableRecord
100
AcDbDimStyleTableRecord
  2
DIMSTYLE_1
 70
0
  3

  4

 40
1.0
 41
3.0
 42
0.5
 43
0.38
 44
0.5
 45
0.0
 46
0.0
 47
0.001
 48
0.001
140
1.8
141
0.09
142
0.0
143
25.4
144
1.0
145
0.0
146
1.0
147
0.45
 71
0.0
 72
0.0
 73
0
 74
0
 75
0
 76
0
 77
1
 78
8
170
0
171
2
172
0
173
0
174
0
175
0
176
0
177
0
178
0
270
2
271
1
272
1
273
2
274
2
275
0
280
0
281
0
282
0
283
1
284
8
285
0
286
0
287
3
288
0
340
11
278
46
341
218
342
218
343
218
344
218
  0
DIMSTYLE
105
21E
100
AcDbSymbolTableRecord
100
AcDbDimStyleTableRecord
  2
DIMSTYLE_2
 70
0
  3

  4

 40
1.0
 41
3.0
 42
0.5
 43
0.38
 44
0.5
 45
0.0
 46
0.0
 47
0.001
 48
0.001
140
1.8
141
0.09
142
0.0
143
25.4
144
1.0
145
0.0
146
1.0
147
0.45
 71
0.0
 72
0.0
 73
0
 74
0
 75
0
 76
0
 77
1
 78
8
170
0
171
2
172
0
173
0
174
0
175
0
176
0
177
0
178
0
270
2
271
3
272
3
273
2
274
2
275
0
280
0
281
0
282
0
283
1
284
8
285
0
286
0
287
3
288
0
340
11
278
46
341
218
342
218
343
218
344
218
  0
ENDTAB
  0
ENDSEC
  0
SECTION
  2
BLOCKS
  0
BLOCK
  5
20
100
AcDbEntity
  8
0
100
AcDbBlockBegin
  2
*Model_Space
 70
0
 10
0.0
 20
0.0
 30
0.0
  3
*Model_Space
  1

  0
ENDBLK
  5
21
100
AcDbEntity
  8
0
100
AcDbBlockEnd
  0
BLOCK
  5
1C
100
AcDbEntity
  8
0
100
AcDbBlockBegin
  2
*Paper_Space
 70
0
 10
0.0
 20
0.0
 30
0.0
  3
*Paper_Space
  1

  0
ENDBLK
  5
1D
100
AcDbEntity
  8
0
100
AcDbBlockEnd
  0
BLOCK
  5
21F
100
AcDbEntity
  8
0
100
AcDbBlockBegin
  2
_FILLED
 70
64
 10
0.0
 20
0.0
  3
_FILLED
  1

  0
SOLID
  5
220
100
AcDbEntity
  8
0
  6
BYBLOCK
 62
0
100
AcDbTrace
 10
0.0
 20
0.0
 11
-1.0
 21
0.1666666667
 12
-1.0
 22
-0.1666666667
 13
-1.0
 23
-0.1666666667
  0
ENDBLK
  5
221
100
AcDbEntity
  8
0
  6
BYBLOCK
 62
0
100
AcDbBlockEnd
  0
BLOCK
  5
222
100
AcDbEntity
  8
0
100
AcDbBlockBegin
 62
2
  6
CONTINUOUS
  2
*D0
 70
65
 10
0.0
 20
0.0
  3
*D0
  1

  0
MTEXT
  5
223
100
AcDbEntity
  8
0
100
AcDbMText
 62
2
  6
CONTINUOUS
  7
STANDARD
 71
2
 72
1
 10
300.312806107
 20
480.0628454358
 30
0.0
 11
0.0
 21
1.0
 31
0.0
 44
0.9
  1
13.5
 40
1.8
 41
11.1085714286
  0
LINE
  5
224
100
AcDbEntity
  8
0
100
AcDbLine
 62
2
  6
CONTINUOUS
 10
323.3842346784
 20
486.8098832465
 11
302.3842346784
 21
486.8098832465
  0
LINE
  5
225
100
AcDbEntity
  8
0
100
AcDbLine
 62
2
  6
CONTINUOUS
 10
322.3842346784
 20
473.3158076251
 11
302.3842346784
 21
473.3158076251
  0
LINE
  5
226
100
AcDbEntity
  8
0
100
AcDbLine
 62
2
  6
CONTINUOUS
 10
302.8842346784
 20
486.8098832465
 11
302.8842346784
 21
480.0628454358
  0
LINE
  5
227
100
AcDbEntity
  8
0
100
AcDbLine
 62
2
  6
CONTINUOUS
 10
302.8842346784
 20
473.3158076251
 11
302.8842346784
 21
480.0628454358
  0
INSERT
  5
228
100
AcDbEntity
  8
0
100
AcDbBlockReference
 62
2
  6
CONTINUOUS
  2
_FILLED
 10
302.8842346784
 20
486.8098832465
 41
3.0
 42
3.0
 43
3.0
 50
90.0
  0
INSERT
  5
229
100
AcDbEntity
  8
0
100
AcDbBlockReference
 62
2
  6
CONTINUOUS
  2
_FILLED
 10
302.8842346784
 20
473.3158076251
 41
3.0
 42
3.0
 43
3.0
 50
270.0
  0
ENDBLK
  5
22A
100
AcDbEntity
  8
0
  6
BYBLOCK
 62
0
100
AcDbBlockEnd
  0
BLOCK
  5
22B
100
AcDbEntity
  8
0
100
AcDbBlockBegin
 62
2
  6
CONTINUOUS
  2
*D1
 70
65
 10
0.0
 20
0.0
  3
*D1
  1

  0
MTEXT
  5
22C
100
AcDbEntity
  8
0
100
AcDbMText
 62
2
  6
CONTINUOUS
  7
TEXTSTYLE_1
 71
2
 72
1
 10
293.312806107
 20
278.3402988471
 30
0.0
 11
0.0
 21
1.0
 31
0.0
 44
0.9
  1
{\Fgdt;n}\Ftxt;240
 40
1.8
 41
11.9314285714
  0
LINE
  5
22D
100
AcDbEntity
  8
0
100
AcDbLine
 62
2
  6
CONTINUOUS
 10
429.3842346784
 20
158.3402988471
 11
295.3842346784
 21
158.3402988471
  0
LINE
  5
22E
100
AcDbEntity
  8
0
100
AcDbLine
 62
2
  6
CONTINUOUS
 10
429.3842346784
 20
398.3402988471
 11
295.3842346784
 21
398.3402988471
  0
LINE
  5
22F
100
AcDbEntity
  8
0
100
AcDbLine
 62
2
  6
CONTINUOUS
 10
295.8842346784
 20
158.3402988471
 11
295.8842346784
 21
278.3402988471
  0
LINE
  5
230
100
AcDbEntity
  8
0
100
AcDbLine
 62
2
  6
CONTINUOUS
 10
295.8842346784
 20
398.3402988471
 11
295.8842346784
 21
278.3402988471
  0
INSERT
  5
231
100
AcDbEntity
  8
0
100
AcDbBlockReference
 62
2
  6
CONTINUOUS
  2
_FILLED
 10
295.8842346784
 20
158.3402988471
 41
3.0
 42
3.0
 43
3.0
 50
270.0
  0
INSERT
  5
232
100
AcDbEntity
  8
0
100
AcDbBlockReference
 62
2
  6
CONTINUOUS
  2
_FILLED
 10
295.8842346784
 20
398.3402988471
 41
3.0
 42
3.0
 43
3.0
 50
90.0
  0
ENDBLK
  5
233
100
AcDbEntity
  8
0
  6
BYBLOCK
 62
0
100
AcDbBlockEnd
  0
BLOCK
  5
234
100
AcDbEntity
  8
0
100
AcDbBlockBegin
 62
2
  6
CONTINUOUS
  2
*D2
 70
65
 10
0.0
 20
0.0
  3
*D2
  1

  0
MTEXT
  5
235
100
AcDbEntity
  8
0
100
AcDbMText
 62
2
  6
CONTINUOUS
  7
TEXTSTYLE_1
 71
2
 72
1
 10
300.312806107
 20
278.3402988471
 30
0.0
 11
0.0
 21
1.0
 31
0.0
 44
0.9
  1
{\Fgdt;n}\Ftxt;206
 40
1.8
 41
11.9314285714
  0
LINE
  5
236
100
AcDbEntity
  8
0
100
AcDbLine
 62
2
  6
CONTINUOUS
 10
429.3842346784
 20
175.3402988471
 11
302.3842346784
 21
175.3402988471
  0
LINE
  5
237
100
AcDbEntity
  8
0
100
AcDbLine
 62
2
  6
CONTINUOUS
 10
429.3842346784
 20
381.3402988471
 11
302.3842346784
 21
381.3402988471
  0
LINE
  5
238
100
AcDbEntity
  8
0
100
AcDbLine
 62
2
  6
CONTINUOUS
 10
302.8842346784
 20
175.3402988471
 11
302.8842346784
 21
278.3402988471
  0
LINE
  5
239
100
AcDbEntity
  8
0
100
AcDbLine
 62
2
  6
CONTINUOUS
 10
302.8842346784
 20
381.3402988471
 11
302.8842346784
 21
278.3402988471
  0
INSERT
  5
23A
100
AcDbEntity
  8
0
100
AcDbBlockReference
 62
2
  6
CONTINUOUS
  2
_FILLED
 10
302.8842346784
 20
175.3402988471
 41
3.0
 42
3.0
 43
3.0
 50
270.0
  0
INSERT
  5
23B
100
AcDbEntity
  8
0
100
AcDbBlockReference
 62
2
  6
CONTINUOUS
  2
_FILLED
 10
302.8842346784
 20
381.3402988471
 41
3.0
 42
3.0
 43
3.0
 50
90.0
  0
ENDBLK
  5
23C
100
AcDbEntity
  8
0
  6
BYBLOCK
 62
0
100
AcDbBlockEnd
  0
ENDSEC
  0
SECTION
  2
ENTITIES
  0
HATCH
  5
23D
100
AcDbEntity
  8
0
100
AcDbHatch
 62
2
  6
CONTINUOUS
 10
0.0
 20
0.0
 30
0.0
210
0.0
220
0.0
230
1.0
  2
default__1
 70
0
 71
0
 91
4
 92
1
 93
8
 72
1
 10
324.8842346784
 20
485.8098832465
 11
324.8842346784
 21
482.4109635397
 72
1
 10
324.4842346784
 20
482.4109635397
 11
324.8842346784
 21
482.4109635397
 72
1
 10
324.4842346784
 20
485.9110145897
 11
324.4842346784
 21
482.4109635397
 72
4
 94
3
 73
1
 74
0
 95
8
 96
4
 40
0.0
 40
0.0
 40
0.0
 40
0.0
 40
1.0
 40
1.0
 40
1.0
 40
1.0
 10
324.4842346784
 20
485.9110145897
 42
1.0
 10
324.4842346784
 20
486.2063873672
 42
0.8022206954
 10
324.2742652578
 20
486.4141322108
 42
0.8022206954
 10
323.9789092346
 20
486.4109862286
 42
1.0
 72
4
 94
3
 73
1
 74
0
 95
8
 96
4
 40
0.0
 40
0.0
 40
0.0
 40
0.0
 40
1.0
 40
1.0
 40
1.0
 40
1.0
 10
323.9789092346
 20
486.4109862286
 42
1.0
 10
319.2730263559
 20
486.3608615559
 42
0.9977075032
 10
314.5874791053
 20
485.9209830336
 42
0.9977075032
 10
309.9544922896
 20
485.0943759219
 42
1.0
 72
1
 10
309.9544922896
 20
485.0943759219
 11
309.8842346784
 21
485.4881574198
 72
4
 94
3
 73
1
 74
0
 95
8
 96
4
 40
0.0
 40
0.0
 40
0.0
 40
0.0
 40
1.0
 40
1.0
 40
1.0
 40
1.0
 10
323.8723863372
 20
486.8098130525
 42
1.0
 10
319.1786258342
 20
486.7541958724
 42
0.9977404596
 10
314.5053491569
 20
486.3126462957
 42
0.9977404596
 10
309.8842346784
 20
485.4881574198
 42
1.0
 72
4
 94
3
 73
1
 74
0
 95
8
 96
4
 40
0.0
 40
0.0
 40
0.0
 40
0.0
 40
1.0
 40
1.0
 40
1.0
 40
1.0
 10
324.8842346784
 20
485.8098832465
 42
1.0
 10
324.8842346784
 20
486.4011878824
 42
0.8019368518
 10
324.4636494669
 20
486.8168190316
 42
0.8019368518
 10
323.8723863372
 20
486.8098130525
 42
1.0
 97
0
 92
1
 93
8
 72
1
 10
324.8842346784
 20
479.2109635397
 11
324.8842346784
 21
475.3158076251
 72
4
 94
3
 73
1
 74
0
 95
8
 96
4
 40
0.0
 40
0.0
 40
0.0
 40
0.0
 40
1.0
 40
1.0
 40
1.0
 40
1.0
 10
324.8842346784
 20
475.3158076251
 42
1.0
 10
324.8842346784
 20
471.3158076251
 42
0.3333333333
 10
320.8842346784
 20
471.3158076251
 42
0.3333333333
 10
320.8842346784
 20
475.3158076251
 42
1.0
 72
1
 10
320.8842346784
 20
475.3158076251
 11
320.8842346784
 21
476.8158076251
 72
1
 10
321.2842346784
 20
476.8158076251
 11
320.8842346784
 21
476.8158076251
 72
1
 10
321.2842346784
 20
475.3158076251
 11
321.2842346784
 21
476.8158076251
 72
4
 94
3
 73
1
 74
0
 95
8
 96
4
 40
0.0
 40
0.0
 40
0.0
 40
0.0
 40
1.0
 40
1.0
 40
1.0
 40
1.0
 10
324.4842346784
 20
475.3158076251
 42
1.0
 10
324.4842346784
 20
472.1158076251
 42
0.3333333333
 10
321.2842346784
 20
472.1158076251
 42
0.3333333333
 10
321.2842346784
 20
475.3158076251
 42
1.0
 72
1
 10
324.4842346784
 20
479.2109635397
 11
324.4842346784
 21
475.3158076251
 72
1
 10
324.4842346784
 20
479.2109635397
 11
324.8842346784
 21
479.2109635397
 97
0
 92
1
 93
8
 72
1
 10
534.8842346784
 20
485.8098832465
 11
534.8842346784
 21
482.4109635397
 72
4
 94
3
 73
1
 74
0
 95
8
 96
4
 40
0.0
 40
0.0
 40
0.0
 40
0.0
 40
1.0
 40
1.0
 40
1.0
 40
1.0
 10
534.8842346784
 20
485.8098832465
 42
1.0
 10
534.8842346784
 20
486.4011878824
 42
0.8019368518
 10
535.3048198899
 20
486.8168190316
 42
0.8019368518
 10
535.8960830196
 20
486.8098130525
 42
1.0
 72
4
 94
3
 73
1
 74
0
 95
8
 96
4
 40
0.0
 40
0.0
 40
0.0
 40
0.0
 40
1.0
 40
1.0
 40
1.0
 40
1.0
 10
535.8960830196
 20
486.8098130525
 42
1.0
 10
540.5898435226
 20
486.7541958724
 42
0.9977404596
 10
545.2631201998
 20
486.3126462957
 42
0.9977404596
 10
549.8842346784
 20
485.4881574198
 42
1.0
 72
1
 10
549.8139770672
 20
485.0943759219
 11
549.8842346784
 21
485.4881574198
 72
4
 94
3
 73
1
 74
0
 95
8
 96
4
 40
0.0
 40
0.0
 40
0.0
 40
0.0
 40
1.0
 40
1.0
 40
1.0
 40
1.0
 10
535.7895601222
 20
486.4109862286
 42
1.0
 10
540.4954430009
 20
486.3608615559
 42
0.9977075032
 10
545.1809902515
 20
485.9209830336
 42
0.9977075032
 10
549.8139770672
 20
485.0943759219
 42
1.0
 72
4
 94
3
 73
1
 74
0
 95
8
 96
4
 40
0.0
 40
0.0
 40
0.0
 40
0.0
 40
1.0
 40
1.0
 40
1.0
 40
1.0
 10
535.2842346784
 20
485.9110145897
 42
1.0
 10
535.2842346784
 20
486.2063873672
 42
0.8022206954
 10
535.494204099
 20
486.4141322108
 42
0.8022206954
 10
535.7895601222
 20
486.4109862286
 42
1.0
 72
1
 10
535.2842346784
 20
485.9110145897
 11
535.2842346784
 21
482.4109635397
 72
1
 10
534.8842346784
 20
482.4109635397
 11
535.2842346784
 21
482.4109635397
 97
0
 92
1
 93
8
 72
1
 10
534.8842346784
 20
479.2109635397
 11
534.8842346784
 21
475.3158076251
 72
1
 10
534.8842346784
 20
479.2109635397
 11
535.2842346784
 21
479.2109635397
 72
1
 10
535.2842346784
 20
479.2109635397
 11
535.2842346784
 21
475.3158076251
 72
4
 94
3
 73
1
 74
0
 95
8
 96
4
 40
0.0
 40
0.0
 40
0.0
 40
0.0
 40
1.0
 40
1.0
 40
1.0
 40
1.0
 10
535.2842346784
 20
475.3158076251
 42
1.0
 10
535.2842346784
 20
472.1158076251
 42
0.3333333333
 10
538.4842346784
 20
472.1158076251
 42
0.3333333333
 10
538.4842346784
 20
475.3158076251
 42
1.0
 72
1
 10
538.4842346784
 20
475.3158076251
 11
538.4842346784
 21
476.8158076251
 72
1
 10
538.8842346784
 20
476.8158076251
 11
538.4842346784
 21
476.8158076251
 72
1
 10
538.8842346784
 20
475.3158076251
 11
538.8842346784
 21
476.8158076251
 72
4
 94
3
 73
1
 74
0
 95
8
 96
4
 40
0.0
 40
0.0
 40
0.0
 40
0.0
 40
1.0
 40
1.0
 40
1.0
 40
1.0
 10
534.8842346784
 20
475.3158076251
 42
1.0
 10
534.8842346784
 20
471.3158076251
 42
0.3333333333
 10
538.8842346784
 20
471.3158076251
 42
0.3333333333
 10
538.8842346784
 20
475.3158076251
 42
1.0
 97
0
 75
0
 76
0
 52
45.0
 41
1.0
 77
0
 78
1
 53
45.0
 43
0.0
 44
0.0
 45
-0.7071067812
 46
0.7071067812
 79
0
 98
1
 10
0.0
 20
0.0
  0
HATCH
  5
23E
100
AcDbEntity
  8
0
100
AcDbHatch
 62
2
  6
CONTINUOUS
 10
0.0
 20
0.0
 30
0.0
210
0.0
220
0.0
230
1.0
  2
default__2
 70
0
 71
0
 91
3
 92
1
 93
22
 72
1
 10
326.8842346784
 20
484.1109635397
 11
326.8842346784
 21
482.4609635397
 72
4
 94
3
 73
1
 74
0
 95
8
 96
4
 40
0.0
 40
0.0
 40
0.0
 40
0.0
 40
1.0
 40
1.0
 40
1.0
 40
1.0
 10
328.0842346784
 20
485.3109635397
 42
1.0
 10
327.3812909532
 20
485.3109635397
 42
0.8047378541
 10
326.8842346784
 20
484.8139072648
 42
0.8047378541
 10
326.8842346784
 20
484.1109635397
 42
1.0
 72
1
 10
328.0842346784
 20
485.3109635397
 11
333.5971638952
 21
485.3109635397
 72
4
 94
3
 73
1
 74
0
 95
8
 96
4
 40
0.0
 40
0.0
 40
0.0
 40
0.0
 40
1.0
 40
1.0
 40
1.0
 40
1.0
 10
334.1395044911
 20
485.1814151631
 42
1.0
 10
333.9706230643
 20
485.2669783512
 42
0.9817575805
 10
333.7864837185
 20
485.3109635397
 42
0.9817575805
 10
333.5971638952
 20
485.3109635397
 42
1.0
 72
4
 94
3
 73
1
 74
0
 95
8
 96
4
 40
0.0
 40
0.0
 40
0.0
 40
0.0
 40
1.0
 40
1.0
 40
1.0
 40
1.0
 10
334.1395044911
 20
485.1814151631
 42
1.0
 10
363.9538071
 20
470.0761023333
 42
0.9817575805
 10
396.4617405204
 20
462.3109635397
 42
0.9817575805
 10
429.8842346784
 20
462.3109635397
 42
1.0
 72
4
 94
3
 73
1
 74
0
 95
8
 96
4
 40
0.0
 40
0.0
 40
0.0
 40
0.0
 40
1.0
 40
1.0
 40
1.0
 40
1.0
 10
525.6289648657
 20
485.1814151631
 42
1.0
 10
495.8146622568
 20
470.0761023333
 42
0.9817575805
 10
463.3067288364
 20
462.3109635397
 42
0.9817575805
 10
429.8842346784
 20
462.3109635397
 42
1.0
 72
4
 94
3
 73
1
 74
0
 95
8
 96
4
 40
0.0
 40
0.0
 40
0.0
 40
0.0
 40
1.0
 40
1.0
 40
1.0
 40
1.0
 10
525.6289648657
 20
485.1814151631
 42
1.0
 10
525.7978462925
 20
485.2669783512
 42
0.9817575805
 10
525.9819856383
 20
485.3109635397
 42
0.9817575805
 10
526.1713054616
 20
485.3109635397
 42
1.0
 72
1
 10
526.1713054616
 20
485.3109635397
 11
531.6842346784
 21
485.3109635397
 72
4
 94
3
 73
1
 74
0
 95
8
 96
4
 40
0.0
 40
0.0
 40
0.0
 40
0.0
 40
1.0
 40
1.0
 40
1.0
 40
1.0
 10
531.6842346784
 20
485.3109635397
 42
1.0
 10
532.3871784036
 20
485.3109635397
 42
0.8047378541
 10
532.8842346784
 20
484.8139072648
 42
0.8047378541
 10
532.8842346784
 20
484.1109635397
 42
1.0
 72
1
 10
532.8842346784
 20
484.1109635397
 11
532.8842346784
 21
482.4609635397
 72
1
 10
532.4842346784
 20
482.4609635397
 11
532.8842346784
 21
482.4609635397
 72
1
 10
532.4842346784
 20
484.4109635397
 11
532.4842346784
 21
482.4609635397
 72
4
 94
3
 73
1
 74
0
 95
8
 96
4
 40
0.0
 40
0.0
 40
0.0
 40
0.0
 40
1.0
 40
1.0
 40
1.0
 40
1.0
 10
531.9842346784
 20
484.9109635397
 42
1.0
 10
532.2771278972
 20
484.9109635397
 42
0.8047378541
 10
532.4842346784
 20
484.7038567585
 42
0.8047378541
 10
532.4842346784
 20
484.4109635397
 42
1.0
 72
1
 10
526.0996180638
 20
484.9109635397
 11
531.9842346784
 21
484.9109635397
 72
4
 94
3
 73
1
 74
0
 95
8
 96
4
 40
0.0
 40
0.0
 40
0.0
 40
0.0
 40
1.0
 40
1.0
 40
1.0
 40
1.0
 10
525.873492643
 20
484.8569089333
 42
1.0
 10
525.9438993536
 20
484.8926100466
 42
0.9817314941
 10
526.0206771087
 20
484.9109635397
 42
0.9817314941
 10
526.0996180638
 20
484.9109635397
 42
1.0
 72
4
 94
3
 73
1
 74
0
 95
8
 96
4
 40
0.0
 40
0.0
 40
0.0
 40
0.0
 40
1.0
 40
1.0
 40
1.0
 40
1.0
 10
525.873492643
 20
484.8569089333
 42
1.0
 10
495.9861501229
 20
469.7019415313
 42
0.9817314941
 10
463.3943268876
 20
461.9109635397
 42
0.9817314941
 10
429.8842346784
 20
461.9109635397
 42
1.0
 72
4
 94
3
 73
1
 74
0
 95
8
 96
4
 40
0.0
 40
0.0
 40
0.0
 40
0.0
 40
1.0
 40
1.0
 40
1.0
 40
1.0
 10
333.8949767138
 20
484.8569089333
 42
1.0
 10
363.7823192339
 20
469.7019415313
 42
0.9817314941
 10
396.3741424692
 20
461.9109635397
 42
0.9817314941
 10
429.8842346784
 20
461.9109635397
 42
1.0
 72
4
 94
3
 73
1
 74
0
 95
8
 96
4
 40
0.0
 40
0.0
 40
0.0
 40
0.0
 40
1.0
 40
1.0
 40
1.0
 40
1.0
 10
333.8949767138
 20
484.8569089333
 42
1.0
 10
333.8245700032
 20
484.8926100466
 42
0.9817314941
 10
333.7477922481
 20
484.9109635397
 42
0.9817314941
 10
333.668851293
 20
484.9109635397
 42
1.0
 72
1
 10
327.7842346784
 20
484.9109635397
 11
333.668851293
 21
484.9109635397
 72
4
 94
3
 73
1
 74
0
 95
8
 96
4
 40
0.0
 40
0.0
 40
0.0
 40
0.0
 40
1.0
 40
1.0
 40
1.0
 40
1.0
 10
327.7842346784
 20
484.9109635397
 42
1.0
 10
327.4913414596
 20
484.9109635397
 42
0.8047378541
 10
327.2842346784
 20
484.7038567585
 42
0.8047378541
 10
327.2842346784
 20
484.4109635397
 42
1.0
 72
1
 10
327.2842346784
 20
484.4109635397
 11
327.2842346784
 21
482.4609635397
 72
1
 10
326.8842346784
 20
482.4609635397
 11
327.2842346784
 21
482.4609635397
 97
0
 92
1
 93
6
 72
1
 10
326.8842346784
 20
479.1609635397
 11
326.8842346784
 21
473.3109635397
 72
1
 10
326.8842346784
 20
479.1609635397
 11
327.2842346784
 21
479.1609635397
 72
1
 10
327.2842346784
 20
479.1609635397
 11
327.2842346784
 21
473.3109635397
 72
4
 94
3
 73
1
 74
0
 95
11
 96
7
 40
0.0
 40
0.0
 40
0.0
 40
0.0
 40
1.0
 40
1.0
 40
1.0
 40
2.0
 40
2.0
 40
2.0
 40
2.0
 10
327.2842346784
 20
473.3109635397
 42
1.0
 10
327.2842346784
 20
472.4933404032
 42
0.4776264093
 10
328.0824768819
 20
472.3163743671
 42
0.4776264093
 10
328.4280193506
 20
473.0573925826
 42
1.0
 10
328.7735618193
 20
473.7984107981
 42
0.4776264093
 10
328.1248977729
 20
474.2961482271
 42
0.4776264093
 10
327.4985621126
 20
473.7705902055
 42
1.0
 72
1
 10
327.4985621126
 20
473.7705902055
 11
327.2414470687
 21
474.0770079828
 72
4
 94
3
 73
1
 74
0
 95
11
 96
7
 40
0.0
 40
0.0
 40
0.0
 40
0.0
 40
1.0
 40
1.0
 40
1.0
 40
2.0
 40
2.0
 40
2.0
 40
2.0
 10
326.8842346784
 20
473.3109635397
 42
1.0
 10
326.8842346784
 20
471.9482583121
 42
0.4776264093
 10
328.2146383509
 20
471.6533149188
 42
0.4776264093
 10
328.7905424654
 20
472.8883452779
 42
1.0
 10
329.36644658
 20
474.1233756371
 42
0.4776264093
 10
328.2853398359
 20
474.9529380187
 42
0.4776264093
 10
327.2414470687
 20
474.0770079828
 42
1.0
 97
0
 92
1
 93
6
 72
1
 10
532.8842346784
 20
479.1609635397
 11
532.8842346784
 21
473.3109635397
 72
4
 94
3
 73
1
 74
0
 95
11
 96
7
 40
0.0
 40
0.0
 40
0.0
 40
0.0
 40
1.0
 40
1.0
 40
1.0
 40
2.0
 40
2.0
 40
2.0
 40
2.0
 10
532.8842346784
 20
473.3109635397
 42
1.0
 10
532.8842346784
 20
471.9482583121
 42
0.4776264093
 10
531.5538310059
 20
471.6533149188
 42
0.4776264093
 10
530.9779268914
 20
472.8883452779
 42
1.0
 10
530.4020227768
 20
474.1233756371
 42
0.4776264093
 10
531.4831295209
 20
474.9529380187
 42
0.4776264093
 10
532.5270222881
 20
474.0770079828
 42
1.0
 72
1
 10
532.2699072442
 20
473.7705902055
 11
532.5270222881
 21
474.0770079828
 72
4
 94
3
 73
1
 74
0
 95
11
 96
7
 40
0.0
 40
0.0
 40
0.0
 40
0.0
 40
1.0
 40
1.0
 40
1.0
 40
2.0
 40
2.0
 40
2.0
 40
2.0
 10
532.4842346784
 20
473.3109635397
 42
1.0
 10
532.4842346784
 20
472.4933404032
 42
0.4776264093
 10
531.6859924749
 20
472.3163743671
 42
0.4776264093
 10
531.3404500062
 20
473.0573925826
 42
1.0
 10
530.9949075375
 20
473.7984107981
 42
0.4776264093
 10
531.6435715839
 20
474.2961482271
 42
0.4776264093
 10
532.2699072442
 20
473.7705902055
 42
1.0
 72
1
 10
532.4842346784
 20
479.1609635397
 11
532.4842346784
 21
473.3109635397
 72
1
 10
532.4842346784
 20
479.1609635397
 11
532.8842346784
 21
479.1609635397
 97
0
 75
0
 76
0
 52
135.0
 41
1.0
 77
0
 78
1
 53
135.0
 43
0.0
 44
0.0
 45
-0.7071067812
 46
-0.7071067812
 79
0
 98
1
 10
0.0
 20
0.0
  0
HATCH
  5
23F
100
AcDbEntity
  8
0
100
AcDbHatch
 62
2
  6
CONTINUOUS
 10
0.0
 20
0.0
 30
0.0
210
0.0
220
0.0
230
1.0
  2
default__3
 70
0
 71
0
 91
2
 92
1
 93
8
 72
1
 10
532.4806345716
 20
482.3109635397
 11
535.4806345716
 21
482.3109635397
 72
1
 10
535.4806345716
 20
482.3109635397
 11
536.5003186094
 21
483.7750255957
 72
1
 10
536.5003186094
 20
483.7750255957
 11
536.9379198512
 21
483.4684510649
 72
1
 10
535.7528746799
 20
481.7669635397
 11
536.9379198512
 21
483.4684510649
 72
1
 10
532.4695481127
 20
481.7669635397
 11
535.7528746799
 21
481.7669635397
 72
1
 10
531.4612346784
 20
482.6764635397
 11
532.4695481127
 21
481.7669635397
 72
1
 10
531.4612346784
 20
483.2304635397
 11
531.4612346784
 21
482.6764635397
 72
1
 10
531.4612346784
 20
483.2304635397
 11
532.4806345716
 21
482.3109635397
 97
0
 92
1
 93
8
 72
1
 10
532.4806345716
 20
479.3109635397
 11
535.4806345716
 21
479.3109635397
 72
1
 10
531.4612346784
 20
478.3914635397
 11
532.4806345716
 21
479.3109635397
 72
1
 10
531.4612346784
 20
478.9454635397
 11
531.4612346784
 21
478.3914635397
 72
1
 10
531.4612346784
 20
478.9454635397
 11
532.4695481127
 21
479.8549635397
 72
1
 10
532.4695481127
 20
479.8549635397
 11
535.7528746799
 21
479.8549635397
 72
1
 10
535.7528746799
 20
479.8549635397
 11
536.9379198512
 21
478.1534760144
 72
1
 10
536.5003186094
 20
477.8469014836
 11
536.9379198512
 21
478.1534760144
 72
1
 10
535.4806345716
 20
479.3109635397
 11
536.5003186094
 21
477.8469014836
 97
0
 75
0
 76
0
 52
85.0
 41
0.4542742931
 77
0
 78
1
 53
85.0
 43
0.0
 44
0.0
 45
-0.4525456422
 46
0.0395926134
 79
0
 98
1
 10
0.0
 20
0.0
  0
DIMENSION
  5
240
100
AcDbEntity
  8
0
100
AcDbDimension
 62
2
  6
CONTINUOUS
  2
*D0
 10
302.8842346784
 20
473.3158076251
 11
302.8842346784
 21
480.0628454358
 70
160
 71
2
 42
13.4940756215
  3
DIMSTYLE_1
100
AcDbAlignedDimension
 13
323.8842346784
 23
486.8098832465
 14
322.8842346784
 24
473.3158076251
 50
270.0
100
AcDbRotatedDimension
  0
DIMENSION
  5
241
100
AcDbEntity
  8
0
100
AcDbDimension
 62
2
  6
CONTINUOUS
  2
*D1
 10
295.8842346784
 20
398.3402988471
 11
295.8842346784
 21
278.3402988471
 70
160
 71
2
 42
240.0
  1
%%c<>
  3
DIMSTYLE_2
100
AcDbAlignedDimension
 13
429.8842346784
 23
158.3402988471
 14
429.8842346784
 24
398.3402988471
 50
90.0
100
AcDbRotatedDimension
  0
DIMENSION
  5
242
100
AcDbEntity
  8
0
100
AcDbDimension
 62
2
  6
CONTINUOUS
  2
*D2
 10
302.8842346784
 20
381.3402988471
 11
302.8842346784
 21
278.3402988471
 70
160
 71
2
 42
206.0
  1
%%c<>
  3
DIMSTYLE_2
100
AcDbAlignedDimension
 13
429.8842346784
 23
175.3402988471
 14
429.8842346784
 24
381.3402988471
 50
90.0
100
AcDbRotatedDimension
  0
LINE
  5
243
100
AcDbEntity
  8
02___PRT_ALL_AXES
100
AcDbLine
 62
7
  6
CONTINUOUS
 10
534.8689341836
 20
276.8402988471
 11
532.8693215637
 21
276.8402988471
  0
LINE
  5
244
100
AcDbEntity
  8
02___PRT_ALL_AXES
100
AcDbLine
 62
7
  6
CONTINUOUS
 10
326.8991477931
 20
276.8402988471
 11
324.8995351732
 21
276.8402988471
  0
LINE
  5
245
100
AcDbEntity
  8
02___PRT_ALL_AXES
100
AcDbLine
 62
7
  6
CONTINUOUS
 10
534.8689341836
 20
279.8402988471
 11
532.8693215637
 21
279.8402988471
  0
LINE
  5
246
100
AcDbEntity
  8
02___PRT_ALL_AXES
100
AcDbLine
 62
7
  6
CONTINUOUS
 10
326.8991477931
 20
279.8402988471
 11
324.8995351732
 21
279.8402988471
  0
LINE
  5
247
100
AcDbEntity
  8
0
100
AcDbLine
 62
7
  6
CONTINUOUS
 10
309.9544922896
 20
485.0943759219
 11
309.8842346784
 21
485.4881574198
  0
LINE
  5
248
100
AcDbEntity
  8
0
100
AcDbLine
 62
7
  6
CONTINUOUS
 10
320.8842346784
 20
475.3158076251
 11
320.8842346784
 21
476.8158076251
  0
LINE
  5
249
100
AcDbEntity
  8
0
100
AcDbLine
 62
7
  6
CONTINUOUS
 10
321.2842346784
 20
475.3158076251
 11
321.2842346784
 21
476.8158076251
  0
LINE
  5
24A
100
AcDbEntity
  8
02___PRT_ALL_AXES
100
AcDbLine
 62
7
  6
CONTINUOUS
 10
322.8305495056
 20
478.1534760144
 11
322.8305495056
 21
483.4684510649
  0
LINE
  5
24B
100
AcDbEntity
  8
02___PRT_ALL_AXES
100
AcDbLine
 62
7
  6
CONTINUOUS
 10
323.2681507474
 20
477.8469014836
 11
323.2681507474
 21
483.7750255957
  0
LINE
  5
24C
100
AcDbEntity
  8
02___PRT_ALL_AXES
100
AcDbLine
 62
7
  6
CONTINUOUS
 10
324.2878347852
 20
479.3109635397
 11
324.2878347852
 21
482.3109635397
  0
LINE
  5
24D
100
AcDbEntity
  8
0
100
AcDbLine
 62
7
  6
CONTINUOUS
 10
324.4842346784
 20
485.9110145897
 11
324.4842346784
 21
482.4109635397
  0
LINE
  5
24E
100
AcDbEntity
  8
0
100
AcDbLine
 62
7
  6
CONTINUOUS
 10
324.4842346784
 20
479.2109635397
 11
324.4842346784
 21
475.3158076251
  0
LINE
  5
24F
100
AcDbEntity
  8
0
100
AcDbLine
 62
7
  6
CONTINUOUS
 10
324.8842346784
 20
485.8098832465
 11
324.8842346784
 21
482.4109635397
  0
LINE
  5
250
100
AcDbEntity
  8
0
100
AcDbLine
 62
7
  6
CONTINUOUS
 10
324.8842346784
 20
479.2109635397
 11
324.8842346784
 21
475.3158076251
  0
LINE
  5
251
100
AcDbEntity
  8
0
100
AcDbLine
 62
7
  6
CONTINUOUS
 10
326.8842346784
 20
484.1109635397
 11
326.8842346784
 21
482.4609635397
  0
LINE
  5
252
100
AcDbEntity
  8
0
100
AcDbLine
 62
7
  6
CONTINUOUS
 10
326.8842346784
 20
479.1609635397
 11
326.8842346784
 21
473.3109635397
  0
LINE
  5
253
100
AcDbEntity
  8
0
100
AcDbLine
 62
7
  6
CONTINUOUS
 10
327.2842346784
 20
484.4109635397
 11
327.2842346784
 21
482.4609635397
  0
LINE
  5
254
100
AcDbEntity
  8
0
100
AcDbLine
 62
7
  6
CONTINUOUS
 10
327.2842346784
 20
479.1609635397
 11
327.2842346784
 21
473.3109635397
  0
LINE
  5
255
100
AcDbEntity
  8
02___PRT_ALL_AXES
100
AcDbLine
 62
7
  6
CONTINUOUS
 10
327.2878347852
 20
479.3109635397
 11
327.2878347852
 21
482.3109635397
  0
LINE
  5
256
100
AcDbEntity
  8
02___PRT_ALL_AXES
100
AcDbLine
 62
7
  6
CONTINUOUS
 10
328.3072346784
 20
478.3914635397
 11
328.3072346784
 21
483.2304635397
  0
LINE
  5
257
100
AcDbEntity
  8
02___PRT_ALL_AXES
100
AcDbLine
 62
7
  6
CONTINUOUS
 10
324.2878347852
 20
479.3109635397
 11
323.2681507474
 21
477.8469014836
  0
LINE
  5
258
100
AcDbEntity
  8
02___PRT_ALL_AXES
100
AcDbLine
 62
7
  6
CONTINUOUS
 10
324.2878347852
 20
482.3109635397
 11
323.2681507474
 21
483.7750255957
  0
LINE
  5
259
100
AcDbEntity
  8
02___PRT_ALL_AXES
100
AcDbLine
 62
7
  6
CONTINUOUS
 10
328.3072346784
 20
483.2304635397
 11
327.2878347852
 21
482.3109635397
  0
LINE
  5
25A
100
AcDbEntity
  8
0
100
AcDbLine
 62
7
  6
CONTINUOUS
 10
327.4985621126
 20
473.7705902055
 11
327.2414470687
 21
474.0770079828
  0
LINE
  5
25B
100
AcDbEntity
  8
02___PRT_ALL_AXES
100
AcDbLine
 62
7
  6
CONTINUOUS
 10
323.2681507474
 20
483.7750255957
 11
322.8305495056
 21
483.4684510649
  0
LINE
  5
25C
100
AcDbEntity
  8
02___PRT_ALL_AXES
100
AcDbLine
 62
7
  6
CONTINUOUS
 10
328.3072346784
 20
478.3914635397
 11
327.2878347852
 21
479.3109635397
  0
LINE
  5
25D
100
AcDbEntity
  8
02___PRT_ALL_AXES
100
AcDbLine
 62
7
  6
CONTINUOUS
 10
323.2681507474
 20
477.8469014836
 11
322.8305495056
 21
478.1534760144
  0
LINE
  5
25E
100
AcDbEntity
  8
0
100
AcDbLine
 62
7
  6
CONTINUOUS
 10
327.8842346784
 20
472.3109635397
 11
364.2776738281
 21
472.3109635397
  0
LINE
  5
25F
100
AcDbEntity
  8
0
100
AcDbLine
 62
7
  6
CONTINUOUS
 10
495.4907955287
 20
472.3109635397
 11
531.8842346784
 21
472.3109635397
  0
LINE
  5
260
100
AcDbEntity
  8
0
100
AcDbLine
 62
7
  6
CONTINUOUS
 10
536.8842346784
 20
473.3158076251
 11
532.8842346784
 21
473.3158076251
  0
LINE
  5
261
100
AcDbEntity
  8
0
100
AcDbLine
 62
7
  6
CONTINUOUS
 10
326.8842346784
 20
473.3158076251
 11
322.8842346784
 21
473.3158076251
  0
LINE
  5
262
100
AcDbEntity
  8
0
100
AcDbLine
 62
7
  6
CONTINUOUS
 10
327.4985621126
 20
473.7705902055
 11
328.2693406629
 21
473.7705902055
  0
LINE
  5
263
100
AcDbEntity
  8
0
100
AcDbLine
 62
7
  6
CONTINUOUS
 10
531.4991286939
 20
473.7705902055
 11
532.2699072442
 21
473.7705902055
  0
LINE
  5
264
100
AcDbEntity
  8
0
100
AcDbLine
 62
7
  6
CONTINUOUS
 10
327.8842346784
 20
474.3109635397
 11
358.4165684606
 21
474.3109635397
  0
LINE
  5
265
100
AcDbEntity
  8
0
100
AcDbLine
 62
7
  6
CONTINUOUS
 10
501.3519008962
 20
474.3109635397
 11
531.8842346784
 21
474.3109635397
  0
LINE
  5
266
100
AcDbEntity
  8
0
100
AcDbLine
 62
7
  6
CONTINUOUS
 10
538.8842346784
 20
476.8158076251
 11
535.2842346784
 21
476.8158076251
  0
LINE
  5
267
100
AcDbEntity
  8
0
100
AcDbLine
 62
7
  6
CONTINUOUS
 10
324.4842346784
 20
476.8158076251
 11
320.8842346784
 21
476.8158076251
  0
LINE
  5
268
100
AcDbEntity
  8
0
100
AcDbLine
 62
7
  6
CONTINUOUS
 10
326.8842346784
 20
479.1609635397
 11
327.2842346784
 21
479.1609635397
  0
LINE
  5
269
100
AcDbEntity
  8
0
100
AcDbLine
 62
7
  6
CONTINUOUS
 10
532.4842346784
 20
479.1609635397
 11
532.8842346784
 21
479.1609635397
  0
LINE
  5
26A
100
AcDbEntity
  8
0
100
AcDbLine
 62
7
  6
CONTINUOUS
 10
324.4842346784
 20
479.2109635397
 11
324.8842346784
 21
479.2109635397
  0
LINE
  5
26B
100
AcDbEntity
  8
0
100
AcDbLine
 62
7
  6
CONTINUOUS
 10
534.8842346784
 20
479.2109635397
 11
535.2842346784
 21
479.2109635397
  0
LINE
  5
26C
100
AcDbEntity
  8
02___PRT_ALL_AXES
100
AcDbLine
 62
7
  6
CONTINUOUS
 10
327.2878347852
 20
479.3109635397
 11
324.2878347852
 21
479.3109635397
  0
LINE
  5
26D
100
AcDbEntity
  8
0
100
AcDbLine
 62
7
  6
CONTINUOUS
 10
532.4806345716
 20
479.3109635397
 11
535.4806345716
 21
479.3109635397
  0
LINE
  5
26E
100
AcDbEntity
  8
0
100
AcDbLine
 62
7
  6
CONTINUOUS
 10
532.4695481127
 20
479.8549635397
 11
535.7528746799
 21
479.8549635397
  0
LINE
  5
26F
100
AcDbEntity
  8
0
100
AcDbLine
 62
7
  6
CONTINUOUS
 10
532.4695481127
 20
481.7669635397
 11
535.7528746799
 21
481.7669635397
  0
LINE
  5
270
100
AcDbEntity
  8
02___PRT_ALL_AXES
100
AcDbLine
 62
7
  6
CONTINUOUS
 10
327.2878347852
 20
482.3109635397
 11
324.2878347852
 21
482.3109635397
  0
LINE
  5
271
100
AcDbEntity
  8
0
100
AcDbLine
 62
7
  6
CONTINUOUS
 10
532.4806345716
 20
482.3109635397
 11
535.4806345716
 21
482.3109635397
  0
LINE
  5
272
100
AcDbEntity
  8
0
100
AcDbLine
 62
7
  6
CONTINUOUS
 10
324.4842346784
 20
482.4109635397
 11
324.8842346784
 21
482.4109635397
  0
LINE
  5
273
100
AcDbEntity
  8
0
100
AcDbLine
 62
7
  6
CONTINUOUS
 10
534.8842346784
 20
482.4109635397
 11
535.2842346784
 21
482.4109635397
  0
LINE
  5
274
100
AcDbEntity
  8
0
100
AcDbLine
 62
7
  6
CONTINUOUS
 10
326.8842346784
 20
482.4609635397
 11
327.2842346784
 21
482.4609635397
  0
LINE
  5
275
100
AcDbEntity
  8
0
100
AcDbLine
 62
7
  6
CONTINUOUS
 10
532.4842346784
 20
482.4609635397
 11
532.8842346784
 21
482.4609635397
  0
LINE
  5
276
100
AcDbEntity
  8
0
100
AcDbLine
 62
7
  6
CONTINUOUS
 10
323.8842346784
 20
486.8098832465
 11
323.8723863372
 21
486.8098130525
  0
LINE
  5
277
100
AcDbEntity
  8
0
100
AcDbLine
 62
7
  6
CONTINUOUS
 10
323.9842671859
 20
486.4110113337
 11
323.9789092346
 21
486.4109862286
  0
LINE
  5
278
100
AcDbEntity
  8
0
100
AcDbLine
 62
7
  6
CONTINUOUS
 10
327.7842346784
 20
484.9109635397
 11
333.668851293
 21
484.9109635397
  0
LINE
  5
279
100
AcDbEntity
  8
0
100
AcDbLine
 62
7
  6
CONTINUOUS
 10
526.0996180638
 20
484.9109635397
 11
531.9842346784
 21
484.9109635397
  0
LINE
  5
27A
100
AcDbEntity
  8
0
100
AcDbLine
 62
7
  6
CONTINUOUS
 10
309.9544922896
 20
485.0943759219
 11
324.4842346784
 21
485.0943759219
  0
LINE
  5
27B
100
AcDbEntity
  8
0
100
AcDbLine
 62
7
  6
CONTINUOUS
 10
535.2842346784
 20
485.0943759219
 11
549.8139770672
 21
485.0943759219
  0
LINE
  5
27C
100
AcDbEntity
  8
0
100
AcDbLine
 62
7
  6
CONTINUOUS
 10
328.0842346784
 20
485.3109635397
 11
531.6842346784
 21
485.3109635397
  0
LINE
  5
27D
100
AcDbEntity
  8
0
100
AcDbLine
 62
7
  6
CONTINUOUS
 10
323.9062902903
 20
486.8098832465
 11
535.8621790665
 21
486.8098832465
  0
LINE
  5
27E
100
AcDbEntity
  8
0
100
AcDbLine
 62
7
  6
CONTINUOUS
 10
535.7842021709
 20
486.4110113337
 11
535.7895601222
 21
486.4109862286
  0
LINE
  5
27F
100
AcDbEntity
  8
0
100
AcDbLine
 62
7
  6
CONTINUOUS
 10
535.8841846294
 20
486.8098791124
 11
535.8960830196
 21
486.8098130525
  0
LINE
  5
280
100
AcDbEntity
  8
0
100
AcDbLine
 62
7
  6
CONTINUOUS
 10
531.4612346784
 20
478.9454635397
 11
532.4695481127
 21
479.8549635397
  0
LINE
  5
281
100
AcDbEntity
  8
0
100
AcDbLine
 62
7
  6
CONTINUOUS
 10
531.4612346784
 20
478.3914635397
 11
532.4806345716
 21
479.3109635397
  0
LINE
  5
282
100
AcDbEntity
  8
0
100
AcDbLine
 62
7
  6
CONTINUOUS
 10
536.5003186094
 20
477.8469014836
 11
536.9379198512
 21
478.1534760144
  0
LINE
  5
283
100
AcDbEntity
  8
0
100
AcDbLine
 62
7
  6
CONTINUOUS
 10
536.5003186094
 20
483.7750255957
 11
536.9379198512
 21
483.4684510649
  0
LINE
  5
284
100
AcDbEntity
  8
0
100
AcDbLine
 62
7
  6
CONTINUOUS
 10
532.2699072442
 20
473.7705902055
 11
532.5270222881
 21
474.0770079828
  0
LINE
  5
285
100
AcDbEntity
  8
0
100
AcDbLine
 62
7
  6
CONTINUOUS
 10
531.4612346784
 20
482.6764635397
 11
532.4695481127
 21
481.7669635397
  0
LINE
  5
286
100
AcDbEntity
  8
0
100
AcDbLine
 62
7
  6
CONTINUOUS
 10
531.4612346784
 20
483.2304635397
 11
532.4806345716
 21
482.3109635397
  0
LINE
  5
287
100
AcDbEntity
  8
0
100
AcDbLine
 62
7
  6
CONTINUOUS
 10
535.4806345716
 20
482.3109635397
 11
536.5003186094
 21
483.7750255957
  0
LINE
  5
288
100
AcDbEntity
  8
0
100
AcDbLine
 62
7
  6
CONTINUOUS
 10
535.7528746799
 20
481.7669635397
 11
536.9379198512
 21
483.4684510649
  0
LINE
  5
289
100
AcDbEntity
  8
0
100
AcDbLine
 62
7
  6
CONTINUOUS
 10
535.4806345716
 20
479.3109635397
 11
536.5003186094
 21
477.8469014836
  0
LINE
  5
28A
100
AcDbEntity
  8
0
100
AcDbLine
 62
7
  6
CONTINUOUS
 10
535.7528746799
 20
479.8549635397
 11
536.9379198512
 21
478.1534760144
  0
LINE
  5
28B
100
AcDbEntity
  8
0
100
AcDbLine
 62
7
  6
CONTINUOUS
 10
531.4612346784
 20
478.3914635397
 11
531.4612346784
 21
483.2304635397
  0
LINE
  5
28C
100
AcDbEntity
  8
0
100
AcDbLine
 62
7
  6
CONTINUOUS
 10
532.4695481127
 20
479.8549635397
 11
532.4695481127
 21
481.7669635397
  0
LINE
  5
28D
100
AcDbEntity
  8
0
100
AcDbLine
 62
7
  6
CONTINUOUS
 10
532.4842346784
 20
484.4109635397
 11
532.4842346784
 21
482.4609635397
  0
LINE
  5
28E
100
AcDbEntity
  8
0
100
AcDbLine
 62
7
  6
CONTINUOUS
 10
532.4842346784
 20
479.1609635397
 11
532.4842346784
 21
473.3109635397
  0
LINE
  5
28F
100
AcDbEntity
  8
0
100
AcDbLine
 62
7
  6
CONTINUOUS
 10
532.8842346784
 20
484.1109635397
 11
532.8842346784
 21
482.4609635397
  0
LINE
  5
290
100
AcDbEntity
  8
0
100
AcDbLine
 62
7
  6
CONTINUOUS
 10
532.8842346784
 20
479.1609635397
 11
532.8842346784
 21
473.3109635397
  0
LINE
  5
291
100
AcDbEntity
  8
0
100
AcDbLine
 62
7
  6
CONTINUOUS
 10
534.8842346784
 20
485.8098832465
 11
534.8842346784
 21
482.4109635397
  0
LINE
  5
292
100
AcDbEntity
  8
0
100
AcDbLine
 62
7
  6
CONTINUOUS
 10
534.8842346784
 20
479.2109635397
 11
534.8842346784
 21
475.3158076251
  0
LINE
  5
293
100
AcDbEntity
  8
0
100
AcDbLine
 62
7
  6
CONTINUOUS
 10
535.2842346784
 20
485.9110145897
 11
535.2842346784
 21
482.4109635397
  0
LINE
  5
294
100
AcDbEntity
  8
0
100
AcDbLine
 62
7
  6
CONTINUOUS
 10
535.2842346784
 20
479.2109635397
 11
535.2842346784
 21
475.3158076251
  0
LINE
  5
295
100
AcDbEntity
  8
0
100
AcDbLine
 62
7
  6
CONTINUOUS
 10
535.7528746799
 20
479.8549635397
 11
535.7528746799
 21
481.7669635397
  0
LINE
  5
296
100
AcDbEntity
  8
0
100
AcDbLine
 62
7
  6
CONTINUOUS
 10
536.9379198512
 20
478.1534760144
 11
536.9379198512
 21
483.4684510649
  0
LINE
  5
297
100
AcDbEntity
  8
0
100
AcDbLine
 62
7
  6
CONTINUOUS
 10
538.4842346784
 20
475.3158076251
 11
538.4842346784
 21
476.8158076251
  0
LINE
  5
298
100
AcDbEntity
  8
0
100
AcDbLine
 62
7
  6
CONTINUOUS
 10
538.8842346784
 20
475.3158076251
 11
538.8842346784
 21
476.8158076251
  0
LINE
  5
299
100
AcDbEntity
  8
0
100
AcDbLine
 62
7
  6
CONTINUOUS
 10
549.8139770672
 20
485.0943759219
 11
549.8842346784
 21
485.4881574198
  0
CIRCLE
  5
29A
100
AcDbEntity
  8
02___PRT_ALL_AXES
100
AcDbCircle
 62
3
  6
CONTINUOUS
 10
429.8842346784
 20
278.3402988471
 40
120.0
  0
CIRCLE
  5
29B
100
AcDbEntity
  8
0
100
AcDbCircle
 62
3
  6
CONTINUOUS
 10
429.8842346784
 20
278.3402988471
 40
105.0
  0
CIRCLE
  5
29C
100
AcDbEntity
  8
0
100
AcDbCircle
 62
3
  6
CONTINUOUS
 10
429.8842346784
 20
278.3402988471
 40
103.0
  0
ARC
  5
29D
100
AcDbEntity
  8
0
100
AcDbCircle
 62
7
  6
CONTINUOUS
 10
324.8842346784
 20
401.4158076251
 40
85.4
100
AcDbArc
 50
90.6788758313
 51
100.1161387327
  0
ARC
  5
29E
100
AcDbEntity
  8
0
100
AcDbCircle
 62
7
  6
CONTINUOUS
 10
324.8842346784
 20
401.4158076251
 40
85.0
100
AcDbArc
 50
90.6102624446
 51
100.1161387327
  0
ARC
  5
29F
100
AcDbEntity
  8
0
100
AcDbCircle
 62
7
  6
CONTINUOUS
 10
322.8842346784
 20
475.3158076251
 40
2.0
100
AcDbArc
 50
180.0
 51
360.0
  0
ARC
  5
2A0
100
AcDbEntity
  8
0
100
AcDbCircle
 62
7
  6
CONTINUOUS
 10
322.8842346784
 20
475.3158076251
 40
1.6
100
AcDbArc
 50
180.0
 51
360.0
  0
ARC
  5
2A1
100
AcDbEntity
  8
0
100
AcDbCircle
 62
7
  6
CONTINUOUS
 10
328.0842346784
 20
484.1109635397
 40
1.2
100
AcDbArc
 50
90.0
 51
180.0
  0
ARC
  5
2A2
100
AcDbEntity
  8
0
100
AcDbCircle
 62
7
  6
CONTINUOUS
 10
323.8842346784
 20
485.8098832465
 40
1.0
100
AcDbArc
 50
0.0
 51
89.997132391
  0
ARC
  5
2A3
100
AcDbEntity
  8
0
100
AcDbCircle
 62
7
  6
CONTINUOUS
 10
327.8842346784
 20
473.3109635397
 40
1.0
100
AcDbArc
 50
180.0
 51
130.0
  0
ARC
  5
2A4
100
AcDbEntity
  8
0
100
AcDbCircle
 62
7
  6
CONTINUOUS
 10
327.8842346784
 20
473.3109635397
 40
0.6
100
AcDbArc
 50
180.0
 51
130.0
  0
ARC
  5
2A5
100
AcDbEntity
  8
0
100
AcDbCircle
 62
7
  6
CONTINUOUS
 10
323.9842346784
 20
485.9110145897
 40
0.5
100
AcDbArc
 50
0.0
 51
89.9962748858
  0
ARC
  5
2A6
100
AcDbEntity
  8
0
100
AcDbCircle
 62
7
  6
CONTINUOUS
 10
327.7842346784
 20
484.4109635397
 40
0.5
100
AcDbArc
 50
90.0
 51
180.0
  0
ARC
  5
2A7
100
AcDbEntity
  8
0
100
AcDbCircle
 62
7
  6
CONTINUOUS
 10
333.5971638952
 20
484.1109635397
 40
1.2
100
AcDbArc
 50
63.1311051888
 51
90.0
  0
ARC
  5
2A8
100
AcDbEntity
  8
0
100
AcDbCircle
 62
7
  6
CONTINUOUS
 10
333.668851293
 20
484.4109635397
 40
0.5
100
AcDbArc
 50
63.1118124301
 51
90.0
  0
ARC
  5
2A9
100
AcDbEntity
  8
0
100
AcDbCircle
 62
7
  6
CONTINUOUS
 10
526.1713054616
 20
484.1109635397
 40
1.2
100
AcDbArc
 50
90.0
 51
116.8688948112
  0
ARC
  5
2AA
100
AcDbEntity
  8
0
100
AcDbCircle
 62
7
  6
CONTINUOUS
 10
526.0996180638
 20
484.4109635397
 40
0.5
100
AcDbArc
 50
90.0
 51
116.8881875699
  0
ARC
  5
2AB
100
AcDbEntity
  8
0
100
AcDbCircle
 62
7
  6
CONTINUOUS
 10
534.8842346784
 20
401.4158076251
 40
85.4
100
AcDbArc
 50
79.8838612673
 51
89.3211241687
  0
ARC
  5
2AC
100
AcDbEntity
  8
0
100
AcDbCircle
 62
7
  6
CONTINUOUS
 10
534.8842346784
 20
401.4158076251
 40
85.0
100
AcDbArc
 50
79.8838612673
 51
89.3897375554
  0
ARC
  5
2AD
100
AcDbEntity
  8
0
100
AcDbCircle
 62
7
  6
CONTINUOUS
 10
536.8842346784
 20
475.3158076251
 40
2.0
100
AcDbArc
 50
180.0
 51
360.0
  0
ARC
  5
2AE
100
AcDbEntity
  8
0
100
AcDbCircle
 62
7
  6
CONTINUOUS
 10
536.8842346784
 20
475.3158076251
 40
1.6
100
AcDbArc
 50
180.0
 51
360.0
  0
ARC
  5
2AF
100
AcDbEntity
  8
0
100
AcDbCircle
 62
7
  6
CONTINUOUS
 10
531.6842346784
 20
484.1109635397
 40
1.2
100
AcDbArc
 50
0.0
 51
90.0
  0
ARC
  5
2B0
100
AcDbEntity
  8
0
100
AcDbCircle
 62
7
  6
CONTINUOUS
 10
535.8842346784
 20
485.8098832465
 40
1.0
100
AcDbArc
 50
90.002867609
 51
180.0
  0
ARC
  5
2B1
100
AcDbEntity
  8
0
100
AcDbCircle
 62
7
  6
CONTINUOUS
 10
531.8842346784
 20
473.3109635397
 40
1.0
100
AcDbArc
 50
50.0
 51
360.0
  0
ARC
  5
2B2
100
AcDbEntity
  8
0
100
AcDbCircle
 62
7
  6
CONTINUOUS
 10
531.8842346784
 20
473.3109635397
 40
0.6
100
AcDbArc
 50
50.0
 51
360.0
  0
ARC
  5
2B3
100
AcDbEntity
  8
0
100
AcDbCircle
 62
7
  6
CONTINUOUS
 10
535.7842346784
 20
485.9110145897
 40
0.5
100
AcDbArc
 50
90.0037251142
 51
180.0
  0
ARC
  5
2B4
100
AcDbEntity
  8
0
100
AcDbCircle
 62
7
  6
CONTINUOUS
 10
531.9842346784
 20
484.4109635397
 40
0.5
100
AcDbArc
 50
0.0
 51
90.0
  0
ARC
  5
2B5
100
AcDbEntity
  8
0
100
AcDbCircle
 62
7
  6
CONTINUOUS
 10
429.8842346784
 20
674.1587896266
 40
212.247826087
100
AcDbArc
 50
243.1118124301
 51
296.8881875699
  0
ARC
  5
2B6
100
AcDbEntity
  8
0
100
AcDbCircle
 62
7
  6
CONTINUOUS
 10
429.8842346784
 20
674.1587896266
 40
211.847826087
100
AcDbArc
 50
243.1311051888
 51
296.8688948112
  0
LINE
  5
2B7
100
AcDbEntity
  8
0
100
AcDbLine
 62
7
  6
CONTINUOUS
 10
535.2842346784
 20
482.4109635397
 11
535.2827712451
 21
482.311467243
  0
LINE
  5
2B8
100
AcDbEntity
  8
0
100
AcDbLine
 62
7
  6
CONTINUOUS
 10
535.2827712264
 20
479.3104611621
 11
535.2842346784
 21
479.2109635397
  0
LINE
  5
2B9
100
AcDbEntity
  8
0
100
AcDbLine
 62
7
  6
CONTINUOUS
 10
324.4842346784
 20
479.2109635397
 11
324.48569813
 21
479.3104611313
  0
LINE
  5
2BA
100
AcDbEntity
  8
0
100
AcDbLine
 62
7
  6
CONTINUOUS
 10
324.4856981158
 20
482.3114669478
 11
324.4842346784
 21
482.4109635397
  0
LINE
  5
2BB
100
AcDbEntity
  8
0
100
AcDbLine
 62
7
  6
CONTINUOUS
 10
534.8842346784
 20
479.2109635397
 11
534.8827656512
 21
479.3104611612
  0
LINE
  5
2BC
100
AcDbEntity
  8
0
100
AcDbLine
 62
7
  6
CONTINUOUS
 10
534.8827656701
 20
482.3114672439
 11
534.8842346784
 21
482.4109635397
  0
LINE
  5
2BD
100
AcDbEntity
  8
0
100
AcDbLine
 62
7
  6
CONTINUOUS
 10
324.8842346784
 20
482.4109635397
 11
324.8857036909
 21
482.3114669486
  0
LINE
  5
2BE
100
AcDbEntity
  8
0
100
AcDbLine
 62
7
  6
CONTINUOUS
 10
324.8857037051
 20
479.3104611304
 11
324.8842346784
 21
479.2109635397
  0
LINE
  5
2BF
100
AcDbEntity
  8
0
100
AcDbLine
 62
7
  6
CONTINUOUS
 10
532.8842346784
 20
482.4609635397
 11
532.8819442334
 21
482.3111881496
  0
LINE
  5
2C0
100
AcDbEntity
  8
0
100
AcDbLine
 62
7
  6
CONTINUOUS
 10
532.8819428477
 20
479.3108341217
 11
532.8842346784
 21
479.1609635397
  0
LINE
  5
2C1
100
AcDbEntity
  8
0
100
AcDbLine
 62
7
  6
CONTINUOUS
 10
326.8842346784
 20
479.1609635397
 11
326.8865265121
 21
479.3108343339
  0
LINE
  5
2C2
100
AcDbEntity
  8
0
100
AcDbLine
 62
7
  6
CONTINUOUS
 10
326.8865251053
 20
482.3111893988
 11
326.8842346784
 21
482.4609635397
  0
LINE
  5
2C3
100
AcDbEntity
  8
0
100
AcDbLine
 62
7
  6
CONTINUOUS
 10
532.4842346784
 20
479.1609635397
 11
532.4824205697
 21
479.2779102982
  0
LINE
  5
2C4
100
AcDbEntity
  8
0
100
AcDbLine
 62
7
  6
CONTINUOUS
 10
532.4824205697
 20
479.2779102982
 11
532.4819339125
 21
479.3108341255
  0
LINE
  5
2C5
100
AcDbEntity
  8
0
100
AcDbLine
 62
7
  6
CONTINUOUS
 10
532.4819353035
 20
482.3111881475
 11
532.4823963002
 21
482.3423916995
  0
LINE
  5
2C6
100
AcDbEntity
  8
0
100
AcDbLine
 62
7
  6
CONTINUOUS
 10
532.4823963002
 20
482.3423916995
 11
532.4842346784
 21
482.4609635397
  0
LINE
  5
2C7
100
AcDbEntity
  8
0
100
AcDbLine
 62
7
  6
CONTINUOUS
 10
327.2842346784
 20
482.4609635397
 11
327.2860733711
 21
482.3423706298
  0
LINE
  5
2C8
100
AcDbEntity
  8
0
100
AcDbLine
 62
7
  6
CONTINUOUS
 10
327.2860733711
 20
482.3423706298
 11
327.286534035
 21
482.3111893967
  0
LINE
  5
2C9
100
AcDbEntity
  8
0
100
AcDbLine
 62
7
  6
CONTINUOUS
 10
327.2865354474
 20
479.3108343377
 11
327.2860487434
 21
479.2779073761
  0
LINE
  5
2CA
100
AcDbEntity
  8
0
100
AcDbLine
 62
7
  6
CONTINUOUS
 10
327.2860487434
 20
479.2779073761
 11
327.2842346784
 21
479.1609635397
  0
ENDSEC
  0
SECTION
  2
OBJECTS
  0
DICTIONARY
  5
C
100
AcDbDictionary
280
0
281
1
  3
ACAD_GROUP
350
D
  3
ACAD_MLINESTYLE
350
17
  3
ACAD_LAYOUT
350
1A
  3
ACAD_PLOTSETTINGS
350
19
  3
ACAD_PLOTSTYLENAME
350
E
  0
DICTIONARY
  5
D
102
{ACAD_REACTORS
330
C
102
}
100
AcDbDictionary
280
0
281
1
  0
ACDBDICTIONARYWDFLT
  5
E
102
{ACAD_REACTORS
330
C
102
}
100
AcDbDictionary
281
1
  3
Normal
350
F
100
AcDbDictionaryWithDefault
340
F
  0
DICTIONARY
  5
17
102
{ACAD_REACTORS
330
C
102
}
100
AcDbDictionary
280
0
281
1
  3
Standard
350
18
  0
DICTIONARY
  5
19
102
{ACAD_REACTORS
330
C
102
}
100
AcDbDictionary
281
1
  0
DICTIONARY
  5
1A
102
{ACAD_REACTORS
330
C
102
}
100
AcDbDictionary
281
1
  3
Model
350
2CB
  3
Layout1
350
2CC
  0
ACDBPLACEHOLDER
  5
F
102
{ACAD_REACTORS
330
E
102
}
  0
MLINESTYLE
  5
18
102
{ACAD_REACTORS
330
17
102
}
100
AcDbMlineStyle
  2
STANDARD
 70
0
  3

 62
256
 51
90.0
 52
90.0
 71
2
 49
0.5
 62
256
  6
BYLAYER
 49
-0.5
 62
256
  6
BYLAYER
  0
LAYOUT
  5
2CB
102
{ACAD_REACTORS
330
1A
102
}
100
AcDbPlotSettings
  1

  2
none_device
  4

  6

 40
0.0
 41
0.0
 42
0.0
 43
0.0
 44
875.0
 45
628.0
 46
0.0
 47
0.0
 48
0.0
 49
0.0
140
0.0
141
0.0
142
1.0
143
1.0
 70
1024
 72
1
 73
0
 74
0
  7

 75
0
147
1.0
148
0.0
149
0.0
100
AcDbLayout
  1
Model
 70
0
 71
0
 10
0.0
 20
0.0
 11
875.0
 21
628.0
 12
0.0
 22
0.0
 32
0.0
 14
0.0
 24
0.0
 34
0.0
 15
0.0
 25
0.0
 35
0.0
146
0.0
 13
0.0
 23
0.0
 33
0.0
 16
1.0
 26
0.0
 36
0.0
 17
0.0
 27
1.0
 37
0.0
 76
0
330
216
345
0
346
0
  0
LAYOUT
  5
2CC
102
{ACAD_REACTORS
330
1A
102
}
100
AcDbPlotSettings
  1

  2
none_device
  4

  6

 40
0.0
 41
0.0
 42
0.0
 43
0.0
 44
875.0
 45
628.0
 46
0.0
 47
0.0
 48
0.0
 49
0.0
140
0.0
141
0.0
142
1.0
143
1.0
 70
0
 72
1
 73
0
 74
0
  7

 75
0
147
1.0
148
0.0
149
0.0
100
AcDbLayout
  1
Layout1
 70
0
 71
1
 10
0.0
 20
0.0
 11
875.0
 21
628.0
 12
0.0
 22
0.0
 32
0.0
 14
0.0
 24
0.0
 34
0.0
 15
0.0
 25
0.0
 35
0.0
146
0.0
 13
0.0
 23
0.0
 33
0.0
 16
1.0
 26
0.0
 36
0.0
 17
0.0
 27
1.0
 37
0.0
 76
0
330
217
345
0
346
0
  0
ENDSEC
  0
EOF
