999
DXF file: W:\Engenharia\Produtos\Cachepô\94540718\94540718.dxf
999
Pro/ENGINEER 2012230 by Parametric Technology Corporation
  0
SECTION
  2
HEADER
  9
$ACADVER
  1
AC1021
  9
$DWGCODEPAGE
  3
ANSI_1252
  9
$EXTMAX
 10
900.0
 20
1000.0
 30
0.0
  9
$EXTMIN
 10
0.0
 20
0.0
 30
0.0
  9
$LIMMIN
 10
0.0
 20
0.0
  9
$LIMMAX
 10
900.0
 20
1000.0
  9
$VIEWCTR
 10
450.0
 20
500.0
  9
$VIEWSIZE
 40
1000.0
  9
$CLAYER
  8
0
  9
$LTSCALE
 40
65.1851851852
  9
$CELTYPE
  6
BYLAYER
  9
$DIMSCALE
 40
1.0
  9
$DIMASZ
 40
3.0
  9
$DIMEXO
 40
0.5
  9
$DIMDLI
 40
45.037037037
  9
$DIMEXE
 40
0.5
  9
$DIMCEN
 40
10.6666666667
  9
$DIMLFAC
 40
1.0
  9
$DIMBLK
  1
_FILLED
  9
$DIMTXT
 40
1.8
  9
$DIMTOL
 70
1
  9
$DIMLIM
 70
0
  9
$DIMTFAC
 40
1.0
  9
$DIMTP
 40
0.001
  9
$DIMTM
 40
0.001
  9
$DIMGAP
 40
0.625
  9
$DIMDSEP
 70
46
  9
$PDMODE
 70
3
  9
$PDSIZE
 40
1.0
  9
$HANDSEED
  5
376
  9
$TILEMODE
 70
1
  9
$MEASUREMENT
 70
1
  9
$INSUNITS
 70
4
  0
ENDSEC
  0
SECTION
  2
CLASSES
  0
CLASS
  1
ACDBDICTIONARYWDFLT
  2
AcDbDictionaryWithDefault
  3
AutoCAD 2000
 90
0
 91
1
280
0
281
0
  0
CLASS
  1
ACDBPLACEHOLDER
  2
AcDbPlaceHolder
  3
AutoCAD 2000
 90
0
 91
1
280
0
281
0
  0
CLASS
  1
LAYOUT
  2
AcDbLayout
  3
AutoCAD 2000
 90
0
 91
0
280
0
281
0
  0
ENDSEC
  0
SECTION
  2
TABLES
  0
TABLE
  2
VPORT
  5
8
100
AcDbSymbolTable
 70
2
  0
VPORT
  5
1F4
100
AcDbSymbolTableRecord
100
AcDbViewportTableRecord
  2
*ACTIVE
 70
0
 10
0.0
 20
0.0
 11
1.0
 21
1.0
 12
450.0
 22
500.0
 13
0.0
 23
0.0
 14
1.0
 24
1.0
 15
0.0
 25
0.0
 16
0.0
 26
0.0
 36
1.0
 17
0.0
 27
0.0
 37
0.0
 40
1000.0
 41
0.9
 42
50.0
 43
0.0
 44
0.0
 50
0.0
 51
0.0
 71
0
 72
100
 73
1
 74
1
 75
0
 76
0
 77
0
 78
0
  0
ENDTAB
  0
TABLE
  2
LTYPE
  5
5
100
AcDbSymbolTable
 70
6
  0
LTYPE
  5
14
100
AcDbSymbolTableRecord
100
AcDbLinetypeTableRecord
  2
BYBLOCK
 70
0
  3

 72
65
 73
0
 40
0.0
  0
LTYPE
  5
15
100
AcDbSymbolTableRecord
100
AcDbLinetypeTableRecord
  2
BYLAYER
 70
0
  3

 72
65
 73
0
 40
0.0
  0
LTYPE
  5
16
100
AcDbSymbolTableRecord
100
AcDbLinetypeTableRecord
  2
CONTINUOUS
 70
64
  3
Solid line
 72
65
 73
0
 40
0.0
  0
LTYPE
  5
1F5
100
AcDbSymbolTableRecord
100
AcDbLinetypeTableRecord
  2
CENTER
 70
64
  3
____ _ ____ _ ____ _ ____ _ ____ _ ____ _ ____
 72
65
 73
4
 40
0.6
 49
0.375
 74
0
 49
-0.075
 74
0
 49
0.075
 74
0
 49
-0.075
 74
0
  0
LTYPE
  5
1F6
100
AcDbSymbolTableRecord
100
AcDbLinetypeTableRecord
  2
HIDDEN
 70
64
  3
- - - - - - - - - - - - - - - - - - - -
 72
65
 73
2
 40
0.2
 49
0.1
 74
0
 49
-0.1
 74
0
  0
LTYPE
  5
1F7
100
AcDbSymbolTableRecord
100
AcDbLinetypeTableRecord
  2
PHANTOM
 70
64
  3
_____ _ _ _____ _ _ _____ _ _ _____
 72
65
 73
6
 40
0.8
 49
0.45
 74
0
 49
-0.05
 74
0
 49
0.1
 74
0
 49
-0.05
 74
0
 49
0.1
 74
0
 49
-0.05
 74
0
  0
LTYPE
  5
1F8
100
AcDbSymbolTableRecord
100
AcDbLinetypeTableRecord
  2
DOT
 70
64
  3
. . . . . . . . . . . . . . . . . . . .
 72
65
 73
2
 40
0.2
 49
0.1
 74
0
 49
-0.1
 74
0
  0
LTYPE
  5
1F9
100
AcDbSymbolTableRecord
100
AcDbLinetypeTableRecord
  2
DASHED
 70
64
  3
- - - - - - - - - - - - - - - - - - - -
 72
65
 73
2
 40
0.2
 49
0.1
 74
0
 49
-0.1
 74
0
  0
ENDTAB
  0
TABLE
  2
LAYER
  5
2
100
AcDbSymbolTable
 70
36
  0
LAYER
  5
10
100
AcDbSymbolTableRecord
100
AcDbLayerTableRecord
  2
0
 70
0
 62
7
  6
CONTINUOUS
370
-3
390
F
  0
LAYER
  5
1FA
100
AcDbSymbolTableRecord
100
AcDbLayerTableRecord
  2
DEFAULT_1
 70
0
 62
7
  6
CENTER
370
-3
390
F
  0
LAYER
  5
1FB
100
AcDbSymbolTableRecord
100
AcDbLayerTableRecord
  2
DEFAULT_2
 70
0
 62
8
  6
HIDDEN
370
-3
390
F
  0
LAYER
  5
1FC
100
AcDbSymbolTableRecord
100
AcDbLayerTableRecord
  2
DEFAULT_3
 70
0
 62
7
  6
PHANTOM
370
-3
390
F
  0
LAYER
  5
1FD
100
AcDbSymbolTableRecord
100
AcDbLayerTableRecord
  2
01_ALL_DTM_PLN
 70
0
 62
7
  6
CONTINUOUS
370
-3
390
F
  0
LAYER
  5
1FE
100
AcDbSymbolTableRecord
100
AcDbLayerTableRecord
  2
01__ASM_ALL_DTM_PLN
 70
0
 62
7
  6
CONTINUOUS
370
-3
390
F
  0
LAYER
  5
1FF
100
AcDbSymbolTableRecord
100
AcDbLayerTableRecord
  2
01__ASM_DEF_DTM_PLN
 70
0
 62
7
  6
CONTINUOUS
370
-3
390
F
  0
LAYER
  5
200
100
AcDbSymbolTableRecord
100
AcDbLayerTableRecord
  2
01___PRT_ALL_DTM_PLN
 70
0
 62
7
  6
CONTINUOUS
370
-3
390
F
  0
LAYER
  5
201
100
AcDbSymbolTableRecord
100
AcDbLayerTableRecord
  2
01___PRT_DEF_DTM_PLN
 70
0
 62
7
  6
CONTINUOUS
370
-3
390
F
  0
LAYER
  5
202
100
AcDbSymbolTableRecord
100
AcDbLayerTableRecord
  2
02_ALL_AXES
 70
0
 62
7
  6
CONTINUOUS
370
-3
390
F
  0
LAYER
  5
203
100
AcDbSymbolTableRecord
100
AcDbLayerTableRecord
  2
02__ASM_ALL_AXES
 70
0
 62
7
  6
CONTINUOUS
370
-3
390
F
  0
LAYER
  5
204
100
AcDbSymbolTableRecord
100
AcDbLayerTableRecord
  2
02___PRT_ALL_AXES
 70
0
 62
7
  6
CONTINUOUS
370
-3
390
F
  0
LAYER
  5
205
100
AcDbSymbolTableRecord
100
AcDbLayerTableRecord
  2
03_ALL_CURVES
 70
0
 62
7
  6
CONTINUOUS
370
-3
390
F
  0
LAYER
  5
206
100
AcDbSymbolTableRecord
100
AcDbLayerTableRecord
  2
03__ASM_ALL_CURVES
 70
0
 62
7
  6
CONTINUOUS
370
-3
390
F
  0
LAYER
  5
207
100
AcDbSymbolTableRecord
100
AcDbLayerTableRecord
  2
03___PRT_ALL_CURVES
 70
0
 62
7
  6
CONTINUOUS
370
-3
390
F
  0
LAYER
  5
208
100
AcDbSymbolTableRecord
100
AcDbLayerTableRecord
  2
04_ALL_DTM_PNT
 70
0
 62
7
  6
CONTINUOUS
370
-3
390
F
  0
LAYER
  5
209
100
AcDbSymbolTableRecord
100
AcDbLayerTableRecord
  2
04__ASM_ALL_DTM_PNT
 70
0
 62
7
  6
CONTINUOUS
370
-3
390
F
  0
LAYER
  5
20A
100
AcDbSymbolTableRecord
100
AcDbLayerTableRecord
  2
04___PRT_ALL_DTM_PNT
 70
0
 62
7
  6
CONTINUOUS
370
-3
390
F
  0
LAYER
  5
20B
100
AcDbSymbolTableRecord
100
AcDbLayerTableRecord
  2
05_ALL_DTM_CSYS
 70
0
 62
7
  6
CONTINUOUS
370
-3
390
F
  0
LAYER
  5
20C
100
AcDbSymbolTableRecord
100
AcDbLayerTableRecord
  2
05__ASM_ALL_DTM_CSYS
 70
0
 62
7
  6
CONTINUOUS
370
-3
390
F
  0
LAYER
  5
20D
100
AcDbSymbolTableRecord
100
AcDbLayerTableRecord
  2
05__ASM_DEF_DTM_CSYS
 70
0
 62
7
  6
CONTINUOUS
370
-3
390
F
  0
LAYER
  5
20E
100
AcDbSymbolTableRecord
100
AcDbLayerTableRecord
  2
05___PRT_ALL_DTM_CSYS
 70
0
 62
7
  6
CONTINUOUS
370
-3
390
F
  0
LAYER
  5
20F
100
AcDbSymbolTableRecord
100
AcDbLayerTableRecord
  2
05___PRT_DEF_DTM_CSYS
 70
0
 62
7
  6
CONTINUOUS
370
-3
390
F
  0
LAYER
  5
210
100
AcDbSymbolTableRecord
100
AcDbLayerTableRecord
  2
06_ALL_SURFS
 70
0
 62
7
  6
CONTINUOUS
370
-3
390
F
  0
LAYER
  5
211
100
AcDbSymbolTableRecord
100
AcDbLayerTableRecord
  2
06__ASM_ALL_SURFS
 70
0
 62
7
  6
CONTINUOUS
370
-3
390
F
  0
LAYER
  5
212
100
AcDbSymbolTableRecord
100
AcDbLayerTableRecord
  2
06___PRT_ALL_SURFS
 70
0
 62
7
  6
CONTINUOUS
370
-3
390
F
  0
LAYER
  5
213
100
AcDbSymbolTableRecord
100
AcDbLayerTableRecord
  2
07__ASM_ALL_SKELETONS
 70
0
 62
7
  6
CONTINUOUS
370
-3
390
F
  0
ENDTAB
  0
TABLE
  2
STYLE
  5
3
100
AcDbSymbolTable
 70
1
  0
STYLE
  5
11
100
AcDbSymbolTableRecord
100
AcDbTextStyleTableRecord
  2
STANDARD
 70
0
 40
0.0
 41
0.8
 50
0.0
 71
0
 42
0.2
  3
txt
  4

  0
STYLE
  5
214
100
AcDbSymbolTableRecord
100
AcDbTextStyleTableRecord
  2
TEXTSTYLE_1
 70
0
 40
0.0
 41
0.8
 50
0.0
 71
0
 42
0.2
  3
gdt
  4

  0
ENDTAB
  0
TABLE
  2
VIEW
  5
6
100
AcDbSymbolTable
 70
0
  0
ENDTAB
  0
TABLE
  2
UCS
  5
7
100
AcDbSymbolTable
 70
0
  0
ENDTAB
  0
TABLE
  2
APPID
  5
9
100
AcDbSymbolTable
 70
1
  0
APPID
  5
215
100
AcDbSymbolTableRecord
100
AcDbRegAppTableRecord
  2
ACAD
 70
0
  0
ENDTAB
  0
TABLE
  2
BLOCK_RECORD
  5
1
100
AcDbSymbolTable
 70
0
  0
BLOCK_RECORD
  5
216
100
AcDbSymbolTableRecord
100
AcDbBlockTableRecord
  2
*Model_Space
  0
BLOCK_RECORD
  5
217
100
AcDbSymbolTableRecord
100
AcDbBlockTableRecord
  2
*Paper_Space
  0
BLOCK_RECORD
  5
218
100
AcDbSymbolTableRecord
100
AcDbBlockTableRecord
  2
_FILLED
  0
BLOCK_RECORD
  5
219
100
AcDbSymbolTableRecord
100
AcDbBlockTableRecord
  2
*D0
  0
BLOCK_RECORD
  5
21A
100
AcDbSymbolTableRecord
100
AcDbBlockTableRecord
  2
*D1
  0
BLOCK_RECORD
  5
21B
100
AcDbSymbolTableRecord
100
AcDbBlockTableRecord
  2
*D2
  0
ENDTAB
  0
TABLE
  2
DIMSTYLE
  5
A
100
AcDbSymbolTable
 70
1
100
AcDbDimStyleTable
 71
0
  0
DIMSTYLE
105
21C
100
AcDbSymbolTableRecord
100
AcDbDimStyleTableRecord
  2
STANDARD
 70
0
  3

  4

 40
1.0
 41
3.0
 42
0.5
 43
0.38
 44
0.5
 45
0.0
 46
0.0
 47
0.001
 48
0.001
140
1.8
141
0.09
142
0.0
143
25.4
144
1.0
145
0.0
146
1.0
147
0.625
 71
1.0
 72
0.0
 73
0
 74
0
 75
0
 76
0
 77
1
 78
8
170
0
171
2
172
0
173
0
174
0
175
0
176
0
177
0
178
0
270
2
271
3
272
3
273
2
274
2
275
0
280
0
281
0
282
0
283
1
284
8
285
0
286
0
287
3
288
0
340
11
278
46
341
218
342
218
343
218
344
218
  0
DIMSTYLE
105
21D
100
AcDbSymbolTableRecord
100
AcDbDimStyleTableRecord
  2
DIMSTYLE_1
 70
0
  3

  4

 40
1.0
 41
3.0
 42
0.5
 43
0.38
 44
0.5
 45
0.0
 46
0.0
 47
0.001
 48
0.001
140
1.8
141
0.09
142
0.0
143
25.4
144
1.0
145
0.0
146
1.0
147
0.45
 71
0.0
 72
0.0
 73
0
 74
0
 75
0
 76
0
 77
1
 78
8
170
0
171
2
172
0
173
0
174
0
175
0
176
0
177
0
178
0
270
2
271
3
272
3
273
2
274
2
275
0
280
0
281
0
282
0
283
1
284
8
285
0
286
0
287
3
288
0
340
11
278
46
341
218
342
218
343
218
344
218
  0
ENDTAB
  0
ENDSEC
  0
SECTION
  2
BLOCKS
  0
BLOCK
  5
20
100
AcDbEntity
  8
0
100
AcDbBlockBegin
  2
*Model_Space
 70
0
 10
0.0
 20
0.0
 30
0.0
  3
*Model_Space
  1

  0
ENDBLK
  5
21
100
AcDbEntity
  8
0
100
AcDbBlockEnd
  0
BLOCK
  5
1C
100
AcDbEntity
  8
0
100
AcDbBlockBegin
  2
*Paper_Space
 70
0
 10
0.0
 20
0.0
 30
0.0
  3
*Paper_Space
  1

  0
ENDBLK
  5
1D
100
AcDbEntity
  8
0
100
AcDbBlockEnd
  0
BLOCK
  5
21E
100
AcDbEntity
  8
0
100
AcDbBlockBegin
  2
_FILLED
 70
64
 10
0.0
 20
0.0
  3
_FILLED
  1

  0
SOLID
  5
21F
100
AcDbEntity
  8
0
  6
BYBLOCK
 62
0
100
AcDbTrace
 10
0.0
 20
0.0
 11
-1.0
 21
0.1666666667
 12
-1.0
 22
-0.1666666667
 13
-1.0
 23
-0.1666666667
  0
ENDBLK
  5
220
100
AcDbEntity
  8
0
  6
BYBLOCK
 62
0
100
AcDbBlockEnd
  0
BLOCK
  5
221
100
AcDbEntity
  8
0
100
AcDbBlockBegin
 62
2
  6
CONTINUOUS
  2
*D0
 70
65
 10
0.0
 20
0.0
  3
*D0
  1

  0
MTEXT
  5
222
100
AcDbEntity
  8
0
100
AcDbMText
 62
2
  6
CONTINUOUS
  7
STANDARD
 71
2
 72
1
 10
214.210868738
 20
749.2684525044
 30
0.0
 11
0.0
 21
1.0
 31
0.0
 44
0.9
  1
400
 40
1.8
 41
5.5542857143
  0
LINE
  5
223
100
AcDbEntity
  8
0
100
AcDbLine
 62
2
  6
CONTINUOUS
 10
253.8617577425
 20
950.7684525044
 11
216.2822973094
 21
950.7684525044
  0
LINE
  5
224
100
AcDbEntity
  8
0
100
AcDbLine
 62
2
  6
CONTINUOUS
 10
356.8617577425
 20
547.7684525044
 11
216.2822973094
 21
547.7684525044
  0
LINE
  5
225
100
AcDbEntity
  8
0
100
AcDbLine
 62
2
  6
CONTINUOUS
 10
216.7822973094
 20
950.7684525044
 11
216.7822973094
 21
749.2684525044
  0
LINE
  5
226
100
AcDbEntity
  8
0
100
AcDbLine
 62
2
  6
CONTINUOUS
 10
216.7822973094
 20
547.7684525044
 11
216.7822973094
 21
749.2684525044
  0
INSERT
  5
227
100
AcDbEntity
  8
0
100
AcDbBlockReference
 62
2
  6
CONTINUOUS
  2
_FILLED
 10
216.7822973094
 20
950.7684525044
 41
3.0
 42
3.0
 43
3.0
 50
90.0
  0
INSERT
  5
228
100
AcDbEntity
  8
0
100
AcDbBlockReference
 62
2
  6
CONTINUOUS
  2
_FILLED
 10
216.7822973094
 20
547.7684525044
 41
3.0
 42
3.0
 43
3.0
 50
270.0
  0
ENDBLK
  5
229
100
AcDbEntity
  8
0
  6
BYBLOCK
 62
0
100
AcDbBlockEnd
  0
BLOCK
  5
22A
100
AcDbEntity
  8
0
100
AcDbBlockBegin
 62
2
  6
CONTINUOUS
  2
*D1
 70
65
 10
0.0
 20
0.0
  3
*D1
  1

  0
MTEXT
  5
22B
100
AcDbEntity
  8
0
100
AcDbMText
 62
2
  6
CONTINUOUS
  7
STANDARD
 71
2
 72
1
 10
214.210868738
 20
253.3593775442
 30
0.0
 11
0.0
 21
1.0
 31
0.0
 44
0.9
  1
410
 40
1.8
 41
5.5542857143
  0
LINE
  5
22C
100
AcDbEntity
  8
0
100
AcDbLine
 62
2
  6
CONTINUOUS
 10
255.4617577425
 20
458.3593775442
 11
216.2822973094
 21
458.3593775442
  0
LINE
  5
22D
100
AcDbEntity
  8
0
100
AcDbLine
 62
2
  6
CONTINUOUS
 10
255.4617577425
 20
48.3593775442
 11
216.2822973094
 21
48.3593775442
  0
LINE
  5
22E
100
AcDbEntity
  8
0
100
AcDbLine
 62
2
  6
CONTINUOUS
 10
216.7822973094
 20
458.3593775442
 11
216.7822973094
 21
253.3593775442
  0
LINE
  5
22F
100
AcDbEntity
  8
0
100
AcDbLine
 62
2
  6
CONTINUOUS
 10
216.7822973094
 20
48.3593775442
 11
216.7822973094
 21
253.3593775442
  0
INSERT
  5
230
100
AcDbEntity
  8
0
100
AcDbBlockReference
 62
2
  6
CONTINUOUS
  2
_FILLED
 10
216.7822973094
 20
458.3593775442
 41
3.0
 42
3.0
 43
3.0
 50
90.0
  0
INSERT
  5
231
100
AcDbEntity
  8
0
100
AcDbBlockReference
 62
2
  6
CONTINUOUS
  2
_FILLED
 10
216.7822973094
 20
48.3593775442
 41
3.0
 42
3.0
 43
3.0
 50
270.0
  0
ENDBLK
  5
232
100
AcDbEntity
  8
0
  6
BYBLOCK
 62
0
100
AcDbBlockEnd
  0
BLOCK
  5
233
100
AcDbEntity
  8
0
100
AcDbBlockBegin
 62
2
  6
CONTINUOUS
  2
*D2
 70
65
 10
0.0
 20
0.0
  3
*D2
  1

  0
MTEXT
  5
234
100
AcDbEntity
  8
0
100
AcDbMText
 62
2
  6
CONTINUOUS
  7
STANDARD
 71
2
 72
1
 10
459.3617577425
 20
500.8175856934
 30
0.0
 11
1.0
 21
0.0
 31
0.0
 44
0.9
  1
410
 40
1.8
 41
5.5542857143
  0
LINE
  5
235
100
AcDbEntity
  8
0
100
AcDbLine
 62
2
  6
CONTINUOUS
 10
254.3617577425
 20
457.2593775442
 11
254.3617577425
 21
498.746157122
  0
LINE
  5
236
100
AcDbEntity
  8
0
100
AcDbLine
 62
2
  6
CONTINUOUS
 10
664.3617577425
 20
457.2593775442
 11
664.3617577425
 21
498.746157122
  0
LINE
  5
237
100
AcDbEntity
  8
0
100
AcDbLine
 62
2
  6
CONTINUOUS
 10
254.3617577425
 20
498.246157122
 11
459.3617577425
 21
498.246157122
  0
LINE
  5
238
100
AcDbEntity
  8
0
100
AcDbLine
 62
2
  6
CONTINUOUS
 10
664.3617577425
 20
498.246157122
 11
459.3617577425
 21
498.246157122
  0
INSERT
  5
239
100
AcDbEntity
  8
0
100
AcDbBlockReference
 62
2
  6
CONTINUOUS
  2
_FILLED
 10
254.3617577425
 20
498.246157122
 41
3.0
 42
3.0
 43
3.0
 50
180.0
  0
INSERT
  5
23A
100
AcDbEntity
  8
0
100
AcDbBlockReference
 62
2
  6
CONTINUOUS
  2
_FILLED
 10
664.3617577425
 20
498.246157122
 41
3.0
 42
3.0
 43
3.0
 50
360.0
  0
ENDBLK
  5
23B
100
AcDbEntity
  8
0
  6
BYBLOCK
 62
0
100
AcDbBlockEnd
  0
ENDSEC
  0
SECTION
  2
ENTITIES
  0
DIMENSION
  5
23C
100
AcDbEntity
  8
0
100
AcDbDimension
 62
2
  6
CONTINUOUS
  2
*D0
 10
216.7822973094
 20
547.7684525044
 11
216.7822973094
 21
749.2684525044
 70
160
 71
2
 42
403.0
  3
DIMSTYLE_1
100
AcDbAlignedDimension
 13
254.3617577425
 23
950.7684525044
 14
357.3617577425
 24
547.7684525044
 50
270.0
100
AcDbRotatedDimension
  0
DIMENSION
  5
23D
100
AcDbEntity
  8
0
100
AcDbDimension
 62
2
  6
CONTINUOUS
  2
*D1
 10
216.7822973094
 20
48.3593775442
 11
216.7822973094
 21
253.3593775442
 70
160
 71
2
 42
410.0
  3
DIMSTYLE_1
100
AcDbAlignedDimension
 13
255.9617577425
 23
458.3593775442
 14
255.9617577425
 24
48.3593775442
 50
270.0
100
AcDbRotatedDimension
  0
DIMENSION
  5
23E
100
AcDbEntity
  8
0
100
AcDbDimension
 62
2
  6
CONTINUOUS
  2
*D2
 10
664.3617577425
 20
498.246157122
 11
459.3617577425
 21
498.246157122
 70
160
 71
2
 42
410.0
  3
DIMSTYLE_1
100
AcDbAlignedDimension
 13
254.3617577425
 23
456.7593775442
 14
664.3617577425
 24
456.7593775442
 50
360.0
100
AcDbRotatedDimension
  0
LINE
  5
23F
100
AcDbEntity
  8
0
100
AcDbLine
 62
7
  6
CONTINUOUS
 10
254.3617577425
 20
600.7684525044
 11
254.3617577425
 21
950.7684525044
  0
LINE
  5
240
100
AcDbEntity
  8
0
100
AcDbLine
 62
7
  6
CONTINUOUS
 10
255.9617577425
 20
602.3684525044
 11
255.9617577425
 21
949.1684525044
  0
LINE
  5
241
100
AcDbEntity
  8
0
100
AcDbLine
 62
7
  6
CONTINUOUS
 10
572.4650252199
 20
563.1954187965
 11
573.1550116711
 21
563.3133963246
  0
LINE
  5
242
100
AcDbEntity
  8
0
100
AcDbLine
 62
7
  6
CONTINUOUS
 10
378.2584902651
 20
563.1954187965
 11
377.5685038156
 21
563.3133963345
  0
LINE
  5
243
100
AcDbEntity
  8
0
100
AcDbLine
 62
7
  6
CONTINUOUS
 10
379.0254915823
 20
562.426262437
 11
378.3478308778
 21
562.5620899726
  0
LINE
  5
244
100
AcDbEntity
  8
0
100
AcDbLine
 62
7
  6
CONTINUOUS
 10
330.3617577425
 20
598.7684525044
 11
333.7206061357
 21
596.8491105654
  0
LINE
  5
245
100
AcDbEntity
  8
02___PRT_ALL_AXES
100
AcDbLine
 62
7
  6
CONTINUOUS
 10
377.5685038139
 20
563.3133963246
 11
376.1790976932
 21
564.1642979616
  0
LINE
  5
246
100
AcDbEntity
  8
0
100
AcDbLine
 62
7
  6
CONTINUOUS
 10
336.4650252199
 20
563.1954187965
 11
337.1550116711
 21
563.3133963246
  0
LINE
  5
247
100
AcDbEntity
  8
0
100
AcDbLine
 62
7
  6
CONTINUOUS
 10
583.8617577425
 20
590.7684525044
 11
570.8617577425
 21
590.7684525044
  0
LINE
  5
248
100
AcDbEntity
  8
0
100
AcDbLine
 62
7
  6
CONTINUOUS
 10
347.8617577425
 20
590.7684525044
 11
334.8617577425
 21
590.7684525044
  0
LINE
  5
249
100
AcDbEntity
  8
0
100
AcDbLine
 62
7
  6
CONTINUOUS
 10
581.8617577425
 20
592.7684525044
 11
572.8617577425
 21
592.7684525044
  0
LINE
  5
24A
100
AcDbEntity
  8
0
100
AcDbLine
 62
7
  6
CONTINUOUS
 10
345.8617577425
 20
592.7684525044
 11
336.8617577425
 21
592.7684525044
  0
LINE
  5
24B
100
AcDbEntity
  8
02___PRT_ALL_AXES
100
AcDbLine
 62
7
  6
CONTINUOUS
 10
321.7617577425
 20
593.7684525044
 11
324.9617577425
 21
593.7684525044
  0
LINE
  5
24C
100
AcDbEntity
  8
02___PRT_ALL_AXES
100
AcDbLine
 62
7
  6
CONTINUOUS
 10
357.7617577425
 20
593.7684525044
 11
360.9617577425
 21
593.7684525044
  0
LINE
  5
24D
100
AcDbEntity
  8
02___PRT_ALL_AXES
100
AcDbLine
 62
7
  6
CONTINUOUS
 10
557.7617577425
 20
593.7684525044
 11
560.9617577425
 21
593.7684525044
  0
LINE
  5
24E
100
AcDbEntity
  8
02___PRT_ALL_AXES
100
AcDbLine
 62
7
  6
CONTINUOUS
 10
593.7617577425
 20
593.7684525044
 11
596.9617577425
 21
593.7684525044
  0
LINE
  5
24F
100
AcDbEntity
  8
0
100
AcDbLine
 62
7
  6
CONTINUOUS
 10
334.0243292619
 20
596.7684525044
 11
348.6991862231
 21
596.7684525044
  0
LINE
  5
250
100
AcDbEntity
  8
0
100
AcDbLine
 62
7
  6
CONTINUOUS
 10
570.0243292619
 20
596.7684525044
 11
584.6991862231
 21
596.7684525044
  0
LINE
  5
251
100
AcDbEntity
  8
0
100
AcDbLine
 62
7
  6
CONTINUOUS
 10
333.7206061357
 20
596.8491105654
 11
349.0029093493
 21
596.8491105654
  0
LINE
  5
252
100
AcDbEntity
  8
0
100
AcDbLine
 62
7
  6
CONTINUOUS
 10
569.7206061357
 20
596.8491105654
 11
585.0029093493
 21
596.8491105654
  0
LINE
  5
253
100
AcDbEntity
  8
0
100
AcDbLine
 62
7
  6
CONTINUOUS
 10
614.2584902651
 20
563.1954187965
 11
613.5685038156
 21
563.3133963345
  0
LINE
  5
254
100
AcDbEntity
  8
0
100
AcDbLine
 62
7
  6
CONTINUOUS
 10
615.0254915823
 20
562.426262437
 11
614.3478308778
 21
562.5620899726
  0
LINE
  5
255
100
AcDbEntity
  8
0
100
AcDbLine
 62
7
  6
CONTINUOUS
 10
319.3617577425
 20
600.7684525044
 11
319.3617577425
 21
598.7684525044
  0
LINE
  5
256
100
AcDbEntity
  8
0
100
AcDbLine
 62
7
  6
CONTINUOUS
 10
321.3617577425
 20
600.7684525044
 11
321.3617577425
 21
598.7684525044
  0
LINE
  5
257
100
AcDbEntity
  8
02___PRT_ALL_AXES
100
AcDbLine
 62
7
  6
CONTINUOUS
 10
321.7617577425
 20
598.7684525044
 11
321.7617577425
 21
593.7684525044
  0
LINE
  5
258
100
AcDbEntity
  8
02___PRT_ALL_AXES
100
AcDbLine
 62
7
  6
CONTINUOUS
 10
324.9617577425
 20
598.7684525044
 11
324.9617577425
 21
593.7684525044
  0
LINE
  5
259
100
AcDbEntity
  8
0
100
AcDbLine
 62
7
  6
CONTINUOUS
 10
319.3617577425
 20
598.7684525044
 11
363.3617577425
 21
598.7684525044
  0
LINE
  5
25A
100
AcDbEntity
  8
0
100
AcDbLine
 62
7
  6
CONTINUOUS
 10
555.3617577425
 20
598.7684525044
 11
599.3617577425
 21
598.7684525044
  0
LINE
  5
25B
100
AcDbEntity
  8
0
100
AcDbLine
 62
7
  6
CONTINUOUS
 10
254.3617577425
 20
600.7684525044
 11
664.3617577425
 21
600.7684525044
  0
LINE
  5
25C
100
AcDbEntity
  8
0
100
AcDbLine
 62
7
  6
CONTINUOUS
 10
662.7617577425
 20
602.3684525044
 11
255.9617577425
 21
602.3684525044
  0
LINE
  5
25D
100
AcDbEntity
  8
0
100
AcDbLine
 62
7
  6
CONTINUOUS
 10
334.8617577425
 20
575.1247003719
 11
334.8617577425
 21
590.7684525044
  0
LINE
  5
25E
100
AcDbEntity
  8
02___PRT_ALL_AXES
100
AcDbLine
 62
7
  6
CONTINUOUS
 10
334.8617577425
 20
575.1247003719
 11
334.8617577425
 21
590.7684525044
  0
LINE
  5
25F
100
AcDbEntity
  8
02___PRT_ALL_AXES
100
AcDbLine
 62
7
  6
CONTINUOUS
 10
337.8617577425
 20
596.7684525044
 11
337.8617577425
 21
592.7684525044
  0
LINE
  5
260
100
AcDbEntity
  8
02___PRT_ALL_AXES
100
AcDbLine
 62
7
  6
CONTINUOUS
 10
344.8617577425
 20
596.7684525044
 11
344.8617577425
 21
592.7684525044
  0
LINE
  5
261
100
AcDbEntity
  8
0
100
AcDbLine
 62
7
  6
CONTINUOUS
 10
347.8617577425
 20
588.5348828341
 11
347.8617577425
 21
590.7684525044
  0
LINE
  5
262
100
AcDbEntity
  8
02___PRT_ALL_AXES
100
AcDbLine
 62
7
  6
CONTINUOUS
 10
347.8617577425
 20
588.5348828341
 11
347.8617577425
 21
590.7684525044
  0
LINE
  5
263
100
AcDbEntity
  8
02___PRT_ALL_AXES
100
AcDbLine
 62
7
  6
CONTINUOUS
 10
357.7617577425
 20
598.7684525044
 11
357.7617577425
 21
593.7684525044
  0
LINE
  5
264
100
AcDbEntity
  8
02___PRT_ALL_AXES
100
AcDbLine
 62
7
  6
CONTINUOUS
 10
360.9617577425
 20
598.7684525044
 11
360.9617577425
 21
593.7684525044
  0
LINE
  5
265
100
AcDbEntity
  8
0
100
AcDbLine
 62
7
  6
CONTINUOUS
 10
361.3617577425
 20
598.7684525044
 11
361.3617577425
 21
600.7684525044
  0
LINE
  5
266
100
AcDbEntity
  8
0
100
AcDbLine
 62
7
  6
CONTINUOUS
 10
363.3617577425
 20
598.7684525044
 11
363.3617577425
 21
600.7684525044
  0
LINE
  5
267
100
AcDbEntity
  8
0
100
AcDbLine
 62
7
  6
CONTINUOUS
 10
566.3617577425
 20
598.7684525044
 11
569.7206061357
 21
596.8491105654
  0
LINE
  5
268
100
AcDbEntity
  8
02___PRT_ALL_AXES
100
AcDbLine
 62
7
  6
CONTINUOUS
 10
613.5685038139
 20
563.3133963246
 11
612.1790976932
 21
564.1642979616
  0
LINE
  5
269
100
AcDbEntity
  8
0
100
AcDbLine
 62
7
  6
CONTINUOUS
 10
352.3617577425
 20
598.7684525044
 11
349.0029093493
 21
596.8491105654
  0
LINE
  5
26A
100
AcDbEntity
  8
0
100
AcDbLine
 62
7
  6
CONTINUOUS
 10
555.3617577425
 20
600.7684525044
 11
555.3617577425
 21
598.7684525044
  0
LINE
  5
26B
100
AcDbEntity
  8
0
100
AcDbLine
 62
7
  6
CONTINUOUS
 10
557.3617577425
 20
600.7684525044
 11
557.3617577425
 21
598.7684525044
  0
LWPOLYLINE
  5
26C
100
AcDbEntity
  8
0
100
AcDbPolyline
 62
7
  6
CONTINUOUS
 90
6
 70
0
 10
380.4018111165
 20
561.6642077316
 10
380.4763796858
 20
561.7360876504
 10
380.5395423276
 20
561.8182089394
 10
380.5899046127
 20
561.9087800754
 10
380.6263522249
 20
562.0058249372
 10
380.6407506428
 20
562.0640861
  0
LINE
  5
26D
100
AcDbEntity
  8
02___PRT_ALL_AXES
100
AcDbLine
 62
7
  6
CONTINUOUS
 10
338.5444177918
 20
564.1642979616
 11
337.1550116711
 21
563.3133963246
  0
LINE
  5
26E
100
AcDbEntity
  8
02___PRT_ALL_AXES
100
AcDbLine
 62
7
  6
CONTINUOUS
 10
557.7617577425
 20
598.7684525044
 11
557.7617577425
 21
593.7684525044
  0
LINE
  5
26F
100
AcDbEntity
  8
02___PRT_ALL_AXES
100
AcDbLine
 62
7
  6
CONTINUOUS
 10
560.9617577425
 20
598.7684525044
 11
560.9617577425
 21
593.7684525044
  0
LINE
  5
270
100
AcDbEntity
  8
0
100
AcDbLine
 62
7
  6
CONTINUOUS
 10
570.8617577425
 20
575.1247003719
 11
570.8617577425
 21
590.7684525044
  0
LINE
  5
271
100
AcDbEntity
  8
02___PRT_ALL_AXES
100
AcDbLine
 62
7
  6
CONTINUOUS
 10
570.8617577425
 20
575.1247003719
 11
570.8617577425
 21
590.7684525044
  0
LINE
  5
272
100
AcDbEntity
  8
02___PRT_ALL_AXES
100
AcDbLine
 62
7
  6
CONTINUOUS
 10
573.8617577425
 20
596.7684525044
 11
573.8617577425
 21
592.7684525044
  0
LINE
  5
273
100
AcDbEntity
  8
02___PRT_ALL_AXES
100
AcDbLine
 62
7
  6
CONTINUOUS
 10
580.8617577425
 20
596.7684525044
 11
580.8617577425
 21
592.7684525044
  0
LINE
  5
274
100
AcDbEntity
  8
0
100
AcDbLine
 62
7
  6
CONTINUOUS
 10
583.8617577425
 20
588.5348828341
 11
583.8617577425
 21
590.7684525044
  0
LINE
  5
275
100
AcDbEntity
  8
02___PRT_ALL_AXES
100
AcDbLine
 62
7
  6
CONTINUOUS
 10
583.8617577425
 20
588.5348828341
 11
583.8617577425
 21
590.7684525044
  0
LINE
  5
276
100
AcDbEntity
  8
02___PRT_ALL_AXES
100
AcDbLine
 62
7
  6
CONTINUOUS
 10
593.7617577425
 20
598.7684525044
 11
593.7617577425
 21
593.7684525044
  0
LINE
  5
277
100
AcDbEntity
  8
0
100
AcDbLine
 62
7
  6
CONTINUOUS
 10
378.3478308778
 20
562.5620899726
 11
377.7174048351
 21
562.2578482847
  0
LINE
  5
278
100
AcDbEntity
  8
02___PRT_ALL_AXES
100
AcDbLine
 62
7
  6
CONTINUOUS
 10
596.9617577425
 20
598.7684525044
 11
596.9617577425
 21
593.7684525044
  0
LINE
  5
279
100
AcDbEntity
  8
0
100
AcDbLine
 62
7
  6
CONTINUOUS
 10
597.3617577425
 20
598.7684525044
 11
597.3617577425
 21
600.7684525044
  0
LINE
  5
27A
100
AcDbEntity
  8
0
100
AcDbLine
 62
7
  6
CONTINUOUS
 10
599.3617577425
 20
598.7684525044
 11
599.3617577425
 21
600.7684525044
  0
LINE
  5
27B
100
AcDbEntity
  8
0
100
AcDbLine
 62
7
  6
CONTINUOUS
 10
662.7617577425
 20
949.1684525044
 11
662.7617577425
 21
602.3684525044
  0
LINE
  5
27C
100
AcDbEntity
  8
0
100
AcDbLine
 62
7
  6
CONTINUOUS
 10
664.3617577425
 20
600.7684525044
 11
664.3617577425
 21
950.7684525044
  0
LINE
  5
27D
100
AcDbEntity
  8
0
100
AcDbLine
 62
7
  6
CONTINUOUS
 10
588.3617577425
 20
598.7684525044
 11
585.0029093493
 21
596.8491105654
  0
LINE
  5
27E
100
AcDbEntity
  8
0
100
AcDbLine
 62
7
  6
CONTINUOUS
 10
255.9617577425
 20
949.1684525044
 11
662.7617577425
 21
949.1684525044
  0
LINE
  5
27F
100
AcDbEntity
  8
0
100
AcDbLine
 62
7
  6
CONTINUOUS
 10
664.3617577425
 20
950.7684525044
 11
254.3617577425
 21
950.7684525044
  0
LINE
  5
280
100
AcDbEntity
  8
02___PRT_ALL_AXES
100
AcDbLine
 62
7
  6
CONTINUOUS
 10
574.5444177918
 20
564.1642979616
 11
573.1550116711
 21
563.3133963246
  0
LWPOLYLINE
  5
281
100
AcDbEntity
  8
0
100
AcDbPolyline
 62
7
  6
CONTINUOUS
 90
6
 70
0
 10
616.4018111165
 20
561.6642077316
 10
616.4763796858
 20
561.7360876504
 10
616.5395423276
 20
561.8182089394
 10
616.5899046127
 20
561.9087800754
 10
616.6263522249
 20
562.0058249372
 10
616.6407506428
 20
562.0640861
  0
LINE
  5
282
100
AcDbEntity
  8
0
100
AcDbLine
 62
7
  6
CONTINUOUS
 10
614.3478308778
 20
562.5620899726
 11
613.7174048351
 21
562.2578482847
  0
LINE
  5
283
100
AcDbEntity
  8
0
100
AcDbLine
 62
3
  6
CONTINUOUS
 10
254.3617577425
 20
417.5593775442
 11
254.3617577425
 21
89.1593775442
  0
LINE
  5
284
100
AcDbEntity
  8
0
100
AcDbLine
 62
7
  6
CONTINUOUS
 10
254.3617577425
 20
49.9593775442
 11
254.3617577425
 21
87.3727103754
  0
LINE
  5
285
100
AcDbEntity
  8
0
100
AcDbLine
 62
7
  6
CONTINUOUS
 10
254.3617577425
 20
419.3460447129
 11
254.3617577425
 21
456.7593775442
  0
LINE
  5
286
100
AcDbEntity
  8
0
100
AcDbLine
 62
3
  6
CONTINUOUS
 10
255.9617577425
 20
88.367072794
 11
255.9617577425
 21
418.3516822943
  0
LINE
  5
287
100
AcDbEntity
  8
0
100
AcDbLine
 62
7
  6
CONTINUOUS
 10
255.9617577425
 20
48.3593775442
 11
662.7617577425
 21
48.3593775442
  0
LINE
  5
288
100
AcDbEntity
  8
0
100
AcDbLine
 62
7
  6
CONTINUOUS
 10
664.3617577425
 20
49.9593775442
 11
254.3617577425
 21
49.9593775442
  0
LINE
  5
289
100
AcDbEntity
  8
0
100
AcDbLine
 62
7
  6
CONTINUOUS
 10
255.8833906853
 20
417.5555299193
 11
255.8050236282
 21
418.3516822943
  0
LINE
  5
28A
100
AcDbEntity
  8
0
100
AcDbLine
 62
7
  6
CONTINUOUS
 10
255.8833906853
 20
89.1632251691
 11
255.8050236282
 21
88.367072794
  0
LINE
  5
28B
100
AcDbEntity
  8
0
100
AcDbLine
 62
3
  6
CONTINUOUS
 10
292.7617577425
 20
418.3593775442
 11
292.7617577425
 21
89.1593775442
  0
LINE
  5
28C
100
AcDbEntity
  8
0
100
AcDbLine
 62
3
  6
CONTINUOUS
 10
292.7617577425
 20
88.3593775442
 11
292.7617577425
 21
89.1238011713
  0
LINE
  5
28D
100
AcDbEntity
  8
0
100
AcDbLine
 62
3
  6
CONTINUOUS
 10
294.3617577425
 20
417.5593775442
 11
294.3617577425
 21
89.1593775442
  0
LINE
  5
28E
100
AcDbEntity
  8
0
100
AcDbLine
 62
7
  6
CONTINUOUS
 10
254.3617577425
 20
86.7593775442
 11
664.3617577425
 21
86.7593775442
  0
LINE
  5
28F
100
AcDbEntity
  8
0
100
AcDbLine
 62
3
  6
CONTINUOUS
 10
292.7617577425
 20
88.3593775442
 11
256.0617577425
 21
88.3593775442
  0
LINE
  5
290
100
AcDbEntity
  8
0
100
AcDbLine
 62
7
  6
CONTINUOUS
 10
255.5617577425
 20
88.3593775442
 11
256.0617577425
 21
88.3593775442
  0
LINE
  5
291
100
AcDbEntity
  8
0
100
AcDbLine
 62
7
  6
CONTINUOUS
 10
292.7617577425
 20
88.3593775442
 11
625.9617577425
 21
88.3593775442
  0
LINE
  5
292
100
AcDbEntity
  8
0
100
AcDbLine
 62
3
  6
CONTINUOUS
 10
625.9617577425
 20
88.3593775442
 11
662.6617577425
 21
88.3593775442
  0
LINE
  5
293
100
AcDbEntity
  8
0
100
AcDbLine
 62
7
  6
CONTINUOUS
 10
662.6617577425
 20
88.3593775442
 11
663.1617577425
 21
88.3593775442
  0
LINE
  5
294
100
AcDbEntity
  8
0
100
AcDbLine
 62
3
  6
CONTINUOUS
 10
294.3617577425
 20
89.1593775442
 11
292.7617577425
 21
89.1593775442
  0
LINE
  5
295
100
AcDbEntity
  8
0
100
AcDbLine
 62
3
  6
CONTINUOUS
 10
255.9617577425
 20
89.1593775442
 11
254.3617577425
 21
89.1593775442
  0
LINE
  5
296
100
AcDbEntity
  8
0
100
AcDbLine
 62
7
  6
CONTINUOUS
 10
294.3617577425
 20
89.1593775442
 11
624.3617577425
 21
89.1593775442
  0
LINE
  5
297
100
AcDbEntity
  8
0
100
AcDbLine
 62
3
  6
CONTINUOUS
 10
624.3617577425
 20
89.1593775442
 11
625.9617577425
 21
89.1593775442
  0
LINE
  5
298
100
AcDbEntity
  8
0
100
AcDbLine
 62
3
  6
CONTINUOUS
 10
662.7617577425
 20
89.1593775442
 11
664.3617577425
 21
89.1593775442
  0
LINE
  5
299
100
AcDbEntity
  8
0
100
AcDbLine
 62
7
  6
CONTINUOUS
 10
624.3617577425
 20
89.9593775442
 11
294.3617577425
 21
89.9593775442
  0
LINE
  5
29A
100
AcDbEntity
  8
0
100
AcDbLine
 62
3
  6
CONTINUOUS
 10
292.7617577425
 20
89.9593775442
 11
255.9617577425
 21
89.9593775442
  0
LINE
  5
29B
100
AcDbEntity
  8
0
100
AcDbLine
 62
3
  6
CONTINUOUS
 10
625.9617577425
 20
89.9593775442
 11
662.7617577425
 21
89.9593775442
  0
LINE
  5
29C
100
AcDbEntity
  8
02___PRT_ALL_AXES
100
AcDbLine
 62
7
  6
CONTINUOUS
 10
316.8617577425
 20
417.5593775442
 11
316.8617577425
 21
417.3593775442
  0
LINE
  5
29D
100
AcDbEntity
  8
0
100
AcDbLine
 62
7
  6
CONTINUOUS
 10
318.6117577425
 20
416.3593775442
 11
318.6117577425
 21
416.9939534599
  0
LINE
  5
29E
100
AcDbEntity
  8
0
100
AcDbLine
 62
7
  6
CONTINUOUS
 10
320.1117577425
 20
416.3593775442
 11
320.1117577425
 21
416.9939534599
  0
LINE
  5
29F
100
AcDbEntity
  8
02___PRT_ALL_AXES
100
AcDbLine
 62
7
  6
CONTINUOUS
 10
321.8617577425
 20
417.5593775442
 11
321.8617577425
 21
417.3593775442
  0
LINE
  5
2A0
100
AcDbEntity
  8
0
100
AcDbLine
 62
7
  6
CONTINUOUS
 10
255.1613828727
 20
89.1597527656
 11
254.8298566223
 21
88.8285372132
  0
LINE
  5
2A1
100
AcDbEntity
  8
0
100
AcDbLine
 62
7
  6
CONTINUOUS
 10
255.1610072994
 20
417.5593775442
 11
254.8298566223
 21
417.8902178752
  0
LINE
  5
2A2
100
AcDbEntity
  8
02___PRT_ALL_AXES
100
AcDbLine
 62
7
  6
CONTINUOUS
 10
456.8617577425
 20
417.5593775442
 11
456.8617577425
 21
417.3593775442
  0
LINE
  5
2A3
100
AcDbEntity
  8
0
100
AcDbLine
 62
7
  6
CONTINUOUS
 10
458.6117577425
 20
416.3593775442
 11
458.6117577425
 21
416.9939534599
  0
LINE
  5
2A4
100
AcDbEntity
  8
0
100
AcDbLine
 62
7
  6
CONTINUOUS
 10
460.1117577425
 20
416.3593775442
 11
460.1117577425
 21
416.9939534599
  0
LINE
  5
2A5
100
AcDbEntity
  8
02___PRT_ALL_AXES
100
AcDbLine
 62
7
  6
CONTINUOUS
 10
461.8617577425
 20
417.5593775442
 11
461.8617577425
 21
417.3593775442
  0
LINE
  5
2A6
100
AcDbEntity
  8
0
100
AcDbLine
 62
7
  6
CONTINUOUS
 10
663.5625081856
 20
417.5593775442
 11
663.8936588627
 21
417.8902178752
  0
LINE
  5
2A7
100
AcDbEntity
  8
0
100
AcDbLine
 62
7
  6
CONTINUOUS
 10
663.5621326123
 20
89.1597527656
 11
663.8936588627
 21
88.8285372132
  0
LINE
  5
2A8
100
AcDbEntity
  8
02___PRT_ALL_AXES
100
AcDbLine
 62
7
  6
CONTINUOUS
 10
596.8617577425
 20
417.5593775442
 11
596.8617577425
 21
417.3593775442
  0
LINE
  5
2A9
100
AcDbEntity
  8
0
100
AcDbLine
 62
7
  6
CONTINUOUS
 10
598.6117577425
 20
416.3593775442
 11
598.6117577425
 21
416.9939534599
  0
LINE
  5
2AA
100
AcDbEntity
  8
0
100
AcDbLine
 62
7
  6
CONTINUOUS
 10
600.1117577425
 20
416.3593775442
 11
600.1117577425
 21
416.9939534599
  0
LINE
  5
2AB
100
AcDbEntity
  8
02___PRT_ALL_AXES
100
AcDbLine
 62
7
  6
CONTINUOUS
 10
601.8617577425
 20
417.5593775442
 11
601.8617577425
 21
417.3593775442
  0
LINE
  5
2AC
100
AcDbEntity
  8
0
100
AcDbLine
 62
3
  6
CONTINUOUS
 10
624.3617577425
 20
417.5593775442
 11
624.3617577425
 21
89.1593775442
  0
LINE
  5
2AD
100
AcDbEntity
  8
0
100
AcDbLine
 62
3
  6
CONTINUOUS
 10
625.9617577425
 20
88.3593775442
 11
625.9617577425
 21
418.3593775442
  0
LINE
  5
2AE
100
AcDbEntity
  8
0
100
AcDbLine
 62
7
  6
CONTINUOUS
 10
318.6117914417
 20
416.3593775442
 11
320.1117240433
 21
416.3593775442
  0
LINE
  5
2AF
100
AcDbEntity
  8
0
100
AcDbLine
 62
7
  6
CONTINUOUS
 10
458.6117914417
 20
416.3593775442
 11
460.1117240433
 21
416.3593775442
  0
LINE
  5
2B0
100
AcDbEntity
  8
0
100
AcDbLine
 62
7
  6
CONTINUOUS
 10
598.6117914417
 20
416.3593775442
 11
600.1117240433
 21
416.3593775442
  0
LINE
  5
2B1
100
AcDbEntity
  8
0
100
AcDbLine
 62
7
  6
CONTINUOUS
 10
624.3617577425
 20
416.7593775442
 11
600.1117577425
 21
416.7593775442
  0
LINE
  5
2B2
100
AcDbEntity
  8
0
100
AcDbLine
 62
7
  6
CONTINUOUS
 10
598.6117577425
 20
416.7593775442
 11
460.1117577425
 21
416.7593775442
  0
LINE
  5
2B3
100
AcDbEntity
  8
0
100
AcDbLine
 62
7
  6
CONTINUOUS
 10
458.6117577425
 20
416.7593775442
 11
320.1117577425
 21
416.7593775442
  0
LINE
  5
2B4
100
AcDbEntity
  8
0
100
AcDbLine
 62
7
  6
CONTINUOUS
 10
318.6117577425
 20
416.7593775442
 11
294.3617577425
 21
416.7593775442
  0
LINE
  5
2B5
100
AcDbEntity
  8
0
100
AcDbLine
 62
3
  6
CONTINUOUS
 10
292.7617577425
 20
416.7593775442
 11
255.9617577425
 21
416.7593775442
  0
LINE
  5
2B6
100
AcDbEntity
  8
0
100
AcDbLine
 62
3
  6
CONTINUOUS
 10
625.9617577425
 20
416.7593775442
 11
662.7617577425
 21
416.7593775442
  0
LINE
  5
2B7
100
AcDbEntity
  8
0
100
AcDbLine
 62
7
  6
CONTINUOUS
 10
318.6117577425
 20
416.9939534599
 11
320.1117577425
 21
416.9939534599
  0
LINE
  5
2B8
100
AcDbEntity
  8
0
100
AcDbLine
 62
7
  6
CONTINUOUS
 10
458.6117577425
 20
416.9939534599
 11
460.1117577425
 21
416.9939534599
  0
LINE
  5
2B9
100
AcDbEntity
  8
0
100
AcDbLine
 62
7
  6
CONTINUOUS
 10
598.6117577425
 20
416.9939534599
 11
600.1117577425
 21
416.9939534599
  0
LINE
  5
2BA
100
AcDbEntity
  8
02___PRT_ALL_AXES
100
AcDbLine
 62
7
  6
CONTINUOUS
 10
601.8617577425
 20
417.3593775442
 11
596.8617577425
 21
417.3593775442
  0
LINE
  5
2BB
100
AcDbEntity
  8
02___PRT_ALL_AXES
100
AcDbLine
 62
7
  6
CONTINUOUS
 10
461.8617577425
 20
417.3593775442
 11
456.8617577425
 21
417.3593775442
  0
LINE
  5
2BC
100
AcDbEntity
  8
02___PRT_ALL_AXES
100
AcDbLine
 62
7
  6
CONTINUOUS
 10
321.8617577425
 20
417.3593775442
 11
316.8617577425
 21
417.3593775442
  0
LINE
  5
2BD
100
AcDbEntity
  8
0
100
AcDbLine
 62
3
  6
CONTINUOUS
 10
294.3617577425
 20
417.5593775442
 11
292.7617577425
 21
417.5593775442
  0
LINE
  5
2BE
100
AcDbEntity
  8
0
100
AcDbLine
 62
3
  6
CONTINUOUS
 10
255.9617577425
 20
417.5593775442
 11
254.3617577425
 21
417.5593775442
  0
LINE
  5
2BF
100
AcDbEntity
  8
0
100
AcDbLine
 62
7
  6
CONTINUOUS
 10
294.3617577425
 20
417.5593775442
 11
624.3617577425
 21
417.5593775442
  0
LINE
  5
2C0
100
AcDbEntity
  8
0
100
AcDbLine
 62
3
  6
CONTINUOUS
 10
624.3617577425
 20
417.5593775442
 11
625.9617577425
 21
417.5593775442
  0
LINE
  5
2C1
100
AcDbEntity
  8
0
100
AcDbLine
 62
3
  6
CONTINUOUS
 10
662.7617577425
 20
417.5593775442
 11
664.3617577425
 21
417.5593775442
  0
LINE
  5
2C2
100
AcDbEntity
  8
0
100
AcDbLine
 62
7
  6
CONTINUOUS
 10
663.1617577425
 20
418.3593775442
 11
662.6617577425
 21
418.3593775442
  0
LINE
  5
2C3
100
AcDbEntity
  8
0
100
AcDbLine
 62
7
  6
CONTINUOUS
 10
625.9617577425
 20
418.3593775442
 11
292.7617577425
 21
418.3593775442
  0
LINE
  5
2C4
100
AcDbEntity
  8
0
100
AcDbLine
 62
3
  6
CONTINUOUS
 10
292.7617577425
 20
418.3593775442
 11
256.0617577425
 21
418.3593775442
  0
LINE
  5
2C5
100
AcDbEntity
  8
0
100
AcDbLine
 62
7
  6
CONTINUOUS
 10
256.0617577425
 20
418.3593775442
 11
255.5617577425
 21
418.3593775442
  0
LINE
  5
2C6
100
AcDbEntity
  8
0
100
AcDbLine
 62
3
  6
CONTINUOUS
 10
625.9617577425
 20
418.3593775442
 11
662.6617577425
 21
418.3593775442
  0
LINE
  5
2C7
100
AcDbEntity
  8
0
100
AcDbLine
 62
7
  6
CONTINUOUS
 10
664.3617577425
 20
419.9593775442
 11
254.3617577425
 21
419.9593775442
  0
LINE
  5
2C8
100
AcDbEntity
  8
0
100
AcDbLine
 62
7
  6
CONTINUOUS
 10
662.8401247997
 20
89.1632251691
 11
662.9184918568
 21
88.367072794
  0
LINE
  5
2C9
100
AcDbEntity
  8
0
100
AcDbLine
 62
7
  6
CONTINUOUS
 10
662.8401247997
 20
417.5555299193
 11
662.9184918568
 21
418.3516822943
  0
LINE
  5
2CA
100
AcDbEntity
  8
0
100
AcDbLine
 62
3
  6
CONTINUOUS
 10
662.7617577425
 20
417.5949539171
 11
662.7617577425
 21
418.3516822943
  0
LINE
  5
2CB
100
AcDbEntity
  8
0
100
AcDbLine
 62
3
  6
CONTINUOUS
 10
662.7617577425
 20
88.367072794
 11
662.7617577425
 21
417.5593775442
  0
LINE
  5
2CC
100
AcDbEntity
  8
0
100
AcDbLine
 62
7
  6
CONTINUOUS
 10
664.3617577425
 20
49.9593775442
 11
664.3617577425
 21
87.3727103754
  0
LINE
  5
2CD
100
AcDbEntity
  8
0
100
AcDbLine
 62
3
  6
CONTINUOUS
 10
664.3617577425
 20
89.1593775442
 11
664.3617577425
 21
417.5593775442
  0
LINE
  5
2CE
100
AcDbEntity
  8
0
100
AcDbLine
 62
7
  6
CONTINUOUS
 10
664.3617577425
 20
419.3460447129
 11
664.3617577425
 21
456.7593775442
  0
LINE
  5
2CF
100
AcDbEntity
  8
0
100
AcDbLine
 62
7
  6
CONTINUOUS
 10
254.3617577425
 20
456.7593775442
 11
664.3617577425
 21
456.7593775442
  0
LINE
  5
2D0
100
AcDbEntity
  8
0
100
AcDbLine
 62
7
  6
CONTINUOUS
 10
662.7617577425
 20
458.3593775442
 11
255.9617577425
 21
458.3593775442
  0
ARC
  5
2D1
100
AcDbEntity
  8
0
100
AcDbCircle
 62
3
  6
CONTINUOUS
 10
253.9620324821
 20
603.9574140312
 40
2.4661268187
100
AcDbArc
 50
295.6209925471
 51
299.1095868879
  0
ARC
  5
2D2
100
AcDbEntity
  8
0
100
AcDbCircle
 62
7
  6
CONTINUOUS
 10
331.589852022
 20
563.8044792516
 40
4.9936408651
100
AcDbArc
 50
330.6111644775
 51
331.8590538337
  0
ARC
  5
2D3
100
AcDbEntity
  8
0
100
AcDbCircle
 62
7
  6
CONTINUOUS
 10
331.8030410396
 20
563.6908170362
 40
4.7520450311
100
AcDbArc
 50
331.8551627513
 51
332.5968142249
  0
ARC
  5
2D4
100
AcDbEntity
  8
0
100
AcDbCircle
 62
7
  6
CONTINUOUS
 10
335.430045543
 20
563.0184525044
 40
1.75
100
AcDbArc
 50
189.7029032294
 51
9.7029036355
  0
ARC
  5
2D5
100
AcDbEntity
  8
0
100
AcDbCircle
 62
7
  6
CONTINUOUS
 10
335.430045543
 20
563.0184525044
 40
1.05
100
AcDbArc
 50
334.238184942
 51
9.7029032294
  0
ARC
  5
2D6
100
AcDbEntity
  8
0
100
AcDbCircle
 62
7
  6
CONTINUOUS
 10
379.293469942
 20
563.0184525044
 40
1.75
100
AcDbArc
 50
170.2970964402
 51
309.0258593869
  0
ARC
  5
2D7
100
AcDbEntity
  8
0
100
AcDbCircle
 62
7
  6
CONTINUOUS
 10
379.293469942
 20
563.0184525044
 40
1.05
100
AcDbArc
 50
170.2970967706
 51
205.8028486232
  0
ARC
  5
2D8
100
AcDbEntity
  8
0
100
AcDbCircle
 62
7
  6
CONTINUOUS
 10
357.3617577425
 20
566.7684525044
 40
24.0
100
AcDbArc
 50
159.6241475754
 51
189.7029032294
  0
ARC
  5
2D9
100
AcDbEntity
  8
0
100
AcDbCircle
 62
7
  6
CONTINUOUS
 10
357.3617577425
 20
566.7684525044
 40
23.7495802832
100
AcDbArc
 50
348.5733681053
 51
113.5979106471
  0
ARC
  5
2DA
100
AcDbEntity
  8
0
100
AcDbCircle
 62
7
  6
CONTINUOUS
 10
357.3617577425
 20
566.7684525044
 40
23.4964095259
100
AcDbArc
 50
348.0302281422
 51
116.2470204261
  0
ARC
  5
2DB
100
AcDbEntity
  8
0
100
AcDbCircle
 62
7
  6
CONTINUOUS
 10
357.3617577425
 20
566.7684525044
 40
22.0946142411
100
AcDbArc
 50
348.6660414367
 51
194.1854233134
  0
ARC
  5
2DC
100
AcDbEntity
  8
0
100
AcDbCircle
 62
7
  6
CONTINUOUS
 10
357.3617577425
 20
566.7684525044
 40
21.4034752176
100
AcDbArc
 50
348.6645244141
 51
191.3339453022
  0
ARC
  5
2DD
100
AcDbEntity
  8
0
100
AcDbCircle
 62
7
  6
CONTINUOUS
 10
357.3617577425
 20
566.7684525044
 40
21.2
100
AcDbArc
 50
350.2970967706
 51
189.7029032294
  0
ARC
  5
2DE
100
AcDbEntity
  8
0
100
AcDbCircle
 62
7
  6
CONTINUOUS
 10
357.3617577425
 20
566.7684525044
 40
20.5
100
AcDbArc
 50
350.2970967706
 51
189.7029032294
  0
CIRCLE
  5
2DF
100
AcDbEntity
  8
02___PRT_ALL_AXES
100
AcDbCircle
 62
7
  6
CONTINUOUS
 10
357.3617577425
 20
566.7684525044
 40
19.0
  0
CIRCLE
  5
2E0
100
AcDbEntity
  8
02___PRT_ALL_AXES
100
AcDbCircle
 62
7
  6
CONTINUOUS
 10
357.3617577425
 20
566.7684525044
 40
17.627111188
  0
CIRCLE
  5
2E1
100
AcDbEntity
  8
02___PRT_ALL_AXES
100
AcDbCircle
 62
7
  6
CONTINUOUS
 10
357.3617577425
 20
566.7684525044
 40
5.0
  0
ARC
  5
2E2
100
AcDbEntity
  8
0
100
AcDbCircle
 62
7
  6
CONTINUOUS
 10
345.8617577425
 20
590.7684525044
 40
2.0
100
AcDbArc
 50
0.0
 51
90.0
  0
ARC
  5
2E3
100
AcDbEntity
  8
0
100
AcDbCircle
 62
7
  6
CONTINUOUS
 10
336.8617577425
 20
590.7684525044
 40
2.0
100
AcDbArc
 50
90.0
 51
180.0
  0
ARC
  5
2E4
100
AcDbEntity
  8
0
100
AcDbCircle
 62
7
  6
CONTINUOUS
 10
334.0243292619
 20
597.3806260362
 40
0.6121735318
100
AcDbArc
 50
240.2551187031
 51
270.0
  0
ARC
  5
2E5
100
AcDbEntity
  8
0
100
AcDbCircle
 62
7
  6
CONTINUOUS
 10
348.6991862231
 20
597.3806260362
 40
0.6121735318
100
AcDbArc
 50
270.0
 51
299.7448812969
  0
ARC
  5
2E6
100
AcDbEntity
  8
0
100
AcDbCircle
 62
3
  6
CONTINUOUS
 10
253.9620324819
 20
947.5794909772
 40
2.4661268191
100
AcDbArc
 50
60.8904131122
 51
64.3790074525
  0
ARC
  5
2E7
100
AcDbEntity
  8
0
100
AcDbCircle
 62
7
  6
CONTINUOUS
 10
567.5898520212
 20
563.804479252
 40
4.9936408661
100
AcDbArc
 50
330.6111644777
 51
331.8590538337
  0
ARC
  5
2E8
100
AcDbEntity
  8
0
100
AcDbCircle
 62
7
  6
CONTINUOUS
 10
567.8030410364
 20
563.6908170379
 40
4.7520450347
100
AcDbArc
 50
331.8551627515
 51
332.5968142245
  0
ARC
  5
2E9
100
AcDbEntity
  8
0
100
AcDbCircle
 62
7
  6
CONTINUOUS
 10
571.430045543
 20
563.0184525044
 40
1.75
100
AcDbArc
 50
189.7029032294
 51
9.7029036355
  0
ARC
  5
2EA
100
AcDbEntity
  8
0
100
AcDbCircle
 62
7
  6
CONTINUOUS
 10
571.430045543
 20
563.0184525044
 40
1.05
100
AcDbArc
 50
334.238184942
 51
9.7029032294
  0
ARC
  5
2EB
100
AcDbEntity
  8
0
100
AcDbCircle
 62
7
  6
CONTINUOUS
 10
615.293469942
 20
563.0184525044
 40
1.75
100
AcDbArc
 50
170.2970964402
 51
309.0258593869
  0
ARC
  5
2EC
100
AcDbEntity
  8
0
100
AcDbCircle
 62
7
  6
CONTINUOUS
 10
615.293469942
 20
563.0184525044
 40
1.05
100
AcDbArc
 50
170.2970967706
 51
205.8028486232
  0
ARC
  5
2ED
100
AcDbEntity
  8
0
100
AcDbCircle
 62
7
  6
CONTINUOUS
 10
593.3617577425
 20
566.7684525044
 40
24.0
100
AcDbArc
 50
159.6241475754
 51
189.7029032294
  0
ARC
  5
2EE
100
AcDbEntity
  8
0
100
AcDbCircle
 62
7
  6
CONTINUOUS
 10
593.3617577425
 20
566.7684525044
 40
23.7495802832
100
AcDbArc
 50
348.5733681053
 51
113.5979106471
  0
ARC
  5
2EF
100
AcDbEntity
  8
0
100
AcDbCircle
 62
7
  6
CONTINUOUS
 10
593.3617577425
 20
566.7684525044
 40
23.4964095259
100
AcDbArc
 50
348.0302281422
 51
116.2470204261
  0
ARC
  5
2F0
100
AcDbEntity
  8
0
100
AcDbCircle
 62
7
  6
CONTINUOUS
 10
593.3617577425
 20
566.7684525044
 40
22.0946142411
100
AcDbArc
 50
348.6660414367
 51
194.1854233134
  0
ARC
  5
2F1
100
AcDbEntity
  8
0
100
AcDbCircle
 62
7
  6
CONTINUOUS
 10
593.3617577425
 20
566.7684525044
 40
21.4034752176
100
AcDbArc
 50
348.6645244141
 51
191.3339453022
  0
ARC
  5
2F2
100
AcDbEntity
  8
0
100
AcDbCircle
 62
7
  6
CONTINUOUS
 10
593.3617577425
 20
566.7684525044
 40
21.2
100
AcDbArc
 50
350.2970967706
 51
189.7029032294
  0
ARC
  5
2F3
100
AcDbEntity
  8
0
100
AcDbCircle
 62
7
  6
CONTINUOUS
 10
593.3617577425
 20
566.7684525044
 40
20.5
100
AcDbArc
 50
350.2970967706
 51
189.7029032294
  0
CIRCLE
  5
2F4
100
AcDbEntity
  8
02___PRT_ALL_AXES
100
AcDbCircle
 62
7
  6
CONTINUOUS
 10
593.3617577425
 20
566.7684525044
 40
19.0
  0
CIRCLE
  5
2F5
100
AcDbEntity
  8
02___PRT_ALL_AXES
100
AcDbCircle
 62
7
  6
CONTINUOUS
 10
593.3617577425
 20
566.7684525044
 40
17.627111188
  0
CIRCLE
  5
2F6
100
AcDbEntity
  8
02___PRT_ALL_AXES
100
AcDbCircle
 62
7
  6
CONTINUOUS
 10
593.3617577425
 20
566.7684525044
 40
5.0
  0
ARC
  5
2F7
100
AcDbEntity
  8
0
100
AcDbCircle
 62
7
  6
CONTINUOUS
 10
581.8617577425
 20
590.7684525044
 40
2.0
100
AcDbArc
 50
0.0
 51
90.0
  0
ARC
  5
2F8
100
AcDbEntity
  8
0
100
AcDbCircle
 62
7
  6
CONTINUOUS
 10
572.8617577425
 20
590.7684525044
 40
2.0
100
AcDbArc
 50
90.0
 51
180.0
  0
ARC
  5
2F9
100
AcDbEntity
  8
0
100
AcDbCircle
 62
7
  6
CONTINUOUS
 10
570.0243292619
 20
597.3806260362
 40
0.6121735318
100
AcDbArc
 50
240.2551187031
 51
270.0
  0
ARC
  5
2FA
100
AcDbEntity
  8
0
100
AcDbCircle
 62
7
  6
CONTINUOUS
 10
584.6991862231
 20
597.3806260362
 40
0.6121735318
100
AcDbArc
 50
270.0
 51
299.7448812969
  0
ARC
  5
2FB
100
AcDbEntity
  8
0
100
AcDbCircle
 62
3
  6
CONTINUOUS
 10
664.7614830029
 20
603.9574140312
 40
2.4661268187
100
AcDbArc
 50
240.8904131121
 51
244.3790074529
  0
ARC
  5
2FC
100
AcDbEntity
  8
0
100
AcDbCircle
 62
3
  6
CONTINUOUS
 10
664.761483003
 20
947.5794909774
 40
2.4661268189
100
AcDbArc
 50
115.6209925473
 51
119.1095868878
  0
ARC
  5
2FD
100
AcDbEntity
  8
0
100
AcDbCircle
 62
7
  6
CONTINUOUS
 10
261.4842707131
 20
82.4612731219
 40
8.6517285505
100
AcDbArc
 50
144.9405322031
 51
145.4112039829
  0
ARC
  5
2FE
100
AcDbEntity
  8
0
100
AcDbCircle
 62
7
  6
CONTINUOUS
 10
260.5326924166
 20
83.1300684913
 40
7.4886345324
100
AcDbArc
 50
144.1631239842
 51
144.9469209741
  0
CIRCLE
  5
2FF
100
AcDbEntity
  8
02___PRT_ALL_AXES
100
AcDbCircle
 62
7
  6
CONTINUOUS
 10
323.3617577425
 20
133.3593775442
 40
2.5
  0
CIRCLE
  5
300
100
AcDbEntity
  8
02___PRT_ALL_AXES
100
AcDbCircle
 62
7
  6
CONTINUOUS
 10
323.3617577425
 20
153.3593775442
 40
2.5
  0
CIRCLE
  5
301
100
AcDbEntity
  8
02___PRT_ALL_AXES
100
AcDbCircle
 62
7
  6
CONTINUOUS
 10
359.3617577425
 20
133.3593775442
 40
2.5
  0
CIRCLE
  5
302
100
AcDbEntity
  8
02___PRT_ALL_AXES
100
AcDbCircle
 62
7
  6
CONTINUOUS
 10
359.3617577425
 20
153.3593775442
 40
2.5
  0
ARC
  5
303
100
AcDbEntity
  8
0
100
AcDbCircle
 62
7
  6
CONTINUOUS
 10
255.9617577425
 20
49.9593775442
 40
1.6
100
AcDbArc
 50
180.0
 51
270.0000000002
  0
ARC
  5
304
100
AcDbEntity
  8
0
100
AcDbCircle
 62
3
  6
CONTINUOUS
 10
255.9617577425
 20
89.9593775442
 40
1.6
100
AcDbArc
 50
210.0199878578
 51
266.2522382812
  0
CIRCLE
  5
305
100
AcDbEntity
  8
0
100
AcDbCircle
 62
7
  6
CONTINUOUS
 10
323.3617577425
 20
133.3593775442
 40
0.75
  0
CIRCLE
  5
306
100
AcDbEntity
  8
0
100
AcDbCircle
 62
7
  6
CONTINUOUS
 10
323.3617577425
 20
153.3593775442
 40
0.75
  0
CIRCLE
  5
307
100
AcDbEntity
  8
0
100
AcDbCircle
 62
7
  6
CONTINUOUS
 10
359.3617577425
 20
133.3593775442
 40
0.75
  0
CIRCLE
  5
308
100
AcDbEntity
  8
0
100
AcDbCircle
 62
7
  6
CONTINUOUS
 10
359.3617577425
 20
153.3593775442
 40
0.75
  0
ARC
  5
309
100
AcDbEntity
  8
0
100
AcDbCircle
 62
3
  6
CONTINUOUS
 10
256.0621655465
 20
89.0182760786
 40
0.6588986606
100
AcDbArc
 50
261.2346990565
 51
269.9645386278
  0
ARC
  5
30A
100
AcDbEntity
  8
0
100
AcDbCircle
 62
7
  6
CONTINUOUS
 10
261.4842707074
 20
424.2574819625
 40
8.6517285436
100
AcDbArc
 50
214.5887960169
 51
215.0594677971
  0
ARC
  5
30B
100
AcDbEntity
  8
0
100
AcDbCircle
 62
7
  6
CONTINUOUS
 10
319.3617577425
 20
424.958719621
 40
8.0
100
AcDbArc
 50
275.3793789911
 51
288.2099568643
  0
ARC
  5
30C
100
AcDbEntity
  8
0
100
AcDbCircle
 62
7
  6
CONTINUOUS
 10
319.3617577425
 20
424.958719621
 40
8.0
100
AcDbArc
 50
251.7900431357
 51
264.6206210089
  0
ARC
  5
30D
100
AcDbEntity
  8
02___PRT_ALL_AXES
100
AcDbCircle
 62
7
  6
CONTINUOUS
 10
319.3617577425
 20
424.958719621
 40
8.0
100
AcDbArc
 50
275.3793789911
 51
288.2099568643
  0
ARC
  5
30E
100
AcDbEntity
  8
02___PRT_ALL_AXES
100
AcDbCircle
 62
7
  6
CONTINUOUS
 10
319.3617577425
 20
424.958719621
 40
8.0
100
AcDbArc
 50
251.7900431357
 51
264.6206210089
  0
ARC
  5
30F
100
AcDbEntity
  8
0
100
AcDbCircle
 62
7
  6
CONTINUOUS
 10
260.5326924138
 20
423.588686595
 40
7.4886345289
100
AcDbArc
 50
215.0530790256
 51
215.8368760159
  0
CIRCLE
  5
310
100
AcDbEntity
  8
02___PRT_ALL_AXES
100
AcDbCircle
 62
7
  6
CONTINUOUS
 10
323.3617577425
 20
373.3593775442
 40
2.5
  0
CIRCLE
  5
311
100
AcDbEntity
  8
02___PRT_ALL_AXES
100
AcDbCircle
 62
7
  6
CONTINUOUS
 10
323.3617577425
 20
353.3593775442
 40
2.5
  0
CIRCLE
  5
312
100
AcDbEntity
  8
02___PRT_ALL_AXES
100
AcDbCircle
 62
7
  6
CONTINUOUS
 10
359.3617577425
 20
353.3593775442
 40
2.5
  0
CIRCLE
  5
313
100
AcDbEntity
  8
02___PRT_ALL_AXES
100
AcDbCircle
 62
7
  6
CONTINUOUS
 10
359.3617577425
 20
373.3593775442
 40
2.5
  0
ARC
  5
314
100
AcDbEntity
  8
0
100
AcDbCircle
 62
7
  6
CONTINUOUS
 10
255.9617577425
 20
456.7593775442
 40
1.6
100
AcDbArc
 50
90.0
 51
180.0
  0
ARC
  5
315
100
AcDbEntity
  8
0
100
AcDbCircle
 62
3
  6
CONTINUOUS
 10
255.9617577425
 20
416.7593775442
 40
1.6
100
AcDbArc
 50
95.6216424169
 51
149.9800121422
  0
CIRCLE
  5
316
100
AcDbEntity
  8
0
100
AcDbCircle
 62
7
  6
CONTINUOUS
 10
323.3617577425
 20
373.3593775442
 40
0.75
  0
CIRCLE
  5
317
100
AcDbEntity
  8
0
100
AcDbCircle
 62
7
  6
CONTINUOUS
 10
323.3617577425
 20
353.3593775442
 40
0.75
  0
CIRCLE
  5
318
100
AcDbEntity
  8
0
100
AcDbCircle
 62
7
  6
CONTINUOUS
 10
359.3617577425
 20
353.3593775442
 40
0.75
  0
CIRCLE
  5
319
100
AcDbEntity
  8
0
100
AcDbCircle
 62
7
  6
CONTINUOUS
 10
359.3617577425
 20
373.3593775442
 40
0.75
  0
ARC
  5
31A
100
AcDbEntity
  8
0
100
AcDbCircle
 62
3
  6
CONTINUOUS
 10
256.0621655465
 20
417.7004790098
 40
0.6588986606
100
AcDbArc
 50
90.0354613721
 51
98.7653009435
  0
ARC
  5
31B
100
AcDbEntity
  8
0
100
AcDbCircle
 62
7
  6
CONTINUOUS
 10
657.2392447843
 20
82.4612731306
 40
8.6517285353
100
AcDbArc
 50
34.5887960168
 51
35.0594677974
  0
ARC
  5
31C
100
AcDbEntity
  8
0
100
AcDbCircle
 62
7
  6
CONTINUOUS
 10
658.1908230703
 20
83.1300684927
 40
7.4886345301
100
AcDbArc
 50
35.0530790256
 51
35.8368760157
  0
CIRCLE
  5
31D
100
AcDbEntity
  8
02___PRT_ALL_AXES
100
AcDbCircle
 62
7
  6
CONTINUOUS
 10
559.3617577425
 20
133.3593775442
 40
2.5
  0
CIRCLE
  5
31E
100
AcDbEntity
  8
02___PRT_ALL_AXES
100
AcDbCircle
 62
7
  6
CONTINUOUS
 10
559.3617577425
 20
153.3593775442
 40
2.5
  0
CIRCLE
  5
31F
100
AcDbEntity
  8
02___PRT_ALL_AXES
100
AcDbCircle
 62
7
  6
CONTINUOUS
 10
595.3617577425
 20
153.3593775442
 40
2.5
  0
CIRCLE
  5
320
100
AcDbEntity
  8
02___PRT_ALL_AXES
100
AcDbCircle
 62
7
  6
CONTINUOUS
 10
595.3617577425
 20
133.3593775442
 40
2.5
  0
ARC
  5
321
100
AcDbEntity
  8
0
100
AcDbCircle
 62
7
  6
CONTINUOUS
 10
662.7617577425
 20
49.9593775442
 40
1.6
100
AcDbArc
 50
270.0
 51
360.0
  0
ARC
  5
322
100
AcDbEntity
  8
0
100
AcDbCircle
 62
3
  6
CONTINUOUS
 10
662.7617577425
 20
89.9593775442
 40
1.6
100
AcDbArc
 50
275.6216424169
 51
329.9800121422
  0
CIRCLE
  5
323
100
AcDbEntity
  8
0
100
AcDbCircle
 62
7
  6
CONTINUOUS
 10
559.3617577425
 20
133.3593775442
 40
0.75
  0
CIRCLE
  5
324
100
AcDbEntity
  8
0
100
AcDbCircle
 62
7
  6
CONTINUOUS
 10
559.3617577425
 20
153.3593775442
 40
0.75
  0
CIRCLE
  5
325
100
AcDbEntity
  8
0
100
AcDbCircle
 62
7
  6
CONTINUOUS
 10
595.3617577425
 20
153.3593775442
 40
0.75
  0
CIRCLE
  5
326
100
AcDbEntity
  8
0
100
AcDbCircle
 62
7
  6
CONTINUOUS
 10
595.3617577425
 20
133.3593775442
 40
0.75
  0
ARC
  5
327
100
AcDbEntity
  8
0
100
AcDbCircle
 62
3
  6
CONTINUOUS
 10
662.6613499385
 20
89.0182760786
 40
0.6588986606
100
AcDbArc
 50
270.0354613722
 51
278.7653009435
  0
CIRCLE
  5
328
100
AcDbEntity
  8
02___PRT_ALL_AXES
100
AcDbCircle
 62
7
  6
CONTINUOUS
 10
459.3617577425
 20
253.3593775442
 40
5.0
  0
CIRCLE
  5
329
100
AcDbEntity
  8
02___PRT_ALL_AXES
100
AcDbCircle
 62
7
  6
CONTINUOUS
 10
559.3617577425
 20
353.3593775442
 40
2.5
  0
CIRCLE
  5
32A
100
AcDbEntity
  8
0
100
AcDbCircle
 62
7
  6
CONTINUOUS
 10
559.3617577425
 20
353.3593775442
 40
0.75
  0
ARC
  5
32B
100
AcDbEntity
  8
0
100
AcDbCircle
 62
7
  6
CONTINUOUS
 10
459.3617577425
 20
424.958719621
 40
8.0
100
AcDbArc
 50
275.3793789911
 51
288.2099568643
  0
ARC
  5
32C
100
AcDbEntity
  8
0
100
AcDbCircle
 62
7
  6
CONTINUOUS
 10
459.3617577425
 20
424.958719621
 40
8.0
100
AcDbArc
 50
251.7900431357
 51
264.6206210089
  0
ARC
  5
32D
100
AcDbEntity
  8
02___PRT_ALL_AXES
100
AcDbCircle
 62
7
  6
CONTINUOUS
 10
459.3617577425
 20
424.958719621
 40
8.0
100
AcDbArc
 50
275.3793789911
 51
288.2099568643
  0
ARC
  5
32E
100
AcDbEntity
  8
02___PRT_ALL_AXES
100
AcDbCircle
 62
7
  6
CONTINUOUS
 10
459.3617577425
 20
424.958719621
 40
8.0
100
AcDbArc
 50
251.7900431357
 51
264.6206210089
  0
CIRCLE
  5
32F
100
AcDbEntity
  8
02___PRT_ALL_AXES
100
AcDbCircle
 62
7
  6
CONTINUOUS
 10
559.3617577425
 20
373.3593775442
 40
2.5
  0
CIRCLE
  5
330
100
AcDbEntity
  8
0
100
AcDbCircle
 62
7
  6
CONTINUOUS
 10
559.3617577425
 20
373.3593775442
 40
0.75
  0
CIRCLE
  5
331
100
AcDbEntity
  8
02___PRT_ALL_AXES
100
AcDbCircle
 62
7
  6
CONTINUOUS
 10
595.3617577425
 20
353.3593775442
 40
2.5
  0
CIRCLE
  5
332
100
AcDbEntity
  8
0
100
AcDbCircle
 62
7
  6
CONTINUOUS
 10
595.3617577425
 20
353.3593775442
 40
0.75
  0
ARC
  5
333
100
AcDbEntity
  8
0
100
AcDbCircle
 62
7
  6
CONTINUOUS
 10
657.2392447753
 20
424.2574819641
 40
8.6517285463
100
AcDbArc
 50
324.940532203
 51
325.411203983
  0
ARC
  5
334
100
AcDbEntity
  8
0
100
AcDbCircle
 62
7
  6
CONTINUOUS
 10
599.3617577425
 20
424.958719621
 40
8.0
100
AcDbArc
 50
275.3793789911
 51
288.2099568643
  0
ARC
  5
335
100
AcDbEntity
  8
0
100
AcDbCircle
 62
7
  6
CONTINUOUS
 10
599.3617577425
 20
424.958719621
 40
8.0
100
AcDbArc
 50
251.7900431357
 51
264.6206210089
  0
ARC
  5
336
100
AcDbEntity
  8
02___PRT_ALL_AXES
100
AcDbCircle
 62
7
  6
CONTINUOUS
 10
599.3617577425
 20
424.958719621
 40
8.0
100
AcDbArc
 50
275.3793789911
 51
288.2099568643
  0
ARC
  5
337
100
AcDbEntity
  8
02___PRT_ALL_AXES
100
AcDbCircle
 62
7
  6
CONTINUOUS
 10
599.3617577425
 20
424.958719621
 40
8.0
100
AcDbArc
 50
251.7900431357
 51
264.6206210089
  0
ARC
  5
338
100
AcDbEntity
  8
0
100
AcDbCircle
 62
7
  6
CONTINUOUS
 10
658.1908230717
 20
423.5886865947
 40
7.4886345283
100
AcDbArc
 50
324.163123984
 51
324.9469209743
  0
CIRCLE
  5
339
100
AcDbEntity
  8
02___PRT_ALL_AXES
100
AcDbCircle
 62
7
  6
CONTINUOUS
 10
595.3617577425
 20
373.3593775442
 40
2.5
  0
ARC
  5
33A
100
AcDbEntity
  8
0
100
AcDbCircle
 62
7
  6
CONTINUOUS
 10
662.7617577425
 20
456.7593775442
 40
1.6
100
AcDbArc
 50
0.0000000003
 51
89.9999999998
  0
ARC
  5
33B
100
AcDbEntity
  8
0
100
AcDbCircle
 62
3
  6
CONTINUOUS
 10
662.7617577425
 20
416.7593775442
 40
1.6
100
AcDbArc
 50
30.0199878578
 51
86.2522382812
  0
CIRCLE
  5
33C
100
AcDbEntity
  8
0
100
AcDbCircle
 62
7
  6
CONTINUOUS
 10
595.3617577425
 20
373.3593775442
 40
0.75
  0
ARC
  5
33D
100
AcDbEntity
  8
0
100
AcDbCircle
 62
3
  6
CONTINUOUS
 10
662.6613499385
 20
417.7004790098
 40
0.6588986606
100
AcDbArc
 50
81.2346990564
 51
89.9645386278
  0
SPLINE
  5
33E
100
AcDbEntity
  8
0
100
AcDbSpline
 62
7
  6
CONTINUOUS
 70
0
 71
3
 72
9
 73
5
 74
0
 42
0.0000001
 43
0.0000001
 44
0.0000000001
 40
0.0
 40
0.0
 40
0.0
 40
0.0
 40
0.2780616899
 40
1.0
 40
1.0
 40
1.0
 40
1.0
 10
334.8634887422
 20
575.124761019
 30
0.0
 10
334.8640420858
 20
575.1151907329
 30
0.0
 10
334.8666040928
 20
575.0808262602
 30
0.0
 10
334.8714839582
 20
575.0465057002
 30
0.0
 10
334.8775929407
 20
575.0223780014
 30
0.0
  0
SPLINE
  5
33F
100
AcDbEntity
  8
0
100
AcDbSpline
 62
7
  6
CONTINUOUS
 70
0
 71
3
 72
28
 73
24
 74
0
 42
0.0000001
 43
0.0000001
 44
0.0000000001
 40
0.0
 40
0.0
 40
0.0
 40
0.0
 40
0.0041592163
 40
0.0057087448
 40
0.0072140971
 40
0.0111462126
 40
0.0171400703
 40
0.0251561215
 40
0.0349021303
 40
0.0582539797
 40
0.0851438473
 40
0.1143436089
 40
0.1451484267
 40
0.1771474815
 40
0.2437847975
 40
0.3130585423
 40
0.3843466156
 40
0.4572176276
 40
0.6058749031
 40
0.7537164388
 40
0.8904804563
 40
0.9498127918
 40
1.0
 40
1.0
 40
1.0
 40
1.0
 10
334.8775929407
 20
575.0223780014
 30
0.0
 10
334.8836930569
 20
574.9982853209
 30
0.0
 10
334.8950276599
 20
574.963904676
 30
0.0
 10
334.9296882337
 20
574.9358234152
 30
0.0
 10
334.9726565562
 20
574.9291038736
 30
0.0
 10
335.0366269434
 20
574.9635802819
 30
0.0
 10
335.1134402104
 20
575.0370185988
 30
0.0
 10
335.2045078919
 20
575.1468376826
 30
0.0
 10
335.3478339612
 20
575.3461779545
 30
0.0
 10
335.5412672878
 20
575.648310847
 30
0.0
 10
335.7885651733
 20
576.0533993267
 30
0.0
 10
336.0571802042
 20
576.4977771892
 30
0.0
 10
336.3441659956
 20
576.9666824666
 30
0.0
 10
336.754996547
 20
577.6220341063
 30
0.0
 10
337.3064219089
 20
578.4604741025
 30
0.0
 10
338.0240973815
 20
579.4697186744
 30
0.0
 10
338.8044903421
 20
580.4789056833
 30
0.0
 10
339.9323440503
 20
581.8171615822
 30
0.0
 10
341.4630412548
 20
583.411309736
 30
0.0
 10
343.4046565499
 20
585.1276414557
 30
0.0
 10
345.0322693651
 20
586.3837942001
 30
0.0
 10
346.2142830875
 20
587.2602742931
 30
0.0
 10
346.7363597516
 20
587.6550990756
 30
0.0
 10
346.9706574447
 20
587.8422821328
 30
0.0
  0
SPLINE
  5
340
100
AcDbEntity
  8
0
100
AcDbSpline
 62
7
  6
CONTINUOUS
 70
0
 71
3
 72
11
 73
7
 74
0
 42
0.0000001
 43
0.0000001
 44
0.0000000001
 40
0.0
 40
0.0
 40
0.0
 40
0.0
 40
0.2445628394
 40
0.469820374
 40
0.7052851552
 40
1.0
 40
1.0
 40
1.0
 40
1.0
 10
380.3472884727
 20
561.8954003132
 30
0.0
 10
380.2290289124
 20
561.8479354293
 30
0.0
 10
379.9823832743
 20
561.7982463256
 30
0.0
 10
379.6127771331
 20
561.8594563398
 30
0.0
 10
379.2636329796
 20
562.0580795921
 30
0.0
 10
379.0901208447
 20
562.2869594784
 30
0.0
 10
379.0254905773
 20
562.4262574229
 30
0.0
  0
SPLINE
  5
341
100
AcDbEntity
  8
0
100
AcDbSpline
 62
7
  6
CONTINUOUS
 70
0
 71
3
 72
14
 73
10
 74
0
 42
0.0000001
 43
0.0000001
 44
0.0000000001
 40
0.0
 40
0.0
 40
0.0
 40
0.0
 40
0.4110717566
 40
0.5805626754
 40
0.7234323011
 40
0.8380602856
 40
0.9230411957
 40
0.9772541769
 40
1.0
 40
1.0
 40
1.0
 40
1.0
 10
346.9706574447
 20
587.8422821328
 30
0.0
 10
347.0914086384
 20
587.938751617
 30
0.0
 10
347.2623696075
 20
588.0744815739
 30
0.0
 10
347.4763970265
 20
588.24230994
 30
0.0
 10
347.6030249942
 20
588.3410454501
 30
0.0
 10
347.7051694703
 20
588.4193107103
 30
0.0
 10
347.7806935545
 20
588.477978837
 30
0.0
 10
347.8302963206
 20
588.5127160946
 30
0.0
 10
347.8529607034
 20
588.5314389671
 30
0.0
 10
347.860817105
 20
588.5348173309
 30
0.0
  0
SPLINE
  5
342
100
AcDbEntity
  8
0
100
AcDbSpline
 62
7
  6
CONTINUOUS
 70
0
 71
3
 72
9
 73
5
 74
0
 42
0.0000001
 43
0.0000001
 44
0.0000000001
 40
0.0
 40
0.0
 40
0.0
 40
0.0
 40
0.22112283
 40
1.0
 40
1.0
 40
1.0
 40
1.0
 10
336.0218581266
 20
561.5036923564
 30
0.0
 10
336.0597986637
 20
561.5768897556
 30
0.0
 10
336.2224785336
 20
561.9119295265
 30
0.0
 10
336.3392170616
 20
562.273983158
 30
0.0
 10
336.3756846072
 20
562.5620899726
 30
0.0
  0
SPLINE
  5
343
100
AcDbEntity
  8
0
100
AcDbSpline
 62
7
  6
CONTINUOUS
 70
0
 71
3
 72
9
 73
5
 74
0
 42
0.0000001
 43
0.0000001
 44
0.0000000001
 40
0.0
 40
0.0
 40
0.0
 40
0.0
 40
0.4981574309
 40
1.0
 40
1.0
 40
1.0
 40
1.0
 10
379.9229813354
 20
561.3855975183
 30
0.0
 10
380.0291236841
 20
561.4265183707
 30
0.0
 10
380.2242032697
 20
561.5659322317
 30
0.0
 10
380.3253587196
 20
561.7829193491
 30
0.0
 10
380.3472884727
 20
561.8954003132
 30
0.0
  0
SPLINE
  5
344
100
AcDbEntity
  8
0
100
AcDbSpline
 62
7
  6
CONTINUOUS
 70
0
 71
3
 72
11
 73
7
 74
0
 42
0.0000001
 43
0.0000001
 44
0.0000000001
 40
0.0
 40
0.0
 40
0.0
 40
0.0
 40
0.2456157795
 40
0.4959456986
 40
0.749278703
 40
1.0
 40
1.0
 40
1.0
 40
1.0
 10
377.7174048351
 20
562.2578482847
 30
0.0
 10
377.7773323528
 20
562.1336711277
 30
0.0
 10
377.9870977705
 20
561.9176461174
 30
0.0
 10
378.4277935118
 20
561.8440456363
 30
0.0
 10
378.8366959027
 20
562.0287544934
 30
0.0
 10
378.9925361058
 20
562.2894275572
 30
0.0
 10
379.0254915823
 20
562.426262437
 30
0.0
  0
SPLINE
  5
345
100
AcDbEntity
  8
0
100
AcDbSpline
 62
7
  6
CONTINUOUS
 70
0
 71
3
 72
8
 73
4
 74
0
 42
0.0000001
 43
0.0000001
 44
0.0000000001
 40
0.0
 40
0.0
 40
0.0
 40
0.0
 40
1.0
 40
1.0
 40
1.0
 40
1.0
 10
335.9259390558
 20
561.3401826739
 30
0.0
 10
335.9324243361
 20
561.3420989381
 30
0.0
 10
335.9375411342
 20
561.3480371059
 30
0.0
 10
335.9408585005
 20
561.3539299838
 30
0.0
  0
SPLINE
  5
346
100
AcDbEntity
  8
0
100
AcDbSpline
 62
7
  6
CONTINUOUS
 70
0
 71
3
 72
13
 73
9
 74
0
 42
0.0000001
 43
0.0000001
 44
0.0000000001
 40
0.0
 40
0.0
 40
0.0
 40
0.0
 40
0.0183708959
 40
0.0725046047
 40
0.1604787119
 40
0.2792249556
 40
0.5961396459
 40
1.0
 40
1.0
 40
1.0
 40
1.0
 10
380.6407504638
 20
562.0640863459
 30
0.0
 10
380.6399289322
 20
562.0621750054
 30
0.0
 10
380.6316178024
 20
562.0584757385
 30
0.0
 10
380.6190944003
 20
562.0459339765
 30
0.0
 10
380.5944549409
 20
562.028972985
 30
0.0
 10
380.5463624172
 20
561.994628236
 30
0.0
 10
380.464366809
 20
561.9458505028
 30
0.0
 10
380.3900054916
 20
561.9117396031
 30
0.0
 10
380.3472884727
 20
561.8954003132
 30
0.0
  0
SPLINE
  5
347
100
AcDbEntity
  8
0
100
AcDbSpline
 62
7
  6
CONTINUOUS
 70
0
 71
3
 72
9
 73
5
 74
0
 42
0.0000001
 43
0.0000001
 44
0.0000000001
 40
0.0
 40
0.0
 40
0.0
 40
0.0
 40
0.2780616899
 40
1.0
 40
1.0
 40
1.0
 40
1.0
 10
570.8634887422
 20
575.124761019
 30
0.0
 10
570.8640420858
 20
575.1151907329
 30
0.0
 10
570.8666040928
 20
575.0808262602
 30
0.0
 10
570.8714839582
 20
575.0465057002
 30
0.0
 10
570.8775929407
 20
575.0223780014
 30
0.0
  0
SPLINE
  5
348
100
AcDbEntity
  8
0
100
AcDbSpline
 62
7
  6
CONTINUOUS
 70
0
 71
3
 72
28
 73
24
 74
0
 42
0.0000001
 43
0.0000001
 44
0.0000000001
 40
0.0
 40
0.0
 40
0.0
 40
0.0
 40
0.0041592163
 40
0.0057087448
 40
0.0072140971
 40
0.0111462126
 40
0.0171400703
 40
0.0251561215
 40
0.0349021303
 40
0.0582539797
 40
0.0851438473
 40
0.1143436089
 40
0.1451484267
 40
0.1771474815
 40
0.2437847975
 40
0.3130585423
 40
0.3843466156
 40
0.4572176276
 40
0.6058749031
 40
0.7537164388
 40
0.8904804563
 40
0.9498127918
 40
1.0
 40
1.0
 40
1.0
 40
1.0
 10
570.8775929407
 20
575.0223780014
 30
0.0
 10
570.8836930569
 20
574.9982853209
 30
0.0
 10
570.8950276599
 20
574.963904676
 30
0.0
 10
570.9296882337
 20
574.9358234152
 30
0.0
 10
570.9726565562
 20
574.9291038736
 30
0.0
 10
571.0366269434
 20
574.9635802819
 30
0.0
 10
571.1134402104
 20
575.0370185988
 30
0.0
 10
571.2045078919
 20
575.1468376826
 30
0.0
 10
571.3478339612
 20
575.3461779545
 30
0.0
 10
571.5412672878
 20
575.648310847
 30
0.0
 10
571.7885651733
 20
576.0533993267
 30
0.0
 10
572.0571802042
 20
576.4977771892
 30
0.0
 10
572.3441659956
 20
576.9666824666
 30
0.0
 10
572.754996547
 20
577.6220341063
 30
0.0
 10
573.3064219089
 20
578.4604741025
 30
0.0
 10
574.0240973815
 20
579.4697186744
 30
0.0
 10
574.8044903421
 20
580.4789056833
 30
0.0
 10
575.9323440503
 20
581.8171615822
 30
0.0
 10
577.4630412548
 20
583.411309736
 30
0.0
 10
579.4046565499
 20
585.1276414557
 30
0.0
 10
581.0322693651
 20
586.3837942001
 30
0.0
 10
582.2142830875
 20
587.2602742931
 30
0.0
 10
582.7363597516
 20
587.6550990756
 30
0.0
 10
582.9706574447
 20
587.8422821328
 30
0.0
  0
SPLINE
  5
349
100
AcDbEntity
  8
0
100
AcDbSpline
 62
7
  6
CONTINUOUS
 70
0
 71
3
 72
11
 73
7
 74
0
 42
0.0000001
 43
0.0000001
 44
0.0000000001
 40
0.0
 40
0.0
 40
0.0
 40
0.0
 40
0.2445628394
 40
0.469820374
 40
0.7052851552
 40
1.0
 40
1.0
 40
1.0
 40
1.0
 10
616.3472884727
 20
561.8954003132
 30
0.0
 10
616.2290289124
 20
561.8479354293
 30
0.0
 10
615.9823832743
 20
561.7982463256
 30
0.0
 10
615.6127771331
 20
561.8594563398
 30
0.0
 10
615.2636329796
 20
562.0580795921
 30
0.0
 10
615.0901208447
 20
562.2869594784
 30
0.0
 10
615.0254905773
 20
562.4262574229
 30
0.0
  0
SPLINE
  5
34A
100
AcDbEntity
  8
0
100
AcDbSpline
 62
7
  6
CONTINUOUS
 70
0
 71
3
 72
14
 73
10
 74
0
 42
0.0000001
 43
0.0000001
 44
0.0000000001
 40
0.0
 40
0.0
 40
0.0
 40
0.0
 40
0.4110717566
 40
0.5805626754
 40
0.7234323011
 40
0.8380602856
 40
0.9230411957
 40
0.9772541769
 40
1.0
 40
1.0
 40
1.0
 40
1.0
 10
582.9706574447
 20
587.8422821328
 30
0.0
 10
583.0914086384
 20
587.938751617
 30
0.0
 10
583.2623696075
 20
588.0744815739
 30
0.0
 10
583.4763970265
 20
588.24230994
 30
0.0
 10
583.6030249942
 20
588.3410454501
 30
0.0
 10
583.7051694703
 20
588.4193107103
 30
0.0
 10
583.7806935545
 20
588.477978837
 30
0.0
 10
583.8302963206
 20
588.5127160946
 30
0.0
 10
583.8529607034
 20
588.5314389671
 30
0.0
 10
583.860817105
 20
588.5348173309
 30
0.0
  0
SPLINE
  5
34B
100
AcDbEntity
  8
0
100
AcDbSpline
 62
7
  6
CONTINUOUS
 70
0
 71
3
 72
9
 73
5
 74
0
 42
0.0000001
 43
0.0000001
 44
0.0000000001
 40
0.0
 40
0.0
 40
0.0
 40
0.0
 40
0.22112283
 40
1.0
 40
1.0
 40
1.0
 40
1.0
 10
572.0218581266
 20
561.5036923564
 30
0.0
 10
572.0597986637
 20
561.5768897556
 30
0.0
 10
572.2224785336
 20
561.9119295265
 30
0.0
 10
572.3392170616
 20
562.273983158
 30
0.0
 10
572.3756846072
 20
562.5620899726
 30
0.0
  0
SPLINE
  5
34C
100
AcDbEntity
  8
0
100
AcDbSpline
 62
7
  6
CONTINUOUS
 70
0
 71
3
 72
9
 73
5
 74
0
 42
0.0000001
 43
0.0000001
 44
0.0000000001
 40
0.0
 40
0.0
 40
0.0
 40
0.0
 40
0.4981574309
 40
1.0
 40
1.0
 40
1.0
 40
1.0
 10
615.9229813354
 20
561.3855975183
 30
0.0
 10
616.0291236841
 20
561.4265183707
 30
0.0
 10
616.2242032697
 20
561.5659322317
 30
0.0
 10
616.3253587196
 20
561.7829193491
 30
0.0
 10
616.3472884727
 20
561.8954003132
 30
0.0
  0
SPLINE
  5
34D
100
AcDbEntity
  8
0
100
AcDbSpline
 62
7
  6
CONTINUOUS
 70
0
 71
3
 72
11
 73
7
 74
0
 42
0.0000001
 43
0.0000001
 44
0.0000000001
 40
0.0
 40
0.0
 40
0.0
 40
0.0
 40
0.2456157795
 40
0.4959456986
 40
0.749278703
 40
1.0
 40
1.0
 40
1.0
 40
1.0
 10
613.7174048351
 20
562.2578482847
 30
0.0
 10
613.7773323528
 20
562.1336711277
 30
0.0
 10
613.9870977705
 20
561.9176461174
 30
0.0
 10
614.4277935118
 20
561.8440456363
 30
0.0
 10
614.8366959027
 20
562.0287544934
 30
0.0
 10
614.9925361058
 20
562.2894275572
 30
0.0
 10
615.0254915823
 20
562.426262437
 30
0.0
  0
SPLINE
  5
34E
100
AcDbEntity
  8
0
100
AcDbSpline
 62
7
  6
CONTINUOUS
 70
0
 71
3
 72
8
 73
4
 74
0
 42
0.0000001
 43
0.0000001
 44
0.0000000001
 40
0.0
 40
0.0
 40
0.0
 40
0.0
 40
1.0
 40
1.0
 40
1.0
 40
1.0
 10
571.9259390558
 20
561.3401826739
 30
0.0
 10
571.9324243361
 20
561.3420989381
 30
0.0
 10
571.9375411342
 20
561.3480371059
 30
0.0
 10
571.9408585005
 20
561.3539299838
 30
0.0
  0
SPLINE
  5
34F
100
AcDbEntity
  8
0
100
AcDbSpline
 62
7
  6
CONTINUOUS
 70
0
 71
3
 72
13
 73
9
 74
0
 42
0.0000001
 43
0.0000001
 44
0.0000000001
 40
0.0
 40
0.0
 40
0.0
 40
0.0
 40
0.0183708959
 40
0.0725046047
 40
0.1604787119
 40
0.2792249556
 40
0.5961396459
 40
1.0
 40
1.0
 40
1.0
 40
1.0
 10
616.6407504638
 20
562.0640863459
 30
0.0
 10
616.6399289322
 20
562.0621750054
 30
0.0
 10
616.6316178024
 20
562.0584757385
 30
0.0
 10
616.6190944003
 20
562.0459339765
 30
0.0
 10
616.5944549409
 20
562.028972985
 30
0.0
 10
616.5463624172
 20
561.994628236
 30
0.0
 10
616.464366809
 20
561.9458505028
 30
0.0
 10
616.3900054916
 20
561.9117396031
 30
0.0
 10
616.3472884727
 20
561.8954003132
 30
0.0
  0
SPLINE
  5
350
100
AcDbEntity
  8
0
100
AcDbSpline
 62
7
  6
CONTINUOUS
 70
0
 71
3
 72
11
 73
7
 74
0
 42
0.0000001
 43
0.0000001
 44
0.0000000001
 40
0.0
 40
0.0
 40
0.0
 40
0.0
 40
0.1995764592
 40
0.4258546758
 40
0.6924958765
 40
1.0
 40
1.0
 40
1.0
 40
1.0
 10
664.3617577425
 20
600.7684525044
 30
0.0
 10
664.2743898254
 20
600.7684525044
 30
0.0
 10
664.0869030293
 20
600.8087755854
 30
0.0
 10
663.8260931722
 20
600.9701389979
 30
0.0
 10
663.5721720914
 20
601.2136878397
 30
0.0
 10
663.4140591842
 20
601.4096282295
 30
0.0
 10
663.3331699988
 20
601.5172300465
 30
0.0
  0
SPLINE
  5
351
100
AcDbEntity
  8
0
100
AcDbSpline
 62
7
  6
CONTINUOUS
 70
0
 71
3
 72
9
 73
5
 74
0
 42
0.0000001
 43
0.0000001
 44
0.0000000001
 40
0.0
 40
0.0
 40
0.0
 40
0.0
 40
0.2379018251
 40
1.0
 40
1.0
 40
1.0
 40
1.0
 10
663.3331699988
 20
601.5172300465
 30
0.0
 10
663.284307697
 20
601.582228506
 30
0.0
 10
663.0848276532
 20
601.8599026507
 30
0.0
 10
662.9016482282
 20
602.1487130434
 30
0.0
 10
662.7617577425
 20
602.3684525044
 30
0.0
  0
SPLINE
  5
352
100
AcDbEntity
  8
0
100
AcDbSpline
 62
7
  6
CONTINUOUS
 70
0
 71
3
 72
12
 73
8
 74
0
 42
0.0000001
 43
0.0000001
 44
0.0000000001
 40
0.0
 40
0.0
 40
0.0
 40
0.0
 40
0.1275594327
 40
0.2247940157
 40
0.3461034177
 40
0.6491217773
 40
1.0
 40
1.0
 40
1.0
 40
1.0
 10
664.3617577425
 20
601.5684525044
 30
0.0
 10
664.3617577425
 20
601.646508678
 30
0.0
 10
664.2569207349
 20
601.7682977387
 30
0.0
 10
664.0820296453
 20
601.877992405
 30
0.0
 10
663.7932316459
 20
602.0202754098
 30
0.0
 10
663.3477588883
 20
602.1814050684
 30
0.0
 10
662.9663523096
 20
602.303328031
 30
0.0
 10
662.7617577425
 20
602.3684525044
 30
0.0
  0
SPLINE
  5
353
100
AcDbEntity
  8
0
100
AcDbSpline
 62
7
  6
CONTINUOUS
 70
0
 71
3
 72
12
 73
8
 74
0
 42
0.0000001
 43
0.0000001
 44
0.0000000001
 40
0.0
 40
0.0
 40
0.0
 40
0.0
 40
0.1275594327
 40
0.2247940157
 40
0.3461034177
 40
0.6491217773
 40
1.0
 40
1.0
 40
1.0
 40
1.0
 10
664.3617577425
 20
949.9684525044
 30
0.0
 10
664.3617577425
 20
949.8903963308
 30
0.0
 10
664.2569207349
 20
949.7686072701
 30
0.0
 10
664.0820296453
 20
949.6589126037
 30
0.0
 10
663.7932316459
 20
949.5166295989
 30
0.0
 10
663.3477588883
 20
949.3554999404
 30
0.0
 10
662.9663523096
 20
949.2335769777
 30
0.0
 10
662.7617577425
 20
949.1684525044
 30
0.0
  0
SPLINE
  5
354
100
AcDbEntity
  8
0
100
AcDbSpline
 62
7
  6
CONTINUOUS
 70
0
 71
3
 72
11
 73
7
 74
0
 42
0.0000001
 43
0.0000001
 44
0.0000000001
 40
0.0
 40
0.0
 40
0.0
 40
0.0
 40
0.1995764592
 40
0.4258546758
 40
0.6924958765
 40
1.0
 40
1.0
 40
1.0
 40
1.0
 10
254.3617577425
 20
950.7684525044
 30
0.0
 10
254.4491256596
 20
950.7684525044
 30
0.0
 10
254.6366124557
 20
950.7281294234
 30
0.0
 10
254.8974223128
 20
950.5667660109
 30
0.0
 10
255.1513433936
 20
950.3232171691
 30
0.0
 10
255.3094563007
 20
950.1272767792
 30
0.0
 10
255.3903454862
 20
950.0196749623
 30
0.0
  0
SPLINE
  5
355
100
AcDbEntity
  8
0
100
AcDbSpline
 62
7
  6
CONTINUOUS
 70
0
 71
3
 72
9
 73
5
 74
0
 42
0.0000001
 43
0.0000001
 44
0.0000000001
 40
0.0
 40
0.0
 40
0.0
 40
0.0
 40
0.2379018251
 40
1.0
 40
1.0
 40
1.0
 40
1.0
 10
255.3903454862
 20
950.0196749623
 30
0.0
 10
255.4392077879
 20
949.9546765028
 30
0.0
 10
255.6386878318
 20
949.6770023581
 30
0.0
 10
255.8218672568
 20
949.3881919654
 30
0.0
 10
255.9617577425
 20
949.1684525044
 30
0.0
  0
SPLINE
  5
356
100
AcDbEntity
  8
0
100
AcDbSpline
 62
7
  6
CONTINUOUS
 70
0
 71
3
 72
12
 73
8
 74
0
 42
0.0000001
 43
0.0000001
 44
0.0000000001
 40
0.0
 40
0.0
 40
0.0
 40
0.0
 40
0.1275594327
 40
0.2247940157
 40
0.3461034177
 40
0.6491217773
 40
1.0
 40
1.0
 40
1.0
 40
1.0
 10
254.3617577425
 20
949.9684525044
 30
0.0
 10
254.3617577425
 20
949.8903963307
 30
0.0
 10
254.4665947501
 20
949.7686072701
 30
0.0
 10
254.6414858397
 20
949.6589126037
 30
0.0
 10
254.9302838391
 20
949.5166295989
 30
0.0
 10
255.3757565966
 20
949.3554999404
 30
0.0
 10
255.7571631754
 20
949.2335769777
 30
0.0
 10
255.9617577425
 20
949.1684525044
 30
0.0
  0
SPLINE
  5
357
100
AcDbEntity
  8
0
100
AcDbSpline
 62
7
  6
CONTINUOUS
 70
0
 71
3
 72
12
 73
8
 74
0
 42
0.0000001
 43
0.0000001
 44
0.0000000001
 40
0.0
 40
0.0
 40
0.0
 40
0.0
 40
0.1275594327
 40
0.2247940157
 40
0.3461034177
 40
0.6491217773
 40
1.0
 40
1.0
 40
1.0
 40
1.0
 10
254.3617577425
 20
601.5684525044
 30
0.0
 10
254.3617577425
 20
601.646508678
 30
0.0
 10
254.4665947501
 20
601.7682977387
 30
0.0
 10
254.6414858397
 20
601.877992405
 30
0.0
 10
254.9302838391
 20
602.0202754098
 30
0.0
 10
255.3757565967
 20
602.1814050684
 30
0.0
 10
255.7571631754
 20
602.303328031
 30
0.0
 10
255.9617577425
 20
602.3684525044
 30
0.0
  0
SPLINE
  5
358
100
AcDbEntity
  8
0
100
AcDbSpline
 62
7
  6
CONTINUOUS
 70
0
 71
3
 72
11
 73
7
 74
0
 42
0.0000001
 43
0.0000001
 44
0.0000000001
 40
0.0
 40
0.0
 40
0.0
 40
0.0
 40
0.1995764592
 40
0.4258546758
 40
0.6924958765
 40
1.0
 40
1.0
 40
1.0
 40
1.0
 10
664.3617577425
 20
950.7684525044
 30
0.0
 10
664.2743898254
 20
950.7684525044
 30
0.0
 10
664.0869030293
 20
950.7281294234
 30
0.0
 10
663.8260931722
 20
950.5667660109
 30
0.0
 10
663.5721720914
 20
950.3232171691
 30
0.0
 10
663.4140591842
 20
950.1272767792
 30
0.0
 10
663.3331699988
 20
950.0196749623
 30
0.0
  0
SPLINE
  5
359
100
AcDbEntity
  8
0
100
AcDbSpline
 62
7
  6
CONTINUOUS
 70
0
 71
3
 72
9
 73
5
 74
0
 42
0.0000001
 43
0.0000001
 44
0.0000000001
 40
0.0
 40
0.0
 40
0.0
 40
0.0
 40
0.2379018251
 40
1.0
 40
1.0
 40
1.0
 40
1.0
 10
663.3331699988
 20
950.0196749623
 30
0.0
 10
663.284307697
 20
949.9546765028
 30
0.0
 10
663.0848276532
 20
949.6770023581
 30
0.0
 10
662.9016482281
 20
949.3881919654
 30
0.0
 10
662.7617577425
 20
949.1684525044
 30
0.0
  0
SPLINE
  5
35A
100
AcDbEntity
  8
0
100
AcDbSpline
 62
7
  6
CONTINUOUS
 70
0
 71
3
 72
11
 73
7
 74
0
 42
0.0000001
 43
0.0000001
 44
0.0000000001
 40
0.0
 40
0.0
 40
0.0
 40
0.0
 40
0.1995764592
 40
0.4258546758
 40
0.6924958765
 40
1.0
 40
1.0
 40
1.0
 40
1.0
 10
254.3617577425
 20
600.7684525044
 30
0.0
 10
254.4491256596
 20
600.7684525044
 30
0.0
 10
254.6366124557
 20
600.8087755853
 30
0.0
 10
254.8974223128
 20
600.9701389979
 30
0.0
 10
255.1513433936
 20
601.2136878397
 30
0.0
 10
255.3094563007
 20
601.4096282295
 30
0.0
 10
255.3903454862
 20
601.5172300465
 30
0.0
  0
SPLINE
  5
35B
100
AcDbEntity
  8
0
100
AcDbSpline
 62
7
  6
CONTINUOUS
 70
0
 71
3
 72
9
 73
5
 74
0
 42
0.0000001
 43
0.0000001
 44
0.0000000001
 40
0.0
 40
0.0
 40
0.0
 40
0.0
 40
0.2379018251
 40
1.0
 40
1.0
 40
1.0
 40
1.0
 10
255.3903454862
 20
601.5172300465
 30
0.0
 10
255.4392077879
 20
601.582228506
 30
0.0
 10
255.6386878318
 20
601.8599026507
 30
0.0
 10
255.8218672568
 20
602.1487130434
 30
0.0
 10
255.9617577425
 20
602.3684525044
 30
0.0
  0
SPLINE
  5
35C
100
AcDbEntity
  8
0
100
AcDbSpline
 62
3
  6
CONTINUOUS
 70
0
 71
3
 72
9
 73
5
 74
0
 42
0.0000001
 43
0.0000001
 44
0.0000000001
 40
0.0
 40
0.0
 40
0.0
 40
0.0
 40
0.4630475232
 40
1.0
 40
1.0
 40
1.0
 40
1.0
 10
255.3286402921
 20
949.6334939823
 30
0.0
 10
255.4127445931
 20
949.545904571
 30
0.0
 10
255.6220530241
 20
949.3845942602
 30
0.0
 10
255.8429740107
 20
949.2440725766
 30
0.0
 10
255.9617577425
 20
949.1684525044
 30
0.0
  0
SPLINE
  5
35D
100
AcDbEntity
  8
0
100
AcDbSpline
 62
3
  6
CONTINUOUS
 70
0
 71
3
 72
9
 73
5
 74
0
 42
0.0000001
 43
0.0000001
 44
0.0000000001
 40
0.0
 40
0.0
 40
0.0
 40
0.0
 40
0.4630475232
 40
1.0
 40
1.0
 40
1.0
 40
1.0
 10
255.3286402921
 20
601.9034110264
 30
0.0
 10
255.4127445931
 20
601.9910004377
 30
0.0
 10
255.6220530241
 20
602.1523107486
 30
0.0
 10
255.8429740107
 20
602.2928324321
 30
0.0
 10
255.9617577425
 20
602.3684525044
 30
0.0
  0
SPLINE
  5
35E
100
AcDbEntity
  8
0
100
AcDbSpline
 62
3
  6
CONTINUOUS
 70
0
 71
3
 72
9
 73
5
 74
0
 42
0.0000001
 43
0.0000001
 44
0.0000000001
 40
0.0
 40
0.0
 40
0.0
 40
0.0
 40
0.2419141409
 40
1.0
 40
1.0
 40
1.0
 40
1.0
 10
664.3617577425
 20
949.9684525044
 30
0.0
 10
664.3060875969
 20
949.9684525044
 30
0.0
 10
664.0758420954
 20
949.9536332279
 30
0.0
 10
663.852474046
 20
949.8783949802
 30
0.0
 10
663.6950899598
 20
949.8031337914
 30
0.0
  0
SPLINE
  5
35F
100
AcDbEntity
  8
0
100
AcDbSpline
 62
3
  6
CONTINUOUS
 70
0
 71
3
 72
8
 73
4
 74
0
 42
0.0000001
 43
0.0000001
 44
0.0000000001
 40
0.0
 40
0.0
 40
0.0
 40
0.0
 40
1.0
 40
1.0
 40
1.0
 40
1.0
 10
663.5617577425
 20
949.734123379
 30
0.0
 10
663.5050534394
 20
949.7026313966
 30
0.0
 10
663.4494367296
 20
949.6691370169
 30
0.0
 10
663.3947689771
 20
949.6342291412
 30
0.0
  0
SPLINE
  5
360
100
AcDbEntity
  8
0
100
AcDbSpline
 62
3
  6
CONTINUOUS
 70
0
 71
3
 72
9
 73
5
 74
0
 42
0.0000001
 43
0.0000001
 44
0.0000000001
 40
0.0
 40
0.0
 40
0.0
 40
0.0
 40
0.2424779737
 40
1.0
 40
1.0
 40
1.0
 40
1.0
 10
663.3947689771
 20
949.6342291412
 30
0.0
 10
663.3412152302
 20
949.6000326093
 30
0.0
 10
663.1239699068
 20
949.4532994375
 30
0.0
 10
662.9178708301
 20
949.2910634366
 30
0.0
 10
662.7617577425
 20
949.1684525044
 30
0.0
  0
SPLINE
  5
361
100
AcDbEntity
  8
0
100
AcDbSpline
 62
3
  6
CONTINUOUS
 70
0
 71
3
 72
9
 73
5
 74
0
 42
0.0000001
 43
0.0000001
 44
0.0000000001
 40
0.0
 40
0.0
 40
0.0
 40
0.0
 40
0.2419141409
 40
1.0
 40
1.0
 40
1.0
 40
1.0
 10
254.3617577425
 20
949.9684525044
 30
0.0
 10
254.4174278881
 20
949.9684525044
 30
0.0
 10
254.6476733896
 20
949.9536332279
 30
0.0
 10
254.871041439
 20
949.8783949802
 30
0.0
 10
255.0284255252
 20
949.8031337914
 30
0.0
  0
SPLINE
  5
362
100
AcDbEntity
  8
0
100
AcDbSpline
 62
3
  6
CONTINUOUS
 70
0
 71
3
 72
8
 73
4
 74
0
 42
0.0000001
 43
0.0000001
 44
0.0000000001
 40
0.0
 40
0.0
 40
0.0
 40
0.0
 40
1.0
 40
1.0
 40
1.0
 40
1.0
 10
255.1617577425
 20
949.734123379
 30
0.0
 10
255.2184620456
 20
949.7026313966
 30
0.0
 10
255.2740787554
 20
949.6691370169
 30
0.0
 10
255.3287465079
 20
949.6342291412
 30
0.0
  0
SPLINE
  5
363
100
AcDbEntity
  8
0
100
AcDbSpline
 62
3
  6
CONTINUOUS
 70
0
 71
3
 72
9
 73
5
 74
0
 42
0.0000001
 43
0.0000001
 44
0.0000000001
 40
0.0
 40
0.0
 40
0.0
 40
0.0
 40
0.2424779737
 40
1.0
 40
1.0
 40
1.0
 40
1.0
 10
255.3287465079
 20
949.6342291412
 30
0.0
 10
255.3823002548
 20
949.6000326093
 30
0.0
 10
255.5995455782
 20
949.4532994375
 30
0.0
 10
255.8056446549
 20
949.2910634366
 30
0.0
 10
255.9617577425
 20
949.1684525044
 30
0.0
  0
SPLINE
  5
364
100
AcDbEntity
  8
0
100
AcDbSpline
 62
3
  6
CONTINUOUS
 70
0
 71
3
 72
9
 73
5
 74
0
 42
0.0000001
 43
0.0000001
 44
0.0000000001
 40
0.0
 40
0.0
 40
0.0
 40
0.0
 40
0.4630475232
 40
1.0
 40
1.0
 40
1.0
 40
1.0
 10
663.3948751929
 20
601.9034110264
 30
0.0
 10
663.3107708919
 20
601.9910004377
 30
0.0
 10
663.1014624609
 20
602.1523107486
 30
0.0
 10
662.8805414742
 20
602.2928324321
 30
0.0
 10
662.7617577425
 20
602.3684525044
 30
0.0
  0
SPLINE
  5
365
100
AcDbEntity
  8
0
100
AcDbSpline
 62
3
  6
CONTINUOUS
 70
0
 71
3
 72
9
 73
5
 74
0
 42
0.0000001
 43
0.0000001
 44
0.0000000001
 40
0.0
 40
0.0
 40
0.0
 40
0.0
 40
0.4630475232
 40
1.0
 40
1.0
 40
1.0
 40
1.0
 10
663.3948751929
 20
949.6334939823
 30
0.0
 10
663.3107708919
 20
949.545904571
 30
0.0
 10
663.1014624608
 20
949.3845942602
 30
0.0
 10
662.8805414742
 20
949.2440725766
 30
0.0
 10
662.7617577425
 20
949.1684525044
 30
0.0
  0
SPLINE
  5
366
100
AcDbEntity
  8
0
100
AcDbSpline
 62
3
  6
CONTINUOUS
 70
0
 71
3
 72
9
 73
5
 74
0
 42
0.0000001
 43
0.0000001
 44
0.0000000001
 40
0.0
 40
0.0
 40
0.0
 40
0.0
 40
0.2419141409
 40
1.0
 40
1.0
 40
1.0
 40
1.0
 10
254.3617577425
 20
601.5684525044
 30
0.0
 10
254.4174278881
 20
601.5684525044
 30
0.0
 10
254.6476733896
 20
601.5832717809
 30
0.0
 10
254.871041439
 20
601.6585100286
 30
0.0
 10
255.0284255252
 20
601.7337712174
 30
0.0
  0
SPLINE
  5
367
100
AcDbEntity
  8
0
100
AcDbSpline
 62
3
  6
CONTINUOUS
 70
0
 71
3
 72
8
 73
4
 74
0
 42
0.0000001
 43
0.0000001
 44
0.0000000001
 40
0.0
 40
0.0
 40
0.0
 40
0.0
 40
1.0
 40
1.0
 40
1.0
 40
1.0
 10
255.1617577425
 20
601.8027816297
 30
0.0
 10
255.2184620456
 20
601.8342736122
 30
0.0
 10
255.2740787554
 20
601.8677679919
 30
0.0
 10
255.3287465079
 20
601.9026758676
 30
0.0
  0
SPLINE
  5
368
100
AcDbEntity
  8
0
100
AcDbSpline
 62
3
  6
CONTINUOUS
 70
0
 71
3
 72
9
 73
5
 74
0
 42
0.0000001
 43
0.0000001
 44
0.0000000001
 40
0.0
 40
0.0
 40
0.0
 40
0.0
 40
0.2424779737
 40
1.0
 40
1.0
 40
1.0
 40
1.0
 10
255.3287465079
 20
601.9026758676
 30
0.0
 10
255.3823002548
 20
601.9368723994
 30
0.0
 10
255.5995455782
 20
602.0836055712
 30
0.0
 10
255.8056446549
 20
602.2458415721
 30
0.0
 10
255.9617577425
 20
602.3684525044
 30
0.0
  0
SPLINE
  5
369
100
AcDbEntity
  8
0
100
AcDbSpline
 62
3
  6
CONTINUOUS
 70
0
 71
3
 72
9
 73
5
 74
0
 42
0.0000001
 43
0.0000001
 44
0.0000000001
 40
0.0
 40
0.0
 40
0.0
 40
0.0
 40
0.2419141409
 40
1.0
 40
1.0
 40
1.0
 40
1.0
 10
664.3617577425
 20
601.5684525044
 30
0.0
 10
664.3060875969
 20
601.5684525044
 30
0.0
 10
664.0758420954
 20
601.5832717809
 30
0.0
 10
663.852474046
 20
601.6585100286
 30
0.0
 10
663.6950899598
 20
601.7337712174
 30
0.0
  0
SPLINE
  5
36A
100
AcDbEntity
  8
0
100
AcDbSpline
 62
3
  6
CONTINUOUS
 70
0
 71
3
 72
8
 73
4
 74
0
 42
0.0000001
 43
0.0000001
 44
0.0000000001
 40
0.0
 40
0.0
 40
0.0
 40
0.0
 40
1.0
 40
1.0
 40
1.0
 40
1.0
 10
663.5617577425
 20
601.8027816297
 30
0.0
 10
663.5050534394
 20
601.8342736122
 30
0.0
 10
663.4494367296
 20
601.8677679919
 30
0.0
 10
663.3947689771
 20
601.9026758676
 30
0.0
  0
SPLINE
  5
36B
100
AcDbEntity
  8
0
100
AcDbSpline
 62
3
  6
CONTINUOUS
 70
0
 71
3
 72
9
 73
5
 74
0
 42
0.0000001
 43
0.0000001
 44
0.0000000001
 40
0.0
 40
0.0
 40
0.0
 40
0.0
 40
0.2424779737
 40
1.0
 40
1.0
 40
1.0
 40
1.0
 10
663.3947689771
 20
601.9026758676
 30
0.0
 10
663.3412152302
 20
601.9368723994
 30
0.0
 10
663.1239699068
 20
602.0836055712
 30
0.0
 10
662.9178708301
 20
602.2458415721
 30
0.0
 10
662.7617577425
 20
602.3684525044
 30
0.0
  0
SPLINE
  5
36C
100
AcDbEntity
  8
0
100
AcDbSpline
 62
7
  6
CONTINUOUS
 70
0
 71
3
 72
12
 73
8
 74
0
 42
0.0000001
 43
0.0000001
 44
0.0000000001
 40
0.0
 40
0.0
 40
0.0
 40
0.0
 40
0.3131286031
 40
0.5936951078
 40
0.714491134
 40
0.8209763873
 40
1.0
 40
1.0
 40
1.0
 40
1.0
 10
664.3617577425
 20
49.9593775442
 30
0.0
 10
664.2308372912
 20
49.7537281802
 30
0.0
 10
663.9826180917
 20
49.3640269801
 30
0.0
 10
663.652545086
 20
48.9142639695
 30
0.0
 10
663.3739714586
 20
48.6317259681
 30
0.0
 10
663.1234815253
 20
48.4390340328
 30
0.0
 10
662.9011366677
 20
48.3593775442
 30
0.0
 10
662.7617577425
 20
48.3593775442
 30
0.0
  0
SPLINE
  5
36D
100
AcDbEntity
  8
0
100
AcDbSpline
 62
7
  6
CONTINUOUS
 70
0
 71
3
 72
12
 73
8
 74
0
 42
0.0000001
 43
0.0000001
 44
0.0000000001
 40
0.0
 40
0.0
 40
0.0
 40
0.0
 40
0.3131286031
 40
0.5936951078
 40
0.714491134
 40
0.8209763873
 40
1.0
 40
1.0
 40
1.0
 40
1.0
 10
254.3617577425
 20
49.9593775442
 30
0.0
 10
254.4926781938
 20
49.7537281802
 30
0.0
 10
254.7408973933
 20
49.3640269801
 30
0.0
 10
255.070970399
 20
48.9142639695
 30
0.0
 10
255.3495440264
 20
48.6317259681
 30
0.0
 10
255.6000339597
 20
48.4390340328
 30
0.0
 10
255.8223788173
 20
48.3593775442
 30
0.0
 10
255.9617577425
 20
48.3593775442
 30
0.0
  0
SPLINE
  5
36E
100
AcDbEntity
  8
0
100
AcDbSpline
 62
7
  6
CONTINUOUS
 70
0
 71
3
 72
11
 73
7
 74
0
 42
0.0000001
 43
0.0000001
 44
0.0000000001
 40
0.0
 40
0.0
 40
0.0
 40
0.0
 40
0.3099812253
 40
0.578410346
 40
0.8038721267
 40
1.0
 40
1.0
 40
1.0
 40
1.0
 10
664.2617629871
 20
87.5145109489
 30
0.0
 10
664.1750677569
 20
87.6345051792
 30
0.0
 10
664.0063801691
 20
87.8537807767
 30
0.0
 10
663.7358517917
 20
88.1282004834
 30
0.0
 10
663.4578559433
 20
88.3123973164
 30
0.0
 10
663.2554214787
 20
88.3593775442
 30
0.0
 10
663.1617577425
 20
88.3593775442
 30
0.0
  0
SPLINE
  5
36F
100
AcDbEntity
  8
0
100
AcDbSpline
 62
7
  6
CONTINUOUS
 70
0
 71
3
 72
11
 73
7
 74
0
 42
0.0000001
 43
0.0000001
 44
0.0000000001
 40
0.0
 40
0.0
 40
0.0
 40
0.0
 40
0.1961278733
 40
0.421589654
 40
0.6900187747
 40
1.0
 40
1.0
 40
1.0
 40
1.0
 10
255.5617577425
 20
88.3593775442
 30
0.0
 10
255.4680940063
 20
88.3593775442
 30
0.0
 10
255.2656595417
 20
88.3123973164
 30
0.0
 10
254.9876636933
 20
88.1282004834
 30
0.0
 10
254.7171353159
 20
87.8537807767
 30
0.0
 10
254.548447728
 20
87.6345051792
 30
0.0
 10
254.4617524979
 20
87.5145109489
 30
0.0
  0
SPLINE
  5
370
100
AcDbEntity
  8
0
100
AcDbSpline
 62
7
  6
CONTINUOUS
 70
0
 71
3
 72
12
 73
8
 74
0
 42
0.0000001
 43
0.0000001
 44
0.0000000001
 40
0.0
 40
0.0
 40
0.0
 40
0.0
 40
0.3131286031
 40
0.5936951078
 40
0.714491134
 40
0.8209763873
 40
1.0
 40
1.0
 40
1.0
 40
1.0
 10
254.3617577425
 20
456.7593775442
 30
0.0
 10
254.4926781938
 20
456.9650269081
 30
0.0
 10
254.7408973933
 20
457.3547281082
 30
0.0
 10
255.070970399
 20
457.8044911188
 30
0.0
 10
255.3495440264
 20
458.0870291203
 30
0.0
 10
255.6000339597
 20
458.2797210555
 30
0.0
 10
255.8223788173
 20
458.3593775442
 30
0.0
 10
255.9617577425
 20
458.3593775442
 30
0.0
  0
SPLINE
  5
371
100
AcDbEntity
  8
0
100
AcDbSpline
 62
7
  6
CONTINUOUS
 70
0
 71
3
 72
12
 73
8
 74
0
 42
0.0000001
 43
0.0000001
 44
0.0000000001
 40
0.0
 40
0.0
 40
0.0
 40
0.0
 40
0.3131286031
 40
0.5936951078
 40
0.714491134
 40
0.8209763873
 40
1.0
 40
1.0
 40
1.0
 40
1.0
 10
664.3617577425
 20
456.7593775442
 30
0.0
 10
664.2308372912
 20
456.9650269081
 30
0.0
 10
663.9826180917
 20
457.3547281082
 30
0.0
 10
663.652545086
 20
457.8044911188
 30
0.0
 10
663.3739714586
 20
458.0870291203
 30
0.0
 10
663.1234815253
 20
458.2797210555
 30
0.0
 10
662.9011366677
 20
458.3593775442
 30
0.0
 10
662.7617577425
 20
458.3593775442
 30
0.0
  0
SPLINE
  5
372
100
AcDbEntity
  8
0
100
AcDbSpline
 62
7
  6
CONTINUOUS
 70
0
 71
3
 72
11
 73
7
 74
0
 42
0.0000001
 43
0.0000001
 44
0.0000000001
 40
0.0
 40
0.0
 40
0.0
 40
0.0
 40
0.3099812253
 40
0.578410346
 40
0.8038721267
 40
1.0
 40
1.0
 40
1.0
 40
1.0
 10
254.4617524979
 20
419.2042441395
 30
0.0
 10
254.548447728
 20
419.0842499091
 30
0.0
 10
254.7171353159
 20
418.8649743116
 30
0.0
 10
254.9876636933
 20
418.590554605
 30
0.0
 10
255.2656595417
 20
418.4063577719
 30
0.0
 10
255.4680940063
 20
418.3593775442
 30
0.0
 10
255.5617577425
 20
418.3593775442
 30
0.0
  0
SPLINE
  5
373
100
AcDbEntity
  8
0
100
AcDbSpline
 62
7
  6
CONTINUOUS
 70
0
 71
3
 72
11
 73
7
 74
0
 42
0.0000001
 43
0.0000001
 44
0.0000000001
 40
0.0
 40
0.0
 40
0.0
 40
0.0
 40
0.1961278733
 40
0.421589654
 40
0.6900187747
 40
1.0
 40
1.0
 40
1.0
 40
1.0
 10
663.1617577425
 20
418.3593775442
 30
0.0
 10
663.2554214787
 20
418.3593775442
 30
0.0
 10
663.4578559433
 20
418.4063577719
 30
0.0
 10
663.7358517917
 20
418.590554605
 30
0.0
 10
664.0063801691
 20
418.8649743116
 30
0.0
 10
664.1750677569
 20
419.0842499091
 30
0.0
 10
664.2617629871
 20
419.2042441395
 30
0.0
  0
ENDSEC
  0
SECTION
  2
OBJECTS
  0
DICTIONARY
  5
C
100
AcDbDictionary
280
0
281
1
  3
ACAD_GROUP
350
D
  3
ACAD_MLINESTYLE
350
17
  3
ACAD_LAYOUT
350
1A
  3
ACAD_PLOTSETTINGS
350
19
  3
ACAD_PLOTSTYLENAME
350
E
  0
DICTIONARY
  5
D
102
{ACAD_REACTORS
330
C
102
}
100
AcDbDictionary
280
0
281
1
  0
ACDBDICTIONARYWDFLT
  5
E
102
{ACAD_REACTORS
330
C
102
}
100
AcDbDictionary
281
1
  3
Normal
350
F
100
AcDbDictionaryWithDefault
340
F
  0
DICTIONARY
  5
17
102
{ACAD_REACTORS
330
C
102
}
100
AcDbDictionary
280
0
281
1
  3
Standard
350
18
  0
DICTIONARY
  5
19
102
{ACAD_REACTORS
330
C
102
}
100
AcDbDictionary
281
1
  0
DICTIONARY
  5
1A
102
{ACAD_REACTORS
330
C
102
}
100
AcDbDictionary
281
1
  3
Model
350
374
  3
Layout1
350
375
  0
ACDBPLACEHOLDER
  5
F
102
{ACAD_REACTORS
330
E
102
}
  0
MLINESTYLE
  5
18
102
{ACAD_REACTORS
330
17
102
}
100
AcDbMlineStyle
  2
STANDARD
 70
0
  3

 62
256
 51
90.0
 52
90.0
 71
2
 49
0.5
 62
256
  6
BYLAYER
 49
-0.5
 62
256
  6
BYLAYER
  0
LAYOUT
  5
374
102
{ACAD_REACTORS
330
1A
102
}
100
AcDbPlotSettings
  1

  2
none_device
  4

  6

 40
0.0
 41
0.0
 42
0.0
 43
0.0
 44
900.0
 45
1000.0
 46
0.0
 47
0.0
 48
0.0
 49
0.0
140
0.0
141
0.0
142
1.0
143
1.0
 70
1024
 72
1
 73
0
 74
0
  7

 75
0
147
1.0
148
0.0
149
0.0
100
AcDbLayout
  1
Model
 70
0
 71
0
 10
0.0
 20
0.0
 11
900.0
 21
1000.0
 12
0.0
 22
0.0
 32
0.0
 14
0.0
 24
0.0
 34
0.0
 15
0.0
 25
0.0
 35
0.0
146
0.0
 13
0.0
 23
0.0
 33
0.0
 16
1.0
 26
0.0
 36
0.0
 17
0.0
 27
1.0
 37
0.0
 76
0
330
216
345
0
346
0
  0
LAYOUT
  5
375
102
{ACAD_REACTORS
330
1A
102
}
100
AcDbPlotSettings
  1

  2
none_device
  4

  6

 40
0.0
 41
0.0
 42
0.0
 43
0.0
 44
900.0
 45
1000.0
 46
0.0
 47
0.0
 48
0.0
 49
0.0
140
0.0
141
0.0
142
1.0
143
1.0
 70
0
 72
1
 73
0
 74
0
  7

 75
0
147
1.0
148
0.0
149
0.0
100
AcDbLayout
  1
Layout1
 70
0
 71
1
 10
0.0
 20
0.0
 11
900.0
 21
1000.0
 12
0.0
 22
0.0
 32
0.0
 14
0.0
 24
0.0
 34
0.0
 15
0.0
 25
0.0
 35
0.0
146
0.0
 13
0.0
 23
0.0
 33
0.0
 16
1.0
 26
0.0
 36
0.0
 17
0.0
 27
1.0
 37
0.0
 76
0
330
217
345
0
346
0
  0
ENDSEC
  0
EOF
