999
DXF file: G:\tampa_copos_descartaveis\94540046.dxf
999
Pro/ENGINEER 2013150 by Parametric Technology Corporation
  0
SECTION
  2
HEADER
  9
$ACADVER
  1
AC1021
  9
$DWGCODEPAGE
  3
ANSI_1252
  9
$EXTMAX
 10
1117.6
 20
863.6
 30
0.0
  9
$EXTMIN
 10
0.0
 20
0.0
 30
0.0
  9
$LIMMIN
 10
0.0
 20
0.0
  9
$LIMMAX
 10
1117.6
 20
863.6
  9
$VIEWCTR
 10
558.8
 20
431.8
  9
$VIEWSIZE
 40
863.6
  9
$CLAYER
  8
0
  9
$LTSCALE
 40
61.468
  9
$CELTYPE
  6
BYLAYER
  9
$DIMSCALE
 40
1.0
  9
$DIMASZ
 40
3.0
  9
$DIMEXO
 40
0.5
  9
$DIMDLI
 40
42.4688
  9
$DIMEXE
 40
0.5
  9
$DIMCEN
 40
10.0584
  9
$DIMLFAC
 40
1.0
  9
$DIMBLK
  1
_FILLED
  9
$DIMTXT
 40
1.8
  9
$DIMTOL
 70
1
  9
$DIMLIM
 70
0
  9
$DIMTFAC
 40
1.0
  9
$DIMTP
 40
0.001
  9
$DIMTM
 40
0.001
  9
$DIMGAP
 40
0.625
  9
$DIMDSEP
 70
46
  9
$PDMODE
 70
3
  9
$PDSIZE
 40
1.0
  9
$HANDSEED
  5
2EA
  9
$TILEMODE
 70
1
  9
$MEASUREMENT
 70
1
  9
$INSUNITS
 70
4
  0
ENDSEC
  0
SECTION
  2
CLASSES
  0
CLASS
  1
ACDBDICTIONARYWDFLT
  2
AcDbDictionaryWithDefault
  3
AutoCAD 2000
 90
0
 91
1
280
0
281
0
  0
CLASS
  1
ACDBPLACEHOLDER
  2
AcDbPlaceHolder
  3
AutoCAD 2000
 90
0
 91
1
280
0
281
0
  0
CLASS
  1
LAYOUT
  2
AcDbLayout
  3
AutoCAD 2000
 90
0
 91
0
280
0
281
0
  0
ENDSEC
  0
SECTION
  2
TABLES
  0
TABLE
  2
VPORT
  5
8
100
AcDbSymbolTable
 70
2
  0
VPORT
  5
1F4
100
AcDbSymbolTableRecord
100
AcDbViewportTableRecord
  2
*ACTIVE
 70
0
 10
0.0
 20
0.0
 11
1.0
 21
1.0
 12
558.8
 22
431.8
 13
0.0
 23
0.0
 14
1.0
 24
1.0
 15
0.0
 25
0.0
 16
0.0
 26
0.0
 36
1.0
 17
0.0
 27
0.0
 37
0.0
 40
863.6
 41
1.2941176471
 42
50.0
 43
0.0
 44
0.0
 50
0.0
 51
0.0
 71
0
 72
100
 73
1
 74
1
 75
0
 76
0
 77
0
 78
0
  0
ENDTAB
  0
TABLE
  2
LTYPE
  5
5
100
AcDbSymbolTable
 70
6
  0
LTYPE
  5
14
100
AcDbSymbolTableRecord
100
AcDbLinetypeTableRecord
  2
BYBLOCK
 70
0
  3

 72
65
 73
0
 40
0.0
  0
LTYPE
  5
15
100
AcDbSymbolTableRecord
100
AcDbLinetypeTableRecord
  2
BYLAYER
 70
0
  3

 72
65
 73
0
 40
0.0
  0
LTYPE
  5
16
100
AcDbSymbolTableRecord
100
AcDbLinetypeTableRecord
  2
CONTINUOUS
 70
64
  3
Solid line
 72
65
 73
0
 40
0.0
  0
LTYPE
  5
1F5
100
AcDbSymbolTableRecord
100
AcDbLinetypeTableRecord
  2
CENTER
 70
64
  3
____ _ ____ _ ____ _ ____ _ ____ _ ____ _ ____
 72
65
 73
4
 40
0.6
 49
0.375
 74
0
 49
-0.075
 74
0
 49
0.075
 74
0
 49
-0.075
 74
0
  0
LTYPE
  5
1F6
100
AcDbSymbolTableRecord
100
AcDbLinetypeTableRecord
  2
HIDDEN
 70
64
  3
- - - - - - - - - - - - - - - - - - - -
 72
65
 73
2
 40
0.2
 49
0.1
 74
0
 49
-0.1
 74
0
  0
LTYPE
  5
1F7
100
AcDbSymbolTableRecord
100
AcDbLinetypeTableRecord
  2
PHANTOM
 70
64
  3
_____ _ _ _____ _ _ _____ _ _ _____
 72
65
 73
6
 40
0.8
 49
0.45
 74
0
 49
-0.05
 74
0
 49
0.1
 74
0
 49
-0.05
 74
0
 49
0.1
 74
0
 49
-0.05
 74
0
  0
LTYPE
  5
1F8
100
AcDbSymbolTableRecord
100
AcDbLinetypeTableRecord
  2
DOT
 70
64
  3
. . . . . . . . . . . . . . . . . . . .
 72
65
 73
2
 40
0.2
 49
0.1
 74
0
 49
-0.1
 74
0
  0
LTYPE
  5
1F9
100
AcDbSymbolTableRecord
100
AcDbLinetypeTableRecord
  2
DASHED
 70
64
  3
- - - - - - - - - - - - - - - - - - - -
 72
65
 73
2
 40
0.2
 49
0.1
 74
0
 49
-0.1
 74
0
  0
ENDTAB
  0
TABLE
  2
LAYER
  5
2
100
AcDbSymbolTable
 70
36
  0
LAYER
  5
10
100
AcDbSymbolTableRecord
100
AcDbLayerTableRecord
  2
0
 70
0
 62
7
  6
CONTINUOUS
370
-3
390
F
  0
LAYER
  5
1FA
100
AcDbSymbolTableRecord
100
AcDbLayerTableRecord
  2
DEFAULT_1
 70
0
 62
7
  6
CENTER
370
-3
390
F
  0
LAYER
  5
1FB
100
AcDbSymbolTableRecord
100
AcDbLayerTableRecord
  2
DEFAULT_2
 70
0
 62
8
  6
HIDDEN
370
-3
390
F
  0
LAYER
  5
1FC
100
AcDbSymbolTableRecord
100
AcDbLayerTableRecord
  2
DEFAULT_3
 70
0
 62
7
  6
PHANTOM
370
-3
390
F
  0
LAYER
  5
1FD
100
AcDbSymbolTableRecord
100
AcDbLayerTableRecord
  2
01_ALL_DTM_PLN
 70
0
 62
7
  6
CONTINUOUS
370
-3
390
F
  0
LAYER
  5
1FE
100
AcDbSymbolTableRecord
100
AcDbLayerTableRecord
  2
01__ASM_ALL_DTM_PLN
 70
0
 62
7
  6
CONTINUOUS
370
-3
390
F
  0
LAYER
  5
1FF
100
AcDbSymbolTableRecord
100
AcDbLayerTableRecord
  2
01__ASM_DEF_DTM_PLN
 70
0
 62
7
  6
CONTINUOUS
370
-3
390
F
  0
LAYER
  5
200
100
AcDbSymbolTableRecord
100
AcDbLayerTableRecord
  2
01___PRT_ALL_DTM_PLN
 70
0
 62
7
  6
CONTINUOUS
370
-3
390
F
  0
LAYER
  5
201
100
AcDbSymbolTableRecord
100
AcDbLayerTableRecord
  2
01___PRT_DEF_DTM_PLN
 70
0
 62
7
  6
CONTINUOUS
370
-3
390
F
  0
LAYER
  5
202
100
AcDbSymbolTableRecord
100
AcDbLayerTableRecord
  2
02_ALL_AXES
 70
0
 62
7
  6
CONTINUOUS
370
-3
390
F
  0
LAYER
  5
203
100
AcDbSymbolTableRecord
100
AcDbLayerTableRecord
  2
02__ASM_ALL_AXES
 70
0
 62
7
  6
CONTINUOUS
370
-3
390
F
  0
LAYER
  5
204
100
AcDbSymbolTableRecord
100
AcDbLayerTableRecord
  2
02___PRT_ALL_AXES
 70
0
 62
7
  6
CONTINUOUS
370
-3
390
F
  0
LAYER
  5
205
100
AcDbSymbolTableRecord
100
AcDbLayerTableRecord
  2
03_ALL_CURVES
 70
0
 62
7
  6
CONTINUOUS
370
-3
390
F
  0
LAYER
  5
206
100
AcDbSymbolTableRecord
100
AcDbLayerTableRecord
  2
03__ASM_ALL_CURVES
 70
0
 62
7
  6
CONTINUOUS
370
-3
390
F
  0
LAYER
  5
207
100
AcDbSymbolTableRecord
100
AcDbLayerTableRecord
  2
03___PRT_ALL_CURVES
 70
0
 62
7
  6
CONTINUOUS
370
-3
390
F
  0
LAYER
  5
208
100
AcDbSymbolTableRecord
100
AcDbLayerTableRecord
  2
04_ALL_DTM_PNT
 70
0
 62
7
  6
CONTINUOUS
370
-3
390
F
  0
LAYER
  5
209
100
AcDbSymbolTableRecord
100
AcDbLayerTableRecord
  2
04__ASM_ALL_DTM_PNT
 70
0
 62
7
  6
CONTINUOUS
370
-3
390
F
  0
LAYER
  5
20A
100
AcDbSymbolTableRecord
100
AcDbLayerTableRecord
  2
04___PRT_ALL_DTM_PNT
 70
0
 62
7
  6
CONTINUOUS
370
-3
390
F
  0
LAYER
  5
20B
100
AcDbSymbolTableRecord
100
AcDbLayerTableRecord
  2
05_ALL_DTM_CSYS
 70
0
 62
7
  6
CONTINUOUS
370
-3
390
F
  0
LAYER
  5
20C
100
AcDbSymbolTableRecord
100
AcDbLayerTableRecord
  2
05__ASM_ALL_DTM_CSYS
 70
0
 62
7
  6
CONTINUOUS
370
-3
390
F
  0
LAYER
  5
20D
100
AcDbSymbolTableRecord
100
AcDbLayerTableRecord
  2
05__ASM_DEF_DTM_CSYS
 70
0
 62
7
  6
CONTINUOUS
370
-3
390
F
  0
LAYER
  5
20E
100
AcDbSymbolTableRecord
100
AcDbLayerTableRecord
  2
05___PRT_ALL_DTM_CSYS
 70
0
 62
7
  6
CONTINUOUS
370
-3
390
F
  0
LAYER
  5
20F
100
AcDbSymbolTableRecord
100
AcDbLayerTableRecord
  2
05___PRT_DEF_DTM_CSYS
 70
0
 62
7
  6
CONTINUOUS
370
-3
390
F
  0
LAYER
  5
210
100
AcDbSymbolTableRecord
100
AcDbLayerTableRecord
  2
06_ALL_SURFS
 70
0
 62
7
  6
CONTINUOUS
370
-3
390
F
  0
LAYER
  5
211
100
AcDbSymbolTableRecord
100
AcDbLayerTableRecord
  2
06__ASM_ALL_SURFS
 70
0
 62
7
  6
CONTINUOUS
370
-3
390
F
  0
LAYER
  5
212
100
AcDbSymbolTableRecord
100
AcDbLayerTableRecord
  2
06___PRT_ALL_SURFS
 70
0
 62
7
  6
CONTINUOUS
370
-3
390
F
  0
LAYER
  5
213
100
AcDbSymbolTableRecord
100
AcDbLayerTableRecord
  2
07__ASM_ALL_SKELETONS
 70
0
 62
7
  6
CONTINUOUS
370
-3
390
F
  0
ENDTAB
  0
TABLE
  2
STYLE
  5
3
100
AcDbSymbolTable
 70
1
  0
STYLE
  5
11
100
AcDbSymbolTableRecord
100
AcDbTextStyleTableRecord
  2
STANDARD
 70
0
 40
0.0
 41
0.8
 50
0.0
 71
0
 42
0.2
  3
txt
  4

  0
STYLE
  5
214
100
AcDbSymbolTableRecord
100
AcDbTextStyleTableRecord
  2
TEXTSTYLE_1
 70
0
 40
0.0
 41
0.8
 50
0.0
 71
0
 42
0.2
  3
gdt
  4

  0
ENDTAB
  0
TABLE
  2
VIEW
  5
6
100
AcDbSymbolTable
 70
0
  0
ENDTAB
  0
TABLE
  2
UCS
  5
7
100
AcDbSymbolTable
 70
0
  0
ENDTAB
  0
TABLE
  2
APPID
  5
9
100
AcDbSymbolTable
 70
1
  0
APPID
  5
215
100
AcDbSymbolTableRecord
100
AcDbRegAppTableRecord
  2
ACAD
 70
0
  0
ENDTAB
  0
TABLE
  2
BLOCK_RECORD
  5
1
100
AcDbSymbolTable
 70
0
  0
BLOCK_RECORD
  5
216
100
AcDbSymbolTableRecord
100
AcDbBlockTableRecord
  2
*Model_Space
  0
BLOCK_RECORD
  5
217
100
AcDbSymbolTableRecord
100
AcDbBlockTableRecord
  2
*Paper_Space
  0
BLOCK_RECORD
  5
218
100
AcDbSymbolTableRecord
100
AcDbBlockTableRecord
  2
_FILLED
  0
BLOCK_RECORD
  5
219
100
AcDbSymbolTableRecord
100
AcDbBlockTableRecord
  2
*D0
  0
BLOCK_RECORD
  5
21A
100
AcDbSymbolTableRecord
100
AcDbBlockTableRecord
  2
*D1
  0
ENDTAB
  0
TABLE
  2
DIMSTYLE
  5
A
100
AcDbSymbolTable
 70
1
100
AcDbDimStyleTable
 71
0
  0
DIMSTYLE
105
21B
100
AcDbSymbolTableRecord
100
AcDbDimStyleTableRecord
  2
STANDARD
 70
0
  3

  4

 40
1.0
 41
3.0
 42
0.5
 43
0.38
 44
0.5
 45
0.0
 46
0.0
 47
0.001
 48
0.001
140
1.8
141
0.09
142
0.0
143
25.4
144
1.0
145
0.0
146
1.0
147
0.625
 71
1.0
 72
0.0
 73
0
 74
0
 75
0
 76
0
 77
1
 78
8
170
0
171
2
172
0
173
0
174
0
175
0
176
0
177
0
178
0
270
2
271
3
272
3
273
2
274
2
275
0
280
0
281
0
282
0
283
1
284
8
285
0
286
0
287
3
288
0
340
11
278
46
341
218
342
218
343
218
344
218
  0
DIMSTYLE
105
21C
100
AcDbSymbolTableRecord
100
AcDbDimStyleTableRecord
  2
DIMSTYLE_1
 70
0
  3

  4

 40
1.0
 41
3.0
 42
0.5
 43
0.38
 44
0.5
 45
0.0
 46
0.0
 47
0.001
 48
0.001
140
1.8
141
0.09
142
0.0
143
25.4
144
1.0
145
0.0
146
1.0
147
0.45
 71
0.0
 72
0.0
 73
0
 74
0
 75
0
 76
0
 77
1
 78
8
170
0
171
2
172
0
173
0
174
0
175
0
176
0
177
0
178
0
270
2
271
3
272
3
273
2
274
2
275
0
280
0
281
0
282
0
283
1
284
8
285
0
286
0
287
3
288
0
340
11
278
46
341
218
342
218
343
218
344
218
  0
ENDTAB
  0
ENDSEC
  0
SECTION
  2
BLOCKS
  0
BLOCK
  5
20
100
AcDbEntity
  8
0
100
AcDbBlockBegin
  2
*Model_Space
 70
0
 10
0.0
 20
0.0
 30
0.0
  3
*Model_Space
  1

  0
ENDBLK
  5
21
100
AcDbEntity
  8
0
100
AcDbBlockEnd
  0
BLOCK
  5
1C
100
AcDbEntity
  8
0
100
AcDbBlockBegin
  2
*Paper_Space
 70
0
 10
0.0
 20
0.0
 30
0.0
  3
*Paper_Space
  1

  0
ENDBLK
  5
1D
100
AcDbEntity
  8
0
100
AcDbBlockEnd
  0
BLOCK
  5
21D
100
AcDbEntity
  8
0
100
AcDbBlockBegin
  2
_FILLED
 70
64
 10
0.0
 20
0.0
  3
_FILLED
  1

  0
SOLID
  5
21E
100
AcDbEntity
  8
0
  6
BYBLOCK
 62
0
100
AcDbTrace
 10
0.0
 20
0.0
 11
-1.0
 21
0.1666666667
 12
-1.0
 22
-0.1666666667
 13
-1.0
 23
-0.1666666667
  0
ENDBLK
  5
21F
100
AcDbEntity
  8
0
  6
BYBLOCK
 62
0
100
AcDbBlockEnd
  0
BLOCK
  5
220
100
AcDbEntity
  8
0
100
AcDbBlockBegin
 62
2
  6
CONTINUOUS
  2
*D0
 70
65
 10
0.0
 20
0.0
  3
*D0
  1

  0
MTEXT
  5
221
100
AcDbEntity
  8
0
100
AcDbMText
 62
2
  6
CONTINUOUS
  7
STANDARD
 71
2
 72
1
 10
470.7057564689
 20
400.1662065757
 30
0.0
 11
0.0
 21
1.0
 31
0.0
 44
0.9
  1
650
 40
1.8
 41
8.3314285714
  0
LINE
  5
222
100
AcDbEntity
  8
0
100
AcDbLine
 62
2
  6
CONTINUOUS
 10
411.1933731388
 20
726.8422065757
 11
473.7771850404
 21
726.8422065757
  0
LINE
  5
223
100
AcDbEntity
  8
0
100
AcDbLine
 62
2
  6
CONTINUOUS
 10
420.3771850404
 20
73.4902065757
 11
473.7771850404
 21
73.4902065757
  0
LINE
  5
224
100
AcDbEntity
  8
0
100
AcDbLine
 62
2
  6
CONTINUOUS
 10
473.2771850404
 20
726.8422065757
 11
473.2771850404
 21
400.1662065757
  0
LINE
  5
225
100
AcDbEntity
  8
0
100
AcDbLine
 62
2
  6
CONTINUOUS
 10
473.2771850404
 20
73.4902065757
 11
473.2771850404
 21
400.1662065757
  0
INSERT
  5
226
100
AcDbEntity
  8
0
100
AcDbBlockReference
 62
2
  6
CONTINUOUS
  2
_FILLED
 10
473.2771850404
 20
726.8422065757
 41
3.0
 42
3.0
 43
3.0
 50
90.0
  0
INSERT
  5
227
100
AcDbEntity
  8
0
100
AcDbBlockReference
 62
2
  6
CONTINUOUS
  2
_FILLED
 10
473.2771850404
 20
73.4902065757
 41
3.0
 42
3.0
 43
3.0
 50
270.0
  0
ENDBLK
  5
228
100
AcDbEntity
  8
0
  6
BYBLOCK
 62
0
100
AcDbBlockEnd
  0
BLOCK
  5
229
100
AcDbEntity
  8
0
100
AcDbBlockBegin
 62
2
  6
CONTINUOUS
  2
*D1
 70
65
 10
0.0
 20
0.0
  3
*D1
  1

  0
MTEXT
  5
22A
100
AcDbEntity
  8
0
100
AcDbMText
 62
2
  6
CONTINUOUS
  7
STANDARD
 71
2
 72
1
 10
314.7771850404
 20
736.4136351471
 30
0.0
 11
1.0
 21
0.0
 31
0.0
 44
0.9
  1
250
 40
1.8
 41
8.3314285714
  0
LINE
  5
22B
100
AcDbEntity
  8
0
100
AcDbLine
 62
2
  6
CONTINUOUS
 10
189.0271850404
 20
692.3422065757
 11
189.0271850404
 21
734.3422065757
  0
LINE
  5
22C
100
AcDbEntity
  8
0
100
AcDbLine
 62
2
  6
CONTINUOUS
 10
440.5271850404
 20
692.3422065757
 11
440.5271850404
 21
734.3422065757
  0
LINE
  5
22D
100
AcDbEntity
  8
0
100
AcDbLine
 62
2
  6
CONTINUOUS
 10
189.0271850404
 20
733.8422065757
 11
314.7771850404
 21
733.8422065757
  0
LINE
  5
22E
100
AcDbEntity
  8
0
100
AcDbLine
 62
2
  6
CONTINUOUS
 10
440.5271850404
 20
733.8422065757
 11
314.7771850404
 21
733.8422065757
  0
INSERT
  5
22F
100
AcDbEntity
  8
0
100
AcDbBlockReference
 62
2
  6
CONTINUOUS
  2
_FILLED
 10
189.0271850404
 20
733.8422065757
 41
3.0
 42
3.0
 43
3.0
 50
180.0
  0
INSERT
  5
230
100
AcDbEntity
  8
0
100
AcDbBlockReference
 62
2
  6
CONTINUOUS
  2
_FILLED
 10
440.5271850404
 20
733.8422065757
 41
3.0
 42
3.0
 43
3.0
  0
ENDBLK
  5
231
100
AcDbEntity
  8
0
  6
BYBLOCK
 62
0
100
AcDbBlockEnd
  0
ENDSEC
  0
SECTION
  2
ENTITIES
  0
DIMENSION
  5
232
100
AcDbEntity
  8
0
100
AcDbDimension
 62
2
  6
CONTINUOUS
  2
*D0
 10
473.2771850404
 20
73.4902065757
 11
473.2771850404
 21
400.1662065757
 70
160
 71
2
 42
653.352
  3
DIMSTYLE_1
100
AcDbAlignedDimension
 13
410.6933731388
 23
726.8422065757
 14
419.8771850404
 24
73.4902065757
 50
270.0
100
AcDbRotatedDimension
  0
DIMENSION
  5
233
100
AcDbEntity
  8
0
100
AcDbDimension
 62
2
  6
CONTINUOUS
  2
*D1
 10
440.5271850404
 20
733.8422065757
 11
314.7771850404
 21
733.8422065757
 70
160
 71
2
 42
251.5
  3
DIMSTYLE_1
100
AcDbAlignedDimension
 13
189.0271850404
 23
691.8422065757
 14
440.5271850404
 24
691.8422065757
100
AcDbRotatedDimension
  0
LINE
  5
234
100
AcDbEntity
  8
0
100
AcDbLine
 62
7
  6
CONTINUOUS
 10
209.6771850404
 20
73.4902065757
 11
419.8771850404
 21
73.4902065757
  0
LINE
  5
235
100
AcDbEntity
  8
02___PRT_ALL_AXES
100
AcDbLine
 62
7
  6
CONTINUOUS
 10
187.2771864918
 20
108.9902065757
 11
442.2771835889
 21
108.9902065757
  0
LINE
  5
236
100
AcDbEntity
  8
02___PRT_ALL_AXES
100
AcDbLine
 62
7
  6
CONTINUOUS
 10
206.4771991284
 20
77.2235211249
 11
209.0371850404
 21
73.8102065757
  0
LINE
  5
237
100
AcDbEntity
  8
02___PRT_ALL_AXES
100
AcDbLine
 62
7
  6
CONTINUOUS
 10
189.0271850404
 20
691.8422065757
 11
189.0271850404
 21
110.7402065757
  0
LINE
  5
238
100
AcDbEntity
  8
03___PRT_ALL_CURVES
100
AcDbLine
 62
2
  6
CONTINUOUS
 10
306.0919615088
 20
666.4102462863
 11
305.6217748961
 21
665.2111475379
  0
LINE
  5
239
100
AcDbEntity
  8
03___PRT_ALL_CURVES
100
AcDbLine
 62
2
  6
CONTINUOUS
 10
305.7287662309
 20
667.4429873376
 11
304.3162039844
 21
663.8436925747
  0
LINE
  5
23A
100
AcDbEntity
  8
03___PRT_ALL_CURVES
100
AcDbLine
 62
2
  6
CONTINUOUS
 10
305.3672113557
 20
664.563477329
 11
305.0839283922
 21
663.8436925747
  0
LINE
  5
23B
100
AcDbEntity
  8
03___PRT_ALL_CURVES
100
AcDbLine
 62
2
  6
CONTINUOUS
 10
311.1294640047
 20
667.4429873376
 11
310.3384796477
 21
665.1020036366
  0
LINE
  5
23C
100
AcDbEntity
  8
03___PRT_ALL_CURVES
100
AcDbLine
 62
2
  6
CONTINUOUS
 10
310.5682943349
 20
663.8436925747
 11
311.3556334021
 21
666.1720293342
  0
LINE
  5
23D
100
AcDbEntity
  8
03___PRT_ALL_CURVES
100
AcDbLine
 62
2
  6
CONTINUOUS
 10
329.6336768831
 20
667.4429873376
 11
328.2211889095
 21
663.8436925747
  0
LINE
  5
23E
100
AcDbEntity
  8
03___PRT_ALL_CURVES
100
AcDbLine
 62
2
  6
CONTINUOUS
 10
329.9970656791
 20
666.4103864026
 11
329.526327837
 21
665.2111475379
  0
LINE
  5
23F
100
AcDbEntity
  8
03___PRT_ALL_CURVES
100
AcDbLine
 62
2
  6
CONTINUOUS
 10
328.9889133173
 20
663.8436925747
 11
329.2721962808
 21
664.563477329
  0
LINE
  5
240
100
AcDbEntity
  8
03___PRT_ALL_CURVES
100
AcDbLine
 62
2
  6
CONTINUOUS
 10
308.9423214021
 20
663.8436925747
 11
309.3215842078
 21
666.170295097
  0
LINE
  5
241
100
AcDbEntity
  8
03___PRT_ALL_CURVES
100
AcDbLine
 62
2
  6
CONTINUOUS
 10
308.761704468
 20
667.4429873376
 11
308.1722564257
 21
663.8436925747
  0
LINE
  5
242
100
AcDbEntity
  8
03___PRT_ALL_CURVES
100
AcDbLine
 62
2
  6
CONTINUOUS
 10
294.7770552393
 20
663.4422587549
 11
294.7770552393
 21
668.2424187737
  0
LINE
  5
243
100
AcDbEntity
  8
03___PRT_ALL_CURVES
100
AcDbLine
 62
2
  6
CONTINUOUS
 10
295.177165514
 20
663.4422779133
 11
295.177165514
 21
668.2424379321
  0
LINE
  5
244
100
AcDbEntity
  8
03___PRT_ALL_CURVES
100
AcDbLine
 62
2
  6
CONTINUOUS
 10
298.4252460253
 20
667.4429873376
 11
298.4252460253
 21
666.7907927673
  0
LINE
  5
245
100
AcDbEntity
  8
03___PRT_ALL_CURVES
100
AcDbLine
 62
2
  6
CONTINUOUS
 10
299.2691478389
 20
666.7907927673
 11
299.2691478389
 21
663.8436925747
  0
LINE
  5
246
100
AcDbEntity
  8
03___PRT_ALL_CURVES
100
AcDbLine
 62
2
  6
CONTINUOUS
 10
300.0554739854
 20
666.7907927673
 11
300.0554739854
 21
663.8436925747
  0
LINE
  5
247
100
AcDbEntity
  8
03___PRT_ALL_CURVES
100
AcDbLine
 62
2
  6
CONTINUOUS
 10
300.899375799
 20
667.4429873376
 11
300.899375799
 21
666.7907927673
  0
LINE
  5
248
100
AcDbEntity
  8
03___PRT_ALL_CURVES
100
AcDbLine
 62
2
  6
CONTINUOUS
 10
301.3998865665
 20
663.8436925747
 11
301.3998865665
 21
667.4429873376
  0
LINE
  5
249
100
AcDbEntity
  8
03___PRT_ALL_CURVES
100
AcDbLine
 62
2
  6
CONTINUOUS
 10
302.1862127129
 20
665.2118577387
 11
302.1862127129
 21
663.8436925747
  0
LINE
  5
24A
100
AcDbEntity
  8
03___PRT_ALL_CURVES
100
AcDbLine
 62
2
  6
CONTINUOUS
 10
302.1862127129
 20
665.8404086308
 11
302.1862127129
 21
666.7907927673
  0
LINE
  5
24B
100
AcDbEntity
  8
03___PRT_ALL_CURVES
100
AcDbLine
 62
2
  6
CONTINUOUS
 10
316.6087615662
 20
667.4429873376
 11
316.6087615662
 21
663.8436925747
  0
LINE
  5
24C
100
AcDbEntity
  8
03___PRT_ALL_CURVES
100
AcDbLine
 62
2
  6
CONTINUOUS
 10
317.3950877127
 20
663.8436925747
 11
317.3950877127
 21
666.2337753142
  0
LINE
  5
24D
100
AcDbEntity
  8
03___PRT_ALL_CURVES
100
AcDbLine
 62
2
  6
CONTINUOUS
 10
318.998871776
 20
667.4429873376
 11
318.998871776
 21
665.0529045981
  0
LINE
  5
24E
100
AcDbEntity
  8
03___PRT_ALL_CURVES
100
AcDbLine
 62
2
  6
CONTINUOUS
 10
319.7851979225
 20
663.8436925747
 11
319.7851979225
 21
667.4429873376
  0
LINE
  5
24F
100
AcDbEntity
  8
03___PRT_ALL_CURVES
100
AcDbLine
 62
2
  6
CONTINUOUS
 10
320.2854793098
 20
667.4429873376
 11
320.2854793098
 21
666.7907927673
  0
LINE
  5
250
100
AcDbEntity
  8
03___PRT_ALL_CURVES
100
AcDbLine
 62
2
  6
CONTINUOUS
 10
321.1293811235
 20
666.7907927673
 11
321.1293811235
 21
663.8436925747
  0
LINE
  5
251
100
AcDbEntity
  8
03___PRT_ALL_CURVES
100
AcDbLine
 62
2
  6
CONTINUOUS
 10
321.9157072699
 20
663.8436925747
 11
321.9157072699
 21
666.7907927673
  0
LINE
  5
252
100
AcDbEntity
  8
03___PRT_ALL_CURVES
100
AcDbLine
 62
2
  6
CONTINUOUS
 10
322.7596090836
 20
666.7907927673
 11
322.7596090836
 21
667.4429873376
  0
LINE
  5
253
100
AcDbEntity
  8
03___PRT_ALL_CURVES
100
AcDbLine
 62
2
  6
CONTINUOUS
 10
323.2607927983
 20
667.4429873376
 11
323.2607927983
 21
663.8436925747
  0
LINE
  5
254
100
AcDbEntity
  8
03___PRT_ALL_CURVES
100
AcDbLine
 62
2
  6
CONTINUOUS
 10
324.0471189448
 20
663.8436925747
 11
324.0471189448
 21
667.4429873376
  0
LINE
  5
255
100
AcDbEntity
  8
03___PRT_ALL_CURVES
100
AcDbLine
 62
2
  6
CONTINUOUS
 10
324.6465827449
 20
667.4429873376
 11
324.6465827449
 21
663.8436925747
  0
LINE
  5
256
100
AcDbEntity
  8
03___PRT_ALL_CURVES
100
AcDbLine
 62
2
  6
CONTINUOUS
 10
325.4329088914
 20
663.8436925747
 11
325.4329088914
 21
666.2337753142
  0
LINE
  5
257
100
AcDbEntity
  8
03___PRT_ALL_CURVES
100
AcDbLine
 62
2
  6
CONTINUOUS
 10
327.0366929547
 20
667.4429873376
 11
327.0366929547
 21
665.0529045981
  0
LINE
  5
258
100
AcDbEntity
  8
03___PRT_ALL_CURVES
100
AcDbLine
 62
2
  6
CONTINUOUS
 10
327.8230191012
 20
663.8436925747
 11
327.8230191012
 21
667.4429873376
  0
LINE
  5
259
100
AcDbEntity
  8
03___PRT_ALL_CURVES
100
AcDbLine
 62
2
  6
CONTINUOUS
 10
334.3772045668
 20
668.2424379321
 11
334.3772045668
 21
663.4422779133
  0
LINE
  5
25A
100
AcDbEntity
  8
03___PRT_ALL_CURVES
100
AcDbLine
 62
2
  6
CONTINUOUS
 10
334.7773148414
 20
668.2424187737
 11
334.7773148414
 21
663.4422587549
  0
LINE
  5
25B
100
AcDbEntity
  8
03___PRT_ALL_CURVES
100
AcDbLine
 62
2
  6
CONTINUOUS
 10
312.5050565159
 20
663.8436925747
 11
311.9157901512
 21
667.4429873376
  0
LINE
  5
25C
100
AcDbEntity
  8
03___PRT_ALL_CURVES
100
AcDbLine
 62
2
  6
CONTINUOUS
 10
311.3556334021
 20
666.1720293342
 11
311.7349915396
 21
663.8436925747
  0
LINE
  5
25D
100
AcDbEntity
  8
03___PRT_ALL_CURVES
100
AcDbLine
 62
2
  6
CONTINUOUS
 10
309.3215842078
 20
666.170295097
 11
310.1094103696
 21
663.8436925747
  0
LINE
  5
25E
100
AcDbEntity
  8
03___PRT_ALL_CURVES
100
AcDbLine
 62
2
  6
CONTINUOUS
 10
310.3384796477
 20
665.1020036366
 11
309.5480306144
 21
667.4429873376
  0
LINE
  5
25F
100
AcDbEntity
  8
03___PRT_ALL_CURVES
100
AcDbLine
 62
2
  6
CONTINUOUS
 10
306.0919615088
 20
666.4102462863
 11
306.5632505802
 21
665.2111475379
  0
LINE
  5
260
100
AcDbEntity
  8
03___PRT_ALL_CURVES
100
AcDbLine
 62
2
  6
CONTINUOUS
 10
306.8174982975
 20
664.563477329
 11
307.1002343315
 21
663.8436925747
  0
LINE
  5
261
100
AcDbEntity
  8
03___PRT_ALL_CURVES
100
AcDbLine
 62
2
  6
CONTINUOUS
 10
306.4555444611
 20
667.4429873376
 11
307.8679587394
 21
663.8436925747
  0
LINE
  5
262
100
AcDbEntity
  8
02___PRT_ALL_AXES
100
AcDbLine
 62
7
  6
CONTINUOUS
 10
440.5271850404
 20
691.8422065757
 11
440.5271850404
 21
110.7402065757
  0
LINE
  5
263
100
AcDbEntity
  8
03___PRT_ALL_CURVES
100
AcDbLine
 62
2
  6
CONTINUOUS
 10
330.7224832226
 20
664.563477329
 11
331.0052192566
 21
663.8436925747
  0
LINE
  5
264
100
AcDbEntity
  8
03___PRT_ALL_CURVES
100
AcDbLine
 62
2
  6
CONTINUOUS
 10
329.9970656791
 20
666.4103864026
 11
330.4678035211
 21
665.2111475379
  0
LINE
  5
265
100
AcDbEntity
  8
03___PRT_ALL_CURVES
100
AcDbLine
 62
2
  6
CONTINUOUS
 10
331.7729436645
 20
663.8436925747
 11
330.3604551133
 21
667.4429873376
  0
LINE
  5
266
100
AcDbEntity
  8
03___PRT_ALL_CURVES
100
AcDbLine
 62
2
  6
CONTINUOUS
 10
303.1436726217
 20
663.8436925747
 11
302.1862127129
 21
665.2118577387
  0
LINE
  5
267
100
AcDbEntity
  8
03___PRT_ALL_CURVES
100
AcDbLine
 62
2
  6
CONTINUOUS
 10
302.9527903449
 20
665.3640094336
 11
304.0166717782
 21
663.8436925747
  0
LINE
  5
268
100
AcDbEntity
  8
03___PRT_ALL_CURVES
100
AcDbLine
 62
2
  6
CONTINUOUS
 10
317.3950877127
 20
666.2337753142
 11
318.998871776
 21
663.8436925747
  0
LINE
  5
269
100
AcDbEntity
  8
03___PRT_ALL_CURVES
100
AcDbLine
 62
2
  6
CONTINUOUS
 10
318.998871776
 20
665.0529045981
 11
317.3950877127
 21
667.4429873376
  0
LINE
  5
26A
100
AcDbEntity
  8
03___PRT_ALL_CURVES
100
AcDbLine
 62
2
  6
CONTINUOUS
 10
325.4329088914
 20
666.2337753142
 11
327.0366929547
 21
663.8436925747
  0
LINE
  5
26B
100
AcDbEntity
  8
03___PRT_ALL_CURVES
100
AcDbLine
 62
2
  6
CONTINUOUS
 10
327.0366929547
 20
665.0529045981
 11
325.4329088914
 21
667.4429873376
  0
LINE
  5
26C
100
AcDbEntity
  8
03___PRT_ALL_CURVES
100
AcDbLine
 62
2
  6
CONTINUOUS
 10
333.1775270395
 20
661.842470953
 11
296.376841963
 21
661.842470953
  0
LINE
  5
26D
100
AcDbEntity
  8
03___PRT_ALL_CURVES
100
AcDbLine
 62
2
  6
CONTINUOUS
 10
333.1775270395
 20
662.2423953586
 11
296.376841963
 21
662.2423953586
  0
LINE
  5
26E
100
AcDbEntity
  8
02___PRT_ALL_AXES
100
AcDbLine
 62
7
  6
CONTINUOUS
 10
423.0771709523
 20
77.2235211249
 11
420.5171850404
 21
73.8102065757
  0
LINE
  5
26F
100
AcDbEntity
  8
03___PRT_ALL_CURVES
100
AcDbLine
 62
2
  6
CONTINUOUS
 10
307.8679587394
 20
663.8436925747
 11
307.1002343131
 21
663.8436925747
  0
LINE
  5
270
100
AcDbEntity
  8
03___PRT_ALL_CURVES
100
AcDbLine
 62
2
  6
CONTINUOUS
 10
305.0839283922
 20
663.8436925747
 11
304.3162039572
 21
663.8436925747
  0
LINE
  5
271
100
AcDbEntity
  8
03___PRT_ALL_CURVES
100
AcDbLine
 62
2
  6
CONTINUOUS
 10
304.0166717782
 20
663.8436925747
 11
303.1436726007
 21
663.8436925747
  0
LINE
  5
272
100
AcDbEntity
  8
03___PRT_ALL_CURVES
100
AcDbLine
 62
2
  6
CONTINUOUS
 10
302.1862127129
 20
663.8436925747
 11
301.3998865936
 21
663.8436925747
  0
LINE
  5
273
100
AcDbEntity
  8
03___PRT_ALL_CURVES
100
AcDbLine
 62
2
  6
CONTINUOUS
 10
300.0554739854
 20
663.8436925747
 11
299.2691478209
 21
663.8436925747
  0
LINE
  5
274
100
AcDbEntity
  8
03___PRT_ALL_CURVES
100
AcDbLine
 62
2
  6
CONTINUOUS
 10
308.1722564257
 20
663.8436925747
 11
308.9423213765
 21
663.8436925747
  0
LINE
  5
275
100
AcDbEntity
  8
03___PRT_ALL_CURVES
100
AcDbLine
 62
2
  6
CONTINUOUS
 10
310.1094103696
 20
663.8436925747
 11
310.5682943491
 21
663.8436925747
  0
LINE
  5
276
100
AcDbEntity
  8
03___PRT_ALL_CURVES
100
AcDbLine
 62
2
  6
CONTINUOUS
 10
311.7349915396
 20
663.8436925747
 11
312.5050565307
 21
663.8436925747
  0
LINE
  5
277
100
AcDbEntity
  8
03___PRT_ALL_CURVES
100
AcDbLine
 62
2
  6
CONTINUOUS
 10
316.6087615662
 20
663.8436925747
 11
317.3950877237
 21
663.8436925747
  0
LINE
  5
278
100
AcDbEntity
  8
03___PRT_ALL_CURVES
100
AcDbLine
 62
2
  6
CONTINUOUS
 10
318.998871776
 20
663.8436925747
 11
319.7851979437
 21
663.8436925747
  0
LINE
  5
279
100
AcDbEntity
  8
03___PRT_ALL_CURVES
100
AcDbLine
 62
2
  6
CONTINUOUS
 10
321.1293811235
 20
663.8436925747
 11
321.9157072693
 21
663.8436925747
  0
LINE
  5
27A
100
AcDbEntity
  8
03___PRT_ALL_CURVES
100
AcDbLine
 62
2
  6
CONTINUOUS
 10
323.2607927983
 20
663.8436925747
 11
324.0471189488
 21
663.8436925747
  0
LINE
  5
27B
100
AcDbEntity
  8
03___PRT_ALL_CURVES
100
AcDbLine
 62
2
  6
CONTINUOUS
 10
324.6465827449
 20
663.8436925747
 11
325.4329089008
 21
663.8436925747
  0
LINE
  5
27C
100
AcDbEntity
  8
03___PRT_ALL_CURVES
100
AcDbLine
 62
2
  6
CONTINUOUS
 10
327.0366929547
 20
663.8436925747
 11
327.8230190827
 21
663.8436925747
  0
LINE
  5
27D
100
AcDbEntity
  8
03___PRT_ALL_CURVES
100
AcDbLine
 62
2
  6
CONTINUOUS
 10
328.2211889095
 20
663.8436925747
 11
328.9889133184
 21
663.8436925747
  0
LINE
  5
27E
100
AcDbEntity
  8
03___PRT_ALL_CURVES
100
AcDbLine
 62
2
  6
CONTINUOUS
 10
331.0052192566
 20
663.8436925747
 11
331.7729436533
 21
663.8436925747
  0
LINE
  5
27F
100
AcDbEntity
  8
03___PRT_ALL_CURVES
100
AcDbLine
 62
2
  6
CONTINUOUS
 10
306.8174982975
 20
664.563477329
 11
305.367211329
 21
664.563477329
  0
LINE
  5
280
100
AcDbEntity
  8
03___PRT_ALL_CURVES
100
AcDbLine
 62
2
  6
CONTINUOUS
 10
329.2721962808
 20
664.563477329
 11
330.7224832006
 21
664.563477329
  0
LINE
  5
281
100
AcDbEntity
  8
03___PRT_ALL_CURVES
100
AcDbLine
 62
2
  6
CONTINUOUS
 10
330.4678035211
 20
665.2111475379
 11
329.5263278301
 21
665.2111475379
  0
LINE
  5
282
100
AcDbEntity
  8
03___PRT_ALL_CURVES
100
AcDbLine
 62
2
  6
CONTINUOUS
 10
306.5632505802
 20
665.2111475379
 11
305.621774891
 21
665.2111475379
  0
LINE
  5
283
100
AcDbEntity
  8
03___PRT_ALL_CURVES
100
AcDbLine
 62
2
  6
CONTINUOUS
 10
302.4892184446
 20
665.8404086308
 11
302.1862127267
 21
665.8404086308
  0
LINE
  5
284
100
AcDbEntity
  8
03___PRT_ALL_CURVES
100
AcDbLine
 62
2
  6
CONTINUOUS
 10
300.899375799
 20
666.7907927673
 11
300.0554739635
 21
666.7907927673
  0
LINE
  5
285
100
AcDbEntity
  8
03___PRT_ALL_CURVES
100
AcDbLine
 62
2
  6
CONTINUOUS
 10
299.2691478389
 20
666.7907927673
 11
298.4252460303
 21
666.7907927673
  0
LINE
  5
286
100
AcDbEntity
  8
03___PRT_ALL_CURVES
100
AcDbLine
 62
2
  6
CONTINUOUS
 10
302.1862127129
 20
666.7907927673
 11
302.4892179938
 21
666.7907927673
  0
LINE
  5
287
100
AcDbEntity
  8
03___PRT_ALL_CURVES
100
AcDbLine
 62
2
  6
CONTINUOUS
 10
320.2854793098
 20
666.7907927673
 11
321.1293810944
 21
666.7907927673
  0
LINE
  5
288
100
AcDbEntity
  8
03___PRT_ALL_CURVES
100
AcDbLine
 62
2
  6
CONTINUOUS
 10
321.9157072699
 20
666.7907927673
 11
322.7596091043
 21
666.7907927673
  0
LINE
  5
289
100
AcDbEntity
  8
03___PRT_ALL_CURVES
100
AcDbLine
 62
2
  6
CONTINUOUS
 10
330.3604551133
 20
667.4429873376
 11
329.633676895
 21
667.4429873376
  0
LINE
  5
28A
100
AcDbEntity
  8
03___PRT_ALL_CURVES
100
AcDbLine
 62
2
  6
CONTINUOUS
 10
327.8230191012
 20
667.4429873376
 11
327.0366929732
 21
667.4429873376
  0
LINE
  5
28B
100
AcDbEntity
  8
03___PRT_ALL_CURVES
100
AcDbLine
 62
2
  6
CONTINUOUS
 10
325.4329088914
 20
667.4429873376
 11
324.6465827355
 21
667.4429873376
  0
LINE
  5
28C
100
AcDbEntity
  8
03___PRT_ALL_CURVES
100
AcDbLine
 62
2
  6
CONTINUOUS
 10
324.0471189448
 20
667.4429873376
 11
323.2607927943
 21
667.4429873376
  0
LINE
  5
28D
100
AcDbEntity
  8
03___PRT_ALL_CURVES
100
AcDbLine
 62
2
  6
CONTINUOUS
 10
322.7596090836
 20
667.4429873376
 11
320.2854793188
 21
667.4429873376
  0
LINE
  5
28E
100
AcDbEntity
  8
03___PRT_ALL_CURVES
100
AcDbLine
 62
2
  6
CONTINUOUS
 10
319.7851979225
 20
667.4429873376
 11
318.9988717547
 21
667.4429873376
  0
LINE
  5
28F
100
AcDbEntity
  8
03___PRT_ALL_CURVES
100
AcDbLine
 62
2
  6
CONTINUOUS
 10
317.3950877127
 20
667.4429873376
 11
316.6087615552
 21
667.4429873376
  0
LINE
  5
290
100
AcDbEntity
  8
03___PRT_ALL_CURVES
100
AcDbLine
 62
2
  6
CONTINUOUS
 10
311.9157901512
 20
667.4429873376
 11
311.1294640333
 21
667.4429873376
  0
LINE
  5
291
100
AcDbEntity
  8
03___PRT_ALL_CURVES
100
AcDbLine
 62
2
  6
CONTINUOUS
 10
309.5480306144
 20
667.4429873376
 11
308.7617044598
 21
667.4429873376
  0
LINE
  5
292
100
AcDbEntity
  8
03___PRT_ALL_CURVES
100
AcDbLine
 62
2
  6
CONTINUOUS
 10
306.4555444611
 20
667.4429873376
 11
305.7287662272
 21
667.4429873376
  0
LINE
  5
293
100
AcDbEntity
  8
03___PRT_ALL_CURVES
100
AcDbLine
 62
2
  6
CONTINUOUS
 10
300.899375799
 20
667.4429873376
 11
298.4252459324
 21
667.4429873376
  0
LINE
  5
294
100
AcDbEntity
  8
03___PRT_ALL_CURVES
100
AcDbLine
 62
2
  6
CONTINUOUS
 10
301.3998865665
 20
667.4429873376
 11
302.7455336927
 21
667.4429873376
  0
LINE
  5
295
100
AcDbEntity
  8
03___PRT_ALL_CURVES
100
AcDbLine
 62
2
  6
CONTINUOUS
 10
296.3768430414
 20
669.4423204868
 11
333.1775281178
 21
669.4423204868
  0
LINE
  5
296
100
AcDbEntity
  8
03___PRT_ALL_CURVES
100
AcDbLine
 62
2
  6
CONTINUOUS
 10
296.3768430413
 20
669.8422065757
 11
333.1775281178
 21
669.8422065757
  0
LINE
  5
297
100
AcDbEntity
  8
02___PRT_ALL_AXES
100
AcDbLine
 62
7
  6
CONTINUOUS
 10
189.7771864634
 20
694.8422065757
 11
439.7771836174
 21
694.8422065757
  0
LINE
  5
298
100
AcDbEntity
  8
0
100
AcDbLine
 62
7
  6
CONTINUOUS
 10
218.8609969419
 20
726.8422065757
 11
410.6933731388
 21
726.8422065757
  0
LINE
  5
299
100
AcDbEntity
  8
0
100
AcDbLine
 62
7
  6
CONTINUOUS
 10
617.90117866
 20
416.2846137004
 11
618.65117866
 21
416.2846137004
  0
LINE
  5
29A
100
AcDbEntity
  8
0
100
AcDbLine
 62
7
  6
CONTINUOUS
 10
617.9013701882
 20
416.5040887424
 11
618.6526188727
 21
416.5027775648
  0
LINE
  5
29B
100
AcDbEntity
  8
03___PRT_ALL_CURVES
100
AcDbLine
 62
2
  6
CONTINUOUS
 10
868.8499857149
 20
404.5236098296
 11
868.8516986896
 21
404.5418591545
  0
ARC
  5
29C
100
AcDbEntity
  8
02___PRT_ALL_AXES
100
AcDbCircle
 62
7
  6
CONTINUOUS
 10
406.6653429351
 20
108.9902065757
 40
35.6118421053
100
AcDbArc
 50
298.3307620656
 51
360.0
  0
ARC
  5
29D
100
AcDbEntity
  8
02___PRT_ALL_AXES
100
AcDbCircle
 62
7
  6
CONTINUOUS
 10
222.8890271456
 20
108.9902065757
 40
35.6118421053
100
AcDbArc
 50
180.0
 51
241.6692379344
  0
ARC
  5
29E
100
AcDbEntity
  8
02___PRT_ALL_AXES
100
AcDbCircle
 62
7
  6
CONTINUOUS
 10
404.8533873513
 20
692.5338835977
 40
35.0
100
AcDbArc
 50
3.781520911
 51
76.4909215684
  0
ARC
  5
29F
100
AcDbEntity
  8
02___PRT_ALL_AXES
100
AcDbCircle
 62
7
  6
CONTINUOUS
 10
224.7009827295
 20
692.5338835977
 40
35.0
100
AcDbArc
 50
103.5090784316
 51
176.218479089
  0
ARC
  5
2A0
100
AcDbEntity
  8
0
100
AcDbCircle
 62
7
  6
CONTINUOUS
 10
218.8609969419
 20
716.8422065757
 40
10.0
100
AcDbArc
 50
90.0
 51
103.5090784316
  0
ARC
  5
2A1
100
AcDbEntity
  8
0
100
AcDbCircle
 62
7
  6
CONTINUOUS
 10
410.6933731388
 20
716.8422065757
 40
10.0
100
AcDbArc
 50
76.4909215684
 51
90.0
  0
ARC
  5
2A2
100
AcDbEntity
  8
0
100
AcDbCircle
 62
7
  6
CONTINUOUS
 10
437.5271850404
 20
691.8422065757
 40
3.0
100
AcDbArc
 50
0.0
 51
90.0
  0
ARC
  5
2A3
100
AcDbEntity
  8
0
100
AcDbCircle
 62
7
  6
CONTINUOUS
 10
192.0271850404
 20
691.8422065757
 40
3.0
100
AcDbArc
 50
90.0
 51
180.0
  0
ARC
  5
2A4
100
AcDbEntity
  8
0
100
AcDbCircle
 62
7
  6
CONTINUOUS
 10
190.7771850404
 20
110.7402065757
 40
1.75
100
AcDbArc
 50
180.0
 51
270.0
  0
ARC
  5
2A5
100
AcDbEntity
  8
0
100
AcDbCircle
 62
7
  6
CONTINUOUS
 10
438.7771850404
 20
110.7402065757
 40
1.75
100
AcDbArc
 50
270.0
 51
360.0
  0
ARC
  5
2A6
100
AcDbEntity
  8
03___PRT_ALL_CURVES
100
AcDbCircle
 62
2
  6
CONTINUOUS
 10
296.3768430413
 20
668.2424187737
 40
1.599787802
100
AcDbArc
 50
90.0
 51
180.0
  0
ARC
  5
2A7
100
AcDbEntity
  8
03___PRT_ALL_CURVES
100
AcDbCircle
 62
2
  6
CONTINUOUS
 10
333.1775270395
 20
663.4422587549
 40
1.599787802
100
AcDbArc
 50
270.0
 51
360.0
  0
ARC
  5
2A8
100
AcDbEntity
  8
03___PRT_ALL_CURVES
100
AcDbCircle
 62
2
  6
CONTINUOUS
 10
296.3768430413
 20
663.4422587549
 40
1.599787802
100
AcDbArc
 50
180.0
 51
270.0
  0
ARC
  5
2A9
100
AcDbEntity
  8
0
100
AcDbCircle
 62
7
  6
CONTINUOUS
 10
205.2771991284
 20
76.3235211249
 40
1.5
100
AcDbArc
 50
36.8698976458
 51
61.6692379344
  0
ARC
  5
2AA
100
AcDbEntity
  8
0
100
AcDbCircle
 62
7
  6
CONTINUOUS
 10
424.2771709523
 20
76.3235211249
 40
1.5
100
AcDbArc
 50
118.3307620656
 51
143.1301023542
  0
ARC
  5
2AB
100
AcDbEntity
  8
03___PRT_ALL_CURVES
100
AcDbCircle
 62
2
  6
CONTINUOUS
 10
302.7450874288
 20
666.3931230222
 40
1.0498644102
100
AcDbArc
 50
281.4105507001
 51
89.9756484527
  0
ARC
  5
2AC
100
AcDbEntity
  8
0
100
AcDbCircle
 62
7
  6
CONTINUOUS
 10
209.6771850404
 20
74.2902065757
 40
0.8
100
AcDbArc
 50
216.8698976458
 51
270.0
  0
ARC
  5
2AD
100
AcDbEntity
  8
0
100
AcDbCircle
 62
7
  6
CONTINUOUS
 10
419.8771850404
 20
74.2902065757
 40
0.8
100
AcDbArc
 50
270.0
 51
323.1301023542
  0
ARC
  5
2AE
100
AcDbEntity
  8
03___PRT_ALL_CURVES
100
AcDbCircle
 62
2
  6
CONTINUOUS
 10
302.3572722168
 20
666.3157664793
 40
0.6771582773
100
AcDbArc
 50
359.9664128937
 51
13.3320254935
  0
ARC
  5
2AF
100
AcDbEntity
  8
03___PRT_ALL_CURVES
100
AcDbCircle
 62
2
  6
CONTINUOUS
 10
302.4889310316
 20
666.4646280124
 40
0.6242194477
100
AcDbArc
 50
270.0263810437
 51
304.1952312693
  0
ARC
  5
2B0
100
AcDbEntity
  8
03___PRT_ALL_CURVES
100
AcDbCircle
 62
2
  6
CONTINUOUS
 10
302.5903213297
 20
666.3157664793
 40
0.4441092254
100
AcDbArc
 50
304.1693844012
 51
359.948787867
  0
CIRCLE
  5
2B1
100
AcDbEntity
  8
0
100
AcDbCircle
 62
7
  6
CONTINUOUS
 10
692.65117866
 20
416.2846137004
 40
38.0692524678
  0
CIRCLE
  5
2B2
100
AcDbEntity
  8
0
100
AcDbCircle
 62
7
  6
CONTINUOUS
 10
743.65117866
 20
354.2846137004
 40
27.8192524678
  0
CIRCLE
  5
2B3
100
AcDbEntity
  8
02___PRT_ALL_AXES
100
AcDbCircle
 62
7
  6
CONTINUOUS
 10
743.65117866
 20
416.2846137004
 40
127.5
  0
ARC
  5
2B4
100
AcDbEntity
  8
0
100
AcDbCircle
 62
7
  6
CONTINUOUS
 10
743.65117866
 20
416.2846137004
 40
125.75
100
AcDbArc
 50
180.0
 51
179.9
  0
ARC
  5
2B5
100
AcDbEntity
  8
03___PRT_ALL_CURVES
100
AcDbCircle
 62
2
  6
CONTINUOUS
 10
743.65117866
 20
416.2846137004
 40
125.75
100
AcDbArc
 50
356.4999557839
 51
356.8503462675
  0
ARC
  5
2B6
100
AcDbEntity
  8
03___PRT_ALL_CURVES
100
AcDbCircle
 62
2
  6
CONTINUOUS
 10
743.65117866
 20
416.2846137004
 40
125.75
100
AcDbArc
 50
356.9891947976
 51
357.6167404072
  0
ARC
  5
2B7
100
AcDbEntity
  8
03___PRT_ALL_CURVES
100
AcDbCircle
 62
2
  6
CONTINUOUS
 10
743.6511786595
 20
416.2846137003
 40
125.7500000005
100
AcDbArc
 50
357.8585301689
 51
8.9669649033
  0
ARC
  5
2B8
100
AcDbEntity
  8
03___PRT_ALL_CURVES
100
AcDbCircle
 62
2
  6
CONTINUOUS
 10
743.6511786639
 20
416.2846136998
 40
125.7499999961
100
AcDbArc
 50
351.0330350967
 51
356.2056177032
  0
ARC
  5
2B9
100
AcDbEntity
  8
03___PRT_ALL_CURVES
100
AcDbCircle
 62
2
  6
CONTINUOUS
 10
743.6558713326
 20
416.2846460921
 40
125.745307237
100
AcDbArc
 50
359.9499273152
 51
0.6345759291
  0
ARC
  5
2BA
100
AcDbEntity
  8
03___PRT_ALL_CURVES
100
AcDbCircle
 62
2
  6
CONTINUOUS
 10
743.6907064229
 20
416.2846969787
 40
125.710472182
100
AcDbArc
 50
359.9499160522
 51
0.2131745387
  0
CIRCLE
  5
2BB
100
AcDbEntity
  8
02___PRT_ALL_AXES
100
AcDbCircle
 62
7
  6
CONTINUOUS
 10
743.65117866
 20
416.2846137004
 40
125.0
  0
CIRCLE
  5
2BC
100
AcDbEntity
  8
0
100
AcDbCircle
 62
7
  6
CONTINUOUS
 10
743.65117866
 20
478.2846137004
 40
27.8192524678
  0
CIRCLE
  5
2BD
100
AcDbEntity
  8
0
100
AcDbCircle
 62
7
  6
CONTINUOUS
 10
794.65117866
 20
416.2846137004
 40
38.0692524678
  0
SPLINE
  5
2BE
100
AcDbEntity
  8
03___PRT_ALL_CURVES
100
AcDbSpline
 62
2
  6
CONTINUOUS
 70
0
 71
3
 72
13
 73
9
 74
0
 42
0.0000001
 43
0.0000001
 44
0.0000000001
 40
0.0
 40
0.0
 40
0.0
 40
0.0
 40
0.1666666667
 40
0.3333333333
 40
0.5
 40
0.6666666667
 40
0.8333333333
 40
1.0
 40
1.0
 40
1.0
 40
1.0
 10
334.0256326769
 20
669.091141131
 30
0.0
 10
334.062932084
 20
669.0537789716
 30
0.0
 10
334.1311824037
 20
668.9744141244
 30
0.0
 10
334.2171813812
 20
668.8430070066
 30
0.0
 10
334.2861560662
 20
668.7020113891
 30
0.0
 10
334.3370244017
 20
668.5535473539
 30
0.0
 10
334.3692526268
 20
668.3996088739
 30
0.0
 10
334.3772045668
 20
668.2952275919
 30
0.0
 10
334.3772045668
 20
668.2424379321
 30
0.0
  0
SPLINE
  5
2BF
100
AcDbEntity
  8
03___PRT_ALL_CURVES
100
AcDbSpline
 62
2
  6
CONTINUOUS
 70
0
 71
3
 72
13
 73
9
 74
0
 42
0.0000001
 43
0.0000001
 44
0.0000000001
 40
0.0
 40
0.0
 40
0.0
 40
0.0
 40
0.1666666667
 40
0.3333333333
 40
0.5
 40
0.6666666667
 40
0.8333333333
 40
1.0
 40
1.0
 40
1.0
 40
1.0
 10
333.1775270395
 20
669.4423204868
 30
0.0
 10
333.2295558575
 20
669.4423204868
 30
0.0
 10
333.3325652302
 20
669.4345947227
 30
0.0
 10
333.4845795538
 20
669.4032474807
 30
0.0
 10
333.6321991103
 20
669.3534068265
 30
0.0
 10
333.7735217569
 20
669.2850906365
 30
0.0
 10
333.9064282816
 20
669.1988220056
 30
0.0
 10
333.9874126937
 20
669.1293919288
 30
0.0
 10
334.0256326769
 20
669.091141131
 30
0.0
  0
SPLINE
  5
2C0
100
AcDbEntity
  8
03___PRT_ALL_CURVES
100
AcDbSpline
 62
2
  6
CONTINUOUS
 70
0
 71
3
 72
21
 73
17
 74
0
 42
0.0000001
 43
0.0000001
 44
0.0000000001
 40
0.0
 40
0.0
 40
0.0
 40
0.0
 40
0.0625
 40
0.125
 40
0.1875
 40
0.25
 40
0.3125
 40
0.375
 40
0.4375
 40
0.5
 40
0.625
 40
0.75
 40
0.8125
 40
0.875
 40
0.9375
 40
1.0
 40
1.0
 40
1.0
 40
1.0
 10
295.177165514
 20
668.2424379322
 30
0.0
 10
295.1771706138
 20
668.2777921505
 30
0.0
 10
295.1807178776
 20
668.3484928105
 30
0.0
 10
295.1965432388
 20
668.4581718095
 30
0.0
 10
295.2236771193
 20
668.5710746663
 30
0.0
 10
295.2621802815
 20
668.6837856807
 30
0.0
 10
295.3118116104
 20
668.7934388434
 30
0.0
 10
295.3722237383
 20
668.8991138813
 30
0.0
 10
295.4445668488
 20
669.0005723934
 30
0.0
 10
295.5552329914
 20
669.1244022064
 30
0.0
 10
295.7205099589
 20
669.2550675694
 30
0.0
 10
295.8997347891
 20
669.3452831206
 30
0.0
 10
296.0493371254
 20
669.3960652522
 30
0.0
 10
296.1617641823
 20
669.4229657569
 30
0.0
 10
296.2711242157
 20
669.4387605693
 30
0.0
 10
296.3415790171
 20
669.4423204868
 30
0.0
 10
296.3768430414
 20
669.4423204868
 30
0.0
  0
SPLINE
  5
2C1
100
AcDbEntity
  8
03___PRT_ALL_CURVES
100
AcDbSpline
 62
2
  6
CONTINUOUS
 70
0
 71
3
 72
17
 73
13
 74
0
 42
0.0000001
 43
0.0000001
 44
0.0000000001
 40
0.0
 40
0.0
 40
0.0
 40
0.0
 40
0.1
 40
0.2
 40
0.3
 40
0.4
 40
0.5
 40
0.6
 40
0.7
 40
0.8
 40
0.9
 40
1.0
 40
1.0
 40
1.0
 40
1.0
 10
295.177165514
 20
668.2424379321
 30
0.0
 10
295.177165514
 20
668.3043782334
 30
0.0
 10
295.1879998123
 20
668.4267606798
 30
0.0
 10
295.2319243347
 20
668.6073785359
 30
0.0
 10
295.3022962582
 20
668.7804814394
 30
0.0
 10
295.3979204216
 20
668.9426809475
 30
0.0
 10
295.5180112915
 20
669.0881863578
 30
0.0
 10
295.6629485849
 20
669.2120455918
 30
0.0
 10
295.8264084109
 20
669.3115312256
 30
0.0
 10
296.0020000927
 20
669.3844709496
 30
0.0
 10
296.1871975759
 20
669.4307351516
 30
0.0
 10
296.3130079943
 20
669.4423204868
 30
0.0
 10
296.3768430414
 20
669.4423204868
 30
0.0
  0
SPLINE
  5
2C2
100
AcDbEntity
  8
03___PRT_ALL_CURVES
100
AcDbSpline
 62
2
  6
CONTINUOUS
 70
0
 71
3
 72
17
 73
13
 74
0
 42
0.0000001
 43
0.0000001
 44
0.0000000001
 40
0.0
 40
0.0
 40
0.0
 40
0.0
 40
0.1
 40
0.2
 40
0.3
 40
0.4
 40
0.5
 40
0.6
 40
0.7
 40
0.8
 40
0.9
 40
1.0
 40
1.0
 40
1.0
 40
1.0
 10
296.3768430413
 20
662.2423953586
 30
0.0
 10
296.3172139179
 20
662.2423953586
 30
0.0
 10
296.1985142559
 20
662.2526548838
 30
0.0
 10
296.0209852585
 20
662.2946079046
 30
0.0
 10
295.8474028443
 20
662.3628649245
 30
0.0
 10
295.6830023278
 20
662.4582999092
 30
0.0
 10
295.5344825268
 20
662.5800790125
 30
0.0
 10
295.4091781622
 20
662.7254432612
 30
0.0
 10
295.3089525397
 20
662.88956528
 30
0.0
 10
295.23571294
 20
663.0656884837
 30
0.0
 10
295.1889755598
 20
663.2516270842
 30
0.0
 10
295.177165514
 20
663.3780828104
 30
0.0
 10
295.177165514
 20
663.4422779133
 30
0.0
  0
SPLINE
  5
2C3
100
AcDbEntity
  8
03___PRT_ALL_CURVES
100
AcDbSpline
 62
2
  6
CONTINUOUS
 70
0
 71
3
 72
15
 73
11
 74
0
 42
0.0000001
 43
0.0000001
 44
0.0000000001
 40
0.0
 40
0.0
 40
0.0
 40
0.0
 40
0.125
 40
0.25
 40
0.375
 40
0.5
 40
0.625
 40
0.75
 40
0.875
 40
1.0
 40
1.0
 40
1.0
 40
1.0
 10
296.3765500111
 20
662.2423953586
 30
0.0
 10
296.3002182307
 20
662.2424063679
 30
0.0
 10
296.148883401
 20
662.2589510608
 30
0.0
 10
295.9212348437
 20
662.3270016789
 30
0.0
 10
295.7067682667
 20
662.4386484322
 30
0.0
 10
295.5184985676
 20
662.5913359289
 30
0.0
 10
295.367743933
 20
662.7810562663
 30
0.0
 10
295.2594019886
 20
662.9931722685
 30
0.0
 10
295.1931053442
 20
663.2183070219
 30
0.0
 10
295.177165514
 20
663.367262826
 30
0.0
 10
295.177165514
 20
663.4422779133
 30
0.0
  0
SPLINE
  5
2C4
100
AcDbEntity
  8
03___PRT_ALL_CURVES
100
AcDbSpline
 62
2
  6
CONTINUOUS
 70
0
 71
3
 72
23
 73
19
 74
0
 42
0.0000001
 43
0.0000001
 44
0.0000000001
 40
0.0
 40
0.0
 40
0.0
 40
0.0
 40
0.0625
 40
0.125
 40
0.1875
 40
0.25
 40
0.3125
 40
0.375
 40
0.4375
 40
0.5
 40
0.5625
 40
0.625
 40
0.6875
 40
0.75
 40
0.8125
 40
0.875
 40
0.9375
 40
1.0
 40
1.0
 40
1.0
 40
1.0
 10
334.3772045668
 20
663.4422779133
 30
0.0
 10
334.3771995212
 20
663.4072995667
 30
0.0
 10
334.3737347399
 20
663.337269422
 30
0.0
 10
334.3582103981
 20
663.228467944
 30
0.0
 10
334.331503795
 20
663.1162368011
 30
0.0
 10
334.2935104457
 20
663.0040043447
 30
0.0
 10
334.244448572
 20
662.8946639381
 30
0.0
 10
334.1845111051
 20
662.7890757159
 30
0.0
 10
334.1123868314
 20
662.6873354083
 30
0.0
 10
334.0295471199
 20
662.5940873625
 30
0.0
 10
333.9366385214
 20
662.5107769759
 30
0.0
 10
333.8351099518
 20
662.438126134
 30
0.0
 10
333.7295859388
 20
662.3776316633
 30
0.0
 10
333.6200639259
 20
662.3279278686
 30
0.0
 10
333.5073820253
 20
662.2892936524
 30
0.0
 10
333.394362321
 20
662.2619926533
 30
0.0
 10
333.2842608841
 20
662.2459949297
 30
0.0
 10
333.2131332441
 20
662.2423953586
 30
0.0
 10
333.1775270395
 20
662.2423953586
 30
0.0
  0
SPLINE
  5
2C5
100
AcDbEntity
  8
03___PRT_ALL_CURVES
100
AcDbSpline
 62
2
  6
CONTINUOUS
 70
0
 71
3
 72
17
 73
13
 74
0
 42
0.0000001
 43
0.0000001
 44
0.0000000001
 40
0.0
 40
0.0
 40
0.0
 40
0.0
 40
0.1
 40
0.2
 40
0.3
 40
0.4
 40
0.5
 40
0.6
 40
0.7
 40
0.8
 40
0.9
 40
1.0
 40
1.0
 40
1.0
 40
1.0
 10
334.3772045668
 20
663.4422779133
 30
0.0
 10
334.3772045668
 20
663.3801927912
 30
0.0
 10
334.3663509604
 20
663.2575764598
 30
0.0
 10
334.3223583478
 20
663.0767690349
 30
0.0
 10
334.2519799754
 20
662.9036548483
 30
0.0
 10
334.156311168
 20
662.7417002093
 30
0.0
 10
334.0361182972
 20
662.596303623
 30
0.0
 10
333.8913536115
 20
662.4727220656
 30
0.0
 10
333.7276348666
 20
662.3734389236
 30
0.0
 10
333.5521720947
 20
662.3001657659
 30
0.0
 10
333.3671368285
 20
662.2538889434
 30
0.0
 10
333.2413571354
 20
662.2423953586
 30
0.0
 10
333.1775270395
 20
662.2423953586
 30
0.0
  0
SPLINE
  5
2C6
100
AcDbEntity
  8
03___PRT_ALL_CURVES
100
AcDbSpline
 62
2
  6
CONTINUOUS
 70
0
 71
3
 72
11
 73
7
 74
0
 42
0.0000001
 43
0.0000001
 44
0.0000000001
 40
0.0
 40
0.0
 40
0.0
 40
0.0
 40
0.25
 40
0.5
 40
0.75
 40
1.0
 40
1.0
 40
1.0
 40
1.0
 10
334.0256326769
 20
669.091141131
 30
0.0
 10
334.0825307947
 20
669.0341472881
 30
0.0
 10
334.1809643392
 20
668.910433939
 30
0.0
 10
334.2915814753
 20
668.6998185313
 30
0.0
 10
334.3601288548
 20
668.4740578539
 30
0.0
 10
334.3772045668
 20
668.320544065
 30
0.0
 10
334.3772045668
 20
668.2424379321
 30
0.0
  0
SPLINE
  5
2C7
100
AcDbEntity
  8
03___PRT_ALL_CURVES
100
AcDbSpline
 62
2
  6
CONTINUOUS
 70
0
 71
3
 72
11
 73
7
 74
0
 42
0.0000001
 43
0.0000001
 44
0.0000000001
 40
0.0
 40
0.0
 40
0.0
 40
0.0
 40
0.25
 40
0.5
 40
0.75
 40
1.0
 40
1.0
 40
1.0
 40
1.0
 10
333.1775270395
 20
669.4423204868
 30
0.0
 10
333.2566233406
 20
669.4423204868
 30
0.0
 10
333.4115346482
 20
669.4248416452
 30
0.0
 10
333.6373142906
 20
669.3558338857
 30
0.0
 10
333.8469187162
 20
669.245241512
 30
0.0
 10
333.9693298249
 20
669.1474893768
 30
0.0
 10
334.0256326769
 20
669.091141131
 30
0.0
  0
SPLINE
  5
2C8
100
AcDbEntity
  8
03___PRT_ALL_CURVES
100
AcDbSpline
 62
2
  6
CONTINUOUS
 70
0
 71
3
 72
23
 73
19
 74
0
 42
0.0000001
 43
0.0000001
 44
0.0000000001
 40
0.0
 40
0.0
 40
0.0
 40
0.0
 40
0.0625
 40
0.125
 40
0.1875
 40
0.25
 40
0.3125
 40
0.375
 40
0.4375
 40
0.5
 40
0.5625
 40
0.625
 40
0.6875
 40
0.75
 40
0.8125
 40
0.875
 40
0.9375
 40
1.0
 40
1.0
 40
1.0
 40
1.0
 10
316.1698520527
 20
664.9264974505
 30
0.0
 10
316.2170369957
 20
665.04136424
 30
0.0
 10
316.2869912349
 20
665.2755460731
 30
0.0
 10
316.3231839381
 20
665.6456268709
 30
0.0
 10
316.2859031304
 20
666.0145282951
 30
0.0
 10
316.1786401475
 20
666.3691602763
 30
0.0
 10
316.0044362022
 20
666.6948606881
 30
0.0
 10
315.7716251184
 20
666.979884064
 30
0.0
 10
315.4881888159
 20
667.2127726919
 30
0.0
 10
315.1666473835
 20
667.385252583
 30
0.0
 10
314.819614556
 20
667.4904449907
 30
0.0
 10
314.4600050529
 20
667.5268200223
 30
0.0
 10
314.1001381531
 20
667.4911540249
 30
0.0
 10
313.7529651203
 20
667.38627017
 30
0.0
 10
313.4315894849
 20
667.2142311516
 30
0.0
 10
313.1481316383
 20
666.9825963478
 30
0.0
 10
312.9145817824
 20
666.6973787911
 30
0.0
 10
312.7992632799
 20
666.4825792613
 30
0.0
 10
312.7516792965
 20
666.3678549686
 30
0.0
  0
SPLINE
  5
2C9
100
AcDbEntity
  8
03___PRT_ALL_CURVES
100
AcDbSpline
 62
2
  6
CONTINUOUS
 70
0
 71
3
 72
23
 73
19
 74
0
 42
0.0000001
 43
0.0000001
 44
0.0000000001
 40
0.0
 40
0.0
 40
0.0
 40
0.0
 40
0.0625
 40
0.125
 40
0.1875
 40
0.25
 40
0.3125
 40
0.375
 40
0.4375
 40
0.5
 40
0.5625
 40
0.625
 40
0.6875
 40
0.75
 40
0.8125
 40
0.875
 40
0.9375
 40
1.0
 40
1.0
 40
1.0
 40
1.0
 10
312.7516792965
 20
666.3678549686
 30
0.0
 10
312.7036798679
 20
666.2521290436
 30
0.0
 10
312.6325870882
 20
666.016322148
 30
0.0
 10
312.5950417658
 20
665.6447766353
 30
0.0
 10
312.631215238
 20
665.2747623757
 30
0.0
 10
312.7376468246
 20
664.9191198194
 30
0.0
 10
312.9116987465
 20
664.5923489659
 30
0.0
 10
313.1451015457
 20
664.3064234453
 30
0.0
 10
313.4293038345
 20
664.0727590167
 30
0.0
 10
313.7516248395
 20
663.8995336983
 30
0.0
 10
314.0993324369
 20
663.7942916707
 30
0.0
 10
314.4598137587
 20
663.7584833703
 30
0.0
 10
314.8207695067
 20
663.7950580315
 30
0.0
 10
315.1691722362
 20
663.9010647806
 30
0.0
 10
315.491447038
 20
664.0746564471
 30
0.0
 10
315.7749223656
 20
664.3085869695
 30
0.0
 10
316.0077161948
 20
664.5958233387
 30
0.0
 10
316.1226049421
 20
664.8114700008
 30
0.0
 10
316.1698721578
 20
664.926546396
 30
0.0
  0
SPLINE
  5
2CA
100
AcDbEntity
  8
03___PRT_ALL_CURVES
100
AcDbSpline
 62
2
  6
CONTINUOUS
 70
0
 71
3
 72
22
 73
18
 74
0
 42
0.0000001
 43
0.0000001
 44
0.0000000001
 40
0.0
 40
0.0
 40
0.0
 40
0.0
 40
0.0666666667
 40
0.1333333333
 40
0.2
 40
0.2666666667
 40
0.3333333333
 40
0.4
 40
0.4666666667
 40
0.5333333333
 40
0.6
 40
0.6666666667
 40
0.7333333333
 40
0.8
 40
0.8666666667
 40
0.9333333333
 40
1.0
 40
1.0
 40
1.0
 40
1.0
 10
315.244793164
 20
666.4543763715
 30
0.0
 10
315.300104299
 20
666.3976341446
 30
0.0
 10
315.396471641
 20
666.2752872098
 30
0.0
 10
315.5032600001
 20
666.0635933491
 30
0.0
 10
315.5646966229
 20
665.8356866032
 30
0.0
 10
315.5802145478
 20
665.5998756348
 30
0.0
 10
315.546687803
 20
665.3583775443
 30
0.0
 10
315.4630961467
 20
665.1279752896
 30
0.0
 10
315.3377338942
 20
664.9262836867
 30
0.0
 10
315.175497566
 20
664.7544107157
 30
0.0
 10
314.9745925305
 20
664.6161262746
 30
0.0
 10
314.7442834202
 20
664.5249150337
 30
0.0
 10
314.5062803562
 20
664.4875732991
 30
0.0
 10
314.273100914
 20
664.5017906004
 30
0.0
 10
314.0492720255
 20
664.5637433828
 30
0.0
 10
313.8436792003
 20
664.6718488645
 30
0.0
 10
313.7253743721
 20
664.7690494036
 30
0.0
 10
313.6704662399
 20
664.8245062474
 30
0.0
  0
SPLINE
  5
2CB
100
AcDbEntity
  8
03___PRT_ALL_CURVES
100
AcDbSpline
 62
2
  6
CONTINUOUS
 70
0
 71
3
 72
22
 73
18
 74
0
 42
0.0000001
 43
0.0000001
 44
0.0000000001
 40
0.0
 40
0.0
 40
0.0
 40
0.0
 40
0.0666666667
 40
0.1333333333
 40
0.2
 40
0.2666666667
 40
0.3333333333
 40
0.4
 40
0.4666666667
 40
0.5333333333
 40
0.6
 40
0.6666666667
 40
0.7333333333
 40
0.8
 40
0.8666666667
 40
0.9333333333
 40
1.0
 40
1.0
 40
1.0
 40
1.0
 10
313.6701589537
 20
664.8248167241
 30
0.0
 10
313.6138280536
 20
664.8817544482
 30
0.0
 10
313.5156554512
 20
665.0044914553
 30
0.0
 10
313.4071040854
 20
665.2171357657
 30
0.0
 10
313.3452097679
 20
665.4462165446
 30
0.0
 10
313.3291022865
 20
665.6836193537
 30
0.0
 10
313.3622723439
 20
665.9266985541
 30
0.0
 10
313.4462535439
 20
666.1584410825
 30
0.0
 10
313.5722873572
 20
666.360833448
 30
0.0
 10
313.7353550286
 20
666.5324850148
 30
0.0
 10
313.936860821
 20
666.6703384332
 30
0.0
 10
314.1672334896
 20
666.7613909905
 30
0.0
 10
314.4055418311
 20
666.7984136626
 30
0.0
 10
314.6395823938
 20
666.7829190166
 30
0.0
 10
314.8643901129
 20
666.719212919
 30
0.0
 10
315.0711996632
 20
666.6093114201
 30
0.0
 10
315.1897417642
 20
666.5108210222
 30
0.0
 10
315.2445778155
 20
666.4545972308
 30
0.0
  0
SPLINE
  5
2CC
100
AcDbEntity
  8
03___PRT_ALL_CURVES
100
AcDbSpline
 62
2
  6
CONTINUOUS
 70
0
 71
3
 72
22
 73
18
 74
0
 42
0.0000001
 43
0.0000001
 44
0.0000000001
 40
0.0
 40
0.0
 40
0.0
 40
0.0
 40
0.0666666667
 40
0.1333333333
 40
0.2
 40
0.2666666667
 40
0.3333333333
 40
0.4
 40
0.4666666667
 40
0.5333333333
 40
0.6
 40
0.6666666667
 40
0.7333333333
 40
0.8
 40
0.8666666667
 40
0.9333333333
 40
1.0
 40
1.0
 40
1.0
 40
1.0
 10
315.2449853185
 20
666.4541791966
 30
0.0
 10
315.1898397232
 20
666.5107794953
 30
0.0
 10
315.0706022839
 20
666.6098045758
 30
0.0
 10
314.8627094627
 20
666.7199799553
 30
0.0
 10
314.6366414779
 20
666.7834666376
 30
0.0
 10
314.4016059037
 20
666.7984373715
 30
0.0
 10
314.1595318589
 20
666.7594774692
 30
0.0
 10
313.9306743886
 20
666.666685132
 30
0.0
 10
313.7340633327
 20
666.5309668129
 30
0.0
 10
313.5719567587
 20
666.3606204537
 30
0.0
 10
313.444369994
 20
666.154980083
 30
0.0
 10
313.36160391
 20
665.9231037857
 30
0.0
 10
313.3292577297
 20
665.6834790101
 30
0.0
 10
313.3451258486
 20
665.4466420233
 30
0.0
 10
313.4069755068
 20
665.2174229701
 30
0.0
 10
313.5156409573
 20
665.0045087782
 30
0.0
 10
313.6136509009
 20
664.8819818858
 30
0.0
 10
313.6698207594
 20
664.8251587068
 30
0.0
  0
SPLINE
  5
2CD
100
AcDbEntity
  8
03___PRT_ALL_CURVES
100
AcDbSpline
 62
2
  6
CONTINUOUS
 70
0
 71
3
 72
22
 73
18
 74
0
 42
0.0000001
 43
0.0000001
 44
0.0000000001
 40
0.0
 40
0.0
 40
0.0
 40
0.0
 40
0.0666666667
 40
0.1333333333
 40
0.2
 40
0.2666666667
 40
0.3333333333
 40
0.4
 40
0.4666666667
 40
0.5333333333
 40
0.6
 40
0.6666666667
 40
0.7333333333
 40
0.8
 40
0.8666666667
 40
0.9333333333
 40
1.0
 40
1.0
 40
1.0
 40
1.0
 10
313.6700560575
 20
664.8249207422
 30
0.0
 10
313.7253677894
 20
664.7689987215
 30
0.0
 10
313.8446104929
 20
664.6710833939
 30
0.0
 10
314.0521097781
 20
664.5624607639
 30
0.0
 10
314.278089477
 20
664.5008897035
 30
0.0
 10
314.5125460986
 20
664.4876759482
 30
0.0
 10
314.7543372956
 20
664.5275161473
 30
0.0
 10
314.9822725467
 20
664.6206761174
 30
0.0
 10
315.1774932141
 20
664.7566226323
 30
0.0
 10
315.3380044097
 20
664.9265364772
 30
0.0
 10
315.4644831633
 20
665.1305629003
 30
0.0
 10
315.5468905402
 20
665.3602193553
 30
0.0
 10
315.5799739128
 20
665.5978456673
 30
0.0
 10
315.5651208016
 20
665.8331848711
 30
0.0
 10
315.5041591819
 20
666.0613402663
 30
0.0
 10
315.3972604751
 20
666.2741778764
 30
0.0
 10
315.3006859453
 20
666.3969753117
 30
0.0
 10
315.2452169154
 20
666.4539414197
 30
0.0
  0
SPLINE
  5
2CE
100
AcDbEntity
  8
03___PRT_ALL_CURVES
100
AcDbSpline
 62
2
  6
CONTINUOUS
 70
0
 71
3
 72
11
 73
7
 74
0
 42
0.0000001
 43
0.0000001
 44
0.0000000001
 40
0.0
 40
0.0
 40
0.0
 40
0.0
 40
0.25
 40
0.5
 40
0.75
 40
1.0
 40
1.0
 40
1.0
 40
1.0
 10
333.1775270395
 20
669.8422065757
 30
0.0
 10
333.2836519323
 20
669.8422065757
 30
0.0
 10
333.491228797
 20
669.8197275641
 30
0.0
 10
333.7930647136
 20
669.7269584099
 30
0.0
 10
334.0720608561
 20
669.5792952567
 30
0.0
 10
334.2339935833
 20
669.4486037909
 30
0.0
 10
334.3086715808
 20
669.3737875008
 30
0.0
  0
SPLINE
  5
2CF
100
AcDbEntity
  8
03___PRT_ALL_CURVES
100
AcDbSpline
 62
2
  6
CONTINUOUS
 70
0
 71
3
 72
11
 73
7
 74
0
 42
0.0000001
 43
0.0000001
 44
0.0000000001
 40
0.0
 40
0.0
 40
0.0
 40
0.0
 40
0.25
 40
0.5
 40
0.75
 40
1.0
 40
1.0
 40
1.0
 40
1.0
 10
334.3086715808
 20
669.3737875008
 30
0.0
 10
334.3842222465
 20
669.2980969264
 30
0.0
 10
334.515785952
 20
669.1343270751
 30
0.0
 10
334.6634345602
 20
668.8539131714
 30
0.0
 10
334.7554023692
 20
668.5524469066
 30
0.0
 10
334.7773148414
 20
668.3470365023
 30
0.0
 10
334.7773148414
 20
668.2424187737
 30
0.0
  0
SPLINE
  5
2D0
100
AcDbEntity
  8
03___PRT_ALL_CURVES
100
AcDbSpline
 62
2
  6
CONTINUOUS
 70
0
 71
3
 72
13
 73
9
 74
0
 42
0.0000001
 43
0.0000001
 44
0.0000000001
 40
0.0
 40
0.0
 40
0.0
 40
0.0
 40
0.1666666667
 40
0.3333333333
 40
0.5
 40
0.6666666667
 40
0.8333333333
 40
1.0
 40
1.0
 40
1.0
 40
1.0
 10
333.1778250049
 20
669.8422065757
 30
0.0
 10
333.2472933546
 20
669.8421995016
 30
0.0
 10
333.3848783618
 20
669.832395896
 30
0.0
 10
333.5882255638
 20
669.7908630139
 30
0.0
 10
333.7854937796
 20
669.7239625703
 30
0.0
 10
333.9742491547
 20
669.6325147869
 30
0.0
 10
334.1512217439
 20
669.5168025709
 30
0.0
 10
334.258140651
 20
669.4243549183
 30
0.0
 10
334.3086715808
 20
669.3737875008
 30
0.0
  0
SPLINE
  5
2D1
100
AcDbEntity
  8
03___PRT_ALL_CURVES
100
AcDbSpline
 62
2
  6
CONTINUOUS
 70
0
 71
3
 72
13
 73
9
 74
0
 42
0.0000001
 43
0.0000001
 44
0.0000000001
 40
0.0
 40
0.0
 40
0.0
 40
0.0
 40
0.1666666667
 40
0.3333333333
 40
0.5
 40
0.6666666667
 40
0.8333333333
 40
1.0
 40
1.0
 40
1.0
 40
1.0
 10
334.3086715808
 20
669.3737875008
 30
0.0
 10
334.3585624064
 20
669.3238212254
 30
0.0
 10
334.4500786821
 20
669.2180330366
 30
0.0
 10
334.5651569068
 20
669.0428499191
 30
0.0
 10
334.6570121456
 20
668.8548253669
 30
0.0
 10
334.7248773416
 20
668.6568699181
 30
0.0
 10
334.7673135121
 20
668.4513898493
 30
0.0
 10
334.7773029531
 20
668.3125600018
 30
0.0
 10
334.7773148414
 20
668.2424187737
 30
0.0
  0
SPLINE
  5
2D2
100
AcDbEntity
  8
03___PRT_ALL_CURVES
100
AcDbSpline
 62
2
  6
CONTINUOUS
 70
0
 71
3
 72
10
 73
6
 74
0
 42
0.0000001
 43
0.0000001
 44
0.0000000001
 40
0.0
 40
0.0
 40
0.0
 40
0.0
 40
0.3333333333
 40
0.6666666667
 40
1.0
 40
1.0
 40
1.0
 40
1.0
 10
302.4892184446
 20
666.7907927673
 30
0.0
 10
302.5087725288
 20
666.7907927673
 30
0.0
 10
302.5484008846
 20
666.7900048468
 30
0.0
 10
302.6094426612
 20
666.786429197
 30
0.0
 10
302.6511265364
 20
666.782441223
 30
0.0
 10
302.6722219358
 20
666.7800440119
 30
0.0
  0
SPLINE
  5
2D3
100
AcDbEntity
  8
03___PRT_ALL_CURVES
100
AcDbSpline
 62
2
  6
CONTINUOUS
 70
0
 71
3
 72
9
 73
5
 74
0
 42
0.0000001
 43
0.0000001
 44
0.0000000001
 40
0.0
 40
0.0
 40
0.0
 40
0.0
 40
0.5
 40
1.0
 40
1.0
 40
1.0
 40
1.0
 10
302.4892179976
 20
666.7907927673
 30
0.0
 10
302.518725959
 20
666.7907927673
 30
0.0
 10
302.5787345718
 20
666.7889977464
 30
0.0
 10
302.6407282055
 20
666.7836228547
 30
0.0
 10
302.6722219359
 20
666.7800440119
 30
0.0
  0
SPLINE
  5
2D4
100
AcDbEntity
  8
03___PRT_ALL_CURVES
100
AcDbSpline
 62
2
  6
CONTINUOUS
 70
0
 71
3
 72
12
 73
8
 74
0
 42
0.0000001
 43
0.0000001
 44
0.0000000001
 40
0.0
 40
0.0
 40
0.0
 40
0.0
 40
0.2
 40
0.4
 40
0.6
 40
0.8
 40
1.0
 40
1.0
 40
1.0
 40
1.0
 10
302.6722219357
 20
666.7800440119
 30
0.0
 10
302.7060332471
 20
666.7761215142
 30
0.0
 10
302.7701487184
 20
666.7603629565
 30
0.0
 10
302.858705451
 20
666.7135163941
 30
0.0
 10
302.9315868721
 20
666.6475316914
 30
0.0
 10
302.9856811624
 20
666.5675168912
 30
0.0
 10
303.0086080645
 20
666.5053810709
 30
0.0
 10
303.0161811695
 20
666.4719148848
 30
0.0
  0
SPLINE
  5
2D5
100
AcDbEntity
  8
03___PRT_ALL_CURVES
100
AcDbSpline
 62
2
  6
CONTINUOUS
 70
0
 71
3
 72
15
 73
11
 74
0
 42
0.0000001
 43
0.0000001
 44
0.0000000001
 40
0.0
 40
0.0
 40
0.0
 40
0.0
 40
0.125
 40
0.25
 40
0.375
 40
0.5
 40
0.625
 40
0.75
 40
0.875
 40
1.0
 40
1.0
 40
1.0
 40
1.0
 10
867.800513366
 20
396.2844838993
 30
0.0
 10
867.800513366
 20
396.2844838993
 30
0.0
 10
867.8037836698
 20
396.3047681302
 30
0.0
 10
867.8183274935
 20
396.3952608104
 30
0.0
 10
867.8418633841
 20
396.5426140091
 30
0.0
 10
867.8733873895
 20
396.741783165
 30
0.0
 10
867.9115097308
 20
396.9854919122
 30
0.0
 10
867.9545389776
 20
397.2644498331
 30
0.0
 10
868.0007312903
 20
397.5687384176
 30
0.0
 10
868.0318878596
 20
397.7774980669
 30
0.0
 10
868.0476814819
 20
397.8842717013
 30
0.0
  0
SPLINE
  5
2D6
100
AcDbEntity
  8
03___PRT_ALL_CURVES
100
AcDbSpline
 62
2
  6
CONTINUOUS
 70
0
 71
3
 72
18
 73
14
 74
0
 42
0.0000001
 43
0.0000001
 44
0.0000000001
 40
0.0
 40
0.0
 40
0.0
 40
0.0
 40
0.096883039
 40
0.1937660779
 40
0.2906491169
 40
0.3875321559
 40
0.4844151949
 40
0.5812982338
 40
0.6781812728
 40
0.7750643118
 40
0.8719473507
 40
0.9688303897
 40
1.0
 40
1.0
 40
1.0
 40
1.0
 10
869.4003092441
 20
416.752221824
 30
0.0
 10
869.4001035652
 20
416.807532959
 30
0.0
 10
869.3996744002
 20
416.9039003011
 30
0.0
 10
869.3990917002
 20
417.0106886602
 30
0.0
 10
869.39871418
 20
417.072125283
 30
0.0
 10
869.3986141545
 20
417.0876432079
 30
0.0
 10
869.3988283651
 20
417.0541164631
 30
0.0
 10
869.3993224509
 20
416.9705248067
 30
0.0
 10
869.3999563625
 20
416.8451625542
 30
0.0
 10
869.4005913107
 20
416.6829262261
 30
0.0
 10
869.4010868789
 20
416.4820211906
 30
0.0
 10
869.4012123653
 20
416.3037831185
 30
0.0
 10
869.4011527612
 20
416.2000745852
 30
0.0
 10
869.4011305716
 20
416.1747673808
 30
0.0
  0
SPLINE
  5
2D7
100
AcDbEntity
  8
03___PRT_ALL_CURVES
100
AcDbSpline
 62
2
  6
CONTINUOUS
 70
0
 71
3
 72
15
 73
11
 74
0
 42
0.0000001
 43
0.0000001
 44
0.0000000001
 40
0.0
 40
0.0
 40
0.0
 40
0.0
 40
0.125
 40
0.25
 40
0.375
 40
0.5
 40
0.625
 40
0.75
 40
0.875
 40
1.0
 40
1.0
 40
1.0
 40
1.0
 10
867.800513366
 20
436.2847435015
 30
0.0
 10
867.800513366
 20
436.2847435015
 30
0.0
 10
867.8037841231
 20
436.2644564163
 30
0.0
 10
867.818324863
 20
436.1739830715
 30
0.0
 10
867.8418636271
 20
436.0266116933
 30
0.0
 10
867.8733764963
 20
435.8275135416
 30
0.0
 10
867.9115096941
 20
435.5837357253
 30
0.0
 10
867.9545292204
 20
435.3048412637
 30
0.0
 10
868.0007310453
 20
435.0004909301
 30
0.0
 10
868.0318877369
 20
434.7917301636
 30
0.0
 10
868.0476814819
 20
434.6849556995
 30
0.0
  0
SPLINE
  5
2D8
100
AcDbEntity
  8
03___PRT_ALL_CURVES
100
AcDbSpline
 62
2
  6
CONTINUOUS
 70
0
 71
3
 72
15
 73
11
 74
0
 42
0.0000001
 43
0.0000001
 44
0.0000000001
 40
0.0
 40
0.0
 40
0.0
 40
0.0
 40
0.125
 40
0.25
 40
0.375
 40
0.5
 40
0.625
 40
0.75
 40
0.875
 40
1.0
 40
1.0
 40
1.0
 40
1.0
 10
868.0476814819
 20
397.8842717013
 30
0.0
 10
868.0318877345
 20
397.7774972213
 30
0.0
 10
868.0007310398
 20
397.5687364317
 30
0.0
 10
867.954529128
 20
397.2643855345
 30
0.0
 10
867.9115096904
 20
396.9854916503
 30
0.0
 10
867.8733763312
 20
396.7417128087
 30
0.0
 10
867.8418636263
 20
396.5426157043
 30
0.0
 10
867.818324797
 20
396.3952439168
 30
0.0
 10
867.8037841331
 20
396.3047710474
 30
0.0
 10
867.800513366
 20
396.2844838993
 30
0.0
 10
867.800513366
 20
396.2844838993
 30
0.0
  0
SPLINE
  5
2D9
100
AcDbEntity
  8
03___PRT_ALL_CURVES
100
AcDbSpline
 62
2
  6
CONTINUOUS
 70
0
 71
3
 72
20
 73
16
 74
0
 42
0.0000001
 43
0.0000001
 44
0.0000000001
 40
0.0
 40
0.0
 40
0.0
 40
0.0
 40
0.0824523285
 40
0.1649046571
 40
0.2473569856
 40
0.3298093142
 40
0.4122616427
 40
0.4947139713
 40
0.5771662998
 40
0.6596186284
 40
0.7420709569
 40
0.8245232855
 40
0.906975614
 40
0.9894279425
 40
1.0
 40
1.0
 40
1.0
 40
1.0
 10
869.3963057754
 20
415.1775876137
 30
0.0
 10
869.3958098533
 20
415.1212567136
 30
0.0
 10
869.3948720664
 20
415.0230841112
 30
0.0
 10
869.3937241719
 20
414.9145327455
 30
0.0
 10
869.3930265754
 20
414.852638428
 30
0.0
 10
869.3928401837
 20
414.8365309465
 30
0.0
 10
869.3932223895
 20
414.8697010039
 30
0.0
 10
869.3941498429
 20
414.953682204
 30
0.0
 10
869.3954334209
 20
415.0797160172
 30
0.0
 10
869.3969067201
 20
415.2427836887
 30
0.0
 10
869.3984342356
 20
415.444289481
 30
0.0
 10
869.399774068
 20
415.6746621496
 30
0.0
 10
869.4007041241
 20
415.9129704911
 30
0.0
 10
869.4010372344
 20
416.0790004454
 30
0.0
 10
869.4011221699
 20
416.1650581604
 30
0.0
 10
869.4011306625
 20
416.1748100898
 30
0.0
  0
SPLINE
  5
2DA
100
AcDbEntity
  8
03___PRT_ALL_CURVES
100
AcDbSpline
 62
2
  6
CONTINUOUS
 70
0
 71
3
 72
15
 73
11
 74
0
 42
0.0000001
 43
0.0000001
 44
0.0000000001
 40
0.0
 40
0.0
 40
0.0
 40
0.0
 40
0.125
 40
0.25
 40
0.375
 40
0.5
 40
0.625
 40
0.75
 40
0.875
 40
1.0
 40
1.0
 40
1.0
 40
1.0
 10
868.0476814819
 20
397.8842717013
 30
0.0
 10
868.03186455
 20
397.7773404816
 30
0.0
 10
868.0007119988
 20
397.5686125489
 30
0.0
 10
867.9546924707
 20
397.2654656837
 30
0.0
 10
867.9119885972
 20
396.98857219
 30
0.0
 10
867.87339923
 20
396.7418487079
 30
0.0
 10
867.8418330508
 20
396.5424249401
 30
0.0
 10
867.818292445
 20
396.3950418781
 30
0.0
 10
867.8038043534
 20
396.304897017
 30
0.0
 10
867.800513366
 20
396.2844838993
 30
0.0
 10
867.800513366
 20
396.2844838993
 30
0.0
  0
SPLINE
  5
2DB
100
AcDbEntity
  8
03___PRT_ALL_CURVES
100
AcDbSpline
 62
2
  6
CONTINUOUS
 70
0
 71
3
 72
18
 73
14
 74
0
 42
0.0000001
 43
0.0000001
 44
0.0000000001
 40
0.0
 40
0.0
 40
0.0
 40
0.0
 40
0.0345010847
 40
0.1310509762
 40
0.2276008678
 40
0.3241507593
 40
0.4207006508
 40
0.5172505423
 40
0.6138004339
 40
0.7103503254
 40
0.8069002169
 40
0.9034501085
 40
1.0
 40
1.0
 40
1.0
 40
1.0
 10
869.4011301167
 20
416.1748072451
 30
0.0
 10
869.4011551012
 20
416.2032111542
 30
0.0
 10
869.4012135196
 20
416.3105942873
 30
0.0
 10
869.401071497
 20
416.4897012067
 30
0.0
 10
869.4005829386
 20
416.6849218741
 30
0.0
 10
869.399955413
 20
416.8454330698
 30
0.0
 10
869.3993149238
 20
416.9719118233
 30
0.0
 10
869.3988268882
 20
417.0543192003
 30
0.0
 10
869.398615739
 20
417.0874025729
 30
0.0
 10
869.3987114403
 20
417.0725494616
 30
0.0
 10
869.399086464
 20
417.0115878419
 30
0.0
 10
869.3996705869
 20
416.9046891352
 30
0.0
 10
869.4001012147
 20
416.8081146054
 30
0.0
 10
869.4003076676
 20
416.7526455755
 30
0.0
  0
LINE
  5
2DC
100
AcDbEntity
  8
03___PRT_ALL_CURVES
100
AcDbLine
 62
2
  6
CONTINUOUS
 10
868.7993642879
 20
403.9966466576
 11
868.8171978835
 21
404.1796505959
  0
ELLIPSE
  5
2DD
100
AcDbEntity
  8
03___PRT_ALL_CURVES
100
AcDbEllipse
 62
2
  6
CONTINUOUS
 10
743.65117866
 20
416.2846137004
 30
0.0
 11
0.0
 21
125.75
 31
0.0
 40
1.0
 41
-1.4532363211
 42
-1.449466013
  0
ELLIPSE
  5
2DE
100
AcDbEntity
  8
03___PRT_ALL_CURVES
100
AcDbEllipse
 62
2
  6
CONTINUOUS
 10
743.65117866
 20
416.2846137004
 30
0.0
 11
125.75
 21
0.0
 31
0.0
 40
1.0
 41
0.084839104
 42
0.0976462152
  0
ELLIPSE
  5
2DF
100
AcDbEntity
  8
03___PRT_ALL_CURVES
100
AcDbEllipse
 62
2
  6
CONTINUOUS
 10
743.65117866
 20
416.2846137004
 30
0.0
 11
125.75
 21
0.0
 31
0.0
 40
1.0
 41
-0.1002950784
 42
-0.0926454966
  0
ELLIPSE
  5
2E0
100
AcDbEntity
  8
03___PRT_ALL_CURVES
100
AcDbEllipse
 62
2
  6
CONTINUOUS
 10
743.65117866
 20
416.2846137004
 30
0.0
 11
125.75
 21
-0.0
 31
0.0
 40
1.0
 41
-0.0832849655
 42
-0.0706673611
  0
ELLIPSE
  5
2E1
100
AcDbEntity
  8
03___PRT_ALL_CURVES
100
AcDbEllipse
 62
2
  6
CONTINUOUS
 10
743.65117866
 20
416.2846137004
 30
0.0
 11
-0.0
 21
125.75
 31
0.0
 40
1.0
 41
4.6432665662
 42
4.6574171525
  0
ELLIPSE
  5
2E2
100
AcDbEntity
  8
03___PRT_ALL_CURVES
100
AcDbEllipse
 62
2
  6
CONTINUOUS
 10
743.65117866
 20
416.2846137004
 30
0.0
 11
125.75
 21
-0.0
 31
0.0
 40
1.0
 41
-0.0525484639
 42
-0.0478550871
  0
ELLIPSE
  5
2E3
100
AcDbEntity
  8
03___PRT_ALL_CURVES
100
AcDbEllipse
 62
2
  6
CONTINUOUS
 10
743.65117866
 20
416.2846137004
 30
0.0
 11
125.75
 21
0.0
 31
0.0
 40
1.0
 41
-0.0227565954
 42
-0.0180695998
  0
ELLIPSE
  5
2E4
100
AcDbEntity
  8
03___PRT_ALL_CURVES
100
AcDbEllipse
 62
2
  6
CONTINUOUS
 10
743.65117866
 20
416.2846137004
 30
0.0
 11
125.75
 21
-0.0
 31
0.0
 40
1.0
 41
-0.0353051899
 42
-0.0272125166
  0
ELLIPSE
  5
2E5
100
AcDbEntity
  8
03___PRT_ALL_CURVES
100
AcDbEllipse
 62
2
  6
CONTINUOUS
 10
743.65117866
 20
416.2846137004
 30
0.0
 11
125.75
 21
0.0
 31
0.0
 40
1.0
 41
-0.0415957268
 42
-0.0357802151
  0
ELLIPSE
  5
2E6
100
AcDbEntity
  8
03___PRT_ALL_CURVES
100
AcDbEllipse
 62
2
  6
CONTINUOUS
 10
743.65117866
 20
416.2846137004
 30
0.0
 11
-0.0
 21
125.75
 31
0.0
 40
1.0
 41
-1.4465543137
 42
-1.4352262912
  0
ELLIPSE
  5
2E7
100
AcDbEntity
  8
03___PRT_ALL_CURVES
100
AcDbEllipse
 62
2
  6
CONTINUOUS
 10
743.65117866
 20
416.2846137004
 30
0.0
 11
0.0
 21
125.75
 31
0.0
 40
1.0
 41
-1.4575386183
 42
-1.4552710507
  0
ENDSEC
  0
SECTION
  2
OBJECTS
  0
DICTIONARY
  5
C
100
AcDbDictionary
280
0
281
1
  3
ACAD_GROUP
350
D
  3
ACAD_MLINESTYLE
350
17
  3
ACAD_LAYOUT
350
1A
  3
ACAD_PLOTSETTINGS
350
19
  3
ACAD_PLOTSTYLENAME
350
E
  0
DICTIONARY
  5
D
102
{ACAD_REACTORS
330
C
102
}
100
AcDbDictionary
280
0
281
1
  0
ACDBDICTIONARYWDFLT
  5
E
102
{ACAD_REACTORS
330
C
102
}
100
AcDbDictionary
281
1
  3
Normal
350
F
100
AcDbDictionaryWithDefault
340
F
  0
DICTIONARY
  5
17
102
{ACAD_REACTORS
330
C
102
}
100
AcDbDictionary
280
0
281
1
  3
Standard
350
18
  0
DICTIONARY
  5
19
102
{ACAD_REACTORS
330
C
102
}
100
AcDbDictionary
281
1
  0
DICTIONARY
  5
1A
102
{ACAD_REACTORS
330
C
102
}
100
AcDbDictionary
281
1
  3
Model
350
2E8
  3
Layout1
350
2E9
  0
ACDBPLACEHOLDER
  5
F
102
{ACAD_REACTORS
330
E
102
}
  0
MLINESTYLE
  5
18
102
{ACAD_REACTORS
330
17
102
}
100
AcDbMlineStyle
  2
STANDARD
 70
0
  3

 62
256
 51
90.0
 52
90.0
 71
2
 49
0.5
 62
256
  6
BYLAYER
 49
-0.5
 62
256
  6
BYLAYER
  0
LAYOUT
  5
2E8
102
{ACAD_REACTORS
330
1A
102
}
100
AcDbPlotSettings
  1

  2
none_device
  4
ANSI_E_(44.00_x_34.00_Inches)
  6

 40
0.0
 41
0.0
 42
0.0
 43
0.0
 44
1117.6
 45
863.6
 46
0.0
 47
0.0
 48
0.0
 49
0.0
140
0.0
141
0.0
142
1.0
143
1.0
 70
1024
 72
1
 73
0
 74
0
  7

 75
0
147
1.0
148
0.0
149
0.0
100
AcDbLayout
  1
Model
 70
0
 71
0
 10
0.0
 20
0.0
 11
1117.6
 21
863.6
 12
0.0
 22
0.0
 32
0.0
 14
0.0
 24
0.0
 34
0.0
 15
0.0
 25
0.0
 35
0.0
146
0.0
 13
0.0
 23
0.0
 33
0.0
 16
1.0
 26
0.0
 36
0.0
 17
0.0
 27
1.0
 37
0.0
 76
0
330
216
345
0
346
0
  0
LAYOUT
  5
2E9
102
{ACAD_REACTORS
330
1A
102
}
100
AcDbPlotSettings
  1

  2
none_device
  4
ANSI_E_(44.00_x_34.00_Inches)
  6

 40
0.0
 41
0.0
 42
0.0
 43
0.0
 44
1117.6
 45
863.6
 46
0.0
 47
0.0
 48
0.0
 49
0.0
140
0.0
141
0.0
142
1.0
143
1.0
 70
0
 72
1
 73
0
 74
0
  7

 75
0
147
1.0
148
0.0
149
0.0
100
AcDbLayout
  1
Layout1
 70
0
 71
1
 10
0.0
 20
0.0
 11
1117.6
 21
863.6
 12
0.0
 22
0.0
 32
0.0
 14
0.0
 24
0.0
 34
0.0
 15
0.0
 25
0.0
 35
0.0
146
0.0
 13
0.0
 23
0.0
 33
0.0
 16
1.0
 26
0.0
 36
0.0
 17
0.0
 27
1.0
 37
0.0
 76
0
330
217
345
0
346
0
  0
ENDSEC
  0
EOF
