999
DXF file: S:\Engenharia\Wildfire\Engenharia\Produtos\Lixeiras\94540037\94540037.dxf
999
Pro/ENGINEER 2013150 by Parametric Technology Corporation
  0
SECTION
  2
HEADER
  9
$ACADVER
  1
AC1021
  9
$DWGCODEPAGE
  3
ANSI_1252
  9
$EXTMAX
 10
875.0
 20
1100.0
 30
0.0
  9
$EXTMIN
 10
0.0
 20
0.0
 30
0.0
  9
$LIMMIN
 10
0.0
 20
0.0
  9
$LIMMAX
 10
875.0
 20
1100.0
  9
$VIEWCTR
 10
437.5
 20
550.0
  9
$VIEWSIZE
 40
1100.0
  9
$CLAYER
  8
0
  9
$LTSCALE
 40
71.7037037037
  9
$CELTYPE
  6
BYLAYER
  9
$DIMSCALE
 40
1.0
  9
$DIMASZ
 40
3.0
  9
$DIMEXO
 40
0.5
  9
$DIMDLI
 40
49.5407407407
  9
$DIMEXE
 40
0.5
  9
$DIMCEN
 40
11.7333333333
  9
$DIMLFAC
 40
1.0
  9
$DIMBLK
  1
_FILLED
  9
$DIMTXT
 40
1.8
  9
$DIMTOL
 70
1
  9
$DIMLIM
 70
0
  9
$DIMTFAC
 40
1.0
  9
$DIMTP
 40
0.001
  9
$DIMTM
 40
0.001
  9
$DIMGAP
 40
0.625
  9
$DIMDSEP
 70
46
  9
$PDMODE
 70
3
  9
$PDSIZE
 40
1.0
  9
$HANDSEED
  5
2DB
  9
$TILEMODE
 70
1
  9
$MEASUREMENT
 70
1
  9
$INSUNITS
 70
4
  0
ENDSEC
  0
SECTION
  2
CLASSES
  0
CLASS
  1
ACDBDICTIONARYWDFLT
  2
AcDbDictionaryWithDefault
  3
AutoCAD 2000
 90
0
 91
1
280
0
281
0
  0
CLASS
  1
ACDBPLACEHOLDER
  2
AcDbPlaceHolder
  3
AutoCAD 2000
 90
0
 91
1
280
0
281
0
  0
CLASS
  1
LAYOUT
  2
AcDbLayout
  3
AutoCAD 2000
 90
0
 91
0
280
0
281
0
  0
ENDSEC
  0
SECTION
  2
TABLES
  0
TABLE
  2
VPORT
  5
8
100
AcDbSymbolTable
 70
2
  0
VPORT
  5
1F4
100
AcDbSymbolTableRecord
100
AcDbViewportTableRecord
  2
*ACTIVE
 70
0
 10
0.0
 20
0.0
 11
1.0
 21
1.0
 12
437.5
 22
550.0
 13
0.0
 23
0.0
 14
1.0
 24
1.0
 15
0.0
 25
0.0
 16
0.0
 26
0.0
 36
1.0
 17
0.0
 27
0.0
 37
0.0
 40
1100.0
 41
0.7954545455
 42
50.0
 43
0.0
 44
0.0
 50
0.0
 51
0.0
 71
0
 72
100
 73
1
 74
1
 75
0
 76
0
 77
0
 78
0
  0
ENDTAB
  0
TABLE
  2
LTYPE
  5
5
100
AcDbSymbolTable
 70
6
  0
LTYPE
  5
14
100
AcDbSymbolTableRecord
100
AcDbLinetypeTableRecord
  2
BYBLOCK
 70
0
  3

 72
65
 73
0
 40
0.0
  0
LTYPE
  5
15
100
AcDbSymbolTableRecord
100
AcDbLinetypeTableRecord
  2
BYLAYER
 70
0
  3

 72
65
 73
0
 40
0.0
  0
LTYPE
  5
16
100
AcDbSymbolTableRecord
100
AcDbLinetypeTableRecord
  2
CONTINUOUS
 70
64
  3
Solid line
 72
65
 73
0
 40
0.0
  0
LTYPE
  5
1F5
100
AcDbSymbolTableRecord
100
AcDbLinetypeTableRecord
  2
CENTER
 70
64
  3
____ _ ____ _ ____ _ ____ _ ____ _ ____ _ ____
 72
65
 73
4
 40
0.6
 49
0.375
 74
0
 49
-0.075
 74
0
 49
0.075
 74
0
 49
-0.075
 74
0
  0
LTYPE
  5
1F6
100
AcDbSymbolTableRecord
100
AcDbLinetypeTableRecord
  2
HIDDEN
 70
64
  3
- - - - - - - - - - - - - - - - - - - -
 72
65
 73
2
 40
0.2
 49
0.1
 74
0
 49
-0.1
 74
0
  0
LTYPE
  5
1F7
100
AcDbSymbolTableRecord
100
AcDbLinetypeTableRecord
  2
PHANTOM
 70
64
  3
_____ _ _ _____ _ _ _____ _ _ _____
 72
65
 73
6
 40
0.8
 49
0.45
 74
0
 49
-0.05
 74
0
 49
0.1
 74
0
 49
-0.05
 74
0
 49
0.1
 74
0
 49
-0.05
 74
0
  0
LTYPE
  5
1F8
100
AcDbSymbolTableRecord
100
AcDbLinetypeTableRecord
  2
DOT
 70
64
  3
. . . . . . . . . . . . . . . . . . . .
 72
65
 73
2
 40
0.2
 49
0.1
 74
0
 49
-0.1
 74
0
  0
LTYPE
  5
1F9
100
AcDbSymbolTableRecord
100
AcDbLinetypeTableRecord
  2
DASHED
 70
64
  3
- - - - - - - - - - - - - - - - - - - -
 72
65
 73
2
 40
0.2
 49
0.1
 74
0
 49
-0.1
 74
0
  0
ENDTAB
  0
TABLE
  2
LAYER
  5
2
100
AcDbSymbolTable
 70
36
  0
LAYER
  5
10
100
AcDbSymbolTableRecord
100
AcDbLayerTableRecord
  2
0
 70
0
 62
7
  6
CONTINUOUS
370
-3
390
F
  0
LAYER
  5
1FA
100
AcDbSymbolTableRecord
100
AcDbLayerTableRecord
  2
DEFAULT_1
 70
0
 62
7
  6
CENTER
370
-3
390
F
  0
LAYER
  5
1FB
100
AcDbSymbolTableRecord
100
AcDbLayerTableRecord
  2
DEFAULT_2
 70
0
 62
8
  6
HIDDEN
370
-3
390
F
  0
LAYER
  5
1FC
100
AcDbSymbolTableRecord
100
AcDbLayerTableRecord
  2
DEFAULT_3
 70
0
 62
7
  6
PHANTOM
370
-3
390
F
  0
LAYER
  5
1FD
100
AcDbSymbolTableRecord
100
AcDbLayerTableRecord
  2
01_ALL_DTM_PLN
 70
0
 62
7
  6
CONTINUOUS
370
-3
390
F
  0
LAYER
  5
1FE
100
AcDbSymbolTableRecord
100
AcDbLayerTableRecord
  2
01__ASM_ALL_DTM_PLN
 70
0
 62
7
  6
CONTINUOUS
370
-3
390
F
  0
LAYER
  5
1FF
100
AcDbSymbolTableRecord
100
AcDbLayerTableRecord
  2
01__ASM_DEF_DTM_PLN
 70
0
 62
7
  6
CONTINUOUS
370
-3
390
F
  0
LAYER
  5
200
100
AcDbSymbolTableRecord
100
AcDbLayerTableRecord
  2
01___PRT_ALL_DTM_PLN
 70
0
 62
7
  6
CONTINUOUS
370
-3
390
F
  0
LAYER
  5
201
100
AcDbSymbolTableRecord
100
AcDbLayerTableRecord
  2
01___PRT_DEF_DTM_PLN
 70
0
 62
7
  6
CONTINUOUS
370
-3
390
F
  0
LAYER
  5
202
100
AcDbSymbolTableRecord
100
AcDbLayerTableRecord
  2
02_ALL_AXES
 70
0
 62
7
  6
CONTINUOUS
370
-3
390
F
  0
LAYER
  5
203
100
AcDbSymbolTableRecord
100
AcDbLayerTableRecord
  2
02__ASM_ALL_AXES
 70
0
 62
7
  6
CONTINUOUS
370
-3
390
F
  0
LAYER
  5
204
100
AcDbSymbolTableRecord
100
AcDbLayerTableRecord
  2
02___PRT_ALL_AXES
 70
0
 62
7
  6
CONTINUOUS
370
-3
390
F
  0
LAYER
  5
205
100
AcDbSymbolTableRecord
100
AcDbLayerTableRecord
  2
03_ALL_CURVES
 70
0
 62
7
  6
CONTINUOUS
370
-3
390
F
  0
LAYER
  5
206
100
AcDbSymbolTableRecord
100
AcDbLayerTableRecord
  2
03__ASM_ALL_CURVES
 70
0
 62
7
  6
CONTINUOUS
370
-3
390
F
  0
LAYER
  5
207
100
AcDbSymbolTableRecord
100
AcDbLayerTableRecord
  2
03___PRT_ALL_CURVES
 70
0
 62
7
  6
CONTINUOUS
370
-3
390
F
  0
LAYER
  5
208
100
AcDbSymbolTableRecord
100
AcDbLayerTableRecord
  2
04_ALL_DTM_PNT
 70
0
 62
7
  6
CONTINUOUS
370
-3
390
F
  0
LAYER
  5
209
100
AcDbSymbolTableRecord
100
AcDbLayerTableRecord
  2
04__ASM_ALL_DTM_PNT
 70
0
 62
7
  6
CONTINUOUS
370
-3
390
F
  0
LAYER
  5
20A
100
AcDbSymbolTableRecord
100
AcDbLayerTableRecord
  2
04___PRT_ALL_DTM_PNT
 70
0
 62
7
  6
CONTINUOUS
370
-3
390
F
  0
LAYER
  5
20B
100
AcDbSymbolTableRecord
100
AcDbLayerTableRecord
  2
05_ALL_DTM_CSYS
 70
0
 62
7
  6
CONTINUOUS
370
-3
390
F
  0
LAYER
  5
20C
100
AcDbSymbolTableRecord
100
AcDbLayerTableRecord
  2
05__ASM_ALL_DTM_CSYS
 70
0
 62
7
  6
CONTINUOUS
370
-3
390
F
  0
LAYER
  5
20D
100
AcDbSymbolTableRecord
100
AcDbLayerTableRecord
  2
05__ASM_DEF_DTM_CSYS
 70
0
 62
7
  6
CONTINUOUS
370
-3
390
F
  0
LAYER
  5
20E
100
AcDbSymbolTableRecord
100
AcDbLayerTableRecord
  2
05___PRT_ALL_DTM_CSYS
 70
0
 62
7
  6
CONTINUOUS
370
-3
390
F
  0
LAYER
  5
20F
100
AcDbSymbolTableRecord
100
AcDbLayerTableRecord
  2
05___PRT_DEF_DTM_CSYS
 70
0
 62
7
  6
CONTINUOUS
370
-3
390
F
  0
LAYER
  5
210
100
AcDbSymbolTableRecord
100
AcDbLayerTableRecord
  2
06_ALL_SURFS
 70
0
 62
7
  6
CONTINUOUS
370
-3
390
F
  0
LAYER
  5
211
100
AcDbSymbolTableRecord
100
AcDbLayerTableRecord
  2
06__ASM_ALL_SURFS
 70
0
 62
7
  6
CONTINUOUS
370
-3
390
F
  0
LAYER
  5
212
100
AcDbSymbolTableRecord
100
AcDbLayerTableRecord
  2
06___PRT_ALL_SURFS
 70
0
 62
7
  6
CONTINUOUS
370
-3
390
F
  0
LAYER
  5
213
100
AcDbSymbolTableRecord
100
AcDbLayerTableRecord
  2
07__ASM_ALL_SKELETONS
 70
0
 62
7
  6
CONTINUOUS
370
-3
390
F
  0
ENDTAB
  0
TABLE
  2
STYLE
  5
3
100
AcDbSymbolTable
 70
1
  0
STYLE
  5
11
100
AcDbSymbolTableRecord
100
AcDbTextStyleTableRecord
  2
STANDARD
 70
0
 40
0.0
 41
0.8
 50
0.0
 71
0
 42
0.2
  3
txt
  4

  0
STYLE
  5
214
100
AcDbSymbolTableRecord
100
AcDbTextStyleTableRecord
  2
TEXTSTYLE_1
 70
0
 40
0.0
 41
0.8
 50
0.0
 71
0
 42
0.2
  3
gdt
  4

  0
ENDTAB
  0
TABLE
  2
VIEW
  5
6
100
AcDbSymbolTable
 70
0
  0
ENDTAB
  0
TABLE
  2
UCS
  5
7
100
AcDbSymbolTable
 70
0
  0
ENDTAB
  0
TABLE
  2
APPID
  5
9
100
AcDbSymbolTable
 70
1
  0
APPID
  5
215
100
AcDbSymbolTableRecord
100
AcDbRegAppTableRecord
  2
ACAD
 70
0
  0
ENDTAB
  0
TABLE
  2
BLOCK_RECORD
  5
1
100
AcDbSymbolTable
 70
0
  0
BLOCK_RECORD
  5
216
100
AcDbSymbolTableRecord
100
AcDbBlockTableRecord
  2
*Model_Space
  0
BLOCK_RECORD
  5
217
100
AcDbSymbolTableRecord
100
AcDbBlockTableRecord
  2
*Paper_Space
  0
BLOCK_RECORD
  5
218
100
AcDbSymbolTableRecord
100
AcDbBlockTableRecord
  2
_FILLED
  0
BLOCK_RECORD
  5
219
100
AcDbSymbolTableRecord
100
AcDbBlockTableRecord
  2
*D0
  0
BLOCK_RECORD
  5
21A
100
AcDbSymbolTableRecord
100
AcDbBlockTableRecord
  2
*D1
  0
ENDTAB
  0
TABLE
  2
DIMSTYLE
  5
A
100
AcDbSymbolTable
 70
1
100
AcDbDimStyleTable
 71
0
  0
DIMSTYLE
105
21B
100
AcDbSymbolTableRecord
100
AcDbDimStyleTableRecord
  2
STANDARD
 70
0
  3

  4

 40
1.0
 41
3.0
 42
0.5
 43
0.38
 44
0.5
 45
0.0
 46
0.0
 47
0.001
 48
0.001
140
1.8
141
0.09
142
0.0
143
25.4
144
1.0
145
0.0
146
1.0
147
0.625
 71
1.0
 72
0.0
 73
0
 74
0
 75
0
 76
0
 77
1
 78
8
170
0
171
2
172
0
173
0
174
0
175
0
176
0
177
0
178
0
270
2
271
3
272
3
273
2
274
2
275
0
280
0
281
0
282
0
283
1
284
8
285
0
286
0
287
3
288
0
340
11
278
46
341
218
342
218
343
218
344
218
  0
DIMSTYLE
105
21C
100
AcDbSymbolTableRecord
100
AcDbDimStyleTableRecord
  2
DIMSTYLE_1
 70
0
  3
<>
  4

 40
1.0
 41
3.0
 42
0.5
 43
0.38
 44
0.5
 45
0.0
 46
0.0
 47
0.001
 48
0.001
140
1.8
141
0.09
142
0.0
143
25.4
144
1.0
145
0.0
146
1.0
147
0.625
 71
0.0
 72
0.0
 73
0
 74
0
 75
0
 76
0
 77
1
 78
8
170
0
171
2
172
1
173
0
174
0
175
0
176
0
177
0
178
0
270
2
271
0
272
0
273
2
274
2
275
0
280
0
281
0
282
0
283
1
284
8
285
0
286
0
287
3
288
1
340
11
278
46
289
2
341
218
342
218
343
218
344
218
  0
DIMSTYLE
105
21D
100
AcDbSymbolTableRecord
100
AcDbDimStyleTableRecord
  2
DIMSTYLE_2
 70
0
  3

  4

 40
1.0
 41
3.0
 42
0.5
 43
0.38
 44
0.5
 45
0.0
 46
0.0
 47
0.001
 48
0.001
140
1.8
141
0.09
142
0.0
143
25.4
144
1.0
145
0.0
146
1.0
147
0.45
 71
0.0
 72
0.0
 73
0
 74
0
 75
0
 76
0
 77
1
 78
8
170
0
171
2
172
0
173
0
174
0
175
0
176
0
177
0
178
0
270
2
271
0
272
0
273
2
274
2
275
0
280
0
281
0
282
0
283
1
284
8
285
0
286
0
287
3
288
0
340
11
278
46
341
218
342
218
343
218
344
218
  0
ENDTAB
  0
ENDSEC
  0
SECTION
  2
BLOCKS
  0
BLOCK
  5
20
100
AcDbEntity
  8
0
100
AcDbBlockBegin
  2
*Model_Space
 70
0
 10
0.0
 20
0.0
 30
0.0
  3
*Model_Space
  1

  0
ENDBLK
  5
21
100
AcDbEntity
  8
0
100
AcDbBlockEnd
  0
BLOCK
  5
1C
100
AcDbEntity
  8
0
100
AcDbBlockBegin
  2
*Paper_Space
 70
0
 10
0.0
 20
0.0
 30
0.0
  3
*Paper_Space
  1

  0
ENDBLK
  5
1D
100
AcDbEntity
  8
0
100
AcDbBlockEnd
  0
BLOCK
  5
21E
100
AcDbEntity
  8
0
100
AcDbBlockBegin
  2
_FILLED
 70
64
 10
0.0
 20
0.0
  3
_FILLED
  1

  0
SOLID
  5
21F
100
AcDbEntity
  8
0
  6
BYBLOCK
 62
0
100
AcDbTrace
 10
0.0
 20
0.0
 11
-1.0
 21
0.1666666667
 12
-1.0
 22
-0.1666666667
 13
-1.0
 23
-0.1666666667
  0
ENDBLK
  5
220
100
AcDbEntity
  8
0
  6
BYBLOCK
 62
0
100
AcDbBlockEnd
  0
BLOCK
  5
221
100
AcDbEntity
  8
0
100
AcDbBlockBegin
 62
2
  6
CONTINUOUS
  2
*D0
 70
65
 10
0.0
 20
0.0
  3
*D0
  1

  0
MTEXT
  5
222
100
AcDbEntity
  8
0
100
AcDbMText
 62
2
  6
CONTINUOUS
  7
TEXTSTYLE_1
 71
1
 72
1
 10
570.4324824506
 20
291.8455453253
 30
0.0
 11
0.7498920008
 21
0.6615602672
 31
0.0
 44
0.9
  1
{\Fgdt;n}\Ftxt;258
 40
1.8
 41
11.9314285714
  0
LINE
  5
223
100
AcDbEntity
  8
0
100
AcDbLine
 62
2
  6
CONTINUOUS
 10
561.1078650099
 20
280.19023367
 11
464.4092915076
 21
194.8820372137
  0
LINE
  5
224
100
AcDbEntity
  8
0
100
AcDbLine
 62
2
  6
CONTINUOUS
 10
464.4092915076
 20
194.8820372137
 11
578.0984926526
 21
295.1794909915
  0
LINE
  5
225
100
AcDbEntity
  8
0
100
AcDbLine
 62
2
  6
CONTINUOUS
 10
367.7107180053
 20
109.5738407575
 11
464.4092915076
 21
194.8820372137
  0
INSERT
  5
226
100
AcDbEntity
  8
0
100
AcDbBlockReference
 62
2
  6
CONTINUOUS
  2
_FILLED
 10
561.1078650099
 20
280.19023367
 41
3.0
 42
3.0
 43
3.0
 50
41.418976467
  0
INSERT
  5
227
100
AcDbEntity
  8
0
100
AcDbBlockReference
 62
2
  6
CONTINUOUS
  2
_FILLED
 10
367.7107180053
 20
109.5738407575
 41
3.0
 42
3.0
 43
3.0
 50
221.418976467
  0
ENDBLK
  5
228
100
AcDbEntity
  8
0
  6
BYBLOCK
 62
0
100
AcDbBlockEnd
  0
BLOCK
  5
229
100
AcDbEntity
  8
0
100
AcDbBlockBegin
 62
2
  6
CONTINUOUS
  2
*D1
 70
65
 10
0.0
 20
0.0
  3
*D1
  1

  0
MTEXT
  5
22A
100
AcDbEntity
  8
0
100
AcDbMText
 62
2
  6
CONTINUOUS
  7
STANDARD
 71
2
 72
1
 10
283.2476634868
 20
691.9727406963
 30
0.0
 11
0.0
 21
1.0
 31
0.0
 44
0.9
  1
604
 40
1.8
 41
8.3314285714
  0
LINE
  5
22B
100
AcDbEntity
  8
0
100
AcDbLine
 62
2
  6
CONTINUOUS
 10
340.9092915076
 20
389.825162739
 11
285.3190920582
 21
389.825162739
  0
LINE
  5
22C
100
AcDbEntity
  8
0
100
AcDbLine
 62
2
  6
CONTINUOUS
 10
357.9997057088
 20
994.1203186536
 11
285.3190920582
 21
994.1203186536
  0
LINE
  5
22D
100
AcDbEntity
  8
0
100
AcDbLine
 62
2
  6
CONTINUOUS
 10
285.8190920582
 20
389.825162739
 11
285.8190920582
 21
691.9727406963
  0
LINE
  5
22E
100
AcDbEntity
  8
0
100
AcDbLine
 62
2
  6
CONTINUOUS
 10
285.8190920582
 20
994.1203186536
 11
285.8190920582
 21
691.9727406963
  0
INSERT
  5
22F
100
AcDbEntity
  8
0
100
AcDbBlockReference
 62
2
  6
CONTINUOUS
  2
_FILLED
 10
285.8190920582
 20
389.825162739
 41
3.0
 42
3.0
 43
3.0
 50
270.0
  0
INSERT
  5
230
100
AcDbEntity
  8
0
100
AcDbBlockReference
 62
2
  6
CONTINUOUS
  2
_FILLED
 10
285.8190920582
 20
994.1203186536
 41
3.0
 42
3.0
 43
3.0
 50
90.0
  0
ENDBLK
  5
231
100
AcDbEntity
  8
0
  6
BYBLOCK
 62
0
100
AcDbBlockEnd
  0
ENDSEC
  0
SECTION
  2
ENTITIES
  0
DIMENSION
  5
232
100
AcDbEntity
  8
0
100
AcDbDimension
 62
2
  6
CONTINUOUS
  2
*D0
 10
561.1078650099
 20
280.19023367
 11
574.0103143057
 21
293.8017622159
 70
163
 71
1
 42
257.9
  1
%%c<>
  3
DIMSTYLE_1
100
AcDbDiametricDimension
 15
367.7107180053
 25
109.5738407575
  0
DIMENSION
  5
233
100
AcDbEntity
  8
0
100
AcDbDimension
 62
2
  6
CONTINUOUS
  2
*D1
 10
285.8190920582
 20
994.1203186536
 11
285.8190920582
 21
691.9727406963
 70
160
 71
2
 42
604.2951559146
  3
DIMSTYLE_2
100
AcDbAlignedDimension
 13
341.4092915076
 23
389.825162739
 14
358.4997057088
 24
994.1203186536
 50
90.0
100
AcDbRotatedDimension
  0
LINE
  5
234
100
AcDbEntity
  8
0
100
AcDbLine
 62
7
  6
CONTINUOUS
 10
587.5091860434
 20
389.696662739
 11
341.3285588329
 21
389.696662739
  0
LINE
  5
235
100
AcDbEntity
  8
0
100
AcDbLine
 62
7
  6
CONTINUOUS
 10
589.4092915076
 20
391.596662739
 11
339.4092915076
 21
391.596662739
  0
LINE
  5
236
100
AcDbEntity
  8
02___PRT_ALL_AXES
100
AcDbLine
 62
3
  6
CONTINUOUS
 10
337.7592915076
 20
990.6378449073
 11
337.7592915076
 21
978.1492690346
  0
LINE
  5
237
100
AcDbEntity
  8
02___PRT_ALL_AXES
100
AcDbLine
 62
3
  6
CONTINUOUS
 10
337.7592915076
 20
975.1010564435
 11
337.7592915076
 21
965.825162739
  0
LINE
  5
238
100
AcDbEntity
  8
02___PRT_ALL_AXES
100
AcDbLine
 62
7
  6
CONTINUOUS
 10
339.4092915076
 20
963.125162739
 11
339.4092915076
 21
391.596662739
  0
LINE
  5
239
100
AcDbEntity
  8
03___PRT_ALL_CURVES
100
AcDbLine
 62
2
  6
CONTINUOUS
 10
455.7240679761
 20
935.1217024496
 11
455.2538813633
 21
933.9226037013
  0
LINE
  5
23A
100
AcDbEntity
  8
03___PRT_ALL_CURVES
100
AcDbLine
 62
2
  6
CONTINUOUS
 10
455.3608726982
 20
936.154443501
 11
453.9483104517
 21
932.555148738
  0
LINE
  5
23B
100
AcDbEntity
  8
03___PRT_ALL_CURVES
100
AcDbLine
 62
2
  6
CONTINUOUS
 10
454.999317823
 20
933.2749334924
 11
454.7160348595
 21
932.555148738
  0
LINE
  5
23C
100
AcDbEntity
  8
03___PRT_ALL_CURVES
100
AcDbLine
 62
2
  6
CONTINUOUS
 10
460.761570472
 20
936.154443501
 11
459.970586115
 21
933.8134597999
  0
LINE
  5
23D
100
AcDbEntity
  8
03___PRT_ALL_CURVES
100
AcDbLine
 62
2
  6
CONTINUOUS
 10
460.2004008022
 20
932.555148738
 11
460.9877398694
 21
934.8834854976
  0
LINE
  5
23E
100
AcDbEntity
  8
03___PRT_ALL_CURVES
100
AcDbLine
 62
2
  6
CONTINUOUS
 10
479.2657833504
 20
936.154443501
 11
477.8532953768
 21
932.555148738
  0
LINE
  5
23F
100
AcDbEntity
  8
03___PRT_ALL_CURVES
100
AcDbLine
 62
2
  6
CONTINUOUS
 10
479.6291721463
 20
935.121842566
 11
479.1584343042
 21
933.9226037013
  0
LINE
  5
240
100
AcDbEntity
  8
03___PRT_ALL_CURVES
100
AcDbLine
 62
2
  6
CONTINUOUS
 10
478.6210197846
 20
932.555148738
 11
478.9043027481
 21
933.2749334924
  0
LINE
  5
241
100
AcDbEntity
  8
03___PRT_ALL_CURVES
100
AcDbLine
 62
2
  6
CONTINUOUS
 10
458.5744278693
 20
932.555148738
 11
458.953690675
 21
934.8817512603
  0
LINE
  5
242
100
AcDbEntity
  8
03___PRT_ALL_CURVES
100
AcDbLine
 62
2
  6
CONTINUOUS
 10
458.3938109352
 20
936.154443501
 11
457.804362893
 21
932.555148738
  0
LINE
  5
243
100
AcDbEntity
  8
03___PRT_ALL_CURVES
100
AcDbLine
 62
2
  6
CONTINUOUS
 10
444.4091617066
 20
932.1537149183
 11
444.4091617066
 21
936.9538749371
  0
LINE
  5
244
100
AcDbEntity
  8
03___PRT_ALL_CURVES
100
AcDbLine
 62
2
  6
CONTINUOUS
 10
444.8092719813
 20
932.1537340767
 11
444.8092719813
 21
936.9538940955
  0
LINE
  5
245
100
AcDbEntity
  8
03___PRT_ALL_CURVES
100
AcDbLine
 62
2
  6
CONTINUOUS
 10
448.0573524925
 20
936.154443501
 11
448.0573524925
 21
935.5022489307
  0
LINE
  5
246
100
AcDbEntity
  8
03___PRT_ALL_CURVES
100
AcDbLine
 62
2
  6
CONTINUOUS
 10
448.9012543062
 20
935.5022489307
 11
448.9012543062
 21
932.555148738
  0
LINE
  5
247
100
AcDbEntity
  8
03___PRT_ALL_CURVES
100
AcDbLine
 62
2
  6
CONTINUOUS
 10
449.6875804526
 20
935.5022489307
 11
449.6875804526
 21
932.555148738
  0
LINE
  5
248
100
AcDbEntity
  8
03___PRT_ALL_CURVES
100
AcDbLine
 62
2
  6
CONTINUOUS
 10
450.5314822663
 20
936.154443501
 11
450.5314822663
 21
935.5022489307
  0
LINE
  5
249
100
AcDbEntity
  8
03___PRT_ALL_CURVES
100
AcDbLine
 62
2
  6
CONTINUOUS
 10
451.0319930338
 20
932.555148738
 11
451.0319930338
 21
936.154443501
  0
LINE
  5
24A
100
AcDbEntity
  8
03___PRT_ALL_CURVES
100
AcDbLine
 62
2
  6
CONTINUOUS
 10
451.8183191802
 20
933.9233139021
 11
451.8183191802
 21
932.555148738
  0
LINE
  5
24B
100
AcDbEntity
  8
03___PRT_ALL_CURVES
100
AcDbLine
 62
2
  6
CONTINUOUS
 10
451.8183191802
 20
934.5518647942
 11
451.8183191802
 21
935.5022489307
  0
LINE
  5
24C
100
AcDbEntity
  8
03___PRT_ALL_CURVES
100
AcDbLine
 62
2
  6
CONTINUOUS
 10
466.2408680335
 20
936.154443501
 11
466.2408680335
 21
932.555148738
  0
LINE
  5
24D
100
AcDbEntity
  8
03___PRT_ALL_CURVES
100
AcDbLine
 62
2
  6
CONTINUOUS
 10
467.02719418
 20
932.555148738
 11
467.02719418
 21
934.9452314776
  0
LINE
  5
24E
100
AcDbEntity
  8
03___PRT_ALL_CURVES
100
AcDbLine
 62
2
  6
CONTINUOUS
 10
468.6309782433
 20
936.154443501
 11
468.6309782433
 21
933.7643607614
  0
LINE
  5
24F
100
AcDbEntity
  8
03___PRT_ALL_CURVES
100
AcDbLine
 62
2
  6
CONTINUOUS
 10
469.4173043897
 20
932.555148738
 11
469.4173043897
 21
936.154443501
  0
LINE
  5
250
100
AcDbEntity
  8
03___PRT_ALL_CURVES
100
AcDbLine
 62
2
  6
CONTINUOUS
 10
469.9175857771
 20
936.154443501
 11
469.9175857771
 21
935.5022489307
  0
LINE
  5
251
100
AcDbEntity
  8
03___PRT_ALL_CURVES
100
AcDbLine
 62
2
  6
CONTINUOUS
 10
470.7614875907
 20
935.5022489307
 11
470.7614875907
 21
932.555148738
  0
LINE
  5
252
100
AcDbEntity
  8
03___PRT_ALL_CURVES
100
AcDbLine
 62
2
  6
CONTINUOUS
 10
471.5478137372
 20
932.555148738
 11
471.5478137372
 21
935.5022489307
  0
LINE
  5
253
100
AcDbEntity
  8
03___PRT_ALL_CURVES
100
AcDbLine
 62
2
  6
CONTINUOUS
 10
472.3917155508
 20
935.5022489307
 11
472.3917155508
 21
936.154443501
  0
LINE
  5
254
100
AcDbEntity
  8
03___PRT_ALL_CURVES
100
AcDbLine
 62
2
  6
CONTINUOUS
 10
472.8928992656
 20
936.154443501
 11
472.8928992656
 21
932.555148738
  0
LINE
  5
255
100
AcDbEntity
  8
03___PRT_ALL_CURVES
100
AcDbLine
 62
2
  6
CONTINUOUS
 10
473.6792254121
 20
932.555148738
 11
473.6792254121
 21
936.154443501
  0
LINE
  5
256
100
AcDbEntity
  8
03___PRT_ALL_CURVES
100
AcDbLine
 62
2
  6
CONTINUOUS
 10
474.2786892122
 20
936.154443501
 11
474.2786892122
 21
932.555148738
  0
LINE
  5
257
100
AcDbEntity
  8
03___PRT_ALL_CURVES
100
AcDbLine
 62
2
  6
CONTINUOUS
 10
475.0650153587
 20
932.555148738
 11
475.0650153587
 21
934.9452314776
  0
LINE
  5
258
100
AcDbEntity
  8
03___PRT_ALL_CURVES
100
AcDbLine
 62
2
  6
CONTINUOUS
 10
476.668799422
 20
936.154443501
 11
476.668799422
 21
933.7643607614
  0
LINE
  5
259
100
AcDbEntity
  8
03___PRT_ALL_CURVES
100
AcDbLine
 62
2
  6
CONTINUOUS
 10
477.4551255684
 20
932.555148738
 11
477.4551255684
 21
936.154443501
  0
LINE
  5
25A
100
AcDbEntity
  8
03___PRT_ALL_CURVES
100
AcDbLine
 62
2
  6
CONTINUOUS
 10
484.009311034
 20
936.9538940955
 11
484.009311034
 21
932.1537340767
  0
LINE
  5
25B
100
AcDbEntity
  8
03___PRT_ALL_CURVES
100
AcDbLine
 62
2
  6
CONTINUOUS
 10
484.4094213087
 20
936.9538749371
 11
484.4094213087
 21
932.1537149183
  0
LINE
  5
25C
100
AcDbEntity
  8
03___PRT_ALL_CURVES
100
AcDbLine
 62
2
  6
CONTINUOUS
 10
462.1371629832
 20
932.555148738
 11
461.5478966185
 21
936.154443501
  0
LINE
  5
25D
100
AcDbEntity
  8
03___PRT_ALL_CURVES
100
AcDbLine
 62
2
  6
CONTINUOUS
 10
460.9877398694
 20
934.8834854976
 11
461.3670980068
 21
932.555148738
  0
LINE
  5
25E
100
AcDbEntity
  8
03___PRT_ALL_CURVES
100
AcDbLine
 62
2
  6
CONTINUOUS
 10
455.7240679761
 20
935.1217024496
 11
456.1953570475
 21
933.9226037013
  0
LINE
  5
25F
100
AcDbEntity
  8
03___PRT_ALL_CURVES
100
AcDbLine
 62
2
  6
CONTINUOUS
 10
456.4496047648
 20
933.2749334924
 11
456.7323407988
 21
932.555148738
  0
LINE
  5
260
100
AcDbEntity
  8
03___PRT_ALL_CURVES
100
AcDbLine
 62
2
  6
CONTINUOUS
 10
456.0876509284
 20
936.154443501
 11
457.5000652066
 21
932.555148738
  0
LINE
  5
261
100
AcDbEntity
  8
03___PRT_ALL_CURVES
100
AcDbLine
 62
2
  6
CONTINUOUS
 10
458.953690675
 20
934.8817512603
 11
459.7415168369
 21
932.555148738
  0
LINE
  5
262
100
AcDbEntity
  8
03___PRT_ALL_CURVES
100
AcDbLine
 62
2
  6
CONTINUOUS
 10
459.970586115
 20
933.8134597999
 11
459.1801370817
 21
936.154443501
  0
LINE
  5
263
100
AcDbEntity
  8
03___PRT_ALL_CURVES
100
AcDbLine
 62
2
  6
CONTINUOUS
 10
480.3545896899
 20
933.2749334924
 11
480.6373257239
 21
932.555148738
  0
LINE
  5
264
100
AcDbEntity
  8
03___PRT_ALL_CURVES
100
AcDbLine
 62
2
  6
CONTINUOUS
 10
479.6291721463
 20
935.121842566
 11
480.0999099884
 21
933.9226037013
  0
LINE
  5
265
100
AcDbEntity
  8
03___PRT_ALL_CURVES
100
AcDbLine
 62
2
  6
CONTINUOUS
 10
481.4050501317
 20
932.555148738
 11
479.9925615806
 21
936.154443501
  0
LINE
  5
266
100
AcDbEntity
  8
02___PRT_ALL_AXES
100
AcDbLine
 62
7
  6
CONTINUOUS
 10
589.4092915076
 20
963.125162739
 11
589.4092915076
 21
391.596662739
  0
LINE
  5
267
100
AcDbEntity
  8
02___PRT_ALL_AXES
100
AcDbLine
 62
3
  6
CONTINUOUS
 10
591.0592915076
 20
990.6378449073
 11
591.0592915076
 21
978.1492690346
  0
LINE
  5
268
100
AcDbEntity
  8
02___PRT_ALL_AXES
100
AcDbLine
 62
3
  6
CONTINUOUS
 10
591.0592915076
 20
975.1010564435
 11
591.0592915076
 21
965.825162739
  0
LINE
  5
269
100
AcDbEntity
  8
03___PRT_ALL_CURVES
100
AcDbLine
 62
2
  6
CONTINUOUS
 10
452.775779089
 20
932.555148738
 11
451.8183191802
 21
933.9233139021
  0
LINE
  5
26A
100
AcDbEntity
  8
03___PRT_ALL_CURVES
100
AcDbLine
 62
2
  6
CONTINUOUS
 10
452.5848968122
 20
934.0754655969
 11
453.6487782455
 21
932.555148738
  0
LINE
  5
26B
100
AcDbEntity
  8
03___PRT_ALL_CURVES
100
AcDbLine
 62
2
  6
CONTINUOUS
 10
467.02719418
 20
934.9452314776
 11
468.6309782433
 21
932.555148738
  0
LINE
  5
26C
100
AcDbEntity
  8
03___PRT_ALL_CURVES
100
AcDbLine
 62
2
  6
CONTINUOUS
 10
468.6309782433
 20
933.7643607614
 11
467.02719418
 21
936.154443501
  0
LINE
  5
26D
100
AcDbEntity
  8
03___PRT_ALL_CURVES
100
AcDbLine
 62
2
  6
CONTINUOUS
 10
475.0650153587
 20
934.9452314776
 11
476.668799422
 21
932.555148738
  0
LINE
  5
26E
100
AcDbEntity
  8
03___PRT_ALL_CURVES
100
AcDbLine
 62
2
  6
CONTINUOUS
 10
476.668799422
 20
933.7643607614
 11
475.0650153587
 21
936.154443501
  0
LINE
  5
26F
100
AcDbEntity
  8
03___PRT_ALL_CURVES
100
AcDbLine
 62
2
  6
CONTINUOUS
 10
482.8096335067
 20
930.5539271163
 11
446.0089488735
 21
930.5539271163
  0
LINE
  5
270
100
AcDbEntity
  8
03___PRT_ALL_CURVES
100
AcDbLine
 62
2
  6
CONTINUOUS
 10
482.8096335067
 20
930.953851522
 11
446.0089488735
 21
930.953851522
  0
LINE
  5
271
100
AcDbEntity
  8
03___PRT_ALL_CURVES
100
AcDbLine
 62
2
  6
CONTINUOUS
 10
457.5000652066
 20
932.555148738
 11
456.7323408269
 21
932.555148738
  0
LINE
  5
272
100
AcDbEntity
  8
03___PRT_ALL_CURVES
100
AcDbLine
 62
2
  6
CONTINUOUS
 10
454.7160348595
 20
932.555148738
 11
453.9483104443
 21
932.555148738
  0
LINE
  5
273
100
AcDbEntity
  8
03___PRT_ALL_CURVES
100
AcDbLine
 62
2
  6
CONTINUOUS
 10
453.6487782455
 20
932.555148738
 11
452.7757790633
 21
932.555148738
  0
LINE
  5
274
100
AcDbEntity
  8
03___PRT_ALL_CURVES
100
AcDbLine
 62
2
  6
CONTINUOUS
 10
451.8183191802
 20
932.555148738
 11
451.031993044
 21
932.555148738
  0
LINE
  5
275
100
AcDbEntity
  8
03___PRT_ALL_CURVES
100
AcDbLine
 62
2
  6
CONTINUOUS
 10
449.6875804526
 20
932.555148738
 11
448.901254284
 21
932.555148738
  0
LINE
  5
276
100
AcDbEntity
  8
03___PRT_ALL_CURVES
100
AcDbLine
 62
2
  6
CONTINUOUS
 10
457.804362893
 20
932.555148738
 11
458.5744278527
 21
932.555148738
  0
LINE
  5
277
100
AcDbEntity
  8
03___PRT_ALL_CURVES
100
AcDbLine
 62
2
  6
CONTINUOUS
 10
459.7415168369
 20
932.555148738
 11
460.2004007936
 21
932.555148738
  0
LINE
  5
278
100
AcDbEntity
  8
03___PRT_ALL_CURVES
100
AcDbLine
 62
2
  6
CONTINUOUS
 10
461.3670980068
 20
932.555148738
 11
462.1371630075
 21
932.555148738
  0
LINE
  5
279
100
AcDbEntity
  8
03___PRT_ALL_CURVES
100
AcDbLine
 62
2
  6
CONTINUOUS
 10
466.2408680335
 20
932.555148738
 11
467.0271941952
 21
932.555148738
  0
LINE
  5
27A
100
AcDbEntity
  8
03___PRT_ALL_CURVES
100
AcDbLine
 62
2
  6
CONTINUOUS
 10
468.6309782433
 20
932.555148738
 11
469.4173044177
 21
932.555148738
  0
LINE
  5
27B
100
AcDbEntity
  8
03___PRT_ALL_CURVES
100
AcDbLine
 62
2
  6
CONTINUOUS
 10
470.7614875907
 20
932.555148738
 11
471.5478137383
 21
932.555148738
  0
LINE
  5
27C
100
AcDbEntity
  8
03___PRT_ALL_CURVES
100
AcDbLine
 62
2
  6
CONTINUOUS
 10
472.8928992656
 20
932.555148738
 11
473.6792253848
 21
932.555148738
  0
LINE
  5
27D
100
AcDbEntity
  8
03___PRT_ALL_CURVES
100
AcDbLine
 62
2
  6
CONTINUOUS
 10
474.2786892122
 20
932.555148738
 11
475.0650153396
 21
932.555148738
  0
LINE
  5
27E
100
AcDbEntity
  8
03___PRT_ALL_CURVES
100
AcDbLine
 62
2
  6
CONTINUOUS
 10
476.668799422
 20
932.555148738
 11
477.4551255713
 21
932.555148738
  0
LINE
  5
27F
100
AcDbEntity
  8
03___PRT_ALL_CURVES
100
AcDbLine
 62
2
  6
CONTINUOUS
 10
477.8532953768
 20
932.555148738
 11
478.6210197644
 21
932.555148738
  0
LINE
  5
280
100
AcDbEntity
  8
03___PRT_ALL_CURVES
100
AcDbLine
 62
2
  6
CONTINUOUS
 10
480.6373257239
 20
932.555148738
 11
481.4050501309
 21
932.555148738
  0
LINE
  5
281
100
AcDbEntity
  8
03___PRT_ALL_CURVES
100
AcDbLine
 62
2
  6
CONTINUOUS
 10
456.4496047648
 20
933.2749334924
 11
454.9993177656
 21
933.2749334924
  0
LINE
  5
282
100
AcDbEntity
  8
03___PRT_ALL_CURVES
100
AcDbLine
 62
2
  6
CONTINUOUS
 10
478.9043027481
 20
933.2749334924
 11
480.3545896545
 21
933.2749334924
  0
LINE
  5
283
100
AcDbEntity
  8
03___PRT_ALL_CURVES
100
AcDbLine
 62
2
  6
CONTINUOUS
 10
480.0999099884
 20
933.9226037013
 11
479.1584342956
 21
933.9226037013
  0
LINE
  5
284
100
AcDbEntity
  8
03___PRT_ALL_CURVES
100
AcDbLine
 62
2
  6
CONTINUOUS
 10
456.1953570475
 20
933.9226037013
 11
455.253881358
 21
933.9226037013
  0
LINE
  5
285
100
AcDbEntity
  8
03___PRT_ALL_CURVES
100
AcDbLine
 62
2
  6
CONTINUOUS
 10
452.1213249119
 20
934.5518647942
 11
451.8183191942
 21
934.5518647942
  0
LINE
  5
286
100
AcDbEntity
  8
03___PRT_ALL_CURVES
100
AcDbLine
 62
2
  6
CONTINUOUS
 10
450.5314822663
 20
935.5022489307
 11
449.6875804686
 21
935.5022489307
  0
LINE
  5
287
100
AcDbEntity
  8
03___PRT_ALL_CURVES
100
AcDbLine
 62
2
  6
CONTINUOUS
 10
448.9012543062
 20
935.5022489307
 11
448.0573524702
 21
935.5022489307
  0
LINE
  5
288
100
AcDbEntity
  8
03___PRT_ALL_CURVES
100
AcDbLine
 62
2
  6
CONTINUOUS
 10
451.8183191802
 20
935.5022489307
 11
452.1213244635
 21
935.5022489307
  0
LINE
  5
289
100
AcDbEntity
  8
03___PRT_ALL_CURVES
100
AcDbLine
 62
2
  6
CONTINUOUS
 10
469.9175857771
 20
935.5022489307
 11
470.7614875954
 21
935.5022489307
  0
LINE
  5
28A
100
AcDbEntity
  8
03___PRT_ALL_CURVES
100
AcDbLine
 62
2
  6
CONTINUOUS
 10
471.5478137372
 20
935.5022489307
 11
472.3917155571
 21
935.5022489307
  0
LINE
  5
28B
100
AcDbEntity
  8
03___PRT_ALL_CURVES
100
AcDbLine
 62
2
  6
CONTINUOUS
 10
479.9925615806
 20
936.154443501
 11
479.2657833215
 21
936.154443501
  0
LINE
  5
28C
100
AcDbEntity
  8
03___PRT_ALL_CURVES
100
AcDbLine
 62
2
  6
CONTINUOUS
 10
477.4551255684
 20
936.154443501
 11
476.6687994191
 21
936.154443501
  0
LINE
  5
28D
100
AcDbEntity
  8
03___PRT_ALL_CURVES
100
AcDbLine
 62
2
  6
CONTINUOUS
 10
475.0650153587
 20
936.154443501
 11
474.2786892312
 21
936.154443501
  0
LINE
  5
28E
100
AcDbEntity
  8
03___PRT_ALL_CURVES
100
AcDbLine
 62
2
  6
CONTINUOUS
 10
473.6792254121
 20
936.154443501
 11
472.8928992929
 21
936.154443501
  0
LINE
  5
28F
100
AcDbEntity
  8
03___PRT_ALL_CURVES
100
AcDbLine
 62
2
  6
CONTINUOUS
 10
472.3917155508
 20
936.154443501
 11
469.9175857651
 21
936.154443501
  0
LINE
  5
290
100
AcDbEntity
  8
03___PRT_ALL_CURVES
100
AcDbLine
 62
2
  6
CONTINUOUS
 10
469.4173043897
 20
936.154443501
 11
468.6309782153
 21
936.154443501
  0
LINE
  5
291
100
AcDbEntity
  8
03___PRT_ALL_CURVES
100
AcDbLine
 62
2
  6
CONTINUOUS
 10
467.02719418
 20
936.154443501
 11
466.2408680183
 21
936.154443501
  0
LINE
  5
292
100
AcDbEntity
  8
03___PRT_ALL_CURVES
100
AcDbLine
 62
2
  6
CONTINUOUS
 10
461.5478966185
 20
936.154443501
 11
460.7615704636
 21
936.154443501
  0
LINE
  5
293
100
AcDbEntity
  8
03___PRT_ALL_CURVES
100
AcDbLine
 62
2
  6
CONTINUOUS
 10
459.1801370817
 20
936.154443501
 11
458.3938109573
 21
936.154443501
  0
LINE
  5
294
100
AcDbEntity
  8
03___PRT_ALL_CURVES
100
AcDbLine
 62
2
  6
CONTINUOUS
 10
456.0876509284
 20
936.154443501
 11
455.3608727242
 21
936.154443501
  0
LINE
  5
295
100
AcDbEntity
  8
03___PRT_ALL_CURVES
100
AcDbLine
 62
2
  6
CONTINUOUS
 10
450.5314822663
 20
936.154443501
 11
448.0573524639
 21
936.154443501
  0
LINE
  5
296
100
AcDbEntity
  8
03___PRT_ALL_CURVES
100
AcDbLine
 62
2
  6
CONTINUOUS
 10
451.0319930338
 20
936.154443501
 11
452.3776401362
 21
936.154443501
  0
LINE
  5
297
100
AcDbEntity
  8
03___PRT_ALL_CURVES
100
AcDbLine
 62
2
  6
CONTINUOUS
 10
446.0089495086
 20
938.1537766502
 11
482.8096341419
 21
938.1537766502
  0
LINE
  5
298
100
AcDbEntity
  8
03___PRT_ALL_CURVES
100
AcDbLine
 62
2
  6
CONTINUOUS
 10
446.0089495085
 20
938.553662739
 11
482.8096341418
 21
938.553662739
  0
LINE
  5
299
100
AcDbEntity
  8
0
100
AcDbLine
 62
7
  6
CONTINUOUS
 10
336.8092915076
 20
963.125162739
 11
592.0092915076
 21
963.125162739
  0
LINE
  5
29A
100
AcDbEntity
  8
0
100
AcDbLine
 62
7
  6
CONTINUOUS
 10
336.8092915076
 20
965.825162739
 11
592.0092915076
 21
965.825162739
  0
LINE
  5
29B
100
AcDbEntity
  8
0
100
AcDbLine
 62
7
  6
CONTINUOUS
 10
358.5092915076
 20
994.1203697037
 11
358.4997057088
 21
994.1203186536
  0
LINE
  5
29C
100
AcDbEntity
  8
0
100
AcDbLine
 62
3
  6
CONTINUOUS
 10
337.7592915076
 20
990.6378449073
 11
591.0592915076
 21
990.6378449073
  0
LINE
  5
29D
100
AcDbEntity
  8
0
100
AcDbLine
 62
3
  6
CONTINUOUS
 10
338.4382855905
 20
991.510287676
 11
590.3802974248
 21
991.510287676
  0
LINE
  5
29E
100
AcDbEntity
  8
0
100
AcDbLine
 62
3
  6
CONTINUOUS
 10
358.4997057088
 20
994.1203186536
 11
570.3188773065
 21
994.1203186536
  0
LINE
  5
29F
100
AcDbEntity
  8
0
100
AcDbLine
 62
7
  6
CONTINUOUS
 10
570.3092915076
 20
994.1203697037
 11
570.3188773065
 21
994.1203186536
  0
LINE
  5
2A0
100
AcDbEntity
  8
0
100
AcDbLine
 62
7
  6
CONTINUOUS
 10
593.3592915076
 20
194.8820372137
 11
591.1415282346
 21
194.8820372137
  0
LINE
  5
2A1
100
AcDbEntity
  8
0
100
AcDbLine
 62
3
  6
CONTINUOUS
 10
337.7424210161
 20
194.8820372137
 11
337.6770547807
 21
194.8820372137
  0
LINE
  5
2A2
100
AcDbEntity
  8
0
100
AcDbLine
 62
7
  6
CONTINUOUS
 10
335.4592915076
 20
194.8820372137
 11
337.6770547807
 21
194.8820372137
  0
LINE
  5
2A3
100
AcDbEntity
  8
0
100
AcDbLine
 62
3
  6
CONTINUOUS
 10
591.0761619992
 20
194.8820372137
 11
591.1415282346
 21
194.8820372137
  0
ARC
  5
2A4
100
AcDbEntity
  8
02___PRT_ALL_AXES
100
AcDbCircle
 62
3
  6
CONTINUOUS
 10
210.2538458568
 20
976.625162739
 40
127.5145543482
100
AcDbArc
 50
359.3151610179
 51
0.6848389821
  0
ARC
  5
2A5
100
AcDbEntity
  8
02___PRT_ALL_AXES
100
AcDbCircle
 62
3
  6
CONTINUOUS
 10
718.5647371585
 20
976.625162739
 40
127.5145543482
100
AcDbArc
 50
179.3151610179
 51
180.6848389821
  0
ARC
  5
2A6
100
AcDbEntity
  8
0
100
AcDbCircle
 62
3
  6
CONTINUOUS
 10
359.4092915076
 20
908.725162739
 40
85.4
100
AcDbArc
 50
90.6102624446
 51
104.2150562986
  0
ARC
  5
2A7
100
AcDbEntity
  8
02___PRT_ALL_AXES
100
AcDbCircle
 62
3
  6
CONTINUOUS
 10
359.4092915076
 20
908.725162739
 40
85.4
100
AcDbArc
 50
90.6102624446
 51
104.2150562986
  0
ARC
  5
2A8
100
AcDbEntity
  8
02___PRT_ALL_AXES
100
AcDbCircle
 62
3
  6
CONTINUOUS
 10
569.4092915076
 20
908.725162739
 40
85.4
100
AcDbArc
 50
75.7849437014
 51
89.3897375554
  0
ARC
  5
2A9
100
AcDbEntity
  8
0
100
AcDbCircle
 62
7
  6
CONTINUOUS
 10
341.3092915076
 20
391.596662739
 40
1.9
100
AcDbArc
 50
180.0
 51
270.0
  0
ARC
  5
2AA
100
AcDbEntity
  8
0
100
AcDbCircle
 62
7
  6
CONTINUOUS
 10
587.5092915076
 20
391.596662739
 40
1.9
100
AcDbArc
 50
270.0
 51
360.0
  0
ARC
  5
2AB
100
AcDbEntity
  8
03___PRT_ALL_CURVES
100
AcDbCircle
 62
2
  6
CONTINUOUS
 10
446.0089495085
 20
936.9538749371
 40
1.599787802
100
AcDbArc
 50
90.0
 51
180.0
  0
ARC
  5
2AC
100
AcDbEntity
  8
03___PRT_ALL_CURVES
100
AcDbCircle
 62
2
  6
CONTINUOUS
 10
482.8096335067
 20
932.1537149183
 40
1.599787802
100
AcDbArc
 50
270.0
 51
360.0
  0
ARC
  5
2AD
100
AcDbEntity
  8
03___PRT_ALL_CURVES
100
AcDbCircle
 62
2
  6
CONTINUOUS
 10
446.0089495085
 20
932.1537149183
 40
1.599787802
100
AcDbArc
 50
180.0
 51
270.0
  0
ARC
  5
2AE
100
AcDbEntity
  8
0
100
AcDbCircle
 62
7
  6
CONTINUOUS
 10
592.0092915076
 20
964.475162739
 40
1.35
100
AcDbArc
 50
270.0
 51
90.0
  0
ARC
  5
2AF
100
AcDbEntity
  8
0
100
AcDbCircle
 62
7
  6
CONTINUOUS
 10
336.8092915076
 20
964.475162739
 40
1.35
100
AcDbArc
 50
90.0
 51
270.0
  0
ARC
  5
2B0
100
AcDbEntity
  8
03___PRT_ALL_CURVES
100
AcDbCircle
 62
2
  6
CONTINUOUS
 10
452.377193896
 20
935.1045791856
 40
1.0498644102
100
AcDbArc
 50
281.4105507001
 51
89.9756484502
  0
ARC
  5
2B1
100
AcDbEntity
  8
0
100
AcDbCircle
 62
7
  6
CONTINUOUS
 10
338.6592915076
 20
990.6378449073
 40
0.9
100
AcDbArc
 50
104.2150562986
 51
180.0
  0
ARC
  5
2B2
100
AcDbEntity
  8
0
100
AcDbCircle
 62
7
  6
CONTINUOUS
 10
590.1592915076
 20
990.6378449073
 40
0.9
100
AcDbArc
 50
0.0
 51
75.7849437014
  0
ARC
  5
2B3
100
AcDbEntity
  8
03___PRT_ALL_CURVES
100
AcDbCircle
 62
2
  6
CONTINUOUS
 10
451.9893786841
 20
935.0272226427
 40
0.6771582773
100
AcDbArc
 50
359.966412893
 51
13.3320254933
  0
ARC
  5
2B4
100
AcDbEntity
  8
03___PRT_ALL_CURVES
100
AcDbCircle
 62
2
  6
CONTINUOUS
 10
452.1210374988
 20
935.1760841758
 40
0.6242194477
100
AcDbArc
 50
270.0263810474
 51
304.1952312753
  0
ARC
  5
2B5
100
AcDbEntity
  8
03___PRT_ALL_CURVES
100
AcDbCircle
 62
2
  6
CONTINUOUS
 10
452.222427797
 20
935.0272226427
 40
0.4441092254
100
AcDbArc
 50
304.1693843921
 51
359.9487878668
  0
CIRCLE
  5
2B6
100
AcDbEntity
  8
0
100
AcDbCircle
 62
7
  6
CONTINUOUS
 10
464.4092915076
 20
194.8820372137
 40
128.95
  0
CIRCLE
  5
2B7
100
AcDbEntity
  8
0
100
AcDbCircle
 62
7
  6
CONTINUOUS
 10
464.4092915076
 20
194.8820372137
 40
126.7322367269
  0
CIRCLE
  5
2B8
100
AcDbEntity
  8
0
100
AcDbCircle
 62
3
  6
CONTINUOUS
 10
464.4092915076
 20
194.8820372137
 40
126.65
  0
CIRCLE
  5
2B9
100
AcDbEntity
  8
0
100
AcDbCircle
 62
3
  6
CONTINUOUS
 10
464.4092915076
 20
194.8820372137
 40
125.9710059172
  0
CIRCLE
  5
2BA
100
AcDbEntity
  8
0
100
AcDbCircle
 62
3
  6
CONTINUOUS
 10
464.4092915076
 20
194.8820372137
 40
105.9095857988
  0
CIRCLE
  5
2BB
100
AcDbEntity
  8
0
100
AcDbCircle
 62
3
  6
CONTINUOUS
 10
464.4092915076
 20
194.8820372137
 40
105.0
  0
CIRCLE
  5
2BC
100
AcDbEntity
  8
0
100
AcDbCircle
 62
3
  6
CONTINUOUS
 10
464.4092915076
 20
194.8820372137
 40
104.168374946
  0
CIRCLE
  5
2BD
100
AcDbEntity
  8
0
100
AcDbCircle
 62
3
  6
CONTINUOUS
 10
464.4092915076
 20
194.8820372137
 40
103.4001536664
  0
CIRCLE
  5
2BE
100
AcDbEntity
  8
0
100
AcDbCircle
 62
3
  6
CONTINUOUS
 10
464.4092915076
 20
194.8820372137
 40
103.1197848671
  0
CIRCLE
  5
2BF
100
AcDbEntity
  8
0
100
AcDbCircle
 62
3
  6
CONTINUOUS
 10
464.4092915076
 20
194.8820372137
 40
102.0442750756
  0
SPLINE
  5
2C0
100
AcDbEntity
  8
03___PRT_ALL_CURVES
100
AcDbSpline
 62
2
  6
CONTINUOUS
 70
0
 71
3
 72
17
 73
13
 74
0
 42
0.0000001
 43
0.0000001
 44
0.0000000001
 40
0.0
 40
0.0
 40
0.0
 40
0.0
 40
0.1
 40
0.2
 40
0.3
 40
0.4
 40
0.5
 40
0.6
 40
0.7
 40
0.8
 40
0.9
 40
1.0
 40
1.0
 40
1.0
 40
1.0
 10
446.0089495085
 20
930.953851522
 30
0.0
 10
445.9495263389
 20
930.953851522
 30
0.0
 10
445.8311607568
 20
930.9640427923
 30
0.0
 10
445.6539145203
 20
931.0058168973
 30
0.0
 10
445.4803543543
 20
931.0739123569
 30
0.0
 10
445.3157858015
 20
931.1692766372
 30
0.0
 10
445.1670336363
 20
931.2910889542
 30
0.0
 10
445.0415830052
 20
931.4364788452
 30
0.0
 10
444.9412348952
 20
931.6006621426
 30
0.0
 10
444.8679006361
 20
931.7768778829
 30
0.0
 10
444.8210974335
 20
931.9629529793
 30
0.0
 10
444.8092719813
 20
932.0894944944
 30
0.0
 10
444.8092719813
 20
932.1537340767
 30
0.0
  0
SPLINE
  5
2C1
100
AcDbEntity
  8
03___PRT_ALL_CURVES
100
AcDbSpline
 62
2
  6
CONTINUOUS
 70
0
 71
3
 72
15
 73
11
 74
0
 42
0.0000001
 43
0.0000001
 44
0.0000000001
 40
0.0
 40
0.0
 40
0.0
 40
0.0
 40
0.125
 40
0.25
 40
0.375
 40
0.5
 40
0.625
 40
0.75
 40
0.875
 40
1.0
 40
1.0
 40
1.0
 40
1.0
 10
446.0086564788
 20
930.953851522
 30
0.0
 10
445.9323227406
 20
930.9538625315
 30
0.0
 10
445.7809779827
 20
930.9704088322
 30
0.0
 10
445.5533037838
 20
931.0384689207
 30
0.0
 10
445.3387792237
 20
931.1501633019
 30
0.0
 10
445.1505188739
 20
931.3028782155
 30
0.0
 10
444.9997789149
 20
931.4926259156
 30
0.0
 10
444.8914780457
 20
931.7047131132
 30
0.0
 10
444.8252038496
 20
931.9298142589
 30
0.0
 10
444.8092719813
 20
932.0787373441
 30
0.0
 10
444.8092719813
 20
932.1537340767
 30
0.0
  0
SPLINE
  5
2C2
100
AcDbEntity
  8
03___PRT_ALL_CURVES
100
AcDbSpline
 62
2
  6
CONTINUOUS
 70
0
 71
3
 72
23
 73
19
 74
0
 42
0.0000001
 43
0.0000001
 44
0.0000000001
 40
0.0
 40
0.0
 40
0.0
 40
0.0
 40
0.0625
 40
0.125
 40
0.1875
 40
0.25
 40
0.3125
 40
0.375
 40
0.4375
 40
0.5
 40
0.5625
 40
0.625
 40
0.6875
 40
0.75
 40
0.8125
 40
0.875
 40
0.9375
 40
1.0
 40
1.0
 40
1.0
 40
1.0
 10
484.009311034
 20
932.1537340767
 30
0.0
 10
484.0093059892
 20
932.1187606499
 30
0.0
 10
484.005842156
 20
932.0487390968
 30
0.0
 10
483.9903211428
 20
931.9399479705
 30
0.0
 10
483.9636188016
 20
931.8277232847
 30
0.0
 10
483.9256301673
 20
931.7154946589
 30
0.0
 10
483.8765731263
 20
931.6061559392
 30
0.0
 10
483.8166399897
 20
931.5005672913
 30
0.0
 10
483.7445198324
 20
931.3988250683
 30
0.0
 10
483.6616838848
 20
931.3055739392
 30
0.0
 10
483.5687775804
 20
931.2222591507
 30
0.0
 10
483.467250148
 20
931.1496038252
 30
0.0
 10
483.3617260608
 20
931.0891049731
 30
0.0
 10
483.2522020581
 20
931.0393964591
 30
0.0
 10
483.1395162907
 20
931.0007577367
 30
0.0
 10
483.0264902984
 20
930.9734527332
 30
0.0
 10
482.9163796584
 20
930.9574519782
 30
0.0
 10
482.8452441016
 20
930.953851522
 30
0.0
 10
482.8096335067
 20
930.953851522
 30
0.0
  0
SPLINE
  5
2C3
100
AcDbEntity
  8
03___PRT_ALL_CURVES
100
AcDbSpline
 62
2
  6
CONTINUOUS
 70
0
 71
3
 72
17
 73
13
 74
0
 42
0.0000001
 43
0.0000001
 44
0.0000000001
 40
0.0
 40
0.0
 40
0.0
 40
0.0
 40
0.1
 40
0.2
 40
0.3
 40
0.4
 40
0.5
 40
0.6
 40
0.7
 40
0.8
 40
0.9
 40
1.0
 40
1.0
 40
1.0
 40
1.0
 10
484.009311034
 20
932.1537340767
 30
0.0
 10
484.009311034
 20
932.091855868
 30
0.0
 10
483.9985272886
 20
931.9695705296
 30
0.0
 10
483.9547128364
 20
931.7890208787
 30
0.0
 10
483.8844790558
 20
931.6158998874
 30
0.0
 10
483.7888786516
 20
931.4538045763
 30
0.0
 10
483.6686712326
 20
931.3082035095
 30
0.0
 10
483.523911703
 20
931.1844970925
 30
0.0
 10
483.3601403502
 20
931.0850914511
 30
0.0
 10
483.1845787363
 20
931.0117132485
 30
0.0
 10
482.9993861258
 20
930.9653613361
 30
0.0
 10
482.8735122014
 20
930.953851522
 30
0.0
 10
482.8096335067
 20
930.953851522
 30
0.0
  0
SPLINE
  5
2C4
100
AcDbEntity
  8
03___PRT_ALL_CURVES
100
AcDbSpline
 62
2
  6
CONTINUOUS
 70
0
 71
3
 72
11
 73
7
 74
0
 42
0.0000001
 43
0.0000001
 44
0.0000000001
 40
0.0
 40
0.0
 40
0.0
 40
0.0
 40
0.25
 40
0.5
 40
0.75
 40
1.0
 40
1.0
 40
1.0
 40
1.0
 10
483.6577391441
 20
937.8025972944
 30
0.0
 10
483.7146398025
 20
937.7456009067
 30
0.0
 10
483.8130763074
 20
937.621882374
 30
0.0
 10
483.923693177
 20
937.4112622077
 30
0.0
 10
483.9922374421
 20
937.1855021218
 30
0.0
 10
484.009311034
 20
937.0319953259
 30
0.0
 10
484.009311034
 20
936.9538940955
 30
0.0
  0
SPLINE
  5
2C5
100
AcDbEntity
  8
03___PRT_ALL_CURVES
100
AcDbSpline
 62
2
  6
CONTINUOUS
 70
0
 71
3
 72
11
 73
7
 74
0
 42
0.0000001
 43
0.0000001
 44
0.0000000001
 40
0.0
 40
0.0
 40
0.0
 40
0.0
 40
0.25
 40
0.5
 40
0.75
 40
1.0
 40
1.0
 40
1.0
 40
1.0
 10
482.8096335068
 20
938.1537766502
 30
0.0
 10
482.8887338962
 20
938.1537766502
 30
0.0
 10
483.043650969
 20
938.1362960702
 30
0.0
 10
483.2694315808
 20
938.067285472
 30
0.0
 10
483.479031109
 20
937.9566933601
 30
0.0
 10
483.6014382086
 20
937.8589436222
 30
0.0
 10
483.6577391441
 20
937.8025972944
 30
0.0
  0
SPLINE
  5
2C6
100
AcDbEntity
  8
03___PRT_ALL_CURVES
100
AcDbSpline
 62
2
  6
CONTINUOUS
 70
0
 71
3
 72
23
 73
19
 74
0
 42
0.0000001
 43
0.0000001
 44
0.0000000001
 40
0.0
 40
0.0
 40
0.0
 40
0.0
 40
0.0625
 40
0.125
 40
0.1875
 40
0.25
 40
0.3125
 40
0.375
 40
0.4375
 40
0.5
 40
0.5625
 40
0.625
 40
0.6875
 40
0.75
 40
0.8125
 40
0.875
 40
0.9375
 40
1.0
 40
1.0
 40
1.0
 40
1.0
 10
465.8019369065
 20
933.6379010003
 30
0.0
 10
465.8488995938
 20
933.7522145966
 30
0.0
 10
465.9187352844
 20
933.9853549653
 30
0.0
 10
465.9552081927
 20
934.3550101011
 30
0.0
 10
465.9187180189
 20
934.7224125906
 30
0.0
 10
465.8117533758
 20
935.0780601195
 30
0.0
 10
465.6390250815
 20
935.4026303713
 30
0.0
 10
465.4054666691
 20
935.6895866262
 30
0.0
 10
465.1237223228
 20
935.922017656
 30
0.0
 10
464.7992018296
 20
936.0966386773
 30
0.0
 10
464.4525467783
 20
936.2018808575
 30
0.0
 10
464.0883896266
 20
936.2384216077
 30
0.0
 10
463.7292186161
 20
936.2020527692
 30
0.0
 10
463.3798191934
 20
936.095598168
 30
0.0
 10
463.060463799
 20
935.9234234915
 30
0.0
 10
462.7774748007
 20
935.6912181119
 30
0.0
 10
462.5458483331
 20
935.4072999747
 30
0.0
 10
462.4311235713
 20
935.1934415322
 30
0.0
 10
462.3837857637
 20
935.0793111319
 30
0.0
  0
SPLINE
  5
2C7
100
AcDbEntity
  8
03___PRT_ALL_CURVES
100
AcDbSpline
 62
2
  6
CONTINUOUS
 70
0
 71
3
 72
23
 73
19
 74
0
 42
0.0000001
 43
0.0000001
 44
0.0000000001
 40
0.0
 40
0.0
 40
0.0
 40
0.0
 40
0.0625
 40
0.125
 40
0.1875
 40
0.25
 40
0.3125
 40
0.375
 40
0.4375
 40
0.5
 40
0.5625
 40
0.625
 40
0.6875
 40
0.75
 40
0.8125
 40
0.875
 40
0.9375
 40
1.0
 40
1.0
 40
1.0
 40
1.0
 10
462.3837857637
 20
935.0793111319
 30
0.0
 10
462.3358528515
 20
934.9637459475
 30
0.0
 10
462.2647666795
 20
934.7282180624
 30
0.0
 10
462.2271581439
 20
934.3562825379
 30
0.0
 10
462.2632107407
 20
933.9867286827
 30
0.0
 10
462.3698080245
 20
933.6304170933
 30
0.0
 10
462.5436748184
 20
933.3039851096
 30
0.0
 10
462.77752069
 20
933.0175504601
 30
0.0
 10
463.0614871448
 20
932.7841503546
 30
0.0
 10
463.3844961985
 20
932.6106492622
 30
0.0
 10
463.7320846813
 20
932.5056045132
 30
0.0
 10
464.0932172061
 20
932.4699291261
 30
0.0
 10
464.4538047902
 20
932.5067084274
 30
0.0
 10
464.8023830052
 20
932.6129860454
 30
0.0
 10
465.1241291486
 20
932.7865278316
 30
0.0
 10
465.4074666563
 20
933.0205043731
 30
0.0
 10
465.6398883294
 20
933.3074338629
 30
0.0
 10
465.7546987803
 20
933.5229169481
 30
0.0
 10
465.8019369065
 20
933.6379010003
 30
0.0
  0
SPLINE
  5
2C8
100
AcDbEntity
  8
03___PRT_ALL_CURVES
100
AcDbSpline
 62
2
  6
CONTINUOUS
 70
0
 71
3
 72
23
 73
19
 74
0
 42
0.0000001
 43
0.0000001
 44
0.0000000001
 40
0.0
 40
0.0
 40
0.0
 40
0.0
 40
0.0625
 40
0.125
 40
0.1875
 40
0.25
 40
0.3125
 40
0.375
 40
0.4375
 40
0.5
 40
0.5625
 40
0.625
 40
0.6875
 40
0.75
 40
0.8125
 40
0.875
 40
0.9375
 40
1.0
 40
1.0
 40
1.0
 40
1.0
 10
465.8019369061
 20
933.6379009993
 30
0.0
 10
465.7558087828
 20
933.5256167033
 30
0.0
 10
465.6440584001
 20
933.3138561913
 30
0.0
 10
465.4116548001
 20
933.024953697
 30
0.0
 10
465.1340440396
 20
932.7935625354
 30
0.0
 10
464.8122943141
 20
932.6168371317
 30
0.0
 10
464.4617842258
 20
932.5084812095
 30
0.0
 10
464.107664356
 20
932.4704846009
 30
0.0
 10
463.7497860718
 20
932.5020735323
 30
0.0
 10
463.3963595256
 20
932.6053662178
 30
0.0
 10
463.0701735387
 20
932.778483998
 30
0.0
 10
462.7880309185
 20
933.0074415802
 30
0.0
 10
462.5509756751
 20
933.29228871
 30
0.0
 10
462.3714590254
 20
933.6255468906
 30
0.0
 10
462.2645495794
 20
933.9810104814
 30
0.0
 10
462.2269018929
 20
934.3498958103
 30
0.0
 10
462.2644460922
 20
934.7279060249
 30
0.0
 10
462.3356216175
 20
934.9629557738
 30
0.0
 10
462.3832755643
 20
935.0780798209
 30
0.0
  0
SPLINE
  5
2C9
100
AcDbEntity
  8
03___PRT_ALL_CURVES
100
AcDbSpline
 62
2
  6
CONTINUOUS
 70
0
 71
3
 72
24
 73
20
 74
0
 42
0.0000001
 43
0.0000001
 44
0.0000000001
 40
0.0
 40
0.0
 40
0.0
 40
0.0
 40
0.0588235294
 40
0.1176470588
 40
0.1764705882
 40
0.2352941176
 40
0.2941176471
 40
0.3529411765
 40
0.4117647059
 40
0.4705882353
 40
0.5294117647
 40
0.5882352941
 40
0.6470588235
 40
0.7058823529
 40
0.7647058824
 40
0.8235294118
 40
0.8823529412
 40
0.9411764706
 40
1.0
 40
1.0
 40
1.0
 40
1.0
 10
462.3838825647
 20
935.0795444698
 30
0.0
 10
462.4256845005
 20
935.1802883647
 30
0.0
 10
462.5250372805
 20
935.3711135727
 30
0.0
 10
462.7249984317
 20
935.632654254
 30
0.0
 10
462.9617289648
 20
935.8489212451
 30
0.0
 10
463.2262827159
 20
936.0195158379
 30
0.0
 10
463.5190922933
 20
936.1443924185
 30
0.0
 10
463.8363292758
 20
936.2184056738
 30
0.0
 10
464.1743722476
 20
936.2352302407
 30
0.0
 10
464.5219404679
 20
936.1860503011
 30
0.0
 10
464.8609035673
 20
936.0692431643
 30
0.0
 10
465.1698282177
 20
935.889017308
 30
0.0
 10
465.4371728685
 20
935.655940332
 30
0.0
 10
465.6599601658
 20
935.3701106398
 30
0.0
 10
465.8257234822
 20
935.0422155607
 30
0.0
 10
465.9227893351
 20
934.6963485253
 30
0.0
 10
465.954756305
 20
934.3387629447
 30
0.0
 10
465.916075028
 20
933.9743417425
 30
0.0
 10
465.8473405967
 20
933.7484218936
 30
0.0
 10
465.8019369063
 20
933.6379009999
 30
0.0
  0
SPLINE
  5
2CA
100
AcDbEntity
  8
03___PRT_ALL_CURVES
100
AcDbSpline
 62
2
  6
CONTINUOUS
 70
0
 71
3
 72
25
 73
21
 74
0
 42
0.0000001
 43
0.0000001
 44
0.0000000001
 40
0.0
 40
0.0
 40
0.0
 40
0.0
 40
0.0666666667
 40
0.1333333333
 40
0.2
 40
0.2666666667
 40
0.3333333333
 40
0.4
 40
0.4666666667
 40
0.5333333333
 40
0.6
 40
0.6666666667
 40
0.7333333333
 40
0.8
 40
0.8333333333
 40
0.8666666667
 40
0.9
 40
0.9333333333
 40
0.9666666667
 40
1.0
 40
1.0
 40
1.0
 40
1.0
 10
464.8768968312
 20
935.1658354073
 30
0.0
 10
464.9318998683
 20
935.1094096552
 30
0.0
 10
465.0278441806
 20
934.9877462104
 30
0.0
 10
465.134489002
 20
934.7771947819
 30
0.0
 10
465.1961671299
 20
934.5502913442
 30
0.0
 10
465.2123489768
 20
934.3168668434
 30
0.0
 10
465.180476971
 20
934.0774108529
 30
0.0
 10
465.0992819257
 20
933.847976247
 30
0.0
 10
464.9752303945
 20
933.6446853102
 30
0.0
 10
464.8134632868
 20
933.4708085227
 30
0.0
 10
464.6135839265
 20
933.3315857206
 30
0.0
 10
464.3901534181
 20
933.2408154584
 30
0.0
 10
464.1604316873
 20
933.2008084072
 30
0.0
 10
463.9687618719
 20
933.2078287625
 30
0.0
 10
463.8155625169
 20
933.2382802499
 30
0.0
 10
463.7029628238
 20
933.2734385331
 30
0.0
 10
463.592831556
 20
933.3215932214
 30
0.0
 10
463.4879646429
 20
933.3820795404
 30
0.0
 10
463.3910072128
 20
933.4528759303
 30
0.0
 10
463.3314151912
 20
933.5068368657
 30
0.0
 10
463.3026435263
 20
933.5358908903
 30
0.0
  0
SPLINE
  5
2CB
100
AcDbEntity
  8
03___PRT_ALL_CURVES
100
AcDbSpline
 62
2
  6
CONTINUOUS
 70
0
 71
3
 72
23
 73
19
 74
0
 42
0.0000001
 43
0.0000001
 44
0.0000000001
 40
0.0
 40
0.0
 40
0.0
 40
0.0
 40
0.0357142857
 40
0.0714285714
 40
0.1071428571
 40
0.1428571429
 40
0.2142857143
 40
0.2857142857
 40
0.3571428571
 40
0.4285714286
 40
0.5
 40
0.5714285714
 40
0.6428571429
 40
0.7142857143
 40
0.7857142857
 40
0.8571428571
 40
0.9285714286
 40
1.0
 40
1.0
 40
1.0
 40
1.0
 10
463.3023650112
 20
933.536172237
 30
0.0
 10
463.2720806034
 20
933.566775232
 30
0.0
 10
463.2159811723
 20
933.6303482222
 30
0.0
 10
463.1424241713
 20
933.7348376998
 30
0.0
 10
463.080104537
 20
933.8482611962
 30
0.0
 10
463.0144726564
 20
934.0084101008
 30
0.0
 10
462.9665942487
 20
934.2211671771
 30
0.0
 10
462.9661069619
 20
934.4846190829
 30
0.0
 10
463.0236297606
 20
934.7416575485
 30
0.0
 10
463.1371964525
 20
934.9787665968
 30
0.0
 10
463.2983459863
 20
935.1818834936
 30
0.0
 10
463.4988968542
 20
935.3416699101
 30
0.0
 10
463.7259817306
 20
935.4506473032
 30
0.0
 10
463.9702739527
 20
935.5055442291
 30
0.0
 10
464.2190189762
 20
935.5034338987
 30
0.0
 10
464.4620353228
 20
935.4451003985
 30
0.0
 10
464.6873035706
 20
935.3328960969
 30
0.0
 10
464.8170853546
 20
935.2272158271
 30
0.0
 10
464.8770354763
 20
935.1656931507
 30
0.0
  0
SPLINE
  5
2CC
100
AcDbEntity
  8
03___PRT_ALL_CURVES
100
AcDbSpline
 62
2
  6
CONTINUOUS
 70
0
 71
3
 72
13
 73
9
 74
0
 42
0.0000001
 43
0.0000001
 44
0.0000000001
 40
0.0
 40
0.0
 40
0.0
 40
0.0
 40
0.1666666667
 40
0.3333333333
 40
0.5
 40
0.6666666667
 40
0.8333333333
 40
1.0
 40
1.0
 40
1.0
 40
1.0
 10
483.6577391441
 20
937.8025972944
 30
0.0
 10
483.6950375489
 20
937.765236139
 30
0.0
 10
483.7632865289
 20
937.6858731894
 30
0.0
 10
483.8492845862
 20
937.5544687373
 30
0.0
 10
483.9182596662
 20
937.4134744783
 30
0.0
 10
483.9691292352
 20
937.265009773
 30
0.0
 10
484.001358699
 20
937.1110687326
 30
0.0
 10
484.009311034
 20
937.0066851266
 30
0.0
 10
484.009311034
 20
936.9538940955
 30
0.0
  0
SPLINE
  5
2CD
100
AcDbEntity
  8
03___PRT_ALL_CURVES
100
AcDbSpline
 62
2
  6
CONTINUOUS
 70
0
 71
3
 72
13
 73
9
 74
0
 42
0.0000001
 43
0.0000001
 44
0.0000000001
 40
0.0
 40
0.0
 40
0.0
 40
0.0
 40
0.1666666667
 40
0.3333333333
 40
0.5
 40
0.6666666667
 40
0.8333333333
 40
1.0
 40
1.0
 40
1.0
 40
1.0
 10
482.8096335068
 20
938.1537766502
 30
0.0
 10
482.8616689889
 20
938.1537766502
 30
0.0
 10
482.9646899493
 20
938.1460490702
 30
0.0
 10
483.116720471
 20
938.114694843
 30
0.0
 10
483.2643430399
 20
938.0648475638
 30
0.0
 10
483.4056547779
 20
937.9965310866
 30
0.0
 10
483.5385447105
 20
937.9102698453
 30
0.0
 10
483.6195221886
 20
937.8408450622
 30
0.0
 10
483.6577391441
 20
937.8025972944
 30
0.0
  0
SPLINE
  5
2CE
100
AcDbEntity
  8
03___PRT_ALL_CURVES
100
AcDbSpline
 62
2
  6
CONTINUOUS
 70
0
 71
3
 72
21
 73
17
 74
0
 42
0.0000001
 43
0.0000001
 44
0.0000000001
 40
0.0
 40
0.0
 40
0.0
 40
0.0
 40
0.0625
 40
0.125
 40
0.1875
 40
0.25
 40
0.3125
 40
0.375
 40
0.4375
 40
0.5
 40
0.625
 40
0.75
 40
0.8125
 40
0.875
 40
0.9375
 40
1.0
 40
1.0
 40
1.0
 40
1.0
 10
444.8092719813
 20
936.9538940955
 30
0.0
 10
444.8092770803
 20
936.9892431451
 30
0.0
 10
444.8128233363
 20
937.0599348008
 30
0.0
 10
444.8286451762
 20
937.1696029773
 30
0.0
 10
444.8557745902
 20
937.2824991953
 30
0.0
 10
444.8942728384
 20
937.3952063308
 30
0.0
 10
444.9438991553
 20
937.5048578192
 30
0.0
 10
445.00430687
 20
937.6105334063
 30
0.0
 10
445.07664569
 20
937.7119938588
 30
0.0
 10
445.1873063506
 20
937.8358278407
 30
0.0
 10
445.3525808716
 20
937.9665016061
 30
0.0
 10
445.5318073692
 20
938.056725113
 30
0.0
 10
445.6814151411
 20
938.1075133977
 30
0.0
 10
445.7938487038
 20
938.1344179529
 30
0.0
 10
445.9032181542
 20
938.1502158338
 30
0.0
 10
445.9736810184
 20
938.1537766502
 30
0.0
 10
446.0089495086
 20
938.1537766502
 30
0.0
  0
SPLINE
  5
2CF
100
AcDbEntity
  8
03___PRT_ALL_CURVES
100
AcDbSpline
 62
2
  6
CONTINUOUS
 70
0
 71
3
 72
17
 73
13
 74
0
 42
0.0000001
 43
0.0000001
 44
0.0000000001
 40
0.0
 40
0.0
 40
0.0
 40
0.0
 40
0.1
 40
0.2
 40
0.3
 40
0.4
 40
0.5
 40
0.6
 40
0.7
 40
0.8
 40
0.9
 40
1.0
 40
1.0
 40
1.0
 40
1.0
 10
444.8092719813
 20
936.9538940955
 30
0.0
 10
444.8092719813
 20
937.0156274863
 30
0.0
 10
444.8200364416
 20
937.1376787249
 30
0.0
 10
444.8637822352
 20
937.3180367949
 30
0.0
 10
444.9340088232
 20
937.4911459202
 30
0.0
 10
445.0295641081
 20
937.6534840083
 30
0.0
 10
445.1496694847
 20
937.7991976981
 30
0.0
 10
445.2946015693
 20
937.9231797147
 30
0.0
 10
445.4581146454
 20
938.0227911248
 30
0.0
 10
445.6338053095
 20
938.0958357953
 30
0.0
 10
445.8191609096
 20
938.1421749273
 30
0.0
 10
445.9450657714
 20
938.1537766502
 30
0.0
 10
446.0089495086
 20
938.1537766502
 30
0.0
  0
SPLINE
  5
2D0
100
AcDbEntity
  8
03___PRT_ALL_CURVES
100
AcDbSpline
 62
2
  6
CONTINUOUS
 70
0
 71
3
 72
11
 73
7
 74
0
 42
0.0000001
 43
0.0000001
 44
0.0000000001
 40
0.0
 40
0.0
 40
0.0
 40
0.0
 40
0.25
 40
0.5
 40
0.75
 40
1.0
 40
1.0
 40
1.0
 40
1.0
 10
482.8096335067
 20
938.553662739
 30
0.0
 10
482.9157636659
 20
938.553662739
 30
0.0
 10
483.1233479256
 20
938.5311814647
 30
0.0
 10
483.4251839709
 20
938.4384091041
 30
0.0
 10
483.704174704
 20
938.290746046
 30
0.0
 10
483.8661024465
 20
938.1600575472
 30
0.0
 10
483.940778048
 20
938.0852436642
 30
0.0
  0
SPLINE
  5
2D1
100
AcDbEntity
  8
03___PRT_ALL_CURVES
100
AcDbSpline
 62
2
  6
CONTINUOUS
 70
0
 71
3
 72
11
 73
7
 74
0
 42
0.0000001
 43
0.0000001
 44
0.0000000001
 40
0.0
 40
0.0
 40
0.0
 40
0.0
 40
0.25
 40
0.5
 40
0.75
 40
1.0
 40
1.0
 40
1.0
 40
1.0
 10
483.940778048
 20
938.0852436642
 30
0.0
 10
484.0163322452
 20
938.0095495586
 30
0.0
 10
484.1478999788
 20
937.845772693
 30
0.0
 10
484.2955481792
 20
937.5653523624
 30
0.0
 10
484.3875116783
 20
937.2638868776
 30
0.0
 10
484.4094213087
 20
937.0584859952
 30
0.0
 10
484.4094213087
 20
936.9538749371
 30
0.0
  0
SPLINE
  5
2D2
100
AcDbEntity
  8
03___PRT_ALL_CURVES
100
AcDbSpline
 62
2
  6
CONTINUOUS
 70
0
 71
3
 72
13
 73
9
 74
0
 42
0.0000001
 43
0.0000001
 44
0.0000000001
 40
0.0
 40
0.0
 40
0.0
 40
0.0
 40
0.1666666667
 40
0.3333333333
 40
0.5
 40
0.6666666667
 40
0.8333333333
 40
1.0
 40
1.0
 40
1.0
 40
1.0
 10
482.8099314718
 20
938.553662739
 30
0.0
 10
482.8793994347
 20
938.553655665
 30
0.0
 10
483.0169837372
 20
938.5438521685
 30
0.0
 10
483.2203301298
 20
938.5023196594
 30
0.0
 10
483.4175977595
 20
938.4354197234
 30
0.0
 10
483.606352852
 20
938.3439725066
 30
0.0
 10
483.7833260715
 20
938.2282604144
 30
0.0
 10
483.8902463007
 20
938.1358118998
 30
0.0
 10
483.9407780482
 20
938.0852436641
 30
0.0
  0
SPLINE
  5
2D3
100
AcDbEntity
  8
03___PRT_ALL_CURVES
100
AcDbSpline
 62
2
  6
CONTINUOUS
 70
0
 71
3
 72
13
 73
9
 74
0
 42
0.0000001
 43
0.0000001
 44
0.0000000001
 40
0.0
 40
0.0
 40
0.0
 40
0.0
 40
0.1666666667
 40
0.3333333333
 40
0.5
 40
0.6666666667
 40
0.8333333333
 40
1.0
 40
1.0
 40
1.0
 40
1.0
 10
483.9407780481
 20
938.0852436641
 30
0.0
 10
483.9906675839
 20
938.0352786805
 30
0.0
 10
484.0821820469
 20
937.9294929956
 30
0.0
 10
484.1972588777
 20
937.7543137281
 30
0.0
 10
484.2891146138
 20
937.5662911895
 30
0.0
 10
484.3569815623
 20
937.3683347544
 30
0.0
 10
484.3994194903
 20
937.1628509226
 30
0.0
 10
484.40940942
 20
937.0240179715
 30
0.0
 10
484.4094213087
 20
936.9538749372
 30
0.0
  0
SPLINE
  5
2D4
100
AcDbEntity
  8
03___PRT_ALL_CURVES
100
AcDbSpline
 62
2
  6
CONTINUOUS
 70
0
 71
3
 72
10
 73
6
 74
0
 42
0.0000001
 43
0.0000001
 44
0.0000000001
 40
0.0
 40
0.0
 40
0.0
 40
0.0
 40
0.3333333333
 40
0.6666666667
 40
1.0
 40
1.0
 40
1.0
 40
1.0
 10
452.1213249119
 20
935.5022489307
 30
0.0
 10
452.14087532
 20
935.5022489307
 30
0.0
 10
452.1804987719
 20
935.5014613021
 30
0.0
 10
452.241540312
 20
935.4978860899
 30
0.0
 10
452.2832292355
 20
935.4938978145
 30
0.0
 10
452.304328403
 20
935.4915001753
 30
0.0
  0
SPLINE
  5
2D5
100
AcDbEntity
  8
03___PRT_ALL_CURVES
100
AcDbSpline
 62
2
  6
CONTINUOUS
 70
0
 71
3
 72
9
 73
5
 74
0
 42
0.0000001
 43
0.0000001
 44
0.0000000001
 40
0.0
 40
0.0
 40
0.0
 40
0.0
 40
0.5
 40
1.0
 40
1.0
 40
1.0
 40
1.0
 10
452.1213244648
 20
935.5022489307
 30
0.0
 10
452.1508278683
 20
935.5022489307
 30
0.0
 10
452.2108319068
 20
935.500454456
 30
0.0
 10
452.2728301403
 20
935.4950795331
 30
0.0
 10
452.3043284031
 20
935.4915001753
 30
0.0
  0
SPLINE
  5
2D6
100
AcDbEntity
  8
03___PRT_ALL_CURVES
100
AcDbSpline
 62
2
  6
CONTINUOUS
 70
0
 71
3
 72
12
 73
8
 74
0
 42
0.0000001
 43
0.0000001
 44
0.0000000001
 40
0.0
 40
0.0
 40
0.0
 40
0.0
 40
0.2
 40
0.4
 40
0.6
 40
0.8
 40
1.0
 40
1.0
 40
1.0
 40
1.0
 10
452.3043284029
 20
935.4915001753
 30
0.0
 10
452.3381399356
 20
935.4875776519
 30
0.0
 10
452.4022557475
 20
935.4718189759
 30
0.0
 10
452.4908129629
 20
935.4249718297
 30
0.0
 10
452.5636938844
 20
935.3589872106
 30
0.0
 10
452.6177880993
 20
935.2789721088
 30
0.0
 10
452.6407146213
 20
935.2168368389
 30
0.0
 10
452.6482876368
 20
935.1833710481
 30
0.0
  0
SPLINE
  5
2D7
100
AcDbEntity
  8
02___PRT_ALL_AXES
100
AcDbSpline
 62
3
  6
CONTINUOUS
 70
0
 71
3
 72
15
 73
11
 74
0
 42
0.0000001
 43
0.0000001
 44
0.0000000001
 40
0.0
 40
0.0
 40
0.0
 40
0.0
 40
0.1249934972
 40
0.2499896796
 40
0.3749919785
 40
0.5000000005
 40
0.6250080234
 40
0.7500103219
 40
0.8750065041
 40
1.0
 40
1.0
 40
1.0
 40
1.0
 10
464.4092915076
 20
978.1492690346
 30
0.0
 10
464.6071707442
 20
978.1492690346
 30
0.0
 10
465.0072999294
 20
978.0696070113
 30
0.0
 10
465.512201508
 20
977.7298707298
 30
0.0
 10
465.849485101
 20
977.2225822619
 30
0.0
 10
465.9675914655
 20
976.6251627352
 30
0.0
 10
465.8494850993
 20
976.0277432087
 30
0.0
 10
465.5122015015
 20
975.5204547438
 30
0.0
 10
465.0072999252
 20
975.1807184645
 30
0.0
 10
464.6071707421
 20
975.1010564435
 30
0.0
 10
464.4092915076
 20
975.1010564435
 30
0.0
  0
SPLINE
  5
2D8
100
AcDbEntity
  8
02___PRT_ALL_AXES
100
AcDbSpline
 62
3
  6
CONTINUOUS
 70
0
 71
3
 72
15
 73
11
 74
0
 42
0.0000001
 43
0.0000001
 44
0.0000000001
 40
0.0
 40
0.0
 40
0.0
 40
0.0
 40
0.1249934972
 40
0.2499896796
 40
0.3749919785
 40
0.5000000005
 40
0.6250080234
 40
0.7500103219
 40
0.8750065041
 40
1.0
 40
1.0
 40
1.0
 40
1.0
 10
464.4092915076
 20
975.1010564435
 30
0.0
 10
464.2114122711
 20
975.1010564435
 30
0.0
 10
463.8112830859
 20
975.1807184668
 30
0.0
 10
463.3063815072
 20
975.5204547482
 30
0.0
 10
462.9690979142
 20
976.0277432162
 30
0.0
 10
462.8509915497
 20
976.6251627429
 30
0.0
 10
462.969097916
 20
977.2225822694
 30
0.0
 10
463.3063815138
 20
977.7298707343
 30
0.0
 10
463.8112830901
 20
978.0696070136
 30
0.0
 10
464.2114122732
 20
978.1492690345
 30
0.0
 10
464.4092915076
 20
978.1492690346
 30
0.0
  0
ENDSEC
  0
SECTION
  2
OBJECTS
  0
DICTIONARY
  5
C
100
AcDbDictionary
280
0
281
1
  3
ACAD_GROUP
350
D
  3
ACAD_MLINESTYLE
350
17
  3
ACAD_LAYOUT
350
1A
  3
ACAD_PLOTSETTINGS
350
19
  3
ACAD_PLOTSTYLENAME
350
E
  0
DICTIONARY
  5
D
102
{ACAD_REACTORS
330
C
102
}
100
AcDbDictionary
280
0
281
1
  0
ACDBDICTIONARYWDFLT
  5
E
102
{ACAD_REACTORS
330
C
102
}
100
AcDbDictionary
281
1
  3
Normal
350
F
100
AcDbDictionaryWithDefault
340
F
  0
DICTIONARY
  5
17
102
{ACAD_REACTORS
330
C
102
}
100
AcDbDictionary
280
0
281
1
  3
Standard
350
18
  0
DICTIONARY
  5
19
102
{ACAD_REACTORS
330
C
102
}
100
AcDbDictionary
281
1
  0
DICTIONARY
  5
1A
102
{ACAD_REACTORS
330
C
102
}
100
AcDbDictionary
281
1
  3
Model
350
2D9
  3
Layout1
350
2DA
  0
ACDBPLACEHOLDER
  5
F
102
{ACAD_REACTORS
330
E
102
}
  0
MLINESTYLE
  5
18
102
{ACAD_REACTORS
330
17
102
}
100
AcDbMlineStyle
  2
STANDARD
 70
0
  3

 62
256
 51
90.0
 52
90.0
 71
2
 49
0.5
 62
256
  6
BYLAYER
 49
-0.5
 62
256
  6
BYLAYER
  0
LAYOUT
  5
2D9
102
{ACAD_REACTORS
330
1A
102
}
100
AcDbPlotSettings
  1

  2
none_device
  4

  6

 40
0.0
 41
0.0
 42
0.0
 43
0.0
 44
875.0
 45
1100.0
 46
0.0
 47
0.0
 48
0.0
 49
0.0
140
0.0
141
0.0
142
1.0
143
1.0
 70
1024
 72
1
 73
0
 74
0
  7

 75
0
147
1.0
148
0.0
149
0.0
100
AcDbLayout
  1
Model
 70
0
 71
0
 10
0.0
 20
0.0
 11
875.0
 21
1100.0
 12
0.0
 22
0.0
 32
0.0
 14
0.0
 24
0.0
 34
0.0
 15
0.0
 25
0.0
 35
0.0
146
0.0
 13
0.0
 23
0.0
 33
0.0
 16
1.0
 26
0.0
 36
0.0
 17
0.0
 27
1.0
 37
0.0
 76
0
330
216
345
0
346
0
  0
LAYOUT
  5
2DA
102
{ACAD_REACTORS
330
1A
102
}
100
AcDbPlotSettings
  1

  2
none_device
  4

  6

 40
0.0
 41
0.0
 42
0.0
 43
0.0
 44
875.0
 45
1100.0
 46
0.0
 47
0.0
 48
0.0
 49
0.0
140
0.0
141
0.0
142
1.0
143
1.0
 70
0
 72
1
 73
0
 74
0
  7

 75
0
147
1.0
148
0.0
149
0.0
100
AcDbLayout
  1
Layout1
 70
0
 71
1
 10
0.0
 20
0.0
 11
875.0
 21
1100.0
 12
0.0
 22
0.0
 32
0.0
 14
0.0
 24
0.0
 34
0.0
 15
0.0
 25
0.0
 35
0.0
146
0.0
 13
0.0
 23
0.0
 33
0.0
 16
1.0
 26
0.0
 36
0.0
 17
0.0
 27
1.0
 37
0.0
 76
0
330
217
345
0
346
0
  0
ENDSEC
  0
EOF
