999
DXF file: S:\Engenharia\Wildfire\Engenharia\Produtos\Lixeiras\94540036\94540036.dxf
999
Pro/ENGINEER 2013150 by Parametric Technology Corporation
  0
SECTION
  2
HEADER
  9
$ACADVER
  1
AC1021
  9
$DWGCODEPAGE
  3
ANSI_1252
  9
$EXTMAX
 10
1223.0
 20
875.0
 30
0.0
  9
$EXTMIN
 10
0.0
 20
0.0
 30
0.0
  9
$LIMMIN
 10
0.0
 20
0.0
  9
$LIMMAX
 10
1223.0
 20
875.0
  9
$VIEWCTR
 10
611.5
 20
437.5
  9
$VIEWSIZE
 40
875.0
  9
$CLAYER
  8
0
  9
$LTSCALE
 40
67.265
  9
$CELTYPE
  6
BYLAYER
  9
$DIMSCALE
 40
1.0
  9
$DIMASZ
 40
3.0
  9
$DIMEXO
 40
0.5
  9
$DIMDLI
 40
46.474
  9
$DIMEXE
 40
0.5
  9
$DIMCEN
 40
11.007
  9
$DIMLFAC
 40
1.0
  9
$DIMBLK
  1
_FILLED
  9
$DIMTXT
 40
1.8
  9
$DIMTOL
 70
1
  9
$DIMLIM
 70
0
  9
$DIMTFAC
 40
1.0
  9
$DIMTP
 40
0.001
  9
$DIMTM
 40
0.001
  9
$DIMGAP
 40
0.625
  9
$DIMDSEP
 70
46
  9
$PDMODE
 70
3
  9
$PDSIZE
 40
1.0
  9
$HANDSEED
  5
369
  9
$TILEMODE
 70
1
  9
$MEASUREMENT
 70
1
  9
$INSUNITS
 70
4
  0
ENDSEC
  0
SECTION
  2
CLASSES
  0
CLASS
  1
ACDBDICTIONARYWDFLT
  2
AcDbDictionaryWithDefault
  3
AutoCAD 2000
 90
0
 91
1
280
0
281
0
  0
CLASS
  1
ACDBPLACEHOLDER
  2
AcDbPlaceHolder
  3
AutoCAD 2000
 90
0
 91
1
280
0
281
0
  0
CLASS
  1
LAYOUT
  2
AcDbLayout
  3
AutoCAD 2000
 90
0
 91
0
280
0
281
0
  0
ENDSEC
  0
SECTION
  2
TABLES
  0
TABLE
  2
VPORT
  5
8
100
AcDbSymbolTable
 70
2
  0
VPORT
  5
1F4
100
AcDbSymbolTableRecord
100
AcDbViewportTableRecord
  2
*ACTIVE
 70
0
 10
0.0
 20
0.0
 11
1.0
 21
1.0
 12
611.5
 22
437.5
 13
0.0
 23
0.0
 14
1.0
 24
1.0
 15
0.0
 25
0.0
 16
0.0
 26
0.0
 36
1.0
 17
0.0
 27
0.0
 37
0.0
 40
875.0
 41
1.3977142857
 42
50.0
 43
0.0
 44
0.0
 50
0.0
 51
0.0
 71
0
 72
100
 73
1
 74
1
 75
0
 76
0
 77
0
 78
0
  0
ENDTAB
  0
TABLE
  2
LTYPE
  5
5
100
AcDbSymbolTable
 70
6
  0
LTYPE
  5
14
100
AcDbSymbolTableRecord
100
AcDbLinetypeTableRecord
  2
BYBLOCK
 70
0
  3

 72
65
 73
0
 40
0.0
  0
LTYPE
  5
15
100
AcDbSymbolTableRecord
100
AcDbLinetypeTableRecord
  2
BYLAYER
 70
0
  3

 72
65
 73
0
 40
0.0
  0
LTYPE
  5
16
100
AcDbSymbolTableRecord
100
AcDbLinetypeTableRecord
  2
CONTINUOUS
 70
64
  3
Solid line
 72
65
 73
0
 40
0.0
  0
LTYPE
  5
1F5
100
AcDbSymbolTableRecord
100
AcDbLinetypeTableRecord
  2
CENTER
 70
64
  3
____ _ ____ _ ____ _ ____ _ ____ _ ____ _ ____
 72
65
 73
4
 40
0.6
 49
0.375
 74
0
 49
-0.075
 74
0
 49
0.075
 74
0
 49
-0.075
 74
0
  0
LTYPE
  5
1F6
100
AcDbSymbolTableRecord
100
AcDbLinetypeTableRecord
  2
HIDDEN
 70
64
  3
- - - - - - - - - - - - - - - - - - - -
 72
65
 73
2
 40
0.2
 49
0.1
 74
0
 49
-0.1
 74
0
  0
LTYPE
  5
1F7
100
AcDbSymbolTableRecord
100
AcDbLinetypeTableRecord
  2
PHANTOM
 70
64
  3
_____ _ _ _____ _ _ _____ _ _ _____
 72
65
 73
6
 40
0.8
 49
0.45
 74
0
 49
-0.05
 74
0
 49
0.1
 74
0
 49
-0.05
 74
0
 49
0.1
 74
0
 49
-0.05
 74
0
  0
LTYPE
  5
1F8
100
AcDbSymbolTableRecord
100
AcDbLinetypeTableRecord
  2
DOT
 70
64
  3
. . . . . . . . . . . . . . . . . . . .
 72
65
 73
2
 40
0.2
 49
0.1
 74
0
 49
-0.1
 74
0
  0
LTYPE
  5
1F9
100
AcDbSymbolTableRecord
100
AcDbLinetypeTableRecord
  2
DASHED
 70
64
  3
- - - - - - - - - - - - - - - - - - - -
 72
65
 73
2
 40
0.2
 49
0.1
 74
0
 49
-0.1
 74
0
  0
ENDTAB
  0
TABLE
  2
LAYER
  5
2
100
AcDbSymbolTable
 70
36
  0
LAYER
  5
10
100
AcDbSymbolTableRecord
100
AcDbLayerTableRecord
  2
0
 70
0
 62
7
  6
CONTINUOUS
370
-3
390
F
  0
LAYER
  5
1FA
100
AcDbSymbolTableRecord
100
AcDbLayerTableRecord
  2
DEFAULT_1
 70
0
 62
7
  6
CENTER
370
-3
390
F
  0
LAYER
  5
1FB
100
AcDbSymbolTableRecord
100
AcDbLayerTableRecord
  2
DEFAULT_2
 70
0
 62
8
  6
HIDDEN
370
-3
390
F
  0
LAYER
  5
1FC
100
AcDbSymbolTableRecord
100
AcDbLayerTableRecord
  2
DEFAULT_3
 70
0
 62
7
  6
PHANTOM
370
-3
390
F
  0
LAYER
  5
1FD
100
AcDbSymbolTableRecord
100
AcDbLayerTableRecord
  2
01_ALL_DTM_PLN
 70
0
 62
7
  6
CONTINUOUS
370
-3
390
F
  0
LAYER
  5
1FE
100
AcDbSymbolTableRecord
100
AcDbLayerTableRecord
  2
01__ASM_ALL_DTM_PLN
 70
0
 62
7
  6
CONTINUOUS
370
-3
390
F
  0
LAYER
  5
1FF
100
AcDbSymbolTableRecord
100
AcDbLayerTableRecord
  2
01__ASM_DEF_DTM_PLN
 70
0
 62
7
  6
CONTINUOUS
370
-3
390
F
  0
LAYER
  5
200
100
AcDbSymbolTableRecord
100
AcDbLayerTableRecord
  2
01___PRT_ALL_DTM_PLN
 70
0
 62
7
  6
CONTINUOUS
370
-3
390
F
  0
LAYER
  5
201
100
AcDbSymbolTableRecord
100
AcDbLayerTableRecord
  2
01___PRT_DEF_DTM_PLN
 70
0
 62
7
  6
CONTINUOUS
370
-3
390
F
  0
LAYER
  5
202
100
AcDbSymbolTableRecord
100
AcDbLayerTableRecord
  2
02_ALL_AXES
 70
0
 62
7
  6
CONTINUOUS
370
-3
390
F
  0
LAYER
  5
203
100
AcDbSymbolTableRecord
100
AcDbLayerTableRecord
  2
02__ASM_ALL_AXES
 70
0
 62
7
  6
CONTINUOUS
370
-3
390
F
  0
LAYER
  5
204
100
AcDbSymbolTableRecord
100
AcDbLayerTableRecord
  2
02___PRT_ALL_AXES
 70
0
 62
7
  6
CONTINUOUS
370
-3
390
F
  0
LAYER
  5
205
100
AcDbSymbolTableRecord
100
AcDbLayerTableRecord
  2
03_ALL_CURVES
 70
0
 62
7
  6
CONTINUOUS
370
-3
390
F
  0
LAYER
  5
206
100
AcDbSymbolTableRecord
100
AcDbLayerTableRecord
  2
03__ASM_ALL_CURVES
 70
0
 62
7
  6
CONTINUOUS
370
-3
390
F
  0
LAYER
  5
207
100
AcDbSymbolTableRecord
100
AcDbLayerTableRecord
  2
03___PRT_ALL_CURVES
 70
0
 62
7
  6
CONTINUOUS
370
-3
390
F
  0
LAYER
  5
208
100
AcDbSymbolTableRecord
100
AcDbLayerTableRecord
  2
04_ALL_DTM_PNT
 70
0
 62
7
  6
CONTINUOUS
370
-3
390
F
  0
LAYER
  5
209
100
AcDbSymbolTableRecord
100
AcDbLayerTableRecord
  2
04__ASM_ALL_DTM_PNT
 70
0
 62
7
  6
CONTINUOUS
370
-3
390
F
  0
LAYER
  5
20A
100
AcDbSymbolTableRecord
100
AcDbLayerTableRecord
  2
04___PRT_ALL_DTM_PNT
 70
0
 62
7
  6
CONTINUOUS
370
-3
390
F
  0
LAYER
  5
20B
100
AcDbSymbolTableRecord
100
AcDbLayerTableRecord
  2
05_ALL_DTM_CSYS
 70
0
 62
7
  6
CONTINUOUS
370
-3
390
F
  0
LAYER
  5
20C
100
AcDbSymbolTableRecord
100
AcDbLayerTableRecord
  2
05__ASM_ALL_DTM_CSYS
 70
0
 62
7
  6
CONTINUOUS
370
-3
390
F
  0
LAYER
  5
20D
100
AcDbSymbolTableRecord
100
AcDbLayerTableRecord
  2
05__ASM_DEF_DTM_CSYS
 70
0
 62
7
  6
CONTINUOUS
370
-3
390
F
  0
LAYER
  5
20E
100
AcDbSymbolTableRecord
100
AcDbLayerTableRecord
  2
05___PRT_ALL_DTM_CSYS
 70
0
 62
7
  6
CONTINUOUS
370
-3
390
F
  0
LAYER
  5
20F
100
AcDbSymbolTableRecord
100
AcDbLayerTableRecord
  2
05___PRT_DEF_DTM_CSYS
 70
0
 62
7
  6
CONTINUOUS
370
-3
390
F
  0
LAYER
  5
210
100
AcDbSymbolTableRecord
100
AcDbLayerTableRecord
  2
06_ALL_SURFS
 70
0
 62
7
  6
CONTINUOUS
370
-3
390
F
  0
LAYER
  5
211
100
AcDbSymbolTableRecord
100
AcDbLayerTableRecord
  2
06__ASM_ALL_SURFS
 70
0
 62
7
  6
CONTINUOUS
370
-3
390
F
  0
LAYER
  5
212
100
AcDbSymbolTableRecord
100
AcDbLayerTableRecord
  2
06___PRT_ALL_SURFS
 70
0
 62
7
  6
CONTINUOUS
370
-3
390
F
  0
LAYER
  5
213
100
AcDbSymbolTableRecord
100
AcDbLayerTableRecord
  2
07__ASM_ALL_SKELETONS
 70
0
 62
7
  6
CONTINUOUS
370
-3
390
F
  0
ENDTAB
  0
TABLE
  2
STYLE
  5
3
100
AcDbSymbolTable
 70
1
  0
STYLE
  5
11
100
AcDbSymbolTableRecord
100
AcDbTextStyleTableRecord
  2
STANDARD
 70
0
 40
0.0
 41
0.8
 50
0.0
 71
0
 42
0.2
  3
txt
  4

  0
STYLE
  5
214
100
AcDbSymbolTableRecord
100
AcDbTextStyleTableRecord
  2
TEXTSTYLE_1
 70
0
 40
0.0
 41
0.8
 50
0.0
 71
0
 42
0.2
  3
gdt
  4

  0
ENDTAB
  0
TABLE
  2
VIEW
  5
6
100
AcDbSymbolTable
 70
0
  0
ENDTAB
  0
TABLE
  2
UCS
  5
7
100
AcDbSymbolTable
 70
0
  0
ENDTAB
  0
TABLE
  2
APPID
  5
9
100
AcDbSymbolTable
 70
1
  0
APPID
  5
215
100
AcDbSymbolTableRecord
100
AcDbRegAppTableRecord
  2
ACAD
 70
0
  0
ENDTAB
  0
TABLE
  2
BLOCK_RECORD
  5
1
100
AcDbSymbolTable
 70
0
  0
BLOCK_RECORD
  5
216
100
AcDbSymbolTableRecord
100
AcDbBlockTableRecord
  2
*Model_Space
  0
BLOCK_RECORD
  5
217
100
AcDbSymbolTableRecord
100
AcDbBlockTableRecord
  2
*Paper_Space
  0
BLOCK_RECORD
  5
218
100
AcDbSymbolTableRecord
100
AcDbBlockTableRecord
  2
_FILLED
  0
BLOCK_RECORD
  5
219
100
AcDbSymbolTableRecord
100
AcDbBlockTableRecord
  2
*D0
  0
BLOCK_RECORD
  5
21A
100
AcDbSymbolTableRecord
100
AcDbBlockTableRecord
  2
*D1
  0
ENDTAB
  0
TABLE
  2
DIMSTYLE
  5
A
100
AcDbSymbolTable
 70
1
100
AcDbDimStyleTable
 71
0
  0
DIMSTYLE
105
21B
100
AcDbSymbolTableRecord
100
AcDbDimStyleTableRecord
  2
STANDARD
 70
0
  3

  4

 40
1.0
 41
3.0
 42
0.5
 43
0.38
 44
0.5
 45
0.0
 46
0.0
 47
0.001
 48
0.001
140
1.8
141
0.09
142
0.0
143
25.4
144
1.0
145
0.0
146
1.0
147
0.625
 71
1.0
 72
0.0
 73
0
 74
0
 75
0
 76
0
 77
1
 78
8
170
0
171
2
172
0
173
0
174
0
175
0
176
0
177
0
178
0
270
2
271
3
272
3
273
2
274
2
275
0
280
0
281
0
282
0
283
1
284
8
285
0
286
0
287
3
288
0
340
11
278
46
341
218
342
218
343
218
344
218
  0
DIMSTYLE
105
21C
100
AcDbSymbolTableRecord
100
AcDbDimStyleTableRecord
  2
DIMSTYLE_1
 70
0
  3

  4

 40
1.0
 41
3.0
 42
0.5
 43
0.38
 44
0.5
 45
0.0
 46
0.0
 47
0.001
 48
0.001
140
1.8
141
0.09
142
0.0
143
25.4
144
1.0
145
0.0
146
1.0
147
0.45
 71
0.0
 72
0.0
 73
0
 74
0
 75
0
 76
0
 77
1
 78
8
170
0
171
2
172
0
173
0
174
0
175
0
176
0
177
0
178
0
270
2
271
0
272
0
273
2
274
2
275
0
280
0
281
0
282
0
283
1
284
8
285
0
286
0
287
3
288
0
340
11
278
46
341
218
342
218
343
218
344
218
  0
DIMSTYLE
105
21D
100
AcDbSymbolTableRecord
100
AcDbDimStyleTableRecord
  2
DIMSTYLE_2
 70
0
  3
<>
  4

 40
1.0
 41
3.0
 42
0.5
 43
0.38
 44
0.5
 45
0.0
 46
0.0
 47
0.001
 48
0.001
140
1.8
141
0.09
142
0.0
143
25.4
144
1.0
145
0.0
146
1.0
147
0.625
 71
0.0
 72
0.0
 73
0
 74
0
 75
0
 76
0
 77
1
 78
8
170
0
171
2
172
1
173
0
174
0
175
0
176
0
177
0
178
0
270
2
271
3
272
3
273
2
274
2
275
0
280
0
281
0
282
0
283
1
284
8
285
0
286
0
287
3
288
1
340
11
278
46
289
2
341
218
342
218
343
218
344
218
  0
ENDTAB
  0
ENDSEC
  0
SECTION
  2
BLOCKS
  0
BLOCK
  5
20
100
AcDbEntity
  8
0
100
AcDbBlockBegin
  2
*Model_Space
 70
0
 10
0.0
 20
0.0
 30
0.0
  3
*Model_Space
  1

  0
ENDBLK
  5
21
100
AcDbEntity
  8
0
100
AcDbBlockEnd
  0
BLOCK
  5
1C
100
AcDbEntity
  8
0
100
AcDbBlockBegin
  2
*Paper_Space
 70
0
 10
0.0
 20
0.0
 30
0.0
  3
*Paper_Space
  1

  0
ENDBLK
  5
1D
100
AcDbEntity
  8
0
100
AcDbBlockEnd
  0
BLOCK
  5
21E
100
AcDbEntity
  8
0
100
AcDbBlockBegin
  2
_FILLED
 70
64
 10
0.0
 20
0.0
  3
_FILLED
  1

  0
SOLID
  5
21F
100
AcDbEntity
  8
0
  6
BYBLOCK
 62
0
100
AcDbTrace
 10
0.0
 20
0.0
 11
-1.0
 21
0.1666666667
 12
-1.0
 22
-0.1666666667
 13
-1.0
 23
-0.1666666667
  0
ENDBLK
  5
220
100
AcDbEntity
  8
0
  6
BYBLOCK
 62
0
100
AcDbBlockEnd
  0
BLOCK
  5
221
100
AcDbEntity
  8
0
100
AcDbBlockBegin
 62
2
  6
CONTINUOUS
  2
*D0
 70
65
 10
0.0
 20
0.0
  3
*D0
  1

  0
MTEXT
  5
222
100
AcDbEntity
  8
0
100
AcDbMText
 62
2
  6
CONTINUOUS
  7
STANDARD
 71
2
 72
1
 10
463.0871917278
 20
569.7454403389
 30
0.0
 11
0.0
 21
1.0
 31
0.0
 44
0.9
  1
251
 40
1.8
 41
8.3314285714
  0
LINE
  5
223
100
AcDbEntity
  8
0
100
AcDbLine
 62
2
  6
CONTINUOUS
 10
596.9434497109
 20
695.4596903389
 11
465.1586202992
 21
695.4596903389
  0
LINE
  5
224
100
AcDbEntity
  8
0
100
AcDbLine
 62
2
  6
CONTINUOUS
 10
596.9434497109
 20
444.0311903389
 11
465.1586202992
 21
444.0311903389
  0
LINE
  5
225
100
AcDbEntity
  8
0
100
AcDbLine
 62
2
  6
CONTINUOUS
 10
465.6586202992
 20
695.4596903389
 11
465.6586202992
 21
569.7454403389
  0
LINE
  5
226
100
AcDbEntity
  8
0
100
AcDbLine
 62
2
  6
CONTINUOUS
 10
465.6586202992
 20
444.0311903389
 11
465.6586202992
 21
569.7454403389
  0
INSERT
  5
227
100
AcDbEntity
  8
0
100
AcDbBlockReference
 62
2
  6
CONTINUOUS
  2
_FILLED
 10
465.6586202992
 20
695.4596903389
 41
3.0
 42
3.0
 43
3.0
 50
90.0
  0
INSERT
  5
228
100
AcDbEntity
  8
0
100
AcDbBlockReference
 62
2
  6
CONTINUOUS
  2
_FILLED
 10
465.6586202992
 20
444.0311903389
 41
3.0
 42
3.0
 43
3.0
 50
270.0
  0
ENDBLK
  5
229
100
AcDbEntity
  8
0
  6
BYBLOCK
 62
0
100
AcDbBlockEnd
  0
BLOCK
  5
22A
100
AcDbEntity
  8
0
100
AcDbBlockBegin
 62
2
  6
CONTINUOUS
  2
*D1
 70
65
 10
0.0
 20
0.0
  3
*D1
  1

  0
MTEXT
  5
22B
100
AcDbEntity
  8
0
100
AcDbMText
 62
2
  6
CONTINUOUS
  7
TEXTSTYLE_1
 71
1
 72
1
 10
696.4112529689
 20
338.7313636386
 30
0.0
 11
0.8560317679
 21
0.516923217
 31
0.0
 44
0.9
  1
{\Fgdt;n}\Ftxt;191.5
 40
1.8
 41
17.4857142857
  0
LINE
  5
22C
100
AcDbEntity
  8
0
100
AcDbLine
 62
2
  6
CONTINUOUS
 10
679.4084914904
 20
325.4601847424
 11
597.4434497109
 21
275.964786713
  0
LINE
  5
22D
100
AcDbEntity
  8
0
100
AcDbLine
 62
2
  6
CONTINUOUS
 10
597.4434497109
 20
275.964786713
 11
707.7193687074
 21
342.5559868794
  0
LINE
  5
22E
100
AcDbEntity
  8
0
100
AcDbLine
 62
2
  6
CONTINUOUS
 10
515.4784079315
 20
226.4693886836
 11
597.4434497109
 21
275.964786713
  0
INSERT
  5
22F
100
AcDbEntity
  8
0
100
AcDbBlockReference
 62
2
  6
CONTINUOUS
  2
_FILLED
 10
679.4084914904
 20
325.4601847424
 41
3.0
 42
3.0
 43
3.0
 50
31.1260923438
  0
INSERT
  5
230
100
AcDbEntity
  8
0
100
AcDbBlockReference
 62
2
  6
CONTINUOUS
  2
_FILLED
 10
515.4784079315
 20
226.4693886836
 41
3.0
 42
3.0
 43
3.0
 50
211.1260923438
  0
ENDBLK
  5
231
100
AcDbEntity
  8
0
  6
BYBLOCK
 62
0
100
AcDbBlockEnd
  0
ENDSEC
  0
SECTION
  2
ENTITIES
  0
DIMENSION
  5
232
100
AcDbEntity
  8
0
100
AcDbDimension
 62
2
  6
CONTINUOUS
  2
*D0
 10
465.6586202992
 20
444.0311903389
 11
465.6586202992
 21
569.7454403389
 70
160
 71
2
 42
251.4285
  3
DIMSTYLE_1
100
AcDbAlignedDimension
 13
597.4434497109
 23
695.4596903389
 14
597.4434497109
 24
444.0311903389
 50
270.0
100
AcDbRotatedDimension
  0
DIMENSION
  5
233
100
AcDbEntity
  8
0
100
AcDbDimension
 62
2
  6
CONTINUOUS
  2
*D1
 10
679.4084914904
 20
325.4601847424
 11
701.8659261687
 21
340.9738589409
 70
163
 71
1
 42
191.5
  1
%%c<>
  3
DIMSTYLE_2
100
AcDbDiametricDimension
 15
515.4784079315
 25
226.4693886836
  0
LINE
  5
234
100
AcDbEntity
  8
0
100
AcDbLine
 62
3
  6
CONTINUOUS
 10
688.7933714481
 20
444.0311903389
 11
506.1166829804
 21
444.0311903389
  0
LINE
  5
235
100
AcDbEntity
  8
0
100
AcDbLine
 62
3
  6
CONTINUOUS
 10
690.6934497109
 20
445.9311903389
 11
504.1934497109
 21
445.9311903389
  0
LINE
  5
236
100
AcDbEntity
  8
02___PRT_ALL_AXES
100
AcDbLine
 62
7
  6
CONTINUOUS
 10
502.4086092981
 20
672.6340018244
 11
501.6934497109
 21
664.4596903389
  0
LINE
  5
237
100
AcDbEntity
  8
0
100
AcDbLine
 62
7
  6
CONTINUOUS
 10
502.4086092981
 20
672.6340018244
 11
501.6934497109
 21
664.4596903389
  0
LINE
  5
238
100
AcDbEntity
  8
02___PRT_ALL_AXES
100
AcDbLine
 62
3
  6
CONTINUOUS
 10
504.1934497109
 20
664.4596903389
 11
504.1934497109
 21
445.9311903389
  0
LINE
  5
239
100
AcDbEntity
  8
03___PRT_ALL_CURVES
100
AcDbLine
 62
2
  6
CONTINUOUS
 10
587.6149300846
 20
640.5834323107
 11
587.330020688
 21
639.7740071265
  0
LINE
  5
23A
100
AcDbEntity
  8
03___PRT_ALL_CURVES
100
AcDbLine
 62
2
  6
CONTINUOUS
 10
588.3580371808
 20
642.6554849903
 11
587.8443734439
 21
641.2247368353
  0
LINE
  5
23B
100
AcDbEntity
  8
03___PRT_ALL_CURVES
100
AcDbLine
 62
2
  6
CONTINUOUS
 10
586.3722841431
 20
633.8730753246
 11
586.6098234768
 21
634.5028387793
  0
LINE
  5
23C
100
AcDbEntity
  8
03___PRT_ALL_CURVES
100
AcDbLine
 62
2
  6
CONTINUOUS
 10
586.6120627889
 20
639.7740071265
 11
588.0174894921
 21
643.4442396017
  0
LINE
  5
23D
100
AcDbEntity
  8
03___PRT_ALL_CURVES
100
AcDbLine
 62
2
  6
CONTINUOUS
 10
586.8725120075
 20
636.6195054454
 11
585.8010873116
 21
633.8730753246
  0
LINE
  5
23E
100
AcDbEntity
  8
0
100
AcDbLine
 62
7
  6
CONTINUOUS
 10
612.9126175961
 20
686.0441380326
 11
612.4033048488
 21
684.9070334586
  0
LINE
  5
23F
100
AcDbEntity
  8
02___PRT_ALL_AXES
100
AcDbLine
 62
7
  6
CONTINUOUS
 10
612.4033048488
 20
684.9070334586
 11
607.724411914
 21
675.9948564399
  0
LINE
  5
240
100
AcDbEntity
  8
0
100
AcDbLine
 62
7
  6
CONTINUOUS
 10
607.724411914
 20
675.9948564399
 11
612.4033048488
 21
684.9070334586
  0
LINE
  5
241
100
AcDbEntity
  8
03___PRT_ALL_CURVES
100
AcDbLine
 62
2
  6
CONTINUOUS
 10
577.3821352196
 20
639.4996052711
 11
577.3821352196
 21
644.1370483038
  0
LINE
  5
242
100
AcDbEntity
  8
02___PRT_ALL_AXES
100
AcDbLine
 62
7
  6
CONTINUOUS
 10
614.2993601154
 20
688.5274215524
 11
613.9434497109
 21
687.4596903389
  0
LINE
  5
243
100
AcDbEntity
  8
0
100
AcDbLine
 62
7
  6
CONTINUOUS
 10
613.9434497109
 20
687.4596903389
 11
614.2993601154
 21
688.5274215524
  0
LINE
  5
244
100
AcDbEntity
  8
02___PRT_ALL_AXES
100
AcDbLine
 62
7
  6
CONTINUOUS
 10
613.4434497109
 20
687.4596903389
 11
612.9126175961
 21
686.0441380326
  0
LINE
  5
245
100
AcDbEntity
  8
0
100
AcDbLine
 62
7
  6
CONTINUOUS
 10
612.9126175961
 20
686.0441380326
 11
613.4434497109
 21
687.4596903389
  0
LINE
  5
246
100
AcDbEntity
  8
03___PRT_ALL_CURVES
100
AcDbLine
 62
2
  6
CONTINUOUS
 10
593.6121523053
 20
642.2539591115
 11
592.7875687009
 21
640.0794148412
  0
LINE
  5
247
100
AcDbEntity
  8
03___PRT_ALL_CURVES
100
AcDbLine
 62
2
  6
CONTINUOUS
 10
592.4974916611
 20
640.9503349799
 11
593.4500605628
 21
643.4442396017
  0
LINE
  5
248
100
AcDbEntity
  8
03___PRT_ALL_CURVES
100
AcDbLine
 62
2
  6
CONTINUOUS
 10
608.8923565658
 20
636.1895575289
 11
607.5970006634
 21
634.3209377377
  0
LINE
  5
249
100
AcDbEntity
  8
03___PRT_ALL_CURVES
100
AcDbLine
 62
2
  6
CONTINUOUS
 10
608.1730206285
 20
634.305434808
 11
609.4769892697
 21
636.1733655801
  0
LINE
  5
24A
100
AcDbEntity
  8
03___PRT_ALL_CURVES
100
AcDbLine
 62
2
  6
CONTINUOUS
 10
580.645501918
 20
643.0675184104
 11
580.645501918
 21
643.4442396017
  0
LINE
  5
24B
100
AcDbEntity
  8
03___PRT_ALL_CURVES
100
AcDbLine
 62
2
  6
CONTINUOUS
 10
581.6585322454
 20
640.0542656442
 11
581.6585322454
 21
642.7882934213
  0
LINE
  5
24C
100
AcDbEntity
  8
03___PRT_ALL_CURVES
100
AcDbLine
 62
2
  6
CONTINUOUS
 10
582.3616762339
 20
636.6222615218
 11
582.3616762339
 21
633.8706637577
  0
LINE
  5
24D
100
AcDbEntity
  8
03___PRT_ALL_CURVES
100
AcDbLine
 62
2
  6
CONTINUOUS
 10
582.3820022973
 20
642.7882934213
 11
582.3820022973
 21
639.7740071265
  0
LINE
  5
24E
100
AcDbEntity
  8
03___PRT_ALL_CURVES
100
AcDbLine
 62
2
  6
CONTINUOUS
 10
583.3952048795
 20
643.4442396017
 11
583.3952048795
 21
642.7882934213
  0
LINE
  5
24F
100
AcDbEntity
  8
03___PRT_ALL_CURVES
100
AcDbLine
 62
2
  6
CONTINUOUS
 10
583.8332487705
 20
640.0542656442
 11
583.8332487705
 21
643.4442396017
  0
LINE
  5
250
100
AcDbEntity
  8
03___PRT_ALL_CURVES
100
AcDbLine
 62
2
  6
CONTINUOUS
 10
584.520373065
 20
642.8136148731
 11
584.520373065
 21
641.7539035019
  0
LINE
  5
251
100
AcDbEntity
  8
03___PRT_ALL_CURVES
100
AcDbLine
 62
2
  6
CONTINUOUS
 10
584.520373065
 20
641.1287909261
 11
584.520373065
 21
639.7740071265
  0
LINE
  5
252
100
AcDbEntity
  8
03___PRT_ALL_CURVES
100
AcDbLine
 62
2
  6
CONTINUOUS
 10
584.9158700267
 20
636.1416707016
 11
584.9158700267
 21
633.8706637577
  0
LINE
  5
253
100
AcDbEntity
  8
03___PRT_ALL_CURVES
100
AcDbLine
 62
2
  6
CONTINUOUS
 10
585.4434864003
 20
633.8706637577
 11
585.4434864003
 21
636.6222615218
  0
LINE
  5
254
100
AcDbEntity
  8
03___PRT_ALL_CURVES
100
AcDbLine
 62
2
  6
CONTINUOUS
 10
591.3516529027
 20
642.2937499644
 11
591.0214405004
 21
639.7740071265
  0
LINE
  5
255
100
AcDbEntity
  8
03___PRT_ALL_CURVES
100
AcDbLine
 62
2
  6
CONTINUOUS
 10
590.3288040531
 20
639.7740071265
 11
590.8989673559
 21
643.4442396017
  0
LINE
  5
256
100
AcDbEntity
  8
03___PRT_ALL_CURVES
100
AcDbLine
 62
2
  6
CONTINUOUS
 10
611.7824471684
 20
640.5834323107
 11
611.4965042431
 21
639.7740071265
  0
LINE
  5
257
100
AcDbEntity
  8
03___PRT_ALL_CURVES
100
AcDbLine
 62
2
  6
CONTINUOUS
 10
612.525209755
 20
642.6554849903
 11
612.0112015086
 21
641.2247368353
  0
LINE
  5
258
100
AcDbEntity
  8
03___PRT_ALL_CURVES
100
AcDbLine
 62
2
  6
CONTINUOUS
 10
605.2150616449
 20
633.8706637577
 11
605.4555293098
 21
634.5031832888
  0
LINE
  5
259
100
AcDbEntity
  8
03___PRT_ALL_CURVES
100
AcDbLine
 62
2
  6
CONTINUOUS
 10
610.7788908536
 20
639.7740071265
 11
612.1844898116
 21
643.4442396017
  0
LINE
  5
25A
100
AcDbEntity
  8
03___PRT_ALL_CURVES
100
AcDbLine
 62
2
  6
CONTINUOUS
 10
605.7173565666
 20
636.6222615218
 11
604.6452428516
 21
633.8706637577
  0
LINE
  5
25B
100
AcDbEntity
  8
03___PRT_ALL_CURVES
100
AcDbLine
 62
2
  6
CONTINUOUS
 10
588.9335403816
 20
636.6222615218
 11
588.9335403816
 21
633.8706637577
  0
LINE
  5
25C
100
AcDbEntity
  8
03___PRT_ALL_CURVES
100
AcDbLine
 62
2
  6
CONTINUOUS
 10
589.483377621
 20
634.305434808
 11
589.483377621
 21
636.1895575289
  0
LINE
  5
25D
100
AcDbEntity
  8
03___PRT_ALL_CURVES
100
AcDbLine
 62
2
  6
CONTINUOUS
 10
591.7772944499
 20
636.6195054454
 11
591.7772944499
 21
633.8730753246
  0
LINE
  5
25E
100
AcDbEntity
  8
03___PRT_ALL_CURVES
100
AcDbLine
 62
2
  6
CONTINUOUS
 10
592.3302322753
 20
634.3099134321
 11
592.3302322753
 21
635.079203254
  0
LINE
  5
25F
100
AcDbEntity
  8
03___PRT_ALL_CURVES
100
AcDbLine
 62
2
  6
CONTINUOUS
 10
592.3302322753
 20
635.516385871
 11
592.3302322753
 21
636.1826673379
  0
LINE
  5
260
100
AcDbEntity
  8
03___PRT_ALL_CURVES
100
AcDbLine
 62
2
  6
CONTINUOUS
 10
593.3129457624
 20
635.079203254
 11
593.3129457624
 21
635.516385871
  0
LINE
  5
261
100
AcDbEntity
  8
03___PRT_ALL_CURVES
100
AcDbLine
 62
2
  6
CONTINUOUS
 10
593.4014847164
 20
636.1826673379
 11
593.4014847164
 21
636.6195054454
  0
LINE
  5
262
100
AcDbEntity
  8
03___PRT_ALL_CURVES
100
AcDbLine
 62
2
  6
CONTINUOUS
 10
593.4080303978
 20
633.8730753246
 11
593.4080303978
 21
634.3099134321
  0
LINE
  5
263
100
AcDbEntity
  8
03___PRT_ALL_CURVES
100
AcDbLine
 62
2
  6
CONTINUOUS
 10
595.0203350849
 20
636.6195054454
 11
595.0203350849
 21
633.8730753246
  0
LINE
  5
264
100
AcDbEntity
  8
03___PRT_ALL_CURVES
100
AcDbLine
 62
2
  6
CONTINUOUS
 10
595.5703445792
 20
633.8730753246
 11
595.5703445792
 21
636.6195054454
  0
LINE
  5
265
100
AcDbEntity
  8
03___PRT_ALL_CURVES
100
AcDbLine
 62
2
  6
CONTINUOUS
 10
596.1370627865
 20
636.6222615218
 11
596.1370627865
 21
633.8706637577
  0
LINE
  5
266
100
AcDbEntity
  8
03___PRT_ALL_CURVES
100
AcDbLine
 62
2
  6
CONTINUOUS
 10
598.3996292464
 20
633.8706637577
 11
598.3996292464
 21
636.6222615218
  0
LINE
  5
267
100
AcDbEntity
  8
03___PRT_ALL_CURVES
100
AcDbLine
 62
2
  6
CONTINUOUS
 10
599.1303339988
 20
640.0542656442
 11
599.1303339988
 21
643.4442396017
  0
LINE
  5
268
100
AcDbEntity
  8
03___PRT_ALL_CURVES
100
AcDbLine
 62
2
  6
CONTINUOUS
 10
599.7979935039
 20
642.3244113142
 11
599.7979935039
 21
639.7740071265
  0
LINE
  5
269
100
AcDbEntity
  8
03___PRT_ALL_CURVES
100
AcDbLine
 62
2
  6
CONTINUOUS
 10
600.111497193
 20
636.6222615218
 11
600.111497193
 21
633.8706637577
  0
LINE
  5
26A
100
AcDbEntity
  8
03___PRT_ALL_CURVES
100
AcDbLine
 62
2
  6
CONTINUOUS
 10
600.6589228656
 20
634.305434808
 11
600.6589228656
 21
635.1009073555
  0
LINE
  5
26B
100
AcDbEntity
  8
03___PRT_ALL_CURVES
100
AcDbLine
 62
2
  6
CONTINUOUS
 10
600.6589228656
 20
635.5101846992
 11
600.6589228656
 21
636.1895575289
  0
LINE
  5
26C
100
AcDbEntity
  8
03___PRT_ALL_CURVES
100
AcDbLine
 62
2
  6
CONTINUOUS
 10
601.5536141632
 20
640.8485324083
 11
601.5536141632
 21
643.4442396017
  0
LINE
  5
26D
100
AcDbEntity
  8
03___PRT_ALL_CURVES
100
AcDbLine
 62
2
  6
CONTINUOUS
 10
602.2212736682
 20
643.4442396017
 11
602.2212736682
 21
639.7740071265
  0
LINE
  5
26E
100
AcDbEntity
  8
03___PRT_ALL_CURVES
100
AcDbLine
 62
2
  6
CONTINUOUS
 10
602.4706985813
 20
636.6222615218
 11
602.4706985813
 21
633.8706637577
  0
LINE
  5
26F
100
AcDbEntity
  8
03___PRT_ALL_CURVES
100
AcDbLine
 62
2
  6
CONTINUOUS
 10
602.6584562853
 20
643.0675184104
 11
602.6584562853
 21
643.4442396017
  0
LINE
  5
270
100
AcDbEntity
  8
03___PRT_ALL_CURVES
100
AcDbLine
 62
2
  6
CONTINUOUS
 10
603.0229473876
 20
633.8706637577
 11
603.0229473876
 21
635.0140909493
  0
LINE
  5
271
100
AcDbEntity
  8
03___PRT_ALL_CURVES
100
AcDbLine
 62
2
  6
CONTINUOUS
 10
603.0229473876
 20
635.4464504327
 11
603.0229473876
 21
636.1895575289
  0
LINE
  5
272
100
AcDbEntity
  8
03___PRT_ALL_CURVES
100
AcDbLine
 62
2
  6
CONTINUOUS
 10
603.672003377
 20
640.0542656442
 11
603.672003377
 21
642.7882934213
  0
LINE
  5
273
100
AcDbEntity
  8
03___PRT_ALL_CURVES
100
AcDbLine
 62
2
  6
CONTINUOUS
 10
604.3954734289
 20
642.7882934213
 11
604.3954734289
 21
639.7740071265
  0
LINE
  5
274
100
AcDbEntity
  8
03___PRT_ALL_CURVES
100
AcDbLine
 62
2
  6
CONTINUOUS
 10
605.4086760112
 20
643.4442396017
 11
605.4086760112
 21
642.7882934213
  0
LINE
  5
275
100
AcDbEntity
  8
03___PRT_ALL_CURVES
100
AcDbLine
 62
2
  6
CONTINUOUS
 10
605.8772089972
 20
640.0542656442
 11
605.8772089972
 21
643.4442396017
  0
LINE
  5
276
100
AcDbEntity
  8
03___PRT_ALL_CURVES
100
AcDbLine
 62
2
  6
CONTINUOUS
 10
606.5993010109
 20
643.4442396017
 11
606.5993010109
 21
639.7740071265
  0
LINE
  5
277
100
AcDbEntity
  8
03___PRT_ALL_CURVES
100
AcDbLine
 62
2
  6
CONTINUOUS
 10
607.2969328466
 20
640.0542656442
 11
607.2969328466
 21
643.4442396017
  0
LINE
  5
278
100
AcDbEntity
  8
03___PRT_ALL_CURVES
100
AcDbLine
 62
2
  6
CONTINUOUS
 10
607.5970006634
 20
634.3209377377
 11
607.5970006634
 21
633.8706637577
  0
LINE
  5
279
100
AcDbEntity
  8
03___PRT_ALL_CURVES
100
AcDbLine
 62
2
  6
CONTINUOUS
 10
607.6517776816
 20
636.6222615218
 11
607.6517776816
 21
636.1895575289
  0
LINE
  5
27A
100
AcDbEntity
  8
03___PRT_ALL_CURVES
100
AcDbLine
 62
2
  6
CONTINUOUS
 10
607.9632143135
 20
642.3244113142
 11
607.9632143135
 21
639.7740071265
  0
LINE
  5
27B
100
AcDbEntity
  8
03___PRT_ALL_CURVES
100
AcDbLine
 62
2
  6
CONTINUOUS
 10
582.8982498558
 20
636.1416707016
 11
583.6391176399
 21
633.8706637577
  0
LINE
  5
27C
100
AcDbEntity
  8
03___PRT_ALL_CURVES
100
AcDbLine
 62
2
  6
CONTINUOUS
 10
583.8993946038
 20
634.5359116959
 11
583.2448264616
 21
636.6222615218
  0
LINE
  5
27D
100
AcDbEntity
  8
03___PRT_ALL_CURVES
100
AcDbLine
 62
2
  6
CONTINUOUS
 10
594.090848323
 20
643.4442396017
 11
594.6615283902
 21
639.7740071265
  0
LINE
  5
27E
100
AcDbEntity
  8
03___PRT_ALL_CURVES
100
AcDbLine
 62
2
  6
CONTINUOUS
 10
593.9075692432
 20
640.0435858482
 11
593.6121523053
 21
642.2539591115
  0
LINE
  5
27F
100
AcDbEntity
  8
03___PRT_ALL_CURVES
100
AcDbLine
 62
2
  6
CONTINUOUS
 10
609.4769892697
 20
636.1733655801
 11
609.4769892697
 21
636.6222615218
  0
LINE
  5
280
100
AcDbEntity
  8
03___PRT_ALL_CURVES
100
AcDbLine
 62
2
  6
CONTINUOUS
 10
609.5045500336
 20
633.8706637577
 11
609.5045500336
 21
634.305434808
  0
LINE
  5
281
100
AcDbEntity
  8
03___PRT_ALL_CURVES
100
AcDbLine
 62
2
  6
CONTINUOUS
 10
609.7198685014
 20
640.8485324083
 11
609.7198685014
 21
643.4442396017
  0
LINE
  5
282
100
AcDbEntity
  8
03___PRT_ALL_CURVES
100
AcDbLine
 62
2
  6
CONTINUOUS
 10
609.9207175682
 20
636.6222615218
 11
609.9207175682
 21
633.8706637577
  0
LINE
  5
283
100
AcDbEntity
  8
03___PRT_ALL_CURVES
100
AcDbLine
 62
2
  6
CONTINUOUS
 10
610.3875280064
 20
643.4442396017
 11
610.3875280064
 21
639.7740071265
  0
LINE
  5
284
100
AcDbEntity
  8
03___PRT_ALL_CURVES
100
AcDbLine
 62
2
  6
CONTINUOUS
 10
610.4729663745
 20
633.8706637577
 11
610.4729663745
 21
636.6222615218
  0
LINE
  5
285
100
AcDbEntity
  8
03___PRT_ALL_CURVES
100
AcDbLine
 62
2
  6
CONTINUOUS
 10
611.0669008361
 20
636.6222615218
 11
611.0669008361
 21
633.8706637577
  0
LINE
  5
286
100
AcDbEntity
  8
03___PRT_ALL_CURVES
100
AcDbLine
 62
2
  6
CONTINUOUS
 10
611.6146710183
 20
634.305434808
 11
611.6146710183
 21
636.6222615218
  0
LINE
  5
287
100
AcDbEntity
  8
03___PRT_ALL_CURVES
100
AcDbLine
 62
2
  6
CONTINUOUS
 10
612.6840286569
 20
633.8706637577
 11
612.6840286569
 21
634.305434808
  0
LINE
  5
288
100
AcDbEntity
  8
03___PRT_ALL_CURVES
100
AcDbLine
 62
2
  6
CONTINUOUS
 10
617.3821053701
 20
644.1370483038
 11
617.3821053701
 21
639.4996052711
  0
LINE
  5
289
100
AcDbEntity
  8
03___PRT_ALL_CURVES
100
AcDbLine
 62
2
  6
CONTINUOUS
 10
585.5787063981
 20
639.9829521677
 11
584.9940736942
 21
641.1287909261
  0
LINE
  5
28A
100
AcDbEntity
  8
03___PRT_ALL_CURVES
100
AcDbLine
 62
2
  6
CONTINUOUS
 10
588.5754227059
 20
633.8730753246
 11
587.4953852713
 21
636.6195054454
  0
LINE
  5
28B
100
AcDbEntity
  8
03___PRT_ALL_CURVES
100
AcDbLine
 62
2
  6
CONTINUOUS
 10
588.7144323087
 20
643.4442396017
 11
590.1303665532
 21
639.7740071265
  0
LINE
  5
28C
100
AcDbEntity
  8
03___PRT_ALL_CURVES
100
AcDbLine
 62
2
  6
CONTINUOUS
 10
592.1002721516
 20
640.3446871936
 11
591.3516529027
 21
642.2937499644
  0
LINE
  5
28D
100
AcDbEntity
  8
03___PRT_ALL_CURVES
100
AcDbLine
 62
2
  6
CONTINUOUS
 10
591.5457840333
 20
643.4442396017
 11
592.4974916611
 21
640.9503349799
  0
LINE
  5
28E
100
AcDbEntity
  8
03___PRT_ALL_CURVES
100
AcDbLine
 62
2
  6
CONTINUOUS
 10
587.7284459809
 20
634.5028387793
 11
587.9640905121
 21
633.8730753246
  0
LINE
  5
28F
100
AcDbEntity
  8
03___PRT_ALL_CURVES
100
AcDbLine
 62
2
  6
CONTINUOUS
 10
589.3049216749
 20
640.0237765492
 11
589.101144277
 21
640.5834323107
  0
LINE
  5
290
100
AcDbEntity
  8
03___PRT_ALL_CURVES
100
AcDbLine
 62
2
  6
CONTINUOUS
 10
588.8725621915
 20
641.2247368353
 11
588.3580371808
 21
642.6554849903
  0
LINE
  5
291
100
AcDbEntity
  8
03___PRT_ALL_CURVES
100
AcDbLine
 62
2
  6
CONTINUOUS
 10
587.1761971746
 20
636.0693236964
 11
587.5746224674
 21
634.9400213964
  0
LINE
  5
292
100
AcDbEntity
  8
02___PRT_ALL_AXES
100
AcDbLine
 62
7
  6
CONTINUOUS
 10
580.5875393065
 20
688.5274215524
 11
580.9434497109
 21
687.4596903389
  0
LINE
  5
293
100
AcDbEntity
  8
0
100
AcDbLine
 62
7
  6
CONTINUOUS
 10
580.9434497109
 20
687.4596903389
 11
580.5875393065
 21
688.5274215524
  0
LINE
  5
294
100
AcDbEntity
  8
03___PRT_ALL_CURVES
100
AcDbLine
 62
2
  6
CONTINUOUS
 10
585.6396845882
 20
641.2605658284
 11
586.4804601413
 21
639.7740071265
  0
LINE
  5
295
100
AcDbEntity
  8
03___PRT_ALL_CURVES
100
AcDbLine
 62
2
  6
CONTINUOUS
 10
596.6734641535
 20
635.9291083102
 11
597.7243905313
 21
633.8706637577
  0
LINE
  5
296
100
AcDbEntity
  8
03___PRT_ALL_CURVES
100
AcDbLine
 62
2
  6
CONTINUOUS
 10
597.864261408
 20
634.5651950076
 11
596.8162633614
 21
636.6222615218
  0
LINE
  5
297
100
AcDbEntity
  8
03___PRT_ALL_CURVES
100
AcDbLine
 62
2
  6
CONTINUOUS
 10
604.5267315669
 20
633.8706637577
 11
604.0874818926
 21
634.9455335491
  0
LINE
  5
298
100
AcDbEntity
  8
03___PRT_ALL_CURVES
100
AcDbLine
 62
2
  6
CONTINUOUS
 10
607.4216453032
 20
633.8706637577
 11
606.3381627731
 21
636.6222615218
  0
LINE
  5
299
100
AcDbEntity
  8
03___PRT_ALL_CURVES
100
AcDbLine
 62
2
  6
CONTINUOUS
 10
603.5851869708
 20
634.7305595908
 11
603.9159161374
 21
633.8706637577
  0
LINE
  5
29A
100
AcDbEntity
  8
02___PRT_ALL_AXES
100
AcDbLine
 62
7
  6
CONTINUOUS
 10
581.4434497109
 20
687.4596903389
 11
581.9742818258
 21
686.0441380326
  0
LINE
  5
29B
100
AcDbEntity
  8
0
100
AcDbLine
 62
7
  6
CONTINUOUS
 10
581.9742818258
 20
686.0441380326
 11
581.4434497109
 21
687.4596903389
  0
LINE
  5
29C
100
AcDbEntity
  8
03___PRT_ALL_CURVES
100
AcDbLine
 62
2
  6
CONTINUOUS
 10
606.5744963234
 20
634.5031832888
 11
606.809796345
 21
633.8706637577
  0
LINE
  5
29D
100
AcDbEntity
  8
03___PRT_ALL_CURVES
100
AcDbLine
 62
2
  6
CONTINUOUS
 10
606.021558498
 20
636.0693236964
 11
606.4201560456
 21
634.9355427722
  0
LINE
  5
29E
100
AcDbEntity
  8
03___PRT_ALL_CURVES
100
AcDbLine
 62
2
  6
CONTINUOUS
 10
601.3916946753
 20
640.0285996829
 11
599.7979935039
 21
642.3244113142
  0
LINE
  5
29F
100
AcDbEntity
  8
03___PRT_ALL_CURVES
100
AcDbLine
 62
2
  6
CONTINUOUS
 10
599.7828350837
 20
643.4442396017
 11
601.5536141632
 21
640.8485324083
  0
LINE
  5
2A0
100
AcDbEntity
  8
02___PRT_ALL_AXES
100
AcDbLine
 62
7
  6
CONTINUOUS
 10
582.4835945731
 20
684.9070334586
 11
587.1624875079
 21
675.9948564399
  0
LINE
  5
2A1
100
AcDbEntity
  8
0
100
AcDbLine
 62
7
  6
CONTINUOUS
 10
587.1624875079
 20
675.9948564399
 11
582.4835945731
 21
684.9070334586
  0
LINE
  5
2A2
100
AcDbEntity
  8
0
100
AcDbLine
 62
7
  6
CONTINUOUS
 10
581.9742818258
 20
686.0441380326
 11
582.4835945731
 21
684.9070334586
  0
LINE
  5
2A3
100
AcDbEntity
  8
03___PRT_ALL_CURVES
100
AcDbLine
 62
2
  6
CONTINUOUS
 10
612.8821216473
 20
643.4442396017
 11
614.2970223631
 21
639.7740071265
  0
LINE
  5
2A4
100
AcDbEntity
  8
03___PRT_ALL_CURVES
100
AcDbLine
 62
2
  6
CONTINUOUS
 10
613.4726110135
 20
640.0237765492
 11
613.2679723417
 21
640.5834323107
  0
LINE
  5
2A5
100
AcDbEntity
  8
03___PRT_ALL_CURVES
100
AcDbLine
 62
2
  6
CONTINUOUS
 10
613.0388734919
 20
641.2247368353
 11
612.525209755
 21
642.6554849903
  0
LINE
  5
2A6
100
AcDbEntity
  8
03___PRT_ALL_CURVES
100
AcDbLine
 62
2
  6
CONTINUOUS
 10
609.557604504
 20
640.0285996828
 11
607.9632143135
 21
642.3244113142
  0
LINE
  5
2A7
100
AcDbEntity
  8
03___PRT_ALL_CURVES
100
AcDbLine
 62
2
  6
CONTINUOUS
 10
607.9484004029
 20
643.4442396017
 11
609.7198685014
 21
640.8485324083
  0
LINE
  5
2A8
100
AcDbEntity
  8
03___PRT_ALL_CURVES
100
AcDbLine
 62
2
  6
CONTINUOUS
 10
582.3616762339
 20
633.8706637577
 11
582.8891203571
 21
633.8706637577
  0
LINE
  5
2A9
100
AcDbEntity
  8
03___PRT_ALL_CURVES
100
AcDbLine
 62
2
  6
CONTINUOUS
 10
583.6391176399
 20
633.8706637577
 11
584.1662172307
 21
633.8706637577
  0
LINE
  5
2AA
100
AcDbEntity
  8
03___PRT_ALL_CURVES
100
AcDbLine
 62
2
  6
CONTINUOUS
 10
584.9158700267
 20
633.8706637577
 11
585.4434863876
 21
633.8706637577
  0
LINE
  5
2AB
100
AcDbEntity
  8
03___PRT_ALL_CURVES
100
AcDbLine
 62
2
  6
CONTINUOUS
 10
588.9335403816
 20
633.8706637577
 11
589.6850879926
 21
633.8706637577
  0
LINE
  5
2AC
100
AcDbEntity
  8
03___PRT_ALL_CURVES
100
AcDbLine
 62
2
  6
CONTINUOUS
 10
596.1370627865
 20
633.8706637577
 11
596.6665739605
 21
633.8706637577
  0
LINE
  5
2AD
100
AcDbEntity
  8
03___PRT_ALL_CURVES
100
AcDbLine
 62
2
  6
CONTINUOUS
 10
597.7243905313
 20
633.8706637577
 11
598.399629231
 21
633.8706637577
  0
LINE
  5
2AE
100
AcDbEntity
  8
03___PRT_ALL_CURVES
100
AcDbLine
 62
2
  6
CONTINUOUS
 10
600.111497193
 20
633.8706637577
 11
601.0706117878
 21
633.8706637577
  0
LINE
  5
2AF
100
AcDbEntity
  8
03___PRT_ALL_CURVES
100
AcDbLine
 62
2
  6
CONTINUOUS
 10
602.4706985813
 20
633.8706637577
 11
603.0229473975
 21
633.8706637577
  0
LINE
  5
2B0
100
AcDbEntity
  8
03___PRT_ALL_CURVES
100
AcDbLine
 62
2
  6
CONTINUOUS
 10
603.9159161374
 20
633.8706637577
 11
604.5267315861
 21
633.8706637577
  0
LINE
  5
2B1
100
AcDbEntity
  8
03___PRT_ALL_CURVES
100
AcDbLine
 62
2
  6
CONTINUOUS
 10
604.6452428516
 20
633.8706637577
 11
605.2150616238
 21
633.8706637577
  0
LINE
  5
2B2
100
AcDbEntity
  8
03___PRT_ALL_CURVES
100
AcDbLine
 62
2
  6
CONTINUOUS
 10
606.809796345
 20
633.8706637577
 11
607.4216453181
 21
633.8706637577
  0
LINE
  5
2B3
100
AcDbEntity
  8
03___PRT_ALL_CURVES
100
AcDbLine
 62
2
  6
CONTINUOUS
 10
607.5970006634
 20
633.8706637577
 11
609.5045500166
 21
633.8706637577
  0
LINE
  5
2B4
100
AcDbEntity
  8
03___PRT_ALL_CURVES
100
AcDbLine
 62
2
  6
CONTINUOUS
 10
609.9207175682
 20
633.8706637577
 11
610.472966361
 21
633.8706637577
  0
LINE
  5
2B5
100
AcDbEntity
  8
03___PRT_ALL_CURVES
100
AcDbLine
 62
2
  6
CONTINUOUS
 10
611.0669008361
 20
633.8706637577
 11
612.6840286947
 21
633.8706637577
  0
LINE
  5
2B6
100
AcDbEntity
  8
03___PRT_ALL_CURVES
100
AcDbLine
 62
2
  6
CONTINUOUS
 10
585.8010873116
 20
633.8730753246
 11
586.3722841242
 21
633.8730753246
  0
LINE
  5
2B7
100
AcDbEntity
  8
03___PRT_ALL_CURVES
100
AcDbLine
 62
2
  6
CONTINUOUS
 10
587.9640905121
 20
633.8730753246
 11
588.5754227213
 21
633.8730753246
  0
LINE
  5
2B8
100
AcDbEntity
  8
03___PRT_ALL_CURVES
100
AcDbLine
 62
2
  6
CONTINUOUS
 10
591.7772944499
 20
633.8730753246
 11
593.4080304212
 21
633.8730753246
  0
LINE
  5
2B9
100
AcDbEntity
  8
03___PRT_ALL_CURVES
100
AcDbLine
 62
2
  6
CONTINUOUS
 10
595.0203350849
 20
633.8730753246
 11
595.5703445994
 21
633.8730753246
  0
LINE
  5
2BA
100
AcDbEntity
  8
03___PRT_ALL_CURVES
100
AcDbLine
 62
2
  6
CONTINUOUS
 10
612.6840286569
 20
634.305434808
 11
611.6146710457
 21
634.305434808
  0
LINE
  5
2BB
100
AcDbEntity
  8
03___PRT_ALL_CURVES
100
AcDbLine
 62
2
  6
CONTINUOUS
 10
609.5045500336
 20
634.305434808
 11
608.1730205871
 21
634.305434808
  0
LINE
  5
2BC
100
AcDbEntity
  8
03___PRT_ALL_CURVES
100
AcDbLine
 62
2
  6
CONTINUOUS
 10
600.9217836512
 20
634.305434808
 11
600.6589228568
 21
634.305434808
  0
LINE
  5
2BD
100
AcDbEntity
  8
03___PRT_ALL_CURVES
100
AcDbLine
 62
2
  6
CONTINUOUS
 10
589.7913691574
 20
634.305434808
 11
589.4833776292
 21
634.305434808
  0
LINE
  5
2BE
100
AcDbEntity
  8
03___PRT_ALL_CURVES
100
AcDbLine
 62
2
  6
CONTINUOUS
 10
593.4080303978
 20
634.3099134321
 11
592.3302322804
 21
634.3099134321
  0
LINE
  5
2BF
100
AcDbEntity
  8
03___PRT_ALL_CURVES
100
AcDbLine
 62
2
  6
CONTINUOUS
 10
586.6098234768
 20
634.5028387793
 11
587.7284459905
 21
634.5028387793
  0
LINE
  5
2C0
100
AcDbEntity
  8
03___PRT_ALL_CURVES
100
AcDbLine
 62
2
  6
CONTINUOUS
 10
605.4555293098
 20
634.5031832888
 11
606.5744963626
 21
634.5031832888
  0
LINE
  5
2C1
100
AcDbEntity
  8
03___PRT_ALL_CURVES
100
AcDbLine
 62
2
  6
CONTINUOUS
 10
606.4201560456
 20
634.9355427722
 11
605.6136591636
 21
634.9355427722
  0
LINE
  5
2C2
100
AcDbEntity
  8
03___PRT_ALL_CURVES
100
AcDbLine
 62
2
  6
CONTINUOUS
 10
587.5746224674
 20
634.9400213964
 11
586.7705371764
 21
634.9400213964
  0
LINE
  5
2C3
100
AcDbEntity
  8
03___PRT_ALL_CURVES
100
AcDbLine
 62
2
  6
CONTINUOUS
 10
603.0229473876
 20
635.0140909493
 11
603.2000252938
 21
635.0140909493
  0
LINE
  5
2C4
100
AcDbEntity
  8
03___PRT_ALL_CURVES
100
AcDbLine
 62
2
  6
CONTINUOUS
 10
592.3302322753
 20
635.079203254
 11
593.3129457648
 21
635.079203254
  0
LINE
  5
2C5
100
AcDbEntity
  8
03___PRT_ALL_CURVES
100
AcDbLine
 62
2
  6
CONTINUOUS
 10
600.6589228656
 20
635.1009073555
 11
600.92178366
 21
635.1009073555
  0
LINE
  5
2C6
100
AcDbEntity
  8
03___PRT_ALL_CURVES
100
AcDbLine
 62
2
  6
CONTINUOUS
 10
603.2051929388
 20
635.4464504327
 11
603.0229473961
 21
635.4464504327
  0
LINE
  5
2C7
100
AcDbEntity
  8
03___PRT_ALL_CURVES
100
AcDbLine
 62
2
  6
CONTINUOUS
 10
603.2051929388
 20
635.4509290568
 11
603.0229473961
 21
635.4509290568
  0
LINE
  5
2C8
100
AcDbEntity
  8
03___PRT_ALL_CURVES
100
AcDbLine
 62
2
  6
CONTINUOUS
 10
600.8859546581
 20
635.5101846992
 11
600.6589228614
 21
635.5101846992
  0
LINE
  5
2C9
100
AcDbEntity
  8
03___PRT_ALL_CURVES
100
AcDbLine
 62
2
  6
CONTINUOUS
 10
593.3129457624
 20
635.516385871
 11
592.3302322729
 21
635.516385871
  0
LINE
  5
2CA
100
AcDbEntity
  8
03___PRT_ALL_CURVES
100
AcDbLine
 62
2
  6
CONTINUOUS
 10
592.3302322753
 20
636.1826673379
 11
593.4014847174
 21
636.1826673379
  0
LINE
  5
2CB
100
AcDbEntity
  8
03___PRT_ALL_CURVES
100
AcDbLine
 62
2
  6
CONTINUOUS
 10
603.0229473876
 20
636.1826673379
 11
603.2051929304
 21
636.1826673379
  0
LINE
  5
2CC
100
AcDbEntity
  8
03___PRT_ALL_CURVES
100
AcDbLine
 62
2
  6
CONTINUOUS
 10
589.483377621
 20
636.1895575289
 11
589.7913691493
 21
636.1895575289
  0
LINE
  5
2CD
100
AcDbEntity
  8
03___PRT_ALL_CURVES
100
AcDbLine
 62
2
  6
CONTINUOUS
 10
600.6589228656
 20
636.1895575289
 11
600.8721742748
 21
636.1895575289
  0
LINE
  5
2CE
100
AcDbEntity
  8
03___PRT_ALL_CURVES
100
AcDbLine
 62
2
  6
CONTINUOUS
 10
603.0229473876
 20
636.1895575289
 11
603.2051929304
 21
636.1895575289
  0
LINE
  5
2CF
100
AcDbEntity
  8
03___PRT_ALL_CURVES
100
AcDbLine
 62
2
  6
CONTINUOUS
 10
607.6517776816
 20
636.1895575289
 11
608.8923565505
 21
636.1895575289
  0
LINE
  5
2D0
100
AcDbEntity
  8
03___PRT_ALL_CURVES
100
AcDbLine
 62
2
  6
CONTINUOUS
 10
595.5703445792
 20
636.6195054454
 11
595.0203350647
 21
636.6195054454
  0
LINE
  5
2D1
100
AcDbEntity
  8
03___PRT_ALL_CURVES
100
AcDbLine
 62
2
  6
CONTINUOUS
 10
593.4014847164
 20
636.6195054454
 11
591.7772944205
 21
636.6195054454
  0
LINE
  5
2D2
100
AcDbEntity
  8
03___PRT_ALL_CURVES
100
AcDbLine
 62
2
  6
CONTINUOUS
 10
587.4953852713
 20
636.6195054454
 11
586.8725120193
 21
636.6195054454
  0
LINE
  5
2D3
100
AcDbEntity
  8
03___PRT_ALL_CURVES
100
AcDbLine
 62
2
  6
CONTINUOUS
 10
611.6146710183
 20
636.6222615218
 11
611.0669008567
 21
636.6222615218
  0
LINE
  5
2D4
100
AcDbEntity
  8
03___PRT_ALL_CURVES
100
AcDbLine
 62
2
  6
CONTINUOUS
 10
610.4729663745
 20
636.6222615218
 11
609.9207175816
 21
636.6222615218
  0
LINE
  5
2D5
100
AcDbEntity
  8
03___PRT_ALL_CURVES
100
AcDbLine
 62
2
  6
CONTINUOUS
 10
609.4769892697
 20
636.6222615218
 11
607.6517776434
 21
636.6222615218
  0
LINE
  5
2D6
100
AcDbEntity
  8
03___PRT_ALL_CURVES
100
AcDbLine
 62
2
  6
CONTINUOUS
 10
606.3381627731
 20
636.6222615218
 11
605.7173565568
 21
636.6222615218
  0
LINE
  5
2D7
100
AcDbEntity
  8
03___PRT_ALL_CURVES
100
AcDbLine
 62
2
  6
CONTINUOUS
 10
603.0687671576
 20
636.6222615218
 11
602.4706985931
 21
636.6222615218
  0
LINE
  5
2D8
100
AcDbEntity
  8
03___PRT_ALL_CURVES
100
AcDbLine
 62
2
  6
CONTINUOUS
 10
601.0706117761
 20
636.6222615218
 11
600.1114971813
 21
636.6222615218
  0
LINE
  5
2D9
100
AcDbEntity
  8
03___PRT_ALL_CURVES
100
AcDbLine
 62
2
  6
CONTINUOUS
 10
598.3996292464
 20
636.6222615218
 11
597.8739076966
 21
636.6222615218
  0
LINE
  5
2DA
100
AcDbEntity
  8
03___PRT_ALL_CURVES
100
AcDbLine
 62
2
  6
CONTINUOUS
 10
596.8162633614
 20
636.6222615218
 11
596.1370628069
 21
636.6222615218
  0
LINE
  5
2DB
100
AcDbEntity
  8
03___PRT_ALL_CURVES
100
AcDbLine
 62
2
  6
CONTINUOUS
 10
589.6850879617
 20
636.6222615218
 11
588.9335403507
 21
636.6222615218
  0
LINE
  5
2DC
100
AcDbEntity
  8
03___PRT_ALL_CURVES
100
AcDbLine
 62
2
  6
CONTINUOUS
 10
585.4434864003
 20
636.6222615218
 11
584.5608529642
 21
636.6222615218
  0
LINE
  5
2DD
100
AcDbEntity
  8
03___PRT_ALL_CURVES
100
AcDbLine
 62
2
  6
CONTINUOUS
 10
583.2448264616
 20
636.6222615218
 11
582.3616761987
 21
636.6222615218
  0
LINE
  5
2DE
100
AcDbEntity
  8
03___PRT_ALL_CURVES
100
AcDbLine
 62
2
  6
CONTINUOUS
 10
615.630963335
 20
637.7484632359
 11
579.1332774181
 21
637.7484632359
  0
LINE
  5
2DF
100
AcDbEntity
  8
03___PRT_ALL_CURVES
100
AcDbLine
 62
2
  6
CONTINUOUS
 10
614.2970223631
 20
639.7740071265
 11
613.8026511415
 21
639.7740071265
  0
LINE
  5
2E0
100
AcDbEntity
  8
03___PRT_ALL_CURVES
100
AcDbLine
 62
2
  6
CONTINUOUS
 10
611.4965042431
 20
639.7740071265
 11
610.7788908662
 21
639.7740071265
  0
LINE
  5
2E1
100
AcDbEntity
  8
03___PRT_ALL_CURVES
100
AcDbLine
 62
2
  6
CONTINUOUS
 10
610.3875280064
 20
639.7740071265
 11
609.9951316126
 21
639.7740071265
  0
LINE
  5
2E2
100
AcDbEntity
  8
03___PRT_ALL_CURVES
100
AcDbLine
 62
2
  6
CONTINUOUS
 10
607.9632143135
 20
639.7740071265
 11
607.5763301091
 21
639.7740071265
  0
LINE
  5
2E3
100
AcDbEntity
  8
03___PRT_ALL_CURVES
100
AcDbLine
 62
2
  6
CONTINUOUS
 10
606.5993010109
 20
639.7740071265
 11
606.1559172363
 21
639.7740071265
  0
LINE
  5
2E4
100
AcDbEntity
  8
03___PRT_ALL_CURVES
100
AcDbLine
 62
2
  6
CONTINUOUS
 10
604.3954734289
 20
639.7740071265
 11
603.9520896243
 21
639.7740071265
  0
LINE
  5
2E5
100
AcDbEntity
  8
03___PRT_ALL_CURVES
100
AcDbLine
 62
2
  6
CONTINUOUS
 10
602.2212736682
 20
639.7740071265
 11
601.8288772786
 21
639.7740071265
  0
LINE
  5
2E6
100
AcDbEntity
  8
03___PRT_ALL_CURVES
100
AcDbLine
 62
2
  6
CONTINUOUS
 10
599.7979935039
 20
639.7740071265
 11
599.4114537993
 21
639.7740071265
  0
LINE
  5
2E7
100
AcDbEntity
  8
03___PRT_ALL_CURVES
100
AcDbLine
 62
2
  6
CONTINUOUS
 10
594.6615283902
 20
639.7740071265
 11
594.2384706618
 21
639.7740071265
  0
LINE
  5
2E8
100
AcDbEntity
  8
03___PRT_ALL_CURVES
100
AcDbLine
 62
2
  6
CONTINUOUS
 10
590.1303665532
 20
639.7740071265
 11
589.6359953303
 21
639.7740071265
  0
LINE
  5
2E9
100
AcDbEntity
  8
03___PRT_ALL_CURVES
100
AcDbLine
 62
2
  6
CONTINUOUS
 10
591.0214405004
 20
639.7740071265
 11
590.3288040553
 21
639.7740071265
  0
LINE
  5
2EA
100
AcDbEntity
  8
03___PRT_ALL_CURVES
100
AcDbLine
 62
2
  6
CONTINUOUS
 10
587.330020688
 20
639.7740071265
 11
586.6120628078
 21
639.7740071265
  0
LINE
  5
2EB
100
AcDbEntity
  8
03___PRT_ALL_CURVES
100
AcDbLine
 62
2
  6
CONTINUOUS
 10
586.4804601413
 20
639.7740071265
 11
585.9295893725
 21
639.7740071265
  0
LINE
  5
2EC
100
AcDbEntity
  8
03___PRT_ALL_CURVES
100
AcDbLine
 62
2
  6
CONTINUOUS
 10
584.520373065
 20
639.7740071265
 11
584.1129905043
 21
639.7740071265
  0
LINE
  5
2ED
100
AcDbEntity
  8
03___PRT_ALL_CURVES
100
AcDbLine
 62
2
  6
CONTINUOUS
 10
582.3820022973
 20
639.7740071265
 11
581.9389630335
 21
639.7740071265
  0
LINE
  5
2EE
100
AcDbEntity
  8
03___PRT_ALL_CURVES
100
AcDbLine
 62
2
  6
CONTINUOUS
 10
592.7875687009
 20
640.0794148412
 11
592.4564950181
 21
640.0794148412
  0
LINE
  5
2EF
100
AcDbEntity
  8
03___PRT_ALL_CURVES
100
AcDbLine
 62
2
  6
CONTINUOUS
 10
613.2679723417
 20
640.5834323107
 11
611.7824471269
 21
640.5834323107
  0
LINE
  5
2F0
100
AcDbEntity
  8
03___PRT_ALL_CURVES
100
AcDbLine
 62
2
  6
CONTINUOUS
 10
589.101144277
 20
640.5834323107
 11
587.614930027
 21
640.5834323107
  0
LINE
  5
2F1
100
AcDbEntity
  8
03___PRT_ALL_CURVES
100
AcDbLine
 62
2
  6
CONTINUOUS
 10
584.9940736942
 20
641.1287909261
 11
584.5203730608
 21
641.1287909261
  0
LINE
  5
2F2
100
AcDbEntity
  8
03___PRT_ALL_CURVES
100
AcDbLine
 62
2
  6
CONTINUOUS
 10
587.8443734439
 20
641.2247368353
 11
588.8725621673
 21
641.2247368353
  0
LINE
  5
2F3
100
AcDbEntity
  8
03___PRT_ALL_CURVES
100
AcDbLine
 62
2
  6
CONTINUOUS
 10
612.0112015086
 20
641.2247368353
 11
613.0388734885
 21
641.2247368353
  0
LINE
  5
2F4
100
AcDbEntity
  8
03___PRT_ALL_CURVES
100
AcDbLine
 62
2
  6
CONTINUOUS
 10
584.520373065
 20
641.7539035019
 11
584.9990690831
 21
641.7539035019
  0
LINE
  5
2F5
100
AcDbEntity
  8
03___PRT_ALL_CURVES
100
AcDbLine
 62
2
  6
CONTINUOUS
 10
605.4086760112
 20
642.7882934213
 11
604.3954733904
 21
642.7882934213
  0
LINE
  5
2F6
100
AcDbEntity
  8
03___PRT_ALL_CURVES
100
AcDbLine
 62
2
  6
CONTINUOUS
 10
603.672003377
 20
642.7882934213
 11
602.9392315667
 21
642.7882934213
  0
LINE
  5
2F7
100
AcDbEntity
  8
03___PRT_ALL_CURVES
100
AcDbLine
 62
2
  6
CONTINUOUS
 10
583.3952048795
 20
642.7882934213
 11
582.3820022738
 21
642.7882934213
  0
LINE
  5
2F8
100
AcDbEntity
  8
03___PRT_ALL_CURVES
100
AcDbLine
 62
2
  6
CONTINUOUS
 10
581.6585322454
 20
642.7882934213
 11
580.9257604565
 21
642.7882934213
  0
LINE
  5
2F9
100
AcDbEntity
  8
03___PRT_ALL_CURVES
100
AcDbLine
 62
2
  6
CONTINUOUS
 10
584.9990690827
 20
642.8136148731
 11
584.5203730645
 21
642.8136148731
  0
LINE
  5
2FA
100
AcDbEntity
  8
03___PRT_ALL_CURVES
100
AcDbLine
 62
2
  6
CONTINUOUS
 10
580.645501918
 20
643.4442396017
 11
583.3952048961
 21
643.4442396017
  0
LINE
  5
2FB
100
AcDbEntity
  8
03___PRT_ALL_CURVES
100
AcDbLine
 62
2
  6
CONTINUOUS
 10
583.8332487705
 20
643.4442396017
 11
585.0597027371
 21
643.4442396017
  0
LINE
  5
2FC
100
AcDbEntity
  8
03___PRT_ALL_CURVES
100
AcDbLine
 62
2
  6
CONTINUOUS
 10
588.0174894921
 20
643.4442396017
 11
588.7144323269
 21
643.4442396017
  0
LINE
  5
2FD
100
AcDbEntity
  8
03___PRT_ALL_CURVES
100
AcDbLine
 62
2
  6
CONTINUOUS
 10
590.8989673559
 20
643.4442396017
 11
591.5457840196
 21
643.4442396017
  0
LINE
  5
2FE
100
AcDbEntity
  8
03___PRT_ALL_CURVES
100
AcDbLine
 62
2
  6
CONTINUOUS
 10
593.4500605628
 20
643.4442396017
 11
594.0908483074
 21
643.4442396017
  0
LINE
  5
2FF
100
AcDbEntity
  8
03___PRT_ALL_CURVES
100
AcDbLine
 62
2
  6
CONTINUOUS
 10
599.1303339988
 20
643.4442396017
 11
599.7828350903
 21
643.4442396017
  0
LINE
  5
300
100
AcDbEntity
  8
03___PRT_ALL_CURVES
100
AcDbLine
 62
2
  6
CONTINUOUS
 10
601.5536141632
 20
643.4442396017
 11
602.2212736833
 21
643.4442396017
  0
LINE
  5
301
100
AcDbEntity
  8
03___PRT_ALL_CURVES
100
AcDbLine
 62
2
  6
CONTINUOUS
 10
602.6584562853
 20
643.4442396017
 11
605.4086760273
 21
643.4442396017
  0
LINE
  5
302
100
AcDbEntity
  8
03___PRT_ALL_CURVES
100
AcDbLine
 62
2
  6
CONTINUOUS
 10
605.8772089972
 20
643.4442396017
 11
606.5993010012
 21
643.4442396017
  0
LINE
  5
303
100
AcDbEntity
  8
03___PRT_ALL_CURVES
100
AcDbLine
 62
2
  6
CONTINUOUS
 10
607.2969328466
 20
643.4442396017
 11
607.9484004072
 21
643.4442396017
  0
LINE
  5
304
100
AcDbEntity
  8
03___PRT_ALL_CURVES
100
AcDbLine
 62
2
  6
CONTINUOUS
 10
609.7198685014
 20
643.4442396017
 11
610.3875279888
 21
643.4442396017
  0
LINE
  5
305
100
AcDbEntity
  8
03___PRT_ALL_CURVES
100
AcDbLine
 62
2
  6
CONTINUOUS
 10
612.1844898116
 20
643.4442396017
 11
612.8821216603
 21
643.4442396017
  0
LINE
  5
306
100
AcDbEntity
  8
03___PRT_ALL_CURVES
100
AcDbLine
 62
2
  6
CONTINUOUS
 10
579.1332772547
 20
645.8881903389
 11
615.6309631715
 21
645.8881903389
  0
LINE
  5
307
100
AcDbEntity
  8
02___PRT_ALL_AXES
100
AcDbLine
 62
3
  6
CONTINUOUS
 10
690.6934497109
 20
664.4596903389
 11
690.6934497109
 21
445.9311903389
  0
LINE
  5
308
100
AcDbEntity
  8
02___PRT_ALL_AXES
100
AcDbLine
 62
7
  6
CONTINUOUS
 10
501.6934497109
 20
664.4596903389
 11
693.1934497109
 21
664.4596903389
  0
LINE
  5
309
100
AcDbEntity
  8
02___PRT_ALL_AXES
100
AcDbLine
 62
7
  6
CONTINUOUS
 10
692.4782901238
 20
672.6340018244
 11
693.1934497109
 21
664.4596903389
  0
LINE
  5
30A
100
AcDbEntity
  8
0
100
AcDbLine
 62
7
  6
CONTINUOUS
 10
692.4782901238
 20
672.6340018244
 11
693.1934497109
 21
664.4596903389
  0
LINE
  5
30B
100
AcDbEntity
  8
0
100
AcDbLine
 62
7
  6
CONTINUOUS
 10
692.4782901238
 20
672.6340018244
 11
502.4086092981
 21
672.6340018244
  0
LINE
  5
30C
100
AcDbEntity
  8
0
100
AcDbLine
 62
7
  6
CONTINUOUS
 10
690.4859007277
 20
674.4596903389
 11
504.4009986942
 21
674.4596903389
  0
LINE
  5
30D
100
AcDbEntity
  8
0
100
AcDbLine
 62
7
  6
CONTINUOUS
 10
516.1313320882
 20
675.0128726955
 11
678.7555673337
 21
675.0128726955
  0
LINE
  5
30E
100
AcDbEntity
  8
0
100
AcDbLine
 62
7
  6
CONTINUOUS
 10
673.4317778561
 20
675.8114411172
 11
521.4551215658
 21
675.8114411172
  0
LINE
  5
30F
100
AcDbEntity
  8
0
100
AcDbLine
 62
7
  6
CONTINUOUS
 10
672.2450542327
 20
675.8999502942
 11
522.6418451892
 21
675.8999502942
  0
LINE
  5
310
100
AcDbEntity
  8
0
100
AcDbLine
 62
7
  6
CONTINUOUS
 10
587.1624875079
 20
675.9948564399
 11
607.724411914
 21
675.9948564399
  0
LINE
  5
311
100
AcDbEntity
  8
02___PRT_ALL_AXES
100
AcDbLine
 62
7
  6
CONTINUOUS
 10
521.4551215658
 20
675.8114411172
 11
516.1313320882
 21
675.0128726955
  0
LINE
  5
312
100
AcDbEntity
  8
0
100
AcDbLine
 62
7
  6
CONTINUOUS
 10
521.4551215658
 20
675.8114411172
 11
516.1313320882
 21
675.0128726955
  0
LINE
  5
313
100
AcDbEntity
  8
0
100
AcDbLine
 62
7
  6
CONTINUOUS
 10
508.7143094417
 20
674.4596903389
 11
516.1313320882
 21
675.0128726955
  0
LINE
  5
314
100
AcDbEntity
  8
0
100
AcDbLine
 62
7
  6
CONTINUOUS
 10
522.6418451892
 20
675.8999502942
 11
521.4551215658
 21
675.8114411172
  0
LINE
  5
315
100
AcDbEntity
  8
0
100
AcDbLine
 62
7
  6
CONTINUOUS
 10
582.4835945731
 20
684.9070334586
 11
612.4033048488
 21
684.9070334586
  0
LINE
  5
316
100
AcDbEntity
  8
0
100
AcDbLine
 62
7
  6
CONTINUOUS
 10
581.9742818258
 20
686.0441380326
 11
612.9126175961
 21
686.0441380326
  0
LINE
  5
317
100
AcDbEntity
  8
0
100
AcDbLine
 62
7
  6
CONTINUOUS
 10
686.1725899802
 20
674.4596903389
 11
678.7555673337
 21
675.0128726955
  0
LINE
  5
318
100
AcDbEntity
  8
0
100
AcDbLine
 62
7
  6
CONTINUOUS
 10
672.2450542327
 20
675.8999502942
 11
673.4317778561
 21
675.8114411172
  0
LINE
  5
319
100
AcDbEntity
  8
02___PRT_ALL_AXES
100
AcDbLine
 62
7
  6
CONTINUOUS
 10
673.4317778561
 20
675.8114411172
 11
678.7555673337
 21
675.0128726955
  0
LINE
  5
31A
100
AcDbEntity
  8
0
100
AcDbLine
 62
7
  6
CONTINUOUS
 10
673.4317778561
 20
675.8114411172
 11
678.7555673337
 21
675.0128726955
  0
LINE
  5
31B
100
AcDbEntity
  8
02___PRT_ALL_AXES
100
AcDbLine
 62
7
  6
CONTINUOUS
 10
613.9434497109
 20
687.4596903389
 11
580.9434497109
 21
687.4596903389
  0
LINE
  5
31C
100
AcDbEntity
  8
0
100
AcDbLine
 62
7
  6
CONTINUOUS
 10
580.5875393065
 20
688.5274215524
 11
614.2993601154
 21
688.5274215524
  0
LINE
  5
31D
100
AcDbEntity
  8
0
100
AcDbLine
 62
7
  6
CONTINUOUS
 10
581.7768637018
 20
691.5207093861
 11
613.11003572
 21
691.5207093861
  0
ARC
  5
31E
100
AcDbEntity
  8
0
100
AcDbCircle
 62
7
  6
CONTINUOUS
 10
686.1725899802
 20
724.4596903389
 40
50.0
100
AcDbArc
 50
261.4692343901
 51
270.0
  0
ARC
  5
31F
100
AcDbEntity
  8
0
100
AcDbCircle
 62
7
  6
CONTINUOUS
 10
597.4434497109
 20
662.3346903389
 40
33.125
100
AcDbArc
 50
61.7738113606
 51
118.2261886394
  0
ARC
  5
320
100
AcDbEntity
  8
0
100
AcDbCircle
 62
7
  6
CONTINUOUS
 10
603.5493258204
 20
689.5553724485
 40
10.0
100
AcDbArc
 50
332.3005271919
 51
339.4439547804
  0
ARC
  5
321
100
AcDbEntity
  8
0
100
AcDbCircle
 62
7
  6
CONTINUOUS
 10
591.3375736015
 20
689.5553724485
 40
10.0
100
AcDbArc
 50
200.5560452196
 51
207.6994728081
  0
ARC
  5
322
100
AcDbEntity
  8
0
100
AcDbCircle
 62
7
  6
CONTINUOUS
 10
582.9592475516
 20
689.3179909674
 40
2.5
100
AcDbArc
 50
118.2261886394
 51
198.4349488229
  0
ARC
  5
323
100
AcDbEntity
  8
0
100
AcDbCircle
 62
7
  6
CONTINUOUS
 10
611.9276518703
 20
689.3179909674
 40
2.5
100
AcDbArc
 50
341.5650511771
 51
61.7738113606
  0
ARC
  5
324
100
AcDbEntity
  8
0
100
AcDbCircle
 62
7
  6
CONTINUOUS
 10
504.4009986942
 20
672.4596903389
 40
2.0
100
AcDbArc
 50
90.0
 51
175.0
  0
ARC
  5
325
100
AcDbEntity
  8
0
100
AcDbCircle
 62
7
  6
CONTINUOUS
 10
690.4859007277
 20
672.4596903389
 40
2.0
100
AcDbArc
 50
5.0
 51
90.0
  0
ARC
  5
326
100
AcDbEntity
  8
0
100
AcDbCircle
 62
3
  6
CONTINUOUS
 10
506.0934497109
 20
445.9311903389
 40
1.9
100
AcDbArc
 50
180.0
 51
270.0
  0
ARC
  5
327
100
AcDbEntity
  8
0
100
AcDbCircle
 62
3
  6
CONTINUOUS
 10
688.7934497109
 20
445.9311903389
 40
1.9
100
AcDbArc
 50
270.0
 51
360.0
  0
ARC
  5
328
100
AcDbEntity
  8
0
100
AcDbCircle
 62
7
  6
CONTINUOUS
 10
588.0478854108
 20
676.4596903389
 40
1.0
100
AcDbArc
 50
207.6994728081
 51
214.0882757069
  0
ARC
  5
329
100
AcDbEntity
  8
0
100
AcDbCircle
 62
7
  6
CONTINUOUS
 10
606.8390140111
 20
676.4596903389
 40
1.0
100
AcDbArc
 50
325.9117242237
 51
332.3005271919
  0
CIRCLE
  5
32A
100
AcDbEntity
  8
02___PRT_ALL_AXES
100
AcDbCircle
 62
7
  6
CONTINUOUS
 10
597.4434497109
 20
275.964786713
 40
95.75
  0
ARC
  5
32B
100
AcDbEntity
  8
0
100
AcDbCircle
 62
2
  6
CONTINUOUS
 10
597.4434497109
 20
275.964786713
 40
95.75
100
AcDbArc
 50
180.0
 51
211.4252842953
  0
CIRCLE
  5
32C
100
AcDbEntity
  8
0
100
AcDbCircle
 62
7
  6
CONTINUOUS
 10
597.4434497109
 20
275.964786713
 40
95.0348404129
  0
CIRCLE
  5
32D
100
AcDbEntity
  8
0
100
AcDbCircle
 62
7
  6
CONTINUOUS
 10
597.4434497109
 20
275.964786713
 40
93.0424510167
  0
CIRCLE
  5
32E
100
AcDbEntity
  8
0
100
AcDbCircle
 62
7
  6
CONTINUOUS
 10
597.4434497109
 20
275.964786713
 40
88.7291402693
  0
CIRCLE
  5
32F
100
AcDbEntity
  8
0
100
AcDbCircle
 62
7
  6
CONTINUOUS
 10
597.4434497109
 20
275.964786713
 40
81.3121176228
  0
CIRCLE
  5
330
100
AcDbEntity
  8
0
100
AcDbCircle
 62
7
  6
CONTINUOUS
 10
597.4434497109
 20
275.964786713
 40
75.9883281452
  0
CIRCLE
  5
331
100
AcDbEntity
  8
0
100
AcDbCircle
 62
7
  6
CONTINUOUS
 10
597.4434497109
 20
275.964786713
 40
74.0055747696
  0
CIRCLE
  5
332
100
AcDbEntity
  8
0
100
AcDbCircle
 62
7
  6
CONTINUOUS
 10
597.4434497109
 20
275.964786713
 40
70.496280979
  0
CIRCLE
  5
333
100
AcDbEntity
  8
0
100
AcDbCircle
 62
7
  6
CONTINUOUS
 10
597.4434497109
 20
275.964786713
 40
69.5012437888
  0
CIRCLE
  5
334
100
AcDbEntity
  8
0
100
AcDbCircle
 62
7
  6
CONTINUOUS
 10
597.4434497109
 20
275.964786713
 40
16.9842021594
  0
CIRCLE
  5
335
100
AcDbEntity
  8
0
100
AcDbCircle
 62
7
  6
CONTINUOUS
 10
597.4434497109
 20
275.964786713
 40
15.6665860091
  0
SPLINE
  5
336
100
AcDbEntity
  8
03___PRT_ALL_CURVES
100
AcDbSpline
 62
2
  6
CONTINUOUS
 70
0
 71
3
 72
15
 73
11
 74
0
 42
0.0000001
 43
0.0000001
 44
0.0000000001
 40
0.0
 40
0.0
 40
0.0
 40
0.0
 40
0.1666666667
 40
0.3333333333
 40
0.5
 40
0.6666666667
 40
0.75
 40
0.8333333333
 40
0.9166666667
 40
1.0
 40
1.0
 40
1.0
 40
1.0
 10
602.9392315673
 20
642.7882934213
 30
0.0
 10
602.9134882101
 20
642.7882934213
 30
0.0
 10
602.8631982922
 20
642.791800866
 30
0.0
 10
602.7872654432
 20
642.8114163001
 30
0.0
 10
602.7229478471
 20
642.8507762727
 30
0.0
 10
602.6891847842
 20
642.9041450262
 30
0.0
 10
602.6723494389
 20
642.9525948097
 30
0.0
 10
602.6639696135
 20
642.9908867902
 30
0.0
 10
602.6594111196
 20
643.0293897675
 30
0.0
 10
602.6584562853
 20
643.0545493172
 30
0.0
 10
602.6584562853
 20
643.0675184104
 30
0.0
  0
SPLINE
  5
337
100
AcDbEntity
  8
03___PRT_ALL_CURVES
100
AcDbSpline
 62
2
  6
CONTINUOUS
 70
0
 71
3
 72
13
 73
9
 74
0
 42
0.0000001
 43
0.0000001
 44
0.0000000001
 40
0.0
 40
0.0
 40
0.0
 40
0.0
 40
0.1666666667
 40
0.3333333333
 40
0.5
 40
0.6666666667
 40
0.8333333333
 40
1.0
 40
1.0
 40
1.0
 40
1.0
 10
606.1559172219
 20
639.7740071265
 30
0.0
 10
606.1301808086
 20
639.7740071265
 30
0.0
 10
606.0799435713
 20
639.7776088459
 30
0.0
 10
606.004132465
 20
639.79751199
 30
0.0
 10
605.9402075261
 20
639.8374016951
 30
0.0
 10
605.9004612196
 20
639.9015542275
 30
0.0
 10
605.8807181791
 20
639.9778772188
 30
0.0
 10
605.8772089972
 20
640.028387342
 30
0.0
 10
605.8772089972
 20
640.0542656442
 30
0.0
  0
SPLINE
  5
338
100
AcDbEntity
  8
03___PRT_ALL_CURVES
100
AcDbSpline
 62
2
  6
CONTINUOUS
 70
0
 71
3
 72
17
 73
13
 74
0
 42
0.0000001
 43
0.0000001
 44
0.0000000001
 40
0.0
 40
0.0
 40
0.0
 40
0.0
 40
0.1
 40
0.2
 40
0.25
 40
0.3
 40
0.4
 40
0.5
 40
0.6
 40
0.7
 40
0.8
 40
1.0
 40
1.0
 40
1.0
 40
1.0
 10
613.802651161
 20
639.7740071265
 30
0.0
 10
613.7874184172
 20
639.7740071265
 30
0.0
 10
613.7579117803
 20
639.7756707136
 30
0.0
 10
613.7210170902
 20
639.7818479596
 30
0.0
 10
613.6920705676
 20
639.7894315286
 30
0.0
 10
613.6634731873
 20
639.7989103921
 30
0.0
 10
613.6295219699
 20
639.8141629061
 30
0.0
 10
613.5925389697
 20
639.8382632481
 30
0.0
 10
613.5602826906
 20
639.8684381385
 30
0.0
 10
613.5324217447
 20
639.9032942147
 30
0.0
 10
613.5006415587
 20
639.9547294725
 30
0.0
 10
613.4829469506
 20
639.9953089257
 30
0.0
 10
613.4726110135
 20
640.0237765492
 30
0.0
  0
SPLINE
  5
339
100
AcDbEntity
  8
03___PRT_ALL_CURVES
100
AcDbSpline
 62
2
  6
CONTINUOUS
 70
0
 71
3
 72
16
 73
12
 74
0
 42
0.0000001
 43
0.0000001
 44
0.0000000001
 40
0.0
 40
0.0
 40
0.0
 40
0.0
 40
0.1
 40
0.2
 40
0.3
 40
0.4
 40
0.5
 40
0.6
 40
0.7
 40
0.8
 40
1.0
 40
1.0
 40
1.0
 40
1.0
 10
589.635995351
 20
639.7740071265
 30
0.0
 10
589.6206515922
 20
639.7740071265
 30
0.0
 10
589.5909411683
 20
639.7756860685
 30
0.0
 10
589.5464487268
 20
639.7831264677
 30
0.0
 10
589.5028334079
 20
639.7959896126
 30
0.0
 10
589.4618557333
 20
639.8144273676
 30
0.0
 10
589.424824232
 20
639.8386313519
 30
0.0
 10
589.3925559907
 20
639.8688701818
 30
0.0
 10
589.3647182258
 20
639.9037049184
 30
0.0
 10
589.3329661293
 20
639.9550164484
 30
0.0
 10
589.3152669404
 20
639.9954433079
 30
0.0
 10
589.3049216749
 20
640.0237765492
 30
0.0
  0
SPLINE
  5
33A
100
AcDbEntity
  8
03___PRT_ALL_CURVES
100
AcDbSpline
 62
2
  6
CONTINUOUS
 70
0
 71
3
 72
17
 73
13
 74
0
 42
0.0000001
 43
0.0000001
 44
0.0000000001
 40
0.0
 40
0.0
 40
0.0
 40
0.0
 40
0.1666666667
 40
0.3333333333
 40
0.4166666667
 40
0.5
 40
0.5833333333
 40
0.6666666667
 40
0.75
 40
0.8333333333
 40
0.9166666667
 40
1.0
 40
1.0
 40
1.0
 40
1.0
 10
581.9389630179
 20
639.7740071265
 30
0.0
 10
581.9133584543
 20
639.7740071265
 30
0.0
 10
581.8633077961
 20
639.7774907474
 30
0.0
 10
581.8003286153
 20
639.7936333629
 30
0.0
 10
581.7555824887
 20
639.8164116174
 30
0.0
 10
581.7262887723
 20
639.8390516127
 30
0.0
 10
581.7028865103
 20
639.8679502219
 30
0.0
 10
581.6850955467
 20
639.9016420142
 30
0.0
 10
581.6724043813
 20
639.9382532445
 30
0.0
 10
581.6640158105
 20
639.9769225687
 30
0.0
 10
581.6594771791
 20
640.0157802839
 30
0.0
 10
581.6585322454
 20
640.0411708585
 30
0.0
 10
581.6585322454
 20
640.0542656442
 30
0.0
  0
SPLINE
  5
33B
100
AcDbEntity
  8
03___PRT_ALL_CURVES
100
AcDbSpline
 62
2
  6
CONTINUOUS
 70
0
 71
3
 72
13
 73
9
 74
0
 42
0.0000001
 43
0.0000001
 44
0.0000000001
 40
0.0
 40
0.0
 40
0.0
 40
0.0
 40
0.1666666667
 40
0.3333333333
 40
0.5
 40
0.6666666667
 40
0.8333333333
 40
1.0
 40
1.0
 40
1.0
 40
1.0
 10
599.4114537904
 20
639.7740071265
 30
0.0
 10
599.3855877053
 20
639.7740071265
 30
0.0
 10
599.3350740897
 20
639.7775236152
 30
0.0
 10
599.2587970824
 20
639.7972115116
 30
0.0
 10
599.194342175
 20
639.8369168292
 30
0.0
 10
599.154075536
 20
639.9010952403
 30
0.0
 10
599.1339559549
 20
639.9776152852
 30
0.0
 10
599.1303339988
 20
640.0282903426
 30
0.0
 10
599.1303339988
 20
640.0542656442
 30
0.0
  0
SPLINE
  5
33C
100
AcDbEntity
  8
03___PRT_ALL_CURVES
100
AcDbSpline
 62
2
  6
CONTINUOUS
 70
0
 71
3
 72
17
 73
13
 74
0
 42
0.0000001
 43
0.0000001
 44
0.0000000001
 40
0.0
 40
0.0
 40
0.0
 40
0.0
 40
0.125
 40
0.25
 40
0.375
 40
0.5
 40
0.625
 40
0.6875
 40
0.75
 40
0.8125
 40
0.875
 40
1.0
 40
1.0
 40
1.0
 40
1.0
 10
601.8288772924
 20
639.7740071265
 30
0.0
 10
601.8074242867
 20
639.7740071265
 30
0.0
 10
601.7655202777
 20
639.7770887701
 30
0.0
 10
601.7025184265
 20
639.7900774496
 30
0.0
 10
601.6404039873
 20
639.8113130892
 30
0.0
 10
601.5808431461
 20
639.8403718864
 30
0.0
 10
601.5343007981
 20
639.8710105805
 30
0.0
 10
601.4995785052
 20
639.8994645266
 30
0.0
 10
601.4753330127
 20
639.9225650033
 30
0.0
 10
601.4528475706
 20
639.9472295238
 30
0.0
 10
601.4245215076
 20
639.9820156361
 30
0.0
 10
601.404855269
 20
640.0095740421
 30
0.0
 10
601.3916946753
 20
640.0285996829
 30
0.0
  0
SPLINE
  5
33D
100
AcDbEntity
  8
03___PRT_ALL_CURVES
100
AcDbSpline
 62
2
  6
CONTINUOUS
 70
0
 71
3
 72
17
 73
13
 74
0
 42
0.0000001
 43
0.0000001
 44
0.0000000001
 40
0.0
 40
0.0
 40
0.0
 40
0.0
 40
0.1666666667
 40
0.3333333333
 40
0.4166666667
 40
0.5
 40
0.5833333333
 40
0.6666666667
 40
0.75
 40
0.8333333333
 40
0.9166666667
 40
1.0
 40
1.0
 40
1.0
 40
1.0
 10
580.9257604357
 20
642.7882934213
 30
0.0
 10
580.9002821014
 20
642.7882934213
 30
0.0
 10
580.8504593495
 20
642.7917679839
 30
0.0
 10
580.7877705369
 20
642.8078129647
 30
0.0
 10
580.7431421028
 20
642.8304258058
 30
0.0
 10
580.713851159
 20
642.8528860237
 30
0.0
 10
580.6903437008
 20
642.8816030903
 30
0.0
 10
580.6724250705
 20
642.9151403448
 30
0.0
 10
580.659591491
 20
642.9516571256
 30
0.0
 10
580.6510846933
 20
642.9902649414
 30
0.0
 10
580.6464683238
 20
643.0290652903
 30
0.0
 10
580.645501918
 20
643.0544325197
 30
0.0
 10
580.645501918
 20
643.0675184104
 30
0.0
  0
SPLINE
  5
33E
100
AcDbEntity
  8
03___PRT_ALL_CURVES
100
AcDbSpline
 62
2
  6
CONTINUOUS
 70
0
 71
3
 72
13
 73
9
 74
0
 42
0.0000001
 43
0.0000001
 44
0.0000000001
 40
0.0
 40
0.0
 40
0.0
 40
0.0
 40
0.1666666667
 40
0.3333333333
 40
0.5
 40
0.6666666667
 40
0.8333333333
 40
1.0
 40
1.0
 40
1.0
 40
1.0
 10
607.5763300905
 20
639.7740071265
 30
0.0
 10
607.5506098389
 20
639.7740071265
 30
0.0
 10
607.5003833469
 20
639.7775761839
 30
0.0
 10
607.4245767476
 20
639.7973543562
 30
0.0
 10
607.3604845219
 20
639.8370605681
 30
0.0
 10
607.3204407903
 20
639.9011798747
 30
0.0
 10
607.3004933323
 20
639.9776770389
 30
0.0
 10
607.2969328466
 20
640.0283120386
 30
0.0
 10
607.2969328466
 20
640.0542656442
 30
0.0
  0
SPLINE
  5
33F
100
AcDbEntity
  8
03___PRT_ALL_CURVES
100
AcDbSpline
 62
2
  6
CONTINUOUS
 70
0
 71
3
 72
13
 73
9
 74
0
 42
0.0000001
 43
0.0000001
 44
0.0000000001
 40
0.0
 40
0.0
 40
0.0
 40
0.0
 40
0.1666666667
 40
0.3333333333
 40
0.5
 40
0.6666666667
 40
0.8333333333
 40
1.0
 40
1.0
 40
1.0
 40
1.0
 10
603.95208964
 20
639.7740071265
 30
0.0
 10
603.9262864229
 20
639.7740071265
 30
0.0
 10
603.8759026484
 20
639.7775566131
 30
0.0
 10
603.7998418235
 20
639.7973195401
 30
0.0
 10
603.7356034954
 20
639.837078233
 30
0.0
 10
603.695539972
 20
639.9012443667
 30
0.0
 10
603.6755763619
 20
639.9777044124
 30
0.0
 10
603.672003377
 20
640.0283234163
 30
0.0
 10
603.672003377
 20
640.0542656442
 30
0.0
  0
SPLINE
  5
340
100
AcDbEntity
  8
03___PRT_ALL_CURVES
100
AcDbSpline
 62
2
  6
CONTINUOUS
 70
0
 71
3
 72
17
 73
13
 74
0
 42
0.0000001
 43
0.0000001
 44
0.0000000001
 40
0.0
 40
0.0
 40
0.0
 40
0.0
 40
0.125
 40
0.25
 40
0.375
 40
0.5
 40
0.625
 40
0.6875
 40
0.75
 40
0.8125
 40
0.875
 40
1.0
 40
1.0
 40
1.0
 40
1.0
 10
609.9951316307
 20
639.7740071265
 30
0.0
 10
609.9735393711
 20
639.7740071265
 30
0.0
 10
609.9313921923
 20
639.7771202493
 30
0.0
 10
609.868162043
 20
639.7901926337
 30
0.0
 10
609.805963038
 20
639.8114993626
 30
0.0
 10
609.7464099499
 20
639.8406005697
 30
0.0
 10
609.6999299042
 20
639.8712471616
 30
0.0
 10
609.6652783924
 20
639.8996924156
 30
0.0
 10
609.6410901128
 20
639.9227854297
 30
0.0
 10
609.6186597863
 20
639.9474333355
 30
0.0
 10
609.5903992475
 20
639.9821706338
 30
0.0
 10
609.5707620098
 20
640.0096537843
 30
0.0
 10
609.557604504
 20
640.0285996828
 30
0.0
  0
SPLINE
  5
341
100
AcDbEntity
  8
03___PRT_ALL_CURVES
100
AcDbSpline
 62
2
  6
CONTINUOUS
 70
0
 71
3
 72
17
 73
13
 74
0
 42
0.0000001
 43
0.0000001
 44
0.0000000001
 40
0.0
 40
0.0
 40
0.0
 40
0.0
 40
0.1
 40
0.2
 40
0.3
 40
0.4
 40
0.5
 40
0.6
 40
0.7
 40
0.8
 40
0.9
 40
1.0
 40
1.0
 40
1.0
 40
1.0
 10
585.0597027632
 20
643.4442396017
 30
0.0
 10
585.1139469531
 20
643.4442396017
 30
0.0
 10
585.2219228213
 20
643.4381094283
 30
0.0
 10
585.3836372316
 20
643.4107013087
 30
0.0
 10
585.5412326399
 20
643.3646145575
 30
0.0
 10
585.6909831322
 20
643.299170995
 30
0.0
 10
585.8293188852
 20
643.2139112953
 30
0.0
 10
585.9582378212
 20
643.1012338742
 30
0.0
 10
586.07159034
 20
642.9551825712
 30
0.0
 10
586.1659512048
 20
642.776577623
 30
0.0
 10
586.2383638772
 20
642.5514359306
 30
0.0
 10
586.2606630494
 20
642.371322683
 30
0.0
 10
586.2606630494
 20
642.2735961558
 30
0.0
  0
SPLINE
  5
342
100
AcDbEntity
  8
03___PRT_ALL_CURVES
100
AcDbSpline
 62
2
  6
CONTINUOUS
 70
0
 71
3
 72
26
 73
22
 74
0
 42
0.0000001
 43
0.0000001
 44
0.0000000001
 40
0.0
 40
0.0
 40
0.0
 40
0.0
 40
0.0909090909
 40
0.1363636364
 40
0.1818181818
 40
0.2272727273
 40
0.2727272727
 40
0.3181818182
 40
0.3636363636
 40
0.4090909091
 40
0.4545454545
 40
0.5454545455
 40
0.5909090909
 40
0.6363636364
 40
0.6818181818
 40
0.7272727273
 40
0.7727272727
 40
0.8181818182
 40
0.8636363636
 40
0.9090909091
 40
1.0
 40
1.0
 40
1.0
 40
1.0
 10
584.9990690827
 20
641.7539035019
 30
0.0
 10
585.057853491
 20
641.7539035019
 30
0.0
 10
585.1405906281
 20
641.7629415353
 30
0.0
 10
585.2415113074
 20
641.7922571754
 30
0.0
 10
585.3113409769
 20
641.8229809861
 30
0.0
 10
585.374493495
 20
641.8632140514
 30
0.0
 10
585.4294514121
 20
641.9134721439
 30
0.0
 10
585.4769864033
 20
641.9744670319
 30
0.0
 10
585.5135009318
 20
642.0435585045
 30
0.0
 10
585.5375727602
 20
642.118697123
 30
0.0
 10
585.5554924857
 20
642.2242178778
 30
0.0
 10
585.5552211079
 20
642.3381188988
 30
0.0
 10
585.5371074964
 20
642.4442241748
 30
0.0
 10
585.513173849
 20
642.5200516799
 30
0.0
 10
585.4768145104
 20
642.5900599503
 30
0.0
 10
585.429389078
 20
642.6520332509
 30
0.0
 10
585.37427334
 20
642.7032383012
 30
0.0
 10
585.310789973
 20
642.7441343619
 30
0.0
 10
585.2407294263
 20
642.775233385
 30
0.0
 10
585.139673097
 20
642.804736752
 30
0.0
 10
585.0573950396
 20
642.8136148731
 30
0.0
 10
584.9990690827
 20
642.8136148731
 30
0.0
  0
SPLINE
  5
343
100
AcDbEntity
  8
03___PRT_ALL_CURVES
100
AcDbSpline
 62
2
  6
CONTINUOUS
 70
0
 71
3
 72
13
 73
9
 74
0
 42
0.0000001
 43
0.0000001
 44
0.0000000001
 40
0.0
 40
0.0
 40
0.0
 40
0.0
 40
0.1666666667
 40
0.3333333333
 40
0.5
 40
0.6666666667
 40
0.8333333333
 40
1.0
 40
1.0
 40
1.0
 40
1.0
 10
584.1129905239
 20
639.7740071265
 30
0.0
 10
584.0873318616
 20
639.7740071265
 30
0.0
 10
584.037198052
 20
639.7775302907
 30
0.0
 10
583.9615500746
 20
639.7970915966
 30
0.0
 10
583.8972983239
 20
639.8364598122
 30
0.0
 10
583.8569246787
 20
639.9005384391
 30
0.0
 10
583.8368271515
 20
639.9773567895
 30
0.0
 10
583.8332487705
 20
640.0281930937
 30
0.0
 10
583.8332487705
 20
640.0542656442
 30
0.0
  0
SPLINE
  5
344
100
AcDbEntity
  8
03___PRT_ALL_CURVES
100
AcDbSpline
 62
2
  6
CONTINUOUS
 70
0
 71
3
 72
16
 73
12
 74
0
 42
0.0000001
 43
0.0000001
 44
0.0000000001
 40
0.0
 40
0.0
 40
0.0
 40
0.0
 40
0.125
 40
0.25
 40
0.3125
 40
0.375
 40
0.5
 40
0.625
 40
0.75
 40
0.875
 40
1.0
 40
1.0
 40
1.0
 40
1.0
 10
585.9295893732
 20
639.7740071265
 30
0.0
 10
585.9110984887
 20
639.7740071265
 30
0.0
 10
585.8755137408
 20
639.7752992298
 30
0.0
 10
585.8306949821
 20
639.7811060968
 30
0.0
 10
585.7955486608
 20
639.7890620162
 30
0.0
 10
585.760881281
 20
639.7995973068
 30
0.0
 10
585.7200057724
 20
639.817764324
 30
0.0
 10
585.6760163546
 20
639.8496168118
 30
0.0
 10
585.6376409927
 20
639.8893519801
 30
0.0
 10
585.6052247414
 20
639.9340590317
 30
0.0
 10
585.5872375412
 20
639.9658513661
 30
0.0
 10
585.5787063981
 20
639.9829521677
 30
0.0
  0
SPLINE
  5
345
100
AcDbEntity
  8
03___PRT_ALL_CURVES
100
AcDbSpline
 62
2
  6
CONTINUOUS
 70
0
 71
3
 72
22
 73
18
 74
0
 42
0.0000001
 43
0.0000001
 44
0.0000000001
 40
0.0
 40
0.0
 40
0.0
 40
0.0
 40
0.0666666667
 40
0.1333333333
 40
0.2
 40
0.2666666667
 40
0.3333333333
 40
0.4
 40
0.4666666667
 40
0.5333333333
 40
0.6
 40
0.6666666667
 40
0.7333333333
 40
0.8
 40
0.8666666667
 40
0.9333333333
 40
1.0
 40
1.0
 40
1.0
 40
1.0
 10
598.6629599013
 20
641.582489842
 30
0.0
 10
598.6609315858
 20
641.4490759524
 30
0.0
 10
598.6301391063
 20
641.1889634107
 30
0.0
 10
598.5028347589
 20
640.8118607194
 30
0.0
 10
598.2988566702
 20
640.469036368
 30
0.0
 10
598.0281182112
 20
640.1745565229
 30
0.0
 10
597.6972305741
 20
639.9396756919
 30
0.0
 10
597.3301208757
 20
639.7812185608
 30
0.0
 10
596.9431558023
 20
639.7030866092
 30
0.0
 10
596.5463518595
 20
639.7047749442
 30
0.0
 10
596.1600539336
 20
639.7879739324
 30
0.0
 10
595.8007819881
 20
639.950894264
 30
0.0
 10
595.4821499062
 20
640.1848997511
 30
0.0
 10
595.2176389765
 20
640.4804092997
 30
0.0
 10
595.0192939958
 20
640.8255044835
 30
0.0
 10
594.8969933479
 20
641.2066761645
 30
0.0
 10
594.8696431291
 20
641.4682709435
 30
0.0
 10
594.8697844122
 20
641.6023193005
 30
0.0
  0
SPLINE
  5
346
100
AcDbEntity
  8
03___PRT_ALL_CURVES
100
AcDbSpline
 62
2
  6
CONTINUOUS
 70
0
 71
3
 72
26
 73
22
 74
0
 42
0.0000001
 43
0.0000001
 44
0.0000000001
 40
0.0
 40
0.0
 40
0.0
 40
0.0
 40
0.0333333333
 40
0.0666666667
 40
0.1
 40
0.1333333333
 40
0.2
 40
0.2666666667
 40
0.3333333333
 40
0.4
 40
0.4666666667
 40
0.5333333333
 40
0.6
 40
0.6666666667
 40
0.7333333333
 40
0.8
 40
0.8666666667
 40
0.9
 40
0.9333333333
 40
0.9666666667
 40
1.0
 40
1.0
 40
1.0
 40
1.0
 10
594.8697844122
 20
641.6023193005
 30
0.0
 10
594.8698556599
 20
641.6699184852
 30
0.0
 10
594.8769369594
 20
641.8015939559
 30
0.0
 10
594.9072898255
 20
641.9995109334
 30
0.0
 10
594.9583263083
 20
642.1921063258
 30
0.0
 10
595.0530023856
 20
642.439498249
 30
0.0
 10
595.2194119237
 20
642.7292061516
 30
0.0
 10
595.4873132267
 20
643.0288243108
 30
0.0
 10
595.8139074537
 20
643.267350631
 30
0.0
 10
596.1829039425
 20
643.4323070967
 30
0.0
 10
596.5789676329
 20
643.5149186814
 30
0.0
 10
596.9801365363
 20
643.5132666449
 30
0.0
 10
597.3672634207
 20
643.4297883307
 30
0.0
 10
597.7335568133
 20
643.263188008
 30
0.0
 10
598.0584357294
 20
643.0216955853
 30
0.0
 10
598.3244519159
 20
642.719205055
 30
0.0
 10
598.4895882816
 20
642.4251140675
 30
0.0
 10
598.5818931658
 20
642.17511203
 30
0.0
 10
598.6308616741
 20
641.9808943416
 30
0.0
 10
598.6588782722
 20
641.7826043301
 30
0.0
 10
598.6639886384
 20
641.6501557531
 30
0.0
 10
598.6629599013
 20
641.582489842
 30
0.0
  0
SPLINE
  5
347
100
AcDbEntity
  8
03___PRT_ALL_CURVES
100
AcDbSpline
 62
2
  6
CONTINUOUS
 70
0
 71
3
 72
24
 73
20
 74
0
 42
0.0000001
 43
0.0000001
 44
0.0000000001
 40
0.0
 40
0.0
 40
0.0
 40
0.0
 40
0.0357142857
 40
0.0714285714
 40
0.1071428571
 40
0.1428571429
 40
0.1785714286
 40
0.2142857143
 40
0.2857142857
 40
0.3571428571
 40
0.4285714286
 40
0.5
 40
0.5714285714
 40
0.6428571429
 40
0.7142857143
 40
0.7857142857
 40
0.8571428571
 40
0.9285714286
 40
1.0
 40
1.0
 40
1.0
 40
1.0
 10
597.9190376162
 20
641.6079634239
 30
0.0
 10
597.918981013
 20
641.6595988234
 30
0.0
 10
597.9123854354
 20
641.7603430346
 30
0.0
 10
597.8844211017
 20
641.9107965629
 30
0.0
 10
597.8369996693
 20
642.0608770235
 30
0.0
 10
597.7715086564
 20
642.201638693
 30
0.0
 10
597.6912463569
 20
642.3291109522
 30
0.0
 10
597.5670289065
 20
642.4813550762
 30
0.0
 10
597.3877988225
 20
642.6340802255
 30
0.0
 10
597.1557041666
 20
642.7513175618
 30
0.0
 10
596.917257302
 20
642.8115401041
 30
0.0
 10
596.6722167395
 20
642.8191208342
 30
0.0
 10
596.4272094821
 20
642.7702375592
 30
0.0
 10
596.2003670506
 20
642.6695921824
 30
0.0
 10
596.002333618
 20
642.5222513027
 30
0.0
 10
595.8363200616
 20
642.3348510865
 30
0.0
 10
595.7099127899
 20
642.1130219702
 30
0.0
 10
595.6314952021
 20
641.8647717777
 30
0.0
 10
595.6130558388
 20
641.6941128549
 30
0.0
 10
595.6130637632
 20
641.6064534151
 30
0.0
  0
SPLINE
  5
348
100
AcDbEntity
  8
03___PRT_ALL_CURVES
100
AcDbSpline
 62
2
  6
CONTINUOUS
 70
0
 71
3
 72
25
 73
21
 74
0
 42
0.0000001
 43
0.0000001
 44
0.0000000001
 40
0.0
 40
0.0
 40
0.0
 40
0.0
 40
0.0714285714
 40
0.1428571429
 40
0.2142857143
 40
0.2857142857
 40
0.3571428571
 40
0.4285714286
 40
0.5
 40
0.5714285714
 40
0.6428571429
 40
0.7142857143
 40
0.75
 40
0.7857142857
 40
0.8214285714
 40
0.8571428571
 40
0.8928571429
 40
0.9285714286
 40
0.9642857143
 40
1.0
 40
1.0
 40
1.0
 40
1.0
 10
595.6130637632
 20
641.6064534151
 30
0.0
 10
595.6130716957
 20
641.518703809
 30
0.0
 10
595.6315897564
 20
641.3483334763
 30
0.0
 10
595.7096093042
 20
641.1022640706
 30
0.0
 10
595.8344590227
 20
640.8833222269
 30
0.0
 10
595.9996579205
 20
640.6969309483
 30
0.0
 10
596.1977250903
 20
640.5496342255
 30
0.0
 10
596.4274854132
 20
640.4483875692
 30
0.0
 10
596.6710849351
 20
640.4005588238
 30
0.0
 10
596.9137716586
 20
640.4072071684
 30
0.0
 10
597.1551063367
 20
640.4668383171
 30
0.0
 10
597.350501544
 20
640.5648696465
 30
0.0
 10
597.4978769873
 20
640.6765429406
 30
0.0
 10
597.6006235901
 20
640.7755501295
 30
0.0
 10
597.6953473314
 20
640.891750038
 30
0.0
 10
597.7760431721
 20
641.0213219636
 30
0.0
 10
597.8401478867
 20
641.1614922489
 30
0.0
 10
597.886159187
 20
641.3100590482
 30
0.0
 10
597.9129841078
 20
641.4585332814
 30
0.0
 10
597.9190930485
 20
641.5573962968
 30
0.0
 10
597.9190376162
 20
641.6079634239
 30
0.0
  0
SPLINE
  5
349
100
AcDbEntity
  8
03___PRT_ALL_CURVES
100
AcDbSpline
 62
2
  6
CONTINUOUS
 70
0
 71
3
 72
43
 73
39
 74
0
 42
0.0000001
 43
0.0000001
 44
0.0000000001
 40
0.0
 40
0.0
 40
0.0
 40
0.0
 40
0.0384615385
 40
0.0769230769
 40
0.1153846154
 40
0.1538461538
 40
0.1923076923
 40
0.2307692308
 40
0.2692307692
 40
0.3076923077
 40
0.3461538462
 40
0.3846153846
 40
0.4230769231
 40
0.4615384615
 40
0.5
 40
0.5384615385
 40
0.5769230769
 40
0.6153846154
 40
0.6346153846
 40
0.6538461538
 40
0.6730769231
 40
0.6923076923
 40
0.7307692308
 40
0.7692307692
 40
0.8076923077
 40
0.8269230769
 40
0.8461538462
 40
0.8653846154
 40
0.8846153846
 40
0.9038461538
 40
0.9230769231
 40
0.9423076923
 40
0.9519230769
 40
0.9615384615
 40
0.9711538462
 40
0.9807692308
 40
0.9903846154
 40
1.0
 40
1.0
 40
1.0
 40
1.0
 10
582.8891203527
 20
633.8706637577
 30
0.0
 10
582.8891203527
 20
633.9372380936
 30
0.0
 10
582.8892442245
 20
634.0658694944
 30
0.0
 10
582.889310133
 20
634.2448699242
 30
0.0
 10
582.889028313
 20
634.4111088799
 30
0.0
 10
582.8887792547
 20
634.5653310671
 30
0.0
 10
582.8887558882
 20
634.7084200302
 30
0.0
 10
582.8890912466
 20
634.8412379087
 30
0.0
 10
582.8898242118
 20
634.9645051239
 30
0.0
 10
582.8910604841
 20
635.0788951242
 30
0.0
 10
582.8922283271
 20
635.1851151141
 30
0.0
 10
582.8927045351
 20
635.2836230016
 30
0.0
 10
582.8922488083
 20
635.3748665858
 30
0.0
 10
582.8905766407
 20
635.4593611132
 30
0.0
 10
582.8884509675
 20
635.5376656753
 30
0.0
 10
582.8871697783
 20
635.6101988461
 30
0.0
 10
582.88737475
 20
635.677329251
 30
0.0
 10
582.8891463581
 20
635.7289315267
 30
0.0
 10
582.8916187037
 20
635.7678322431
 30
0.0
 10
582.8940453334
 20
635.7957666793
 30
0.0
 10
582.8968511256
 20
635.8225080206
 30
0.0
 10
582.9005446939
 20
635.8567472672
 30
0.0
 10
582.904328143
 20
635.8971760097
 30
0.0
 10
582.9059815101
 20
635.9420891227
 30
0.0
 10
582.9045832342
 20
635.976494024
 30
0.0
 10
582.9019817188
 20
636.0020404467
 30
0.0
 10
582.8993467666
 20
636.0203906624
 30
0.0
 10
582.8961669971
 20
636.0377261522
 30
0.0
 10
582.8923725701
 20
636.0545095447
 30
0.0
 10
582.888602242
 20
636.0709127541
 30
0.0
 10
582.8855823748
 20
636.0867043646
 30
0.0
 10
582.8841813229
 20
636.100690708
 30
0.0
 10
582.884515679
 20
636.1113490988
 30
0.0
 10
582.8855571121
 20
636.1186361121
 30
0.0
 10
582.8873800678
 20
636.1252355718
 30
0.0
 10
582.8900739072
 20
636.1313416047
 30
0.0
 10
582.8936457456
 20
636.1368538781
 30
0.0
 10
582.89663021
 20
636.1401427339
 30
0.0
 10
582.8982498558
 20
636.1416707016
 30
0.0
  0
SPLINE
  5
34A
100
AcDbEntity
  8
03___PRT_ALL_CURVES
100
AcDbSpline
 62
2
  6
CONTINUOUS
 70
0
 71
3
 72
62
 73
58
 74
0
 42
0.0000001
 43
0.0000001
 44
0.0000000001
 40
0.0
 40
0.0
 40
0.0
 40
0.0
 40
0.0277777778
 40
0.0555555556
 40
0.0833333333
 40
0.1111111111
 40
0.1388888889
 40
0.1666666667
 40
0.1944444444
 40
0.2222222222
 40
0.25
 40
0.2777777778
 40
0.3055555556
 40
0.3333333333
 40
0.3611111111
 40
0.3888888889
 40
0.4166666667
 40
0.4444444444
 40
0.4722222222
 40
0.5
 40
0.5277777778
 40
0.5555555556
 40
0.5833333333
 40
0.6111111111
 40
0.6388888889
 40
0.6666666667
 40
0.6944444444
 40
0.7222222222
 40
0.75
 40
0.7777777778
 40
0.7916666667
 40
0.8055555556
 40
0.8194444444
 40
0.8333333333
 40
0.8472222222
 40
0.8611111111
 40
0.8888888889
 40
0.9027777778
 40
0.9166666667
 40
0.9236111111
 40
0.9305555556
 40
0.9375
 40
0.9444444444
 40
0.9513888889
 40
0.9583333333
 40
0.9652777778
 40
0.9722222222
 40
0.9756944444
 40
0.9791666667
 40
0.9826388889
 40
0.9861111111
 40
0.9895833333
 40
0.9930555556
 40
0.9947916667
 40
0.9965277778
 40
0.9982638889
 40
1.0
 40
1.0
 40
1.0
 40
1.0
 10
584.1662172491
 20
633.8706637577
 30
0.0
 10
584.1859930623
 20
633.9312832234
 30
0.0
 10
584.2242402989
 20
634.0483959483
 30
0.0
 10
584.2774928701
 20
634.2113458111
 30
0.0
 10
584.3269282308
 20
634.3627014962
 30
0.0
 10
584.3728131824
 20
634.5031594432
 30
0.0
 10
584.4154400045
 20
634.6335246822
 30
0.0
 10
584.4550841696
 20
634.7545930378
 30
0.0
 10
584.4919590753
 20
634.8669924563
 30
0.0
 10
584.5262627725
 20
634.9713316337
 30
0.0
 10
584.5581937917
 20
635.0681986828
 30
0.0
 10
584.5878599471
 20
635.1581063746
 30
0.0
 10
584.6153771702
 20
635.2416096003
 30
0.0
 10
584.6408573782
 20
635.3191565892
 30
0.0
 10
584.6644229234
 20
635.3911668524
 30
0.0
 10
584.6861875281
 20
635.4580530315
 30
0.0
 10
584.7063409374
 20
635.5201541396
 30
0.0
 10
584.7251044951
 20
635.5777862567
 30
0.0
 10
584.7426346161
 20
635.6312486677
 30
0.0
 10
584.7590509837
 20
635.680801028
 30
0.0
 10
584.7744616312
 20
635.7267205812
 30
0.0
 10
584.7889362259
 20
635.7692529322
 30
0.0
 10
584.8025875626
 20
635.8086379511
 30
0.0
 10
584.815269256
 20
635.8451702613
 30
0.0
 10
584.82674775
 20
635.8791343205
 30
0.0
 10
584.8369571705
 20
635.9106907404
 30
0.0
 10
584.8458816946
 20
635.9401183336
 30
0.0
 10
584.8537969714
 20
635.9675061102
 30
0.0
 10
584.8614530577
 20
635.9927663306
 30
0.0
 10
584.8679456544
 20
636.012006133
 30
0.0
 10
584.873410925
 20
636.0263835794
 30
0.0
 10
584.8776496943
 20
636.0365875968
 30
0.0
 10
584.8820999997
 20
636.0462477012
 30
0.0
 10
584.8866711138
 20
636.0552847119
 30
0.0
 10
584.8910351416
 20
636.0639465312
 30
0.0
 10
584.8962926365
 20
636.0752004464
 30
0.0
 10
584.9003710418
 20
636.0862059647
 30
0.0
 10
584.9031456734
 20
636.0968482106
 30
0.0
 10
584.904409711
 20
636.1033458609
 30
0.0
 10
584.9051626471
 20
636.1083437711
 30
0.0
 10
584.9056119014
 20
636.1119773666
 30
0.0
 10
584.9059668089
 20
636.1155602482
 30
0.0
 10
584.9062352316
 20
636.1191800511
 30
0.0
 10
584.9064769677
 20
636.1227431522
 30
0.0
 10
584.90675298
 20
636.1261569204
 30
0.0
 10
584.9071277715
 20
636.1294731916
 30
0.0
 10
584.9075890446
 20
636.1321687715
 30
0.0
 10
584.9081146099
 20
636.1342777868
 30
0.0
 10
584.9086081839
 20
636.1358107741
 30
0.0
 10
584.9092374614
 20
636.1372927236
 30
0.0
 10
584.91005677
 20
636.1387024772
 30
0.0
 10
584.9111411466
 20
636.1399819893
 30
0.0
 10
584.912307795
 20
636.1408198502
 30
0.0
 10
584.9133561872
 20
636.1412778958
 30
0.0
 10
584.9141777354
 20
636.1415124656
 30
0.0
 10
584.9150175798
 20
636.14164396
 30
0.0
 10
584.915585302
 20
636.1416706569
 30
0.0
 10
584.9158700267
 20
636.1416707016
 30
0.0
  0
SPLINE
  5
34B
100
AcDbEntity
  8
03___PRT_ALL_CURVES
100
AcDbSpline
 62
2
  6
CONTINUOUS
 70
0
 71
3
 72
60
 73
56
 74
0
 42
0.0000001
 43
0.0000001
 44
0.0000000001
 40
0.0
 40
0.0
 40
0.0
 40
0.0
 40
0.0285714286
 40
0.0571428571
 40
0.0857142857
 40
0.1142857143
 40
0.1428571429
 40
0.1714285714
 40
0.2
 40
0.2285714286
 40
0.2571428571
 40
0.2857142857
 40
0.3142857143
 40
0.3428571429
 40
0.3714285714
 40
0.4
 40
0.4285714286
 40
0.4571428571
 40
0.4857142857
 40
0.5142857143
 40
0.5428571429
 40
0.5714285714
 40
0.6
 40
0.6285714286
 40
0.6571428571
 40
0.6857142857
 40
0.7142857143
 40
0.7428571429
 40
0.7714285714
 40
0.8
 40
0.8142857143
 40
0.8285714286
 40
0.8428571429
 40
0.8571428571
 40
0.8857142857
 40
0.9
 40
0.9142857143
 40
0.9285714286
 40
0.9428571429
 40
0.9571428571
 40
0.9642857143
 40
0.9678571429
 40
0.9714285714
 40
0.975
 40
0.9785714286
 40
0.9821428571
 40
0.9857142857
 40
0.9875
 40
0.9892857143
 40
0.9910714286
 40
0.9928571429
 40
0.9946428571
 40
0.9964285714
 40
0.9982142857
 40
1.0
 40
1.0
 40
1.0
 40
1.0
 10
584.5608529369
 20
636.6222615218
 30
0.0
 10
584.5433988673
 20
636.5666289715
 30
0.0
 10
584.5096356563
 20
636.4591227568
 30
0.0
 10
584.4626045251
 20
636.3094513452
 30
0.0
 10
584.4189234956
 20
636.1703457063
 30
0.0
 10
584.3783566379
 20
636.0411719543
 30
0.0
 10
584.3406454765
 20
635.9211952554
 30
0.0
 10
584.3055509091
 20
635.809701961
 30
0.0
 10
584.27288996
 20
635.7061357501
 30
0.0
 10
584.2424843539
 20
635.6099284274
 30
0.0
 10
584.2141655729
 20
635.5205642535
 30
0.0
 10
584.1878399208
 20
635.4375626104
 30
0.0
 10
584.1634098392
 20
635.3604181684
 30
0.0
 10
584.1407846803
 20
635.2887387913
 30
0.0
 10
584.1198542247
 20
635.2221305239
 30
0.0
 10
584.1005228642
 20
635.1602244893
 30
0.0
 10
584.0826089386
 20
635.1027097894
 30
0.0
 10
584.065911988
 20
635.0492970375
 30
0.0
 10
584.0502959375
 20
634.999729658
 30
0.0
 10
584.0356477294
 20
634.9537521289
 30
0.0
 10
584.0218748152
 20
634.9111216992
 30
0.0
 10
584.0089167918
 20
634.8716165493
 30
0.0
 10
583.996674329
 20
634.8350142894
 30
0.0
 10
583.9853774422
 20
634.8010525401
 30
0.0
 10
583.9752271963
 20
634.7694658632
 30
0.0
 10
583.9662607401
 20
634.7400812606
 30
0.0
 10
583.9585185573
 20
634.7126195656
 30
0.0
 10
583.9514760258
 20
634.687153736
 30
0.0
 10
583.9444544605
 20
634.6637048327
 30
0.0
 10
583.9383009299
 20
634.6458988812
 30
0.0
 10
583.9329912061
 20
634.6326227834
 30
0.0
 10
583.9288038332
 20
634.6232872308
 30
0.0
 10
583.9244730566
 20
634.6145414743
 30
0.0
 10
583.9189852577
 20
634.6033379048
 30
0.0
 10
583.9144417145
 20
634.5923951317
 30
0.0
 10
583.9113223619
 20
634.5817257073
 30
0.0
 10
583.9096215473
 20
634.5738397757
 30
0.0
 10
583.9085282126
 20
634.5664117077
 30
0.0
 10
583.907886014
 20
634.5591163984
 30
0.0
 10
583.9076524855
 20
634.5532096023
 30
0.0
 10
583.9073689154
 20
634.5492909926
 30
0.0
 10
583.9071319011
 20
634.5470728692
 30
0.0
 10
583.9069004024
 20
634.5454163487
 30
0.0
 10
583.9065973335
 20
634.5437793851
 30
0.0
 10
583.9062022461
 20
634.5421866946
 30
0.0
 10
583.9056794494
 20
634.5406389499
 30
0.0
 10
583.9050903245
 20
634.5393976778
 30
0.0
 10
583.9044833614
 20
634.5384604345
 30
0.0
 10
583.9039484039
 20
634.5378016656
 30
0.0
 10
583.9033264563
 20
634.5372097396
 30
0.0
 10
583.9026208352
 20
634.5367125194
 30
0.0
 10
583.9018498782
 20
634.5363329703
 30
0.0
 10
583.9010412886
 20
634.5360784209
 30
0.0
 10
583.9002199986
 20
634.5359391394
 30
0.0
 10
583.8996693612
 20
634.5359118098
 30
0.0
 10
583.8993946038
 20
634.5359116959
 30
0.0
  0
SPLINE
  5
34C
100
AcDbEntity
  8
03___PRT_ALL_CURVES
100
AcDbSpline
 62
2
  6
CONTINUOUS
 70
0
 71
3
 72
48
 73
44
 74
0
 42
0.0000001
 43
0.0000001
 44
0.0000000001
 40
0.0
 40
0.0
 40
0.0
 40
0.0
 40
0.0357142857
 40
0.0714285714
 40
0.1071428571
 40
0.1428571429
 40
0.1785714286
 40
0.2142857143
 40
0.25
 40
0.2857142857
 40
0.3214285714
 40
0.3571428571
 40
0.3928571429
 40
0.4285714286
 40
0.4642857143
 40
0.5
 40
0.5357142857
 40
0.5714285714
 40
0.5892857143
 40
0.6071428571
 40
0.625
 40
0.6428571429
 40
0.6607142857
 40
0.6785714286
 40
0.7142857143
 40
0.75
 40
0.7857142857
 40
0.8214285714
 40
0.8392857143
 40
0.8571428571
 40
0.875
 40
0.8928571429
 40
0.9107142857
 40
0.9285714286
 40
0.9464285714
 40
0.9553571429
 40
0.9642857143
 40
0.9732142857
 40
0.9821428571
 40
0.9866071429
 40
0.9910714286
 40
0.9955357143
 40
1.0
 40
1.0
 40
1.0
 40
1.0
 10
586.7705371812
 20
634.9400213964
 30
0.0
 10
586.7820134637
 20
634.9725077988
 30
0.0
 10
586.8042654651
 20
635.0352538864
 30
0.0
 10
586.8351788983
 20
635.1226035482
 30
0.0
 10
586.8636807121
 20
635.2038225177
 30
0.0
 10
586.8901236762
 20
635.2791927096
 30
0.0
 10
586.914784592
 20
635.3491115618
 30
0.0
 10
586.9378941108
 20
635.4139690798
 30
0.0
 10
586.9595966854
 20
635.4740859864
 30
0.0
 10
586.9800716835
 20
635.5297651981
 30
0.0
 10
586.9991963137
 20
635.581392285
 30
0.0
 10
587.016639279
 20
635.6293755809
 30
0.0
 10
587.0322991685
 20
635.6739967934
 30
0.0
 10
587.0461724463
 20
635.7155786486
 30
0.0
 10
587.058424022
 20
635.7543546653
 30
0.0
 10
587.0698958014
 20
635.7902258848
 30
0.0
 10
587.0810919757
 20
635.8232441831
 30
0.0
 10
587.0904949076
 20
635.8484181388
 30
0.0
 10
587.0981977052
 20
635.8671935916
 30
0.0
 10
587.1040759874
 20
635.8805662723
 30
0.0
 10
587.1100938356
 20
635.89326655
 30
0.0
 10
587.116228152
 20
635.9052284711
 30
0.0
 10
587.1222838652
 20
635.9166808272
 30
0.0
 10
587.1299744124
 20
635.931386449
 30
0.0
 10
587.138449957
 20
635.9489294452
 30
0.0
 10
587.1462095285
 20
635.9689895849
 30
0.0
 10
587.1516505063
 20
635.9880516896
 30
0.0
 10
587.154566851
 20
636.0029967765
 30
0.0
 10
587.1561453948
 20
636.0141752067
 30
0.0
 10
587.1570155261
 20
636.0222911271
 30
0.0
 10
587.1576520619
 20
636.030121676
 30
0.0
 10
587.1582928671
 20
636.0376365043
 30
0.0
 10
587.1591086281
 20
636.0448292899
 30
0.0
 10
587.1602540288
 20
636.0515953807
 30
0.0
 10
587.1618072432
 20
636.0572009467
 30
0.0
 10
587.16357044
 20
636.0611872913
 30
0.0
 10
587.1651693451
 20
636.063810459
 30
0.0
 10
587.167133516
 20
636.0660652338
 30
0.0
 10
587.1691957518
 20
636.0675794171
 30
0.0
 10
587.1711194544
 20
636.0684725186
 30
0.0
 10
587.1726961223
 20
636.0689620852
 30
0.0
 10
587.1743723326
 20
636.0692581219
 30
0.0
 10
587.1756053206
 20
636.0693236964
 30
0.0
 10
587.1761971746
 20
636.0693236964
 30
0.0
  0
SPLINE
  5
34D
100
AcDbEntity
  8
03___PRT_ALL_CURVES
100
AcDbSpline
 62
2
  6
CONTINUOUS
 70
0
 71
3
 72
27
 73
23
 74
0
 42
0.0000001
 43
0.0000001
 44
0.0000000001
 40
0.0
 40
0.0
 40
0.0
 40
0.0
 40
0.0357142857
 40
0.0714285714
 40
0.1071428571
 40
0.1428571429
 40
0.1785714286
 40
0.2142857143
 40
0.2857142857
 40
0.3571428571
 40
0.4285714286
 40
0.5
 40
0.5714285714
 40
0.6428571429
 40
0.7142857143
 40
0.7857142857
 40
0.8214285714
 40
0.8571428571
 40
0.8928571429
 40
0.9285714286
 40
0.9642857143
 40
1.0
 40
1.0
 40
1.0
 40
1.0
 10
589.6850879617
 20
633.8706637577
 30
0.0
 10
589.7612723881
 20
633.8706637577
 30
0.0
 10
589.9072449927
 20
633.8748891539
 30
0.0
 10
590.1103698753
 20
633.8956551935
 30
0.0
 10
590.2929395191
 20
633.9301357903
 30
0.0
 10
590.4604518449
 20
633.9778702553
 30
0.0
 10
590.6147213759
 20
634.0399798965
 30
0.0
 10
590.7994220565
 20
634.1417075734
 30
0.0
 10
590.9906541824
 20
634.3057734056
 30
0.0
 10
591.1554802845
 20
634.5626947374
 30
0.0
 10
591.2532796942
 20
634.8780139809
 30
0.0
 10
591.2830181197
 20
635.2469614103
 30
0.0
 10
591.2532761908
 20
635.6154161749
 30
0.0
 10
591.1555103349
 20
635.9302016104
 30
0.0
 10
590.9909927889
 20
636.1866545536
 30
0.0
 10
590.7998088858
 20
636.3508125437
 30
0.0
 10
590.615138743
 20
636.4526161014
 30
0.0
 10
590.4608578661
 20
636.5148079593
 30
0.0
 10
590.2932693412
 20
636.5626339511
 30
0.0
 10
590.1105934872
 20
636.5971947574
 30
0.0
 10
589.9073653333
 20
636.6180189536
 30
0.0
 10
589.7613141455
 20
636.6222615218
 30
0.0
 10
589.6850879617
 20
636.6222615218
 30
0.0
  0
SPLINE
  5
34E
100
AcDbEntity
  8
03___PRT_ALL_CURVES
100
AcDbSpline
 62
2
  6
CONTINUOUS
 70
0
 71
3
 72
27
 73
23
 74
0
 42
0.0000001
 43
0.0000001
 44
0.0000000001
 40
0.0
 40
0.0
 40
0.0
 40
0.0
 40
0.0416666667
 40
0.0833333333
 40
0.125
 40
0.1666666667
 40
0.2083333333
 40
0.25
 40
0.2916666667
 40
0.3333333333
 40
0.4166666667
 40
0.5
 40
0.5833333333
 40
0.6666666667
 40
0.7083333333
 40
0.75
 40
0.7916666667
 40
0.8333333333
 40
0.875
 40
0.9166666667
 40
0.9583333333
 40
1.0
 40
1.0
 40
1.0
 40
1.0
 10
589.7913691574
 20
636.1895575289
 30
0.0
 10
589.832365342
 20
636.1895575289
 30
0.0
 10
589.9120705004
 20
636.1841776016
 30
0.0
 10
590.0297886916
 20
636.1610991666
 30
0.0
 10
590.144438447
 20
636.1226961077
 30
0.0
 10
590.2526018051
 20
636.0694699145
 30
0.0
 10
590.3514132269
 20
636.0032082976
 30
0.0
 10
590.4405843719
 20
635.9239785401
 30
0.0
 10
590.5199115746
 20
635.8302796885
 30
0.0
 10
590.6079772012
 20
635.6910673147
 30
0.0
 10
590.6794139338
 20
635.4994875408
 30
0.0
 10
590.7063867162
 20
635.2472214071
 30
0.0
 10
590.6796144248
 20
634.9950499655
 30
0.0
 10
590.6085983895
 20
634.8036075183
 30
0.0
 10
590.520794016
 20
634.6644915754
 30
0.0
 10
590.4416316539
 20
634.5708556517
 30
0.0
 10
590.3525652246
 20
634.4916946602
 30
0.0
 10
590.2537733249
 20
634.4254967935
 30
0.0
 10
590.1455373019
 20
634.3723073664
 30
0.0
 10
590.0307101525
 20
634.3339136746
 30
0.0
 10
589.9126223779
 20
634.3108201343
 30
0.0
 10
589.8325654768
 20
634.305434808
 30
0.0
 10
589.7913691574
 20
634.305434808
 30
0.0
  0
SPLINE
  5
34F
100
AcDbEntity
  8
03___PRT_ALL_CURVES
100
AcDbSpline
 62
2
  6
CONTINUOUS
 70
0
 71
3
 72
64
 73
60
 74
0
 42
0.0000001
 43
0.0000001
 44
0.0000000001
 40
0.0
 40
0.0
 40
0.0
 40
0.0
 40
0.0294117647
 40
0.0588235294
 40
0.0882352941
 40
0.1176470588
 40
0.1470588235
 40
0.1764705882
 40
0.2058823529
 40
0.2352941176
 40
0.2647058824
 40
0.2941176471
 40
0.3235294118
 40
0.3529411765
 40
0.3823529412
 40
0.4117647059
 40
0.4411764706
 40
0.4705882353
 40
0.5
 40
0.5294117647
 40
0.5588235294
 40
0.5882352941
 40
0.6176470588
 40
0.6470588235
 40
0.6764705882
 40
0.7058823529
 40
0.7352941176
 40
0.7647058824
 40
0.7941176471
 40
0.8088235294
 40
0.8235294118
 40
0.8382352941
 40
0.8529411765
 40
0.8676470588
 40
0.8823529412
 40
0.8970588235
 40
0.9117647059
 40
0.9264705882
 40
0.9411764706
 40
0.9485294118
 40
0.9558823529
 40
0.9632352941
 40
0.9669117647
 40
0.9705882353
 40
0.9742647059
 40
0.9779411765
 40
0.9816176471
 40
0.9834558824
 40
0.9852941176
 40
0.9871323529
 40
0.9889705882
 40
0.9908088235
 40
0.9926470588
 40
0.9944852941
 40
0.9963235294
 40
0.9972426471
 40
0.9981617647
 40
0.9990808824
 40
1.0
 40
1.0
 40
1.0
 40
1.0
 10
596.6665739626
 20
633.8706637577
 30
0.0
 10
596.6665739626
 20
633.9267977864
 30
0.0
 10
596.6666092438
 20
634.0352099438
 30
0.0
 10
596.6666840506
 20
634.185907725
 30
0.0
 10
596.6667249103
 20
634.325743342
 30
0.0
 10
596.6667715112
 20
634.4553940395
 30
0.0
 10
596.6668498714
 20
634.5756471519
 30
0.0
 10
596.6669745668
 20
634.6872381522
 30
0.0
 10
596.6671528347
 20
634.7907408851
 30
0.0
 10
596.6673849591
 20
634.886763017
 30
0.0
 10
596.6676734491
 20
634.9758160087
 30
0.0
 10
596.6679482889
 20
635.0584143674
 30
0.0
 10
596.6681574285
 20
635.1350416692
 30
0.0
 10
596.6682723152
 20
635.2060993077
 30
0.0
 10
596.6682807399
 20
635.2719897989
 30
0.0
 10
596.6681749672
 20
635.3330998661
 30
0.0
 10
596.6680767932
 20
635.3897659533
 30
0.0
 10
596.6680704954
 20
635.4423168088
 30
0.0
 10
596.6682037298
 20
635.4910306379
 30
0.0
 10
596.6685036723
 20
635.5361934966
 30
0.0
 10
596.6689723829
 20
635.5780404693
 30
0.0
 10
596.6696321082
 20
635.616827187
 30
0.0
 10
596.6703751412
 20
635.6527426894
 30
0.0
 10
596.6708068029
 20
635.6859973094
 30
0.0
 10
596.6707749222
 20
635.7167353014
 30
0.0
 10
596.6701715309
 20
635.7452196194
 30
0.0
 10
596.6691993723
 20
635.7715447402
 30
0.0
 10
596.6686536218
 20
635.7959280593
 30
0.0
 10
596.6689195543
 20
635.8146402862
 30
0.0
 10
596.6698183946
 20
635.8289181701
 30
0.0
 10
596.6708805889
 20
635.83907882
 30
0.0
 10
596.6724288021
 20
635.8486414382
 30
0.0
 10
596.6740202558
 20
635.8577361667
 30
0.0
 10
596.6752102064
 20
635.8665277508
 30
0.0
 10
596.6757705807
 20
635.8751205771
 30
0.0
 10
596.6756599237
 20
635.8833226938
 30
0.0
 10
596.6749611627
 20
635.8912610496
 30
0.0
 10
596.6738292823
 20
635.8986573871
 30
0.0
 10
596.6726060506
 20
635.9045702161
 30
0.0
 10
596.6714936858
 20
635.9091641647
 30
0.0
 10
596.6706974197
 20
635.9124134159
 30
0.0
 10
596.6700823962
 20
635.9150849184
 30
0.0
 10
596.6696464095
 20
635.917230888
 30
0.0
 10
596.6693576399
 20
635.9188587037
 30
0.0
 10
596.6691276359
 20
635.9204852313
 30
0.0
 10
596.6689812929
 20
635.9220806688
 30
0.0
 10
596.6689518084
 20
635.9233917534
 30
0.0
 10
596.6690106158
 20
635.9244362112
 30
0.0
 10
596.6691082314
 20
635.9252204124
 30
0.0
 10
596.6692775499
 20
635.9260064329
 30
0.0
 10
596.6695466933
 20
635.9267876506
 30
0.0
 10
596.669953051
 20
635.9275364069
 30
0.0
 10
596.6705244777
 20
635.9281881311
 30
0.0
 10
596.6712315285
 20
635.9286643862
 30
0.0
 10
596.6718613273
 20
635.9289004841
 30
0.0
 10
596.6723599514
 20
635.929015539
 30
0.0
 10
596.6727302292
 20
635.9290713903
 30
0.0
 10
596.6730972677
 20
635.9291021014
 30
0.0
 10
596.6733416138
 20
635.9291082293
 30
0.0
 10
596.6734641535
 20
635.9291083102
 30
0.0
  0
SPLINE
  5
350
100
AcDbEntity
  8
03___PRT_ALL_CURVES
100
AcDbSpline
 62
2
  6
CONTINUOUS
 70
0
 71
3
 72
64
 73
60
 74
0
 42
0.0000001
 43
0.0000001
 44
0.0000000001
 40
0.0
 40
0.0
 40
0.0
 40
0.0
 40
0.0294117647
 40
0.0588235294
 40
0.0882352941
 40
0.1176470588
 40
0.1470588235
 40
0.1764705882
 40
0.2058823529
 40
0.2352941176
 40
0.2647058824
 40
0.2941176471
 40
0.3235294118
 40
0.3529411765
 40
0.3823529412
 40
0.4117647059
 40
0.4411764706
 40
0.4705882353
 40
0.5
 40
0.5294117647
 40
0.5588235294
 40
0.5882352941
 40
0.6176470588
 40
0.6470588235
 40
0.6764705882
 40
0.7058823529
 40
0.7352941176
 40
0.7647058824
 40
0.7941176471
 40
0.8088235294
 40
0.8235294118
 40
0.8382352941
 40
0.8529411765
 40
0.8676470588
 40
0.8823529412
 40
0.8970588235
 40
0.9117647059
 40
0.9264705882
 40
0.9411764706
 40
0.9485294118
 40
0.9558823529
 40
0.9632352941
 40
0.9669117647
 40
0.9705882353
 40
0.9742647059
 40
0.9779411765
 40
0.9816176471
 40
0.9834558824
 40
0.9852941176
 40
0.9871323529
 40
0.9889705882
 40
0.9908088235
 40
0.9926470588
 40
0.9944852941
 40
0.9963235294
 40
0.9972426471
 40
0.9981617647
 40
0.9990808824
 40
1.0
 40
1.0
 40
1.0
 40
1.0
 10
597.8739076754
 20
636.6222615218
 30
0.0
 10
597.8739076754
 20
636.5662879726
 30
0.0
 10
597.8738632981
 20
636.4581825992
 30
0.0
 10
597.8737583205
 20
636.30790631
 30
0.0
 10
597.8736788793
 20
636.1684419745
 30
0.0
 10
597.8735878683
 20
636.0391068884
 30
0.0
 10
597.8734608325
 20
635.9190958445
 30
0.0
 10
597.8732845897
 20
635.8077196394
 30
0.0
 10
597.8730529702
 20
635.7043911901
 30
0.0
 10
597.8727665818
 20
635.6085056983
 30
0.0
 10
597.8724234298
 20
635.5195661311
 30
0.0
 10
597.872088978
 20
635.4370213553
 30
0.0
 10
597.8718139432
 20
635.3604460035
 30
0.0
 10
597.8716262568
 20
635.2894058365
 30
0.0
 10
597.8715380753
 20
635.2235105235
 30
0.0
 10
597.8715592624
 20
635.1623832043
 30
0.0
 10
597.8715752877
 20
635.1056830151
 30
0.0
 10
597.8715037271
 20
635.0530975754
 30
0.0
 10
597.8712984645
 20
635.0043174279
 30
0.0
 10
597.8709335243
 20
634.9591030828
 30
0.0
 10
597.8704057901
 20
634.9171835223
 30
0.0
 10
597.8696977072
 20
634.8783563406
 30
0.0
 10
597.8688987804
 20
634.8423613142
 30
0.0
 10
597.8683871295
 20
634.8089841021
 30
0.0
 10
597.8683177891
 20
634.7780806897
 30
0.0
 10
597.8687916242
 20
634.7495471401
 30
0.0
 10
597.869636536
 20
634.7230590229
 30
0.0
 10
597.8700766527
 20
634.6985850389
 30
0.0
 10
597.8697508832
 20
634.6797948013
 30
0.0
 10
597.8688306609
 20
634.6654911784
 30
0.0
 10
597.8677699821
 20
634.6553078781
 30
0.0
 10
597.866226441
 20
634.6456476374
 30
0.0
 10
597.8646335068
 20
634.6364636177
 30
0.0
 10
597.8634384373
 20
634.6276557142
 30
0.0
 10
597.8628449532
 20
634.6190597792
 30
0.0
 10
597.8628923223
 20
634.6108818376
 30
0.0
 10
597.863496485
 20
634.6029765175
 30
0.0
 10
597.8645198046
 20
634.5955786633
 30
0.0
 10
597.8656435968
 20
634.5896610042
 30
0.0
 10
597.8666734387
 20
634.5850540009
 30
0.0
 10
597.8674084526
 20
634.5817909609
 30
0.0
 10
597.8679691038
 20
634.5791116275
 30
0.0
 10
597.8683580739
 20
634.576964321
 30
0.0
 10
597.8686093412
 20
634.5753387805
 30
0.0
 10
597.8688001504
 20
634.5737169701
 30
0.0
 10
597.8689063386
 20
634.5721274309
 30
0.0
 10
597.8689010581
 20
634.5708224787
 30
0.0
 10
597.8688131592
 20
634.5697845136
 30
0.0
 10
597.8686929706
 20
634.5690066724
 30
0.0
 10
597.8685005231
 20
634.5682296333
 30
0.0
 10
597.8682088745
 20
634.5674616074
 30
0.0
 10
597.8677840237
 20
634.5667311015
 30
0.0
 10
597.8672035864
 20
634.5660990799
 30
0.0
 10
597.866497248
 20
634.5656355691
 30
0.0
 10
597.8658691222
 20
634.5654025706
 30
0.0
 10
597.8653700419
 20
634.5652880366
 30
0.0
 10
597.8649986791
 20
634.5652321268
 30
0.0
 10
597.8646300394
 20
634.5652012668
 30
0.0
 10
597.8643845107
 20
634.5651950813
 30
0.0
 10
597.864261408
 20
634.5651950076
 30
0.0
  0
SPLINE
  5
351
100
AcDbEntity
  8
03___PRT_ALL_CURVES
100
AcDbSpline
 62
2
  6
CONTINUOUS
 70
0
 71
3
 72
16
 73
12
 74
0
 42
0.0000001
 43
0.0000001
 44
0.0000000001
 40
0.0
 40
0.0
 40
0.0
 40
0.0
 40
0.1428571429
 40
0.2857142857
 40
0.4285714286
 40
0.5714285714
 40
0.6428571429
 40
0.7142857143
 40
0.7857142857
 40
0.8571428571
 40
1.0
 40
1.0
 40
1.0
 40
1.0
 10
601.0706117761
 20
633.8706637577
 30
0.0
 10
601.1646615633
 20
633.8706637577
 30
0.0
 10
601.3387392811
 20
633.8831791325
 30
0.0
 10
601.5569680204
 20
633.9389836576
 30
0.0
 10
601.7348266839
 20
634.0293597471
 30
0.0
 10
601.8536107453
 20
634.132755669
 30
0.0
 10
601.9258470041
 20
634.2264060724
 30
0.0
 10
601.968837803
 20
634.3033003906
 30
0.0
 10
602.0012333711
 20
634.386503976
 30
0.0
 10
602.0316157641
 20
634.5050638858
 30
0.0
 10
602.0407506648
 20
634.6010189057
 30
0.0
 10
602.0407506648
 20
634.6685478721
 30
0.0
  0
SPLINE
  5
352
100
AcDbEntity
  8
03___PRT_ALL_CURVES
100
AcDbSpline
 62
2
  6
CONTINUOUS
 70
0
 71
3
 72
17
 73
13
 74
0
 42
0.0000001
 43
0.0000001
 44
0.0000000001
 40
0.0
 40
0.0
 40
0.0
 40
0.0
 40
0.1
 40
0.2
 40
0.25
 40
0.3
 40
0.4
 40
0.5
 40
0.6
 40
0.7
 40
0.8
 40
1.0
 40
1.0
 40
1.0
 40
1.0
 10
602.0407506648
 20
634.6685478721
 30
0.0
 10
602.0407506648
 20
634.6976107182
 30
0.0
 10
602.0362087219
 20
634.7541828562
 30
0.0
 10
602.0199967203
 20
634.8254739364
 30
0.0
 10
602.0008281027
 20
634.8815215158
 30
0.0
 10
601.9774544213
 20
634.9369239425
 30
0.0
 10
601.9406154736
 20
635.0038640699
 30
0.0
 10
601.8824448502
 20
635.0803382064
 30
0.0
 10
601.8104062581
 20
635.1476727652
 30
0.0
 10
601.7264109132
 20
635.2040451354
 30
0.0
 10
601.5987147403
 20
635.2647403419
 30
0.0
 10
601.4903596244
 20
635.2923386721
 30
0.0
 10
601.4109872101
 20
635.3014119128
 30
0.0
  0
SPLINE
  5
353
100
AcDbEntity
  8
03___PRT_ALL_CURVES
100
AcDbSpline
 62
2
  6
CONTINUOUS
 70
0
 71
3
 72
15
 73
11
 74
0
 42
0.0000001
 43
0.0000001
 44
0.0000000001
 40
0.0
 40
0.0
 40
0.0
 40
0.0
 40
0.2
 40
0.3
 40
0.4
 40
0.5
 40
0.6
 40
0.7
 40
0.8
 40
1.0
 40
1.0
 40
1.0
 40
1.0
 10
601.4109872101
 20
635.3014119128
 30
0.0
 10
601.4805324054
 20
635.3139829787
 30
0.0
 10
601.575209469
 20
635.3442082418
 30
0.0
 10
601.6854264816
 20
635.4036923223
 30
0.0
 10
601.7579394838
 20
635.4571249356
 30
0.0
 10
601.8205348062
 20
635.5203126766
 30
0.0
 10
601.87094092
 20
635.5919642059
 30
0.0
 10
601.9093388175
 20
635.6676621586
 30
0.0
 10
601.946704728
 20
635.7748013141
 30
0.0
 10
601.9591019018
 20
635.8592462834
 30
0.0
 10
601.9591019018
 20
635.9180840046
 30
0.0
  0
SPLINE
  5
354
100
AcDbEntity
  8
03___PRT_ALL_CURVES
100
AcDbSpline
 62
2
  6
CONTINUOUS
 70
0
 71
3
 72
16
 73
12
 74
0
 42
0.0000001
 43
0.0000001
 44
0.0000000001
 40
0.0
 40
0.0
 40
0.0
 40
0.0
 40
0.1428571429
 40
0.2142857143
 40
0.2857142857
 40
0.3571428571
 40
0.4285714286
 40
0.5714285714
 40
0.7142857143
 40
0.8571428571
 40
1.0
 40
1.0
 40
1.0
 40
1.0
 10
601.9591019018
 20
635.9180840046
 30
0.0
 10
601.9591019018
 20
635.9789709687
 30
0.0
 10
601.9505633352
 20
636.0653580796
 30
0.0
 10
601.9219161141
 20
636.1722438169
 30
0.0
 10
601.8912958233
 20
636.2470074558
 30
0.0
 10
601.8505228428
 20
636.3156050493
 30
0.0
 10
601.7825832023
 20
636.3986649067
 30
0.0
 10
601.6720714605
 20
636.4892184439
 30
0.0
 10
601.5091561811
 20
636.5661872315
 30
0.0
 10
601.3114698522
 20
636.6124632618
 30
0.0
 10
601.1549363948
 20
636.6222615218
 30
0.0
 10
601.0706117761
 20
636.6222615218
 30
0.0
  0
SPLINE
  5
355
100
AcDbEntity
  8
03___PRT_ALL_CURVES
100
AcDbSpline
 62
2
  6
CONTINUOUS
 70
0
 71
3
 72
18
 73
14
 74
0
 42
0.0000001
 43
0.0000001
 44
0.0000000001
 40
0.0
 40
0.0
 40
0.0
 40
0.0
 40
0.1428571429
 40
0.2857142857
 40
0.4285714286
 40
0.5
 40
0.5714285714
 40
0.6428571429
 40
0.7142857143
 40
0.7857142857
 40
0.8571428571
 40
0.9285714286
 40
1.0
 40
1.0
 40
1.0
 40
1.0
 10
600.8721742762
 20
636.1895575289
 30
0.0
 10
600.9176172856
 20
636.1895575289
 30
0.0
 10
601.0032284211
 20
636.1895806191
 30
0.0
 10
601.1148696434
 20
636.1784299854
 30
0.0
 10
601.1966934424
 20
636.1555513953
 30
0.0
 10
601.256028916
 20
636.1270248642
 30
0.0
 10
601.2964674889
 20
636.1006881643
 30
0.0
 10
601.3314919535
 20
636.0697873139
 30
0.0
 10
601.360398641
 20
636.0339160139
 30
0.0
 10
601.3819328562
 20
635.9920762415
 30
0.0
 10
601.3964883464
 20
635.945922586
 30
0.0
 10
601.4047460895
 20
635.8965691089
 30
0.0
 10
601.4065085859
 20
635.862840803
 30
0.0
 10
601.4065085859
 20
635.8450479803
 30
0.0
  0
SPLINE
  5
356
100
AcDbEntity
  8
03___PRT_ALL_CURVES
100
AcDbSpline
 62
2
  6
CONTINUOUS
 70
0
 71
3
 72
18
 73
14
 74
0
 42
0.0000001
 43
0.0000001
 44
0.0000000001
 40
0.0
 40
0.0
 40
0.0
 40
0.0
 40
0.0833333333
 40
0.1666666667
 40
0.25
 40
0.3333333333
 40
0.4166666667
 40
0.5
 40
0.5833333333
 40
0.6666666667
 40
0.75
 40
0.8333333333
 40
1.0
 40
1.0
 40
1.0
 40
1.0
 10
601.4065085859
 20
635.8450479803
 30
0.0
 10
601.4065085859
 20
635.8305207918
 30
0.0
 10
601.4037698937
 20
635.8019126939
 30
0.0
 10
601.3918665853
 20
635.7580968743
 30
0.0
 10
601.3719936142
 20
635.7139814541
 30
0.0
 10
601.3445132902
 20
635.6709878087
 30
0.0
 10
601.3097086038
 20
635.6302801748
 30
0.0
 10
601.2678063548
 20
635.593145015
 30
0.0
 10
601.2180471477
 20
635.5611950893
 30
0.0
 10
601.1614960563
 20
635.5375365777
 30
0.0
 10
601.0992418472
 20
635.5218890274
 30
0.0
 10
601.0089494892
 20
635.5104120249
 30
0.0
 10
600.9369619093
 20
635.5101846992
 30
0.0
 10
600.8859546581
 20
635.5101846992
 30
0.0
  0
SPLINE
  5
357
100
AcDbEntity
  8
03___PRT_ALL_CURVES
100
AcDbSpline
 62
2
  6
CONTINUOUS
 70
0
 71
3
 72
18
 73
14
 74
0
 42
0.0000001
 43
0.0000001
 44
0.0000000001
 40
0.0
 40
0.0
 40
0.0
 40
0.0
 40
0.125
 40
0.25
 40
0.3125
 40
0.375
 40
0.4375
 40
0.5
 40
0.5625
 40
0.625
 40
0.75
 40
0.875
 40
1.0
 40
1.0
 40
1.0
 40
1.0
 10
600.9217836512
 20
635.1009073555
 30
0.0
 10
600.9595416357
 20
635.1009073555
 30
0.0
 10
601.0329835782
 20
635.1007807158
 30
0.0
 10
601.1182490576
 20
635.0941662103
 30
0.0
 10
601.1851319307
 20
635.0813981593
 30
0.0
 10
601.232949296
 20
635.0672848441
 30
0.0
 10
601.2783693274
 20
635.0477106289
 30
0.0
 10
601.3200555491
 20
635.0220670737
 30
0.0
 10
601.3571043709
 20
634.9908098868
 30
0.0
 10
601.4009221949
 20
634.9430120288
 30
0.0
 10
601.4448603487
 20
634.8741960636
 30
0.0
 10
601.4791571801
 20
634.7826081181
 30
0.0
 10
601.4881573489
 20
634.7187078872
 30
0.0
 10
601.4881573489
 20
634.6857733495
 30
0.0
  0
SPLINE
  5
358
100
AcDbEntity
  8
03___PRT_ALL_CURVES
100
AcDbSpline
 62
2
  6
CONTINUOUS
 70
0
 71
3
 72
18
 73
14
 74
0
 42
0.0000001
 43
0.0000001
 44
0.0000000001
 40
0.0
 40
0.0
 40
0.0
 40
0.0
 40
0.0555555556
 40
0.1111111111
 40
0.1666666667
 40
0.2222222222
 40
0.3333333333
 40
0.4444444444
 40
0.5555555556
 40
0.6666666667
 40
0.7777777778
 40
0.8888888889
 40
1.0
 40
1.0
 40
1.0
 40
1.0
 10
601.4881573489
 20
634.6857733495
 30
0.0
 10
601.4881573489
 20
634.6720095693
 30
0.0
 10
601.4860456777
 20
634.6450336016
 30
0.0
 10
601.477433472
 20
634.6053450413
 30
0.0
 10
601.4638456236
 20
634.5665317321
 30
0.0
 10
601.4399553668
 20
634.51700126
 30
0.0
 10
601.4013881201
 20
634.4609377516
 30
0.0
 10
601.3432306318
 20
634.4032753356
 30
0.0
 10
601.2759630652
 20
634.3590309914
 30
0.0
 10
601.1982573319
 20
634.3293115415
 30
0.0
 10
601.1144205481
 20
634.3127805988
 30
0.0
 10
601.0236756092
 20
634.305824332
 30
0.0
 10
600.9567258576
 20
634.305434808
 30
0.0
 10
600.9217836512
 20
634.305434808
 30
0.0
  0
SPLINE
  5
359
100
AcDbEntity
  8
03___PRT_ALL_CURVES
100
AcDbSpline
 62
2
  6
CONTINUOUS
 70
0
 71
3
 72
13
 73
9
 74
0
 42
0.0000001
 43
0.0000001
 44
0.0000000001
 40
0.0
 40
0.0
 40
0.0
 40
0.0
 40
0.1666666667
 40
0.3333333333
 40
0.5
 40
0.6666666667
 40
0.8333333333
 40
1.0
 40
1.0
 40
1.0
 40
1.0
 10
603.2000252956
 20
635.0140909493
 30
0.0
 10
603.2301500914
 20
635.0140909493
 30
0.0
 10
603.2891478397
 20
635.010899371
 30
0.0
 10
603.3774069657
 20
634.991793937
 30
0.0
 10
603.4550686097
 20
634.9521224104
 30
0.0
 10
603.5116449335
 20
634.8873426463
 30
0.0
 10
603.5529961107
 20
634.8100810483
 30
0.0
 10
603.5745036328
 20
634.757223048
 30
0.0
 10
603.5851869708
 20
634.7305595908
 30
0.0
  0
SPLINE
  5
35A
100
AcDbEntity
  8
03___PRT_ALL_CURVES
100
AcDbSpline
 62
2
  6
CONTINUOUS
 70
0
 71
3
 72
14
 73
10
 74
0
 42
0.0000001
 43
0.0000001
 44
0.0000000001
 40
0.0
 40
0.0
 40
0.0
 40
0.0
 40
0.25
 40
0.375
 40
0.5
 40
0.625
 40
0.75
 40
0.875
 40
1.0
 40
1.0
 40
1.0
 40
1.0
 10
604.0874818926
 20
634.9455335491
 30
0.0
 10
604.0696493673
 20
634.9860826671
 30
0.0
 10
604.040506706
 20
635.0412404853
 30
0.0
 10
603.9961259734
 20
635.1053308248
 30
0.0
 10
603.9608147799
 20
635.1469731754
 30
0.0
 10
603.9224715469
 20
635.1826947446
 30
0.0
 10
603.8821518996
 20
635.2105199541
 30
0.0
 10
603.8407121348
 20
635.2296879418
 30
0.0
 10
603.812293399
 20
635.2366911698
 30
0.0
 10
603.7977493623
 20
635.2387111749
 30
0.0
  0
SPLINE
  5
35B
100
AcDbEntity
  8
03___PRT_ALL_CURVES
100
AcDbSpline
 62
2
  6
CONTINUOUS
 70
0
 71
3
 72
19
 73
15
 74
0
 42
0.0000001
 43
0.0000001
 44
0.0000000001
 40
0.0
 40
0.0
 40
0.0
 40
0.0
 40
0.1
 40
0.2
 40
0.25
 40
0.3
 40
0.4
 40
0.5
 40
0.6
 40
0.7
 40
0.75
 40
0.8
 40
0.9
 40
1.0
 40
1.0
 40
1.0
 40
1.0
 10
603.7977493623
 20
635.2387111749
 30
0.0
 10
603.8305545738
 20
635.2431197804
 30
0.0
 10
603.892998821
 20
635.2562084922
 30
0.0
 10
603.9681153043
 20
635.2826725151
 30
0.0
 10
604.0250035939
 20
635.3094174479
 30
0.0
 10
604.079849539
 20
635.3399437531
 30
0.0
 10
604.1432753437
 20
635.3845477226
 30
0.0
 10
604.2111354996
 20
635.4496642254
 30
0.0
 10
604.2666906283
 20
635.5251013373
 30
0.0
 10
604.3021745887
 20
635.5929205255
 30
0.0
 10
604.3248356974
 20
635.6501586173
 30
0.0
 10
604.34344841
 20
635.708632679
 30
0.0
 10
604.3592826442
 20
635.7841859728
 30
0.0
 10
604.3637785505
 20
635.8453664532
 30
0.0
 10
604.3637785505
 20
635.8770873683
 30
0.0
  0
SPLINE
  5
35C
100
AcDbEntity
  8
03___PRT_ALL_CURVES
100
AcDbSpline
 62
2
  6
CONTINUOUS
 70
0
 71
3
 72
21
 73
17
 74
0
 42
0.0000001
 43
0.0000001
 44
0.0000000001
 40
0.0
 40
0.0
 40
0.0
 40
0.0
 40
0.125
 40
0.1875
 40
0.25
 40
0.3125
 40
0.375
 40
0.4375
 40
0.5
 40
0.5625
 40
0.625
 40
0.6875
 40
0.75
 40
0.8125
 40
0.875
 40
1.0
 40
1.0
 40
1.0
 40
1.0
 10
604.3637785505
 20
635.8770873683
 30
0.0
 10
604.3637785505
 20
635.9578777205
 30
0.0
 10
604.3511777684
 20
636.0683131977
 30
0.0
 10
604.3122370028
 20
636.195004432
 30
0.0
 10
604.2719825979
 20
636.2789571737
 30
0.0
 10
604.2196005455
 20
636.351746246
 30
0.0
 10
604.1556702389
 20
636.413837521
 30
0.0
 10
604.0827941368
 20
636.4665994734
 30
0.0
 10
604.0009601764
 20
636.5114642454
 30
0.0
 10
603.9090443242
 20
636.5488417558
 30
0.0
 10
603.8093652583
 20
636.5772146476
 30
0.0
 10
603.6995616062
 20
636.5974781066
 30
0.0
 10
603.5827359336
 20
636.6099452353
 30
0.0
 10
603.4612346066
 20
636.617140696
 30
0.0
 10
603.2925126242
 20
636.6223560598
 30
0.0
 10
603.1600913483
 20
636.6222615218
 30
0.0
 10
603.0687671576
 20
636.6222615218
 30
0.0
  0
SPLINE
  5
35D
100
AcDbEntity
  8
03___PRT_ALL_CURVES
100
AcDbSpline
 62
2
  6
CONTINUOUS
 70
0
 71
3
 72
33
 73
29
 74
0
 42
0.0000001
 43
0.0000001
 44
0.0000000001
 40
0.0
 40
0.0
 40
0.0
 40
0.0
 40
0.0625
 40
0.125
 40
0.1875
 40
0.25
 40
0.3125
 40
0.34375
 40
0.359375
 40
0.375
 40
0.390625
 40
0.40625
 40
0.421875
 40
0.4375
 40
0.46875
 40
0.5
 40
0.53125
 40
0.5625
 40
0.59375
 40
0.609375
 40
0.625
 40
0.65625
 40
0.6875
 40
0.75
 40
0.8125
 40
0.875
 40
0.9375
 40
1.0
 40
1.0
 40
1.0
 40
1.0
 10
603.2051929388
 20
636.1826673379
 30
0.0
 10
603.2354204179
 20
636.1826673379
 30
0.0
 10
603.2959127741
 20
636.1820122475
 30
0.0
 10
603.386623687
 20
636.1770380178
 30
0.0
 10
603.4777535326
 20
636.1663989287
 30
0.0
 10
603.5651267371
 20
636.1456514535
 30
0.0
 10
603.6376654808
 20
636.1125303316
 30
0.0
 10
603.6849340528
 20
636.0777017741
 30
0.0
 10
603.7095832539
 20
636.0542042489
 30
0.0
 10
603.7262948486
 20
636.0350512577
 30
0.0
 10
603.7410926149
 20
636.0141498424
 30
0.0
 10
603.7538633422
 20
635.9913417391
 30
0.0
 10
603.7645809679
 20
635.9669537412
 30
0.0
 10
603.7760917619
 20
635.932978435
 30
0.0
 10
603.7856927101
 20
635.8863587442
 30
0.0
 10
603.789127113
 20
635.8285113379
 30
0.0
 10
603.7863699981
 20
635.7699060882
 30
0.0
 10
603.775636596
 20
635.7130312251
 30
0.0
 10
603.7602795494
 20
635.6707993663
 30
0.0
 10
603.7439725061
 20
635.6394610635
 30
0.0
 10
603.7251699628
 20
635.6105787425
 30
0.0
 10
603.6968513092
 20
635.578540964
 30
0.0
 10
603.6447496534
 20
635.5360103124
 30
0.0
 10
603.5731536322
 20
635.4986101999
 30
0.0
 10
603.4846069759
 20
635.4730144009
 30
0.0
 10
603.3912881632
 20
635.4589595835
 30
0.0
 10
603.298107383
 20
635.4520222398
 30
0.0
 10
603.2361429694
 20
635.4509290568
 30
0.0
 10
603.2051929388
 20
635.4509290568
 30
0.0
  0
SPLINE
  5
35E
100
AcDbEntity
  8
03___PRT_ALL_CURVES
100
AcDbSpline
 62
2
  6
CONTINUOUS
 70
0
 71
3
 72
32
 73
28
 74
0
 42
0.0000001
 43
0.0000001
 44
0.0000000001
 40
0.0
 40
0.0
 40
0.0
 40
0.0
 40
0.0625
 40
0.125
 40
0.1875
 40
0.25
 40
0.3125
 40
0.34375
 40
0.359375
 40
0.375
 40
0.390625
 40
0.40625
 40
0.421875
 40
0.4375
 40
0.453125
 40
0.46875
 40
0.5
 40
0.53125
 40
0.5625
 40
0.59375
 40
0.625
 40
0.6875
 40
0.75
 40
0.8125
 40
0.875
 40
0.9375
 40
1.0
 40
1.0
 40
1.0
 40
1.0
 10
603.2051929388
 20
636.1895575289
 30
0.0
 10
603.235110126
 20
636.1895575289
 30
0.0
 10
603.2950718067
 20
636.1888303989
 30
0.0
 10
603.3854565034
 20
636.1835746761
 30
0.0
 10
603.4761283286
 20
636.1725550783
 30
0.0
 10
603.5627347544
 20
636.1516523238
 30
0.0
 10
603.6338240741
 20
636.1194108226
 30
0.0
 10
603.6806228945
 20
636.0857205816
 30
0.0
 10
603.7052373569
 20
636.0630425589
 30
0.0
 10
603.7221324268
 20
636.0444918184
 30
0.0
 10
603.737340986
 20
636.0241790333
 30
0.0
 10
603.7506193531
 20
636.0018961996
 30
0.0
 10
603.7618881255
 20
635.9779500113
 30
0.0
 10
603.7711004626
 20
635.9527023093
 30
0.0
 10
603.7783905898
 20
635.9259105959
 30
0.0
 10
603.7854557192
 20
635.8880682568
 30
0.0
 10
603.7890484312
 20
635.8397266669
 30
0.0
 10
603.787096707
 20
635.7802062216
 30
0.0
 10
603.7774987632
 20
635.7220634191
 30
0.0
 10
603.7602850508
 20
635.6694746647
 30
0.0
 10
603.726669559
 20
635.6060818882
 30
0.0
 10
603.6638015761
 20
635.5438475782
 30
0.0
 10
603.5767643629
 20
635.4960766965
 30
0.0
 10
603.4872080962
 20
635.469317934
 30
0.0
 10
603.3931967274
 20
635.4547471043
 30
0.0
 10
603.2994313751
 20
635.447581008
 30
0.0
 10
603.2366300628
 20
635.4464504327
 30
0.0
 10
603.2051929388
 20
635.4464504327
 30
0.0
  0
SPLINE
  5
35F
100
AcDbEntity
  8
03___PRT_ALL_CURVES
100
AcDbSpline
 62
2
  6
CONTINUOUS
 70
0
 71
3
 72
48
 73
44
 74
0
 42
0.0000001
 43
0.0000001
 44
0.0000000001
 40
0.0
 40
0.0
 40
0.0
 40
0.0
 40
0.0357142857
 40
0.0714285714
 40
0.1071428571
 40
0.1428571429
 40
0.1785714286
 40
0.2142857143
 40
0.25
 40
0.2857142857
 40
0.3214285714
 40
0.3571428571
 40
0.3928571429
 40
0.4285714286
 40
0.4642857143
 40
0.5
 40
0.5357142857
 40
0.5714285714
 40
0.5892857143
 40
0.6071428571
 40
0.625
 40
0.6428571429
 40
0.6607142857
 40
0.6785714286
 40
0.7142857143
 40
0.75
 40
0.7857142857
 40
0.8214285714
 40
0.8392857143
 40
0.8571428571
 40
0.875
 40
0.8928571429
 40
0.9107142857
 40
0.9285714286
 40
0.9464285714
 40
0.9553571429
 40
0.9642857143
 40
0.9732142857
 40
0.9821428571
 40
0.9866071429
 40
0.9910714286
 40
0.9955357143
 40
1.0
 40
1.0
 40
1.0
 40
1.0
 10
605.6136591925
 20
634.9355427722
 30
0.0
 10
605.6251529816
 20
634.9682359959
 30
0.0
 10
605.6474436455
 20
635.0313705942
 30
0.0
 10
605.678417995
 20
635.1192261691
 30
0.0
 10
605.7069821511
 20
635.2008845875
 30
0.0
 10
605.7334852993
 20
635.2766363908
 30
0.0
 10
605.7582014734
 20
635.3468880399
 30
0.0
 10
605.7813599353
 20
635.412037848
 30
0.0
 10
605.8031042441
 20
635.4724122356
 30
0.0
 10
605.8236125893
 20
635.5283198624
 30
0.0
 10
605.8427629797
 20
635.5801505397
 30
0.0
 10
605.8602402017
 20
635.6283103599
 30
0.0
 10
605.8759505336
 20
635.6730810265
 30
0.0
 10
605.889892694
 20
635.7147894611
 30
0.0
 10
605.9022404173
 20
635.7536688281
 30
0.0
 10
605.9138133514
 20
635.789628425
 30
0.0
 10
605.9250985437
 20
635.8227268803
 30
0.0
 10
605.9345560836
 20
635.8479635419
 30
0.0
 10
605.9422875325
 20
635.8667901792
 30
0.0
 10
605.9481788591
 20
635.8802027155
 30
0.0
 10
605.9542026823
 20
635.8929452719
 30
0.0
 10
605.9603302793
 20
635.9049548477
 30
0.0
 10
605.9663709648
 20
635.9164577381
 30
0.0
 10
605.9740425662
 20
635.9312290365
 30
0.0
 10
605.9825120473
 20
635.9488409399
 30
0.0
 10
605.9903218672
 20
635.968949827
 30
0.0
 10
605.9958736508
 20
635.9880365733
 30
0.0
 10
605.9989223539
 20
636.0030034878
 30
0.0
 10
606.000619018
 20
636.0142063924
 30
0.0
 10
606.0015812268
 20
636.022343317
 30
0.0
 10
606.0023175221
 20
636.030192485
 30
0.0
 10
606.0030636849
 20
636.0377208201
 30
0.0
 10
606.0039890086
 20
636.0449200455
 30
0.0
 10
606.0052468421
 20
636.0516850513
 30
0.0
 10
606.0068998152
 20
636.0572719376
 30
0.0
 10
606.0087385625
 20
636.0612394663
 30
0.0
 10
606.010391068
 20
636.0638500626
 30
0.0
 10
606.0124049052
 20
636.0660915091
 30
0.0
 10
606.0145008449
 20
636.0675931459
 30
0.0
 10
606.0164457168
 20
636.0684786568
 30
0.0
 10
606.0180357689
 20
636.0689643798
 30
0.0
 10
606.0197240659
 20
636.0692584556
 30
0.0
 10
606.0209628717
 20
636.0693236964
 30
0.0
 10
606.021558498
 20
636.0693236964
 30
0.0
  0
SPLINE
  5
360
100
AcDbEntity
  8
03___PRT_ALL_CURVES
100
AcDbSpline
 62
2
  6
CONTINUOUS
 70
0
 71
3
 72
19
 73
15
 74
0
 42
0.0000001
 43
0.0000001
 44
0.0000000001
 40
0.0
 40
0.0
 40
0.0
 40
0.0
 40
0.0833333333
 40
0.1666666667
 40
0.25
 40
0.3333333333
 40
0.4166666667
 40
0.5
 40
0.5833333333
 40
0.6666666667
 40
0.75
 40
0.8333333333
 40
0.9166666667
 40
1.0
 40
1.0
 40
1.0
 40
1.0
 10
615.630963335
 20
645.8881903389
 30
0.0
 10
615.7180000611
 20
645.8881903389
 30
0.0
 10
615.8863487939
 20
645.8769430223
 30
0.0
 10
616.1207574779
 20
645.8335630095
 30
0.0
 10
616.3400701776
 20
645.7664048083
 30
0.0
 10
616.5448786428
 20
645.675765944
 30
0.0
 10
616.7358291362
 20
645.5590557218
 30
0.0
 10
616.9076710236
 20
645.4145277949
 30
0.0
 10
617.0534111892
 20
645.2414933047
 30
0.0
 10
617.1708630886
 20
645.048773163
 30
0.0
 10
617.2613126201
 20
644.8434104199
 30
0.0
 10
617.3279530767
 20
644.6246853634
 30
0.0
 10
617.3709419149
 20
644.3913973459
 30
0.0
 10
617.3821053701
 20
644.2237241368
 30
0.0
 10
617.3821053701
 20
644.1370483038
 30
0.0
  0
SPLINE
  5
361
100
AcDbEntity
  8
03___PRT_ALL_CURVES
100
AcDbSpline
 62
2
  6
CONTINUOUS
 70
0
 71
3
 72
19
 73
15
 74
0
 42
0.0000001
 43
0.0000001
 44
0.0000000001
 40
0.0
 40
0.0
 40
0.0
 40
0.0
 40
0.0833333333
 40
0.1666666667
 40
0.25
 40
0.3333333333
 40
0.4166666667
 40
0.5
 40
0.5833333333
 40
0.6666666667
 40
0.75
 40
0.8333333333
 40
0.9166666667
 40
1.0
 40
1.0
 40
1.0
 40
1.0
 10
617.3821053701
 20
639.4996052711
 30
0.0
 10
617.3821053701
 20
639.4118457986
 30
0.0
 10
617.3706881021
 20
639.2418681897
 30
0.0
 10
617.3262979114
 20
639.0042151252
 30
0.0
 10
617.2572900718
 20
638.7817148003
 30
0.0
 10
617.1641469773
 20
638.5745664412
 30
0.0
 10
617.0446274341
 20
638.3826931349
 30
0.0
 10
616.8977135044
 20
638.2119604255
 30
0.0
 10
616.7236276866
 20
638.0686673028
 30
0.0
 10
616.5320620403
 20
637.9541860168
 30
0.0
 10
616.3292952189
 20
637.8663322055
 30
0.0
 10
616.1138202378
 20
637.8015342412
 30
0.0
 10
615.8835977192
 20
637.7594975555
 30
0.0
 10
615.7171675832
 20
637.7484632359
 30
0.0
 10
615.630963335
 20
637.7484632359
 30
0.0
  0
SPLINE
  5
362
100
AcDbEntity
  8
03___PRT_ALL_CURVES
100
AcDbSpline
 62
2
  6
CONTINUOUS
 70
0
 71
3
 72
19
 73
15
 74
0
 42
0.0000001
 43
0.0000001
 44
0.0000000001
 40
0.0
 40
0.0
 40
0.0
 40
0.0
 40
0.0833333333
 40
0.1666666667
 40
0.25
 40
0.3333333333
 40
0.4166666667
 40
0.5
 40
0.5833333333
 40
0.6666666667
 40
0.75
 40
0.8333333333
 40
0.9166666667
 40
1.0
 40
1.0
 40
1.0
 40
1.0
 10
579.1332772547
 20
637.7484632359
 30
0.0
 10
579.0461964521
 20
637.7484632359
 30
0.0
 10
578.8777810238
 20
637.7597078105
 30
0.0
 10
578.6433519791
 20
637.803060064
 30
0.0
 10
578.4240511298
 20
637.8701674157
 30
0.0
 10
578.2192646249
 20
637.9607410126
 30
0.0
 10
578.0283204921
 20
638.0773925453
 30
0.0
 10
577.8564767151
 20
638.2218885114
 30
0.0
 10
577.7107484577
 20
638.3949199529
 30
0.0
 10
577.5933208017
 20
638.5876495145
 30
0.0
 10
577.5029006171
 20
638.7930232123
 30
0.0
 10
577.4362807408
 20
639.0117776428
 30
0.0
 10
577.3933002864
 20
639.2451252625
 30
0.0
 10
577.3821352196
 20
639.4128800041
 30
0.0
 10
577.3821352196
 20
639.4996052711
 30
0.0
  0
SPLINE
  5
363
100
AcDbEntity
  8
03___PRT_ALL_CURVES
100
AcDbSpline
 62
2
  6
CONTINUOUS
 70
0
 71
3
 72
18
 73
14
 74
0
 42
0.0000001
 43
0.0000001
 44
0.0000000001
 40
0.0
 40
0.0
 40
0.0
 40
0.0
 40
0.0909090909
 40
0.1818181818
 40
0.2727272727
 40
0.3636363636
 40
0.4545454545
 40
0.5454545455
 40
0.6363636364
 40
0.7272727273
 40
0.8181818182
 40
0.9090909091
 40
1.0
 40
1.0
 40
1.0
 40
1.0
 10
577.3821352196
 20
644.1370483038
 30
0.0
 10
577.3821352196
 20
644.2217193766
 30
0.0
 10
577.3925980699
 20
644.3918450759
 30
0.0
 10
577.4424348969
 20
644.6558109334
 30
0.0
 10
577.5269443421
 20
644.9092873804
 30
0.0
 10
577.6401875705
 20
645.134778985
 30
0.0
 10
577.7775985408
 20
645.3288244474
 30
0.0
 10
577.9434733407
 20
645.4943840929
 30
0.0
 10
578.1378487875
 20
645.6315261686
 30
0.0
 10
578.363550195
 20
645.744419843
 30
0.0
 10
578.6169149551
 20
645.8284958184
 30
0.0
 10
578.8802134561
 20
645.8778973203
 30
0.0
 10
579.0492748317
 20
645.8881903389
 30
0.0
 10
579.1332772547
 20
645.8881903389
 30
0.0
  0
SPLINE
  5
364
100
AcDbEntity
  8
03___PRT_ALL_CURVES
100
AcDbSpline
 62
2
  6
CONTINUOUS
 70
0
 71
3
 72
16
 73
12
 74
0
 42
0.0000001
 43
0.0000001
 44
0.0000000001
 40
0.0
 40
0.0
 40
0.0
 40
0.0
 40
0.1
 40
0.2
 40
0.3
 40
0.4
 40
0.5
 40
0.6
 40
0.7
 40
0.8
 40
1.0
 40
1.0
 40
1.0
 40
1.0
 10
592.4564950248
 20
640.0794148412
 30
0.0
 10
592.4400220684
 20
640.0794148412
 30
0.0
 10
592.4081367844
 20
640.0812685831
 30
0.0
 10
592.3604689558
 20
640.0894184702
 30
0.0
 10
592.3138055342
 20
640.103417271
 30
0.0
 10
592.2700115329
 20
640.1233604206
 30
0.0
 10
592.230543406
 20
640.149352552
 30
0.0
 10
592.1960774504
 20
640.1815780251
 30
0.0
 10
592.166225111
 20
640.2184333241
 30
0.0
 10
592.1318334174
 20
640.2724861686
 30
0.0
 10
592.1121190658
 20
640.315027088
 30
0.0
 10
592.1002721516
 20
640.3446871936
 30
0.0
  0
SPLINE
  5
365
100
AcDbEntity
  8
03___PRT_ALL_CURVES
100
AcDbSpline
 62
2
  6
CONTINUOUS
 70
0
 71
3
 72
17
 73
13
 74
0
 42
0.0000001
 43
0.0000001
 44
0.0000000001
 40
0.0
 40
0.0
 40
0.0
 40
0.0
 40
0.1
 40
0.2
 40
0.3
 40
0.4
 40
0.5
 40
0.6
 40
0.7
 40
0.8
 40
0.9
 40
1.0
 40
1.0
 40
1.0
 40
1.0
 10
594.2384706646
 20
639.7740071265
 30
0.0
 10
594.2222451452
 20
639.7740071265
 30
0.0
 10
594.1908828646
 20
639.7754134435
 30
0.0
 10
594.1436983314
 20
639.7821310494
 30
0.0
 10
594.0972456124
 20
639.7944822658
 30
0.0
 10
594.0537924544
 20
639.8130455604
 30
0.0
 10
594.0147977646
 20
639.8384590069
 30
0.0
 10
593.9814623176
 20
639.8711133923
 30
0.0
 10
593.9535392602
 20
639.9096909209
 30
0.0
 10
593.9315421305
 20
639.9525253117
 30
0.0
 10
593.9159620763
 20
639.9972318208
 30
0.0
 10
593.9096678948
 20
640.0276246746
 30
0.0
 10
593.9075692432
 20
640.0435858482
 30
0.0
  0
SPLINE
  5
366
100
AcDbEntity
  8
03___PRT_ALL_CURVES
100
AcDbSpline
 62
2
  6
CONTINUOUS
 70
0
 71
3
 72
15
 73
11
 74
0
 42
0.0000001
 43
0.0000001
 44
0.0000000001
 40
0.0
 40
0.0
 40
0.0
 40
0.0
 40
0.2
 40
0.3
 40
0.4
 40
0.5
 40
0.6
 40
0.7
 40
0.8
 40
1.0
 40
1.0
 40
1.0
 40
1.0
 10
586.2606630494
 20
642.2735961558
 30
0.0
 10
586.2606630494
 20
642.1840785682
 30
0.0
 10
586.2462517449
 20
642.0551666318
 30
0.0
 10
586.2013190158
 20
641.8912268047
 30
0.0
 10
586.1550612276
 20
641.774639077
 30
0.0
 10
586.0958042046
 20
641.6643003346
 30
0.0
 10
586.0237644228
 20
641.5628729488
 30
0.0
 10
585.9414950059
 20
641.4716972698
 30
0.0
 10
585.8186667606
 20
641.3628147372
 30
0.0
 10
585.7150287371
 20
641.297105972
 30
0.0
 10
585.6396845882
 20
641.2605658284
 30
0.0
  0
ENDSEC
  0
SECTION
  2
OBJECTS
  0
DICTIONARY
  5
C
100
AcDbDictionary
280
0
281
1
  3
ACAD_GROUP
350
D
  3
ACAD_MLINESTYLE
350
17
  3
ACAD_LAYOUT
350
1A
  3
ACAD_PLOTSETTINGS
350
19
  3
ACAD_PLOTSTYLENAME
350
E
  0
DICTIONARY
  5
D
102
{ACAD_REACTORS
330
C
102
}
100
AcDbDictionary
280
0
281
1
  0
ACDBDICTIONARYWDFLT
  5
E
102
{ACAD_REACTORS
330
C
102
}
100
AcDbDictionary
281
1
  3
Normal
350
F
100
AcDbDictionaryWithDefault
340
F
  0
DICTIONARY
  5
17
102
{ACAD_REACTORS
330
C
102
}
100
AcDbDictionary
280
0
281
1
  3
Standard
350
18
  0
DICTIONARY
  5
19
102
{ACAD_REACTORS
330
C
102
}
100
AcDbDictionary
281
1
  0
DICTIONARY
  5
1A
102
{ACAD_REACTORS
330
C
102
}
100
AcDbDictionary
281
1
  3
Model
350
367
  3
Layout1
350
368
  0
ACDBPLACEHOLDER
  5
F
102
{ACAD_REACTORS
330
E
102
}
  0
MLINESTYLE
  5
18
102
{ACAD_REACTORS
330
17
102
}
100
AcDbMlineStyle
  2
STANDARD
 70
0
  3

 62
256
 51
90.0
 52
90.0
 71
2
 49
0.5
 62
256
  6
BYLAYER
 49
-0.5
 62
256
  6
BYLAYER
  0
LAYOUT
  5
367
102
{ACAD_REACTORS
330
1A
102
}
100
AcDbPlotSettings
  1

  2
none_device
  4

  6

 40
0.0
 41
0.0
 42
0.0
 43
0.0
 44
1223.0
 45
875.0
 46
0.0
 47
0.0
 48
0.0
 49
0.0
140
0.0
141
0.0
142
1.0
143
1.0
 70
1024
 72
1
 73
0
 74
0
  7

 75
0
147
1.0
148
0.0
149
0.0
100
AcDbLayout
  1
Model
 70
0
 71
0
 10
0.0
 20
0.0
 11
1223.0
 21
875.0
 12
0.0
 22
0.0
 32
0.0
 14
0.0
 24
0.0
 34
0.0
 15
0.0
 25
0.0
 35
0.0
146
0.0
 13
0.0
 23
0.0
 33
0.0
 16
1.0
 26
0.0
 36
0.0
 17
0.0
 27
1.0
 37
0.0
 76
0
330
216
345
0
346
0
  0
LAYOUT
  5
368
102
{ACAD_REACTORS
330
1A
102
}
100
AcDbPlotSettings
  1

  2
none_device
  4

  6

 40
0.0
 41
0.0
 42
0.0
 43
0.0
 44
1223.0
 45
875.0
 46
0.0
 47
0.0
 48
0.0
 49
0.0
140
0.0
141
0.0
142
1.0
143
1.0
 70
0
 72
1
 73
0
 74
0
  7

 75
0
147
1.0
148
0.0
149
0.0
100
AcDbLayout
  1
Layout1
 70
0
 71
1
 10
0.0
 20
0.0
 11
1223.0
 21
875.0
 12
0.0
 22
0.0
 32
0.0
 14
0.0
 24
0.0
 34
0.0
 15
0.0
 25
0.0
 35
0.0
146
0.0
 13
0.0
 23
0.0
 33
0.0
 16
1.0
 26
0.0
 36
0.0
 17
0.0
 27
1.0
 37
0.0
 76
0
330
217
345
0
346
0
  0
ENDSEC
  0
EOF
