999
DXF file: W:\Engenharia\Produtos\Lixeiras\94540030\94540030.dxf
999
Pro/ENGINEER 2013050 by Parametric Technology Corporation
  0
SECTION
  2
HEADER
  9
$ACADVER
  1
AC1021
  9
$DWGCODEPAGE
  3
ANSI_1252
  9
$EXTMAX
 10
594.0
 20
420.0
 30
0.0
  9
$EXTMIN
 10
0.0
 20
0.0
 30
0.0
  9
$LIMMIN
 10
0.0
 20
0.0
  9
$LIMMAX
 10
594.0
 20
420.0
  9
$VIEWCTR
 10
297.0
 20
210.0
  9
$VIEWSIZE
 40
420.0
  9
$CLAYER
  8
0
  9
$LTSCALE
 40
32.67
  9
$CELTYPE
  6
BYLAYER
  9
$DIMSCALE
 40
1.0
  9
$DIMASZ
 40
3.0
  9
$DIMEXO
 40
0.5
  9
$DIMDLI
 40
22.572
  9
$DIMEXE
 40
0.5
  9
$DIMCEN
 40
5.346
  9
$DIMLFAC
 40
1.0
  9
$DIMBLK
  1
_FILLED
  9
$DIMTXT
 40
1.8
  9
$DIMTOL
 70
1
  9
$DIMLIM
 70
0
  9
$DIMTFAC
 40
1.0
  9
$DIMTP
 40
0.001
  9
$DIMTM
 40
0.001
  9
$DIMGAP
 40
0.625
  9
$DIMDSEP
 70
46
  9
$PDMODE
 70
3
  9
$PDSIZE
 40
1.0
  9
$HANDSEED
  5
519
  9
$TILEMODE
 70
1
  9
$MEASUREMENT
 70
1
  9
$INSUNITS
 70
4
  0
ENDSEC
  0
SECTION
  2
CLASSES
  0
CLASS
  1
ACDBDICTIONARYWDFLT
  2
AcDbDictionaryWithDefault
  3
AutoCAD 2000
 90
0
 91
1
280
0
281
0
  0
CLASS
  1
ACDBPLACEHOLDER
  2
AcDbPlaceHolder
  3
AutoCAD 2000
 90
0
 91
1
280
0
281
0
  0
CLASS
  1
LAYOUT
  2
AcDbLayout
  3
AutoCAD 2000
 90
0
 91
0
280
0
281
0
  0
ENDSEC
  0
SECTION
  2
TABLES
  0
TABLE
  2
VPORT
  5
8
100
AcDbSymbolTable
 70
2
  0
VPORT
  5
1F4
100
AcDbSymbolTableRecord
100
AcDbViewportTableRecord
  2
*ACTIVE
 70
0
 10
0.0
 20
0.0
 11
1.0
 21
1.0
 12
297.0
 22
210.0
 13
0.0
 23
0.0
 14
1.0
 24
1.0
 15
0.0
 25
0.0
 16
0.0
 26
0.0
 36
1.0
 17
0.0
 27
0.0
 37
0.0
 40
420.0
 41
1.4142857143
 42
50.0
 43
0.0
 44
0.0
 50
0.0
 51
0.0
 71
0
 72
100
 73
1
 74
1
 75
0
 76
0
 77
0
 78
0
  0
ENDTAB
  0
TABLE
  2
LTYPE
  5
5
100
AcDbSymbolTable
 70
6
  0
LTYPE
  5
14
100
AcDbSymbolTableRecord
100
AcDbLinetypeTableRecord
  2
BYBLOCK
 70
0
  3

 72
65
 73
0
 40
0.0
  0
LTYPE
  5
15
100
AcDbSymbolTableRecord
100
AcDbLinetypeTableRecord
  2
BYLAYER
 70
0
  3

 72
65
 73
0
 40
0.0
  0
LTYPE
  5
16
100
AcDbSymbolTableRecord
100
AcDbLinetypeTableRecord
  2
CONTINUOUS
 70
64
  3
Solid line
 72
65
 73
0
 40
0.0
  0
LTYPE
  5
1F5
100
AcDbSymbolTableRecord
100
AcDbLinetypeTableRecord
  2
CENTER
 70
64
  3
____ _ ____ _ ____ _ ____ _ ____ _ ____ _ ____
 72
65
 73
4
 40
0.6
 49
0.375
 74
0
 49
-0.075
 74
0
 49
0.075
 74
0
 49
-0.075
 74
0
  0
LTYPE
  5
1F6
100
AcDbSymbolTableRecord
100
AcDbLinetypeTableRecord
  2
HIDDEN
 70
64
  3
- - - - - - - - - - - - - - - - - - - -
 72
65
 73
2
 40
0.2
 49
0.1
 74
0
 49
-0.1
 74
0
  0
LTYPE
  5
1F7
100
AcDbSymbolTableRecord
100
AcDbLinetypeTableRecord
  2
PHANTOM
 70
64
  3
_____ _ _ _____ _ _ _____ _ _ _____
 72
65
 73
6
 40
0.8
 49
0.45
 74
0
 49
-0.05
 74
0
 49
0.1
 74
0
 49
-0.05
 74
0
 49
0.1
 74
0
 49
-0.05
 74
0
  0
LTYPE
  5
1F8
100
AcDbSymbolTableRecord
100
AcDbLinetypeTableRecord
  2
DOT
 70
64
  3
. . . . . . . . . . . . . . . . . . . .
 72
65
 73
2
 40
0.2
 49
0.1
 74
0
 49
-0.1
 74
0
  0
LTYPE
  5
1F9
100
AcDbSymbolTableRecord
100
AcDbLinetypeTableRecord
  2
DASHED
 70
64
  3
- - - - - - - - - - - - - - - - - - - -
 72
65
 73
2
 40
0.2
 49
0.1
 74
0
 49
-0.1
 74
0
  0
ENDTAB
  0
TABLE
  2
LAYER
  5
2
100
AcDbSymbolTable
 70
36
  0
LAYER
  5
10
100
AcDbSymbolTableRecord
100
AcDbLayerTableRecord
  2
0
 70
0
 62
7
  6
CONTINUOUS
370
-3
390
F
  0
LAYER
  5
1FA
100
AcDbSymbolTableRecord
100
AcDbLayerTableRecord
  2
DEFAULT_1
 70
0
 62
7
  6
CENTER
370
-3
390
F
  0
LAYER
  5
1FB
100
AcDbSymbolTableRecord
100
AcDbLayerTableRecord
  2
DEFAULT_2
 70
0
 62
8
  6
HIDDEN
370
-3
390
F
  0
LAYER
  5
1FC
100
AcDbSymbolTableRecord
100
AcDbLayerTableRecord
  2
DEFAULT_3
 70
0
 62
7
  6
PHANTOM
370
-3
390
F
  0
LAYER
  5
1FD
100
AcDbSymbolTableRecord
100
AcDbLayerTableRecord
  2
01_ALL_DTM_PLN
 70
0
 62
7
  6
CONTINUOUS
370
-3
390
F
  0
LAYER
  5
1FE
100
AcDbSymbolTableRecord
100
AcDbLayerTableRecord
  2
01__ASM_ALL_DTM_PLN
 70
0
 62
7
  6
CONTINUOUS
370
-3
390
F
  0
LAYER
  5
1FF
100
AcDbSymbolTableRecord
100
AcDbLayerTableRecord
  2
01__ASM_DEF_DTM_PLN
 70
0
 62
7
  6
CONTINUOUS
370
-3
390
F
  0
LAYER
  5
200
100
AcDbSymbolTableRecord
100
AcDbLayerTableRecord
  2
01___PRT_ALL_DTM_PLN
 70
0
 62
7
  6
CONTINUOUS
370
-3
390
F
  0
LAYER
  5
201
100
AcDbSymbolTableRecord
100
AcDbLayerTableRecord
  2
01___PRT_DEF_DTM_PLN
 70
0
 62
7
  6
CONTINUOUS
370
-3
390
F
  0
LAYER
  5
202
100
AcDbSymbolTableRecord
100
AcDbLayerTableRecord
  2
02_ALL_AXES
 70
0
 62
7
  6
CONTINUOUS
370
-3
390
F
  0
LAYER
  5
203
100
AcDbSymbolTableRecord
100
AcDbLayerTableRecord
  2
02__ASM_ALL_AXES
 70
0
 62
7
  6
CONTINUOUS
370
-3
390
F
  0
LAYER
  5
204
100
AcDbSymbolTableRecord
100
AcDbLayerTableRecord
  2
02___PRT_ALL_AXES
 70
0
 62
7
  6
CONTINUOUS
370
-3
390
F
  0
LAYER
  5
205
100
AcDbSymbolTableRecord
100
AcDbLayerTableRecord
  2
03_ALL_CURVES
 70
0
 62
7
  6
CONTINUOUS
370
-3
390
F
  0
LAYER
  5
206
100
AcDbSymbolTableRecord
100
AcDbLayerTableRecord
  2
03__ASM_ALL_CURVES
 70
0
 62
7
  6
CONTINUOUS
370
-3
390
F
  0
LAYER
  5
207
100
AcDbSymbolTableRecord
100
AcDbLayerTableRecord
  2
03___PRT_ALL_CURVES
 70
0
 62
7
  6
CONTINUOUS
370
-3
390
F
  0
LAYER
  5
208
100
AcDbSymbolTableRecord
100
AcDbLayerTableRecord
  2
04_ALL_DTM_PNT
 70
0
 62
7
  6
CONTINUOUS
370
-3
390
F
  0
LAYER
  5
209
100
AcDbSymbolTableRecord
100
AcDbLayerTableRecord
  2
04__ASM_ALL_DTM_PNT
 70
0
 62
7
  6
CONTINUOUS
370
-3
390
F
  0
LAYER
  5
20A
100
AcDbSymbolTableRecord
100
AcDbLayerTableRecord
  2
04___PRT_ALL_DTM_PNT
 70
0
 62
7
  6
CONTINUOUS
370
-3
390
F
  0
LAYER
  5
20B
100
AcDbSymbolTableRecord
100
AcDbLayerTableRecord
  2
05_ALL_DTM_CSYS
 70
0
 62
7
  6
CONTINUOUS
370
-3
390
F
  0
LAYER
  5
20C
100
AcDbSymbolTableRecord
100
AcDbLayerTableRecord
  2
05__ASM_ALL_DTM_CSYS
 70
0
 62
7
  6
CONTINUOUS
370
-3
390
F
  0
LAYER
  5
20D
100
AcDbSymbolTableRecord
100
AcDbLayerTableRecord
  2
05__ASM_DEF_DTM_CSYS
 70
0
 62
7
  6
CONTINUOUS
370
-3
390
F
  0
LAYER
  5
20E
100
AcDbSymbolTableRecord
100
AcDbLayerTableRecord
  2
05___PRT_ALL_DTM_CSYS
 70
0
 62
7
  6
CONTINUOUS
370
-3
390
F
  0
LAYER
  5
20F
100
AcDbSymbolTableRecord
100
AcDbLayerTableRecord
  2
05___PRT_DEF_DTM_CSYS
 70
0
 62
7
  6
CONTINUOUS
370
-3
390
F
  0
LAYER
  5
210
100
AcDbSymbolTableRecord
100
AcDbLayerTableRecord
  2
06_ALL_SURFS
 70
0
 62
7
  6
CONTINUOUS
370
-3
390
F
  0
LAYER
  5
211
100
AcDbSymbolTableRecord
100
AcDbLayerTableRecord
  2
06__ASM_ALL_SURFS
 70
0
 62
7
  6
CONTINUOUS
370
-3
390
F
  0
LAYER
  5
212
100
AcDbSymbolTableRecord
100
AcDbLayerTableRecord
  2
06___PRT_ALL_SURFS
 70
0
 62
7
  6
CONTINUOUS
370
-3
390
F
  0
LAYER
  5
213
100
AcDbSymbolTableRecord
100
AcDbLayerTableRecord
  2
07__ASM_ALL_SKELETONS
 70
0
 62
7
  6
CONTINUOUS
370
-3
390
F
  0
ENDTAB
  0
TABLE
  2
STYLE
  5
3
100
AcDbSymbolTable
 70
1
  0
STYLE
  5
11
100
AcDbSymbolTableRecord
100
AcDbTextStyleTableRecord
  2
STANDARD
 70
0
 40
0.0
 41
0.8
 50
0.0
 71
0
 42
0.2
  3
txt
  4

  0
STYLE
  5
214
100
AcDbSymbolTableRecord
100
AcDbTextStyleTableRecord
  2
TEXTSTYLE_1
 70
0
 40
0.0
 41
0.8
 50
0.0
 71
0
 42
0.2
  3
gdt
  4

  0
ENDTAB
  0
TABLE
  2
VIEW
  5
6
100
AcDbSymbolTable
 70
0
  0
ENDTAB
  0
TABLE
  2
UCS
  5
7
100
AcDbSymbolTable
 70
0
  0
ENDTAB
  0
TABLE
  2
APPID
  5
9
100
AcDbSymbolTable
 70
1
  0
APPID
  5
215
100
AcDbSymbolTableRecord
100
AcDbRegAppTableRecord
  2
ACAD
 70
0
  0
ENDTAB
  0
TABLE
  2
BLOCK_RECORD
  5
1
100
AcDbSymbolTable
 70
0
  0
BLOCK_RECORD
  5
216
100
AcDbSymbolTableRecord
100
AcDbBlockTableRecord
  2
*Model_Space
  0
BLOCK_RECORD
  5
217
100
AcDbSymbolTableRecord
100
AcDbBlockTableRecord
  2
*Paper_Space
  0
BLOCK_RECORD
  5
218
100
AcDbSymbolTableRecord
100
AcDbBlockTableRecord
  2
_FILLED
  0
BLOCK_RECORD
  5
219
100
AcDbSymbolTableRecord
100
AcDbBlockTableRecord
  2
*D0
  0
BLOCK_RECORD
  5
21A
100
AcDbSymbolTableRecord
100
AcDbBlockTableRecord
  2
*D1
  0
ENDTAB
  0
TABLE
  2
DIMSTYLE
  5
A
100
AcDbSymbolTable
 70
1
100
AcDbDimStyleTable
 71
0
  0
DIMSTYLE
105
21B
100
AcDbSymbolTableRecord
100
AcDbDimStyleTableRecord
  2
STANDARD
 70
0
  3

  4

 40
1.0
 41
3.0
 42
0.5
 43
0.38
 44
0.5
 45
0.0
 46
0.0
 47
0.001
 48
0.001
140
1.8
141
0.09
142
0.0
143
25.4
144
1.0
145
0.0
146
1.0
147
0.625
 71
1.0
 72
0.0
 73
0
 74
0
 75
0
 76
0
 77
1
 78
8
170
0
171
2
172
0
173
0
174
0
175
0
176
0
177
0
178
0
270
2
271
3
272
3
273
2
274
2
275
0
280
0
281
0
282
0
283
1
284
8
285
0
286
0
287
3
288
0
340
11
278
46
341
218
342
218
343
218
344
218
  0
DIMSTYLE
105
21C
100
AcDbSymbolTableRecord
100
AcDbDimStyleTableRecord
  2
DIMSTYLE_1
 70
0
  3

  4

 40
1.0
 41
3.0
 42
0.5
 43
0.38
 44
0.5
 45
0.0
 46
0.0
 47
0.001
 48
0.001
140
5.0
141
0.09
142
0.0
143
25.4
144
1.0
145
0.0
146
1.0
147
1.25
 71
0.0
 72
0.0
 73
0
 74
0
 75
0
 76
0
 77
1
 78
8
170
0
171
2
172
0
173
0
174
0
175
0
176
0
177
0
178
0
270
2
271
3
272
3
273
2
274
2
275
0
280
0
281
0
282
0
283
1
284
8
285
0
286
0
287
3
288
0
340
11
278
46
341
218
342
218
343
218
344
218
  0
ENDTAB
  0
ENDSEC
  0
SECTION
  2
BLOCKS
  0
BLOCK
  5
20
100
AcDbEntity
  8
0
100
AcDbBlockBegin
  2
*Model_Space
 70
0
 10
0.0
 20
0.0
 30
0.0
  3
*Model_Space
  1

  0
ENDBLK
  5
21
100
AcDbEntity
  8
0
100
AcDbBlockEnd
  0
BLOCK
  5
1C
100
AcDbEntity
  8
0
100
AcDbBlockBegin
  2
*Paper_Space
 70
0
 10
0.0
 20
0.0
 30
0.0
  3
*Paper_Space
  1

  0
ENDBLK
  5
1D
100
AcDbEntity
  8
0
100
AcDbBlockEnd
  0
BLOCK
  5
21D
100
AcDbEntity
  8
0
100
AcDbBlockBegin
  2
_FILLED
 70
64
 10
0.0
 20
0.0
  3
_FILLED
  1

  0
SOLID
  5
21E
100
AcDbEntity
  8
0
  6
BYBLOCK
 62
0
100
AcDbTrace
 10
0.0
 20
0.0
 11
-1.0
 21
0.1666666667
 12
-1.0
 22
-0.1666666667
 13
-1.0
 23
-0.1666666667
  0
ENDBLK
  5
21F
100
AcDbEntity
  8
0
  6
BYBLOCK
 62
0
100
AcDbBlockEnd
  0
BLOCK
  5
220
100
AcDbEntity
  8
0
100
AcDbBlockBegin
 62
2
  6
CONTINUOUS
  2
*D0
 70
65
 10
0.0
 20
0.0
  3
*D0
  1

  0
MTEXT
  5
221
100
AcDbEntity
  8
0
100
AcDbMText
 62
2
  6
CONTINUOUS
  7
TEXTSTYLE_1
 71
2
 72
1
 10
313.0595699054
 20
382.4034401531
 30
0.0
 11
1.0
 21
0.0
 31
0.0
 44
0.9
  1
{\Fgdt;n}\Ftxt;203
 40
5.0
 41
33.1428571429
  0
LINE
  5
222
100
AcDbEntity
  8
0
100
AcDbLine
 62
2
  6
CONTINUOUS
 10
211.0595699054
 20
357.7605830102
 11
211.0595699054
 21
375.7605830102
  0
LINE
  5
223
100
AcDbEntity
  8
0
100
AcDbLine
 62
2
  6
CONTINUOUS
 10
415.0595699054
 20
357.7605830102
 11
415.0595699054
 21
375.7605830102
  0
LINE
  5
224
100
AcDbEntity
  8
0
100
AcDbLine
 62
2
  6
CONTINUOUS
 10
211.0595699054
 20
375.2605830102
 11
313.0595699054
 21
375.2605830102
  0
LINE
  5
225
100
AcDbEntity
  8
0
100
AcDbLine
 62
2
  6
CONTINUOUS
 10
415.0595699054
 20
375.2605830102
 11
313.0595699054
 21
375.2605830102
  0
INSERT
  5
226
100
AcDbEntity
  8
0
100
AcDbBlockReference
 62
2
  6
CONTINUOUS
  2
_FILLED
 10
211.0595699054
 20
375.2605830102
 41
3.0
 42
3.0
 43
3.0
 50
180.0
  0
INSERT
  5
227
100
AcDbEntity
  8
0
100
AcDbBlockReference
 62
2
  6
CONTINUOUS
  2
_FILLED
 10
415.0595699054
 20
375.2605830102
 41
3.0
 42
3.0
 43
3.0
 50
360.0
  0
ENDBLK
  5
228
100
AcDbEntity
  8
0
  6
BYBLOCK
 62
0
100
AcDbBlockEnd
  0
BLOCK
  5
229
100
AcDbEntity
  8
0
100
AcDbBlockBegin
 62
2
  6
CONTINUOUS
  2
*D1
 70
65
 10
0.0
 20
0.0
  3
*D1
  1

  0
MTEXT
  5
22A
100
AcDbEntity
  8
0
100
AcDbMText
 62
2
  6
CONTINUOUS
  7
STANDARD
 71
2
 72
1
 10
436.6068326834
 20
203.3345830102
 30
0.0
 11
0.0
 21
1.0
 31
0.0
 44
0.9
  1
315
 40
5.0
 41
23.1428571429
  0
LINE
  5
22B
100
AcDbEntity
  8
0
100
AcDbLine
 62
2
  6
CONTINUOUS
 10
398.5911949594
 20
46.4085830102
 11
444.2496898263
 21
46.4085830102
  0
LINE
  5
22C
100
AcDbEntity
  8
0
100
AcDbLine
 62
2
  6
CONTINUOUS
 10
313.5595699054
 20
360.2605830102
 11
444.2496898263
 21
360.2605830102
  0
LINE
  5
22D
100
AcDbEntity
  8
0
100
AcDbLine
 62
2
  6
CONTINUOUS
 10
443.7496898263
 20
46.4085830102
 11
443.7496898263
 21
203.3345830102
  0
LINE
  5
22E
100
AcDbEntity
  8
0
100
AcDbLine
 62
2
  6
CONTINUOUS
 10
443.7496898263
 20
360.2605830102
 11
443.7496898263
 21
203.3345830102
  0
INSERT
  5
22F
100
AcDbEntity
  8
0
100
AcDbBlockReference
 62
2
  6
CONTINUOUS
  2
_FILLED
 10
443.7496898263
 20
46.4085830102
 41
3.0
 42
3.0
 43
3.0
 50
270.0
  0
INSERT
  5
230
100
AcDbEntity
  8
0
100
AcDbBlockReference
 62
2
  6
CONTINUOUS
  2
_FILLED
 10
443.7496898263
 20
360.2605830102
 41
3.0
 42
3.0
 43
3.0
 50
90.0
  0
ENDBLK
  5
231
100
AcDbEntity
  8
0
  6
BYBLOCK
 62
0
100
AcDbBlockEnd
  0
ENDSEC
  0
SECTION
  2
ENTITIES
  0
DIMENSION
  5
232
100
AcDbEntity
  8
0
100
AcDbDimension
 62
2
  6
CONTINUOUS
  2
*D0
 10
415.0595699054
 20
375.2605830102
 11
313.0595699054
 21
375.2605830102
 70
160
 71
2
 42
204.0
  1
%%c<>
  3
DIMSTYLE_1
100
AcDbAlignedDimension
 13
211.0595699054
 23
357.2605830102
 14
415.0595699054
 24
357.2605830102
 50
360.0
100
AcDbRotatedDimension
  0
DIMENSION
  5
233
100
AcDbEntity
  8
0
100
AcDbDimension
 62
2
  6
CONTINUOUS
  2
*D1
 10
443.7496898263
 20
360.2605830102
 11
443.7496898263
 21
203.3345830102
 70
160
 71
2
 42
313.852
  3
DIMSTYLE_1
100
AcDbAlignedDimension
 13
398.0911949594
 23
46.4085830102
 14
313.0595699054
 24
360.2605830102
 50
90.0
100
AcDbRotatedDimension
  0
LINE
  5
234
100
AcDbEntity
  8
02___PRT_ALL_AXES
100
AcDbLine
 62
7
  6
CONTINUOUS
 10
225.2862054303
 20
49.1366203803
 11
227.2597235718
 21
46.7683986106
  0
LINE
  5
235
100
AcDbEntity
  8
0
100
AcDbLine
 62
7
  6
CONTINUOUS
 10
398.0911949594
 20
46.4085830102
 11
228.0279448514
 21
46.4085830102
  0
LINE
  5
236
100
AcDbEntity
  8
0
100
AcDbLine
 62
7
  6
CONTINUOUS
 10
227.2597235718
 20
46.7683986106
 11
398.859416239
 21
46.7683986106
  0
LINE
  5
237
100
AcDbEntity
  8
0
100
AcDbLine
 62
7
  6
CONTINUOUS
 10
400.8329343805
 20
49.1366203803
 11
225.2862054303
 21
49.1366203803
  0
LINE
  5
238
100
AcDbEntity
  8
0
100
AcDbLine
 62
7
  6
CONTINUOUS
 10
401.3556978935
 20
49.580332435
 11
224.7634419173
 21
49.580332435
  0
LINE
  5
239
100
AcDbEntity
  8
02___PRT_ALL_AXES
100
AcDbLine
 62
7
  6
CONTINUOUS
 10
415.5595699054
 20
74.4085830102
 11
210.5595699054
 21
74.4085830102
  0
LINE
  5
23A
100
AcDbEntity
  8
0
100
AcDbLine
 62
7
  6
CONTINUOUS
 10
415.0595699054
 20
76.1585830102
 11
211.0595699054
 21
76.1585830102
  0
LINE
  5
23B
100
AcDbEntity
  8
0
100
AcDbLine
 62
7
  6
CONTINUOUS
 10
411.7576210823
 20
76.9085830102
 11
384.7025637456
 21
76.9085830102
  0
LINE
  5
23C
100
AcDbEntity
  8
0
100
AcDbLine
 62
7
  6
CONTINUOUS
 10
340.1146272422
 20
76.9085830102
 11
286.0045125686
 21
76.9085830102
  0
LINE
  5
23D
100
AcDbEntity
  8
0
100
AcDbLine
 62
7
  6
CONTINUOUS
 10
241.4165760652
 20
76.9085830102
 11
214.3615187285
 21
76.9085830102
  0
LINE
  5
23E
100
AcDbEntity
  8
0
100
AcDbLine
 62
7
  6
CONTINUOUS
 10
211.0595699054
 20
357.2605830102
 11
211.0595699054
 21
76.1585830102
  0
LINE
  5
23F
100
AcDbEntity
  8
0
100
AcDbLine
 62
7
  6
CONTINUOUS
 10
309.4376737726
 20
140.2605830102
 11
309.4198319197
 21
140.2605830102
  0
LINE
  5
240
100
AcDbEntity
  8
0
100
AcDbLine
 62
7
  6
CONTINUOUS
 10
273.5660881015
 20
140.2605830102
 11
273.37153893
 21
140.2605830102
  0
LINE
  5
241
100
AcDbEntity
  8
0
100
AcDbLine
 62
7
  6
CONTINUOUS
 10
242.8686213563
 20
140.2605830102
 11
242.5228531369
 21
140.2605830102
  0
LINE
  5
242
100
AcDbEntity
  8
0
100
AcDbLine
 62
7
  6
CONTINUOUS
 10
221.3670091859
 20
140.2605830102
 11
220.9153216946
 21
140.2605830102
  0
LINE
  5
243
100
AcDbEntity
  8
0
100
AcDbLine
 62
7
  6
CONTINUOUS
 10
211.8782201983
 20
140.2605830102
 11
211.3797899042
 21
140.2605830102
  0
LINE
  5
244
100
AcDbEntity
  8
0
100
AcDbLine
 62
7
  6
CONTINUOUS
 10
317.42303494
 20
140.2605830102
 11
317.4445298416
 21
140.2605830102
  0
LINE
  5
245
100
AcDbEntity
  8
0
100
AcDbLine
 62
7
  6
CONTINUOUS
 10
353.2356510678
 20
140.2605830102
 11
353.4335627977
 21
140.2605830102
  0
LINE
  5
246
100
AcDbEntity
  8
0
100
AcDbLine
 62
7
  6
CONTINUOUS
 10
383.7847195817
 20
140.2605830102
 11
384.1331193338
 21
140.2605830102
  0
LINE
  5
247
100
AcDbEntity
  8
0
100
AcDbLine
 62
7
  6
CONTINUOUS
 10
405.0679467779
 20
140.2605830102
 11
405.5211900137
 21
140.2605830102
  0
LINE
  5
248
100
AcDbEntity
  8
0
100
AcDbLine
 62
7
  6
CONTINUOUS
 10
414.2969750942
 20
140.2605830102
 11
414.7956815237
 21
140.2605830102
  0
LINE
  5
249
100
AcDbEntity
  8
03___PRT_ALL_CURVES
100
AcDbLine
 62
2
  6
CONTINUOUS
 10
304.3743463738
 20
331.8286227208
 11
303.9041597611
 21
330.6295239725
  0
LINE
  5
24A
100
AcDbEntity
  8
03___PRT_ALL_CURVES
100
AcDbLine
 62
2
  6
CONTINUOUS
 10
304.0111510959
 20
332.8613637722
 11
302.5985888494
 21
329.2620690092
  0
LINE
  5
24B
100
AcDbEntity
  8
03___PRT_ALL_CURVES
100
AcDbLine
 62
2
  6
CONTINUOUS
 10
303.6495962208
 20
329.9818537635
 11
303.3663132573
 21
329.2620690092
  0
LINE
  5
24C
100
AcDbEntity
  8
03___PRT_ALL_CURVES
100
AcDbLine
 62
2
  6
CONTINUOUS
 10
309.4118488697
 20
332.8613637722
 11
308.6208645127
 21
330.5203800713
  0
LINE
  5
24D
100
AcDbEntity
  8
03___PRT_ALL_CURVES
100
AcDbLine
 62
2
  6
CONTINUOUS
 10
308.8506791999
 20
329.2620690092
 11
309.6380182672
 21
331.5904057688
  0
LINE
  5
24E
100
AcDbEntity
  8
0
100
AcDbLine
 62
7
  6
CONTINUOUS
 10
309.4376737726
 20
165.2605830102
 11
309.4198319197
 21
165.2605830102
  0
LINE
  5
24F
100
AcDbEntity
  8
0
100
AcDbLine
 62
7
  6
CONTINUOUS
 10
273.5660881015
 20
165.2605830102
 11
273.37153893
 21
165.2605830102
  0
LINE
  5
250
100
AcDbEntity
  8
0
100
AcDbLine
 62
7
  6
CONTINUOUS
 10
242.8686213563
 20
165.2605830102
 11
242.5228531369
 21
165.2605830102
  0
LINE
  5
251
100
AcDbEntity
  8
0
100
AcDbLine
 62
7
  6
CONTINUOUS
 10
221.3670091859
 20
165.2605830102
 11
220.9153216946
 21
165.2605830102
  0
LINE
  5
252
100
AcDbEntity
  8
0
100
AcDbLine
 62
7
  6
CONTINUOUS
 10
211.8782201983
 20
165.2605830102
 11
211.3797899042
 21
165.2605830102
  0
LINE
  5
253
100
AcDbEntity
  8
0
100
AcDbLine
 62
7
  6
CONTINUOUS
 10
317.42303494
 20
165.2605830102
 11
317.4445298416
 21
165.2605830102
  0
LINE
  5
254
100
AcDbEntity
  8
0
100
AcDbLine
 62
7
  6
CONTINUOUS
 10
353.2356510678
 20
165.2605830102
 11
353.4335627977
 21
165.2605830102
  0
LINE
  5
255
100
AcDbEntity
  8
0
100
AcDbLine
 62
7
  6
CONTINUOUS
 10
383.7847195817
 20
165.2605830102
 11
384.1331193338
 21
165.2605830102
  0
LINE
  5
256
100
AcDbEntity
  8
0
100
AcDbLine
 62
7
  6
CONTINUOUS
 10
405.0679467779
 20
165.2605830102
 11
405.5211900137
 21
165.2605830102
  0
LINE
  5
257
100
AcDbEntity
  8
0
100
AcDbLine
 62
7
  6
CONTINUOUS
 10
414.2969750942
 20
165.2605830102
 11
414.7956815237
 21
165.2605830102
  0
LINE
  5
258
100
AcDbEntity
  8
03___PRT_ALL_CURVES
100
AcDbLine
 62
2
  6
CONTINUOUS
 10
307.224706267
 20
329.2620690092
 11
307.6039690728
 21
331.5886715316
  0
LINE
  5
259
100
AcDbEntity
  8
03___PRT_ALL_CURVES
100
AcDbLine
 62
2
  6
CONTINUOUS
 10
307.044089333
 20
332.8613637722
 11
306.4546412907
 21
329.2620690092
  0
LINE
  5
25A
100
AcDbEntity
  8
03___PRT_ALL_CURVES
100
AcDbLine
 62
2
  6
CONTINUOUS
 10
327.9160617482
 20
332.8613637722
 11
326.5035737746
 21
329.2620690092
  0
LINE
  5
25B
100
AcDbEntity
  8
03___PRT_ALL_CURVES
100
AcDbLine
 62
2
  6
CONTINUOUS
 10
328.2794505441
 20
331.8287628372
 11
327.808712702
 21
330.6295239725
  0
LINE
  5
25C
100
AcDbEntity
  8
03___PRT_ALL_CURVES
100
AcDbLine
 62
2
  6
CONTINUOUS
 10
327.2712981824
 20
329.2620690092
 11
327.5545811459
 21
329.9818537635
  0
LINE
  5
25D
100
AcDbEntity
  8
03___PRT_ALL_CURVES
100
AcDbLine
 62
2
  6
CONTINUOUS
 10
293.0594401043
 20
328.8606351895
 11
293.0594401043
 21
333.6607952083
  0
LINE
  5
25E
100
AcDbEntity
  8
03___PRT_ALL_CURVES
100
AcDbLine
 62
2
  6
CONTINUOUS
 10
293.459550379
 20
328.8606543479
 11
293.459550379
 21
333.6608143667
  0
LINE
  5
25F
100
AcDbEntity
  8
03___PRT_ALL_CURVES
100
AcDbLine
 62
2
  6
CONTINUOUS
 10
296.7076308902
 20
332.8613637722
 11
296.7076308902
 21
332.2091692019
  0
LINE
  5
260
100
AcDbEntity
  8
03___PRT_ALL_CURVES
100
AcDbLine
 62
2
  6
CONTINUOUS
 10
297.5515327039
 20
332.2091692019
 11
297.5515327039
 21
329.2620690092
  0
LINE
  5
261
100
AcDbEntity
  8
03___PRT_ALL_CURVES
100
AcDbLine
 62
2
  6
CONTINUOUS
 10
298.3378588503
 20
332.2091692019
 11
298.3378588503
 21
329.2620690092
  0
LINE
  5
262
100
AcDbEntity
  8
03___PRT_ALL_CURVES
100
AcDbLine
 62
2
  6
CONTINUOUS
 10
299.181760664
 20
332.8613637722
 11
299.181760664
 21
332.2091692019
  0
LINE
  5
263
100
AcDbEntity
  8
03___PRT_ALL_CURVES
100
AcDbLine
 62
2
  6
CONTINUOUS
 10
299.6822714315
 20
329.2620690092
 11
299.6822714315
 21
332.8613637722
  0
LINE
  5
264
100
AcDbEntity
  8
03___PRT_ALL_CURVES
100
AcDbLine
 62
2
  6
CONTINUOUS
 10
300.468597578
 20
330.6302341733
 11
300.468597578
 21
329.2620690092
  0
LINE
  5
265
100
AcDbEntity
  8
03___PRT_ALL_CURVES
100
AcDbLine
 62
2
  6
CONTINUOUS
 10
300.468597578
 20
331.2587850654
 11
300.468597578
 21
332.2091692019
  0
LINE
  5
266
100
AcDbEntity
  8
0
100
AcDbLine
 62
7
  6
CONTINUOUS
 10
273.5660881015
 20
190.2605830102
 11
273.37153893
 21
190.2605830102
  0
LINE
  5
267
100
AcDbEntity
  8
0
100
AcDbLine
 62
7
  6
CONTINUOUS
 10
242.8686213563
 20
190.2605830102
 11
242.5228531369
 21
190.2605830102
  0
LINE
  5
268
100
AcDbEntity
  8
0
100
AcDbLine
 62
7
  6
CONTINUOUS
 10
221.3670091859
 20
190.2605830102
 11
220.9153216946
 21
190.2605830102
  0
LINE
  5
269
100
AcDbEntity
  8
0
100
AcDbLine
 62
7
  6
CONTINUOUS
 10
211.8782201983
 20
190.2605830102
 11
211.3797899042
 21
190.2605830102
  0
LINE
  5
26A
100
AcDbEntity
  8
0
100
AcDbLine
 62
7
  6
CONTINUOUS
 10
317.42303494
 20
190.2605830102
 11
317.4445298416
 21
190.2605830102
  0
LINE
  5
26B
100
AcDbEntity
  8
0
100
AcDbLine
 62
7
  6
CONTINUOUS
 10
353.2356510678
 20
190.2605830102
 11
353.4335627977
 21
190.2605830102
  0
LINE
  5
26C
100
AcDbEntity
  8
0
100
AcDbLine
 62
7
  6
CONTINUOUS
 10
383.7847195817
 20
190.2605830102
 11
384.1331193338
 21
190.2605830102
  0
LINE
  5
26D
100
AcDbEntity
  8
0
100
AcDbLine
 62
7
  6
CONTINUOUS
 10
405.0679467779
 20
190.2605830102
 11
405.5211900137
 21
190.2605830102
  0
LINE
  5
26E
100
AcDbEntity
  8
0
100
AcDbLine
 62
7
  6
CONTINUOUS
 10
414.2969750942
 20
190.2605830102
 11
414.7956815237
 21
190.2605830102
  0
LINE
  5
26F
100
AcDbEntity
  8
0
100
AcDbLine
 62
3
  6
CONTINUOUS
 10
312.7052687868
 20
294.190990178
 11
312.7052687868
 21
286.3301758424
  0
LINE
  5
270
100
AcDbEntity
  8
0
100
AcDbLine
 62
3
  6
CONTINUOUS
 10
312.7052687868
 20
269.190990178
 11
312.7052687868
 21
261.3301758424
  0
LINE
  5
271
100
AcDbEntity
  8
0
100
AcDbLine
 62
3
  6
CONTINUOUS
 10
312.7052687868
 20
244.190990178
 11
312.7052687868
 21
236.3301758424
  0
LINE
  5
272
100
AcDbEntity
  8
0
100
AcDbLine
 62
3
  6
CONTINUOUS
 10
312.7052687868
 20
219.190990178
 11
312.7052687868
 21
211.3301758424
  0
LINE
  5
273
100
AcDbEntity
  8
0
100
AcDbLine
 62
3
  6
CONTINUOUS
 10
312.7052687868
 20
194.190990178
 11
312.7052687868
 21
186.3301758424
  0
LINE
  5
274
100
AcDbEntity
  8
0
100
AcDbLine
 62
3
  6
CONTINUOUS
 10
312.7052687868
 20
169.190990178
 11
312.7052687868
 21
161.3301758424
  0
LINE
  5
275
100
AcDbEntity
  8
0
100
AcDbLine
 62
3
  6
CONTINUOUS
 10
312.7052687868
 20
144.190990178
 11
312.7052687868
 21
136.3301758424
  0
LINE
  5
276
100
AcDbEntity
  8
0
100
AcDbLine
 62
3
  6
CONTINUOUS
 10
313.0595699054
 20
294.2431308954
 11
313.0595699054
 21
286.278035125
  0
LINE
  5
277
100
AcDbEntity
  8
0
100
AcDbLine
 62
3
  6
CONTINUOUS
 10
313.0595699054
 20
269.2431308954
 11
313.0595699054
 21
261.278035125
  0
LINE
  5
278
100
AcDbEntity
  8
0
100
AcDbLine
 62
3
  6
CONTINUOUS
 10
313.0595699054
 20
244.2431308954
 11
313.0595699054
 21
236.278035125
  0
LINE
  5
279
100
AcDbEntity
  8
0
100
AcDbLine
 62
3
  6
CONTINUOUS
 10
313.0595699054
 20
219.2431308954
 11
313.0595699054
 21
211.2780384202
  0
LINE
  5
27A
100
AcDbEntity
  8
0
100
AcDbLine
 62
3
  6
CONTINUOUS
 10
313.0595699054
 20
194.2431308954
 11
313.0595699054
 21
186.2780384202
  0
LINE
  5
27B
100
AcDbEntity
  8
0
100
AcDbLine
 62
3
  6
CONTINUOUS
 10
313.0595699054
 20
169.2431308954
 11
313.0595699054
 21
161.2780384202
  0
LINE
  5
27C
100
AcDbEntity
  8
0
100
AcDbLine
 62
3
  6
CONTINUOUS
 10
313.0595699054
 20
144.2431308954
 11
313.0595699054
 21
136.2780384202
  0
LINE
  5
27D
100
AcDbEntity
  8
03___PRT_ALL_CURVES
100
AcDbLine
 62
2
  6
CONTINUOUS
 10
314.8911464313
 20
332.8613637722
 11
314.8911464313
 21
329.2620690092
  0
LINE
  5
27E
100
AcDbEntity
  8
03___PRT_ALL_CURVES
100
AcDbLine
 62
2
  6
CONTINUOUS
 10
315.6774725777
 20
329.2620690092
 11
315.6774725777
 21
331.6521517488
  0
LINE
  5
27F
100
AcDbEntity
  8
03___PRT_ALL_CURVES
100
AcDbLine
 62
2
  6
CONTINUOUS
 10
317.281256641
 20
332.8613637722
 11
317.281256641
 21
330.4712810326
  0
LINE
  5
280
100
AcDbEntity
  8
03___PRT_ALL_CURVES
100
AcDbLine
 62
2
  6
CONTINUOUS
 10
318.0675827875
 20
329.2620690092
 11
318.0675827875
 21
332.8613637722
  0
LINE
  5
281
100
AcDbEntity
  8
03___PRT_ALL_CURVES
100
AcDbLine
 62
2
  6
CONTINUOUS
 10
318.5678641749
 20
332.8613637722
 11
318.5678641749
 21
332.2091692019
  0
LINE
  5
282
100
AcDbEntity
  8
03___PRT_ALL_CURVES
100
AcDbLine
 62
2
  6
CONTINUOUS
 10
319.4117659885
 20
332.2091692019
 11
319.4117659885
 21
329.2620690092
  0
LINE
  5
283
100
AcDbEntity
  8
03___PRT_ALL_CURVES
100
AcDbLine
 62
2
  6
CONTINUOUS
 10
320.198092135
 20
329.2620690092
 11
320.198092135
 21
332.2091692019
  0
LINE
  5
284
100
AcDbEntity
  8
03___PRT_ALL_CURVES
100
AcDbLine
 62
2
  6
CONTINUOUS
 10
321.0419939486
 20
332.2091692019
 11
321.0419939486
 21
332.8613637722
  0
LINE
  5
285
100
AcDbEntity
  8
03___PRT_ALL_CURVES
100
AcDbLine
 62
2
  6
CONTINUOUS
 10
321.5431776634
 20
332.8613637722
 11
321.5431776634
 21
329.2620690092
  0
LINE
  5
286
100
AcDbEntity
  8
03___PRT_ALL_CURVES
100
AcDbLine
 62
2
  6
CONTINUOUS
 10
322.3295038098
 20
329.2620690092
 11
322.3295038098
 21
332.8613637722
  0
LINE
  5
287
100
AcDbEntity
  8
03___PRT_ALL_CURVES
100
AcDbLine
 62
2
  6
CONTINUOUS
 10
322.92896761
 20
332.8613637722
 11
322.92896761
 21
329.2620690092
  0
LINE
  5
288
100
AcDbEntity
  8
03___PRT_ALL_CURVES
100
AcDbLine
 62
2
  6
CONTINUOUS
 10
323.7152937564
 20
329.2620690092
 11
323.7152937564
 21
331.6521517488
  0
LINE
  5
289
100
AcDbEntity
  8
03___PRT_ALL_CURVES
100
AcDbLine
 62
2
  6
CONTINUOUS
 10
325.3190778197
 20
332.8613637722
 11
325.3190778197
 21
330.4712810326
  0
LINE
  5
28A
100
AcDbEntity
  8
03___PRT_ALL_CURVES
100
AcDbLine
 62
2
  6
CONTINUOUS
 10
326.1054039662
 20
329.2620690092
 11
326.1054039662
 21
332.8613637722
  0
LINE
  5
28B
100
AcDbEntity
  8
0
100
AcDbLine
 62
7
  6
CONTINUOUS
 10
273.5660881015
 20
215.2605830102
 11
273.37153893
 21
215.2605830102
  0
LINE
  5
28C
100
AcDbEntity
  8
0
100
AcDbLine
 62
7
  6
CONTINUOUS
 10
242.8686213563
 20
215.2605830102
 11
242.5228531369
 21
215.2605830102
  0
LINE
  5
28D
100
AcDbEntity
  8
0
100
AcDbLine
 62
7
  6
CONTINUOUS
 10
221.3670091859
 20
215.2605830102
 11
220.9153216946
 21
215.2605830102
  0
LINE
  5
28E
100
AcDbEntity
  8
0
100
AcDbLine
 62
7
  6
CONTINUOUS
 10
211.8782201983
 20
215.2605830102
 11
211.3797899042
 21
215.2605830102
  0
LINE
  5
28F
100
AcDbEntity
  8
0
100
AcDbLine
 62
7
  6
CONTINUOUS
 10
317.42303494
 20
215.2605830102
 11
317.4445298416
 21
215.2605830102
  0
LINE
  5
290
100
AcDbEntity
  8
0
100
AcDbLine
 62
7
  6
CONTINUOUS
 10
353.2356510678
 20
215.2605830102
 11
353.4335627977
 21
215.2605830102
  0
LINE
  5
291
100
AcDbEntity
  8
0
100
AcDbLine
 62
7
  6
CONTINUOUS
 10
383.7847195817
 20
215.2605830102
 11
384.1331193338
 21
215.2605830102
  0
LINE
  5
292
100
AcDbEntity
  8
0
100
AcDbLine
 62
7
  6
CONTINUOUS
 10
405.0679467779
 20
215.2605830102
 11
405.5211900137
 21
215.2605830102
  0
LINE
  5
293
100
AcDbEntity
  8
0
100
AcDbLine
 62
7
  6
CONTINUOUS
 10
414.2969750942
 20
215.2605830102
 11
414.7956815237
 21
215.2605830102
  0
LINE
  5
294
100
AcDbEntity
  8
03___PRT_ALL_CURVES
100
AcDbLine
 62
2
  6
CONTINUOUS
 10
332.6595894318
 20
333.6608143667
 11
332.6595894318
 21
328.8606543479
  0
LINE
  5
295
100
AcDbEntity
  8
03___PRT_ALL_CURVES
100
AcDbLine
 62
2
  6
CONTINUOUS
 10
333.0596997065
 20
333.6607952083
 11
333.0596997065
 21
328.8606351895
  0
LINE
  5
296
100
AcDbEntity
  8
03___PRT_ALL_CURVES
100
AcDbLine
 62
2
  6
CONTINUOUS
 10
310.7874413809
 20
329.2620690092
 11
310.1981750162
 21
332.8613637722
  0
LINE
  5
297
100
AcDbEntity
  8
03___PRT_ALL_CURVES
100
AcDbLine
 62
2
  6
CONTINUOUS
 10
309.6380182672
 20
331.5904057688
 11
310.0173764046
 21
329.2620690092
  0
LINE
  5
298
100
AcDbEntity
  8
0
100
AcDbLine
 62
7
  6
CONTINUOUS
 10
273.5660881015
 20
240.2605830102
 11
273.37153893
 21
240.2605830102
  0
LINE
  5
299
100
AcDbEntity
  8
0
100
AcDbLine
 62
7
  6
CONTINUOUS
 10
242.8686213563
 20
240.2605830102
 11
242.5228531369
 21
240.2605830102
  0
LINE
  5
29A
100
AcDbEntity
  8
0
100
AcDbLine
 62
7
  6
CONTINUOUS
 10
221.3670091859
 20
240.2605830102
 11
220.9153216946
 21
240.2605830102
  0
LINE
  5
29B
100
AcDbEntity
  8
0
100
AcDbLine
 62
7
  6
CONTINUOUS
 10
211.8782201983
 20
240.2605830102
 11
211.3797899042
 21
240.2605830102
  0
LINE
  5
29C
100
AcDbEntity
  8
0
100
AcDbLine
 62
7
  6
CONTINUOUS
 10
317.42303494
 20
240.2605830102
 11
317.4445298416
 21
240.2605830102
  0
LINE
  5
29D
100
AcDbEntity
  8
0
100
AcDbLine
 62
7
  6
CONTINUOUS
 10
353.2356510678
 20
240.2605830102
 11
353.4335627977
 21
240.2605830102
  0
LINE
  5
29E
100
AcDbEntity
  8
0
100
AcDbLine
 62
7
  6
CONTINUOUS
 10
383.7847195817
 20
240.2605830102
 11
384.1331193338
 21
240.2605830102
  0
LINE
  5
29F
100
AcDbEntity
  8
0
100
AcDbLine
 62
7
  6
CONTINUOUS
 10
405.0679467779
 20
240.2605830102
 11
405.5211900137
 21
240.2605830102
  0
LINE
  5
2A0
100
AcDbEntity
  8
0
100
AcDbLine
 62
7
  6
CONTINUOUS
 10
414.2969750942
 20
240.2605830102
 11
414.7956815237
 21
240.2605830102
  0
LINE
  5
2A1
100
AcDbEntity
  8
03___PRT_ALL_CURVES
100
AcDbLine
 62
2
  6
CONTINUOUS
 10
304.3743463738
 20
331.8286227208
 11
304.8456354453
 21
330.6295239725
  0
LINE
  5
2A2
100
AcDbEntity
  8
03___PRT_ALL_CURVES
100
AcDbLine
 62
2
  6
CONTINUOUS
 10
305.0998831626
 20
329.9818537635
 11
305.3826191966
 21
329.2620690092
  0
LINE
  5
2A3
100
AcDbEntity
  8
03___PRT_ALL_CURVES
100
AcDbLine
 62
2
  6
CONTINUOUS
 10
307.6039690728
 20
331.5886715316
 11
308.3917952346
 21
329.2620690092
  0
LINE
  5
2A4
100
AcDbEntity
  8
03___PRT_ALL_CURVES
100
AcDbLine
 62
2
  6
CONTINUOUS
 10
308.6208645127
 20
330.5203800713
 11
307.8304154795
 21
332.8613637722
  0
LINE
  5
2A5
100
AcDbEntity
  8
03___PRT_ALL_CURVES
100
AcDbLine
 62
2
  6
CONTINUOUS
 10
304.7379293262
 20
332.8613637722
 11
306.1503436044
 21
329.2620690092
  0
LINE
  5
2A6
100
AcDbEntity
  8
0
100
AcDbLine
 62
7
  6
CONTINUOUS
 10
309.4376737726
 20
265.2605830102
 11
309.4198319197
 21
265.2605830102
  0
LINE
  5
2A7
100
AcDbEntity
  8
0
100
AcDbLine
 62
7
  6
CONTINUOUS
 10
273.5660881015
 20
265.2605830102
 11
273.37153893
 21
265.2605830102
  0
LINE
  5
2A8
100
AcDbEntity
  8
0
100
AcDbLine
 62
7
  6
CONTINUOUS
 10
242.8686213563
 20
265.2605830102
 11
242.5228531369
 21
265.2605830102
  0
LINE
  5
2A9
100
AcDbEntity
  8
0
100
AcDbLine
 62
7
  6
CONTINUOUS
 10
221.3670091859
 20
265.2605830102
 11
220.9153216946
 21
265.2605830102
  0
LINE
  5
2AA
100
AcDbEntity
  8
0
100
AcDbLine
 62
7
  6
CONTINUOUS
 10
211.8782201983
 20
265.2605830102
 11
211.3797899042
 21
265.2605830102
  0
LINE
  5
2AB
100
AcDbEntity
  8
0
100
AcDbLine
 62
7
  6
CONTINUOUS
 10
317.42303494
 20
265.2605830102
 11
317.4445298416
 21
265.2605830102
  0
LINE
  5
2AC
100
AcDbEntity
  8
0
100
AcDbLine
 62
7
  6
CONTINUOUS
 10
353.2356510678
 20
265.2605830102
 11
353.4335627977
 21
265.2605830102
  0
LINE
  5
2AD
100
AcDbEntity
  8
0
100
AcDbLine
 62
7
  6
CONTINUOUS
 10
383.7847195817
 20
265.2605830102
 11
384.1331193338
 21
265.2605830102
  0
LINE
  5
2AE
100
AcDbEntity
  8
0
100
AcDbLine
 62
7
  6
CONTINUOUS
 10
405.0679467779
 20
265.2605830102
 11
405.5211900137
 21
265.2605830102
  0
LINE
  5
2AF
100
AcDbEntity
  8
0
100
AcDbLine
 62
7
  6
CONTINUOUS
 10
414.2969750942
 20
265.2605830102
 11
414.7956815237
 21
265.2605830102
  0
LINE
  5
2B0
100
AcDbEntity
  8
03___PRT_ALL_CURVES
100
AcDbLine
 62
2
  6
CONTINUOUS
 10
301.4260574867
 20
329.2620690092
 11
300.468597578
 21
330.6302341733
  0
LINE
  5
2B1
100
AcDbEntity
  8
03___PRT_ALL_CURVES
100
AcDbLine
 62
2
  6
CONTINUOUS
 10
301.23517521
 20
330.7823858681
 11
302.2990566432
 21
329.2620690092
  0
LINE
  5
2B2
100
AcDbEntity
  8
03___PRT_ALL_CURVES
100
AcDbLine
 62
2
  6
CONTINUOUS
 10
329.0048680877
 20
329.9818537635
 11
329.2876041217
 21
329.2620690092
  0
LINE
  5
2B3
100
AcDbEntity
  8
03___PRT_ALL_CURVES
100
AcDbLine
 62
2
  6
CONTINUOUS
 10
328.2794505441
 20
331.8287628372
 11
328.7501883862
 21
330.6295239725
  0
LINE
  5
2B4
100
AcDbEntity
  8
03___PRT_ALL_CURVES
100
AcDbLine
 62
2
  6
CONTINUOUS
 10
330.0553285295
 20
329.2620690092
 11
328.6428399784
 21
332.8613637722
  0
LINE
  5
2B5
100
AcDbEntity
  8
03___PRT_ALL_CURVES
100
AcDbLine
 62
2
  6
CONTINUOUS
 10
315.6774725777
 20
331.6521517488
 11
317.281256641
 21
329.2620690092
  0
LINE
  5
2B6
100
AcDbEntity
  8
03___PRT_ALL_CURVES
100
AcDbLine
 62
2
  6
CONTINUOUS
 10
317.281256641
 20
330.4712810326
 11
315.6774725777
 21
332.8613637722
  0
LINE
  5
2B7
100
AcDbEntity
  8
0
100
AcDbLine
 62
7
  6
CONTINUOUS
 10
309.4376737726
 20
290.2605830102
 11
309.4198319197
 21
290.2605830102
  0
LINE
  5
2B8
100
AcDbEntity
  8
0
100
AcDbLine
 62
7
  6
CONTINUOUS
 10
273.5660881015
 20
290.2605830102
 11
273.37153893
 21
290.2605830102
  0
LINE
  5
2B9
100
AcDbEntity
  8
0
100
AcDbLine
 62
7
  6
CONTINUOUS
 10
242.8686213563
 20
290.2605830102
 11
242.5228531369
 21
290.2605830102
  0
LINE
  5
2BA
100
AcDbEntity
  8
0
100
AcDbLine
 62
7
  6
CONTINUOUS
 10
221.3670091859
 20
290.2605830102
 11
220.9153216946
 21
290.2605830102
  0
LINE
  5
2BB
100
AcDbEntity
  8
0
100
AcDbLine
 62
7
  6
CONTINUOUS
 10
211.8782201983
 20
290.2605830102
 11
211.3797899042
 21
290.2605830102
  0
LINE
  5
2BC
100
AcDbEntity
  8
0
100
AcDbLine
 62
7
  6
CONTINUOUS
 10
317.42303494
 20
290.2605830102
 11
317.4445298416
 21
290.2605830102
  0
LINE
  5
2BD
100
AcDbEntity
  8
0
100
AcDbLine
 62
7
  6
CONTINUOUS
 10
353.2356510678
 20
290.2605830102
 11
353.4335627977
 21
290.2605830102
  0
LINE
  5
2BE
100
AcDbEntity
  8
0
100
AcDbLine
 62
7
  6
CONTINUOUS
 10
383.7847195817
 20
290.2605830102
 11
384.1331193338
 21
290.2605830102
  0
LINE
  5
2BF
100
AcDbEntity
  8
0
100
AcDbLine
 62
7
  6
CONTINUOUS
 10
405.0679467779
 20
290.2605830102
 11
405.5211900137
 21
290.2605830102
  0
LINE
  5
2C0
100
AcDbEntity
  8
0
100
AcDbLine
 62
7
  6
CONTINUOUS
 10
414.2969750942
 20
290.2605830102
 11
414.7956815237
 21
290.2605830102
  0
LINE
  5
2C1
100
AcDbEntity
  8
03___PRT_ALL_CURVES
100
AcDbLine
 62
2
  6
CONTINUOUS
 10
323.7152937564
 20
331.6521517488
 11
325.3190778197
 21
329.2620690092
  0
LINE
  5
2C2
100
AcDbEntity
  8
03___PRT_ALL_CURVES
100
AcDbLine
 62
2
  6
CONTINUOUS
 10
325.3190778197
 20
330.4712810326
 11
323.7152937564
 21
332.8613637722
  0
LINE
  5
2C3
100
AcDbEntity
  8
0
100
AcDbLine
 62
7
  6
CONTINUOUS
 10
415.0595699054
 20
357.2605830102
 11
415.0595699054
 21
76.1585830102
  0
LINE
  5
2C4
100
AcDbEntity
  8
03___PRT_ALL_CURVES
100
AcDbLine
 62
2
  6
CONTINUOUS
 10
331.4599119045
 20
327.2608473875
 11
294.6592281211
 21
327.2608473875
  0
LINE
  5
2C5
100
AcDbEntity
  8
03___PRT_ALL_CURVES
100
AcDbLine
 62
2
  6
CONTINUOUS
 10
331.4599119046
 20
327.6607717932
 11
294.6592281212
 21
327.6607717932
  0
LINE
  5
2C6
100
AcDbEntity
  8
03___PRT_ALL_CURVES
100
AcDbLine
 62
2
  6
CONTINUOUS
 10
306.1503436044
 20
329.2620690092
 11
305.3826192168
 21
329.2620690092
  0
LINE
  5
2C7
100
AcDbEntity
  8
03___PRT_ALL_CURVES
100
AcDbLine
 62
2
  6
CONTINUOUS
 10
303.3663132573
 20
329.2620690092
 11
302.5985888664
 21
329.2620690092
  0
LINE
  5
2C8
100
AcDbEntity
  8
03___PRT_ALL_CURVES
100
AcDbLine
 62
2
  6
CONTINUOUS
 10
302.2990566432
 20
329.2620690092
 11
301.4260574582
 21
329.2620690092
  0
LINE
  5
2C9
100
AcDbEntity
  8
03___PRT_ALL_CURVES
100
AcDbLine
 62
2
  6
CONTINUOUS
 10
300.468597578
 20
329.2620690092
 11
299.6822714391
 21
329.2620690092
  0
LINE
  5
2CA
100
AcDbEntity
  8
03___PRT_ALL_CURVES
100
AcDbLine
 62
2
  6
CONTINUOUS
 10
298.3378588503
 20
329.2620690092
 11
297.5515327005
 21
329.2620690092
  0
LINE
  5
2CB
100
AcDbEntity
  8
03___PRT_ALL_CURVES
100
AcDbLine
 62
2
  6
CONTINUOUS
 10
306.4546412907
 20
329.2620690092
 11
307.2247062626
 21
329.2620690092
  0
LINE
  5
2CC
100
AcDbEntity
  8
03___PRT_ALL_CURVES
100
AcDbLine
 62
2
  6
CONTINUOUS
 10
308.3917952346
 20
329.2620690092
 11
308.8506792046
 21
329.2620690092
  0
LINE
  5
2CD
100
AcDbEntity
  8
03___PRT_ALL_CURVES
100
AcDbLine
 62
2
  6
CONTINUOUS
 10
310.0173764046
 20
329.2620690092
 11
310.7874413881
 21
329.2620690092
  0
LINE
  5
2CE
100
AcDbEntity
  8
03___PRT_ALL_CURVES
100
AcDbLine
 62
2
  6
CONTINUOUS
 10
314.8911464313
 20
329.2620690092
 11
315.6774725632
 21
329.2620690092
  0
LINE
  5
2CF
100
AcDbEntity
  8
03___PRT_ALL_CURVES
100
AcDbLine
 62
2
  6
CONTINUOUS
 10
317.281256641
 20
329.2620690092
 11
318.0675827668
 21
329.2620690092
  0
LINE
  5
2D0
100
AcDbEntity
  8
03___PRT_ALL_CURVES
100
AcDbLine
 62
2
  6
CONTINUOUS
 10
319.4117659885
 20
329.2620690092
 11
320.1980921235
 21
329.2620690092
  0
LINE
  5
2D1
100
AcDbEntity
  8
03___PRT_ALL_CURVES
100
AcDbLine
 62
2
  6
CONTINUOUS
 10
321.5431776634
 20
329.2620690092
 11
322.3295038223
 21
329.2620690092
  0
LINE
  5
2D2
100
AcDbEntity
  8
03___PRT_ALL_CURVES
100
AcDbLine
 62
2
  6
CONTINUOUS
 10
322.92896761
 20
329.2620690092
 11
323.7152937761
 21
329.2620690092
  0
LINE
  5
2D3
100
AcDbEntity
  8
03___PRT_ALL_CURVES
100
AcDbLine
 62
2
  6
CONTINUOUS
 10
325.3190778197
 20
329.2620690092
 11
326.1054039797
 21
329.2620690092
  0
LINE
  5
2D4
100
AcDbEntity
  8
03___PRT_ALL_CURVES
100
AcDbLine
 62
2
  6
CONTINUOUS
 10
326.5035737746
 20
329.2620690092
 11
327.2712981679
 21
329.2620690092
  0
LINE
  5
2D5
100
AcDbEntity
  8
03___PRT_ALL_CURVES
100
AcDbLine
 62
2
  6
CONTINUOUS
 10
329.2876041217
 20
329.2620690092
 11
330.0553285388
 21
329.2620690092
  0
LINE
  5
2D6
100
AcDbEntity
  8
03___PRT_ALL_CURVES
100
AcDbLine
 62
2
  6
CONTINUOUS
 10
305.0998831626
 20
329.9818537635
 11
303.6495962188
 21
329.9818537635
  0
LINE
  5
2D7
100
AcDbEntity
  8
03___PRT_ALL_CURVES
100
AcDbLine
 62
2
  6
CONTINUOUS
 10
327.5545811459
 20
329.9818537635
 11
329.0048680496
 21
329.9818537635
  0
LINE
  5
2D8
100
AcDbEntity
  8
03___PRT_ALL_CURVES
100
AcDbLine
 62
2
  6
CONTINUOUS
 10
328.7501883862
 20
330.6295239725
 11
327.808712716
 21
330.6295239725
  0
LINE
  5
2D9
100
AcDbEntity
  8
03___PRT_ALL_CURVES
100
AcDbLine
 62
2
  6
CONTINUOUS
 10
304.8456354453
 20
330.6295239725
 11
303.904159766
 21
330.6295239725
  0
LINE
  5
2DA
100
AcDbEntity
  8
03___PRT_ALL_CURVES
100
AcDbLine
 62
2
  6
CONTINUOUS
 10
300.7716033096
 20
331.2587850654
 11
300.4685975871
 21
331.2587850654
  0
LINE
  5
2DB
100
AcDbEntity
  8
03___PRT_ALL_CURVES
100
AcDbLine
 62
2
  6
CONTINUOUS
 10
299.181760664
 20
332.2091692019
 11
298.3378588093
 21
332.2091692019
  0
LINE
  5
2DC
100
AcDbEntity
  8
03___PRT_ALL_CURVES
100
AcDbLine
 62
2
  6
CONTINUOUS
 10
297.5515327039
 20
332.2091692019
 11
296.7076308742
 21
332.2091692019
  0
LINE
  5
2DD
100
AcDbEntity
  8
03___PRT_ALL_CURVES
100
AcDbLine
 62
2
  6
CONTINUOUS
 10
300.468597578
 20
332.2091692019
 11
300.7716033005
 21
332.2091692019
  0
LINE
  5
2DE
100
AcDbEntity
  8
03___PRT_ALL_CURVES
100
AcDbLine
 62
2
  6
CONTINUOUS
 10
318.5678641749
 20
332.2091692019
 11
319.4117659978
 21
332.2091692019
  0
LINE
  5
2DF
100
AcDbEntity
  8
03___PRT_ALL_CURVES
100
AcDbLine
 62
2
  6
CONTINUOUS
 10
320.198092135
 20
332.2091692019
 11
321.0419939917
 21
332.2091692019
  0
LINE
  5
2E0
100
AcDbEntity
  8
03___PRT_ALL_CURVES
100
AcDbLine
 62
2
  6
CONTINUOUS
 10
328.6428399784
 20
332.8613637722
 11
327.9160617597
 21
332.8613637722
  0
LINE
  5
2E1
100
AcDbEntity
  8
03___PRT_ALL_CURVES
100
AcDbLine
 62
2
  6
CONTINUOUS
 10
326.1054039662
 20
332.8613637722
 11
325.3190778062
 21
332.8613637722
  0
LINE
  5
2E2
100
AcDbEntity
  8
03___PRT_ALL_CURVES
100
AcDbLine
 62
2
  6
CONTINUOUS
 10
323.7152937564
 20
332.8613637722
 11
322.9289675903
 21
332.8613637722
  0
LINE
  5
2E3
100
AcDbEntity
  8
03___PRT_ALL_CURVES
100
AcDbLine
 62
2
  6
CONTINUOUS
 10
322.3295038098
 20
332.8613637722
 11
321.5431776509
 21
332.8613637722
  0
LINE
  5
2E4
100
AcDbEntity
  8
03___PRT_ALL_CURVES
100
AcDbLine
 62
2
  6
CONTINUOUS
 10
321.0419939486
 20
332.8613637722
 11
318.5678642287
 21
332.8613637722
  0
LINE
  5
2E5
100
AcDbEntity
  8
03___PRT_ALL_CURVES
100
AcDbLine
 62
2
  6
CONTINUOUS
 10
318.0675827875
 20
332.8613637722
 11
317.2812566618
 21
332.8613637722
  0
LINE
  5
2E6
100
AcDbEntity
  8
03___PRT_ALL_CURVES
100
AcDbLine
 62
2
  6
CONTINUOUS
 10
315.6774725777
 20
332.8613637722
 11
314.8911464458
 21
332.8613637722
  0
LINE
  5
2E7
100
AcDbEntity
  8
03___PRT_ALL_CURVES
100
AcDbLine
 62
2
  6
CONTINUOUS
 10
310.1981750162
 20
332.8613637722
 11
309.4118488618
 21
332.8613637722
  0
LINE
  5
2E8
100
AcDbEntity
  8
03___PRT_ALL_CURVES
100
AcDbLine
 62
2
  6
CONTINUOUS
 10
307.8304154795
 20
332.8613637722
 11
307.0440893173
 21
332.8613637722
  0
LINE
  5
2E9
100
AcDbEntity
  8
03___PRT_ALL_CURVES
100
AcDbLine
 62
2
  6
CONTINUOUS
 10
304.7379293262
 20
332.8613637722
 11
304.0111511151
 21
332.8613637722
  0
LINE
  5
2EA
100
AcDbEntity
  8
03___PRT_ALL_CURVES
100
AcDbLine
 62
2
  6
CONTINUOUS
 10
299.181760664
 20
332.8613637722
 11
296.7076308767
 21
332.8613637722
  0
LINE
  5
2EB
100
AcDbEntity
  8
03___PRT_ALL_CURVES
100
AcDbLine
 62
2
  6
CONTINUOUS
 10
299.6822714315
 20
332.8613637722
 11
301.0279184783
 21
332.8613637722
  0
LINE
  5
2EC
100
AcDbEntity
  8
03___PRT_ALL_CURVES
100
AcDbLine
 62
2
  6
CONTINUOUS
 10
294.6592279062
 20
334.8606969214
 11
331.4599116896
 21
334.8606969214
  0
LINE
  5
2ED
100
AcDbEntity
  8
03___PRT_ALL_CURVES
100
AcDbLine
 62
2
  6
CONTINUOUS
 10
294.6592279063
 20
335.2605830102
 11
331.4599116896
 21
335.2605830102
  0
LINE
  5
2EE
100
AcDbEntity
  8
0
100
AcDbLine
 62
7
  6
CONTINUOUS
 10
211.0595699055
 20
357.2605830102
 11
415.0595699054
 21
357.2605830102
  0
LINE
  5
2EF
100
AcDbEntity
  8
0
100
AcDbLine
 62
7
  6
CONTINUOUS
 10
214.0599091729
 20
360.2605830102
 11
412.0360357086
 21
360.2605830102
  0
LINE
  5
2F0
100
AcDbEntity
  8
02___PRT_ALL_AXES
100
AcDbLine
 62
7
  6
CONTINUOUS
 10
400.8329343805
 20
49.1366203803
 11
398.859416239
 21
46.7683986106
  0
LINE
  5
2F1
100
AcDbEntity
  8
0
100
AcDbLine
 62
7
  6
CONTINUOUS
 10
398.859416239
 20
46.7683986106
 11
400.8329343805
 21
49.1366203803
  0
ARC
  5
2F2
100
AcDbEntity
  8
02___PRT_ALL_AXES
100
AcDbCircle
 62
7
  6
CONTINUOUS
 10
239.3612940433
 20
74.4085830102
 40
28.8017241379
100
AcDbArc
 50
180.0
 51
239.5464596854
  0
ARC
  5
2F3
100
AcDbEntity
  8
0
100
AcDbCircle
 62
7
  6
CONTINUOUS
 10
239.3612940433
 20
74.4085830102
 40
28.8017241379
100
AcDbArc
 50
180.0
 51
239.5464596854
  0
ARC
  5
2F4
100
AcDbEntity
  8
0
100
AcDbCircle
 62
3
  6
CONTINUOUS
 10
245.811470302
 20
192.0046375167
 40
2.2561804008
100
AcDbArc
 50
96.0495675109
 51
102.0067329775
  0
ARC
  5
2F5
100
AcDbEntity
  8
0
100
AcDbCircle
 62
3
  6
CONTINUOUS
 10
245.811470302
 20
167.0046375167
 40
2.2561804008
100
AcDbArc
 50
96.0495675109
 51
102.0067329775
  0
ARC
  5
2F6
100
AcDbEntity
  8
0
100
AcDbCircle
 62
3
  6
CONTINUOUS
 10
245.811470302
 20
142.0046375167
 40
2.2561804008
100
AcDbArc
 50
96.0495675109
 51
102.0067329775
  0
ARC
  5
2F7
100
AcDbEntity
  8
0
100
AcDbCircle
 62
3
  6
CONTINUOUS
 10
245.811470302
 20
138.5165285038
 40
2.2561804008
100
AcDbArc
 50
257.9932670225
 51
263.9504324891
  0
ARC
  5
2F8
100
AcDbEntity
  8
0
100
AcDbCircle
 62
3
  6
CONTINUOUS
 10
245.811470302
 20
163.5165285038
 40
2.2561804008
100
AcDbArc
 50
257.9932670225
 51
263.9504324891
  0
ARC
  5
2F9
100
AcDbEntity
  8
0
100
AcDbCircle
 62
3
  6
CONTINUOUS
 10
245.811470302
 20
188.5165285038
 40
2.2561804008
100
AcDbArc
 50
257.9932670224
 51
263.9504324891
  0
ARC
  5
2FA
100
AcDbEntity
  8
0
100
AcDbCircle
 62
7
  6
CONTINUOUS
 10
223.7497628711
 20
47.856251581
 40
2.0
100
AcDbArc
 50
39.8055710923
 51
59.5464596854
  0
ARC
  5
2FB
100
AcDbEntity
  8
0
100
AcDbCircle
 62
7
  6
CONTINUOUS
 10
212.8095699054
 20
76.1585830102
 40
1.75
100
AcDbArc
 50
180.0
 51
270.0
  0
ARC
  5
2FC
100
AcDbEntity
  8
0
100
AcDbCircle
 62
7
  6
CONTINUOUS
 10
228.0279448514
 20
47.4085830102
 40
1.0
100
AcDbArc
 50
219.8055710923
 51
270.0
  0
ARC
  5
2FD
100
AcDbEntity
  8
0
100
AcDbCircle
 62
3
  6
CONTINUOUS
 10
223.166360314
 20
193.3339000788
 40
0.9284728229
100
AcDbArc
 50
104.738110735
 51
109.062178065
  0
ARC
  5
2FE
100
AcDbEntity
  8
0
100
AcDbCircle
 62
3
  6
CONTINUOUS
 10
223.166360314
 20
168.3339000788
 40
0.9284728229
100
AcDbArc
 50
104.7381107351
 51
109.0621780649
  0
ARC
  5
2FF
100
AcDbEntity
  8
0
100
AcDbCircle
 62
3
  6
CONTINUOUS
 10
223.166360314
 20
143.3339000788
 40
0.9284728229
100
AcDbArc
 50
104.738110735
 51
109.062178065
  0
ARC
  5
300
100
AcDbEntity
  8
0
100
AcDbCircle
 62
3
  6
CONTINUOUS
 10
223.166360314
 20
137.1872659417
 40
0.9284728229
100
AcDbArc
 50
250.9378219351
 51
255.2618892649
  0
ARC
  5
301
100
AcDbEntity
  8
0
100
AcDbCircle
 62
3
  6
CONTINUOUS
 10
223.166360314
 20
162.1872659417
 40
0.9284728229
100
AcDbArc
 50
250.9378219349
 51
255.261889265
  0
ARC
  5
302
100
AcDbEntity
  8
0
100
AcDbCircle
 62
3
  6
CONTINUOUS
 10
223.166360314
 20
187.1872659417
 40
0.9284728229
100
AcDbArc
 50
250.9378219349
 51
255.261889265
  0
ARC
  5
303
100
AcDbEntity
  8
0
100
AcDbCircle
 62
7
  6
CONTINUOUS
 10
214.0595699054
 20
357.2605830102
 40
3.0
100
AcDbArc
 50
90.0
 51
180.0
  0
ARC
  5
304
100
AcDbEntity
  8
0
100
AcDbCircle
 62
3
  6
CONTINUOUS
 10
245.811470302
 20
292.0046375167
 40
2.2561804008
100
AcDbArc
 50
96.0495675109
 51
102.0067329776
  0
ARC
  5
305
100
AcDbEntity
  8
0
100
AcDbCircle
 62
3
  6
CONTINUOUS
 10
245.811470302
 20
267.0046375167
 40
2.2561804008
100
AcDbArc
 50
96.0495675109
 51
102.0067329776
  0
ARC
  5
306
100
AcDbEntity
  8
0
100
AcDbCircle
 62
3
  6
CONTINUOUS
 10
245.811470302
 20
242.0046375167
 40
2.2561804008
100
AcDbArc
 50
96.0495675109
 51
102.0067329776
  0
ARC
  5
307
100
AcDbEntity
  8
0
100
AcDbCircle
 62
3
  6
CONTINUOUS
 10
245.811470302
 20
217.0046375167
 40
2.2561804008
100
AcDbArc
 50
96.0495675109
 51
102.0067329776
  0
ARC
  5
308
100
AcDbEntity
  8
0
100
AcDbCircle
 62
3
  6
CONTINUOUS
 10
245.811470302
 20
288.5165285038
 40
2.2561804008
100
AcDbArc
 50
257.9932670224
 51
263.9504324891
  0
ARC
  5
309
100
AcDbEntity
  8
0
100
AcDbCircle
 62
3
  6
CONTINUOUS
 10
245.811470302
 20
263.5165285038
 40
2.2561804008
100
AcDbArc
 50
257.9932670225
 51
263.9504324891
  0
ARC
  5
30A
100
AcDbEntity
  8
0
100
AcDbCircle
 62
3
  6
CONTINUOUS
 10
245.811470302
 20
213.5165285038
 40
2.2561804008
100
AcDbArc
 50
257.9932670224
 51
263.9504324891
  0
ARC
  5
30B
100
AcDbEntity
  8
0
100
AcDbCircle
 62
3
  6
CONTINUOUS
 10
245.811470302
 20
238.5165285038
 40
2.2561804008
100
AcDbArc
 50
257.9932670224
 51
263.9504324891
  0
ARC
  5
30C
100
AcDbEntity
  8
03___PRT_ALL_CURVES
100
AcDbCircle
 62
2
  6
CONTINUOUS
 10
294.6592279063
 20
328.8606351895
 40
1.599787802
100
AcDbArc
 50
180.0
 51
270.0
  0
ARC
  5
30D
100
AcDbEntity
  8
03___PRT_ALL_CURVES
100
AcDbCircle
 62
2
  6
CONTINUOUS
 10
294.6592279063
 20
333.6607952083
 40
1.599787802
100
AcDbArc
 50
90.0
 51
180.0
  0
ARC
  5
30E
100
AcDbEntity
  8
03___PRT_ALL_CURVES
100
AcDbCircle
 62
2
  6
CONTINUOUS
 10
301.0274682923
 20
331.811493792
 40
1.0498620607
100
AcDbArc
 50
281.4108259274
 51
89.9754301905
  0
ARC
  5
30F
100
AcDbEntity
  8
0
100
AcDbCircle
 62
3
  6
CONTINUOUS
 10
223.166360314
 20
293.3339000788
 40
0.9284728229
100
AcDbArc
 50
104.738110735
 51
109.0621780649
  0
ARC
  5
310
100
AcDbEntity
  8
0
100
AcDbCircle
 62
3
  6
CONTINUOUS
 10
223.166360314
 20
268.3339000788
 40
0.9284728229
100
AcDbArc
 50
104.7381107349
 51
109.0621780651
  0
ARC
  5
311
100
AcDbEntity
  8
0
100
AcDbCircle
 62
3
  6
CONTINUOUS
 10
223.166360314
 20
243.3339000788
 40
0.9284728229
100
AcDbArc
 50
104.738110735
 51
109.062178065
  0
ARC
  5
312
100
AcDbEntity
  8
0
100
AcDbCircle
 62
3
  6
CONTINUOUS
 10
223.166360314
 20
218.3339000788
 40
0.9284728229
100
AcDbArc
 50
104.738110735
 51
109.0621780651
  0
ARC
  5
313
100
AcDbEntity
  8
0
100
AcDbCircle
 62
3
  6
CONTINUOUS
 10
223.166360314
 20
287.1872659417
 40
0.928472823
100
AcDbArc
 50
250.9378219351
 51
255.2618892649
  0
ARC
  5
314
100
AcDbEntity
  8
0
100
AcDbCircle
 62
3
  6
CONTINUOUS
 10
223.166360314
 20
262.1872659417
 40
0.9284728229
100
AcDbArc
 50
250.937821935
 51
255.2618892649
  0
ARC
  5
315
100
AcDbEntity
  8
0
100
AcDbCircle
 62
3
  6
CONTINUOUS
 10
223.166360314
 20
212.1872659417
 40
0.9284728229
100
AcDbArc
 50
250.937821935
 51
255.261889265
  0
ARC
  5
316
100
AcDbEntity
  8
0
100
AcDbCircle
 62
3
  6
CONTINUOUS
 10
223.166360314
 20
237.1872659417
 40
0.9284728229
100
AcDbArc
 50
250.9378219349
 51
255.261889265
  0
ARC
  5
317
100
AcDbEntity
  8
03___PRT_ALL_CURVES
100
AcDbCircle
 62
2
  6
CONTINUOUS
 10
300.6402695347
 20
331.7342143103
 40
0.6765458702
100
AcDbArc
 50
359.9603360288
 51
13.3381023671
  0
ARC
  5
318
100
AcDbEntity
  8
03___PRT_ALL_CURVES
100
AcDbCircle
 62
2
  6
CONTINUOUS
 10
300.64192505
 20
331.7344073013
 40
0.6748905169
100
AcDbArc
 50
359.9438544954
 51
13.3545839007
  0
ARC
  5
319
100
AcDbEntity
  8
03___PRT_ALL_CURVES
100
AcDbCircle
 62
2
  6
CONTINUOUS
 10
300.8726930152
 20
331.7341490849
 40
0.4441216379
100
AcDbArc
 50
304.1703440732
 51
359.9479932651
  0
ARC
  5
31A
100
AcDbEntity
  8
0
100
AcDbCircle
 62
7
  6
CONTINUOUS
 10
313.4330107244
 20
140.2532551638
 40
4.0073278829
100
AcDbArc
 50
90.0077382208
 51
95.3471225966
  0
ARC
  5
31B
100
AcDbEntity
  8
0
100
AcDbCircle
 62
7
  6
CONTINUOUS
 10
313.4330107244
 20
140.2679108566
 40
4.0073278829
100
AcDbArc
 50
264.6528774034
 51
269.9922617792
  0
ARC
  5
31C
100
AcDbEntity
  8
0
100
AcDbCircle
 62
7
  6
CONTINUOUS
 10
313.4330107244
 20
165.2532551638
 40
4.007327883
100
AcDbArc
 50
90.0077382208
 51
95.3471225966
  0
ARC
  5
31D
100
AcDbEntity
  8
0
100
AcDbCircle
 62
7
  6
CONTINUOUS
 10
313.4330107244
 20
165.2679108566
 40
4.0073278829
100
AcDbArc
 50
264.6528774034
 51
269.9922617792
  0
ARC
  5
31E
100
AcDbEntity
  8
0
100
AcDbCircle
 62
7
  6
CONTINUOUS
 10
313.4330107244
 20
190.2532551638
 40
4.007327883
100
AcDbArc
 50
90.0077382208
 51
95.3471225966
  0
ARC
  5
31F
100
AcDbEntity
  8
0
100
AcDbCircle
 62
7
  6
CONTINUOUS
 10
313.4330107244
 20
190.2679108566
 40
4.0073278829
100
AcDbArc
 50
264.6528774034
 51
269.9922617792
  0
ARC
  5
320
100
AcDbEntity
  8
02___PRT_ALL_AXES
100
AcDbCircle
 62
7
  6
CONTINUOUS
 10
386.7578457675
 20
74.4085830102
 40
28.8017241379
100
AcDbArc
 50
300.4535403146
 51
360.0
  0
ARC
  5
321
100
AcDbEntity
  8
0
100
AcDbCircle
 62
7
  6
CONTINUOUS
 10
386.7578457675
 20
74.4085830102
 40
28.8017241379
100
AcDbArc
 50
300.4535403146
 51
360.0
  0
ARC
  5
322
100
AcDbEntity
  8
0
100
AcDbCircle
 62
7
  6
CONTINUOUS
 10
402.3693769397
 20
47.856251581
 40
2.0
100
AcDbArc
 50
120.4535403146
 51
140.1944289077
  0
ARC
  5
323
100
AcDbEntity
  8
0
100
AcDbCircle
 62
7
  6
CONTINUOUS
 10
413.3095699054
 20
76.1585830102
 40
1.75
100
AcDbArc
 50
270.0
 51
360.0
  0
ARC
  5
324
100
AcDbEntity
  8
0
100
AcDbCircle
 62
7
  6
CONTINUOUS
 10
398.0911949594
 20
47.4085830102
 40
1.0
100
AcDbArc
 50
270.0
 51
320.1944289077
  0
ARC
  5
325
100
AcDbEntity
  8
0
100
AcDbCircle
 62
3
  6
CONTINUOUS
 10
380.8616645801
 20
188.4880496209
 40
2.2277065289
100
AcDbArc
 50
276.089357878
 51
282.0841220586
  0
ARC
  5
326
100
AcDbEntity
  8
0
100
AcDbCircle
 62
3
  6
CONTINUOUS
 10
380.8616645801
 20
163.4880496209
 40
2.2277065289
100
AcDbArc
 50
276.089357878
 51
282.0841220587
  0
ARC
  5
327
100
AcDbEntity
  8
0
100
AcDbCircle
 62
3
  6
CONTINUOUS
 10
380.8616645801
 20
138.4880496209
 40
2.2277065289
100
AcDbArc
 50
276.089357878
 51
282.0841220587
  0
ARC
  5
328
100
AcDbEntity
  8
0
100
AcDbCircle
 62
3
  6
CONTINUOUS
 10
380.8616645801
 20
142.0331163996
 40
2.2277065289
100
AcDbArc
 50
77.9158779414
 51
83.910642122
  0
ARC
  5
329
100
AcDbEntity
  8
0
100
AcDbCircle
 62
3
  6
CONTINUOUS
 10
380.8616645801
 20
167.0331163996
 40
2.2277065289
100
AcDbArc
 50
77.9158779413
 51
83.910642122
  0
ARC
  5
32A
100
AcDbEntity
  8
0
100
AcDbCircle
 62
3
  6
CONTINUOUS
 10
380.8616645801
 20
192.0331163996
 40
2.2277065289
100
AcDbArc
 50
77.9158779413
 51
83.910642122
  0
ARC
  5
32B
100
AcDbEntity
  8
0
100
AcDbCircle
 62
3
  6
CONTINUOUS
 10
403.2940361485
 20
187.1654169453
 40
0.9067489974
100
AcDbArc
 50
285.2001326263
 51
289.3152538993
  0
ARC
  5
32C
100
AcDbEntity
  8
0
100
AcDbCircle
 62
3
  6
CONTINUOUS
 10
403.2940361485
 20
162.1654169453
 40
0.9067489974
100
AcDbArc
 50
285.2001326264
 51
289.3152538992
  0
ARC
  5
32D
100
AcDbEntity
  8
0
100
AcDbCircle
 62
3
  6
CONTINUOUS
 10
403.2940361485
 20
137.1654169452
 40
0.9067489973
100
AcDbArc
 50
285.2001326261
 51
289.3152538995
  0
ARC
  5
32E
100
AcDbEntity
  8
0
100
AcDbCircle
 62
3
  6
CONTINUOUS
 10
403.2940361485
 20
143.3557490752
 40
0.9067489974
100
AcDbArc
 50
70.6847461007
 51
74.7998673737
  0
ARC
  5
32F
100
AcDbEntity
  8
0
100
AcDbCircle
 62
3
  6
CONTINUOUS
 10
403.2940361485
 20
168.3557490753
 40
0.9067489973
100
AcDbArc
 50
70.6847461005
 51
74.7998673739
  0
ARC
  5
330
100
AcDbEntity
  8
0
100
AcDbCircle
 62
3
  6
CONTINUOUS
 10
403.2940361485
 20
193.3557490751
 40
0.9067489974
100
AcDbArc
 50
70.6847461008
 51
74.7998673736
  0
ARC
  5
331
100
AcDbEntity
  8
0
100
AcDbCircle
 62
7
  6
CONTINUOUS
 10
313.4330107244
 20
290.2679108566
 40
4.0073278829
100
AcDbArc
 50
264.6528774034
 51
269.9922617792
  0
ARC
  5
332
100
AcDbEntity
  8
0
100
AcDbCircle
 62
7
  6
CONTINUOUS
 10
313.4330107244
 20
290.2532551638
 40
4.007327883
100
AcDbArc
 50
90.0077382208
 51
95.3471225966
  0
ARC
  5
333
100
AcDbEntity
  8
0
100
AcDbCircle
 62
7
  6
CONTINUOUS
 10
313.4330107244
 20
265.2679108566
 40
4.0073278829
100
AcDbArc
 50
264.6528774034
 51
269.9922617792
  0
ARC
  5
334
100
AcDbEntity
  8
0
100
AcDbCircle
 62
7
  6
CONTINUOUS
 10
313.4330107244
 20
265.2532551638
 40
4.007327883
100
AcDbArc
 50
90.0077382208
 51
95.3471225966
  0
ARC
  5
335
100
AcDbEntity
  8
0
100
AcDbCircle
 62
7
  6
CONTINUOUS
 10
313.4330107244
 20
215.2532551638
 40
4.007327883
100
AcDbArc
 50
90.0077382208
 51
95.3471225966
  0
ARC
  5
336
100
AcDbEntity
  8
0
100
AcDbCircle
 62
7
  6
CONTINUOUS
 10
313.4330107244
 20
215.2679108566
 40
4.0073278829
100
AcDbArc
 50
264.6528774034
 51
269.9922617792
  0
ARC
  5
337
100
AcDbEntity
  8
0
100
AcDbCircle
 62
7
  6
CONTINUOUS
 10
313.4330107244
 20
240.2679108566
 40
4.0073278829
100
AcDbArc
 50
264.6528774034
 51
269.9922617792
  0
ARC
  5
338
100
AcDbEntity
  8
0
100
AcDbCircle
 62
7
  6
CONTINUOUS
 10
313.4330107244
 20
240.2532551638
 40
4.007327883
100
AcDbArc
 50
90.0077382208
 51
95.3471225966
  0
ARC
  5
339
100
AcDbEntity
  8
0
100
AcDbCircle
 62
7
  6
CONTINUOUS
 10
412.0595699054
 20
357.2605830102
 40
3.0
100
AcDbArc
 50
0.0
 51
90.0
  0
ARC
  5
33A
100
AcDbEntity
  8
0
100
AcDbCircle
 62
3
  6
CONTINUOUS
 10
380.8616645801
 20
288.4880496209
 40
2.2277065289
100
AcDbArc
 50
276.0893578781
 51
282.0841220586
  0
ARC
  5
33B
100
AcDbEntity
  8
0
100
AcDbCircle
 62
3
  6
CONTINUOUS
 10
380.8616645801
 20
263.4880496209
 40
2.2277065289
100
AcDbArc
 50
276.089357878
 51
282.0841220587
  0
ARC
  5
33C
100
AcDbEntity
  8
0
100
AcDbCircle
 62
3
  6
CONTINUOUS
 10
380.8616645801
 20
238.4880496209
 40
2.2277065289
100
AcDbArc
 50
276.089357878
 51
282.0841220587
  0
ARC
  5
33D
100
AcDbEntity
  8
0
100
AcDbCircle
 62
3
  6
CONTINUOUS
 10
380.8616645801
 20
213.4880496209
 40
2.2277065289
100
AcDbArc
 50
276.089357878
 51
282.0841220587
  0
ARC
  5
33E
100
AcDbEntity
  8
0
100
AcDbCircle
 62
3
  6
CONTINUOUS
 10
380.8616645801
 20
292.0331163996
 40
2.2277065289
100
AcDbArc
 50
77.9158779413
 51
83.910642122
  0
ARC
  5
33F
100
AcDbEntity
  8
0
100
AcDbCircle
 62
3
  6
CONTINUOUS
 10
380.8616645801
 20
267.0331163996
 40
2.2277065289
100
AcDbArc
 50
77.9158779413
 51
83.910642122
  0
ARC
  5
340
100
AcDbEntity
  8
0
100
AcDbCircle
 62
3
  6
CONTINUOUS
 10
380.8616645801
 20
242.0331163996
 40
2.2277065289
100
AcDbArc
 50
77.9158779413
 51
83.910642122
  0
ARC
  5
341
100
AcDbEntity
  8
0
100
AcDbCircle
 62
3
  6
CONTINUOUS
 10
380.8616645801
 20
217.0331163996
 40
2.2277065289
100
AcDbArc
 50
77.9158779414
 51
83.910642122
  0
ARC
  5
342
100
AcDbEntity
  8
03___PRT_ALL_CURVES
100
AcDbCircle
 62
2
  6
CONTINUOUS
 10
331.4599119045
 20
328.8606351895
 40
1.599787802
100
AcDbArc
 50
270.0
 51
360.0
  0
ARC
  5
343
100
AcDbEntity
  8
0
100
AcDbCircle
 62
3
  6
CONTINUOUS
 10
403.2940361485
 20
287.1654169452
 40
0.9067489973
100
AcDbArc
 50
285.2001326261
 51
289.3152538994
  0
ARC
  5
344
100
AcDbEntity
  8
0
100
AcDbCircle
 62
3
  6
CONTINUOUS
 10
403.2940361485
 20
262.1654169453
 40
0.9067489973
100
AcDbArc
 50
285.2001326262
 51
289.3152538993
  0
ARC
  5
345
100
AcDbEntity
  8
0
100
AcDbCircle
 62
3
  6
CONTINUOUS
 10
403.2940361485
 20
237.1654169453
 40
0.9067489974
100
AcDbArc
 50
285.2001326263
 51
289.3152538993
  0
ARC
  5
346
100
AcDbEntity
  8
0
100
AcDbCircle
 62
3
  6
CONTINUOUS
 10
403.2940361485
 20
212.1654169453
 40
0.9067489974
100
AcDbArc
 50
285.2001326264
 51
289.3152538993
  0
ARC
  5
347
100
AcDbEntity
  8
0
100
AcDbCircle
 62
3
  6
CONTINUOUS
 10
403.2940361485
 20
293.3557490752
 40
0.9067489974
100
AcDbArc
 50
70.6847461007
 51
74.7998673737
  0
ARC
  5
348
100
AcDbEntity
  8
0
100
AcDbCircle
 62
3
  6
CONTINUOUS
 10
403.2940361485
 20
268.3557490752
 40
0.9067489973
100
AcDbArc
 50
70.6847461007
 51
74.7998673738
  0
ARC
  5
349
100
AcDbEntity
  8
0
100
AcDbCircle
 62
3
  6
CONTINUOUS
 10
403.2940361485
 20
243.3557490752
 40
0.9067489974
100
AcDbArc
 50
70.6847461007
 51
74.7998673738
  0
ARC
  5
34A
100
AcDbEntity
  8
0
100
AcDbCircle
 62
3
  6
CONTINUOUS
 10
403.2940361485
 20
218.3557490752
 40
0.9067489973
100
AcDbArc
 50
70.6847461006
 51
74.7998673738
  0
SPLINE
  5
34B
100
AcDbEntity
  8
0
100
AcDbSpline
 62
7
  6
CONTINUOUS
 70
0
 71
3
 72
17
 73
13
 74
0
 42
0.0000001
 43
0.0000001
 44
0.0000000001
 40
0.0
 40
0.0
 40
0.0
 40
0.0
 40
0.3746342115
 40
0.5442868734
 40
0.6936040209
 40
0.8169102314
 40
0.8674785438
 40
0.9100432067
 40
0.944264587
 40
0.9701512778
 40
0.9881324594
 40
1.0
 40
1.0
 40
1.0
 40
1.0
 10
413.904408083
 20
290.2605830102
 30
0.0
 10
413.904408083
 20
290.7710519114
 30
0.0
 10
413.9249582136
 20
291.5130159967
 30
0.0
 10
413.9971580687
 20
292.455495175
 30
0.0
 10
414.0650725371
 20
293.0544302257
 30
0.0
 10
414.1346655087
 20
293.4895533967
 30
0.0
 10
414.1969367141
 20
293.777900631
 30
0.0
 10
414.241554641
 20
293.9456797067
 30
0.0
 10
414.286054153
 20
294.0784616573
 30
0.0
 10
414.3311548495
 20
294.1752672613
 30
0.0
 10
414.3735612201
 20
294.2385368714
 30
0.0
 10
414.4123338916
 20
294.2605830102
 30
0.0
 10
414.4285043593
 20
294.2605830102
 30
0.0
  0
SPLINE
  5
34C
100
AcDbEntity
  8
0
100
AcDbSpline
 62
7
  6
CONTINUOUS
 70
0
 71
3
 72
12
 73
8
 74
0
 42
0.0000001
 43
0.0000001
 44
0.0000000001
 40
0.0
 40
0.0
 40
0.0
 40
0.0
 40
0.3112580997
 40
0.5938957073
 40
0.7172805378
 40
0.8261337649
 40
1.0
 40
1.0
 40
1.0
 40
1.0
 10
401.8493323414
 20
290.2605830102
 30
0.0
 10
401.8493323414
 20
290.7238933694
 30
0.0
 10
401.9243106141
 20
291.6096270353
 30
0.0
 10
402.2051788031
 20
292.6479337369
 30
0.0
 10
402.5409028879
 20
293.3409621313
 30
0.0
 10
402.8804194159
 20
293.838868554
 30
0.0
 10
403.2217115716
 20
294.1275929966
 30
0.0
 10
403.4666467459
 20
294.2111688193
 30
0.0
  0
SPLINE
  5
34D
100
AcDbEntity
  8
0
100
AcDbSpline
 62
7
  6
CONTINUOUS
 70
0
 71
3
 72
9
 73
5
 74
0
 42
0.0000001
 43
0.0000001
 44
0.0000000001
 40
0.0
 40
0.0
 40
0.0
 40
0.0
 40
0.2562977865
 40
1.0
 40
1.0
 40
1.0
 40
1.0
 10
403.4666467459
 20
294.2111688193
 30
0.0
 10
403.4903977334
 20
294.2192730384
 30
0.0
 10
403.5841976512
 20
294.247418739
 30
0.0
 10
403.6826396868
 20
294.2605830102
 30
0.0
 10
403.755459797
 20
294.2605830102
 30
0.0
  0
SPLINE
  5
34E
100
AcDbEntity
  8
0
100
AcDbSpline
 62
7
  6
CONTINUOUS
 70
0
 71
3
 72
13
 73
9
 74
0
 42
0.0000001
 43
0.0000001
 44
0.0000000001
 40
0.0
 40
0.0
 40
0.0
 40
0.0
 40
0.2801564317
 40
0.5440002183
 40
0.6668618012
 40
0.7829914511
 40
0.8933238375
 40
1.0
 40
1.0
 40
1.0
 40
1.0
 10
378.1617347439
 20
290.2605830102
 30
0.0
 10
378.1617347439
 20
290.776799964
 30
0.0
 10
378.3110442032
 20
291.785395383
 30
0.0
 10
378.8689417827
 20
292.9093592452
 30
0.0
 10
379.5003167945
 20
293.5949440858
 30
0.0
 10
380.0282952662
 20
293.9723765984
 30
0.0
 10
380.6020685816
 20
294.2062337396
 30
0.0
 10
381.0036060937
 20
294.2605830102
 30
0.0
 10
381.2001678621
 20
294.2605830102
 30
0.0
  0
SPLINE
  5
34F
100
AcDbEntity
  8
0
100
AcDbSpline
 62
7
  6
CONTINUOUS
 70
0
 71
3
 72
11
 73
7
 74
0
 42
0.0000001
 43
0.0000001
 44
0.0000000001
 40
0.0
 40
0.0
 40
0.0
 40
0.0
 40
0.2569100587
 40
0.5102029959
 40
0.7576914986
 40
1.0
 40
1.0
 40
1.0
 40
1.0
 10
345.9449741599
 20
290.2605830102
 30
0.0
 10
345.9449741599
 20
290.7798443119
 30
0.0
 10
346.1393529753
 20
291.8214923641
 30
0.0
 10
346.9743858063
 20
293.1484308716
 30
0.0
 10
348.2266830755
 20
294.0461846835
 30
0.0
 10
349.2278928909
 20
294.2605830102
 30
0.0
 10
349.7176418267
 20
294.2605830102
 30
0.0
  0
SPLINE
  5
350
100
AcDbEntity
  8
0
100
AcDbSpline
 62
7
  6
CONTINUOUS
 70
0
 71
3
 72
11
 73
7
 74
0
 42
0.0000001
 43
0.0000001
 44
0.0000000001
 40
0.0
 40
0.0
 40
0.0
 40
0.0
 40
0.2566066754
 40
0.5097616692
 40
0.7573668535
 40
1.0
 40
1.0
 40
1.0
 40
1.0
 10
280.8810146379
 20
290.2605830102
 30
0.0
 10
280.8810146379
 20
289.7412773959
 30
0.0
 10
280.6860058034
 20
288.699171627
 30
0.0
 10
279.8484865761
 20
287.3721296009
 30
0.0
 10
278.592829783
 20
286.474728401
 30
0.0
 10
277.5894696735
 20
286.2605830102
 30
0.0
 10
277.0984428714
 20
286.2605830102
 30
0.0
  0
SPLINE
  5
351
100
AcDbEntity
  8
0
100
AcDbSpline
 62
7
  6
CONTINUOUS
 70
0
 71
3
 72
13
 73
9
 74
0
 42
0.0000001
 43
0.0000001
 44
0.0000000001
 40
0.0
 40
0.0
 40
0.0
 40
0.0
 40
0.2794945687
 40
0.5430149349
 40
0.6659232303
 40
0.7822501833
 40
0.8929122894
 40
1.0
 40
1.0
 40
1.0
 40
1.0
 10
248.5332754108
 20
290.2605830102
 30
0.0
 10
248.5332754108
 20
289.7442939503
 30
0.0
 10
248.3828765024
 20
288.7349101376
 30
0.0
 10
247.8212184575
 20
287.6110839065
 30
0.0
 10
247.1861460858
 20
286.9259286764
 30
0.0
 10
246.654812954
 20
286.5485896451
 30
0.0
 10
246.0774722657
 20
286.3148725211
 30
0.0
 10
245.6735693834
 20
286.2605830102
 30
0.0
 10
245.4757544002
 20
286.2605830102
 30
0.0
  0
SPLINE
  5
352
100
AcDbEntity
  8
0
100
AcDbSpline
 62
7
  6
CONTINUOUS
 70
0
 71
3
 72
12
 73
8
 74
0
 42
0.0000001
 43
0.0000001
 44
0.0000000001
 40
0.0
 40
0.0
 40
0.0
 40
0.0
 40
0.3104593434
 40
0.5926248534
 40
0.7160018537
 40
0.8250484045
 40
1.0
 40
1.0
 40
1.0
 40
1.0
 10
224.6392532609
 20
290.2605830102
 30
0.0
 10
224.6392532609
 20
289.7972262591
 30
0.0
 10
224.5632565965
 20
288.9109845771
 30
0.0
 10
224.2785011211
 20
287.8725204553
 30
0.0
 10
223.9383974581
 20
287.1798191517
 30
0.0
 10
223.5936469574
 20
286.6810725339
 30
0.0
 10
223.247708752
 20
286.3932768616
 30
0.0
 10
223.0002323867
 20
286.3099972012
 30
0.0
  0
SPLINE
  5
353
100
AcDbEntity
  8
0
100
AcDbSpline
 62
7
  6
CONTINUOUS
 70
0
 71
3
 72
9
 73
5
 74
0
 42
0.0000001
 43
0.0000001
 44
0.0000000001
 40
0.0
 40
0.0
 40
0.0
 40
0.0
 40
0.2561065582
 40
1.0
 40
1.0
 40
1.0
 40
1.0
 10
223.0002323867
 20
286.3099972012
 30
0.0
 10
222.9761416925
 20
286.3018903065
 30
0.0
 10
222.880955971
 20
286.273726769
 30
0.0
 10
222.7811851034
 20
286.2605830102
 30
0.0
 10
222.7073548627
 20
286.2605830102
 30
0.0
  0
SPLINE
  5
354
100
AcDbEntity
  8
0
100
AcDbSpline
 62
7
  6
CONTINUOUS
 70
0
 71
3
 72
16
 73
12
 74
0
 42
0.0000001
 43
0.0000001
 44
0.0000000001
 40
0.0
 40
0.0
 40
0.0
 40
0.0
 40
0.3741304113
 40
0.5435997487
 40
0.6928138171
 40
0.8161295853
 40
0.8667591794
 40
0.9094338227
 40
0.9438294964
 40
0.9699820408
 40
1.0
 40
1.0
 40
1.0
 40
1.0
 10
212.3293511453
 20
290.2605830102
 30
0.0
 10
212.3293511453
 20
289.7500917645
 30
0.0
 10
212.3078064021
 20
289.0079873879
 30
0.0
 10
212.2320596552
 20
288.0655667999
 30
0.0
 10
212.1606109378
 20
287.466482662
 30
0.0
 10
212.0874703809
 20
287.0315418071
 30
0.0
 10
212.0215386327
 20
286.7429730667
 30
0.0
 10
211.9749111936
 20
286.5758029679
 30
0.0
 10
211.9263058477
 20
286.4411113478
 30
0.0
 10
211.8754962884
 20
286.3350516559
 30
0.0
 10
211.8171359051
 20
286.2605830102
 30
0.0
 10
211.7761771781
 20
286.2605830102
 30
0.0
  0
SPLINE
  5
355
100
AcDbEntity
  8
0
100
AcDbSpline
 62
7
  6
CONTINUOUS
 70
0
 71
3
 72
17
 73
13
 74
0
 42
0.0000001
 43
0.0000001
 44
0.0000000001
 40
0.0
 40
0.0
 40
0.0
 40
0.0
 40
0.3746342115
 40
0.5442868734
 40
0.6936040209
 40
0.8169102314
 40
0.8674785438
 40
0.9100432067
 40
0.944264587
 40
0.9701512778
 40
0.9881324594
 40
1.0
 40
1.0
 40
1.0
 40
1.0
 10
413.904408083
 20
265.2605830102
 30
0.0
 10
413.904408083
 20
265.7710519114
 30
0.0
 10
413.9249582136
 20
266.5130159967
 30
0.0
 10
413.9971580687
 20
267.455495175
 30
0.0
 10
414.0650725371
 20
268.0544302257
 30
0.0
 10
414.1346655087
 20
268.4895533967
 30
0.0
 10
414.1969367141
 20
268.777900631
 30
0.0
 10
414.241554641
 20
268.9456797067
 30
0.0
 10
414.286054153
 20
269.0784616573
 30
0.0
 10
414.3311548495
 20
269.1752672613
 30
0.0
 10
414.3735612201
 20
269.2385368714
 30
0.0
 10
414.4123338916
 20
269.2605830102
 30
0.0
 10
414.4285043593
 20
269.2605830102
 30
0.0
  0
SPLINE
  5
356
100
AcDbEntity
  8
0
100
AcDbSpline
 62
7
  6
CONTINUOUS
 70
0
 71
3
 72
12
 73
8
 74
0
 42
0.0000001
 43
0.0000001
 44
0.0000000001
 40
0.0
 40
0.0
 40
0.0
 40
0.0
 40
0.3112580997
 40
0.5938957073
 40
0.7172805378
 40
0.8261337649
 40
1.0
 40
1.0
 40
1.0
 40
1.0
 10
401.8493323414
 20
265.2605830102
 30
0.0
 10
401.8493323414
 20
265.7238933694
 30
0.0
 10
401.9243106141
 20
266.6096270353
 30
0.0
 10
402.2051788031
 20
267.6479337369
 30
0.0
 10
402.5409028879
 20
268.3409621313
 30
0.0
 10
402.8804194159
 20
268.838868554
 30
0.0
 10
403.2217115716
 20
269.1275929966
 30
0.0
 10
403.4666467459
 20
269.2111688193
 30
0.0
  0
SPLINE
  5
357
100
AcDbEntity
  8
0
100
AcDbSpline
 62
7
  6
CONTINUOUS
 70
0
 71
3
 72
9
 73
5
 74
0
 42
0.0000001
 43
0.0000001
 44
0.0000000001
 40
0.0
 40
0.0
 40
0.0
 40
0.0
 40
0.2562977865
 40
1.0
 40
1.0
 40
1.0
 40
1.0
 10
403.4666467459
 20
269.2111688193
 30
0.0
 10
403.4903977334
 20
269.2192730384
 30
0.0
 10
403.5841976512
 20
269.247418739
 30
0.0
 10
403.6826396868
 20
269.2605830102
 30
0.0
 10
403.755459797
 20
269.2605830102
 30
0.0
  0
SPLINE
  5
358
100
AcDbEntity
  8
0
100
AcDbSpline
 62
7
  6
CONTINUOUS
 70
0
 71
3
 72
13
 73
9
 74
0
 42
0.0000001
 43
0.0000001
 44
0.0000000001
 40
0.0
 40
0.0
 40
0.0
 40
0.0
 40
0.2801564317
 40
0.5440002183
 40
0.6668618012
 40
0.7829914511
 40
0.8933238375
 40
1.0
 40
1.0
 40
1.0
 40
1.0
 10
378.1617347439
 20
265.2605830102
 30
0.0
 10
378.1617347439
 20
265.776799964
 30
0.0
 10
378.3110442032
 20
266.785395383
 30
0.0
 10
378.8689417827
 20
267.9093592452
 30
0.0
 10
379.5003167945
 20
268.5949440858
 30
0.0
 10
380.0282952662
 20
268.9723765984
 30
0.0
 10
380.6020685816
 20
269.2062337396
 30
0.0
 10
381.0036060937
 20
269.2605830102
 30
0.0
 10
381.2001678621
 20
269.2605830102
 30
0.0
  0
SPLINE
  5
359
100
AcDbEntity
  8
0
100
AcDbSpline
 62
7
  6
CONTINUOUS
 70
0
 71
3
 72
11
 73
7
 74
0
 42
0.0000001
 43
0.0000001
 44
0.0000000001
 40
0.0
 40
0.0
 40
0.0
 40
0.0
 40
0.2569100587
 40
0.5102029959
 40
0.7576914986
 40
1.0
 40
1.0
 40
1.0
 40
1.0
 10
345.9449741599
 20
265.2605830102
 30
0.0
 10
345.9449741599
 20
265.7798443119
 30
0.0
 10
346.1393529753
 20
266.8214923641
 30
0.0
 10
346.9743858063
 20
268.1484308716
 30
0.0
 10
348.2266830755
 20
269.0461846835
 30
0.0
 10
349.2278928909
 20
269.2605830102
 30
0.0
 10
349.7176418267
 20
269.2605830102
 30
0.0
  0
SPLINE
  5
35A
100
AcDbEntity
  8
0
100
AcDbSpline
 62
7
  6
CONTINUOUS
 70
0
 71
3
 72
11
 73
7
 74
0
 42
0.0000001
 43
0.0000001
 44
0.0000000001
 40
0.0
 40
0.0
 40
0.0
 40
0.0
 40
0.2566066754
 40
0.5097616692
 40
0.7573668535
 40
1.0
 40
1.0
 40
1.0
 40
1.0
 10
280.8810146379
 20
265.2605830102
 30
0.0
 10
280.8810146379
 20
264.7412773959
 30
0.0
 10
280.6860058034
 20
263.699171627
 30
0.0
 10
279.8484865761
 20
262.3721296009
 30
0.0
 10
278.592829783
 20
261.474728401
 30
0.0
 10
277.5894696735
 20
261.2605830102
 30
0.0
 10
277.0984428714
 20
261.2605830102
 30
0.0
  0
SPLINE
  5
35B
100
AcDbEntity
  8
0
100
AcDbSpline
 62
7
  6
CONTINUOUS
 70
0
 71
3
 72
13
 73
9
 74
0
 42
0.0000001
 43
0.0000001
 44
0.0000000001
 40
0.0
 40
0.0
 40
0.0
 40
0.0
 40
0.2794945687
 40
0.5430149349
 40
0.6659232303
 40
0.7822501833
 40
0.8929122894
 40
1.0
 40
1.0
 40
1.0
 40
1.0
 10
248.5332754108
 20
265.2605830102
 30
0.0
 10
248.5332754108
 20
264.7442939503
 30
0.0
 10
248.3828765024
 20
263.7349101376
 30
0.0
 10
247.8212184575
 20
262.6110839065
 30
0.0
 10
247.1861460858
 20
261.9259286764
 30
0.0
 10
246.654812954
 20
261.5485896451
 30
0.0
 10
246.0774722657
 20
261.3148725211
 30
0.0
 10
245.6735693834
 20
261.2605830102
 30
0.0
 10
245.4757544002
 20
261.2605830102
 30
0.0
  0
SPLINE
  5
35C
100
AcDbEntity
  8
0
100
AcDbSpline
 62
7
  6
CONTINUOUS
 70
0
 71
3
 72
12
 73
8
 74
0
 42
0.0000001
 43
0.0000001
 44
0.0000000001
 40
0.0
 40
0.0
 40
0.0
 40
0.0
 40
0.3104593434
 40
0.5926248534
 40
0.7160018537
 40
0.8250484045
 40
1.0
 40
1.0
 40
1.0
 40
1.0
 10
224.6392532609
 20
265.2605830102
 30
0.0
 10
224.6392532609
 20
264.7972262591
 30
0.0
 10
224.5632565965
 20
263.9109845771
 30
0.0
 10
224.2785011211
 20
262.8725204553
 30
0.0
 10
223.9383974581
 20
262.1798191517
 30
0.0
 10
223.5936469574
 20
261.6810725339
 30
0.0
 10
223.247708752
 20
261.3932768616
 30
0.0
 10
223.0002323867
 20
261.3099972012
 30
0.0
  0
SPLINE
  5
35D
100
AcDbEntity
  8
0
100
AcDbSpline
 62
7
  6
CONTINUOUS
 70
0
 71
3
 72
9
 73
5
 74
0
 42
0.0000001
 43
0.0000001
 44
0.0000000001
 40
0.0
 40
0.0
 40
0.0
 40
0.0
 40
0.2561065582
 40
1.0
 40
1.0
 40
1.0
 40
1.0
 10
223.0002323867
 20
261.3099972012
 30
0.0
 10
222.9761416925
 20
261.3018903065
 30
0.0
 10
222.880955971
 20
261.273726769
 30
0.0
 10
222.7811851034
 20
261.2605830102
 30
0.0
 10
222.7073548627
 20
261.2605830102
 30
0.0
  0
SPLINE
  5
35E
100
AcDbEntity
  8
0
100
AcDbSpline
 62
7
  6
CONTINUOUS
 70
0
 71
3
 72
16
 73
12
 74
0
 42
0.0000001
 43
0.0000001
 44
0.0000000001
 40
0.0
 40
0.0
 40
0.0
 40
0.0
 40
0.3741304113
 40
0.5435997487
 40
0.6928138171
 40
0.8161295853
 40
0.8667591794
 40
0.9094338227
 40
0.9438294964
 40
0.9699820408
 40
1.0
 40
1.0
 40
1.0
 40
1.0
 10
212.3293511453
 20
265.2605830102
 30
0.0
 10
212.3293511453
 20
264.7500917645
 30
0.0
 10
212.3078064021
 20
264.0079873879
 30
0.0
 10
212.2320596552
 20
263.0655667999
 30
0.0
 10
212.1606109378
 20
262.466482662
 30
0.0
 10
212.0874703809
 20
262.0315418071
 30
0.0
 10
212.0215386327
 20
261.7429730667
 30
0.0
 10
211.9749111936
 20
261.5758029679
 30
0.0
 10
211.9263058477
 20
261.4411113478
 30
0.0
 10
211.8754962884
 20
261.3350516559
 30
0.0
 10
211.8171359051
 20
261.2605830102
 30
0.0
 10
211.7761771781
 20
261.2605830102
 30
0.0
  0
SPLINE
  5
35F
100
AcDbEntity
  8
0
100
AcDbSpline
 62
7
  6
CONTINUOUS
 70
0
 71
3
 72
17
 73
13
 74
0
 42
0.0000001
 43
0.0000001
 44
0.0000000001
 40
0.0
 40
0.0
 40
0.0
 40
0.0
 40
0.3746342115
 40
0.5442868734
 40
0.6936040209
 40
0.8169102314
 40
0.8674785438
 40
0.9100432067
 40
0.944264587
 40
0.9701512778
 40
0.9881324594
 40
1.0
 40
1.0
 40
1.0
 40
1.0
 10
413.904408083
 20
240.2605830102
 30
0.0
 10
413.904408083
 20
240.7710519114
 30
0.0
 10
413.9249582136
 20
241.5130159967
 30
0.0
 10
413.9971580687
 20
242.455495175
 30
0.0
 10
414.0650725371
 20
243.0544302257
 30
0.0
 10
414.1346655087
 20
243.4895533967
 30
0.0
 10
414.1969367141
 20
243.777900631
 30
0.0
 10
414.241554641
 20
243.9456797067
 30
0.0
 10
414.286054153
 20
244.0784616573
 30
0.0
 10
414.3311548495
 20
244.1752672613
 30
0.0
 10
414.3735612201
 20
244.2385368714
 30
0.0
 10
414.4123338916
 20
244.2605830102
 30
0.0
 10
414.4285043593
 20
244.2605830102
 30
0.0
  0
SPLINE
  5
360
100
AcDbEntity
  8
0
100
AcDbSpline
 62
7
  6
CONTINUOUS
 70
0
 71
3
 72
12
 73
8
 74
0
 42
0.0000001
 43
0.0000001
 44
0.0000000001
 40
0.0
 40
0.0
 40
0.0
 40
0.0
 40
0.3112580997
 40
0.5938957073
 40
0.7172805378
 40
0.8261337649
 40
1.0
 40
1.0
 40
1.0
 40
1.0
 10
401.8493323414
 20
240.2605830102
 30
0.0
 10
401.8493323414
 20
240.7238933694
 30
0.0
 10
401.9243106141
 20
241.6096270353
 30
0.0
 10
402.2051788031
 20
242.6479337369
 30
0.0
 10
402.5409028879
 20
243.3409621313
 30
0.0
 10
402.8804194159
 20
243.838868554
 30
0.0
 10
403.2217115716
 20
244.1275929966
 30
0.0
 10
403.4666467459
 20
244.2111688193
 30
0.0
  0
SPLINE
  5
361
100
AcDbEntity
  8
0
100
AcDbSpline
 62
7
  6
CONTINUOUS
 70
0
 71
3
 72
9
 73
5
 74
0
 42
0.0000001
 43
0.0000001
 44
0.0000000001
 40
0.0
 40
0.0
 40
0.0
 40
0.0
 40
0.2562977865
 40
1.0
 40
1.0
 40
1.0
 40
1.0
 10
403.4666467459
 20
244.2111688193
 30
0.0
 10
403.4903977334
 20
244.2192730384
 30
0.0
 10
403.5841976512
 20
244.247418739
 30
0.0
 10
403.6826396868
 20
244.2605830102
 30
0.0
 10
403.755459797
 20
244.2605830102
 30
0.0
  0
SPLINE
  5
362
100
AcDbEntity
  8
0
100
AcDbSpline
 62
7
  6
CONTINUOUS
 70
0
 71
3
 72
13
 73
9
 74
0
 42
0.0000001
 43
0.0000001
 44
0.0000000001
 40
0.0
 40
0.0
 40
0.0
 40
0.0
 40
0.2801564317
 40
0.5440002183
 40
0.6668618012
 40
0.7829914511
 40
0.8933238375
 40
1.0
 40
1.0
 40
1.0
 40
1.0
 10
378.1617347439
 20
240.2605830102
 30
0.0
 10
378.1617347439
 20
240.776799964
 30
0.0
 10
378.3110442032
 20
241.785395383
 30
0.0
 10
378.8689417827
 20
242.9093592452
 30
0.0
 10
379.5003167945
 20
243.5949440858
 30
0.0
 10
380.0282952662
 20
243.9723765984
 30
0.0
 10
380.6020685816
 20
244.2062337396
 30
0.0
 10
381.0036060937
 20
244.2605830102
 30
0.0
 10
381.2001678621
 20
244.2605830102
 30
0.0
  0
SPLINE
  5
363
100
AcDbEntity
  8
0
100
AcDbSpline
 62
7
  6
CONTINUOUS
 70
0
 71
3
 72
11
 73
7
 74
0
 42
0.0000001
 43
0.0000001
 44
0.0000000001
 40
0.0
 40
0.0
 40
0.0
 40
0.0
 40
0.2569100587
 40
0.5102029959
 40
0.7576914986
 40
1.0
 40
1.0
 40
1.0
 40
1.0
 10
345.9449741599
 20
240.2605830102
 30
0.0
 10
345.9449741599
 20
240.7798443119
 30
0.0
 10
346.1393529753
 20
241.8214923641
 30
0.0
 10
346.9743858063
 20
243.1484308716
 30
0.0
 10
348.2266830755
 20
244.0461846835
 30
0.0
 10
349.2278928909
 20
244.2605830102
 30
0.0
 10
349.7176418267
 20
244.2605830102
 30
0.0
  0
SPLINE
  5
364
100
AcDbEntity
  8
0
100
AcDbSpline
 62
7
  6
CONTINUOUS
 70
0
 71
3
 72
11
 73
7
 74
0
 42
0.0000001
 43
0.0000001
 44
0.0000000001
 40
0.0
 40
0.0
 40
0.0
 40
0.0
 40
0.2566066754
 40
0.5097616692
 40
0.7573668535
 40
1.0
 40
1.0
 40
1.0
 40
1.0
 10
280.8810146379
 20
240.2605830102
 30
0.0
 10
280.8810146379
 20
239.7412773959
 30
0.0
 10
280.6860058034
 20
238.699171627
 30
0.0
 10
279.8484865761
 20
237.3721296009
 30
0.0
 10
278.592829783
 20
236.474728401
 30
0.0
 10
277.5894696735
 20
236.2605830102
 30
0.0
 10
277.0984428714
 20
236.2605830102
 30
0.0
  0
SPLINE
  5
365
100
AcDbEntity
  8
0
100
AcDbSpline
 62
7
  6
CONTINUOUS
 70
0
 71
3
 72
13
 73
9
 74
0
 42
0.0000001
 43
0.0000001
 44
0.0000000001
 40
0.0
 40
0.0
 40
0.0
 40
0.0
 40
0.2794945687
 40
0.5430149349
 40
0.6659232303
 40
0.7822501833
 40
0.8929122894
 40
1.0
 40
1.0
 40
1.0
 40
1.0
 10
248.5332754108
 20
240.2605830102
 30
0.0
 10
248.5332754108
 20
239.7442939503
 30
0.0
 10
248.3828765024
 20
238.7349101376
 30
0.0
 10
247.8212184575
 20
237.6110839065
 30
0.0
 10
247.1861460858
 20
236.9259286764
 30
0.0
 10
246.654812954
 20
236.5485896451
 30
0.0
 10
246.0774722657
 20
236.3148725211
 30
0.0
 10
245.6735693834
 20
236.2605830102
 30
0.0
 10
245.4757544002
 20
236.2605830102
 30
0.0
  0
SPLINE
  5
366
100
AcDbEntity
  8
0
100
AcDbSpline
 62
7
  6
CONTINUOUS
 70
0
 71
3
 72
12
 73
8
 74
0
 42
0.0000001
 43
0.0000001
 44
0.0000000001
 40
0.0
 40
0.0
 40
0.0
 40
0.0
 40
0.3104593434
 40
0.5926248534
 40
0.7160018537
 40
0.8250484045
 40
1.0
 40
1.0
 40
1.0
 40
1.0
 10
224.6392532609
 20
240.2605830102
 30
0.0
 10
224.6392532609
 20
239.7972262591
 30
0.0
 10
224.5632565965
 20
238.9109845771
 30
0.0
 10
224.2785011211
 20
237.8725204553
 30
0.0
 10
223.9383974581
 20
237.1798191517
 30
0.0
 10
223.5936469574
 20
236.6810725339
 30
0.0
 10
223.247708752
 20
236.3932768616
 30
0.0
 10
223.0002323867
 20
236.3099972012
 30
0.0
  0
SPLINE
  5
367
100
AcDbEntity
  8
0
100
AcDbSpline
 62
7
  6
CONTINUOUS
 70
0
 71
3
 72
9
 73
5
 74
0
 42
0.0000001
 43
0.0000001
 44
0.0000000001
 40
0.0
 40
0.0
 40
0.0
 40
0.0
 40
0.2561065582
 40
1.0
 40
1.0
 40
1.0
 40
1.0
 10
223.0002323867
 20
236.3099972012
 30
0.0
 10
222.9761416925
 20
236.3018903065
 30
0.0
 10
222.880955971
 20
236.273726769
 30
0.0
 10
222.7811851034
 20
236.2605830102
 30
0.0
 10
222.7073548627
 20
236.2605830102
 30
0.0
  0
SPLINE
  5
368
100
AcDbEntity
  8
0
100
AcDbSpline
 62
7
  6
CONTINUOUS
 70
0
 71
3
 72
16
 73
12
 74
0
 42
0.0000001
 43
0.0000001
 44
0.0000000001
 40
0.0
 40
0.0
 40
0.0
 40
0.0
 40
0.3741304113
 40
0.5435997487
 40
0.6928138171
 40
0.8161295853
 40
0.8667591794
 40
0.9094338227
 40
0.9438294964
 40
0.9699820408
 40
1.0
 40
1.0
 40
1.0
 40
1.0
 10
212.3293511453
 20
240.2605830102
 30
0.0
 10
212.3293511453
 20
239.7500917645
 30
0.0
 10
212.3078064021
 20
239.0079873879
 30
0.0
 10
212.2320596552
 20
238.0655667999
 30
0.0
 10
212.1606109378
 20
237.466482662
 30
0.0
 10
212.0874703809
 20
237.0315418071
 30
0.0
 10
212.0215386327
 20
236.7429730667
 30
0.0
 10
211.9749111936
 20
236.5758029679
 30
0.0
 10
211.9263058477
 20
236.4411113478
 30
0.0
 10
211.8754962884
 20
236.3350516559
 30
0.0
 10
211.8171359051
 20
236.2605830102
 30
0.0
 10
211.7761771781
 20
236.2605830102
 30
0.0
  0
SPLINE
  5
369
100
AcDbEntity
  8
0
100
AcDbSpline
 62
7
  6
CONTINUOUS
 70
0
 71
3
 72
17
 73
13
 74
0
 42
0.0000001
 43
0.0000001
 44
0.0000000001
 40
0.0
 40
0.0
 40
0.0
 40
0.0
 40
0.3746342115
 40
0.5442868734
 40
0.6936040209
 40
0.8169102314
 40
0.8674785438
 40
0.9100432067
 40
0.944264587
 40
0.9701512778
 40
0.9881324594
 40
1.0
 40
1.0
 40
1.0
 40
1.0
 10
413.904408083
 20
215.2605830102
 30
0.0
 10
413.904408083
 20
215.7710519114
 30
0.0
 10
413.9249582136
 20
216.5130159967
 30
0.0
 10
413.9971580687
 20
217.455495175
 30
0.0
 10
414.0650725371
 20
218.0544302257
 30
0.0
 10
414.1346655087
 20
218.4895533967
 30
0.0
 10
414.1969367141
 20
218.777900631
 30
0.0
 10
414.241554641
 20
218.9456797067
 30
0.0
 10
414.286054153
 20
219.0784616573
 30
0.0
 10
414.3311548495
 20
219.1752672613
 30
0.0
 10
414.3735612201
 20
219.2385368714
 30
0.0
 10
414.4123338916
 20
219.2605830102
 30
0.0
 10
414.4285043593
 20
219.2605830102
 30
0.0
  0
SPLINE
  5
36A
100
AcDbEntity
  8
0
100
AcDbSpline
 62
7
  6
CONTINUOUS
 70
0
 71
3
 72
12
 73
8
 74
0
 42
0.0000001
 43
0.0000001
 44
0.0000000001
 40
0.0
 40
0.0
 40
0.0
 40
0.0
 40
0.3112580997
 40
0.5938957073
 40
0.7172805378
 40
0.8261337649
 40
1.0
 40
1.0
 40
1.0
 40
1.0
 10
401.8493323414
 20
215.2605830102
 30
0.0
 10
401.8493323414
 20
215.7238933694
 30
0.0
 10
401.9243106141
 20
216.6096270353
 30
0.0
 10
402.2051788031
 20
217.6479337369
 30
0.0
 10
402.5409028879
 20
218.3409621313
 30
0.0
 10
402.8804194159
 20
218.838868554
 30
0.0
 10
403.2217115716
 20
219.1275929966
 30
0.0
 10
403.4666467459
 20
219.2111688193
 30
0.0
  0
SPLINE
  5
36B
100
AcDbEntity
  8
0
100
AcDbSpline
 62
7
  6
CONTINUOUS
 70
0
 71
3
 72
9
 73
5
 74
0
 42
0.0000001
 43
0.0000001
 44
0.0000000001
 40
0.0
 40
0.0
 40
0.0
 40
0.0
 40
0.2562977865
 40
1.0
 40
1.0
 40
1.0
 40
1.0
 10
403.4666467459
 20
219.2111688193
 30
0.0
 10
403.4903977334
 20
219.2192730384
 30
0.0
 10
403.5841976512
 20
219.247418739
 30
0.0
 10
403.6826396868
 20
219.2605830102
 30
0.0
 10
403.755459797
 20
219.2605830102
 30
0.0
  0
SPLINE
  5
36C
100
AcDbEntity
  8
0
100
AcDbSpline
 62
7
  6
CONTINUOUS
 70
0
 71
3
 72
13
 73
9
 74
0
 42
0.0000001
 43
0.0000001
 44
0.0000000001
 40
0.0
 40
0.0
 40
0.0
 40
0.0
 40
0.2801564317
 40
0.5440002183
 40
0.6668618012
 40
0.7829914511
 40
0.8933238375
 40
1.0
 40
1.0
 40
1.0
 40
1.0
 10
378.1617347439
 20
215.2605830102
 30
0.0
 10
378.1617347439
 20
215.776799964
 30
0.0
 10
378.3110442032
 20
216.785395383
 30
0.0
 10
378.8689417827
 20
217.9093592452
 30
0.0
 10
379.5003167945
 20
218.5949440858
 30
0.0
 10
380.0282952662
 20
218.9723765984
 30
0.0
 10
380.6020685816
 20
219.2062337396
 30
0.0
 10
381.0036060937
 20
219.2605830102
 30
0.0
 10
381.2001678621
 20
219.2605830102
 30
0.0
  0
SPLINE
  5
36D
100
AcDbEntity
  8
0
100
AcDbSpline
 62
7
  6
CONTINUOUS
 70
0
 71
3
 72
11
 73
7
 74
0
 42
0.0000001
 43
0.0000001
 44
0.0000000001
 40
0.0
 40
0.0
 40
0.0
 40
0.0
 40
0.2569100587
 40
0.5102029959
 40
0.7576914986
 40
1.0
 40
1.0
 40
1.0
 40
1.0
 10
345.9449741599
 20
215.2605830102
 30
0.0
 10
345.9449741599
 20
215.7798443119
 30
0.0
 10
346.1393529753
 20
216.8214923641
 30
0.0
 10
346.9743858063
 20
218.1484308716
 30
0.0
 10
348.2266830755
 20
219.0461846835
 30
0.0
 10
349.2278928909
 20
219.2605830102
 30
0.0
 10
349.7176418267
 20
219.2605830102
 30
0.0
  0
SPLINE
  5
36E
100
AcDbEntity
  8
0
100
AcDbSpline
 62
7
  6
CONTINUOUS
 70
0
 71
3
 72
11
 73
7
 74
0
 42
0.0000001
 43
0.0000001
 44
0.0000000001
 40
0.0
 40
0.0
 40
0.0
 40
0.0
 40
0.2566066754
 40
0.5097616692
 40
0.7573668535
 40
1.0
 40
1.0
 40
1.0
 40
1.0
 10
280.8810146379
 20
215.2605830102
 30
0.0
 10
280.8810146379
 20
214.7412773959
 30
0.0
 10
280.6860058034
 20
213.699171627
 30
0.0
 10
279.8484865761
 20
212.3721296009
 30
0.0
 10
278.592829783
 20
211.474728401
 30
0.0
 10
277.5894696735
 20
211.2605830102
 30
0.0
 10
277.0984428714
 20
211.2605830102
 30
0.0
  0
SPLINE
  5
36F
100
AcDbEntity
  8
0
100
AcDbSpline
 62
7
  6
CONTINUOUS
 70
0
 71
3
 72
13
 73
9
 74
0
 42
0.0000001
 43
0.0000001
 44
0.0000000001
 40
0.0
 40
0.0
 40
0.0
 40
0.0
 40
0.2794945687
 40
0.5430149349
 40
0.6659232303
 40
0.7822501833
 40
0.8929122894
 40
1.0
 40
1.0
 40
1.0
 40
1.0
 10
248.5332754108
 20
215.2605830102
 30
0.0
 10
248.5332754108
 20
214.7442939503
 30
0.0
 10
248.3828765024
 20
213.7349101376
 30
0.0
 10
247.8212184575
 20
212.6110839065
 30
0.0
 10
247.1861460858
 20
211.9259286764
 30
0.0
 10
246.654812954
 20
211.5485896451
 30
0.0
 10
246.0774722657
 20
211.3148725211
 30
0.0
 10
245.6735693834
 20
211.2605830102
 30
0.0
 10
245.4757544002
 20
211.2605830102
 30
0.0
  0
SPLINE
  5
370
100
AcDbEntity
  8
0
100
AcDbSpline
 62
7
  6
CONTINUOUS
 70
0
 71
3
 72
12
 73
8
 74
0
 42
0.0000001
 43
0.0000001
 44
0.0000000001
 40
0.0
 40
0.0
 40
0.0
 40
0.0
 40
0.3104593434
 40
0.5926248534
 40
0.7160018537
 40
0.8250484045
 40
1.0
 40
1.0
 40
1.0
 40
1.0
 10
224.6392532609
 20
215.2605830102
 30
0.0
 10
224.6392532609
 20
214.7972262591
 30
0.0
 10
224.5632565965
 20
213.9109845771
 30
0.0
 10
224.2785011211
 20
212.8725204553
 30
0.0
 10
223.9383974581
 20
212.1798191517
 30
0.0
 10
223.5936469574
 20
211.6810725339
 30
0.0
 10
223.247708752
 20
211.3932768616
 30
0.0
 10
223.0002323867
 20
211.3099972012
 30
0.0
  0
SPLINE
  5
371
100
AcDbEntity
  8
0
100
AcDbSpline
 62
7
  6
CONTINUOUS
 70
0
 71
3
 72
9
 73
5
 74
0
 42
0.0000001
 43
0.0000001
 44
0.0000000001
 40
0.0
 40
0.0
 40
0.0
 40
0.0
 40
0.2561065582
 40
1.0
 40
1.0
 40
1.0
 40
1.0
 10
223.0002323867
 20
211.3099972012
 30
0.0
 10
222.9761416925
 20
211.3018903065
 30
0.0
 10
222.880955971
 20
211.273726769
 30
0.0
 10
222.7811851034
 20
211.2605830102
 30
0.0
 10
222.7073548627
 20
211.2605830102
 30
0.0
  0
SPLINE
  5
372
100
AcDbEntity
  8
0
100
AcDbSpline
 62
7
  6
CONTINUOUS
 70
0
 71
3
 72
16
 73
12
 74
0
 42
0.0000001
 43
0.0000001
 44
0.0000000001
 40
0.0
 40
0.0
 40
0.0
 40
0.0
 40
0.3741304113
 40
0.5435997487
 40
0.6928138171
 40
0.8161295853
 40
0.8667591794
 40
0.9094338227
 40
0.9438294964
 40
0.9699820408
 40
1.0
 40
1.0
 40
1.0
 40
1.0
 10
212.3293511453
 20
215.2605830102
 30
0.0
 10
212.3293511453
 20
214.7500917645
 30
0.0
 10
212.3078064021
 20
214.0079873879
 30
0.0
 10
212.2320596552
 20
213.0655667999
 30
0.0
 10
212.1606109378
 20
212.466482662
 30
0.0
 10
212.0874703809
 20
212.0315418071
 30
0.0
 10
212.0215386327
 20
211.7429730667
 30
0.0
 10
211.9749111936
 20
211.5758029679
 30
0.0
 10
211.9263058477
 20
211.4411113478
 30
0.0
 10
211.8754962884
 20
211.3350516559
 30
0.0
 10
211.8171359051
 20
211.2605830102
 30
0.0
 10
211.7761771781
 20
211.2605830102
 30
0.0
  0
SPLINE
  5
373
100
AcDbEntity
  8
0
100
AcDbSpline
 62
7
  6
CONTINUOUS
 70
0
 71
3
 72
17
 73
13
 74
0
 42
0.0000001
 43
0.0000001
 44
0.0000000001
 40
0.0
 40
0.0
 40
0.0
 40
0.0
 40
0.3746342115
 40
0.5442868734
 40
0.6936040209
 40
0.8169102314
 40
0.8674785438
 40
0.9100432067
 40
0.944264587
 40
0.9701512778
 40
0.9881324594
 40
1.0
 40
1.0
 40
1.0
 40
1.0
 10
413.904408083
 20
190.2605830102
 30
0.0
 10
413.904408083
 20
190.7710519114
 30
0.0
 10
413.9249582136
 20
191.5130159967
 30
0.0
 10
413.9971580687
 20
192.455495175
 30
0.0
 10
414.0650725371
 20
193.0544302257
 30
0.0
 10
414.1346655087
 20
193.4895533967
 30
0.0
 10
414.1969367141
 20
193.777900631
 30
0.0
 10
414.241554641
 20
193.9456797067
 30
0.0
 10
414.286054153
 20
194.0784616573
 30
0.0
 10
414.3311548495
 20
194.1752672613
 30
0.0
 10
414.3735612201
 20
194.2385368714
 30
0.0
 10
414.4123338916
 20
194.2605830102
 30
0.0
 10
414.4285043593
 20
194.2605830102
 30
0.0
  0
SPLINE
  5
374
100
AcDbEntity
  8
0
100
AcDbSpline
 62
7
  6
CONTINUOUS
 70
0
 71
3
 72
12
 73
8
 74
0
 42
0.0000001
 43
0.0000001
 44
0.0000000001
 40
0.0
 40
0.0
 40
0.0
 40
0.0
 40
0.3112580997
 40
0.5938957073
 40
0.7172805378
 40
0.8261337649
 40
1.0
 40
1.0
 40
1.0
 40
1.0
 10
401.8493323414
 20
190.2605830102
 30
0.0
 10
401.8493323414
 20
190.7238933694
 30
0.0
 10
401.9243106141
 20
191.6096270353
 30
0.0
 10
402.2051788031
 20
192.6479337369
 30
0.0
 10
402.5409028879
 20
193.3409621313
 30
0.0
 10
402.8804194159
 20
193.838868554
 30
0.0
 10
403.2217115716
 20
194.1275929966
 30
0.0
 10
403.4666467459
 20
194.2111688193
 30
0.0
  0
SPLINE
  5
375
100
AcDbEntity
  8
0
100
AcDbSpline
 62
7
  6
CONTINUOUS
 70
0
 71
3
 72
9
 73
5
 74
0
 42
0.0000001
 43
0.0000001
 44
0.0000000001
 40
0.0
 40
0.0
 40
0.0
 40
0.0
 40
0.2562977865
 40
1.0
 40
1.0
 40
1.0
 40
1.0
 10
403.4666467459
 20
194.2111688193
 30
0.0
 10
403.4903977334
 20
194.2192730384
 30
0.0
 10
403.5841976512
 20
194.247418739
 30
0.0
 10
403.6826396868
 20
194.2605830102
 30
0.0
 10
403.755459797
 20
194.2605830102
 30
0.0
  0
SPLINE
  5
376
100
AcDbEntity
  8
0
100
AcDbSpline
 62
7
  6
CONTINUOUS
 70
0
 71
3
 72
13
 73
9
 74
0
 42
0.0000001
 43
0.0000001
 44
0.0000000001
 40
0.0
 40
0.0
 40
0.0
 40
0.0
 40
0.2801564317
 40
0.5440002183
 40
0.6668618012
 40
0.7829914511
 40
0.8933238375
 40
1.0
 40
1.0
 40
1.0
 40
1.0
 10
378.1617347439
 20
190.2605830102
 30
0.0
 10
378.1617347439
 20
190.776799964
 30
0.0
 10
378.3110442032
 20
191.785395383
 30
0.0
 10
378.8689417827
 20
192.9093592452
 30
0.0
 10
379.5003167945
 20
193.5949440858
 30
0.0
 10
380.0282952662
 20
193.9723765984
 30
0.0
 10
380.6020685816
 20
194.2062337396
 30
0.0
 10
381.0036060937
 20
194.2605830102
 30
0.0
 10
381.2001678621
 20
194.2605830102
 30
0.0
  0
SPLINE
  5
377
100
AcDbEntity
  8
0
100
AcDbSpline
 62
7
  6
CONTINUOUS
 70
0
 71
3
 72
11
 73
7
 74
0
 42
0.0000001
 43
0.0000001
 44
0.0000000001
 40
0.0
 40
0.0
 40
0.0
 40
0.0
 40
0.2569100587
 40
0.5102029959
 40
0.7576914986
 40
1.0
 40
1.0
 40
1.0
 40
1.0
 10
345.9449741599
 20
190.2605830102
 30
0.0
 10
345.9449741599
 20
190.7798443119
 30
0.0
 10
346.1393529753
 20
191.8214923641
 30
0.0
 10
346.9743858063
 20
193.1484308716
 30
0.0
 10
348.2266830755
 20
194.0461846835
 30
0.0
 10
349.2278928909
 20
194.2605830102
 30
0.0
 10
349.7176418267
 20
194.2605830102
 30
0.0
  0
SPLINE
  5
378
100
AcDbEntity
  8
0
100
AcDbSpline
 62
7
  6
CONTINUOUS
 70
0
 71
3
 72
11
 73
7
 74
0
 42
0.0000001
 43
0.0000001
 44
0.0000000001
 40
0.0
 40
0.0
 40
0.0
 40
0.0
 40
0.2566066754
 40
0.5097616692
 40
0.7573668535
 40
1.0
 40
1.0
 40
1.0
 40
1.0
 10
280.8810146379
 20
190.2605830102
 30
0.0
 10
280.8810146379
 20
189.7412773959
 30
0.0
 10
280.6860058034
 20
188.699171627
 30
0.0
 10
279.8484865761
 20
187.3721296009
 30
0.0
 10
278.592829783
 20
186.474728401
 30
0.0
 10
277.5894696735
 20
186.2605830102
 30
0.0
 10
277.0984428714
 20
186.2605830102
 30
0.0
  0
SPLINE
  5
379
100
AcDbEntity
  8
0
100
AcDbSpline
 62
7
  6
CONTINUOUS
 70
0
 71
3
 72
13
 73
9
 74
0
 42
0.0000001
 43
0.0000001
 44
0.0000000001
 40
0.0
 40
0.0
 40
0.0
 40
0.0
 40
0.2794945687
 40
0.5430149349
 40
0.6659232303
 40
0.7822501833
 40
0.8929122894
 40
1.0
 40
1.0
 40
1.0
 40
1.0
 10
248.5332754108
 20
190.2605830102
 30
0.0
 10
248.5332754108
 20
189.7442939503
 30
0.0
 10
248.3828765024
 20
188.7349101376
 30
0.0
 10
247.8212184575
 20
187.6110839065
 30
0.0
 10
247.1861460858
 20
186.9259286764
 30
0.0
 10
246.654812954
 20
186.5485896451
 30
0.0
 10
246.0774722657
 20
186.3148725211
 30
0.0
 10
245.6735693834
 20
186.2605830102
 30
0.0
 10
245.4757544002
 20
186.2605830102
 30
0.0
  0
SPLINE
  5
37A
100
AcDbEntity
  8
0
100
AcDbSpline
 62
7
  6
CONTINUOUS
 70
0
 71
3
 72
12
 73
8
 74
0
 42
0.0000001
 43
0.0000001
 44
0.0000000001
 40
0.0
 40
0.0
 40
0.0
 40
0.0
 40
0.3104593434
 40
0.5926248534
 40
0.7160018537
 40
0.8250484045
 40
1.0
 40
1.0
 40
1.0
 40
1.0
 10
224.6392532609
 20
190.2605830102
 30
0.0
 10
224.6392532609
 20
189.7972262591
 30
0.0
 10
224.5632565965
 20
188.9109845771
 30
0.0
 10
224.2785011211
 20
187.8725204553
 30
0.0
 10
223.9383974581
 20
187.1798191517
 30
0.0
 10
223.5936469574
 20
186.6810725339
 30
0.0
 10
223.247708752
 20
186.3932768616
 30
0.0
 10
223.0002323867
 20
186.3099972012
 30
0.0
  0
SPLINE
  5
37B
100
AcDbEntity
  8
0
100
AcDbSpline
 62
7
  6
CONTINUOUS
 70
0
 71
3
 72
9
 73
5
 74
0
 42
0.0000001
 43
0.0000001
 44
0.0000000001
 40
0.0
 40
0.0
 40
0.0
 40
0.0
 40
0.2561065582
 40
1.0
 40
1.0
 40
1.0
 40
1.0
 10
223.0002323867
 20
186.3099972012
 30
0.0
 10
222.9761416925
 20
186.3018903065
 30
0.0
 10
222.880955971
 20
186.273726769
 30
0.0
 10
222.7811851034
 20
186.2605830102
 30
0.0
 10
222.7073548627
 20
186.2605830102
 30
0.0
  0
SPLINE
  5
37C
100
AcDbEntity
  8
0
100
AcDbSpline
 62
7
  6
CONTINUOUS
 70
0
 71
3
 72
16
 73
12
 74
0
 42
0.0000001
 43
0.0000001
 44
0.0000000001
 40
0.0
 40
0.0
 40
0.0
 40
0.0
 40
0.3741304113
 40
0.5435997487
 40
0.6928138171
 40
0.8161295853
 40
0.8667591794
 40
0.9094338227
 40
0.9438294964
 40
0.9699820408
 40
1.0
 40
1.0
 40
1.0
 40
1.0
 10
212.3293511453
 20
190.2605830102
 30
0.0
 10
212.3293511453
 20
189.7500917645
 30
0.0
 10
212.3078064021
 20
189.0079873879
 30
0.0
 10
212.2320596552
 20
188.0655667999
 30
0.0
 10
212.1606109378
 20
187.466482662
 30
0.0
 10
212.0874703809
 20
187.0315418071
 30
0.0
 10
212.0215386327
 20
186.7429730667
 30
0.0
 10
211.9749111936
 20
186.5758029679
 30
0.0
 10
211.9263058477
 20
186.4411113478
 30
0.0
 10
211.8754962884
 20
186.3350516559
 30
0.0
 10
211.8171359051
 20
186.2605830102
 30
0.0
 10
211.7761771781
 20
186.2605830102
 30
0.0
  0
SPLINE
  5
37D
100
AcDbEntity
  8
0
100
AcDbSpline
 62
7
  6
CONTINUOUS
 70
0
 71
3
 72
17
 73
13
 74
0
 42
0.0000001
 43
0.0000001
 44
0.0000000001
 40
0.0
 40
0.0
 40
0.0
 40
0.0
 40
0.3746342115
 40
0.5442868734
 40
0.6936040209
 40
0.8169102314
 40
0.8674785438
 40
0.9100432067
 40
0.944264587
 40
0.9701512778
 40
0.9881324594
 40
1.0
 40
1.0
 40
1.0
 40
1.0
 10
413.904408083
 20
165.2605830102
 30
0.0
 10
413.904408083
 20
165.7710519114
 30
0.0
 10
413.9249582136
 20
166.5130159967
 30
0.0
 10
413.9971580687
 20
167.455495175
 30
0.0
 10
414.0650725371
 20
168.0544302257
 30
0.0
 10
414.1346655087
 20
168.4895533967
 30
0.0
 10
414.1969367141
 20
168.777900631
 30
0.0
 10
414.241554641
 20
168.9456797067
 30
0.0
 10
414.286054153
 20
169.0784616573
 30
0.0
 10
414.3311548495
 20
169.1752672613
 30
0.0
 10
414.3735612201
 20
169.2385368714
 30
0.0
 10
414.4123338916
 20
169.2605830102
 30
0.0
 10
414.4285043593
 20
169.2605830102
 30
0.0
  0
SPLINE
  5
37E
100
AcDbEntity
  8
0
100
AcDbSpline
 62
7
  6
CONTINUOUS
 70
0
 71
3
 72
12
 73
8
 74
0
 42
0.0000001
 43
0.0000001
 44
0.0000000001
 40
0.0
 40
0.0
 40
0.0
 40
0.0
 40
0.3112580997
 40
0.5938957073
 40
0.7172805378
 40
0.8261337649
 40
1.0
 40
1.0
 40
1.0
 40
1.0
 10
401.8493323414
 20
165.2605830102
 30
0.0
 10
401.8493323414
 20
165.7238933694
 30
0.0
 10
401.9243106141
 20
166.6096270353
 30
0.0
 10
402.2051788031
 20
167.6479337369
 30
0.0
 10
402.5409028879
 20
168.3409621313
 30
0.0
 10
402.8804194159
 20
168.838868554
 30
0.0
 10
403.2217115716
 20
169.1275929966
 30
0.0
 10
403.4666467459
 20
169.2111688193
 30
0.0
  0
SPLINE
  5
37F
100
AcDbEntity
  8
0
100
AcDbSpline
 62
7
  6
CONTINUOUS
 70
0
 71
3
 72
9
 73
5
 74
0
 42
0.0000001
 43
0.0000001
 44
0.0000000001
 40
0.0
 40
0.0
 40
0.0
 40
0.0
 40
0.2562977865
 40
1.0
 40
1.0
 40
1.0
 40
1.0
 10
403.4666467459
 20
169.2111688193
 30
0.0
 10
403.4903977334
 20
169.2192730384
 30
0.0
 10
403.5841976512
 20
169.247418739
 30
0.0
 10
403.6826396868
 20
169.2605830102
 30
0.0
 10
403.755459797
 20
169.2605830102
 30
0.0
  0
SPLINE
  5
380
100
AcDbEntity
  8
0
100
AcDbSpline
 62
7
  6
CONTINUOUS
 70
0
 71
3
 72
13
 73
9
 74
0
 42
0.0000001
 43
0.0000001
 44
0.0000000001
 40
0.0
 40
0.0
 40
0.0
 40
0.0
 40
0.2801564317
 40
0.5440002183
 40
0.6668618012
 40
0.7829914511
 40
0.8933238375
 40
1.0
 40
1.0
 40
1.0
 40
1.0
 10
378.1617347439
 20
165.2605830102
 30
0.0
 10
378.1617347439
 20
165.776799964
 30
0.0
 10
378.3110442032
 20
166.785395383
 30
0.0
 10
378.8689417827
 20
167.9093592452
 30
0.0
 10
379.5003167945
 20
168.5949440858
 30
0.0
 10
380.0282952662
 20
168.9723765984
 30
0.0
 10
380.6020685816
 20
169.2062337396
 30
0.0
 10
381.0036060937
 20
169.2605830102
 30
0.0
 10
381.2001678621
 20
169.2605830102
 30
0.0
  0
SPLINE
  5
381
100
AcDbEntity
  8
0
100
AcDbSpline
 62
7
  6
CONTINUOUS
 70
0
 71
3
 72
11
 73
7
 74
0
 42
0.0000001
 43
0.0000001
 44
0.0000000001
 40
0.0
 40
0.0
 40
0.0
 40
0.0
 40
0.2569100587
 40
0.5102029959
 40
0.7576914986
 40
1.0
 40
1.0
 40
1.0
 40
1.0
 10
345.9449741599
 20
165.2605830102
 30
0.0
 10
345.9449741599
 20
165.7798443119
 30
0.0
 10
346.1393529753
 20
166.8214923641
 30
0.0
 10
346.9743858063
 20
168.1484308716
 30
0.0
 10
348.2266830755
 20
169.0461846835
 30
0.0
 10
349.2278928909
 20
169.2605830102
 30
0.0
 10
349.7176418267
 20
169.2605830102
 30
0.0
  0
SPLINE
  5
382
100
AcDbEntity
  8
0
100
AcDbSpline
 62
7
  6
CONTINUOUS
 70
0
 71
3
 72
11
 73
7
 74
0
 42
0.0000001
 43
0.0000001
 44
0.0000000001
 40
0.0
 40
0.0
 40
0.0
 40
0.0
 40
0.2566066754
 40
0.5097616692
 40
0.7573668535
 40
1.0
 40
1.0
 40
1.0
 40
1.0
 10
280.8810146379
 20
165.2605830102
 30
0.0
 10
280.8810146379
 20
164.7412773959
 30
0.0
 10
280.6860058034
 20
163.699171627
 30
0.0
 10
279.8484865761
 20
162.3721296009
 30
0.0
 10
278.592829783
 20
161.474728401
 30
0.0
 10
277.5894696735
 20
161.2605830102
 30
0.0
 10
277.0984428714
 20
161.2605830102
 30
0.0
  0
SPLINE
  5
383
100
AcDbEntity
  8
0
100
AcDbSpline
 62
7
  6
CONTINUOUS
 70
0
 71
3
 72
13
 73
9
 74
0
 42
0.0000001
 43
0.0000001
 44
0.0000000001
 40
0.0
 40
0.0
 40
0.0
 40
0.0
 40
0.2794945687
 40
0.5430149349
 40
0.6659232303
 40
0.7822501833
 40
0.8929122894
 40
1.0
 40
1.0
 40
1.0
 40
1.0
 10
248.5332754108
 20
165.2605830102
 30
0.0
 10
248.5332754108
 20
164.7442939503
 30
0.0
 10
248.3828765024
 20
163.7349101376
 30
0.0
 10
247.8212184575
 20
162.6110839065
 30
0.0
 10
247.1861460858
 20
161.9259286764
 30
0.0
 10
246.654812954
 20
161.5485896451
 30
0.0
 10
246.0774722657
 20
161.3148725211
 30
0.0
 10
245.6735693834
 20
161.2605830102
 30
0.0
 10
245.4757544002
 20
161.2605830102
 30
0.0
  0
SPLINE
  5
384
100
AcDbEntity
  8
0
100
AcDbSpline
 62
7
  6
CONTINUOUS
 70
0
 71
3
 72
12
 73
8
 74
0
 42
0.0000001
 43
0.0000001
 44
0.0000000001
 40
0.0
 40
0.0
 40
0.0
 40
0.0
 40
0.3104593434
 40
0.5926248534
 40
0.7160018537
 40
0.8250484045
 40
1.0
 40
1.0
 40
1.0
 40
1.0
 10
224.6392532609
 20
165.2605830102
 30
0.0
 10
224.6392532609
 20
164.7972262591
 30
0.0
 10
224.5632565965
 20
163.9109845771
 30
0.0
 10
224.2785011211
 20
162.8725204553
 30
0.0
 10
223.9383974581
 20
162.1798191517
 30
0.0
 10
223.5936469574
 20
161.6810725339
 30
0.0
 10
223.247708752
 20
161.3932768616
 30
0.0
 10
223.0002323867
 20
161.3099972012
 30
0.0
  0
SPLINE
  5
385
100
AcDbEntity
  8
0
100
AcDbSpline
 62
7
  6
CONTINUOUS
 70
0
 71
3
 72
9
 73
5
 74
0
 42
0.0000001
 43
0.0000001
 44
0.0000000001
 40
0.0
 40
0.0
 40
0.0
 40
0.0
 40
0.2561065582
 40
1.0
 40
1.0
 40
1.0
 40
1.0
 10
223.0002323867
 20
161.3099972012
 30
0.0
 10
222.9761416925
 20
161.3018903065
 30
0.0
 10
222.880955971
 20
161.273726769
 30
0.0
 10
222.7811851034
 20
161.2605830102
 30
0.0
 10
222.7073548627
 20
161.2605830102
 30
0.0
  0
SPLINE
  5
386
100
AcDbEntity
  8
0
100
AcDbSpline
 62
7
  6
CONTINUOUS
 70
0
 71
3
 72
16
 73
12
 74
0
 42
0.0000001
 43
0.0000001
 44
0.0000000001
 40
0.0
 40
0.0
 40
0.0
 40
0.0
 40
0.3741304113
 40
0.5435997487
 40
0.6928138171
 40
0.8161295853
 40
0.8667591794
 40
0.9094338227
 40
0.9438294964
 40
0.9699820408
 40
1.0
 40
1.0
 40
1.0
 40
1.0
 10
212.3293511453
 20
165.2605830102
 30
0.0
 10
212.3293511453
 20
164.7500917645
 30
0.0
 10
212.3078064021
 20
164.0079873879
 30
0.0
 10
212.2320596552
 20
163.0655667999
 30
0.0
 10
212.1606109378
 20
162.466482662
 30
0.0
 10
212.0874703809
 20
162.0315418071
 30
0.0
 10
212.0215386327
 20
161.7429730667
 30
0.0
 10
211.9749111936
 20
161.5758029679
 30
0.0
 10
211.9263058477
 20
161.4411113478
 30
0.0
 10
211.8754962884
 20
161.3350516559
 30
0.0
 10
211.8171359051
 20
161.2605830102
 30
0.0
 10
211.7761771781
 20
161.2605830102
 30
0.0
  0
SPLINE
  5
387
100
AcDbEntity
  8
0
100
AcDbSpline
 62
7
  6
CONTINUOUS
 70
0
 71
3
 72
17
 73
13
 74
0
 42
0.0000001
 43
0.0000001
 44
0.0000000001
 40
0.0
 40
0.0
 40
0.0
 40
0.0
 40
0.3746342115
 40
0.5442868734
 40
0.6936040209
 40
0.8169102314
 40
0.8674785438
 40
0.9100432067
 40
0.944264587
 40
0.9701512778
 40
0.9881324594
 40
1.0
 40
1.0
 40
1.0
 40
1.0
 10
413.904408083
 20
140.2605830102
 30
0.0
 10
413.904408083
 20
140.7710519114
 30
0.0
 10
413.9249582136
 20
141.5130159967
 30
0.0
 10
413.9971580687
 20
142.455495175
 30
0.0
 10
414.0650725371
 20
143.0544302257
 30
0.0
 10
414.1346655087
 20
143.4895533967
 30
0.0
 10
414.1969367141
 20
143.777900631
 30
0.0
 10
414.241554641
 20
143.9456797067
 30
0.0
 10
414.286054153
 20
144.0784616573
 30
0.0
 10
414.3311548495
 20
144.1752672613
 30
0.0
 10
414.3735612201
 20
144.2385368714
 30
0.0
 10
414.4123338916
 20
144.2605830102
 30
0.0
 10
414.4285043593
 20
144.2605830102
 30
0.0
  0
SPLINE
  5
388
100
AcDbEntity
  8
0
100
AcDbSpline
 62
7
  6
CONTINUOUS
 70
0
 71
3
 72
12
 73
8
 74
0
 42
0.0000001
 43
0.0000001
 44
0.0000000001
 40
0.0
 40
0.0
 40
0.0
 40
0.0
 40
0.3112580997
 40
0.5938957073
 40
0.7172805378
 40
0.8261337649
 40
1.0
 40
1.0
 40
1.0
 40
1.0
 10
401.8493323414
 20
140.2605830102
 30
0.0
 10
401.8493323414
 20
140.7238933694
 30
0.0
 10
401.9243106141
 20
141.6096270353
 30
0.0
 10
402.2051788031
 20
142.6479337369
 30
0.0
 10
402.5409028879
 20
143.3409621313
 30
0.0
 10
402.8804194159
 20
143.838868554
 30
0.0
 10
403.2217115716
 20
144.1275929966
 30
0.0
 10
403.4666467459
 20
144.2111688193
 30
0.0
  0
SPLINE
  5
389
100
AcDbEntity
  8
0
100
AcDbSpline
 62
7
  6
CONTINUOUS
 70
0
 71
3
 72
9
 73
5
 74
0
 42
0.0000001
 43
0.0000001
 44
0.0000000001
 40
0.0
 40
0.0
 40
0.0
 40
0.0
 40
0.2562977865
 40
1.0
 40
1.0
 40
1.0
 40
1.0
 10
403.4666467459
 20
144.2111688193
 30
0.0
 10
403.4903977334
 20
144.2192730384
 30
0.0
 10
403.5841976512
 20
144.247418739
 30
0.0
 10
403.6826396868
 20
144.2605830102
 30
0.0
 10
403.755459797
 20
144.2605830102
 30
0.0
  0
SPLINE
  5
38A
100
AcDbEntity
  8
0
100
AcDbSpline
 62
7
  6
CONTINUOUS
 70
0
 71
3
 72
13
 73
9
 74
0
 42
0.0000001
 43
0.0000001
 44
0.0000000001
 40
0.0
 40
0.0
 40
0.0
 40
0.0
 40
0.2801564317
 40
0.5440002183
 40
0.6668618012
 40
0.7829914511
 40
0.8933238375
 40
1.0
 40
1.0
 40
1.0
 40
1.0
 10
378.1617347439
 20
140.2605830102
 30
0.0
 10
378.1617347439
 20
140.776799964
 30
0.0
 10
378.3110442032
 20
141.785395383
 30
0.0
 10
378.8689417827
 20
142.9093592452
 30
0.0
 10
379.5003167945
 20
143.5949440858
 30
0.0
 10
380.0282952662
 20
143.9723765984
 30
0.0
 10
380.6020685816
 20
144.2062337396
 30
0.0
 10
381.0036060937
 20
144.2605830102
 30
0.0
 10
381.2001678621
 20
144.2605830102
 30
0.0
  0
SPLINE
  5
38B
100
AcDbEntity
  8
0
100
AcDbSpline
 62
7
  6
CONTINUOUS
 70
0
 71
3
 72
11
 73
7
 74
0
 42
0.0000001
 43
0.0000001
 44
0.0000000001
 40
0.0
 40
0.0
 40
0.0
 40
0.0
 40
0.2569100587
 40
0.5102029959
 40
0.7576914986
 40
1.0
 40
1.0
 40
1.0
 40
1.0
 10
345.9449741599
 20
140.2605830102
 30
0.0
 10
345.9449741599
 20
140.7798443119
 30
0.0
 10
346.1393529753
 20
141.8214923641
 30
0.0
 10
346.9743858063
 20
143.1484308716
 30
0.0
 10
348.2266830755
 20
144.0461846835
 30
0.0
 10
349.2278928909
 20
144.2605830102
 30
0.0
 10
349.7176418267
 20
144.2605830102
 30
0.0
  0
SPLINE
  5
38C
100
AcDbEntity
  8
0
100
AcDbSpline
 62
7
  6
CONTINUOUS
 70
0
 71
3
 72
11
 73
7
 74
0
 42
0.0000001
 43
0.0000001
 44
0.0000000001
 40
0.0
 40
0.0
 40
0.0
 40
0.0
 40
0.2566066754
 40
0.5097616692
 40
0.7573668535
 40
1.0
 40
1.0
 40
1.0
 40
1.0
 10
280.8810146379
 20
140.2605830102
 30
0.0
 10
280.8810146379
 20
139.7412773959
 30
0.0
 10
280.6860058034
 20
138.699171627
 30
0.0
 10
279.8484865761
 20
137.3721296009
 30
0.0
 10
278.592829783
 20
136.474728401
 30
0.0
 10
277.5894696735
 20
136.2605830102
 30
0.0
 10
277.0984428714
 20
136.2605830102
 30
0.0
  0
SPLINE
  5
38D
100
AcDbEntity
  8
0
100
AcDbSpline
 62
7
  6
CONTINUOUS
 70
0
 71
3
 72
13
 73
9
 74
0
 42
0.0000001
 43
0.0000001
 44
0.0000000001
 40
0.0
 40
0.0
 40
0.0
 40
0.0
 40
0.2794945687
 40
0.5430149349
 40
0.6659232303
 40
0.7822501833
 40
0.8929122894
 40
1.0
 40
1.0
 40
1.0
 40
1.0
 10
248.5332754108
 20
140.2605830102
 30
0.0
 10
248.5332754108
 20
139.7442939503
 30
0.0
 10
248.3828765024
 20
138.7349101376
 30
0.0
 10
247.8212184575
 20
137.6110839065
 30
0.0
 10
247.1861460858
 20
136.9259286764
 30
0.0
 10
246.654812954
 20
136.5485896451
 30
0.0
 10
246.0774722657
 20
136.3148725211
 30
0.0
 10
245.6735693834
 20
136.2605830102
 30
0.0
 10
245.4757544002
 20
136.2605830102
 30
0.0
  0
SPLINE
  5
38E
100
AcDbEntity
  8
0
100
AcDbSpline
 62
7
  6
CONTINUOUS
 70
0
 71
3
 72
12
 73
8
 74
0
 42
0.0000001
 43
0.0000001
 44
0.0000000001
 40
0.0
 40
0.0
 40
0.0
 40
0.0
 40
0.3104593434
 40
0.5926248534
 40
0.7160018537
 40
0.8250484045
 40
1.0
 40
1.0
 40
1.0
 40
1.0
 10
224.6392532609
 20
140.2605830102
 30
0.0
 10
224.6392532609
 20
139.7972262591
 30
0.0
 10
224.5632565965
 20
138.9109845771
 30
0.0
 10
224.2785011211
 20
137.8725204553
 30
0.0
 10
223.9383974581
 20
137.1798191517
 30
0.0
 10
223.5936469574
 20
136.6810725339
 30
0.0
 10
223.247708752
 20
136.3932768616
 30
0.0
 10
223.0002323867
 20
136.3099972012
 30
0.0
  0
SPLINE
  5
38F
100
AcDbEntity
  8
0
100
AcDbSpline
 62
7
  6
CONTINUOUS
 70
0
 71
3
 72
9
 73
5
 74
0
 42
0.0000001
 43
0.0000001
 44
0.0000000001
 40
0.0
 40
0.0
 40
0.0
 40
0.0
 40
0.2561065582
 40
1.0
 40
1.0
 40
1.0
 40
1.0
 10
223.0002323867
 20
136.3099972012
 30
0.0
 10
222.9761416925
 20
136.3018903065
 30
0.0
 10
222.880955971
 20
136.273726769
 30
0.0
 10
222.7811851034
 20
136.2605830102
 30
0.0
 10
222.7073548627
 20
136.2605830102
 30
0.0
  0
SPLINE
  5
390
100
AcDbEntity
  8
0
100
AcDbSpline
 62
7
  6
CONTINUOUS
 70
0
 71
3
 72
16
 73
12
 74
0
 42
0.0000001
 43
0.0000001
 44
0.0000000001
 40
0.0
 40
0.0
 40
0.0
 40
0.0
 40
0.3741304113
 40
0.5435997487
 40
0.6928138171
 40
0.8161295853
 40
0.8667591794
 40
0.9094338227
 40
0.9438294964
 40
0.9699820408
 40
1.0
 40
1.0
 40
1.0
 40
1.0
 10
212.3293511453
 20
140.2605830102
 30
0.0
 10
212.3293511453
 20
139.7500917645
 30
0.0
 10
212.3078064021
 20
139.0079873879
 30
0.0
 10
212.2320596552
 20
138.0655667999
 30
0.0
 10
212.1606109378
 20
137.466482662
 30
0.0
 10
212.0874703809
 20
137.0315418071
 30
0.0
 10
212.0215386327
 20
136.7429730667
 30
0.0
 10
211.9749111936
 20
136.5758029679
 30
0.0
 10
211.9263058477
 20
136.4411113478
 30
0.0
 10
211.8754962884
 20
136.3350516559
 30
0.0
 10
211.8171359051
 20
136.2605830102
 30
0.0
 10
211.7761771781
 20
136.2605830102
 30
0.0
  0
SPLINE
  5
391
100
AcDbEntity
  8
0
100
AcDbSpline
 62
7
  6
CONTINUOUS
 70
0
 71
3
 72
16
 73
12
 74
0
 42
0.0000001
 43
0.0000001
 44
0.0000000001
 40
0.0
 40
0.0
 40
0.0
 40
0.0
 40
0.0300179592
 40
0.0561705036
 40
0.0905661773
 40
0.1332408206
 40
0.1838704147
 40
0.3071861829
 40
0.4564002513
 40
0.6258695887
 40
1.0
 40
1.0
 40
1.0
 40
1.0
 10
211.7761771781
 20
144.2605830102
 30
0.0
 10
211.8171359051
 20
144.2605830102
 30
0.0
 10
211.8754962884
 20
144.1861143646
 30
0.0
 10
211.9263058477
 20
144.0800546727
 30
0.0
 10
211.9749111936
 20
143.9453630526
 30
0.0
 10
212.0215386327
 20
143.7781929537
 30
0.0
 10
212.0874703809
 20
143.4896242134
 30
0.0
 10
212.1606109378
 20
143.0546833585
 30
0.0
 10
212.2320596552
 20
142.4555992206
 30
0.0
 10
212.3078064021
 20
141.5131786326
 30
0.0
 10
212.3293511453
 20
140.771074256
 30
0.0
 10
212.3293511453
 20
140.2605830102
 30
0.0
  0
SPLINE
  5
392
100
AcDbEntity
  8
0
100
AcDbSpline
 62
7
  6
CONTINUOUS
 70
0
 71
3
 72
9
 73
5
 74
0
 42
0.0000001
 43
0.0000001
 44
0.0000000001
 40
0.0
 40
0.0
 40
0.0
 40
0.0
 40
0.24596256
 40
1.0
 40
1.0
 40
1.0
 40
1.0
 10
222.7073548627
 20
144.2605830102
 30
0.0
 10
222.7317682621
 20
144.2605830102
 30
0.0
 10
222.8310068926
 20
144.2563590215
 30
0.0
 10
222.9292979339
 20
144.23503937
 30
0.0
 10
223.0002323867
 20
144.2111688193
 30
0.0
  0
SPLINE
  5
393
100
AcDbEntity
  8
0
100
AcDbSpline
 62
7
  6
CONTINUOUS
 70
0
 71
3
 72
12
 73
8
 74
0
 42
0.0000001
 43
0.0000001
 44
0.0000000001
 40
0.0
 40
0.0
 40
0.0
 40
0.0
 40
0.1749515955
 40
0.2839981463
 40
0.4073751466
 40
0.6895406566
 40
1.0
 40
1.0
 40
1.0
 40
1.0
 10
223.0002323867
 20
144.2111688193
 30
0.0
 10
223.247708752
 20
144.1278891589
 30
0.0
 10
223.5936469574
 20
143.8400934866
 30
0.0
 10
223.9383974581
 20
143.3413468688
 30
0.0
 10
224.2785011211
 20
142.6486455652
 30
0.0
 10
224.5632565965
 20
141.6101814434
 30
0.0
 10
224.6392532609
 20
140.7239397614
 30
0.0
 10
224.6392532609
 20
140.2605830102
 30
0.0
  0
SPLINE
  5
394
100
AcDbEntity
  8
0
100
AcDbSpline
 62
7
  6
CONTINUOUS
 70
0
 71
3
 72
13
 73
9
 74
0
 42
0.0000001
 43
0.0000001
 44
0.0000000001
 40
0.0
 40
0.0
 40
0.0
 40
0.0
 40
0.1070877106
 40
0.2177498167
 40
0.3340767697
 40
0.4569850651
 40
0.7205054313
 40
1.0
 40
1.0
 40
1.0
 40
1.0
 10
245.4757544002
 20
144.2605830102
 30
0.0
 10
245.6735693834
 20
144.2605830102
 30
0.0
 10
246.0774722657
 20
144.2062934994
 30
0.0
 10
246.654812954
 20
143.9725763754
 30
0.0
 10
247.1861460858
 20
143.5952373441
 30
0.0
 10
247.8212184575
 20
142.910082114
 30
0.0
 10
248.3828765024
 20
141.7862558829
 30
0.0
 10
248.5332754108
 20
140.7768720702
 30
0.0
 10
248.5332754108
 20
140.2605830102
 30
0.0
  0
SPLINE
  5
395
100
AcDbEntity
  8
0
100
AcDbSpline
 62
7
  6
CONTINUOUS
 70
0
 71
3
 72
11
 73
7
 74
0
 42
0.0000001
 43
0.0000001
 44
0.0000000001
 40
0.0
 40
0.0
 40
0.0
 40
0.0
 40
0.2426331465
 40
0.4902383308
 40
0.7433933246
 40
1.0
 40
1.0
 40
1.0
 40
1.0
 10
277.0984428714
 20
144.2605830102
 30
0.0
 10
277.5894696735
 20
144.2605830102
 30
0.0
 10
278.592829783
 20
144.0464376195
 30
0.0
 10
279.8484865761
 20
143.1490364196
 30
0.0
 10
280.6860058034
 20
141.8219943935
 30
0.0
 10
280.8810146379
 20
140.7798886246
 30
0.0
 10
280.8810146379
 20
140.2605830102
 30
0.0
  0
SPLINE
  5
396
100
AcDbEntity
  8
0
100
AcDbSpline
 62
7
  6
CONTINUOUS
 70
0
 71
3
 72
11
 73
7
 74
0
 42
0.0000001
 43
0.0000001
 44
0.0000000001
 40
0.0
 40
0.0
 40
0.0
 40
0.0
 40
0.2423085014
 40
0.4897970041
 40
0.7430899413
 40
1.0
 40
1.0
 40
1.0
 40
1.0
 10
349.7176418267
 20
136.2605830102
 30
0.0
 10
349.2278928909
 20
136.2605830102
 30
0.0
 10
348.2266830755
 20
136.4749813369
 30
0.0
 10
346.9743858063
 20
137.3727351489
 30
0.0
 10
346.1393529753
 20
138.6996736564
 30
0.0
 10
345.9449741599
 20
139.7413217086
 30
0.0
 10
345.9449741599
 20
140.2605830102
 30
0.0
  0
SPLINE
  5
397
100
AcDbEntity
  8
0
100
AcDbSpline
 62
7
  6
CONTINUOUS
 70
0
 71
3
 72
13
 73
9
 74
0
 42
0.0000001
 43
0.0000001
 44
0.0000000001
 40
0.0
 40
0.0
 40
0.0
 40
0.0
 40
0.1066761625
 40
0.2170085489
 40
0.3331381988
 40
0.4559997817
 40
0.7198435683
 40
1.0
 40
1.0
 40
1.0
 40
1.0
 10
381.2001678621
 20
136.2605830102
 30
0.0
 10
381.0036060937
 20
136.2605830102
 30
0.0
 10
380.6020685816
 20
136.3149322809
 30
0.0
 10
380.0282952662
 20
136.5487894221
 30
0.0
 10
379.5003167945
 20
136.9262219347
 30
0.0
 10
378.8689417827
 20
137.6118067752
 30
0.0
 10
378.3110442032
 20
138.7357706375
 30
0.0
 10
378.1617347439
 20
139.7443660565
 30
0.0
 10
378.1617347439
 20
140.2605830102
 30
0.0
  0
SPLINE
  5
398
100
AcDbEntity
  8
0
100
AcDbSpline
 62
7
  6
CONTINUOUS
 70
0
 71
3
 72
9
 73
5
 74
0
 42
0.0000001
 43
0.0000001
 44
0.0000000001
 40
0.0
 40
0.0
 40
0.0
 40
0.0
 40
0.2458361622
 40
1.0
 40
1.0
 40
1.0
 40
1.0
 10
403.755459797
 20
136.2605830102
 30
0.0
 10
403.7313864986
 20
136.2605830102
 30
0.0
 10
403.6334798571
 20
136.264809227
 30
0.0
 10
403.5365407779
 20
136.2861482329
 30
0.0
 10
403.4666467459
 20
136.3099972012
 30
0.0
  0
SPLINE
  5
399
100
AcDbEntity
  8
0
100
AcDbSpline
 62
7
  6
CONTINUOUS
 70
0
 71
3
 72
12
 73
8
 74
0
 42
0.0000001
 43
0.0000001
 44
0.0000000001
 40
0.0
 40
0.0
 40
0.0
 40
0.0
 40
0.1738662351
 40
0.2827194622
 40
0.4061042927
 40
0.6887419003
 40
1.0
 40
1.0
 40
1.0
 40
1.0
 10
403.4666467459
 20
136.3099972012
 30
0.0
 10
403.2217115716
 20
136.3935730239
 30
0.0
 10
402.8804194159
 20
136.6822974665
 30
0.0
 10
402.5409028879
 20
137.1802038892
 30
0.0
 10
402.2051788031
 20
137.8732322836
 30
0.0
 10
401.9243106141
 20
138.9115389852
 30
0.0
 10
401.8493323414
 20
139.7972726511
 30
0.0
 10
401.8493323414
 20
140.2605830102
 30
0.0
  0
SPLINE
  5
39A
100
AcDbEntity
  8
0
100
AcDbSpline
 62
7
  6
CONTINUOUS
 70
0
 71
3
 72
17
 73
13
 74
0
 42
0.0000001
 43
0.0000001
 44
0.0000000001
 40
0.0
 40
0.0
 40
0.0
 40
0.0
 40
0.0118675406
 40
0.0298487222
 40
0.055735413
 40
0.0899567933
 40
0.1325214562
 40
0.1830897686
 40
0.3063959791
 40
0.4557131266
 40
0.6253657885
 40
1.0
 40
1.0
 40
1.0
 40
1.0
 10
414.4285043593
 20
136.2605830102
 30
0.0
 10
414.4123338916
 20
136.2605830102
 30
0.0
 10
414.3735612201
 20
136.2826291491
 30
0.0
 10
414.3311548495
 20
136.3458987592
 30
0.0
 10
414.286054153
 20
136.4427043632
 30
0.0
 10
414.241554641
 20
136.5754863138
 30
0.0
 10
414.1969367141
 20
136.7432653894
 30
0.0
 10
414.1346655087
 20
137.0316126237
 30
0.0
 10
414.0650725371
 20
137.4667357948
 30
0.0
 10
413.9971580687
 20
138.0656708455
 30
0.0
 10
413.9249582136
 20
139.0081500237
 30
0.0
 10
413.904408083
 20
139.7501141091
 30
0.0
 10
413.904408083
 20
140.2605830102
 30
0.0
  0
SPLINE
  5
39B
100
AcDbEntity
  8
0
100
AcDbSpline
 62
7
  6
CONTINUOUS
 70
0
 71
3
 72
16
 73
12
 74
0
 42
0.0000001
 43
0.0000001
 44
0.0000000001
 40
0.0
 40
0.0
 40
0.0
 40
0.0
 40
0.0300179592
 40
0.0561705036
 40
0.0905661773
 40
0.1332408206
 40
0.1838704147
 40
0.3071861829
 40
0.4564002513
 40
0.6258695887
 40
1.0
 40
1.0
 40
1.0
 40
1.0
 10
211.7761771781
 20
169.2605830102
 30
0.0
 10
211.8171359051
 20
169.2605830102
 30
0.0
 10
211.8754962884
 20
169.1861143646
 30
0.0
 10
211.9263058477
 20
169.0800546727
 30
0.0
 10
211.9749111936
 20
168.9453630526
 30
0.0
 10
212.0215386327
 20
168.7781929537
 30
0.0
 10
212.0874703809
 20
168.4896242134
 30
0.0
 10
212.1606109378
 20
168.0546833585
 30
0.0
 10
212.2320596552
 20
167.4555992206
 30
0.0
 10
212.3078064021
 20
166.5131786326
 30
0.0
 10
212.3293511453
 20
165.771074256
 30
0.0
 10
212.3293511453
 20
165.2605830102
 30
0.0
  0
SPLINE
  5
39C
100
AcDbEntity
  8
0
100
AcDbSpline
 62
7
  6
CONTINUOUS
 70
0
 71
3
 72
9
 73
5
 74
0
 42
0.0000001
 43
0.0000001
 44
0.0000000001
 40
0.0
 40
0.0
 40
0.0
 40
0.0
 40
0.24596256
 40
1.0
 40
1.0
 40
1.0
 40
1.0
 10
222.7073548627
 20
169.2605830102
 30
0.0
 10
222.7317682621
 20
169.2605830102
 30
0.0
 10
222.8310068926
 20
169.2563590215
 30
0.0
 10
222.9292979339
 20
169.23503937
 30
0.0
 10
223.0002323867
 20
169.2111688193
 30
0.0
  0
SPLINE
  5
39D
100
AcDbEntity
  8
0
100
AcDbSpline
 62
7
  6
CONTINUOUS
 70
0
 71
3
 72
12
 73
8
 74
0
 42
0.0000001
 43
0.0000001
 44
0.0000000001
 40
0.0
 40
0.0
 40
0.0
 40
0.0
 40
0.1749515955
 40
0.2839981463
 40
0.4073751466
 40
0.6895406566
 40
1.0
 40
1.0
 40
1.0
 40
1.0
 10
223.0002323867
 20
169.2111688193
 30
0.0
 10
223.247708752
 20
169.1278891589
 30
0.0
 10
223.5936469574
 20
168.8400934866
 30
0.0
 10
223.9383974581
 20
168.3413468688
 30
0.0
 10
224.2785011211
 20
167.6486455652
 30
0.0
 10
224.5632565965
 20
166.6101814434
 30
0.0
 10
224.6392532609
 20
165.7239397614
 30
0.0
 10
224.6392532609
 20
165.2605830102
 30
0.0
  0
SPLINE
  5
39E
100
AcDbEntity
  8
0
100
AcDbSpline
 62
7
  6
CONTINUOUS
 70
0
 71
3
 72
13
 73
9
 74
0
 42
0.0000001
 43
0.0000001
 44
0.0000000001
 40
0.0
 40
0.0
 40
0.0
 40
0.0
 40
0.1070877106
 40
0.2177498167
 40
0.3340767697
 40
0.4569850651
 40
0.7205054313
 40
1.0
 40
1.0
 40
1.0
 40
1.0
 10
245.4757544002
 20
169.2605830102
 30
0.0
 10
245.6735693834
 20
169.2605830102
 30
0.0
 10
246.0774722657
 20
169.2062934994
 30
0.0
 10
246.654812954
 20
168.9725763754
 30
0.0
 10
247.1861460858
 20
168.5952373441
 30
0.0
 10
247.8212184575
 20
167.910082114
 30
0.0
 10
248.3828765024
 20
166.7862558829
 30
0.0
 10
248.5332754108
 20
165.7768720702
 30
0.0
 10
248.5332754108
 20
165.2605830102
 30
0.0
  0
SPLINE
  5
39F
100
AcDbEntity
  8
0
100
AcDbSpline
 62
7
  6
CONTINUOUS
 70
0
 71
3
 72
11
 73
7
 74
0
 42
0.0000001
 43
0.0000001
 44
0.0000000001
 40
0.0
 40
0.0
 40
0.0
 40
0.0
 40
0.2426331465
 40
0.4902383308
 40
0.7433933246
 40
1.0
 40
1.0
 40
1.0
 40
1.0
 10
277.0984428714
 20
169.2605830102
 30
0.0
 10
277.5894696735
 20
169.2605830102
 30
0.0
 10
278.592829783
 20
169.0464376195
 30
0.0
 10
279.8484865761
 20
168.1490364196
 30
0.0
 10
280.6860058034
 20
166.8219943935
 30
0.0
 10
280.8810146379
 20
165.7798886246
 30
0.0
 10
280.8810146379
 20
165.2605830102
 30
0.0
  0
SPLINE
  5
3A0
100
AcDbEntity
  8
0
100
AcDbSpline
 62
7
  6
CONTINUOUS
 70
0
 71
3
 72
17
 73
13
 74
0
 42
0.0000001
 43
0.0000001
 44
0.0000000001
 40
0.0
 40
0.0
 40
0.0
 40
0.0
 40
0.0118675406
 40
0.0298487222
 40
0.055735413
 40
0.0899567933
 40
0.1325214562
 40
0.1830897686
 40
0.3063959791
 40
0.4557131266
 40
0.6253657885
 40
1.0
 40
1.0
 40
1.0
 40
1.0
 10
414.4285043593
 20
286.2605830102
 30
0.0
 10
414.4123338916
 20
286.2605830102
 30
0.0
 10
414.3735612201
 20
286.2826291491
 30
0.0
 10
414.3311548495
 20
286.3458987592
 30
0.0
 10
414.286054153
 20
286.4427043632
 30
0.0
 10
414.241554641
 20
286.5754863138
 30
0.0
 10
414.1969367141
 20
286.7432653894
 30
0.0
 10
414.1346655087
 20
287.0316126237
 30
0.0
 10
414.0650725371
 20
287.4667357948
 30
0.0
 10
413.9971580687
 20
288.0656708455
 30
0.0
 10
413.9249582136
 20
289.0081500237
 30
0.0
 10
413.904408083
 20
289.7501141091
 30
0.0
 10
413.904408083
 20
290.2605830102
 30
0.0
  0
SPLINE
  5
3A1
100
AcDbEntity
  8
0
100
AcDbSpline
 62
7
  6
CONTINUOUS
 70
0
 71
3
 72
11
 73
7
 74
0
 42
0.0000001
 43
0.0000001
 44
0.0000000001
 40
0.0
 40
0.0
 40
0.0
 40
0.0
 40
0.2423085014
 40
0.4897970041
 40
0.7430899413
 40
1.0
 40
1.0
 40
1.0
 40
1.0
 10
349.7176418267
 20
161.2605830102
 30
0.0
 10
349.2278928909
 20
161.2605830102
 30
0.0
 10
348.2266830755
 20
161.4749813369
 30
0.0
 10
346.9743858063
 20
162.3727351489
 30
0.0
 10
346.1393529753
 20
163.6996736564
 30
0.0
 10
345.9449741599
 20
164.7413217086
 30
0.0
 10
345.9449741599
 20
165.2605830102
 30
0.0
  0
SPLINE
  5
3A2
100
AcDbEntity
  8
0
100
AcDbSpline
 62
7
  6
CONTINUOUS
 70
0
 71
3
 72
9
 73
5
 74
0
 42
0.0000001
 43
0.0000001
 44
0.0000000001
 40
0.0
 40
0.0
 40
0.0
 40
0.0
 40
0.2458361622
 40
1.0
 40
1.0
 40
1.0
 40
1.0
 10
403.755459797
 20
286.2605830102
 30
0.0
 10
403.7313864986
 20
286.2605830102
 30
0.0
 10
403.6334798571
 20
286.264809227
 30
0.0
 10
403.5365407779
 20
286.2861482329
 30
0.0
 10
403.4666467459
 20
286.3099972012
 30
0.0
  0
SPLINE
  5
3A3
100
AcDbEntity
  8
0
100
AcDbSpline
 62
7
  6
CONTINUOUS
 70
0
 71
3
 72
12
 73
8
 74
0
 42
0.0000001
 43
0.0000001
 44
0.0000000001
 40
0.0
 40
0.0
 40
0.0
 40
0.0
 40
0.1738662351
 40
0.2827194622
 40
0.4061042927
 40
0.6887419003
 40
1.0
 40
1.0
 40
1.0
 40
1.0
 10
403.4666467459
 20
286.3099972012
 30
0.0
 10
403.2217115716
 20
286.3935730239
 30
0.0
 10
402.8804194159
 20
286.6822974665
 30
0.0
 10
402.5409028879
 20
287.1802038892
 30
0.0
 10
402.2051788031
 20
287.8732322836
 30
0.0
 10
401.9243106141
 20
288.9115389852
 30
0.0
 10
401.8493323414
 20
289.7972726511
 30
0.0
 10
401.8493323414
 20
290.2605830102
 30
0.0
  0
SPLINE
  5
3A4
100
AcDbEntity
  8
0
100
AcDbSpline
 62
7
  6
CONTINUOUS
 70
0
 71
3
 72
13
 73
9
 74
0
 42
0.0000001
 43
0.0000001
 44
0.0000000001
 40
0.0
 40
0.0
 40
0.0
 40
0.0
 40
0.1066761625
 40
0.2170085489
 40
0.3331381988
 40
0.4559997817
 40
0.7198435683
 40
1.0
 40
1.0
 40
1.0
 40
1.0
 10
381.2001678621
 20
161.2605830102
 30
0.0
 10
381.0036060937
 20
161.2605830102
 30
0.0
 10
380.6020685816
 20
161.3149322809
 30
0.0
 10
380.0282952662
 20
161.5487894221
 30
0.0
 10
379.5003167945
 20
161.9262219347
 30
0.0
 10
378.8689417827
 20
162.6118067752
 30
0.0
 10
378.3110442032
 20
163.7357706375
 30
0.0
 10
378.1617347439
 20
164.7443660565
 30
0.0
 10
378.1617347439
 20
165.2605830102
 30
0.0
  0
SPLINE
  5
3A5
100
AcDbEntity
  8
0
100
AcDbSpline
 62
7
  6
CONTINUOUS
 70
0
 71
3
 72
13
 73
9
 74
0
 42
0.0000001
 43
0.0000001
 44
0.0000000001
 40
0.0
 40
0.0
 40
0.0
 40
0.0
 40
0.1066761625
 40
0.2170085489
 40
0.3331381988
 40
0.4559997817
 40
0.7198435683
 40
1.0
 40
1.0
 40
1.0
 40
1.0
 10
381.2001678621
 20
286.2605830102
 30
0.0
 10
381.0036060937
 20
286.2605830102
 30
0.0
 10
380.6020685816
 20
286.3149322809
 30
0.0
 10
380.0282952662
 20
286.5487894221
 30
0.0
 10
379.5003167945
 20
286.9262219347
 30
0.0
 10
378.8689417827
 20
287.6118067752
 30
0.0
 10
378.3110442032
 20
288.7357706375
 30
0.0
 10
378.1617347439
 20
289.7443660565
 30
0.0
 10
378.1617347439
 20
290.2605830102
 30
0.0
  0
SPLINE
  5
3A6
100
AcDbEntity
  8
0
100
AcDbSpline
 62
7
  6
CONTINUOUS
 70
0
 71
3
 72
9
 73
5
 74
0
 42
0.0000001
 43
0.0000001
 44
0.0000000001
 40
0.0
 40
0.0
 40
0.0
 40
0.0
 40
0.2458361622
 40
1.0
 40
1.0
 40
1.0
 40
1.0
 10
403.755459797
 20
161.2605830102
 30
0.0
 10
403.7313864986
 20
161.2605830102
 30
0.0
 10
403.6334798571
 20
161.264809227
 30
0.0
 10
403.5365407779
 20
161.2861482329
 30
0.0
 10
403.4666467459
 20
161.3099972012
 30
0.0
  0
SPLINE
  5
3A7
100
AcDbEntity
  8
0
100
AcDbSpline
 62
7
  6
CONTINUOUS
 70
0
 71
3
 72
12
 73
8
 74
0
 42
0.0000001
 43
0.0000001
 44
0.0000000001
 40
0.0
 40
0.0
 40
0.0
 40
0.0
 40
0.1738662351
 40
0.2827194622
 40
0.4061042927
 40
0.6887419003
 40
1.0
 40
1.0
 40
1.0
 40
1.0
 10
403.4666467459
 20
161.3099972012
 30
0.0
 10
403.2217115716
 20
161.3935730239
 30
0.0
 10
402.8804194159
 20
161.6822974665
 30
0.0
 10
402.5409028879
 20
162.1802038892
 30
0.0
 10
402.2051788031
 20
162.8732322836
 30
0.0
 10
401.9243106141
 20
163.9115389852
 30
0.0
 10
401.8493323414
 20
164.7972726511
 30
0.0
 10
401.8493323414
 20
165.2605830102
 30
0.0
  0
SPLINE
  5
3A8
100
AcDbEntity
  8
0
100
AcDbSpline
 62
7
  6
CONTINUOUS
 70
0
 71
3
 72
11
 73
7
 74
0
 42
0.0000001
 43
0.0000001
 44
0.0000000001
 40
0.0
 40
0.0
 40
0.0
 40
0.0
 40
0.2423085014
 40
0.4897970041
 40
0.7430899413
 40
1.0
 40
1.0
 40
1.0
 40
1.0
 10
349.7176418267
 20
286.2605830102
 30
0.0
 10
349.2278928909
 20
286.2605830102
 30
0.0
 10
348.2266830755
 20
286.4749813369
 30
0.0
 10
346.9743858063
 20
287.3727351489
 30
0.0
 10
346.1393529753
 20
288.6996736564
 30
0.0
 10
345.9449741599
 20
289.7413217086
 30
0.0
 10
345.9449741599
 20
290.2605830102
 30
0.0
  0
SPLINE
  5
3A9
100
AcDbEntity
  8
0
100
AcDbSpline
 62
7
  6
CONTINUOUS
 70
0
 71
3
 72
17
 73
13
 74
0
 42
0.0000001
 43
0.0000001
 44
0.0000000001
 40
0.0
 40
0.0
 40
0.0
 40
0.0
 40
0.0118675406
 40
0.0298487222
 40
0.055735413
 40
0.0899567933
 40
0.1325214562
 40
0.1830897686
 40
0.3063959791
 40
0.4557131266
 40
0.6253657885
 40
1.0
 40
1.0
 40
1.0
 40
1.0
 10
414.4285043593
 20
161.2605830102
 30
0.0
 10
414.4123338916
 20
161.2605830102
 30
0.0
 10
414.3735612201
 20
161.2826291491
 30
0.0
 10
414.3311548495
 20
161.3458987592
 30
0.0
 10
414.286054153
 20
161.4427043632
 30
0.0
 10
414.241554641
 20
161.5754863138
 30
0.0
 10
414.1969367141
 20
161.7432653894
 30
0.0
 10
414.1346655087
 20
162.0316126237
 30
0.0
 10
414.0650725371
 20
162.4667357948
 30
0.0
 10
413.9971580687
 20
163.0656708455
 30
0.0
 10
413.9249582136
 20
164.0081500237
 30
0.0
 10
413.904408083
 20
164.7501141091
 30
0.0
 10
413.904408083
 20
165.2605830102
 30
0.0
  0
SPLINE
  5
3AA
100
AcDbEntity
  8
0
100
AcDbSpline
 62
7
  6
CONTINUOUS
 70
0
 71
3
 72
11
 73
7
 74
0
 42
0.0000001
 43
0.0000001
 44
0.0000000001
 40
0.0
 40
0.0
 40
0.0
 40
0.0
 40
0.2426331465
 40
0.4902383308
 40
0.7433933246
 40
1.0
 40
1.0
 40
1.0
 40
1.0
 10
277.0984428714
 20
294.2605830102
 30
0.0
 10
277.5894696735
 20
294.2605830102
 30
0.0
 10
278.592829783
 20
294.0464376195
 30
0.0
 10
279.8484865761
 20
293.1490364196
 30
0.0
 10
280.6860058034
 20
291.8219943935
 30
0.0
 10
280.8810146379
 20
290.7798886246
 30
0.0
 10
280.8810146379
 20
290.2605830102
 30
0.0
  0
SPLINE
  5
3AB
100
AcDbEntity
  8
0
100
AcDbSpline
 62
7
  6
CONTINUOUS
 70
0
 71
3
 72
13
 73
9
 74
0
 42
0.0000001
 43
0.0000001
 44
0.0000000001
 40
0.0
 40
0.0
 40
0.0
 40
0.0
 40
0.1070877106
 40
0.2177498167
 40
0.3340767697
 40
0.4569850651
 40
0.7205054313
 40
1.0
 40
1.0
 40
1.0
 40
1.0
 10
245.4757544002
 20
294.2605830102
 30
0.0
 10
245.6735693834
 20
294.2605830102
 30
0.0
 10
246.0774722657
 20
294.2062934994
 30
0.0
 10
246.654812954
 20
293.9725763754
 30
0.0
 10
247.1861460858
 20
293.5952373441
 30
0.0
 10
247.8212184575
 20
292.910082114
 30
0.0
 10
248.3828765024
 20
291.7862558829
 30
0.0
 10
248.5332754108
 20
290.7768720702
 30
0.0
 10
248.5332754108
 20
290.2605830102
 30
0.0
  0
SPLINE
  5
3AC
100
AcDbEntity
  8
0
100
AcDbSpline
 62
7
  6
CONTINUOUS
 70
0
 71
3
 72
9
 73
5
 74
0
 42
0.0000001
 43
0.0000001
 44
0.0000000001
 40
0.0
 40
0.0
 40
0.0
 40
0.0
 40
0.24596256
 40
1.0
 40
1.0
 40
1.0
 40
1.0
 10
222.7073548627
 20
294.2605830102
 30
0.0
 10
222.7317682621
 20
294.2605830102
 30
0.0
 10
222.8310068926
 20
294.2563590215
 30
0.0
 10
222.9292979339
 20
294.23503937
 30
0.0
 10
223.0002323867
 20
294.2111688193
 30
0.0
  0
SPLINE
  5
3AD
100
AcDbEntity
  8
0
100
AcDbSpline
 62
7
  6
CONTINUOUS
 70
0
 71
3
 72
12
 73
8
 74
0
 42
0.0000001
 43
0.0000001
 44
0.0000000001
 40
0.0
 40
0.0
 40
0.0
 40
0.0
 40
0.1749515955
 40
0.2839981463
 40
0.4073751466
 40
0.6895406566
 40
1.0
 40
1.0
 40
1.0
 40
1.0
 10
223.0002323867
 20
294.2111688193
 30
0.0
 10
223.247708752
 20
294.1278891589
 30
0.0
 10
223.5936469574
 20
293.8400934866
 30
0.0
 10
223.9383974581
 20
293.3413468688
 30
0.0
 10
224.2785011211
 20
292.6486455652
 30
0.0
 10
224.5632565965
 20
291.6101814434
 30
0.0
 10
224.6392532609
 20
290.7239397614
 30
0.0
 10
224.6392532609
 20
290.2605830102
 30
0.0
  0
SPLINE
  5
3AE
100
AcDbEntity
  8
0
100
AcDbSpline
 62
7
  6
CONTINUOUS
 70
0
 71
3
 72
16
 73
12
 74
0
 42
0.0000001
 43
0.0000001
 44
0.0000000001
 40
0.0
 40
0.0
 40
0.0
 40
0.0
 40
0.0300179592
 40
0.0561705036
 40
0.0905661773
 40
0.1332408206
 40
0.1838704147
 40
0.3071861829
 40
0.4564002513
 40
0.6258695887
 40
1.0
 40
1.0
 40
1.0
 40
1.0
 10
211.7761771781
 20
294.2605830102
 30
0.0
 10
211.8171359051
 20
294.2605830102
 30
0.0
 10
211.8754962884
 20
294.1861143646
 30
0.0
 10
211.9263058477
 20
294.0800546727
 30
0.0
 10
211.9749111936
 20
293.9453630526
 30
0.0
 10
212.0215386327
 20
293.7781929537
 30
0.0
 10
212.0874703809
 20
293.4896242134
 30
0.0
 10
212.1606109378
 20
293.0546833585
 30
0.0
 10
212.2320596552
 20
292.4555992206
 30
0.0
 10
212.3078064021
 20
291.5131786326
 30
0.0
 10
212.3293511453
 20
290.771074256
 30
0.0
 10
212.3293511453
 20
290.2605830102
 30
0.0
  0
SPLINE
  5
3AF
100
AcDbEntity
  8
0
100
AcDbSpline
 62
7
  6
CONTINUOUS
 70
0
 71
3
 72
16
 73
12
 74
0
 42
0.0000001
 43
0.0000001
 44
0.0000000001
 40
0.0
 40
0.0
 40
0.0
 40
0.0
 40
0.0300179592
 40
0.0561705036
 40
0.0905661773
 40
0.1332408206
 40
0.1838704147
 40
0.3071861829
 40
0.4564002513
 40
0.6258695887
 40
1.0
 40
1.0
 40
1.0
 40
1.0
 10
211.7761771781
 20
194.2605830102
 30
0.0
 10
211.8171359051
 20
194.2605830102
 30
0.0
 10
211.8754962884
 20
194.1861143646
 30
0.0
 10
211.9263058477
 20
194.0800546727
 30
0.0
 10
211.9749111936
 20
193.9453630526
 30
0.0
 10
212.0215386327
 20
193.7781929537
 30
0.0
 10
212.0874703809
 20
193.4896242134
 30
0.0
 10
212.1606109378
 20
193.0546833585
 30
0.0
 10
212.2320596552
 20
192.4555992206
 30
0.0
 10
212.3078064021
 20
191.5131786326
 30
0.0
 10
212.3293511453
 20
190.771074256
 30
0.0
 10
212.3293511453
 20
190.2605830102
 30
0.0
  0
SPLINE
  5
3B0
100
AcDbEntity
  8
0
100
AcDbSpline
 62
7
  6
CONTINUOUS
 70
0
 71
3
 72
9
 73
5
 74
0
 42
0.0000001
 43
0.0000001
 44
0.0000000001
 40
0.0
 40
0.0
 40
0.0
 40
0.0
 40
0.24596256
 40
1.0
 40
1.0
 40
1.0
 40
1.0
 10
222.7073548627
 20
194.2605830102
 30
0.0
 10
222.7317682621
 20
194.2605830102
 30
0.0
 10
222.8310068926
 20
194.2563590215
 30
0.0
 10
222.9292979339
 20
194.23503937
 30
0.0
 10
223.0002323867
 20
194.2111688193
 30
0.0
  0
SPLINE
  5
3B1
100
AcDbEntity
  8
0
100
AcDbSpline
 62
7
  6
CONTINUOUS
 70
0
 71
3
 72
12
 73
8
 74
0
 42
0.0000001
 43
0.0000001
 44
0.0000000001
 40
0.0
 40
0.0
 40
0.0
 40
0.0
 40
0.1749515955
 40
0.2839981463
 40
0.4073751466
 40
0.6895406566
 40
1.0
 40
1.0
 40
1.0
 40
1.0
 10
223.0002323867
 20
194.2111688193
 30
0.0
 10
223.247708752
 20
194.1278891589
 30
0.0
 10
223.5936469574
 20
193.8400934866
 30
0.0
 10
223.9383974581
 20
193.3413468688
 30
0.0
 10
224.2785011211
 20
192.6486455652
 30
0.0
 10
224.5632565965
 20
191.6101814434
 30
0.0
 10
224.6392532609
 20
190.7239397614
 30
0.0
 10
224.6392532609
 20
190.2605830102
 30
0.0
  0
SPLINE
  5
3B2
100
AcDbEntity
  8
0
100
AcDbSpline
 62
7
  6
CONTINUOUS
 70
0
 71
3
 72
13
 73
9
 74
0
 42
0.0000001
 43
0.0000001
 44
0.0000000001
 40
0.0
 40
0.0
 40
0.0
 40
0.0
 40
0.1070877106
 40
0.2177498167
 40
0.3340767697
 40
0.4569850651
 40
0.7205054313
 40
1.0
 40
1.0
 40
1.0
 40
1.0
 10
245.4757544002
 20
194.2605830102
 30
0.0
 10
245.6735693834
 20
194.2605830102
 30
0.0
 10
246.0774722657
 20
194.2062934994
 30
0.0
 10
246.654812954
 20
193.9725763754
 30
0.0
 10
247.1861460858
 20
193.5952373441
 30
0.0
 10
247.8212184575
 20
192.910082114
 30
0.0
 10
248.3828765024
 20
191.7862558829
 30
0.0
 10
248.5332754108
 20
190.7768720702
 30
0.0
 10
248.5332754108
 20
190.2605830102
 30
0.0
  0
SPLINE
  5
3B3
100
AcDbEntity
  8
0
100
AcDbSpline
 62
7
  6
CONTINUOUS
 70
0
 71
3
 72
11
 73
7
 74
0
 42
0.0000001
 43
0.0000001
 44
0.0000000001
 40
0.0
 40
0.0
 40
0.0
 40
0.0
 40
0.2426331465
 40
0.4902383308
 40
0.7433933246
 40
1.0
 40
1.0
 40
1.0
 40
1.0
 10
277.0984428714
 20
194.2605830102
 30
0.0
 10
277.5894696735
 20
194.2605830102
 30
0.0
 10
278.592829783
 20
194.0464376195
 30
0.0
 10
279.8484865761
 20
193.1490364196
 30
0.0
 10
280.6860058034
 20
191.8219943935
 30
0.0
 10
280.8810146379
 20
190.7798886246
 30
0.0
 10
280.8810146379
 20
190.2605830102
 30
0.0
  0
SPLINE
  5
3B4
100
AcDbEntity
  8
0
100
AcDbSpline
 62
7
  6
CONTINUOUS
 70
0
 71
3
 72
17
 73
13
 74
0
 42
0.0000001
 43
0.0000001
 44
0.0000000001
 40
0.0
 40
0.0
 40
0.0
 40
0.0
 40
0.0118675406
 40
0.0298487222
 40
0.055735413
 40
0.0899567933
 40
0.1325214562
 40
0.1830897686
 40
0.3063959791
 40
0.4557131266
 40
0.6253657885
 40
1.0
 40
1.0
 40
1.0
 40
1.0
 10
414.4285043593
 20
261.2605830102
 30
0.0
 10
414.4123338916
 20
261.2605830102
 30
0.0
 10
414.3735612201
 20
261.2826291491
 30
0.0
 10
414.3311548495
 20
261.3458987592
 30
0.0
 10
414.286054153
 20
261.4427043632
 30
0.0
 10
414.241554641
 20
261.5754863138
 30
0.0
 10
414.1969367141
 20
261.7432653894
 30
0.0
 10
414.1346655087
 20
262.0316126237
 30
0.0
 10
414.0650725371
 20
262.4667357948
 30
0.0
 10
413.9971580687
 20
263.0656708455
 30
0.0
 10
413.9249582136
 20
264.0081500237
 30
0.0
 10
413.904408083
 20
264.7501141091
 30
0.0
 10
413.904408083
 20
265.2605830102
 30
0.0
  0
SPLINE
  5
3B5
100
AcDbEntity
  8
0
100
AcDbSpline
 62
7
  6
CONTINUOUS
 70
0
 71
3
 72
9
 73
5
 74
0
 42
0.0000001
 43
0.0000001
 44
0.0000000001
 40
0.0
 40
0.0
 40
0.0
 40
0.0
 40
0.2458361622
 40
1.0
 40
1.0
 40
1.0
 40
1.0
 10
403.755459797
 20
261.2605830102
 30
0.0
 10
403.7313864986
 20
261.2605830102
 30
0.0
 10
403.6334798571
 20
261.264809227
 30
0.0
 10
403.5365407779
 20
261.2861482329
 30
0.0
 10
403.4666467459
 20
261.3099972012
 30
0.0
  0
SPLINE
  5
3B6
100
AcDbEntity
  8
0
100
AcDbSpline
 62
7
  6
CONTINUOUS
 70
0
 71
3
 72
12
 73
8
 74
0
 42
0.0000001
 43
0.0000001
 44
0.0000000001
 40
0.0
 40
0.0
 40
0.0
 40
0.0
 40
0.1738662351
 40
0.2827194622
 40
0.4061042927
 40
0.6887419003
 40
1.0
 40
1.0
 40
1.0
 40
1.0
 10
403.4666467459
 20
261.3099972012
 30
0.0
 10
403.2217115716
 20
261.3935730239
 30
0.0
 10
402.8804194159
 20
261.6822974665
 30
0.0
 10
402.5409028879
 20
262.1802038892
 30
0.0
 10
402.2051788031
 20
262.8732322836
 30
0.0
 10
401.9243106141
 20
263.9115389852
 30
0.0
 10
401.8493323414
 20
264.7972726511
 30
0.0
 10
401.8493323414
 20
265.2605830102
 30
0.0
  0
SPLINE
  5
3B7
100
AcDbEntity
  8
0
100
AcDbSpline
 62
7
  6
CONTINUOUS
 70
0
 71
3
 72
11
 73
7
 74
0
 42
0.0000001
 43
0.0000001
 44
0.0000000001
 40
0.0
 40
0.0
 40
0.0
 40
0.0
 40
0.2423085014
 40
0.4897970041
 40
0.7430899413
 40
1.0
 40
1.0
 40
1.0
 40
1.0
 10
349.7176418267
 20
186.2605830102
 30
0.0
 10
349.2278928909
 20
186.2605830102
 30
0.0
 10
348.2266830755
 20
186.4749813369
 30
0.0
 10
346.9743858063
 20
187.3727351489
 30
0.0
 10
346.1393529753
 20
188.6996736564
 30
0.0
 10
345.9449741599
 20
189.7413217086
 30
0.0
 10
345.9449741599
 20
190.2605830102
 30
0.0
  0
SPLINE
  5
3B8
100
AcDbEntity
  8
0
100
AcDbSpline
 62
7
  6
CONTINUOUS
 70
0
 71
3
 72
13
 73
9
 74
0
 42
0.0000001
 43
0.0000001
 44
0.0000000001
 40
0.0
 40
0.0
 40
0.0
 40
0.0
 40
0.1066761625
 40
0.2170085489
 40
0.3331381988
 40
0.4559997817
 40
0.7198435683
 40
1.0
 40
1.0
 40
1.0
 40
1.0
 10
381.2001678621
 20
261.2605830102
 30
0.0
 10
381.0036060937
 20
261.2605830102
 30
0.0
 10
380.6020685816
 20
261.3149322809
 30
0.0
 10
380.0282952662
 20
261.5487894221
 30
0.0
 10
379.5003167945
 20
261.9262219347
 30
0.0
 10
378.8689417827
 20
262.6118067752
 30
0.0
 10
378.3110442032
 20
263.7357706375
 30
0.0
 10
378.1617347439
 20
264.7443660565
 30
0.0
 10
378.1617347439
 20
265.2605830102
 30
0.0
  0
SPLINE
  5
3B9
100
AcDbEntity
  8
0
100
AcDbSpline
 62
7
  6
CONTINUOUS
 70
0
 71
3
 72
13
 73
9
 74
0
 42
0.0000001
 43
0.0000001
 44
0.0000000001
 40
0.0
 40
0.0
 40
0.0
 40
0.0
 40
0.1066761625
 40
0.2170085489
 40
0.3331381988
 40
0.4559997817
 40
0.7198435683
 40
1.0
 40
1.0
 40
1.0
 40
1.0
 10
381.2001678621
 20
186.2605830102
 30
0.0
 10
381.0036060937
 20
186.2605830102
 30
0.0
 10
380.6020685816
 20
186.3149322809
 30
0.0
 10
380.0282952662
 20
186.5487894221
 30
0.0
 10
379.5003167945
 20
186.9262219347
 30
0.0
 10
378.8689417827
 20
187.6118067752
 30
0.0
 10
378.3110442032
 20
188.7357706375
 30
0.0
 10
378.1617347439
 20
189.7443660565
 30
0.0
 10
378.1617347439
 20
190.2605830102
 30
0.0
  0
SPLINE
  5
3BA
100
AcDbEntity
  8
0
100
AcDbSpline
 62
7
  6
CONTINUOUS
 70
0
 71
3
 72
11
 73
7
 74
0
 42
0.0000001
 43
0.0000001
 44
0.0000000001
 40
0.0
 40
0.0
 40
0.0
 40
0.0
 40
0.2423085014
 40
0.4897970041
 40
0.7430899413
 40
1.0
 40
1.0
 40
1.0
 40
1.0
 10
349.7176418267
 20
261.2605830102
 30
0.0
 10
349.2278928909
 20
261.2605830102
 30
0.0
 10
348.2266830755
 20
261.4749813369
 30
0.0
 10
346.9743858063
 20
262.3727351489
 30
0.0
 10
346.1393529753
 20
263.6996736564
 30
0.0
 10
345.9449741599
 20
264.7413217086
 30
0.0
 10
345.9449741599
 20
265.2605830102
 30
0.0
  0
SPLINE
  5
3BB
100
AcDbEntity
  8
0
100
AcDbSpline
 62
7
  6
CONTINUOUS
 70
0
 71
3
 72
9
 73
5
 74
0
 42
0.0000001
 43
0.0000001
 44
0.0000000001
 40
0.0
 40
0.0
 40
0.0
 40
0.0
 40
0.2458361622
 40
1.0
 40
1.0
 40
1.0
 40
1.0
 10
403.755459797
 20
186.2605830102
 30
0.0
 10
403.7313864986
 20
186.2605830102
 30
0.0
 10
403.6334798571
 20
186.264809227
 30
0.0
 10
403.5365407779
 20
186.2861482329
 30
0.0
 10
403.4666467459
 20
186.3099972012
 30
0.0
  0
SPLINE
  5
3BC
100
AcDbEntity
  8
0
100
AcDbSpline
 62
7
  6
CONTINUOUS
 70
0
 71
3
 72
12
 73
8
 74
0
 42
0.0000001
 43
0.0000001
 44
0.0000000001
 40
0.0
 40
0.0
 40
0.0
 40
0.0
 40
0.1738662351
 40
0.2827194622
 40
0.4061042927
 40
0.6887419003
 40
1.0
 40
1.0
 40
1.0
 40
1.0
 10
403.4666467459
 20
186.3099972012
 30
0.0
 10
403.2217115716
 20
186.3935730239
 30
0.0
 10
402.8804194159
 20
186.6822974665
 30
0.0
 10
402.5409028879
 20
187.1802038892
 30
0.0
 10
402.2051788031
 20
187.8732322836
 30
0.0
 10
401.9243106141
 20
188.9115389852
 30
0.0
 10
401.8493323414
 20
189.7972726511
 30
0.0
 10
401.8493323414
 20
190.2605830102
 30
0.0
  0
SPLINE
  5
3BD
100
AcDbEntity
  8
0
100
AcDbSpline
 62
7
  6
CONTINUOUS
 70
0
 71
3
 72
17
 73
13
 74
0
 42
0.0000001
 43
0.0000001
 44
0.0000000001
 40
0.0
 40
0.0
 40
0.0
 40
0.0
 40
0.0118675406
 40
0.0298487222
 40
0.055735413
 40
0.0899567933
 40
0.1325214562
 40
0.1830897686
 40
0.3063959791
 40
0.4557131266
 40
0.6253657885
 40
1.0
 40
1.0
 40
1.0
 40
1.0
 10
414.4285043593
 20
186.2605830102
 30
0.0
 10
414.4123338916
 20
186.2605830102
 30
0.0
 10
414.3735612201
 20
186.2826291491
 30
0.0
 10
414.3311548495
 20
186.3458987592
 30
0.0
 10
414.286054153
 20
186.4427043632
 30
0.0
 10
414.241554641
 20
186.5754863138
 30
0.0
 10
414.1969367141
 20
186.7432653894
 30
0.0
 10
414.1346655087
 20
187.0316126237
 30
0.0
 10
414.0650725371
 20
187.4667357948
 30
0.0
 10
413.9971580687
 20
188.0656708455
 30
0.0
 10
413.9249582136
 20
189.0081500237
 30
0.0
 10
413.904408083
 20
189.7501141091
 30
0.0
 10
413.904408083
 20
190.2605830102
 30
0.0
  0
SPLINE
  5
3BE
100
AcDbEntity
  8
0
100
AcDbSpline
 62
7
  6
CONTINUOUS
 70
0
 71
3
 72
11
 73
7
 74
0
 42
0.0000001
 43
0.0000001
 44
0.0000000001
 40
0.0
 40
0.0
 40
0.0
 40
0.0
 40
0.2426331465
 40
0.4902383308
 40
0.7433933246
 40
1.0
 40
1.0
 40
1.0
 40
1.0
 10
277.0984428714
 20
269.2605830102
 30
0.0
 10
277.5894696735
 20
269.2605830102
 30
0.0
 10
278.592829783
 20
269.0464376195
 30
0.0
 10
279.8484865761
 20
268.1490364196
 30
0.0
 10
280.6860058034
 20
266.8219943935
 30
0.0
 10
280.8810146379
 20
265.7798886246
 30
0.0
 10
280.8810146379
 20
265.2605830102
 30
0.0
  0
SPLINE
  5
3BF
100
AcDbEntity
  8
0
100
AcDbSpline
 62
7
  6
CONTINUOUS
 70
0
 71
3
 72
13
 73
9
 74
0
 42
0.0000001
 43
0.0000001
 44
0.0000000001
 40
0.0
 40
0.0
 40
0.0
 40
0.0
 40
0.1070877106
 40
0.2177498167
 40
0.3340767697
 40
0.4569850651
 40
0.7205054313
 40
1.0
 40
1.0
 40
1.0
 40
1.0
 10
245.4757544002
 20
269.2605830102
 30
0.0
 10
245.6735693834
 20
269.2605830102
 30
0.0
 10
246.0774722657
 20
269.2062934994
 30
0.0
 10
246.654812954
 20
268.9725763754
 30
0.0
 10
247.1861460858
 20
268.5952373441
 30
0.0
 10
247.8212184575
 20
267.910082114
 30
0.0
 10
248.3828765024
 20
266.7862558829
 30
0.0
 10
248.5332754108
 20
265.7768720702
 30
0.0
 10
248.5332754108
 20
265.2605830102
 30
0.0
  0
SPLINE
  5
3C0
100
AcDbEntity
  8
0
100
AcDbSpline
 62
7
  6
CONTINUOUS
 70
0
 71
3
 72
9
 73
5
 74
0
 42
0.0000001
 43
0.0000001
 44
0.0000000001
 40
0.0
 40
0.0
 40
0.0
 40
0.0
 40
0.24596256
 40
1.0
 40
1.0
 40
1.0
 40
1.0
 10
222.7073548627
 20
269.2605830102
 30
0.0
 10
222.7317682621
 20
269.2605830102
 30
0.0
 10
222.8310068926
 20
269.2563590215
 30
0.0
 10
222.9292979339
 20
269.23503937
 30
0.0
 10
223.0002323867
 20
269.2111688193
 30
0.0
  0
SPLINE
  5
3C1
100
AcDbEntity
  8
0
100
AcDbSpline
 62
7
  6
CONTINUOUS
 70
0
 71
3
 72
12
 73
8
 74
0
 42
0.0000001
 43
0.0000001
 44
0.0000000001
 40
0.0
 40
0.0
 40
0.0
 40
0.0
 40
0.1749515955
 40
0.2839981463
 40
0.4073751466
 40
0.6895406566
 40
1.0
 40
1.0
 40
1.0
 40
1.0
 10
223.0002323867
 20
269.2111688193
 30
0.0
 10
223.247708752
 20
269.1278891589
 30
0.0
 10
223.5936469574
 20
268.8400934866
 30
0.0
 10
223.9383974581
 20
268.3413468688
 30
0.0
 10
224.2785011211
 20
267.6486455652
 30
0.0
 10
224.5632565965
 20
266.6101814434
 30
0.0
 10
224.6392532609
 20
265.7239397614
 30
0.0
 10
224.6392532609
 20
265.2605830102
 30
0.0
  0
SPLINE
  5
3C2
100
AcDbEntity
  8
0
100
AcDbSpline
 62
7
  6
CONTINUOUS
 70
0
 71
3
 72
16
 73
12
 74
0
 42
0.0000001
 43
0.0000001
 44
0.0000000001
 40
0.0
 40
0.0
 40
0.0
 40
0.0
 40
0.0300179592
 40
0.0561705036
 40
0.0905661773
 40
0.1332408206
 40
0.1838704147
 40
0.3071861829
 40
0.4564002513
 40
0.6258695887
 40
1.0
 40
1.0
 40
1.0
 40
1.0
 10
211.7761771781
 20
269.2605830102
 30
0.0
 10
211.8171359051
 20
269.2605830102
 30
0.0
 10
211.8754962884
 20
269.1861143646
 30
0.0
 10
211.9263058477
 20
269.0800546727
 30
0.0
 10
211.9749111936
 20
268.9453630526
 30
0.0
 10
212.0215386327
 20
268.7781929537
 30
0.0
 10
212.0874703809
 20
268.4896242134
 30
0.0
 10
212.1606109378
 20
268.0546833585
 30
0.0
 10
212.2320596552
 20
267.4555992206
 30
0.0
 10
212.3078064021
 20
266.5131786326
 30
0.0
 10
212.3293511453
 20
265.771074256
 30
0.0
 10
212.3293511453
 20
265.2605830102
 30
0.0
  0
SPLINE
  5
3C3
100
AcDbEntity
  8
0
100
AcDbSpline
 62
7
  6
CONTINUOUS
 70
0
 71
3
 72
16
 73
12
 74
0
 42
0.0000001
 43
0.0000001
 44
0.0000000001
 40
0.0
 40
0.0
 40
0.0
 40
0.0
 40
0.0300179592
 40
0.0561705036
 40
0.0905661773
 40
0.1332408206
 40
0.1838704147
 40
0.3071861829
 40
0.4564002513
 40
0.6258695887
 40
1.0
 40
1.0
 40
1.0
 40
1.0
 10
211.7761771781
 20
219.2605830102
 30
0.0
 10
211.8171359051
 20
219.2605830102
 30
0.0
 10
211.8754962884
 20
219.1861143646
 30
0.0
 10
211.9263058477
 20
219.0800546727
 30
0.0
 10
211.9749111936
 20
218.9453630526
 30
0.0
 10
212.0215386327
 20
218.7781929537
 30
0.0
 10
212.0874703809
 20
218.4896242134
 30
0.0
 10
212.1606109378
 20
218.0546833585
 30
0.0
 10
212.2320596552
 20
217.4555992206
 30
0.0
 10
212.3078064021
 20
216.5131786326
 30
0.0
 10
212.3293511453
 20
215.771074256
 30
0.0
 10
212.3293511453
 20
215.2605830102
 30
0.0
  0
SPLINE
  5
3C4
100
AcDbEntity
  8
0
100
AcDbSpline
 62
7
  6
CONTINUOUS
 70
0
 71
3
 72
9
 73
5
 74
0
 42
0.0000001
 43
0.0000001
 44
0.0000000001
 40
0.0
 40
0.0
 40
0.0
 40
0.0
 40
0.24596256
 40
1.0
 40
1.0
 40
1.0
 40
1.0
 10
222.7073548627
 20
219.2605830102
 30
0.0
 10
222.7317682621
 20
219.2605830102
 30
0.0
 10
222.8310068926
 20
219.2563590215
 30
0.0
 10
222.9292979339
 20
219.23503937
 30
0.0
 10
223.0002323867
 20
219.2111688193
 30
0.0
  0
SPLINE
  5
3C5
100
AcDbEntity
  8
0
100
AcDbSpline
 62
7
  6
CONTINUOUS
 70
0
 71
3
 72
12
 73
8
 74
0
 42
0.0000001
 43
0.0000001
 44
0.0000000001
 40
0.0
 40
0.0
 40
0.0
 40
0.0
 40
0.1749515955
 40
0.2839981463
 40
0.4073751466
 40
0.6895406566
 40
1.0
 40
1.0
 40
1.0
 40
1.0
 10
223.0002323867
 20
219.2111688193
 30
0.0
 10
223.247708752
 20
219.1278891589
 30
0.0
 10
223.5936469574
 20
218.8400934866
 30
0.0
 10
223.9383974581
 20
218.3413468688
 30
0.0
 10
224.2785011211
 20
217.6486455652
 30
0.0
 10
224.5632565965
 20
216.6101814434
 30
0.0
 10
224.6392532609
 20
215.7239397614
 30
0.0
 10
224.6392532609
 20
215.2605830102
 30
0.0
  0
SPLINE
  5
3C6
100
AcDbEntity
  8
0
100
AcDbSpline
 62
7
  6
CONTINUOUS
 70
0
 71
3
 72
13
 73
9
 74
0
 42
0.0000001
 43
0.0000001
 44
0.0000000001
 40
0.0
 40
0.0
 40
0.0
 40
0.0
 40
0.1070877106
 40
0.2177498167
 40
0.3340767697
 40
0.4569850651
 40
0.7205054313
 40
1.0
 40
1.0
 40
1.0
 40
1.0
 10
245.4757544002
 20
219.2605830102
 30
0.0
 10
245.6735693834
 20
219.2605830102
 30
0.0
 10
246.0774722657
 20
219.2062934994
 30
0.0
 10
246.654812954
 20
218.9725763754
 30
0.0
 10
247.1861460858
 20
218.5952373441
 30
0.0
 10
247.8212184575
 20
217.910082114
 30
0.0
 10
248.3828765024
 20
216.7862558829
 30
0.0
 10
248.5332754108
 20
215.7768720702
 30
0.0
 10
248.5332754108
 20
215.2605830102
 30
0.0
  0
SPLINE
  5
3C7
100
AcDbEntity
  8
0
100
AcDbSpline
 62
7
  6
CONTINUOUS
 70
0
 71
3
 72
11
 73
7
 74
0
 42
0.0000001
 43
0.0000001
 44
0.0000000001
 40
0.0
 40
0.0
 40
0.0
 40
0.0
 40
0.2426331465
 40
0.4902383308
 40
0.7433933246
 40
1.0
 40
1.0
 40
1.0
 40
1.0
 10
277.0984428714
 20
219.2605830102
 30
0.0
 10
277.5894696735
 20
219.2605830102
 30
0.0
 10
278.592829783
 20
219.0464376195
 30
0.0
 10
279.8484865761
 20
218.1490364196
 30
0.0
 10
280.6860058034
 20
216.8219943935
 30
0.0
 10
280.8810146379
 20
215.7798886246
 30
0.0
 10
280.8810146379
 20
215.2605830102
 30
0.0
  0
SPLINE
  5
3C8
100
AcDbEntity
  8
0
100
AcDbSpline
 62
7
  6
CONTINUOUS
 70
0
 71
3
 72
17
 73
13
 74
0
 42
0.0000001
 43
0.0000001
 44
0.0000000001
 40
0.0
 40
0.0
 40
0.0
 40
0.0
 40
0.0118675406
 40
0.0298487222
 40
0.055735413
 40
0.0899567933
 40
0.1325214562
 40
0.1830897686
 40
0.3063959791
 40
0.4557131266
 40
0.6253657885
 40
1.0
 40
1.0
 40
1.0
 40
1.0
 10
414.4285043593
 20
236.2605830102
 30
0.0
 10
414.4123338916
 20
236.2605830102
 30
0.0
 10
414.3735612201
 20
236.2826291491
 30
0.0
 10
414.3311548495
 20
236.3458987592
 30
0.0
 10
414.286054153
 20
236.4427043632
 30
0.0
 10
414.241554641
 20
236.5754863138
 30
0.0
 10
414.1969367141
 20
236.7432653894
 30
0.0
 10
414.1346655087
 20
237.0316126237
 30
0.0
 10
414.0650725371
 20
237.4667357948
 30
0.0
 10
413.9971580687
 20
238.0656708455
 30
0.0
 10
413.9249582136
 20
239.0081500237
 30
0.0
 10
413.904408083
 20
239.7501141091
 30
0.0
 10
413.904408083
 20
240.2605830102
 30
0.0
  0
SPLINE
  5
3C9
100
AcDbEntity
  8
0
100
AcDbSpline
 62
7
  6
CONTINUOUS
 70
0
 71
3
 72
9
 73
5
 74
0
 42
0.0000001
 43
0.0000001
 44
0.0000000001
 40
0.0
 40
0.0
 40
0.0
 40
0.0
 40
0.2458361622
 40
1.0
 40
1.0
 40
1.0
 40
1.0
 10
403.755459797
 20
236.2605830102
 30
0.0
 10
403.7313864986
 20
236.2605830102
 30
0.0
 10
403.6334798571
 20
236.264809227
 30
0.0
 10
403.5365407779
 20
236.2861482329
 30
0.0
 10
403.4666467459
 20
236.3099972012
 30
0.0
  0
SPLINE
  5
3CA
100
AcDbEntity
  8
0
100
AcDbSpline
 62
7
  6
CONTINUOUS
 70
0
 71
3
 72
12
 73
8
 74
0
 42
0.0000001
 43
0.0000001
 44
0.0000000001
 40
0.0
 40
0.0
 40
0.0
 40
0.0
 40
0.1738662351
 40
0.2827194622
 40
0.4061042927
 40
0.6887419003
 40
1.0
 40
1.0
 40
1.0
 40
1.0
 10
403.4666467459
 20
236.3099972012
 30
0.0
 10
403.2217115716
 20
236.3935730239
 30
0.0
 10
402.8804194159
 20
236.6822974665
 30
0.0
 10
402.5409028879
 20
237.1802038892
 30
0.0
 10
402.2051788031
 20
237.8732322836
 30
0.0
 10
401.9243106141
 20
238.9115389852
 30
0.0
 10
401.8493323414
 20
239.7972726511
 30
0.0
 10
401.8493323414
 20
240.2605830102
 30
0.0
  0
SPLINE
  5
3CB
100
AcDbEntity
  8
0
100
AcDbSpline
 62
7
  6
CONTINUOUS
 70
0
 71
3
 72
13
 73
9
 74
0
 42
0.0000001
 43
0.0000001
 44
0.0000000001
 40
0.0
 40
0.0
 40
0.0
 40
0.0
 40
0.1066761625
 40
0.2170085489
 40
0.3331381988
 40
0.4559997817
 40
0.7198435683
 40
1.0
 40
1.0
 40
1.0
 40
1.0
 10
381.2001678621
 20
236.2605830102
 30
0.0
 10
381.0036060937
 20
236.2605830102
 30
0.0
 10
380.6020685816
 20
236.3149322809
 30
0.0
 10
380.0282952662
 20
236.5487894221
 30
0.0
 10
379.5003167945
 20
236.9262219347
 30
0.0
 10
378.8689417827
 20
237.6118067752
 30
0.0
 10
378.3110442032
 20
238.7357706375
 30
0.0
 10
378.1617347439
 20
239.7443660565
 30
0.0
 10
378.1617347439
 20
240.2605830102
 30
0.0
  0
SPLINE
  5
3CC
100
AcDbEntity
  8
0
100
AcDbSpline
 62
7
  6
CONTINUOUS
 70
0
 71
3
 72
11
 73
7
 74
0
 42
0.0000001
 43
0.0000001
 44
0.0000000001
 40
0.0
 40
0.0
 40
0.0
 40
0.0
 40
0.2423085014
 40
0.4897970041
 40
0.7430899413
 40
1.0
 40
1.0
 40
1.0
 40
1.0
 10
349.7176418267
 20
236.2605830102
 30
0.0
 10
349.2278928909
 20
236.2605830102
 30
0.0
 10
348.2266830755
 20
236.4749813369
 30
0.0
 10
346.9743858063
 20
237.3727351489
 30
0.0
 10
346.1393529753
 20
238.6996736564
 30
0.0
 10
345.9449741599
 20
239.7413217086
 30
0.0
 10
345.9449741599
 20
240.2605830102
 30
0.0
  0
SPLINE
  5
3CD
100
AcDbEntity
  8
0
100
AcDbSpline
 62
7
  6
CONTINUOUS
 70
0
 71
3
 72
11
 73
7
 74
0
 42
0.0000001
 43
0.0000001
 44
0.0000000001
 40
0.0
 40
0.0
 40
0.0
 40
0.0
 40
0.2423085014
 40
0.4897970041
 40
0.7430899413
 40
1.0
 40
1.0
 40
1.0
 40
1.0
 10
349.7176418267
 20
211.2605830102
 30
0.0
 10
349.2278928909
 20
211.2605830102
 30
0.0
 10
348.2266830755
 20
211.4749813369
 30
0.0
 10
346.9743858063
 20
212.3727351489
 30
0.0
 10
346.1393529753
 20
213.6996736564
 30
0.0
 10
345.9449741599
 20
214.7413217086
 30
0.0
 10
345.9449741599
 20
215.2605830102
 30
0.0
  0
SPLINE
  5
3CE
100
AcDbEntity
  8
0
100
AcDbSpline
 62
7
  6
CONTINUOUS
 70
0
 71
3
 72
13
 73
9
 74
0
 42
0.0000001
 43
0.0000001
 44
0.0000000001
 40
0.0
 40
0.0
 40
0.0
 40
0.0
 40
0.1066761625
 40
0.2170085489
 40
0.3331381988
 40
0.4559997817
 40
0.7198435683
 40
1.0
 40
1.0
 40
1.0
 40
1.0
 10
381.2001678621
 20
211.2605830102
 30
0.0
 10
381.0036060937
 20
211.2605830102
 30
0.0
 10
380.6020685816
 20
211.3149322809
 30
0.0
 10
380.0282952662
 20
211.5487894221
 30
0.0
 10
379.5003167945
 20
211.9262219347
 30
0.0
 10
378.8689417827
 20
212.6118067752
 30
0.0
 10
378.3110442032
 20
213.7357706375
 30
0.0
 10
378.1617347439
 20
214.7443660565
 30
0.0
 10
378.1617347439
 20
215.2605830102
 30
0.0
  0
SPLINE
  5
3CF
100
AcDbEntity
  8
0
100
AcDbSpline
 62
7
  6
CONTINUOUS
 70
0
 71
3
 72
9
 73
5
 74
0
 42
0.0000001
 43
0.0000001
 44
0.0000000001
 40
0.0
 40
0.0
 40
0.0
 40
0.0
 40
0.2458361622
 40
1.0
 40
1.0
 40
1.0
 40
1.0
 10
403.755459797
 20
211.2605830102
 30
0.0
 10
403.7313864986
 20
211.2605830102
 30
0.0
 10
403.6334798571
 20
211.264809227
 30
0.0
 10
403.5365407779
 20
211.2861482329
 30
0.0
 10
403.4666467459
 20
211.3099972012
 30
0.0
  0
SPLINE
  5
3D0
100
AcDbEntity
  8
0
100
AcDbSpline
 62
7
  6
CONTINUOUS
 70
0
 71
3
 72
12
 73
8
 74
0
 42
0.0000001
 43
0.0000001
 44
0.0000000001
 40
0.0
 40
0.0
 40
0.0
 40
0.0
 40
0.1738662351
 40
0.2827194622
 40
0.4061042927
 40
0.6887419003
 40
1.0
 40
1.0
 40
1.0
 40
1.0
 10
403.4666467459
 20
211.3099972012
 30
0.0
 10
403.2217115716
 20
211.3935730239
 30
0.0
 10
402.8804194159
 20
211.6822974665
 30
0.0
 10
402.5409028879
 20
212.1802038892
 30
0.0
 10
402.2051788031
 20
212.8732322836
 30
0.0
 10
401.9243106141
 20
213.9115389852
 30
0.0
 10
401.8493323414
 20
214.7972726511
 30
0.0
 10
401.8493323414
 20
215.2605830102
 30
0.0
  0
SPLINE
  5
3D1
100
AcDbEntity
  8
0
100
AcDbSpline
 62
7
  6
CONTINUOUS
 70
0
 71
3
 72
11
 73
7
 74
0
 42
0.0000001
 43
0.0000001
 44
0.0000000001
 40
0.0
 40
0.0
 40
0.0
 40
0.0
 40
0.2426331465
 40
0.4902383308
 40
0.7433933246
 40
1.0
 40
1.0
 40
1.0
 40
1.0
 10
277.0984428714
 20
244.2605830102
 30
0.0
 10
277.5894696735
 20
244.2605830102
 30
0.0
 10
278.592829783
 20
244.0464376195
 30
0.0
 10
279.8484865761
 20
243.1490364196
 30
0.0
 10
280.6860058034
 20
241.8219943935
 30
0.0
 10
280.8810146379
 20
240.7798886246
 30
0.0
 10
280.8810146379
 20
240.2605830102
 30
0.0
  0
SPLINE
  5
3D2
100
AcDbEntity
  8
0
100
AcDbSpline
 62
7
  6
CONTINUOUS
 70
0
 71
3
 72
17
 73
13
 74
0
 42
0.0000001
 43
0.0000001
 44
0.0000000001
 40
0.0
 40
0.0
 40
0.0
 40
0.0
 40
0.0118675406
 40
0.0298487222
 40
0.055735413
 40
0.0899567933
 40
0.1325214562
 40
0.1830897686
 40
0.3063959791
 40
0.4557131266
 40
0.6253657885
 40
1.0
 40
1.0
 40
1.0
 40
1.0
 10
414.4285043593
 20
211.2605830102
 30
0.0
 10
414.4123338916
 20
211.2605830102
 30
0.0
 10
414.3735612201
 20
211.2826291491
 30
0.0
 10
414.3311548495
 20
211.3458987592
 30
0.0
 10
414.286054153
 20
211.4427043632
 30
0.0
 10
414.241554641
 20
211.5754863138
 30
0.0
 10
414.1969367141
 20
211.7432653894
 30
0.0
 10
414.1346655087
 20
212.0316126237
 30
0.0
 10
414.0650725371
 20
212.4667357948
 30
0.0
 10
413.9971580687
 20
213.0656708455
 30
0.0
 10
413.9249582136
 20
214.0081500237
 30
0.0
 10
413.904408083
 20
214.7501141091
 30
0.0
 10
413.904408083
 20
215.2605830102
 30
0.0
  0
SPLINE
  5
3D3
100
AcDbEntity
  8
0
100
AcDbSpline
 62
7
  6
CONTINUOUS
 70
0
 71
3
 72
13
 73
9
 74
0
 42
0.0000001
 43
0.0000001
 44
0.0000000001
 40
0.0
 40
0.0
 40
0.0
 40
0.0
 40
0.1070877106
 40
0.2177498167
 40
0.3340767697
 40
0.4569850651
 40
0.7205054313
 40
1.0
 40
1.0
 40
1.0
 40
1.0
 10
245.4757544002
 20
244.2605830102
 30
0.0
 10
245.6735693834
 20
244.2605830102
 30
0.0
 10
246.0774722657
 20
244.2062934994
 30
0.0
 10
246.654812954
 20
243.9725763754
 30
0.0
 10
247.1861460858
 20
243.5952373441
 30
0.0
 10
247.8212184575
 20
242.910082114
 30
0.0
 10
248.3828765024
 20
241.7862558829
 30
0.0
 10
248.5332754108
 20
240.7768720702
 30
0.0
 10
248.5332754108
 20
240.2605830102
 30
0.0
  0
SPLINE
  5
3D4
100
AcDbEntity
  8
0
100
AcDbSpline
 62
7
  6
CONTINUOUS
 70
0
 71
3
 72
9
 73
5
 74
0
 42
0.0000001
 43
0.0000001
 44
0.0000000001
 40
0.0
 40
0.0
 40
0.0
 40
0.0
 40
0.24596256
 40
1.0
 40
1.0
 40
1.0
 40
1.0
 10
222.7073548627
 20
244.2605830102
 30
0.0
 10
222.7317682621
 20
244.2605830102
 30
0.0
 10
222.8310068926
 20
244.2563590215
 30
0.0
 10
222.9292979339
 20
244.23503937
 30
0.0
 10
223.0002323867
 20
244.2111688193
 30
0.0
  0
SPLINE
  5
3D5
100
AcDbEntity
  8
0
100
AcDbSpline
 62
7
  6
CONTINUOUS
 70
0
 71
3
 72
12
 73
8
 74
0
 42
0.0000001
 43
0.0000001
 44
0.0000000001
 40
0.0
 40
0.0
 40
0.0
 40
0.0
 40
0.1749515955
 40
0.2839981463
 40
0.4073751466
 40
0.6895406566
 40
1.0
 40
1.0
 40
1.0
 40
1.0
 10
223.0002323867
 20
244.2111688193
 30
0.0
 10
223.247708752
 20
244.1278891589
 30
0.0
 10
223.5936469574
 20
243.8400934866
 30
0.0
 10
223.9383974581
 20
243.3413468688
 30
0.0
 10
224.2785011211
 20
242.6486455652
 30
0.0
 10
224.5632565965
 20
241.6101814434
 30
0.0
 10
224.6392532609
 20
240.7239397614
 30
0.0
 10
224.6392532609
 20
240.2605830102
 30
0.0
  0
SPLINE
  5
3D6
100
AcDbEntity
  8
0
100
AcDbSpline
 62
7
  6
CONTINUOUS
 70
0
 71
3
 72
16
 73
12
 74
0
 42
0.0000001
 43
0.0000001
 44
0.0000000001
 40
0.0
 40
0.0
 40
0.0
 40
0.0
 40
0.0300179592
 40
0.0561705036
 40
0.0905661773
 40
0.1332408206
 40
0.1838704147
 40
0.3071861829
 40
0.4564002513
 40
0.6258695887
 40
1.0
 40
1.0
 40
1.0
 40
1.0
 10
211.7761771781
 20
244.2605830102
 30
0.0
 10
211.8171359051
 20
244.2605830102
 30
0.0
 10
211.8754962884
 20
244.1861143646
 30
0.0
 10
211.9263058477
 20
244.0800546727
 30
0.0
 10
211.9749111936
 20
243.9453630526
 30
0.0
 10
212.0215386327
 20
243.7781929537
 30
0.0
 10
212.0874703809
 20
243.4896242134
 30
0.0
 10
212.1606109378
 20
243.0546833585
 30
0.0
 10
212.2320596552
 20
242.4555992206
 30
0.0
 10
212.3078064021
 20
241.5131786326
 30
0.0
 10
212.3293511453
 20
240.771074256
 30
0.0
 10
212.3293511453
 20
240.2605830102
 30
0.0
  0
SPLINE
  5
3D7
100
AcDbEntity
  8
0
100
AcDbSpline
 62
7
  6
CONTINUOUS
 70
0
 71
3
 72
11
 73
7
 74
0
 42
0.0000001
 43
0.0000001
 44
0.0000000001
 40
0.0
 40
0.0
 40
0.0
 40
0.0
 40
0.2424317427
 40
0.4887143122
 40
0.741781331
 40
1.0
 40
1.0
 40
1.0
 40
1.0
 10
349.7176418267
 20
144.2605830102
 30
0.0
 10
350.2046808191
 20
144.2605830102
 30
0.0
 10
351.198671143
 20
144.0485463164
 30
0.0
 10
352.4350016519
 20
143.1461951715
 30
0.0
 10
353.2468374802
 20
141.8165180869
 30
0.0
 10
353.4335627977
 20
140.7793375222
 30
0.0
 10
353.4335627977
 20
140.2605830102
 30
0.0
  0
SPLINE
  5
3D8
100
AcDbEntity
  8
0
100
AcDbSpline
 62
7
  6
CONTINUOUS
 70
0
 71
3
 72
13
 73
9
 74
0
 42
0.0000001
 43
0.0000001
 44
0.0000000001
 40
0.0
 40
0.0
 40
0.0
 40
0.0
 40
0.1071278228
 40
0.2167624749
 40
0.3316398925
 40
0.4533899981
 40
0.717133231
 40
1.0
 40
1.0
 40
1.0
 40
1.0
 10
381.2001678621
 20
144.2605830102
 30
0.0
 10
381.3953842632
 20
144.2605830102
 30
0.0
 10
381.7922197708
 20
144.207162451
 30
0.0
 10
382.3560685815
 20
143.9731606985
 30
0.0
 10
382.8679097838
 20
143.5945801668
 30
0.0
 10
383.4736453174
 20
142.9053508029
 30
0.0
 10
383.9962827241
 20
141.7774115137
 30
0.0
 10
384.1331193338
 20
140.7760441779
 30
0.0
 10
384.1331193338
 20
140.2605830102
 30
0.0
  0
SPLINE
  5
3D9
100
AcDbEntity
  8
0
100
AcDbSpline
 62
7
  6
CONTINUOUS
 70
0
 71
3
 72
16
 73
12
 74
0
 42
0.0000001
 43
0.0000001
 44
0.0000000001
 40
0.0
 40
0.0
 40
0.0
 40
0.0
 40
0.3770793839
 40
0.547522811
 40
0.697192685
 40
0.8203510594
 40
0.8706553247
 40
0.9128408263
 40
0.9465858819
 40
0.9719268878
 40
1.0
 40
1.0
 40
1.0
 40
1.0
 10
414.7956815237
 20
265.2605830102
 30
0.0
 10
414.7956815237
 20
264.7502837188
 30
0.0
 10
414.7862620256
 20
264.009211646
 30
0.0
 10
414.7489158015
 20
263.0664188472
 30
0.0
 10
414.7105821595
 20
262.4676144503
 30
0.0
 10
414.6674311369
 20
262.0325006544
 30
0.0
 10
414.6242707014
 20
261.7433953509
 30
0.0
 10
414.592175851
 20
261.5764598361
 30
0.0
 10
414.5558779456
 20
261.4415288762
 30
0.0
 10
414.5173590896
 20
261.3373298839
 30
0.0
 10
414.4664955354
 20
261.2605830102
 30
0.0
 10
414.4285043593
 20
261.2605830102
 30
0.0
  0
SPLINE
  5
3DA
100
AcDbEntity
  8
0
100
AcDbSpline
 62
7
  6
CONTINUOUS
 70
0
 71
3
 72
14
 73
10
 74
0
 42
0.0000001
 43
0.0000001
 44
0.0000000001
 40
0.0
 40
0.0
 40
0.0
 40
0.0
 40
0.3266878314
 40
0.4775247721
 40
0.6143102419
 40
0.7341176774
 40
0.8361957909
 40
0.9226353121
 40
1.0
 40
1.0
 40
1.0
 40
1.0
 10
405.5211900137
 20
265.2605830102
 30
0.0
 10
405.5211900137
 20
264.7485183122
 30
0.0
 10
405.4627140307
 20
263.9971635551
 30
0.0
 10
405.251709448
 20
263.0563565037
 30
0.0
 10
405.0427530578
 20
262.4510143699
 30
0.0
 10
404.7834364029
 20
261.9494330276
 30
0.0
 10
404.4807325032
 20
261.567238058
 30
0.0
 10
404.1356781953
 20
261.3204509658
 30
0.0
 10
403.8767245694
 20
261.2605830102
 30
0.0
 10
403.755459797
 20
261.2605830102
 30
0.0
  0
SPLINE
  5
3DB
100
AcDbEntity
  8
0
100
AcDbSpline
 62
7
  6
CONTINUOUS
 70
0
 71
3
 72
14
 73
10
 74
0
 42
0.0000001
 43
0.0000001
 44
0.0000000001
 40
0.0
 40
0.0
 40
0.0
 40
0.0
 40
0.0773646879
 40
0.1638042091
 40
0.2658823226
 40
0.3856897581
 40
0.5224752279
 40
0.6733121686
 40
1.0
 40
1.0
 40
1.0
 40
1.0
 10
403.755459797
 20
144.2605830102
 30
0.0
 10
403.8767245694
 20
144.2605830102
 30
0.0
 10
404.1356781953
 20
144.2007150547
 30
0.0
 10
404.4807325032
 20
143.9539279625
 30
0.0
 10
404.7834364029
 20
143.5717329929
 30
0.0
 10
405.0427530578
 20
143.0701516505
 30
0.0
 10
405.251709448
 20
142.4648095167
 30
0.0
 10
405.4627140307
 20
141.5240024654
 30
0.0
 10
405.5211900137
 20
140.7726477083
 30
0.0
 10
405.5211900137
 20
140.2605830102
 30
0.0
  0
SPLINE
  5
3DC
100
AcDbEntity
  8
0
100
AcDbSpline
 62
7
  6
CONTINUOUS
 70
0
 71
3
 72
13
 73
9
 74
0
 42
0.0000001
 43
0.0000001
 44
0.0000000001
 40
0.0
 40
0.0
 40
0.0
 40
0.0
 40
0.282866769
 40
0.5466100019
 40
0.6683601075
 40
0.7832375251
 40
0.8928721772
 40
1.0
 40
1.0
 40
1.0
 40
1.0
 10
384.1331193338
 20
265.2605830102
 30
0.0
 10
384.1331193338
 20
264.7451218426
 30
0.0
 10
383.9962827241
 20
263.7437545068
 30
0.0
 10
383.4736453174
 20
262.6158152176
 30
0.0
 10
382.8679097838
 20
261.9265858537
 30
0.0
 10
382.3560685815
 20
261.5480053219
 30
0.0
 10
381.7922197708
 20
261.3140035695
 30
0.0
 10
381.3953842632
 20
261.2605830102
 30
0.0
 10
381.2001678621
 20
261.2605830102
 30
0.0
  0
SPLINE
  5
3DD
100
AcDbEntity
  8
0
100
AcDbSpline
 62
7
  6
CONTINUOUS
 70
0
 71
3
 72
16
 73
12
 74
0
 42
0.0000001
 43
0.0000001
 44
0.0000000001
 40
0.0
 40
0.0
 40
0.0
 40
0.0
 40
0.0280731122
 40
0.0534141181
 40
0.0871591737
 40
0.1293446753
 40
0.1796489406
 40
0.302807315
 40
0.452477189
 40
0.6229206161
 40
1.0
 40
1.0
 40
1.0
 40
1.0
 10
414.4285043593
 20
144.2605830102
 30
0.0
 10
414.4664955354
 20
144.2605830102
 30
0.0
 10
414.5173590896
 20
144.1838361366
 30
0.0
 10
414.5558779456
 20
144.0796371442
 30
0.0
 10
414.592175851
 20
143.9447061844
 30
0.0
 10
414.6242707014
 20
143.7777706696
 30
0.0
 10
414.6674311369
 20
143.4886653661
 30
0.0
 10
414.7105821595
 20
143.0535515702
 30
0.0
 10
414.7489158015
 20
142.4547471733
 30
0.0
 10
414.7862620256
 20
141.5119543744
 30
0.0
 10
414.7956815237
 20
140.7708823017
 30
0.0
 10
414.7956815237
 20
140.2605830102
 30
0.0
  0
SPLINE
  5
3DE
100
AcDbEntity
  8
0
100
AcDbSpline
 62
7
  6
CONTINUOUS
 70
0
 71
3
 72
11
 73
7
 74
0
 42
0.0000001
 43
0.0000001
 44
0.0000000001
 40
0.0
 40
0.0
 40
0.0
 40
0.0
 40
0.258218669
 40
0.5112856878
 40
0.7575682573
 40
1.0
 40
1.0
 40
1.0
 40
1.0
 10
353.4335627977
 20
265.2605830102
 30
0.0
 10
353.4335627977
 20
264.7418284983
 30
0.0
 10
353.2468374802
 20
263.7046479336
 30
0.0
 10
352.4350016519
 20
262.374970849
 30
0.0
 10
351.198671143
 20
261.4726197041
 30
0.0
 10
350.2046808191
 20
261.2605830102
 30
0.0
 10
349.7176418267
 20
261.2605830102
 30
0.0
  0
SPLINE
  5
3DF
100
AcDbEntity
  8
0
100
AcDbSpline
 62
7
  6
CONTINUOUS
 70
0
 71
3
 72
11
 73
7
 74
0
 42
0.0000001
 43
0.0000001
 44
0.0000000001
 40
0.0
 40
0.0
 40
0.0
 40
0.0
 40
0.2496377995
 40
0.4994608358
 40
0.7495981058
 40
1.0
 40
1.0
 40
1.0
 40
1.0
 10
317.4445298416
 20
265.2605830102
 30
0.0
 10
317.4445298416
 20
264.7402928224
 30
0.0
 10
317.2356979998
 20
263.6878856232
 30
0.0
 10
316.3426250885
 20
262.3581783209
 30
0.0
 10
315.008948284
 20
261.4684387986
 30
0.0
 10
313.9543522039
 20
261.2605830102
 30
0.0
 10
313.432469505
 20
261.2605830102
 30
0.0
  0
SPLINE
  5
3E0
100
AcDbEntity
  8
0
100
AcDbSpline
 62
7
  6
CONTINUOUS
 70
0
 71
3
 72
11
 73
7
 74
0
 42
0.0000001
 43
0.0000001
 44
0.0000000001
 40
0.0
 40
0.0
 40
0.0
 40
0.0
 40
0.2496541327
 40
0.4994840084
 40
0.7496112775
 40
1.0
 40
1.0
 40
1.0
 40
1.0
 10
309.4198319197
 20
265.2605830102
 30
0.0
 10
309.4198319197
 20
265.7504158254
 30
0.0
 10
309.604447777
 20
266.7399834029
 30
0.0
 10
310.3986417661
 20
268.0167059244
 30
0.0
 10
311.6001207992
 20
268.9230915604
 30
0.0
 10
312.5704297606
 20
269.1974044379
 30
0.0
 10
313.0595699052
 20
269.2431447257
 30
0.0
  0
SPLINE
  5
3E1
100
AcDbEntity
  8
0
100
AcDbSpline
 62
7
  6
CONTINUOUS
 70
0
 71
3
 72
11
 73
7
 74
0
 42
0.0000001
 43
0.0000001
 44
0.0000000001
 40
0.0
 40
0.0
 40
0.0
 40
0.0
 40
0.2578879002
 40
0.5108190092
 40
0.7572427033
 40
1.0
 40
1.0
 40
1.0
 40
1.0
 10
273.37153893
 20
265.2605830102
 30
0.0
 10
273.37153893
 20
265.7793901299
 30
0.0
 10
273.5590249661
 20
266.8171073329
 30
0.0
 10
274.3737937029
 20
268.1468581364
 30
0.0
 10
275.6138070692
 20
269.0487541794
 30
0.0
 10
276.6100748102
 20
269.2605830102
 30
0.0
 10
277.0984428714
 20
269.2605830102
 30
0.0
  0
SPLINE
  5
3E2
100
AcDbEntity
  8
0
100
AcDbSpline
 62
7
  6
CONTINUOUS
 70
0
 71
3
 72
13
 73
9
 74
0
 42
0.0000001
 43
0.0000001
 44
0.0000000001
 40
0.0
 40
0.0
 40
0.0
 40
0.0
 40
0.2821755217
 40
0.5455861964
 40
0.6673909574
 40
0.782479755
 40
0.8924573241
 40
1.0
 40
1.0
 40
1.0
 40
1.0
 10
242.5228531369
 20
265.2605830102
 30
0.0
 10
242.5228531369
 20
265.7761176656
 30
0.0
 10
242.660837475
 20
266.778298822
 30
0.0
 10
243.1875283704
 20
267.9061254041
 30
0.0
 10
243.7972084263
 20
268.5948908455
 30
0.0
 10
244.3125471198
 20
268.9733594
 30
0.0
 10
244.8800403357
 20
269.2072098187
 30
0.0
 10
245.2792739399
 20
269.2605830102
 30
0.0
 10
245.4757544002
 20
269.2605830102
 30
0.0
  0
SPLINE
  5
3E3
100
AcDbEntity
  8
0
100
AcDbSpline
 62
7
  6
CONTINUOUS
 70
0
 71
3
 72
14
 73
10
 74
0
 42
0.0000001
 43
0.0000001
 44
0.0000000001
 40
0.0
 40
0.0
 40
0.0
 40
0.0
 40
0.3256380516
 40
0.476090249
 40
0.6126551373
 40
0.7324648633
 40
0.8348202164
 40
0.9218377043
 40
1.0
 40
1.0
 40
1.0
 40
1.0
 10
220.9153216946
 20
265.2605830102
 30
0.0
 10
220.9153216946
 20
265.7727048688
 30
0.0
 10
220.9747804277
 20
266.5243830921
 30
0.0
 10
221.189076871
 20
267.4651072739
 30
0.0
 10
221.401341116
 20
268.0705999143
 30
0.0
 10
221.664757323
 20
268.5723217707
 30
0.0
 10
221.9722475224
 20
268.9545786967
 30
0.0
 10
222.3224413374
 20
269.2010045168
 30
0.0
 10
222.5844312057
 20
269.2605830102
 30
0.0
 10
222.7073548627
 20
269.2605830102
 30
0.0
  0
SPLINE
  5
3E4
100
AcDbEntity
  8
0
100
AcDbSpline
 62
7
  6
CONTINUOUS
 70
0
 71
3
 72
16
 73
12
 74
0
 42
0.0000001
 43
0.0000001
 44
0.0000000001
 40
0.0
 40
0.0
 40
0.0
 40
0.0
 40
0.3763581496
 40
0.5465003989
 40
0.695942717
 40
0.8189819932
 40
0.8692833648
 40
0.9115166847
 40
0.9453783439
 40
0.9709358871
 40
1.0
 40
1.0
 40
1.0
 40
1.0
 10
211.3797899042
 20
265.2605830102
 30
0.0
 10
211.3797899042
 20
265.7708937125
 30
0.0
 10
211.3901942582
 20
266.5120325558
 30
0.0
 10
211.4311390955
 20
267.4548275949
 30
0.0
 10
211.4729637101
 20
268.0536796558
 30
0.0
 10
211.5198231255
 20
268.4888490326
 30
0.0
 10
211.5664392405
 20
268.7778449508
 30
0.0
 10
211.6010613254
 20
268.9449594797
 30
0.0
 10
211.6400672119
 20
269.0796760354
 30
0.0
 10
211.6818338932
 20
269.1855476877
 30
0.0
 10
211.736768631
 20
269.2605830102
 30
0.0
 10
211.7761771781
 20
269.2605830102
 30
0.0
  0
SPLINE
  5
3E5
100
AcDbEntity
  8
0
100
AcDbSpline
 62
7
  6
CONTINUOUS
 70
0
 71
3
 72
16
 73
12
 74
0
 42
0.0000001
 43
0.0000001
 44
0.0000000001
 40
0.0
 40
0.0
 40
0.0
 40
0.0
 40
0.3770793839
 40
0.547522811
 40
0.697192685
 40
0.8203510594
 40
0.8706553247
 40
0.9128408263
 40
0.9465858819
 40
0.9719268878
 40
1.0
 40
1.0
 40
1.0
 40
1.0
 10
414.7956815237
 20
240.2605830102
 30
0.0
 10
414.7956815237
 20
239.7502837188
 30
0.0
 10
414.7862620256
 20
239.009211646
 30
0.0
 10
414.7489158015
 20
238.0664188472
 30
0.0
 10
414.7105821595
 20
237.4676144503
 30
0.0
 10
414.6674311369
 20
237.0325006544
 30
0.0
 10
414.6242707014
 20
236.7433953509
 30
0.0
 10
414.592175851
 20
236.5764598361
 30
0.0
 10
414.5558779456
 20
236.4415288762
 30
0.0
 10
414.5173590896
 20
236.3373298839
 30
0.0
 10
414.4664955354
 20
236.2605830102
 30
0.0
 10
414.4285043593
 20
236.2605830102
 30
0.0
  0
SPLINE
  5
3E6
100
AcDbEntity
  8
0
100
AcDbSpline
 62
7
  6
CONTINUOUS
 70
0
 71
3
 72
14
 73
10
 74
0
 42
0.0000001
 43
0.0000001
 44
0.0000000001
 40
0.0
 40
0.0
 40
0.0
 40
0.0
 40
0.3266878314
 40
0.4775247721
 40
0.6143102419
 40
0.7341176774
 40
0.8361957909
 40
0.9226353121
 40
1.0
 40
1.0
 40
1.0
 40
1.0
 10
405.5211900137
 20
240.2605830102
 30
0.0
 10
405.5211900137
 20
239.7485183122
 30
0.0
 10
405.4627140307
 20
238.9971635551
 30
0.0
 10
405.251709448
 20
238.0563565037
 30
0.0
 10
405.0427530578
 20
237.4510143699
 30
0.0
 10
404.7834364029
 20
236.9494330276
 30
0.0
 10
404.4807325032
 20
236.567238058
 30
0.0
 10
404.1356781953
 20
236.3204509658
 30
0.0
 10
403.8767245694
 20
236.2605830102
 30
0.0
 10
403.755459797
 20
236.2605830102
 30
0.0
  0
SPLINE
  5
3E7
100
AcDbEntity
  8
0
100
AcDbSpline
 62
7
  6
CONTINUOUS
 70
0
 71
3
 72
13
 73
9
 74
0
 42
0.0000001
 43
0.0000001
 44
0.0000000001
 40
0.0
 40
0.0
 40
0.0
 40
0.0
 40
0.282866769
 40
0.5466100019
 40
0.6683601075
 40
0.7832375251
 40
0.8928721772
 40
1.0
 40
1.0
 40
1.0
 40
1.0
 10
384.1331193338
 20
240.2605830102
 30
0.0
 10
384.1331193338
 20
239.7451218426
 30
0.0
 10
383.9962827241
 20
238.7437545068
 30
0.0
 10
383.4736453174
 20
237.6158152176
 30
0.0
 10
382.8679097838
 20
236.9265858537
 30
0.0
 10
382.3560685815
 20
236.5480053219
 30
0.0
 10
381.7922197708
 20
236.3140035695
 30
0.0
 10
381.3953842632
 20
236.2605830102
 30
0.0
 10
381.2001678621
 20
236.2605830102
 30
0.0
  0
SPLINE
  5
3E8
100
AcDbEntity
  8
0
100
AcDbSpline
 62
7
  6
CONTINUOUS
 70
0
 71
3
 72
11
 73
7
 74
0
 42
0.0000001
 43
0.0000001
 44
0.0000000001
 40
0.0
 40
0.0
 40
0.0
 40
0.0
 40
0.258218669
 40
0.5112856878
 40
0.7575682573
 40
1.0
 40
1.0
 40
1.0
 40
1.0
 10
353.4335627977
 20
240.2605830102
 30
0.0
 10
353.4335627977
 20
239.7418284983
 30
0.0
 10
353.2468374802
 20
238.7046479336
 30
0.0
 10
352.4350016519
 20
237.374970849
 30
0.0
 10
351.198671143
 20
236.4726197041
 30
0.0
 10
350.2046808191
 20
236.2605830102
 30
0.0
 10
349.7176418267
 20
236.2605830102
 30
0.0
  0
SPLINE
  5
3E9
100
AcDbEntity
  8
0
100
AcDbSpline
 62
7
  6
CONTINUOUS
 70
0
 71
3
 72
16
 73
12
 74
0
 42
0.0000001
 43
0.0000001
 44
0.0000000001
 40
0.0
 40
0.0
 40
0.0
 40
0.0
 40
0.0290641129
 40
0.0546216561
 40
0.0884833153
 40
0.1307166352
 40
0.1810180068
 40
0.304057283
 40
0.4534996011
 40
0.6236418504
 40
1.0
 40
1.0
 40
1.0
 40
1.0
 10
211.7761771781
 20
161.2605830102
 30
0.0
 10
211.736768631
 20
161.2605830102
 30
0.0
 10
211.6818338932
 20
161.3356183328
 30
0.0
 10
211.6400672119
 20
161.4414899851
 30
0.0
 10
211.6010613254
 20
161.5762065408
 30
0.0
 10
211.5664392405
 20
161.7433210696
 30
0.0
 10
211.5198231255
 20
162.0323169879
 30
0.0
 10
211.4729637101
 20
162.4674863647
 30
0.0
 10
211.4311390955
 20
163.0663384256
 30
0.0
 10
211.3901942582
 20
164.0091334647
 30
0.0
 10
211.3797899042
 20
164.750272308
 30
0.0
 10
211.3797899042
 20
165.2605830102
 30
0.0
  0
SPLINE
  5
3EA
100
AcDbEntity
  8
0
100
AcDbSpline
 62
7
  6
CONTINUOUS
 70
0
 71
3
 72
11
 73
7
 74
0
 42
0.0000001
 43
0.0000001
 44
0.0000000001
 40
0.0
 40
0.0
 40
0.0
 40
0.0
 40
0.2496377995
 40
0.4994608358
 40
0.7495981058
 40
1.0
 40
1.0
 40
1.0
 40
1.0
 10
317.4445298416
 20
240.2605830102
 30
0.0
 10
317.4445298416
 20
239.7402928224
 30
0.0
 10
317.2356979998
 20
238.6878856232
 30
0.0
 10
316.3426250885
 20
237.3581783209
 30
0.0
 10
315.008948284
 20
236.4684387986
 30
0.0
 10
313.9543522039
 20
236.2605830102
 30
0.0
 10
313.432469505
 20
236.2605830102
 30
0.0
  0
SPLINE
  5
3EB
100
AcDbEntity
  8
0
100
AcDbSpline
 62
7
  6
CONTINUOUS
 70
0
 71
3
 72
11
 73
7
 74
0
 42
0.0000001
 43
0.0000001
 44
0.0000000001
 40
0.0
 40
0.0
 40
0.0
 40
0.0
 40
0.2496541327
 40
0.4994840084
 40
0.7496112775
 40
1.0
 40
1.0
 40
1.0
 40
1.0
 10
309.4198319197
 20
240.2605830102
 30
0.0
 10
309.4198319197
 20
240.7504158254
 30
0.0
 10
309.604447777
 20
241.7399834029
 30
0.0
 10
310.3986417661
 20
243.0167059244
 30
0.0
 10
311.6001207992
 20
243.9230915604
 30
0.0
 10
312.5704297606
 20
244.1974044379
 30
0.0
 10
313.0595699052
 20
244.2431447257
 30
0.0
  0
SPLINE
  5
3EC
100
AcDbEntity
  8
0
100
AcDbSpline
 62
7
  6
CONTINUOUS
 70
0
 71
3
 72
14
 73
10
 74
0
 42
0.0000001
 43
0.0000001
 44
0.0000000001
 40
0.0
 40
0.0
 40
0.0
 40
0.0
 40
0.0781622957
 40
0.1651797836
 40
0.2675351367
 40
0.3873448627
 40
0.523909751
 40
0.6743619484
 40
1.0
 40
1.0
 40
1.0
 40
1.0
 10
222.7073548627
 20
161.2605830102
 30
0.0
 10
222.5844312057
 20
161.2605830102
 30
0.0
 10
222.3224413374
 20
161.3201615037
 30
0.0
 10
221.9722475224
 20
161.5665873237
 30
0.0
 10
221.664757323
 20
161.9488442498
 30
0.0
 10
221.401341116
 20
162.4505661062
 30
0.0
 10
221.189076871
 20
163.0560587466
 30
0.0
 10
220.9747804277
 20
163.9967829284
 30
0.0
 10
220.9153216946
 20
164.7484611517
 30
0.0
 10
220.9153216946
 20
165.2605830102
 30
0.0
  0
SPLINE
  5
3ED
100
AcDbEntity
  8
0
100
AcDbSpline
 62
7
  6
CONTINUOUS
 70
0
 71
3
 72
11
 73
7
 74
0
 42
0.0000001
 43
0.0000001
 44
0.0000000001
 40
0.0
 40
0.0
 40
0.0
 40
0.0
 40
0.2578879002
 40
0.5108190092
 40
0.7572427033
 40
1.0
 40
1.0
 40
1.0
 40
1.0
 10
273.37153893
 20
240.2605830102
 30
0.0
 10
273.37153893
 20
240.7793901299
 30
0.0
 10
273.5590249661
 20
241.8171073329
 30
0.0
 10
274.3737937029
 20
243.1468581364
 30
0.0
 10
275.6138070692
 20
244.0487541794
 30
0.0
 10
276.6100748102
 20
244.2605830102
 30
0.0
 10
277.0984428714
 20
244.2605830102
 30
0.0
  0
SPLINE
  5
3EE
100
AcDbEntity
  8
0
100
AcDbSpline
 62
7
  6
CONTINUOUS
 70
0
 71
3
 72
13
 73
9
 74
0
 42
0.0000001
 43
0.0000001
 44
0.0000000001
 40
0.0
 40
0.0
 40
0.0
 40
0.0
 40
0.2821755217
 40
0.5455861964
 40
0.6673909574
 40
0.782479755
 40
0.8924573241
 40
1.0
 40
1.0
 40
1.0
 40
1.0
 10
242.5228531369
 20
240.2605830102
 30
0.0
 10
242.5228531369
 20
240.7761176656
 30
0.0
 10
242.660837475
 20
241.778298822
 30
0.0
 10
243.1875283704
 20
242.9061254041
 30
0.0
 10
243.7972084263
 20
243.5948908455
 30
0.0
 10
244.3125471198
 20
243.9733594
 30
0.0
 10
244.8800403357
 20
244.2072098187
 30
0.0
 10
245.2792739399
 20
244.2605830102
 30
0.0
 10
245.4757544002
 20
244.2605830102
 30
0.0
  0
SPLINE
  5
3EF
100
AcDbEntity
  8
0
100
AcDbSpline
 62
7
  6
CONTINUOUS
 70
0
 71
3
 72
14
 73
10
 74
0
 42
0.0000001
 43
0.0000001
 44
0.0000000001
 40
0.0
 40
0.0
 40
0.0
 40
0.0
 40
0.3256380516
 40
0.476090249
 40
0.6126551373
 40
0.7324648633
 40
0.8348202164
 40
0.9218377043
 40
1.0
 40
1.0
 40
1.0
 40
1.0
 10
220.9153216946
 20
240.2605830102
 30
0.0
 10
220.9153216946
 20
240.7727048688
 30
0.0
 10
220.9747804277
 20
241.5243830921
 30
0.0
 10
221.189076871
 20
242.4651072739
 30
0.0
 10
221.401341116
 20
243.0705999143
 30
0.0
 10
221.664757323
 20
243.5723217707
 30
0.0
 10
221.9722475224
 20
243.9545786967
 30
0.0
 10
222.3224413374
 20
244.2010045168
 30
0.0
 10
222.5844312057
 20
244.2605830102
 30
0.0
 10
222.7073548627
 20
244.2605830102
 30
0.0
  0
SPLINE
  5
3F0
100
AcDbEntity
  8
0
100
AcDbSpline
 62
7
  6
CONTINUOUS
 70
0
 71
3
 72
13
 73
9
 74
0
 42
0.0000001
 43
0.0000001
 44
0.0000000001
 40
0.0
 40
0.0
 40
0.0
 40
0.0
 40
0.1075426759
 40
0.217520245
 40
0.3326090426
 40
0.4544138036
 40
0.7178244783
 40
1.0
 40
1.0
 40
1.0
 40
1.0
 10
245.4757544002
 20
161.2605830102
 30
0.0
 10
245.2792739399
 20
161.2605830102
 30
0.0
 10
244.8800403357
 20
161.3139562018
 30
0.0
 10
244.3125471198
 20
161.5478066205
 30
0.0
 10
243.7972084263
 20
161.926275175
 30
0.0
 10
243.1875283704
 20
162.6150406164
 30
0.0
 10
242.660837475
 20
163.7428671985
 30
0.0
 10
242.5228531369
 20
164.7450483549
 30
0.0
 10
242.5228531369
 20
165.2605830102
 30
0.0
  0
SPLINE
  5
3F1
100
AcDbEntity
  8
0
100
AcDbSpline
 62
7
  6
CONTINUOUS
 70
0
 71
3
 72
16
 73
12
 74
0
 42
0.0000001
 43
0.0000001
 44
0.0000000001
 40
0.0
 40
0.0
 40
0.0
 40
0.0
 40
0.3763581496
 40
0.5465003989
 40
0.695942717
 40
0.8189819932
 40
0.8692833648
 40
0.9115166847
 40
0.9453783439
 40
0.9709358871
 40
1.0
 40
1.0
 40
1.0
 40
1.0
 10
211.3797899042
 20
240.2605830102
 30
0.0
 10
211.3797899042
 20
240.7708937125
 30
0.0
 10
211.3901942582
 20
241.5120325558
 30
0.0
 10
211.4311390955
 20
242.4548275949
 30
0.0
 10
211.4729637101
 20
243.0536796558
 30
0.0
 10
211.5198231255
 20
243.4888490326
 30
0.0
 10
211.5664392405
 20
243.7778449508
 30
0.0
 10
211.6010613254
 20
243.9449594797
 30
0.0
 10
211.6400672119
 20
244.0796760354
 30
0.0
 10
211.6818338932
 20
244.1855476877
 30
0.0
 10
211.736768631
 20
244.2605830102
 30
0.0
 10
211.7761771781
 20
244.2605830102
 30
0.0
  0
SPLINE
  5
3F2
100
AcDbEntity
  8
0
100
AcDbSpline
 62
7
  6
CONTINUOUS
 70
0
 71
3
 72
11
 73
7
 74
0
 42
0.0000001
 43
0.0000001
 44
0.0000000001
 40
0.0
 40
0.0
 40
0.0
 40
0.0
 40
0.2427572967
 40
0.4891809908
 40
0.7421120998
 40
1.0
 40
1.0
 40
1.0
 40
1.0
 10
277.0984428714
 20
161.2605830102
 30
0.0
 10
276.6100748102
 20
161.2605830102
 30
0.0
 10
275.6138070692
 20
161.472411841
 30
0.0
 10
274.3737937029
 20
162.3743078841
 30
0.0
 10
273.5590249661
 20
163.7040586876
 30
0.0
 10
273.37153893
 20
164.7417758906
 30
0.0
 10
273.37153893
 20
165.2605830102
 30
0.0
  0
SPLINE
  5
3F3
100
AcDbEntity
  8
0
100
AcDbSpline
 62
7
  6
CONTINUOUS
 70
0
 71
3
 72
11
 73
7
 74
0
 42
0.0000001
 43
0.0000001
 44
0.0000000001
 40
0.0
 40
0.0
 40
0.0
 40
0.0
 40
0.2504018942
 40
0.5005391642
 40
0.7503622005
 40
1.0
 40
1.0
 40
1.0
 40
1.0
 10
313.432469505
 20
169.2605830102
 30
0.0
 10
313.9543522039
 20
169.2605830102
 30
0.0
 10
315.008948284
 20
169.0527272219
 30
0.0
 10
316.3426250885
 20
168.1629876995
 30
0.0
 10
317.2356979998
 20
166.8332803973
 30
0.0
 10
317.4445298416
 20
165.7808731981
 30
0.0
 10
317.4445298416
 20
165.2605830102
 30
0.0
  0
SPLINE
  5
3F4
100
AcDbEntity
  8
0
100
AcDbSpline
 62
7
  6
CONTINUOUS
 70
0
 71
3
 72
11
 73
7
 74
0
 42
0.0000001
 43
0.0000001
 44
0.0000000001
 40
0.0
 40
0.0
 40
0.0
 40
0.0
 40
0.2503887225
 40
0.5005159916
 40
0.7503458673
 40
1.0
 40
1.0
 40
1.0
 40
1.0
 10
313.0595699052
 20
161.2780212948
 30
0.0
 10
312.5704297606
 20
161.3237615825
 30
0.0
 10
311.6001207992
 20
161.59807446
 30
0.0
 10
310.3986417661
 20
162.5044600961
 30
0.0
 10
309.604447777
 20
163.7811826176
 30
0.0
 10
309.4198319197
 20
164.7707501951
 30
0.0
 10
309.4198319197
 20
165.2605830102
 30
0.0
  0
SPLINE
  5
3F5
100
AcDbEntity
  8
0
100
AcDbSpline
 62
7
  6
CONTINUOUS
 70
0
 71
3
 72
11
 73
7
 74
0
 42
0.0000001
 43
0.0000001
 44
0.0000000001
 40
0.0
 40
0.0
 40
0.0
 40
0.0
 40
0.2424317427
 40
0.4887143122
 40
0.741781331
 40
1.0
 40
1.0
 40
1.0
 40
1.0
 10
349.7176418267
 20
169.2605830102
 30
0.0
 10
350.2046808191
 20
169.2605830102
 30
0.0
 10
351.198671143
 20
169.0485463164
 30
0.0
 10
352.4350016519
 20
168.1461951715
 30
0.0
 10
353.2468374802
 20
166.8165180869
 30
0.0
 10
353.4335627977
 20
165.7793375222
 30
0.0
 10
353.4335627977
 20
165.2605830102
 30
0.0
  0
SPLINE
  5
3F6
100
AcDbEntity
  8
0
100
AcDbSpline
 62
7
  6
CONTINUOUS
 70
0
 71
3
 72
16
 73
12
 74
0
 42
0.0000001
 43
0.0000001
 44
0.0000000001
 40
0.0
 40
0.0
 40
0.0
 40
0.0
 40
0.0280731122
 40
0.0534141181
 40
0.0871591737
 40
0.1293446753
 40
0.1796489406
 40
0.302807315
 40
0.452477189
 40
0.6229206161
 40
1.0
 40
1.0
 40
1.0
 40
1.0
 10
414.4285043593
 20
294.2605830102
 30
0.0
 10
414.4664955354
 20
294.2605830102
 30
0.0
 10
414.5173590896
 20
294.1838361366
 30
0.0
 10
414.5558779456
 20
294.0796371442
 30
0.0
 10
414.592175851
 20
293.9447061844
 30
0.0
 10
414.6242707014
 20
293.7777706696
 30
0.0
 10
414.6674311369
 20
293.4886653661
 30
0.0
 10
414.7105821595
 20
293.0535515702
 30
0.0
 10
414.7489158015
 20
292.4547471733
 30
0.0
 10
414.7862620256
 20
291.5119543744
 30
0.0
 10
414.7956815237
 20
290.7708823017
 30
0.0
 10
414.7956815237
 20
290.2605830102
 30
0.0
  0
SPLINE
  5
3F7
100
AcDbEntity
  8
0
100
AcDbSpline
 62
7
  6
CONTINUOUS
 70
0
 71
3
 72
16
 73
12
 74
0
 42
0.0000001
 43
0.0000001
 44
0.0000000001
 40
0.0
 40
0.0
 40
0.0
 40
0.0
 40
0.3770793839
 40
0.547522811
 40
0.697192685
 40
0.8203510594
 40
0.8706553247
 40
0.9128408263
 40
0.9465858819
 40
0.9719268878
 40
1.0
 40
1.0
 40
1.0
 40
1.0
 10
414.7956815237
 20
215.2605830102
 30
0.0
 10
414.7956815237
 20
214.7502837188
 30
0.0
 10
414.7862620256
 20
214.009211646
 30
0.0
 10
414.7489158015
 20
213.0664188472
 30
0.0
 10
414.7105821595
 20
212.4676144503
 30
0.0
 10
414.6674311369
 20
212.0325006544
 30
0.0
 10
414.6242707014
 20
211.7433953509
 30
0.0
 10
414.592175851
 20
211.5764598361
 30
0.0
 10
414.5558779456
 20
211.4415288762
 30
0.0
 10
414.5173590896
 20
211.3373298839
 30
0.0
 10
414.4664955354
 20
211.2605830102
 30
0.0
 10
414.4285043593
 20
211.2605830102
 30
0.0
  0
SPLINE
  5
3F8
100
AcDbEntity
  8
0
100
AcDbSpline
 62
7
  6
CONTINUOUS
 70
0
 71
3
 72
14
 73
10
 74
0
 42
0.0000001
 43
0.0000001
 44
0.0000000001
 40
0.0
 40
0.0
 40
0.0
 40
0.0
 40
0.3266878314
 40
0.4775247721
 40
0.6143102419
 40
0.7341176774
 40
0.8361957909
 40
0.9226353121
 40
1.0
 40
1.0
 40
1.0
 40
1.0
 10
405.5211900137
 20
215.2605830102
 30
0.0
 10
405.5211900137
 20
214.7485183122
 30
0.0
 10
405.4627140307
 20
213.9971635551
 30
0.0
 10
405.251709448
 20
213.0563565037
 30
0.0
 10
405.0427530578
 20
212.4510143699
 30
0.0
 10
404.7834364029
 20
211.9494330276
 30
0.0
 10
404.4807325032
 20
211.567238058
 30
0.0
 10
404.1356781953
 20
211.3204509658
 30
0.0
 10
403.8767245694
 20
211.2605830102
 30
0.0
 10
403.755459797
 20
211.2605830102
 30
0.0
  0
SPLINE
  5
3F9
100
AcDbEntity
  8
0
100
AcDbSpline
 62
7
  6
CONTINUOUS
 70
0
 71
3
 72
13
 73
9
 74
0
 42
0.0000001
 43
0.0000001
 44
0.0000000001
 40
0.0
 40
0.0
 40
0.0
 40
0.0
 40
0.1071278228
 40
0.2167624749
 40
0.3316398925
 40
0.4533899981
 40
0.717133231
 40
1.0
 40
1.0
 40
1.0
 40
1.0
 10
381.2001678621
 20
169.2605830102
 30
0.0
 10
381.3953842632
 20
169.2605830102
 30
0.0
 10
381.7922197708
 20
169.207162451
 30
0.0
 10
382.3560685815
 20
168.9731606985
 30
0.0
 10
382.8679097838
 20
168.5945801668
 30
0.0
 10
383.4736453174
 20
167.9053508029
 30
0.0
 10
383.9962827241
 20
166.7774115137
 30
0.0
 10
384.1331193338
 20
165.7760441779
 30
0.0
 10
384.1331193338
 20
165.2605830102
 30
0.0
  0
SPLINE
  5
3FA
100
AcDbEntity
  8
0
100
AcDbSpline
 62
7
  6
CONTINUOUS
 70
0
 71
3
 72
14
 73
10
 74
0
 42
0.0000001
 43
0.0000001
 44
0.0000000001
 40
0.0
 40
0.0
 40
0.0
 40
0.0
 40
0.0773646879
 40
0.1638042091
 40
0.2658823226
 40
0.3856897581
 40
0.5224752279
 40
0.6733121686
 40
1.0
 40
1.0
 40
1.0
 40
1.0
 10
403.755459797
 20
294.2605830102
 30
0.0
 10
403.8767245694
 20
294.2605830102
 30
0.0
 10
404.1356781953
 20
294.2007150547
 30
0.0
 10
404.4807325032
 20
293.9539279625
 30
0.0
 10
404.7834364029
 20
293.5717329929
 30
0.0
 10
405.0427530578
 20
293.0701516505
 30
0.0
 10
405.251709448
 20
292.4648095167
 30
0.0
 10
405.4627140307
 20
291.5240024654
 30
0.0
 10
405.5211900137
 20
290.7726477083
 30
0.0
 10
405.5211900137
 20
290.2605830102
 30
0.0
  0
SPLINE
  5
3FB
100
AcDbEntity
  8
0
100
AcDbSpline
 62
7
  6
CONTINUOUS
 70
0
 71
3
 72
13
 73
9
 74
0
 42
0.0000001
 43
0.0000001
 44
0.0000000001
 40
0.0
 40
0.0
 40
0.0
 40
0.0
 40
0.282866769
 40
0.5466100019
 40
0.6683601075
 40
0.7832375251
 40
0.8928721772
 40
1.0
 40
1.0
 40
1.0
 40
1.0
 10
384.1331193338
 20
215.2605830102
 30
0.0
 10
384.1331193338
 20
214.7451218426
 30
0.0
 10
383.9962827241
 20
213.7437545068
 30
0.0
 10
383.4736453174
 20
212.6158152176
 30
0.0
 10
382.8679097838
 20
211.9265858537
 30
0.0
 10
382.3560685815
 20
211.5480053219
 30
0.0
 10
381.7922197708
 20
211.3140035695
 30
0.0
 10
381.3953842632
 20
211.2605830102
 30
0.0
 10
381.2001678621
 20
211.2605830102
 30
0.0
  0
SPLINE
  5
3FC
100
AcDbEntity
  8
0
100
AcDbSpline
 62
7
  6
CONTINUOUS
 70
0
 71
3
 72
11
 73
7
 74
0
 42
0.0000001
 43
0.0000001
 44
0.0000000001
 40
0.0
 40
0.0
 40
0.0
 40
0.0
 40
0.258218669
 40
0.5112856878
 40
0.7575682573
 40
1.0
 40
1.0
 40
1.0
 40
1.0
 10
353.4335627977
 20
215.2605830102
 30
0.0
 10
353.4335627977
 20
214.7418284983
 30
0.0
 10
353.2468374802
 20
213.7046479336
 30
0.0
 10
352.4350016519
 20
212.374970849
 30
0.0
 10
351.198671143
 20
211.4726197041
 30
0.0
 10
350.2046808191
 20
211.2605830102
 30
0.0
 10
349.7176418267
 20
211.2605830102
 30
0.0
  0
SPLINE
  5
3FD
100
AcDbEntity
  8
0
100
AcDbSpline
 62
7
  6
CONTINUOUS
 70
0
 71
3
 72
14
 73
10
 74
0
 42
0.0000001
 43
0.0000001
 44
0.0000000001
 40
0.0
 40
0.0
 40
0.0
 40
0.0
 40
0.0773646879
 40
0.1638042091
 40
0.2658823226
 40
0.3856897581
 40
0.5224752279
 40
0.6733121686
 40
1.0
 40
1.0
 40
1.0
 40
1.0
 10
403.755459797
 20
169.2605830102
 30
0.0
 10
403.8767245694
 20
169.2605830102
 30
0.0
 10
404.1356781953
 20
169.2007150547
 30
0.0
 10
404.4807325032
 20
168.9539279625
 30
0.0
 10
404.7834364029
 20
168.5717329929
 30
0.0
 10
405.0427530578
 20
168.0701516505
 30
0.0
 10
405.251709448
 20
167.4648095167
 30
0.0
 10
405.4627140307
 20
166.5240024654
 30
0.0
 10
405.5211900137
 20
165.7726477083
 30
0.0
 10
405.5211900137
 20
165.2605830102
 30
0.0
  0
SPLINE
  5
3FE
100
AcDbEntity
  8
0
100
AcDbSpline
 62
7
  6
CONTINUOUS
 70
0
 71
3
 72
13
 73
9
 74
0
 42
0.0000001
 43
0.0000001
 44
0.0000000001
 40
0.0
 40
0.0
 40
0.0
 40
0.0
 40
0.1071278228
 40
0.2167624749
 40
0.3316398925
 40
0.4533899981
 40
0.717133231
 40
1.0
 40
1.0
 40
1.0
 40
1.0
 10
381.2001678621
 20
294.2605830102
 30
0.0
 10
381.3953842632
 20
294.2605830102
 30
0.0
 10
381.7922197708
 20
294.207162451
 30
0.0
 10
382.3560685815
 20
293.9731606985
 30
0.0
 10
382.8679097838
 20
293.5945801668
 30
0.0
 10
383.4736453174
 20
292.9053508029
 30
0.0
 10
383.9962827241
 20
291.7774115137
 30
0.0
 10
384.1331193338
 20
290.7760441779
 30
0.0
 10
384.1331193338
 20
290.2605830102
 30
0.0
  0
SPLINE
  5
3FF
100
AcDbEntity
  8
0
100
AcDbSpline
 62
7
  6
CONTINUOUS
 70
0
 71
3
 72
11
 73
7
 74
0
 42
0.0000001
 43
0.0000001
 44
0.0000000001
 40
0.0
 40
0.0
 40
0.0
 40
0.0
 40
0.2496377995
 40
0.4994608358
 40
0.7495981058
 40
1.0
 40
1.0
 40
1.0
 40
1.0
 10
317.4445298416
 20
215.2605830102
 30
0.0
 10
317.4445298416
 20
214.7402928224
 30
0.0
 10
317.2356979998
 20
213.6878856232
 30
0.0
 10
316.3426250885
 20
212.3581783209
 30
0.0
 10
315.008948284
 20
211.4684387986
 30
0.0
 10
313.9543522039
 20
211.2605830102
 30
0.0
 10
313.432469505
 20
211.2605830102
 30
0.0
  0
SPLINE
  5
400
100
AcDbEntity
  8
0
100
AcDbSpline
 62
7
  6
CONTINUOUS
 70
0
 71
3
 72
11
 73
7
 74
0
 42
0.0000001
 43
0.0000001
 44
0.0000000001
 40
0.0
 40
0.0
 40
0.0
 40
0.0
 40
0.2496541327
 40
0.4994840084
 40
0.7496112775
 40
1.0
 40
1.0
 40
1.0
 40
1.0
 10
309.4198319197
 20
215.2605830102
 30
0.0
 10
309.4198319197
 20
215.7504158254
 30
0.0
 10
309.604447777
 20
216.7399834029
 30
0.0
 10
310.3986417661
 20
218.0167059244
 30
0.0
 10
311.6001207992
 20
218.9230915604
 30
0.0
 10
312.5704297606
 20
219.1974044379
 30
0.0
 10
313.0595699052
 20
219.2431447257
 30
0.0
  0
SPLINE
  5
401
100
AcDbEntity
  8
0
100
AcDbSpline
 62
7
  6
CONTINUOUS
 70
0
 71
3
 72
16
 73
12
 74
0
 42
0.0000001
 43
0.0000001
 44
0.0000000001
 40
0.0
 40
0.0
 40
0.0
 40
0.0
 40
0.0280731122
 40
0.0534141181
 40
0.0871591737
 40
0.1293446753
 40
0.1796489406
 40
0.302807315
 40
0.452477189
 40
0.6229206161
 40
1.0
 40
1.0
 40
1.0
 40
1.0
 10
414.4285043593
 20
169.2605830102
 30
0.0
 10
414.4664955354
 20
169.2605830102
 30
0.0
 10
414.5173590896
 20
169.1838361366
 30
0.0
 10
414.5558779456
 20
169.0796371442
 30
0.0
 10
414.592175851
 20
168.9447061844
 30
0.0
 10
414.6242707014
 20
168.7777706696
 30
0.0
 10
414.6674311369
 20
168.4886653661
 30
0.0
 10
414.7105821595
 20
168.0535515702
 30
0.0
 10
414.7489158015
 20
167.4547471733
 30
0.0
 10
414.7862620256
 20
166.5119543744
 30
0.0
 10
414.7956815237
 20
165.7708823017
 30
0.0
 10
414.7956815237
 20
165.2605830102
 30
0.0
  0
SPLINE
  5
402
100
AcDbEntity
  8
0
100
AcDbSpline
 62
7
  6
CONTINUOUS
 70
0
 71
3
 72
11
 73
7
 74
0
 42
0.0000001
 43
0.0000001
 44
0.0000000001
 40
0.0
 40
0.0
 40
0.0
 40
0.0
 40
0.2424317427
 40
0.4887143122
 40
0.741781331
 40
1.0
 40
1.0
 40
1.0
 40
1.0
 10
349.7176418267
 20
294.2605830102
 30
0.0
 10
350.2046808191
 20
294.2605830102
 30
0.0
 10
351.198671143
 20
294.0485463164
 30
0.0
 10
352.4350016519
 20
293.1461951715
 30
0.0
 10
353.2468374802
 20
291.8165180869
 30
0.0
 10
353.4335627977
 20
290.7793375222
 30
0.0
 10
353.4335627977
 20
290.2605830102
 30
0.0
  0
SPLINE
  5
403
100
AcDbEntity
  8
0
100
AcDbSpline
 62
7
  6
CONTINUOUS
 70
0
 71
3
 72
11
 73
7
 74
0
 42
0.0000001
 43
0.0000001
 44
0.0000000001
 40
0.0
 40
0.0
 40
0.0
 40
0.0
 40
0.2578879002
 40
0.5108190092
 40
0.7572427033
 40
1.0
 40
1.0
 40
1.0
 40
1.0
 10
273.37153893
 20
215.2605830102
 30
0.0
 10
273.37153893
 20
215.7793901299
 30
0.0
 10
273.5590249661
 20
216.8171073329
 30
0.0
 10
274.3737937029
 20
218.1468581364
 30
0.0
 10
275.6138070692
 20
219.0487541794
 30
0.0
 10
276.6100748102
 20
219.2605830102
 30
0.0
 10
277.0984428714
 20
219.2605830102
 30
0.0
  0
SPLINE
  5
404
100
AcDbEntity
  8
0
100
AcDbSpline
 62
7
  6
CONTINUOUS
 70
0
 71
3
 72
11
 73
7
 74
0
 42
0.0000001
 43
0.0000001
 44
0.0000000001
 40
0.0
 40
0.0
 40
0.0
 40
0.0
 40
0.2503887225
 40
0.5005159916
 40
0.7503458673
 40
1.0
 40
1.0
 40
1.0
 40
1.0
 10
313.0595699052
 20
286.2780212948
 30
0.0
 10
312.5704297606
 20
286.3237615825
 30
0.0
 10
311.6001207992
 20
286.59807446
 30
0.0
 10
310.3986417661
 20
287.5044600961
 30
0.0
 10
309.604447777
 20
288.7811826176
 30
0.0
 10
309.4198319197
 20
289.7707501951
 30
0.0
 10
309.4198319197
 20
290.2605830102
 30
0.0
  0
SPLINE
  5
405
100
AcDbEntity
  8
0
100
AcDbSpline
 62
7
  6
CONTINUOUS
 70
0
 71
3
 72
13
 73
9
 74
0
 42
0.0000001
 43
0.0000001
 44
0.0000000001
 40
0.0
 40
0.0
 40
0.0
 40
0.0
 40
0.2821755217
 40
0.5455861964
 40
0.6673909574
 40
0.782479755
 40
0.8924573241
 40
1.0
 40
1.0
 40
1.0
 40
1.0
 10
242.5228531369
 20
215.2605830102
 30
0.0
 10
242.5228531369
 20
215.7761176656
 30
0.0
 10
242.660837475
 20
216.778298822
 30
0.0
 10
243.1875283704
 20
217.9061254041
 30
0.0
 10
243.7972084263
 20
218.5948908455
 30
0.0
 10
244.3125471198
 20
218.9733594
 30
0.0
 10
244.8800403357
 20
219.2072098187
 30
0.0
 10
245.2792739399
 20
219.2605830102
 30
0.0
 10
245.4757544002
 20
219.2605830102
 30
0.0
  0
SPLINE
  5
406
100
AcDbEntity
  8
0
100
AcDbSpline
 62
7
  6
CONTINUOUS
 70
0
 71
3
 72
14
 73
10
 74
0
 42
0.0000001
 43
0.0000001
 44
0.0000000001
 40
0.0
 40
0.0
 40
0.0
 40
0.0
 40
0.3256380516
 40
0.476090249
 40
0.6126551373
 40
0.7324648633
 40
0.8348202164
 40
0.9218377043
 40
1.0
 40
1.0
 40
1.0
 40
1.0
 10
220.9153216946
 20
215.2605830102
 30
0.0
 10
220.9153216946
 20
215.7727048688
 30
0.0
 10
220.9747804277
 20
216.5243830921
 30
0.0
 10
221.189076871
 20
217.4651072739
 30
0.0
 10
221.401341116
 20
218.0705999143
 30
0.0
 10
221.664757323
 20
218.5723217707
 30
0.0
 10
221.9722475224
 20
218.9545786967
 30
0.0
 10
222.3224413374
 20
219.2010045168
 30
0.0
 10
222.5844312057
 20
219.2605830102
 30
0.0
 10
222.7073548627
 20
219.2605830102
 30
0.0
  0
SPLINE
  5
407
100
AcDbEntity
  8
0
100
AcDbSpline
 62
7
  6
CONTINUOUS
 70
0
 71
3
 72
11
 73
7
 74
0
 42
0.0000001
 43
0.0000001
 44
0.0000000001
 40
0.0
 40
0.0
 40
0.0
 40
0.0
 40
0.2504018942
 40
0.5005391642
 40
0.7503622005
 40
1.0
 40
1.0
 40
1.0
 40
1.0
 10
313.432469505
 20
294.2605830102
 30
0.0
 10
313.9543522039
 20
294.2605830102
 30
0.0
 10
315.008948284
 20
294.0527272219
 30
0.0
 10
316.3426250885
 20
293.1629876995
 30
0.0
 10
317.2356979998
 20
291.8332803973
 30
0.0
 10
317.4445298416
 20
290.7808731981
 30
0.0
 10
317.4445298416
 20
290.2605830102
 30
0.0
  0
SPLINE
  5
408
100
AcDbEntity
  8
0
100
AcDbSpline
 62
7
  6
CONTINUOUS
 70
0
 71
3
 72
16
 73
12
 74
0
 42
0.0000001
 43
0.0000001
 44
0.0000000001
 40
0.0
 40
0.0
 40
0.0
 40
0.0
 40
0.3763581496
 40
0.5465003989
 40
0.695942717
 40
0.8189819932
 40
0.8692833648
 40
0.9115166847
 40
0.9453783439
 40
0.9709358871
 40
1.0
 40
1.0
 40
1.0
 40
1.0
 10
211.3797899042
 20
215.2605830102
 30
0.0
 10
211.3797899042
 20
215.7708937125
 30
0.0
 10
211.3901942582
 20
216.5120325558
 30
0.0
 10
211.4311390955
 20
217.4548275949
 30
0.0
 10
211.4729637101
 20
218.0536796558
 30
0.0
 10
211.5198231255
 20
218.4888490326
 30
0.0
 10
211.5664392405
 20
218.7778449508
 30
0.0
 10
211.6010613254
 20
218.9449594797
 30
0.0
 10
211.6400672119
 20
219.0796760354
 30
0.0
 10
211.6818338932
 20
219.1855476877
 30
0.0
 10
211.736768631
 20
219.2605830102
 30
0.0
 10
211.7761771781
 20
219.2605830102
 30
0.0
  0
SPLINE
  5
409
100
AcDbEntity
  8
0
100
AcDbSpline
 62
7
  6
CONTINUOUS
 70
0
 71
3
 72
11
 73
7
 74
0
 42
0.0000001
 43
0.0000001
 44
0.0000000001
 40
0.0
 40
0.0
 40
0.0
 40
0.0
 40
0.2427572967
 40
0.4891809908
 40
0.7421120998
 40
1.0
 40
1.0
 40
1.0
 40
1.0
 10
277.0984428714
 20
286.2605830102
 30
0.0
 10
276.6100748102
 20
286.2605830102
 30
0.0
 10
275.6138070692
 20
286.472411841
 30
0.0
 10
274.3737937029
 20
287.3743078841
 30
0.0
 10
273.5590249661
 20
288.7040586876
 30
0.0
 10
273.37153893
 20
289.7417758906
 30
0.0
 10
273.37153893
 20
290.2605830102
 30
0.0
  0
SPLINE
  5
40A
100
AcDbEntity
  8
0
100
AcDbSpline
 62
7
  6
CONTINUOUS
 70
0
 71
3
 72
13
 73
9
 74
0
 42
0.0000001
 43
0.0000001
 44
0.0000000001
 40
0.0
 40
0.0
 40
0.0
 40
0.0
 40
0.1075426759
 40
0.217520245
 40
0.3326090426
 40
0.4544138036
 40
0.7178244783
 40
1.0
 40
1.0
 40
1.0
 40
1.0
 10
245.4757544002
 20
286.2605830102
 30
0.0
 10
245.2792739399
 20
286.2605830102
 30
0.0
 10
244.8800403357
 20
286.3139562018
 30
0.0
 10
244.3125471198
 20
286.5478066205
 30
0.0
 10
243.7972084263
 20
286.926275175
 30
0.0
 10
243.1875283704
 20
287.6150406164
 30
0.0
 10
242.660837475
 20
288.7428671985
 30
0.0
 10
242.5228531369
 20
289.7450483549
 30
0.0
 10
242.5228531369
 20
290.2605830102
 30
0.0
  0
SPLINE
  5
40B
100
AcDbEntity
  8
0
100
AcDbSpline
 62
7
  6
CONTINUOUS
 70
0
 71
3
 72
14
 73
10
 74
0
 42
0.0000001
 43
0.0000001
 44
0.0000000001
 40
0.0
 40
0.0
 40
0.0
 40
0.0
 40
0.0781622957
 40
0.1651797836
 40
0.2675351367
 40
0.3873448627
 40
0.523909751
 40
0.6743619484
 40
1.0
 40
1.0
 40
1.0
 40
1.0
 10
222.7073548627
 20
286.2605830102
 30
0.0
 10
222.5844312057
 20
286.2605830102
 30
0.0
 10
222.3224413374
 20
286.3201615037
 30
0.0
 10
221.9722475224
 20
286.5665873237
 30
0.0
 10
221.664757323
 20
286.9488442498
 30
0.0
 10
221.401341116
 20
287.4505661062
 30
0.0
 10
221.189076871
 20
288.0560587466
 30
0.0
 10
220.9747804277
 20
288.9967829284
 30
0.0
 10
220.9153216946
 20
289.7484611517
 30
0.0
 10
220.9153216946
 20
290.2605830102
 30
0.0
  0
SPLINE
  5
40C
100
AcDbEntity
  8
0
100
AcDbSpline
 62
7
  6
CONTINUOUS
 70
0
 71
3
 72
16
 73
12
 74
0
 42
0.0000001
 43
0.0000001
 44
0.0000000001
 40
0.0
 40
0.0
 40
0.0
 40
0.0
 40
0.0290641129
 40
0.0546216561
 40
0.0884833153
 40
0.1307166352
 40
0.1810180068
 40
0.304057283
 40
0.4534996011
 40
0.6236418504
 40
1.0
 40
1.0
 40
1.0
 40
1.0
 10
211.7761771781
 20
286.2605830102
 30
0.0
 10
211.736768631
 20
286.2605830102
 30
0.0
 10
211.6818338932
 20
286.3356183328
 30
0.0
 10
211.6400672119
 20
286.4414899851
 30
0.0
 10
211.6010613254
 20
286.5762065408
 30
0.0
 10
211.5664392405
 20
286.7433210696
 30
0.0
 10
211.5198231255
 20
287.0323169879
 30
0.0
 10
211.4729637101
 20
287.4674863647
 30
0.0
 10
211.4311390955
 20
288.0663384256
 30
0.0
 10
211.3901942582
 20
289.0091334647
 30
0.0
 10
211.3797899042
 20
289.750272308
 30
0.0
 10
211.3797899042
 20
290.2605830102
 30
0.0
  0
SPLINE
  5
40D
100
AcDbEntity
  8
0
100
AcDbSpline
 62
7
  6
CONTINUOUS
 70
0
 71
3
 72
16
 73
12
 74
0
 42
0.0000001
 43
0.0000001
 44
0.0000000001
 40
0.0
 40
0.0
 40
0.0
 40
0.0
 40
0.3770793839
 40
0.547522811
 40
0.697192685
 40
0.8203510594
 40
0.8706553247
 40
0.9128408263
 40
0.9465858819
 40
0.9719268878
 40
1.0
 40
1.0
 40
1.0
 40
1.0
 10
414.7956815237
 20
190.2605830102
 30
0.0
 10
414.7956815237
 20
189.7502837188
 30
0.0
 10
414.7862620256
 20
189.009211646
 30
0.0
 10
414.7489158015
 20
188.0664188472
 30
0.0
 10
414.7105821595
 20
187.4676144503
 30
0.0
 10
414.6674311369
 20
187.0325006544
 30
0.0
 10
414.6242707014
 20
186.7433953509
 30
0.0
 10
414.592175851
 20
186.5764598361
 30
0.0
 10
414.5558779456
 20
186.4415288762
 30
0.0
 10
414.5173590896
 20
186.3373298839
 30
0.0
 10
414.4664955354
 20
186.2605830102
 30
0.0
 10
414.4285043593
 20
186.2605830102
 30
0.0
  0
SPLINE
  5
40E
100
AcDbEntity
  8
0
100
AcDbSpline
 62
7
  6
CONTINUOUS
 70
0
 71
3
 72
14
 73
10
 74
0
 42
0.0000001
 43
0.0000001
 44
0.0000000001
 40
0.0
 40
0.0
 40
0.0
 40
0.0
 40
0.3266878314
 40
0.4775247721
 40
0.6143102419
 40
0.7341176774
 40
0.8361957909
 40
0.9226353121
 40
1.0
 40
1.0
 40
1.0
 40
1.0
 10
405.5211900137
 20
190.2605830102
 30
0.0
 10
405.5211900137
 20
189.7485183122
 30
0.0
 10
405.4627140307
 20
188.9971635551
 30
0.0
 10
405.251709448
 20
188.0563565037
 30
0.0
 10
405.0427530578
 20
187.4510143699
 30
0.0
 10
404.7834364029
 20
186.9494330276
 30
0.0
 10
404.4807325032
 20
186.567238058
 30
0.0
 10
404.1356781953
 20
186.3204509658
 30
0.0
 10
403.8767245694
 20
186.2605830102
 30
0.0
 10
403.755459797
 20
186.2605830102
 30
0.0
  0
SPLINE
  5
40F
100
AcDbEntity
  8
0
100
AcDbSpline
 62
7
  6
CONTINUOUS
 70
0
 71
3
 72
13
 73
9
 74
0
 42
0.0000001
 43
0.0000001
 44
0.0000000001
 40
0.0
 40
0.0
 40
0.0
 40
0.0
 40
0.282866769
 40
0.5466100019
 40
0.6683601075
 40
0.7832375251
 40
0.8928721772
 40
1.0
 40
1.0
 40
1.0
 40
1.0
 10
384.1331193338
 20
190.2605830102
 30
0.0
 10
384.1331193338
 20
189.7451218426
 30
0.0
 10
383.9962827241
 20
188.7437545068
 30
0.0
 10
383.4736453174
 20
187.6158152176
 30
0.0
 10
382.8679097838
 20
186.9265858537
 30
0.0
 10
382.3560685815
 20
186.5480053219
 30
0.0
 10
381.7922197708
 20
186.3140035695
 30
0.0
 10
381.3953842632
 20
186.2605830102
 30
0.0
 10
381.2001678621
 20
186.2605830102
 30
0.0
  0
SPLINE
  5
410
100
AcDbEntity
  8
0
100
AcDbSpline
 62
7
  6
CONTINUOUS
 70
0
 71
3
 72
11
 73
7
 74
0
 42
0.0000001
 43
0.0000001
 44
0.0000000001
 40
0.0
 40
0.0
 40
0.0
 40
0.0
 40
0.258218669
 40
0.5112856878
 40
0.7575682573
 40
1.0
 40
1.0
 40
1.0
 40
1.0
 10
353.4335627977
 20
190.2605830102
 30
0.0
 10
353.4335627977
 20
189.7418284983
 30
0.0
 10
353.2468374802
 20
188.7046479336
 30
0.0
 10
352.4350016519
 20
187.374970849
 30
0.0
 10
351.198671143
 20
186.4726197041
 30
0.0
 10
350.2046808191
 20
186.2605830102
 30
0.0
 10
349.7176418267
 20
186.2605830102
 30
0.0
  0
SPLINE
  5
411
100
AcDbEntity
  8
0
100
AcDbSpline
 62
7
  6
CONTINUOUS
 70
0
 71
3
 72
11
 73
7
 74
0
 42
0.0000001
 43
0.0000001
 44
0.0000000001
 40
0.0
 40
0.0
 40
0.0
 40
0.0
 40
0.2496377995
 40
0.4994608358
 40
0.7495981058
 40
1.0
 40
1.0
 40
1.0
 40
1.0
 10
317.4445298416
 20
190.2605830102
 30
0.0
 10
317.4445298416
 20
189.7402928224
 30
0.0
 10
317.2356979998
 20
188.6878856232
 30
0.0
 10
316.3426250885
 20
187.3581783209
 30
0.0
 10
315.008948284
 20
186.4684387986
 30
0.0
 10
313.9543522039
 20
186.2605830102
 30
0.0
 10
313.432469505
 20
186.2605830102
 30
0.0
  0
SPLINE
  5
412
100
AcDbEntity
  8
0
100
AcDbSpline
 62
7
  6
CONTINUOUS
 70
0
 71
3
 72
11
 73
7
 74
0
 42
0.0000001
 43
0.0000001
 44
0.0000000001
 40
0.0
 40
0.0
 40
0.0
 40
0.0
 40
0.2496541327
 40
0.4994840084
 40
0.7496112775
 40
1.0
 40
1.0
 40
1.0
 40
1.0
 10
309.4198319197
 20
190.2605830102
 30
0.0
 10
309.4198319197
 20
190.7504158254
 30
0.0
 10
309.604447777
 20
191.7399834029
 30
0.0
 10
310.3986417661
 20
193.0167059244
 30
0.0
 10
311.6001207992
 20
193.9230915604
 30
0.0
 10
312.5704297606
 20
194.1974044379
 30
0.0
 10
313.0595699052
 20
194.2431447257
 30
0.0
  0
SPLINE
  5
413
100
AcDbEntity
  8
0
100
AcDbSpline
 62
7
  6
CONTINUOUS
 70
0
 71
3
 72
11
 73
7
 74
0
 42
0.0000001
 43
0.0000001
 44
0.0000000001
 40
0.0
 40
0.0
 40
0.0
 40
0.0
 40
0.2578879002
 40
0.5108190092
 40
0.7572427033
 40
1.0
 40
1.0
 40
1.0
 40
1.0
 10
273.37153893
 20
190.2605830102
 30
0.0
 10
273.37153893
 20
190.7793901299
 30
0.0
 10
273.5590249661
 20
191.8171073329
 30
0.0
 10
274.3737937029
 20
193.1468581364
 30
0.0
 10
275.6138070692
 20
194.0487541794
 30
0.0
 10
276.6100748102
 20
194.2605830102
 30
0.0
 10
277.0984428714
 20
194.2605830102
 30
0.0
  0
SPLINE
  5
414
100
AcDbEntity
  8
0
100
AcDbSpline
 62
7
  6
CONTINUOUS
 70
0
 71
3
 72
13
 73
9
 74
0
 42
0.0000001
 43
0.0000001
 44
0.0000000001
 40
0.0
 40
0.0
 40
0.0
 40
0.0
 40
0.2821755217
 40
0.5455861964
 40
0.6673909574
 40
0.782479755
 40
0.8924573241
 40
1.0
 40
1.0
 40
1.0
 40
1.0
 10
242.5228531369
 20
190.2605830102
 30
0.0
 10
242.5228531369
 20
190.7761176656
 30
0.0
 10
242.660837475
 20
191.778298822
 30
0.0
 10
243.1875283704
 20
192.9061254041
 30
0.0
 10
243.7972084263
 20
193.5948908455
 30
0.0
 10
244.3125471198
 20
193.9733594
 30
0.0
 10
244.8800403357
 20
194.2072098187
 30
0.0
 10
245.2792739399
 20
194.2605830102
 30
0.0
 10
245.4757544002
 20
194.2605830102
 30
0.0
  0
SPLINE
  5
415
100
AcDbEntity
  8
0
100
AcDbSpline
 62
7
  6
CONTINUOUS
 70
0
 71
3
 72
14
 73
10
 74
0
 42
0.0000001
 43
0.0000001
 44
0.0000000001
 40
0.0
 40
0.0
 40
0.0
 40
0.0
 40
0.3256380516
 40
0.476090249
 40
0.6126551373
 40
0.7324648633
 40
0.8348202164
 40
0.9218377043
 40
1.0
 40
1.0
 40
1.0
 40
1.0
 10
220.9153216946
 20
190.2605830102
 30
0.0
 10
220.9153216946
 20
190.7727048688
 30
0.0
 10
220.9747804277
 20
191.5243830921
 30
0.0
 10
221.189076871
 20
192.4651072739
 30
0.0
 10
221.401341116
 20
193.0705999143
 30
0.0
 10
221.664757323
 20
193.5723217707
 30
0.0
 10
221.9722475224
 20
193.9545786967
 30
0.0
 10
222.3224413374
 20
194.2010045168
 30
0.0
 10
222.5844312057
 20
194.2605830102
 30
0.0
 10
222.7073548627
 20
194.2605830102
 30
0.0
  0
SPLINE
  5
416
100
AcDbEntity
  8
0
100
AcDbSpline
 62
7
  6
CONTINUOUS
 70
0
 71
3
 72
16
 73
12
 74
0
 42
0.0000001
 43
0.0000001
 44
0.0000000001
 40
0.0
 40
0.0
 40
0.0
 40
0.0
 40
0.3763581496
 40
0.5465003989
 40
0.695942717
 40
0.8189819932
 40
0.8692833648
 40
0.9115166847
 40
0.9453783439
 40
0.9709358871
 40
1.0
 40
1.0
 40
1.0
 40
1.0
 10
211.3797899042
 20
190.2605830102
 30
0.0
 10
211.3797899042
 20
190.7708937125
 30
0.0
 10
211.3901942582
 20
191.5120325558
 30
0.0
 10
211.4311390955
 20
192.4548275949
 30
0.0
 10
211.4729637101
 20
193.0536796558
 30
0.0
 10
211.5198231255
 20
193.4888490326
 30
0.0
 10
211.5664392405
 20
193.7778449508
 30
0.0
 10
211.6010613254
 20
193.9449594797
 30
0.0
 10
211.6400672119
 20
194.0796760354
 30
0.0
 10
211.6818338932
 20
194.1855476877
 30
0.0
 10
211.736768631
 20
194.2605830102
 30
0.0
 10
211.7761771781
 20
194.2605830102
 30
0.0
  0
SPLINE
  5
417
100
AcDbEntity
  8
0
100
AcDbSpline
 62
7
  6
CONTINUOUS
 70
0
 71
3
 72
16
 73
12
 74
0
 42
0.0000001
 43
0.0000001
 44
0.0000000001
 40
0.0
 40
0.0
 40
0.0
 40
0.0
 40
0.0290641129
 40
0.0546216561
 40
0.0884833153
 40
0.1307166352
 40
0.1810180068
 40
0.304057283
 40
0.4534996011
 40
0.6236418504
 40
1.0
 40
1.0
 40
1.0
 40
1.0
 10
211.7761771781
 20
186.2605830102
 30
0.0
 10
211.736768631
 20
186.2605830102
 30
0.0
 10
211.6818338932
 20
186.3356183328
 30
0.0
 10
211.6400672119
 20
186.4414899851
 30
0.0
 10
211.6010613254
 20
186.5762065408
 30
0.0
 10
211.5664392405
 20
186.7433210696
 30
0.0
 10
211.5198231255
 20
187.0323169879
 30
0.0
 10
211.4729637101
 20
187.4674863647
 30
0.0
 10
211.4311390955
 20
188.0663384256
 30
0.0
 10
211.3901942582
 20
189.0091334647
 30
0.0
 10
211.3797899042
 20
189.750272308
 30
0.0
 10
211.3797899042
 20
190.2605830102
 30
0.0
  0
SPLINE
  5
418
100
AcDbEntity
  8
0
100
AcDbSpline
 62
7
  6
CONTINUOUS
 70
0
 71
3
 72
14
 73
10
 74
0
 42
0.0000001
 43
0.0000001
 44
0.0000000001
 40
0.0
 40
0.0
 40
0.0
 40
0.0
 40
0.0781622957
 40
0.1651797836
 40
0.2675351367
 40
0.3873448627
 40
0.523909751
 40
0.6743619484
 40
1.0
 40
1.0
 40
1.0
 40
1.0
 10
222.7073548627
 20
186.2605830102
 30
0.0
 10
222.5844312057
 20
186.2605830102
 30
0.0
 10
222.3224413374
 20
186.3201615037
 30
0.0
 10
221.9722475224
 20
186.5665873237
 30
0.0
 10
221.664757323
 20
186.9488442498
 30
0.0
 10
221.401341116
 20
187.4505661062
 30
0.0
 10
221.189076871
 20
188.0560587466
 30
0.0
 10
220.9747804277
 20
188.9967829284
 30
0.0
 10
220.9153216946
 20
189.7484611517
 30
0.0
 10
220.9153216946
 20
190.2605830102
 30
0.0
  0
SPLINE
  5
419
100
AcDbEntity
  8
0
100
AcDbSpline
 62
7
  6
CONTINUOUS
 70
0
 71
3
 72
13
 73
9
 74
0
 42
0.0000001
 43
0.0000001
 44
0.0000000001
 40
0.0
 40
0.0
 40
0.0
 40
0.0
 40
0.1075426759
 40
0.217520245
 40
0.3326090426
 40
0.4544138036
 40
0.7178244783
 40
1.0
 40
1.0
 40
1.0
 40
1.0
 10
245.4757544002
 20
186.2605830102
 30
0.0
 10
245.2792739399
 20
186.2605830102
 30
0.0
 10
244.8800403357
 20
186.3139562018
 30
0.0
 10
244.3125471198
 20
186.5478066205
 30
0.0
 10
243.7972084263
 20
186.926275175
 30
0.0
 10
243.1875283704
 20
187.6150406164
 30
0.0
 10
242.660837475
 20
188.7428671985
 30
0.0
 10
242.5228531369
 20
189.7450483549
 30
0.0
 10
242.5228531369
 20
190.2605830102
 30
0.0
  0
SPLINE
  5
41A
100
AcDbEntity
  8
0
100
AcDbSpline
 62
7
  6
CONTINUOUS
 70
0
 71
3
 72
11
 73
7
 74
0
 42
0.0000001
 43
0.0000001
 44
0.0000000001
 40
0.0
 40
0.0
 40
0.0
 40
0.0
 40
0.2427572967
 40
0.4891809908
 40
0.7421120998
 40
1.0
 40
1.0
 40
1.0
 40
1.0
 10
277.0984428714
 20
186.2605830102
 30
0.0
 10
276.6100748102
 20
186.2605830102
 30
0.0
 10
275.6138070692
 20
186.472411841
 30
0.0
 10
274.3737937029
 20
187.3743078841
 30
0.0
 10
273.5590249661
 20
188.7040586876
 30
0.0
 10
273.37153893
 20
189.7417758906
 30
0.0
 10
273.37153893
 20
190.2605830102
 30
0.0
  0
SPLINE
  5
41B
100
AcDbEntity
  8
0
100
AcDbSpline
 62
7
  6
CONTINUOUS
 70
0
 71
3
 72
16
 73
12
 74
0
 42
0.0000001
 43
0.0000001
 44
0.0000000001
 40
0.0
 40
0.0
 40
0.0
 40
0.0
 40
0.3770793839
 40
0.547522811
 40
0.697192685
 40
0.8203510594
 40
0.8706553247
 40
0.9128408263
 40
0.9465858819
 40
0.9719268878
 40
1.0
 40
1.0
 40
1.0
 40
1.0
 10
414.7956815237
 20
165.2605830102
 30
0.0
 10
414.7956815237
 20
164.7502837188
 30
0.0
 10
414.7862620256
 20
164.009211646
 30
0.0
 10
414.7489158015
 20
163.0664188472
 30
0.0
 10
414.7105821595
 20
162.4676144503
 30
0.0
 10
414.6674311369
 20
162.0325006544
 30
0.0
 10
414.6242707014
 20
161.7433953509
 30
0.0
 10
414.592175851
 20
161.5764598361
 30
0.0
 10
414.5558779456
 20
161.4415288762
 30
0.0
 10
414.5173590896
 20
161.3373298839
 30
0.0
 10
414.4664955354
 20
161.2605830102
 30
0.0
 10
414.4285043593
 20
161.2605830102
 30
0.0
  0
SPLINE
  5
41C
100
AcDbEntity
  8
0
100
AcDbSpline
 62
7
  6
CONTINUOUS
 70
0
 71
3
 72
11
 73
7
 74
0
 42
0.0000001
 43
0.0000001
 44
0.0000000001
 40
0.0
 40
0.0
 40
0.0
 40
0.0
 40
0.2504018942
 40
0.5005391642
 40
0.7503622005
 40
1.0
 40
1.0
 40
1.0
 40
1.0
 10
313.432469505
 20
194.2605830102
 30
0.0
 10
313.9543522039
 20
194.2605830102
 30
0.0
 10
315.008948284
 20
194.0527272219
 30
0.0
 10
316.3426250885
 20
193.1629876995
 30
0.0
 10
317.2356979998
 20
191.8332803973
 30
0.0
 10
317.4445298416
 20
190.7808731981
 30
0.0
 10
317.4445298416
 20
190.2605830102
 30
0.0
  0
SPLINE
  5
41D
100
AcDbEntity
  8
0
100
AcDbSpline
 62
7
  6
CONTINUOUS
 70
0
 71
3
 72
14
 73
10
 74
0
 42
0.0000001
 43
0.0000001
 44
0.0000000001
 40
0.0
 40
0.0
 40
0.0
 40
0.0
 40
0.3266878314
 40
0.4775247721
 40
0.6143102419
 40
0.7341176774
 40
0.8361957909
 40
0.9226353121
 40
1.0
 40
1.0
 40
1.0
 40
1.0
 10
405.5211900137
 20
165.2605830102
 30
0.0
 10
405.5211900137
 20
164.7485183122
 30
0.0
 10
405.4627140307
 20
163.9971635551
 30
0.0
 10
405.251709448
 20
163.0563565037
 30
0.0
 10
405.0427530578
 20
162.4510143699
 30
0.0
 10
404.7834364029
 20
161.9494330276
 30
0.0
 10
404.4807325032
 20
161.567238058
 30
0.0
 10
404.1356781953
 20
161.3204509658
 30
0.0
 10
403.8767245694
 20
161.2605830102
 30
0.0
 10
403.755459797
 20
161.2605830102
 30
0.0
  0
SPLINE
  5
41E
100
AcDbEntity
  8
0
100
AcDbSpline
 62
7
  6
CONTINUOUS
 70
0
 71
3
 72
13
 73
9
 74
0
 42
0.0000001
 43
0.0000001
 44
0.0000000001
 40
0.0
 40
0.0
 40
0.0
 40
0.0
 40
0.282866769
 40
0.5466100019
 40
0.6683601075
 40
0.7832375251
 40
0.8928721772
 40
1.0
 40
1.0
 40
1.0
 40
1.0
 10
384.1331193338
 20
165.2605830102
 30
0.0
 10
384.1331193338
 20
164.7451218426
 30
0.0
 10
383.9962827241
 20
163.7437545068
 30
0.0
 10
383.4736453174
 20
162.6158152176
 30
0.0
 10
382.8679097838
 20
161.9265858537
 30
0.0
 10
382.3560685815
 20
161.5480053219
 30
0.0
 10
381.7922197708
 20
161.3140035695
 30
0.0
 10
381.3953842632
 20
161.2605830102
 30
0.0
 10
381.2001678621
 20
161.2605830102
 30
0.0
  0
SPLINE
  5
41F
100
AcDbEntity
  8
0
100
AcDbSpline
 62
7
  6
CONTINUOUS
 70
0
 71
3
 72
16
 73
12
 74
0
 42
0.0000001
 43
0.0000001
 44
0.0000000001
 40
0.0
 40
0.0
 40
0.0
 40
0.0
 40
0.0280731122
 40
0.0534141181
 40
0.0871591737
 40
0.1293446753
 40
0.1796489406
 40
0.302807315
 40
0.452477189
 40
0.6229206161
 40
1.0
 40
1.0
 40
1.0
 40
1.0
 10
414.4285043593
 20
269.2605830102
 30
0.0
 10
414.4664955354
 20
269.2605830102
 30
0.0
 10
414.5173590896
 20
269.1838361366
 30
0.0
 10
414.5558779456
 20
269.0796371442
 30
0.0
 10
414.592175851
 20
268.9447061844
 30
0.0
 10
414.6242707014
 20
268.7777706696
 30
0.0
 10
414.6674311369
 20
268.4886653661
 30
0.0
 10
414.7105821595
 20
268.0535515702
 30
0.0
 10
414.7489158015
 20
267.4547471733
 30
0.0
 10
414.7862620256
 20
266.5119543744
 30
0.0
 10
414.7956815237
 20
265.7708823017
 30
0.0
 10
414.7956815237
 20
265.2605830102
 30
0.0
  0
SPLINE
  5
420
100
AcDbEntity
  8
0
100
AcDbSpline
 62
7
  6
CONTINUOUS
 70
0
 71
3
 72
11
 73
7
 74
0
 42
0.0000001
 43
0.0000001
 44
0.0000000001
 40
0.0
 40
0.0
 40
0.0
 40
0.0
 40
0.258218669
 40
0.5112856878
 40
0.7575682573
 40
1.0
 40
1.0
 40
1.0
 40
1.0
 10
353.4335627977
 20
165.2605830102
 30
0.0
 10
353.4335627977
 20
164.7418284983
 30
0.0
 10
353.2468374802
 20
163.7046479336
 30
0.0
 10
352.4350016519
 20
162.374970849
 30
0.0
 10
351.198671143
 20
161.4726197041
 30
0.0
 10
350.2046808191
 20
161.2605830102
 30
0.0
 10
349.7176418267
 20
161.2605830102
 30
0.0
  0
SPLINE
  5
421
100
AcDbEntity
  8
0
100
AcDbSpline
 62
7
  6
CONTINUOUS
 70
0
 71
3
 72
11
 73
7
 74
0
 42
0.0000001
 43
0.0000001
 44
0.0000000001
 40
0.0
 40
0.0
 40
0.0
 40
0.0
 40
0.2503887225
 40
0.5005159916
 40
0.7503458673
 40
1.0
 40
1.0
 40
1.0
 40
1.0
 10
313.0595699052
 20
186.2780212948
 30
0.0
 10
312.5704297606
 20
186.3237615825
 30
0.0
 10
311.6001207992
 20
186.59807446
 30
0.0
 10
310.3986417661
 20
187.5044600961
 30
0.0
 10
309.604447777
 20
188.7811826176
 30
0.0
 10
309.4198319197
 20
189.7707501951
 30
0.0
 10
309.4198319197
 20
190.2605830102
 30
0.0
  0
SPLINE
  5
422
100
AcDbEntity
  8
0
100
AcDbSpline
 62
7
  6
CONTINUOUS
 70
0
 71
3
 72
11
 73
7
 74
0
 42
0.0000001
 43
0.0000001
 44
0.0000000001
 40
0.0
 40
0.0
 40
0.0
 40
0.0
 40
0.2496377995
 40
0.4994608358
 40
0.7495981058
 40
1.0
 40
1.0
 40
1.0
 40
1.0
 10
317.4445298416
 20
165.2605830102
 30
0.0
 10
317.4445298416
 20
164.7402928224
 30
0.0
 10
317.2356979998
 20
163.6878856232
 30
0.0
 10
316.3426250885
 20
162.3581783209
 30
0.0
 10
315.008948284
 20
161.4684387986
 30
0.0
 10
313.9543522039
 20
161.2605830102
 30
0.0
 10
313.432469505
 20
161.2605830102
 30
0.0
  0
SPLINE
  5
423
100
AcDbEntity
  8
0
100
AcDbSpline
 62
7
  6
CONTINUOUS
 70
0
 71
3
 72
14
 73
10
 74
0
 42
0.0000001
 43
0.0000001
 44
0.0000000001
 40
0.0
 40
0.0
 40
0.0
 40
0.0
 40
0.0773646879
 40
0.1638042091
 40
0.2658823226
 40
0.3856897581
 40
0.5224752279
 40
0.6733121686
 40
1.0
 40
1.0
 40
1.0
 40
1.0
 10
403.755459797
 20
269.2605830102
 30
0.0
 10
403.8767245694
 20
269.2605830102
 30
0.0
 10
404.1356781953
 20
269.2007150547
 30
0.0
 10
404.4807325032
 20
268.9539279625
 30
0.0
 10
404.7834364029
 20
268.5717329929
 30
0.0
 10
405.0427530578
 20
268.0701516505
 30
0.0
 10
405.251709448
 20
267.4648095167
 30
0.0
 10
405.4627140307
 20
266.5240024654
 30
0.0
 10
405.5211900137
 20
265.7726477083
 30
0.0
 10
405.5211900137
 20
265.2605830102
 30
0.0
  0
SPLINE
  5
424
100
AcDbEntity
  8
0
100
AcDbSpline
 62
7
  6
CONTINUOUS
 70
0
 71
3
 72
11
 73
7
 74
0
 42
0.0000001
 43
0.0000001
 44
0.0000000001
 40
0.0
 40
0.0
 40
0.0
 40
0.0
 40
0.2496541327
 40
0.4994840084
 40
0.7496112775
 40
1.0
 40
1.0
 40
1.0
 40
1.0
 10
309.4198319197
 20
165.2605830102
 30
0.0
 10
309.4198319197
 20
165.7504158254
 30
0.0
 10
309.604447777
 20
166.7399834029
 30
0.0
 10
310.3986417661
 20
168.0167059244
 30
0.0
 10
311.6001207992
 20
168.9230915604
 30
0.0
 10
312.5704297606
 20
169.1974044379
 30
0.0
 10
313.0595699052
 20
169.2431447257
 30
0.0
  0
SPLINE
  5
425
100
AcDbEntity
  8
0
100
AcDbSpline
 62
7
  6
CONTINUOUS
 70
0
 71
3
 72
11
 73
7
 74
0
 42
0.0000001
 43
0.0000001
 44
0.0000000001
 40
0.0
 40
0.0
 40
0.0
 40
0.0
 40
0.2424317427
 40
0.4887143122
 40
0.741781331
 40
1.0
 40
1.0
 40
1.0
 40
1.0
 10
349.7176418267
 20
194.2605830102
 30
0.0
 10
350.2046808191
 20
194.2605830102
 30
0.0
 10
351.198671143
 20
194.0485463164
 30
0.0
 10
352.4350016519
 20
193.1461951715
 30
0.0
 10
353.2468374802
 20
191.8165180869
 30
0.0
 10
353.4335627977
 20
190.7793375222
 30
0.0
 10
353.4335627977
 20
190.2605830102
 30
0.0
  0
SPLINE
  5
426
100
AcDbEntity
  8
0
100
AcDbSpline
 62
7
  6
CONTINUOUS
 70
0
 71
3
 72
11
 73
7
 74
0
 42
0.0000001
 43
0.0000001
 44
0.0000000001
 40
0.0
 40
0.0
 40
0.0
 40
0.0
 40
0.2578879002
 40
0.5108190092
 40
0.7572427033
 40
1.0
 40
1.0
 40
1.0
 40
1.0
 10
273.37153893
 20
165.2605830102
 30
0.0
 10
273.37153893
 20
165.7793901299
 30
0.0
 10
273.5590249661
 20
166.8171073329
 30
0.0
 10
274.3737937029
 20
168.1468581364
 30
0.0
 10
275.6138070692
 20
169.0487541794
 30
0.0
 10
276.6100748102
 20
169.2605830102
 30
0.0
 10
277.0984428714
 20
169.2605830102
 30
0.0
  0
SPLINE
  5
427
100
AcDbEntity
  8
0
100
AcDbSpline
 62
7
  6
CONTINUOUS
 70
0
 71
3
 72
13
 73
9
 74
0
 42
0.0000001
 43
0.0000001
 44
0.0000000001
 40
0.0
 40
0.0
 40
0.0
 40
0.0
 40
0.1071278228
 40
0.2167624749
 40
0.3316398925
 40
0.4533899981
 40
0.717133231
 40
1.0
 40
1.0
 40
1.0
 40
1.0
 10
381.2001678621
 20
269.2605830102
 30
0.0
 10
381.3953842632
 20
269.2605830102
 30
0.0
 10
381.7922197708
 20
269.207162451
 30
0.0
 10
382.3560685815
 20
268.9731606985
 30
0.0
 10
382.8679097838
 20
268.5945801668
 30
0.0
 10
383.4736453174
 20
267.9053508029
 30
0.0
 10
383.9962827241
 20
266.7774115137
 30
0.0
 10
384.1331193338
 20
265.7760441779
 30
0.0
 10
384.1331193338
 20
265.2605830102
 30
0.0
  0
SPLINE
  5
428
100
AcDbEntity
  8
0
100
AcDbSpline
 62
7
  6
CONTINUOUS
 70
0
 71
3
 72
13
 73
9
 74
0
 42
0.0000001
 43
0.0000001
 44
0.0000000001
 40
0.0
 40
0.0
 40
0.0
 40
0.0
 40
0.2821755217
 40
0.5455861964
 40
0.6673909574
 40
0.782479755
 40
0.8924573241
 40
1.0
 40
1.0
 40
1.0
 40
1.0
 10
242.5228531369
 20
165.2605830102
 30
0.0
 10
242.5228531369
 20
165.7761176656
 30
0.0
 10
242.660837475
 20
166.778298822
 30
0.0
 10
243.1875283704
 20
167.9061254041
 30
0.0
 10
243.7972084263
 20
168.5948908455
 30
0.0
 10
244.3125471198
 20
168.9733594
 30
0.0
 10
244.8800403357
 20
169.2072098187
 30
0.0
 10
245.2792739399
 20
169.2605830102
 30
0.0
 10
245.4757544002
 20
169.2605830102
 30
0.0
  0
SPLINE
  5
429
100
AcDbEntity
  8
0
100
AcDbSpline
 62
7
  6
CONTINUOUS
 70
0
 71
3
 72
13
 73
9
 74
0
 42
0.0000001
 43
0.0000001
 44
0.0000000001
 40
0.0
 40
0.0
 40
0.0
 40
0.0
 40
0.1071278228
 40
0.2167624749
 40
0.3316398925
 40
0.4533899981
 40
0.717133231
 40
1.0
 40
1.0
 40
1.0
 40
1.0
 10
381.2001678621
 20
194.2605830102
 30
0.0
 10
381.3953842632
 20
194.2605830102
 30
0.0
 10
381.7922197708
 20
194.207162451
 30
0.0
 10
382.3560685815
 20
193.9731606985
 30
0.0
 10
382.8679097838
 20
193.5945801668
 30
0.0
 10
383.4736453174
 20
192.9053508029
 30
0.0
 10
383.9962827241
 20
191.7774115137
 30
0.0
 10
384.1331193338
 20
190.7760441779
 30
0.0
 10
384.1331193338
 20
190.2605830102
 30
0.0
  0
SPLINE
  5
42A
100
AcDbEntity
  8
0
100
AcDbSpline
 62
7
  6
CONTINUOUS
 70
0
 71
3
 72
14
 73
10
 74
0
 42
0.0000001
 43
0.0000001
 44
0.0000000001
 40
0.0
 40
0.0
 40
0.0
 40
0.0
 40
0.3256380516
 40
0.476090249
 40
0.6126551373
 40
0.7324648633
 40
0.8348202164
 40
0.9218377043
 40
1.0
 40
1.0
 40
1.0
 40
1.0
 10
220.9153216946
 20
165.2605830102
 30
0.0
 10
220.9153216946
 20
165.7727048688
 30
0.0
 10
220.9747804277
 20
166.5243830921
 30
0.0
 10
221.189076871
 20
167.4651072739
 30
0.0
 10
221.401341116
 20
168.0705999143
 30
0.0
 10
221.664757323
 20
168.5723217707
 30
0.0
 10
221.9722475224
 20
168.9545786967
 30
0.0
 10
222.3224413374
 20
169.2010045168
 30
0.0
 10
222.5844312057
 20
169.2605830102
 30
0.0
 10
222.7073548627
 20
169.2605830102
 30
0.0
  0
SPLINE
  5
42B
100
AcDbEntity
  8
0
100
AcDbSpline
 62
7
  6
CONTINUOUS
 70
0
 71
3
 72
11
 73
7
 74
0
 42
0.0000001
 43
0.0000001
 44
0.0000000001
 40
0.0
 40
0.0
 40
0.0
 40
0.0
 40
0.2424317427
 40
0.4887143122
 40
0.741781331
 40
1.0
 40
1.0
 40
1.0
 40
1.0
 10
349.7176418267
 20
269.2605830102
 30
0.0
 10
350.2046808191
 20
269.2605830102
 30
0.0
 10
351.198671143
 20
269.0485463164
 30
0.0
 10
352.4350016519
 20
268.1461951715
 30
0.0
 10
353.2468374802
 20
266.8165180869
 30
0.0
 10
353.4335627977
 20
265.7793375222
 30
0.0
 10
353.4335627977
 20
265.2605830102
 30
0.0
  0
SPLINE
  5
42C
100
AcDbEntity
  8
0
100
AcDbSpline
 62
7
  6
CONTINUOUS
 70
0
 71
3
 72
16
 73
12
 74
0
 42
0.0000001
 43
0.0000001
 44
0.0000000001
 40
0.0
 40
0.0
 40
0.0
 40
0.0
 40
0.3763581496
 40
0.5465003989
 40
0.695942717
 40
0.8189819932
 40
0.8692833648
 40
0.9115166847
 40
0.9453783439
 40
0.9709358871
 40
1.0
 40
1.0
 40
1.0
 40
1.0
 10
211.3797899042
 20
165.2605830102
 30
0.0
 10
211.3797899042
 20
165.7708937125
 30
0.0
 10
211.3901942582
 20
166.5120325558
 30
0.0
 10
211.4311390955
 20
167.4548275949
 30
0.0
 10
211.4729637101
 20
168.0536796558
 30
0.0
 10
211.5198231255
 20
168.4888490326
 30
0.0
 10
211.5664392405
 20
168.7778449508
 30
0.0
 10
211.6010613254
 20
168.9449594797
 30
0.0
 10
211.6400672119
 20
169.0796760354
 30
0.0
 10
211.6818338932
 20
169.1855476877
 30
0.0
 10
211.736768631
 20
169.2605830102
 30
0.0
 10
211.7761771781
 20
169.2605830102
 30
0.0
  0
SPLINE
  5
42D
100
AcDbEntity
  8
0
100
AcDbSpline
 62
7
  6
CONTINUOUS
 70
0
 71
3
 72
14
 73
10
 74
0
 42
0.0000001
 43
0.0000001
 44
0.0000000001
 40
0.0
 40
0.0
 40
0.0
 40
0.0
 40
0.0773646879
 40
0.1638042091
 40
0.2658823226
 40
0.3856897581
 40
0.5224752279
 40
0.6733121686
 40
1.0
 40
1.0
 40
1.0
 40
1.0
 10
403.755459797
 20
194.2605830102
 30
0.0
 10
403.8767245694
 20
194.2605830102
 30
0.0
 10
404.1356781953
 20
194.2007150547
 30
0.0
 10
404.4807325032
 20
193.9539279625
 30
0.0
 10
404.7834364029
 20
193.5717329929
 30
0.0
 10
405.0427530578
 20
193.0701516505
 30
0.0
 10
405.251709448
 20
192.4648095167
 30
0.0
 10
405.4627140307
 20
191.5240024654
 30
0.0
 10
405.5211900137
 20
190.7726477083
 30
0.0
 10
405.5211900137
 20
190.2605830102
 30
0.0
  0
SPLINE
  5
42E
100
AcDbEntity
  8
0
100
AcDbSpline
 62
7
  6
CONTINUOUS
 70
0
 71
3
 72
11
 73
7
 74
0
 42
0.0000001
 43
0.0000001
 44
0.0000000001
 40
0.0
 40
0.0
 40
0.0
 40
0.0
 40
0.2503887225
 40
0.5005159916
 40
0.7503458673
 40
1.0
 40
1.0
 40
1.0
 40
1.0
 10
313.0595699052
 20
261.2780212948
 30
0.0
 10
312.5704297606
 20
261.3237615825
 30
0.0
 10
311.6001207992
 20
261.59807446
 30
0.0
 10
310.3986417661
 20
262.5044600961
 30
0.0
 10
309.604447777
 20
263.7811826176
 30
0.0
 10
309.4198319197
 20
264.7707501951
 30
0.0
 10
309.4198319197
 20
265.2605830102
 30
0.0
  0
SPLINE
  5
42F
100
AcDbEntity
  8
0
100
AcDbSpline
 62
7
  6
CONTINUOUS
 70
0
 71
3
 72
11
 73
7
 74
0
 42
0.0000001
 43
0.0000001
 44
0.0000000001
 40
0.0
 40
0.0
 40
0.0
 40
0.0
 40
0.2504018942
 40
0.5005391642
 40
0.7503622005
 40
1.0
 40
1.0
 40
1.0
 40
1.0
 10
313.432469505
 20
269.2605830102
 30
0.0
 10
313.9543522039
 20
269.2605830102
 30
0.0
 10
315.008948284
 20
269.0527272219
 30
0.0
 10
316.3426250885
 20
268.1629876995
 30
0.0
 10
317.2356979998
 20
266.8332803973
 30
0.0
 10
317.4445298416
 20
265.7808731981
 30
0.0
 10
317.4445298416
 20
265.2605830102
 30
0.0
  0
SPLINE
  5
430
100
AcDbEntity
  8
0
100
AcDbSpline
 62
7
  6
CONTINUOUS
 70
0
 71
3
 72
16
 73
12
 74
0
 42
0.0000001
 43
0.0000001
 44
0.0000000001
 40
0.0
 40
0.0
 40
0.0
 40
0.0
 40
0.0280731122
 40
0.0534141181
 40
0.0871591737
 40
0.1293446753
 40
0.1796489406
 40
0.302807315
 40
0.452477189
 40
0.6229206161
 40
1.0
 40
1.0
 40
1.0
 40
1.0
 10
414.4285043593
 20
194.2605830102
 30
0.0
 10
414.4664955354
 20
194.2605830102
 30
0.0
 10
414.5173590896
 20
194.1838361366
 30
0.0
 10
414.5558779456
 20
194.0796371442
 30
0.0
 10
414.592175851
 20
193.9447061844
 30
0.0
 10
414.6242707014
 20
193.7777706696
 30
0.0
 10
414.6674311369
 20
193.4886653661
 30
0.0
 10
414.7105821595
 20
193.0535515702
 30
0.0
 10
414.7489158015
 20
192.4547471733
 30
0.0
 10
414.7862620256
 20
191.5119543744
 30
0.0
 10
414.7956815237
 20
190.7708823017
 30
0.0
 10
414.7956815237
 20
190.2605830102
 30
0.0
  0
SPLINE
  5
431
100
AcDbEntity
  8
0
100
AcDbSpline
 62
7
  6
CONTINUOUS
 70
0
 71
3
 72
11
 73
7
 74
0
 42
0.0000001
 43
0.0000001
 44
0.0000000001
 40
0.0
 40
0.0
 40
0.0
 40
0.0
 40
0.2427572967
 40
0.4891809908
 40
0.7421120998
 40
1.0
 40
1.0
 40
1.0
 40
1.0
 10
277.0984428714
 20
261.2605830102
 30
0.0
 10
276.6100748102
 20
261.2605830102
 30
0.0
 10
275.6138070692
 20
261.472411841
 30
0.0
 10
274.3737937029
 20
262.3743078841
 30
0.0
 10
273.5590249661
 20
263.7040586876
 30
0.0
 10
273.37153893
 20
264.7417758906
 30
0.0
 10
273.37153893
 20
265.2605830102
 30
0.0
  0
SPLINE
  5
432
100
AcDbEntity
  8
0
100
AcDbSpline
 62
7
  6
CONTINUOUS
 70
0
 71
3
 72
16
 73
12
 74
0
 42
0.0000001
 43
0.0000001
 44
0.0000000001
 40
0.0
 40
0.0
 40
0.0
 40
0.0
 40
0.3770793839
 40
0.547522811
 40
0.697192685
 40
0.8203510594
 40
0.8706553247
 40
0.9128408263
 40
0.9465858819
 40
0.9719268878
 40
1.0
 40
1.0
 40
1.0
 40
1.0
 10
414.7956815237
 20
290.2605830102
 30
0.0
 10
414.7956815237
 20
289.7502837188
 30
0.0
 10
414.7862620256
 20
289.009211646
 30
0.0
 10
414.7489158015
 20
288.0664188472
 30
0.0
 10
414.7105821595
 20
287.4676144503
 30
0.0
 10
414.6674311369
 20
287.0325006544
 30
0.0
 10
414.6242707014
 20
286.7433953509
 30
0.0
 10
414.592175851
 20
286.5764598361
 30
0.0
 10
414.5558779456
 20
286.4415288762
 30
0.0
 10
414.5173590896
 20
286.3373298839
 30
0.0
 10
414.4664955354
 20
286.2605830102
 30
0.0
 10
414.4285043593
 20
286.2605830102
 30
0.0
  0
SPLINE
  5
433
100
AcDbEntity
  8
0
100
AcDbSpline
 62
7
  6
CONTINUOUS
 70
0
 71
3
 72
13
 73
9
 74
0
 42
0.0000001
 43
0.0000001
 44
0.0000000001
 40
0.0
 40
0.0
 40
0.0
 40
0.0
 40
0.1075426759
 40
0.217520245
 40
0.3326090426
 40
0.4544138036
 40
0.7178244783
 40
1.0
 40
1.0
 40
1.0
 40
1.0
 10
245.4757544002
 20
261.2605830102
 30
0.0
 10
245.2792739399
 20
261.2605830102
 30
0.0
 10
244.8800403357
 20
261.3139562018
 30
0.0
 10
244.3125471198
 20
261.5478066205
 30
0.0
 10
243.7972084263
 20
261.926275175
 30
0.0
 10
243.1875283704
 20
262.6150406164
 30
0.0
 10
242.660837475
 20
263.7428671985
 30
0.0
 10
242.5228531369
 20
264.7450483549
 30
0.0
 10
242.5228531369
 20
265.2605830102
 30
0.0
  0
SPLINE
  5
434
100
AcDbEntity
  8
0
100
AcDbSpline
 62
7
  6
CONTINUOUS
 70
0
 71
3
 72
16
 73
12
 74
0
 42
0.0000001
 43
0.0000001
 44
0.0000000001
 40
0.0
 40
0.0
 40
0.0
 40
0.0
 40
0.3770793839
 40
0.547522811
 40
0.697192685
 40
0.8203510594
 40
0.8706553247
 40
0.9128408263
 40
0.9465858819
 40
0.9719268878
 40
1.0
 40
1.0
 40
1.0
 40
1.0
 10
414.7956815237
 20
140.2605830102
 30
0.0
 10
414.7956815237
 20
139.7502837188
 30
0.0
 10
414.7862620256
 20
139.009211646
 30
0.0
 10
414.7489158015
 20
138.0664188472
 30
0.0
 10
414.7105821595
 20
137.4676144503
 30
0.0
 10
414.6674311369
 20
137.0325006544
 30
0.0
 10
414.6242707014
 20
136.7433953509
 30
0.0
 10
414.592175851
 20
136.5764598361
 30
0.0
 10
414.5558779456
 20
136.4415288762
 30
0.0
 10
414.5173590896
 20
136.3373298839
 30
0.0
 10
414.4664955354
 20
136.2605830102
 30
0.0
 10
414.4285043593
 20
136.2605830102
 30
0.0
  0
SPLINE
  5
435
100
AcDbEntity
  8
0
100
AcDbSpline
 62
7
  6
CONTINUOUS
 70
0
 71
3
 72
14
 73
10
 74
0
 42
0.0000001
 43
0.0000001
 44
0.0000000001
 40
0.0
 40
0.0
 40
0.0
 40
0.0
 40
0.0781622957
 40
0.1651797836
 40
0.2675351367
 40
0.3873448627
 40
0.523909751
 40
0.6743619484
 40
1.0
 40
1.0
 40
1.0
 40
1.0
 10
222.7073548627
 20
261.2605830102
 30
0.0
 10
222.5844312057
 20
261.2605830102
 30
0.0
 10
222.3224413374
 20
261.3201615037
 30
0.0
 10
221.9722475224
 20
261.5665873237
 30
0.0
 10
221.664757323
 20
261.9488442498
 30
0.0
 10
221.401341116
 20
262.4505661062
 30
0.0
 10
221.189076871
 20
263.0560587466
 30
0.0
 10
220.9747804277
 20
263.9967829284
 30
0.0
 10
220.9153216946
 20
264.7484611517
 30
0.0
 10
220.9153216946
 20
265.2605830102
 30
0.0
  0
SPLINE
  5
436
100
AcDbEntity
  8
0
100
AcDbSpline
 62
7
  6
CONTINUOUS
 70
0
 71
3
 72
14
 73
10
 74
0
 42
0.0000001
 43
0.0000001
 44
0.0000000001
 40
0.0
 40
0.0
 40
0.0
 40
0.0
 40
0.3266878314
 40
0.4775247721
 40
0.6143102419
 40
0.7341176774
 40
0.8361957909
 40
0.9226353121
 40
1.0
 40
1.0
 40
1.0
 40
1.0
 10
405.5211900137
 20
140.2605830102
 30
0.0
 10
405.5211900137
 20
139.7485183122
 30
0.0
 10
405.4627140307
 20
138.9971635551
 30
0.0
 10
405.251709448
 20
138.0563565037
 30
0.0
 10
405.0427530578
 20
137.4510143699
 30
0.0
 10
404.7834364029
 20
136.9494330276
 30
0.0
 10
404.4807325032
 20
136.567238058
 30
0.0
 10
404.1356781953
 20
136.3204509658
 30
0.0
 10
403.8767245694
 20
136.2605830102
 30
0.0
 10
403.755459797
 20
136.2605830102
 30
0.0
  0
SPLINE
  5
437
100
AcDbEntity
  8
0
100
AcDbSpline
 62
7
  6
CONTINUOUS
 70
0
 71
3
 72
13
 73
9
 74
0
 42
0.0000001
 43
0.0000001
 44
0.0000000001
 40
0.0
 40
0.0
 40
0.0
 40
0.0
 40
0.282866769
 40
0.5466100019
 40
0.6683601075
 40
0.7832375251
 40
0.8928721772
 40
1.0
 40
1.0
 40
1.0
 40
1.0
 10
384.1331193338
 20
140.2605830102
 30
0.0
 10
384.1331193338
 20
139.7451218426
 30
0.0
 10
383.9962827241
 20
138.7437545068
 30
0.0
 10
383.4736453174
 20
137.6158152176
 30
0.0
 10
382.8679097838
 20
136.9265858537
 30
0.0
 10
382.3560685815
 20
136.5480053219
 30
0.0
 10
381.7922197708
 20
136.3140035695
 30
0.0
 10
381.3953842632
 20
136.2605830102
 30
0.0
 10
381.2001678621
 20
136.2605830102
 30
0.0
  0
SPLINE
  5
438
100
AcDbEntity
  8
0
100
AcDbSpline
 62
7
  6
CONTINUOUS
 70
0
 71
3
 72
16
 73
12
 74
0
 42
0.0000001
 43
0.0000001
 44
0.0000000001
 40
0.0
 40
0.0
 40
0.0
 40
0.0
 40
0.0290641129
 40
0.0546216561
 40
0.0884833153
 40
0.1307166352
 40
0.1810180068
 40
0.304057283
 40
0.4534996011
 40
0.6236418504
 40
1.0
 40
1.0
 40
1.0
 40
1.0
 10
211.7761771781
 20
261.2605830102
 30
0.0
 10
211.736768631
 20
261.2605830102
 30
0.0
 10
211.6818338932
 20
261.3356183328
 30
0.0
 10
211.6400672119
 20
261.4414899851
 30
0.0
 10
211.6010613254
 20
261.5762065408
 30
0.0
 10
211.5664392405
 20
261.7433210696
 30
0.0
 10
211.5198231255
 20
262.0323169879
 30
0.0
 10
211.4729637101
 20
262.4674863647
 30
0.0
 10
211.4311390955
 20
263.0663384256
 30
0.0
 10
211.3901942582
 20
264.0091334647
 30
0.0
 10
211.3797899042
 20
264.750272308
 30
0.0
 10
211.3797899042
 20
265.2605830102
 30
0.0
  0
SPLINE
  5
439
100
AcDbEntity
  8
0
100
AcDbSpline
 62
7
  6
CONTINUOUS
 70
0
 71
3
 72
14
 73
10
 74
0
 42
0.0000001
 43
0.0000001
 44
0.0000000001
 40
0.0
 40
0.0
 40
0.0
 40
0.0
 40
0.3266878314
 40
0.4775247721
 40
0.6143102419
 40
0.7341176774
 40
0.8361957909
 40
0.9226353121
 40
1.0
 40
1.0
 40
1.0
 40
1.0
 10
405.5211900137
 20
290.2605830102
 30
0.0
 10
405.5211900137
 20
289.7485183122
 30
0.0
 10
405.4627140307
 20
288.9971635551
 30
0.0
 10
405.251709448
 20
288.0563565037
 30
0.0
 10
405.0427530578
 20
287.4510143699
 30
0.0
 10
404.7834364029
 20
286.9494330276
 30
0.0
 10
404.4807325032
 20
286.567238058
 30
0.0
 10
404.1356781953
 20
286.3204509658
 30
0.0
 10
403.8767245694
 20
286.2605830102
 30
0.0
 10
403.755459797
 20
286.2605830102
 30
0.0
  0
SPLINE
  5
43A
100
AcDbEntity
  8
0
100
AcDbSpline
 62
7
  6
CONTINUOUS
 70
0
 71
3
 72
11
 73
7
 74
0
 42
0.0000001
 43
0.0000001
 44
0.0000000001
 40
0.0
 40
0.0
 40
0.0
 40
0.0
 40
0.258218669
 40
0.5112856878
 40
0.7575682573
 40
1.0
 40
1.0
 40
1.0
 40
1.0
 10
353.4335627977
 20
140.2605830102
 30
0.0
 10
353.4335627977
 20
139.7418284983
 30
0.0
 10
353.2468374802
 20
138.7046479336
 30
0.0
 10
352.4350016519
 20
137.374970849
 30
0.0
 10
351.198671143
 20
136.4726197041
 30
0.0
 10
350.2046808191
 20
136.2605830102
 30
0.0
 10
349.7176418267
 20
136.2605830102
 30
0.0
  0
SPLINE
  5
43B
100
AcDbEntity
  8
0
100
AcDbSpline
 62
7
  6
CONTINUOUS
 70
0
 71
3
 72
11
 73
7
 74
0
 42
0.0000001
 43
0.0000001
 44
0.0000000001
 40
0.0
 40
0.0
 40
0.0
 40
0.0
 40
0.2496377995
 40
0.4994608358
 40
0.7495981058
 40
1.0
 40
1.0
 40
1.0
 40
1.0
 10
317.4445298416
 20
140.2605830102
 30
0.0
 10
317.4445298416
 20
139.7402928224
 30
0.0
 10
317.2356979998
 20
138.6878856232
 30
0.0
 10
316.3426250885
 20
137.3581783209
 30
0.0
 10
315.008948284
 20
136.4684387986
 30
0.0
 10
313.9543522039
 20
136.2605830102
 30
0.0
 10
313.432469505
 20
136.2605830102
 30
0.0
  0
SPLINE
  5
43C
100
AcDbEntity
  8
0
100
AcDbSpline
 62
7
  6
CONTINUOUS
 70
0
 71
3
 72
11
 73
7
 74
0
 42
0.0000001
 43
0.0000001
 44
0.0000000001
 40
0.0
 40
0.0
 40
0.0
 40
0.0
 40
0.2496541327
 40
0.4994840084
 40
0.7496112775
 40
1.0
 40
1.0
 40
1.0
 40
1.0
 10
309.4198319197
 20
140.2605830102
 30
0.0
 10
309.4198319197
 20
140.7504158254
 30
0.0
 10
309.604447777
 20
141.7399834029
 30
0.0
 10
310.3986417661
 20
143.0167059244
 30
0.0
 10
311.6001207992
 20
143.9230915604
 30
0.0
 10
312.5704297606
 20
144.1974044379
 30
0.0
 10
313.0595699052
 20
144.2431447257
 30
0.0
  0
SPLINE
  5
43D
100
AcDbEntity
  8
0
100
AcDbSpline
 62
7
  6
CONTINUOUS
 70
0
 71
3
 72
11
 73
7
 74
0
 42
0.0000001
 43
0.0000001
 44
0.0000000001
 40
0.0
 40
0.0
 40
0.0
 40
0.0
 40
0.2578879002
 40
0.5108190092
 40
0.7572427033
 40
1.0
 40
1.0
 40
1.0
 40
1.0
 10
273.37153893
 20
140.2605830102
 30
0.0
 10
273.37153893
 20
140.7793901299
 30
0.0
 10
273.5590249661
 20
141.8171073329
 30
0.0
 10
274.3737937029
 20
143.1468581364
 30
0.0
 10
275.6138070692
 20
144.0487541794
 30
0.0
 10
276.6100748102
 20
144.2605830102
 30
0.0
 10
277.0984428714
 20
144.2605830102
 30
0.0
  0
SPLINE
  5
43E
100
AcDbEntity
  8
0
100
AcDbSpline
 62
7
  6
CONTINUOUS
 70
0
 71
3
 72
13
 73
9
 74
0
 42
0.0000001
 43
0.0000001
 44
0.0000000001
 40
0.0
 40
0.0
 40
0.0
 40
0.0
 40
0.2821755217
 40
0.5455861964
 40
0.6673909574
 40
0.782479755
 40
0.8924573241
 40
1.0
 40
1.0
 40
1.0
 40
1.0
 10
242.5228531369
 20
140.2605830102
 30
0.0
 10
242.5228531369
 20
140.7761176656
 30
0.0
 10
242.660837475
 20
141.778298822
 30
0.0
 10
243.1875283704
 20
142.9061254041
 30
0.0
 10
243.7972084263
 20
143.5948908455
 30
0.0
 10
244.3125471198
 20
143.9733594
 30
0.0
 10
244.8800403357
 20
144.2072098187
 30
0.0
 10
245.2792739399
 20
144.2605830102
 30
0.0
 10
245.4757544002
 20
144.2605830102
 30
0.0
  0
SPLINE
  5
43F
100
AcDbEntity
  8
0
100
AcDbSpline
 62
7
  6
CONTINUOUS
 70
0
 71
3
 72
14
 73
10
 74
0
 42
0.0000001
 43
0.0000001
 44
0.0000000001
 40
0.0
 40
0.0
 40
0.0
 40
0.0
 40
0.3256380516
 40
0.476090249
 40
0.6126551373
 40
0.7324648633
 40
0.8348202164
 40
0.9218377043
 40
1.0
 40
1.0
 40
1.0
 40
1.0
 10
220.9153216946
 20
140.2605830102
 30
0.0
 10
220.9153216946
 20
140.7727048688
 30
0.0
 10
220.9747804277
 20
141.5243830921
 30
0.0
 10
221.189076871
 20
142.4651072739
 30
0.0
 10
221.401341116
 20
143.0705999143
 30
0.0
 10
221.664757323
 20
143.5723217707
 30
0.0
 10
221.9722475224
 20
143.9545786967
 30
0.0
 10
222.3224413374
 20
144.2010045168
 30
0.0
 10
222.5844312057
 20
144.2605830102
 30
0.0
 10
222.7073548627
 20
144.2605830102
 30
0.0
  0
SPLINE
  5
440
100
AcDbEntity
  8
0
100
AcDbSpline
 62
7
  6
CONTINUOUS
 70
0
 71
3
 72
16
 73
12
 74
0
 42
0.0000001
 43
0.0000001
 44
0.0000000001
 40
0.0
 40
0.0
 40
0.0
 40
0.0
 40
0.3763581496
 40
0.5465003989
 40
0.695942717
 40
0.8189819932
 40
0.8692833648
 40
0.9115166847
 40
0.9453783439
 40
0.9709358871
 40
1.0
 40
1.0
 40
1.0
 40
1.0
 10
211.3797899042
 20
140.2605830102
 30
0.0
 10
211.3797899042
 20
140.7708937125
 30
0.0
 10
211.3901942582
 20
141.5120325558
 30
0.0
 10
211.4311390955
 20
142.4548275949
 30
0.0
 10
211.4729637101
 20
143.0536796558
 30
0.0
 10
211.5198231255
 20
143.4888490326
 30
0.0
 10
211.5664392405
 20
143.7778449508
 30
0.0
 10
211.6010613254
 20
143.9449594797
 30
0.0
 10
211.6400672119
 20
144.0796760354
 30
0.0
 10
211.6818338932
 20
144.1855476877
 30
0.0
 10
211.736768631
 20
144.2605830102
 30
0.0
 10
211.7761771781
 20
144.2605830102
 30
0.0
  0
SPLINE
  5
441
100
AcDbEntity
  8
0
100
AcDbSpline
 62
7
  6
CONTINUOUS
 70
0
 71
3
 72
13
 73
9
 74
0
 42
0.0000001
 43
0.0000001
 44
0.0000000001
 40
0.0
 40
0.0
 40
0.0
 40
0.0
 40
0.282866769
 40
0.5466100019
 40
0.6683601075
 40
0.7832375251
 40
0.8928721772
 40
1.0
 40
1.0
 40
1.0
 40
1.0
 10
384.1331193338
 20
290.2605830102
 30
0.0
 10
384.1331193338
 20
289.7451218426
 30
0.0
 10
383.9962827241
 20
288.7437545068
 30
0.0
 10
383.4736453174
 20
287.6158152176
 30
0.0
 10
382.8679097838
 20
286.9265858537
 30
0.0
 10
382.3560685815
 20
286.5480053219
 30
0.0
 10
381.7922197708
 20
286.3140035695
 30
0.0
 10
381.3953842632
 20
286.2605830102
 30
0.0
 10
381.2001678621
 20
286.2605830102
 30
0.0
  0
SPLINE
  5
442
100
AcDbEntity
  8
0
100
AcDbSpline
 62
7
  6
CONTINUOUS
 70
0
 71
3
 72
16
 73
12
 74
0
 42
0.0000001
 43
0.0000001
 44
0.0000000001
 40
0.0
 40
0.0
 40
0.0
 40
0.0
 40
0.0290641129
 40
0.0546216561
 40
0.0884833153
 40
0.1307166352
 40
0.1810180068
 40
0.304057283
 40
0.4534996011
 40
0.6236418504
 40
1.0
 40
1.0
 40
1.0
 40
1.0
 10
211.7761771781
 20
211.2605830102
 30
0.0
 10
211.736768631
 20
211.2605830102
 30
0.0
 10
211.6818338932
 20
211.3356183328
 30
0.0
 10
211.6400672119
 20
211.4414899851
 30
0.0
 10
211.6010613254
 20
211.5762065408
 30
0.0
 10
211.5664392405
 20
211.7433210696
 30
0.0
 10
211.5198231255
 20
212.0323169879
 30
0.0
 10
211.4729637101
 20
212.4674863647
 30
0.0
 10
211.4311390955
 20
213.0663384256
 30
0.0
 10
211.3901942582
 20
214.0091334647
 30
0.0
 10
211.3797899042
 20
214.750272308
 30
0.0
 10
211.3797899042
 20
215.2605830102
 30
0.0
  0
SPLINE
  5
443
100
AcDbEntity
  8
0
100
AcDbSpline
 62
7
  6
CONTINUOUS
 70
0
 71
3
 72
16
 73
12
 74
0
 42
0.0000001
 43
0.0000001
 44
0.0000000001
 40
0.0
 40
0.0
 40
0.0
 40
0.0
 40
0.0290641129
 40
0.0546216561
 40
0.0884833153
 40
0.1307166352
 40
0.1810180068
 40
0.304057283
 40
0.4534996011
 40
0.6236418504
 40
1.0
 40
1.0
 40
1.0
 40
1.0
 10
211.7761771781
 20
136.2605830102
 30
0.0
 10
211.736768631
 20
136.2605830102
 30
0.0
 10
211.6818338932
 20
136.3356183328
 30
0.0
 10
211.6400672119
 20
136.4414899851
 30
0.0
 10
211.6010613254
 20
136.5762065408
 30
0.0
 10
211.5664392405
 20
136.7433210696
 30
0.0
 10
211.5198231255
 20
137.0323169879
 30
0.0
 10
211.4729637101
 20
137.4674863647
 30
0.0
 10
211.4311390955
 20
138.0663384256
 30
0.0
 10
211.3901942582
 20
139.0091334647
 30
0.0
 10
211.3797899042
 20
139.750272308
 30
0.0
 10
211.3797899042
 20
140.2605830102
 30
0.0
  0
SPLINE
  5
444
100
AcDbEntity
  8
0
100
AcDbSpline
 62
7
  6
CONTINUOUS
 70
0
 71
3
 72
11
 73
7
 74
0
 42
0.0000001
 43
0.0000001
 44
0.0000000001
 40
0.0
 40
0.0
 40
0.0
 40
0.0
 40
0.258218669
 40
0.5112856878
 40
0.7575682573
 40
1.0
 40
1.0
 40
1.0
 40
1.0
 10
353.4335627977
 20
290.2605830102
 30
0.0
 10
353.4335627977
 20
289.7418284983
 30
0.0
 10
353.2468374802
 20
288.7046479336
 30
0.0
 10
352.4350016519
 20
287.374970849
 30
0.0
 10
351.198671143
 20
286.4726197041
 30
0.0
 10
350.2046808191
 20
286.2605830102
 30
0.0
 10
349.7176418267
 20
286.2605830102
 30
0.0
  0
SPLINE
  5
445
100
AcDbEntity
  8
0
100
AcDbSpline
 62
7
  6
CONTINUOUS
 70
0
 71
3
 72
14
 73
10
 74
0
 42
0.0000001
 43
0.0000001
 44
0.0000000001
 40
0.0
 40
0.0
 40
0.0
 40
0.0
 40
0.0781622957
 40
0.1651797836
 40
0.2675351367
 40
0.3873448627
 40
0.523909751
 40
0.6743619484
 40
1.0
 40
1.0
 40
1.0
 40
1.0
 10
222.7073548627
 20
211.2605830102
 30
0.0
 10
222.5844312057
 20
211.2605830102
 30
0.0
 10
222.3224413374
 20
211.3201615037
 30
0.0
 10
221.9722475224
 20
211.5665873237
 30
0.0
 10
221.664757323
 20
211.9488442498
 30
0.0
 10
221.401341116
 20
212.4505661062
 30
0.0
 10
221.189076871
 20
213.0560587466
 30
0.0
 10
220.9747804277
 20
213.9967829284
 30
0.0
 10
220.9153216946
 20
214.7484611517
 30
0.0
 10
220.9153216946
 20
215.2605830102
 30
0.0
  0
SPLINE
  5
446
100
AcDbEntity
  8
0
100
AcDbSpline
 62
7
  6
CONTINUOUS
 70
0
 71
3
 72
13
 73
9
 74
0
 42
0.0000001
 43
0.0000001
 44
0.0000000001
 40
0.0
 40
0.0
 40
0.0
 40
0.0
 40
0.1075426759
 40
0.217520245
 40
0.3326090426
 40
0.4544138036
 40
0.7178244783
 40
1.0
 40
1.0
 40
1.0
 40
1.0
 10
245.4757544002
 20
211.2605830102
 30
0.0
 10
245.2792739399
 20
211.2605830102
 30
0.0
 10
244.8800403357
 20
211.3139562018
 30
0.0
 10
244.3125471198
 20
211.5478066205
 30
0.0
 10
243.7972084263
 20
211.926275175
 30
0.0
 10
243.1875283704
 20
212.6150406164
 30
0.0
 10
242.660837475
 20
213.7428671985
 30
0.0
 10
242.5228531369
 20
214.7450483549
 30
0.0
 10
242.5228531369
 20
215.2605830102
 30
0.0
  0
SPLINE
  5
447
100
AcDbEntity
  8
0
100
AcDbSpline
 62
7
  6
CONTINUOUS
 70
0
 71
3
 72
14
 73
10
 74
0
 42
0.0000001
 43
0.0000001
 44
0.0000000001
 40
0.0
 40
0.0
 40
0.0
 40
0.0
 40
0.0781622957
 40
0.1651797836
 40
0.2675351367
 40
0.3873448627
 40
0.523909751
 40
0.6743619484
 40
1.0
 40
1.0
 40
1.0
 40
1.0
 10
222.7073548627
 20
136.2605830102
 30
0.0
 10
222.5844312057
 20
136.2605830102
 30
0.0
 10
222.3224413374
 20
136.3201615037
 30
0.0
 10
221.9722475224
 20
136.5665873237
 30
0.0
 10
221.664757323
 20
136.9488442498
 30
0.0
 10
221.401341116
 20
137.4505661062
 30
0.0
 10
221.189076871
 20
138.0560587466
 30
0.0
 10
220.9747804277
 20
138.9967829284
 30
0.0
 10
220.9153216946
 20
139.7484611517
 30
0.0
 10
220.9153216946
 20
140.2605830102
 30
0.0
  0
SPLINE
  5
448
100
AcDbEntity
  8
0
100
AcDbSpline
 62
7
  6
CONTINUOUS
 70
0
 71
3
 72
11
 73
7
 74
0
 42
0.0000001
 43
0.0000001
 44
0.0000000001
 40
0.0
 40
0.0
 40
0.0
 40
0.0
 40
0.2496377995
 40
0.4994608358
 40
0.7495981058
 40
1.0
 40
1.0
 40
1.0
 40
1.0
 10
317.4445298416
 20
290.2605830102
 30
0.0
 10
317.4445298416
 20
289.7402928224
 30
0.0
 10
317.2356979998
 20
288.6878856232
 30
0.0
 10
316.3426250885
 20
287.3581783209
 30
0.0
 10
315.008948284
 20
286.4684387986
 30
0.0
 10
313.9543522039
 20
286.2605830102
 30
0.0
 10
313.432469505
 20
286.2605830102
 30
0.0
  0
SPLINE
  5
449
100
AcDbEntity
  8
0
100
AcDbSpline
 62
7
  6
CONTINUOUS
 70
0
 71
3
 72
11
 73
7
 74
0
 42
0.0000001
 43
0.0000001
 44
0.0000000001
 40
0.0
 40
0.0
 40
0.0
 40
0.0
 40
0.2427572967
 40
0.4891809908
 40
0.7421120998
 40
1.0
 40
1.0
 40
1.0
 40
1.0
 10
277.0984428714
 20
211.2605830102
 30
0.0
 10
276.6100748102
 20
211.2605830102
 30
0.0
 10
275.6138070692
 20
211.472411841
 30
0.0
 10
274.3737937029
 20
212.3743078841
 30
0.0
 10
273.5590249661
 20
213.7040586876
 30
0.0
 10
273.37153893
 20
214.7417758906
 30
0.0
 10
273.37153893
 20
215.2605830102
 30
0.0
  0
SPLINE
  5
44A
100
AcDbEntity
  8
0
100
AcDbSpline
 62
7
  6
CONTINUOUS
 70
0
 71
3
 72
11
 73
7
 74
0
 42
0.0000001
 43
0.0000001
 44
0.0000000001
 40
0.0
 40
0.0
 40
0.0
 40
0.0
 40
0.2496541327
 40
0.4994840084
 40
0.7496112775
 40
1.0
 40
1.0
 40
1.0
 40
1.0
 10
309.4198319197
 20
290.2605830102
 30
0.0
 10
309.4198319197
 20
290.7504158254
 30
0.0
 10
309.604447777
 20
291.7399834029
 30
0.0
 10
310.3986417661
 20
293.0167059244
 30
0.0
 10
311.6001207992
 20
293.9230915604
 30
0.0
 10
312.5704297606
 20
294.1974044379
 30
0.0
 10
313.0595699052
 20
294.2431447257
 30
0.0
  0
SPLINE
  5
44B
100
AcDbEntity
  8
0
100
AcDbSpline
 62
7
  6
CONTINUOUS
 70
0
 71
3
 72
16
 73
12
 74
0
 42
0.0000001
 43
0.0000001
 44
0.0000000001
 40
0.0
 40
0.0
 40
0.0
 40
0.0
 40
0.0280731122
 40
0.0534141181
 40
0.0871591737
 40
0.1293446753
 40
0.1796489406
 40
0.302807315
 40
0.452477189
 40
0.6229206161
 40
1.0
 40
1.0
 40
1.0
 40
1.0
 10
414.4285043593
 20
244.2605830102
 30
0.0
 10
414.4664955354
 20
244.2605830102
 30
0.0
 10
414.5173590896
 20
244.1838361366
 30
0.0
 10
414.5558779456
 20
244.0796371442
 30
0.0
 10
414.592175851
 20
243.9447061844
 30
0.0
 10
414.6242707014
 20
243.7777706696
 30
0.0
 10
414.6674311369
 20
243.4886653661
 30
0.0
 10
414.7105821595
 20
243.0535515702
 30
0.0
 10
414.7489158015
 20
242.4547471733
 30
0.0
 10
414.7862620256
 20
241.5119543744
 30
0.0
 10
414.7956815237
 20
240.7708823017
 30
0.0
 10
414.7956815237
 20
240.2605830102
 30
0.0
  0
SPLINE
  5
44C
100
AcDbEntity
  8
0
100
AcDbSpline
 62
7
  6
CONTINUOUS
 70
0
 71
3
 72
13
 73
9
 74
0
 42
0.0000001
 43
0.0000001
 44
0.0000000001
 40
0.0
 40
0.0
 40
0.0
 40
0.0
 40
0.1075426759
 40
0.217520245
 40
0.3326090426
 40
0.4544138036
 40
0.7178244783
 40
1.0
 40
1.0
 40
1.0
 40
1.0
 10
245.4757544002
 20
136.2605830102
 30
0.0
 10
245.2792739399
 20
136.2605830102
 30
0.0
 10
244.8800403357
 20
136.3139562018
 30
0.0
 10
244.3125471198
 20
136.5478066205
 30
0.0
 10
243.7972084263
 20
136.926275175
 30
0.0
 10
243.1875283704
 20
137.6150406164
 30
0.0
 10
242.660837475
 20
138.7428671985
 30
0.0
 10
242.5228531369
 20
139.7450483549
 30
0.0
 10
242.5228531369
 20
140.2605830102
 30
0.0
  0
SPLINE
  5
44D
100
AcDbEntity
  8
0
100
AcDbSpline
 62
7
  6
CONTINUOUS
 70
0
 71
3
 72
11
 73
7
 74
0
 42
0.0000001
 43
0.0000001
 44
0.0000000001
 40
0.0
 40
0.0
 40
0.0
 40
0.0
 40
0.2504018942
 40
0.5005391642
 40
0.7503622005
 40
1.0
 40
1.0
 40
1.0
 40
1.0
 10
313.432469505
 20
219.2605830102
 30
0.0
 10
313.9543522039
 20
219.2605830102
 30
0.0
 10
315.008948284
 20
219.0527272219
 30
0.0
 10
316.3426250885
 20
218.1629876995
 30
0.0
 10
317.2356979998
 20
216.8332803973
 30
0.0
 10
317.4445298416
 20
215.7808731981
 30
0.0
 10
317.4445298416
 20
215.2605830102
 30
0.0
  0
SPLINE
  5
44E
100
AcDbEntity
  8
0
100
AcDbSpline
 62
7
  6
CONTINUOUS
 70
0
 71
3
 72
14
 73
10
 74
0
 42
0.0000001
 43
0.0000001
 44
0.0000000001
 40
0.0
 40
0.0
 40
0.0
 40
0.0
 40
0.0773646879
 40
0.1638042091
 40
0.2658823226
 40
0.3856897581
 40
0.5224752279
 40
0.6733121686
 40
1.0
 40
1.0
 40
1.0
 40
1.0
 10
403.755459797
 20
244.2605830102
 30
0.0
 10
403.8767245694
 20
244.2605830102
 30
0.0
 10
404.1356781953
 20
244.2007150547
 30
0.0
 10
404.4807325032
 20
243.9539279625
 30
0.0
 10
404.7834364029
 20
243.5717329929
 30
0.0
 10
405.0427530578
 20
243.0701516505
 30
0.0
 10
405.251709448
 20
242.4648095167
 30
0.0
 10
405.4627140307
 20
241.5240024654
 30
0.0
 10
405.5211900137
 20
240.7726477083
 30
0.0
 10
405.5211900137
 20
240.2605830102
 30
0.0
  0
SPLINE
  5
44F
100
AcDbEntity
  8
0
100
AcDbSpline
 62
7
  6
CONTINUOUS
 70
0
 71
3
 72
11
 73
7
 74
0
 42
0.0000001
 43
0.0000001
 44
0.0000000001
 40
0.0
 40
0.0
 40
0.0
 40
0.0
 40
0.2578879002
 40
0.5108190092
 40
0.7572427033
 40
1.0
 40
1.0
 40
1.0
 40
1.0
 10
273.37153893
 20
290.2605830102
 30
0.0
 10
273.37153893
 20
290.7793901299
 30
0.0
 10
273.5590249661
 20
291.8171073329
 30
0.0
 10
274.3737937029
 20
293.1468581364
 30
0.0
 10
275.6138070692
 20
294.0487541794
 30
0.0
 10
276.6100748102
 20
294.2605830102
 30
0.0
 10
277.0984428714
 20
294.2605830102
 30
0.0
  0
SPLINE
  5
450
100
AcDbEntity
  8
0
100
AcDbSpline
 62
7
  6
CONTINUOUS
 70
0
 71
3
 72
11
 73
7
 74
0
 42
0.0000001
 43
0.0000001
 44
0.0000000001
 40
0.0
 40
0.0
 40
0.0
 40
0.0
 40
0.2427572967
 40
0.4891809908
 40
0.7421120998
 40
1.0
 40
1.0
 40
1.0
 40
1.0
 10
277.0984428714
 20
136.2605830102
 30
0.0
 10
276.6100748102
 20
136.2605830102
 30
0.0
 10
275.6138070692
 20
136.472411841
 30
0.0
 10
274.3737937029
 20
137.3743078841
 30
0.0
 10
273.5590249661
 20
138.7040586876
 30
0.0
 10
273.37153893
 20
139.7417758906
 30
0.0
 10
273.37153893
 20
140.2605830102
 30
0.0
  0
SPLINE
  5
451
100
AcDbEntity
  8
0
100
AcDbSpline
 62
7
  6
CONTINUOUS
 70
0
 71
3
 72
11
 73
7
 74
0
 42
0.0000001
 43
0.0000001
 44
0.0000000001
 40
0.0
 40
0.0
 40
0.0
 40
0.0
 40
0.2503887225
 40
0.5005159916
 40
0.7503458673
 40
1.0
 40
1.0
 40
1.0
 40
1.0
 10
313.0595699052
 20
211.2780212948
 30
0.0
 10
312.5704297606
 20
211.3237615825
 30
0.0
 10
311.6001207992
 20
211.59807446
 30
0.0
 10
310.3986417661
 20
212.5044600961
 30
0.0
 10
309.604447777
 20
213.7811826176
 30
0.0
 10
309.4198319197
 20
214.7707501951
 30
0.0
 10
309.4198319197
 20
215.2605830102
 30
0.0
  0
SPLINE
  5
452
100
AcDbEntity
  8
0
100
AcDbSpline
 62
7
  6
CONTINUOUS
 70
0
 71
3
 72
13
 73
9
 74
0
 42
0.0000001
 43
0.0000001
 44
0.0000000001
 40
0.0
 40
0.0
 40
0.0
 40
0.0
 40
0.1071278228
 40
0.2167624749
 40
0.3316398925
 40
0.4533899981
 40
0.717133231
 40
1.0
 40
1.0
 40
1.0
 40
1.0
 10
381.2001678621
 20
244.2605830102
 30
0.0
 10
381.3953842632
 20
244.2605830102
 30
0.0
 10
381.7922197708
 20
244.207162451
 30
0.0
 10
382.3560685815
 20
243.9731606985
 30
0.0
 10
382.8679097838
 20
243.5945801668
 30
0.0
 10
383.4736453174
 20
242.9053508029
 30
0.0
 10
383.9962827241
 20
241.7774115137
 30
0.0
 10
384.1331193338
 20
240.7760441779
 30
0.0
 10
384.1331193338
 20
240.2605830102
 30
0.0
  0
SPLINE
  5
453
100
AcDbEntity
  8
0
100
AcDbSpline
 62
7
  6
CONTINUOUS
 70
0
 71
3
 72
11
 73
7
 74
0
 42
0.0000001
 43
0.0000001
 44
0.0000000001
 40
0.0
 40
0.0
 40
0.0
 40
0.0
 40
0.2424317427
 40
0.4887143122
 40
0.741781331
 40
1.0
 40
1.0
 40
1.0
 40
1.0
 10
349.7176418267
 20
219.2605830102
 30
0.0
 10
350.2046808191
 20
219.2605830102
 30
0.0
 10
351.198671143
 20
219.0485463164
 30
0.0
 10
352.4350016519
 20
218.1461951715
 30
0.0
 10
353.2468374802
 20
216.8165180869
 30
0.0
 10
353.4335627977
 20
215.7793375222
 30
0.0
 10
353.4335627977
 20
215.2605830102
 30
0.0
  0
SPLINE
  5
454
100
AcDbEntity
  8
0
100
AcDbSpline
 62
7
  6
CONTINUOUS
 70
0
 71
3
 72
13
 73
9
 74
0
 42
0.0000001
 43
0.0000001
 44
0.0000000001
 40
0.0
 40
0.0
 40
0.0
 40
0.0
 40
0.2821755217
 40
0.5455861964
 40
0.6673909574
 40
0.782479755
 40
0.8924573241
 40
1.0
 40
1.0
 40
1.0
 40
1.0
 10
242.5228531369
 20
290.2605830102
 30
0.0
 10
242.5228531369
 20
290.7761176656
 30
0.0
 10
242.660837475
 20
291.778298822
 30
0.0
 10
243.1875283704
 20
292.9061254041
 30
0.0
 10
243.7972084263
 20
293.5948908455
 30
0.0
 10
244.3125471198
 20
293.9733594
 30
0.0
 10
244.8800403357
 20
294.2072098187
 30
0.0
 10
245.2792739399
 20
294.2605830102
 30
0.0
 10
245.4757544002
 20
294.2605830102
 30
0.0
  0
SPLINE
  5
455
100
AcDbEntity
  8
0
100
AcDbSpline
 62
7
  6
CONTINUOUS
 70
0
 71
3
 72
11
 73
7
 74
0
 42
0.0000001
 43
0.0000001
 44
0.0000000001
 40
0.0
 40
0.0
 40
0.0
 40
0.0
 40
0.2424317427
 40
0.4887143122
 40
0.741781331
 40
1.0
 40
1.0
 40
1.0
 40
1.0
 10
349.7176418267
 20
244.2605830102
 30
0.0
 10
350.2046808191
 20
244.2605830102
 30
0.0
 10
351.198671143
 20
244.0485463164
 30
0.0
 10
352.4350016519
 20
243.1461951715
 30
0.0
 10
353.2468374802
 20
241.8165180869
 30
0.0
 10
353.4335627977
 20
240.7793375222
 30
0.0
 10
353.4335627977
 20
240.2605830102
 30
0.0
  0
SPLINE
  5
456
100
AcDbEntity
  8
0
100
AcDbSpline
 62
7
  6
CONTINUOUS
 70
0
 71
3
 72
11
 73
7
 74
0
 42
0.0000001
 43
0.0000001
 44
0.0000000001
 40
0.0
 40
0.0
 40
0.0
 40
0.0
 40
0.2503887225
 40
0.5005159916
 40
0.7503458673
 40
1.0
 40
1.0
 40
1.0
 40
1.0
 10
313.0595699052
 20
236.2780212948
 30
0.0
 10
312.5704297606
 20
236.3237615825
 30
0.0
 10
311.6001207992
 20
236.59807446
 30
0.0
 10
310.3986417661
 20
237.5044600961
 30
0.0
 10
309.604447777
 20
238.7811826176
 30
0.0
 10
309.4198319197
 20
239.7707501951
 30
0.0
 10
309.4198319197
 20
240.2605830102
 30
0.0
  0
SPLINE
  5
457
100
AcDbEntity
  8
0
100
AcDbSpline
 62
7
  6
CONTINUOUS
 70
0
 71
3
 72
13
 73
9
 74
0
 42
0.0000001
 43
0.0000001
 44
0.0000000001
 40
0.0
 40
0.0
 40
0.0
 40
0.0
 40
0.1071278228
 40
0.2167624749
 40
0.3316398925
 40
0.4533899981
 40
0.717133231
 40
1.0
 40
1.0
 40
1.0
 40
1.0
 10
381.2001678621
 20
219.2605830102
 30
0.0
 10
381.3953842632
 20
219.2605830102
 30
0.0
 10
381.7922197708
 20
219.207162451
 30
0.0
 10
382.3560685815
 20
218.9731606985
 30
0.0
 10
382.8679097838
 20
218.5945801668
 30
0.0
 10
383.4736453174
 20
217.9053508029
 30
0.0
 10
383.9962827241
 20
216.7774115137
 30
0.0
 10
384.1331193338
 20
215.7760441779
 30
0.0
 10
384.1331193338
 20
215.2605830102
 30
0.0
  0
SPLINE
  5
458
100
AcDbEntity
  8
0
100
AcDbSpline
 62
7
  6
CONTINUOUS
 70
0
 71
3
 72
14
 73
10
 74
0
 42
0.0000001
 43
0.0000001
 44
0.0000000001
 40
0.0
 40
0.0
 40
0.0
 40
0.0
 40
0.3256380516
 40
0.476090249
 40
0.6126551373
 40
0.7324648633
 40
0.8348202164
 40
0.9218377043
 40
1.0
 40
1.0
 40
1.0
 40
1.0
 10
220.9153216946
 20
290.2605830102
 30
0.0
 10
220.9153216946
 20
290.7727048688
 30
0.0
 10
220.9747804277
 20
291.5243830921
 30
0.0
 10
221.189076871
 20
292.4651072739
 30
0.0
 10
221.401341116
 20
293.0705999143
 30
0.0
 10
221.664757323
 20
293.5723217707
 30
0.0
 10
221.9722475224
 20
293.9545786967
 30
0.0
 10
222.3224413374
 20
294.2010045168
 30
0.0
 10
222.5844312057
 20
294.2605830102
 30
0.0
 10
222.7073548627
 20
294.2605830102
 30
0.0
  0
SPLINE
  5
459
100
AcDbEntity
  8
0
100
AcDbSpline
 62
7
  6
CONTINUOUS
 70
0
 71
3
 72
11
 73
7
 74
0
 42
0.0000001
 43
0.0000001
 44
0.0000000001
 40
0.0
 40
0.0
 40
0.0
 40
0.0
 40
0.2504018942
 40
0.5005391642
 40
0.7503622005
 40
1.0
 40
1.0
 40
1.0
 40
1.0
 10
313.432469505
 20
244.2605830102
 30
0.0
 10
313.9543522039
 20
244.2605830102
 30
0.0
 10
315.008948284
 20
244.0527272219
 30
0.0
 10
316.3426250885
 20
243.1629876995
 30
0.0
 10
317.2356979998
 20
241.8332803973
 30
0.0
 10
317.4445298416
 20
240.7808731981
 30
0.0
 10
317.4445298416
 20
240.2605830102
 30
0.0
  0
SPLINE
  5
45A
100
AcDbEntity
  8
0
100
AcDbSpline
 62
7
  6
CONTINUOUS
 70
0
 71
3
 72
16
 73
12
 74
0
 42
0.0000001
 43
0.0000001
 44
0.0000000001
 40
0.0
 40
0.0
 40
0.0
 40
0.0
 40
0.3763581496
 40
0.5465003989
 40
0.695942717
 40
0.8189819932
 40
0.8692833648
 40
0.9115166847
 40
0.9453783439
 40
0.9709358871
 40
1.0
 40
1.0
 40
1.0
 40
1.0
 10
211.3797899042
 20
290.2605830102
 30
0.0
 10
211.3797899042
 20
290.7708937125
 30
0.0
 10
211.3901942582
 20
291.5120325558
 30
0.0
 10
211.4311390955
 20
292.4548275949
 30
0.0
 10
211.4729637101
 20
293.0536796558
 30
0.0
 10
211.5198231255
 20
293.4888490326
 30
0.0
 10
211.5664392405
 20
293.7778449508
 30
0.0
 10
211.6010613254
 20
293.9449594797
 30
0.0
 10
211.6400672119
 20
294.0796760354
 30
0.0
 10
211.6818338932
 20
294.1855476877
 30
0.0
 10
211.736768631
 20
294.2605830102
 30
0.0
 10
211.7761771781
 20
294.2605830102
 30
0.0
  0
SPLINE
  5
45B
100
AcDbEntity
  8
0
100
AcDbSpline
 62
7
  6
CONTINUOUS
 70
0
 71
3
 72
14
 73
10
 74
0
 42
0.0000001
 43
0.0000001
 44
0.0000000001
 40
0.0
 40
0.0
 40
0.0
 40
0.0
 40
0.0773646879
 40
0.1638042091
 40
0.2658823226
 40
0.3856897581
 40
0.5224752279
 40
0.6733121686
 40
1.0
 40
1.0
 40
1.0
 40
1.0
 10
403.755459797
 20
219.2605830102
 30
0.0
 10
403.8767245694
 20
219.2605830102
 30
0.0
 10
404.1356781953
 20
219.2007150547
 30
0.0
 10
404.4807325032
 20
218.9539279625
 30
0.0
 10
404.7834364029
 20
218.5717329929
 30
0.0
 10
405.0427530578
 20
218.0701516505
 30
0.0
 10
405.251709448
 20
217.4648095167
 30
0.0
 10
405.4627140307
 20
216.5240024654
 30
0.0
 10
405.5211900137
 20
215.7726477083
 30
0.0
 10
405.5211900137
 20
215.2605830102
 30
0.0
  0
SPLINE
  5
45C
100
AcDbEntity
  8
0
100
AcDbSpline
 62
7
  6
CONTINUOUS
 70
0
 71
3
 72
11
 73
7
 74
0
 42
0.0000001
 43
0.0000001
 44
0.0000000001
 40
0.0
 40
0.0
 40
0.0
 40
0.0
 40
0.2427572967
 40
0.4891809908
 40
0.7421120998
 40
1.0
 40
1.0
 40
1.0
 40
1.0
 10
277.0984428714
 20
236.2605830102
 30
0.0
 10
276.6100748102
 20
236.2605830102
 30
0.0
 10
275.6138070692
 20
236.472411841
 30
0.0
 10
274.3737937029
 20
237.3743078841
 30
0.0
 10
273.5590249661
 20
238.7040586876
 30
0.0
 10
273.37153893
 20
239.7417758906
 30
0.0
 10
273.37153893
 20
240.2605830102
 30
0.0
  0
SPLINE
  5
45D
100
AcDbEntity
  8
0
100
AcDbSpline
 62
7
  6
CONTINUOUS
 70
0
 71
3
 72
16
 73
12
 74
0
 42
0.0000001
 43
0.0000001
 44
0.0000000001
 40
0.0
 40
0.0
 40
0.0
 40
0.0
 40
0.0280731122
 40
0.0534141181
 40
0.0871591737
 40
0.1293446753
 40
0.1796489406
 40
0.302807315
 40
0.452477189
 40
0.6229206161
 40
1.0
 40
1.0
 40
1.0
 40
1.0
 10
414.4285043593
 20
219.2605830102
 30
0.0
 10
414.4664955354
 20
219.2605830102
 30
0.0
 10
414.5173590896
 20
219.1838361366
 30
0.0
 10
414.5558779456
 20
219.0796371442
 30
0.0
 10
414.592175851
 20
218.9447061844
 30
0.0
 10
414.6242707014
 20
218.7777706696
 30
0.0
 10
414.6674311369
 20
218.4886653661
 30
0.0
 10
414.7105821595
 20
218.0535515702
 30
0.0
 10
414.7489158015
 20
217.4547471733
 30
0.0
 10
414.7862620256
 20
216.5119543744
 30
0.0
 10
414.7956815237
 20
215.7708823017
 30
0.0
 10
414.7956815237
 20
215.2605830102
 30
0.0
  0
SPLINE
  5
45E
100
AcDbEntity
  8
0
100
AcDbSpline
 62
7
  6
CONTINUOUS
 70
0
 71
3
 72
13
 73
9
 74
0
 42
0.0000001
 43
0.0000001
 44
0.0000000001
 40
0.0
 40
0.0
 40
0.0
 40
0.0
 40
0.1075426759
 40
0.217520245
 40
0.3326090426
 40
0.4544138036
 40
0.7178244783
 40
1.0
 40
1.0
 40
1.0
 40
1.0
 10
245.4757544002
 20
236.2605830102
 30
0.0
 10
245.2792739399
 20
236.2605830102
 30
0.0
 10
244.8800403357
 20
236.3139562018
 30
0.0
 10
244.3125471198
 20
236.5478066205
 30
0.0
 10
243.7972084263
 20
236.926275175
 30
0.0
 10
243.1875283704
 20
237.6150406164
 30
0.0
 10
242.660837475
 20
238.7428671985
 30
0.0
 10
242.5228531369
 20
239.7450483549
 30
0.0
 10
242.5228531369
 20
240.2605830102
 30
0.0
  0
SPLINE
  5
45F
100
AcDbEntity
  8
0
100
AcDbSpline
 62
7
  6
CONTINUOUS
 70
0
 71
3
 72
14
 73
10
 74
0
 42
0.0000001
 43
0.0000001
 44
0.0000000001
 40
0.0
 40
0.0
 40
0.0
 40
0.0
 40
0.0781622957
 40
0.1651797836
 40
0.2675351367
 40
0.3873448627
 40
0.523909751
 40
0.6743619484
 40
1.0
 40
1.0
 40
1.0
 40
1.0
 10
222.7073548627
 20
236.2605830102
 30
0.0
 10
222.5844312057
 20
236.2605830102
 30
0.0
 10
222.3224413374
 20
236.3201615037
 30
0.0
 10
221.9722475224
 20
236.5665873237
 30
0.0
 10
221.664757323
 20
236.9488442498
 30
0.0
 10
221.401341116
 20
237.4505661062
 30
0.0
 10
221.189076871
 20
238.0560587466
 30
0.0
 10
220.9747804277
 20
238.9967829284
 30
0.0
 10
220.9153216946
 20
239.7484611517
 30
0.0
 10
220.9153216946
 20
240.2605830102
 30
0.0
  0
SPLINE
  5
460
100
AcDbEntity
  8
0
100
AcDbSpline
 62
7
  6
CONTINUOUS
 70
0
 71
3
 72
16
 73
12
 74
0
 42
0.0000001
 43
0.0000001
 44
0.0000000001
 40
0.0
 40
0.0
 40
0.0
 40
0.0
 40
0.0290641129
 40
0.0546216561
 40
0.0884833153
 40
0.1307166352
 40
0.1810180068
 40
0.304057283
 40
0.4534996011
 40
0.6236418504
 40
1.0
 40
1.0
 40
1.0
 40
1.0
 10
211.7761771781
 20
236.2605830102
 30
0.0
 10
211.736768631
 20
236.2605830102
 30
0.0
 10
211.6818338932
 20
236.3356183328
 30
0.0
 10
211.6400672119
 20
236.4414899851
 30
0.0
 10
211.6010613254
 20
236.5762065408
 30
0.0
 10
211.5664392405
 20
236.7433210696
 30
0.0
 10
211.5198231255
 20
237.0323169879
 30
0.0
 10
211.4729637101
 20
237.4674863647
 30
0.0
 10
211.4311390955
 20
238.0663384256
 30
0.0
 10
211.3901942582
 20
239.0091334647
 30
0.0
 10
211.3797899042
 20
239.750272308
 30
0.0
 10
211.3797899042
 20
240.2605830102
 30
0.0
  0
SPLINE
  5
461
100
AcDbEntity
  8
0
100
AcDbSpline
 62
7
  6
CONTINUOUS
 70
0
 71
3
 72
11
 73
7
 74
0
 42
0.0000001
 43
0.0000001
 44
0.0000000001
 40
0.0
 40
0.0
 40
0.0
 40
0.0
 40
0.2504018942
 40
0.5005391642
 40
0.7503622005
 40
1.0
 40
1.0
 40
1.0
 40
1.0
 10
313.432469505
 20
144.2605830102
 30
0.0
 10
313.9543522039
 20
144.2605830102
 30
0.0
 10
315.008948284
 20
144.0527272219
 30
0.0
 10
316.3426250885
 20
143.1629876995
 30
0.0
 10
317.2356979998
 20
141.8332803973
 30
0.0
 10
317.4445298416
 20
140.7808731981
 30
0.0
 10
317.4445298416
 20
140.2605830102
 30
0.0
  0
SPLINE
  5
462
100
AcDbEntity
  8
0
100
AcDbSpline
 62
7
  6
CONTINUOUS
 70
0
 71
3
 72
11
 73
7
 74
0
 42
0.0000001
 43
0.0000001
 44
0.0000000001
 40
0.0
 40
0.0
 40
0.0
 40
0.0
 40
0.2503887225
 40
0.5005159916
 40
0.7503458673
 40
1.0
 40
1.0
 40
1.0
 40
1.0
 10
313.0595699052
 20
136.2780212948
 30
0.0
 10
312.5704297606
 20
136.3237615825
 30
0.0
 10
311.6001207992
 20
136.59807446
 30
0.0
 10
310.3986417661
 20
137.5044600961
 30
0.0
 10
309.604447777
 20
138.7811826176
 30
0.0
 10
309.4198319197
 20
139.7707501951
 30
0.0
 10
309.4198319197
 20
140.2605830102
 30
0.0
  0
SPLINE
  5
463
100
AcDbEntity
  8
03___PRT_ALL_CURVES
100
AcDbSpline
 62
2
  6
CONTINUOUS
 70
0
 71
3
 72
8
 73
4
 74
0
 42
0.0000001
 43
0.0000001
 44
0.0000000001
 40
0.0
 40
0.0
 40
0.0
 40
0.0
 40
1.0
 40
1.0
 40
1.0
 40
1.0
 10
301.1221363011
 20
331.3666954671
 30
0.0
 10
301.0188594589
 20
331.2965211626
 30
0.0
 10
300.9021931517
 20
331.2588451936
 30
0.0
 10
300.7716033096
 20
331.2587850654
 30
0.0
  0
SPLINE
  5
464
100
AcDbEntity
  8
03___PRT_ALL_CURVES
100
AcDbSpline
 62
2
  6
CONTINUOUS
 70
0
 71
3
 72
8
 73
4
 74
0
 42
0.0000001
 43
0.0000001
 44
0.0000000001
 40
0.0
 40
0.0
 40
0.0
 40
0.0
 40
1.0
 40
1.0
 40
1.0
 40
1.0
 10
300.7716028626
 20
332.2091692019
 30
0.0
 10
300.8308640928
 20
332.2091692019
 30
0.0
 10
300.8918630745
 20
332.2055504349
 30
0.0
 10
300.9546068007
 20
332.1984204465
 30
0.0
  0
SPLINE
  5
465
100
AcDbEntity
  8
03___PRT_ALL_CURVES
100
AcDbSpline
 62
2
  6
CONTINUOUS
 70
0
 71
3
 72
8
 73
4
 74
0
 42
0.0000001
 43
0.0000001
 44
0.0000000001
 40
0.0
 40
0.0
 40
0.0
 40
0.0
 40
1.0
 40
1.0
 40
1.0
 40
1.0
 10
301.1221363011
 20
331.3666954671
 30
0.0
 10
301.0183474406
 20
331.2961732576
 30
0.0
 10
300.8974713124
 20
331.2588430195
 30
0.0
 10
300.7716033096
 20
331.2587850654
 30
0.0
  0
SPLINE
  5
466
100
AcDbEntity
  8
03___PRT_ALL_CURVES
100
AcDbSpline
 62
2
  6
CONTINUOUS
 70
0
 71
3
 72
10
 73
6
 74
0
 42
0.0000001
 43
0.0000001
 44
0.0000000001
 40
0.0
 40
0.0
 40
0.0
 40
0.0
 40
0.375
 40
0.75
 40
1.0
 40
1.0
 40
1.0
 40
1.0
 10
300.9546068008
 20
332.1984204465
 30
0.0
 10
301.0180808522
 20
332.1910567326
 30
0.0
 10
301.1346453184
 20
332.1486005067
 30
0.0
 10
301.2521889294
 20
332.0252671593
 30
0.0
 10
301.2892941398
 20
331.9312646002
 30
0.0
 10
301.2985660346
 20
331.8902913193
 30
0.0
  0
SPLINE
  5
467
100
AcDbEntity
  8
03___PRT_ALL_CURVES
100
AcDbSpline
 62
2
  6
CONTINUOUS
 70
0
 71
3
 72
8
 73
4
 74
0
 42
0.0000001
 43
0.0000001
 44
0.0000000001
 40
0.0
 40
0.0
 40
0.0
 40
0.0
 40
1.0
 40
1.0
 40
1.0
 40
1.0
 10
300.7716033096
 20
332.2091692019
 30
0.0
 10
300.8305615393
 20
332.2091692019
 30
0.0
 10
300.8916223951
 20
332.2055777849
 30
0.0
 10
300.9546068007
 20
332.1984204465
 30
0.0
  0
SPLINE
  5
468
100
AcDbEntity
  8
03___PRT_ALL_CURVES
100
AcDbSpline
 62
2
  6
CONTINUOUS
 70
0
 71
3
 72
9
 73
5
 74
0
 42
0.0000001
 43
0.0000001
 44
0.0000000001
 40
0.0
 40
0.0
 40
0.0
 40
0.0
 40
0.5
 40
1.0
 40
1.0
 40
1.0
 40
1.0
 10
332.5910564459
 20
334.7921639354
 30
0.0
 10
332.7405171573
 20
334.642477195
 30
0.0
 10
332.97030462
 20
334.2870820077
 30
0.0
 10
333.0596639957
 20
333.871488314
 30
0.0
 10
333.0596997065
 20
333.6607952083
 30
0.0
  0
SPLINE
  5
469
100
AcDbEntity
  8
03___PRT_ALL_CURVES
100
AcDbSpline
 62
2
  6
CONTINUOUS
 70
0
 71
3
 72
9
 73
5
 74
0
 42
0.0000001
 43
0.0000001
 44
0.0000000001
 40
0.0
 40
0.0
 40
0.0
 40
0.0
 40
0.5
 40
1.0
 40
1.0
 40
1.0
 40
1.0
 10
331.4602098693
 20
335.2605830102
 30
0.0
 10
331.6685745431
 20
335.2605617922
 30
0.0
 10
332.0787792928
 20
335.1743054727
 30
0.0
 10
332.439376121
 20
334.9439537866
 30
0.0
 10
332.5910564459
 20
334.7921639353
 30
0.0
  0
SPLINE
  5
46A
100
AcDbEntity
  8
03___PRT_ALL_CURVES
100
AcDbSpline
 62
2
  6
CONTINUOUS
 70
0
 71
3
 72
11
 73
7
 74
0
 42
0.0000001
 43
0.0000001
 44
0.0000000001
 40
0.0
 40
0.0
 40
0.0
 40
0.0
 40
0.25
 40
0.5
 40
0.75
 40
1.0
 40
1.0
 40
1.0
 40
1.0
 10
332.5910564459
 20
334.7921639354
 30
0.0
 10
332.6633268155
 20
334.7197597318
 30
0.0
 10
332.7926188243
 20
334.5613800963
 30
0.0
 10
332.9467047792
 20
334.2725661636
 30
0.0
 10
333.0400069871
 20
333.9605325155
 30
0.0
 10
333.0596997065
 20
333.7606624625
 30
0.0
 10
333.0596997065
 20
333.6607952083
 30
0.0
  0
SPLINE
  5
46B
100
AcDbEntity
  8
03___PRT_ALL_CURVES
100
AcDbSpline
 62
2
  6
CONTINUOUS
 70
0
 71
3
 72
11
 73
7
 74
0
 42
0.0000001
 43
0.0000001
 44
0.0000000001
 40
0.0
 40
0.0
 40
0.0
 40
0.0
 40
0.25
 40
0.5
 40
0.75
 40
1.0
 40
1.0
 40
1.0
 40
1.0
 10
331.4599119045
 20
335.2605830102
 30
0.0
 10
331.5612444443
 20
335.2605830102
 30
0.0
 10
331.7633828586
 20
335.2403902515
 30
0.0
 10
332.0771792538
 20
335.1457305023
 30
0.0
 10
332.3650357792
 20
334.9907871294
 30
0.0
 10
332.5203813146
 20
334.8629699466
 30
0.0
 10
332.5910564459
 20
334.7921639354
 30
0.0
  0
SPLINE
  5
46C
100
AcDbEntity
  8
03___PRT_ALL_CURVES
100
AcDbSpline
 62
2
  6
CONTINUOUS
 70
0
 71
3
 72
9
 73
5
 74
0
 42
0.0000001
 43
0.0000001
 44
0.0000000001
 40
0.0
 40
0.0
 40
0.0
 40
0.0
 40
0.5
 40
1.0
 40
1.0
 40
1.0
 40
1.0
 10
331.4599119045
 20
334.8606969214
 30
0.0
 10
331.6184565678
 20
334.8606969214
 30
0.0
 10
331.9277432386
 20
334.792876051
 30
0.0
 10
332.195579264
 20
334.6220464961
 30
0.0
 10
332.3080175419
 20
334.5095175656
 30
0.0
  0
SPLINE
  5
46D
100
AcDbEntity
  8
03___PRT_ALL_CURVES
100
AcDbSpline
 62
2
  6
CONTINUOUS
 70
0
 71
3
 72
9
 73
5
 74
0
 42
0.0000001
 43
0.0000001
 44
0.0000000001
 40
0.0
 40
0.0
 40
0.0
 40
0.0
 40
0.5
 40
1.0
 40
1.0
 40
1.0
 40
1.0
 10
332.3080175419
 20
334.5095175656
 30
0.0
 10
332.4197423004
 20
334.3976048421
 30
0.0
 10
332.5910658568
 20
334.130543371
 30
0.0
 10
332.6595894318
 20
333.8194002088
 30
0.0
 10
332.6595894318
 20
333.6608143667
 30
0.0
  0
SPLINE
  5
46E
100
AcDbEntity
  8
03___PRT_ALL_CURVES
100
AcDbSpline
 62
2
  6
CONTINUOUS
 70
0
 71
3
 72
17
 73
13
 74
0
 42
0.0000001
 43
0.0000001
 44
0.0000000001
 40
0.0
 40
0.0
 40
0.0
 40
0.0
 40
0.0625
 40
0.125
 40
0.25
 40
0.375
 40
0.5
 40
0.625
 40
0.75
 40
0.875
 40
0.9375
 40
1.0
 40
1.0
 40
1.0
 40
1.0
 10
314.4522127202
 20
330.3448149813
 30
0.0
 10
314.4991187948
 20
330.4589917651
 30
0.0
 10
314.5687277963
 20
330.6909983003
 30
0.0
 10
314.6174818028
 20
331.1806752756
 30
0.0
 10
314.497288861
 20
331.7949661519
 30
0.0
 10
314.0837265726
 20
332.4202106897
 30
0.0
 10
313.4665681252
 20
332.8358455807
 30
0.0
 10
312.7404220259
 20
332.9818488737
 30
0.0
 10
312.0158761074
 20
332.8355369687
 30
0.0
 10
311.5043053781
 20
332.491568681
 30
0.0
 10
311.1958410856
 20
332.1139793703
 30
0.0
 10
311.0814808215
 20
331.9005522816
 30
0.0
 10
311.0340641615
 20
331.7862314031
 30
0.0
  0
SPLINE
  5
46F
100
AcDbEntity
  8
03___PRT_ALL_CURVES
100
AcDbSpline
 62
2
  6
CONTINUOUS
 70
0
 71
3
 72
17
 73
13
 74
0
 42
0.0000001
 43
0.0000001
 44
0.0000000001
 40
0.0
 40
0.0
 40
0.0
 40
0.0
 40
0.0625
 40
0.125
 40
0.25
 40
0.375
 40
0.5
 40
0.625
 40
0.75
 40
0.875
 40
0.9375
 40
1.0
 40
1.0
 40
1.0
 40
1.0
 10
311.0340641615
 20
331.7862314031
 30
0.0
 10
310.9863449169
 20
331.6711809977
 30
0.0
 10
310.9156536379
 20
331.4375314502
 30
0.0
 10
310.8651444215
 20
330.9470415327
 30
0.0
 10
310.982745917
 20
330.3320590368
 30
0.0
 10
311.3953034843
 20
329.7051789494
 30
0.0
 10
312.0139025994
 20
329.2863478024
 30
0.0
 10
312.7421998508
 20
329.1400454007
 30
0.0
 10
313.4700982096
 20
329.2878207309
 30
0.0
 10
313.9834864693
 20
329.6352529623
 30
0.0
 10
314.2915847301
 20
330.0164904182
 30
0.0
 10
314.4052093064
 20
330.2304025925
 30
0.0
 10
314.4522098263
 20
330.3448079374
 30
0.0
  0
SPLINE
  5
470
100
AcDbEntity
  8
03___PRT_ALL_CURVES
100
AcDbSpline
 62
2
  6
CONTINUOUS
 70
0
 71
3
 72
14
 73
10
 74
0
 42
0.0000001
 43
0.0000001
 44
0.0000000001
 40
0.0
 40
0.0
 40
0.0
 40
0.0
 40
0.125
 40
0.25
 40
0.5
 40
0.625
 40
0.75
 40
0.875
 40
1.0
 40
1.0
 40
1.0
 40
1.0
 10
293.459550379
 20
333.6608143668
 30
0.0
 10
293.4595606059
 20
333.731712031
 30
0.0
 10
293.4732573877
 20
333.8738873885
 30
0.0
 10
293.5598745569
 20
334.1775162502
 30
0.0
 10
293.7376667442
 20
334.4631461068
 30
0.0
 10
294.0006057014
 20
334.6720070427
 30
0.0
 10
294.2168790372
 20
334.7814834788
 30
0.0
 10
294.444884906
 20
334.8466338878
 30
0.0
 10
294.5877464305
 20
334.8606969214
 30
0.0
 10
294.6592279062
 20
334.8606969214
 30
0.0
  0
SPLINE
  5
471
100
AcDbEntity
  8
03___PRT_ALL_CURVES
100
AcDbSpline
 62
2
  6
CONTINUOUS
 70
0
 71
3
 72
17
 73
13
 74
0
 42
0.0000001
 43
0.0000001
 44
0.0000000001
 40
0.0
 40
0.0
 40
0.0
 40
0.0
 40
0.0625
 40
0.125
 40
0.25
 40
0.375
 40
0.5
 40
0.625
 40
0.75
 40
0.875
 40
0.9375
 40
1.0
 40
1.0
 40
1.0
 40
1.0
 10
314.4522102918
 20
330.3448090703
 30
0.0
 10
314.4051986189
 20
330.2303763632
 30
0.0
 10
314.2915450729
 20
330.0164155099
 30
0.0
 10
313.9833073809
 20
329.6350700122
 30
0.0
 10
313.469696203
 20
329.2876303319
 30
0.0
 10
312.7415958739
 20
329.1400233212
 30
0.0
 10
312.0131793707
 20
329.2866288905
 30
0.0
 10
311.3946511904
 20
329.7058191573
 30
0.0
 10
310.9822961143
 20
330.3330672873
 30
0.0
 10
310.8650720799
 20
330.9483820533
 30
0.0
 10
310.9158936523
 20
331.4386112768
 30
0.0
 10
310.9866084453
 20
331.6719183366
 30
0.0
 10
311.0342856414
 20
331.7867651468
 30
0.0
  0
SPLINE
  5
472
100
AcDbEntity
  8
03___PRT_ALL_CURVES
100
AcDbSpline
 62
2
  6
CONTINUOUS
 70
0
 71
3
 72
9
 73
5
 74
0
 42
0.0000001
 43
0.0000001
 44
0.0000000001
 40
0.0
 40
0.0
 40
0.0
 40
0.0
 40
0.5
 40
1.0
 40
1.0
 40
1.0
 40
1.0
 10
331.4599119045
 20
334.8606969214
 30
0.0
 10
331.6152465311
 20
334.8606969214
 30
0.0
 10
331.9203223567
 20
334.795789934
 30
0.0
 10
332.1929102917
 20
334.6247176203
 30
0.0
 10
332.3080175419
 20
334.5095175656
 30
0.0
  0
SPLINE
  5
473
100
AcDbEntity
  8
03___PRT_ALL_CURVES
100
AcDbSpline
 62
2
  6
CONTINUOUS
 70
0
 71
3
 72
18
 73
14
 74
0
 42
0.0000001
 43
0.0000001
 44
0.0000000001
 40
0.0
 40
0.0
 40
0.0
 40
0.0
 40
0.0625
 40
0.125
 40
0.25
 40
0.375
 40
0.5
 40
0.625
 40
0.6875
 40
0.75
 40
0.875
 40
0.9375
 40
1.0
 40
1.0
 40
1.0
 40
1.0
 10
313.5271923459
 20
331.8727381185
 30
0.0
 10
313.5790095004
 20
331.8195783213
 30
0.0
 10
313.6699123345
 20
331.705913486
 30
0.0
 10
313.8105743755
 20
331.4395827026
 30
0.0
 10
313.8850254024
 20
331.0615711319
 30
0.0
 10
313.7954226596
 20
330.6057038638
 30
0.0
 10
313.5436313415
 20
330.2237268204
 30
0.0
 10
313.2315154534
 20
330.012951882
 30
0.0
 10
312.956172524
 20
329.9284653324
 30
0.0
 10
312.6639048239
 20
329.8985000474
 30
0.0
 10
312.3782064427
 20
329.955478466
 30
0.0
 10
312.1179699265
 20
330.0964328809
 30
0.0
 10
312.0055093451
 20
330.189657945
 30
0.0
 10
311.9525503918
 20
330.2431865149
 30
0.0
  0
SPLINE
  5
474
100
AcDbEntity
  8
03___PRT_ALL_CURVES
100
AcDbSpline
 62
2
  6
CONTINUOUS
 70
0
 71
3
 72
11
 73
7
 74
0
 42
0.0000001
 43
0.0000001
 44
0.0000000001
 40
0.0
 40
0.0
 40
0.0
 40
0.0
 40
0.25
 40
0.5
 40
0.75
 40
1.0
 40
1.0
 40
1.0
 40
1.0
 10
294.6592279063
 20
327.6607717932
 30
0.0
 10
294.5024590499
 20
327.6607717932
 30
0.0
 10
294.1969847629
 20
327.7261823898
 30
0.0
 10
293.7910854731
 20
327.9833620401
 30
0.0
 10
293.5274493169
 20
328.3897189386
 30
0.0
 10
293.459550379
 20
328.7012787163
 30
0.0
 10
293.459550379
 20
328.8606543479
 30
0.0
  0
SPLINE
  5
475
100
AcDbEntity
  8
03___PRT_ALL_CURVES
100
AcDbSpline
 62
2
  6
CONTINUOUS
 70
0
 71
3
 72
18
 73
14
 74
0
 42
0.0000001
 43
0.0000001
 44
0.0000000001
 40
0.0
 40
0.0
 40
0.0
 40
0.0
 40
0.0625
 40
0.125
 40
0.25
 40
0.375
 40
0.5
 40
0.625
 40
0.6875
 40
0.75
 40
0.875
 40
0.9375
 40
1.0
 40
1.0
 40
1.0
 40
1.0
 10
311.95254988
 20
330.2431870322
 30
0.0
 10
311.8995547458
 20
330.2967522408
 30
0.0
 10
311.8066838181
 20
330.4112211722
 30
0.0
 10
311.6637830387
 20
330.679121242
 30
0.0
 10
311.5893861204
 20
331.0590850132
 30
0.0
 10
311.6778650726
 20
331.5158476692
 30
0.0
 10
311.9300568505
 20
331.8986594277
 30
0.0
 10
312.2433067121
 20
332.1096101479
 30
0.0
 10
312.5200890397
 20
332.1946431571
 30
0.0
 10
312.8153242389
 20
332.2239753988
 30
0.0
 10
313.103368256
 20
332.1632821554
 30
0.0
 10
313.3627286247
 20
332.0205331004
 30
0.0
 10
313.4743870359
 20
331.9268490674
 30
0.0
 10
313.5267394363
 20
331.8732024937
 30
0.0
  0
SPLINE
  5
476
100
AcDbEntity
  8
03___PRT_ALL_CURVES
100
AcDbSpline
 62
2
  6
CONTINUOUS
 70
0
 71
3
 72
11
 73
7
 74
0
 42
0.0000001
 43
0.0000001
 44
0.0000000001
 40
0.0
 40
0.0
 40
0.0
 40
0.0
 40
0.25
 40
0.5
 40
0.75
 40
1.0
 40
1.0
 40
1.0
 40
1.0
 10
294.6589348767
 20
327.6607717932
 30
0.0
 10
294.504630969
 20
327.6607940483
 30
0.0
 10
294.1978350263
 20
327.7243303063
 30
0.0
 10
293.7800171284
 20
327.9918892032
 30
0.0
 10
293.5202056735
 20
328.4091905235
 30
0.0
 10
293.459550379
 20
328.7101708701
 30
0.0
 10
293.459550379
 20
328.8606543479
 30
0.0
  0
SPLINE
  5
477
100
AcDbEntity
  8
03___PRT_ALL_CURVES
100
AcDbSpline
 62
2
  6
CONTINUOUS
 70
0
 71
3
 72
13
 73
9
 74
0
 42
0.0000001
 43
0.0000001
 44
0.0000000001
 40
0.0
 40
0.0
 40
0.0
 40
0.0
 40
0.125
 40
0.25
 40
0.5
 40
0.75
 40
0.875
 40
1.0
 40
1.0
 40
1.0
 40
1.0
 10
332.6595894318
 20
328.8606543478
 30
0.0
 10
332.6595793126
 20
328.7905033731
 30
0.0
 10
332.6461447364
 20
328.6495238115
 30
0.0
 10
332.5611516454
 20
328.3477093034
 30
0.0
 10
332.3385095706
 20
327.9887536475
 30
0.0
 10
331.9807430584
 20
327.7628228108
 30
0.0
 10
331.6762946286
 20
327.675061822
 30
0.0
 10
331.5320739149
 20
327.6607717932
 30
0.0
 10
331.4599119046
 20
327.6607717932
 30
0.0
  0
SPLINE
  5
478
100
AcDbEntity
  8
03___PRT_ALL_CURVES
100
AcDbSpline
 62
2
  6
CONTINUOUS
 70
0
 71
3
 72
11
 73
7
 74
0
 42
0.0000001
 43
0.0000001
 44
0.0000000001
 40
0.0
 40
0.0
 40
0.0
 40
0.0
 40
0.25
 40
0.5
 40
0.75
 40
1.0
 40
1.0
 40
1.0
 40
1.0
 10
332.3080175419
 20
334.5095175656
 30
0.0
 10
332.3606738096
 20
334.4567727093
 30
0.0
 10
332.4561558468
 20
334.3400562935
 30
0.0
 10
332.5749401816
 20
334.118903212
 30
0.0
 10
332.6453034915
 20
333.8795931223
 30
0.0
 10
332.6595894318
 20
333.7329791782
 30
0.0
 10
332.6595894318
 20
333.6608143667
 30
0.0
  0
SPLINE
  5
479
100
AcDbEntity
  8
03___PRT_ALL_CURVES
100
AcDbSpline
 62
2
  6
CONTINUOUS
 70
0
 71
3
 72
16
 73
12
 74
0
 42
0.0000001
 43
0.0000001
 44
0.0000000001
 40
0.0
 40
0.0
 40
0.0
 40
0.0
 40
0.125
 40
0.25
 40
0.3125
 40
0.375
 40
0.4375
 40
0.5
 40
0.625
 40
0.75
 40
1.0
 40
1.0
 40
1.0
 40
1.0
 10
313.527262287
 20
331.8726663586
 30
0.0
 10
313.4189809015
 20
331.9837733734
 30
0.0
 10
313.1671936787
 20
332.1528448955
 30
0.0
 10
312.786272771
 20
332.2286776902
 30
0.0
 10
312.4661073061
 20
332.1839333837
 30
0.0
 10
312.2379210103
 20
332.097935427
 30
0.0
 10
312.0420391784
 20
331.969742129
 30
0.0
 10
311.8319058527
 20
331.7631182278
 30
0.0
 10
311.6519338781
 20
331.4368850632
 30
0.0
 10
311.5752241145
 20
330.8643425229
 30
0.0
 10
311.749432688
 20
330.4486895853
 30
0.0
 10
311.9521609326
 20
330.2435803555
 30
0.0
  0
SPLINE
  5
47A
100
AcDbEntity
  8
03___PRT_ALL_CURVES
100
AcDbSpline
 62
2
  6
CONTINUOUS
 70
0
 71
3
 72
18
 73
14
 74
0
 42
0.0000001
 43
0.0000001
 44
0.0000000001
 40
0.0
 40
0.0
 40
0.0
 40
0.0
 40
0.0625
 40
0.125
 40
0.25
 40
0.3125
 40
0.375
 40
0.5
 40
0.625
 40
0.75
 40
0.875
 40
0.9375
 40
1.0
 40
1.0
 40
1.0
 40
1.0
 10
311.952474287
 20
330.2432634455
 30
0.0
 10
312.0048491863
 20
330.1903150967
 30
0.0
 10
312.1164216446
 20
330.0974461301
 30
0.0
 10
312.3781884745
 20
329.955232175
 30
0.0
 10
312.6626128979
 20
329.8994543745
 30
0.0
 10
312.9466675076
 20
329.9267397153
 30
0.0
 10
313.2318032569
 20
330.0108505798
 30
0.0
 10
313.567064891
 20
330.2428272296
 30
0.0
 10
313.8076960642
 20
330.6415122958
 30
0.0
 10
313.8817074967
 20
331.0764015241
 30
0.0
 10
313.8105290395
 20
331.4383986967
 30
0.0
 10
313.6708018589
 20
331.7046895021
 30
0.0
 10
313.579739471
 20
331.8187559978
 30
0.0
 10
313.5277256087
 20
331.8721906638
 30
0.0
  0
SPLINE
  5
47B
100
AcDbEntity
  8
03___PRT_ALL_CURVES
100
AcDbSpline
 62
2
  6
CONTINUOUS
 70
0
 71
3
 72
11
 73
7
 74
0
 42
0.0000001
 43
0.0000001
 44
0.0000000001
 40
0.0
 40
0.0
 40
0.0
 40
0.0
 40
0.25
 40
0.5
 40
0.75
 40
1.0
 40
1.0
 40
1.0
 40
1.0
 10
293.459550379
 20
333.6608143667
 30
0.0
 10
293.459550379
 20
333.8175947797
 30
0.0
 10
293.5253020498
 20
334.1226057733
 30
0.0
 10
293.7801791032
 20
334.5274207704
 30
0.0
 10
294.1892545025
 20
334.7936061966
 30
0.0
 10
294.5003121132
 20
334.8606969214
 30
0.0
 10
294.6592279062
 20
334.8606969214
 30
0.0
  0
SPLINE
  5
47C
100
AcDbEntity
  8
03___PRT_ALL_CURVES
100
AcDbSpline
 62
2
  6
CONTINUOUS
 70
0
 71
3
 72
11
 73
7
 74
0
 42
0.0000001
 43
0.0000001
 44
0.0000000001
 40
0.0
 40
0.0
 40
0.0
 40
0.0
 40
0.25
 40
0.5
 40
0.75
 40
1.0
 40
1.0
 40
1.0
 40
1.0
 10
332.6595894318
 20
328.8606543479
 30
0.0
 10
332.6595894318
 20
328.7038960377
 30
0.0
 10
332.5940348489
 20
328.3988168143
 30
0.0
 10
332.3390955849
 20
327.9941422502
 30
0.0
 10
331.9297217677
 20
327.7281122562
 30
0.0
 10
331.618881346
 20
327.6607717932
 30
0.0
 10
331.4599119046
 20
327.6607717932
 30
0.0
  0
SPLINE
  5
47D
100
AcDbEntity
  8
0
100
AcDbSpline
 62
3
  6
CONTINUOUS
 70
0
 71
3
 72
10
 73
6
 74
0
 42
0.0000001
 43
0.0000001
 44
0.0000000001
 40
0.0
 40
0.0
 40
0.0
 40
0.0
 40
0.5656082422
 40
0.8065112282
 40
1.0
 40
1.0
 40
1.0
 40
1.0
 10
414.2969750942
 20
290.2605830102
 30
0.0
 10
414.2969750942
 20
289.6345050722
 30
0.0
 10
414.2839656552
 20
288.7414880625
 30
0.0
 10
414.2263796276
 20
287.6360299179
 30
0.0
 10
414.1831761964
 20
287.1568140682
 30
0.0
 10
414.1551462578
 20
286.9444813528
 30
0.0
  0
SPLINE
  5
47E
100
AcDbEntity
  8
0
100
AcDbSpline
 62
3
  6
CONTINUOUS
 70
0
 71
3
 72
11
 73
7
 74
0
 42
0.0000001
 43
0.0000001
 44
0.0000000001
 40
0.0
 40
0.0
 40
0.0
 40
0.0
 40
0.3025373713
 40
0.5811391776
 40
0.8165225141
 40
1.0
 40
1.0
 40
1.0
 40
1.0
 10
405.0679467779
 20
290.2605830102
 30
0.0
 10
405.0679467779
 20
289.8475129814
 30
0.0
 10
405.0173431667
 20
289.0531332456
 30
0.0
 10
404.7902113669
 20
287.9563181643
 30
0.0
 10
404.4338128601
 20
287.068815794
 30
0.0
 10
404.070920272
 20
286.6031912284
 30
0.0
 10
403.8682155585
 20
286.4559949511
 30
0.0
  0
SPLINE
  5
47F
100
AcDbEntity
  8
0
100
AcDbSpline
 62
3
  6
CONTINUOUS
 70
0
 71
3
 72
9
 73
5
 74
0
 42
0.0000001
 43
0.0000001
 44
0.0000000001
 40
0.0
 40
0.0
 40
0.0
 40
0.0
 40
0.2607311626
 40
1.0
 40
1.0
 40
1.0
 40
1.0
 10
403.8682155585
 20
286.4559949511
 30
0.0
 10
403.8463137217
 20
286.4400906892
 30
0.0
 10
403.7604154898
 20
286.3818005664
 30
0.0
 10
403.6663902255
 20
286.3350715328
 30
0.0
 10
403.5939575698
 20
286.3097061967
 30
0.0
  0
SPLINE
  5
480
100
AcDbEntity
  8
0
100
AcDbSpline
 62
3
  6
CONTINUOUS
 70
0
 71
3
 72
12
 73
8
 74
0
 42
0.0000001
 43
0.0000001
 44
0.0000000001
 40
0.0
 40
0.0
 40
0.0
 40
0.0
 40
0.2797328416
 40
0.5436575368
 40
0.7824011596
 40
0.8932357594
 40
1.0
 40
1.0
 40
1.0
 40
1.0
 10
383.7847195817
 20
290.2605830102
 30
0.0
 10
383.7847195817
 20
289.7951388277
 30
0.0
 10
383.6719674323
 20
288.8858838263
 30
0.0
 10
383.1759572946
 20
287.6649823402
 30
0.0
 10
382.4977470676
 20
286.8682948612
 30
0.0
 10
381.848008208
 20
286.4652147518
 30
0.0
 10
381.5017424563
 20
286.3468698932
 30
0.0
 10
381.3280295715
 20
286.3097061967
 30
0.0
  0
SPLINE
  5
481
100
AcDbEntity
  8
0
100
AcDbSpline
 62
3
  6
CONTINUOUS
 70
0
 71
3
 72
13
 73
9
 74
0
 42
0.0000001
 43
0.0000001
 44
0.0000000001
 40
0.0
 40
0.0
 40
0.0
 40
0.0
 40
0.2577932114
 40
0.5105937354
 40
0.6348880278
 40
0.7575881431
 40
0.8790835986
 40
1.0
 40
1.0
 40
1.0
 40
1.0
 10
353.2356510678
 20
290.2605830102
 30
0.0
 10
353.2356510678
 20
289.7672817453
 30
0.0
 10
353.0683910912
 20
288.7822127159
 30
0.0
 10
352.4524093695
 20
287.7027339053
 30
0.0
 10
351.7637576183
 20
287.0318655784
 30
0.0
 10
351.1708805799
 20
286.6416981694
 30
0.0
 10
350.5190639778
 20
286.3781961768
 30
0.0
 10
350.0594730796
 20
286.2924527478
 30
0.0
 10
349.8289195669
 20
286.2729125597
 30
0.0
  0
SPLINE
  5
482
100
AcDbEntity
  8
0
100
AcDbSpline
 62
3
  6
CONTINUOUS
 70
0
 71
3
 72
11
 73
7
 74
0
 42
0.0000001
 43
0.0000001
 44
0.0000000001
 40
0.0
 40
0.0
 40
0.0
 40
0.0
 40
0.2502053693
 40
0.5002635394
 40
0.7501656855
 40
1.0
 40
1.0
 40
1.0
 40
1.0
 10
317.42303494
 20
290.2605830102
 30
0.0
 10
317.42303494
 20
289.7403901281
 30
0.0
 10
317.2155823327
 20
288.6889549757
 30
0.0
 10
316.3276372456
 20
287.3592859298
 30
0.0
 10
315.0004586021
 20
286.4687945347
 30
0.0
 10
313.9500630013
 20
286.2605830102
 30
0.0
 10
313.4306415657
 20
286.2605830102
 30
0.0
  0
SPLINE
  5
483
100
AcDbEntity
  8
0
100
AcDbSpline
 62
3
  6
CONTINUOUS
 70
0
 71
3
 72
13
 73
9
 74
0
 42
0.0000001
 43
0.0000001
 44
0.0000000001
 40
0.0
 40
0.0
 40
0.0
 40
0.0
 40
0.2574819797
 40
0.5101476256
 40
0.6344728078
 40
0.7572675353
 40
0.878908439
 40
1.0
 40
1.0
 40
1.0
 40
1.0
 10
273.5660881015
 20
290.2605830102
 30
0.0
 10
273.5660881015
 20
290.7539290634
 30
0.0
 10
273.7340165814
 20
291.7394628162
 30
0.0
 10
274.3520569323
 20
292.8187722776
 30
0.0
 10
275.0426325646
 20
293.4894165892
 30
0.0
 10
275.6372561534
 20
293.8795370673
 30
0.0
 10
276.2909188973
 20
294.1429916937
 30
0.0
 10
276.7517410776
 20
294.2287141595
 30
0.0
 10
276.9829332675
 20
294.2482534608
 30
0.0
  0
SPLINE
  5
484
100
AcDbEntity
  8
0
100
AcDbSpline
 62
3
  6
CONTINUOUS
 70
0
 71
3
 72
12
 73
8
 74
0
 42
0.0000001
 43
0.0000001
 44
0.0000000001
 40
0.0
 40
0.0
 40
0.0
 40
0.0
 40
0.2791458302
 40
0.5427662121
 40
0.7817024009
 40
0.8928350595
 40
1.0
 40
1.0
 40
1.0
 40
1.0
 10
242.8686213563
 20
290.2605830102
 30
0.0
 10
242.8686213563
 20
290.7260804292
 30
0.0
 10
242.9822862464
 20
291.6359121889
 30
0.0
 10
243.4822875579
 20
292.8572985237
 30
0.0
 10
244.1652692116
 20
293.6534018332
 30
0.0
 10
244.8189627628
 20
294.0560722023
 30
0.0
 10
245.167323031
 20
294.1743091172
 30
0.0
 10
245.3421246873
 20
294.2114598238
 30
0.0
  0
SPLINE
  5
485
100
AcDbEntity
  8
0
100
AcDbSpline
 62
3
  6
CONTINUOUS
 70
0
 71
3
 72
11
 73
7
 74
0
 42
0.0000001
 43
0.0000001
 44
0.0000000001
 40
0.0
 40
0.0
 40
0.0
 40
0.0
 40
0.3019684093
 40
0.5802219085
 40
0.8157121848
 40
1.0
 40
1.0
 40
1.0
 40
1.0
 10
221.3670091859
 20
290.2605830102
 30
0.0
 10
221.3670091859
 20
290.6736820853
 30
0.0
 10
221.4184458559
 20
291.4684032903
 30
0.0
 10
221.6492768526
 20
292.5656344186
 30
0.0
 10
222.0116503636
 20
293.4538716643
 30
0.0
 10
222.3798777573
 20
293.9184431058
 30
0.0
 10
222.5848902942
 20
294.0651710694
 30
0.0
  0
SPLINE
  5
486
100
AcDbEntity
  8
0
100
AcDbSpline
 62
3
  6
CONTINUOUS
 70
0
 71
3
 72
9
 73
5
 74
0
 42
0.0000001
 43
0.0000001
 44
0.0000000001
 40
0.0
 40
0.0
 40
0.0
 40
0.0
 40
0.2604080534
 40
1.0
 40
1.0
 40
1.0
 40
1.0
 10
222.5848902942
 20
294.0651710694
 30
0.0
 10
222.607121753
 20
294.0810821777
 30
0.0
 10
222.6943854433
 20
294.1394435505
 30
0.0
 10
222.7897318325
 20
294.1861224245
 30
0.0
 10
222.8631266139
 20
294.2114598238
 30
0.0
  0
SPLINE
  5
487
100
AcDbEntity
  8
0
100
AcDbSpline
 62
3
  6
CONTINUOUS
 70
0
 71
3
 72
10
 73
6
 74
0
 42
0.0000001
 43
0.0000001
 44
0.0000000001
 40
0.0
 40
0.0
 40
0.0
 40
0.0
 40
0.5718365794
 40
0.8117747798
 40
1.0
 40
1.0
 40
1.0
 40
1.0
 10
211.8782201983
 20
290.2605830102
 30
0.0
 10
211.8782201983
 20
290.9111767986
 30
0.0
 10
211.8934278704
 20
291.8351669804
 30
0.0
 10
211.9618931367
 20
292.9708664898
 30
0.0
 10
212.0129619409
 20
293.4558238096
 30
0.0
 10
212.0465146199
 20
293.6673278464
 30
0.0
  0
SPLINE
  5
488
100
AcDbEntity
  8
0
100
AcDbSpline
 62
3
  6
CONTINUOUS
 70
0
 71
3
 72
10
 73
6
 74
0
 42
0.0000001
 43
0.0000001
 44
0.0000000001
 40
0.0
 40
0.0
 40
0.0
 40
0.0
 40
0.5656082422
 40
0.8065112282
 40
1.0
 40
1.0
 40
1.0
 40
1.0
 10
414.2969750942
 20
265.2605830102
 30
0.0
 10
414.2969750942
 20
264.6345050722
 30
0.0
 10
414.2839656552
 20
263.7414880625
 30
0.0
 10
414.2263796276
 20
262.6360299179
 30
0.0
 10
414.1831761964
 20
262.1568140682
 30
0.0
 10
414.1551462578
 20
261.9444813528
 30
0.0
  0
SPLINE
  5
489
100
AcDbEntity
  8
0
100
AcDbSpline
 62
3
  6
CONTINUOUS
 70
0
 71
3
 72
11
 73
7
 74
0
 42
0.0000001
 43
0.0000001
 44
0.0000000001
 40
0.0
 40
0.0
 40
0.0
 40
0.0
 40
0.3025373713
 40
0.5811391776
 40
0.8165225141
 40
1.0
 40
1.0
 40
1.0
 40
1.0
 10
405.0679467779
 20
265.2605830102
 30
0.0
 10
405.0679467779
 20
264.8475129814
 30
0.0
 10
405.0173431667
 20
264.0531332456
 30
0.0
 10
404.7902113669
 20
262.9563181643
 30
0.0
 10
404.4338128601
 20
262.068815794
 30
0.0
 10
404.070920272
 20
261.6031912284
 30
0.0
 10
403.8682155585
 20
261.4559949511
 30
0.0
  0
SPLINE
  5
48A
100
AcDbEntity
  8
0
100
AcDbSpline
 62
3
  6
CONTINUOUS
 70
0
 71
3
 72
9
 73
5
 74
0
 42
0.0000001
 43
0.0000001
 44
0.0000000001
 40
0.0
 40
0.0
 40
0.0
 40
0.0
 40
0.2607311626
 40
1.0
 40
1.0
 40
1.0
 40
1.0
 10
403.8682155585
 20
261.4559949511
 30
0.0
 10
403.8463137217
 20
261.4400906892
 30
0.0
 10
403.7604154898
 20
261.3818005664
 30
0.0
 10
403.6663902255
 20
261.3350715328
 30
0.0
 10
403.5939575698
 20
261.3097061967
 30
0.0
  0
SPLINE
  5
48B
100
AcDbEntity
  8
0
100
AcDbSpline
 62
3
  6
CONTINUOUS
 70
0
 71
3
 72
12
 73
8
 74
0
 42
0.0000001
 43
0.0000001
 44
0.0000000001
 40
0.0
 40
0.0
 40
0.0
 40
0.0
 40
0.2797328416
 40
0.5436575368
 40
0.7824011596
 40
0.8932357594
 40
1.0
 40
1.0
 40
1.0
 40
1.0
 10
383.7847195817
 20
265.2605830102
 30
0.0
 10
383.7847195817
 20
264.7951388277
 30
0.0
 10
383.6719674323
 20
263.8858838263
 30
0.0
 10
383.1759572946
 20
262.6649823402
 30
0.0
 10
382.4977470676
 20
261.8682948612
 30
0.0
 10
381.848008208
 20
261.4652147518
 30
0.0
 10
381.5017424563
 20
261.3468698932
 30
0.0
 10
381.3280295715
 20
261.3097061967
 30
0.0
  0
SPLINE
  5
48C
100
AcDbEntity
  8
0
100
AcDbSpline
 62
3
  6
CONTINUOUS
 70
0
 71
3
 72
13
 73
9
 74
0
 42
0.0000001
 43
0.0000001
 44
0.0000000001
 40
0.0
 40
0.0
 40
0.0
 40
0.0
 40
0.2577932114
 40
0.5105937354
 40
0.6348880278
 40
0.7575881431
 40
0.8790835986
 40
1.0
 40
1.0
 40
1.0
 40
1.0
 10
353.2356510678
 20
265.2605830102
 30
0.0
 10
353.2356510678
 20
264.7672817453
 30
0.0
 10
353.0683910912
 20
263.7822127159
 30
0.0
 10
352.4524093695
 20
262.7027339053
 30
0.0
 10
351.7637576183
 20
262.0318655784
 30
0.0
 10
351.1708805799
 20
261.6416981694
 30
0.0
 10
350.5190639778
 20
261.3781961768
 30
0.0
 10
350.0594730796
 20
261.2924527478
 30
0.0
 10
349.8289195669
 20
261.2729125597
 30
0.0
  0
SPLINE
  5
48D
100
AcDbEntity
  8
0
100
AcDbSpline
 62
3
  6
CONTINUOUS
 70
0
 71
3
 72
11
 73
7
 74
0
 42
0.0000001
 43
0.0000001
 44
0.0000000001
 40
0.0
 40
0.0
 40
0.0
 40
0.0
 40
0.2502053693
 40
0.5002635394
 40
0.7501656855
 40
1.0
 40
1.0
 40
1.0
 40
1.0
 10
317.42303494
 20
265.2605830102
 30
0.0
 10
317.42303494
 20
264.7403901281
 30
0.0
 10
317.2155823327
 20
263.6889549757
 30
0.0
 10
316.3276372456
 20
262.3592859298
 30
0.0
 10
315.0004586021
 20
261.4687945347
 30
0.0
 10
313.9500630013
 20
261.2605830102
 30
0.0
 10
313.4306415657
 20
261.2605830102
 30
0.0
  0
SPLINE
  5
48E
100
AcDbEntity
  8
0
100
AcDbSpline
 62
3
  6
CONTINUOUS
 70
0
 71
3
 72
13
 73
9
 74
0
 42
0.0000001
 43
0.0000001
 44
0.0000000001
 40
0.0
 40
0.0
 40
0.0
 40
0.0
 40
0.2574819797
 40
0.5101476256
 40
0.6344728078
 40
0.7572675353
 40
0.878908439
 40
1.0
 40
1.0
 40
1.0
 40
1.0
 10
273.5660881015
 20
265.2605830102
 30
0.0
 10
273.5660881015
 20
265.7539290634
 30
0.0
 10
273.7340165814
 20
266.7394628162
 30
0.0
 10
274.3520569323
 20
267.8187722776
 30
0.0
 10
275.0426325646
 20
268.4894165892
 30
0.0
 10
275.6372561534
 20
268.8795370673
 30
0.0
 10
276.2909188973
 20
269.1429916937
 30
0.0
 10
276.7517410776
 20
269.2287141595
 30
0.0
 10
276.9829332675
 20
269.2482534608
 30
0.0
  0
SPLINE
  5
48F
100
AcDbEntity
  8
0
100
AcDbSpline
 62
3
  6
CONTINUOUS
 70
0
 71
3
 72
12
 73
8
 74
0
 42
0.0000001
 43
0.0000001
 44
0.0000000001
 40
0.0
 40
0.0
 40
0.0
 40
0.0
 40
0.2791458302
 40
0.5427662121
 40
0.7817024009
 40
0.8928350595
 40
1.0
 40
1.0
 40
1.0
 40
1.0
 10
242.8686213563
 20
265.2605830102
 30
0.0
 10
242.8686213563
 20
265.7260804292
 30
0.0
 10
242.9822862464
 20
266.6359121889
 30
0.0
 10
243.4822875579
 20
267.8572985237
 30
0.0
 10
244.1652692116
 20
268.6534018332
 30
0.0
 10
244.8189627628
 20
269.0560722023
 30
0.0
 10
245.167323031
 20
269.1743091172
 30
0.0
 10
245.3421246873
 20
269.2114598238
 30
0.0
  0
SPLINE
  5
490
100
AcDbEntity
  8
0
100
AcDbSpline
 62
3
  6
CONTINUOUS
 70
0
 71
3
 72
11
 73
7
 74
0
 42
0.0000001
 43
0.0000001
 44
0.0000000001
 40
0.0
 40
0.0
 40
0.0
 40
0.0
 40
0.3019684093
 40
0.5802219085
 40
0.8157121848
 40
1.0
 40
1.0
 40
1.0
 40
1.0
 10
221.3670091859
 20
265.2605830102
 30
0.0
 10
221.3670091859
 20
265.6736820853
 30
0.0
 10
221.4184458559
 20
266.4684032903
 30
0.0
 10
221.6492768526
 20
267.5656344186
 30
0.0
 10
222.0116503636
 20
268.4538716643
 30
0.0
 10
222.3798777573
 20
268.9184431058
 30
0.0
 10
222.5848902942
 20
269.0651710694
 30
0.0
  0
SPLINE
  5
491
100
AcDbEntity
  8
0
100
AcDbSpline
 62
3
  6
CONTINUOUS
 70
0
 71
3
 72
9
 73
5
 74
0
 42
0.0000001
 43
0.0000001
 44
0.0000000001
 40
0.0
 40
0.0
 40
0.0
 40
0.0
 40
0.2604080534
 40
1.0
 40
1.0
 40
1.0
 40
1.0
 10
222.5848902942
 20
269.0651710694
 30
0.0
 10
222.607121753
 20
269.0810821777
 30
0.0
 10
222.6943854433
 20
269.1394435505
 30
0.0
 10
222.7897318325
 20
269.1861224245
 30
0.0
 10
222.8631266139
 20
269.2114598238
 30
0.0
  0
SPLINE
  5
492
100
AcDbEntity
  8
0
100
AcDbSpline
 62
3
  6
CONTINUOUS
 70
0
 71
3
 72
10
 73
6
 74
0
 42
0.0000001
 43
0.0000001
 44
0.0000000001
 40
0.0
 40
0.0
 40
0.0
 40
0.0
 40
0.5718365794
 40
0.8117747798
 40
1.0
 40
1.0
 40
1.0
 40
1.0
 10
211.8782201983
 20
265.2605830102
 30
0.0
 10
211.8782201983
 20
265.9111767986
 30
0.0
 10
211.8934278704
 20
266.8351669804
 30
0.0
 10
211.9618931367
 20
267.9708664898
 30
0.0
 10
212.0129619409
 20
268.4558238096
 30
0.0
 10
212.0465146199
 20
268.6673278464
 30
0.0
  0
SPLINE
  5
493
100
AcDbEntity
  8
0
100
AcDbSpline
 62
3
  6
CONTINUOUS
 70
0
 71
3
 72
10
 73
6
 74
0
 42
0.0000001
 43
0.0000001
 44
0.0000000001
 40
0.0
 40
0.0
 40
0.0
 40
0.0
 40
0.5656082422
 40
0.8065112282
 40
1.0
 40
1.0
 40
1.0
 40
1.0
 10
414.2969750942
 20
240.2605830102
 30
0.0
 10
414.2969750942
 20
239.6345050722
 30
0.0
 10
414.2839656552
 20
238.7414880625
 30
0.0
 10
414.2263796276
 20
237.6360299179
 30
0.0
 10
414.1831761964
 20
237.1568140682
 30
0.0
 10
414.1551462578
 20
236.9444813528
 30
0.0
  0
SPLINE
  5
494
100
AcDbEntity
  8
0
100
AcDbSpline
 62
3
  6
CONTINUOUS
 70
0
 71
3
 72
11
 73
7
 74
0
 42
0.0000001
 43
0.0000001
 44
0.0000000001
 40
0.0
 40
0.0
 40
0.0
 40
0.0
 40
0.3025373713
 40
0.5811391776
 40
0.8165225141
 40
1.0
 40
1.0
 40
1.0
 40
1.0
 10
405.0679467779
 20
240.2605830102
 30
0.0
 10
405.0679467779
 20
239.8475129814
 30
0.0
 10
405.0173431667
 20
239.0531332456
 30
0.0
 10
404.7902113669
 20
237.9563181643
 30
0.0
 10
404.4338128601
 20
237.068815794
 30
0.0
 10
404.070920272
 20
236.6031912284
 30
0.0
 10
403.8682155585
 20
236.4559949511
 30
0.0
  0
SPLINE
  5
495
100
AcDbEntity
  8
0
100
AcDbSpline
 62
3
  6
CONTINUOUS
 70
0
 71
3
 72
9
 73
5
 74
0
 42
0.0000001
 43
0.0000001
 44
0.0000000001
 40
0.0
 40
0.0
 40
0.0
 40
0.0
 40
0.2607311626
 40
1.0
 40
1.0
 40
1.0
 40
1.0
 10
403.8682155585
 20
236.4559949511
 30
0.0
 10
403.8463137217
 20
236.4400906892
 30
0.0
 10
403.7604154898
 20
236.3818005664
 30
0.0
 10
403.6663902255
 20
236.3350715328
 30
0.0
 10
403.5939575698
 20
236.3097061967
 30
0.0
  0
SPLINE
  5
496
100
AcDbEntity
  8
0
100
AcDbSpline
 62
3
  6
CONTINUOUS
 70
0
 71
3
 72
12
 73
8
 74
0
 42
0.0000001
 43
0.0000001
 44
0.0000000001
 40
0.0
 40
0.0
 40
0.0
 40
0.0
 40
0.2797328416
 40
0.5436575368
 40
0.7824011596
 40
0.8932357594
 40
1.0
 40
1.0
 40
1.0
 40
1.0
 10
383.7847195817
 20
240.2605830102
 30
0.0
 10
383.7847195817
 20
239.7951388277
 30
0.0
 10
383.6719674323
 20
238.8858838263
 30
0.0
 10
383.1759572946
 20
237.6649823402
 30
0.0
 10
382.4977470676
 20
236.8682948612
 30
0.0
 10
381.848008208
 20
236.4652147518
 30
0.0
 10
381.5017424563
 20
236.3468698932
 30
0.0
 10
381.3280295715
 20
236.3097061967
 30
0.0
  0
SPLINE
  5
497
100
AcDbEntity
  8
0
100
AcDbSpline
 62
3
  6
CONTINUOUS
 70
0
 71
3
 72
13
 73
9
 74
0
 42
0.0000001
 43
0.0000001
 44
0.0000000001
 40
0.0
 40
0.0
 40
0.0
 40
0.0
 40
0.2577932114
 40
0.5105937354
 40
0.6348880278
 40
0.7575881431
 40
0.8790835986
 40
1.0
 40
1.0
 40
1.0
 40
1.0
 10
353.2356510678
 20
240.2605830102
 30
0.0
 10
353.2356510678
 20
239.7672817453
 30
0.0
 10
353.0683910912
 20
238.7822127159
 30
0.0
 10
352.4524093695
 20
237.7027339053
 30
0.0
 10
351.7637576183
 20
237.0318655784
 30
0.0
 10
351.1708805799
 20
236.6416981694
 30
0.0
 10
350.5190639778
 20
236.3781961768
 30
0.0
 10
350.0594730796
 20
236.2924527478
 30
0.0
 10
349.8289195669
 20
236.2729125597
 30
0.0
  0
SPLINE
  5
498
100
AcDbEntity
  8
0
100
AcDbSpline
 62
3
  6
CONTINUOUS
 70
0
 71
3
 72
11
 73
7
 74
0
 42
0.0000001
 43
0.0000001
 44
0.0000000001
 40
0.0
 40
0.0
 40
0.0
 40
0.0
 40
0.2502053693
 40
0.5002635394
 40
0.7501656855
 40
1.0
 40
1.0
 40
1.0
 40
1.0
 10
317.42303494
 20
240.2605830102
 30
0.0
 10
317.42303494
 20
239.7403901281
 30
0.0
 10
317.2155823327
 20
238.6889549757
 30
0.0
 10
316.3276372456
 20
237.3592859298
 30
0.0
 10
315.0004586021
 20
236.4687945347
 30
0.0
 10
313.9500630013
 20
236.2605830102
 30
0.0
 10
313.4306415657
 20
236.2605830102
 30
0.0
  0
SPLINE
  5
499
100
AcDbEntity
  8
0
100
AcDbSpline
 62
3
  6
CONTINUOUS
 70
0
 71
3
 72
13
 73
9
 74
0
 42
0.0000001
 43
0.0000001
 44
0.0000000001
 40
0.0
 40
0.0
 40
0.0
 40
0.0
 40
0.2574819797
 40
0.5101476256
 40
0.6344728078
 40
0.7572675353
 40
0.878908439
 40
1.0
 40
1.0
 40
1.0
 40
1.0
 10
273.5660881015
 20
240.2605830102
 30
0.0
 10
273.5660881015
 20
240.7539290634
 30
0.0
 10
273.7340165814
 20
241.7394628162
 30
0.0
 10
274.3520569323
 20
242.8187722776
 30
0.0
 10
275.0426325646
 20
243.4894165892
 30
0.0
 10
275.6372561534
 20
243.8795370673
 30
0.0
 10
276.2909188973
 20
244.1429916937
 30
0.0
 10
276.7517410776
 20
244.2287141595
 30
0.0
 10
276.9829332675
 20
244.2482534608
 30
0.0
  0
SPLINE
  5
49A
100
AcDbEntity
  8
0
100
AcDbSpline
 62
3
  6
CONTINUOUS
 70
0
 71
3
 72
12
 73
8
 74
0
 42
0.0000001
 43
0.0000001
 44
0.0000000001
 40
0.0
 40
0.0
 40
0.0
 40
0.0
 40
0.2791458302
 40
0.5427662121
 40
0.7817024009
 40
0.8928350595
 40
1.0
 40
1.0
 40
1.0
 40
1.0
 10
242.8686213563
 20
240.2605830102
 30
0.0
 10
242.8686213563
 20
240.7260804292
 30
0.0
 10
242.9822862464
 20
241.6359121889
 30
0.0
 10
243.4822875579
 20
242.8572985237
 30
0.0
 10
244.1652692116
 20
243.6534018332
 30
0.0
 10
244.8189627628
 20
244.0560722023
 30
0.0
 10
245.167323031
 20
244.1743091172
 30
0.0
 10
245.3421246873
 20
244.2114598238
 30
0.0
  0
SPLINE
  5
49B
100
AcDbEntity
  8
0
100
AcDbSpline
 62
3
  6
CONTINUOUS
 70
0
 71
3
 72
11
 73
7
 74
0
 42
0.0000001
 43
0.0000001
 44
0.0000000001
 40
0.0
 40
0.0
 40
0.0
 40
0.0
 40
0.3019684093
 40
0.5802219085
 40
0.8157121848
 40
1.0
 40
1.0
 40
1.0
 40
1.0
 10
221.3670091859
 20
240.2605830102
 30
0.0
 10
221.3670091859
 20
240.6736820853
 30
0.0
 10
221.4184458559
 20
241.4684032903
 30
0.0
 10
221.6492768526
 20
242.5656344186
 30
0.0
 10
222.0116503636
 20
243.4538716643
 30
0.0
 10
222.3798777573
 20
243.9184431058
 30
0.0
 10
222.5848902942
 20
244.0651710694
 30
0.0
  0
SPLINE
  5
49C
100
AcDbEntity
  8
0
100
AcDbSpline
 62
3
  6
CONTINUOUS
 70
0
 71
3
 72
9
 73
5
 74
0
 42
0.0000001
 43
0.0000001
 44
0.0000000001
 40
0.0
 40
0.0
 40
0.0
 40
0.0
 40
0.2604080534
 40
1.0
 40
1.0
 40
1.0
 40
1.0
 10
222.5848902942
 20
244.0651710694
 30
0.0
 10
222.607121753
 20
244.0810821777
 30
0.0
 10
222.6943854433
 20
244.1394435505
 30
0.0
 10
222.7897318325
 20
244.1861224245
 30
0.0
 10
222.8631266139
 20
244.2114598238
 30
0.0
  0
SPLINE
  5
49D
100
AcDbEntity
  8
0
100
AcDbSpline
 62
3
  6
CONTINUOUS
 70
0
 71
3
 72
10
 73
6
 74
0
 42
0.0000001
 43
0.0000001
 44
0.0000000001
 40
0.0
 40
0.0
 40
0.0
 40
0.0
 40
0.5718365794
 40
0.8117747798
 40
1.0
 40
1.0
 40
1.0
 40
1.0
 10
211.8782201983
 20
240.2605830102
 30
0.0
 10
211.8782201983
 20
240.9111767986
 30
0.0
 10
211.8934278704
 20
241.8351669804
 30
0.0
 10
211.9618931367
 20
242.9708664898
 30
0.0
 10
212.0129619409
 20
243.4558238096
 30
0.0
 10
212.0465146199
 20
243.6673278464
 30
0.0
  0
SPLINE
  5
49E
100
AcDbEntity
  8
0
100
AcDbSpline
 62
3
  6
CONTINUOUS
 70
0
 71
3
 72
10
 73
6
 74
0
 42
0.0000001
 43
0.0000001
 44
0.0000000001
 40
0.0
 40
0.0
 40
0.0
 40
0.0
 40
0.5656082422
 40
0.8065112282
 40
1.0
 40
1.0
 40
1.0
 40
1.0
 10
414.2969750942
 20
215.2605830102
 30
0.0
 10
414.2969750942
 20
214.6345050722
 30
0.0
 10
414.2839656552
 20
213.7414880625
 30
0.0
 10
414.2263796276
 20
212.6360299179
 30
0.0
 10
414.1831761964
 20
212.1568140682
 30
0.0
 10
414.1551462578
 20
211.9444813528
 30
0.0
  0
SPLINE
  5
49F
100
AcDbEntity
  8
0
100
AcDbSpline
 62
3
  6
CONTINUOUS
 70
0
 71
3
 72
11
 73
7
 74
0
 42
0.0000001
 43
0.0000001
 44
0.0000000001
 40
0.0
 40
0.0
 40
0.0
 40
0.0
 40
0.3025373713
 40
0.5811391776
 40
0.8165225141
 40
1.0
 40
1.0
 40
1.0
 40
1.0
 10
405.0679467779
 20
215.2605830102
 30
0.0
 10
405.0679467779
 20
214.8475129814
 30
0.0
 10
405.0173431667
 20
214.0531332456
 30
0.0
 10
404.7902113669
 20
212.9563181643
 30
0.0
 10
404.4338128601
 20
212.068815794
 30
0.0
 10
404.070920272
 20
211.6031912284
 30
0.0
 10
403.8682155585
 20
211.4559949511
 30
0.0
  0
SPLINE
  5
4A0
100
AcDbEntity
  8
0
100
AcDbSpline
 62
3
  6
CONTINUOUS
 70
0
 71
3
 72
9
 73
5
 74
0
 42
0.0000001
 43
0.0000001
 44
0.0000000001
 40
0.0
 40
0.0
 40
0.0
 40
0.0
 40
0.2607311626
 40
1.0
 40
1.0
 40
1.0
 40
1.0
 10
403.8682155585
 20
211.4559949511
 30
0.0
 10
403.8463137217
 20
211.4400906892
 30
0.0
 10
403.7604154898
 20
211.3818005664
 30
0.0
 10
403.6663902255
 20
211.3350715328
 30
0.0
 10
403.5939575698
 20
211.3097061967
 30
0.0
  0
SPLINE
  5
4A1
100
AcDbEntity
  8
0
100
AcDbSpline
 62
3
  6
CONTINUOUS
 70
0
 71
3
 72
12
 73
8
 74
0
 42
0.0000001
 43
0.0000001
 44
0.0000000001
 40
0.0
 40
0.0
 40
0.0
 40
0.0
 40
0.2797328416
 40
0.5436575368
 40
0.7824011596
 40
0.8932357594
 40
1.0
 40
1.0
 40
1.0
 40
1.0
 10
383.7847195817
 20
215.2605830102
 30
0.0
 10
383.7847195817
 20
214.7951388277
 30
0.0
 10
383.6719674323
 20
213.8858838263
 30
0.0
 10
383.1759572946
 20
212.6649823402
 30
0.0
 10
382.4977470676
 20
211.8682948612
 30
0.0
 10
381.848008208
 20
211.4652147518
 30
0.0
 10
381.5017424563
 20
211.3468698932
 30
0.0
 10
381.3280295715
 20
211.3097061967
 30
0.0
  0
SPLINE
  5
4A2
100
AcDbEntity
  8
0
100
AcDbSpline
 62
3
  6
CONTINUOUS
 70
0
 71
3
 72
13
 73
9
 74
0
 42
0.0000001
 43
0.0000001
 44
0.0000000001
 40
0.0
 40
0.0
 40
0.0
 40
0.0
 40
0.2577932114
 40
0.5105937354
 40
0.6348880278
 40
0.7575881431
 40
0.8790835986
 40
1.0
 40
1.0
 40
1.0
 40
1.0
 10
353.2356510678
 20
215.2605830102
 30
0.0
 10
353.2356510678
 20
214.7672817453
 30
0.0
 10
353.0683910912
 20
213.7822127159
 30
0.0
 10
352.4524093695
 20
212.7027339053
 30
0.0
 10
351.7637576183
 20
212.0318655784
 30
0.0
 10
351.1708805799
 20
211.6416981694
 30
0.0
 10
350.5190639778
 20
211.3781961768
 30
0.0
 10
350.0594730796
 20
211.2924527478
 30
0.0
 10
349.8289195669
 20
211.2729125597
 30
0.0
  0
SPLINE
  5
4A3
100
AcDbEntity
  8
0
100
AcDbSpline
 62
3
  6
CONTINUOUS
 70
0
 71
3
 72
11
 73
7
 74
0
 42
0.0000001
 43
0.0000001
 44
0.0000000001
 40
0.0
 40
0.0
 40
0.0
 40
0.0
 40
0.2502053693
 40
0.5002635394
 40
0.7501656855
 40
1.0
 40
1.0
 40
1.0
 40
1.0
 10
317.42303494
 20
215.2605830102
 30
0.0
 10
317.42303494
 20
214.7403901281
 30
0.0
 10
317.2155823327
 20
213.6889549757
 30
0.0
 10
316.3276372456
 20
212.3592859298
 30
0.0
 10
315.0004586021
 20
211.4687945347
 30
0.0
 10
313.9500630013
 20
211.2605830102
 30
0.0
 10
313.4306415657
 20
211.2605830102
 30
0.0
  0
SPLINE
  5
4A4
100
AcDbEntity
  8
0
100
AcDbSpline
 62
3
  6
CONTINUOUS
 70
0
 71
3
 72
13
 73
9
 74
0
 42
0.0000001
 43
0.0000001
 44
0.0000000001
 40
0.0
 40
0.0
 40
0.0
 40
0.0
 40
0.2574819797
 40
0.5101476256
 40
0.6344728078
 40
0.7572675353
 40
0.878908439
 40
1.0
 40
1.0
 40
1.0
 40
1.0
 10
273.5660881015
 20
215.2605830102
 30
0.0
 10
273.5660881015
 20
215.7539290634
 30
0.0
 10
273.7340165814
 20
216.7394628162
 30
0.0
 10
274.3520569323
 20
217.8187722776
 30
0.0
 10
275.0426325646
 20
218.4894165892
 30
0.0
 10
275.6372561534
 20
218.8795370673
 30
0.0
 10
276.2909188973
 20
219.1429916937
 30
0.0
 10
276.7517410776
 20
219.2287141595
 30
0.0
 10
276.9829332675
 20
219.2482534608
 30
0.0
  0
SPLINE
  5
4A5
100
AcDbEntity
  8
0
100
AcDbSpline
 62
3
  6
CONTINUOUS
 70
0
 71
3
 72
12
 73
8
 74
0
 42
0.0000001
 43
0.0000001
 44
0.0000000001
 40
0.0
 40
0.0
 40
0.0
 40
0.0
 40
0.2791458302
 40
0.5427662121
 40
0.7817024009
 40
0.8928350595
 40
1.0
 40
1.0
 40
1.0
 40
1.0
 10
242.8686213563
 20
215.2605830102
 30
0.0
 10
242.8686213563
 20
215.7260804292
 30
0.0
 10
242.9822862464
 20
216.6359121889
 30
0.0
 10
243.4822875579
 20
217.8572985237
 30
0.0
 10
244.1652692116
 20
218.6534018332
 30
0.0
 10
244.8189627628
 20
219.0560722023
 30
0.0
 10
245.167323031
 20
219.1743091172
 30
0.0
 10
245.3421246873
 20
219.2114598238
 30
0.0
  0
SPLINE
  5
4A6
100
AcDbEntity
  8
0
100
AcDbSpline
 62
3
  6
CONTINUOUS
 70
0
 71
3
 72
11
 73
7
 74
0
 42
0.0000001
 43
0.0000001
 44
0.0000000001
 40
0.0
 40
0.0
 40
0.0
 40
0.0
 40
0.3019684093
 40
0.5802219085
 40
0.8157121848
 40
1.0
 40
1.0
 40
1.0
 40
1.0
 10
221.3670091859
 20
215.2605830102
 30
0.0
 10
221.3670091859
 20
215.6736820853
 30
0.0
 10
221.4184458559
 20
216.4684032903
 30
0.0
 10
221.6492768526
 20
217.5656344186
 30
0.0
 10
222.0116503636
 20
218.4538716643
 30
0.0
 10
222.3798777573
 20
218.9184431058
 30
0.0
 10
222.5848902942
 20
219.0651710694
 30
0.0
  0
SPLINE
  5
4A7
100
AcDbEntity
  8
0
100
AcDbSpline
 62
3
  6
CONTINUOUS
 70
0
 71
3
 72
9
 73
5
 74
0
 42
0.0000001
 43
0.0000001
 44
0.0000000001
 40
0.0
 40
0.0
 40
0.0
 40
0.0
 40
0.2604080534
 40
1.0
 40
1.0
 40
1.0
 40
1.0
 10
222.5848902942
 20
219.0651710694
 30
0.0
 10
222.607121753
 20
219.0810821777
 30
0.0
 10
222.6943854433
 20
219.1394435505
 30
0.0
 10
222.7897318325
 20
219.1861224245
 30
0.0
 10
222.8631266139
 20
219.2114598238
 30
0.0
  0
SPLINE
  5
4A8
100
AcDbEntity
  8
0
100
AcDbSpline
 62
3
  6
CONTINUOUS
 70
0
 71
3
 72
10
 73
6
 74
0
 42
0.0000001
 43
0.0000001
 44
0.0000000001
 40
0.0
 40
0.0
 40
0.0
 40
0.0
 40
0.5718365794
 40
0.8117747798
 40
1.0
 40
1.0
 40
1.0
 40
1.0
 10
211.8782201983
 20
215.2605830102
 30
0.0
 10
211.8782201983
 20
215.9111767986
 30
0.0
 10
211.8934278704
 20
216.8351669804
 30
0.0
 10
211.9618931367
 20
217.9708664898
 30
0.0
 10
212.0129619409
 20
218.4558238096
 30
0.0
 10
212.0465146199
 20
218.6673278464
 30
0.0
  0
SPLINE
  5
4A9
100
AcDbEntity
  8
0
100
AcDbSpline
 62
3
  6
CONTINUOUS
 70
0
 71
3
 72
10
 73
6
 74
0
 42
0.0000001
 43
0.0000001
 44
0.0000000001
 40
0.0
 40
0.0
 40
0.0
 40
0.0
 40
0.5656082422
 40
0.8065112282
 40
1.0
 40
1.0
 40
1.0
 40
1.0
 10
414.2969750942
 20
190.2605830102
 30
0.0
 10
414.2969750942
 20
189.6345050722
 30
0.0
 10
414.2839656552
 20
188.7414880625
 30
0.0
 10
414.2263796276
 20
187.6360299179
 30
0.0
 10
414.1831761964
 20
187.1568140682
 30
0.0
 10
414.1551462578
 20
186.9444813528
 30
0.0
  0
SPLINE
  5
4AA
100
AcDbEntity
  8
0
100
AcDbSpline
 62
3
  6
CONTINUOUS
 70
0
 71
3
 72
11
 73
7
 74
0
 42
0.0000001
 43
0.0000001
 44
0.0000000001
 40
0.0
 40
0.0
 40
0.0
 40
0.0
 40
0.3025373713
 40
0.5811391776
 40
0.8165225141
 40
1.0
 40
1.0
 40
1.0
 40
1.0
 10
405.0679467779
 20
190.2605830102
 30
0.0
 10
405.0679467779
 20
189.8475129814
 30
0.0
 10
405.0173431667
 20
189.0531332456
 30
0.0
 10
404.7902113669
 20
187.9563181643
 30
0.0
 10
404.4338128601
 20
187.068815794
 30
0.0
 10
404.070920272
 20
186.6031912284
 30
0.0
 10
403.8682155585
 20
186.4559949511
 30
0.0
  0
SPLINE
  5
4AB
100
AcDbEntity
  8
0
100
AcDbSpline
 62
3
  6
CONTINUOUS
 70
0
 71
3
 72
9
 73
5
 74
0
 42
0.0000001
 43
0.0000001
 44
0.0000000001
 40
0.0
 40
0.0
 40
0.0
 40
0.0
 40
0.2607311626
 40
1.0
 40
1.0
 40
1.0
 40
1.0
 10
403.8682155585
 20
186.4559949511
 30
0.0
 10
403.8463137217
 20
186.4400906892
 30
0.0
 10
403.7604154898
 20
186.3818005664
 30
0.0
 10
403.6663902255
 20
186.3350715328
 30
0.0
 10
403.5939575698
 20
186.3097061967
 30
0.0
  0
SPLINE
  5
4AC
100
AcDbEntity
  8
0
100
AcDbSpline
 62
3
  6
CONTINUOUS
 70
0
 71
3
 72
12
 73
8
 74
0
 42
0.0000001
 43
0.0000001
 44
0.0000000001
 40
0.0
 40
0.0
 40
0.0
 40
0.0
 40
0.2797328416
 40
0.5436575368
 40
0.7824011596
 40
0.8932357594
 40
1.0
 40
1.0
 40
1.0
 40
1.0
 10
383.7847195817
 20
190.2605830102
 30
0.0
 10
383.7847195817
 20
189.7951388277
 30
0.0
 10
383.6719674323
 20
188.8858838263
 30
0.0
 10
383.1759572946
 20
187.6649823402
 30
0.0
 10
382.4977470676
 20
186.8682948612
 30
0.0
 10
381.848008208
 20
186.4652147518
 30
0.0
 10
381.5017424563
 20
186.3468698932
 30
0.0
 10
381.3280295715
 20
186.3097061967
 30
0.0
  0
SPLINE
  5
4AD
100
AcDbEntity
  8
0
100
AcDbSpline
 62
3
  6
CONTINUOUS
 70
0
 71
3
 72
13
 73
9
 74
0
 42
0.0000001
 43
0.0000001
 44
0.0000000001
 40
0.0
 40
0.0
 40
0.0
 40
0.0
 40
0.2577932114
 40
0.5105937354
 40
0.6348880278
 40
0.7575881431
 40
0.8790835986
 40
1.0
 40
1.0
 40
1.0
 40
1.0
 10
353.2356510678
 20
190.2605830102
 30
0.0
 10
353.2356510678
 20
189.7672817453
 30
0.0
 10
353.0683910912
 20
188.7822127159
 30
0.0
 10
352.4524093695
 20
187.7027339053
 30
0.0
 10
351.7637576183
 20
187.0318655784
 30
0.0
 10
351.1708805799
 20
186.6416981694
 30
0.0
 10
350.5190639778
 20
186.3781961768
 30
0.0
 10
350.0594730796
 20
186.2924527478
 30
0.0
 10
349.8289195669
 20
186.2729125597
 30
0.0
  0
SPLINE
  5
4AE
100
AcDbEntity
  8
0
100
AcDbSpline
 62
3
  6
CONTINUOUS
 70
0
 71
3
 72
11
 73
7
 74
0
 42
0.0000001
 43
0.0000001
 44
0.0000000001
 40
0.0
 40
0.0
 40
0.0
 40
0.0
 40
0.2502053693
 40
0.5002635394
 40
0.7501656855
 40
1.0
 40
1.0
 40
1.0
 40
1.0
 10
317.42303494
 20
190.2605830102
 30
0.0
 10
317.42303494
 20
189.7403901281
 30
0.0
 10
317.2155823327
 20
188.6889549757
 30
0.0
 10
316.3276372456
 20
187.3592859298
 30
0.0
 10
315.0004586021
 20
186.4687945347
 30
0.0
 10
313.9500630013
 20
186.2605830102
 30
0.0
 10
313.4306415657
 20
186.2605830102
 30
0.0
  0
SPLINE
  5
4AF
100
AcDbEntity
  8
0
100
AcDbSpline
 62
3
  6
CONTINUOUS
 70
0
 71
3
 72
13
 73
9
 74
0
 42
0.0000001
 43
0.0000001
 44
0.0000000001
 40
0.0
 40
0.0
 40
0.0
 40
0.0
 40
0.2574819797
 40
0.5101476256
 40
0.6344728078
 40
0.7572675353
 40
0.878908439
 40
1.0
 40
1.0
 40
1.0
 40
1.0
 10
273.5660881015
 20
190.2605830102
 30
0.0
 10
273.5660881015
 20
190.7539290634
 30
0.0
 10
273.7340165814
 20
191.7394628162
 30
0.0
 10
274.3520569323
 20
192.8187722776
 30
0.0
 10
275.0426325646
 20
193.4894165892
 30
0.0
 10
275.6372561534
 20
193.8795370673
 30
0.0
 10
276.2909188973
 20
194.1429916937
 30
0.0
 10
276.7517410776
 20
194.2287141595
 30
0.0
 10
276.9829332675
 20
194.2482534608
 30
0.0
  0
SPLINE
  5
4B0
100
AcDbEntity
  8
0
100
AcDbSpline
 62
3
  6
CONTINUOUS
 70
0
 71
3
 72
12
 73
8
 74
0
 42
0.0000001
 43
0.0000001
 44
0.0000000001
 40
0.0
 40
0.0
 40
0.0
 40
0.0
 40
0.2791458302
 40
0.5427662121
 40
0.7817024009
 40
0.8928350595
 40
1.0
 40
1.0
 40
1.0
 40
1.0
 10
242.8686213563
 20
190.2605830102
 30
0.0
 10
242.8686213563
 20
190.7260804292
 30
0.0
 10
242.9822862464
 20
191.6359121889
 30
0.0
 10
243.4822875579
 20
192.8572985237
 30
0.0
 10
244.1652692116
 20
193.6534018332
 30
0.0
 10
244.8189627628
 20
194.0560722023
 30
0.0
 10
245.167323031
 20
194.1743091172
 30
0.0
 10
245.3421246873
 20
194.2114598238
 30
0.0
  0
SPLINE
  5
4B1
100
AcDbEntity
  8
0
100
AcDbSpline
 62
3
  6
CONTINUOUS
 70
0
 71
3
 72
11
 73
7
 74
0
 42
0.0000001
 43
0.0000001
 44
0.0000000001
 40
0.0
 40
0.0
 40
0.0
 40
0.0
 40
0.3019684093
 40
0.5802219085
 40
0.8157121848
 40
1.0
 40
1.0
 40
1.0
 40
1.0
 10
221.3670091859
 20
190.2605830102
 30
0.0
 10
221.3670091859
 20
190.6736820853
 30
0.0
 10
221.4184458559
 20
191.4684032903
 30
0.0
 10
221.6492768526
 20
192.5656344186
 30
0.0
 10
222.0116503636
 20
193.4538716643
 30
0.0
 10
222.3798777573
 20
193.9184431058
 30
0.0
 10
222.5848902942
 20
194.0651710694
 30
0.0
  0
SPLINE
  5
4B2
100
AcDbEntity
  8
0
100
AcDbSpline
 62
3
  6
CONTINUOUS
 70
0
 71
3
 72
9
 73
5
 74
0
 42
0.0000001
 43
0.0000001
 44
0.0000000001
 40
0.0
 40
0.0
 40
0.0
 40
0.0
 40
0.2604080534
 40
1.0
 40
1.0
 40
1.0
 40
1.0
 10
222.5848902942
 20
194.0651710694
 30
0.0
 10
222.607121753
 20
194.0810821777
 30
0.0
 10
222.6943854433
 20
194.1394435505
 30
0.0
 10
222.7897318325
 20
194.1861224245
 30
0.0
 10
222.8631266139
 20
194.2114598238
 30
0.0
  0
SPLINE
  5
4B3
100
AcDbEntity
  8
0
100
AcDbSpline
 62
3
  6
CONTINUOUS
 70
0
 71
3
 72
10
 73
6
 74
0
 42
0.0000001
 43
0.0000001
 44
0.0000000001
 40
0.0
 40
0.0
 40
0.0
 40
0.0
 40
0.5718365794
 40
0.8117747798
 40
1.0
 40
1.0
 40
1.0
 40
1.0
 10
211.8782201983
 20
190.2605830102
 30
0.0
 10
211.8782201983
 20
190.9111767986
 30
0.0
 10
211.8934278704
 20
191.8351669804
 30
0.0
 10
211.9618931367
 20
192.9708664898
 30
0.0
 10
212.0129619409
 20
193.4558238096
 30
0.0
 10
212.0465146199
 20
193.6673278464
 30
0.0
  0
SPLINE
  5
4B4
100
AcDbEntity
  8
0
100
AcDbSpline
 62
3
  6
CONTINUOUS
 70
0
 71
3
 72
10
 73
6
 74
0
 42
0.0000001
 43
0.0000001
 44
0.0000000001
 40
0.0
 40
0.0
 40
0.0
 40
0.0
 40
0.5656082422
 40
0.8065112282
 40
1.0
 40
1.0
 40
1.0
 40
1.0
 10
414.2969750942
 20
165.2605830102
 30
0.0
 10
414.2969750942
 20
164.6345050722
 30
0.0
 10
414.2839656552
 20
163.7414880625
 30
0.0
 10
414.2263796276
 20
162.6360299179
 30
0.0
 10
414.1831761964
 20
162.1568140682
 30
0.0
 10
414.1551462578
 20
161.9444813528
 30
0.0
  0
SPLINE
  5
4B5
100
AcDbEntity
  8
0
100
AcDbSpline
 62
3
  6
CONTINUOUS
 70
0
 71
3
 72
11
 73
7
 74
0
 42
0.0000001
 43
0.0000001
 44
0.0000000001
 40
0.0
 40
0.0
 40
0.0
 40
0.0
 40
0.3025373713
 40
0.5811391776
 40
0.8165225141
 40
1.0
 40
1.0
 40
1.0
 40
1.0
 10
405.0679467779
 20
165.2605830102
 30
0.0
 10
405.0679467779
 20
164.8475129814
 30
0.0
 10
405.0173431667
 20
164.0531332456
 30
0.0
 10
404.7902113669
 20
162.9563181643
 30
0.0
 10
404.4338128601
 20
162.068815794
 30
0.0
 10
404.070920272
 20
161.6031912284
 30
0.0
 10
403.8682155585
 20
161.4559949511
 30
0.0
  0
SPLINE
  5
4B6
100
AcDbEntity
  8
0
100
AcDbSpline
 62
3
  6
CONTINUOUS
 70
0
 71
3
 72
9
 73
5
 74
0
 42
0.0000001
 43
0.0000001
 44
0.0000000001
 40
0.0
 40
0.0
 40
0.0
 40
0.0
 40
0.2607311626
 40
1.0
 40
1.0
 40
1.0
 40
1.0
 10
403.8682155585
 20
161.4559949511
 30
0.0
 10
403.8463137217
 20
161.4400906892
 30
0.0
 10
403.7604154898
 20
161.3818005664
 30
0.0
 10
403.6663902255
 20
161.3350715328
 30
0.0
 10
403.5939575698
 20
161.3097061967
 30
0.0
  0
SPLINE
  5
4B7
100
AcDbEntity
  8
0
100
AcDbSpline
 62
3
  6
CONTINUOUS
 70
0
 71
3
 72
12
 73
8
 74
0
 42
0.0000001
 43
0.0000001
 44
0.0000000001
 40
0.0
 40
0.0
 40
0.0
 40
0.0
 40
0.2797328416
 40
0.5436575368
 40
0.7824011596
 40
0.8932357594
 40
1.0
 40
1.0
 40
1.0
 40
1.0
 10
383.7847195817
 20
165.2605830102
 30
0.0
 10
383.7847195817
 20
164.7951388277
 30
0.0
 10
383.6719674323
 20
163.8858838263
 30
0.0
 10
383.1759572946
 20
162.6649823402
 30
0.0
 10
382.4977470676
 20
161.8682948612
 30
0.0
 10
381.848008208
 20
161.4652147518
 30
0.0
 10
381.5017424563
 20
161.3468698932
 30
0.0
 10
381.3280295715
 20
161.3097061967
 30
0.0
  0
SPLINE
  5
4B8
100
AcDbEntity
  8
0
100
AcDbSpline
 62
3
  6
CONTINUOUS
 70
0
 71
3
 72
13
 73
9
 74
0
 42
0.0000001
 43
0.0000001
 44
0.0000000001
 40
0.0
 40
0.0
 40
0.0
 40
0.0
 40
0.2577932114
 40
0.5105937354
 40
0.6348880278
 40
0.7575881431
 40
0.8790835986
 40
1.0
 40
1.0
 40
1.0
 40
1.0
 10
353.2356510678
 20
165.2605830102
 30
0.0
 10
353.2356510678
 20
164.7672817453
 30
0.0
 10
353.0683910912
 20
163.7822127159
 30
0.0
 10
352.4524093695
 20
162.7027339053
 30
0.0
 10
351.7637576183
 20
162.0318655784
 30
0.0
 10
351.1708805799
 20
161.6416981694
 30
0.0
 10
350.5190639778
 20
161.3781961768
 30
0.0
 10
350.0594730796
 20
161.2924527478
 30
0.0
 10
349.8289195669
 20
161.2729125597
 30
0.0
  0
SPLINE
  5
4B9
100
AcDbEntity
  8
0
100
AcDbSpline
 62
3
  6
CONTINUOUS
 70
0
 71
3
 72
11
 73
7
 74
0
 42
0.0000001
 43
0.0000001
 44
0.0000000001
 40
0.0
 40
0.0
 40
0.0
 40
0.0
 40
0.2502053693
 40
0.5002635394
 40
0.7501656855
 40
1.0
 40
1.0
 40
1.0
 40
1.0
 10
317.42303494
 20
165.2605830102
 30
0.0
 10
317.42303494
 20
164.7403901281
 30
0.0
 10
317.2155823327
 20
163.6889549757
 30
0.0
 10
316.3276372456
 20
162.3592859298
 30
0.0
 10
315.0004586021
 20
161.4687945347
 30
0.0
 10
313.9500630013
 20
161.2605830102
 30
0.0
 10
313.4306415657
 20
161.2605830102
 30
0.0
  0
SPLINE
  5
4BA
100
AcDbEntity
  8
0
100
AcDbSpline
 62
3
  6
CONTINUOUS
 70
0
 71
3
 72
13
 73
9
 74
0
 42
0.0000001
 43
0.0000001
 44
0.0000000001
 40
0.0
 40
0.0
 40
0.0
 40
0.0
 40
0.2574819797
 40
0.5101476256
 40
0.6344728078
 40
0.7572675353
 40
0.878908439
 40
1.0
 40
1.0
 40
1.0
 40
1.0
 10
273.5660881015
 20
165.2605830102
 30
0.0
 10
273.5660881015
 20
165.7539290634
 30
0.0
 10
273.7340165814
 20
166.7394628162
 30
0.0
 10
274.3520569323
 20
167.8187722776
 30
0.0
 10
275.0426325646
 20
168.4894165892
 30
0.0
 10
275.6372561534
 20
168.8795370673
 30
0.0
 10
276.2909188973
 20
169.1429916937
 30
0.0
 10
276.7517410776
 20
169.2287141595
 30
0.0
 10
276.9829332675
 20
169.2482534608
 30
0.0
  0
SPLINE
  5
4BB
100
AcDbEntity
  8
0
100
AcDbSpline
 62
3
  6
CONTINUOUS
 70
0
 71
3
 72
12
 73
8
 74
0
 42
0.0000001
 43
0.0000001
 44
0.0000000001
 40
0.0
 40
0.0
 40
0.0
 40
0.0
 40
0.2791458302
 40
0.5427662121
 40
0.7817024009
 40
0.8928350595
 40
1.0
 40
1.0
 40
1.0
 40
1.0
 10
242.8686213563
 20
165.2605830102
 30
0.0
 10
242.8686213563
 20
165.7260804292
 30
0.0
 10
242.9822862464
 20
166.6359121889
 30
0.0
 10
243.4822875579
 20
167.8572985237
 30
0.0
 10
244.1652692116
 20
168.6534018332
 30
0.0
 10
244.8189627628
 20
169.0560722023
 30
0.0
 10
245.167323031
 20
169.1743091172
 30
0.0
 10
245.3421246873
 20
169.2114598238
 30
0.0
  0
SPLINE
  5
4BC
100
AcDbEntity
  8
0
100
AcDbSpline
 62
3
  6
CONTINUOUS
 70
0
 71
3
 72
11
 73
7
 74
0
 42
0.0000001
 43
0.0000001
 44
0.0000000001
 40
0.0
 40
0.0
 40
0.0
 40
0.0
 40
0.3019684093
 40
0.5802219085
 40
0.8157121848
 40
1.0
 40
1.0
 40
1.0
 40
1.0
 10
221.3670091859
 20
165.2605830102
 30
0.0
 10
221.3670091859
 20
165.6736820853
 30
0.0
 10
221.4184458559
 20
166.4684032903
 30
0.0
 10
221.6492768526
 20
167.5656344186
 30
0.0
 10
222.0116503636
 20
168.4538716643
 30
0.0
 10
222.3798777573
 20
168.9184431058
 30
0.0
 10
222.5848902942
 20
169.0651710694
 30
0.0
  0
SPLINE
  5
4BD
100
AcDbEntity
  8
0
100
AcDbSpline
 62
3
  6
CONTINUOUS
 70
0
 71
3
 72
9
 73
5
 74
0
 42
0.0000001
 43
0.0000001
 44
0.0000000001
 40
0.0
 40
0.0
 40
0.0
 40
0.0
 40
0.2604080534
 40
1.0
 40
1.0
 40
1.0
 40
1.0
 10
222.5848902942
 20
169.0651710694
 30
0.0
 10
222.607121753
 20
169.0810821777
 30
0.0
 10
222.6943854433
 20
169.1394435505
 30
0.0
 10
222.7897318325
 20
169.1861224245
 30
0.0
 10
222.8631266139
 20
169.2114598238
 30
0.0
  0
SPLINE
  5
4BE
100
AcDbEntity
  8
0
100
AcDbSpline
 62
3
  6
CONTINUOUS
 70
0
 71
3
 72
10
 73
6
 74
0
 42
0.0000001
 43
0.0000001
 44
0.0000000001
 40
0.0
 40
0.0
 40
0.0
 40
0.0
 40
0.5718365794
 40
0.8117747798
 40
1.0
 40
1.0
 40
1.0
 40
1.0
 10
211.8782201983
 20
165.2605830102
 30
0.0
 10
211.8782201983
 20
165.9111767986
 30
0.0
 10
211.8934278704
 20
166.8351669804
 30
0.0
 10
211.9618931367
 20
167.9708664898
 30
0.0
 10
212.0129619409
 20
168.4558238096
 30
0.0
 10
212.0465146199
 20
168.6673278464
 30
0.0
  0
SPLINE
  5
4BF
100
AcDbEntity
  8
0
100
AcDbSpline
 62
3
  6
CONTINUOUS
 70
0
 71
3
 72
10
 73
6
 74
0
 42
0.0000001
 43
0.0000001
 44
0.0000000001
 40
0.0
 40
0.0
 40
0.0
 40
0.0
 40
0.5656082422
 40
0.8065112282
 40
1.0
 40
1.0
 40
1.0
 40
1.0
 10
414.2969750942
 20
140.2605830102
 30
0.0
 10
414.2969750942
 20
139.6345050722
 30
0.0
 10
414.2839656552
 20
138.7414880625
 30
0.0
 10
414.2263796276
 20
137.6360299179
 30
0.0
 10
414.1831761964
 20
137.1568140682
 30
0.0
 10
414.1551462578
 20
136.9444813528
 30
0.0
  0
SPLINE
  5
4C0
100
AcDbEntity
  8
0
100
AcDbSpline
 62
3
  6
CONTINUOUS
 70
0
 71
3
 72
11
 73
7
 74
0
 42
0.0000001
 43
0.0000001
 44
0.0000000001
 40
0.0
 40
0.0
 40
0.0
 40
0.0
 40
0.3025373713
 40
0.5811391776
 40
0.8165225141
 40
1.0
 40
1.0
 40
1.0
 40
1.0
 10
405.0679467779
 20
140.2605830102
 30
0.0
 10
405.0679467779
 20
139.8475129814
 30
0.0
 10
405.0173431667
 20
139.0531332456
 30
0.0
 10
404.7902113669
 20
137.9563181643
 30
0.0
 10
404.4338128601
 20
137.068815794
 30
0.0
 10
404.070920272
 20
136.6031912284
 30
0.0
 10
403.8682155585
 20
136.4559949511
 30
0.0
  0
SPLINE
  5
4C1
100
AcDbEntity
  8
0
100
AcDbSpline
 62
3
  6
CONTINUOUS
 70
0
 71
3
 72
9
 73
5
 74
0
 42
0.0000001
 43
0.0000001
 44
0.0000000001
 40
0.0
 40
0.0
 40
0.0
 40
0.0
 40
0.2607311626
 40
1.0
 40
1.0
 40
1.0
 40
1.0
 10
403.8682155585
 20
136.4559949511
 30
0.0
 10
403.8463137217
 20
136.4400906892
 30
0.0
 10
403.7604154898
 20
136.3818005664
 30
0.0
 10
403.6663902255
 20
136.3350715328
 30
0.0
 10
403.5939575698
 20
136.3097061967
 30
0.0
  0
SPLINE
  5
4C2
100
AcDbEntity
  8
0
100
AcDbSpline
 62
3
  6
CONTINUOUS
 70
0
 71
3
 72
12
 73
8
 74
0
 42
0.0000001
 43
0.0000001
 44
0.0000000001
 40
0.0
 40
0.0
 40
0.0
 40
0.0
 40
0.2797328416
 40
0.5436575368
 40
0.7824011596
 40
0.8932357594
 40
1.0
 40
1.0
 40
1.0
 40
1.0
 10
383.7847195817
 20
140.2605830102
 30
0.0
 10
383.7847195817
 20
139.7951388277
 30
0.0
 10
383.6719674323
 20
138.8858838263
 30
0.0
 10
383.1759572946
 20
137.6649823402
 30
0.0
 10
382.4977470676
 20
136.8682948612
 30
0.0
 10
381.848008208
 20
136.4652147518
 30
0.0
 10
381.5017424563
 20
136.3468698932
 30
0.0
 10
381.3280295715
 20
136.3097061967
 30
0.0
  0
SPLINE
  5
4C3
100
AcDbEntity
  8
0
100
AcDbSpline
 62
3
  6
CONTINUOUS
 70
0
 71
3
 72
13
 73
9
 74
0
 42
0.0000001
 43
0.0000001
 44
0.0000000001
 40
0.0
 40
0.0
 40
0.0
 40
0.0
 40
0.2577932114
 40
0.5105937354
 40
0.6348880278
 40
0.7575881431
 40
0.8790835986
 40
1.0
 40
1.0
 40
1.0
 40
1.0
 10
353.2356510678
 20
140.2605830102
 30
0.0
 10
353.2356510678
 20
139.7672817453
 30
0.0
 10
353.0683910912
 20
138.7822127159
 30
0.0
 10
352.4524093695
 20
137.7027339053
 30
0.0
 10
351.7637576183
 20
137.0318655784
 30
0.0
 10
351.1708805799
 20
136.6416981694
 30
0.0
 10
350.5190639778
 20
136.3781961768
 30
0.0
 10
350.0594730796
 20
136.2924527478
 30
0.0
 10
349.8289195669
 20
136.2729125597
 30
0.0
  0
SPLINE
  5
4C4
100
AcDbEntity
  8
0
100
AcDbSpline
 62
3
  6
CONTINUOUS
 70
0
 71
3
 72
11
 73
7
 74
0
 42
0.0000001
 43
0.0000001
 44
0.0000000001
 40
0.0
 40
0.0
 40
0.0
 40
0.0
 40
0.2502053693
 40
0.5002635394
 40
0.7501656855
 40
1.0
 40
1.0
 40
1.0
 40
1.0
 10
317.42303494
 20
140.2605830102
 30
0.0
 10
317.42303494
 20
139.7403901281
 30
0.0
 10
317.2155823327
 20
138.6889549757
 30
0.0
 10
316.3276372456
 20
137.3592859298
 30
0.0
 10
315.0004586021
 20
136.4687945347
 30
0.0
 10
313.9500630013
 20
136.2605830102
 30
0.0
 10
313.4306415657
 20
136.2605830102
 30
0.0
  0
SPLINE
  5
4C5
100
AcDbEntity
  8
0
100
AcDbSpline
 62
3
  6
CONTINUOUS
 70
0
 71
3
 72
13
 73
9
 74
0
 42
0.0000001
 43
0.0000001
 44
0.0000000001
 40
0.0
 40
0.0
 40
0.0
 40
0.0
 40
0.2574819797
 40
0.5101476256
 40
0.6344728078
 40
0.7572675353
 40
0.878908439
 40
1.0
 40
1.0
 40
1.0
 40
1.0
 10
273.5660881015
 20
140.2605830102
 30
0.0
 10
273.5660881015
 20
140.7539290634
 30
0.0
 10
273.7340165814
 20
141.7394628162
 30
0.0
 10
274.3520569323
 20
142.8187722776
 30
0.0
 10
275.0426325646
 20
143.4894165892
 30
0.0
 10
275.6372561534
 20
143.8795370673
 30
0.0
 10
276.2909188973
 20
144.1429916937
 30
0.0
 10
276.7517410776
 20
144.2287141595
 30
0.0
 10
276.9829332675
 20
144.2482534608
 30
0.0
  0
SPLINE
  5
4C6
100
AcDbEntity
  8
0
100
AcDbSpline
 62
3
  6
CONTINUOUS
 70
0
 71
3
 72
12
 73
8
 74
0
 42
0.0000001
 43
0.0000001
 44
0.0000000001
 40
0.0
 40
0.0
 40
0.0
 40
0.0
 40
0.2791458302
 40
0.5427662121
 40
0.7817024009
 40
0.8928350595
 40
1.0
 40
1.0
 40
1.0
 40
1.0
 10
242.8686213563
 20
140.2605830102
 30
0.0
 10
242.8686213563
 20
140.7260804292
 30
0.0
 10
242.9822862464
 20
141.6359121889
 30
0.0
 10
243.4822875579
 20
142.8572985237
 30
0.0
 10
244.1652692116
 20
143.6534018332
 30
0.0
 10
244.8189627628
 20
144.0560722023
 30
0.0
 10
245.167323031
 20
144.1743091172
 30
0.0
 10
245.3421246873
 20
144.2114598238
 30
0.0
  0
SPLINE
  5
4C7
100
AcDbEntity
  8
0
100
AcDbSpline
 62
3
  6
CONTINUOUS
 70
0
 71
3
 72
11
 73
7
 74
0
 42
0.0000001
 43
0.0000001
 44
0.0000000001
 40
0.0
 40
0.0
 40
0.0
 40
0.0
 40
0.3019684093
 40
0.5802219085
 40
0.8157121848
 40
1.0
 40
1.0
 40
1.0
 40
1.0
 10
221.3670091859
 20
140.2605830102
 30
0.0
 10
221.3670091859
 20
140.6736820853
 30
0.0
 10
221.4184458559
 20
141.4684032903
 30
0.0
 10
221.6492768526
 20
142.5656344186
 30
0.0
 10
222.0116503636
 20
143.4538716643
 30
0.0
 10
222.3798777573
 20
143.9184431058
 30
0.0
 10
222.5848902942
 20
144.0651710694
 30
0.0
  0
SPLINE
  5
4C8
100
AcDbEntity
  8
0
100
AcDbSpline
 62
3
  6
CONTINUOUS
 70
0
 71
3
 72
9
 73
5
 74
0
 42
0.0000001
 43
0.0000001
 44
0.0000000001
 40
0.0
 40
0.0
 40
0.0
 40
0.0
 40
0.2604080534
 40
1.0
 40
1.0
 40
1.0
 40
1.0
 10
222.5848902942
 20
144.0651710694
 30
0.0
 10
222.607121753
 20
144.0810821777
 30
0.0
 10
222.6943854433
 20
144.1394435505
 30
0.0
 10
222.7897318325
 20
144.1861224245
 30
0.0
 10
222.8631266139
 20
144.2114598238
 30
0.0
  0
SPLINE
  5
4C9
100
AcDbEntity
  8
0
100
AcDbSpline
 62
3
  6
CONTINUOUS
 70
0
 71
3
 72
10
 73
6
 74
0
 42
0.0000001
 43
0.0000001
 44
0.0000000001
 40
0.0
 40
0.0
 40
0.0
 40
0.0
 40
0.5718365794
 40
0.8117747798
 40
1.0
 40
1.0
 40
1.0
 40
1.0
 10
211.8782201983
 20
140.2605830102
 30
0.0
 10
211.8782201983
 20
140.9111767986
 30
0.0
 10
211.8934278704
 20
141.8351669804
 30
0.0
 10
211.9618931367
 20
142.9708664898
 30
0.0
 10
212.0129619409
 20
143.4558238096
 30
0.0
 10
212.0465146199
 20
143.6673278464
 30
0.0
  0
SPLINE
  5
4CA
100
AcDbEntity
  8
0
100
AcDbSpline
 62
3
  6
CONTINUOUS
 70
0
 71
3
 72
10
 73
6
 74
0
 42
0.0000001
 43
0.0000001
 44
0.0000000001
 40
0.0
 40
0.0
 40
0.0
 40
0.0
 40
0.1882252202
 40
0.4281634206
 40
1.0
 40
1.0
 40
1.0
 40
1.0
 10
212.0465146199
 20
136.8538381741
 30
0.0
 10
212.0129619409
 20
137.0653422109
 30
0.0
 10
211.9618931367
 20
137.5502995307
 30
0.0
 10
211.8934278704
 20
138.68599904
 30
0.0
 10
211.8782201983
 20
139.6099892218
 30
0.0
 10
211.8782201983
 20
140.2605830102
 30
0.0
  0
SPLINE
  5
4CB
100
AcDbEntity
  8
0
100
AcDbSpline
 62
3
  6
CONTINUOUS
 70
0
 71
3
 72
9
 73
5
 74
0
 42
0.0000001
 43
0.0000001
 44
0.0000000001
 40
0.0
 40
0.0
 40
0.0
 40
0.0
 40
0.2411868124
 40
1.0
 40
1.0
 40
1.0
 40
1.0
 10
222.8631266139
 20
136.3097061967
 30
0.0
 10
222.8391896581
 20
136.3179697298
 30
0.0
 10
222.7413169171
 20
136.3561819872
 30
0.0
 10
222.6496777272
 20
136.4096264302
 30
0.0
 10
222.5848902942
 20
136.4559949511
 30
0.0
  0
SPLINE
  5
4CC
100
AcDbEntity
  8
0
100
AcDbSpline
 62
3
  6
CONTINUOUS
 70
0
 71
3
 72
11
 73
7
 74
0
 42
0.0000001
 43
0.0000001
 44
0.0000000001
 40
0.0
 40
0.0
 40
0.0
 40
0.0
 40
0.1842878152
 40
0.4197780915
 40
0.6980315907
 40
1.0
 40
1.0
 40
1.0
 40
1.0
 10
222.5848902942
 20
136.4559949511
 30
0.0
 10
222.3798777573
 20
136.6027229147
 30
0.0
 10
222.0116503636
 20
137.0672943561
 30
0.0
 10
221.6492768526
 20
137.9555316019
 30
0.0
 10
221.4184458559
 20
139.0527627302
 30
0.0
 10
221.3670091859
 20
139.8474839352
 30
0.0
 10
221.3670091859
 20
140.2605830102
 30
0.0
  0
SPLINE
  5
4CD
100
AcDbEntity
  8
0
100
AcDbSpline
 62
3
  6
CONTINUOUS
 70
0
 71
3
 72
12
 73
8
 74
0
 42
0.0000001
 43
0.0000001
 44
0.0000000001
 40
0.0
 40
0.0
 40
0.0
 40
0.0
 40
0.1071649405
 40
0.2182975991
 40
0.4572337879
 40
0.7208541698
 40
1.0
 40
1.0
 40
1.0
 40
1.0
 10
245.3421246873
 20
136.3097061967
 30
0.0
 10
245.167323031
 20
136.3468569033
 30
0.0
 10
244.8189627628
 20
136.4650938182
 30
0.0
 10
244.1652692116
 20
136.8677641873
 30
0.0
 10
243.4822875579
 20
137.6638674968
 30
0.0
 10
242.9822862464
 20
138.8852538316
 30
0.0
 10
242.8686213563
 20
139.7950855913
 30
0.0
 10
242.8686213563
 20
140.2605830102
 30
0.0
  0
SPLINE
  5
4CE
100
AcDbEntity
  8
0
100
AcDbSpline
 62
3
  6
CONTINUOUS
 70
0
 71
3
 72
13
 73
9
 74
0
 42
0.0000001
 43
0.0000001
 44
0.0000000001
 40
0.0
 40
0.0
 40
0.0
 40
0.0
 40
0.121091561
 40
0.2427324647
 40
0.3655271922
 40
0.4898523744
 40
0.7425180203
 40
1.0
 40
1.0
 40
1.0
 40
1.0
 10
276.9829332675
 20
136.2729125597
 30
0.0
 10
276.7517410776
 20
136.292451861
 30
0.0
 10
276.2909188973
 20
136.3781743268
 30
0.0
 10
275.6372561534
 20
136.6416289532
 30
0.0
 10
275.0426325646
 20
137.0317494313
 30
0.0
 10
274.3520569323
 20
137.7023937429
 30
0.0
 10
273.7340165814
 20
138.7817032043
 30
0.0
 10
273.5660881015
 20
139.7672369571
 30
0.0
 10
273.5660881015
 20
140.2605830102
 30
0.0
  0
SPLINE
  5
4CF
100
AcDbEntity
  8
0
100
AcDbSpline
 62
3
  6
CONTINUOUS
 70
0
 71
3
 72
11
 73
7
 74
0
 42
0.0000001
 43
0.0000001
 44
0.0000000001
 40
0.0
 40
0.0
 40
0.0
 40
0.0
 40
0.2498343145
 40
0.4997364606
 40
0.7497946307
 40
1.0
 40
1.0
 40
1.0
 40
1.0
 10
313.4306415657
 20
144.2605830102
 30
0.0
 10
313.9500630013
 20
144.2605830102
 30
0.0
 10
315.0004586021
 20
144.0523714857
 30
0.0
 10
316.3276372456
 20
143.1618800906
 30
0.0
 10
317.2155823327
 20
141.8322110448
 30
0.0
 10
317.42303494
 20
140.7807758924
 30
0.0
 10
317.42303494
 20
140.2605830102
 30
0.0
  0
SPLINE
  5
4D0
100
AcDbEntity
  8
0
100
AcDbSpline
 62
3
  6
CONTINUOUS
 70
0
 71
3
 72
13
 73
9
 74
0
 42
0.0000001
 43
0.0000001
 44
0.0000000001
 40
0.0
 40
0.0
 40
0.0
 40
0.0
 40
0.1209164014
 40
0.2424118569
 40
0.3651119722
 40
0.4894062646
 40
0.7422067886
 40
1.0
 40
1.0
 40
1.0
 40
1.0
 10
349.8289195669
 20
144.2482534608
 30
0.0
 10
350.0594730796
 20
144.2287132727
 30
0.0
 10
350.5190639778
 20
144.1429698437
 30
0.0
 10
351.1708805799
 20
143.8794678511
 30
0.0
 10
351.7637576183
 20
143.4893004421
 30
0.0
 10
352.4524093695
 20
142.8184321152
 30
0.0
 10
353.0683910912
 20
141.7389533046
 30
0.0
 10
353.2356510678
 20
140.7538842751
 30
0.0
 10
353.2356510678
 20
140.2605830102
 30
0.0
  0
SPLINE
  5
4D1
100
AcDbEntity
  8
0
100
AcDbSpline
 62
3
  6
CONTINUOUS
 70
0
 71
3
 72
12
 73
8
 74
0
 42
0.0000001
 43
0.0000001
 44
0.0000000001
 40
0.0
 40
0.0
 40
0.0
 40
0.0
 40
0.1067642406
 40
0.2175988404
 40
0.4563424632
 40
0.7202671584
 40
1.0
 40
1.0
 40
1.0
 40
1.0
 10
381.3280295715
 20
144.2114598238
 30
0.0
 10
381.5017424563
 20
144.1742961273
 30
0.0
 10
381.848008208
 20
144.0559512687
 30
0.0
 10
382.4977470676
 20
143.6528711593
 30
0.0
 10
383.1759572946
 20
142.8561836803
 30
0.0
 10
383.6719674323
 20
141.6352821942
 30
0.0
 10
383.7847195817
 20
140.7260271928
 30
0.0
 10
383.7847195817
 20
140.2605830102
 30
0.0
  0
SPLINE
  5
4D2
100
AcDbEntity
  8
0
100
AcDbSpline
 62
3
  6
CONTINUOUS
 70
0
 71
3
 72
9
 73
5
 74
0
 42
0.0000001
 43
0.0000001
 44
0.0000000001
 40
0.0
 40
0.0
 40
0.0
 40
0.0
 40
0.24089746
 40
1.0
 40
1.0
 40
1.0
 40
1.0
 10
403.5939575698
 20
144.2114598238
 30
0.0
 10
403.6175628262
 20
144.203193452
 30
0.0
 10
403.7141600164
 20
144.1649316746
 30
0.0
 10
403.8044431917
 20
144.1114800813
 30
0.0
 10
403.8682155585
 20
144.0651710694
 30
0.0
  0
SPLINE
  5
4D3
100
AcDbEntity
  8
0
100
AcDbSpline
 62
3
  6
CONTINUOUS
 70
0
 71
3
 72
11
 73
7
 74
0
 42
0.0000001
 43
0.0000001
 44
0.0000000001
 40
0.0
 40
0.0
 40
0.0
 40
0.0
 40
0.1834774859
 40
0.4188608224
 40
0.6974626287
 40
1.0
 40
1.0
 40
1.0
 40
1.0
 10
403.8682155585
 20
144.0651710694
 30
0.0
 10
404.070920272
 20
143.9179747921
 30
0.0
 10
404.4338128601
 20
143.4523502265
 30
0.0
 10
404.7902113669
 20
142.5648478562
 30
0.0
 10
405.0173431667
 20
141.4680327749
 30
0.0
 10
405.0679467779
 20
140.6736530391
 30
0.0
 10
405.0679467779
 20
140.2605830102
 30
0.0
  0
SPLINE
  5
4D4
100
AcDbEntity
  8
0
100
AcDbSpline
 62
3
  6
CONTINUOUS
 70
0
 71
3
 72
10
 73
6
 74
0
 42
0.0000001
 43
0.0000001
 44
0.0000000001
 40
0.0
 40
0.0
 40
0.0
 40
0.0
 40
0.1934887718
 40
0.4343917578
 40
1.0
 40
1.0
 40
1.0
 40
1.0
 10
414.1551462578
 20
143.5766846676
 30
0.0
 10
414.1831761964
 20
143.3643519523
 30
0.0
 10
414.2263796276
 20
142.8851361026
 30
0.0
 10
414.2839656552
 20
141.779677958
 30
0.0
 10
414.2969750942
 20
140.8866609483
 30
0.0
 10
414.2969750942
 20
140.2605830102
 30
0.0
  0
SPLINE
  5
4D5
100
AcDbEntity
  8
0
100
AcDbSpline
 62
3
  6
CONTINUOUS
 70
0
 71
3
 72
10
 73
6
 74
0
 42
0.0000001
 43
0.0000001
 44
0.0000000001
 40
0.0
 40
0.0
 40
0.0
 40
0.0
 40
0.1882252202
 40
0.4281634206
 40
1.0
 40
1.0
 40
1.0
 40
1.0
 10
212.0465146199
 20
161.8538381741
 30
0.0
 10
212.0129619409
 20
162.0653422109
 30
0.0
 10
211.9618931367
 20
162.5502995307
 30
0.0
 10
211.8934278704
 20
163.68599904
 30
0.0
 10
211.8782201983
 20
164.6099892218
 30
0.0
 10
211.8782201983
 20
165.2605830102
 30
0.0
  0
SPLINE
  5
4D6
100
AcDbEntity
  8
0
100
AcDbSpline
 62
3
  6
CONTINUOUS
 70
0
 71
3
 72
9
 73
5
 74
0
 42
0.0000001
 43
0.0000001
 44
0.0000000001
 40
0.0
 40
0.0
 40
0.0
 40
0.0
 40
0.2411868124
 40
1.0
 40
1.0
 40
1.0
 40
1.0
 10
222.8631266139
 20
161.3097061967
 30
0.0
 10
222.8391896581
 20
161.3179697298
 30
0.0
 10
222.7413169171
 20
161.3561819872
 30
0.0
 10
222.6496777272
 20
161.4096264302
 30
0.0
 10
222.5848902942
 20
161.4559949511
 30
0.0
  0
SPLINE
  5
4D7
100
AcDbEntity
  8
0
100
AcDbSpline
 62
3
  6
CONTINUOUS
 70
0
 71
3
 72
11
 73
7
 74
0
 42
0.0000001
 43
0.0000001
 44
0.0000000001
 40
0.0
 40
0.0
 40
0.0
 40
0.0
 40
0.1842878152
 40
0.4197780915
 40
0.6980315907
 40
1.0
 40
1.0
 40
1.0
 40
1.0
 10
222.5848902942
 20
161.4559949511
 30
0.0
 10
222.3798777573
 20
161.6027229147
 30
0.0
 10
222.0116503636
 20
162.0672943561
 30
0.0
 10
221.6492768526
 20
162.9555316019
 30
0.0
 10
221.4184458559
 20
164.0527627302
 30
0.0
 10
221.3670091859
 20
164.8474839352
 30
0.0
 10
221.3670091859
 20
165.2605830102
 30
0.0
  0
SPLINE
  5
4D8
100
AcDbEntity
  8
0
100
AcDbSpline
 62
3
  6
CONTINUOUS
 70
0
 71
3
 72
12
 73
8
 74
0
 42
0.0000001
 43
0.0000001
 44
0.0000000001
 40
0.0
 40
0.0
 40
0.0
 40
0.0
 40
0.1071649405
 40
0.2182975991
 40
0.4572337879
 40
0.7208541698
 40
1.0
 40
1.0
 40
1.0
 40
1.0
 10
245.3421246873
 20
161.3097061967
 30
0.0
 10
245.167323031
 20
161.3468569033
 30
0.0
 10
244.8189627628
 20
161.4650938182
 30
0.0
 10
244.1652692116
 20
161.8677641873
 30
0.0
 10
243.4822875579
 20
162.6638674968
 30
0.0
 10
242.9822862464
 20
163.8852538316
 30
0.0
 10
242.8686213563
 20
164.7950855913
 30
0.0
 10
242.8686213563
 20
165.2605830102
 30
0.0
  0
SPLINE
  5
4D9
100
AcDbEntity
  8
0
100
AcDbSpline
 62
3
  6
CONTINUOUS
 70
0
 71
3
 72
13
 73
9
 74
0
 42
0.0000001
 43
0.0000001
 44
0.0000000001
 40
0.0
 40
0.0
 40
0.0
 40
0.0
 40
0.121091561
 40
0.2427324647
 40
0.3655271922
 40
0.4898523744
 40
0.7425180203
 40
1.0
 40
1.0
 40
1.0
 40
1.0
 10
276.9829332675
 20
161.2729125597
 30
0.0
 10
276.7517410776
 20
161.292451861
 30
0.0
 10
276.2909188973
 20
161.3781743268
 30
0.0
 10
275.6372561534
 20
161.6416289532
 30
0.0
 10
275.0426325646
 20
162.0317494313
 30
0.0
 10
274.3520569323
 20
162.7023937429
 30
0.0
 10
273.7340165814
 20
163.7817032043
 30
0.0
 10
273.5660881015
 20
164.7672369571
 30
0.0
 10
273.5660881015
 20
165.2605830102
 30
0.0
  0
SPLINE
  5
4DA
100
AcDbEntity
  8
0
100
AcDbSpline
 62
3
  6
CONTINUOUS
 70
0
 71
3
 72
11
 73
7
 74
0
 42
0.0000001
 43
0.0000001
 44
0.0000000001
 40
0.0
 40
0.0
 40
0.0
 40
0.0
 40
0.2498343145
 40
0.4997364606
 40
0.7497946307
 40
1.0
 40
1.0
 40
1.0
 40
1.0
 10
313.4306415657
 20
169.2605830102
 30
0.0
 10
313.9500630013
 20
169.2605830102
 30
0.0
 10
315.0004586021
 20
169.0523714857
 30
0.0
 10
316.3276372456
 20
168.1618800906
 30
0.0
 10
317.2155823327
 20
166.8322110448
 30
0.0
 10
317.42303494
 20
165.7807758924
 30
0.0
 10
317.42303494
 20
165.2605830102
 30
0.0
  0
SPLINE
  5
4DB
100
AcDbEntity
  8
0
100
AcDbSpline
 62
3
  6
CONTINUOUS
 70
0
 71
3
 72
13
 73
9
 74
0
 42
0.0000001
 43
0.0000001
 44
0.0000000001
 40
0.0
 40
0.0
 40
0.0
 40
0.0
 40
0.1209164014
 40
0.2424118569
 40
0.3651119722
 40
0.4894062646
 40
0.7422067886
 40
1.0
 40
1.0
 40
1.0
 40
1.0
 10
349.8289195669
 20
169.2482534608
 30
0.0
 10
350.0594730796
 20
169.2287132727
 30
0.0
 10
350.5190639778
 20
169.1429698437
 30
0.0
 10
351.1708805799
 20
168.8794678511
 30
0.0
 10
351.7637576183
 20
168.4893004421
 30
0.0
 10
352.4524093695
 20
167.8184321152
 30
0.0
 10
353.0683910912
 20
166.7389533046
 30
0.0
 10
353.2356510678
 20
165.7538842751
 30
0.0
 10
353.2356510678
 20
165.2605830102
 30
0.0
  0
SPLINE
  5
4DC
100
AcDbEntity
  8
0
100
AcDbSpline
 62
3
  6
CONTINUOUS
 70
0
 71
3
 72
10
 73
6
 74
0
 42
0.0000001
 43
0.0000001
 44
0.0000000001
 40
0.0
 40
0.0
 40
0.0
 40
0.0
 40
0.1934887718
 40
0.4343917578
 40
1.0
 40
1.0
 40
1.0
 40
1.0
 10
414.1551462578
 20
293.5766846676
 30
0.0
 10
414.1831761964
 20
293.3643519523
 30
0.0
 10
414.2263796276
 20
292.8851361026
 30
0.0
 10
414.2839656552
 20
291.779677958
 30
0.0
 10
414.2969750942
 20
290.8866609483
 30
0.0
 10
414.2969750942
 20
290.2605830102
 30
0.0
  0
SPLINE
  5
4DD
100
AcDbEntity
  8
0
100
AcDbSpline
 62
3
  6
CONTINUOUS
 70
0
 71
3
 72
12
 73
8
 74
0
 42
0.0000001
 43
0.0000001
 44
0.0000000001
 40
0.0
 40
0.0
 40
0.0
 40
0.0
 40
0.1067642406
 40
0.2175988404
 40
0.4563424632
 40
0.7202671584
 40
1.0
 40
1.0
 40
1.0
 40
1.0
 10
381.3280295715
 20
169.2114598238
 30
0.0
 10
381.5017424563
 20
169.1742961273
 30
0.0
 10
381.848008208
 20
169.0559512687
 30
0.0
 10
382.4977470676
 20
168.6528711593
 30
0.0
 10
383.1759572946
 20
167.8561836803
 30
0.0
 10
383.6719674323
 20
166.6352821942
 30
0.0
 10
383.7847195817
 20
165.7260271928
 30
0.0
 10
383.7847195817
 20
165.2605830102
 30
0.0
  0
SPLINE
  5
4DE
100
AcDbEntity
  8
0
100
AcDbSpline
 62
3
  6
CONTINUOUS
 70
0
 71
3
 72
9
 73
5
 74
0
 42
0.0000001
 43
0.0000001
 44
0.0000000001
 40
0.0
 40
0.0
 40
0.0
 40
0.0
 40
0.24089746
 40
1.0
 40
1.0
 40
1.0
 40
1.0
 10
403.5939575698
 20
294.2114598238
 30
0.0
 10
403.6175628262
 20
294.203193452
 30
0.0
 10
403.7141600164
 20
294.1649316746
 30
0.0
 10
403.8044431917
 20
294.1114800813
 30
0.0
 10
403.8682155585
 20
294.0651710694
 30
0.0
  0
SPLINE
  5
4DF
100
AcDbEntity
  8
0
100
AcDbSpline
 62
3
  6
CONTINUOUS
 70
0
 71
3
 72
11
 73
7
 74
0
 42
0.0000001
 43
0.0000001
 44
0.0000000001
 40
0.0
 40
0.0
 40
0.0
 40
0.0
 40
0.1834774859
 40
0.4188608224
 40
0.6974626287
 40
1.0
 40
1.0
 40
1.0
 40
1.0
 10
403.8682155585
 20
294.0651710694
 30
0.0
 10
404.070920272
 20
293.9179747921
 30
0.0
 10
404.4338128601
 20
293.4523502265
 30
0.0
 10
404.7902113669
 20
292.5648478562
 30
0.0
 10
405.0173431667
 20
291.4680327749
 30
0.0
 10
405.0679467779
 20
290.6736530391
 30
0.0
 10
405.0679467779
 20
290.2605830102
 30
0.0
  0
SPLINE
  5
4E0
100
AcDbEntity
  8
0
100
AcDbSpline
 62
3
  6
CONTINUOUS
 70
0
 71
3
 72
9
 73
5
 74
0
 42
0.0000001
 43
0.0000001
 44
0.0000000001
 40
0.0
 40
0.0
 40
0.0
 40
0.0
 40
0.24089746
 40
1.0
 40
1.0
 40
1.0
 40
1.0
 10
403.5939575698
 20
169.2114598238
 30
0.0
 10
403.6175628262
 20
169.203193452
 30
0.0
 10
403.7141600164
 20
169.1649316746
 30
0.0
 10
403.8044431917
 20
169.1114800813
 30
0.0
 10
403.8682155585
 20
169.0651710694
 30
0.0
  0
SPLINE
  5
4E1
100
AcDbEntity
  8
0
100
AcDbSpline
 62
3
  6
CONTINUOUS
 70
0
 71
3
 72
11
 73
7
 74
0
 42
0.0000001
 43
0.0000001
 44
0.0000000001
 40
0.0
 40
0.0
 40
0.0
 40
0.0
 40
0.1834774859
 40
0.4188608224
 40
0.6974626287
 40
1.0
 40
1.0
 40
1.0
 40
1.0
 10
403.8682155585
 20
169.0651710694
 30
0.0
 10
404.070920272
 20
168.9179747921
 30
0.0
 10
404.4338128601
 20
168.4523502265
 30
0.0
 10
404.7902113669
 20
167.5648478562
 30
0.0
 10
405.0173431667
 20
166.4680327749
 30
0.0
 10
405.0679467779
 20
165.6736530391
 30
0.0
 10
405.0679467779
 20
165.2605830102
 30
0.0
  0
SPLINE
  5
4E2
100
AcDbEntity
  8
0
100
AcDbSpline
 62
3
  6
CONTINUOUS
 70
0
 71
3
 72
12
 73
8
 74
0
 42
0.0000001
 43
0.0000001
 44
0.0000000001
 40
0.0
 40
0.0
 40
0.0
 40
0.0
 40
0.1067642406
 40
0.2175988404
 40
0.4563424632
 40
0.7202671584
 40
1.0
 40
1.0
 40
1.0
 40
1.0
 10
381.3280295715
 20
294.2114598238
 30
0.0
 10
381.5017424563
 20
294.1742961273
 30
0.0
 10
381.848008208
 20
294.0559512687
 30
0.0
 10
382.4977470676
 20
293.6528711593
 30
0.0
 10
383.1759572946
 20
292.8561836803
 30
0.0
 10
383.6719674323
 20
291.6352821942
 30
0.0
 10
383.7847195817
 20
290.7260271928
 30
0.0
 10
383.7847195817
 20
290.2605830102
 30
0.0
  0
SPLINE
  5
4E3
100
AcDbEntity
  8
0
100
AcDbSpline
 62
3
  6
CONTINUOUS
 70
0
 71
3
 72
10
 73
6
 74
0
 42
0.0000001
 43
0.0000001
 44
0.0000000001
 40
0.0
 40
0.0
 40
0.0
 40
0.0
 40
0.1934887718
 40
0.4343917578
 40
1.0
 40
1.0
 40
1.0
 40
1.0
 10
414.1551462578
 20
168.5766846676
 30
0.0
 10
414.1831761964
 20
168.3643519523
 30
0.0
 10
414.2263796276
 20
167.8851361026
 30
0.0
 10
414.2839656552
 20
166.779677958
 30
0.0
 10
414.2969750942
 20
165.8866609483
 30
0.0
 10
414.2969750942
 20
165.2605830102
 30
0.0
  0
SPLINE
  5
4E4
100
AcDbEntity
  8
0
100
AcDbSpline
 62
3
  6
CONTINUOUS
 70
0
 71
3
 72
13
 73
9
 74
0
 42
0.0000001
 43
0.0000001
 44
0.0000000001
 40
0.0
 40
0.0
 40
0.0
 40
0.0
 40
0.1209164014
 40
0.2424118569
 40
0.3651119722
 40
0.4894062646
 40
0.7422067886
 40
1.0
 40
1.0
 40
1.0
 40
1.0
 10
349.8289195669
 20
294.2482534608
 30
0.0
 10
350.0594730796
 20
294.2287132727
 30
0.0
 10
350.5190639778
 20
294.1429698437
 30
0.0
 10
351.1708805799
 20
293.8794678511
 30
0.0
 10
351.7637576183
 20
293.4893004421
 30
0.0
 10
352.4524093695
 20
292.8184321152
 30
0.0
 10
353.0683910912
 20
291.7389533046
 30
0.0
 10
353.2356510678
 20
290.7538842751
 30
0.0
 10
353.2356510678
 20
290.2605830102
 30
0.0
  0
SPLINE
  5
4E5
100
AcDbEntity
  8
0
100
AcDbSpline
 62
3
  6
CONTINUOUS
 70
0
 71
3
 72
11
 73
7
 74
0
 42
0.0000001
 43
0.0000001
 44
0.0000000001
 40
0.0
 40
0.0
 40
0.0
 40
0.0
 40
0.2498343145
 40
0.4997364606
 40
0.7497946307
 40
1.0
 40
1.0
 40
1.0
 40
1.0
 10
313.4306415657
 20
294.2605830102
 30
0.0
 10
313.9500630013
 20
294.2605830102
 30
0.0
 10
315.0004586021
 20
294.0523714857
 30
0.0
 10
316.3276372456
 20
293.1618800906
 30
0.0
 10
317.2155823327
 20
291.8322110448
 30
0.0
 10
317.42303494
 20
290.7807758924
 30
0.0
 10
317.42303494
 20
290.2605830102
 30
0.0
  0
SPLINE
  5
4E6
100
AcDbEntity
  8
0
100
AcDbSpline
 62
3
  6
CONTINUOUS
 70
0
 71
3
 72
13
 73
9
 74
0
 42
0.0000001
 43
0.0000001
 44
0.0000000001
 40
0.0
 40
0.0
 40
0.0
 40
0.0
 40
0.121091561
 40
0.2427324647
 40
0.3655271922
 40
0.4898523744
 40
0.7425180203
 40
1.0
 40
1.0
 40
1.0
 40
1.0
 10
276.9829332675
 20
286.2729125597
 30
0.0
 10
276.7517410776
 20
286.292451861
 30
0.0
 10
276.2909188973
 20
286.3781743268
 30
0.0
 10
275.6372561534
 20
286.6416289532
 30
0.0
 10
275.0426325646
 20
287.0317494313
 30
0.0
 10
274.3520569323
 20
287.7023937429
 30
0.0
 10
273.7340165814
 20
288.7817032043
 30
0.0
 10
273.5660881015
 20
289.7672369571
 30
0.0
 10
273.5660881015
 20
290.2605830102
 30
0.0
  0
SPLINE
  5
4E7
100
AcDbEntity
  8
0
100
AcDbSpline
 62
3
  6
CONTINUOUS
 70
0
 71
3
 72
12
 73
8
 74
0
 42
0.0000001
 43
0.0000001
 44
0.0000000001
 40
0.0
 40
0.0
 40
0.0
 40
0.0
 40
0.1071649405
 40
0.2182975991
 40
0.4572337879
 40
0.7208541698
 40
1.0
 40
1.0
 40
1.0
 40
1.0
 10
245.3421246873
 20
286.3097061967
 30
0.0
 10
245.167323031
 20
286.3468569033
 30
0.0
 10
244.8189627628
 20
286.4650938182
 30
0.0
 10
244.1652692116
 20
286.8677641873
 30
0.0
 10
243.4822875579
 20
287.6638674968
 30
0.0
 10
242.9822862464
 20
288.8852538316
 30
0.0
 10
242.8686213563
 20
289.7950855913
 30
0.0
 10
242.8686213563
 20
290.2605830102
 30
0.0
  0
SPLINE
  5
4E8
100
AcDbEntity
  8
0
100
AcDbSpline
 62
3
  6
CONTINUOUS
 70
0
 71
3
 72
9
 73
5
 74
0
 42
0.0000001
 43
0.0000001
 44
0.0000000001
 40
0.0
 40
0.0
 40
0.0
 40
0.0
 40
0.2411868124
 40
1.0
 40
1.0
 40
1.0
 40
1.0
 10
222.8631266139
 20
286.3097061967
 30
0.0
 10
222.8391896581
 20
286.3179697298
 30
0.0
 10
222.7413169171
 20
286.3561819872
 30
0.0
 10
222.6496777272
 20
286.4096264302
 30
0.0
 10
222.5848902942
 20
286.4559949511
 30
0.0
  0
SPLINE
  5
4E9
100
AcDbEntity
  8
0
100
AcDbSpline
 62
3
  6
CONTINUOUS
 70
0
 71
3
 72
11
 73
7
 74
0
 42
0.0000001
 43
0.0000001
 44
0.0000000001
 40
0.0
 40
0.0
 40
0.0
 40
0.0
 40
0.1842878152
 40
0.4197780915
 40
0.6980315907
 40
1.0
 40
1.0
 40
1.0
 40
1.0
 10
222.5848902942
 20
286.4559949511
 30
0.0
 10
222.3798777573
 20
286.6027229147
 30
0.0
 10
222.0116503636
 20
287.0672943561
 30
0.0
 10
221.6492768526
 20
287.9555316019
 30
0.0
 10
221.4184458559
 20
289.0527627302
 30
0.0
 10
221.3670091859
 20
289.8474839352
 30
0.0
 10
221.3670091859
 20
290.2605830102
 30
0.0
  0
SPLINE
  5
4EA
100
AcDbEntity
  8
0
100
AcDbSpline
 62
3
  6
CONTINUOUS
 70
0
 71
3
 72
10
 73
6
 74
0
 42
0.0000001
 43
0.0000001
 44
0.0000000001
 40
0.0
 40
0.0
 40
0.0
 40
0.0
 40
0.1882252202
 40
0.4281634206
 40
1.0
 40
1.0
 40
1.0
 40
1.0
 10
212.0465146199
 20
286.8538381741
 30
0.0
 10
212.0129619409
 20
287.0653422109
 30
0.0
 10
211.9618931367
 20
287.5502995307
 30
0.0
 10
211.8934278704
 20
288.68599904
 30
0.0
 10
211.8782201983
 20
289.6099892218
 30
0.0
 10
211.8782201983
 20
290.2605830102
 30
0.0
  0
SPLINE
  5
4EB
100
AcDbEntity
  8
0
100
AcDbSpline
 62
3
  6
CONTINUOUS
 70
0
 71
3
 72
10
 73
6
 74
0
 42
0.0000001
 43
0.0000001
 44
0.0000000001
 40
0.0
 40
0.0
 40
0.0
 40
0.0
 40
0.1882252202
 40
0.4281634206
 40
1.0
 40
1.0
 40
1.0
 40
1.0
 10
212.0465146199
 20
186.8538381741
 30
0.0
 10
212.0129619409
 20
187.0653422109
 30
0.0
 10
211.9618931367
 20
187.5502995307
 30
0.0
 10
211.8934278704
 20
188.68599904
 30
0.0
 10
211.8782201983
 20
189.6099892218
 30
0.0
 10
211.8782201983
 20
190.2605830102
 30
0.0
  0
SPLINE
  5
4EC
100
AcDbEntity
  8
0
100
AcDbSpline
 62
3
  6
CONTINUOUS
 70
0
 71
3
 72
9
 73
5
 74
0
 42
0.0000001
 43
0.0000001
 44
0.0000000001
 40
0.0
 40
0.0
 40
0.0
 40
0.0
 40
0.2411868124
 40
1.0
 40
1.0
 40
1.0
 40
1.0
 10
222.8631266139
 20
186.3097061967
 30
0.0
 10
222.8391896581
 20
186.3179697298
 30
0.0
 10
222.7413169171
 20
186.3561819872
 30
0.0
 10
222.6496777272
 20
186.4096264302
 30
0.0
 10
222.5848902942
 20
186.4559949511
 30
0.0
  0
SPLINE
  5
4ED
100
AcDbEntity
  8
0
100
AcDbSpline
 62
3
  6
CONTINUOUS
 70
0
 71
3
 72
11
 73
7
 74
0
 42
0.0000001
 43
0.0000001
 44
0.0000000001
 40
0.0
 40
0.0
 40
0.0
 40
0.0
 40
0.1842878152
 40
0.4197780915
 40
0.6980315907
 40
1.0
 40
1.0
 40
1.0
 40
1.0
 10
222.5848902942
 20
186.4559949511
 30
0.0
 10
222.3798777573
 20
186.6027229147
 30
0.0
 10
222.0116503636
 20
187.0672943561
 30
0.0
 10
221.6492768526
 20
187.9555316019
 30
0.0
 10
221.4184458559
 20
189.0527627302
 30
0.0
 10
221.3670091859
 20
189.8474839352
 30
0.0
 10
221.3670091859
 20
190.2605830102
 30
0.0
  0
SPLINE
  5
4EE
100
AcDbEntity
  8
0
100
AcDbSpline
 62
3
  6
CONTINUOUS
 70
0
 71
3
 72
12
 73
8
 74
0
 42
0.0000001
 43
0.0000001
 44
0.0000000001
 40
0.0
 40
0.0
 40
0.0
 40
0.0
 40
0.1071649405
 40
0.2182975991
 40
0.4572337879
 40
0.7208541698
 40
1.0
 40
1.0
 40
1.0
 40
1.0
 10
245.3421246873
 20
186.3097061967
 30
0.0
 10
245.167323031
 20
186.3468569033
 30
0.0
 10
244.8189627628
 20
186.4650938182
 30
0.0
 10
244.1652692116
 20
186.8677641873
 30
0.0
 10
243.4822875579
 20
187.6638674968
 30
0.0
 10
242.9822862464
 20
188.8852538316
 30
0.0
 10
242.8686213563
 20
189.7950855913
 30
0.0
 10
242.8686213563
 20
190.2605830102
 30
0.0
  0
SPLINE
  5
4EF
100
AcDbEntity
  8
0
100
AcDbSpline
 62
3
  6
CONTINUOUS
 70
0
 71
3
 72
13
 73
9
 74
0
 42
0.0000001
 43
0.0000001
 44
0.0000000001
 40
0.0
 40
0.0
 40
0.0
 40
0.0
 40
0.121091561
 40
0.2427324647
 40
0.3655271922
 40
0.4898523744
 40
0.7425180203
 40
1.0
 40
1.0
 40
1.0
 40
1.0
 10
276.9829332675
 20
186.2729125597
 30
0.0
 10
276.7517410776
 20
186.292451861
 30
0.0
 10
276.2909188973
 20
186.3781743268
 30
0.0
 10
275.6372561534
 20
186.6416289532
 30
0.0
 10
275.0426325646
 20
187.0317494313
 30
0.0
 10
274.3520569323
 20
187.7023937429
 30
0.0
 10
273.7340165814
 20
188.7817032043
 30
0.0
 10
273.5660881015
 20
189.7672369571
 30
0.0
 10
273.5660881015
 20
190.2605830102
 30
0.0
  0
SPLINE
  5
4F0
100
AcDbEntity
  8
0
100
AcDbSpline
 62
3
  6
CONTINUOUS
 70
0
 71
3
 72
11
 73
7
 74
0
 42
0.0000001
 43
0.0000001
 44
0.0000000001
 40
0.0
 40
0.0
 40
0.0
 40
0.0
 40
0.2498343145
 40
0.4997364606
 40
0.7497946307
 40
1.0
 40
1.0
 40
1.0
 40
1.0
 10
313.4306415657
 20
194.2605830102
 30
0.0
 10
313.9500630013
 20
194.2605830102
 30
0.0
 10
315.0004586021
 20
194.0523714857
 30
0.0
 10
316.3276372456
 20
193.1618800906
 30
0.0
 10
317.2155823327
 20
191.8322110448
 30
0.0
 10
317.42303494
 20
190.7807758924
 30
0.0
 10
317.42303494
 20
190.2605830102
 30
0.0
  0
SPLINE
  5
4F1
100
AcDbEntity
  8
0
100
AcDbSpline
 62
3
  6
CONTINUOUS
 70
0
 71
3
 72
10
 73
6
 74
0
 42
0.0000001
 43
0.0000001
 44
0.0000000001
 40
0.0
 40
0.0
 40
0.0
 40
0.0
 40
0.1934887718
 40
0.4343917578
 40
1.0
 40
1.0
 40
1.0
 40
1.0
 10
414.1551462578
 20
268.5766846676
 30
0.0
 10
414.1831761964
 20
268.3643519523
 30
0.0
 10
414.2263796276
 20
267.8851361026
 30
0.0
 10
414.2839656552
 20
266.779677958
 30
0.0
 10
414.2969750942
 20
265.8866609483
 30
0.0
 10
414.2969750942
 20
265.2605830102
 30
0.0
  0
SPLINE
  5
4F2
100
AcDbEntity
  8
0
100
AcDbSpline
 62
3
  6
CONTINUOUS
 70
0
 71
3
 72
13
 73
9
 74
0
 42
0.0000001
 43
0.0000001
 44
0.0000000001
 40
0.0
 40
0.0
 40
0.0
 40
0.0
 40
0.1209164014
 40
0.2424118569
 40
0.3651119722
 40
0.4894062646
 40
0.7422067886
 40
1.0
 40
1.0
 40
1.0
 40
1.0
 10
349.8289195669
 20
194.2482534608
 30
0.0
 10
350.0594730796
 20
194.2287132727
 30
0.0
 10
350.5190639778
 20
194.1429698437
 30
0.0
 10
351.1708805799
 20
193.8794678511
 30
0.0
 10
351.7637576183
 20
193.4893004421
 30
0.0
 10
352.4524093695
 20
192.8184321152
 30
0.0
 10
353.0683910912
 20
191.7389533046
 30
0.0
 10
353.2356510678
 20
190.7538842751
 30
0.0
 10
353.2356510678
 20
190.2605830102
 30
0.0
  0
SPLINE
  5
4F3
100
AcDbEntity
  8
0
100
AcDbSpline
 62
3
  6
CONTINUOUS
 70
0
 71
3
 72
9
 73
5
 74
0
 42
0.0000001
 43
0.0000001
 44
0.0000000001
 40
0.0
 40
0.0
 40
0.0
 40
0.0
 40
0.24089746
 40
1.0
 40
1.0
 40
1.0
 40
1.0
 10
403.5939575698
 20
269.2114598238
 30
0.0
 10
403.6175628262
 20
269.203193452
 30
0.0
 10
403.7141600164
 20
269.1649316746
 30
0.0
 10
403.8044431917
 20
269.1114800813
 30
0.0
 10
403.8682155585
 20
269.0651710694
 30
0.0
  0
SPLINE
  5
4F4
100
AcDbEntity
  8
0
100
AcDbSpline
 62
3
  6
CONTINUOUS
 70
0
 71
3
 72
11
 73
7
 74
0
 42
0.0000001
 43
0.0000001
 44
0.0000000001
 40
0.0
 40
0.0
 40
0.0
 40
0.0
 40
0.1834774859
 40
0.4188608224
 40
0.6974626287
 40
1.0
 40
1.0
 40
1.0
 40
1.0
 10
403.8682155585
 20
269.0651710694
 30
0.0
 10
404.070920272
 20
268.9179747921
 30
0.0
 10
404.4338128601
 20
268.4523502265
 30
0.0
 10
404.7902113669
 20
267.5648478562
 30
0.0
 10
405.0173431667
 20
266.4680327749
 30
0.0
 10
405.0679467779
 20
265.6736530391
 30
0.0
 10
405.0679467779
 20
265.2605830102
 30
0.0
  0
SPLINE
  5
4F5
100
AcDbEntity
  8
0
100
AcDbSpline
 62
3
  6
CONTINUOUS
 70
0
 71
3
 72
12
 73
8
 74
0
 42
0.0000001
 43
0.0000001
 44
0.0000000001
 40
0.0
 40
0.0
 40
0.0
 40
0.0
 40
0.1067642406
 40
0.2175988404
 40
0.4563424632
 40
0.7202671584
 40
1.0
 40
1.0
 40
1.0
 40
1.0
 10
381.3280295715
 20
194.2114598238
 30
0.0
 10
381.5017424563
 20
194.1742961273
 30
0.0
 10
381.848008208
 20
194.0559512687
 30
0.0
 10
382.4977470676
 20
193.6528711593
 30
0.0
 10
383.1759572946
 20
192.8561836803
 30
0.0
 10
383.6719674323
 20
191.6352821942
 30
0.0
 10
383.7847195817
 20
190.7260271928
 30
0.0
 10
383.7847195817
 20
190.2605830102
 30
0.0
  0
SPLINE
  5
4F6
100
AcDbEntity
  8
0
100
AcDbSpline
 62
3
  6
CONTINUOUS
 70
0
 71
3
 72
12
 73
8
 74
0
 42
0.0000001
 43
0.0000001
 44
0.0000000001
 40
0.0
 40
0.0
 40
0.0
 40
0.0
 40
0.1067642406
 40
0.2175988404
 40
0.4563424632
 40
0.7202671584
 40
1.0
 40
1.0
 40
1.0
 40
1.0
 10
381.3280295715
 20
269.2114598238
 30
0.0
 10
381.5017424563
 20
269.1742961273
 30
0.0
 10
381.848008208
 20
269.0559512687
 30
0.0
 10
382.4977470676
 20
268.6528711593
 30
0.0
 10
383.1759572946
 20
267.8561836803
 30
0.0
 10
383.6719674323
 20
266.6352821942
 30
0.0
 10
383.7847195817
 20
265.7260271928
 30
0.0
 10
383.7847195817
 20
265.2605830102
 30
0.0
  0
SPLINE
  5
4F7
100
AcDbEntity
  8
0
100
AcDbSpline
 62
3
  6
CONTINUOUS
 70
0
 71
3
 72
9
 73
5
 74
0
 42
0.0000001
 43
0.0000001
 44
0.0000000001
 40
0.0
 40
0.0
 40
0.0
 40
0.0
 40
0.24089746
 40
1.0
 40
1.0
 40
1.0
 40
1.0
 10
403.5939575698
 20
194.2114598238
 30
0.0
 10
403.6175628262
 20
194.203193452
 30
0.0
 10
403.7141600164
 20
194.1649316746
 30
0.0
 10
403.8044431917
 20
194.1114800813
 30
0.0
 10
403.8682155585
 20
194.0651710694
 30
0.0
  0
SPLINE
  5
4F8
100
AcDbEntity
  8
0
100
AcDbSpline
 62
3
  6
CONTINUOUS
 70
0
 71
3
 72
11
 73
7
 74
0
 42
0.0000001
 43
0.0000001
 44
0.0000000001
 40
0.0
 40
0.0
 40
0.0
 40
0.0
 40
0.1834774859
 40
0.4188608224
 40
0.6974626287
 40
1.0
 40
1.0
 40
1.0
 40
1.0
 10
403.8682155585
 20
194.0651710694
 30
0.0
 10
404.070920272
 20
193.9179747921
 30
0.0
 10
404.4338128601
 20
193.4523502265
 30
0.0
 10
404.7902113669
 20
192.5648478562
 30
0.0
 10
405.0173431667
 20
191.4680327749
 30
0.0
 10
405.0679467779
 20
190.6736530391
 30
0.0
 10
405.0679467779
 20
190.2605830102
 30
0.0
  0
SPLINE
  5
4F9
100
AcDbEntity
  8
0
100
AcDbSpline
 62
3
  6
CONTINUOUS
 70
0
 71
3
 72
13
 73
9
 74
0
 42
0.0000001
 43
0.0000001
 44
0.0000000001
 40
0.0
 40
0.0
 40
0.0
 40
0.0
 40
0.1209164014
 40
0.2424118569
 40
0.3651119722
 40
0.4894062646
 40
0.7422067886
 40
1.0
 40
1.0
 40
1.0
 40
1.0
 10
349.8289195669
 20
269.2482534608
 30
0.0
 10
350.0594730796
 20
269.2287132727
 30
0.0
 10
350.5190639778
 20
269.1429698437
 30
0.0
 10
351.1708805799
 20
268.8794678511
 30
0.0
 10
351.7637576183
 20
268.4893004421
 30
0.0
 10
352.4524093695
 20
267.8184321152
 30
0.0
 10
353.0683910912
 20
266.7389533046
 30
0.0
 10
353.2356510678
 20
265.7538842751
 30
0.0
 10
353.2356510678
 20
265.2605830102
 30
0.0
  0
SPLINE
  5
4FA
100
AcDbEntity
  8
0
100
AcDbSpline
 62
3
  6
CONTINUOUS
 70
0
 71
3
 72
10
 73
6
 74
0
 42
0.0000001
 43
0.0000001
 44
0.0000000001
 40
0.0
 40
0.0
 40
0.0
 40
0.0
 40
0.1934887718
 40
0.4343917578
 40
1.0
 40
1.0
 40
1.0
 40
1.0
 10
414.1551462578
 20
193.5766846676
 30
0.0
 10
414.1831761964
 20
193.3643519523
 30
0.0
 10
414.2263796276
 20
192.8851361026
 30
0.0
 10
414.2839656552
 20
191.779677958
 30
0.0
 10
414.2969750942
 20
190.8866609483
 30
0.0
 10
414.2969750942
 20
190.2605830102
 30
0.0
  0
SPLINE
  5
4FB
100
AcDbEntity
  8
0
100
AcDbSpline
 62
3
  6
CONTINUOUS
 70
0
 71
3
 72
11
 73
7
 74
0
 42
0.0000001
 43
0.0000001
 44
0.0000000001
 40
0.0
 40
0.0
 40
0.0
 40
0.0
 40
0.2498343145
 40
0.4997364606
 40
0.7497946307
 40
1.0
 40
1.0
 40
1.0
 40
1.0
 10
313.4306415657
 20
269.2605830102
 30
0.0
 10
313.9500630013
 20
269.2605830102
 30
0.0
 10
315.0004586021
 20
269.0523714857
 30
0.0
 10
316.3276372456
 20
268.1618800906
 30
0.0
 10
317.2155823327
 20
266.8322110448
 30
0.0
 10
317.42303494
 20
265.7807758924
 30
0.0
 10
317.42303494
 20
265.2605830102
 30
0.0
  0
SPLINE
  5
4FC
100
AcDbEntity
  8
0
100
AcDbSpline
 62
3
  6
CONTINUOUS
 70
0
 71
3
 72
13
 73
9
 74
0
 42
0.0000001
 43
0.0000001
 44
0.0000000001
 40
0.0
 40
0.0
 40
0.0
 40
0.0
 40
0.121091561
 40
0.2427324647
 40
0.3655271922
 40
0.4898523744
 40
0.7425180203
 40
1.0
 40
1.0
 40
1.0
 40
1.0
 10
276.9829332675
 20
261.2729125597
 30
0.0
 10
276.7517410776
 20
261.292451861
 30
0.0
 10
276.2909188973
 20
261.3781743268
 30
0.0
 10
275.6372561534
 20
261.6416289532
 30
0.0
 10
275.0426325646
 20
262.0317494313
 30
0.0
 10
274.3520569323
 20
262.7023937429
 30
0.0
 10
273.7340165814
 20
263.7817032043
 30
0.0
 10
273.5660881015
 20
264.7672369571
 30
0.0
 10
273.5660881015
 20
265.2605830102
 30
0.0
  0
SPLINE
  5
4FD
100
AcDbEntity
  8
0
100
AcDbSpline
 62
3
  6
CONTINUOUS
 70
0
 71
3
 72
12
 73
8
 74
0
 42
0.0000001
 43
0.0000001
 44
0.0000000001
 40
0.0
 40
0.0
 40
0.0
 40
0.0
 40
0.1071649405
 40
0.2182975991
 40
0.4572337879
 40
0.7208541698
 40
1.0
 40
1.0
 40
1.0
 40
1.0
 10
245.3421246873
 20
261.3097061967
 30
0.0
 10
245.167323031
 20
261.3468569033
 30
0.0
 10
244.8189627628
 20
261.4650938182
 30
0.0
 10
244.1652692116
 20
261.8677641873
 30
0.0
 10
243.4822875579
 20
262.6638674968
 30
0.0
 10
242.9822862464
 20
263.8852538316
 30
0.0
 10
242.8686213563
 20
264.7950855913
 30
0.0
 10
242.8686213563
 20
265.2605830102
 30
0.0
  0
SPLINE
  5
4FE
100
AcDbEntity
  8
0
100
AcDbSpline
 62
3
  6
CONTINUOUS
 70
0
 71
3
 72
9
 73
5
 74
0
 42
0.0000001
 43
0.0000001
 44
0.0000000001
 40
0.0
 40
0.0
 40
0.0
 40
0.0
 40
0.2411868124
 40
1.0
 40
1.0
 40
1.0
 40
1.0
 10
222.8631266139
 20
261.3097061967
 30
0.0
 10
222.8391896581
 20
261.3179697298
 30
0.0
 10
222.7413169171
 20
261.3561819872
 30
0.0
 10
222.6496777272
 20
261.4096264302
 30
0.0
 10
222.5848902942
 20
261.4559949511
 30
0.0
  0
SPLINE
  5
4FF
100
AcDbEntity
  8
0
100
AcDbSpline
 62
3
  6
CONTINUOUS
 70
0
 71
3
 72
11
 73
7
 74
0
 42
0.0000001
 43
0.0000001
 44
0.0000000001
 40
0.0
 40
0.0
 40
0.0
 40
0.0
 40
0.1842878152
 40
0.4197780915
 40
0.6980315907
 40
1.0
 40
1.0
 40
1.0
 40
1.0
 10
222.5848902942
 20
261.4559949511
 30
0.0
 10
222.3798777573
 20
261.6027229147
 30
0.0
 10
222.0116503636
 20
262.0672943561
 30
0.0
 10
221.6492768526
 20
262.9555316019
 30
0.0
 10
221.4184458559
 20
264.0527627302
 30
0.0
 10
221.3670091859
 20
264.8474839352
 30
0.0
 10
221.3670091859
 20
265.2605830102
 30
0.0
  0
SPLINE
  5
500
100
AcDbEntity
  8
0
100
AcDbSpline
 62
3
  6
CONTINUOUS
 70
0
 71
3
 72
10
 73
6
 74
0
 42
0.0000001
 43
0.0000001
 44
0.0000000001
 40
0.0
 40
0.0
 40
0.0
 40
0.0
 40
0.1882252202
 40
0.4281634206
 40
1.0
 40
1.0
 40
1.0
 40
1.0
 10
212.0465146199
 20
261.8538381741
 30
0.0
 10
212.0129619409
 20
262.0653422109
 30
0.0
 10
211.9618931367
 20
262.5502995307
 30
0.0
 10
211.8934278704
 20
263.68599904
 30
0.0
 10
211.8782201983
 20
264.6099892218
 30
0.0
 10
211.8782201983
 20
265.2605830102
 30
0.0
  0
SPLINE
  5
501
100
AcDbEntity
  8
0
100
AcDbSpline
 62
3
  6
CONTINUOUS
 70
0
 71
3
 72
10
 73
6
 74
0
 42
0.0000001
 43
0.0000001
 44
0.0000000001
 40
0.0
 40
0.0
 40
0.0
 40
0.0
 40
0.1882252202
 40
0.4281634206
 40
1.0
 40
1.0
 40
1.0
 40
1.0
 10
212.0465146199
 20
211.8538381741
 30
0.0
 10
212.0129619409
 20
212.0653422109
 30
0.0
 10
211.9618931367
 20
212.5502995307
 30
0.0
 10
211.8934278704
 20
213.68599904
 30
0.0
 10
211.8782201983
 20
214.6099892218
 30
0.0
 10
211.8782201983
 20
215.2605830102
 30
0.0
  0
SPLINE
  5
502
100
AcDbEntity
  8
0
100
AcDbSpline
 62
3
  6
CONTINUOUS
 70
0
 71
3
 72
9
 73
5
 74
0
 42
0.0000001
 43
0.0000001
 44
0.0000000001
 40
0.0
 40
0.0
 40
0.0
 40
0.0
 40
0.2411868124
 40
1.0
 40
1.0
 40
1.0
 40
1.0
 10
222.8631266139
 20
211.3097061967
 30
0.0
 10
222.8391896581
 20
211.3179697298
 30
0.0
 10
222.7413169171
 20
211.3561819872
 30
0.0
 10
222.6496777272
 20
211.4096264302
 30
0.0
 10
222.5848902942
 20
211.4559949511
 30
0.0
  0
SPLINE
  5
503
100
AcDbEntity
  8
0
100
AcDbSpline
 62
3
  6
CONTINUOUS
 70
0
 71
3
 72
11
 73
7
 74
0
 42
0.0000001
 43
0.0000001
 44
0.0000000001
 40
0.0
 40
0.0
 40
0.0
 40
0.0
 40
0.1842878152
 40
0.4197780915
 40
0.6980315907
 40
1.0
 40
1.0
 40
1.0
 40
1.0
 10
222.5848902942
 20
211.4559949511
 30
0.0
 10
222.3798777573
 20
211.6027229147
 30
0.0
 10
222.0116503636
 20
212.0672943561
 30
0.0
 10
221.6492768526
 20
212.9555316019
 30
0.0
 10
221.4184458559
 20
214.0527627302
 30
0.0
 10
221.3670091859
 20
214.8474839352
 30
0.0
 10
221.3670091859
 20
215.2605830102
 30
0.0
  0
SPLINE
  5
504
100
AcDbEntity
  8
0
100
AcDbSpline
 62
3
  6
CONTINUOUS
 70
0
 71
3
 72
12
 73
8
 74
0
 42
0.0000001
 43
0.0000001
 44
0.0000000001
 40
0.0
 40
0.0
 40
0.0
 40
0.0
 40
0.1071649405
 40
0.2182975991
 40
0.4572337879
 40
0.7208541698
 40
1.0
 40
1.0
 40
1.0
 40
1.0
 10
245.3421246873
 20
211.3097061967
 30
0.0
 10
245.167323031
 20
211.3468569033
 30
0.0
 10
244.8189627628
 20
211.4650938182
 30
0.0
 10
244.1652692116
 20
211.8677641873
 30
0.0
 10
243.4822875579
 20
212.6638674968
 30
0.0
 10
242.9822862464
 20
213.8852538316
 30
0.0
 10
242.8686213563
 20
214.7950855913
 30
0.0
 10
242.8686213563
 20
215.2605830102
 30
0.0
  0
SPLINE
  5
505
100
AcDbEntity
  8
0
100
AcDbSpline
 62
3
  6
CONTINUOUS
 70
0
 71
3
 72
13
 73
9
 74
0
 42
0.0000001
 43
0.0000001
 44
0.0000000001
 40
0.0
 40
0.0
 40
0.0
 40
0.0
 40
0.121091561
 40
0.2427324647
 40
0.3655271922
 40
0.4898523744
 40
0.7425180203
 40
1.0
 40
1.0
 40
1.0
 40
1.0
 10
276.9829332675
 20
211.2729125597
 30
0.0
 10
276.7517410776
 20
211.292451861
 30
0.0
 10
276.2909188973
 20
211.3781743268
 30
0.0
 10
275.6372561534
 20
211.6416289532
 30
0.0
 10
275.0426325646
 20
212.0317494313
 30
0.0
 10
274.3520569323
 20
212.7023937429
 30
0.0
 10
273.7340165814
 20
213.7817032043
 30
0.0
 10
273.5660881015
 20
214.7672369571
 30
0.0
 10
273.5660881015
 20
215.2605830102
 30
0.0
  0
SPLINE
  5
506
100
AcDbEntity
  8
0
100
AcDbSpline
 62
3
  6
CONTINUOUS
 70
0
 71
3
 72
10
 73
6
 74
0
 42
0.0000001
 43
0.0000001
 44
0.0000000001
 40
0.0
 40
0.0
 40
0.0
 40
0.0
 40
0.1934887718
 40
0.4343917578
 40
1.0
 40
1.0
 40
1.0
 40
1.0
 10
414.1551462578
 20
243.5766846676
 30
0.0
 10
414.1831761964
 20
243.3643519523
 30
0.0
 10
414.2263796276
 20
242.8851361026
 30
0.0
 10
414.2839656552
 20
241.779677958
 30
0.0
 10
414.2969750942
 20
240.8866609483
 30
0.0
 10
414.2969750942
 20
240.2605830102
 30
0.0
  0
SPLINE
  5
507
100
AcDbEntity
  8
0
100
AcDbSpline
 62
3
  6
CONTINUOUS
 70
0
 71
3
 72
11
 73
7
 74
0
 42
0.0000001
 43
0.0000001
 44
0.0000000001
 40
0.0
 40
0.0
 40
0.0
 40
0.0
 40
0.2498343145
 40
0.4997364606
 40
0.7497946307
 40
1.0
 40
1.0
 40
1.0
 40
1.0
 10
313.4306415657
 20
219.2605830102
 30
0.0
 10
313.9500630013
 20
219.2605830102
 30
0.0
 10
315.0004586021
 20
219.0523714857
 30
0.0
 10
316.3276372456
 20
218.1618800906
 30
0.0
 10
317.2155823327
 20
216.8322110448
 30
0.0
 10
317.42303494
 20
215.7807758924
 30
0.0
 10
317.42303494
 20
215.2605830102
 30
0.0
  0
SPLINE
  5
508
100
AcDbEntity
  8
0
100
AcDbSpline
 62
3
  6
CONTINUOUS
 70
0
 71
3
 72
9
 73
5
 74
0
 42
0.0000001
 43
0.0000001
 44
0.0000000001
 40
0.0
 40
0.0
 40
0.0
 40
0.0
 40
0.24089746
 40
1.0
 40
1.0
 40
1.0
 40
1.0
 10
403.5939575698
 20
244.2114598238
 30
0.0
 10
403.6175628262
 20
244.203193452
 30
0.0
 10
403.7141600164
 20
244.1649316746
 30
0.0
 10
403.8044431917
 20
244.1114800813
 30
0.0
 10
403.8682155585
 20
244.0651710694
 30
0.0
  0
SPLINE
  5
509
100
AcDbEntity
  8
0
100
AcDbSpline
 62
3
  6
CONTINUOUS
 70
0
 71
3
 72
11
 73
7
 74
0
 42
0.0000001
 43
0.0000001
 44
0.0000000001
 40
0.0
 40
0.0
 40
0.0
 40
0.0
 40
0.1834774859
 40
0.4188608224
 40
0.6974626287
 40
1.0
 40
1.0
 40
1.0
 40
1.0
 10
403.8682155585
 20
244.0651710694
 30
0.0
 10
404.070920272
 20
243.9179747921
 30
0.0
 10
404.4338128601
 20
243.4523502265
 30
0.0
 10
404.7902113669
 20
242.5648478562
 30
0.0
 10
405.0173431667
 20
241.4680327749
 30
0.0
 10
405.0679467779
 20
240.6736530391
 30
0.0
 10
405.0679467779
 20
240.2605830102
 30
0.0
  0
SPLINE
  5
50A
100
AcDbEntity
  8
0
100
AcDbSpline
 62
3
  6
CONTINUOUS
 70
0
 71
3
 72
12
 73
8
 74
0
 42
0.0000001
 43
0.0000001
 44
0.0000000001
 40
0.0
 40
0.0
 40
0.0
 40
0.0
 40
0.1067642406
 40
0.2175988404
 40
0.4563424632
 40
0.7202671584
 40
1.0
 40
1.0
 40
1.0
 40
1.0
 10
381.3280295715
 20
244.2114598238
 30
0.0
 10
381.5017424563
 20
244.1742961273
 30
0.0
 10
381.848008208
 20
244.0559512687
 30
0.0
 10
382.4977470676
 20
243.6528711593
 30
0.0
 10
383.1759572946
 20
242.8561836803
 30
0.0
 10
383.6719674323
 20
241.6352821942
 30
0.0
 10
383.7847195817
 20
240.7260271928
 30
0.0
 10
383.7847195817
 20
240.2605830102
 30
0.0
  0
SPLINE
  5
50B
100
AcDbEntity
  8
0
100
AcDbSpline
 62
3
  6
CONTINUOUS
 70
0
 71
3
 72
13
 73
9
 74
0
 42
0.0000001
 43
0.0000001
 44
0.0000000001
 40
0.0
 40
0.0
 40
0.0
 40
0.0
 40
0.1209164014
 40
0.2424118569
 40
0.3651119722
 40
0.4894062646
 40
0.7422067886
 40
1.0
 40
1.0
 40
1.0
 40
1.0
 10
349.8289195669
 20
219.2482534608
 30
0.0
 10
350.0594730796
 20
219.2287132727
 30
0.0
 10
350.5190639778
 20
219.1429698437
 30
0.0
 10
351.1708805799
 20
218.8794678511
 30
0.0
 10
351.7637576183
 20
218.4893004421
 30
0.0
 10
352.4524093695
 20
217.8184321152
 30
0.0
 10
353.0683910912
 20
216.7389533046
 30
0.0
 10
353.2356510678
 20
215.7538842751
 30
0.0
 10
353.2356510678
 20
215.2605830102
 30
0.0
  0
SPLINE
  5
50C
100
AcDbEntity
  8
0
100
AcDbSpline
 62
3
  6
CONTINUOUS
 70
0
 71
3
 72
13
 73
9
 74
0
 42
0.0000001
 43
0.0000001
 44
0.0000000001
 40
0.0
 40
0.0
 40
0.0
 40
0.0
 40
0.1209164014
 40
0.2424118569
 40
0.3651119722
 40
0.4894062646
 40
0.7422067886
 40
1.0
 40
1.0
 40
1.0
 40
1.0
 10
349.8289195669
 20
244.2482534608
 30
0.0
 10
350.0594730796
 20
244.2287132727
 30
0.0
 10
350.5190639778
 20
244.1429698437
 30
0.0
 10
351.1708805799
 20
243.8794678511
 30
0.0
 10
351.7637576183
 20
243.4893004421
 30
0.0
 10
352.4524093695
 20
242.8184321152
 30
0.0
 10
353.0683910912
 20
241.7389533046
 30
0.0
 10
353.2356510678
 20
240.7538842751
 30
0.0
 10
353.2356510678
 20
240.2605830102
 30
0.0
  0
SPLINE
  5
50D
100
AcDbEntity
  8
0
100
AcDbSpline
 62
3
  6
CONTINUOUS
 70
0
 71
3
 72
12
 73
8
 74
0
 42
0.0000001
 43
0.0000001
 44
0.0000000001
 40
0.0
 40
0.0
 40
0.0
 40
0.0
 40
0.1067642406
 40
0.2175988404
 40
0.4563424632
 40
0.7202671584
 40
1.0
 40
1.0
 40
1.0
 40
1.0
 10
381.3280295715
 20
219.2114598238
 30
0.0
 10
381.5017424563
 20
219.1742961273
 30
0.0
 10
381.848008208
 20
219.0559512687
 30
0.0
 10
382.4977470676
 20
218.6528711593
 30
0.0
 10
383.1759572946
 20
217.8561836803
 30
0.0
 10
383.6719674323
 20
216.6352821942
 30
0.0
 10
383.7847195817
 20
215.7260271928
 30
0.0
 10
383.7847195817
 20
215.2605830102
 30
0.0
  0
SPLINE
  5
50E
100
AcDbEntity
  8
0
100
AcDbSpline
 62
3
  6
CONTINUOUS
 70
0
 71
3
 72
11
 73
7
 74
0
 42
0.0000001
 43
0.0000001
 44
0.0000000001
 40
0.0
 40
0.0
 40
0.0
 40
0.0
 40
0.2498343145
 40
0.4997364606
 40
0.7497946307
 40
1.0
 40
1.0
 40
1.0
 40
1.0
 10
313.4306415657
 20
244.2605830102
 30
0.0
 10
313.9500630013
 20
244.2605830102
 30
0.0
 10
315.0004586021
 20
244.0523714857
 30
0.0
 10
316.3276372456
 20
243.1618800906
 30
0.0
 10
317.2155823327
 20
241.8322110448
 30
0.0
 10
317.42303494
 20
240.7807758924
 30
0.0
 10
317.42303494
 20
240.2605830102
 30
0.0
  0
SPLINE
  5
50F
100
AcDbEntity
  8
0
100
AcDbSpline
 62
3
  6
CONTINUOUS
 70
0
 71
3
 72
9
 73
5
 74
0
 42
0.0000001
 43
0.0000001
 44
0.0000000001
 40
0.0
 40
0.0
 40
0.0
 40
0.0
 40
0.24089746
 40
1.0
 40
1.0
 40
1.0
 40
1.0
 10
403.5939575698
 20
219.2114598238
 30
0.0
 10
403.6175628262
 20
219.203193452
 30
0.0
 10
403.7141600164
 20
219.1649316746
 30
0.0
 10
403.8044431917
 20
219.1114800813
 30
0.0
 10
403.8682155585
 20
219.0651710694
 30
0.0
  0
SPLINE
  5
510
100
AcDbEntity
  8
0
100
AcDbSpline
 62
3
  6
CONTINUOUS
 70
0
 71
3
 72
11
 73
7
 74
0
 42
0.0000001
 43
0.0000001
 44
0.0000000001
 40
0.0
 40
0.0
 40
0.0
 40
0.0
 40
0.1834774859
 40
0.4188608224
 40
0.6974626287
 40
1.0
 40
1.0
 40
1.0
 40
1.0
 10
403.8682155585
 20
219.0651710694
 30
0.0
 10
404.070920272
 20
218.9179747921
 30
0.0
 10
404.4338128601
 20
218.4523502265
 30
0.0
 10
404.7902113669
 20
217.5648478562
 30
0.0
 10
405.0173431667
 20
216.4680327749
 30
0.0
 10
405.0679467779
 20
215.6736530391
 30
0.0
 10
405.0679467779
 20
215.2605830102
 30
0.0
  0
SPLINE
  5
511
100
AcDbEntity
  8
0
100
AcDbSpline
 62
3
  6
CONTINUOUS
 70
0
 71
3
 72
13
 73
9
 74
0
 42
0.0000001
 43
0.0000001
 44
0.0000000001
 40
0.0
 40
0.0
 40
0.0
 40
0.0
 40
0.121091561
 40
0.2427324647
 40
0.3655271922
 40
0.4898523744
 40
0.7425180203
 40
1.0
 40
1.0
 40
1.0
 40
1.0
 10
276.9829332675
 20
236.2729125597
 30
0.0
 10
276.7517410776
 20
236.292451861
 30
0.0
 10
276.2909188973
 20
236.3781743268
 30
0.0
 10
275.6372561534
 20
236.6416289532
 30
0.0
 10
275.0426325646
 20
237.0317494313
 30
0.0
 10
274.3520569323
 20
237.7023937429
 30
0.0
 10
273.7340165814
 20
238.7817032043
 30
0.0
 10
273.5660881015
 20
239.7672369571
 30
0.0
 10
273.5660881015
 20
240.2605830102
 30
0.0
  0
SPLINE
  5
512
100
AcDbEntity
  8
0
100
AcDbSpline
 62
3
  6
CONTINUOUS
 70
0
 71
3
 72
10
 73
6
 74
0
 42
0.0000001
 43
0.0000001
 44
0.0000000001
 40
0.0
 40
0.0
 40
0.0
 40
0.0
 40
0.1934887718
 40
0.4343917578
 40
1.0
 40
1.0
 40
1.0
 40
1.0
 10
414.1551462578
 20
218.5766846676
 30
0.0
 10
414.1831761964
 20
218.3643519523
 30
0.0
 10
414.2263796276
 20
217.8851361026
 30
0.0
 10
414.2839656552
 20
216.779677958
 30
0.0
 10
414.2969750942
 20
215.8866609483
 30
0.0
 10
414.2969750942
 20
215.2605830102
 30
0.0
  0
SPLINE
  5
513
100
AcDbEntity
  8
0
100
AcDbSpline
 62
3
  6
CONTINUOUS
 70
0
 71
3
 72
12
 73
8
 74
0
 42
0.0000001
 43
0.0000001
 44
0.0000000001
 40
0.0
 40
0.0
 40
0.0
 40
0.0
 40
0.1071649405
 40
0.2182975991
 40
0.4572337879
 40
0.7208541698
 40
1.0
 40
1.0
 40
1.0
 40
1.0
 10
245.3421246873
 20
236.3097061967
 30
0.0
 10
245.167323031
 20
236.3468569033
 30
0.0
 10
244.8189627628
 20
236.4650938182
 30
0.0
 10
244.1652692116
 20
236.8677641873
 30
0.0
 10
243.4822875579
 20
237.6638674968
 30
0.0
 10
242.9822862464
 20
238.8852538316
 30
0.0
 10
242.8686213563
 20
239.7950855913
 30
0.0
 10
242.8686213563
 20
240.2605830102
 30
0.0
  0
SPLINE
  5
514
100
AcDbEntity
  8
0
100
AcDbSpline
 62
3
  6
CONTINUOUS
 70
0
 71
3
 72
9
 73
5
 74
0
 42
0.0000001
 43
0.0000001
 44
0.0000000001
 40
0.0
 40
0.0
 40
0.0
 40
0.0
 40
0.2411868124
 40
1.0
 40
1.0
 40
1.0
 40
1.0
 10
222.8631266139
 20
236.3097061967
 30
0.0
 10
222.8391896581
 20
236.3179697298
 30
0.0
 10
222.7413169171
 20
236.3561819872
 30
0.0
 10
222.6496777272
 20
236.4096264302
 30
0.0
 10
222.5848902942
 20
236.4559949511
 30
0.0
  0
SPLINE
  5
515
100
AcDbEntity
  8
0
100
AcDbSpline
 62
3
  6
CONTINUOUS
 70
0
 71
3
 72
11
 73
7
 74
0
 42
0.0000001
 43
0.0000001
 44
0.0000000001
 40
0.0
 40
0.0
 40
0.0
 40
0.0
 40
0.1842878152
 40
0.4197780915
 40
0.6980315907
 40
1.0
 40
1.0
 40
1.0
 40
1.0
 10
222.5848902942
 20
236.4559949511
 30
0.0
 10
222.3798777573
 20
236.6027229147
 30
0.0
 10
222.0116503636
 20
237.0672943561
 30
0.0
 10
221.6492768526
 20
237.9555316019
 30
0.0
 10
221.4184458559
 20
239.0527627302
 30
0.0
 10
221.3670091859
 20
239.8474839352
 30
0.0
 10
221.3670091859
 20
240.2605830102
 30
0.0
  0
SPLINE
  5
516
100
AcDbEntity
  8
0
100
AcDbSpline
 62
3
  6
CONTINUOUS
 70
0
 71
3
 72
10
 73
6
 74
0
 42
0.0000001
 43
0.0000001
 44
0.0000000001
 40
0.0
 40
0.0
 40
0.0
 40
0.0
 40
0.1882252202
 40
0.4281634206
 40
1.0
 40
1.0
 40
1.0
 40
1.0
 10
212.0465146199
 20
236.8538381741
 30
0.0
 10
212.0129619409
 20
237.0653422109
 30
0.0
 10
211.9618931367
 20
237.5502995307
 30
0.0
 10
211.8934278704
 20
238.68599904
 30
0.0
 10
211.8782201983
 20
239.6099892218
 30
0.0
 10
211.8782201983
 20
240.2605830102
 30
0.0
  0
ENDSEC
  0
SECTION
  2
OBJECTS
  0
DICTIONARY
  5
C
100
AcDbDictionary
280
0
281
1
  3
ACAD_GROUP
350
D
  3
ACAD_MLINESTYLE
350
17
  3
ACAD_LAYOUT
350
1A
  3
ACAD_PLOTSETTINGS
350
19
  3
ACAD_PLOTSTYLENAME
350
E
  0
DICTIONARY
  5
D
102
{ACAD_REACTORS
330
C
102
}
100
AcDbDictionary
280
0
281
1
  0
ACDBDICTIONARYWDFLT
  5
E
102
{ACAD_REACTORS
330
C
102
}
100
AcDbDictionary
281
1
  3
Normal
350
F
100
AcDbDictionaryWithDefault
340
F
  0
DICTIONARY
  5
17
102
{ACAD_REACTORS
330
C
102
}
100
AcDbDictionary
280
0
281
1
  3
Standard
350
18
  0
DICTIONARY
  5
19
102
{ACAD_REACTORS
330
C
102
}
100
AcDbDictionary
281
1
  0
DICTIONARY
  5
1A
102
{ACAD_REACTORS
330
C
102
}
100
AcDbDictionary
281
1
  3
Model
350
517
  3
Layout1
350
518
  0
ACDBPLACEHOLDER
  5
F
102
{ACAD_REACTORS
330
E
102
}
  0
MLINESTYLE
  5
18
102
{ACAD_REACTORS
330
17
102
}
100
AcDbMlineStyle
  2
STANDARD
 70
0
  3

 62
256
 51
90.0
 52
90.0
 71
2
 49
0.5
 62
256
  6
BYLAYER
 49
-0.5
 62
256
  6
BYLAYER
  0
LAYOUT
  5
517
102
{ACAD_REACTORS
330
1A
102
}
100
AcDbPlotSettings
  1

  2
none_device
  4
ISO_A2_(594.00_x_420.00_MM)
  6

 40
0.0
 41
0.0
 42
0.0
 43
0.0
 44
594.0
 45
420.0
 46
0.0
 47
0.0
 48
0.0
 49
0.0
140
0.0
141
0.0
142
1.0
143
1.0
 70
1024
 72
1
 73
0
 74
0
  7

 75
0
147
1.0
148
0.0
149
0.0
100
AcDbLayout
  1
Model
 70
0
 71
0
 10
0.0
 20
0.0
 11
594.0
 21
420.0
 12
0.0
 22
0.0
 32
0.0
 14
0.0
 24
0.0
 34
0.0
 15
0.0
 25
0.0
 35
0.0
146
0.0
 13
0.0
 23
0.0
 33
0.0
 16
1.0
 26
0.0
 36
0.0
 17
0.0
 27
1.0
 37
0.0
 76
0
330
216
345
0
346
0
  0
LAYOUT
  5
518
102
{ACAD_REACTORS
330
1A
102
}
100
AcDbPlotSettings
  1

  2
none_device
  4
ISO_A2_(594.00_x_420.00_MM)
  6

 40
0.0
 41
0.0
 42
0.0
 43
0.0
 44
594.0
 45
420.0
 46
0.0
 47
0.0
 48
0.0
 49
0.0
140
0.0
141
0.0
142
1.0
143
1.0
 70
0
 72
1
 73
0
 74
0
  7

 75
0
147
1.0
148
0.0
149
0.0
100
AcDbLayout
  1
Layout1
 70
0
 71
1
 10
0.0
 20
0.0
 11
594.0
 21
420.0
 12
0.0
 22
0.0
 32
0.0
 14
0.0
 24
0.0
 34
0.0
 15
0.0
 25
0.0
 35
0.0
146
0.0
 13
0.0
 23
0.0
 33
0.0
 16
1.0
 26
0.0
 36
0.0
 17
0.0
 27
1.0
 37
0.0
 76
0
330
217
345
0
346
0
  0
ENDSEC
  0
EOF
