999
DXF file: C:\Users\Eliseu Canal Dalcin\Desktop\94540_021_22.dxf
999
Pro/ENGINEER 2012230 by Parametric Technology Corporation
  0
SECTION
  2
HEADER
  9
$ACADVER
  1
AC1021
  9
$DWGCODEPAGE
  3
ANSI_1252
  9
$EXTMAX
 10
1223.0
 20
875.0
 30
0.0
  9
$EXTMIN
 10
0.0
 20
0.0
 30
0.0
  9
$LIMMIN
 10
0.0
 20
0.0
  9
$LIMMAX
 10
1223.0
 20
875.0
  9
$VIEWCTR
 10
611.5
 20
437.5
  9
$VIEWSIZE
 40
875.0
  9
$CLAYER
  8
0
  9
$LTSCALE
 40
67.265
  9
$CELTYPE
  6
BYLAYER
  9
$DIMSCALE
 40
1.0
  9
$DIMASZ
 40
3.0
  9
$DIMEXO
 40
0.5
  9
$DIMDLI
 40
46.474
  9
$DIMEXE
 40
0.5
  9
$DIMCEN
 40
11.007
  9
$DIMLFAC
 40
1.0
  9
$DIMBLK
  1
_FILLED
  9
$DIMTXT
 40
1.8
  9
$DIMTOL
 70
1
  9
$DIMLIM
 70
0
  9
$DIMTFAC
 40
1.0
  9
$DIMTP
 40
0.001
  9
$DIMTM
 40
0.001
  9
$DIMGAP
 40
0.625
  9
$DIMDSEP
 70
46
  9
$PDMODE
 70
3
  9
$PDSIZE
 40
1.0
  9
$HANDSEED
  5
309
  9
$TILEMODE
 70
1
  9
$MEASUREMENT
 70
1
  9
$INSUNITS
 70
4
  0
ENDSEC
  0
SECTION
  2
CLASSES
  0
CLASS
  1
ACDBDICTIONARYWDFLT
  2
AcDbDictionaryWithDefault
  3
AutoCAD 2000
 90
0
 91
1
280
0
281
0
  0
CLASS
  1
ACDBPLACEHOLDER
  2
AcDbPlaceHolder
  3
AutoCAD 2000
 90
0
 91
1
280
0
281
0
  0
CLASS
  1
LAYOUT
  2
AcDbLayout
  3
AutoCAD 2000
 90
0
 91
0
280
0
281
0
  0
ENDSEC
  0
SECTION
  2
TABLES
  0
TABLE
  2
VPORT
  5
8
100
AcDbSymbolTable
 70
2
  0
VPORT
  5
1F4
100
AcDbSymbolTableRecord
100
AcDbViewportTableRecord
  2
*ACTIVE
 70
0
 10
0.0
 20
0.0
 11
1.0
 21
1.0
 12
611.5
 22
437.5
 13
0.0
 23
0.0
 14
1.0
 24
1.0
 15
0.0
 25
0.0
 16
0.0
 26
0.0
 36
1.0
 17
0.0
 27
0.0
 37
0.0
 40
875.0
 41
1.3977142857
 42
50.0
 43
0.0
 44
0.0
 50
0.0
 51
0.0
 71
0
 72
100
 73
1
 74
1
 75
0
 76
0
 77
0
 78
0
  0
ENDTAB
  0
TABLE
  2
LTYPE
  5
5
100
AcDbSymbolTable
 70
6
  0
LTYPE
  5
14
100
AcDbSymbolTableRecord
100
AcDbLinetypeTableRecord
  2
BYBLOCK
 70
0
  3

 72
65
 73
0
 40
0.0
  0
LTYPE
  5
15
100
AcDbSymbolTableRecord
100
AcDbLinetypeTableRecord
  2
BYLAYER
 70
0
  3

 72
65
 73
0
 40
0.0
  0
LTYPE
  5
16
100
AcDbSymbolTableRecord
100
AcDbLinetypeTableRecord
  2
CONTINUOUS
 70
64
  3
Solid line
 72
65
 73
0
 40
0.0
  0
LTYPE
  5
1F5
100
AcDbSymbolTableRecord
100
AcDbLinetypeTableRecord
  2
CENTER
 70
64
  3
____ _ ____ _ ____ _ ____ _ ____ _ ____ _ ____
 72
65
 73
4
 40
0.6
 49
0.375
 74
0
 49
-0.075
 74
0
 49
0.075
 74
0
 49
-0.075
 74
0
  0
LTYPE
  5
1F6
100
AcDbSymbolTableRecord
100
AcDbLinetypeTableRecord
  2
HIDDEN
 70
64
  3
- - - - - - - - - - - - - - - - - - - -
 72
65
 73
2
 40
0.2
 49
0.1
 74
0
 49
-0.1
 74
0
  0
LTYPE
  5
1F7
100
AcDbSymbolTableRecord
100
AcDbLinetypeTableRecord
  2
PHANTOM
 70
64
  3
_____ _ _ _____ _ _ _____ _ _ _____
 72
65
 73
6
 40
0.8
 49
0.45
 74
0
 49
-0.05
 74
0
 49
0.1
 74
0
 49
-0.05
 74
0
 49
0.1
 74
0
 49
-0.05
 74
0
  0
LTYPE
  5
1F8
100
AcDbSymbolTableRecord
100
AcDbLinetypeTableRecord
  2
DOT
 70
64
  3
. . . . . . . . . . . . . . . . . . . .
 72
65
 73
2
 40
0.2
 49
0.1
 74
0
 49
-0.1
 74
0
  0
LTYPE
  5
1F9
100
AcDbSymbolTableRecord
100
AcDbLinetypeTableRecord
  2
DASHED
 70
64
  3
- - - - - - - - - - - - - - - - - - - -
 72
65
 73
2
 40
0.2
 49
0.1
 74
0
 49
-0.1
 74
0
  0
ENDTAB
  0
TABLE
  2
LAYER
  5
2
100
AcDbSymbolTable
 70
36
  0
LAYER
  5
10
100
AcDbSymbolTableRecord
100
AcDbLayerTableRecord
  2
0
 70
0
 62
7
  6
CONTINUOUS
370
-3
390
F
  0
LAYER
  5
1FA
100
AcDbSymbolTableRecord
100
AcDbLayerTableRecord
  2
DEFAULT_1
 70
0
 62
7
  6
CENTER
370
-3
390
F
  0
LAYER
  5
1FB
100
AcDbSymbolTableRecord
100
AcDbLayerTableRecord
  2
DEFAULT_2
 70
0
 62
8
  6
HIDDEN
370
-3
390
F
  0
LAYER
  5
1FC
100
AcDbSymbolTableRecord
100
AcDbLayerTableRecord
  2
DEFAULT_3
 70
0
 62
7
  6
PHANTOM
370
-3
390
F
  0
LAYER
  5
1FD
100
AcDbSymbolTableRecord
100
AcDbLayerTableRecord
  2
01_ALL_DTM_PLN
 70
0
 62
7
  6
CONTINUOUS
370
-3
390
F
  0
LAYER
  5
1FE
100
AcDbSymbolTableRecord
100
AcDbLayerTableRecord
  2
01__ASM_ALL_DTM_PLN
 70
0
 62
7
  6
CONTINUOUS
370
-3
390
F
  0
LAYER
  5
1FF
100
AcDbSymbolTableRecord
100
AcDbLayerTableRecord
  2
01__ASM_DEF_DTM_PLN
 70
0
 62
7
  6
CONTINUOUS
370
-3
390
F
  0
LAYER
  5
200
100
AcDbSymbolTableRecord
100
AcDbLayerTableRecord
  2
01___PRT_ALL_DTM_PLN
 70
0
 62
7
  6
CONTINUOUS
370
-3
390
F
  0
LAYER
  5
201
100
AcDbSymbolTableRecord
100
AcDbLayerTableRecord
  2
01___PRT_DEF_DTM_PLN
 70
0
 62
7
  6
CONTINUOUS
370
-3
390
F
  0
LAYER
  5
202
100
AcDbSymbolTableRecord
100
AcDbLayerTableRecord
  2
02_ALL_AXES
 70
0
 62
7
  6
CONTINUOUS
370
-3
390
F
  0
LAYER
  5
203
100
AcDbSymbolTableRecord
100
AcDbLayerTableRecord
  2
02__ASM_ALL_AXES
 70
0
 62
7
  6
CONTINUOUS
370
-3
390
F
  0
LAYER
  5
204
100
AcDbSymbolTableRecord
100
AcDbLayerTableRecord
  2
02___PRT_ALL_AXES
 70
0
 62
7
  6
CONTINUOUS
370
-3
390
F
  0
LAYER
  5
205
100
AcDbSymbolTableRecord
100
AcDbLayerTableRecord
  2
03_ALL_CURVES
 70
0
 62
7
  6
CONTINUOUS
370
-3
390
F
  0
LAYER
  5
206
100
AcDbSymbolTableRecord
100
AcDbLayerTableRecord
  2
03__ASM_ALL_CURVES
 70
0
 62
7
  6
CONTINUOUS
370
-3
390
F
  0
LAYER
  5
207
100
AcDbSymbolTableRecord
100
AcDbLayerTableRecord
  2
03___PRT_ALL_CURVES
 70
0
 62
7
  6
CONTINUOUS
370
-3
390
F
  0
LAYER
  5
208
100
AcDbSymbolTableRecord
100
AcDbLayerTableRecord
  2
04_ALL_DTM_PNT
 70
0
 62
7
  6
CONTINUOUS
370
-3
390
F
  0
LAYER
  5
209
100
AcDbSymbolTableRecord
100
AcDbLayerTableRecord
  2
04__ASM_ALL_DTM_PNT
 70
0
 62
7
  6
CONTINUOUS
370
-3
390
F
  0
LAYER
  5
20A
100
AcDbSymbolTableRecord
100
AcDbLayerTableRecord
  2
04___PRT_ALL_DTM_PNT
 70
0
 62
7
  6
CONTINUOUS
370
-3
390
F
  0
LAYER
  5
20B
100
AcDbSymbolTableRecord
100
AcDbLayerTableRecord
  2
05_ALL_DTM_CSYS
 70
0
 62
7
  6
CONTINUOUS
370
-3
390
F
  0
LAYER
  5
20C
100
AcDbSymbolTableRecord
100
AcDbLayerTableRecord
  2
05__ASM_ALL_DTM_CSYS
 70
0
 62
7
  6
CONTINUOUS
370
-3
390
F
  0
LAYER
  5
20D
100
AcDbSymbolTableRecord
100
AcDbLayerTableRecord
  2
05__ASM_DEF_DTM_CSYS
 70
0
 62
7
  6
CONTINUOUS
370
-3
390
F
  0
LAYER
  5
20E
100
AcDbSymbolTableRecord
100
AcDbLayerTableRecord
  2
05___PRT_ALL_DTM_CSYS
 70
0
 62
7
  6
CONTINUOUS
370
-3
390
F
  0
LAYER
  5
20F
100
AcDbSymbolTableRecord
100
AcDbLayerTableRecord
  2
05___PRT_DEF_DTM_CSYS
 70
0
 62
7
  6
CONTINUOUS
370
-3
390
F
  0
LAYER
  5
210
100
AcDbSymbolTableRecord
100
AcDbLayerTableRecord
  2
06_ALL_SURFS
 70
0
 62
7
  6
CONTINUOUS
370
-3
390
F
  0
LAYER
  5
211
100
AcDbSymbolTableRecord
100
AcDbLayerTableRecord
  2
06__ASM_ALL_SURFS
 70
0
 62
7
  6
CONTINUOUS
370
-3
390
F
  0
LAYER
  5
212
100
AcDbSymbolTableRecord
100
AcDbLayerTableRecord
  2
06___PRT_ALL_SURFS
 70
0
 62
7
  6
CONTINUOUS
370
-3
390
F
  0
LAYER
  5
213
100
AcDbSymbolTableRecord
100
AcDbLayerTableRecord
  2
07__ASM_ALL_SKELETONS
 70
0
 62
7
  6
CONTINUOUS
370
-3
390
F
  0
ENDTAB
  0
TABLE
  2
STYLE
  5
3
100
AcDbSymbolTable
 70
1
  0
STYLE
  5
11
100
AcDbSymbolTableRecord
100
AcDbTextStyleTableRecord
  2
STANDARD
 70
0
 40
0.0
 41
0.8
 50
0.0
 71
0
 42
0.2
  3
txt
  4

  0
STYLE
  5
214
100
AcDbSymbolTableRecord
100
AcDbTextStyleTableRecord
  2
TEXTSTYLE_1
 70
0
 40
0.0
 41
0.8
 50
0.0
 71
0
 42
0.2
  3
gdt
  4

  0
ENDTAB
  0
TABLE
  2
VIEW
  5
6
100
AcDbSymbolTable
 70
0
  0
ENDTAB
  0
TABLE
  2
UCS
  5
7
100
AcDbSymbolTable
 70
0
  0
ENDTAB
  0
TABLE
  2
APPID
  5
9
100
AcDbSymbolTable
 70
1
  0
APPID
  5
215
100
AcDbSymbolTableRecord
100
AcDbRegAppTableRecord
  2
ACAD
 70
0
  0
ENDTAB
  0
TABLE
  2
BLOCK_RECORD
  5
1
100
AcDbSymbolTable
 70
0
  0
BLOCK_RECORD
  5
216
100
AcDbSymbolTableRecord
100
AcDbBlockTableRecord
  2
*Model_Space
  0
BLOCK_RECORD
  5
217
100
AcDbSymbolTableRecord
100
AcDbBlockTableRecord
  2
*Paper_Space
  0
BLOCK_RECORD
  5
218
100
AcDbSymbolTableRecord
100
AcDbBlockTableRecord
  2
_FILLED
  0
BLOCK_RECORD
  5
219
100
AcDbSymbolTableRecord
100
AcDbBlockTableRecord
  2
*D0
  0
BLOCK_RECORD
  5
21A
100
AcDbSymbolTableRecord
100
AcDbBlockTableRecord
  2
*D1
  0
ENDTAB
  0
TABLE
  2
DIMSTYLE
  5
A
100
AcDbSymbolTable
 70
1
100
AcDbDimStyleTable
 71
0
  0
DIMSTYLE
105
21B
100
AcDbSymbolTableRecord
100
AcDbDimStyleTableRecord
  2
STANDARD
 70
0
  3

  4

 40
1.0
 41
3.0
 42
0.5
 43
0.38
 44
0.5
 45
0.0
 46
0.0
 47
0.001
 48
0.001
140
1.8
141
0.09
142
0.0
143
25.4
144
1.0
145
0.0
146
1.0
147
0.625
 71
1.0
 72
0.0
 73
0
 74
0
 75
0
 76
0
 77
1
 78
8
170
0
171
2
172
0
173
0
174
0
175
0
176
0
177
0
178
0
270
2
271
3
272
3
273
2
274
2
275
0
280
0
281
0
282
0
283
1
284
8
285
0
286
0
287
3
288
0
340
11
278
46
341
218
342
218
343
218
344
218
  0
DIMSTYLE
105
21C
100
AcDbSymbolTableRecord
100
AcDbDimStyleTableRecord
  2
DIMSTYLE_1
 70
0
  3

  4

 40
1.0
 41
3.0
 42
0.5
 43
0.38
 44
0.5
 45
0.0
 46
0.0
 47
0.001
 48
0.001
140
1.8
141
0.09
142
0.0
143
25.4
144
1.0
145
0.0
146
1.0
147
0.45
 71
0.0
 72
0.0
 73
0
 74
0
 75
0
 76
0
 77
1
 78
8
170
0
171
2
172
0
173
0
174
0
175
0
176
0
177
0
178
0
270
2
271
0
272
0
273
2
274
2
275
0
280
0
281
0
282
0
283
1
284
8
285
0
286
0
287
3
288
0
340
11
278
46
341
218
342
218
343
218
344
218
  0
DIMSTYLE
105
21D
100
AcDbSymbolTableRecord
100
AcDbDimStyleTableRecord
  2
DIMSTYLE_2
 70
0
  3

  4

 40
1.0
 41
3.0
 42
0.5
 43
0.38
 44
0.5
 45
0.0
 46
0.0
 47
0.001
 48
0.001
140
1.8
141
0.09
142
0.0
143
25.4
144
1.0
145
0.0
146
1.0
147
0.45
 71
0.0
 72
0.0
 73
0
 74
0
 75
0
 76
0
 77
1
 78
8
170
0
171
2
172
0
173
0
174
0
175
0
176
0
177
0
178
0
270
2
271
1
272
1
273
2
274
2
275
0
280
0
281
0
282
0
283
1
284
8
285
0
286
0
287
3
288
0
340
11
278
46
341
218
342
218
343
218
344
218
  0
ENDTAB
  0
ENDSEC
  0
SECTION
  2
BLOCKS
  0
BLOCK
  5
20
100
AcDbEntity
  8
0
100
AcDbBlockBegin
  2
*Model_Space
 70
0
 10
0.0
 20
0.0
 30
0.0
  3
*Model_Space
  1

  0
ENDBLK
  5
21
100
AcDbEntity
  8
0
100
AcDbBlockEnd
  0
BLOCK
  5
1C
100
AcDbEntity
  8
0
100
AcDbBlockBegin
  2
*Paper_Space
 70
0
 10
0.0
 20
0.0
 30
0.0
  3
*Paper_Space
  1

  0
ENDBLK
  5
1D
100
AcDbEntity
  8
0
100
AcDbBlockEnd
  0
BLOCK
  5
21E
100
AcDbEntity
  8
0
100
AcDbBlockBegin
  2
_FILLED
 70
64
 10
0.0
 20
0.0
  3
_FILLED
  1

  0
SOLID
  5
21F
100
AcDbEntity
  8
0
  6
BYBLOCK
 62
0
100
AcDbTrace
 10
0.0
 20
0.0
 11
-1.0
 21
0.1666666667
 12
-1.0
 22
-0.1666666667
 13
-1.0
 23
-0.1666666667
  0
ENDBLK
  5
220
100
AcDbEntity
  8
0
  6
BYBLOCK
 62
0
100
AcDbBlockEnd
  0
BLOCK
  5
221
100
AcDbEntity
  8
0
100
AcDbBlockBegin
 62
2
  6
CONTINUOUS
  2
*D0
 70
65
 10
0.0
 20
0.0
  3
*D0
  1

  0
MTEXT
  5
222
100
AcDbEntity
  8
0
100
AcDbMText
 62
2
  6
CONTINUOUS
  7
TEXTSTYLE_1
 71
2
 72
1
 10
591.392682699
 20
784.7891947984
 30
0.0
 11
1.0
 21
0.0
 31
0.0
 44
0.9
  1
{\Fgdt;n}\Ftxt;210
 40
1.8
 41
7.9542857143
  0
LINE
  5
223
100
AcDbEntity
  8
0
100
AcDbLine
 62
2
  6
CONTINUOUS
 10
486.492682699
 20
747.8194675634
 11
486.492682699
 21
782.717766227
  0
LINE
  5
224
100
AcDbEntity
  8
0
100
AcDbLine
 62
2
  6
CONTINUOUS
 10
696.292682699
 20
747.8194675634
 11
696.292682699
 21
782.717766227
  0
LINE
  5
225
100
AcDbEntity
  8
0
100
AcDbLine
 62
2
  6
CONTINUOUS
 10
486.492682699
 20
782.217766227
 11
591.392682699
 21
782.217766227
  0
LINE
  5
226
100
AcDbEntity
  8
0
100
AcDbLine
 62
2
  6
CONTINUOUS
 10
696.292682699
 20
782.217766227
 11
591.392682699
 21
782.217766227
  0
INSERT
  5
227
100
AcDbEntity
  8
0
100
AcDbBlockReference
 62
2
  6
CONTINUOUS
  2
_FILLED
 10
486.492682699
 20
782.217766227
 41
3.0
 42
3.0
 43
3.0
 50
180.0
  0
INSERT
  5
228
100
AcDbEntity
  8
0
100
AcDbBlockReference
 62
2
  6
CONTINUOUS
  2
_FILLED
 10
696.292682699
 20
782.217766227
 41
3.0
 42
3.0
 43
3.0
  0
ENDBLK
  5
229
100
AcDbEntity
  8
0
  6
BYBLOCK
 62
0
100
AcDbBlockEnd
  0
BLOCK
  5
22A
100
AcDbEntity
  8
0
100
AcDbBlockBegin
 62
2
  6
CONTINUOUS
  2
*D1
 70
65
 10
0.0
 20
0.0
  3
*D1
  1

  0
MTEXT
  5
22B
100
AcDbEntity
  8
0
100
AcDbMText
 62
2
  6
CONTINUOUS
  7
STANDARD
 71
2
 72
1
 10
455.275845181
 20
594.4475919867
 30
0.0
 11
0.0
 21
1.0
 31
0.0
 44
0.9
  1
315
 40
1.8
 41
5.5542857143
  0
LINE
  5
22C
100
AcDbEntity
  8
0
100
AcDbLine
 62
2
  6
CONTINUOUS
 10
501.0793533866
 20
751.954540479
 11
457.3472737524
 21
751.954540479
  0
LINE
  5
22D
100
AcDbEntity
  8
0
100
AcDbLine
 62
2
  6
CONTINUOUS
 10
505.861057645
 20
436.9406434945
 11
457.3472737524
 21
436.9406434945
  0
LINE
  5
22E
100
AcDbEntity
  8
0
100
AcDbLine
 62
2
  6
CONTINUOUS
 10
457.8472737524
 20
751.954540479
 11
457.8472737524
 21
594.4475919867
  0
LINE
  5
22F
100
AcDbEntity
  8
0
100
AcDbLine
 62
2
  6
CONTINUOUS
 10
457.8472737524
 20
436.9406434945
 11
457.8472737524
 21
594.4475919867
  0
INSERT
  5
230
100
AcDbEntity
  8
0
100
AcDbBlockReference
 62
2
  6
CONTINUOUS
  2
_FILLED
 10
457.8472737524
 20
751.954540479
 41
3.0
 42
3.0
 43
3.0
 50
90.0
  0
INSERT
  5
231
100
AcDbEntity
  8
0
100
AcDbBlockReference
 62
2
  6
CONTINUOUS
  2
_FILLED
 10
457.8472737524
 20
436.9406434945
 41
3.0
 42
3.0
 43
3.0
 50
270.0
  0
ENDBLK
  5
232
100
AcDbEntity
  8
0
  6
BYBLOCK
 62
0
100
AcDbBlockEnd
  0
ENDSEC
  0
SECTION
  2
ENTITIES
  0
DIMENSION
  5
233
100
AcDbEntity
  8
0
100
AcDbDimension
 62
2
  6
CONTINUOUS
  2
*D0
 10
696.292682699
 20
782.217766227
 11
591.392682699
 21
782.217766227
 70
160
 71
2
 42
209.8
  1
%%c<>
  3
DIMSTYLE_1
100
AcDbAlignedDimension
 13
486.492682699
 23
747.3194675634
 14
696.292682699
 24
747.3194675634
100
AcDbRotatedDimension
  0
DIMENSION
  5
234
100
AcDbEntity
  8
0
100
AcDbDimension
 62
2
  6
CONTINUOUS
  2
*D1
 10
457.8472737524
 20
436.9406434945
 11
457.8472737524
 21
594.4475919867
 70
160
 71
2
 42
315.0138969844
  3
DIMSTYLE_2
100
AcDbAlignedDimension
 13
501.5793533866
 23
751.954540479
 14
506.361057645
 24
436.9406434945
 50
270.0
100
AcDbRotatedDimension
  0
LINE
  5
235
100
AcDbEntity
  8
02___PRT_ALL_AXES
100
AcDbLine
 62
7
  6
CONTINUOUS
 10
503.6193182239
 20
439.6686808646
 11
505.5928363654
 21
437.3004590949
  0
LINE
  5
236
100
AcDbEntity
  8
0
100
AcDbLine
 62
7
  6
CONTINUOUS
 10
506.361057645
 20
436.9406434945
 11
676.424307753
 21
436.9406434945
  0
LINE
  5
237
100
AcDbEntity
  8
0
100
AcDbLine
 62
7
  6
CONTINUOUS
 10
505.5928363654
 20
437.3004590949
 11
677.1925290326
 21
437.3004590949
  0
LINE
  5
238
100
AcDbEntity
  8
0
100
AcDbLine
 62
7
  6
CONTINUOUS
 10
679.1660471741
 20
439.6686808646
 11
503.6193182239
 21
439.6686808646
  0
LINE
  5
239
100
AcDbEntity
  8
0
100
AcDbLine
 62
7
  6
CONTINUOUS
 10
679.6888106871
 20
440.1123929193
 11
503.0965547109
 21
440.1123929193
  0
LINE
  5
23A
100
AcDbEntity
  8
02___PRT_ALL_AXES
100
AcDbLine
 62
7
  6
CONTINUOUS
 10
488.892682699
 20
464.9406434945
 11
693.892682699
 21
464.9406434945
  0
LINE
  5
23B
100
AcDbEntity
  8
0
100
AcDbLine
 62
7
  6
CONTINUOUS
 10
693.392682699
 20
466.6906434945
 11
489.392682699
 21
466.6906434945
  0
LINE
  5
23C
100
AcDbEntity
  8
0
100
AcDbLine
 62
7
  6
CONTINUOUS
 10
693.392682699
 20
467.4406434945
 11
689.7391308937
 21
467.4406434945
  0
LINE
  5
23D
100
AcDbEntity
  8
0
100
AcDbLine
 62
7
  6
CONTINUOUS
 10
663.9962737508
 20
467.4406434945
 11
617.1355398419
 21
467.4406434945
  0
LINE
  5
23E
100
AcDbEntity
  8
0
100
AcDbLine
 62
7
  6
CONTINUOUS
 10
565.6498255561
 20
467.4406434945
 11
518.7890916472
 21
467.4406434945
  0
LINE
  5
23F
100
AcDbEntity
  8
0
100
AcDbLine
 62
7
  6
CONTINUOUS
 10
493.0462345043
 20
467.4406434945
 11
489.392682699
 21
467.4406434945
  0
LINE
  5
240
100
AcDbEntity
  8
02___PRT_ALL_AXES
100
AcDbLine
 62
7
  6
CONTINUOUS
 10
486.492682699
 20
747.3194675634
 11
486.492682699
 21
738.9819453076
  0
LINE
  5
241
100
AcDbEntity
  8
02___PRT_ALL_AXES
100
AcDbLine
 62
7
  6
CONTINUOUS
 10
486.492682699
 20
732.9819453076
 11
486.492682699
 21
725.2819453076
  0
LINE
  5
242
100
AcDbEntity
  8
02___PRT_ALL_AXES
100
AcDbLine
 62
7
  6
CONTINUOUS
 10
486.502682699
 20
738.9819453076
 11
486.502682699
 21
736.9509654313
  0
LINE
  5
243
100
AcDbEntity
  8
02___PRT_ALL_AXES
100
AcDbLine
 62
7
  6
CONTINUOUS
 10
486.502682699
 20
735.012925184
 11
486.502682699
 21
732.9819453076
  0
LINE
  5
244
100
AcDbEntity
  8
02___PRT_ALL_AXES
100
AcDbLine
 62
7
  6
CONTINUOUS
 10
489.392682699
 20
722.5819453076
 11
489.392682699
 21
466.6906434945
  0
LINE
  5
245
100
AcDbEntity
  8
03___PRT_ALL_CURVES
100
AcDbLine
 62
2
  6
CONTINUOUS
 10
582.707441797
 20
712.3606763412
 11
582.2372542439
 21
711.1615751947
  0
LINE
  5
246
100
AcDbEntity
  8
03___PRT_ALL_CURVES
100
AcDbLine
 62
2
  6
CONTINUOUS
 10
582.3442457927
 20
713.393419458
 11
580.9316807211
 21
709.7941174965
  0
LINE
  5
247
100
AcDbEntity
  8
03___PRT_ALL_CURVES
100
AcDbLine
 62
2
  6
CONTINUOUS
 10
581.9826901944
 20
710.5139036904
 11
581.6994066644
 21
709.7941174965
  0
LINE
  5
248
100
AcDbEntity
  8
03___PRT_ALL_CURVES
100
AcDbLine
 62
2
  6
CONTINUOUS
 10
587.7449543679
 20
713.393419458
 11
586.953968429
 21
711.052431075
  0
LINE
  5
249
100
AcDbEntity
  8
03___PRT_ALL_CURVES
100
AcDbLine
 62
2
  6
CONTINUOUS
 10
587.1837835758
 20
709.7941174965
 11
587.9711242177
 21
712.1224589127
  0
LINE
  5
24A
100
AcDbEntity
  8
03___PRT_ALL_CURVES
100
AcDbLine
 62
2
  6
CONTINUOUS
 10
585.557807391
 20
709.7941174965
 11
585.9370709552
 21
712.120724672
  0
LINE
  5
24B
100
AcDbEntity
  8
03___PRT_ALL_CURVES
100
AcDbLine
 62
2
  6
CONTINUOUS
 10
585.3771900957
 20
713.393419458
 11
584.7877408745
 21
709.7941174965
  0
LINE
  5
24C
100
AcDbEntity
  8
03___PRT_ALL_CURVES
100
AcDbLine
 62
2
  6
CONTINUOUS
 10
606.2492042547
 20
713.393419458
 11
604.8367134562
 21
709.7941174965
  0
LINE
  5
24D
100
AcDbEntity
  8
03___PRT_ALL_CURVES
100
AcDbLine
 62
2
  6
CONTINUOUS
 10
606.6125937774
 20
712.3608164578
 11
606.1418549938
 21
711.1615751947
  0
LINE
  5
24E
100
AcDbEntity
  8
03___PRT_ALL_CURVES
100
AcDbLine
 62
2
  6
CONTINUOUS
 10
605.6044393994
 20
709.7941174965
 11
605.8877229295
 21
710.5139036904
  0
LINE
  5
24F
100
AcDbEntity
  8
03___PRT_ALL_CURVES
100
AcDbLine
 62
2
  6
CONTINUOUS
 10
571.3925128977
 20
709.3926828739
 11
571.3925128977
 21
714.192852493
  0
LINE
  5
250
100
AcDbEntity
  8
03___PRT_ALL_CURVES
100
AcDbLine
 62
2
  6
CONTINUOUS
 10
571.7926239726
 20
709.3927020323
 11
571.7926239726
 21
714.1928716515
  0
LINE
  5
251
100
AcDbEntity
  8
03___PRT_ALL_CURVES
100
AcDbLine
 62
2
  6
CONTINUOUS
 10
575.04071098
 20
713.393419458
 11
575.04071098
 21
712.7412235834
  0
LINE
  5
252
100
AcDbEntity
  8
03___PRT_ALL_CURVES
100
AcDbLine
 62
2
  6
CONTINUOUS
 10
575.8846144815
 20
712.7412235834
 11
575.8846144815
 21
709.7941174965
  0
LINE
  5
253
100
AcDbEntity
  8
03___PRT_ALL_CURVES
100
AcDbLine
 62
2
  6
CONTINUOUS
 10
576.6709422006
 20
712.7412235834
 11
576.6709422006
 21
709.7941174965
  0
LINE
  5
254
100
AcDbEntity
  8
03___PRT_ALL_CURVES
100
AcDbLine
 62
2
  6
CONTINUOUS
 10
577.514845702
 20
713.393419458
 11
577.514845702
 21
712.7412235834
  0
LINE
  5
255
100
AcDbEntity
  8
03___PRT_ALL_CURVES
100
AcDbLine
 62
2
  6
CONTINUOUS
 10
578.0153574705
 20
709.7941174965
 11
578.0153574705
 21
713.393419458
  0
LINE
  5
256
100
AcDbEntity
  8
03___PRT_ALL_CURVES
100
AcDbLine
 62
2
  6
CONTINUOUS
 10
578.8016851896
 20
711.1622853968
 11
578.8016851896
 21
709.7941174965
  0
LINE
  5
257
100
AcDbEntity
  8
03___PRT_ALL_CURVES
100
AcDbLine
 62
2
  6
CONTINUOUS
 10
578.8016851896
 20
711.7908375461
 11
578.8016851896
 21
712.7412235834
  0
LINE
  5
258
100
AcDbEntity
  8
02___PRT_ALL_AXES
100
AcDbLine
 62
7
  6
CONTINUOUS
 10
589.9442697745
 20
738.9819453076
 11
589.9442697745
 21
736.9509654313
  0
LINE
  5
259
100
AcDbEntity
  8
02___PRT_ALL_AXES
100
AcDbLine
 62
7
  6
CONTINUOUS
 10
589.9442697745
 20
735.012925184
 11
589.9442697745
 21
732.9819453076
  0
LINE
  5
25A
100
AcDbEntity
  8
0
100
AcDbLine
 62
3
  6
CONTINUOUS
 10
591.392682699
 20
722.5819453076
 11
591.392682699
 21
725.2819453076
  0
LINE
  5
25B
100
AcDbEntity
  8
02___PRT_ALL_AXES
100
AcDbLine
 62
7
  6
CONTINUOUS
 10
592.8410956236
 20
738.9819453076
 11
592.8410956236
 21
736.9509654313
  0
LINE
  5
25C
100
AcDbEntity
  8
02___PRT_ALL_AXES
100
AcDbLine
 62
7
  6
CONTINUOUS
 10
592.8410956236
 20
735.012925184
 11
592.8410956236
 21
732.9819453076
  0
LINE
  5
25D
100
AcDbEntity
  8
03___PRT_ALL_CURVES
100
AcDbLine
 62
2
  6
CONTINUOUS
 10
593.224262888
 20
713.393419458
 11
593.224262888
 21
709.7941174965
  0
LINE
  5
25E
100
AcDbEntity
  8
03___PRT_ALL_CURVES
100
AcDbLine
 62
2
  6
CONTINUOUS
 10
594.0105906071
 20
709.7941174965
 11
594.0105906071
 21
712.1842050162
  0
LINE
  5
25F
100
AcDbEntity
  8
03___PRT_ALL_CURVES
100
AcDbLine
 62
2
  6
CONTINUOUS
 10
595.614377878
 20
713.393419458
 11
595.614377878
 21
711.0033319383
  0
LINE
  5
260
100
AcDbEntity
  8
03___PRT_ALL_CURVES
100
AcDbLine
 62
2
  6
CONTINUOUS
 10
596.4007055971
 20
709.7941174965
 11
596.4007055971
 21
713.393419458
  0
LINE
  5
261
100
AcDbEntity
  8
03___PRT_ALL_CURVES
100
AcDbLine
 62
2
  6
CONTINUOUS
 10
596.900987985
 20
713.393419458
 11
596.900987985
 21
712.7412235834
  0
LINE
  5
262
100
AcDbEntity
  8
03___PRT_ALL_CURVES
100
AcDbLine
 62
2
  6
CONTINUOUS
 10
597.7448914865
 20
712.7412235834
 11
597.7448914865
 21
709.7941174965
  0
LINE
  5
263
100
AcDbEntity
  8
03___PRT_ALL_CURVES
100
AcDbLine
 62
2
  6
CONTINUOUS
 10
598.5312192056
 20
709.7941174965
 11
598.5312192056
 21
712.7412235834
  0
LINE
  5
264
100
AcDbEntity
  8
03___PRT_ALL_CURVES
100
AcDbLine
 62
2
  6
CONTINUOUS
 10
599.3751227071
 20
712.7412235834
 11
599.3751227071
 21
713.393419458
  0
LINE
  5
265
100
AcDbEntity
  8
03___PRT_ALL_CURVES
100
AcDbLine
 62
2
  6
CONTINUOUS
 10
599.8763074242
 20
713.393419458
 11
599.8763074242
 21
709.7941174965
  0
LINE
  5
266
100
AcDbEntity
  8
03___PRT_ALL_CURVES
100
AcDbLine
 62
2
  6
CONTINUOUS
 10
600.6626351433
 20
709.7941174965
 11
600.6626351433
 21
713.393419458
  0
LINE
  5
267
100
AcDbEntity
  8
03___PRT_ALL_CURVES
100
AcDbLine
 62
2
  6
CONTINUOUS
 10
601.2621001424
 20
713.393419458
 11
601.2621001424
 21
709.7941174965
  0
LINE
  5
268
100
AcDbEntity
  8
03___PRT_ALL_CURVES
100
AcDbLine
 62
2
  6
CONTINUOUS
 10
602.0484278615
 20
709.7941174965
 11
602.0484278615
 21
712.1842050162
  0
LINE
  5
269
100
AcDbEntity
  8
03___PRT_ALL_CURVES
100
AcDbLine
 62
2
  6
CONTINUOUS
 10
603.6522151324
 20
713.393419458
 11
603.6522151324
 21
711.0033319383
  0
LINE
  5
26A
100
AcDbEntity
  8
03___PRT_ALL_CURVES
100
AcDbLine
 62
2
  6
CONTINUOUS
 10
604.4385428515
 20
709.7941174965
 11
604.4385428515
 21
713.393419458
  0
LINE
  5
26B
100
AcDbEntity
  8
03___PRT_ALL_CURVES
100
AcDbLine
 62
2
  6
CONTINUOUS
 10
610.9927414254
 20
714.1928716514
 11
610.9927414254
 21
709.3927020322
  0
LINE
  5
26C
100
AcDbEntity
  8
03___PRT_ALL_CURVES
100
AcDbLine
 62
2
  6
CONTINUOUS
 10
611.3928525003
 20
714.192852493
 11
611.3928525003
 21
709.3926828739
  0
LINE
  5
26D
100
AcDbEntity
  8
03___PRT_ALL_CURVES
100
AcDbLine
 62
2
  6
CONTINUOUS
 10
589.1205496303
 20
709.7941174965
 11
588.531282087
 21
713.393419458
  0
LINE
  5
26E
100
AcDbEntity
  8
03___PRT_ALL_CURVES
100
AcDbLine
 62
2
  6
CONTINUOUS
 10
587.9711242177
 20
712.1224589127
 11
588.3504831138
 21
709.7941174965
  0
LINE
  5
26F
100
AcDbEntity
  8
03___PRT_ALL_CURVES
100
AcDbLine
 62
2
  6
CONTINUOUS
 10
582.707441797
 20
712.3606763412
 11
583.178731811
 21
711.1615751947
  0
LINE
  5
270
100
AcDbEntity
  8
03___PRT_ALL_CURVES
100
AcDbLine
 62
2
  6
CONTINUOUS
 10
583.4329800368
 20
710.5139036904
 11
583.7157166363
 21
709.7941174965
  0
LINE
  5
271
100
AcDbEntity
  8
03___PRT_ALL_CURVES
100
AcDbLine
 62
2
  6
CONTINUOUS
 10
583.0710254765
 20
713.393419458
 11
584.4834425796
 21
709.7941174965
  0
LINE
  5
272
100
AcDbEntity
  8
03___PRT_ALL_CURVES
100
AcDbLine
 62
2
  6
CONTINUOUS
 10
585.9370709552
 20
712.120724672
 11
586.7248986927
 21
709.7941174965
  0
LINE
  5
273
100
AcDbEntity
  8
03___PRT_ALL_CURVES
100
AcDbLine
 62
2
  6
CONTINUOUS
 10
586.953968429
 20
711.052431075
 11
586.1635178148
 21
713.393419458
  0
LINE
  5
274
100
AcDbEntity
  8
03___PRT_ALL_CURVES
100
AcDbLine
 62
2
  6
CONTINUOUS
 10
579.7591470133
 20
709.7941174965
 11
578.8016851896
 21
711.1622853968
  0
LINE
  5
275
100
AcDbEntity
  8
03___PRT_ALL_CURVES
100
AcDbLine
 62
2
  6
CONTINUOUS
 10
579.5682643547
 20
711.314437396
 11
580.6321479157
 21
709.7941174965
  0
LINE
  5
276
100
AcDbEntity
  8
03___PRT_ALL_CURVES
100
AcDbLine
 62
2
  6
CONTINUOUS
 10
607.3380127719
 20
710.5139036904
 11
607.6207493713
 21
709.7941174965
  0
LINE
  5
277
100
AcDbEntity
  8
03___PRT_ALL_CURVES
100
AcDbLine
 62
2
  6
CONTINUOUS
 10
606.6125937774
 20
712.3608164578
 11
607.0833325609
 21
711.1615751947
  0
LINE
  5
278
100
AcDbEntity
  8
03___PRT_ALL_CURVES
100
AcDbLine
 62
2
  6
CONTINUOUS
 10
608.3884753146
 20
709.7941174965
 11
606.9759839385
 21
713.393419458
  0
LINE
  5
279
100
AcDbEntity
  8
03___PRT_ALL_CURVES
100
AcDbLine
 62
2
  6
CONTINUOUS
 10
594.0105906071
 20
712.1842050162
 11
595.614377878
 21
709.7941174965
  0
LINE
  5
27A
100
AcDbEntity
  8
03___PRT_ALL_CURVES
100
AcDbLine
 62
2
  6
CONTINUOUS
 10
595.614377878
 20
711.0033319383
 11
594.0105906071
 21
713.393419458
  0
LINE
  5
27B
100
AcDbEntity
  8
03___PRT_ALL_CURVES
100
AcDbLine
 62
2
  6
CONTINUOUS
 10
602.0484278615
 20
712.1842050162
 11
603.6522151324
 21
709.7941174965
  0
LINE
  5
27C
100
AcDbEntity
  8
03___PRT_ALL_CURVES
100
AcDbLine
 62
2
  6
CONTINUOUS
 10
603.6522151324
 20
711.0033319383
 11
602.0484278615
 21
713.393419458
  0
LINE
  5
27D
100
AcDbEntity
  8
02___PRT_ALL_AXES
100
AcDbLine
 62
7
  6
CONTINUOUS
 10
693.392682699
 20
722.5819453076
 11
693.392682699
 21
466.6906434945
  0
LINE
  5
27E
100
AcDbEntity
  8
02___PRT_ALL_AXES
100
AcDbLine
 62
7
  6
CONTINUOUS
 10
696.282682699
 20
738.9819453076
 11
696.282682699
 21
736.9509654313
  0
LINE
  5
27F
100
AcDbEntity
  8
02___PRT_ALL_AXES
100
AcDbLine
 62
7
  6
CONTINUOUS
 10
696.282682699
 20
735.012925184
 11
696.282682699
 21
732.9819453076
  0
LINE
  5
280
100
AcDbEntity
  8
02___PRT_ALL_AXES
100
AcDbLine
 62
7
  6
CONTINUOUS
 10
696.292682699
 20
747.3194675634
 11
696.292682699
 21
738.9819453076
  0
LINE
  5
281
100
AcDbEntity
  8
02___PRT_ALL_AXES
100
AcDbLine
 62
7
  6
CONTINUOUS
 10
696.292682699
 20
732.9819453076
 11
696.292682699
 21
725.2819453076
  0
LINE
  5
282
100
AcDbEntity
  8
03___PRT_ALL_CURVES
100
AcDbLine
 62
2
  6
CONTINUOUS
 10
609.7930614988
 20
707.7928918723
 11
572.9923029663
 21
707.7928918723
  0
LINE
  5
283
100
AcDbEntity
  8
03___PRT_ALL_CURVES
100
AcDbLine
 62
2
  6
CONTINUOUS
 10
609.7930614989
 20
708.1928170778
 11
572.9923029663
 21
708.1928170778
  0
LINE
  5
284
100
AcDbEntity
  8
03___PRT_ALL_CURVES
100
AcDbLine
 62
2
  6
CONTINUOUS
 10
584.4834425796
 20
709.7941174965
 11
583.7157166364
 21
709.7941174965
  0
LINE
  5
285
100
AcDbEntity
  8
03___PRT_ALL_CURVES
100
AcDbLine
 62
2
  6
CONTINUOUS
 10
581.6994066644
 20
709.7941174965
 11
580.9316807288
 21
709.7941174965
  0
LINE
  5
286
100
AcDbEntity
  8
03___PRT_ALL_CURVES
100
AcDbLine
 62
2
  6
CONTINUOUS
 10
580.6321479157
 20
709.7941174965
 11
579.7591470524
 21
709.7941174965
  0
LINE
  5
287
100
AcDbEntity
  8
03___PRT_ALL_CURVES
100
AcDbLine
 62
2
  6
CONTINUOUS
 10
578.8016851896
 20
709.7941174965
 11
578.0153574749
 21
709.7941174965
  0
LINE
  5
288
100
AcDbEntity
  8
03___PRT_ALL_CURVES
100
AcDbLine
 62
2
  6
CONTINUOUS
 10
576.6709422006
 20
709.7941174965
 11
575.884614489
 21
709.7941174965
  0
LINE
  5
289
100
AcDbEntity
  8
03___PRT_ALL_CURVES
100
AcDbLine
 62
2
  6
CONTINUOUS
 10
584.7877408745
 20
709.7941174965
 11
585.5578074051
 21
709.7941174965
  0
LINE
  5
28A
100
AcDbEntity
  8
03___PRT_ALL_CURVES
100
AcDbLine
 62
2
  6
CONTINUOUS
 10
586.7248986927
 20
709.7941174965
 11
587.1837835625
 21
709.7941174965
  0
LINE
  5
28B
100
AcDbEntity
  8
03___PRT_ALL_CURVES
100
AcDbLine
 62
2
  6
CONTINUOUS
 10
588.3504831138
 20
709.7941174965
 11
589.1205496157
 21
709.7941174965
  0
LINE
  5
28C
100
AcDbEntity
  8
03___PRT_ALL_CURVES
100
AcDbLine
 62
2
  6
CONTINUOUS
 10
593.224262888
 20
709.7941174965
 11
594.0105905862
 21
709.7941174965
  0
LINE
  5
28D
100
AcDbEntity
  8
03___PRT_ALL_CURVES
100
AcDbLine
 62
2
  6
CONTINUOUS
 10
595.614377878
 20
709.7941174965
 11
596.4007056137
 21
709.7941174965
  0
LINE
  5
28E
100
AcDbEntity
  8
03___PRT_ALL_CURVES
100
AcDbLine
 62
2
  6
CONTINUOUS
 10
597.7448914865
 20
709.7941174965
 11
598.531219226
 21
709.7941174965
  0
LINE
  5
28F
100
AcDbEntity
  8
03___PRT_ALL_CURVES
100
AcDbLine
 62
2
  6
CONTINUOUS
 10
599.8763074242
 20
709.7941174965
 11
600.6626351326
 21
709.7941174965
  0
LINE
  5
290
100
AcDbEntity
  8
03___PRT_ALL_CURVES
100
AcDbLine
 62
2
  6
CONTINUOUS
 10
601.2621001424
 20
709.7941174965
 11
602.0484278519
 21
709.7941174965
  0
LINE
  5
291
100
AcDbEntity
  8
03___PRT_ALL_CURVES
100
AcDbLine
 62
2
  6
CONTINUOUS
 10
603.6522151324
 20
709.7941174965
 11
604.4385428702
 21
709.7941174965
  0
LINE
  5
292
100
AcDbEntity
  8
03___PRT_ALL_CURVES
100
AcDbLine
 62
2
  6
CONTINUOUS
 10
604.8367134562
 20
709.7941174965
 11
605.6044394207
 21
709.7941174965
  0
LINE
  5
293
100
AcDbEntity
  8
03___PRT_ALL_CURVES
100
AcDbLine
 62
2
  6
CONTINUOUS
 10
607.6207493713
 20
709.7941174965
 11
608.3884752931
 21
709.7941174965
  0
LINE
  5
294
100
AcDbEntity
  8
03___PRT_ALL_CURVES
100
AcDbLine
 62
2
  6
CONTINUOUS
 10
583.4329800368
 20
710.5139036904
 11
581.9826901801
 21
710.5139036904
  0
LINE
  5
295
100
AcDbEntity
  8
03___PRT_ALL_CURVES
100
AcDbLine
 62
2
  6
CONTINUOUS
 10
605.8877229295
 20
710.5139036904
 11
607.3380127729
 21
710.5139036904
  0
LINE
  5
296
100
AcDbEntity
  8
03___PRT_ALL_CURVES
100
AcDbLine
 62
2
  6
CONTINUOUS
 10
607.0833325609
 20
711.1615751947
 11
606.141854961
 21
711.1615751947
  0
LINE
  5
297
100
AcDbEntity
  8
03___PRT_ALL_CURVES
100
AcDbLine
 62
2
  6
CONTINUOUS
 10
583.178731811
 20
711.1615751947
 11
582.2372542525
 21
711.1615751947
  0
LINE
  5
298
100
AcDbEntity
  8
03___PRT_ALL_CURVES
100
AcDbLine
 62
2
  6
CONTINUOUS
 10
579.1046915273
 20
711.7908375461
 11
578.8016852011
 21
711.7908375461
  0
LINE
  5
299
100
AcDbEntity
  8
03___PRT_ALL_CURVES
100
AcDbLine
 62
2
  6
CONTINUOUS
 10
577.514845702
 20
712.7412235834
 11
576.6709421882
 21
712.7412235834
  0
LINE
  5
29A
100
AcDbEntity
  8
03___PRT_ALL_CURVES
100
AcDbLine
 62
2
  6
CONTINUOUS
 10
575.8846144815
 20
712.7412235834
 11
575.0407110051
 21
712.7412235834
  0
LINE
  5
29B
100
AcDbEntity
  8
03___PRT_ALL_CURVES
100
AcDbLine
 62
2
  6
CONTINUOUS
 10
578.8016851896
 20
712.7412235834
 11
579.1046910915
 21
712.7412235834
  0
LINE
  5
29C
100
AcDbEntity
  8
03___PRT_ALL_CURVES
100
AcDbLine
 62
2
  6
CONTINUOUS
 10
596.900987985
 20
712.7412235834
 11
597.7448915092
 21
712.7412235834
  0
LINE
  5
29D
100
AcDbEntity
  8
03___PRT_ALL_CURVES
100
AcDbLine
 62
2
  6
CONTINUOUS
 10
598.5312192056
 20
712.7412235834
 11
599.3751226635
 21
712.7412235834
  0
LINE
  5
29E
100
AcDbEntity
  8
03___PRT_ALL_CURVES
100
AcDbLine
 62
2
  6
CONTINUOUS
 10
606.9759839385
 20
713.393419458
 11
606.24920425
 21
713.393419458
  0
LINE
  5
29F
100
AcDbEntity
  8
03___PRT_ALL_CURVES
100
AcDbLine
 62
2
  6
CONTINUOUS
 10
604.4385428515
 20
713.393419458
 11
603.6522151136
 21
713.393419458
  0
LINE
  5
2A0
100
AcDbEntity
  8
03___PRT_ALL_CURVES
100
AcDbLine
 62
2
  6
CONTINUOUS
 10
602.0484278615
 20
713.393419458
 11
601.262100152
 21
713.393419458
  0
LINE
  5
2A1
100
AcDbEntity
  8
03___PRT_ALL_CURVES
100
AcDbLine
 62
2
  6
CONTINUOUS
 10
600.6626351433
 20
713.393419458
 11
599.8763074349
 21
713.393419458
  0
LINE
  5
2A2
100
AcDbEntity
  8
03___PRT_ALL_CURVES
100
AcDbLine
 62
2
  6
CONTINUOUS
 10
599.3751227071
 20
713.393419458
 11
596.9009878907
 21
713.393419458
  0
LINE
  5
2A3
100
AcDbEntity
  8
03___PRT_ALL_CURVES
100
AcDbLine
 62
2
  6
CONTINUOUS
 10
596.4007055971
 20
713.393419458
 11
595.6143778614
 21
713.393419458
  0
LINE
  5
2A4
100
AcDbEntity
  8
03___PRT_ALL_CURVES
100
AcDbLine
 62
2
  6
CONTINUOUS
 10
594.0105906071
 20
713.393419458
 11
593.2242629089
 21
713.393419458
  0
LINE
  5
2A5
100
AcDbEntity
  8
03___PRT_ALL_CURVES
100
AcDbLine
 62
2
  6
CONTINUOUS
 10
588.531282087
 20
713.393419458
 11
587.7449543677
 21
713.393419458
  0
LINE
  5
2A6
100
AcDbEntity
  8
03___PRT_ALL_CURVES
100
AcDbLine
 62
2
  6
CONTINUOUS
 10
586.1635178148
 20
713.393419458
 11
585.3771900924
 21
713.393419458
  0
LINE
  5
2A7
100
AcDbEntity
  8
03___PRT_ALL_CURVES
100
AcDbLine
 62
2
  6
CONTINUOUS
 10
583.0710254765
 20
713.393419458
 11
582.344245809
 21
713.393419458
  0
LINE
  5
2A8
100
AcDbEntity
  8
03___PRT_ALL_CURVES
100
AcDbLine
 62
2
  6
CONTINUOUS
 10
577.514845702
 20
713.393419458
 11
575.0407109533
 21
713.393419458
  0
LINE
  5
2A9
100
AcDbEntity
  8
03___PRT_ALL_CURVES
100
AcDbLine
 62
2
  6
CONTINUOUS
 10
578.0153574705
 20
713.393419458
 11
579.3610072083
 21
713.393419458
  0
LINE
  5
2AA
100
AcDbEntity
  8
03___PRT_ALL_CURVES
100
AcDbLine
 62
2
  6
CONTINUOUS
 10
572.9923038992
 20
715.3927566059
 11
609.7930624317
 21
715.3927566059
  0
LINE
  5
2AB
100
AcDbEntity
  8
03___PRT_ALL_CURVES
100
AcDbLine
 62
2
  6
CONTINUOUS
 10
572.9923038992
 20
715.7926434945
 11
609.7930624317
 21
715.7926434945
  0
LINE
  5
2AC
100
AcDbEntity
  8
0
100
AcDbLine
 62
3
  6
CONTINUOUS
 10
485.542682699
 20
722.5819453076
 11
697.242682699
 21
722.5819453076
  0
LINE
  5
2AD
100
AcDbEntity
  8
0
100
AcDbLine
 62
3
  6
CONTINUOUS
 10
485.542682699
 20
725.2819453076
 11
697.242682699
 21
725.2819453076
  0
LINE
  5
2AE
100
AcDbEntity
  8
02___PRT_ALL_AXES
100
AcDbLine
 62
7
  6
CONTINUOUS
 10
696.2926826813
 20
732.9819453076
 11
696.282682699
 21
732.9819453076
  0
LINE
  5
2AF
100
AcDbEntity
  8
02___PRT_ALL_AXES
100
AcDbLine
 62
7
  6
CONTINUOUS
 10
592.8410956236
 20
732.9819453076
 11
589.9442697745
 21
732.9819453076
  0
LINE
  5
2B0
100
AcDbEntity
  8
02___PRT_ALL_AXES
100
AcDbLine
 62
7
  6
CONTINUOUS
 10
486.502682699
 20
732.9819453076
 11
486.4926827167
 21
732.9819453076
  0
LINE
  5
2B1
100
AcDbEntity
  8
02___PRT_ALL_AXES
100
AcDbLine
 62
7
  6
CONTINUOUS
 10
696.2926826813
 20
738.9819453076
 11
696.282682699
 21
738.9819453076
  0
LINE
  5
2B2
100
AcDbEntity
  8
02___PRT_ALL_AXES
100
AcDbLine
 62
7
  6
CONTINUOUS
 10
592.8410956236
 20
738.9819453076
 11
589.9442697745
 21
738.9819453076
  0
LINE
  5
2B3
100
AcDbEntity
  8
02___PRT_ALL_AXES
100
AcDbLine
 62
7
  6
CONTINUOUS
 10
486.502682699
 20
738.9819453076
 11
486.4926827167
 21
738.9819453076
  0
LINE
  5
2B4
100
AcDbEntity
  8
0
100
AcDbLine
 62
7
  6
CONTINUOUS
 10
696.292682699
 20
747.3194675634
 11
486.492682699
 21
747.3194675634
  0
LINE
  5
2B5
100
AcDbEntity
  8
02___PRT_ALL_AXES
100
AcDbLine
 62
7
  6
CONTINUOUS
 10
679.1660471741
 20
439.6686808646
 11
677.1925290326
 21
437.3004590949
  0
LINE
  5
2B6
100
AcDbEntity
  8
0
100
AcDbLine
 62
7
  6
CONTINUOUS
 10
501.642682699
 20
751.955342728
 11
501.5793533866
 21
751.954540479
  0
LINE
  5
2B7
100
AcDbEntity
  8
0
100
AcDbLine
 62
7
  6
CONTINUOUS
 10
693.3802895366
 20
750.7697890273
 11
489.4050758614
 21
750.7697890273
  0
LINE
  5
2B8
100
AcDbEntity
  8
0
100
AcDbLine
 62
7
  6
CONTINUOUS
 10
681.2060120114
 20
751.954540479
 11
501.5793533866
 21
751.954540479
  0
LINE
  5
2B9
100
AcDbEntity
  8
0
100
AcDbLine
 62
7
  6
CONTINUOUS
 10
681.124008254
 20
751.955342728
 11
501.642682699
 21
751.955342728
  0
LINE
  5
2BA
100
AcDbEntity
  8
0
100
AcDbLine
 62
7
  6
CONTINUOUS
 10
681.142682699
 20
751.955342728
 11
681.2060120114
 21
751.954540479
  0
LINE
  5
2BB
100
AcDbEntity
  8
02___PRT_ALL_AXES
100
AcDbLine
 62
7
  6
CONTINUOUS
 10
589.892682699
 20
338.3070955105
 11
589.892682699
 21
336.3093981532
  0
LINE
  5
2BC
100
AcDbEntity
  8
0
100
AcDbLine
 62
7
  6
CONTINUOUS
 10
589.892682699
 20
165.835796369
 11
589.892682699
 21
163.8380991732
  0
LINE
  5
2BD
100
AcDbEntity
  8
02___PRT_ALL_AXES
100
AcDbLine
 62
7
  6
CONTINUOUS
 10
589.892682699
 20
163.8380991732
 11
589.892682699
 21
165.835796369
  0
LINE
  5
2BE
100
AcDbEntity
  8
0
100
AcDbLine
 62
7
  6
CONTINUOUS
 10
589.892682699
 20
336.3093981532
 11
589.892682699
 21
338.3070955105
  0
LINE
  5
2BF
100
AcDbEntity
  8
0
100
AcDbLine
 62
3
  6
CONTINUOUS
 10
591.392682699
 20
358.2725973418
 11
591.392682699
 21
356.0548340688
  0
LINE
  5
2C0
100
AcDbEntity
  8
0
100
AcDbLine
 62
7
  6
CONTINUOUS
 10
591.392682699
 20
146.1657389317
 11
591.392682699
 21
146.0903606149
  0
LINE
  5
2C1
100
AcDbEntity
  8
0
100
AcDbLine
 62
3
  6
CONTINUOUS
 10
591.392682699
 20
143.8725973418
 11
591.392682699
 21
146.0903606149
  0
LINE
  5
2C2
100
AcDbEntity
  8
0
100
AcDbLine
 62
7
  6
CONTINUOUS
 10
591.392682699
 20
355.979455752
 11
591.392682699
 21
356.0548340688
  0
LINE
  5
2C3
100
AcDbEntity
  8
02___PRT_ALL_AXES
100
AcDbLine
 62
7
  6
CONTINUOUS
 10
592.892682699
 20
338.3070955105
 11
592.892682699
 21
336.30939826
  0
LINE
  5
2C4
100
AcDbEntity
  8
0
100
AcDbLine
 62
7
  6
CONTINUOUS
 10
592.892682699
 20
165.8357967311
 11
592.892682699
 21
163.8380991732
  0
LINE
  5
2C5
100
AcDbEntity
  8
02___PRT_ALL_AXES
100
AcDbLine
 62
7
  6
CONTINUOUS
 10
592.892682699
 20
163.8380991732
 11
592.892682699
 21
165.8357967311
  0
LINE
  5
2C6
100
AcDbEntity
  8
0
100
AcDbLine
 62
7
  6
CONTINUOUS
 10
592.892682699
 20
336.30939826
 11
592.892682699
 21
338.3070955105
  0
ARC
  5
2C7
100
AcDbEntity
  8
02___PRT_ALL_AXES
100
AcDbCircle
 62
7
  6
CONTINUOUS
 10
381.4536796581
 20
735.9819453076
 40
105.0534722886
100
AcDbArc
 50
359.4714924744
 51
0.5285075256
  0
ARC
  5
2C8
100
AcDbEntity
  8
02___PRT_ALL_AXES
100
AcDbCircle
 62
7
  6
CONTINUOUS
 10
801.3316857377
 20
735.9819453076
 40
105.0534722863
100
AcDbArc
 50
179.4714924744
 51
180.5285075256
  0
ARC
  5
2C9
100
AcDbEntity
  8
02___PRT_ALL_AXES
100
AcDbCircle
 62
7
  6
CONTINUOUS
 10
679.042682699
 20
666.5819453076
 40
85.4
100
AcDbArc
 50
80.3349737465
 51
88.5484438002
  0
ARC
  5
2CA
100
AcDbEntity
  8
02___PRT_ALL_AXES
100
AcDbCircle
 62
7
  6
CONTINUOUS
 10
503.742682699
 20
666.5819453076
 40
85.4
100
AcDbArc
 50
91.4515561998
 51
99.6650262535
  0
ARC
  5
2CB
100
AcDbEntity
  8
02___PRT_ALL_AXES
100
AcDbCircle
 62
7
  6
CONTINUOUS
 10
665.0909585611
 20
464.9406434945
 40
28.8017241379
100
AcDbArc
 50
300.4535403146
 51
360.0
  0
ARC
  5
2CC
100
AcDbEntity
  8
02___PRT_ALL_AXES
100
AcDbCircle
 62
7
  6
CONTINUOUS
 10
517.6944068369
 20
464.9406434945
 40
28.8017241379
100
AcDbArc
 50
180.0
 51
239.5464596854
  0
ARC
  5
2CD
100
AcDbEntity
  8
0
100
AcDbCircle
 62
7
  6
CONTINUOUS
 10
692.792682699
 20
747.3194675634
 40
3.5
100
AcDbArc
 50
0.0
 51
80.3349737465
  0
ARC
  5
2CE
100
AcDbEntity
  8
0
100
AcDbCircle
 62
7
  6
CONTINUOUS
 10
489.992682699
 20
747.3194675634
 40
3.5
100
AcDbArc
 50
99.6650262535
 51
180.0
  0
ARC
  5
2CF
100
AcDbEntity
  8
0
100
AcDbCircle
 62
7
  6
CONTINUOUS
 10
502.0828756647
 20
438.3883120653
 40
2.0
100
AcDbArc
 50
39.8055710923
 51
59.5464596854
  0
ARC
  5
2D0
100
AcDbEntity
  8
0
100
AcDbCircle
 62
7
  6
CONTINUOUS
 10
680.7024897333
 20
438.3883120653
 40
2.0
100
AcDbArc
 50
120.4535403146
 51
140.1944289077
  0
ARC
  5
2D1
100
AcDbEntity
  8
0
100
AcDbCircle
 62
7
  6
CONTINUOUS
 10
491.142682699
 20
466.6906434945
 40
1.75
100
AcDbArc
 50
180.0
 51
270.0
  0
ARC
  5
2D2
100
AcDbEntity
  8
0
100
AcDbCircle
 62
7
  6
CONTINUOUS
 10
691.642682699
 20
466.6906434945
 40
1.75
100
AcDbArc
 50
270.0
 51
360.0
  0
ARC
  5
2D3
100
AcDbEntity
  8
02___PRT_ALL_AXES
100
AcDbCircle
 62
7
  6
CONTINUOUS
 10
591.3951497725
 20
735.9819453076
 40
1.7447247371
100
AcDbArc
 50
146.2616564494
 51
213.7383435506
  0
ARC
  5
2D4
100
AcDbEntity
  8
02___PRT_ALL_AXES
100
AcDbCircle
 62
7
  6
CONTINUOUS
 10
591.3902154174
 20
735.9819453076
 40
1.7447247371
100
AcDbArc
 50
326.2616602456
 51
33.7383397544
  0
ARC
  5
2D5
100
AcDbEntity
  8
02___PRT_ALL_AXES
100
AcDbCircle
 62
7
  6
CONTINUOUS
 10
591.392682699
 20
735.9819453076
 40
1.7426703647
100
AcDbArc
 50
213.783393699
 51
326.216606301
  0
ARC
  5
2D6
100
AcDbEntity
  8
02___PRT_ALL_AXES
100
AcDbCircle
 62
7
  6
CONTINUOUS
 10
591.392682699
 20
735.9819453076
 40
1.7426703647
100
AcDbArc
 50
33.783393699
 51
146.216606301
  0
ARC
  5
2D7
100
AcDbEntity
  8
03___PRT_ALL_CURVES
100
AcDbCircle
 62
2
  6
CONTINUOUS
 10
572.9923038992
 20
714.192852493
 40
1.5997910016
100
AcDbArc
 50
90.0
 51
180.0
  0
ARC
  5
2D8
100
AcDbEntity
  8
03___PRT_ALL_CURVES
100
AcDbCircle
 62
2
  6
CONTINUOUS
 10
609.7930614988
 20
709.3926828739
 40
1.5997910016
100
AcDbArc
 50
270.0
 51
360.0
  0
ARC
  5
2D9
100
AcDbEntity
  8
03___PRT_ALL_CURVES
100
AcDbCircle
 62
2
  6
CONTINUOUS
 10
572.9923038992
 20
709.3926828739
 40
1.5997910016
100
AcDbArc
 50
180.0
 51
270.0
  0
ARC
  5
2DA
100
AcDbEntity
  8
0
100
AcDbCircle
 62
3
  6
CONTINUOUS
 10
697.242682699
 20
723.9319453076
 40
1.35
100
AcDbArc
 50
270.0
 51
90.0
  0
ARC
  5
2DB
100
AcDbEntity
  8
0
100
AcDbCircle
 62
3
  6
CONTINUOUS
 10
485.542682699
 20
723.9319453076
 40
1.35
100
AcDbArc
 50
90.0
 51
270.0
  0
ARC
  5
2DC
100
AcDbEntity
  8
03___PRT_ALL_CURVES
100
AcDbCircle
 62
2
  6
CONTINUOUS
 10
579.3605610232
 20
712.3435530429
 40
1.0498665099
100
AcDbArc
 50
281.410550697
 51
89.9756484361
  0
ARC
  5
2DD
100
AcDbEntity
  8
0
100
AcDbCircle
 62
7
  6
CONTINUOUS
 10
506.361057645
 20
437.9406434945
 40
1.0
100
AcDbArc
 50
219.8055710923
 51
270.0
  0
ARC
  5
2DE
100
AcDbEntity
  8
0
100
AcDbCircle
 62
7
  6
CONTINUOUS
 10
676.424307753
 20
437.9406434945
 40
1.0
100
AcDbArc
 50
270.0
 51
320.1944289077
  0
ARC
  5
2DF
100
AcDbEntity
  8
03___PRT_ALL_CURVES
100
AcDbCircle
 62
2
  6
CONTINUOUS
 10
578.9727450357
 20
712.2661963453
 40
0.6771596316
100
AcDbArc
 50
359.9664129064
 51
13.332025493
  0
ARC
  5
2E0
100
AcDbEntity
  8
03___PRT_ALL_CURVES
100
AcDbCircle
 62
2
  6
CONTINUOUS
 10
579.1044041137
 20
712.4150581761
 40
0.6242206962
100
AcDbArc
 50
270.0263810342
 51
304.1952312714
  0
ARC
  5
2E1
100
AcDbEntity
  8
03___PRT_ALL_CURVES
100
AcDbCircle
 62
2
  6
CONTINUOUS
 10
579.2057946146
 20
712.2661963453
 40
0.4441101137
100
AcDbArc
 50
304.169384428
 51
359.9487878675
  0
CIRCLE
  5
2E2
100
AcDbEntity
  8
0
100
AcDbCircle
 62
3
  6
CONTINUOUS
 10
591.392682699
 20
251.0725973418
 40
107.2
  0
CIRCLE
  5
2E3
100
AcDbEntity
  8
0
100
AcDbCircle
 62
3
  6
CONTINUOUS
 10
591.392682699
 20
251.0725973418
 40
104.9822367269
  0
ARC
  5
2E4
100
AcDbEntity
  8
02___PRT_ALL_AXES
100
AcDbCircle
 62
7
  6
CONTINUOUS
 10
591.392682699
 20
251.0725973418
 40
104.9
100
AcDbArc
 50
359.2088600122
 51
0.0000012611
  0
ARC
  5
2E5
100
AcDbEntity
  8
02___PRT_ALL_AXES
100
AcDbCircle
 62
7
  6
CONTINUOUS
 10
591.392682699
 20
251.0725973418
 40
104.9
100
AcDbArc
 50
89.2088600122
 51
90.7911399878
  0
CIRCLE
  5
2E6
100
AcDbEntity
  8
0
100
AcDbCircle
 62
7
  6
CONTINUOUS
 10
591.392682699
 20
251.0725973418
 40
104.9
  0
CIRCLE
  5
2E7
100
AcDbEntity
  8
0
100
AcDbCircle
 62
7
  6
CONTINUOUS
 10
591.392682699
 20
251.0725973418
 40
101.9876068376
  0
CIRCLE
  5
2E8
100
AcDbEntity
  8
0
100
AcDbCircle
 62
7
  6
CONTINUOUS
 10
591.392682699
 20
251.0725973418
 40
89.8133293124
  0
CIRCLE
  5
2E9
100
AcDbEntity
  8
0
100
AcDbCircle
 62
7
  6
CONTINUOUS
 10
591.392682699
 20
251.0725973418
 40
87.25
  0
ARC
  5
2EA
100
AcDbEntity
  8
0
100
AcDbCircle
 62
7
  6
CONTINUOUS
 10
591.392682699
 20
251.0725973418
 40
86.2637208247
100
AcDbArc
 50
90.9963607269
 51
269.0036392719
  0
ARC
  5
2EB
100
AcDbEntity
  8
0
100
AcDbCircle
 62
7
  6
CONTINUOUS
 10
591.392682699
 20
251.0725973418
 40
86.2637208247
100
AcDbArc
 50
270.9963607269
 51
89.0036392719
  0
CIRCLE
  5
2EC
100
AcDbEntity
  8
0
100
AcDbCircle
 62
3
  6
CONTINUOUS
 10
591.392682699
 20
251.0725973418
 40
85.25
  0
CIRCLE
  5
2ED
100
AcDbEntity
  8
0
100
AcDbCircle
 62
3
  6
CONTINUOUS
 10
591.392682699
 20
251.0725973418
 40
83.75
  0
CIRCLE
  5
2EE
100
AcDbEntity
  8
0
100
AcDbCircle
 62
3
  6
CONTINUOUS
 10
591.392682699
 20
251.0725973418
 40
78.6896594223
  0
CIRCLE
  5
2EF
100
AcDbEntity
  8
0
100
AcDbCircle
 62
3
  6
CONTINUOUS
 10
591.392682699
 20
251.0725973418
 40
77.8818129694
  0
SPLINE
  5
2F0
100
AcDbEntity
  8
03___PRT_ALL_CURVES
100
AcDbSpline
 62
2
  6
CONTINUOUS
 70
0
 71
3
 72
13
 73
9
 74
0
 42
0.0000001
 43
0.0000001
 44
0.0000000001
 40
0.0
 40
0.0
 40
0.0
 40
0.0
 40
0.1666666667
 40
0.3333333333
 40
0.5
 40
0.6666666667
 40
0.8333333333
 40
1.0
 40
1.0
 40
1.0
 40
1.0
 10
610.6411688324
 20
715.0415765477
 30
0.0
 10
610.6784104929
 20
715.004272232
 30
0.0
 10
610.7465825907
 20
714.9250177898
 30
0.0
 10
610.8325271268
 20
714.793767535
 30
0.0
 10
610.9015273026
 20
714.6528462984
 30
0.0
 10
610.9524696552
 20
714.5043341905
 30
0.0
 10
610.9847688494
 20
714.3502404234
 30
0.0
 10
610.9927414254
 20
714.2457337044
 30
0.0
 10
610.9927414254
 20
714.1928716514
 30
0.0
  0
SPLINE
  5
2F1
100
AcDbEntity
  8
03___PRT_ALL_CURVES
100
AcDbSpline
 62
2
  6
CONTINUOUS
 70
0
 71
3
 72
13
 73
9
 74
0
 42
0.0000001
 43
0.0000001
 44
0.0000000001
 40
0.0
 40
0.0
 40
0.0
 40
0.0
 40
0.1666666667
 40
0.3333333333
 40
0.5
 40
0.6666666667
 40
0.8333333333
 40
1.0
 40
1.0
 40
1.0
 40
1.0
 10
609.7930614988
 20
715.3927566059
 30
0.0
 10
609.8448398108
 20
715.3927566059
 30
0.0
 10
609.9474126785
 20
715.3850995683
 30
0.0
 10
610.0988328914
 20
715.3540102145
 30
0.0
 10
610.2463178849
 20
715.3044230187
 30
0.0
 10
610.3880008501
 20
715.2361463412
 30
0.0
 10
610.5215074405
 20
715.1496321497
 30
0.0
 10
610.6027996728
 20
715.0799766421
 30
0.0
 10
610.6411688324
 20
715.0415765476
 30
0.0
  0
SPLINE
  5
2F2
100
AcDbEntity
  8
03___PRT_ALL_CURVES
100
AcDbSpline
 62
2
  6
CONTINUOUS
 70
0
 71
3
 72
21
 73
17
 74
0
 42
0.0000001
 43
0.0000001
 44
0.0000000001
 40
0.0
 40
0.0
 40
0.0
 40
0.0
 40
0.0714285714
 40
0.1428571429
 40
0.2142857143
 40
0.2857142857
 40
0.3571428571
 40
0.4285714286
 40
0.5
 40
0.5714285714
 40
0.6428571429
 40
0.7142857143
 40
0.7857142857
 40
0.8571428571
 40
0.9285714286
 40
1.0
 40
1.0
 40
1.0
 40
1.0
 10
571.7926239726
 20
714.1928716516
 30
0.0
 10
571.7926298166
 20
714.2333846808
 30
0.0
 10
571.7972525117
 20
714.3140160391
 30
0.0
 10
571.8177934854
 20
714.4394527218
 30
0.0
 10
571.8531297708
 20
714.5684395294
 30
0.0
 10
571.9034153957
 20
714.6961274488
 30
0.0
 10
571.9684809196
 20
714.8195354709
 30
0.0
 10
572.0468746109
 20
714.9352703249
 30
0.0
 10
572.1412554558
 20
715.0432026207
 30
0.0
 10
572.2495315372
 20
715.138056575
 30
0.0
 10
572.365273236
 20
715.2169667867
 30
0.0
 10
572.4881445371
 20
715.2817552629
 30
0.0
 10
572.6154193717
 20
715.3317783396
 30
0.0
 10
572.744415556
 20
715.367215371
 30
0.0
 10
572.8703566893
 20
715.3880164096
 30
0.0
 10
572.9514572575
 20
715.3927566059
 30
0.0
 10
572.9923038992
 20
715.3927566059
 30
0.0
  0
SPLINE
  5
2F3
100
AcDbEntity
  8
03___PRT_ALL_CURVES
100
AcDbSpline
 62
2
  6
CONTINUOUS
 70
0
 71
3
 72
17
 73
13
 74
0
 42
0.0000001
 43
0.0000001
 44
0.0000000001
 40
0.0
 40
0.0
 40
0.0
 40
0.0
 40
0.1
 40
0.2
 40
0.3
 40
0.4
 40
0.5
 40
0.6
 40
0.7
 40
0.8
 40
0.9
 40
1.0
 40
1.0
 40
1.0
 40
1.0
 10
571.7926239726
 20
714.1928716514
 30
0.0
 10
571.7926239726
 20
714.2555839448
 30
0.0
 10
571.8037319417
 20
714.3791056727
 30
0.0
 10
571.8480746736
 20
714.5599208149
 30
0.0
 10
571.9186149793
 20
714.7326232182
 30
0.0
 10
572.0144423867
 20
714.8946405638
 30
0.0
 10
572.1347659389
 20
715.0399523156
 30
0.0
 10
572.2802126064
 20
715.1637991221
 30
0.0
 10
572.4438668317
 20
715.2629643117
 30
0.0
 10
572.6191011365
 20
715.3354052754
 30
0.0
 10
572.8034322616
 20
715.3812590371
 30
0.0
 10
572.9287374576
 20
715.3927566059
 30
0.0
 10
572.9923038992
 20
715.3927566059
 30
0.0
  0
SPLINE
  5
2F4
100
AcDbEntity
  8
03___PRT_ALL_CURVES
100
AcDbSpline
 62
2
  6
CONTINUOUS
 70
0
 71
3
 72
17
 73
13
 74
0
 42
0.0000001
 43
0.0000001
 44
0.0000000001
 40
0.0
 40
0.0
 40
0.0
 40
0.0
 40
0.1
 40
0.2
 40
0.3
 40
0.4
 40
0.5
 40
0.6
 40
0.7
 40
0.8
 40
0.9
 40
1.0
 40
1.0
 40
1.0
 40
1.0
 10
572.9923038993
 20
708.1928170778
 30
0.0
 10
572.9295962288
 20
708.1928170778
 30
0.0
 10
572.8060189115
 20
708.2041290214
 30
0.0
 10
572.6250596169
 20
708.2485459591
 30
0.0
 10
572.4517155748
 20
708.318767118
 30
0.0
 10
572.2895207376
 20
708.4151177735
 30
0.0
 10
572.1441808733
 20
708.5363512595
 30
0.0
 10
572.0209774732
 20
708.6811026467
 30
0.0
 10
571.9224750797
 20
708.8440117738
 30
0.0
 10
571.85031418
 20
709.0189502447
 30
0.0
 10
571.8042802458
 20
709.2033870236
 30
0.0
 10
571.7926239726
 20
709.3289516541
 30
0.0
 10
571.7926239726
 20
709.3927020323
 30
0.0
  0
SPLINE
  5
2F5
100
AcDbEntity
  8
03___PRT_ALL_CURVES
100
AcDbSpline
 62
2
  6
CONTINUOUS
 70
0
 71
3
 72
14
 73
10
 74
0
 42
0.0000001
 43
0.0000001
 44
0.0000000001
 40
0.0
 40
0.0
 40
0.0
 40
0.0
 40
0.1428571429
 40
0.2857142857
 40
0.4285714286
 40
0.5714285714
 40
0.7142857143
 40
0.8571428571
 40
1.0
 40
1.0
 40
1.0
 40
1.0
 10
572.992010869
 20
708.1928170778
 30
0.0
 10
572.9038370266
 20
708.1928297951
 30
0.0
 10
572.7302705004
 20
708.2146294939
 30
0.0
 10
572.4719058647
 20
708.3030014943
 30
0.0
 10
572.2344560076
 20
708.4487088565
 30
0.0
 10
572.0404105164
 20
708.6452859302
 30
0.0
 10
571.8986027773
 20
708.8819482102
 30
0.0
 10
571.8133830425
 20
709.1367746711
 30
0.0
 10
571.7926239726
 20
709.306711306
 30
0.0
 10
571.7926239726
 20
709.3927020323
 30
0.0
  0
SPLINE
  5
2F6
100
AcDbEntity
  8
03___PRT_ALL_CURVES
100
AcDbSpline
 62
2
  6
CONTINUOUS
 70
0
 71
3
 72
21
 73
17
 74
0
 42
0.0000001
 43
0.0000001
 44
0.0000000001
 40
0.0
 40
0.0
 40
0.0
 40
0.0
 40
0.0714285714
 40
0.1428571429
 40
0.2142857143
 40
0.2857142857
 40
0.3571428571
 40
0.4285714286
 40
0.5
 40
0.5714285714
 40
0.6428571429
 40
0.7142857143
 40
0.7857142857
 40
0.8571428571
 40
0.9285714286
 40
1.0
 40
1.0
 40
1.0
 40
1.0
 10
610.9927414254
 20
709.3927020322
 30
0.0
 10
610.9927356431
 20
709.3526156834
 30
0.0
 10
610.9882189814
 20
709.2727314574
 30
0.0
 10
610.9680552991
 20
709.1482490822
 30
0.0
 10
610.9332405252
 20
709.0199495455
 30
0.0
 10
610.8835782581
 20
708.8927001034
 30
0.0
 10
610.8191143272
 20
708.7694773365
 30
0.0
 10
610.7410606995
 20
708.6536035806
 30
0.0
 10
610.6469006122
 20
708.5451750713
 30
0.0
 10
610.5391528219
 20
708.4501238527
 30
0.0
 10
610.423646673
 20
708.3710880924
 30
0.0
 10
610.3003055529
 20
708.3054839166
 30
0.0
 10
610.172476842
 20
708.2546332819
 30
0.0
 10
610.0429268317
 20
708.2186965138
 30
0.0
 10
609.9161739728
 20
708.1976085155
 30
0.0
 10
609.8342970183
 20
708.1928170778
 30
0.0
 10
609.7930614989
 20
708.1928170778
 30
0.0
  0
SPLINE
  5
2F7
100
AcDbEntity
  8
03___PRT_ALL_CURVES
100
AcDbSpline
 62
2
  6
CONTINUOUS
 70
0
 71
3
 72
17
 73
13
 74
0
 42
0.0000001
 43
0.0000001
 44
0.0000000001
 40
0.0
 40
0.0
 40
0.0
 40
0.0
 40
0.1
 40
0.2
 40
0.3
 40
0.4
 40
0.5
 40
0.6
 40
0.7
 40
0.8
 40
0.9
 40
1.0
 40
1.0
 40
1.0
 40
1.0
 10
610.9927414254
 20
709.3927020323
 30
0.0
 10
610.9927414254
 20
709.3299985802
 30
0.0
 10
610.9816665831
 20
709.2064862101
 30
0.0
 10
610.9373850631
 20
709.025661924
 30
0.0
 10
610.8669337397
 20
708.8529238881
 30
0.0
 10
610.7711012189
 20
708.6910460907
 30
0.0
 10
610.6506471052
 20
708.5456760627
 30
0.0
 10
610.5053570634
 20
708.4220236543
 30
0.0
 10
610.3413956585
 20
708.3229698125
 30
0.0
 10
610.1662322551
 20
708.2501375424
 30
0.0
 10
609.9819755996
 20
708.204232491
 30
0.0
 10
609.8566494001
 20
708.1928170778
 30
0.0
 10
609.7930614989
 20
708.1928170778
 30
0.0
  0
SPLINE
  5
2F8
100
AcDbEntity
  8
03___PRT_ALL_CURVES
100
AcDbSpline
 62
2
  6
CONTINUOUS
 70
0
 71
3
 72
15
 73
11
 74
0
 42
0.0000001
 43
0.0000001
 44
0.0000000001
 40
0.0
 40
0.0
 40
0.0
 40
0.0
 40
0.125
 40
0.25
 40
0.375
 40
0.5
 40
0.625
 40
0.75
 40
0.875
 40
1.0
 40
1.0
 40
1.0
 40
1.0
 10
610.6411688324
 20
715.0415765477
 30
0.0
 10
610.6674970187
 20
715.0152040669
 30
0.0
 10
610.7173631962
 20
714.9597696013
 30
0.0
 10
610.7862185508
 20
714.8664623151
 30
0.0
 10
610.8491684303
 20
714.7609922114
 30
0.0
 10
610.9019401702
 20
714.6486438173
 30
0.0
 10
610.9432018053
 20
714.5320439459
 30
0.0
 10
610.972394172
 20
714.4139889849
 30
0.0
 10
610.9890197519
 20
714.3012943791
 30
0.0
 10
610.9927414254
 20
714.2289541286
 30
0.0
 10
610.9927414254
 20
714.1928716514
 30
0.0
  0
SPLINE
  5
2F9
100
AcDbEntity
  8
03___PRT_ALL_CURVES
100
AcDbSpline
 62
2
  6
CONTINUOUS
 70
0
 71
3
 72
11
 73
7
 74
0
 42
0.0000001
 43
0.0000001
 44
0.0000000001
 40
0.0
 40
0.0
 40
0.0
 40
0.0
 40
0.25
 40
0.5
 40
0.75
 40
1.0
 40
1.0
 40
1.0
 40
1.0
 10
609.7930614988
 20
715.3927566059
 30
0.0
 10
609.872333991
 20
715.3927566059
 30
0.0
 10
610.0274942371
 20
715.3751984799
 30
0.0
 10
610.2532440418
 20
715.3061023843
 30
0.0
 10
610.4627161419
 20
715.1954922345
 30
0.0
 10
610.584949582
 20
715.0978411245
 30
0.0
 10
610.6411688324
 20
715.0415765477
 30
0.0
  0
SPLINE
  5
2FA
100
AcDbEntity
  8
03___PRT_ALL_CURVES
100
AcDbSpline
 62
2
  6
CONTINUOUS
 70
0
 71
3
 72
21
 73
17
 74
0
 42
0.0000001
 43
0.0000001
 44
0.0000000001
 40
0.0
 40
0.0
 40
0.0
 40
0.0
 40
0.0714285714
 40
0.1428571429
 40
0.2142857143
 40
0.2857142857
 40
0.3571428571
 40
0.4285714286
 40
0.5
 40
0.5714285714
 40
0.6428571429
 40
0.7142857143
 40
0.7857142857
 40
0.8571428571
 40
0.9285714286
 40
1.0
 40
1.0
 40
1.0
 40
1.0
 10
592.7853359382
 20
710.8768842292
 30
0.0
 10
592.8389220422
 20
711.0073252719
 30
0.0
 10
592.9146910601
 20
711.2733890594
 30
0.0
 10
592.9394129345
 20
711.6965405316
 30
0.0
 10
592.8692269494
 20
712.1141831237
 30
0.0
 10
592.7087078907
 20
712.5061393438
 30
0.0
 10
592.4658242374
 20
712.8518925518
 30
0.0
 10
592.1532316881
 20
713.1334887562
 30
0.0
 10
591.787272733
 20
713.3376567982
 30
0.0
 10
591.3858905716
 20
713.4540306427
 30
0.0
 10
590.969477877
 20
713.4781175029
 30
0.0
 10
590.5585369836
 20
713.4072259811
 30
0.0
 10
590.1738728996
 20
713.2464511389
 30
0.0
 10
589.8338858543
 20
713.0043230591
 30
0.0
 10
589.5553420418
 20
712.690679747
 30
0.0
 10
589.4213533562
 20
712.4489132218
 30
0.0
 10
589.3671729041
 20
712.3182849388
 30
0.0
  0
SPLINE
  5
2FB
100
AcDbEntity
  8
03___PRT_ALL_CURVES
100
AcDbSpline
 62
2
  6
CONTINUOUS
 70
0
 71
3
 72
21
 73
17
 74
0
 42
0.0000001
 43
0.0000001
 44
0.0000000001
 40
0.0
 40
0.0
 40
0.0
 40
0.0
 40
0.0714285714
 40
0.1428571429
 40
0.2142857143
 40
0.2857142857
 40
0.3571428571
 40
0.4285714286
 40
0.5
 40
0.5714285714
 40
0.6428571429
 40
0.7142857143
 40
0.7857142857
 40
0.8571428571
 40
0.9285714286
 40
1.0
 40
1.0
 40
1.0
 40
1.0
 10
589.3671729041
 20
712.3182849388
 30
0.0
 10
589.3126443091
 20
712.1868172883
 30
0.0
 10
589.2356514413
 20
711.9188398692
 30
0.0
 10
589.209479504
 20
711.4943530263
 30
0.0
 10
589.2784791374
 20
711.0756227899
 30
0.0
 10
589.4381792888
 20
710.6826941587
 30
0.0
 10
589.6814997614
 20
710.3356607165
 30
0.0
 10
589.9951319969
 20
710.0529955681
 30
0.0
 10
590.3625141414
 20
709.8476893749
 30
0.0
 10
590.7652063375
 20
709.7313608325
 30
0.0
 10
591.1828979557
 20
709.7083664312
 30
0.0
 10
591.5947919327
 20
709.7805682833
 30
0.0
 10
591.9808268422
 20
709.9430335098
 30
0.0
 10
592.3210622034
 20
710.1877315519
 30
0.0
 10
592.5985060284
 20
710.5039136173
 30
0.0
 10
592.7316634346
 20
710.746224596
 30
0.0
 10
592.7853516556
 20
710.8769224902
 30
0.0
  0
SPLINE
  5
2FC
100
AcDbEntity
  8
03___PRT_ALL_CURVES
100
AcDbSpline
 62
2
  6
CONTINUOUS
 70
0
 71
3
 72
21
 73
17
 74
0
 42
0.0000001
 43
0.0000001
 44
0.0000000001
 40
0.0
 40
0.0
 40
0.0
 40
0.0
 40
0.0714285714
 40
0.1428571429
 40
0.2142857143
 40
0.2857142857
 40
0.3571428571
 40
0.4285714286
 40
0.5
 40
0.5714285714
 40
0.6428571429
 40
0.7142857143
 40
0.7857142857
 40
0.8571428571
 40
0.9285714286
 40
1.0
 40
1.0
 40
1.0
 40
1.0
 10
592.785351318
 20
710.8769216685
 30
0.0
 10
592.731646527
 20
710.746183614
 30
0.0
 10
592.598496631
 20
710.5037481768
 30
0.0
 10
592.3199948224
 20
710.1867650284
 30
0.0
 10
591.9801182262
 20
709.9425478379
 30
0.0
 10
591.5920289589
 20
709.7797376097
 30
0.0
 10
591.1810135047
 20
709.7081819248
 30
0.0
 10
590.7609786253
 20
709.7320665242
 30
0.0
 10
590.3601796345
 20
709.8486690365
 30
0.0
 10
589.9916434588
 20
710.0555090076
 30
0.0
 10
589.6801713054
 20
710.3372720001
 30
0.0
 10
589.4367958934
 20
710.6852779689
 30
0.0
 10
589.2783115616
 20
711.0765852367
 30
0.0
 10
589.2094514022
 20
711.4953376353
 30
0.0
 10
589.2356944729
 20
711.9185262973
 30
0.0
 10
589.3124235922
 20
712.1860810815
 30
0.0
 10
589.3667782875
 20
712.3173327928
 30
0.0
  0
SPLINE
  5
2FD
100
AcDbEntity
  8
03___PRT_ALL_CURVES
100
AcDbSpline
 62
2
  6
CONTINUOUS
 70
0
 71
3
 72
26
 73
22
 74
0
 42
0.0000001
 43
0.0000001
 44
0.0000000001
 40
0.0
 40
0.0
 40
0.0
 40
0.0
 40
0.0714285714
 40
0.1428571429
 40
0.2142857143
 40
0.2857142857
 40
0.3571428571
 40
0.3928571429
 40
0.4285714286
 40
0.4642857143
 40
0.5
 40
0.5714285714
 40
0.6428571429
 40
0.7142857143
 40
0.7857142857
 40
0.8214285714
 40
0.8571428571
 40
0.8928571429
 40
0.9285714286
 40
0.9642857143
 40
1.0
 40
1.0
 40
1.0
 40
1.0
 10
591.860304482
 20
712.404793461
 30
0.0
 10
591.9177816669
 20
712.3458272165
 30
0.0
 10
592.0171138273
 20
712.2187344835
 30
0.0
 10
592.1253768149
 20
711.9976803494
 30
0.0
 10
592.1838659724
 20
711.7640907228
 30
0.0
 10
592.1946940406
 20
711.5250322747
 30
0.0
 10
592.161908992
 20
711.3224790452
 30
0.0
 10
592.1100158463
 20
711.1652838385
 30
0.0
 10
592.058051116
 20
711.0512454889
 30
0.0
 10
591.9944774989
 20
710.9439721751
 30
0.0
 10
591.893718546
 20
710.8090342739
 30
0.0
 10
591.7348288748
 20
710.6568065833
 30
0.0
 10
591.4979243619
 20
710.5206000003
 30
0.0
 10
591.2423010532
 20
710.4490519899
 30
0.0
 10
591.0300908032
 20
710.4401214118
 30
0.0
 10
590.8600874865
 20
710.4630729409
 30
0.0
 10
590.7348703822
 20
710.4951370706
 30
0.0
 10
590.6113406896
 20
710.5430365925
 30
0.0
 10
590.4935964704
 20
710.6063638552
 30
0.0
 10
590.3846414503
 20
710.6829693653
 30
0.0
 10
590.3178764485
 20
710.7426751922
 30
0.0
 10
590.2856635245
 20
710.7752343837
 30
0.0
  0
SPLINE
  5
2FE
100
AcDbEntity
  8
03___PRT_ALL_CURVES
100
AcDbSpline
 62
2
  6
CONTINUOUS
 70
0
 71
3
 72
30
 73
26
 74
0
 42
0.0000001
 43
0.0000001
 44
0.0000000001
 40
0.0
 40
0.0
 40
0.0
 40
0.0
 40
0.0384615385
 40
0.0769230769
 40
0.1153846154
 40
0.1538461538
 40
0.1923076923
 40
0.2307692308
 40
0.2692307692
 40
0.3076923077
 40
0.3461538462
 40
0.3846153846
 40
0.4230769231
 40
0.4615384615
 40
0.5384615385
 40
0.6153846154
 40
0.6923076923
 40
0.7307692308
 40
0.7692307692
 40
0.8076923077
 40
0.8461538462
 40
0.8846153846
 40
0.9230769231
 40
0.9615384615
 40
1.0
 40
1.0
 40
1.0
 40
1.0
 10
590.2856810011
 20
710.7752167196
 30
0.0
 10
590.2519668552
 20
710.8092917753
 30
0.0
 10
590.1903037204
 20
710.8801337821
 30
0.0
 10
590.1113330047
 20
710.9966577061
 30
0.0
 10
590.0462757251
 20
711.1236408726
 30
0.0
 10
589.9978137883
 20
711.257493036
 30
0.0
 10
589.9666547838
 20
711.3922148232
 30
0.0
 10
589.9510318969
 20
711.5296857869
 30
0.0
 10
589.9518161602
 20
711.6718035583
 30
0.0
 10
589.9697360222
 20
711.8127886519
 30
0.0
 10
590.004804012
 20
711.9519693763
 30
0.0
 10
590.0567152201
 20
712.0852124436
 30
0.0
 10
590.1222495979
 20
712.2071060178
 30
0.0
 10
590.2274616729
 20
712.3572895899
 30
0.0
 10
590.3886071653
 20
712.516902623
 30
0.0
 10
590.6268454644
 20
712.6597259815
 30
0.0
 10
590.8483580702
 20
712.7247617697
 30
0.0
 10
591.0244665046
 20
712.7429927482
 30
0.0
 10
591.1562456115
 20
712.7403432429
 30
0.0
 10
591.285384929
 20
712.7219106129
 30
0.0
 10
591.4115048806
 20
712.6885756151
 30
0.0
 10
591.5355033188
 20
712.63941537
 30
0.0
 10
591.6531524092
 20
712.5752018219
 30
0.0
 10
591.7617116034
 20
712.4979338842
 30
0.0
 10
591.827932881
 20
712.4379610854
 30
0.0
 10
591.8597996351
 20
712.4053110519
 30
0.0
  0
SPLINE
  5
2FF
100
AcDbEntity
  8
03___PRT_ALL_CURVES
100
AcDbSpline
 62
2
  6
CONTINUOUS
 70
0
 71
3
 72
27
 73
23
 74
0
 42
0.0000001
 43
0.0000001
 44
0.0000000001
 40
0.0
 40
0.0
 40
0.0
 40
0.0
 40
0.0384615385
 40
0.0769230769
 40
0.1153846154
 40
0.1538461538
 40
0.1923076923
 40
0.2307692308
 40
0.2692307692
 40
0.3076923077
 40
0.3846153846
 40
0.4615384615
 40
0.5384615385
 40
0.6153846154
 40
0.6923076923
 40
0.7692307692
 40
0.8076923077
 40
0.8461538462
 40
0.8846153846
 40
0.9230769231
 40
0.9615384615
 40
1.0
 40
1.0
 40
1.0
 40
1.0
 10
591.8603723568
 20
712.4047238218
 30
0.0
 10
591.8284066697
 20
712.4375233534
 30
0.0
 10
591.7619415379
 20
712.4977776943
 30
0.0
 10
591.652856698
 20
712.5754234112
 30
0.0
 10
591.5342979661
 20
712.6400346123
 30
0.0
 10
591.4091938109
 20
712.6893582141
 30
0.0
 10
591.2830167531
 20
712.7223698218
 30
0.0
 10
591.1537197465
 20
712.7406105035
 30
0.0
 10
591.0191919548
 20
712.7428786306
 30
0.0
 10
590.8397597308
 20
712.7231798524
 30
0.0
 10
590.6167177481
 20
712.6551634686
 30
0.0
 10
590.382515437
 20
712.5117603684
 30
0.0
 10
590.1915547065
 20
712.3206863442
 30
0.0
 10
590.044866311
 20
712.0807375079
 30
0.0
 10
589.9599186321
 20
711.8059179075
 30
0.0
 10
589.9459526891
 20
711.5744841956
 30
0.0
 10
589.9669137404
 20
711.390362569
 30
0.0
 10
589.9985307807
 20
711.2550513588
 30
0.0
 10
590.0472889486
 20
711.121327555
 30
0.0
 10
590.112521302
 20
710.9947124602
 30
0.0
 10
590.1909683503
 20
710.8793791031
 30
0.0
 10
590.2518131341
 20
710.8095080975
 30
0.0
 10
590.2849650042
 20
710.7759410322
 30
0.0
  0
SPLINE
  5
300
100
AcDbEntity
  8
03___PRT_ALL_CURVES
100
AcDbSpline
 62
2
  6
CONTINUOUS
 70
0
 71
3
 72
11
 73
7
 74
0
 42
0.0000001
 43
0.0000001
 44
0.0000000001
 40
0.0
 40
0.0
 40
0.0
 40
0.0
 40
0.25
 40
0.5
 40
0.75
 40
1.0
 40
1.0
 40
1.0
 40
1.0
 10
609.7930614988
 20
715.7926434945
 30
0.0
 10
609.8943942426
 20
715.7926434945
 30
0.0
 10
610.0965330634
 20
715.7724506949
 30
0.0
 10
610.4103300887
 20
715.6777907544
 30
0.0
 10
610.6981871891
 20
715.5228470701
 30
0.0
 10
610.8535330316
 20
715.3950296336
 30
0.0
 10
610.9242083024
 20
715.3242234827
 30
0.0
  0
SPLINE
  5
301
100
AcDbEntity
  8
03___PRT_ALL_CURVES
100
AcDbSpline
 62
2
  6
CONTINUOUS
 70
0
 71
3
 72
11
 73
7
 74
0
 42
0.0000001
 43
0.0000001
 44
0.0000000001
 40
0.0
 40
0.0
 40
0.0
 40
0.0
 40
0.25
 40
0.5
 40
0.75
 40
1.0
 40
1.0
 40
1.0
 40
1.0
 10
610.9242083024
 20
715.3242234827
 30
0.0
 10
610.9964788191
 20
715.2518191317
 30
0.0
 10
611.1257710891
 20
715.0934391747
 30
0.0
 10
611.2798573506
 20
714.8046246628
 30
0.0
 10
611.3731597425
 20
714.4925903934
 30
0.0
 10
611.3928525003
 20
714.2927199445
 30
0.0
 10
611.3928525003
 20
714.192852493
 30
0.0
  0
SPLINE
  5
302
100
AcDbEntity
  8
03___PRT_ALL_CURVES
100
AcDbSpline
 62
2
  6
CONTINUOUS
 70
0
 71
3
 72
13
 73
9
 74
0
 42
0.0000001
 43
0.0000001
 44
0.0000000001
 40
0.0
 40
0.0
 40
0.0
 40
0.0
 40
0.1666666667
 40
0.3333333333
 40
0.5
 40
0.6666666667
 40
0.8333333333
 40
1.0
 40
1.0
 40
1.0
 40
1.0
 10
609.7933594641
 20
715.7926434945
 30
0.0
 10
609.8628144947
 20
715.7926364218
 30
0.0
 10
610.0003753906
 20
715.7828366338
 30
0.0
 10
610.2036968339
 20
715.7413160983
 30
0.0
 10
610.4009454155
 20
715.6744326449
 30
0.0
 10
610.5896902281
 20
715.5830045434
 30
0.0
 10
610.7666829983
 20
715.4672976998
 30
0.0
 10
610.8736480932
 20
715.3748202007
 30
0.0
 10
610.9242083023
 20
715.3242234827
 30
0.0
  0
SPLINE
  5
303
100
AcDbEntity
  8
03___PRT_ALL_CURVES
100
AcDbSpline
 62
2
  6
CONTINUOUS
 70
0
 71
3
 72
13
 73
9
 74
0
 42
0.0000001
 43
0.0000001
 44
0.0000000001
 40
0.0
 40
0.0
 40
0.0
 40
0.0
 40
0.1666666667
 40
0.3333333333
 40
0.5
 40
0.6666666667
 40
0.8333333333
 40
1.0
 40
1.0
 40
1.0
 40
1.0
 10
610.9242083023
 20
715.3242234827
 30
0.0
 10
610.9740286388
 20
715.2743278031
 30
0.0
 10
611.0654461583
 20
715.1686762867
 30
0.0
 10
611.1804517433
 20
714.9936978866
 30
0.0
 10
611.2723376574
 20
714.8057729486
 30
0.0
 10
611.340298476
 20
714.6077556704
 30
0.0
 10
611.3828270142
 20
714.4020706163
 30
0.0
 10
611.3928405967
 20
714.2630836688
 30
0.0
 10
611.3928525003
 20
714.1928524929
 30
0.0
  0
SPLINE
  5
304
100
AcDbEntity
  8
03___PRT_ALL_CURVES
100
AcDbSpline
 62
2
  6
CONTINUOUS
 70
0
 71
3
 72
10
 73
6
 74
0
 42
0.0000001
 43
0.0000001
 44
0.0000000001
 40
0.0
 40
0.0
 40
0.0
 40
0.0
 40
0.3333333333
 40
0.6666666667
 40
1.0
 40
1.0
 40
1.0
 40
1.0
 10
579.1046915273
 20
712.7412235834
 30
0.0
 10
579.1243443095
 20
712.7412235834
 30
0.0
 10
579.1641042921
 20
712.7404277997
 30
0.0
 10
579.2251514185
 20
712.7368404949
 30
0.0
 10
579.2667005402
 20
712.7328605907
 30
0.0
 10
579.2876953844
 20
712.7304748064
 30
0.0
  0
SPLINE
  5
305
100
AcDbEntity
  8
03___PRT_ALL_CURVES
100
AcDbSpline
 62
2
  6
CONTINUOUS
 70
0
 71
3
 72
9
 73
5
 74
0
 42
0.0000001
 43
0.0000001
 44
0.0000000001
 40
0.0
 40
0.0
 40
0.0
 40
0.0
 40
0.5
 40
1.0
 40
1.0
 40
1.0
 40
1.0
 10
579.1046910803
 20
712.7412235834
 30
0.0
 10
579.1343217537
 20
712.7412235834
 30
0.0
 10
579.1944534661
 20
712.7394138416
 30
0.0
 10
579.2563234577
 20
712.7340398079
 30
0.0
 10
579.2876953844
 20
712.7304748064
 30
0.0
  0
SPLINE
  5
306
100
AcDbEntity
  8
03___PRT_ALL_CURVES
100
AcDbSpline
 62
2
  6
CONTINUOUS
 70
0
 71
3
 72
14
 73
10
 74
0
 42
0.0000001
 43
0.0000001
 44
0.0000000001
 40
0.0
 40
0.0
 40
0.0
 40
0.0
 40
0.125
 40
0.25
 40
0.375
 40
0.5
 40
0.625
 40
0.75
 40
1.0
 40
1.0
 40
1.0
 40
1.0
 10
579.2876953845
 20
712.7304748064
 30
0.0
 10
579.3090635089
 20
712.7279958603
 30
0.0
 10
579.3500039053
 20
712.7198640397
 30
0.0
 10
579.4078744622
 20
712.698863851
 30
0.0
 10
579.4624310999
 20
712.668898285
 30
0.0
 10
579.5112969138
 20
712.6310723192
 30
0.0
 10
579.5527188691
 20
712.5875490781
 30
0.0
 10
579.5989280905
 20
712.5214361743
 30
0.0
 10
579.6221429829
 20
712.4643808174
 30
0.0
 10
579.6316553062
 20
712.422345063
 30
0.0
  0
ENDSEC
  0
SECTION
  2
OBJECTS
  0
DICTIONARY
  5
C
100
AcDbDictionary
280
0
281
1
  3
ACAD_GROUP
350
D
  3
ACAD_MLINESTYLE
350
17
  3
ACAD_LAYOUT
350
1A
  3
ACAD_PLOTSETTINGS
350
19
  3
ACAD_PLOTSTYLENAME
350
E
  0
DICTIONARY
  5
D
102
{ACAD_REACTORS
330
C
102
}
100
AcDbDictionary
280
0
281
1
  0
ACDBDICTIONARYWDFLT
  5
E
102
{ACAD_REACTORS
330
C
102
}
100
AcDbDictionary
281
1
  3
Normal
350
F
100
AcDbDictionaryWithDefault
340
F
  0
DICTIONARY
  5
17
102
{ACAD_REACTORS
330
C
102
}
100
AcDbDictionary
280
0
281
1
  3
Standard
350
18
  0
DICTIONARY
  5
19
102
{ACAD_REACTORS
330
C
102
}
100
AcDbDictionary
281
1
  0
DICTIONARY
  5
1A
102
{ACAD_REACTORS
330
C
102
}
100
AcDbDictionary
281
1
  3
Model
350
307
  3
Layout1
350
308
  0
ACDBPLACEHOLDER
  5
F
102
{ACAD_REACTORS
330
E
102
}
  0
MLINESTYLE
  5
18
102
{ACAD_REACTORS
330
17
102
}
100
AcDbMlineStyle
  2
STANDARD
 70
0
  3

 62
256
 51
90.0
 52
90.0
 71
2
 49
0.5
 62
256
  6
BYLAYER
 49
-0.5
 62
256
  6
BYLAYER
  0
LAYOUT
  5
307
102
{ACAD_REACTORS
330
1A
102
}
100
AcDbPlotSettings
  1

  2
none_device
  4

  6

 40
0.0
 41
0.0
 42
0.0
 43
0.0
 44
1223.0
 45
875.0
 46
0.0
 47
0.0
 48
0.0
 49
0.0
140
0.0
141
0.0
142
1.0
143
1.0
 70
1024
 72
1
 73
0
 74
0
  7

 75
0
147
1.0
148
0.0
149
0.0
100
AcDbLayout
  1
Model
 70
0
 71
0
 10
0.0
 20
0.0
 11
1223.0
 21
875.0
 12
0.0
 22
0.0
 32
0.0
 14
0.0
 24
0.0
 34
0.0
 15
0.0
 25
0.0
 35
0.0
146
0.0
 13
0.0
 23
0.0
 33
0.0
 16
1.0
 26
0.0
 36
0.0
 17
0.0
 27
1.0
 37
0.0
 76
0
330
216
345
0
346
0
  0
LAYOUT
  5
308
102
{ACAD_REACTORS
330
1A
102
}
100
AcDbPlotSettings
  1

  2
none_device
  4

  6

 40
0.0
 41
0.0
 42
0.0
 43
0.0
 44
1223.0
 45
875.0
 46
0.0
 47
0.0
 48
0.0
 49
0.0
140
0.0
141
0.0
142
1.0
143
1.0
 70
0
 72
1
 73
0
 74
0
  7

 75
0
147
1.0
148
0.0
149
0.0
100
AcDbLayout
  1
Layout1
 70
0
 71
1
 10
0.0
 20
0.0
 11
1223.0
 21
875.0
 12
0.0
 22
0.0
 32
0.0
 14
0.0
 24
0.0
 34
0.0
 15
0.0
 25
0.0
 35
0.0
146
0.0
 13
0.0
 23
0.0
 33
0.0
 16
1.0
 26
0.0
 36
0.0
 17
0.0
 27
1.0
 37
0.0
 76
0
330
217
345
0
346
0
  0
ENDSEC
  0
EOF
