999
DXF file: S:\Engenharia\Wildfire\Engenharia\Produtos\Lixeiras\94539220\94539220_221_222_223_224_225_226.dxf
999
Pro/ENGINEER 2012230 by Parametric Technology Corporation
  0
SECTION
  2
HEADER
  9
$ACADVER
  1
AC1021
  9
$DWGCODEPAGE
  3
ANSI_1252
  9
$EXTMAX
 10
454.0
 20
1200.0
 30
0.0
  9
$EXTMIN
 10
0.0
 20
0.0
 30
0.0
  9
$LIMMIN
 10
0.0
 20
0.0
  9
$LIMMAX
 10
454.0
 20
1200.0
  9
$VIEWCTR
 10
227.0
 20
600.0
  9
$VIEWSIZE
 40
1200.0
  9
$CLAYER
  8
0
  9
$LTSCALE
 40
78.2222222222
  9
$CELTYPE
  6
BYLAYER
  9
$DIMSCALE
 40
1.0
  9
$DIMASZ
 40
3.0
  9
$DIMEXO
 40
0.5
  9
$DIMDLI
 40
54.0444444444
  9
$DIMEXE
 40
0.5
  9
$DIMCEN
 40
12.8
  9
$DIMLFAC
 40
1.0
  9
$DIMBLK
  1
_FILLED
  9
$DIMTXT
 40
1.8
  9
$DIMTOL
 70
1
  9
$DIMLIM
 70
0
  9
$DIMTFAC
 40
1.0
  9
$DIMTP
 40
0.001
  9
$DIMTM
 40
0.001
  9
$DIMGAP
 40
0.625
  9
$DIMDSEP
 70
46
  9
$PDMODE
 70
3
  9
$PDSIZE
 40
1.0
  9
$HANDSEED
  5
554
  9
$TILEMODE
 70
1
  9
$MEASUREMENT
 70
1
  9
$INSUNITS
 70
4
  0
ENDSEC
  0
SECTION
  2
CLASSES
  0
CLASS
  1
ACDBDICTIONARYWDFLT
  2
AcDbDictionaryWithDefault
  3
AutoCAD 2000
 90
0
 91
1
280
0
281
0
  0
CLASS
  1
ACDBPLACEHOLDER
  2
AcDbPlaceHolder
  3
AutoCAD 2000
 90
0
 91
1
280
0
281
0
  0
CLASS
  1
LAYOUT
  2
AcDbLayout
  3
AutoCAD 2000
 90
0
 91
0
280
0
281
0
  0
ENDSEC
  0
SECTION
  2
TABLES
  0
TABLE
  2
VPORT
  5
8
100
AcDbSymbolTable
 70
2
  0
VPORT
  5
1F4
100
AcDbSymbolTableRecord
100
AcDbViewportTableRecord
  2
*ACTIVE
 70
0
 10
0.0
 20
0.0
 11
1.0
 21
1.0
 12
227.0
 22
600.0
 13
0.0
 23
0.0
 14
1.0
 24
1.0
 15
0.0
 25
0.0
 16
0.0
 26
0.0
 36
1.0
 17
0.0
 27
0.0
 37
0.0
 40
1200.0
 41
0.3783333333
 42
50.0
 43
0.0
 44
0.0
 50
0.0
 51
0.0
 71
0
 72
100
 73
1
 74
1
 75
0
 76
0
 77
0
 78
0
  0
ENDTAB
  0
TABLE
  2
LTYPE
  5
5
100
AcDbSymbolTable
 70
6
  0
LTYPE
  5
14
100
AcDbSymbolTableRecord
100
AcDbLinetypeTableRecord
  2
BYBLOCK
 70
0
  3

 72
65
 73
0
 40
0.0
  0
LTYPE
  5
15
100
AcDbSymbolTableRecord
100
AcDbLinetypeTableRecord
  2
BYLAYER
 70
0
  3

 72
65
 73
0
 40
0.0
  0
LTYPE
  5
16
100
AcDbSymbolTableRecord
100
AcDbLinetypeTableRecord
  2
CONTINUOUS
 70
64
  3
Solid line
 72
65
 73
0
 40
0.0
  0
LTYPE
  5
1F5
100
AcDbSymbolTableRecord
100
AcDbLinetypeTableRecord
  2
CENTER
 70
64
  3
____ _ ____ _ ____ _ ____ _ ____ _ ____ _ ____
 72
65
 73
4
 40
0.6
 49
0.375
 74
0
 49
-0.075
 74
0
 49
0.075
 74
0
 49
-0.075
 74
0
  0
LTYPE
  5
1F6
100
AcDbSymbolTableRecord
100
AcDbLinetypeTableRecord
  2
HIDDEN
 70
64
  3
- - - - - - - - - - - - - - - - - - - -
 72
65
 73
2
 40
0.2
 49
0.1
 74
0
 49
-0.1
 74
0
  0
LTYPE
  5
1F7
100
AcDbSymbolTableRecord
100
AcDbLinetypeTableRecord
  2
PHANTOM
 70
64
  3
_____ _ _ _____ _ _ _____ _ _ _____
 72
65
 73
6
 40
0.8
 49
0.45
 74
0
 49
-0.05
 74
0
 49
0.1
 74
0
 49
-0.05
 74
0
 49
0.1
 74
0
 49
-0.05
 74
0
  0
LTYPE
  5
1F8
100
AcDbSymbolTableRecord
100
AcDbLinetypeTableRecord
  2
DOT
 70
64
  3
. . . . . . . . . . . . . . . . . . . .
 72
65
 73
2
 40
0.2
 49
0.1
 74
0
 49
-0.1
 74
0
  0
LTYPE
  5
1F9
100
AcDbSymbolTableRecord
100
AcDbLinetypeTableRecord
  2
DASHED
 70
64
  3
- - - - - - - - - - - - - - - - - - - -
 72
65
 73
2
 40
0.2
 49
0.1
 74
0
 49
-0.1
 74
0
  0
ENDTAB
  0
TABLE
  2
LAYER
  5
2
100
AcDbSymbolTable
 70
36
  0
LAYER
  5
10
100
AcDbSymbolTableRecord
100
AcDbLayerTableRecord
  2
0
 70
0
 62
7
  6
CONTINUOUS
370
-3
390
F
  0
LAYER
  5
1FA
100
AcDbSymbolTableRecord
100
AcDbLayerTableRecord
  2
DEFAULT_1
 70
0
 62
7
  6
CENTER
370
-3
390
F
  0
LAYER
  5
1FB
100
AcDbSymbolTableRecord
100
AcDbLayerTableRecord
  2
DEFAULT_2
 70
0
 62
8
  6
HIDDEN
370
-3
390
F
  0
LAYER
  5
1FC
100
AcDbSymbolTableRecord
100
AcDbLayerTableRecord
  2
DEFAULT_3
 70
0
 62
7
  6
PHANTOM
370
-3
390
F
  0
LAYER
  5
1FD
100
AcDbSymbolTableRecord
100
AcDbLayerTableRecord
  2
01_ALL_DTM_PLN
 70
0
 62
7
  6
CONTINUOUS
370
-3
390
F
  0
LAYER
  5
1FE
100
AcDbSymbolTableRecord
100
AcDbLayerTableRecord
  2
01__ASM_ALL_DTM_PLN
 70
0
 62
7
  6
CONTINUOUS
370
-3
390
F
  0
LAYER
  5
1FF
100
AcDbSymbolTableRecord
100
AcDbLayerTableRecord
  2
01__ASM_DEF_DTM_PLN
 70
0
 62
7
  6
CONTINUOUS
370
-3
390
F
  0
LAYER
  5
200
100
AcDbSymbolTableRecord
100
AcDbLayerTableRecord
  2
01___PRT_ALL_DTM_PLN
 70
0
 62
7
  6
CONTINUOUS
370
-3
390
F
  0
LAYER
  5
201
100
AcDbSymbolTableRecord
100
AcDbLayerTableRecord
  2
01___PRT_DEF_DTM_PLN
 70
0
 62
7
  6
CONTINUOUS
370
-3
390
F
  0
LAYER
  5
202
100
AcDbSymbolTableRecord
100
AcDbLayerTableRecord
  2
02_ALL_AXES
 70
0
 62
7
  6
CONTINUOUS
370
-3
390
F
  0
LAYER
  5
203
100
AcDbSymbolTableRecord
100
AcDbLayerTableRecord
  2
02__ASM_ALL_AXES
 70
0
 62
7
  6
CONTINUOUS
370
-3
390
F
  0
LAYER
  5
204
100
AcDbSymbolTableRecord
100
AcDbLayerTableRecord
  2
02___PRT_ALL_AXES
 70
0
 62
7
  6
CONTINUOUS
370
-3
390
F
  0
LAYER
  5
205
100
AcDbSymbolTableRecord
100
AcDbLayerTableRecord
  2
03_ALL_CURVES
 70
0
 62
7
  6
CONTINUOUS
370
-3
390
F
  0
LAYER
  5
206
100
AcDbSymbolTableRecord
100
AcDbLayerTableRecord
  2
03__ASM_ALL_CURVES
 70
0
 62
7
  6
CONTINUOUS
370
-3
390
F
  0
LAYER
  5
207
100
AcDbSymbolTableRecord
100
AcDbLayerTableRecord
  2
03___PRT_ALL_CURVES
 70
0
 62
7
  6
CONTINUOUS
370
-3
390
F
  0
LAYER
  5
208
100
AcDbSymbolTableRecord
100
AcDbLayerTableRecord
  2
04_ALL_DTM_PNT
 70
0
 62
7
  6
CONTINUOUS
370
-3
390
F
  0
LAYER
  5
209
100
AcDbSymbolTableRecord
100
AcDbLayerTableRecord
  2
04__ASM_ALL_DTM_PNT
 70
0
 62
7
  6
CONTINUOUS
370
-3
390
F
  0
LAYER
  5
20A
100
AcDbSymbolTableRecord
100
AcDbLayerTableRecord
  2
04___PRT_ALL_DTM_PNT
 70
0
 62
7
  6
CONTINUOUS
370
-3
390
F
  0
LAYER
  5
20B
100
AcDbSymbolTableRecord
100
AcDbLayerTableRecord
  2
05_ALL_DTM_CSYS
 70
0
 62
7
  6
CONTINUOUS
370
-3
390
F
  0
LAYER
  5
20C
100
AcDbSymbolTableRecord
100
AcDbLayerTableRecord
  2
05__ASM_ALL_DTM_CSYS
 70
0
 62
7
  6
CONTINUOUS
370
-3
390
F
  0
LAYER
  5
20D
100
AcDbSymbolTableRecord
100
AcDbLayerTableRecord
  2
05__ASM_DEF_DTM_CSYS
 70
0
 62
7
  6
CONTINUOUS
370
-3
390
F
  0
LAYER
  5
20E
100
AcDbSymbolTableRecord
100
AcDbLayerTableRecord
  2
05___PRT_ALL_DTM_CSYS
 70
0
 62
7
  6
CONTINUOUS
370
-3
390
F
  0
LAYER
  5
20F
100
AcDbSymbolTableRecord
100
AcDbLayerTableRecord
  2
05___PRT_DEF_DTM_CSYS
 70
0
 62
7
  6
CONTINUOUS
370
-3
390
F
  0
LAYER
  5
210
100
AcDbSymbolTableRecord
100
AcDbLayerTableRecord
  2
06_ALL_SURFS
 70
0
 62
7
  6
CONTINUOUS
370
-3
390
F
  0
LAYER
  5
211
100
AcDbSymbolTableRecord
100
AcDbLayerTableRecord
  2
06__ASM_ALL_SURFS
 70
0
 62
7
  6
CONTINUOUS
370
-3
390
F
  0
LAYER
  5
212
100
AcDbSymbolTableRecord
100
AcDbLayerTableRecord
  2
06___PRT_ALL_SURFS
 70
0
 62
7
  6
CONTINUOUS
370
-3
390
F
  0
LAYER
  5
213
100
AcDbSymbolTableRecord
100
AcDbLayerTableRecord
  2
07__ASM_ALL_SKELETONS
 70
0
 62
7
  6
CONTINUOUS
370
-3
390
F
  0
ENDTAB
  0
TABLE
  2
STYLE
  5
3
100
AcDbSymbolTable
 70
1
  0
STYLE
  5
11
100
AcDbSymbolTableRecord
100
AcDbTextStyleTableRecord
  2
STANDARD
 70
0
 40
0.0
 41
0.8
 50
0.0
 71
0
 42
0.2
  3
txt
  4

  0
STYLE
  5
214
100
AcDbSymbolTableRecord
100
AcDbTextStyleTableRecord
  2
TEXTSTYLE_1
 70
0
 40
0.0
 41
0.8
 50
0.0
 71
0
 42
0.2
  3
gdt
  4

  0
ENDTAB
  0
TABLE
  2
VIEW
  5
6
100
AcDbSymbolTable
 70
0
  0
ENDTAB
  0
TABLE
  2
UCS
  5
7
100
AcDbSymbolTable
 70
0
  0
ENDTAB
  0
TABLE
  2
APPID
  5
9
100
AcDbSymbolTable
 70
1
  0
APPID
  5
215
100
AcDbSymbolTableRecord
100
AcDbRegAppTableRecord
  2
ACAD
 70
0
  0
ENDTAB
  0
TABLE
  2
BLOCK_RECORD
  5
1
100
AcDbSymbolTable
 70
0
  0
BLOCK_RECORD
  5
216
100
AcDbSymbolTableRecord
100
AcDbBlockTableRecord
  2
*Model_Space
  0
BLOCK_RECORD
  5
217
100
AcDbSymbolTableRecord
100
AcDbBlockTableRecord
  2
*Paper_Space
  0
BLOCK_RECORD
  5
218
100
AcDbSymbolTableRecord
100
AcDbBlockTableRecord
  2
_FILLED
  0
BLOCK_RECORD
  5
219
100
AcDbSymbolTableRecord
100
AcDbBlockTableRecord
  2
*D0
  0
BLOCK_RECORD
  5
21A
100
AcDbSymbolTableRecord
100
AcDbBlockTableRecord
  2
*D1
  0
ENDTAB
  0
TABLE
  2
DIMSTYLE
  5
A
100
AcDbSymbolTable
 70
1
100
AcDbDimStyleTable
 71
0
  0
DIMSTYLE
105
21B
100
AcDbSymbolTableRecord
100
AcDbDimStyleTableRecord
  2
STANDARD
 70
0
  3

  4

 40
1.0
 41
3.0
 42
0.5
 43
0.38
 44
0.5
 45
0.0
 46
0.0
 47
0.001
 48
0.001
140
1.8
141
0.09
142
0.0
143
25.4
144
1.0
145
0.0
146
1.0
147
0.625
 71
1.0
 72
0.0
 73
0
 74
0
 75
0
 76
0
 77
1
 78
8
170
0
171
2
172
0
173
0
174
0
175
0
176
0
177
0
178
0
270
2
271
3
272
3
273
2
274
2
275
0
280
0
281
0
282
0
283
1
284
8
285
0
286
0
287
3
288
0
340
11
278
46
341
218
342
218
343
218
344
218
  0
DIMSTYLE
105
21C
100
AcDbSymbolTableRecord
100
AcDbDimStyleTableRecord
  2
DIMSTYLE_1
 70
0
  3

  4

 40
1.0
 41
3.0
 42
0.5
 43
0.38
 44
0.5
 45
0.0
 46
0.0
 47
0.001
 48
0.001
140
1.8
141
0.09
142
0.0
143
25.4
144
1.0
145
0.0
146
1.0
147
0.45
 71
0.0
 72
0.0
 73
0
 74
0
 75
0
 76
0
 77
1
 78
8
170
0
171
2
172
0
173
0
174
0
175
0
176
0
177
0
178
0
270
2
271
3
272
3
273
2
274
2
275
0
280
0
281
0
282
0
283
1
284
8
285
0
286
0
287
3
288
0
340
11
278
46
341
218
342
218
343
218
344
218
  0
DIMSTYLE
105
21D
100
AcDbSymbolTableRecord
100
AcDbDimStyleTableRecord
  2
DIMSTYLE_2
 70
0
  3

  4

 40
1.0
 41
3.0
 42
0.5
 43
0.38
 44
0.5
 45
0.0
 46
0.0
 47
0.001
 48
0.001
140
1.8
141
0.09
142
0.0
143
25.4
144
1.0
145
0.0
146
1.0
147
0.45
 71
0.0
 72
0.0
 73
0
 74
0
 75
0
 76
0
 77
1
 78
8
170
0
171
2
172
0
173
0
174
0
175
0
176
0
177
0
178
0
270
2
271
0
272
0
273
2
274
2
275
0
280
0
281
0
282
0
283
1
284
8
285
0
286
0
287
3
288
0
340
11
278
46
341
218
342
218
343
218
344
218
  0
ENDTAB
  0
ENDSEC
  0
SECTION
  2
BLOCKS
  0
BLOCK
  5
20
100
AcDbEntity
  8
0
100
AcDbBlockBegin
  2
*Model_Space
 70
0
 10
0.0
 20
0.0
 30
0.0
  3
*Model_Space
  1

  0
ENDBLK
  5
21
100
AcDbEntity
  8
0
100
AcDbBlockEnd
  0
BLOCK
  5
1C
100
AcDbEntity
  8
0
100
AcDbBlockBegin
  2
*Paper_Space
 70
0
 10
0.0
 20
0.0
 30
0.0
  3
*Paper_Space
  1

  0
ENDBLK
  5
1D
100
AcDbEntity
  8
0
100
AcDbBlockEnd
  0
BLOCK
  5
21E
100
AcDbEntity
  8
0
100
AcDbBlockBegin
  2
_FILLED
 70
64
 10
0.0
 20
0.0
  3
_FILLED
  1

  0
SOLID
  5
21F
100
AcDbEntity
  8
0
  6
BYBLOCK
 62
0
100
AcDbTrace
 10
0.0
 20
0.0
 11
-1.0
 21
0.1666666667
 12
-1.0
 22
-0.1666666667
 13
-1.0
 23
-0.1666666667
  0
ENDBLK
  5
220
100
AcDbEntity
  8
0
  6
BYBLOCK
 62
0
100
AcDbBlockEnd
  0
BLOCK
  5
221
100
AcDbEntity
  8
0
100
AcDbBlockBegin
 62
2
  6
CONTINUOUS
  2
*D0
 70
65
 10
0.0
 20
0.0
  3
*D0
  1

  0
MTEXT
  5
222
100
AcDbEntity
  8
0
100
AcDbMText
 62
2
  6
CONTINUOUS
  7
STANDARD
 71
2
 72
1
 10
425.4207455074
 20
807.3440169035
 30
0.0
 11
0.0
 21
1.0
 31
0.0
 44
0.9
  1
658.304
 40
1.8
 41
12.96
  0
LINE
  5
223
100
AcDbEntity
  8
0
100
AcDbLine
 62
2
  6
CONTINUOUS
 10
246.3671984116
 20
1136.4957669035
 11
428.4921740788
 21
1136.4957669035
  0
LINE
  5
224
100
AcDbEntity
  8
0
100
AcDbLine
 62
2
  6
CONTINUOUS
 10
364.2621984116
 20
478.1922669035
 11
428.4921740788
 21
478.1922669035
  0
LINE
  5
225
100
AcDbEntity
  8
0
100
AcDbLine
 62
2
  6
CONTINUOUS
 10
427.9921740788
 20
1136.4957669035
 11
427.9921740788
 21
807.3440169035
  0
LINE
  5
226
100
AcDbEntity
  8
0
100
AcDbLine
 62
2
  6
CONTINUOUS
 10
427.9921740788
 20
478.1922669035
 11
427.9921740788
 21
807.3440169035
  0
INSERT
  5
227
100
AcDbEntity
  8
0
100
AcDbBlockReference
 62
2
  6
CONTINUOUS
  2
_FILLED
 10
427.9921740788
 20
1136.4957669035
 41
3.0
 42
3.0
 43
3.0
 50
90.0
  0
INSERT
  5
228
100
AcDbEntity
  8
0
100
AcDbBlockReference
 62
2
  6
CONTINUOUS
  2
_FILLED
 10
427.9921740788
 20
478.1922669035
 41
3.0
 42
3.0
 43
3.0
 50
270.0
  0
ENDBLK
  5
229
100
AcDbEntity
  8
0
  6
BYBLOCK
 62
0
100
AcDbBlockEnd
  0
BLOCK
  5
22A
100
AcDbEntity
  8
0
100
AcDbBlockBegin
 62
2
  6
CONTINUOUS
  2
*D1
 70
65
 10
0.0
 20
0.0
  3
*D1
  1

  0
MTEXT
  5
22B
100
AcDbEntity
  8
0
100
AcDbMText
 62
2
  6
CONTINUOUS
  7
TEXTSTYLE_1
 71
2
 72
1
 10
229.7621984116
 20
1172.0418350292
 30
0.0
 11
1.0
 21
0.0
 31
0.0
 44
0.9
  1
{\Fgdt;n}\Ftxt;310
 40
1.8
 41
7.9542857143
  0
LINE
  5
22C
100
AcDbEntity
  8
0
100
AcDbLine
 62
2
  6
CONTINUOUS
 10
74.9820357116
 20
1091.5957669035
 11
74.9820357116
 21
1169.9704064578
  0
LINE
  5
22D
100
AcDbEntity
  8
0
100
AcDbLine
 62
2
  6
CONTINUOUS
 10
384.5423611116
 20
1091.5957669035
 11
384.5423611116
 21
1169.9704064578
  0
LINE
  5
22E
100
AcDbEntity
  8
0
100
AcDbLine
 62
2
  6
CONTINUOUS
 10
74.9820357116
 20
1169.4704064578
 11
229.7621984116
 21
1169.4704064578
  0
LINE
  5
22F
100
AcDbEntity
  8
0
100
AcDbLine
 62
2
  6
CONTINUOUS
 10
384.5423611116
 20
1169.4704064578
 11
229.7621984116
 21
1169.4704064578
  0
INSERT
  5
230
100
AcDbEntity
  8
0
100
AcDbBlockReference
 62
2
  6
CONTINUOUS
  2
_FILLED
 10
74.9820357116
 20
1169.4704064578
 41
3.0
 42
3.0
 43
3.0
 50
180.0
  0
INSERT
  5
231
100
AcDbEntity
  8
0
100
AcDbBlockReference
 62
2
  6
CONTINUOUS
  2
_FILLED
 10
384.5423611116
 20
1169.4704064578
 41
3.0
 42
3.0
 43
3.0
  0
ENDBLK
  5
232
100
AcDbEntity
  8
0
  6
BYBLOCK
 62
0
100
AcDbBlockEnd
  0
ENDSEC
  0
SECTION
  2
ENTITIES
  0
DIMENSION
  5
233
100
AcDbEntity
  8
0
100
AcDbDimension
 62
2
  6
CONTINUOUS
  2
*D0
 10
427.9921740788
 20
478.1922669035
 11
427.9921740788
 21
807.3440169035
 70
160
 71
2
 42
658.3035
  3
DIMSTYLE_1
100
AcDbAlignedDimension
 13
245.8671984116
 23
1136.4957669035
 14
363.7621984116
 24
478.1922669035
 50
270.0
100
AcDbRotatedDimension
  0
DIMENSION
  5
234
100
AcDbEntity
  8
0
100
AcDbDimension
 62
2
  6
CONTINUOUS
  2
*D1
 10
384.5423611116
 20
1169.4704064578
 11
229.7621984116
 21
1169.4704064578
 70
160
 71
2
 42
309.5603254
  1
%%c<>
  3
DIMSTYLE_2
100
AcDbAlignedDimension
 13
74.9820357116
 23
1091.0957669035
 14
384.5423611116
 24
1091.0957669035
100
AcDbRotatedDimension
  0
LINE
  5
235
100
AcDbEntity
  8
0
100
AcDbLine
 62
7
  6
CONTINUOUS
 10
222.9421984116
 20
110.2114370642
 11
223.5251984116
 21
110.2114370642
  0
LINE
  5
236
100
AcDbEntity
  8
0
100
AcDbLine
 62
7
  6
CONTINUOUS
 10
231.4441984116
 20
110.2114370642
 11
232.1861984116
 21
110.2114370642
  0
LINE
  5
237
100
AcDbEntity
  8
0
100
AcDbLine
 62
7
  6
CONTINUOUS
 10
233.2411984116
 20
110.2114370642
 11
233.6811984116
 21
110.2114370642
  0
LINE
  5
238
100
AcDbEntity
  8
0
100
AcDbLine
 62
7
  6
CONTINUOUS
 10
234.3428727827
 20
110.2114370642
 11
234.8318727827
 21
110.2114370642
  0
LINE
  5
239
100
AcDbEntity
  8
0
100
AcDbLine
 62
7
  6
CONTINUOUS
 10
217.9511984116
 20
110.2314370642
 11
218.3601984116
 21
110.2314370642
  0
LINE
  5
23A
100
AcDbEntity
  8
0
100
AcDbLine
 62
7
  6
CONTINUOUS
 10
218.9374911917
 20
110.2314370642
 11
219.3164911917
 21
110.2314370642
  0
LINE
  5
23B
100
AcDbEntity
  8
0
100
AcDbLine
 62
7
  6
CONTINUOUS
 10
220.584258493
 20
110.2314370642
 11
220.997258493
 21
110.2314370642
  0
LINE
  5
23C
100
AcDbEntity
  8
0
100
AcDbLine
 62
7
  6
CONTINUOUS
 10
219.8941984116
 20
110.2314370642
 11
220.3031984116
 21
110.2314370642
  0
LINE
  5
23D
100
AcDbEntity
  8
0
100
AcDbLine
 62
7
  6
CONTINUOUS
 10
222.2232131703
 20
110.2314370642
 11
222.6662131703
 21
110.2314370642
  0
LINE
  5
23E
100
AcDbEntity
  8
0
100
AcDbLine
 62
7
  6
CONTINUOUS
 10
225.1281984116
 20
110.2314370642
 11
226.3491984116
 21
110.2314370642
  0
LINE
  5
23F
100
AcDbEntity
  8
0
100
AcDbLine
 62
7
  6
CONTINUOUS
 10
227.5941984116
 20
110.2314370642
 11
227.9941984116
 21
110.2314370642
  0
LINE
  5
240
100
AcDbEntity
  8
0
100
AcDbLine
 62
7
  6
CONTINUOUS
 10
229.7621984116
 20
110.2314370642
 11
230.1711984116
 21
110.2314370642
  0
LINE
  5
241
100
AcDbEntity
  8
0
100
AcDbLine
 62
7
  6
CONTINUOUS
 10
228.4341984116
 20
110.2314370642
 11
228.8431984116
 21
110.2314370642
  0
LINE
  5
242
100
AcDbEntity
  8
0
100
AcDbLine
 62
7
  6
CONTINUOUS
 10
234.9182437343
 20
110.2314370642
 11
235.3312437343
 21
110.2314370642
  0
LINE
  5
243
100
AcDbEntity
  8
0
100
AcDbLine
 62
7
  6
CONTINUOUS
 10
236.5571984116
 20
110.2314370642
 11
237.0001984116
 21
110.2314370642
  0
LINE
  5
244
100
AcDbEntity
  8
0
100
AcDbLine
 62
7
  6
CONTINUOUS
 10
237.1611984116
 20
110.2314370642
 11
238.5921984116
 21
110.2314370642
  0
LINE
  5
245
100
AcDbEntity
  8
0
100
AcDbLine
 62
7
  6
CONTINUOUS
 10
239.7981984116
 20
110.2314370642
 11
241.0101984116
 21
110.2314370642
  0
LINE
  5
246
100
AcDbEntity
  8
0
100
AcDbLine
 62
7
  6
CONTINUOUS
 10
238.9281984116
 20
110.2314370642
 11
239.3281984116
 21
110.2314370642
  0
LINE
  5
247
100
AcDbEntity
  8
0
100
AcDbLine
 62
7
  6
CONTINUOUS
 10
241.0101984116
 20
110.5414370642
 11
240.1981984116
 21
110.5414370642
  0
LINE
  5
248
100
AcDbEntity
  8
0
100
AcDbLine
 62
7
  6
CONTINUOUS
 10
238.5921984116
 20
110.5414370642
 11
237.5701984116
 21
110.5414370642
  0
LINE
  5
249
100
AcDbEntity
  8
0
100
AcDbLine
 62
7
  6
CONTINUOUS
 10
226.3491984116
 20
110.5414370642
 11
225.5281984116
 21
110.5414370642
  0
LINE
  5
24A
100
AcDbEntity
  8
0
100
AcDbLine
 62
7
  6
CONTINUOUS
 10
232.0721984116
 20
110.5624370642
 11
231.8841984116
 21
110.5624370642
  0
LINE
  5
24B
100
AcDbEntity
  8
0
100
AcDbLine
 62
7
  6
CONTINUOUS
 10
223.6061984116
 20
110.5624370642
 11
223.3821984116
 21
110.5624370642
  0
LINE
  5
24C
100
AcDbEntity
  8
0
100
AcDbLine
 62
7
  6
CONTINUOUS
 10
221.1801208351
 20
110.7114370642
 11
222.0421208351
 21
110.7114370642
  0
LINE
  5
24D
100
AcDbEntity
  8
0
100
AcDbLine
 62
7
  6
CONTINUOUS
 10
235.5141060764
 20
110.7114370642
 11
236.3761060764
 21
110.7114370642
  0
LINE
  5
24E
100
AcDbEntity
  8
0
100
AcDbLine
 62
7
  6
CONTINUOUS
 10
219.1398587641
 20
110.7184370642
 11
219.1138587641
 21
110.7184370642
  0
LINE
  5
24F
100
AcDbEntity
  8
0
100
AcDbLine
 62
7
  6
CONTINUOUS
 10
229.7621984116
 20
110.7344370642
 11
229.7361984116
 21
110.7344370642
  0
LINE
  5
250
100
AcDbEntity
  8
0
100
AcDbLine
 62
7
  6
CONTINUOUS
 10
236.2693689487
 20
111.0224370642
 11
235.6263689487
 21
111.0224370642
  0
LINE
  5
251
100
AcDbEntity
  8
0
100
AcDbLine
 62
7
  6
CONTINUOUS
 10
221.9351984116
 20
111.0224370642
 11
221.2921984116
 21
111.0224370642
  0
LINE
  5
252
100
AcDbEntity
  8
0
100
AcDbLine
 62
7
  6
CONTINUOUS
 10
233.6811984116
 20
111.0814370642
 11
233.8061984116
 21
111.0814370642
  0
LINE
  5
253
100
AcDbEntity
  8
0
100
AcDbLine
 62
7
  6
CONTINUOUS
 10
225.5281984116
 20
111.1494370642
 11
226.2751984116
 21
111.1494370642
  0
LINE
  5
254
100
AcDbEntity
  8
0
100
AcDbLine
 62
7
  6
CONTINUOUS
 10
231.8841984116
 20
111.1494370642
 11
232.0721984116
 21
111.1494370642
  0
LINE
  5
255
100
AcDbEntity
  8
0
100
AcDbLine
 62
7
  6
CONTINUOUS
 10
233.8091984116
 20
111.4234370642
 11
233.6811984116
 21
111.4234370642
  0
LINE
  5
256
100
AcDbEntity
  8
0
100
AcDbLine
 62
7
  6
CONTINUOUS
 10
226.2751984116
 20
111.4594370642
 11
225.5281984116
 21
111.4594370642
  0
LINE
  5
257
100
AcDbEntity
  8
0
100
AcDbLine
 62
7
  6
CONTINUOUS
 10
232.0451984116
 20
111.5464370642
 11
231.8841984116
 21
111.5464370642
  0
LINE
  5
258
100
AcDbEntity
  8
0
100
AcDbLine
 62
7
  6
CONTINUOUS
 10
228.8431984116
 20
111.8024370642
 11
228.8691984116
 21
111.8024370642
  0
LINE
  5
259
100
AcDbEntity
  8
0
100
AcDbLine
 62
7
  6
CONTINUOUS
 10
221.6008274833
 20
111.9044370642
 11
221.6268274833
 21
111.9044370642
  0
LINE
  5
25A
100
AcDbEntity
  8
0
100
AcDbLine
 62
7
  6
CONTINUOUS
 10
235.9349980204
 20
111.9044370642
 11
235.9609980204
 21
111.9044370642
  0
LINE
  5
25B
100
AcDbEntity
  8
0
100
AcDbLine
 62
7
  6
CONTINUOUS
 10
223.3821984116
 20
111.9554370642
 11
223.6061984116
 21
111.9554370642
  0
LINE
  5
25C
100
AcDbEntity
  8
0
100
AcDbLine
 62
7
  6
CONTINUOUS
 10
231.8841984116
 20
111.9554370642
 11
232.0361984116
 21
111.9554370642
  0
LINE
  5
25D
100
AcDbEntity
  8
0
100
AcDbLine
 62
7
  6
CONTINUOUS
 10
233.6811984116
 20
111.9554370642
 11
233.8091984116
 21
111.9554370642
  0
LINE
  5
25E
100
AcDbEntity
  8
0
100
AcDbLine
 62
7
  6
CONTINUOUS
 10
225.5281984116
 20
111.9954370642
 11
226.3431984116
 21
111.9954370642
  0
LINE
  5
25F
100
AcDbEntity
  8
0
100
AcDbLine
 62
7
  6
CONTINUOUS
 10
237.2001984116
 20
111.9954370642
 11
238.1541984116
 21
111.9954370642
  0
LINE
  5
260
100
AcDbEntity
  8
0
100
AcDbLine
 62
7
  6
CONTINUOUS
 10
240.1981984116
 20
112.3054370642
 11
239.7981984116
 21
112.3054370642
  0
LINE
  5
261
100
AcDbEntity
  8
0
100
AcDbLine
 62
7
  6
CONTINUOUS
 10
239.3281984116
 20
112.3054370642
 11
238.9281984116
 21
112.3054370642
  0
LINE
  5
262
100
AcDbEntity
  8
0
100
AcDbLine
 62
7
  6
CONTINUOUS
 10
238.5721984116
 20
112.3054370642
 11
237.2001984116
 21
112.3054370642
  0
LINE
  5
263
100
AcDbEntity
  8
0
100
AcDbLine
 62
7
  6
CONTINUOUS
 10
236.1861537166
 20
112.3054370642
 11
235.7261537166
 21
112.3054370642
  0
LINE
  5
264
100
AcDbEntity
  8
0
100
AcDbLine
 62
7
  6
CONTINUOUS
 10
230.1711984116
 20
112.3054370642
 11
229.7621984116
 21
112.3054370642
  0
LINE
  5
265
100
AcDbEntity
  8
0
100
AcDbLine
 62
7
  6
CONTINUOUS
 10
228.9401984116
 20
112.3054370642
 11
228.4341984116
 21
112.3054370642
  0
LINE
  5
266
100
AcDbEntity
  8
0
100
AcDbLine
 62
7
  6
CONTINUOUS
 10
227.9941984116
 20
112.3054370642
 11
227.5941984116
 21
112.3054370642
  0
LINE
  5
267
100
AcDbEntity
  8
0
100
AcDbLine
 62
7
  6
CONTINUOUS
 10
226.3431984116
 20
112.3054370642
 11
225.1281984116
 21
112.3054370642
  0
LINE
  5
268
100
AcDbEntity
  8
0
100
AcDbLine
 62
7
  6
CONTINUOUS
 10
221.8521684754
 20
112.3054370642
 11
221.3921684754
 21
112.3054370642
  0
LINE
  5
269
100
AcDbEntity
  8
0
100
AcDbLine
 62
7
  6
CONTINUOUS
 10
220.3031984116
 20
112.3054370642
 11
219.6381984116
 21
112.3054370642
  0
LINE
  5
26A
100
AcDbEntity
  8
0
100
AcDbLine
 62
7
  6
CONTINUOUS
 10
218.6161984116
 20
112.3054370642
 11
217.9511984116
 21
112.3054370642
  0
LINE
  5
26B
100
AcDbEntity
  8
0
100
AcDbLine
 62
7
  6
CONTINUOUS
 10
233.7041984116
 20
112.3244370642
 11
233.2411984116
 21
112.3244370642
  0
LINE
  5
26C
100
AcDbEntity
  8
0
100
AcDbLine
 62
7
  6
CONTINUOUS
 10
232.1861984116
 20
112.3244370642
 11
231.4441984116
 21
112.3244370642
  0
LINE
  5
26D
100
AcDbEntity
  8
0
100
AcDbLine
 62
7
  6
CONTINUOUS
 10
223.5251984116
 20
112.3244370642
 11
222.9421984116
 21
112.3244370642
  0
LINE
  5
26E
100
AcDbEntity
  8
0
100
AcDbLine
 62
7
  6
CONTINUOUS
 10
213.6571984116
 20
113.5514370642
 11
245.8671984116
 21
113.5514370642
  0
LINE
  5
26F
100
AcDbEntity
  8
0
100
AcDbLine
 62
7
  6
CONTINUOUS
 10
244.6362645139
 20
115.3034370642
 11
243.9652645139
 21
115.3034370642
  0
LINE
  5
270
100
AcDbEntity
  8
0
100
AcDbLine
 62
7
  6
CONTINUOUS
 10
242.2011984116
 20
115.3034370642
 11
241.5301984116
 21
115.3034370642
  0
LINE
  5
271
100
AcDbEntity
  8
0
100
AcDbLine
 62
7
  6
CONTINUOUS
 10
241.1791984116
 20
115.3034370642
 11
240.4921984116
 21
115.3034370642
  0
LINE
  5
272
100
AcDbEntity
  8
0
100
AcDbLine
 62
7
  6
CONTINUOUS
 10
239.0871984116
 20
115.3034370642
 11
238.3991984116
 21
115.3034370642
  0
LINE
  5
273
100
AcDbEntity
  8
0
100
AcDbLine
 62
7
  6
CONTINUOUS
 10
237.8741984116
 20
115.3034370642
 11
237.1871984116
 21
115.3034370642
  0
LINE
  5
274
100
AcDbEntity
  8
0
100
AcDbLine
 62
7
  6
CONTINUOUS
 10
236.0091984116
 20
115.3034370642
 11
235.3221984116
 21
115.3034370642
  0
LINE
  5
275
100
AcDbEntity
  8
0
100
AcDbLine
 62
7
  6
CONTINUOUS
 10
234.1451984116
 20
115.3034370642
 11
233.4581984116
 21
115.3034370642
  0
LINE
  5
276
100
AcDbEntity
  8
0
100
AcDbLine
 62
7
  6
CONTINUOUS
 10
232.0531984116
 20
115.3034370642
 11
231.3651984116
 21
115.3034370642
  0
LINE
  5
277
100
AcDbEntity
  8
0
100
AcDbLine
 62
7
  6
CONTINUOUS
 10
227.7741984116
 20
115.3034370642
 11
227.1001984116
 21
115.3034370642
  0
LINE
  5
278
100
AcDbEntity
  8
0
100
AcDbLine
 62
7
  6
CONTINUOUS
 10
226.0792809173
 20
115.3034370642
 11
225.6772809173
 21
115.3034370642
  0
LINE
  5
279
100
AcDbEntity
  8
0
100
AcDbLine
 62
7
  6
CONTINUOUS
 10
224.657150541
 20
115.3034370642
 11
223.983150541
 21
115.3034370642
  0
LINE
  5
27A
100
AcDbEntity
  8
0
100
AcDbLine
 62
7
  6
CONTINUOUS
 10
223.7118998493
 20
115.3034370642
 11
223.0408998493
 21
115.3034370642
  0
LINE
  5
27B
100
AcDbEntity
  8
0
100
AcDbLine
 62
7
  6
CONTINUOUS
 10
221.2761984116
 20
115.3034370642
 11
220.6051984116
 21
115.3034370642
  0
LINE
  5
27C
100
AcDbEntity
  8
0
100
AcDbLine
 62
7
  6
CONTINUOUS
 10
220.3482058588
 20
115.3034370642
 11
219.5722058588
 21
115.3034370642
  0
LINE
  5
27D
100
AcDbEntity
  8
0
100
AcDbLine
 62
7
  6
CONTINUOUS
 10
218.7391984116
 20
115.3034370642
 11
218.0521984116
 21
115.3034370642
  0
LINE
  5
27E
100
AcDbEntity
  8
0
100
AcDbLine
 62
7
  6
CONTINUOUS
 10
216.8751984116
 20
115.3034370642
 11
216.1881984116
 21
115.3034370642
  0
LINE
  5
27F
100
AcDbEntity
  8
0
100
AcDbLine
 62
7
  6
CONTINUOUS
 10
243.7186509891
 20
115.9334370642
 11
242.4486509891
 21
115.9334370642
  0
LINE
  5
280
100
AcDbEntity
  8
0
100
AcDbLine
 62
7
  6
CONTINUOUS
 10
222.7939937351
 20
115.9334370642
 11
221.5239937351
 21
115.9334370642
  0
LINE
  5
281
100
AcDbEntity
  8
0
100
AcDbLine
 62
7
  6
CONTINUOUS
 10
221.7461984116
 20
116.5004370642
 11
222.5701984116
 21
116.5004370642
  0
LINE
  5
282
100
AcDbEntity
  8
0
100
AcDbLine
 62
7
  6
CONTINUOUS
 10
242.6711984116
 20
116.5004370642
 11
243.4951984116
 21
116.5004370642
  0
LINE
  5
283
100
AcDbEntity
  8
0
100
AcDbLine
 62
7
  6
CONTINUOUS
 10
218.7391984116
 20
117.0504370642
 11
219.0051984116
 21
117.0504370642
  0
LINE
  5
284
100
AcDbEntity
  8
0
100
AcDbLine
 62
7
  6
CONTINUOUS
 10
236.7481984116
 20
117.8824370642
 11
236.0091984116
 21
117.8824370642
  0
LINE
  5
285
100
AcDbEntity
  8
0
100
AcDbLine
 62
7
  6
CONTINUOUS
 10
235.3221984116
 20
117.8824370642
 11
234.5831984116
 21
117.8824370642
  0
LINE
  5
286
100
AcDbEntity
  8
0
100
AcDbLine
 62
7
  6
CONTINUOUS
 10
219.0051984116
 20
117.8824370642
 11
218.7391984116
 21
117.8824370642
  0
LINE
  5
287
100
AcDbEntity
  8
0
100
AcDbLine
 62
7
  6
CONTINUOUS
 10
217.6141984116
 20
117.8824370642
 11
216.8751984116
 21
117.8824370642
  0
LINE
  5
288
100
AcDbEntity
  8
0
100
AcDbLine
 62
7
  6
CONTINUOUS
 10
216.1881984116
 20
117.8824370642
 11
215.4491984116
 21
117.8824370642
  0
LINE
  5
289
100
AcDbEntity
  8
0
100
AcDbLine
 62
7
  6
CONTINUOUS
 10
215.4491984116
 20
118.4534370642
 11
217.6141984116
 21
118.4534370642
  0
LINE
  5
28A
100
AcDbEntity
  8
0
100
AcDbLine
 62
7
  6
CONTINUOUS
 10
218.0521984116
 20
118.4534370642
 11
219.2301984116
 21
118.4534370642
  0
LINE
  5
28B
100
AcDbEntity
  8
0
100
AcDbLine
 62
7
  6
CONTINUOUS
 10
221.8480491304
 20
118.4534370642
 11
222.4690491304
 21
118.4534370642
  0
LINE
  5
28C
100
AcDbEntity
  8
0
100
AcDbLine
 62
7
  6
CONTINUOUS
 10
224.4989828232
 20
118.4534370642
 11
225.1869828232
 21
118.4534370642
  0
LINE
  5
28D
100
AcDbEntity
  8
0
100
AcDbLine
 62
7
  6
CONTINUOUS
 10
226.5716483861
 20
118.4534370642
 11
227.2586483861
 21
118.4534370642
  0
LINE
  5
28E
100
AcDbEntity
  8
0
100
AcDbLine
 62
7
  6
CONTINUOUS
 10
231.3651984116
 20
118.4534370642
 11
232.0531984116
 21
118.4534370642
  0
LINE
  5
28F
100
AcDbEntity
  8
0
100
AcDbLine
 62
7
  6
CONTINUOUS
 10
233.4581984116
 20
118.4534370642
 11
234.1451984116
 21
118.4534370642
  0
LINE
  5
290
100
AcDbEntity
  8
0
100
AcDbLine
 62
7
  6
CONTINUOUS
 10
234.5831984116
 20
118.4534370642
 11
236.7481984116
 21
118.4534370642
  0
LINE
  5
291
100
AcDbEntity
  8
0
100
AcDbLine
 62
7
  6
CONTINUOUS
 10
237.1871984116
 20
118.4534370642
 11
237.8741984116
 21
118.4534370642
  0
LINE
  5
292
100
AcDbEntity
  8
0
100
AcDbLine
 62
7
  6
CONTINUOUS
 10
238.3991984116
 20
118.4534370642
 11
239.0871984116
 21
118.4534370642
  0
LINE
  5
293
100
AcDbEntity
  8
0
100
AcDbLine
 62
7
  6
CONTINUOUS
 10
240.4901984116
 20
118.4534370642
 11
241.1791984116
 21
118.4534370642
  0
LINE
  5
294
100
AcDbEntity
  8
0
100
AcDbLine
 62
7
  6
CONTINUOUS
 10
242.7729220592
 20
118.4534370642
 11
243.3939220592
 21
118.4534370642
  0
LINE
  5
295
100
AcDbEntity
  8
0
100
AcDbLine
 62
7
  6
CONTINUOUS
 10
245.8671984116
 20
120.5534370642
 11
213.6571984116
 21
120.5534370642
  0
LINE
  5
296
100
AcDbEntity
  8
0
100
AcDbLine
 62
7
  6
CONTINUOUS
 10
189.5552061785
 20
365.1506793603
 11
188.8168852774
 21
362.8509200785
  0
LINE
  5
297
100
AcDbEntity
  8
0
100
AcDbLine
 62
7
  6
CONTINUOUS
 10
159.2326444434
 20
263.7293086701
 11
159.0164504447
 21
263.0639356168
  0
LINE
  5
298
100
AcDbEntity
  8
0
100
AcDbLine
 62
7
  6
CONTINUOUS
 10
159.2880038489
 20
263.8136328734
 11
159.5196372579
 21
264.5265334285
  0
LINE
  5
299
100
AcDbEntity
  8
0
100
AcDbLine
 62
7
  6
CONTINUOUS
 10
186.127521849
 20
180.9553887669
 11
185.5615208602
 21
181.3666115834
  0
LINE
  5
29A
100
AcDbEntity
  8
0
100
AcDbLine
 62
7
  6
CONTINUOUS
 10
186.221872276
 20
180.9197072091
 11
186.8283003906
 21
180.4791099757
  0
LINE
  5
29B
100
AcDbEntity
  8
0
100
AcDbLine
 62
7
  6
CONTINUOUS
 10
219.4039406909
 20
116.6484370642
 11
220.3482058588
 21
115.3034370642
  0
LINE
  5
29C
100
AcDbEntity
  8
0
100
AcDbLine
 62
7
  6
CONTINUOUS
 10
219.5722058588
 20
115.3034370642
 11
218.7391984116
 21
116.4994370642
  0
LINE
  5
29D
100
AcDbEntity
  8
0
100
AcDbLine
 62
7
  6
CONTINUOUS
 10
189.5552061785
 20
116.6282249623
 11
188.8168852774
 21
118.9279842441
  0
LINE
  5
29E
100
AcDbEntity
  8
0
100
AcDbLine
 62
7
  6
CONTINUOUS
 10
164.1903993762
 20
264.0952938163
 11
163.9587640499
 21
263.3823935859
  0
LINE
  5
29F
100
AcDbEntity
  8
0
100
AcDbLine
 62
7
  6
CONTINUOUS
 10
163.0734471483
 20
260.6576683329
 11
163.3050824747
 21
261.3705685633
  0
LINE
  5
2A0
100
AcDbEntity
  8
0
100
AcDbLine
 62
7
  6
CONTINUOUS
 10
190.3535501321
 20
183.5733954543
 11
189.7471209748
 21
184.0139920273
  0
LINE
  5
2A1
100
AcDbEntity
  8
0
100
AcDbLine
 62
7
  6
CONTINUOUS
 10
187.4293312358
 20
185.6979648436
 11
188.0357603931
 21
185.2573682706
  0
LINE
  5
2A2
100
AcDbEntity
  8
0
100
AcDbLine
 62
7
  6
CONTINUOUS
 10
233.4581984116
 20
115.3034370642
 11
232.0531984116
 21
117.3954370642
  0
LINE
  5
2A3
100
AcDbEntity
  8
0
100
AcDbLine
 62
7
  6
CONTINUOUS
 10
232.0531984116
 20
118.4534370642
 11
233.4581984116
 21
116.3614370642
  0
LINE
  5
2A4
100
AcDbEntity
  8
0
100
AcDbLine
 62
7
  6
CONTINUOUS
 10
240.4921984116
 20
115.3034370642
 11
239.0871984116
 21
117.3954370642
  0
LINE
  5
2A5
100
AcDbEntity
  8
0
100
AcDbLine
 62
7
  6
CONTINUOUS
 10
239.0871984116
 20
118.4534370642
 11
240.4901984116
 21
116.3614370642
  0
LINE
  5
2A6
100
AcDbEntity
  8
0
100
AcDbLine
 62
7
  6
CONTINUOUS
 10
228.8691984116
 20
111.8024370642
 11
229.7621984116
 21
110.2314370642
  0
LINE
  5
2A7
100
AcDbEntity
  8
0
100
AcDbLine
 62
7
  6
CONTINUOUS
 10
229.7361984116
 20
110.7344370642
 11
228.9401984116
 21
112.3054370642
  0
LINE
  5
2A8
100
AcDbEntity
  8
0
100
AcDbLine
 62
7
  6
CONTINUOUS
 10
183.8250563375
 20
115.5989214158
 11
183.7354610813
 21
117.5966086647
  0
LINE
  5
2A9
100
AcDbEntity
  8
0
100
AcDbLine
 62
7
  6
CONTINUOUS
 10
183.8250563375
 20
366.1799829067
 11
183.7354610813
 21
364.1822956579
  0
LINE
  5
2AA
100
AcDbEntity
  8
0
100
AcDbLine
 62
7
  6
CONTINUOUS
 10
234.8318727827
 20
110.2114370642
 11
234.4902685525
 21
111.0444370642
  0
LINE
  5
2AB
100
AcDbEntity
  8
0
100
AcDbLine
 62
7
  6
CONTINUOUS
 10
222.4690491304
 20
118.4534370642
 11
223.7118998493
 21
115.3034370642
  0
LINE
  5
2AC
100
AcDbEntity
  8
0
100
AcDbLine
 62
7
  6
CONTINUOUS
 10
222.5701984116
 20
116.5004370642
 11
222.1579975817
 21
117.5499304478
  0
LINE
  5
2AD
100
AcDbEntity
  8
0
100
AcDbLine
 62
7
  6
CONTINUOUS
 10
222.6662131703
 20
110.2314370642
 11
221.8521684754
 21
112.3054370642
  0
LINE
  5
2AE
100
AcDbEntity
  8
0
100
AcDbLine
 62
7
  6
CONTINUOUS
 10
223.0408998493
 20
115.3034370642
 11
222.7939937351
 21
115.9334370642
  0
LINE
  5
2AF
100
AcDbEntity
  8
0
100
AcDbLine
 62
7
  6
CONTINUOUS
 10
234.0881984116
 20
110.8724370642
 11
234.3428727827
 21
110.2114370642
  0
LINE
  5
2B0
100
AcDbEntity
  8
0
100
AcDbLine
 62
7
  6
CONTINUOUS
 10
222.0421208351
 20
110.7114370642
 11
222.2232131703
 21
110.2314370642
  0
LINE
  5
2B1
100
AcDbEntity
  8
0
100
AcDbLine
 62
7
  6
CONTINUOUS
 10
221.6268274833
 20
111.9044370642
 11
221.9351984116
 21
111.0224370642
  0
LINE
  5
2B2
100
AcDbEntity
  8
0
100
AcDbLine
 62
7
  6
CONTINUOUS
 10
225.6772809173
 20
115.3034370642
 11
224.9883953056
 21
117.3369087881
  0
LINE
  5
2B3
100
AcDbEntity
  8
0
100
AcDbLine
 62
7
  6
CONTINUOUS
 10
225.1869828232
 20
118.4534370642
 11
225.8788972357
 21
116.4044370642
  0
LINE
  5
2B4
100
AcDbEntity
  8
0
100
AcDbLine
 62
7
  6
CONTINUOUS
 10
218.3601984116
 20
112.0034370642
 11
218.9374911917
 21
110.2314370642
  0
LINE
  5
2B5
100
AcDbEntity
  8
0
100
AcDbLine
 62
7
  6
CONTINUOUS
 10
219.1138587641
 20
110.7184370642
 11
218.6161984116
 21
112.3054370642
  0
LINE
  5
2B6
100
AcDbEntity
  8
0
100
AcDbLine
 62
7
  6
CONTINUOUS
 10
243.3939220592
 20
118.4534370642
 11
244.6362645139
 21
115.3034370642
  0
LINE
  5
2B7
100
AcDbEntity
  8
0
100
AcDbLine
 62
7
  6
CONTINUOUS
 10
237.0001984116
 20
110.2314370642
 11
236.1861537166
 21
112.3054370642
  0
LINE
  5
2B8
100
AcDbEntity
  8
0
100
AcDbLine
 62
7
  6
CONTINUOUS
 10
243.4951984116
 20
116.5004370642
 11
243.083293513
 21
117.5494998252
  0
LINE
  5
2B9
100
AcDbEntity
  8
0
100
AcDbLine
 62
7
  6
CONTINUOUS
 10
243.9652645139
 20
115.3034370642
 11
243.7186509891
 21
115.9334370642
  0
LINE
  5
2BA
100
AcDbEntity
  8
0
100
AcDbLine
 62
7
  6
CONTINUOUS
 10
236.3761060764
 20
110.7114370642
 11
236.5571984116
 21
110.2314370642
  0
LINE
  5
2BB
100
AcDbEntity
  8
0
100
AcDbLine
 62
7
  6
CONTINUOUS
 10
235.9609980204
 20
111.9044370642
 11
236.2693689487
 21
111.0224370642
  0
LINE
  5
2BC
100
AcDbEntity
  8
0
100
AcDbLine
 62
7
  6
CONTINUOUS
 10
212.2561984116
 20
119.1524370642
 11
212.2561984116
 21
114.9514370642
  0
LINE
  5
2BD
100
AcDbEntity
  8
0
100
AcDbLine
 62
7
  6
CONTINUOUS
 10
215.4491984116
 20
117.8824370642
 11
215.4491984116
 21
118.4534370642
  0
LINE
  5
2BE
100
AcDbEntity
  8
0
100
AcDbLine
 62
7
  6
CONTINUOUS
 10
216.1881984116
 20
115.3034370642
 11
216.1881984116
 21
117.8824370642
  0
LINE
  5
2BF
100
AcDbEntity
  8
0
100
AcDbLine
 62
7
  6
CONTINUOUS
 10
216.8751984116
 20
117.8824370642
 11
216.8751984116
 21
115.3034370642
  0
LINE
  5
2C0
100
AcDbEntity
  8
0
100
AcDbLine
 62
7
  6
CONTINUOUS
 10
227.2586483861
 20
118.4534370642
 11
227.7741984116
 21
115.3034370642
  0
LINE
  5
2C1
100
AcDbEntity
  8
0
100
AcDbLine
 62
7
  6
CONTINUOUS
 10
227.1001984116
 20
115.3034370642
 11
226.7684715987
 21
117.3414370642
  0
LINE
  5
2C2
100
AcDbEntity
  8
0
100
AcDbLine
 62
7
  6
CONTINUOUS
 10
217.6141984116
 20
118.4534370642
 11
217.6141984116
 21
117.8824370642
  0
LINE
  5
2C3
100
AcDbEntity
  8
0
100
AcDbLine
 62
7
  6
CONTINUOUS
 10
217.9511984116
 20
112.3054370642
 11
217.9511984116
 21
110.2314370642
  0
LINE
  5
2C4
100
AcDbEntity
  8
0
100
AcDbLine
 62
7
  6
CONTINUOUS
 10
218.0521984116
 20
115.3034370642
 11
218.0521984116
 21
118.4534370642
  0
LINE
  5
2C5
100
AcDbEntity
  8
0
100
AcDbLine
 62
7
  6
CONTINUOUS
 10
218.3601984116
 20
110.2314370642
 11
218.3601984116
 21
112.0034370642
  0
LINE
  5
2C6
100
AcDbEntity
  8
0
100
AcDbLine
 62
7
  6
CONTINUOUS
 10
218.7391984116
 20
117.8824370642
 11
218.7391984116
 21
117.0504370642
  0
LINE
  5
2C7
100
AcDbEntity
  8
0
100
AcDbLine
 62
7
  6
CONTINUOUS
 10
218.7391984116
 20
116.4994370642
 11
218.7391984116
 21
115.3034370642
  0
LINE
  5
2C8
100
AcDbEntity
  8
0
100
AcDbLine
 62
7
  6
CONTINUOUS
 10
219.8941984116
 20
112.0094370642
 11
219.8941984116
 21
110.2314370642
  0
LINE
  5
2C9
100
AcDbEntity
  8
0
100
AcDbLine
 62
7
  6
CONTINUOUS
 10
220.3031984116
 20
110.2314370642
 11
220.3031984116
 21
112.3054370642
  0
LINE
  5
2CA
100
AcDbEntity
  8
0
100
AcDbLine
 62
7
  6
CONTINUOUS
 10
222.9421984116
 20
112.3244370642
 11
222.9421984116
 21
110.2114370642
  0
LINE
  5
2CB
100
AcDbEntity
  8
0
100
AcDbLine
 62
7
  6
CONTINUOUS
 10
223.3821984116
 20
110.5624370642
 11
223.3821984116
 21
111.9554370642
  0
LINE
  5
2CC
100
AcDbEntity
  8
0
100
AcDbLine
 62
7
  6
CONTINUOUS
 10
225.1281984116
 20
112.3054370642
 11
225.1281984116
 21
110.2314370642
  0
LINE
  5
2CD
100
AcDbEntity
  8
0
100
AcDbLine
 62
7
  6
CONTINUOUS
 10
225.5281984116
 20
110.5414370642
 11
225.5281984116
 21
111.1494370642
  0
LINE
  5
2CE
100
AcDbEntity
  8
0
100
AcDbLine
 62
7
  6
CONTINUOUS
 10
225.5281984116
 20
111.4594370642
 11
225.5281984116
 21
111.9954370642
  0
LINE
  5
2CF
100
AcDbEntity
  8
0
100
AcDbLine
 62
7
  6
CONTINUOUS
 10
226.2751984116
 20
111.1494370642
 11
226.2751984116
 21
111.4594370642
  0
LINE
  5
2D0
100
AcDbEntity
  8
0
100
AcDbLine
 62
7
  6
CONTINUOUS
 10
226.3431984116
 20
111.9954370642
 11
226.3431984116
 21
112.3054370642
  0
LINE
  5
2D1
100
AcDbEntity
  8
0
100
AcDbLine
 62
7
  6
CONTINUOUS
 10
226.3491984116
 20
110.2314370642
 11
226.3491984116
 21
110.5414370642
  0
LINE
  5
2D2
100
AcDbEntity
  8
0
100
AcDbLine
 62
7
  6
CONTINUOUS
 10
227.5941984116
 20
112.3054370642
 11
227.5941984116
 21
110.2314370642
  0
LINE
  5
2D3
100
AcDbEntity
  8
02___PRT_ALL_AXES
100
AcDbLine
 62
7
  6
CONTINUOUS
 10
227.9549317432
 20
310.4229383597
 11
227.9549317432
 21
283.157444046
  0
LINE
  5
2D4
100
AcDbEntity
  8
02___PRT_ALL_AXES
100
AcDbLine
 62
7
  6
CONTINUOUS
 10
227.9549317432
 20
278.6214602766
 11
227.9549317432
 21
261.657444046
  0
LINE
  5
2D5
100
AcDbEntity
  8
0
100
AcDbLine
 62
7
  6
CONTINUOUS
 10
227.9941984116
 20
110.2314370642
 11
227.9941984116
 21
112.3054370642
  0
LINE
  5
2D6
100
AcDbEntity
  8
0
100
AcDbLine
 62
7
  6
CONTINUOUS
 10
228.4341984116
 20
112.3054370642
 11
228.4341984116
 21
110.2314370642
  0
LINE
  5
2D7
100
AcDbEntity
  8
02___PRT_ALL_AXES
100
AcDbLine
 62
7
  6
CONTINUOUS
 10
228.7045194051
 20
310.4229383593
 11
228.7045194051
 21
283.5896956909
  0
LINE
  5
2D8
100
AcDbEntity
  8
02___PRT_ALL_AXES
100
AcDbLine
 62
7
  6
CONTINUOUS
 10
228.7045194051
 20
278.1892086317
 11
228.7045194051
 21
262.0896956909
  0
LINE
  5
2D9
100
AcDbEntity
  8
0
100
AcDbLine
 62
7
  6
CONTINUOUS
 10
228.8431984116
 20
110.2314370642
 11
228.8431984116
 21
111.8024370642
  0
LINE
  5
2DA
100
AcDbEntity
  8
02___PRT_ALL_AXES
100
AcDbLine
 62
7
  6
CONTINUOUS
 10
228.9881433227
 20
314.9983576976
 11
228.9881432521
 21
283.6842399189
  0
LINE
  5
2DB
100
AcDbEntity
  8
02___PRT_ALL_AXES
100
AcDbLine
 62
7
  6
CONTINUOUS
 10
228.9881432521
 20
278.0946644037
 11
228.9881432521
 21
262.1842399189
  0
LINE
  5
2DC
100
AcDbEntity
  8
02___PRT_ALL_AXES
100
AcDbLine
 62
7
  6
CONTINUOUS
 10
229.737730914
 20
277.9895553801
 11
229.737730914
 21
262.2893489425
  0
LINE
  5
2DD
100
AcDbEntity
  8
02___PRT_ALL_AXES
100
AcDbLine
 62
7
  6
CONTINUOUS
 10
229.7377305303
 20
314.9983565542
 11
229.737730914
 21
283.7893489425
  0
LINE
  5
2DE
100
AcDbEntity
  8
0
100
AcDbLine
 62
7
  6
CONTINUOUS
 10
229.7621984116
 20
112.3054370642
 11
229.7621984116
 21
110.7344370642
  0
LINE
  5
2DF
100
AcDbEntity
  8
02___PRT_ALL_AXES
100
AcDbLine
 62
7
  6
CONTINUOUS
 10
229.7866659092
 20
283.7893489425
 11
229.7866660739
 21
314.998355553
  0
LINE
  5
2E0
100
AcDbEntity
  8
02___PRT_ALL_AXES
100
AcDbLine
 62
7
  6
CONTINUOUS
 10
229.7866659092
 20
262.2893489425
 11
229.7866659092
 21
277.9895553801
  0
LINE
  5
2E1
100
AcDbEntity
  8
0
100
AcDbLine
 62
7
  6
CONTINUOUS
 10
230.1711984116
 20
110.2314370642
 11
230.1711984116
 21
112.3054370642
  0
LINE
  5
2E2
100
AcDbEntity
  8
02___PRT_ALL_AXES
100
AcDbLine
 62
7
  6
CONTINUOUS
 10
230.5362535711
 20
262.1842399189
 11
230.5362535711
 21
278.0946644037
  0
LINE
  5
2E3
100
AcDbEntity
  8
02___PRT_ALL_AXES
100
AcDbLine
 62
7
  6
CONTINUOUS
 10
230.5362535711
 20
283.6842399189
 11
230.5362535117
 21
314.9983565066
  0
LINE
  5
2E4
100
AcDbEntity
  8
02___PRT_ALL_AXES
100
AcDbLine
 62
7
  6
CONTINUOUS
 10
230.8198774181
 20
262.0896956909
 11
230.8198774181
 21
278.1892086317
  0
LINE
  5
2E5
100
AcDbEntity
  8
02___PRT_ALL_AXES
100
AcDbLine
 62
7
  6
CONTINUOUS
 10
230.8198774181
 20
283.5896956909
 11
230.8198774181
 21
310.4229383593
  0
LINE
  5
2E6
100
AcDbEntity
  8
0
100
AcDbLine
 62
7
  6
CONTINUOUS
 10
231.3651984116
 20
115.3034370642
 11
231.3651984116
 21
118.4534370642
  0
LINE
  5
2E7
100
AcDbEntity
  8
0
100
AcDbLine
 62
7
  6
CONTINUOUS
 10
231.4441984116
 20
112.3244370642
 11
231.4441984116
 21
110.2114370642
  0
LINE
  5
2E8
100
AcDbEntity
  8
02___PRT_ALL_AXES
100
AcDbLine
 62
7
  6
CONTINUOUS
 10
231.5694650801
 20
261.657444046
 11
231.5694650801
 21
278.6214602766
  0
LINE
  5
2E9
100
AcDbEntity
  8
02___PRT_ALL_AXES
100
AcDbLine
 62
7
  6
CONTINUOUS
 10
231.5694650801
 20
283.157444046
 11
231.5694650801
 21
310.4229383596
  0
LINE
  5
2EA
100
AcDbEntity
  8
0
100
AcDbLine
 62
7
  6
CONTINUOUS
 10
286.1274910744
 20
365.0376781559
 11
284.7655353342
 21
362.0378819864
  0
LINE
  5
2EB
100
AcDbEntity
  8
0
100
AcDbLine
 62
7
  6
CONTINUOUS
 10
173.3969057488
 20
116.7412261667
 11
174.758861489
 21
119.7410223362
  0
LINE
  5
2EC
100
AcDbEntity
  8
02___PRT_ALL_AXES
100
AcDbLine
 62
7
  6
CONTINUOUS
 10
216.0929696139
 20
225.1500784822
 11
187.4293312356
 21
185.6979648434
  0
LINE
  5
2ED
100
AcDbEntity
  8
02___PRT_ALL_AXES
100
AcDbLine
 62
7
  6
CONTINUOUS
 10
216.445327629
 20
224.3597829826
 11
188.0357603931
 21
185.2573682706
  0
LINE
  5
2EE
100
AcDbEntity
  8
02___PRT_ALL_AXES
100
AcDbLine
 62
7
  6
CONTINUOUS
 10
216.6202490606
 20
224.1152836304
 11
185.5615210796
 21
181.366611925
  0
LINE
  5
2EF
100
AcDbEntity
  8
02___PRT_ALL_AXES
100
AcDbLine
 62
7
  6
CONTINUOUS
 10
217.1252059018
 20
223.6200407095
 11
186.127521849
 21
180.9553887669
  0
LINE
  5
2F0
100
AcDbEntity
  8
02___PRT_ALL_AXES
100
AcDbLine
 62
7
  6
CONTINUOUS
 10
186.221872276
 20
180.9197072091
 11
217.2034493044
 21
223.5621903532
  0
LINE
  5
2F1
100
AcDbEntity
  8
02___PRT_ALL_AXES
100
AcDbLine
 62
7
  6
CONTINUOUS
 10
186.828300393
 20
180.4791099789
 11
217.8716599956
 21
223.2066287665
  0
LINE
  5
2F2
100
AcDbEntity
  8
02___PRT_ALL_AXES
100
AcDbLine
 62
7
  6
CONTINUOUS
 10
189.7471209748
 20
184.0139920273
 11
218.1566882107
 21
223.1164067393
  0
LINE
  5
2F3
100
AcDbEntity
  8
02___PRT_ALL_AXES
100
AcDbLine
 62
7
  6
CONTINUOUS
 10
190.3535501319
 20
183.573395454
 11
219.0171885102
 21
223.0255090928
  0
LINE
  5
2F4
100
AcDbEntity
  8
02___PRT_ALL_AXES
100
AcDbLine
 62
7
  6
CONTINUOUS
 10
295.3339974474
 20
264.0952938164
 11
248.95525631
 21
249.0259273344
  0
LINE
  5
2F5
100
AcDbEntity
  8
02___PRT_ALL_AXES
100
AcDbLine
 62
7
  6
CONTINUOUS
 10
295.5656327733
 20
263.3823935859
 11
249.5979873799
 21
248.4466002081
  0
LINE
  5
2F6
100
AcDbEntity
  8
02___PRT_ALL_AXES
100
AcDbLine
 62
7
  6
CONTINUOUS
 10
300.0047597599
 20
264.5265335426
 11
249.7755488727
 21
248.2060736734
  0
LINE
  5
2F7
100
AcDbEntity
  8
02___PRT_ALL_AXES
100
AcDbLine
 62
7
  6
CONTINUOUS
 10
300.2363938588
 20
263.8136333912
 11
250.1071488208
 21
247.5256539176
  0
LINE
  5
2F8
100
AcDbEntity
  8
02___PRT_ALL_AXES
100
AcDbLine
 62
7
  6
CONTINUOUS
 10
250.122270566
 20
247.4791139715
 11
300.2515148212
 21
263.7670926142
  0
LINE
  5
2F9
100
AcDbEntity
  8
02___PRT_ALL_AXES
100
AcDbLine
 62
7
  6
CONTINUOUS
 10
250.2539412705
 20
246.7337332665
 11
300.4831509852
 21
263.0541928916
  0
LINE
  5
2FA
100
AcDbEntity
  8
02___PRT_ALL_AXES
100
AcDbLine
 62
7
  6
CONTINUOUS
 10
250.2516689551
 20
246.4347751855
 11
296.2193143485
 21
261.3705685633
  0
LINE
  5
2FB
100
AcDbEntity
  8
02___PRT_ALL_AXES
100
AcDbLine
 62
7
  6
CONTINUOUS
 10
250.0722085378
 20
245.588301851
 11
296.4509496751
 21
260.657668333
  0
LINE
  5
2FC
100
AcDbEntity
  8
02___PRT_ALL_AXES
100
AcDbLine
 62
7
  6
CONTINUOUS
 10
163.073447148
 20
260.657668333
 11
209.4521882854
 21
245.588301851
  0
LINE
  5
2FD
100
AcDbEntity
  8
02___PRT_ALL_AXES
100
AcDbLine
 62
7
  6
CONTINUOUS
 10
163.3050824747
 20
261.3705685633
 11
209.2727278681
 21
246.4347751855
  0
LINE
  5
2FE
100
AcDbEntity
  8
02___PRT_ALL_AXES
100
AcDbLine
 62
7
  6
CONTINUOUS
 10
159.0164504362
 20
263.0639356196
 11
209.2705291655
 21
246.7353955544
  0
LINE
  5
2FF
100
AcDbEntity
  8
02___PRT_ALL_AXES
100
AcDbLine
 62
7
  6
CONTINUOUS
 10
159.2326444434
 20
263.7293086701
 11
209.3879513463
 21
247.432861678
  0
LINE
  5
300
100
AcDbEntity
  8
02___PRT_ALL_AXES
100
AcDbLine
 62
7
  6
CONTINUOUS
 10
209.4172480024
 20
247.5256539176
 11
159.2880038489
 21
263.8136328734
  0
LINE
  5
301
100
AcDbEntity
  8
02___PRT_ALL_AXES
100
AcDbLine
 62
7
  6
CONTINUOUS
 10
209.7488479505
 20
248.2060736734
 11
159.5196381989
 21
264.5265331854
  0
LINE
  5
302
100
AcDbEntity
  8
02___PRT_ALL_AXES
100
AcDbLine
 62
7
  6
CONTINUOUS
 10
209.9264094433
 20
248.4466002081
 11
163.9587640499
 21
263.3823935859
  0
LINE
  5
303
100
AcDbEntity
  8
02___PRT_ALL_AXES
100
AcDbLine
 62
7
  6
CONTINUOUS
 10
210.5691405132
 20
249.0259273344
 11
164.1903993759
 21
264.0952938164
  0
LINE
  5
304
100
AcDbEntity
  8
02___PRT_ALL_AXES
100
AcDbLine
 62
7
  6
CONTINUOUS
 10
240.507208313
 20
223.0255090928
 11
269.1708466913
 21
183.573395454
  0
LINE
  5
305
100
AcDbEntity
  8
02___PRT_ALL_AXES
100
AcDbLine
 62
7
  6
CONTINUOUS
 10
241.3677086125
 20
223.1164067393
 11
269.7772758484
 21
184.0139920273
  0
LINE
  5
306
100
AcDbEntity
  8
02___PRT_ALL_AXES
100
AcDbLine
 62
7
  6
CONTINUOUS
 10
241.6527368276
 20
223.2066287665
 11
272.696095722
 21
180.4791109348
  0
LINE
  5
307
100
AcDbEntity
  8
02___PRT_ALL_AXES
100
AcDbLine
 62
7
  6
CONTINUOUS
 10
242.3209475188
 20
223.5621903532
 11
273.3025241358
 21
180.9197081482
  0
LINE
  5
308
100
AcDbEntity
  8
02___PRT_ALL_AXES
100
AcDbLine
 62
7
  6
CONTINUOUS
 10
273.3421144091
 20
180.9484709327
 11
242.3605367615
 21
223.5909536217
  0
LINE
  5
309
100
AcDbEntity
  8
02___PRT_ALL_AXES
100
AcDbLine
 62
7
  6
CONTINUOUS
 10
273.948543871
 20
181.3890663134
 11
242.9051843849
 21
224.116585181
  0
LINE
  5
30A
100
AcDbEntity
  8
02___PRT_ALL_AXES
100
AcDbLine
 62
7
  6
CONTINUOUS
 10
271.4886364301
 20
185.2573682706
 11
243.0790691942
 21
224.3597829826
  0
LINE
  5
30B
100
AcDbEntity
  8
02___PRT_ALL_AXES
100
AcDbLine
 62
7
  6
CONTINUOUS
 10
272.0950655876
 20
185.6979648433
 11
243.4314272093
 21
225.1500784822
  0
LINE
  5
30C
100
AcDbEntity
  8
0
100
AcDbLine
 62
7
  6
CONTINUOUS
 10
286.1274910744
 20
116.7412261667
 11
284.7655353342
 21
119.7410223362
  0
LINE
  5
30D
100
AcDbEntity
  8
0
100
AcDbLine
 62
7
  6
CONTINUOUS
 10
173.3969057488
 20
365.0376781559
 11
174.758861489
 21
362.0378819864
  0
LINE
  5
30E
100
AcDbEntity
  8
0
100
AcDbLine
 62
7
  6
CONTINUOUS
 10
231.8841984116
 20
111.5464370642
 11
231.8841984116
 21
111.9554370642
  0
LINE
  5
30F
100
AcDbEntity
  8
0
100
AcDbLine
 62
7
  6
CONTINUOUS
 10
231.8841984116
 20
110.5624370642
 11
231.8841984116
 21
111.1494370642
  0
LINE
  5
310
100
AcDbEntity
  8
0
100
AcDbLine
 62
7
  6
CONTINUOUS
 10
232.0531984116
 20
117.3954370642
 11
232.0531984116
 21
115.3034370642
  0
LINE
  5
311
100
AcDbEntity
  8
0
100
AcDbLine
 62
7
  6
CONTINUOUS
 10
233.2411984116
 20
112.3244370642
 11
233.2411984116
 21
110.2114370642
  0
LINE
  5
312
100
AcDbEntity
  8
0
100
AcDbLine
 62
7
  6
CONTINUOUS
 10
233.4581984116
 20
116.3614370642
 11
233.4581984116
 21
118.4534370642
  0
LINE
  5
313
100
AcDbEntity
  8
0
100
AcDbLine
 62
7
  6
CONTINUOUS
 10
233.6811984116
 20
111.4234370642
 11
233.6811984116
 21
111.9554370642
  0
LINE
  5
314
100
AcDbEntity
  8
0
100
AcDbLine
 62
7
  6
CONTINUOUS
 10
233.6811984116
 20
110.2114370642
 11
233.6811984116
 21
111.0814370642
  0
LINE
  5
315
100
AcDbEntity
  8
0
100
AcDbLine
 62
7
  6
CONTINUOUS
 10
234.1451984116
 20
118.4534370642
 11
234.1451984116
 21
115.3034370642
  0
LINE
  5
316
100
AcDbEntity
  8
0
100
AcDbLine
 62
7
  6
CONTINUOUS
 10
234.5831984116
 20
117.8824370642
 11
234.5831984116
 21
118.4534370642
  0
LINE
  5
317
100
AcDbEntity
  8
0
100
AcDbLine
 62
7
  6
CONTINUOUS
 10
235.3221984116
 20
115.3034370642
 11
235.3221984116
 21
117.8824370642
  0
LINE
  5
318
100
AcDbEntity
  8
0
100
AcDbLine
 62
7
  6
CONTINUOUS
 10
236.0091984116
 20
117.8824370642
 11
236.0091984116
 21
115.3034370642
  0
LINE
  5
319
100
AcDbEntity
  8
0
100
AcDbLine
 62
7
  6
CONTINUOUS
 10
236.7481984116
 20
118.4534370642
 11
236.7481984116
 21
117.8824370642
  0
LINE
  5
31A
100
AcDbEntity
  8
0
100
AcDbLine
 62
7
  6
CONTINUOUS
 10
237.1611984116
 20
110.5604370642
 11
237.1611984116
 21
110.2314370642
  0
LINE
  5
31B
100
AcDbEntity
  8
0
100
AcDbLine
 62
7
  6
CONTINUOUS
 10
237.1871984116
 20
115.3034370642
 11
237.1871984116
 21
118.4534370642
  0
LINE
  5
31C
100
AcDbEntity
  8
0
100
AcDbLine
 62
7
  6
CONTINUOUS
 10
237.2001984116
 20
112.3054370642
 11
237.2001984116
 21
111.9954370642
  0
LINE
  5
31D
100
AcDbEntity
  8
0
100
AcDbLine
 62
7
  6
CONTINUOUS
 10
237.8741984116
 20
118.4534370642
 11
237.8741984116
 21
115.3034370642
  0
LINE
  5
31E
100
AcDbEntity
  8
0
100
AcDbLine
 62
7
  6
CONTINUOUS
 10
238.3991984116
 20
115.3034370642
 11
238.3991984116
 21
118.4534370642
  0
LINE
  5
31F
100
AcDbEntity
  8
0
100
AcDbLine
 62
7
  6
CONTINUOUS
 10
238.5721984116
 20
111.9764370642
 11
238.5721984116
 21
112.3054370642
  0
LINE
  5
320
100
AcDbEntity
  8
0
100
AcDbLine
 62
7
  6
CONTINUOUS
 10
238.5921984116
 20
110.2314370642
 11
238.5921984116
 21
110.5414370642
  0
LINE
  5
321
100
AcDbEntity
  8
0
100
AcDbLine
 62
7
  6
CONTINUOUS
 10
238.9281984116
 20
112.3054370642
 11
238.9281984116
 21
110.2314370642
  0
LINE
  5
322
100
AcDbEntity
  8
0
100
AcDbLine
 62
7
  6
CONTINUOUS
 10
239.0871984116
 20
117.3954370642
 11
239.0871984116
 21
115.3034370642
  0
LINE
  5
323
100
AcDbEntity
  8
0
100
AcDbLine
 62
7
  6
CONTINUOUS
 10
239.3281984116
 20
110.2314370642
 11
239.3281984116
 21
112.3054370642
  0
LINE
  5
324
100
AcDbEntity
  8
0
100
AcDbLine
 62
7
  6
CONTINUOUS
 10
239.7981984116
 20
112.3054370642
 11
239.7981984116
 21
110.2314370642
  0
LINE
  5
325
100
AcDbEntity
  8
0
100
AcDbLine
 62
7
  6
CONTINUOUS
 10
240.1981984116
 20
110.5414370642
 11
240.1981984116
 21
112.3054370642
  0
LINE
  5
326
100
AcDbEntity
  8
0
100
AcDbLine
 62
7
  6
CONTINUOUS
 10
240.4901984116
 20
116.3614370642
 11
240.4901984116
 21
118.4534370642
  0
LINE
  5
327
100
AcDbEntity
  8
0
100
AcDbLine
 62
7
  6
CONTINUOUS
 10
241.0101984116
 20
110.2314370642
 11
241.0101984116
 21
110.5414370642
  0
LINE
  5
328
100
AcDbEntity
  8
0
100
AcDbLine
 62
7
  6
CONTINUOUS
 10
241.1791984116
 20
118.4534370642
 11
241.1791984116
 21
115.3034370642
  0
LINE
  5
329
100
AcDbEntity
  8
0
100
AcDbLine
 62
7
  6
CONTINUOUS
 10
224.9883953056
 20
117.3369087881
 11
224.657150541
 21
115.3034370642
  0
LINE
  5
32A
100
AcDbEntity
  8
0
100
AcDbLine
 62
7
  6
CONTINUOUS
 10
223.983150541
 20
115.3034370642
 11
224.4989828232
 21
118.4534370642
  0
LINE
  5
32B
100
AcDbEntity
  8
0
100
AcDbLine
 62
7
  6
CONTINUOUS
 10
247.2661984116
 20
114.9524370642
 11
247.2661984116
 21
119.1534370642
  0
LINE
  5
32C
100
AcDbEntity
  8
0
100
AcDbLine
 62
7
  6
CONTINUOUS
 10
219.6381984116
 20
112.3054370642
 11
219.1398587641
 21
110.7184370642
  0
LINE
  5
32D
100
AcDbEntity
  8
0
100
AcDbLine
 62
7
  6
CONTINUOUS
 10
219.3164911917
 20
110.2314370642
 11
219.8941984116
 21
112.0094370642
  0
LINE
  5
32E
100
AcDbEntity
  8
0
100
AcDbLine
 62
7
  6
CONTINUOUS
 10
225.8788972357
 20
116.4044370642
 11
226.5716483861
 21
118.4534370642
  0
LINE
  5
32F
100
AcDbEntity
  8
0
100
AcDbLine
 62
7
  6
CONTINUOUS
 10
226.7684715987
 20
117.3414370642
 11
226.0792809173
 21
115.3034370642
  0
LINE
  5
330
100
AcDbEntity
  8
0
100
AcDbLine
 62
7
  6
CONTINUOUS
 10
221.2921984116
 20
111.0224370642
 11
221.6008274833
 21
111.9044370642
  0
LINE
  5
331
100
AcDbEntity
  8
0
100
AcDbLine
 62
7
  6
CONTINUOUS
 10
220.997258493
 20
110.2314370642
 11
221.1801208351
 21
110.7114370642
  0
LINE
  5
332
100
AcDbEntity
  8
0
100
AcDbLine
 62
7
  6
CONTINUOUS
 10
221.3921684754
 20
112.3054370642
 11
220.584258493
 21
110.2314370642
  0
LINE
  5
333
100
AcDbEntity
  8
0
100
AcDbLine
 62
7
  6
CONTINUOUS
 10
222.1579975817
 20
117.5499304478
 11
221.7461984116
 21
116.5004370642
  0
LINE
  5
334
100
AcDbEntity
  8
0
100
AcDbLine
 62
7
  6
CONTINUOUS
 10
221.5239937351
 20
115.9334370642
 11
221.2761984116
 21
115.3034370642
  0
LINE
  5
335
100
AcDbEntity
  8
0
100
AcDbLine
 62
7
  6
CONTINUOUS
 10
220.6051984116
 20
115.3034370642
 11
221.8480491304
 21
118.4534370642
  0
LINE
  5
336
100
AcDbEntity
  8
0
100
AcDbLine
 62
7
  6
CONTINUOUS
 10
275.6993404858
 20
366.1799829067
 11
275.7889357419
 21
364.1822956579
  0
LINE
  5
337
100
AcDbEntity
  8
0
100
AcDbLine
 62
7
  6
CONTINUOUS
 10
275.6993404858
 20
115.5989214158
 11
275.7889357419
 21
117.5966086647
  0
LINE
  5
338
100
AcDbEntity
  8
0
100
AcDbLine
 62
7
  6
CONTINUOUS
 10
235.6263689487
 20
111.0224370642
 11
235.9349980204
 21
111.9044370642
  0
LINE
  5
339
100
AcDbEntity
  8
0
100
AcDbLine
 62
7
  6
CONTINUOUS
 10
235.3312437343
 20
110.2314370642
 11
235.5141060764
 21
110.7114370642
  0
LINE
  5
33A
100
AcDbEntity
  8
0
100
AcDbLine
 62
7
  6
CONTINUOUS
 10
235.7261537166
 20
112.3054370642
 11
234.9182437343
 21
110.2314370642
  0
LINE
  5
33B
100
AcDbEntity
  8
0
100
AcDbLine
 62
7
  6
CONTINUOUS
 10
242.4486509891
 20
115.9334370642
 11
242.2011984116
 21
115.3034370642
  0
LINE
  5
33C
100
AcDbEntity
  8
0
100
AcDbLine
 62
7
  6
CONTINUOUS
 10
243.083293513
 20
117.5494998252
 11
242.6711984116
 21
116.5004370642
  0
LINE
  5
33D
100
AcDbEntity
  8
0
100
AcDbLine
 62
7
  6
CONTINUOUS
 10
241.5301984116
 20
115.3034370642
 11
242.7729220592
 21
118.4534370642
  0
LINE
  5
33E
100
AcDbEntity
  8
0
100
AcDbLine
 62
7
  6
CONTINUOUS
 10
272.0950655874
 20
185.6979648436
 11
271.4886364301
 21
185.2573682706
  0
LINE
  5
33F
100
AcDbEntity
  8
0
100
AcDbLine
 62
7
  6
CONTINUOUS
 10
269.1708466911
 20
183.5733954543
 11
269.7772758484
 21
184.0139920273
  0
LINE
  5
340
100
AcDbEntity
  8
0
100
AcDbLine
 62
7
  6
CONTINUOUS
 10
273.3025241358
 20
180.9197081482
 11
272.6960963413
 21
180.479110184
  0
LINE
  5
341
100
AcDbEntity
  8
0
100
AcDbLine
 62
7
  6
CONTINUOUS
 10
273.3421144091
 20
180.9484709327
 11
273.9485438731
 21
181.3890663105
  0
LINE
  5
342
100
AcDbEntity
  8
0
100
AcDbLine
 62
7
  6
CONTINUOUS
 10
231.5694650801
 20
310.4229383593
 11
230.8198774181
 21
310.4229383593
  0
LINE
  5
343
100
AcDbEntity
  8
0
100
AcDbLine
 62
7
  6
CONTINUOUS
 10
227.9549317432
 20
310.4229383593
 11
228.7045194051
 21
310.4229383593
  0
LINE
  5
344
100
AcDbEntity
  8
0
100
AcDbLine
 62
7
  6
CONTINUOUS
 10
229.7377305303
 20
314.9983565542
 11
228.9881433227
 21
314.9983577014
  0
LINE
  5
345
100
AcDbEntity
  8
0
100
AcDbLine
 62
7
  6
CONTINUOUS
 10
229.7866660739
 20
314.998355553
 11
230.5362534521
 21
314.9983574767
  0
LINE
  5
346
100
AcDbEntity
  8
0
100
AcDbLine
 62
7
  6
CONTINUOUS
 10
295.333997447
 20
264.0952938163
 11
295.5656327733
 21
263.3823935859
  0
LINE
  5
347
100
AcDbEntity
  8
0
100
AcDbLine
 62
7
  6
CONTINUOUS
 10
296.4509496749
 20
260.6576683329
 11
296.2193143485
 21
261.3705685633
  0
LINE
  5
348
100
AcDbEntity
  8
0
100
AcDbLine
 62
7
  6
CONTINUOUS
 10
300.2515148212
 20
263.7670926142
 11
300.4831518895
 21
263.0541932481
  0
LINE
  5
349
100
AcDbEntity
  8
0
100
AcDbLine
 62
7
  6
CONTINUOUS
 10
300.2363938588
 20
263.8136333912
 11
300.004759764
 21
264.5265335439
  0
LINE
  5
34A
100
AcDbEntity
  8
0
100
AcDbLine
 62
7
  6
CONTINUOUS
 10
269.9691906447
 20
116.6282249623
 11
270.7075115458
 21
118.9279842441
  0
LINE
  5
34B
100
AcDbEntity
  8
0
100
AcDbLine
 62
7
  6
CONTINUOUS
 10
238.1541984116
 20
111.9954370642
 11
237.1611984116
 21
110.5604370642
  0
LINE
  5
34C
100
AcDbEntity
  8
0
100
AcDbLine
 62
7
  6
CONTINUOUS
 10
237.5701984116
 20
110.5414370642
 11
238.5721984116
 21
111.9764370642
  0
LINE
  5
34D
100
AcDbEntity
  8
0
100
AcDbLine
 62
7
  6
CONTINUOUS
 10
269.9691906447
 20
365.1506793603
 11
270.7075115458
 21
362.8509200785
  0
LINE
  5
34E
100
AcDbEntity
  8
02___PRT_ALL_AXES
100
AcDbLine
 62
7
  6
CONTINUOUS
 10
363.7621984116
 20
478.1922669035
 11
95.7621984116
 21
478.1922669035
  0
LINE
  5
34F
100
AcDbEntity
  8
0
100
AcDbLine
 62
7
  6
CONTINUOUS
 10
365.0863462705
 20
481.2188905809
 11
94.4380505527
 21
481.2188905809
  0
LINE
  5
350
100
AcDbEntity
  8
0
100
AcDbLine
 62
7
  6
CONTINUOUS
 10
370.5801596833
 20
488.5455320995
 11
88.9442371399
 21
488.5455320995
  0
LINE
  5
351
100
AcDbEntity
  8
0
100
AcDbLine
 62
7
  6
CONTINUOUS
 10
79.7639975023
 20
507.8887109967
 11
379.7603993209
 21
507.8887109967
  0
LINE
  5
352
100
AcDbEntity
  8
0
100
AcDbLine
 62
7
  6
CONTINUOUS
 10
80.0639764274
 20
508.1922669035
 11
379.4604203958
 21
508.1922669035
  0
LINE
  5
353
100
AcDbEntity
  8
0
100
AcDbLine
 62
3
  6
CONTINUOUS
 10
379.2621984116
 20
510.1922669035
 11
80.2621984116
 21
510.1922669035
  0
LINE
  5
354
100
AcDbEntity
  8
02___PRT_ALL_AXES
100
AcDbLine
 62
7
  6
CONTINUOUS
 10
94.4380505527
 20
481.2188905809
 11
95.7621984116
 21
478.1922669035
  0
LINE
  5
355
100
AcDbEntity
  8
0
100
AcDbLine
 62
7
  6
CONTINUOUS
 10
95.7621984116
 20
478.1922669035
 11
94.4380505527
 21
481.2188905809
  0
LINE
  5
356
100
AcDbEntity
  8
02___PRT_ALL_AXES
100
AcDbLine
 62
3
  6
CONTINUOUS
 10
80.2621984116
 20
1091.0957669035
 11
80.2621984116
 21
510.1922669035
  0
LINE
  5
357
100
AcDbEntity
  8
02___PRT_ALL_AXES
100
AcDbLine
 62
7
  6
CONTINUOUS
 10
75.0254030957
 20
1092.3376462995
 11
75.5554822002
 21
1107.5171257951
  0
LINE
  5
358
100
AcDbEntity
  8
0
100
AcDbLine
 62
7
  6
CONTINUOUS
 10
75.0254030957
 20
1092.3376462995
 11
75.5554822002
 21
1107.5171257951
  0
LINE
  5
359
100
AcDbEntity
  8
03___PRT_ALL_CURVES
100
AcDbLine
 62
2
  6
CONTINUOUS
 10
221.0769748801
 20
1062.6631927029
 11
220.6067882673
 21
1061.4640939546
  0
LINE
  5
35A
100
AcDbEntity
  8
03___PRT_ALL_CURVES
100
AcDbLine
 62
2
  6
CONTINUOUS
 10
220.7137796021
 20
1063.6959337542
 11
219.3012173556
 21
1060.0966389913
  0
LINE
  5
35B
100
AcDbEntity
  8
03___PRT_ALL_CURVES
100
AcDbLine
 62
2
  6
CONTINUOUS
 10
220.352224727
 20
1060.8164237456
 11
220.0689417635
 21
1060.0966389913
  0
LINE
  5
35C
100
AcDbEntity
  8
03___PRT_ALL_CURVES
100
AcDbLine
 62
2
  6
CONTINUOUS
 10
226.114477376
 20
1063.6959337542
 11
225.323493019
 21
1061.3549500532
  0
LINE
  5
35D
100
AcDbEntity
  8
03___PRT_ALL_CURVES
100
AcDbLine
 62
2
  6
CONTINUOUS
 10
225.5533077062
 20
1060.0966389913
 11
226.3406467734
 21
1062.4249757509
  0
LINE
  5
35E
100
AcDbEntity
  8
03___PRT_ALL_CURVES
100
AcDbLine
 62
2
  6
CONTINUOUS
 10
244.6186902543
 20
1063.6959337542
 11
243.2062022807
 21
1060.0966389913
  0
LINE
  5
35F
100
AcDbEntity
  8
03___PRT_ALL_CURVES
100
AcDbLine
 62
2
  6
CONTINUOUS
 10
244.9820790503
 20
1062.6633328193
 11
244.5113412082
 21
1061.4640939546
  0
LINE
  5
360
100
AcDbEntity
  8
03___PRT_ALL_CURVES
100
AcDbLine
 62
2
  6
CONTINUOUS
 10
243.9739266886
 20
1060.0966389913
 11
244.2572096521
 21
1060.8164237456
  0
LINE
  5
361
100
AcDbEntity
  8
03___PRT_ALL_CURVES
100
AcDbLine
 62
2
  6
CONTINUOUS
 10
223.9273347733
 20
1060.0966389913
 11
224.306597579
 21
1062.4232415136
  0
LINE
  5
362
100
AcDbEntity
  8
03___PRT_ALL_CURVES
100
AcDbLine
 62
2
  6
CONTINUOUS
 10
223.7467178392
 20
1063.6959337542
 11
223.157269797
 21
1060.0966389913
  0
LINE
  5
363
100
AcDbEntity
  8
03___PRT_ALL_CURVES
100
AcDbLine
 62
2
  6
CONTINUOUS
 10
209.762042381
 20
1059.6952269046
 11
209.762042381
 21
1064.4954453778
  0
LINE
  5
364
100
AcDbEntity
  8
03___PRT_ALL_CURVES
100
AcDbLine
 62
2
  6
CONTINUOUS
 10
210.1621788853
 20
1059.6951951028
 11
210.1621788853
 21
1064.4954135759
  0
LINE
  5
365
100
AcDbEntity
  8
0
100
AcDbLine
 62
7
  6
CONTINUOUS
 10
212.2561984116
 20
1136.0957669035
 11
212.2561984116
 21
1136.4957669035
  0
LINE
  5
366
100
AcDbEntity
  8
03___PRT_ALL_CURVES
100
AcDbLine
 62
2
  6
CONTINUOUS
 10
213.4102593965
 20
1063.6959337542
 11
213.4102593965
 21
1063.043739184
  0
LINE
  5
367
100
AcDbEntity
  8
0
100
AcDbLine
 62
7
  6
CONTINUOUS
 10
213.6571984116
 20
1136.0957669035
 11
213.6571984116
 21
1136.4957669035
  0
LINE
  5
368
100
AcDbEntity
  8
03___PRT_ALL_CURVES
100
AcDbLine
 62
2
  6
CONTINUOUS
 10
214.2541612102
 20
1063.043739184
 11
214.2541612102
 21
1060.0966389913
  0
LINE
  5
369
100
AcDbEntity
  8
03___PRT_ALL_CURVES
100
AcDbLine
 62
2
  6
CONTINUOUS
 10
215.0404873566
 20
1063.043739184
 11
215.0404873566
 21
1060.0966389913
  0
LINE
  5
36A
100
AcDbEntity
  8
03___PRT_ALL_CURVES
100
AcDbLine
 62
2
  6
CONTINUOUS
 10
215.8843891703
 20
1063.6959337542
 11
215.8843891703
 21
1063.043739184
  0
LINE
  5
36B
100
AcDbEntity
  8
03___PRT_ALL_CURVES
100
AcDbLine
 62
2
  6
CONTINUOUS
 10
216.3848999377
 20
1060.0966389913
 11
216.3848999377
 21
1063.6959337542
  0
LINE
  5
36C
100
AcDbEntity
  8
03___PRT_ALL_CURVES
100
AcDbLine
 62
2
  6
CONTINUOUS
 10
217.1712260842
 20
1061.4648041554
 11
217.1712260842
 21
1060.0966389913
  0
LINE
  5
36D
100
AcDbEntity
  8
03___PRT_ALL_CURVES
100
AcDbLine
 62
2
  6
CONTINUOUS
 10
217.1712260842
 20
1062.0933550475
 11
217.1712260842
 21
1063.043739184
  0
LINE
  5
36E
100
AcDbEntity
  8
0
100
AcDbLine
 62
7
  6
CONTINUOUS
 10
217.9511984116
 20
1136.0957669035
 11
217.9511984116
 21
1136.4957669035
  0
LINE
  5
36F
100
AcDbEntity
  8
0
100
AcDbLine
 62
7
  6
CONTINUOUS
 10
218.3601984116
 20
1136.0957669035
 11
218.3601984116
 21
1136.4957669035
  0
LINE
  5
370
100
AcDbEntity
  8
0
100
AcDbLine
 62
7
  6
CONTINUOUS
 10
218.9374911917
 20
1136.0957669035
 11
218.9374911917
 21
1136.4957669035
  0
LINE
  5
371
100
AcDbEntity
  8
0
100
AcDbLine
 62
7
  6
CONTINUOUS
 10
219.3164911917
 20
1136.0957669035
 11
219.3164911917
 21
1136.4957669035
  0
LINE
  5
372
100
AcDbEntity
  8
0
100
AcDbLine
 62
7
  6
CONTINUOUS
 10
219.8941984116
 20
1136.0957669035
 11
219.8941984116
 21
1136.4957669035
  0
LINE
  5
373
100
AcDbEntity
  8
0
100
AcDbLine
 62
7
  6
CONTINUOUS
 10
220.3031984116
 20
1136.0957669035
 11
220.3031984116
 21
1136.4957669035
  0
LINE
  5
374
100
AcDbEntity
  8
0
100
AcDbLine
 62
7
  6
CONTINUOUS
 10
220.584258493
 20
1136.0957669035
 11
220.584258493
 21
1136.4957669035
  0
LINE
  5
375
100
AcDbEntity
  8
0
100
AcDbLine
 62
7
  6
CONTINUOUS
 10
220.997258493
 20
1136.0957669035
 11
220.997258493
 21
1136.4957669035
  0
LINE
  5
376
100
AcDbEntity
  8
0
100
AcDbLine
 62
7
  6
CONTINUOUS
 10
221.1801208351
 20
1136.0957669035
 11
221.1801208351
 21
1136.4957669035
  0
LINE
  5
377
100
AcDbEntity
  8
0
100
AcDbLine
 62
7
  6
CONTINUOUS
 10
222.0421208351
 20
1136.0957669035
 11
222.0421208351
 21
1136.4957669035
  0
LINE
  5
378
100
AcDbEntity
  8
0
100
AcDbLine
 62
7
  6
CONTINUOUS
 10
222.2232131703
 20
1136.0957669035
 11
222.2232131703
 21
1136.4957669035
  0
LINE
  5
379
100
AcDbEntity
  8
0
100
AcDbLine
 62
7
  6
CONTINUOUS
 10
222.6662131703
 20
1136.0957669035
 11
222.6662131703
 21
1136.4957669035
  0
LINE
  5
37A
100
AcDbEntity
  8
0
100
AcDbLine
 62
7
  6
CONTINUOUS
 10
222.9421984116
 20
1136.0957669035
 11
222.9421984116
 21
1136.4957669035
  0
LINE
  5
37B
100
AcDbEntity
  8
0
100
AcDbLine
 62
7
  6
CONTINUOUS
 10
223.5251984116
 20
1136.0957669035
 11
223.5251984116
 21
1136.4957669035
  0
LINE
  5
37C
100
AcDbEntity
  8
0
100
AcDbLine
 62
7
  6
CONTINUOUS
 10
224.7434536438
 20
1136.0957669035
 11
224.7434536438
 21
1136.4957669035
  0
LINE
  5
37D
100
AcDbEntity
  8
0
100
AcDbLine
 62
7
  6
CONTINUOUS
 10
225.1281984116
 20
1136.0957669035
 11
225.1281984116
 21
1136.4957669035
  0
LINE
  5
37E
100
AcDbEntity
  8
0
100
AcDbLine
 62
7
  6
CONTINUOUS
 10
226.3491984116
 20
1136.0957669035
 11
226.3491984116
 21
1136.4957669035
  0
LINE
  5
37F
100
AcDbEntity
  8
0
100
AcDbLine
 62
7
  6
CONTINUOUS
 10
227.5941984116
 20
1136.0957669035
 11
227.5941984116
 21
1136.4957669035
  0
LINE
  5
380
100
AcDbEntity
  8
0
100
AcDbLine
 62
7
  6
CONTINUOUS
 10
227.9941984116
 20
1136.0957669035
 11
227.9941984116
 21
1136.4957669035
  0
LINE
  5
381
100
AcDbEntity
  8
0
100
AcDbLine
 62
7
  6
CONTINUOUS
 10
228.4341984116
 20
1136.0957669035
 11
228.4341984116
 21
1136.4957669035
  0
LINE
  5
382
100
AcDbEntity
  8
0
100
AcDbLine
 62
7
  6
CONTINUOUS
 10
228.8431984116
 20
1136.0957669035
 11
228.8431984116
 21
1136.4957669035
  0
LINE
  5
383
100
AcDbEntity
  8
0
100
AcDbLine
 62
7
  6
CONTINUOUS
 10
228.8691984116
 20
1136.0957669035
 11
228.8691984116
 21
1136.4957669035
  0
LINE
  5
384
100
AcDbEntity
  8
0
100
AcDbLine
 62
7
  6
CONTINUOUS
 10
229.7621984116
 20
1136.0957669035
 11
229.7621984116
 21
1136.4957669035
  0
LINE
  5
385
100
AcDbEntity
  8
0
100
AcDbLine
 62
7
  6
CONTINUOUS
 10
230.1711984116
 20
1136.0957669035
 11
230.1711984116
 21
1136.4957669035
  0
LINE
  5
386
100
AcDbEntity
  8
0
100
AcDbLine
 62
7
  6
CONTINUOUS
 10
231.4441984116
 20
1136.0957669035
 11
231.4441984116
 21
1136.4957669035
  0
LINE
  5
387
100
AcDbEntity
  8
03___PRT_ALL_CURVES
100
AcDbLine
 62
2
  6
CONTINUOUS
 10
231.5937749375
 20
1063.6959337542
 11
231.5937749375
 21
1060.0966389913
  0
LINE
  5
388
100
AcDbEntity
  8
0
100
AcDbLine
 62
7
  6
CONTINUOUS
 10
232.1861984116
 20
1136.0957669035
 11
232.1861984116
 21
1136.4957669035
  0
LINE
  5
389
100
AcDbEntity
  8
03___PRT_ALL_CURVES
100
AcDbLine
 62
2
  6
CONTINUOUS
 10
232.3801010839
 20
1060.0966389913
 11
232.3801010839
 21
1062.4867217308
  0
LINE
  5
38A
100
AcDbEntity
  8
0
100
AcDbLine
 62
7
  6
CONTINUOUS
 10
232.9331984116
 20
1136.0957669035
 11
232.9331984116
 21
1136.4957669035
  0
LINE
  5
38B
100
AcDbEntity
  8
0
100
AcDbLine
 62
7
  6
CONTINUOUS
 10
233.2411984116
 20
1136.0957669035
 11
233.2411984116
 21
1136.4957669035
  0
LINE
  5
38C
100
AcDbEntity
  8
0
100
AcDbLine
 62
7
  6
CONTINUOUS
 10
233.6811984116
 20
1136.0957669035
 11
233.6811984116
 21
1136.4957669035
  0
LINE
  5
38D
100
AcDbEntity
  8
0
100
AcDbLine
 62
7
  6
CONTINUOUS
 10
233.8061984116
 20
1136.0957669035
 11
233.8061984116
 21
1136.4957669035
  0
LINE
  5
38E
100
AcDbEntity
  8
03___PRT_ALL_CURVES
100
AcDbLine
 62
2
  6
CONTINUOUS
 10
233.9838851472
 20
1063.6959337542
 11
233.9838851472
 21
1061.3058510147
  0
LINE
  5
38F
100
AcDbEntity
  8
0
100
AcDbLine
 62
7
  6
CONTINUOUS
 10
234.0881984116
 20
1136.0957669035
 11
234.0881984116
 21
1136.4957669035
  0
LINE
  5
390
100
AcDbEntity
  8
0
100
AcDbLine
 62
7
  6
CONTINUOUS
 10
234.3428727827
 20
1136.0957669035
 11
234.3428727827
 21
1136.4957669035
  0
LINE
  5
391
100
AcDbEntity
  8
03___PRT_ALL_CURVES
100
AcDbLine
 62
2
  6
CONTINUOUS
 10
234.7702112937
 20
1060.0966389913
 11
234.7702112937
 21
1063.6959337542
  0
LINE
  5
392
100
AcDbEntity
  8
0
100
AcDbLine
 62
7
  6
CONTINUOUS
 10
234.8318727827
 20
1136.0957669035
 11
234.8318727827
 21
1136.4957669035
  0
LINE
  5
393
100
AcDbEntity
  8
0
100
AcDbLine
 62
7
  6
CONTINUOUS
 10
234.9182437343
 20
1136.0957669035
 11
234.9182437343
 21
1136.4957669035
  0
LINE
  5
394
100
AcDbEntity
  8
03___PRT_ALL_CURVES
100
AcDbLine
 62
2
  6
CONTINUOUS
 10
235.2704926811
 20
1063.6959337542
 11
235.2704926811
 21
1063.043739184
  0
LINE
  5
395
100
AcDbEntity
  8
0
100
AcDbLine
 62
7
  6
CONTINUOUS
 10
235.3312437343
 20
1136.0957669035
 11
235.3312437343
 21
1136.4957669035
  0
LINE
  5
396
100
AcDbEntity
  8
0
100
AcDbLine
 62
7
  6
CONTINUOUS
 10
235.5141060764
 20
1136.0957669035
 11
235.5141060764
 21
1136.4957669035
  0
LINE
  5
397
100
AcDbEntity
  8
03___PRT_ALL_CURVES
100
AcDbLine
 62
2
  6
CONTINUOUS
 10
236.1143944947
 20
1063.043739184
 11
236.1143944947
 21
1060.0966389913
  0
LINE
  5
398
100
AcDbEntity
  8
0
100
AcDbLine
 62
7
  6
CONTINUOUS
 10
236.3761060764
 20
1136.0957669035
 11
236.3761060764
 21
1136.4957669035
  0
LINE
  5
399
100
AcDbEntity
  8
0
100
AcDbLine
 62
7
  6
CONTINUOUS
 10
236.5571984116
 20
1136.0957669035
 11
236.5571984116
 21
1136.4957669035
  0
LINE
  5
39A
100
AcDbEntity
  8
03___PRT_ALL_CURVES
100
AcDbLine
 62
2
  6
CONTINUOUS
 10
236.9007206412
 20
1060.0966389913
 11
236.9007206412
 21
1063.043739184
  0
LINE
  5
39B
100
AcDbEntity
  8
0
100
AcDbLine
 62
7
  6
CONTINUOUS
 10
237.0001984116
 20
1136.0957669035
 11
237.0001984116
 21
1136.4957669035
  0
LINE
  5
39C
100
AcDbEntity
  8
0
100
AcDbLine
 62
7
  6
CONTINUOUS
 10
237.1611984116
 20
1136.0957669035
 11
237.1611984116
 21
1136.4957669035
  0
LINE
  5
39D
100
AcDbEntity
  8
03___PRT_ALL_CURVES
100
AcDbLine
 62
2
  6
CONTINUOUS
 10
237.7446224548
 20
1063.043739184
 11
237.7446224548
 21
1063.6959337542
  0
LINE
  5
39E
100
AcDbEntity
  8
03___PRT_ALL_CURVES
100
AcDbLine
 62
2
  6
CONTINUOUS
 10
238.2458061696
 20
1063.6959337542
 11
238.2458061696
 21
1060.0966389913
  0
LINE
  5
39F
100
AcDbEntity
  8
0
100
AcDbLine
 62
7
  6
CONTINUOUS
 10
238.5921984116
 20
1136.0957669035
 11
238.5921984116
 21
1136.4957669035
  0
LINE
  5
3A0
100
AcDbEntity
  8
0
100
AcDbLine
 62
7
  6
CONTINUOUS
 10
238.9281984116
 20
1136.0957669035
 11
238.9281984116
 21
1136.4957669035
  0
LINE
  5
3A1
100
AcDbEntity
  8
03___PRT_ALL_CURVES
100
AcDbLine
 62
2
  6
CONTINUOUS
 10
239.032132316
 20
1060.0966389913
 11
239.032132316
 21
1063.6959337542
  0
LINE
  5
3A2
100
AcDbEntity
  8
0
100
AcDbLine
 62
7
  6
CONTINUOUS
 10
239.3281984116
 20
1136.0957669035
 11
239.3281984116
 21
1136.4957669035
  0
LINE
  5
3A3
100
AcDbEntity
  8
03___PRT_ALL_CURVES
100
AcDbLine
 62
2
  6
CONTINUOUS
 10
239.6315961162
 20
1063.6959337542
 11
239.6315961162
 21
1060.0966389913
  0
LINE
  5
3A4
100
AcDbEntity
  8
0
100
AcDbLine
 62
7
  6
CONTINUOUS
 10
239.7981984116
 20
1136.0957669035
 11
239.7981984116
 21
1136.4957669035
  0
LINE
  5
3A5
100
AcDbEntity
  8
03___PRT_ALL_CURVES
100
AcDbLine
 62
2
  6
CONTINUOUS
 10
240.4179222626
 20
1060.0966389913
 11
240.4179222626
 21
1062.4867217308
  0
LINE
  5
3A6
100
AcDbEntity
  8
0
100
AcDbLine
 62
7
  6
CONTINUOUS
 10
241.0101984116
 20
1136.0957669035
 11
241.0101984116
 21
1136.4957669035
  0
LINE
  5
3A7
100
AcDbEntity
  8
03___PRT_ALL_CURVES
100
AcDbLine
 62
2
  6
CONTINUOUS
 10
242.0217063259
 20
1063.6959337542
 11
242.0217063259
 21
1061.3058510147
  0
LINE
  5
3A8
100
AcDbEntity
  8
03___PRT_ALL_CURVES
100
AcDbLine
 62
2
  6
CONTINUOUS
 10
242.8080324724
 20
1060.0966389913
 11
242.8080324724
 21
1063.6959337542
  0
LINE
  5
3A9
100
AcDbEntity
  8
0
100
AcDbLine
 62
7
  6
CONTINUOUS
 10
245.8671984116
 20
1136.0957669035
 11
245.8671984116
 21
1136.4957669035
  0
LINE
  5
3AA
100
AcDbEntity
  8
0
100
AcDbLine
 62
7
  6
CONTINUOUS
 10
247.2661984116
 20
1136.0957669035
 11
247.2661984116
 21
1136.4957669035
  0
LINE
  5
3AB
100
AcDbEntity
  8
03___PRT_ALL_CURVES
100
AcDbLine
 62
2
  6
CONTINUOUS
 10
249.362217938
 20
1064.4954135759
 11
249.362217938
 21
1059.6951951028
  0
LINE
  5
3AC
100
AcDbEntity
  8
03___PRT_ALL_CURVES
100
AcDbLine
 62
2
  6
CONTINUOUS
 10
249.7623544422
 20
1064.4954453778
 11
249.7623544422
 21
1059.6952269046
  0
LINE
  5
3AD
100
AcDbEntity
  8
03___PRT_ALL_CURVES
100
AcDbLine
 62
2
  6
CONTINUOUS
 10
227.4900698871
 20
1060.0966389913
 11
226.9008035224
 21
1063.6959337542
  0
LINE
  5
3AE
100
AcDbEntity
  8
03___PRT_ALL_CURVES
100
AcDbLine
 62
2
  6
CONTINUOUS
 10
226.3406467734
 20
1062.4249757509
 11
226.7200049108
 21
1060.0966389913
  0
LINE
  5
3AF
100
AcDbEntity
  8
03___PRT_ALL_CURVES
100
AcDbLine
 62
2
  6
CONTINUOUS
 10
221.0769748801
 20
1062.6631927029
 11
221.5482639515
 21
1061.4640939546
  0
LINE
  5
3B0
100
AcDbEntity
  8
03___PRT_ALL_CURVES
100
AcDbLine
 62
2
  6
CONTINUOUS
 10
221.8025116688
 20
1060.8164237456
 11
222.0852477028
 21
1060.0966389913
  0
LINE
  5
3B1
100
AcDbEntity
  8
03___PRT_ALL_CURVES
100
AcDbLine
 62
2
  6
CONTINUOUS
 10
221.4405578324
 20
1063.6959337542
 11
222.8529721106
 21
1060.0966389913
  0
LINE
  5
3B2
100
AcDbEntity
  8
03___PRT_ALL_CURVES
100
AcDbLine
 62
2
  6
CONTINUOUS
 10
224.306597579
 20
1062.4232415136
 11
225.0944237408
 21
1060.0966389913
  0
LINE
  5
3B3
100
AcDbEntity
  8
03___PRT_ALL_CURVES
100
AcDbLine
 62
2
  6
CONTINUOUS
 10
225.323493019
 20
1061.3549500532
 11
224.5330439857
 21
1063.6959337542
  0
LINE
  5
3B4
100
AcDbEntity
  8
03___PRT_ALL_CURVES
100
AcDbLine
 62
2
  6
CONTINUOUS
 10
245.7074965939
 20
1060.8164237456
 11
245.9902326279
 21
1060.0966389913
  0
LINE
  5
3B5
100
AcDbEntity
  8
03___PRT_ALL_CURVES
100
AcDbLine
 62
2
  6
CONTINUOUS
 10
244.9820790503
 20
1062.6633328193
 11
245.4528168924
 21
1061.4640939546
  0
LINE
  5
3B6
100
AcDbEntity
  8
03___PRT_ALL_CURVES
100
AcDbLine
 62
2
  6
CONTINUOUS
 10
246.7579570357
 20
1060.0966389913
 11
245.3454684846
 21
1063.6959337542
  0
LINE
  5
3B7
100
AcDbEntity
  8
03___PRT_ALL_CURVES
100
AcDbLine
 62
2
  6
CONTINUOUS
 10
218.1286859929
 20
1060.0966389913
 11
217.1712260842
 21
1061.4648041554
  0
LINE
  5
3B8
100
AcDbEntity
  8
03___PRT_ALL_CURVES
100
AcDbLine
 62
2
  6
CONTINUOUS
 10
217.9378037162
 20
1061.6169558502
 11
219.0016851494
 21
1060.0966389913
  0
LINE
  5
3B9
100
AcDbEntity
  8
03___PRT_ALL_CURVES
100
AcDbLine
 62
2
  6
CONTINUOUS
 10
232.3801010839
 20
1062.4867217308
 11
233.9838851472
 21
1060.0966389913
  0
LINE
  5
3BA
100
AcDbEntity
  8
03___PRT_ALL_CURVES
100
AcDbLine
 62
2
  6
CONTINUOUS
 10
233.9838851472
 20
1061.3058510147
 11
232.3801010839
 21
1063.6959337542
  0
LINE
  5
3BB
100
AcDbEntity
  8
02___PRT_ALL_AXES
100
AcDbLine
 62
7
  6
CONTINUOUS
 10
384.4989937275
 20
1092.3376462995
 11
383.968914623
 21
1107.5171257951
  0
LINE
  5
3BC
100
AcDbEntity
  8
0
100
AcDbLine
 62
7
  6
CONTINUOUS
 10
384.4989937275
 20
1092.3376462995
 11
383.968914623
 21
1107.5171257951
  0
LINE
  5
3BD
100
AcDbEntity
  8
02___PRT_ALL_AXES
100
AcDbLine
 62
3
  6
CONTINUOUS
 10
379.2621984116
 20
1091.0957669035
 11
379.2621984116
 21
510.1922669035
  0
LINE
  5
3BE
100
AcDbEntity
  8
03___PRT_ALL_CURVES
100
AcDbLine
 62
2
  6
CONTINUOUS
 10
240.4179222626
 20
1062.4867217308
 11
242.0217063259
 21
1060.0966389913
  0
LINE
  5
3BF
100
AcDbEntity
  8
03___PRT_ALL_CURVES
100
AcDbLine
 62
2
  6
CONTINUOUS
 10
242.0217063259
 20
1061.3058510147
 11
240.4179222626
 21
1063.6959337542
  0
LINE
  5
3C0
100
AcDbEntity
  8
02___PRT_ALL_AXES
100
AcDbLine
 62
7
  6
CONTINUOUS
 10
365.0863462705
 20
481.2188905809
 11
363.7621984116
 21
478.1922669035
  0
LINE
  5
3C1
100
AcDbEntity
  8
0
100
AcDbLine
 62
7
  6
CONTINUOUS
 10
363.7621984116
 20
478.1922669035
 11
365.0863462705
 21
481.2188905809
  0
LINE
  5
3C2
100
AcDbEntity
  8
03___PRT_ALL_CURVES
100
AcDbLine
 62
2
  6
CONTINUOUS
 10
248.1625329165
 20
1058.095405379
 11
211.361862823
 21
1058.095405379
  0
LINE
  5
3C3
100
AcDbEntity
  8
03___PRT_ALL_CURVES
100
AcDbLine
 62
2
  6
CONTINUOUS
 10
248.1625329165
 20
1058.4953417753
 11
211.361862823
 21
1058.4953417753
  0
LINE
  5
3C4
100
AcDbEntity
  8
03___PRT_ALL_CURVES
100
AcDbLine
 62
2
  6
CONTINUOUS
 10
222.8529721106
 20
1060.0966389913
 11
222.0852477284
 21
1060.0966389913
  0
LINE
  5
3C5
100
AcDbEntity
  8
03___PRT_ALL_CURVES
100
AcDbLine
 62
2
  6
CONTINUOUS
 10
220.0689417635
 20
1060.0966389913
 11
219.3012173744
 21
1060.0966389913
  0
LINE
  5
3C6
100
AcDbEntity
  8
03___PRT_ALL_CURVES
100
AcDbLine
 62
2
  6
CONTINUOUS
 10
219.0016851494
 20
1060.0966389913
 11
218.1286859902
 21
1060.0966389913
  0
LINE
  5
3C7
100
AcDbEntity
  8
03___PRT_ALL_CURVES
100
AcDbLine
 62
2
  6
CONTINUOUS
 10
217.1712260842
 20
1060.0966389913
 11
216.3848999102
 21
1060.0966389913
  0
LINE
  5
3C8
100
AcDbEntity
  8
03___PRT_ALL_CURVES
100
AcDbLine
 62
2
  6
CONTINUOUS
 10
215.0404873566
 20
1060.0966389913
 11
214.2541612285
 21
1060.0966389913
  0
LINE
  5
3C9
100
AcDbEntity
  8
03___PRT_ALL_CURVES
100
AcDbLine
 62
2
  6
CONTINUOUS
 10
223.157269797
 20
1060.0966389913
 11
223.9273347927
 21
1060.0966389913
  0
LINE
  5
3CA
100
AcDbEntity
  8
03___PRT_ALL_CURVES
100
AcDbLine
 62
2
  6
CONTINUOUS
 10
225.0944237408
 20
1060.0966389913
 11
225.5533076979
 21
1060.0966389913
  0
LINE
  5
3CB
100
AcDbEntity
  8
03___PRT_ALL_CURVES
100
AcDbLine
 62
2
  6
CONTINUOUS
 10
226.7200049108
 20
1060.0966389913
 11
227.4900698652
 21
1060.0966389913
  0
LINE
  5
3CC
100
AcDbEntity
  8
03___PRT_ALL_CURVES
100
AcDbLine
 62
2
  6
CONTINUOUS
 10
231.5937749375
 20
1060.0966389913
 11
232.3801010873
 21
1060.0966389913
  0
LINE
  5
3CD
100
AcDbEntity
  8
03___PRT_ALL_CURVES
100
AcDbLine
 62
2
  6
CONTINUOUS
 10
233.9838851472
 20
1060.0966389913
 11
234.7702112681
 21
1060.0966389913
  0
LINE
  5
3CE
100
AcDbEntity
  8
03___PRT_ALL_CURVES
100
AcDbLine
 62
2
  6
CONTINUOUS
 10
236.1143944947
 20
1060.0966389913
 11
236.9007206479
 21
1060.0966389913
  0
LINE
  5
3CF
100
AcDbEntity
  8
03___PRT_ALL_CURVES
100
AcDbLine
 62
2
  6
CONTINUOUS
 10
238.2458061696
 20
1060.0966389913
 11
239.0321323228
 21
1060.0966389913
  0
LINE
  5
3D0
100
AcDbEntity
  8
03___PRT_ALL_CURVES
100
AcDbLine
 62
2
  6
CONTINUOUS
 10
239.6315961162
 20
1060.0966389913
 11
240.417922292
 21
1060.0966389913
  0
LINE
  5
3D1
100
AcDbEntity
  8
03___PRT_ALL_CURVES
100
AcDbLine
 62
2
  6
CONTINUOUS
 10
242.0217063259
 20
1060.0966389913
 11
242.8080324417
 21
1060.0966389913
  0
LINE
  5
3D2
100
AcDbEntity
  8
03___PRT_ALL_CURVES
100
AcDbLine
 62
2
  6
CONTINUOUS
 10
243.2062022807
 20
1060.0966389913
 11
243.9739267029
 21
1060.0966389913
  0
LINE
  5
3D3
100
AcDbEntity
  8
03___PRT_ALL_CURVES
100
AcDbLine
 62
2
  6
CONTINUOUS
 10
245.9902326279
 20
1060.0966389913
 11
246.7579570085
 21
1060.0966389913
  0
LINE
  5
3D4
100
AcDbEntity
  8
03___PRT_ALL_CURVES
100
AcDbLine
 62
2
  6
CONTINUOUS
 10
221.8025116688
 20
1060.8164237456
 11
220.3522247874
 21
1060.8164237456
  0
LINE
  5
3D5
100
AcDbEntity
  8
03___PRT_ALL_CURVES
100
AcDbLine
 62
2
  6
CONTINUOUS
 10
244.2572096521
 20
1060.8164237456
 11
245.7074965954
 21
1060.8164237456
  0
LINE
  5
3D6
100
AcDbEntity
  8
03___PRT_ALL_CURVES
100
AcDbLine
 62
2
  6
CONTINUOUS
 10
245.4528168924
 20
1061.4640939546
 11
244.5113412289
 21
1061.4640939546
  0
LINE
  5
3D7
100
AcDbEntity
  8
03___PRT_ALL_CURVES
100
AcDbLine
 62
2
  6
CONTINUOUS
 10
221.5482639515
 20
1061.4640939546
 11
220.6067882341
 21
1061.4640939546
  0
LINE
  5
3D8
100
AcDbEntity
  8
03___PRT_ALL_CURVES
100
AcDbLine
 62
2
  6
CONTINUOUS
 10
217.474231816
 20
1062.0933550475
 11
217.1712260834
 21
1062.0933550475
  0
LINE
  5
3D9
100
AcDbEntity
  8
03___PRT_ALL_CURVES
100
AcDbLine
 62
2
  6
CONTINUOUS
 10
215.8843891703
 20
1063.043739184
 11
215.0404873226
 21
1063.043739184
  0
LINE
  5
3DA
100
AcDbEntity
  8
03___PRT_ALL_CURVES
100
AcDbLine
 62
2
  6
CONTINUOUS
 10
214.2541612102
 20
1063.043739184
 11
213.410259418
 21
1063.043739184
  0
LINE
  5
3DB
100
AcDbEntity
  8
03___PRT_ALL_CURVES
100
AcDbLine
 62
2
  6
CONTINUOUS
 10
217.1712260842
 20
1063.043739184
 11
217.4742313659
 21
1063.043739184
  0
LINE
  5
3DC
100
AcDbEntity
  8
03___PRT_ALL_CURVES
100
AcDbLine
 62
2
  6
CONTINUOUS
 10
235.2704926811
 20
1063.043739184
 11
236.1143945129
 21
1063.043739184
  0
LINE
  5
3DD
100
AcDbEntity
  8
03___PRT_ALL_CURVES
100
AcDbLine
 62
2
  6
CONTINUOUS
 10
236.9007206412
 20
1063.043739184
 11
237.7446224875
 21
1063.043739184
  0
LINE
  5
3DE
100
AcDbEntity
  8
03___PRT_ALL_CURVES
100
AcDbLine
 62
2
  6
CONTINUOUS
 10
245.3454684846
 20
1063.6959337542
 11
244.6186902571
 21
1063.6959337542
  0
LINE
  5
3DF
100
AcDbEntity
  8
03___PRT_ALL_CURVES
100
AcDbLine
 62
2
  6
CONTINUOUS
 10
242.8080324724
 20
1063.6959337542
 11
242.0217063566
 21
1063.6959337542
  0
LINE
  5
3E0
100
AcDbEntity
  8
03___PRT_ALL_CURVES
100
AcDbLine
 62
2
  6
CONTINUOUS
 10
240.4179222626
 20
1063.6959337542
 11
239.6315960868
 21
1063.6959337542
  0
LINE
  5
3E1
100
AcDbEntity
  8
03___PRT_ALL_CURVES
100
AcDbLine
 62
2
  6
CONTINUOUS
 10
239.032132316
 20
1063.6959337542
 11
238.2458061628
 21
1063.6959337542
  0
LINE
  5
3E2
100
AcDbEntity
  8
03___PRT_ALL_CURVES
100
AcDbLine
 62
2
  6
CONTINUOUS
 10
237.7446224548
 20
1063.6959337542
 11
235.2704925539
 21
1063.6959337542
  0
LINE
  5
3E3
100
AcDbEntity
  8
03___PRT_ALL_CURVES
100
AcDbLine
 62
2
  6
CONTINUOUS
 10
234.7702112937
 20
1063.6959337542
 11
233.9838851728
 21
1063.6959337542
  0
LINE
  5
3E4
100
AcDbEntity
  8
03___PRT_ALL_CURVES
100
AcDbLine
 62
2
  6
CONTINUOUS
 10
232.3801010839
 20
1063.6959337542
 11
231.5937749341
 21
1063.6959337542
  0
LINE
  5
3E5
100
AcDbEntity
  8
03___PRT_ALL_CURVES
100
AcDbLine
 62
2
  6
CONTINUOUS
 10
226.9008035224
 20
1063.6959337542
 11
226.1144773433
 21
1063.6959337542
  0
LINE
  5
3E6
100
AcDbEntity
  8
03___PRT_ALL_CURVES
100
AcDbLine
 62
2
  6
CONTINUOUS
 10
224.5330439857
 20
1063.6959337542
 11
223.7467178477
 21
1063.6959337542
  0
LINE
  5
3E7
100
AcDbEntity
  8
03___PRT_ALL_CURVES
100
AcDbLine
 62
2
  6
CONTINUOUS
 10
221.4405578324
 20
1063.6959337542
 11
220.7137796259
 21
1063.6959337542
  0
LINE
  5
3E8
100
AcDbEntity
  8
03___PRT_ALL_CURVES
100
AcDbLine
 62
2
  6
CONTINUOUS
 10
215.8843891703
 20
1063.6959337542
 11
213.410259264
 21
1063.6959337542
  0
LINE
  5
3E9
100
AcDbEntity
  8
03___PRT_ALL_CURVES
100
AcDbLine
 62
2
  6
CONTINUOUS
 10
216.3848999377
 20
1063.6959337542
 11
217.7305470372
 21
1063.6959337542
  0
LINE
  5
3EA
100
AcDbEntity
  8
03___PRT_ALL_CURVES
100
AcDbLine
 62
2
  6
CONTINUOUS
 10
211.3618639067
 20
1065.6952669035
 11
248.1625340003
 21
1065.6952669035
  0
LINE
  5
3EB
100
AcDbEntity
  8
03___PRT_ALL_CURVES
100
AcDbLine
 62
2
  6
CONTINUOUS
 10
211.3618639067
 20
1066.0952669035
 11
248.1625340002
 21
1066.0952669035
  0
LINE
  5
3EC
100
AcDbEntity
  8
0
100
AcDbLine
 62
7
  6
CONTINUOUS
 10
76.2246720881
 20
1091.0957669035
 11
383.2997247351
 21
1091.0957669035
  0
LINE
  5
3ED
100
AcDbEntity
  8
0
100
AcDbLine
 62
7
  6
CONTINUOUS
 10
75.0254030957
 20
1092.3376462995
 11
384.4989937275
 21
1092.3376462995
  0
LINE
  5
3EE
100
AcDbEntity
  8
02___PRT_ALL_AXES
100
AcDbLine
 62
7
  6
CONTINUOUS
 10
383.968914623
 20
1107.5171257951
 11
75.5554822002
 21
1107.5171257951
  0
LINE
  5
3EF
100
AcDbEntity
  8
0
100
AcDbLine
 62
7
  6
CONTINUOUS
 10
180.0979926307
 20
1135.8630303301
 11
178.9987266034
 21
1135.7452137466
  0
LINE
  5
3F0
100
AcDbEntity
  8
0
100
AcDbLine
 62
7
  6
CONTINUOUS
 10
179.0036835736
 20
1135.745719556
 11
178.3804211805
 21
1135.6851195353
  0
LINE
  5
3F1
100
AcDbEntity
  8
0
100
AcDbLine
 62
7
  6
CONTINUOUS
 10
178.3852984419
 20
1135.6855695903
 11
177.7684412784
 21
1135.6318147793
  0
LINE
  5
3F2
100
AcDbEntity
  8
0
100
AcDbLine
 62
7
  6
CONTINUOUS
 10
177.7732423214
 20
1135.632207798
 11
177.1633699573
 21
1135.5854865144
  0
LINE
  5
3F3
100
AcDbEntity
  8
0
100
AcDbLine
 62
7
  6
CONTINUOUS
 10
177.1680997713
 20
1135.5858233128
 11
176.5657519667
 21
1135.5462813371
  0
LINE
  5
3F4
100
AcDbEntity
  8
0
100
AcDbLine
 62
7
  6
CONTINUOUS
 10
176.5704304736
 20
1135.546562173
 11
175.9761802067
 21
1135.5143074893
  0
LWPOLYLINE
  5
3F5
100
AcDbEntity
  8
0
100
AcDbPolyline
 62
7
  6
CONTINUOUS
 90
3
 70
0
 10
175.9808213628
 20
1135.514532187
 10
175.3952316618
 20
1135.489627617
 10
174.8234260401
 20
1135.4722608043
  0
LINE
  5
3F6
100
AcDbEntity
  8
0
100
AcDbLine
 62
7
  6
CONTINUOUS
 10
175.3998531256
 20
1135.4897967848
 11
174.8280310155
 21
1135.4723723231
  0
LWPOLYLINE
  5
3F7
100
AcDbEntity
  8
0
100
AcDbPolyline
 62
7
  6
CONTINUOUS
 90
7
 70
0
 10
183.3842962073
 20
1136.0915249472
 10
182.8662223445
 20
1136.0764902064
 10
182.335813828
 20
1136.0511728442
 10
181.7933822625
 20
1136.016275805
 10
181.2394103332
 20
1135.972624594
 10
180.6741755428
 20
1135.9211736116
 10
180.0979926307
 20
1135.8630303301
  0
LINE
  5
3F8
100
AcDbEntity
  8
0
100
AcDbLine
 62
7
  6
CONTINUOUS
 10
174.8280310155
 20
1135.4723723231
 11
174.2635163613
 21
1135.462223641
  0
LINE
  5
3F9
100
AcDbEntity
  8
0
100
AcDbLine
 62
7
  6
CONTINUOUS
 10
183.8250112872
 20
1136.0957669032
 11
183.3817001622
 21
1136.0914496088
  0
LINE
  5
3FA
100
AcDbEntity
  8
0
100
AcDbLine
 62
7
  6
CONTINUOUS
 10
174.2658805909
 20
1135.4622375453
 11
173.7649325181
 21
1135.4592914219
  0
LINE
  5
3FB
100
AcDbEntity
  8
0
100
AcDbLine
 62
7
  6
CONTINUOUS
 10
366.1067187803
 20
1135.2502354863
 11
286.1274910744
 21
1135.2502354863
  0
LINE
  5
3FC
100
AcDbEntity
  8
0
100
AcDbLine
 62
7
  6
CONTINUOUS
 10
173.3969057488
 20
1135.2502354863
 11
93.4176780429
 21
1135.2502354863
  0
LINE
  5
3FD
100
AcDbEntity
  8
0
100
AcDbLine
 62
7
  6
CONTINUOUS
 10
94.335222979
 20
1135.4592914219
 11
173.764932186
 21
1135.4592914219
  0
LINE
  5
3FE
100
AcDbEntity
  8
0
100
AcDbLine
 62
7
  6
CONTINUOUS
 10
285.7594646365
 20
1135.4592914219
 11
365.216483217
 21
1135.4592914219
  0
LINE
  5
3FF
100
AcDbEntity
  8
0
100
AcDbLine
 62
7
  6
CONTINUOUS
 10
179.4746205489
 20
1135.6324246946
 11
280.0497762744
 21
1135.6324246946
  0
LINE
  5
400
100
AcDbEntity
  8
0
100
AcDbLine
 62
7
  6
CONTINUOUS
 10
183.8250563105
 20
1136.0957669035
 11
275.699340518
 21
1136.0957669035
  0
LINE
  5
401
100
AcDbEntity
  8
0
100
AcDbLine
 62
7
  6
CONTINUOUS
 10
212.2561984116
 20
1136.4957669035
 11
247.2661984116
 21
1136.4957669035
  0
LINE
  5
402
100
AcDbEntity
  8
0
100
AcDbLine
 62
7
  6
CONTINUOUS
 10
285.7594643668
 20
1135.4592914219
 11
285.2585162323
 21
1135.4622375453
  0
LINE
  5
403
100
AcDbEntity
  8
0
100
AcDbLine
 62
7
  6
CONTINUOUS
 10
276.1455739446
 20
1136.0914215876
 11
275.699385536
 21
1136.0957669032
  0
LINE
  5
404
100
AcDbEntity
  8
0
100
AcDbLine
 62
7
  6
CONTINUOUS
 10
285.2631079718
 20
1135.4621837098
 11
284.6963658077
 21
1135.4723723231
  0
LINE
  5
405
100
AcDbEntity
  8
0
100
AcDbLine
 62
7
  6
CONTINUOUS
 10
276.663740056
 20
1136.076274043
 11
276.142696661
 21
1136.0914496088
  0
LINE
  5
406
100
AcDbEntity
  8
0
100
AcDbLine
 62
7
  6
CONTINUOUS
 10
284.7009707832
 20
1135.4722608043
 11
284.1245436976
 21
1135.4897967848
  0
LINE
  5
407
100
AcDbEntity
  8
0
100
AcDbLine
 62
7
  6
CONTINUOUS
 10
284.1291651614
 20
1135.489627617
 11
283.5435754604
 21
1135.514532187
  0
LINE
  5
408
100
AcDbEntity
  8
0
100
AcDbLine
 62
7
  6
CONTINUOUS
 10
277.1941833669
 20
1136.0508580777
 11
276.6581744787
 21
1136.0764902064
  0
LINE
  5
409
100
AcDbEntity
  8
0
100
AcDbLine
 62
7
  6
CONTINUOUS
 10
283.5482166165
 20
1135.5143074893
 11
282.9539663496
 21
1135.546562173
  0
LINE
  5
40A
100
AcDbEntity
  8
0
100
AcDbLine
 62
7
  6
CONTINUOUS
 10
277.7365895753
 20
1136.0158742012
 11
277.1885829952
 21
1136.0511728442
  0
LINE
  5
40B
100
AcDbEntity
  8
0
100
AcDbLine
 62
7
  6
CONTINUOUS
 10
282.9586448565
 20
1135.5462813371
 11
282.3562970519
 21
1135.5858233128
  0
LINE
  5
40C
100
AcDbEntity
  8
0
100
AcDbLine
 62
7
  6
CONTINUOUS
 10
282.3610268659
 20
1135.5854865144
 11
281.7511545018
 21
1135.632207798
  0
LINE
  5
40D
100
AcDbEntity
  8
0
100
AcDbLine
 62
7
  6
CONTINUOUS
 10
278.2904880027
 20
1135.9721544528
 11
277.7310145607
 21
1136.016275805
  0
LINE
  5
40E
100
AcDbEntity
  8
0
100
AcDbLine
 62
7
  6
CONTINUOUS
 10
281.7559555448
 20
1135.6318147793
 11
281.1390983814
 21
1135.6855695903
  0
LINE
  5
40F
100
AcDbEntity
  8
0
100
AcDbLine
 62
7
  6
CONTINUOUS
 10
278.8555921763
 20
1135.9206558583
 11
278.28498649
 21
1135.972624594
  0
LINE
  5
410
100
AcDbEntity
  8
0
100
AcDbLine
 62
7
  6
CONTINUOUS
 10
281.1439756427
 20
1135.6851195353
 11
280.5207132496
 21
1135.745719556
  0
LINE
  5
411
100
AcDbEntity
  8
0
100
AcDbLine
 62
7
  6
CONTINUOUS
 10
279.4315889834
 20
1135.8624854016
 11
278.8502212804
 21
1135.9211736116
  0
LINE
  5
412
100
AcDbEntity
  8
0
100
AcDbLine
 62
7
  6
CONTINUOUS
 10
280.5256702198
 20
1135.7452137466
 11
279.4264041925
 21
1135.8630303301
  0
ARC
  5
413
100
AcDbEntity
  8
0
100
AcDbCircle
 62
7
  6
CONTINUOUS
 10
182.840908873
 20
137.5422577725
 40
21.9653945262
100
AcDbArc
 50
272.5679655934
 51
287.7988475271
  0
ARC
  5
414
100
AcDbEntity
  8
0
100
AcDbCircle
 62
7
  6
CONTINUOUS
 10
182.1789036265
 20
136.0904564816
 40
21.2489105722
100
AcDbArc
 50
245.5882187915
 51
262.6883144153
  0
ARC
  5
415
100
AcDbEntity
  8
0
100
AcDbCircle
 62
7
  6
CONTINUOUS
 10
182.9037383264
 20
137.6793654384
 40
20.1054064403
100
AcDbArc
 50
245.5796808695
 51
261.8822277834
  0
ARC
  5
416
100
AcDbEntity
  8
0
100
AcDbCircle
 62
7
  6
CONTINUOUS
 10
182.840908873
 20
137.5422577725
 40
19.9656991359
100
AcDbArc
 50
272.5679656639
 51
287.7988475271
  0
ARC
  5
417
100
AcDbEntity
  8
0
100
AcDbCircle
 62
7
  6
CONTINUOUS
 10
182.8550510636
 20
137.2908097584
 40
19.7138702065
100
AcDbArc
 50
261.8628484615
 51
272.5596476413
  0
ARC
  5
418
100
AcDbEntity
  8
0
100
AcDbCircle
 62
7
  6
CONTINUOUS
 10
182.840908873
 20
137.5422577725
 40
19.5498421185
100
AcDbArc
 50
245.5811868346
 51
287.7988475271
  0
ARC
  5
419
100
AcDbEntity
  8
0
100
AcDbCircle
 62
7
  6
CONTINUOUS
 10
192.4483874853
 20
175.8429641931
 40
7.2855491675
100
AcDbArc
 50
139.7222493947
 51
140.4799533752
  0
ARC
  5
41A
100
AcDbEntity
  8
0
100
AcDbCircle
 62
7
  6
CONTINUOUS
 10
179.6255044346
 20
185.1771067392
 40
7.0538049547
100
AcDbArc
 50
327.3024616909
 51
328.3014356455
  0
ARC
  5
41B
100
AcDbEntity
  8
02___PRT_ALL_AXES
100
AcDbCircle
 62
7
  6
CONTINUOUS
 10
218.8881712442
 20
225.9226377653
 40
2.9
100
AcDbArc
 50
121.0406158781
 51
232.5608092265
  0
ARC
  5
41C
100
AcDbEntity
  8
02___PRT_ALL_AXES
100
AcDbCircle
 62
7
  6
CONTINUOUS
 10
218.8881712442
 20
225.9226377653
 40
2.9
100
AcDbArc
 50
348.9521822716
 51
119.0478177284
  0
ARC
  5
41D
100
AcDbEntity
  8
02___PRT_ALL_AXES
100
AcDbCircle
 62
7
  6
CONTINUOUS
 10
218.8881712442
 20
225.9226377653
 40
2.9
100
AcDbArc
 50
234.4834141309
 51
347.9475199175
  0
ARC
  5
41E
100
AcDbEntity
  8
0
100
AcDbCircle
 62
7
  6
CONTINUOUS
 10
219.0045075193
 20
116.4434323112
 40
1.4390049188
100
AcDbArc
 50
83.58851895
 51
89.9724912563
  0
ARC
  5
41F
100
AcDbEntity
  8
0
100
AcDbCircle
 62
7
  6
CONTINUOUS
 10
213.6567955333
 20
119.1528399424
 40
1.4005971797
100
AcDbArc
 50
89.9835190122
 51
180.0164809878
  0
ARC
  5
420
100
AcDbEntity
  8
0
100
AcDbCircle
 62
7
  6
CONTINUOUS
 10
213.6562958209
 20
114.9515341859
 40
1.4000974127
100
AcDbArc
 50
180.0039744842
 51
270.0369364598
  0
ARC
  5
421
100
AcDbEntity
  8
0
100
AcDbCircle
 62
7
  6
CONTINUOUS
 10
219.0046105296
 20
117.5958842196
 40
0.5454474723
100
AcDbArc
 50
270.0617532663
 51
304.3272187938
  0
ARC
  5
422
100
AcDbEntity
  8
0
100
AcDbCircle
 62
7
  6
CONTINUOUS
 10
219.0944343086
 20
117.466279424
 40
0.3877641351
100
AcDbArc
 50
304.1657644499
 51
0.0232928072
  0
ARC
  5
423
100
AcDbEntity
  8
0
100
AcDbCircle
 62
7
  6
CONTINUOUS
 10
219.1242704339
 20
117.5250303186
 40
0.3508024511
100
AcDbArc
 50
12.9150902121
 51
83.3000662467
  0
ARC
  5
424
100
AcDbEntity
  8
0
100
AcDbCircle
 62
7
  6
CONTINUOUS
 10
182.840908873
 20
344.2366465501
 40
21.9653945262
100
AcDbArc
 50
72.2011524729
 51
87.4320344203
  0
ARC
  5
425
100
AcDbEntity
  8
0
100
AcDbCircle
 62
7
  6
CONTINUOUS
 10
182.17890441
 20
345.6884450836
 40
21.2489134068
100
AcDbArc
 50
97.3116867338
 51
114.4117800594
  0
ARC
  5
426
100
AcDbEntity
  8
0
100
AcDbCircle
 62
7
  6
CONTINUOUS
 10
182.9037390123
 20
344.0995365337
 40
20.105408864
100
AcDbArc
 50
98.1177732059
 51
114.4203181411
  0
ARC
  5
427
100
AcDbEntity
  8
0
100
AcDbCircle
 62
7
  6
CONTINUOUS
 10
182.840908873
 20
344.2366465501
 40
19.9656991359
100
AcDbArc
 50
72.2011524729
 51
87.4320343361
  0
ARC
  5
428
100
AcDbEntity
  8
0
100
AcDbCircle
 62
7
  6
CONTINUOUS
 10
182.8577330658
 20
344.4330355109
 40
19.7687552169
100
AcDbArc
 50
87.455244495
 51
98.1222594022
  0
ARC
  5
429
100
AcDbEntity
  8
0
100
AcDbCircle
 62
7
  6
CONTINUOUS
 10
182.840908873
 20
344.2366465501
 40
19.5498421185
100
AcDbArc
 50
72.2011524729
 51
114.4188131654
  0
ARC
  5
42A
100
AcDbEntity
  8
0
100
AcDbCircle
 62
7
  6
CONTINUOUS
 10
156.1767444965
 20
255.7992872047
 40
7.7999388725
100
AcDbArc
 50
67.7463599729
 51
68.6497803105
  0
ARC
  5
42B
100
AcDbEntity
  8
0
100
AcDbCircle
 62
7
  6
CONTINUOUS
 10
221.7163426036
 20
315.4456739108
 40
7.2855457924
100
AcDbArc
 50
355.7222490692
 51
356.4799533695
  0
ARC
  5
42C
100
AcDbEntity
  8
0
100
AcDbCircle
 62
7
  6
CONTINUOUS
 10
161.2003662371
 20
271.0195418173
 40
6.7070118408
100
AcDbArc
 50
255.4874136021
 51
256.3104669416
  0
ARC
  5
42D
100
AcDbEntity
  8
02___PRT_ALL_AXES
100
AcDbCircle
 62
7
  6
CONTINUOUS
 10
212.1676528601
 20
246.6062665572
 40
2.9
100
AcDbArc
 50
163.4391907735
 51
274.9593841219
  0
ARC
  5
42E
100
AcDbEntity
  8
02___PRT_ALL_AXES
100
AcDbCircle
 62
7
  6
CONTINUOUS
 10
212.1676528601
 20
246.6062665572
 40
2.9
100
AcDbArc
 50
276.9521822716
 51
47.0478177284
  0
ARC
  5
42F
100
AcDbEntity
  8
02___PRT_ALL_AXES
100
AcDbCircle
 62
7
  6
CONTINUOUS
 10
212.1676528601
 20
246.6062665572
 40
2.9
100
AcDbArc
 50
48.0524800825
 51
161.5165858691
  0
ARC
  5
430
100
AcDbEntity
  8
0
100
AcDbCircle
 62
7
  6
CONTINUOUS
 10
229.7621984116
 20
-8.6105478387
 40
133.9499751157
100
AcDbArc
 50
72.2011524729
 51
107.7988475271
  0
ARC
  5
431
100
AcDbEntity
  8
0
100
AcDbCircle
 62
7
  6
CONTINUOUS
 10
229.7621984116
 20
-8.6105478387
 40
133.5343008641
100
AcDbArc
 50
72.2011524729
 51
107.7988475271
  0
ARC
  5
432
100
AcDbEntity
  8
0
100
AcDbCircle
 62
7
  6
CONTINUOUS
 10
229.7621984116
 20
-8.6105478387
 40
131.5346054738
100
AcDbArc
 50
72.2011524729
 51
107.7988475271
  0
ARC
  5
433
100
AcDbEntity
  8
0
100
AcDbCircle
 62
7
  6
CONTINUOUS
 10
276.6834879502
 20
137.5422577725
 40
21.9653945262
100
AcDbArc
 50
252.2011524729
 51
267.4320344203
  0
ARC
  5
434
100
AcDbEntity
  8
0
100
AcDbCircle
 62
7
  6
CONTINUOUS
 10
277.3454924133
 20
136.090459239
 40
21.2489134068
100
AcDbArc
 50
277.3116867338
 51
294.4117800594
  0
ARC
  5
435
100
AcDbEntity
  8
0
100
AcDbCircle
 62
7
  6
CONTINUOUS
 10
276.6206578109
 20
137.6793677888
 40
20.105408864
100
AcDbArc
 50
278.1177732059
 51
294.4203181411
  0
ARC
  5
436
100
AcDbEntity
  8
0
100
AcDbCircle
 62
7
  6
CONTINUOUS
 10
276.6834879502
 20
137.5422577725
 40
19.9656991359
100
AcDbArc
 50
252.2011524729
 51
267.4320343361
  0
ARC
  5
437
100
AcDbEntity
  8
0
100
AcDbCircle
 62
7
  6
CONTINUOUS
 10
276.6666637574
 20
137.3458688117
 40
19.7687552168
100
AcDbArc
 50
267.455244495
 51
278.1222594022
  0
ARC
  5
438
100
AcDbEntity
  8
0
100
AcDbCircle
 62
7
  6
CONTINUOUS
 10
276.6834879502
 20
137.5422577725
 40
19.5498421185
100
AcDbArc
 50
252.2011524729
 51
294.4188131654
  0
ARC
  5
439
100
AcDbEntity
  8
0
100
AcDbCircle
 62
7
  6
CONTINUOUS
 10
280.0944800047
 20
185.3014370536
 40
7.285545674
100
AcDbArc
 50
211.7222490719
 51
212.4799533864
  0
ARC
  5
43A
100
AcDbEntity
  8
0
100
AcDbCircle
 62
7
  6
CONTINUOUS
 10
267.5198627877
 20
176.2140632282
 40
6.7070126979
100
AcDbArc
 50
39.4874134653
 51
40.3104667452
  0
ARC
  5
43B
100
AcDbEntity
  8
02___PRT_ALL_AXES
100
AcDbCircle
 62
7
  6
CONTINUOUS
 10
240.636225579
 20
225.9226377653
 40
2.9
100
AcDbArc
 50
306.4834141309
 51
59.9475199175
  0
ARC
  5
43C
100
AcDbEntity
  8
02___PRT_ALL_AXES
100
AcDbCircle
 62
7
  6
CONTINUOUS
 10
240.636225579
 20
225.9226377653
 40
2.9
100
AcDbArc
 50
60.9521822716
 51
191.0478177284
  0
ARC
  5
43D
100
AcDbEntity
  8
02___PRT_ALL_AXES
100
AcDbCircle
 62
7
  6
CONTINUOUS
 10
240.636225579
 20
225.9226377653
 40
2.9
100
AcDbArc
 50
192.0524800825
 51
305.5165858691
  0
ARC
  5
43E
100
AcDbEntity
  8
0
100
AcDbCircle
 62
7
  6
CONTINUOUS
 10
245.8662996235
 20
114.9513359968
 40
1.3998992211
100
AcDbArc
 50
270.0367860546
 51
0.045065045
  0
CIRCLE
  5
43F
100
AcDbEntity
  8
0
100
AcDbCircle
 62
7
  6
CONTINUOUS
 10
229.7621984116
 20
240.8894521613
 40
154.7375263235
  0
CIRCLE
  5
440
100
AcDbEntity
  8
02___PRT_ALL_AXES
100
AcDbCircle
 62
7
  6
CONTINUOUS
 10
229.7621984116
 20
240.8894521613
 40
154.2067162114
  0
ARC
  5
441
100
AcDbEntity
  8
0
100
AcDbCircle
 62
7
  6
CONTINUOUS
 10
229.7621984116
 20
240.8894521613
 40
136.3445203687
100
AcDbArc
 50
294.4188131654
 51
65.5811868346
  0
ARC
  5
442
100
AcDbEntity
  8
0
100
AcDbCircle
 62
7
  6
CONTINUOUS
 10
229.7621984116
 20
240.8894521613
 40
136.3445203687
100
AcDbArc
 50
114.4188131654
 51
245.5811868346
  0
ARC
  5
443
100
AcDbEntity
  8
0
100
AcDbCircle
 62
7
  6
CONTINUOUS
 10
229.7621984116
 20
240.8894521613
 40
135.5484656657
100
AcDbArc
 50
248.223107888
 51
291.776892112
  0
ARC
  5
444
100
AcDbEntity
  8
0
100
AcDbCircle
 62
7
  6
CONTINUOUS
 10
229.7621984116
 20
240.8894521613
 40
135.5484656657
100
AcDbArc
 50
68.223107888
 51
111.776892112
  0
ARC
  5
445
100
AcDbEntity
  8
0
100
AcDbCircle
 62
7
  6
CONTINUOUS
 10
229.7621984116
 20
240.8894521613
 40
133.4545894151
100
AcDbArc
 50
294.4188131654
 51
65.5811868346
  0
ARC
  5
446
100
AcDbEntity
  8
0
100
AcDbCircle
 62
7
  6
CONTINUOUS
 10
229.7621984116
 20
240.8894521613
 40
133.4545894151
100
AcDbArc
 50
114.4188131654
 51
245.5811868346
  0
ARC
  5
447
100
AcDbEntity
  8
0
100
AcDbCircle
 62
7
  6
CONTINUOUS
 10
229.7621984116
 20
240.8894521613
 40
133.4463866742
100
AcDbArc
 50
69.8647926991
 51
110.1352073029
  0
ARC
  5
448
100
AcDbEntity
  8
0
100
AcDbCircle
 62
7
  6
CONTINUOUS
 10
229.7621984116
 20
240.8894521613
 40
133.4463866742
100
AcDbArc
 50
249.8647926991
 51
290.1352073029
  0
ARC
  5
449
100
AcDbEntity
  8
0
100
AcDbCircle
 62
7
  6
CONTINUOUS
 10
229.7621984116
 20
240.8894521613
 40
133.0498421185
100
AcDbArc
 50
294.4188131654
 51
65.5811868346
  0
ARC
  5
44A
100
AcDbEntity
  8
0
100
AcDbCircle
 62
7
  6
CONTINUOUS
 10
229.7621984116
 20
240.8894521613
 40
133.0498421185
100
AcDbArc
 50
114.4188131654
 51
245.5811868346
  0
ARC
  5
44B
100
AcDbEntity
  8
02___PRT_ALL_AXES
100
AcDbCircle
 62
7
  6
CONTINUOUS
 10
229.7621984116
 20
240.8894521613
 40
132.363554358
100
AcDbArc
 50
292.0172661573
 51
67.9827338427
  0
ARC
  5
44C
100
AcDbEntity
  8
02___PRT_ALL_AXES
100
AcDbCircle
 62
7
  6
CONTINUOUS
 10
229.7621984116
 20
240.8894521613
 40
132.363554358
100
AcDbArc
 50
112.0172661573
 51
247.9827338427
  0
ARC
  5
44D
100
AcDbEntity
  8
0
100
AcDbCircle
 62
7
  6
CONTINUOUS
 10
229.7621984116
 20
240.8894521613
 40
123.757848156
100
AcDbArc
 50
105.0872789864
 51
254.9127210141
  0
ARC
  5
44E
100
AcDbEntity
  8
0
100
AcDbCircle
 62
7
  6
CONTINUOUS
 10
229.7621984116
 20
240.8894521613
 40
123.757848156
100
AcDbArc
 50
285.0872789864
 51
74.9127210141
  0
ARC
  5
44F
100
AcDbEntity
  8
0
100
AcDbCircle
 62
7
  6
CONTINUOUS
 10
229.7621984116
 20
240.8894521613
 40
121.8604815599
100
AcDbArc
 50
283.3757313417
 51
76.6242686496
  0
ARC
  5
450
100
AcDbEntity
  8
0
100
AcDbCircle
 62
7
  6
CONTINUOUS
 10
229.7621984116
 20
240.8894521613
 40
121.8604815599
100
AcDbArc
 50
103.3757313417
 51
256.6242686496
  0
ARC
  5
451
100
AcDbEntity
  8
0
100
AcDbCircle
 62
7
  6
CONTINUOUS
 10
229.7621984116
 20
240.8894521613
 40
76.5480311496
100
AcDbArc
 50
307.1044963529
 51
16.8955036472
  0
ARC
  5
452
100
AcDbEntity
  8
0
100
AcDbCircle
 62
7
  6
CONTINUOUS
 10
229.7621984116
 20
240.8894521613
 40
76.5480311496
100
AcDbArc
 50
163.1044963529
 51
232.8955036472
  0
ARC
  5
453
100
AcDbEntity
  8
0
100
AcDbCircle
 62
7
  6
CONTINUOUS
 10
229.7621984116
 20
240.8894521613
 40
76.5480311496
100
AcDbArc
 50
19.1044963528
 51
88.8955036472
  0
ARC
  5
454
100
AcDbEntity
  8
0
100
AcDbCircle
 62
7
  6
CONTINUOUS
 10
229.7621984116
 20
240.8894521613
 40
76.5480311496
100
AcDbArc
 50
235.1044963529
 51
304.8955036472
  0
ARC
  5
455
100
AcDbEntity
  8
0
100
AcDbCircle
 62
7
  6
CONTINUOUS
 10
229.7621984116
 20
240.8894521613
 40
76.5480311496
100
AcDbArc
 50
91.1044963528
 51
160.8955036472
  0
ARC
  5
456
100
AcDbEntity
  8
0
100
AcDbCircle
 62
7
  6
CONTINUOUS
 10
229.7621984116
 20
240.8894521613
 40
74.7157164798
100
AcDbArc
 50
307.1844057685
 51
16.8155942315
  0
ARC
  5
457
100
AcDbEntity
  8
0
100
AcDbCircle
 62
7
  6
CONTINUOUS
 10
229.7621984116
 20
240.8894521613
 40
74.7157164798
100
AcDbArc
 50
163.1844057685
 51
232.8155942315
  0
ARC
  5
458
100
AcDbEntity
  8
0
100
AcDbCircle
 62
7
  6
CONTINUOUS
 10
229.7621984116
 20
240.8894521613
 40
74.7157164798
100
AcDbArc
 50
19.1844057685
 51
88.8155942315
  0
ARC
  5
459
100
AcDbEntity
  8
0
100
AcDbCircle
 62
7
  6
CONTINUOUS
 10
229.7621984116
 20
240.8894521613
 40
74.7157164798
100
AcDbArc
 50
235.1844057685
 51
304.8155942315
  0
ARC
  5
45A
100
AcDbEntity
  8
0
100
AcDbCircle
 62
7
  6
CONTINUOUS
 10
229.7621984116
 20
240.8894521613
 40
74.7157164798
100
AcDbArc
 50
91.1844057685
 51
160.8155942315
  0
ARC
  5
45B
100
AcDbEntity
  8
0
100
AcDbCircle
 62
7
  6
CONTINUOUS
 10
229.7621984116
 20
240.8894521613
 40
71.3892835202
100
AcDbArc
 50
307.4445950207
 51
16.5554049793
  0
ARC
  5
45C
100
AcDbEntity
  8
0
100
AcDbCircle
 62
7
  6
CONTINUOUS
 10
229.7621984116
 20
240.8894521613
 40
71.3892835202
100
AcDbArc
 50
163.4445950207
 51
232.5554049793
  0
ARC
  5
45D
100
AcDbEntity
  8
0
100
AcDbCircle
 62
7
  6
CONTINUOUS
 10
229.7621984116
 20
240.8894521613
 40
71.3892835202
100
AcDbArc
 50
19.4445950207
 51
88.5554049793
  0
ARC
  5
45E
100
AcDbEntity
  8
0
100
AcDbCircle
 62
7
  6
CONTINUOUS
 10
229.7621984116
 20
240.8894521613
 40
71.3892835202
100
AcDbArc
 50
235.4445950207
 51
304.5554049793
  0
ARC
  5
45F
100
AcDbEntity
  8
0
100
AcDbCircle
 62
7
  6
CONTINUOUS
 10
229.7621984116
 20
240.8894521613
 40
71.3892835202
100
AcDbArc
 50
91.4445950207
 51
160.5554049793
  0
ARC
  5
460
100
AcDbEntity
  8
0
100
AcDbCircle
 62
7
  6
CONTINUOUS
 10
229.7621984116
 20
240.8894521613
 40
69.5569688504
100
AcDbArc
 50
307.4888573875
 51
16.5111426125
  0
ARC
  5
461
100
AcDbEntity
  8
0
100
AcDbCircle
 62
7
  6
CONTINUOUS
 10
229.7621984116
 20
240.8894521613
 40
69.5569688504
100
AcDbArc
 50
163.4888573875
 51
232.5111426125
  0
ARC
  5
462
100
AcDbEntity
  8
0
100
AcDbCircle
 62
7
  6
CONTINUOUS
 10
229.7621984116
 20
240.8894521613
 40
69.5569688504
100
AcDbArc
 50
235.4888573875
 51
304.5111426125
  0
ARC
  5
463
100
AcDbEntity
  8
0
100
AcDbCircle
 62
7
  6
CONTINUOUS
 10
229.7621984116
 20
240.8894521613
 40
69.5569688504
100
AcDbArc
 50
91.4888573875
 51
160.5111426125
  0
ARC
  5
464
100
AcDbEntity
  8
0
100
AcDbCircle
 62
7
  6
CONTINUOUS
 10
229.7621984116
 20
240.8894521613
 40
69.5569688504
100
AcDbArc
 50
19.4888573875
 51
88.5111426125
  0
ARC
  5
465
100
AcDbEntity
  8
02___PRT_ALL_AXES
100
AcDbCircle
 62
7
  6
CONTINUOUS
 10
229.7621984116
 20
240.8894521613
 40
19.3072666685
100
AcDbArc
 50
314.451894455
 51
9.548105545
  0
ARC
  5
466
100
AcDbEntity
  8
02___PRT_ALL_AXES
100
AcDbCircle
 62
7
  6
CONTINUOUS
 10
229.7621984116
 20
240.8894521613
 40
19.3072666685
100
AcDbArc
 50
242.451894455
 51
297.548105545
  0
ARC
  5
467
100
AcDbEntity
  8
02___PRT_ALL_AXES
100
AcDbCircle
 62
7
  6
CONTINUOUS
 10
229.7621984116
 20
240.8894521613
 40
19.3072666685
100
AcDbArc
 50
170.451894455
 51
225.548105545
  0
ARC
  5
468
100
AcDbEntity
  8
02___PRT_ALL_AXES
100
AcDbCircle
 62
7
  6
CONTINUOUS
 10
229.7621984116
 20
240.8894521613
 40
19.3072666685
100
AcDbArc
 50
98.451894455
 51
153.548105545
  0
ARC
  5
469
100
AcDbEntity
  8
02___PRT_ALL_AXES
100
AcDbCircle
 62
7
  6
CONTINUOUS
 10
229.7621984116
 20
240.8894521613
 40
19.3072666685
100
AcDbArc
 50
26.451894455
 51
81.548105545
  0
ARC
  5
46A
100
AcDbEntity
  8
02___PRT_ALL_AXES
100
AcDbCircle
 62
7
  6
CONTINUOUS
 10
229.7621984116
 20
240.8894521613
 40
18.5576790065
100
AcDbArc
 50
314.9749309884
 51
9.0250690116
  0
ARC
  5
46B
100
AcDbEntity
  8
02___PRT_ALL_AXES
100
AcDbCircle
 62
7
  6
CONTINUOUS
 10
229.7621984116
 20
240.8894521613
 40
18.5576790065
100
AcDbArc
 50
242.9749309884
 51
297.0250690116
  0
ARC
  5
46C
100
AcDbEntity
  8
02___PRT_ALL_AXES
100
AcDbCircle
 62
7
  6
CONTINUOUS
 10
229.7621984116
 20
240.8894521613
 40
18.5576790065
100
AcDbArc
 50
170.9749309884
 51
225.0250690116
  0
ARC
  5
46D
100
AcDbEntity
  8
02___PRT_ALL_AXES
100
AcDbCircle
 62
7
  6
CONTINUOUS
 10
229.7621984116
 20
240.8894521613
 40
18.5576790065
100
AcDbArc
 50
98.9749309884
 51
153.0250690116
  0
ARC
  5
46E
100
AcDbEntity
  8
02___PRT_ALL_AXES
100
AcDbCircle
 62
7
  6
CONTINUOUS
 10
229.7621984116
 20
240.8894521613
 40
18.5576790065
100
AcDbArc
 50
26.9749309884
 51
81.0250690116
  0
ARC
  5
46F
100
AcDbEntity
  8
02___PRT_ALL_AXES
100
AcDbCircle
 62
7
  6
CONTINUOUS
 10
229.7621984116
 20
240.8894521613
 40
18.2740551595
100
AcDbArc
 50
315.0186924826
 51
8.9813075174
  0
ARC
  5
470
100
AcDbEntity
  8
02___PRT_ALL_AXES
100
AcDbCircle
 62
7
  6
CONTINUOUS
 10
229.7621984116
 20
240.8894521613
 40
18.2740551595
100
AcDbArc
 50
243.0186924826
 51
296.9813075174
  0
ARC
  5
471
100
AcDbEntity
  8
02___PRT_ALL_AXES
100
AcDbCircle
 62
7
  6
CONTINUOUS
 10
229.7621984116
 20
240.8894521613
 40
18.2740551595
100
AcDbArc
 50
99.0186924826
 51
152.9813075174
  0
ARC
  5
472
100
AcDbEntity
  8
02___PRT_ALL_AXES
100
AcDbCircle
 62
7
  6
CONTINUOUS
 10
229.7621984116
 20
240.8894521613
 40
18.2740551595
100
AcDbArc
 50
27.0186924826
 51
80.9813075174
  0
ARC
  5
473
100
AcDbEntity
  8
02___PRT_ALL_AXES
100
AcDbCircle
 62
7
  6
CONTINUOUS
 10
229.7621984116
 20
240.8894521613
 40
18.2724514822
100
AcDbArc
 50
171.0186958884
 51
224.9813041116
  0
ARC
  5
474
100
AcDbEntity
  8
02___PRT_ALL_AXES
100
AcDbCircle
 62
7
  6
CONTINUOUS
 10
229.7621984116
 20
240.8894521613
 40
17.5728363311
100
AcDbArc
 50
170.7401935306
 51
225.2598064694
  0
ARC
  5
475
100
AcDbEntity
  8
02___PRT_ALL_AXES
100
AcDbCircle
 62
7
  6
CONTINUOUS
 10
229.7621984116
 20
240.8894521613
 40
17.5244674976
100
AcDbArc
 50
26.6986630462
 51
81.3013369538
  0
ARC
  5
476
100
AcDbEntity
  8
02___PRT_ALL_AXES
100
AcDbCircle
 62
7
  6
CONTINUOUS
 10
229.7621984116
 20
240.8894521613
 40
17.5244674976
100
AcDbArc
 50
314.6986630462
 51
9.3013369538
  0
ARC
  5
477
100
AcDbEntity
  8
02___PRT_ALL_AXES
100
AcDbCircle
 62
7
  6
CONTINUOUS
 10
229.7621984116
 20
240.8894521613
 40
17.5244674976
100
AcDbArc
 50
242.6986630462
 51
297.3013369538
  0
ARC
  5
478
100
AcDbEntity
  8
02___PRT_ALL_AXES
100
AcDbCircle
 62
7
  6
CONTINUOUS
 10
229.7621984116
 20
240.8894521613
 40
17.5244674976
100
AcDbArc
 50
98.6986630462
 51
153.3013369538
  0
ARC
  5
479
100
AcDbEntity
  8
02___PRT_ALL_AXES
100
AcDbCircle
 62
7
  6
CONTINUOUS
 10
229.7621984116
 20
240.8894521613
 40
17.4755325024
100
AcDbArc
 50
242.6534057415
 51
297.3465942585
  0
ARC
  5
47A
100
AcDbEntity
  8
02___PRT_ALL_AXES
100
AcDbCircle
 62
7
  6
CONTINUOUS
 10
229.7621984116
 20
240.8894521613
 40
17.4755325024
100
AcDbArc
 50
170.6534057415
 51
225.3465942585
  0
ARC
  5
47B
100
AcDbEntity
  8
02___PRT_ALL_AXES
100
AcDbCircle
 62
7
  6
CONTINUOUS
 10
229.7621984116
 20
240.8894521613
 40
17.4755325024
100
AcDbArc
 50
98.6534057415
 51
153.3465942585
  0
ARC
  5
47C
100
AcDbEntity
  8
02___PRT_ALL_AXES
100
AcDbCircle
 62
7
  6
CONTINUOUS
 10
229.7621984116
 20
240.8894521613
 40
17.4755325024
100
AcDbArc
 50
26.6534057415
 51
81.3465942585
  0
ARC
  5
47D
100
AcDbEntity
  8
02___PRT_ALL_AXES
100
AcDbCircle
 62
7
  6
CONTINUOUS
 10
229.7621984116
 20
240.8894521613
 40
17.4755325024
100
AcDbArc
 50
314.6534057415
 51
9.3465942585
  0
ARC
  5
47E
100
AcDbEntity
  8
02___PRT_ALL_AXES
100
AcDbCircle
 62
7
  6
CONTINUOUS
 10
229.7621984116
 20
240.8894521613
 40
16.7259448405
100
AcDbArc
 50
313.477478276
 51
10.522521724
  0
ARC
  5
47F
100
AcDbEntity
  8
02___PRT_ALL_AXES
100
AcDbCircle
 62
7
  6
CONTINUOUS
 10
229.7621984116
 20
240.8894521613
 40
16.7259448405
100
AcDbArc
 50
25.477478276
 51
82.522521724
  0
ARC
  5
480
100
AcDbEntity
  8
02___PRT_ALL_AXES
100
AcDbCircle
 62
7
  6
CONTINUOUS
 10
229.7621984116
 20
240.8894521613
 40
16.7259448405
100
AcDbArc
 50
97.477478276
 51
154.522521724
  0
ARC
  5
481
100
AcDbEntity
  8
02___PRT_ALL_AXES
100
AcDbCircle
 62
7
  6
CONTINUOUS
 10
229.7621984116
 20
240.8894521613
 40
16.7259448405
100
AcDbArc
 50
169.477478276
 51
226.522521724
  0
ARC
  5
482
100
AcDbEntity
  8
02___PRT_ALL_AXES
100
AcDbCircle
 62
7
  6
CONTINUOUS
 10
229.7621984116
 20
240.8894521613
 40
16.7259448405
100
AcDbArc
 50
241.477478276
 51
298.522521724
  0
ARC
  5
483
100
AcDbEntity
  8
02___PRT_ALL_AXES
100
AcDbCircle
 62
7
  6
CONTINUOUS
 10
229.7621984116
 20
240.8894521613
 40
16.4423209935
100
AcDbArc
 50
312.7171022476
 51
11.2828977524
  0
ARC
  5
484
100
AcDbEntity
  8
02___PRT_ALL_AXES
100
AcDbCircle
 62
7
  6
CONTINUOUS
 10
229.7621984116
 20
240.8894521613
 40
16.4423209935
100
AcDbArc
 50
24.7171022476
 51
83.2828977524
  0
ARC
  5
485
100
AcDbEntity
  8
02___PRT_ALL_AXES
100
AcDbCircle
 62
7
  6
CONTINUOUS
 10
229.7621984116
 20
240.8894521613
 40
16.4423209935
100
AcDbArc
 50
96.7171022476
 51
155.2828977524
  0
ARC
  5
486
100
AcDbEntity
  8
02___PRT_ALL_AXES
100
AcDbCircle
 62
7
  6
CONTINUOUS
 10
229.7621984116
 20
240.8894521613
 40
16.4423209935
100
AcDbArc
 50
168.7171022476
 51
227.2828977524
  0
ARC
  5
487
100
AcDbEntity
  8
02___PRT_ALL_AXES
100
AcDbCircle
 62
7
  6
CONTINUOUS
 10
229.7621984116
 20
240.8894521613
 40
16.4423209935
100
AcDbArc
 50
240.7171022476
 51
299.2828977524
  0
ARC
  5
488
100
AcDbEntity
  8
02___PRT_ALL_AXES
100
AcDbCircle
 62
7
  6
CONTINUOUS
 10
229.7621984116
 20
240.8894521613
 40
15.6927333315
100
AcDbArc
 50
236.4465408918
 51
303.5534591082
  0
ARC
  5
489
100
AcDbEntity
  8
02___PRT_ALL_AXES
100
AcDbCircle
 62
7
  6
CONTINUOUS
 10
229.7621984116
 20
240.8894521613
 40
15.6927333315
100
AcDbArc
 50
92.4465408918
 51
159.5534591082
  0
ARC
  5
48A
100
AcDbEntity
  8
02___PRT_ALL_AXES
100
AcDbCircle
 62
7
  6
CONTINUOUS
 10
229.7621984116
 20
240.8894521613
 40
15.6927333315
100
AcDbArc
 50
164.4465408918
 51
231.5534591082
  0
ARC
  5
48B
100
AcDbEntity
  8
02___PRT_ALL_AXES
100
AcDbCircle
 62
7
  6
CONTINUOUS
 10
229.7621984116
 20
240.8894521613
 40
15.6927333315
100
AcDbArc
 50
308.4465408918
 51
15.5534591082
  0
ARC
  5
48C
100
AcDbEntity
  8
02___PRT_ALL_AXES
100
AcDbCircle
 62
7
  6
CONTINUOUS
 10
229.7621984116
 20
240.8894521613
 40
15.6927333315
100
AcDbArc
 50
20.4465408918
 51
87.5534591082
  0
ARC
  5
48D
100
AcDbEntity
  8
02___PRT_ALL_AXES
100
AcDbCircle
 62
7
  6
CONTINUOUS
 10
229.7621984116
 20
259.3894521613
 40
2.9
100
AcDbArc
 50
336.0524800825
 51
89.5165858691
  0
ARC
  5
48E
100
AcDbEntity
  8
02___PRT_ALL_AXES
100
AcDbCircle
 62
7
  6
CONTINUOUS
 10
229.7621984116
 20
259.3894521613
 40
2.9
100
AcDbArc
 50
90.4834141309
 51
203.9475199175
  0
ARC
  5
48F
100
AcDbEntity
  8
02___PRT_ALL_AXES
100
AcDbCircle
 62
7
  6
CONTINUOUS
 10
229.7621984116
 20
259.3894521613
 40
2.9
100
AcDbArc
 50
204.9521822716
 51
335.0478177284
  0
ARC
  5
490
100
AcDbEntity
  8
0
100
AcDbCircle
 62
7
  6
CONTINUOUS
 10
237.2308452561
 20
315.4063391692
 40
6.7070118889
100
AcDbArc
 50
183.4874136066
 51
184.3104669399
  0
ARC
  5
491
100
AcDbEntity
  8
02___PRT_ALL_AXES
100
AcDbCircle
 62
7
  6
CONTINUOUS
 10
229.7621984116
 20
280.8894521613
 40
2.9
100
AcDbArc
 50
270.4834141309
 51
89.5165858691
  0
ARC
  5
492
100
AcDbEntity
  8
02___PRT_ALL_AXES
100
AcDbCircle
 62
7
  6
CONTINUOUS
 10
229.7621984116
 20
280.8894521613
 40
2.9
100
AcDbArc
 50
90.4834141309
 51
269.5165858691
  0
ARC
  5
493
100
AcDbEntity
  8
02___PRT_ALL_AXES
100
AcDbCircle
 62
7
  6
CONTINUOUS
 10
247.3567439631
 20
246.6062665572
 40
2.9
100
AcDbArc
 50
264.0524800825
 51
17.5165858691
  0
ARC
  5
494
100
AcDbEntity
  8
02___PRT_ALL_AXES
100
AcDbCircle
 62
7
  6
CONTINUOUS
 10
247.3567439631
 20
246.6062665572
 40
2.9
100
AcDbArc
 50
132.9521822716
 51
263.0478177284
  0
ARC
  5
495
100
AcDbEntity
  8
02___PRT_ALL_AXES
100
AcDbCircle
 62
7
  6
CONTINUOUS
 10
247.3567439631
 20
246.6062665572
 40
2.9
100
AcDbArc
 50
18.4834141309
 51
131.9475199175
  0
ARC
  5
496
100
AcDbEntity
  8
0
100
AcDbCircle
 62
7
  6
CONTINUOUS
 10
229.7621984116
 20
490.3894521613
 40
133.9499751157
100
AcDbArc
 50
252.2011524729
 51
287.7988475271
  0
ARC
  5
497
100
AcDbEntity
  8
0
100
AcDbCircle
 62
7
  6
CONTINUOUS
 10
229.7621984116
 20
490.3894521613
 40
133.5343008641
100
AcDbArc
 50
252.2011524729
 51
287.7988475271
  0
ARC
  5
498
100
AcDbEntity
  8
0
100
AcDbCircle
 62
7
  6
CONTINUOUS
 10
229.7621984116
 20
490.3894521613
 40
131.5346054738
100
AcDbArc
 50
252.2011524729
 51
287.7988475271
  0
ARC
  5
499
100
AcDbEntity
  8
0
100
AcDbCircle
 62
7
  6
CONTINUOUS
 10
276.6834879502
 20
344.2366465501
 40
21.9653945262
100
AcDbArc
 50
92.5679655934
 51
107.7988475272
  0
ARC
  5
49A
100
AcDbEntity
  8
0
100
AcDbCircle
 62
7
  6
CONTINUOUS
 10
277.3454931967
 20
345.6884478409
 40
21.2489105722
100
AcDbArc
 50
65.5882187915
 51
82.6883144153
  0
ARC
  5
49B
100
AcDbEntity
  8
0
100
AcDbCircle
 62
7
  6
CONTINUOUS
 10
276.6206584968
 20
344.0995388842
 40
20.1054064403
100
AcDbArc
 50
65.5796808695
 51
81.8822277834
  0
ARC
  5
49C
100
AcDbEntity
  8
0
100
AcDbCircle
 62
7
  6
CONTINUOUS
 10
276.6834879502
 20
344.2366465501
 40
19.9656991359
100
AcDbArc
 50
92.5679656639
 51
107.7988475271
  0
ARC
  5
49D
100
AcDbEntity
  8
0
100
AcDbCircle
 62
7
  6
CONTINUOUS
 10
276.6693457596
 20
344.4880945641
 40
19.7138702065
100
AcDbArc
 50
81.8628484615
 51
92.5596476413
  0
ARC
  5
49E
100
AcDbEntity
  8
0
100
AcDbCircle
 62
7
  6
CONTINUOUS
 10
276.6834879502
 20
344.2366465501
 40
19.5498421185
100
AcDbArc
 50
65.5811868346
 51
107.7988475271
  0
ARC
  5
49F
100
AcDbEntity
  8
0
100
AcDbCircle
 62
7
  6
CONTINUOUS
 10
298.1830727096
 20
271.5806555146
 40
7.2855459991
100
AcDbArc
 50
283.7222490629
 51
284.479953338
  0
ARC
  5
4A0
100
AcDbEntity
  8
0
100
AcDbCircle
 62
7
  6
CONTINUOUS
 10
302.9399081907
 20
256.8133313254
 40
6.7070119319
100
AcDbArc
 50
111.4874136113
 51
112.3104669389
  0
ARC
  5
4A1
100
AcDbEntity
  8
02___PRT_ALL_AXES
100
AcDbCircle
 62
7
  6
CONTINUOUS
 10
105.3721984116
 20
508.1922669035
 40
25.61
100
AcDbArc
 50
180.6791440682
 51
230.0987279005
  0
ARC
  5
4A2
100
AcDbEntity
  8
0
100
AcDbCircle
 62
7
  6
CONTINUOUS
 10
76.1149038547
 20
473.2025139005
 40
20.0
100
AcDbArc
 50
23.6293777307
 51
50.0987279005
  0
ARC
  5
4A3
100
AcDbEntity
  8
0
100
AcDbCircle
 62
3
  6
CONTINUOUS
 10
82.2621984116
 20
510.1922669035
 40
2.0
100
AcDbArc
 50
180.0
 51
270.0
  0
ARC
  5
4A4
100
AcDbEntity
  8
0
100
AcDbCircle
 62
7
  6
CONTINUOUS
 10
80.0639764274
 20
507.8922669035
 40
0.3
100
AcDbArc
 50
90.0
 51
180.6791440682
  0
ARC
  5
4A5
100
AcDbEntity
  8
02___PRT_ALL_AXES
100
AcDbCircle
 62
7
  6
CONTINUOUS
 10
107.7621984116
 20
1106.3924424822
 40
32.2263476317
100
AcDbArc
 50
116.4308746475
 51
178.0
  0
ARC
  5
4A6
100
AcDbEntity
  8
0
100
AcDbCircle
 62
7
  6
CONTINUOUS
 10
107.7621984116
 20
1106.3924424822
 40
32.2263476317
100
AcDbArc
 50
116.4308746475
 51
178.0
  0
ARC
  5
4A7
100
AcDbEntity
  8
0
100
AcDbCircle
 62
7
  6
CONTINUOUS
 10
94.3079136062
 20
1133.4592914219
 40
2.0
100
AcDbArc
 50
90.0
 51
116.4308746475
  0
ARC
  5
4A8
100
AcDbEntity
  8
03___PRT_ALL_CURVES
100
AcDbCircle
 62
2
  6
CONTINUOUS
 10
211.3618639067
 20
1064.4954453778
 40
1.5998215257
100
AcDbArc
 50
90.0
 51
180.0
  0
ARC
  5
4A9
100
AcDbEntity
  8
03___PRT_ALL_CURVES
100
AcDbCircle
 62
2
  6
CONTINUOUS
 10
211.3618639067
 20
1059.6952269046
 40
1.5998215257
100
AcDbArc
 50
180.0
 51
270.0
  0
ARC
  5
4AA
100
AcDbEntity
  8
0
100
AcDbCircle
 62
7
  6
CONTINUOUS
 10
76.2246720881
 20
1092.2957669035
 40
1.2
100
AcDbArc
 50
178.0
 51
270.0
  0
ARC
  5
4AB
100
AcDbEntity
  8
03___PRT_ALL_CURVES
100
AcDbCircle
 62
2
  6
CONTINUOUS
 10
217.7301008
 20
1062.6460694389
 40
1.0498644102
100
AcDbArc
 50
281.4105507001
 51
89.975648452
  0
ARC
  5
4AC
100
AcDbEntity
  8
03___PRT_ALL_CURVES
100
AcDbCircle
 62
2
  6
CONTINUOUS
 10
217.3422855881
 20
1062.568712896
 40
0.6771582773
100
AcDbArc
 50
359.9664129059
 51
13.3320254933
  0
ARC
  5
4AD
100
AcDbEntity
  8
03___PRT_ALL_CURVES
100
AcDbCircle
 62
2
  6
CONTINUOUS
 10
217.4739444028
 20
1062.7175744291
 40
0.6242194477
100
AcDbArc
 50
270.0263810658
 51
304.1952312764
  0
ARC
  5
4AE
100
AcDbEntity
  8
03___PRT_ALL_CURVES
100
AcDbCircle
 62
2
  6
CONTINUOUS
 10
217.575334701
 20
1062.568712896
 40
0.4441092254
100
AcDbArc
 50
304.1693844162
 51
359.9487878713
  0
ARC
  5
4AF
100
AcDbEntity
  8
02___PRT_ALL_AXES
100
AcDbCircle
 62
7
  6
CONTINUOUS
 10
354.1521984116
 20
508.1922669035
 40
25.61
100
AcDbArc
 50
309.9012720995
 51
359.3208559318
  0
ARC
  5
4B0
100
AcDbEntity
  8
0
100
AcDbCircle
 62
7
  6
CONTINUOUS
 10
354.1521984116
 20
508.1922669035
 40
25.61
100
AcDbArc
 50
309.9012720995
 51
359.3208559318
  0
ARC
  5
4B1
100
AcDbEntity
  8
0
100
AcDbCircle
 62
7
  6
CONTINUOUS
 10
383.4094929685
 20
473.2025139005
 40
20.0
100
AcDbArc
 50
129.9012720995
 51
156.3706222693
  0
ARC
  5
4B2
100
AcDbEntity
  8
0
100
AcDbCircle
 62
3
  6
CONTINUOUS
 10
377.2621984116
 20
510.1922669035
 40
2.0
100
AcDbArc
 50
270.0
 51
360.0
  0
ARC
  5
4B3
100
AcDbEntity
  8
0
100
AcDbCircle
 62
7
  6
CONTINUOUS
 10
379.4604203958
 20
507.8922669035
 40
0.3
100
AcDbArc
 50
359.3208559318
 51
90.0
  0
ARC
  5
4B4
100
AcDbEntity
  8
02___PRT_ALL_AXES
100
AcDbCircle
 62
7
  6
CONTINUOUS
 10
351.7621984116
 20
1106.3924424822
 40
32.2263476317
100
AcDbArc
 50
2.0
 51
63.5691253525
  0
ARC
  5
4B5
100
AcDbEntity
  8
0
100
AcDbCircle
 62
7
  6
CONTINUOUS
 10
351.7621984116
 20
1106.3924424822
 40
32.2263476317
100
AcDbArc
 50
2.0
 51
63.5691253525
  0
ARC
  5
4B6
100
AcDbEntity
  8
0
100
AcDbCircle
 62
7
  6
CONTINUOUS
 10
365.216483217
 20
1133.4592914219
 40
2.0
100
AcDbArc
 50
63.5691253525
 51
90.0
  0
ARC
  5
4B7
100
AcDbEntity
  8
03___PRT_ALL_CURVES
100
AcDbCircle
 62
2
  6
CONTINUOUS
 10
248.1625329165
 20
1059.6952269046
 40
1.5998215257
100
AcDbArc
 50
270.0
 51
360.0
  0
ARC
  5
4B8
100
AcDbEntity
  8
0
100
AcDbCircle
 62
7
  6
CONTINUOUS
 10
383.2997247351
 20
1092.2957669035
 40
1.2
100
AcDbArc
 50
270.0
 51
2.0
  0
LINE
  5
4B9
100
AcDbEntity
  8
0
100
AcDbLine
 62
7
  6
CONTINUOUS
 10
273.8973438966
 20
181.4706825814
 11
272.1422597236
 21
184.3154622629
  0
SPLINE
  5
4BA
100
AcDbEntity
  8
0
100
AcDbSpline
 62
7
  6
CONTINUOUS
 70
0
 71
3
 72
10
 73
6
 74
0
 42
0.0000001
 43
0.0000001
 44
0.0000000001
 40
0.0
 40
0.0
 40
0.0
 40
0.0
 40
0.1668499687
 40
0.4028485875
 40
1.0
 40
1.0
 40
1.0
 40
1.0
 10
272.1422597236
 20
184.3154622629
 30
0.0
 10
272.1087746218
 20
184.3697352963
 30
0.0
 10
272.024023212
 20
184.4983349095
 30
0.0
 10
271.8080174065
 20
184.813640499
 30
0.0
 10
271.6227905492
 20
185.0727208541
 30
0.0
 10
271.4886364301
 20
185.2573682706
 30
0.0
  0
SPLINE
  5
4BB
100
AcDbEntity
  8
0
100
AcDbSpline
 62
7
  6
CONTINUOUS
 70
0
 71
3
 72
10
 73
6
 74
0
 42
0.0000001
 43
0.0000001
 44
0.0000000001
 40
0.0
 40
0.0
 40
0.0
 40
0.0
 40
0.5971403002
 40
0.833141598
 40
1.0
 40
1.0
 40
1.0
 40
1.0
 10
269.7772758484
 20
184.0139920273
 30
0.0
 10
269.9114275697
 20
183.8293481185
 30
0.0
 10
270.100587443
 20
183.5731292524
 30
0.0
 10
270.3337112567
 20
183.2702606199
 30
0.0
 10
270.4298296601
 20
183.149914354
 30
0.0
 10
270.4711009892
 20
183.1012943713
 30
0.0
  0
LINE
  5
4BC
100
AcDbEntity
  8
0
100
AcDbLine
 62
7
  6
CONTINUOUS
 10
270.4711009892
 20
183.1012943713
 11
272.6342964067
 21
180.5530248651
  0
LINE
  5
4BD
100
AcDbEntity
  8
0
100
AcDbLine
 62
7
  6
CONTINUOUS
 10
186.8901004165
 20
180.5530248651
 11
189.053295834
 21
183.1012943713
  0
SPLINE
  5
4BE
100
AcDbEntity
  8
0
100
AcDbSpline
 62
7
  6
CONTINUOUS
 70
0
 71
3
 72
10
 73
6
 74
0
 42
0.0000001
 43
0.0000001
 44
0.0000000001
 40
0.0
 40
0.0
 40
0.0
 40
0.0
 40
0.1668499687
 40
0.4028485875
 40
1.0
 40
1.0
 40
1.0
 40
1.0
 10
189.053295834
 20
183.1012943713
 30
0.0
 10
189.0945650906
 20
183.1499118852
 30
0.0
 10
189.1906809648
 20
183.2702547318
 30
0.0
 10
189.4238049355
 20
183.5731232462
 30
0.0
 10
189.6129667487
 20
183.8293446885
 30
0.0
 10
189.7471209748
 20
184.0139920273
 30
0.0
  0
SPLINE
  5
4BF
100
AcDbEntity
  8
0
100
AcDbSpline
 62
7
  6
CONTINUOUS
 70
0
 71
3
 72
10
 73
6
 74
0
 42
0.0000001
 43
0.0000001
 44
0.0000000001
 40
0.0
 40
0.0
 40
0.0
 40
0.0
 40
0.5971403002
 40
0.833141598
 40
1.0
 40
1.0
 40
1.0
 40
1.0
 10
188.0357603931
 20
185.2573682706
 30
0.0
 10
187.9016087622
 20
185.0727242962
 30
0.0
 10
187.7163837555
 20
184.8136465822
 30
0.0
 10
187.5003777892
 20
184.4983411056
 30
0.0
 10
187.4156239089
 20
184.3697380302
 30
0.0
 10
187.3821370996
 20
184.3154622629
 30
0.0
  0
LINE
  5
4C0
100
AcDbEntity
  8
0
100
AcDbLine
 62
7
  6
CONTINUOUS
 10
187.3821370996
 20
184.3154622629
 11
185.6270529266
 21
181.4706825814
  0
LINE
  5
4C1
100
AcDbEntity
  8
0
100
AcDbLine
 62
7
  6
CONTINUOUS
 10
159.1306391966
 20
263.0182589124
 11
162.222651662
 21
261.7483963982
  0
SPLINE
  5
4C2
100
AcDbEntity
  8
0
100
AcDbSpline
 62
7
  6
CONTINUOUS
 70
0
 71
3
 72
10
 73
6
 74
0
 42
0.0000001
 43
0.0000001
 44
0.0000000001
 40
0.0
 40
0.0
 40
0.0
 40
0.0
 40
0.1668499687
 40
0.4028485875
 40
1.0
 40
1.0
 40
1.0
 40
1.0
 10
162.222651662
 20
261.7483963982
 30
0.0
 10
162.281642567
 20
261.7241706408
 30
0.0
 10
162.4257968539
 20
261.6699469971
 30
0.0
 10
162.7858811969
 20
261.5418244437
 30
0.0
 10
163.0880164842
 20
261.4410976486
 30
0.0
 10
163.3050824747
 20
261.3705685633
 30
0.0
  0
SPLINE
  5
4C3
100
AcDbEntity
  8
0
100
AcDbSpline
 62
7
  6
CONTINUOUS
 70
0
 71
3
 72
10
 73
6
 74
0
 42
0.0000001
 43
0.0000001
 44
0.0000000001
 40
0.0
 40
0.0
 40
0.0
 40
0.0
 40
0.5971403002
 40
0.833141598
 40
1.0
 40
1.0
 40
1.0
 40
1.0
 10
163.9587640499
 20
263.3823935859
 30
0.0
 10
163.741702061
 20
263.4529212426
 30
0.0
 10
163.4380668381
 20
263.5490212757
 30
0.0
 10
163.0714439954
 20
263.6570204069
 30
0.0
 10
162.9229448132
 20
263.6978856012
 30
0.0
 10
162.8609774979
 20
263.7129613148
 30
0.0
  0
LINE
  5
4C4
100
AcDbEntity
  8
0
100
AcDbLine
 62
7
  6
CONTINUOUS
 10
162.8609774979
 20
263.7129613148
 11
159.6130804083
 21
264.5030602874
  0
LINE
  5
4C5
100
AcDbEntity
  8
0
100
AcDbLine
 62
7
  6
CONTINUOUS
 10
228.9815921334
 20
314.9022341601
 11
228.7293655132
 21
311.5691464591
  0
SPLINE
  5
4C6
100
AcDbEntity
  8
0
100
AcDbSpline
 62
7
  6
CONTINUOUS
 70
0
 71
3
 72
10
 73
6
 74
0
 42
0.0000001
 43
0.0000001
 44
0.0000000001
 40
0.0
 40
0.0
 40
0.0
 40
0.0
 40
0.1668499687
 40
0.4028485875
 40
1.0
 40
1.0
 40
1.0
 40
1.0
 10
228.7293655132
 20
311.5691464591
 30
0.0
 10
228.7245546409
 20
311.5055566038
 30
0.0
 10
228.7175310157
 20
311.3517017023
 30
0.0
 10
228.7069514078
 20
310.9696490952
 30
0.0
 10
228.7045194712
 20
310.65117507
 30
0.0
 10
228.7045194051
 20
310.4229383593
 30
0.0
  0
SPLINE
  5
4C7
100
AcDbEntity
  8
0
100
AcDbSpline
 62
7
  6
CONTINUOUS
 70
0
 71
3
 72
10
 73
6
 74
0
 42
0.0000001
 43
0.0000001
 44
0.0000000001
 40
0.0
 40
0.0
 40
0.0
 40
0.0
 40
0.5969666758
 40
0.83295201
 40
1.0
 40
1.0
 40
1.0
 40
1.0
 10
302.0942112904
 20
265.9430145007
 30
0.0
 10
301.745976719
 20
265.8326421954
 30
0.0
 10
301.2583356449
 20
265.6837741751
 30
0.0
 10
300.6683024091
 20
265.5216190582
 30
0.0
 10
300.4287913515
 20
265.4622333769
 30
0.0
 10
300.3286405709
 20
265.4417540914
 30
0.0
  0
SPLINE
  5
4C8
100
AcDbEntity
  8
0
100
AcDbSpline
 62
7
  6
CONTINUOUS
 70
0
 71
3
 72
10
 73
6
 74
0
 42
0.0000001
 43
0.0000001
 44
0.0000000001
 40
0.0
 40
0.0
 40
0.0
 40
0.0
 40
0.1670350424
 40
0.4030311498
 40
1.0
 40
1.0
 40
1.0
 40
1.0
 10
231.3065952925
 20
315.589205356
 30
0.0
 10
231.2951244387
 20
315.6907749369
 30
0.0
 10
231.2775907987
 20
315.9369133683
 30
0.0
 10
231.2494784562
 20
316.5481769594
 30
0.0
 10
231.2403710513
 20
317.0579618716
 30
0.0
 10
231.237730914
 20
317.4232608788
 30
0.0
  0
SPLINE
  5
4C9
100
AcDbEntity
  8
0
100
AcDbSpline
 62
7
  6
CONTINUOUS
 70
0
 71
3
 72
10
 73
6
 74
0
 42
0.0000001
 43
0.0000001
 44
0.0000000001
 40
0.0
 40
0.0
 40
0.0
 40
0.0
 40
0.5969666758
 40
0.83295201
 40
1.0
 40
1.0
 40
1.0
 40
1.0
 10
275.9413733478
 20
179.8395965086
 30
0.0
 10
275.728792647
 20
180.136680349
 30
0.0
 10
275.4365213672
 20
180.5544518219
 30
0.0
 10
275.0999723896
 20
181.0654980888
 30
0.0
 10
274.9694802632
 20
181.274935456
 30
0.0
 10
274.9190550121
 20
181.3638560614
 30
0.0
  0
SPLINE
  5
4CA
100
AcDbEntity
  8
0
100
AcDbSpline
 62
7
  6
CONTINUOUS
 70
0
 71
3
 72
10
 73
6
 74
0
 42
0.0000001
 43
0.0000001
 44
0.0000000001
 40
0.0
 40
0.0
 40
0.0
 40
0.0
 40
0.1670350424
 40
0.4030311498
 40
1.0
 40
1.0
 40
1.0
 40
1.0
 10
301.2831303354
 20
262.5041366567
 30
0.0
 10
301.3761840583
 20
262.5464328136
 30
0.0
 10
301.6048574247
 20
262.6391692544
 30
0.0
 10
302.1775164546
 20
262.8547965187
 30
0.0
 10
302.6595363743
 20
263.0209903767
 30
0.0
 10
303.0061405283
 20
263.1363848978
 30
0.0
  0
SPLINE
  5
4CB
100
AcDbEntity
  8
0
100
AcDbSpline
 62
7
  6
CONTINUOUS
 70
0
 71
3
 72
10
 73
6
 74
0
 42
0.0000001
 43
0.0000001
 44
0.0000000001
 40
0.0
 40
0.0
 40
0.0
 40
0.0
 40
0.5969664508
 40
0.8329519201
 40
1.0
 40
1.0
 40
1.0
 40
1.0
 10
185.9704852158
 20
178.1050040202
 30
0.0
 10
186.1873376016
 20
178.3989841296
 30
0.0
 10
186.4943450636
 20
178.8060490712
 30
0.0
 10
186.8763795833
 20
179.284048158
 30
0.0
 10
187.0352421579
 20
179.4728733582
 30
0.0
 10
187.1042284566
 20
179.5483086408
 30
0.0
  0
SPLINE
  5
4CC
100
AcDbEntity
  8
0
100
AcDbSpline
 62
7
  6
CONTINUOUS
 70
0
 71
3
 72
10
 73
6
 74
0
 42
0.0000001
 43
0.0000001
 44
0.0000000001
 40
0.0
 40
0.0
 40
0.0
 40
0.0
 40
0.1670351397
 40
0.4030312644
 40
1.0
 40
1.0
 40
1.0
 40
1.0
 10
272.4201683667
 20
179.5483086408
 30
0.0
 10
272.4891496227
 20
179.4728794771
 30
0.0
 10
272.6480112201
 20
179.2840552641
 30
0.0
 10
273.0300463014
 20
178.8060566466
 30
0.0
 10
273.3370583632
 20
178.3989852345
 30
0.0
 10
273.5539116073
 20
178.1050040204
 30
0.0
  0
SPLINE
  5
4CD
100
AcDbEntity
  8
0
100
AcDbSpline
 62
7
  6
CONTINUOUS
 70
0
 71
3
 72
10
 73
6
 74
0
 42
0.0000001
 43
0.0000001
 44
0.0000000001
 40
0.0
 40
0.0
 40
0.0
 40
0.0
 40
0.5969666758
 40
0.83295201
 40
1.0
 40
1.0
 40
1.0
 40
1.0
 10
156.5182562948
 20
263.1363848979
 30
0.0
 10
156.8648591944
 20
263.0209908231
 30
0.0
 10
157.3468715374
 20
262.8547993497
 30
0.0
 10
157.9195308387
 20
262.6391727606
 30
0.0
 10
158.1482053823
 20
262.5464357187
 30
0.0
 10
158.2412664878
 20
262.5041366567
 30
0.0
  0
SPLINE
  5
4CE
100
AcDbEntity
  8
0
100
AcDbSpline
 62
7
  6
CONTINUOUS
 70
0
 71
3
 72
10
 73
6
 74
0
 42
0.0000001
 43
0.0000001
 44
0.0000000001
 40
0.0
 40
0.0
 40
0.0
 40
0.0
 40
0.1670350424
 40
0.4030311498
 40
1.0
 40
1.0
 40
1.0
 40
1.0
 10
184.6053418111
 20
181.3638560614
 30
0.0
 10
184.5549208251
 20
181.2749421457
 30
0.0
 10
184.4244292978
 20
181.0655059567
 30
0.0
 10
184.0878809366
 20
180.5544593031
 30
0.0
 10
183.7956049286
 20
180.1366814474
 30
0.0
 10
183.5830234755
 20
179.8395965087
 30
0.0
  0
SPLINE
  5
4CF
100
AcDbEntity
  8
0
100
AcDbSpline
 62
7
  6
CONTINUOUS
 70
0
 71
3
 72
10
 73
6
 74
0
 42
0.0000001
 43
0.0000001
 44
0.0000000001
 40
0.0
 40
0.0
 40
0.0
 40
0.0
 40
0.5969666758
 40
0.83295201
 40
1.0
 40
1.0
 40
1.0
 40
1.0
 10
228.2866659092
 20
317.423260879
 30
0.0
 10
228.2840258088
 20
317.0579632025
 30
0.0
 10
228.2749183305
 20
316.5481862332
 30
0.0
 10
228.2468067139
 20
315.9369225927
 30
0.0
 10
228.2292728661
 20
315.6907828559
 30
0.0
 10
228.2178015307
 20
315.589205356
 30
0.0
  0
SPLINE
  5
4D0
100
AcDbEntity
  8
0
100
AcDbSpline
 62
7
  6
CONTINUOUS
 70
0
 71
3
 72
10
 73
6
 74
0
 42
0.0000001
 43
0.0000001
 44
0.0000000001
 40
0.0
 40
0.0
 40
0.0
 40
0.0
 40
0.1670350424
 40
0.4030311498
 40
1.0
 40
1.0
 40
1.0
 40
1.0
 10
159.1957562523
 20
265.4417540914
 30
0.0
 10
159.0956131519
 20
265.4622313878
 30
0.0
 10
158.8561034
 20
265.5216168635
 30
0.0
 10
158.266069987
 20
265.6837712746
 30
0.0
 10
157.7784213815
 20
265.8326418192
 30
0.0
 10
157.4301855329
 20
265.9430145007
 30
0.0
  0
SPLINE
  5
4D1
100
AcDbEntity
  8
0
100
AcDbSpline
 62
7
  6
CONTINUOUS
 70
0
 71
3
 72
10
 73
6
 74
0
 42
0.0000001
 43
0.0000001
 44
0.0000000001
 40
0.0
 40
0.0
 40
0.0
 40
0.0
 40
0.1666842862
 40
0.4026718748
 40
1.0
 40
1.0
 40
1.0
 40
1.0
 10
297.0797114288
 20
264.6545998088
 30
0.0
 10
296.9817016592
 20
264.6268724246
 30
0.0
 10
296.7462225539
 20
264.5553893835
 30
0.0
 10
296.1635773349
 20
264.371194356
 30
0.0
 10
295.6800279796
 20
264.2114672649
 30
0.0
 10
295.333997447
 20
264.0952938163
 30
0.0
  0
SPLINE
  5
4D2
100
AcDbEntity
  8
0
100
AcDbSpline
 62
7
  6
CONTINUOUS
 70
0
 71
3
 72
10
 73
6
 74
0
 42
0.0000001
 43
0.0000001
 44
0.0000000001
 40
0.0
 40
0.0
 40
0.0
 40
0.0
 40
0.5973170045
 40
0.8333072788
 40
1.0
 40
1.0
 40
1.0
 40
1.0
 10
231.5694650801
 20
310.4229383593
 30
0.0
 10
231.5730231078
 20
310.7879257278
 30
0.0
 10
231.5755077521
 20
311.2971617199
 30
0.0
 10
231.5706405989
 20
311.9082096504
 30
0.0
 10
231.5658578502
 20
312.1542598556
 30
0.0
 10
231.5619414012
 20
312.256046074
 30
0.0
  0
SPLINE
  5
4D3
100
AcDbEntity
  8
0
100
AcDbSpline
 62
7
  6
CONTINUOUS
 70
0
 71
3
 72
10
 73
6
 74
0
 42
0.0000001
 43
0.0000001
 44
0.0000000001
 40
0.0
 40
0.0
 40
0.0
 40
0.0
 40
0.1666842862
 40
0.4026718748
 40
1.0
 40
1.0
 40
1.0
 40
1.0
 10
273.1664524839
 20
184.2105272424
 30
0.0
 10
273.10979549
 20
184.2951718396
 30
0.0
 10
272.9690440326
 20
184.4970363025
 30
0.0
 10
272.6138168771
 20
184.994245441
 30
0.0
 10
272.3124824179
 20
185.4047698207
 30
0.0
 10
272.0950655874
 20
185.6979648436
 30
0.0
  0
SPLINE
  5
4D4
100
AcDbEntity
  8
0
100
AcDbSpline
 62
7
  6
CONTINUOUS
 70
0
 71
3
 72
10
 73
6
 74
0
 42
0.0000001
 43
0.0000001
 44
0.0000000001
 40
0.0
 40
0.0
 40
0.0
 40
0.0
 40
0.5973170045
 40
0.8333072788
 40
1.0
 40
1.0
 40
1.0
 40
1.0
 10
296.4509496749
 20
260.6576683329
 30
0.0
 10
296.7991727811
 20
260.767071747
 30
0.0
 10
297.284252787
 20
260.9220712855
 30
0.0
 10
297.86388987
 20
261.1155244182
 30
0.0
 10
298.0964195704
 20
261.1961067774
 30
0.0
 10
298.1920137674
 20
261.2312852131
 30
0.0
  0
SPLINE
  5
4D5
100
AcDbEntity
  8
0
100
AcDbSpline
 62
7
  6
CONTINUOUS
 70
0
 71
3
 72
10
 73
6
 74
0
 42
0.0000001
 43
0.0000001
 44
0.0000000001
 40
0.0
 40
0.0
 40
0.0
 40
0.0
 40
0.1666842862
 40
0.4026718748
 40
1.0
 40
1.0
 40
1.0
 40
1.0
 10
189.2699896674
 20
182.0948024681
 30
0.0
 10
189.3329834892
 20
182.1748430903
 30
0.0
 10
189.4814734098
 20
182.3710852307
 30
0.0
 10
189.8445761729
 20
182.8625724052
 30
0.0
 10
190.1418905905
 20
183.2760175162
 30
0.0
 10
190.3535501321
 20
183.5733954543
 30
0.0
  0
SPLINE
  5
4D6
100
AcDbEntity
  8
0
100
AcDbSpline
 62
7
  6
CONTINUOUS
 70
0
 71
3
 72
10
 73
6
 74
0
 42
0.0000001
 43
0.0000001
 44
0.0000000001
 40
0.0
 40
0.0
 40
0.0
 40
0.0
 40
0.5973170045
 40
0.8333072788
 40
1.0
 40
1.0
 40
1.0
 40
1.0
 10
269.1708466911
 20
183.5733954543
 30
0.0
 10
269.3825023787
 20
183.2760231142
 30
0.0
 10
269.6798136653
 20
182.8625821051
 30
0.0
 10
270.042916237
 20
182.3710947859
 30
0.0
 10
270.1914102439
 20
182.1748472175
 30
0.0
 10
270.2544071558
 20
182.0948024681
 30
0.0
  0
SPLINE
  5
4D7
100
AcDbEntity
  8
0
100
AcDbSpline
 62
7
  6
CONTINUOUS
 70
0
 71
3
 72
10
 73
6
 74
0
 42
0.0000001
 43
0.0000001
 44
0.0000000001
 40
0.0
 40
0.0
 40
0.0
 40
0.0
 40
0.1666842862
 40
0.4026718748
 40
1.0
 40
1.0
 40
1.0
 40
1.0
 10
161.3323830558
 20
261.2312852131
 30
0.0
 10
161.4279723726
 20
261.1961084409
 30
0.0
 10
161.660495648
 20
261.1155282908
 30
0.0
 10
162.2401326525
 20
260.9220749312
 30
0.0
 10
162.7252175271
 20
260.7670736825
 30
0.0
 10
163.0734471483
 20
260.6576683329
 30
0.0
  0
SPLINE
  5
4D8
100
AcDbEntity
  8
0
100
AcDbSpline
 62
7
  6
CONTINUOUS
 70
0
 71
3
 72
10
 73
6
 74
0
 42
0.0000001
 43
0.0000001
 44
0.0000000001
 40
0.0
 40
0.0
 40
0.0
 40
0.0
 40
0.5973170045
 40
0.8333072788
 40
1.0
 40
1.0
 40
1.0
 40
1.0
 10
187.4293312358
 20
185.6979648436
 30
0.0
 10
187.2119185384
 20
185.404775216
 30
0.0
 10
186.9105870128
 20
184.9942550815
 30
0.0
 10
186.5553596605
 20
184.4970460805
 30
0.0
 10
186.4146043035
 20
184.2951760538
 30
0.0
 10
186.3579443393
 20
184.2105272424
 30
0.0
  0
SPLINE
  5
4D9
100
AcDbEntity
  8
0
100
AcDbSpline
 62
7
  6
CONTINUOUS
 70
0
 71
3
 72
10
 73
6
 74
0
 42
0.0000001
 43
0.0000001
 44
0.0000000001
 40
0.0
 40
0.0
 40
0.0
 40
0.0
 40
0.1666842862
 40
0.4026718748
 40
1.0
 40
1.0
 40
1.0
 40
1.0
 10
227.9624554221
 20
312.256046074
 30
0.0
 10
227.958539047
 20
312.154265011
 30
0.0
 10
227.9537564138
 20
311.908221599
 30
0.0
 10
227.9488890206
 20
311.297173673
 30
0.0
 10
227.9513735429
 20
310.787932522
 30
0.0
 10
227.9549317432
 20
310.4229383593
 30
0.0
  0
SPLINE
  5
4DA
100
AcDbEntity
  8
0
100
AcDbSpline
 62
7
  6
CONTINUOUS
 70
0
 71
3
 72
10
 73
6
 74
0
 42
0.0000001
 43
0.0000001
 44
0.0000000001
 40
0.0
 40
0.0
 40
0.0
 40
0.0
 40
0.5973170045
 40
0.8333072788
 40
1.0
 40
1.0
 40
1.0
 40
1.0
 10
164.1903993762
 20
264.0952938163
 30
0.0
 10
163.8443752521
 20
264.2114650014
 30
0.0
 10
163.3608308407
 20
264.3711906143
 30
0.0
 10
162.7781856916
 20
264.5553858714
 30
0.0
 10
162.54270009
 20
264.6268709019
 30
0.0
 10
162.4446853944
 20
264.6545998088
 30
0.0
  0
SPLINE
  5
4DB
100
AcDbEntity
  8
0
100
AcDbSpline
 62
7
  6
CONTINUOUS
 70
0
 71
3
 72
11
 73
7
 74
0
 42
0.0000001
 43
0.0000001
 44
0.0000000001
 40
0.0
 40
0.0
 40
0.0
 40
0.0
 40
0.2593880666
 40
0.5141205987
 40
0.7605927732
 40
1.0
 40
1.0
 40
1.0
 40
1.0
 10
297.0797114288
 20
264.6545998088
 30
0.0
 10
297.1108488029
 20
264.5616174727
 30
0.0
 10
297.1395179651
 20
264.3643316014
 30
0.0
 10
297.0750963204
 20
264.0774106545
 30
0.0
 10
296.9116847723
 20
263.8410690322
 30
0.0
 10
296.7490783061
 20
263.7421761313
 30
0.0
 10
296.6634193253
 20
263.7129613148
 30
0.0
  0
LINE
  5
4DC
100
AcDbEntity
  8
0
100
AcDbLine
 62
7
  6
CONTINUOUS
 10
300.3286405709
 20
265.4417540914
 11
297.0797114288
 21
264.6545998088
  0
LINE
  5
4DD
100
AcDbEntity
  8
0
100
AcDbLine
 62
7
  6
CONTINUOUS
 10
231.5619414012
 20
312.256046074
 11
231.3065952925
 21
315.589205356
  0
LINE
  5
4DE
100
AcDbEntity
  8
0
100
AcDbLine
 62
7
  6
CONTINUOUS
 10
274.9190550121
 20
181.3638560614
 11
273.1664524839
 21
184.2105272424
  0
LINE
  5
4DF
100
AcDbEntity
  8
0
100
AcDbLine
 62
7
  6
CONTINUOUS
 10
298.1920137674
 20
261.2312852131
 11
301.2831303354
 21
262.5041366567
  0
LINE
  5
4E0
100
AcDbEntity
  8
0
100
AcDbLine
 62
7
  6
CONTINUOUS
 10
187.1042284566
 20
179.5483086408
 11
189.2699896674
 21
182.0948024681
  0
LINE
  5
4E1
100
AcDbEntity
  8
0
100
AcDbLine
 62
7
  6
CONTINUOUS
 10
270.2544071558
 20
182.0948024681
 11
272.4201683667
 21
179.5483086408
  0
LINE
  5
4E2
100
AcDbEntity
  8
0
100
AcDbLine
 62
7
  6
CONTINUOUS
 10
158.2412664878
 20
262.5041366567
 11
161.3323830558
 21
261.2312852131
  0
LINE
  5
4E3
100
AcDbEntity
  8
0
100
AcDbLine
 62
7
  6
CONTINUOUS
 10
186.3579443393
 20
184.2105272424
 11
184.6053418111
 21
181.3638560614
  0
LINE
  5
4E4
100
AcDbEntity
  8
0
100
AcDbLine
 62
7
  6
CONTINUOUS
 10
228.2178015307
 20
315.589205356
 11
227.9624554221
 21
312.256046074
  0
LINE
  5
4E5
100
AcDbEntity
  8
0
100
AcDbLine
 62
7
  6
CONTINUOUS
 10
162.4446853944
 20
264.6545998088
 11
159.1957562523
 21
265.4417540914
  0
SPLINE
  5
4E6
100
AcDbEntity
  8
0
100
AcDbSpline
 62
7
  6
CONTINUOUS
 70
0
 71
3
 72
11
 73
7
 74
0
 42
0.0000001
 43
0.0000001
 44
0.0000000001
 40
0.0
 40
0.0
 40
0.0
 40
0.0
 40
0.2593907302
 40
0.5140988436
 40
0.7605657807
 40
1.0
 40
1.0
 40
1.0
 40
1.0
 10
300.3286405709
 20
265.4417540914
 30
0.0
 10
300.359341646
 20
265.3489011889
 30
0.0
 10
300.3872761033
 20
265.1520802342
 30
0.0
 10
300.3223168216
 20
264.8661242539
 30
0.0
 10
300.1589664956
 20
264.6307165836
 30
0.0
 10
299.9967567181
 20
264.5321999014
 30
0.0
 10
299.9113164149
 20
264.5030602874
 30
0.0
  0
SPLINE
  5
4E7
100
AcDbEntity
  8
0
100
AcDbSpline
 62
7
  6
CONTINUOUS
 70
0
 71
3
 72
11
 73
7
 74
0
 42
0.0000001
 43
0.0000001
 44
0.0000000001
 40
0.0
 40
0.0
 40
0.0
 40
0.0
 40
0.2493979035
 40
0.4992944877
 40
0.7495549154
 40
1.0
 40
1.0
 40
1.0
 40
1.0
 10
229.7866660739
 20
314.998355553
 30
0.0
 10
229.7866669262
 20
315.2401584121
 30
0.0
 10
229.8797376651
 20
315.7269340744
 30
0.0
 10
230.2273037942
 20
316.3735756704
 30
0.0
 10
230.7019909589
 20
316.9295946507
 30
0.0
 10
231.058437668
 20
317.2595092813
 30
0.0
 10
231.2377309144
 20
317.4232608788
 30
0.0
  0
SPLINE
  5
4E8
100
AcDbEntity
  8
0
100
AcDbSpline
 62
7
  6
CONTINUOUS
 70
0
 71
3
 72
11
 73
7
 74
0
 42
0.0000001
 43
0.0000001
 44
0.0000000001
 40
0.0
 40
0.0
 40
0.0
 40
0.0
 40
0.2504621599
 40
0.5007233965
 40
0.7506047145
 40
1.0
 40
1.0
 40
1.0
 40
1.0
 10
302.0942112903
 20
265.9430145012
 30
0.0
 10
301.9938964503
 20
265.7218683806
 30
0.0
 10
301.7902336803
 20
265.2809189834
 30
0.0
 10
301.4081225313
 20
264.6576390289
 30
0.0
 10
300.9005329804
 20
264.1272841442
 30
0.0
 10
300.4663594234
 20
263.8883542995
 30
0.0
 10
300.2363938588
 20
263.8136333912
 30
0.0
  0
SPLINE
  5
4E9
100
AcDbEntity
  8
0
100
AcDbSpline
 62
7
  6
CONTINUOUS
 70
0
 71
3
 72
11
 73
7
 74
0
 42
0.0000001
 43
0.0000001
 44
0.0000000001
 40
0.0
 40
0.0
 40
0.0
 40
0.0
 40
0.2603660119
 40
0.5124602726
 40
0.7562857813
 40
1.0
 40
1.0
 40
1.0
 40
1.0
 10
302.0942112897
 20
265.9430145005
 30
0.0
 10
301.9183319935
 20
265.8113461033
 30
0.0
 10
301.5718820969
 20
265.5527090731
 30
0.0
 10
301.0633130121
 20
265.1665449576
 30
0.0
 10
300.5657269998
 20
264.7920478152
 30
0.0
 10
300.2010539328
 20
264.5878731757
 30
0.0
 10
300.0047611347
 20
264.5265346867
 30
0.0
  0
SPLINE
  5
4EA
100
AcDbEntity
  8
0
100
AcDbSpline
 62
7
  6
CONTINUOUS
 70
0
 71
3
 72
11
 73
7
 74
0
 42
0.0000001
 43
0.0000001
 44
0.0000000001
 40
0.0
 40
0.0
 40
0.0
 40
0.0
 40
0.249397935
 40
0.4992945025
 40
0.7495549194
 40
1.0
 40
1.0
 40
1.0
 40
1.0
 10
300.2515148212
 20
263.7670926142
 30
0.0
 10
300.4814832989
 20
263.8418130044
 30
0.0
 10
300.9731949221
 20
263.9037194152
 30
0.0
 10
301.6955914677
 20
263.7729876135
 30
0.0
 10
302.3710833038
 20
263.4933525983
 30
0.0
 10
302.7949988628
 20
263.2563009059
 30
0.0
 10
303.0061405284
 20
263.1363848974
 30
0.0
  0
SPLINE
  5
4EB
100
AcDbEntity
  8
0
100
AcDbSpline
 62
7
  6
CONTINUOUS
 70
0
 71
3
 72
11
 73
7
 74
0
 42
0.0000001
 43
0.0000001
 44
0.0000000001
 40
0.0
 40
0.0
 40
0.0
 40
0.0
 40
0.2504621599
 40
0.5007233965
 40
0.7506047145
 40
1.0
 40
1.0
 40
1.0
 40
1.0
 10
275.9413733482
 20
179.8395965089
 30
0.0
 10
275.7000518989
 20
179.8666636816
 30
0.0
 10
275.2177488442
 20
179.9240976288
 30
0.0
 10
274.5068955432
 20
180.0949028288
 30
0.0
 10
273.8456442768
 20
180.4137605064
 30
0.0
 10
273.4842414834
 20
180.7528507145
 30
0.0
 10
273.3421144091
 20
180.9484709327
 30
0.0
  0
SPLINE
  5
4EC
100
AcDbEntity
  8
0
100
AcDbSpline
 62
7
  6
CONTINUOUS
 70
0
 71
3
 72
11
 73
7
 74
0
 42
0.0000001
 43
0.0000001
 44
0.0000000001
 40
0.0
 40
0.0
 40
0.0
 40
0.0
 40
0.2493979349
 40
0.4992945024
 40
0.7495549193
 40
1.0
 40
1.0
 40
1.0
 40
1.0
 10
273.3025241358
 20
180.9197081482
 30
0.0
 10
273.4446516188
 20
180.7240850007
 30
0.0
 10
273.655475355
 20
180.2755695905
 30
0.0
 10
273.7543748517
 20
179.5481312968
 30
0.0
 10
273.6971645268
 20
178.8192884303
 30
0.0
 10
273.6027122883
 20
178.342867732
 30
0.0
 10
273.553911607
 20
178.1050040201
 30
0.0
  0
SPLINE
  5
4ED
100
AcDbEntity
  8
0
100
AcDbSpline
 62
7
  6
CONTINUOUS
 70
0
 71
3
 72
11
 73
7
 74
0
 42
0.0000001
 43
0.0000001
 44
0.0000000001
 40
0.0
 40
0.0
 40
0.0
 40
0.0
 40
0.2504621601
 40
0.5007233955
 40
0.750604714
 40
1.0
 40
1.0
 40
1.0
 40
1.0
 10
185.9704852162
 20
178.1050040199
 30
0.0
 10
185.921657108
 20
178.3428789648
 30
0.0
 10
185.8272374616
 20
178.8193239266
 30
0.0
 10
185.7700181546
 20
179.5481675215
 30
0.0
 10
185.8689316644
 20
180.2755872253
 30
0.0
 10
186.0797460741
 20
180.7240863572
 30
0.0
 10
186.221872276
 20
180.9197072091
 30
0.0
  0
SPLINE
  5
4EE
100
AcDbEntity
  8
0
100
AcDbSpline
 62
7
  6
CONTINUOUS
 70
0
 71
3
 72
11
 73
7
 74
0
 42
0.0000001
 43
0.0000001
 44
0.0000000001
 40
0.0
 40
0.0
 40
0.0
 40
0.0
 40
0.2593880663
 40
0.5141205983
 40
0.7605927729
 40
1.0
 40
1.0
 40
1.0
 40
1.0
 10
231.5619414012
 20
312.256046074
 30
0.0
 10
231.4638879668
 20
312.2569263545
 30
0.0
 10
231.2673986952
 20
312.2232276611
 30
0.0
 10
231.014428042
 20
312.0732955877
 30
0.0
 10
230.8401507473
 20
311.8448483922
 30
0.0
 10
230.7963461708
 20
311.6596408658
 30
0.0
 10
230.7950313101
 20
311.5691464591
 30
0.0
  0
SPLINE
  5
4EF
100
AcDbEntity
  8
0
100
AcDbSpline
 62
7
  6
CONTINUOUS
 70
0
 71
3
 72
11
 73
7
 74
0
 42
0.0000001
 43
0.0000001
 44
0.0000000001
 40
0.0
 40
0.0
 40
0.0
 40
0.0
 40
0.249397935
 40
0.4992945025
 40
0.7495549194
 40
1.0
 40
1.0
 40
1.0
 40
1.0
 10
159.2880038489
 20
263.8136328734
 30
0.0
 10
159.0580358988
 20
263.8883548876
 30
0.0
 10
158.623845164
 20
264.1272923896
 30
0.0
 10
158.116256307
 20
264.6576706748
 30
0.0
 10
157.7341372701
 20
265.2809442936
 30
0.0
 10
157.5305178674
 20
265.7218944551
 30
0.0
 10
157.430185533
 20
265.943014501
 30
0.0
  0
SPLINE
  5
4F0
100
AcDbEntity
  8
0
100
AcDbSpline
 62
7
  6
CONTINUOUS
 70
0
 71
3
 72
11
 73
7
 74
0
 42
0.0000001
 43
0.0000001
 44
0.0000000001
 40
0.0
 40
0.0
 40
0.0
 40
0.0
 40
0.2504621599
 40
0.5007233965
 40
0.7506047145
 40
1.0
 40
1.0
 40
1.0
 40
1.0
 10
228.2866659087
 20
317.4232608789
 30
0.0
 10
228.4659893774
 20
317.2595178873
 30
0.0
 10
228.8224219179
 20
316.9295622253
 30
0.0
 10
229.2971175414
 20
316.3735488289
 30
0.0
 10
229.6446612129
 20
315.7269138065
 30
0.0
 10
229.7377299911
 20
315.2401568334
 30
0.0
 10
229.7377305303
 20
314.9983565542
 30
0.0
  0
SPLINE
  5
4F1
100
AcDbEntity
  8
0
100
AcDbSpline
 62
7
  6
CONTINUOUS
 70
0
 71
3
 72
11
 73
7
 74
0
 42
0.0000001
 43
0.0000001
 44
0.0000000001
 40
0.0
 40
0.0
 40
0.0
 40
0.0
 40
0.25939073
 40
0.5140988433
 40
0.7605657805
 40
1.0
 40
1.0
 40
1.0
 40
1.0
 10
231.3065952925
 20
315.589205356
 30
0.0
 10
231.2087997806
 20
315.5897106888
 30
0.0
 10
231.0129797073
 20
315.5554569166
 30
0.0
 10
230.7610929308
 20
315.405311711
 30
0.0
 10
230.5876849586
 20
315.1772113483
 30
0.0
 10
230.5441156039
 20
314.9924973533
 30
0.0
 10
230.5428046898
 20
314.9022341601
 30
0.0
  0
SPLINE
  5
4F2
100
AcDbEntity
  8
0
100
AcDbSpline
 62
7
  6
CONTINUOUS
 70
0
 71
3
 72
11
 73
7
 74
0
 42
0.0000001
 43
0.0000001
 44
0.0000000001
 40
0.0
 40
0.0
 40
0.0
 40
0.0
 40
0.249403459
 40
0.4993092458
 40
0.7495673985
 40
1.0
 40
1.0
 40
1.0
 40
1.0
 10
186.127521849
 20
180.9553887669
 30
0.0
 10
185.9879735547
 20
180.7633191286
 30
0.0
 10
185.633764088
 20
180.4300922068
 30
0.0
 10
184.9871604434
 20
180.1125068902
 30
0.0
 10
184.2918021552
 20
179.935336856
 30
0.0
 10
183.8194018427
 20
179.8705135931
 30
0.0
 10
183.5830234752
 20
179.839596509
 30
0.0
  0
SPLINE
  5
4F3
100
AcDbEntity
  8
0
100
AcDbSpline
 62
7
  6
CONTINUOUS
 70
0
 71
3
 72
11
 73
7
 74
0
 42
0.0000001
 43
0.0000001
 44
0.0000000001
 40
0.0
 40
0.0
 40
0.0
 40
0.0
 40
0.2504473844
 40
0.5007055564
 40
0.7505961732
 40
1.0
 40
1.0
 40
1.0
 40
1.0
 10
156.5182562946
 20
263.1363848974
 30
0.0
 10
156.7276618797
 20
263.250343671
 30
0.0
 10
157.1479760782
 20
263.4755407587
 30
0.0
 10
157.8146649838
 20
263.7409381802
 30
0.0
 10
158.5244387444
 20
263.8640549457
 30
0.0
 10
159.0068517259
 20
263.8026726957
 30
0.0
 10
159.2326444434
 20
263.7293086701
 30
0.0
  0
SPLINE
  5
4F4
100
AcDbEntity
  8
0
100
AcDbSpline
 62
7
  6
CONTINUOUS
 70
0
 71
3
 72
11
 73
7
 74
0
 42
0.0000001
 43
0.0000001
 44
0.0000000001
 40
0.0
 40
0.0
 40
0.0
 40
0.0
 40
0.2437153657
 40
0.4875406063
 40
0.7396319942
 40
1.0
 40
1.0
 40
1.0
 40
1.0
 10
230.5362537657
 20
314.9983577146
 30
0.0
 10
230.5339330527
 20
315.2039990337
 30
0.0
 10
230.6154220171
 20
315.6139185676
 30
0.0
 10
230.8178294109
 20
316.2028751205
 30
0.0
 10
231.0279012756
 20
316.8058959057
 30
0.0
 10
231.166927069
 20
317.2152759634
 30
0.0
 10
231.237730914
 20
317.4232608781
 30
0.0
  0
SPLINE
  5
4F5
100
AcDbEntity
  8
0
100
AcDbSpline
 62
7
  6
CONTINUOUS
 70
0
 71
3
 72
11
 73
7
 74
0
 42
0.0000001
 43
0.0000001
 44
0.0000000001
 40
0.0
 40
0.0
 40
0.0
 40
0.0
 40
0.2593880666
 40
0.5141205987
 40
0.7605927732
 40
1.0
 40
1.0
 40
1.0
 40
1.0
 10
273.1664524839
 20
184.2105272424
 30
0.0
 10
273.087643005
 20
184.1521807179
 30
0.0
 10
272.9088722499
 20
184.0639500374
 30
0.0
 10
272.6160868306
 20
184.0365552137
 30
0.0
 10
272.3408156452
 20
184.1189352536
 30
0.0
 10
272.1965147459
 20
184.2430236059
 30
0.0
 10
272.1422597236
 20
184.3154622629
 30
0.0
  0
SPLINE
  5
4F6
100
AcDbEntity
  8
0
100
AcDbSpline
 62
7
  6
CONTINUOUS
 70
0
 71
3
 72
11
 73
7
 74
0
 42
0.0000001
 43
0.0000001
 44
0.0000000001
 40
0.0
 40
0.0
 40
0.0
 40
0.0
 40
0.2593907302
 40
0.5140988436
 40
0.7605657807
 40
1.0
 40
1.0
 40
1.0
 40
1.0
 10
274.9190550121
 20
181.3638560614
 30
0.0
 10
274.8402338081
 20
181.3059644789
 30
0.0
 10
274.6616781786
 20
181.2185762115
 30
0.0
 10
274.3696443582
 20
181.1919909021
 30
0.0
 10
274.0952803326
 20
181.2746013233
 30
0.0
 10
273.9514598221
 20
181.3984286602
 30
0.0
 10
273.8973438966
 20
181.4706825814
 30
0.0
  0
SPLINE
  5
4F7
100
AcDbEntity
  8
0
100
AcDbSpline
 62
7
  6
CONTINUOUS
 70
0
 71
3
 72
11
 73
7
 74
0
 42
0.0000001
 43
0.0000001
 44
0.0000000001
 40
0.0
 40
0.0
 40
0.0
 40
0.0
 40
0.2603660119
 40
0.5124602726
 40
0.7562857813
 40
1.0
 40
1.0
 40
1.0
 40
1.0
 10
275.9413733474
 20
179.8395965093
 30
0.0
 10
275.7617995688
 20
179.9661798876
 30
0.0
 10
275.4087622303
 20
180.2157500816
 30
0.0
 10
274.884341842
 20
180.5800967492
 30
0.0
 10
274.3744113607
 20
180.9376031872
 30
0.0
 10
274.0675395641
 20
181.2213344501
 30
0.0
 10
273.948545384
 20
181.3890653593
 30
0.0
  0
SPLINE
  5
4F8
100
AcDbEntity
  8
0
100
AcDbSpline
 62
7
  6
CONTINUOUS
 70
0
 71
3
 72
11
 73
7
 74
0
 42
0.0000001
 43
0.0000001
 44
0.0000000001
 40
0.0
 40
0.0
 40
0.0
 40
0.0
 40
0.2593880663
 40
0.5141205983
 40
0.7605927729
 40
1.0
 40
1.0
 40
1.0
 40
1.0
 10
298.1920137674
 20
261.2312852131
 30
0.0
 10
298.1625507863
 20
261.3248115924
 30
0.0
 10
298.0697829002
 20
261.5012705256
 30
0.0
 10
297.8490167938
 20
261.6955283551
 30
0.0
 10
297.5778959542
 20
261.7906818462
 30
0.0
 10
297.3882167708
 20
261.7751102009
 30
0.0
 10
297.3017451612
 20
261.7483963982
 30
0.0
  0
SPLINE
  5
4F9
100
AcDbEntity
  8
0
100
AcDbSpline
 62
7
  6
CONTINUOUS
 70
0
 71
3
 72
11
 73
7
 74
0
 42
0.0000001
 43
0.0000001
 44
0.0000000001
 40
0.0
 40
0.0
 40
0.0
 40
0.0
 40
0.25939073
 40
0.5140988433
 40
0.7605657805
 40
1.0
 40
1.0
 40
1.0
 40
1.0
 10
301.2831303354
 20
262.5041366567
 30
0.0
 10
301.2533904602
 20
262.597301872
 30
0.0
 10
301.1603014564
 20
262.7729528311
 30
0.0
 10
300.9396675857
 20
262.966113971
 30
0.0
 10
300.6691452391
 20
263.0605478644
 30
0.0
 10
300.4800081194
 20
263.0449050196
 30
0.0
 10
300.3937576266
 20
263.0182589124
 30
0.0
  0
SPLINE
  5
4FA
100
AcDbEntity
  8
0
100
AcDbSpline
 62
7
  6
CONTINUOUS
 70
0
 71
3
 72
11
 73
7
 74
0
 42
0.0000001
 43
0.0000001
 44
0.0000000001
 40
0.0
 40
0.0
 40
0.0
 40
0.0
 40
0.2437153807
 40
0.4875406205
 40
0.739632006
 40
1.0
 40
1.0
 40
1.0
 40
1.0
 10
300.4831522118
 20
263.054193023
 30
0.0
 10
300.6780116017
 20
263.1199468156
 30
0.0
 10
301.0930497312
 20
263.1691183231
 30
0.0
 10
301.7157280339
 20
263.158614994
 30
0.0
 10
302.3541506453
 20
263.1451684967
 30
0.0
 10
302.7864555367
 20
263.1394524196
 30
0.0
 10
303.0061405277
 20
263.1363848976
 30
0.0
  0
SPLINE
  5
4FB
100
AcDbEntity
  8
0
100
AcDbSpline
 62
7
  6
CONTINUOUS
 70
0
 71
3
 72
11
 73
7
 74
0
 42
0.0000001
 43
0.0000001
 44
0.0000000001
 40
0.0
 40
0.0
 40
0.0
 40
0.0
 40
0.2593880666
 40
0.5141205987
 40
0.7605927732
 40
1.0
 40
1.0
 40
1.0
 40
1.0
 10
189.2699896674
 20
182.094802468
 30
0.0
 10
189.1901453567
 20
182.1517246689
 30
0.0
 10
189.0509897917
 20
182.2944809808
 30
0.0
 10
188.9344600959
 20
182.5644709956
 30
0.0
 10
188.9277446952
 20
182.8517262825
 30
0.0
 10
189.0011683011
 20
183.0273100027
 30
0.0
 10
189.053295834
 20
183.1012943713
 30
0.0
  0
SPLINE
  5
4FC
100
AcDbEntity
  8
0
100
AcDbSpline
 62
7
  6
CONTINUOUS
 70
0
 71
3
 72
11
 73
7
 74
0
 42
0.0000001
 43
0.0000001
 44
0.0000000001
 40
0.0
 40
0.0
 40
0.0
 40
0.0
 40
0.2593907302
 40
0.5140988436
 40
0.7605657807
 40
1.0
 40
1.0
 40
1.0
 40
1.0
 10
187.1042284566
 20
179.5483086408
 30
0.0
 10
187.0248131982
 20
179.6053825777
 30
0.0
 10
186.8865252932
 20
179.7481946129
 30
0.0
 10
186.7709977479
 20
180.0177199684
 30
0.0
 10
186.7647817808
 20
180.3041836868
 30
0.0
 10
186.8381055946
 20
180.479229872
 30
0.0
 10
186.8901004165
 20
180.5530248651
 30
0.0
  0
SPLINE
  5
4FD
100
AcDbEntity
  8
0
100
AcDbSpline
 62
7
  6
CONTINUOUS
 70
0
 71
3
 72
11
 73
7
 74
0
 42
0.0000001
 43
0.0000001
 44
0.0000000001
 40
0.0
 40
0.0
 40
0.0
 40
0.0
 40
0.2603660104
 40
0.5124602691
 40
0.756285781
 40
1.0
 40
1.0
 40
1.0
 40
1.0
 10
185.9704852163
 20
178.1050040209
 30
0.0
 10
186.0353894377
 20
178.3149028892
 30
0.0
 10
186.1636393588
 20
178.7277861486
 30
0.0
 10
186.3481029765
 20
179.3391276006
 30
0.0
 10
186.5305334916
 20
179.9345762224
 30
0.0
 10
186.7055496039
 20
180.3141063532
 30
0.0
 10
186.8282999549
 20
180.4791082444
 30
0.0
  0
SPLINE
  5
4FE
100
AcDbEntity
  8
0
100
AcDbSpline
 62
7
  6
CONTINUOUS
 70
0
 71
3
 72
11
 73
7
 74
0
 42
0.0000001
 43
0.0000001
 44
0.0000000001
 40
0.0
 40
0.0
 40
0.0
 40
0.0
 40
0.2593880663
 40
0.5141205983
 40
0.7605927729
 40
1.0
 40
1.0
 40
1.0
 40
1.0
 10
270.2544071558
 20
182.0948024681
 30
0.0
 10
270.3342514664
 20
182.1517246688
 30
0.0
 10
270.4734070314
 20
182.2944809805
 30
0.0
 10
270.5899367273
 20
182.5644709952
 30
0.0
 10
270.5966521281
 20
182.8517262823
 30
0.0
 10
270.5232285222
 20
183.0273100026
 30
0.0
 10
270.4711009892
 20
183.1012943713
 30
0.0
  0
SPLINE
  5
4FF
100
AcDbEntity
  8
0
100
AcDbSpline
 62
7
  6
CONTINUOUS
 70
0
 71
3
 72
11
 73
7
 74
0
 42
0.0000001
 43
0.0000001
 44
0.0000000001
 40
0.0
 40
0.0
 40
0.0
 40
0.0
 40
0.25939073
 40
0.5140988433
 40
0.7605657805
 40
1.0
 40
1.0
 40
1.0
 40
1.0
 10
272.4201683666
 20
179.5483086408
 30
0.0
 10
272.4995836249
 20
179.6053825777
 30
0.0
 10
272.6378715299
 20
179.7481946127
 30
0.0
 10
272.7533990752
 20
180.0177199681
 30
0.0
 10
272.7596150424
 20
180.3041836866
 30
0.0
 10
272.6862912287
 20
180.4792298719
 30
0.0
 10
272.6342964067
 20
180.5530248651
 30
0.0
  0
SPLINE
  5
500
100
AcDbEntity
  8
0
100
AcDbSpline
 62
7
  6
CONTINUOUS
 70
0
 71
3
 72
11
 73
7
 74
0
 42
0.0000001
 43
0.0000001
 44
0.0000000001
 40
0.0
 40
0.0
 40
0.0
 40
0.0
 40
0.2437153812
 40
0.4875406204
 40
0.7396320063
 40
1.0
 40
1.0
 40
1.0
 40
1.0
 10
272.6960962267
 20
180.4791098053
 30
0.0
 10
272.8188466651
 20
180.3141065543
 30
0.0
 10
272.9938653859
 20
179.9345766686
 30
0.0
 10
273.1762942644
 20
179.3391286947
 30
0.0
 10
273.3607894913
 20
178.7277975689
 30
0.0
 10
273.48894223
 20
178.3148846644
 30
0.0
 10
273.5539116069
 20
178.1050040209
 30
0.0
  0
SPLINE
  5
501
100
AcDbEntity
  8
0
100
AcDbSpline
 62
7
  6
CONTINUOUS
 70
0
 71
3
 72
11
 73
7
 74
0
 42
0.0000001
 43
0.0000001
 44
0.0000000001
 40
0.0
 40
0.0
 40
0.0
 40
0.0
 40
0.2593880666
 40
0.5141205987
 40
0.7605927732
 40
1.0
 40
1.0
 40
1.0
 40
1.0
 10
161.3323830558
 20
261.2312852131
 30
0.0
 10
161.361846037
 20
261.3248115925
 30
0.0
 10
161.4546139231
 20
261.5012705258
 30
0.0
 10
161.6753800297
 20
261.6955283553
 30
0.0
 10
161.9465008693
 20
261.7906818462
 30
0.0
 10
162.1361800525
 20
261.7751102008
 30
0.0
 10
162.222651662
 20
261.7483963982
 30
0.0
  0
SPLINE
  5
502
100
AcDbEntity
  8
0
100
AcDbSpline
 62
7
  6
CONTINUOUS
 70
0
 71
3
 72
11
 73
7
 74
0
 42
0.0000001
 43
0.0000001
 44
0.0000000001
 40
0.0
 40
0.0
 40
0.0
 40
0.0
 40
0.2593907302
 40
0.5140988436
 40
0.7605657807
 40
1.0
 40
1.0
 40
1.0
 40
1.0
 10
158.2412664878
 20
262.5041366567
 30
0.0
 10
158.271006363
 20
262.5973018721
 30
0.0
 10
158.3640953669
 20
262.7729528312
 30
0.0
 10
158.5847292377
 20
262.9661139712
 30
0.0
 10
158.8552515843
 20
263.0605478645
 30
0.0
 10
159.0443887039
 20
263.0449050196
 30
0.0
 10
159.1306391966
 20
263.0182589124
 30
0.0
  0
SPLINE
  5
503
100
AcDbEntity
  8
0
100
AcDbSpline
 62
7
  6
CONTINUOUS
 70
0
 71
3
 72
11
 73
7
 74
0
 42
0.0000001
 43
0.0000001
 44
0.0000000001
 40
0.0
 40
0.0
 40
0.0
 40
0.0
 40
0.2592578152
 40
0.5112011142
 40
0.7558000011
 40
1.0
 40
1.0
 40
1.0
 40
1.0
 10
156.5182562955
 20
263.1363848976
 30
0.0
 10
156.7348520959
 20
263.1419783862
 30
0.0
 10
157.1618747949
 20
263.1523356468
 30
0.0
 10
157.7935836972
 20
263.1705302228
 30
0.0
 10
158.4114329406
 20
263.1803211899
 30
0.0
 10
158.8230458799
 20
263.1290935449
 30
0.0
 10
159.0164488576
 20
263.0639360522
 30
0.0
  0
SPLINE
  5
504
100
AcDbEntity
  8
0
100
AcDbSpline
 62
7
  6
CONTINUOUS
 70
0
 71
3
 72
11
 73
7
 74
0
 42
0.0000001
 43
0.0000001
 44
0.0000000001
 40
0.0
 40
0.0
 40
0.0
 40
0.0
 40
0.2593880663
 40
0.5141205983
 40
0.7605927729
 40
1.0
 40
1.0
 40
1.0
 40
1.0
 10
186.3579443393
 20
184.2105272424
 30
0.0
 10
186.4367538181
 20
184.1521807179
 30
0.0
 10
186.6155245731
 20
184.0639500374
 30
0.0
 10
186.9083099923
 20
184.0365552136
 30
0.0
 10
187.1835811778
 20
184.1189352534
 30
0.0
 10
187.3278820772
 20
184.2430236058
 30
0.0
 10
187.3821370996
 20
184.3154622629
 30
0.0
  0
SPLINE
  5
505
100
AcDbEntity
  8
0
100
AcDbSpline
 62
7
  6
CONTINUOUS
 70
0
 71
3
 72
11
 73
7
 74
0
 42
0.0000001
 43
0.0000001
 44
0.0000000001
 40
0.0
 40
0.0
 40
0.0
 40
0.0
 40
0.25939073
 40
0.5140988433
 40
0.7605657805
 40
1.0
 40
1.0
 40
1.0
 40
1.0
 10
184.6053418111
 20
181.3638560614
 30
0.0
 10
184.6841630151
 20
181.305964479
 30
0.0
 10
184.8627186444
 20
181.2185762116
 30
0.0
 10
185.1547524648
 20
181.1919909021
 30
0.0
 10
185.4291164904
 20
181.2746013232
 30
0.0
 10
185.5729370011
 20
181.3984286601
 30
0.0
 10
185.6270529266
 20
181.4706825814
 30
0.0
  0
SPLINE
  5
506
100
AcDbEntity
  8
0
100
AcDbSpline
 62
7
  6
CONTINUOUS
 70
0
 71
3
 72
11
 73
7
 74
0
 42
0.0000001
 43
0.0000001
 44
0.0000000001
 40
0.0
 40
0.0
 40
0.0
 40
0.0
 40
0.2441990044
 40
0.488797689
 40
0.7407384137
 40
1.0
 40
1.0
 40
1.0
 40
1.0
 10
185.5615210709
 20
181.3666118343
 30
0.0
 10
185.4433528241
 20
181.2002199991
 30
0.0
 10
185.1404644411
 20
180.9168346626
 30
0.0
 10
184.6348633044
 20
180.5615907592
 30
0.0
 10
184.1131153586
 20
180.2049842083
 30
0.0
 10
183.7615210837
 20
179.9624179934
 30
0.0
 10
183.5830234759
 20
179.8395965093
 30
0.0
  0
SPLINE
  5
507
100
AcDbEntity
  8
0
100
AcDbSpline
 62
7
  6
CONTINUOUS
 70
0
 71
3
 72
11
 73
7
 74
0
 42
0.0000001
 43
0.0000001
 44
0.0000000001
 40
0.0
 40
0.0
 40
0.0
 40
0.0
 40
0.2593880666
 40
0.5141205987
 40
0.7605927732
 40
1.0
 40
1.0
 40
1.0
 40
1.0
 10
227.9624554221
 20
312.256046074
 30
0.0
 10
228.0605088565
 20
312.2569263545
 30
0.0
 10
228.2569981283
 20
312.223227661
 30
0.0
 10
228.5099687815
 20
312.0732955874
 30
0.0
 10
228.684246076
 20
311.8448483919
 30
0.0
 10
228.7280506524
 20
311.6596408657
 30
0.0
 10
228.7293655132
 20
311.5691464591
 30
0.0
  0
SPLINE
  5
508
100
AcDbEntity
  8
0
100
AcDbSpline
 62
7
  6
CONTINUOUS
 70
0
 71
3
 72
11
 73
7
 74
0
 42
0.0000001
 43
0.0000001
 44
0.0000000001
 40
0.0
 40
0.0
 40
0.0
 40
0.0
 40
0.2593907302
 40
0.5140988436
 40
0.7605657807
 40
1.0
 40
1.0
 40
1.0
 40
1.0
 10
228.2178015307
 20
315.589205356
 30
0.0
 10
228.3155970427
 20
315.5897106888
 30
0.0
 10
228.5114171161
 20
315.5554569165
 30
0.0
 10
228.7633038926
 20
315.4053117108
 30
0.0
 10
228.9367118647
 20
315.1772113481
 30
0.0
 10
228.9802812193
 20
314.9924973532
 30
0.0
 10
228.9815921334
 20
314.9022341601
 30
0.0
  0
SPLINE
  5
509
100
AcDbEntity
  8
0
100
AcDbSpline
 62
7
  6
CONTINUOUS
 70
0
 71
3
 72
11
 73
7
 74
0
 42
0.0000001
 43
0.0000001
 44
0.0000000001
 40
0.0
 40
0.0
 40
0.0
 40
0.0
 40
0.2603660119
 40
0.5124602726
 40
0.7562857813
 40
1.0
 40
1.0
 40
1.0
 40
1.0
 10
228.2866659092
 20
317.4232608781
 30
0.0
 10
228.3575403048
 20
317.2153019551
 30
0.0
 10
228.4964598319
 20
316.8058852858
 30
0.0
 10
228.7065672403
 20
316.2028760696
 30
0.0
 10
228.9089726538
 20
315.6139176689
 30
0.0
 10
228.9904641003
 20
315.2039995389
 30
0.0
 10
228.9881426595
 20
314.9983593587
 30
0.0
  0
SPLINE
  5
50A
100
AcDbEntity
  8
0
100
AcDbSpline
 62
7
  6
CONTINUOUS
 70
0
 71
3
 72
11
 73
7
 74
0
 42
0.0000001
 43
0.0000001
 44
0.0000000001
 40
0.0
 40
0.0
 40
0.0
 40
0.0
 40
0.2593880663
 40
0.5141205983
 40
0.7605927729
 40
1.0
 40
1.0
 40
1.0
 40
1.0
 10
162.4446853944
 20
264.6545998088
 30
0.0
 10
162.4135480203
 20
264.5616174728
 30
0.0
 10
162.3848788581
 20
264.3643316017
 30
0.0
 10
162.4493005027
 20
264.0774106548
 30
0.0
 10
162.6127120507
 20
263.8410690323
 30
0.0
 10
162.775318517
 20
263.7421761313
 30
0.0
 10
162.8609774979
 20
263.7129613148
 30
0.0
  0
SPLINE
  5
50B
100
AcDbEntity
  8
0
100
AcDbSpline
 62
7
  6
CONTINUOUS
 70
0
 71
3
 72
11
 73
7
 74
0
 42
0.0000001
 43
0.0000001
 44
0.0000000001
 40
0.0
 40
0.0
 40
0.0
 40
0.0
 40
0.25939073
 40
0.5140988433
 40
0.7605657805
 40
1.0
 40
1.0
 40
1.0
 40
1.0
 10
159.1957562524
 20
265.4417540914
 30
0.0
 10
159.1650551772
 20
265.348901189
 30
0.0
 10
159.13712072
 20
265.1520802344
 30
0.0
 10
159.2020800015
 20
264.8661242542
 30
0.0
 10
159.3654303275
 20
264.6307165838
 30
0.0
 10
159.527640105
 20
264.5321999014
 30
0.0
 10
159.6130804083
 20
264.5030602874
 30
0.0
  0
SPLINE
  5
50C
100
AcDbEntity
  8
0
100
AcDbSpline
 62
7
  6
CONTINUOUS
 70
0
 71
3
 72
11
 73
7
 74
0
 42
0.0000001
 43
0.0000001
 44
0.0000000001
 40
0.0
 40
0.0
 40
0.0
 40
0.0
 40
0.2437153807
 40
0.4875406205
 40
0.739632006
 40
1.0
 40
1.0
 40
1.0
 40
1.0
 10
159.5196371294
 20
264.5265338001
 30
0.0
 10
159.3233434618
 20
264.5878733401
 30
0.0
 10
158.9586682748
 20
264.7920460465
 30
0.0
 10
158.4610846479
 20
265.1665445415
 30
0.0
 10
157.9524935585
 20
265.552678382
 30
0.0
 10
157.6061113804
 20
265.8114052252
 30
0.0
 10
157.4301855335
 20
265.9430145005
 30
0.0
  0
SPLINE
  5
50D
100
AcDbEntity
  8
0
100
AcDbSpline
 62
7
  6
CONTINUOUS
 70
0
 71
3
 72
10
 73
6
 74
0
 42
0.0000001
 43
0.0000001
 44
0.0000000001
 40
0.0
 40
0.0
 40
0.0
 40
0.0
 40
0.5971403002
 40
0.833141598
 40
1.0
 40
1.0
 40
1.0
 40
1.0
 10
230.8198774181
 20
310.4229383593
 30
0.0
 10
230.8198773623
 20
310.6511708227
 30
0.0
 10
230.817445481
 20
310.9696416235
 30
0.0
 10
230.8068660695
 20
311.3516942339
 30
0.0
 10
230.7998424079
 20
311.5055533883
 30
0.0
 10
230.7950313101
 20
311.5691464591
 30
0.0
  0
LINE
  5
50E
100
AcDbEntity
  8
0
100
AcDbLine
 62
7
  6
CONTINUOUS
 10
230.7950313101
 20
311.5691464591
 11
230.5428046898
 21
314.9022341601
  0
LINE
  5
50F
100
AcDbEntity
  8
0
100
AcDbLine
 62
7
  6
CONTINUOUS
 10
299.9113164149
 20
264.5030602874
 11
296.6634193253
 21
263.7129613148
  0
SPLINE
  5
510
100
AcDbEntity
  8
0
100
AcDbSpline
 62
7
  6
CONTINUOUS
 70
0
 71
3
 72
10
 73
6
 74
0
 42
0.0000001
 43
0.0000001
 44
0.0000000001
 40
0.0
 40
0.0
 40
0.0
 40
0.0
 40
0.1668499687
 40
0.4028485875
 40
1.0
 40
1.0
 40
1.0
 40
1.0
 10
296.6634193253
 20
263.7129613148
 30
0.0
 10
296.6014551377
 20
263.6978863803
 30
0.0
 10
296.4529600116
 20
263.6570224656
 30
0.0
 10
296.0863371114
 20
263.5490235223
 30
0.0
 10
295.7826988047
 20
263.4529225453
 30
0.0
 10
295.5656327733
 20
263.3823935859
 30
0.0
  0
SPLINE
  5
511
100
AcDbEntity
  8
0
100
AcDbSpline
 62
7
  6
CONTINUOUS
 70
0
 71
3
 72
10
 73
6
 74
0
 42
0.0000001
 43
0.0000001
 44
0.0000000001
 40
0.0
 40
0.0
 40
0.0
 40
0.0
 40
0.5971403002
 40
0.833141598
 40
1.0
 40
1.0
 40
1.0
 40
1.0
 10
296.2193143485
 20
261.3705685633
 30
0.0
 10
296.4363763029
 20
261.4410963263
 30
0.0
 10
296.7385085405
 20
261.5418220725
 30
0.0
 10
297.0985929473
 20
261.6699444401
 30
0.0
 10
297.2427512679
 20
261.7241694327
 30
0.0
 10
297.3017451612
 20
261.7483963982
 30
0.0
  0
LINE
  5
512
100
AcDbEntity
  8
0
100
AcDbLine
 62
7
  6
CONTINUOUS
 10
297.3017451612
 20
261.7483963982
 11
300.3937576266
 21
263.0182589124
  0
SPLINE
  5
513
100
AcDbEntity
  8
0
100
AcDbSpline
 62
7
  6
CONTINUOUS
 70
0
 71
3
 72
15
 73
11
 74
0
 42
0.0000001
 43
0.0000001
 44
0.0000000001
 40
0.0
 40
0.0
 40
0.0
 40
0.0
 40
0.1226182506
 40
0.2461124925
 40
0.3694128659
 40
0.4943686488
 40
0.6202825129
 40
0.7468848011
 40
0.8738735049
 40
1.0
 40
1.0
 40
1.0
 40
1.0
 10
228.7911984116
 20
116.1644370642
 30
0.0
 10
228.8819552746
 20
116.0722239671
 30
0.0
 10
229.0965074402
 20
115.9173723372
 30
0.0
 10
229.484604733
 20
115.8332782677
 30
0.0
 10
229.8773954082
 20
115.9082460871
 30
0.0
 10
230.2090994105
 20
116.1304547561
 30
0.0
 10
230.4343785128
 20
116.466485692
 30
0.0
 10
230.5170172124
 20
116.8644831508
 30
0.0
 10
230.4448738578
 20
117.2630965312
 30
0.0
 10
230.3025089823
 20
117.493720618
 30
0.0
 10
230.2101984116
 20
117.5884370642
 30
0.0
  0
SPLINE
  5
514
100
AcDbEntity
  8
0
100
AcDbSpline
 62
7
  6
CONTINUOUS
 70
0
 71
3
 72
16
 73
12
 74
0
 42
0.0000001
 43
0.0000001
 44
0.0000000001
 40
0.0
 40
0.0
 40
0.0
 40
0.0
 40
0.124834323
 40
0.2480895363
 40
0.3715385471
 40
0.4954954061
 40
0.6208156495
 40
0.7471483602
 40
0.8730953222
 40
0.9985399184
 40
1.0
 40
1.0
 40
1.0
 40
1.0
 10
230.2101984116
 20
117.5884370642
 30
0.0
 10
230.1188335672
 20
117.6821831358
 30
0.0
 10
229.904628554
 20
117.8377833329
 30
0.0
 10
229.5132825345
 20
117.9229075354
 30
0.0
 10
229.1225535534
 20
117.8488504113
 30
0.0
 10
228.7882561869
 20
117.6251655304
 30
0.0
 10
228.5641653791
 20
117.2894936625
 30
0.0
 10
228.4821685948
 20
116.8927153216
 30
0.0
 10
228.5528017314
 20
116.4919303348
 30
0.0
 10
228.6984165448
 20
116.2631272897
 30
0.0
 10
228.7901177207
 20
116.1655350952
 30
0.0
 10
228.7911984116
 20
116.1644370642
 30
0.0
  0
SPLINE
  5
515
100
AcDbEntity
  8
0
100
AcDbSpline
 62
7
  6
CONTINUOUS
 70
0
 71
3
 72
15
 73
11
 74
0
 42
0.0000001
 43
0.0000001
 44
0.0000000001
 40
0.0
 40
0.0
 40
0.0
 40
0.0
 40
0.1214031817
 40
0.2465772123
 40
0.3712693246
 40
0.4960797406
 40
0.6213712636
 40
0.7474201458
 40
0.8738876116
 40
1.0
 40
1.0
 40
1.0
 40
1.0
 10
227.9941984116
 20
117.5244370642
 30
0.0
 10
228.0749651696
 20
117.7149704507
 30
0.0
 10
228.3127949699
 20
118.0703694474
 30
0.0
 10
228.8465399609
 20
118.4303831197
 30
0.0
 10
229.4843026767
 20
118.5596951842
 30
0.0
 10
230.1219706724
 20
118.4302434383
 30
0.0
 10
230.6610168435
 20
118.0651404922
 30
0.0
 10
231.0207456594
 20
117.5197491212
 30
0.0
 10
231.1470081564
 20
116.8779198537
 30
0.0
 10
231.0629990995
 20
116.4495214566
 30
0.0
 10
230.9811984116
 20
116.2504370642
 30
0.0
  0
SPLINE
  5
516
100
AcDbEntity
  8
0
100
AcDbSpline
 62
7
  6
CONTINUOUS
 70
0
 71
3
 72
16
 73
12
 74
0
 42
0.0000001
 43
0.0000001
 44
0.0000000001
 40
0.0
 40
0.0
 40
0.0
 40
0.0
 40
0.1247702247
 40
0.2486299424
 40
0.3723364896
 40
0.4959257793
 40
0.6199922477
 40
0.7450603439
 40
0.8703009278
 40
0.9958941345
 40
1.0
 40
1.0
 40
1.0
 40
1.0
 10
230.9811984116
 20
116.2504370642
 30
0.0
 10
230.9002682957
 20
116.0534714473
 30
0.0
 10
230.6610131195
 20
115.6899735376
 30
0.0
 10
230.1204446088
 20
115.3246447102
 30
0.0
 10
229.4838547998
 20
115.1959225563
 30
0.0
 10
228.8458248729
 20
115.3250897073
 30
0.0
 10
228.3060276599
 20
115.691026049
 30
0.0
 10
227.9465405923
 20
116.2349801419
 30
0.0
 10
227.8213735045
 20
116.8788236021
 30
0.0
 10
227.9064449385
 20
117.3138988068
 30
0.0
 10
227.9914668732
 20
117.5179932095
 30
0.0
 10
227.9941984116
 20
117.5244370642
 30
0.0
  0
SPLINE
  5
517
100
AcDbEntity
  8
0
100
AcDbSpline
 62
7
  6
CONTINUOUS
 70
0
 71
3
 72
8
 73
4
 74
0
 42
0.0000001
 43
0.0000001
 44
0.0000000001
 40
0.0
 40
0.0
 40
0.0
 40
0.0
 40
1.0
 40
1.0
 40
1.0
 40
1.0
 10
219.4821984116
 20
117.4664370642
 30
0.0
 10
219.4821984116
 20
117.5128682705
 30
0.0
 10
219.4764252689
 20
117.558809316
 30
0.0
 10
219.4661984116
 20
117.6034370642
 30
0.0
  0
SPLINE
  5
518
100
AcDbEntity
  8
0
100
AcDbSpline
 62
7
  6
CONTINUOUS
 70
0
 71
3
 72
17
 73
13
 74
0
 42
0.0000001
 43
0.0000001
 44
0.0000000001
 40
0.0
 40
0.0
 40
0.0
 40
0.0
 40
0.1156566466
 40
0.2313132932
 40
0.3469699398
 40
0.404798263
 40
0.4626265863
 40
0.529798263
 40
0.5969699398
 40
0.7313132932
 40
0.8656566466
 40
1.0
 40
1.0
 40
1.0
 40
1.0
 10
219.2301984116
 20
118.4534370642
 30
0.0
 10
219.3385990519
 20
118.4534370642
 30
0.0
 10
219.5477926502
 20
118.4139389812
 30
0.0
 10
219.8174183978
 20
118.2588428739
 30
0.0
 10
219.9876088542
 20
118.062855799
 30
0.0
 10
220.0802377956
 20
117.8757696393
 30
0.0
 10
220.1281514099
 20
117.712095614
 30
0.0
 10
220.1445345209
 20
117.5345173107
 30
0.0
 10
220.1186953648
 20
117.296504699
 30
0.0
 10
220.0028480812
 20
117.0230447431
 30
0.0
 10
219.7528388149
 20
116.7695737324
 30
0.0
 10
219.5274787573
 20
116.6729271793
 30
0.0
 10
219.4039406909
 20
116.6484370642
 30
0.0
  0
SPLINE
  5
519
100
AcDbEntity
  8
0
100
AcDbSpline
 62
7
  6
CONTINUOUS
 70
0
 71
3
 72
8
 73
4
 74
0
 42
0.0000001
 43
0.0000001
 44
0.0000000001
 40
0.0
 40
0.0
 40
0.0
 40
0.0
 40
1.0
 40
1.0
 40
1.0
 40
1.0
 10
247.2661984116
 20
119.1534370642
 30
0.0
 10
247.2661984116
 20
119.5106473372
 30
0.0
 10
247.1167734205
 20
119.8826618711
 30
0.0
 10
246.8561984116
 20
120.1434370642
 30
0.0
  0
SPLINE
  5
51A
100
AcDbEntity
  8
0
100
AcDbSpline
 62
7
  6
CONTINUOUS
 70
0
 71
3
 72
8
 73
4
 74
0
 42
0.0000001
 43
0.0000001
 44
0.0000000001
 40
0.0
 40
0.0
 40
0.0
 40
0.0
 40
1.0
 40
1.0
 40
1.0
 40
1.0
 10
246.8561984116
 20
120.1434370642
 30
0.0
 10
246.5958231994
 20
120.404012307
 30
0.0
 10
246.2240082872
 20
120.5534370642
 30
0.0
 10
245.8671984116
 20
120.5534370642
 30
0.0
  0
SPLINE
  5
51B
100
AcDbEntity
  8
0
100
AcDbSpline
 62
7
  6
CONTINUOUS
 70
0
 71
3
 72
27
 73
23
 74
0
 42
0.0000001
 43
0.0000001
 44
0.0000000001
 40
0.0
 40
0.0
 40
0.0
 40
0.0
 40
0.1228158602
 40
0.1842237903
 40
0.2456317204
 40
0.3070396505
 40
0.3684475806
 40
0.3991515457
 40
0.4298555108
 40
0.4605594758
 40
0.4759114583
 40
0.4912634409
 40
0.5071614583
 40
0.5230594758
 40
0.5548555108
 40
0.5866515457
 40
0.6184475806
 40
0.6820396505
 40
0.7456317204
 40
0.8092237903
 40
0.8728158602
 40
1.0
 40
1.0
 40
1.0
 40
1.0
 10
233.8091984116
 20
111.9554370642
 30
0.0
 10
233.8603494719
 20
111.9554370642
 30
0.0
 10
233.9390172451
 20
111.9534991052
 30
0.0
 10
234.0357028217
 20
111.9376723953
 30
0.0
 10
234.1010279024
 20
111.9169769523
 30
0.0
 10
234.1561749957
 20
111.8854273196
 30
0.0
 10
234.1915884562
 20
111.84846333
 30
0.0
 10
234.2125947226
 20
111.8110722574
 30
0.0
 10
234.2243673465
 20
111.7787033755
 30
0.0
 10
234.2305437766
 20
111.7476696821
 30
0.0
 10
234.233088087
 20
111.7204241101
 30
0.0
 10
234.2337429015
 20
111.6980256744
 30
0.0
 10
234.2330790983
 20
111.675311679
 30
0.0
 10
234.230503604
 20
111.6469403963
 30
0.0
 10
234.2242386137
 20
111.6145093946
 30
0.0
 10
234.2122994416
 20
111.580471247
 30
0.0
 10
234.1910035795
 20
111.5409179314
 30
0.0
 10
234.155165738
 20
111.5014399112
 30
0.0
 10
234.0996356312
 20
111.4672635967
 30
0.0
 10
234.0341434142
 20
111.4443442249
 30
0.0
 10
233.9375961772
 20
111.4262056931
 30
0.0
 10
233.8595589945
 20
111.4234370642
 30
0.0
 10
233.8091984116
 20
111.4234370642
 30
0.0
  0
SPLINE
  5
51C
100
AcDbEntity
  8
0
100
AcDbSpline
 62
7
  6
CONTINUOUS
 70
0
 71
3
 72
8
 73
4
 74
0
 42
0.0000001
 43
0.0000001
 44
0.0000000001
 40
0.0
 40
0.0
 40
0.0
 40
0.0
 40
1.0
 40
1.0
 40
1.0
 40
1.0
 10
233.8061984116
 20
111.0814370642
 30
0.0
 10
233.9808753346
 20
111.0814370642
 30
0.0
 10
234.0285321872
 20
111.0272990322
 30
0.0
 10
234.0881984116
 20
110.8724370642
 30
0.0
  0
SPLINE
  5
51D
100
AcDbEntity
  8
0
100
AcDbSpline
 62
7
  6
CONTINUOUS
 70
0
 71
3
 72
8
 73
4
 74
0
 42
0.0000001
 43
0.0000001
 44
0.0000000001
 40
0.0
 40
0.0
 40
0.0
 40
0.0
 40
1.0
 40
1.0
 40
1.0
 40
1.0
 10
234.4902685525
 20
111.0444370642
 30
0.0
 10
234.4527654087
 20
111.1276824505
 30
0.0
 10
234.3954370034
 20
111.2303655533
 30
0.0
 10
234.2991984116
 20
111.2594370642
 30
0.0
  0
SPLINE
  5
51E
100
AcDbEntity
  8
0
100
AcDbSpline
 62
7
  6
CONTINUOUS
 70
0
 71
3
 72
8
 73
4
 74
0
 42
0.0000001
 43
0.0000001
 44
0.0000000001
 40
0.0
 40
0.0
 40
0.0
 40
0.0
 40
1.0
 40
1.0
 40
1.0
 40
1.0
 10
234.2991984116
 20
111.2594370642
 30
0.0
 10
234.5474895311
 20
111.3099458681
 30
0.0
 10
234.7001859438
 20
111.5103200626
 30
0.0
 10
234.7001984116
 20
111.7484370642
 30
0.0
  0
SPLINE
  5
51F
100
AcDbEntity
  8
0
100
AcDbSpline
 62
7
  6
CONTINUOUS
 70
0
 71
3
 72
8
 73
4
 74
0
 42
0.0000001
 43
0.0000001
 44
0.0000000001
 40
0.0
 40
0.0
 40
0.0
 40
0.0
 40
1.0
 40
1.0
 40
1.0
 40
1.0
 10
234.7001984116
 20
111.7484370642
 30
0.0
 10
234.7002291704
 20
112.3358868824
 30
0.0
 10
234.1534230435
 20
112.3244370642
 30
0.0
 10
233.7041984116
 20
112.3244370642
 30
0.0
  0
SPLINE
  5
520
100
AcDbEntity
  8
0
100
AcDbSpline
 62
7
  6
CONTINUOUS
 70
0
 71
3
 72
8
 73
4
 74
0
 42
0.0000001
 43
0.0000001
 44
0.0000000001
 40
0.0
 40
0.0
 40
0.0
 40
0.0
 40
1.0
 40
1.0
 40
1.0
 40
1.0
 10
232.1861984116
 20
110.2114370642
 30
0.0
 10
232.4519994534
 20
110.2114370642
 30
0.0
 10
232.9323242402
 20
110.2939655472
 30
0.0
 10
232.9331984116
 20
110.8274370642
 30
0.0
  0
SPLINE
  5
521
100
AcDbEntity
  8
0
100
AcDbSpline
 62
7
  6
CONTINUOUS
 70
0
 71
3
 72
8
 73
4
 74
0
 42
0.0000001
 43
0.0000001
 44
0.0000000001
 40
0.0
 40
0.0
 40
0.0
 40
0.0
 40
1.0
 40
1.0
 40
1.0
 40
1.0
 10
232.9331984116
 20
110.8274370642
 30
0.0
 10
232.9336087982
 20
111.0778794314
 30
0.0
 10
232.752816585
 20
111.2683885076
 30
0.0
 10
232.4861984116
 20
111.3104370642
 30
0.0
  0
SPLINE
  5
522
100
AcDbEntity
  8
0
100
AcDbSpline
 62
7
  6
CONTINUOUS
 70
0
 71
3
 72
8
 73
4
 74
0
 42
0.0000001
 43
0.0000001
 44
0.0000000001
 40
0.0
 40
0.0
 40
0.0
 40
0.0
 40
1.0
 40
1.0
 40
1.0
 40
1.0
 10
232.4861984116
 20
111.3104370642
 30
0.0
 10
232.7158458537
 20
111.3667185977
 30
0.0
 10
232.8700506844
 20
111.5385531557
 30
0.0
 10
232.8701984116
 20
111.7774370642
 30
0.0
  0
SPLINE
  5
523
100
AcDbEntity
  8
0
100
AcDbSpline
 62
7
  6
CONTINUOUS
 70
0
 71
3
 72
8
 73
4
 74
0
 42
0.0000001
 43
0.0000001
 44
0.0000000001
 40
0.0
 40
0.0
 40
0.0
 40
0.0
 40
1.0
 40
1.0
 40
1.0
 40
1.0
 10
232.8701984116
 20
111.7774370642
 30
0.0
 10
232.8704856311
 20
112.2418884428
 30
0.0
 10
232.4579648775
 20
112.3244370642
 30
0.0
 10
232.1861984116
 20
112.3244370642
 30
0.0
  0
SPLINE
  5
524
100
AcDbEntity
  8
0
100
AcDbSpline
 62
7
  6
CONTINUOUS
 70
0
 71
3
 72
8
 73
4
 74
0
 42
0.0000001
 43
0.0000001
 44
0.0000000001
 40
0.0
 40
0.0
 40
0.0
 40
0.0
 40
1.0
 40
1.0
 40
1.0
 40
1.0
 10
232.0361984116
 20
111.9554370642
 30
0.0
 10
232.2233176134
 20
111.9554370642
 30
0.0
 10
232.4311984116
 20
111.9561637211
 30
0.0
 10
232.4311984116
 20
111.7244370642
 30
0.0
  0
SPLINE
  5
525
100
AcDbEntity
  8
0
100
AcDbSpline
 62
7
  6
CONTINUOUS
 70
0
 71
3
 72
8
 73
4
 74
0
 42
0.0000001
 43
0.0000001
 44
0.0000000001
 40
0.0
 40
0.0
 40
0.0
 40
0.0
 40
1.0
 40
1.0
 40
1.0
 40
1.0
 10
232.4311984116
 20
111.7244370642
 30
0.0
 10
232.4311984116
 20
111.5298178687
 30
0.0
 10
232.2083699593
 20
111.5464370642
 30
0.0
 10
232.0451984116
 20
111.5464370642
 30
0.0
  0
SPLINE
  5
526
100
AcDbEntity
  8
0
100
AcDbSpline
 62
7
  6
CONTINUOUS
 70
0
 71
3
 72
8
 73
4
 74
0
 42
0.0000001
 43
0.0000001
 44
0.0000000001
 40
0.0
 40
0.0
 40
0.0
 40
0.0
 40
1.0
 40
1.0
 40
1.0
 40
1.0
 10
232.0721984116
 20
111.1494370642
 30
0.0
 10
232.2810388956
 20
111.1494370642
 30
0.0
 10
232.4941984116
 20
111.1113419994
 30
0.0
 10
232.4941984116
 20
110.8434370642
 30
0.0
  0
SPLINE
  5
527
100
AcDbEntity
  8
0
100
AcDbSpline
 62
7
  6
CONTINUOUS
 70
0
 71
3
 72
8
 73
4
 74
0
 42
0.0000001
 43
0.0000001
 44
0.0000000001
 40
0.0
 40
0.0
 40
0.0
 40
0.0
 40
1.0
 40
1.0
 40
1.0
 40
1.0
 10
232.4941984116
 20
110.8434370642
 30
0.0
 10
232.4941984116
 20
110.6068705293
 30
0.0
 10
232.2655339341
 20
110.5624370642
 30
0.0
 10
232.0721984116
 20
110.5624370642
 30
0.0
  0
SPLINE
  5
528
100
AcDbEntity
  8
0
100
AcDbSpline
 62
7
  6
CONTINUOUS
 70
0
 71
3
 72
21
 73
17
 74
0
 42
0.0000001
 43
0.0000001
 44
0.0000000001
 40
0.0
 40
0.0
 40
0.0
 40
0.0
 40
0.125
 40
0.25
 40
0.3125
 40
0.375
 40
0.4375
 40
0.46875
 40
0.5
 40
0.53125
 40
0.5625
 40
0.625
 40
0.6875
 40
0.75
 40
0.875
 40
1.0
 40
1.0
 40
1.0
 40
1.0
 10
223.6061984116
 20
111.9554370642
 30
0.0
 10
223.6914465981
 20
111.9554370642
 30
0.0
 10
223.8604963172
 20
111.9237426673
 30
0.0
 10
224.0431740545
 20
111.8100144489
 30
0.0
 10
224.1573267422
 20
111.6775809824
 30
0.0
 10
224.2232807369
 20
111.5583039975
 30
0.0
 10
224.2587887238
 20
111.4425192478
 30
0.0
 10
224.2736282138
 20
111.3409520166
 30
0.0
 10
224.27750091
 20
111.2589370642
 30
0.0
 10
224.2736282138
 20
111.1769221117
 30
0.0
 10
224.2587887238
 20
111.0753548805
 30
0.0
 10
224.2232807369
 20
110.9595701308
 30
0.0
 10
224.1573267422
 20
110.8402931459
 30
0.0
 10
224.0431740545
 20
110.7078596794
 30
0.0
 10
223.8604963172
 20
110.594131461
 30
0.0
 10
223.6914465981
 20
110.5624370642
 30
0.0
 10
223.6061984116
 20
110.5624370642
 30
0.0
  0
SPLINE
  5
529
100
AcDbEntity
  8
0
100
AcDbSpline
 62
7
  6
CONTINUOUS
 70
0
 71
3
 72
25
 73
21
 74
0
 42
0.0000001
 43
0.0000001
 44
0.0000000001
 40
0.0
 40
0.0
 40
0.0
 40
0.0
 40
0.1250129628
 40
0.1875194442
 40
0.2500259255
 40
0.3125324069
 40
0.3750388883
 40
0.406292129
 40
0.4375453697
 40
0.4687986104
 40
0.5000518511
 40
0.5312986104
 40
0.5625453697
 40
0.593792129
 40
0.6250388883
 40
0.6875324069
 40
0.7500259255
 40
0.8125194442
 40
0.8750129628
 40
1.0
 40
1.0
 40
1.0
 40
1.0
 10
223.5251984116
 20
110.2114370642
 30
0.0
 10
223.6861363525
 20
110.2114370642
 30
0.0
 10
223.920780785
 20
110.2317191896
 30
0.0
 10
224.1972992845
 20
110.318522511
 30
0.0
 10
224.3806976859
 20
110.4184322452
 30
0.0
 10
224.5340333733
 20
110.5580030643
 30
0.0
 10
224.6315167999
 20
110.7111496679
 30
0.0
 10
224.6883355892
 20
110.8577390743
 30
0.0
 10
224.7196559762
 20
110.9805249374
 30
0.0
 10
224.7390034178
 20
111.1154774199
 30
0.0
 10
224.7456786959
 20
111.2679261066
 30
0.0
 10
224.7390036617
 20
111.4203670789
 30
0.0
 10
224.7196558553
 20
111.5552989737
 30
0.0
 10
224.6883355173
 20
111.6780703878
 30
0.0
 10
224.6315166771
 20
111.8246482923
 30
0.0
 10
224.5340334262
 20
111.9777928661
 30
0.0
 10
224.3806982312
 20
112.1173755102
 30
0.0
 10
224.1973002019
 20
112.2173054733
 30
0.0
 10
223.9207817075
 20
112.3041386588
 30
0.0
 10
223.6861368001
 20
112.3244370642
 30
0.0
 10
223.5251984116
 20
112.3244370642
 30
0.0
  0
SPLINE
  5
52A
100
AcDbEntity
  8
0
100
AcDbSpline
 62
7
  6
CONTINUOUS
 70
0
 71
3
 72
16
 73
12
 74
0
 42
0.0000001
 43
0.0000001
 44
0.0000000001
 40
0.0
 40
0.0
 40
0.0
 40
0.0
 40
0.1652879788
 40
0.3378519588
 40
0.5073636343
 40
0.6636879128
 40
0.7975271718
 40
0.9010560678
 40
0.9686589868
 40
0.9883723662
 40
1.0
 40
1.0
 40
1.0
 40
1.0
 10
280.0497762744
 20
115.0143312794
 30
0.0
 10
280.0352366742
 20
115.1706259229
 30
0.0
 10
280.0002731337
 20
115.4896220119
 30
0.0
 10
279.9349052758
 20
115.967034775
 30
0.0
 10
279.8583469387
 20
116.4342261397
 30
0.0
 10
279.7753828935
 20
116.8627298903
 30
0.0
 10
279.6911800494
 20
117.2275664184
 30
0.0
 10
279.6118785774
 20
117.5051577206
 30
0.0
 10
279.5464393541
 20
117.6768396389
 30
0.0
 10
279.4973353407
 20
117.7554884622
 30
0.0
 10
279.4707496142
 20
117.7752132615
 30
0.0
 10
279.4597090496
 20
117.7754170842
 30
0.0
  0
SPLINE
  5
52B
100
AcDbEntity
  8
0
100
AcDbSpline
 62
7
  6
CONTINUOUS
 70
0
 71
3
 72
16
 73
12
 74
0
 42
0.0000001
 43
0.0000001
 44
0.0000000001
 40
0.0
 40
0.0
 40
0.0
 40
0.0
 40
0.165287981
 40
0.3378519639
 40
0.5073636425
 40
0.6636879237
 40
0.7975271846
 40
0.9010560807
 40
0.9686589971
 40
0.9883723729
 40
1.0
 40
1.0
 40
1.0
 40
1.0
 10
280.0497762744
 20
366.7645730432
 30
0.0
 10
280.0352366478
 20
366.6082784028
 30
0.0
 10
280.0002730634
 20
366.2892823196
 30
0.0
 10
279.934905162
 20
365.8118695633
 30
0.0
 10
279.858346802
 20
365.3446782022
 30
0.0
 10
279.7753827538
 20
364.9161744529
 30
0.0
 10
279.6911799237
 20
364.5513379232
 30
0.0
 10
279.6118784812
 20
364.2737466207
 30
0.0
 10
279.5464392907
 20
364.1020646968
 30
0.0
 10
279.4973353153
 20
364.0234158728
 30
0.0
 10
279.4707496076
 20
364.0036910625
 30
0.0
 10
279.4597090496
 20
364.0034872384
 30
0.0
  0
SPLINE
  5
52C
100
AcDbEntity
  8
0
100
AcDbSpline
 62
7
  6
CONTINUOUS
 70
0
 71
3
 72
16
 73
12
 74
0
 42
0.0000001
 43
0.0000001
 44
0.0000000001
 40
0.0
 40
0.0
 40
0.0
 40
0.0
 40
0.1652879788
 40
0.3378519588
 40
0.5073636343
 40
0.6636879128
 40
0.7975271718
 40
0.9010560678
 40
0.9686589868
 40
0.9883723662
 40
1.0
 40
1.0
 40
1.0
 40
1.0
 10
179.4746205489
 20
366.7645730432
 30
0.0
 10
179.489160149
 20
366.6082783997
 30
0.0
 10
179.5241236895
 20
366.2892823107
 30
0.0
 10
179.5894915474
 20
365.8118695476
 30
0.0
 10
179.6660498845
 20
365.3446781829
 30
0.0
 10
179.7490139297
 20
364.9161744323
 30
0.0
 10
179.8332167738
 20
364.5513379042
 30
0.0
 10
179.9125182458
 20
364.2737466019
 30
0.0
 10
179.9779574691
 20
364.1020646836
 30
0.0
 10
180.0270614825
 20
364.0234158603
 30
0.0
 10
180.053647209
 20
364.003691061
 30
0.0
 10
180.0646877736
 20
364.0034872384
 30
0.0
  0
SPLINE
  5
52D
100
AcDbEntity
  8
0
100
AcDbSpline
 62
7
  6
CONTINUOUS
 70
0
 71
3
 72
16
 73
12
 74
0
 42
0.0000001
 43
0.0000001
 44
0.0000000001
 40
0.0
 40
0.0
 40
0.0
 40
0.0
 40
0.165287981
 40
0.3378519639
 40
0.5073636425
 40
0.6636879237
 40
0.7975271846
 40
0.9010560807
 40
0.9686589971
 40
0.9883723729
 40
1.0
 40
1.0
 40
1.0
 40
1.0
 10
179.4746205489
 20
115.0143312794
 30
0.0
 10
179.4891601754
 20
115.1706259197
 30
0.0
 10
179.5241237598
 20
115.4896220029
 30
0.0
 10
179.5894916612
 20
115.9670347593
 30
0.0
 10
179.6660500212
 20
116.4342261203
 30
0.0
 10
179.7490140694
 20
116.8627298696
 30
0.0
 10
179.8332168995
 20
117.2275663993
 30
0.0
 10
179.912518342
 20
117.5051577018
 30
0.0
 10
179.9779575325
 20
117.6768396258
 30
0.0
 10
180.0270615079
 20
117.7554884498
 30
0.0
 10
180.0536472156
 20
117.77521326
 30
0.0
 10
180.0646877736
 20
117.7754170842
 30
0.0
  0
SPLINE
  5
52E
100
AcDbEntity
  8
0
100
AcDbSpline
 62
7
  6
CONTINUOUS
 70
0
 71
3
 72
9
 73
5
 74
0
 42
0.0000001
 43
0.0000001
 44
0.0000000001
 40
0.0
 40
0.0
 40
0.0
 40
0.0
 40
0.5021712391
 40
1.0
 40
1.0
 40
1.0
 40
1.0
 10
183.8250563375
 20
115.5989214158
 30
0.0
 10
183.11305502
 20
115.411492039
 30
0.0
 10
181.6718227413
 20
115.1211083507
 30
0.0
 10
180.2045085433
 20
115.016476576
 30
0.0
 10
179.4746205489
 20
115.0143312794
 30
0.0
  0
SPLINE
  5
52F
100
AcDbEntity
  8
0
100
AcDbSpline
 62
7
  6
CONTINUOUS
 70
0
 71
3
 72
9
 73
5
 74
0
 42
0.0000001
 43
0.0000001
 44
0.0000000001
 40
0.0
 40
0.0
 40
0.0
 40
0.0
 40
0.4978177422
 40
1.0
 40
1.0
 40
1.0
 40
1.0
 10
280.0497762744
 20
115.0143312794
 30
0.0
 10
279.3199044265
 20
115.0164772475
 30
0.0
 10
277.8525890914
 20
115.121100545
 30
0.0
 10
276.4113597226
 20
115.4114966098
 30
0.0
 10
275.6993404858
 20
115.5989214158
 30
0.0
  0
SPLINE
  5
530
100
AcDbEntity
  8
0
100
AcDbSpline
 62
7
  6
CONTINUOUS
 70
0
 71
3
 72
9
 73
5
 74
0
 42
0.0000001
 43
0.0000001
 44
0.0000000001
 40
0.0
 40
0.0
 40
0.0
 40
0.0
 40
0.5021712391
 40
1.0
 40
1.0
 40
1.0
 40
1.0
 10
275.6993404858
 20
366.1799829067
 30
0.0
 10
276.4113418032
 20
366.3674122835
 30
0.0
 10
277.8525740819
 20
366.6577959718
 30
0.0
 10
279.31988828
 20
366.7624277466
 30
0.0
 10
280.0497762744
 20
366.7645730432
 30
0.0
  0
SPLINE
  5
531
100
AcDbEntity
  8
0
100
AcDbSpline
 62
7
  6
CONTINUOUS
 70
0
 71
3
 72
9
 73
5
 74
0
 42
0.0000001
 43
0.0000001
 44
0.0000000001
 40
0.0
 40
0.0
 40
0.0
 40
0.0
 40
0.4978177422
 40
1.0
 40
1.0
 40
1.0
 40
1.0
 10
179.4746205489
 20
366.7645730432
 30
0.0
 10
180.2044923967
 20
366.7624270751
 30
0.0
 10
181.6718077318
 20
366.6578037776
 30
0.0
 10
183.1130371006
 20
366.3674077127
 30
0.0
 10
183.8250563375
 20
366.1799829067
 30
0.0
  0
SPLINE
  5
532
100
AcDbEntity
  8
0
100
AcDbSpline
 62
7
  6
CONTINUOUS
 70
0
 71
3
 72
9
 73
5
 74
0
 42
0.0000001
 43
0.0000001
 44
0.0000000001
 40
0.0
 40
0.0
 40
0.0
 40
0.0
 40
0.2413540341
 40
1.0
 40
1.0
 40
1.0
 40
1.0
 10
286.1274910744
 20
1135.2502354863
 30
0.0
 10
285.6374011024
 20
1135.2502356715
 30
0.0
 10
283.6068080358
 20
1135.2858760356
 30
0.0
 10
281.5799049753
 20
1135.4540087574
 30
0.0
 10
280.0497762744
 20
1135.6324246946
 30
0.0
  0
SPLINE
  5
533
100
AcDbEntity
  8
0
100
AcDbSpline
 62
7
  6
CONTINUOUS
 70
0
 71
3
 72
9
 73
5
 74
0
 42
0.0000001
 43
0.0000001
 44
0.0000000001
 40
0.0
 40
0.0
 40
0.0
 40
0.0
 40
0.2573222055
 40
1.0
 40
1.0
 40
1.0
 40
1.0
 10
179.4746205489
 20
1135.6324246946
 30
0.0
 10
178.9556419745
 20
1135.5719107353
 30
0.0
 10
176.9363707315
 20
1135.3596454687
 30
0.0
 10
174.9049186401
 20
1135.25023628
 30
0.0
 10
173.3969057488
 20
1135.2502354863
 30
0.0
  0
SPLINE
  5
534
100
AcDbEntity
  8
0
100
AcDbSpline
 62
7
  6
CONTINUOUS
 70
0
 71
3
 72
9
 73
5
 74
0
 42
0.0000001
 43
0.0000001
 44
0.0000000001
 40
0.0
 40
0.0
 40
0.0
 40
0.0
 40
0.5043391479
 40
1.0
 40
1.0
 40
1.0
 40
1.0
 10
280.0497762744
 20
1135.6324246946
 30
0.0
 10
279.324419042
 20
1135.7580321189
 30
0.0
 10
277.8825000556
 20
1135.9866252721
 30
0.0
 10
276.4228749244
 20
1136.0957639687
 30
0.0
 10
275.6993897026
 20
1136.0957669034
 30
0.0
  0
SPLINE
  5
535
100
AcDbEntity
  8
0
100
AcDbSpline
 62
7
  6
CONTINUOUS
 70
0
 71
3
 72
10
 73
6
 74
0
 42
0.0000001
 43
0.0000001
 44
0.0000000001
 40
0.0
 40
0.0
 40
0.0
 40
0.0
 40
0.3711578911
 40
0.6560603668
 40
1.0
 40
1.0
 40
1.0
 40
1.0
 10
179.4746205489
 20
1135.6324246946
 30
0.0
 10
179.479736403
 20
1135.6569669795
 30
0.0
 10
179.4907547841
 20
1135.7006883752
 30
0.0
 10
179.512984454
 20
1135.7617561272
 30
0.0
 10
179.5435554097
 20
1135.8030780735
 30
0.0
 10
179.5666458449
 20
1135.8056330712
 30
0.0
  0
SPLINE
  5
536
100
AcDbEntity
  8
0
100
AcDbSpline
 62
7
  6
CONTINUOUS
 70
0
 71
3
 72
9
 73
5
 74
0
 42
0.0000001
 43
0.0000001
 44
0.0000000001
 40
0.0
 40
0.0
 40
0.0
 40
0.0
 40
0.5474924029
 40
1.0
 40
1.0
 40
1.0
 40
1.0
 10
173.3969057488
 20
1135.2502354863
 30
0.0
 10
173.4475280794
 20
1135.3111037587
 30
0.0
 10
173.5542056741
 20
1135.4136369474
 30
0.0
 10
173.6994991205
 20
1135.4592899169
 30
0.0
 10
173.7649321861
 20
1135.4592913098
 30
0.0
  0
SPLINE
  5
537
100
AcDbEntity
  8
0
100
AcDbSpline
 62
7
  6
CONTINUOUS
 70
0
 71
3
 72
9
 73
5
 74
0
 42
0.0000001
 43
0.0000001
 44
0.0000000001
 40
0.0
 40
0.0
 40
0.0
 40
0.0
 40
0.5474924029
 40
1.0
 40
1.0
 40
1.0
 40
1.0
 10
286.1274910744
 20
1135.2502354863
 30
0.0
 10
286.0768687437
 20
1135.3111037587
 30
0.0
 10
285.9701911486
 20
1135.4136369474
 30
0.0
 10
285.8248977021
 20
1135.4592899169
 30
0.0
 10
285.7594646364
 20
1135.4592913098
 30
0.0
  0
SPLINE
  5
538
100
AcDbEntity
  8
0
100
AcDbSpline
 62
7
  6
CONTINUOUS
 70
0
 71
3
 72
10
 73
6
 74
0
 42
0.0000001
 43
0.0000001
 44
0.0000000001
 40
0.0
 40
0.0
 40
0.0
 40
0.0
 40
0.3711580492
 40
0.656060558
 40
1.0
 40
1.0
 40
1.0
 40
1.0
 10
280.0497762744
 20
1135.6324246946
 30
0.0
 10
280.0446604265
 20
1135.6569669932
 30
0.0
 10
280.0336420527
 20
1135.7006884098
 30
0.0
 10
280.0114124121
 20
1135.761756166
 30
0.0
 10
279.9808414241
 20
1135.8030781203
 30
0.0
 10
279.9577509952
 20
1135.8056330694
 30
0.0
  0
SPLINE
  5
539
100
AcDbEntity
  8
0
100
AcDbSpline
 62
7
  6
CONTINUOUS
 70
0
 71
3
 72
9
 73
5
 74
0
 42
0.0000001
 43
0.0000001
 44
0.0000000001
 40
0.0
 40
0.0
 40
0.0
 40
0.0
 40
0.4956498487
 40
1.0
 40
1.0
 40
1.0
 40
1.0
 10
183.8249853633
 20
1136.0957669033
 30
0.0
 10
183.101519781
 20
1136.0957629399
 30
0.0
 10
181.6419019324
 20
1135.9866266056
 30
0.0
 10
180.1999900676
 20
1135.7580339543
 30
0.0
 10
179.4746205489
 20
1135.6324246946
 30
0.0
  0
SPLINE
  5
53A
100
AcDbEntity
  8
03___PRT_ALL_CURVES
100
AcDbSpline
 62
2
  6
CONTINUOUS
 70
0
 71
3
 72
13
 73
9
 74
0
 42
0.0000001
 43
0.0000001
 44
0.0000000001
 40
0.0
 40
0.0
 40
0.0
 40
0.0
 40
0.1666666667
 40
0.3333333333
 40
0.5
 40
0.6666666667
 40
0.8333333333
 40
1.0
 40
1.0
 40
1.0
 40
1.0
 10
248.1625329166
 20
1065.6952669035
 30
0.0
 10
248.2146184898
 20
1065.6952669035
 30
0.0
 10
248.3177268938
 20
1065.6875256782
 30
0.0
 10
248.4698728478
 20
1065.6561215608
 30
0.0
 10
248.617526624
 20
1065.6062238071
 30
0.0
 10
248.7587782196
 20
1065.537894264
 30
0.0
 10
248.8915566579
 20
1065.4516745517
 30
0.0
 10
248.9724650588
 20
1065.3822990815
 30
0.0
 10
249.010646048
 20
1065.3440875478
 30
0.0
  0
SPLINE
  5
53B
100
AcDbEntity
  8
03___PRT_ALL_CURVES
100
AcDbSpline
 62
2
  6
CONTINUOUS
 70
0
 71
3
 72
17
 73
13
 74
0
 42
0.0000001
 43
0.0000001
 44
0.0000000001
 40
0.0
 40
0.0
 40
0.0
 40
0.0
 40
0.1
 40
0.2
 40
0.3
 40
0.4
 40
0.5
 40
0.6
 40
0.7
 40
0.8
 40
0.9
 40
1.0
 40
1.0
 40
1.0
 40
1.0
 10
211.3618639067
 20
1058.4953417753
 30
0.0
 10
211.3030015004
 20
1058.4953417753
 30
0.0
 10
211.1855324315
 20
1058.5053458213
 30
0.0
 10
211.0089559553
 20
1058.5466622838
 30
0.0
 10
210.8353990129
 20
1058.6143654736
 30
0.0
 10
210.6703759381
 20
1058.7095679663
 30
0.0
 10
210.5209507923
 20
1058.8315422416
 30
0.0
 10
210.3950012987
 20
1058.9772100404
 30
0.0
 10
210.2942953898
 20
1059.1417895078
 30
0.0
 10
210.2207877005
 20
1059.3183664096
 30
0.0
 10
210.1739631866
 20
1059.5046503284
 30
0.0
 10
210.1621788853
 20
1059.6310692872
 30
0.0
 10
210.1621788853
 20
1059.6951951028
 30
0.0
  0
SPLINE
  5
53C
100
AcDbEntity
  8
03___PRT_ALL_CURVES
100
AcDbSpline
 62
2
  6
CONTINUOUS
 70
0
 71
3
 72
21
 73
17
 74
0
 42
0.0000001
 43
0.0000001
 44
0.0000000001
 40
0.0
 40
0.0
 40
0.0
 40
0.0
 40
0.0625
 40
0.125
 40
0.1875
 40
0.25
 40
0.3125
 40
0.375
 40
0.4375
 40
0.5
 40
0.625
 40
0.75
 40
0.8125
 40
0.875
 40
0.9375
 40
1.0
 40
1.0
 40
1.0
 40
1.0
 10
210.1621788853
 20
1064.4954135759
 30
0.0
 10
210.1621845445
 20
1064.5308831399
 30
0.0
 10
210.1657554527
 20
1064.6017843068
 30
0.0
 10
210.1816609614
 20
1064.711702711
 30
0.0
 10
210.2088954405
 20
1064.8247499915
 30
0.0
 10
210.2475082296
 20
1064.937542687
 30
0.0
 10
210.2972500151
 20
1065.0472275655
 30
0.0
 10
210.3577584348
 20
1065.1528849205
 30
0.0
 10
210.4301890371
 20
1065.2542884628
 30
0.0
 10
210.5409642363
 20
1065.3780161125
 30
0.0
 10
210.7063169997
 20
1065.5085149167
 30
0.0
 10
210.8855008563
 20
1065.5985476213
 30
0.0
 10
211.0349806733
 20
1065.6491910121
 30
0.0
 10
211.1472617678
 20
1065.6760001316
 30
0.0
 10
211.2564171606
 20
1065.6917269037
 30
0.0
 10
211.326696472
 20
1065.6952669035
 30
0.0
 10
211.3618639067
 20
1065.6952669035
 30
0.0
  0
SPLINE
  5
53D
100
AcDbEntity
  8
03___PRT_ALL_CURVES
100
AcDbSpline
 62
2
  6
CONTINUOUS
 70
0
 71
3
 72
15
 73
11
 74
0
 42
0.0000001
 43
0.0000001
 44
0.0000000001
 40
0.0
 40
0.0
 40
0.0
 40
0.0
 40
0.125
 40
0.25
 40
0.375
 40
0.5
 40
0.625
 40
0.75
 40
0.875
 40
1.0
 40
1.0
 40
1.0
 40
1.0
 10
211.3615397886
 20
1058.4953417753
 30
0.0
 10
211.2853946643
 20
1058.4953539225
 30
0.0
 10
211.1343648456
 20
1058.5118252154
 30
0.0
 10
210.9070140329
 20
1058.5796496205
 30
0.0
 10
210.6925541677
 20
1058.6910921739
 30
0.0
 10
210.5042040502
 20
1058.8435769267
 30
0.0
 10
210.3532273589
 20
1059.0332421167
 30
0.0
 10
210.2446635861
 20
1059.2454507936
 30
0.0
 10
210.1781862835
 20
1059.4708055733
 30
0.0
 10
210.1621788853
 20
1059.620022915
 30
0.0
 10
210.1621788853
 20
1059.6951951028
 30
0.0
  0
SPLINE
  5
53E
100
AcDbEntity
  8
03___PRT_ALL_CURVES
100
AcDbSpline
 62
2
  6
CONTINUOUS
 70
0
 71
3
 72
23
 73
19
 74
0
 42
0.0000001
 43
0.0000001
 44
0.0000000001
 40
0.0
 40
0.0
 40
0.0
 40
0.0
 40
0.0625
 40
0.125
 40
0.1875
 40
0.25
 40
0.3125
 40
0.375
 40
0.4375
 40
0.5
 40
0.5625
 40
0.625
 40
0.6875
 40
0.75
 40
0.8125
 40
0.875
 40
0.9375
 40
1.0
 40
1.0
 40
1.0
 40
1.0
 10
249.362217938
 20
1059.6951951029
 30
0.0
 10
249.3622123392
 20
1059.6601043125
 30
0.0
 10
249.3587247532
 20
1059.5898783381
 30
0.0
 10
249.343122826
 20
1059.4808426312
 30
0.0
 10
249.3163182239
 20
1059.36846868
 30
0.0
 10
249.278217553
 20
1059.2561541585
 30
0.0
 10
249.2290469552
 20
1059.1467811245
 30
0.0
 10
249.1690128946
 20
1059.0412076574
 30
0.0
 10
249.0967985326
 20
1058.939516538
 30
0.0
 10
249.0138770863
 20
1058.8463419195
 30
0.0
 10
248.9209104195
 20
1058.7631257419
 30
0.0
 10
248.8193476057
 20
1058.6905725528
 30
0.0
 10
248.7138264674
 20
1058.6301802875
 30
0.0
 10
248.6043516716
 20
1058.5805862522
 30
0.0
 10
248.4917594907
 20
1058.5420570323
 30
0.0
 10
248.3788844795
 20
1058.5148490853
 30
0.0
 10
248.2689901675
 20
1058.4989210334
 30
0.0
 10
248.1980407327
 20
1058.4953417753
 30
0.0
 10
248.1625329165
 20
1058.4953417753
 30
0.0
  0
SPLINE
  5
53F
100
AcDbEntity
  8
03___PRT_ALL_CURVES
100
AcDbSpline
 62
2
  6
CONTINUOUS
 70
0
 71
3
 72
11
 73
7
 74
0
 42
0.0000001
 43
0.0000001
 44
0.0000000001
 40
0.0
 40
0.0
 40
0.0
 40
0.0
 40
0.25
 40
0.5
 40
0.75
 40
1.0
 40
1.0
 40
1.0
 40
1.0
 10
249.010646048
 20
1065.3440875478
 30
0.0
 10
249.0674838139
 20
1065.2871555449
 30
0.0
 10
249.1658464698
 20
1065.1635682031
 30
0.0
 10
249.2764687255
 20
1064.9530724367
 30
0.0
 10
249.3450909972
 20
1064.7273065344
 30
0.0
 10
249.362217938
 20
1064.5736328679
 30
0.0
 10
249.362217938
 20
1064.4954135759
 30
0.0
  0
SPLINE
  5
540
100
AcDbEntity
  8
03___PRT_ALL_CURVES
100
AcDbSpline
 62
2
  6
CONTINUOUS
 70
0
 71
3
 72
11
 73
7
 74
0
 42
0.0000001
 43
0.0000001
 44
0.0000000001
 40
0.0
 40
0.0
 40
0.0
 40
0.0
 40
0.25
 40
0.5
 40
0.75
 40
1.0
 40
1.0
 40
1.0
 40
1.0
 10
248.1625329166
 20
1065.6952669035
 30
0.0
 10
248.2415318132
 20
1065.6952669035
 30
0.0
 10
248.3963060121
 20
1065.6778318144
 30
0.0
 10
248.6220943002
 20
1065.6088785066
 30
0.0
 10
248.8317864143
 20
1065.4982911152
 30
0.0
 10
248.9542965123
 20
1065.4004821627
 30
0.0
 10
249.010646048
 20
1065.3440875478
 30
0.0
  0
SPLINE
  5
541
100
AcDbEntity
  8
03___PRT_ALL_CURVES
100
AcDbSpline
 62
2
  6
CONTINUOUS
 70
0
 71
3
 72
17
 73
13
 74
0
 42
0.0000001
 43
0.0000001
 44
0.0000000001
 40
0.0
 40
0.0
 40
0.0
 40
0.0
 40
0.1
 40
0.2
 40
0.3
 40
0.4
 40
0.5
 40
0.6
 40
0.7
 40
0.8
 40
0.9
 40
1.0
 40
1.0
 40
1.0
 40
1.0
 10
249.362217938
 20
1059.6951951028
 30
0.0
 10
249.362217938
 20
1059.6338876015
 30
0.0
 10
249.3516235091
 20
1059.5125120206
 30
0.0
 10
249.308296841
 20
1059.3326815682
 30
0.0
 10
249.2384405486
 20
1059.1594951721
 30
0.0
 10
249.1429313185
 20
1058.9968838462
 30
0.0
 10
249.0225653638
 20
1058.8506576159
 30
0.0
 10
248.8777472858
 20
1058.7266363285
 30
0.0
 10
248.7138594937
 20
1058.6269777595
 30
0.0
 10
248.5381089224
 20
1058.553391692
 30
0.0
 10
248.3526046183
 20
1058.5068877806
 30
0.0
 10
248.2265224708
 20
1058.4953417753
 30
0.0
 10
248.1625329165
 20
1058.4953417753
 30
0.0
  0
SPLINE
  5
542
100
AcDbEntity
  8
03___PRT_ALL_CURVES
100
AcDbSpline
 62
2
  6
CONTINUOUS
 70
0
 71
3
 72
24
 73
20
 74
0
 42
0.0000001
 43
0.0000001
 44
0.0000000001
 40
0.0
 40
0.0
 40
0.0
 40
0.0
 40
0.0588235294
 40
0.1176470588
 40
0.1764705882
 40
0.2352941176
 40
0.2941176471
 40
0.3529411765
 40
0.4117647059
 40
0.4705882353
 40
0.5294117647
 40
0.5882352941
 40
0.6470588235
 40
0.7058823529
 40
0.7647058824
 40
0.8235294118
 40
0.8823529412
 40
0.9411764706
 40
1.0
 40
1.0
 40
1.0
 40
1.0
 10
231.1548438103
 20
1061.1793912532
 30
0.0
 10
231.1991607249
 20
1061.2872646774
 30
0.0
 10
231.2663504566
 20
1061.5071968677
 30
0.0
 10
231.3063414338
 20
1061.8552690779
 30
0.0
 10
231.2814677642
 20
1062.2019805453
 30
0.0
 10
231.1935593043
 20
1062.5408820857
 30
0.0
 10
231.0466466725
 20
1062.8539181795
 30
0.0
 10
230.843497845
 20
1063.1372977551
 30
0.0
 10
230.595769328
 20
1063.3745631564
 30
0.0
 10
230.3057647883
 20
1063.5641534907
 30
0.0
 10
229.9921407889
 20
1063.6943370063
 30
0.0
 10
229.6565119708
 20
1063.7656733676
 30
0.0
 10
229.3189250248
 20
1063.774082506
 30
0.0
 10
228.9804703127
 20
1063.7188089992
 30
0.0
 10
228.6608864653
 20
1063.6036649808
 30
0.0
 10
228.3636225693
 20
1063.428885532
 30
0.0
 10
228.1042681617
 20
1063.2039923472
 30
0.0
 10
227.8886886868
 20
1062.9314185495
 30
0.0
 10
227.7813945232
 20
1062.7285765636
 30
0.0
 10
227.7366926677
 20
1062.6208013852
 30
0.0
  0
SPLINE
  5
543
100
AcDbEntity
  8
03___PRT_ALL_CURVES
100
AcDbSpline
 62
2
  6
CONTINUOUS
 70
0
 71
3
 72
24
 73
20
 74
0
 42
0.0000001
 43
0.0000001
 44
0.0000000001
 40
0.0
 40
0.0
 40
0.0
 40
0.0
 40
0.0588235294
 40
0.1176470588
 40
0.1764705882
 40
0.2352941176
 40
0.2941176471
 40
0.3529411765
 40
0.4117647059
 40
0.4705882353
 40
0.5294117647
 40
0.5882352941
 40
0.6470588235
 40
0.7058823529
 40
0.7647058824
 40
0.8235294118
 40
0.8823529412
 40
0.9411764706
 40
1.0
 40
1.0
 40
1.0
 40
1.0
 10
227.7366926677
 20
1062.6208013852
 30
0.0
 10
227.6916669547
 20
1062.5122453935
 30
0.0
 10
227.6233938215
 20
1062.2909944536
 30
0.0
 10
227.5820657827
 20
1061.9410643376
 30
0.0
 10
227.6058145447
 20
1061.5936129554
 30
0.0
 10
227.6930315411
 20
1061.2531696874
 30
0.0
 10
227.8396062353
 20
1060.9392836595
 30
0.0
 10
228.0434050411
 20
1060.654701248
 30
0.0
 10
228.2919728594
 20
1060.4167567496
 30
0.0
 10
228.5829943558
 20
1060.226384068
 30
0.0
 10
228.8974736939
 20
1060.0959324147
 30
0.0
 10
229.2337109622
 20
1060.0250320257
 30
0.0
 10
229.5721678339
 20
1060.0174936937
 30
0.0
 10
229.9113490855
 20
1060.0737489529
 30
0.0
 10
230.2320948225
 20
1060.1901534019
 30
0.0
 10
230.5297742292
 20
1060.3664747567
 30
0.0
 10
230.7890318914
 20
1060.5936750595
 30
0.0
 10
231.0036790259
 20
1060.8679166181
 30
0.0
 10
231.1104752701
 20
1061.0713921654
 30
0.0
 10
231.1548438104
 20
1061.1793912533
 30
0.0
  0
SPLINE
  5
544
100
AcDbEntity
  8
03___PRT_ALL_CURVES
100
AcDbSpline
 62
2
  6
CONTINUOUS
 70
0
 71
3
 72
24
 73
20
 74
0
 42
0.0000001
 43
0.0000001
 44
0.0000000001
 40
0.0
 40
0.0
 40
0.0
 40
0.0
 40
0.0588235294
 40
0.1176470588
 40
0.1764705882
 40
0.2352941176
 40
0.2941176471
 40
0.3529411765
 40
0.4117647059
 40
0.4705882353
 40
0.5294117647
 40
0.5882352941
 40
0.6470588235
 40
0.7058823529
 40
0.7647058824
 40
0.8235294118
 40
0.8823529412
 40
0.9411764706
 40
1.0
 40
1.0
 40
1.0
 40
1.0
 10
231.1548438106
 20
1061.179391254
 30
0.0
 10
231.1113021336
 20
1061.0734028413
 30
0.0
 10
231.0068796346
 20
1060.8731433736
 30
0.0
 10
230.7938905897
 20
1060.5992219916
 30
0.0
 10
230.5419325929
 20
1060.3760195615
 30
0.0
 10
230.2497167638
 20
1060.1984249969
 30
0.0
 10
229.9240613578
 20
1060.0767792214
 30
0.0
 10
229.5837953205
 20
1060.018413688
 30
0.0
 10
229.2468110943
 20
1060.0237393535
 30
0.0
 10
228.9109318899
 20
1060.0914858064
 30
0.0
 10
228.5887241946
 20
1060.2232193104
 30
0.0
 10
228.3011793603
 20
1060.4098737328
 30
0.0
 10
228.0516289909
 20
1060.6452801578
 30
0.0
 10
227.8447924218
 20
1060.9296369678
 30
0.0
 10
227.69361063
 20
1061.2509421033
 30
0.0
 10
227.6069268459
 20
1061.5881750717
 30
0.0
 10
227.5816728025
 20
1061.9364387632
 30
0.0
 10
227.6232957698
 20
1062.2913458199
 30
0.0
 10
227.6916384961
 20
1062.5120491505
 30
0.0
 10
227.7363926687
 20
1062.6200776718
 30
0.0
  0
SPLINE
  5
545
100
AcDbEntity
  8
03___PRT_ALL_CURVES
100
AcDbSpline
 62
2
  6
CONTINUOUS
 70
0
 71
3
 72
24
 73
20
 74
0
 42
0.0000001
 43
0.0000001
 44
0.0000000001
 40
0.0
 40
0.0
 40
0.0
 40
0.0
 40
0.0588235294
 40
0.1176470588
 40
0.1764705882
 40
0.2352941176
 40
0.2941176471
 40
0.3529411765
 40
0.4117647059
 40
0.4705882353
 40
0.5294117647
 40
0.5882352941
 40
0.6470588235
 40
0.7058823529
 40
0.7647058824
 40
0.8235294118
 40
0.8823529412
 40
0.9411764706
 40
1.0
 40
1.0
 40
1.0
 40
1.0
 10
227.7368382178
 20
1062.6211521986
 30
0.0
 10
227.781238035
 20
1062.7281364342
 30
0.0
 10
227.8875311846
 20
1062.9297379858
 30
0.0
 10
228.1040928258
 20
1063.2036791406
 30
0.0
 10
228.359157696
 20
1063.4251959049
 30
0.0
 10
228.6538165291
 20
1063.6006405028
 30
0.0
 10
228.9806568194
 20
1063.7192432042
 30
0.0
 10
229.3204873909
 20
1063.7741332573
 30
0.0
 10
229.6564839683
 20
1063.7654760868
 30
0.0
 10
229.9906916711
 20
1063.6950752498
 30
0.0
 10
230.3104771953
 20
1063.5617434854
 30
0.0
 10
230.5954199351
 20
1063.3744243872
 30
0.0
 10
230.8426240712
 20
1063.1383224094
 30
0.0
 10
231.0471509343
 20
1062.8538103427
 30
0.0
 10
231.1962582498
 20
1062.533730249
 30
0.0
 10
231.2817047585
 20
1062.1985441413
 30
0.0
 10
231.3064324575
 20
1061.853241885
 30
0.0
 10
231.2653938159
 20
1061.5026138837
 30
0.0
 10
231.1984411491
 20
1061.2855151567
 30
0.0
 10
231.1548438109
 20
1061.1793912545
 30
0.0
  0
SPLINE
  5
546
100
AcDbEntity
  8
03___PRT_ALL_CURVES
100
AcDbSpline
 62
2
  6
CONTINUOUS
 70
0
 71
3
 72
22
 73
18
 74
0
 42
0.0000001
 43
0.0000001
 44
0.0000000001
 40
0.0
 40
0.0
 40
0.0
 40
0.0
 40
0.0666666667
 40
0.1333333333
 40
0.2
 40
0.2666666667
 40
0.3333333333
 40
0.4
 40
0.4666666667
 40
0.5333333333
 40
0.6
 40
0.6666666667
 40
0.7333333333
 40
0.8
 40
0.8666666667
 40
0.9333333333
 40
1.0
 40
1.0
 40
1.0
 40
1.0
 10
230.2298033974
 20
1062.7073260071
 30
0.0
 10
230.2847500024
 20
1062.6509581956
 30
0.0
 10
230.3807624374
 20
1062.5292889105
 30
0.0
 10
230.4878002116
 20
1062.3178519574
 30
0.0
 10
230.549601339
 20
1062.0894454273
 30
0.0
 10
230.5652589112
 20
1061.8535337673
 30
0.0
 10
230.53184285
 20
1061.6118736131
 30
0.0
 10
230.4483562659
 20
1061.3814255514
 30
0.0
 10
230.3230566645
 20
1061.1796315804
 30
0.0
 10
230.1609105933
 20
1061.0076977911
 30
0.0
 10
229.9599938161
 20
1060.8692702757
 30
0.0
 10
229.7296117526
 20
1060.7779396806
 30
0.0
 10
229.4915256459
 20
1060.7405234959
 30
0.0
 10
229.2582385341
 20
1060.7547115251
 30
0.0
 10
229.0343772073
 20
1060.8166510467
 30
0.0
 10
228.8287260266
 20
1060.9247683557
 30
0.0
 10
228.7103995729
 20
1061.0219841436
 30
0.0
 10
228.6554815597
 20
1061.077450696
 30
0.0
  0
SPLINE
  5
547
100
AcDbEntity
  8
03___PRT_ALL_CURVES
100
AcDbSpline
 62
2
  6
CONTINUOUS
 70
0
 71
3
 72
17
 73
13
 74
0
 42
0.0000001
 43
0.0000001
 44
0.0000000001
 40
0.0
 40
0.0
 40
0.0
 40
0.0
 40
0.1
 40
0.2
 40
0.3
 40
0.4
 40
0.5
 40
0.6
 40
0.7
 40
0.8
 40
0.9
 40
1.0
 40
1.0
 40
1.0
 40
1.0
 10
210.1621788853
 20
1064.4954135759
 30
0.0
 10
210.1621788853
 20
1064.5565765848
 30
0.0
 10
210.1727541791
 20
1064.6777179185
 30
0.0
 10
210.2160109481
 20
1064.8573517405
 30
0.0
 10
210.2858578565
 20
1065.0305238049
 30
0.0
 10
210.3813206741
 20
1065.1933728304
 30
0.0
 10
210.501584591
 20
1065.3397210942
 30
0.0
 10
210.6465751183
 20
1065.4640140045
 30
0.0
 10
210.8102055454
 20
1065.5638850526
 30
0.0
 10
210.9860858022
 20
1065.6371375163
 30
0.0
 10
211.17175566
 20
1065.6836286301
 30
0.0
 10
211.2978691837
 20
1065.6952669035
 30
0.0
 10
211.3618639067
 20
1065.6952669035
 30
0.0
  0
SPLINE
  5
548
100
AcDbEntity
  8
03___PRT_ALL_CURVES
100
AcDbSpline
 62
2
  6
CONTINUOUS
 70
0
 71
3
 72
22
 73
18
 74
0
 42
0.0000001
 43
0.0000001
 44
0.0000000001
 40
0.0
 40
0.0
 40
0.0
 40
0.0
 40
0.0666666667
 40
0.1333333333
 40
0.2
 40
0.2666666667
 40
0.3333333333
 40
0.4
 40
0.4666666667
 40
0.5333333333
 40
0.6
 40
0.6666666667
 40
0.7333333333
 40
0.8
 40
0.8666666667
 40
0.9333333333
 40
1.0
 40
1.0
 40
1.0
 40
1.0
 10
228.6551756965
 20
1061.0777597328
 30
0.0
 10
228.5988181826
 20
1061.1347238753
 30
0.0
 10
228.5006060372
 20
1061.2575210616
 30
0.0
 10
228.3920332889
 20
1061.4702809741
 30
0.0
 10
228.3301598255
 20
1061.6994865849
 30
0.0
 10
228.3141207797
 20
1061.937061997
 30
0.0
 10
228.3474334265
 20
1062.1802929848
 30
0.0
 10
228.4316064039
 20
1062.4120941301
 30
0.0
 10
228.5577880132
 20
1062.6144096769
 30
0.0
 10
228.720945973
 20
1062.7859148603
 30
0.0
 10
228.9224255085
 20
1062.9235617375
 30
0.0
 10
229.1525926769
 20
1063.0144071464
 30
0.0
 10
229.3905672533
 20
1063.0513338631
 30
0.0
 10
229.6242266869
 20
1063.035901709
 30
0.0
 10
229.8487437922
 20
1062.972407336
 30
0.0
 10
230.0556439453
 20
1062.8626641904
 30
0.0
 10
230.1745489425
 20
1062.763977884
 30
0.0
 10
230.2295845109
 20
1062.7075504922
 30
0.0
  0
SPLINE
  5
549
100
AcDbEntity
  8
03___PRT_ALL_CURVES
100
AcDbSpline
 62
2
  6
CONTINUOUS
 70
0
 71
3
 72
13
 73
9
 74
0
 42
0.0000001
 43
0.0000001
 44
0.0000000001
 40
0.0
 40
0.0
 40
0.0
 40
0.0
 40
0.1666666667
 40
0.3333333333
 40
0.5
 40
0.6666666667
 40
0.8333333333
 40
1.0
 40
1.0
 40
1.0
 40
1.0
 10
249.010646048
 20
1065.3440875478
 30
0.0
 10
249.0479748902
 20
1065.3066968144
 30
0.0
 10
249.1162646916
 20
1065.2272777424
 30
0.0
 10
249.2022907751
 20
1065.0957942222
 30
0.0
 10
249.2712522534
 20
1064.954764621
 30
0.0
 10
249.3220834344
 20
1064.8063298585
 30
0.0
 10
249.3542762808
 20
1064.6524761193
 30
0.0
 10
249.362217938
 20
1064.5481636564
 30
0.0
 10
249.362217938
 20
1064.4954135759
 30
0.0
  0
SPLINE
  5
54A
100
AcDbEntity
  8
03___PRT_ALL_CURVES
100
AcDbSpline
 62
2
  6
CONTINUOUS
 70
0
 71
3
 72
22
 73
18
 74
0
 42
0.0000001
 43
0.0000001
 44
0.0000000001
 40
0.0
 40
0.0
 40
0.0
 40
0.0
 40
0.0666666667
 40
0.1333333333
 40
0.2
 40
0.2666666667
 40
0.3333333333
 40
0.4
 40
0.4666666667
 40
0.5333333333
 40
0.6
 40
0.6666666667
 40
0.7333333333
 40
0.8
 40
0.8666666667
 40
0.9333333333
 40
1.0
 40
1.0
 40
1.0
 40
1.0
 10
228.6550696727
 20
1061.0778669121
 30
0.0
 10
228.7104006719
 20
1061.0219254459
 30
0.0
 10
228.8296859188
 20
1060.9239799535
 30
0.0
 10
229.0372939465
 20
1060.815334801
 30
0.0
 10
229.2633431756
 20
1060.7537893454
 30
0.0
 10
229.4979547879
 20
1060.740634083
 30
0.0
 10
229.7398419191
 20
1060.7805917583
 30
0.0
 10
229.9678304059
 20
1060.8739155677
 30
0.0
 10
230.1629861341
 20
1061.0099779763
 30
0.0
 10
230.3234588729
 20
1061.180051152
 30
0.0
 10
230.4498218211
 20
1061.3841768557
 30
0.0
 10
230.5321022729
 20
1061.6139517422
 30
0.0
 10
230.5650362668
 20
1061.8517274006
 30
0.0
 10
230.5499602778
 20
1062.0873369104
 30
0.0
 10
230.4886370793
 20
1062.3157236426
 30
0.0
 10
230.3815286274
 20
1062.5282131091
 30
0.0
 10
230.2853223009
 20
1062.6503107804
 30
0.0
 10
230.230217471
 20
1062.7069009977
 30
0.0
  0
SPLINE
  5
54B
100
AcDbEntity
  8
03___PRT_ALL_CURVES
100
AcDbSpline
 62
2
  6
CONTINUOUS
 70
0
 71
3
 72
11
 73
7
 74
0
 42
0.0000001
 43
0.0000001
 44
0.0000000001
 40
0.0
 40
0.0
 40
0.0
 40
0.0
 40
0.25
 40
0.5
 40
0.75
 40
1.0
 40
1.0
 40
1.0
 40
1.0
 10
248.1625329165
 20
1066.0952669035
 30
0.0
 10
248.268489862
 20
1066.0952669035
 30
0.0
 10
248.4758281685
 20
1066.0728479418
 30
0.0
 10
248.7776406241
 20
1065.9801502807
 30
0.0
 10
249.0568013311
 20
1065.8324546555
 30
0.0
 10
249.2189142892
 20
1065.7016430378
 30
0.0
 10
249.293684952
 20
1065.6267339175
 30
0.0
  0
SPLINE
  5
54C
100
AcDbEntity
  8
03___PRT_ALL_CURVES
100
AcDbSpline
 62
2
  6
CONTINUOUS
 70
0
 71
3
 72
11
 73
7
 74
0
 42
0.0000001
 43
0.0000001
 44
0.0000000001
 40
0.0
 40
0.0
 40
0.0
 40
0.0
 40
0.25
 40
0.5
 40
0.75
 40
1.0
 40
1.0
 40
1.0
 40
1.0
 10
249.293684952
 20
1065.6267339175
 30
0.0
 10
249.3691627773
 20
1065.5511163252
 30
0.0
 10
249.5006449862
 20
1065.3874972269
 30
0.0
 10
249.6483089304
 20
1065.1072418964
 30
0.0
 10
249.7403776372
 20
1064.8057895612
 30
0.0
 10
249.7623544422
 20
1064.600195392
 30
0.0
 10
249.7623544422
 20
1064.4954453778
 30
0.0
  0
SPLINE
  5
54D
100
AcDbEntity
  8
03___PRT_ALL_CURVES
100
AcDbSpline
 62
2
  6
CONTINUOUS
 70
0
 71
3
 72
13
 73
9
 74
0
 42
0.0000001
 43
0.0000001
 44
0.0000000001
 40
0.0
 40
0.0
 40
0.0
 40
0.0
 40
0.1666666667
 40
0.3333333333
 40
0.5
 40
0.6666666667
 40
0.8333333333
 40
1.0
 40
1.0
 40
1.0
 40
1.0
 10
248.1625595697
 20
1066.0952669037
 30
0.0
 10
248.2320885689
 20
1066.0952669037
 30
0.0
 10
248.3697853398
 20
1066.0854603963
 30
0.0
 10
248.5732946315
 20
1066.0438790099
 30
0.0
 10
248.770647123
 20
1065.9769150531
 30
0.0
 10
248.9593973633
 20
1065.8854262636
 30
0.0
 10
249.1363067214
 20
1065.7697143292
 30
0.0
 10
249.2431802091
 20
1065.6772835821
 30
0.0
 10
249.293684952
 20
1065.6267339174
 30
0.0
  0
SPLINE
  5
54E
100
AcDbEntity
  8
03___PRT_ALL_CURVES
100
AcDbSpline
 62
2
  6
CONTINUOUS
 70
0
 71
3
 72
13
 73
9
 74
0
 42
0.0000001
 43
0.0000001
 44
0.0000000001
 40
0.0
 40
0.0
 40
0.0
 40
0.0
 40
0.1666666667
 40
0.3333333333
 40
0.5
 40
0.6666666667
 40
0.8333333333
 40
1.0
 40
1.0
 40
1.0
 40
1.0
 10
249.293684952
 20
1065.6267339174
 30
0.0
 10
249.3436126018
 20
1065.5767352474
 30
0.0
 10
249.435180945
 20
1065.4708846099
 30
0.0
 10
249.5502998164
 20
1065.2956070443
 30
0.0
 10
249.6421429043
 20
1065.1075427295
 30
0.0
 10
249.7099630362
 20
1064.9096324797
 30
0.0
 10
249.7523572428
 20
1064.7042729209
 30
0.0
 10
249.7623394191
 20
1064.5655347184
 30
0.0
 10
249.7623544422
 20
1064.4954453778
 30
0.0
  0
SPLINE
  5
54F
100
AcDbEntity
  8
03___PRT_ALL_CURVES
100
AcDbSpline
 62
2
  6
CONTINUOUS
 70
0
 71
3
 72
10
 73
6
 74
0
 42
0.0000001
 43
0.0000001
 44
0.0000000001
 40
0.0
 40
0.0
 40
0.0
 40
0.0
 40
0.3333333333
 40
0.6666666667
 40
1.0
 40
1.0
 40
1.0
 40
1.0
 10
217.4742318158
 20
1063.043739184
 30
0.0
 10
217.4937709324
 20
1063.043739184
 30
0.0
 10
217.5333793469
 20
1063.0429524529
 30
0.0
 10
217.5944203449
 20
1063.0393785684
 30
0.0
 10
217.6361246663
 20
1063.0353893716
 30
0.0
 10
217.6572353071
 20
1063.0329904286
 30
0.0
  0
SPLINE
  5
550
100
AcDbEntity
  8
03___PRT_ALL_CURVES
100
AcDbSpline
 62
2
  6
CONTINUOUS
 70
0
 71
3
 72
9
 73
5
 74
0
 42
0.0000001
 43
0.0000001
 44
0.0000000001
 40
0.0
 40
0.0
 40
0.0
 40
0.0
 40
0.5
 40
1.0
 40
1.0
 40
1.0
 40
1.0
 10
217.4742313688
 20
1063.043739184
 30
0.0
 10
217.503721403
 20
1063.043739184
 30
0.0
 10
217.5637120705
 20
1063.0419463097
 30
0.0
 10
217.6257237946
 20
1063.0365712921
 30
0.0
 10
217.6572353071
 20
1063.0329904285
 30
0.0
  0
SPLINE
  5
551
100
AcDbEntity
  8
03___PRT_ALL_CURVES
100
AcDbSpline
 62
2
  6
CONTINUOUS
 70
0
 71
3
 72
12
 73
8
 74
0
 42
0.0000001
 43
0.0000001
 44
0.0000000001
 40
0.0
 40
0.0
 40
0.0
 40
0.0
 40
0.2
 40
0.4
 40
0.6
 40
0.8
 40
1.0
 40
1.0
 40
1.0
 40
1.0
 10
217.6572353069
 20
1063.0329904286
 30
0.0
 10
217.6912913556
 20
1063.0290395385
 30
0.0
 10
217.7556798555
 20
1063.0130772426
 30
0.0
 10
217.8434147601
 20
1062.9666043557
 30
0.0
 10
217.9162989382
 20
1062.9008433905
 30
0.0
 10
217.9705764956
 20
1062.8207308525
 30
0.0
 10
217.9935955063
 20
1062.7584420721
 30
0.0
 10
218.0011945408
 20
1062.7248613014
 30
0.0
  0
ENDSEC
  0
SECTION
  2
OBJECTS
  0
DICTIONARY
  5
C
100
AcDbDictionary
280
0
281
1
  3
ACAD_GROUP
350
D
  3
ACAD_MLINESTYLE
350
17
  3
ACAD_LAYOUT
350
1A
  3
ACAD_PLOTSETTINGS
350
19
  3
ACAD_PLOTSTYLENAME
350
E
  0
DICTIONARY
  5
D
102
{ACAD_REACTORS
330
C
102
}
100
AcDbDictionary
280
0
281
1
  0
ACDBDICTIONARYWDFLT
  5
E
102
{ACAD_REACTORS
330
C
102
}
100
AcDbDictionary
281
1
  3
Normal
350
F
100
AcDbDictionaryWithDefault
340
F
  0
DICTIONARY
  5
17
102
{ACAD_REACTORS
330
C
102
}
100
AcDbDictionary
280
0
281
1
  3
Standard
350
18
  0
DICTIONARY
  5
19
102
{ACAD_REACTORS
330
C
102
}
100
AcDbDictionary
281
1
  0
DICTIONARY
  5
1A
102
{ACAD_REACTORS
330
C
102
}
100
AcDbDictionary
281
1
  3
Model
350
552
  3
Layout1
350
553
  0
ACDBPLACEHOLDER
  5
F
102
{ACAD_REACTORS
330
E
102
}
  0
MLINESTYLE
  5
18
102
{ACAD_REACTORS
330
17
102
}
100
AcDbMlineStyle
  2
STANDARD
 70
0
  3

 62
256
 51
90.0
 52
90.0
 71
2
 49
0.5
 62
256
  6
BYLAYER
 49
-0.5
 62
256
  6
BYLAYER
  0
LAYOUT
  5
552
102
{ACAD_REACTORS
330
1A
102
}
100
AcDbPlotSettings
  1

  2
none_device
  4

  6

 40
0.0
 41
0.0
 42
0.0
 43
0.0
 44
454.0
 45
1200.0
 46
0.0
 47
0.0
 48
0.0
 49
0.0
140
0.0
141
0.0
142
1.0
143
1.0
 70
1024
 72
1
 73
0
 74
0
  7

 75
0
147
1.0
148
0.0
149
0.0
100
AcDbLayout
  1
Model
 70
0
 71
0
 10
0.0
 20
0.0
 11
454.0
 21
1200.0
 12
0.0
 22
0.0
 32
0.0
 14
0.0
 24
0.0
 34
0.0
 15
0.0
 25
0.0
 35
0.0
146
0.0
 13
0.0
 23
0.0
 33
0.0
 16
1.0
 26
0.0
 36
0.0
 17
0.0
 27
1.0
 37
0.0
 76
0
330
216
345
0
346
0
  0
LAYOUT
  5
553
102
{ACAD_REACTORS
330
1A
102
}
100
AcDbPlotSettings
  1

  2
none_device
  4

  6

 40
0.0
 41
0.0
 42
0.0
 43
0.0
 44
454.0
 45
1200.0
 46
0.0
 47
0.0
 48
0.0
 49
0.0
140
0.0
141
0.0
142
1.0
143
1.0
 70
0
 72
1
 73
0
 74
0
  7

 75
0
147
1.0
148
0.0
149
0.0
100
AcDbLayout
  1
Layout1
 70
0
 71
1
 10
0.0
 20
0.0
 11
454.0
 21
1200.0
 12
0.0
 22
0.0
 32
0.0
 14
0.0
 24
0.0
 34
0.0
 15
0.0
 25
0.0
 35
0.0
146
0.0
 13
0.0
 23
0.0
 33
0.0
 16
1.0
 26
0.0
 36
0.0
 17
0.0
 27
1.0
 37
0.0
 76
0
330
217
345
0
346
0
  0
ENDSEC
  0
EOF
