999
DXF file: S:\Engenharia\Wildfire\Engenharia\Produtos\Lixeiras\94539200\94539200_201_202_203_204_205_206.dxf
999
Pro/ENGINEER 2013150 by Parametric Technology Corporation
  0
SECTION
  2
HEADER
  9
$ACADVER
  1
AC1021
  9
$DWGCODEPAGE
  3
ANSI_1252
  9
$EXTMAX
 10
454.0
 20
1200.0
 30
0.0
  9
$EXTMIN
 10
0.0
 20
0.0
 30
0.0
  9
$LIMMIN
 10
0.0
 20
0.0
  9
$LIMMAX
 10
454.0
 20
1200.0
  9
$VIEWCTR
 10
227.0
 20
600.0
  9
$VIEWSIZE
 40
1200.0
  9
$CLAYER
  8
0
  9
$LTSCALE
 40
78.2222222222
  9
$CELTYPE
  6
BYLAYER
  9
$DIMSCALE
 40
1.0
  9
$DIMASZ
 40
3.0
  9
$DIMEXO
 40
0.5
  9
$DIMDLI
 40
54.0444444444
  9
$DIMEXE
 40
0.5
  9
$DIMCEN
 40
12.8
  9
$DIMLFAC
 40
1.0
  9
$DIMBLK
  1
_FILLED
  9
$DIMTXT
 40
1.8
  9
$DIMTOL
 70
1
  9
$DIMLIM
 70
0
  9
$DIMTFAC
 40
1.0
  9
$DIMTP
 40
0.001
  9
$DIMTM
 40
0.001
  9
$DIMGAP
 40
0.625
  9
$DIMDSEP
 70
46
  9
$PDMODE
 70
3
  9
$PDSIZE
 40
1.0
  9
$HANDSEED
  5
470
  9
$TILEMODE
 70
1
  9
$MEASUREMENT
 70
1
  9
$INSUNITS
 70
4
  0
ENDSEC
  0
SECTION
  2
CLASSES
  0
CLASS
  1
ACDBDICTIONARYWDFLT
  2
AcDbDictionaryWithDefault
  3
AutoCAD 2000
 90
0
 91
1
280
0
281
0
  0
CLASS
  1
ACDBPLACEHOLDER
  2
AcDbPlaceHolder
  3
AutoCAD 2000
 90
0
 91
1
280
0
281
0
  0
CLASS
  1
LAYOUT
  2
AcDbLayout
  3
AutoCAD 2000
 90
0
 91
0
280
0
281
0
  0
ENDSEC
  0
SECTION
  2
TABLES
  0
TABLE
  2
VPORT
  5
8
100
AcDbSymbolTable
 70
2
  0
VPORT
  5
1F4
100
AcDbSymbolTableRecord
100
AcDbViewportTableRecord
  2
*ACTIVE
 70
0
 10
0.0
 20
0.0
 11
1.0
 21
1.0
 12
227.0
 22
600.0
 13
0.0
 23
0.0
 14
1.0
 24
1.0
 15
0.0
 25
0.0
 16
0.0
 26
0.0
 36
1.0
 17
0.0
 27
0.0
 37
0.0
 40
1200.0
 41
0.3783333333
 42
50.0
 43
0.0
 44
0.0
 50
0.0
 51
0.0
 71
0
 72
100
 73
1
 74
1
 75
0
 76
0
 77
0
 78
0
  0
ENDTAB
  0
TABLE
  2
LTYPE
  5
5
100
AcDbSymbolTable
 70
6
  0
LTYPE
  5
14
100
AcDbSymbolTableRecord
100
AcDbLinetypeTableRecord
  2
BYBLOCK
 70
0
  3

 72
65
 73
0
 40
0.0
  0
LTYPE
  5
15
100
AcDbSymbolTableRecord
100
AcDbLinetypeTableRecord
  2
BYLAYER
 70
0
  3

 72
65
 73
0
 40
0.0
  0
LTYPE
  5
16
100
AcDbSymbolTableRecord
100
AcDbLinetypeTableRecord
  2
CONTINUOUS
 70
64
  3
Solid line
 72
65
 73
0
 40
0.0
  0
LTYPE
  5
1F5
100
AcDbSymbolTableRecord
100
AcDbLinetypeTableRecord
  2
CENTER
 70
64
  3
____ _ ____ _ ____ _ ____ _ ____ _ ____ _ ____
 72
65
 73
4
 40
0.6
 49
0.375
 74
0
 49
-0.075
 74
0
 49
0.075
 74
0
 49
-0.075
 74
0
  0
LTYPE
  5
1F6
100
AcDbSymbolTableRecord
100
AcDbLinetypeTableRecord
  2
HIDDEN
 70
64
  3
- - - - - - - - - - - - - - - - - - - -
 72
65
 73
2
 40
0.2
 49
0.1
 74
0
 49
-0.1
 74
0
  0
LTYPE
  5
1F7
100
AcDbSymbolTableRecord
100
AcDbLinetypeTableRecord
  2
PHANTOM
 70
64
  3
_____ _ _ _____ _ _ _____ _ _ _____
 72
65
 73
6
 40
0.8
 49
0.45
 74
0
 49
-0.05
 74
0
 49
0.1
 74
0
 49
-0.05
 74
0
 49
0.1
 74
0
 49
-0.05
 74
0
  0
LTYPE
  5
1F8
100
AcDbSymbolTableRecord
100
AcDbLinetypeTableRecord
  2
DOT
 70
64
  3
. . . . . . . . . . . . . . . . . . . .
 72
65
 73
2
 40
0.2
 49
0.1
 74
0
 49
-0.1
 74
0
  0
LTYPE
  5
1F9
100
AcDbSymbolTableRecord
100
AcDbLinetypeTableRecord
  2
DASHED
 70
64
  3
- - - - - - - - - - - - - - - - - - - -
 72
65
 73
2
 40
0.2
 49
0.1
 74
0
 49
-0.1
 74
0
  0
ENDTAB
  0
TABLE
  2
LAYER
  5
2
100
AcDbSymbolTable
 70
36
  0
LAYER
  5
10
100
AcDbSymbolTableRecord
100
AcDbLayerTableRecord
  2
0
 70
0
 62
7
  6
CONTINUOUS
370
-3
390
F
  0
LAYER
  5
1FA
100
AcDbSymbolTableRecord
100
AcDbLayerTableRecord
  2
DEFAULT_1
 70
0
 62
7
  6
CENTER
370
-3
390
F
  0
LAYER
  5
1FB
100
AcDbSymbolTableRecord
100
AcDbLayerTableRecord
  2
DEFAULT_2
 70
0
 62
8
  6
HIDDEN
370
-3
390
F
  0
LAYER
  5
1FC
100
AcDbSymbolTableRecord
100
AcDbLayerTableRecord
  2
DEFAULT_3
 70
0
 62
7
  6
PHANTOM
370
-3
390
F
  0
LAYER
  5
1FD
100
AcDbSymbolTableRecord
100
AcDbLayerTableRecord
  2
01_ALL_DTM_PLN
 70
0
 62
7
  6
CONTINUOUS
370
-3
390
F
  0
LAYER
  5
1FE
100
AcDbSymbolTableRecord
100
AcDbLayerTableRecord
  2
01__ASM_ALL_DTM_PLN
 70
0
 62
7
  6
CONTINUOUS
370
-3
390
F
  0
LAYER
  5
1FF
100
AcDbSymbolTableRecord
100
AcDbLayerTableRecord
  2
01__ASM_DEF_DTM_PLN
 70
0
 62
7
  6
CONTINUOUS
370
-3
390
F
  0
LAYER
  5
200
100
AcDbSymbolTableRecord
100
AcDbLayerTableRecord
  2
01___PRT_ALL_DTM_PLN
 70
0
 62
7
  6
CONTINUOUS
370
-3
390
F
  0
LAYER
  5
201
100
AcDbSymbolTableRecord
100
AcDbLayerTableRecord
  2
01___PRT_DEF_DTM_PLN
 70
0
 62
7
  6
CONTINUOUS
370
-3
390
F
  0
LAYER
  5
202
100
AcDbSymbolTableRecord
100
AcDbLayerTableRecord
  2
02_ALL_AXES
 70
0
 62
7
  6
CONTINUOUS
370
-3
390
F
  0
LAYER
  5
203
100
AcDbSymbolTableRecord
100
AcDbLayerTableRecord
  2
02__ASM_ALL_AXES
 70
0
 62
7
  6
CONTINUOUS
370
-3
390
F
  0
LAYER
  5
204
100
AcDbSymbolTableRecord
100
AcDbLayerTableRecord
  2
02___PRT_ALL_AXES
 70
0
 62
7
  6
CONTINUOUS
370
-3
390
F
  0
LAYER
  5
205
100
AcDbSymbolTableRecord
100
AcDbLayerTableRecord
  2
03_ALL_CURVES
 70
0
 62
7
  6
CONTINUOUS
370
-3
390
F
  0
LAYER
  5
206
100
AcDbSymbolTableRecord
100
AcDbLayerTableRecord
  2
03__ASM_ALL_CURVES
 70
0
 62
7
  6
CONTINUOUS
370
-3
390
F
  0
LAYER
  5
207
100
AcDbSymbolTableRecord
100
AcDbLayerTableRecord
  2
03___PRT_ALL_CURVES
 70
0
 62
7
  6
CONTINUOUS
370
-3
390
F
  0
LAYER
  5
208
100
AcDbSymbolTableRecord
100
AcDbLayerTableRecord
  2
04_ALL_DTM_PNT
 70
0
 62
7
  6
CONTINUOUS
370
-3
390
F
  0
LAYER
  5
209
100
AcDbSymbolTableRecord
100
AcDbLayerTableRecord
  2
04__ASM_ALL_DTM_PNT
 70
0
 62
7
  6
CONTINUOUS
370
-3
390
F
  0
LAYER
  5
20A
100
AcDbSymbolTableRecord
100
AcDbLayerTableRecord
  2
04___PRT_ALL_DTM_PNT
 70
0
 62
7
  6
CONTINUOUS
370
-3
390
F
  0
LAYER
  5
20B
100
AcDbSymbolTableRecord
100
AcDbLayerTableRecord
  2
05_ALL_DTM_CSYS
 70
0
 62
7
  6
CONTINUOUS
370
-3
390
F
  0
LAYER
  5
20C
100
AcDbSymbolTableRecord
100
AcDbLayerTableRecord
  2
05__ASM_ALL_DTM_CSYS
 70
0
 62
7
  6
CONTINUOUS
370
-3
390
F
  0
LAYER
  5
20D
100
AcDbSymbolTableRecord
100
AcDbLayerTableRecord
  2
05__ASM_DEF_DTM_CSYS
 70
0
 62
7
  6
CONTINUOUS
370
-3
390
F
  0
LAYER
  5
20E
100
AcDbSymbolTableRecord
100
AcDbLayerTableRecord
  2
05___PRT_ALL_DTM_CSYS
 70
0
 62
7
  6
CONTINUOUS
370
-3
390
F
  0
LAYER
  5
20F
100
AcDbSymbolTableRecord
100
AcDbLayerTableRecord
  2
05___PRT_DEF_DTM_CSYS
 70
0
 62
7
  6
CONTINUOUS
370
-3
390
F
  0
LAYER
  5
210
100
AcDbSymbolTableRecord
100
AcDbLayerTableRecord
  2
06_ALL_SURFS
 70
0
 62
7
  6
CONTINUOUS
370
-3
390
F
  0
LAYER
  5
211
100
AcDbSymbolTableRecord
100
AcDbLayerTableRecord
  2
06__ASM_ALL_SURFS
 70
0
 62
7
  6
CONTINUOUS
370
-3
390
F
  0
LAYER
  5
212
100
AcDbSymbolTableRecord
100
AcDbLayerTableRecord
  2
06___PRT_ALL_SURFS
 70
0
 62
7
  6
CONTINUOUS
370
-3
390
F
  0
LAYER
  5
213
100
AcDbSymbolTableRecord
100
AcDbLayerTableRecord
  2
07__ASM_ALL_SKELETONS
 70
0
 62
7
  6
CONTINUOUS
370
-3
390
F
  0
ENDTAB
  0
TABLE
  2
STYLE
  5
3
100
AcDbSymbolTable
 70
1
  0
STYLE
  5
11
100
AcDbSymbolTableRecord
100
AcDbTextStyleTableRecord
  2
STANDARD
 70
0
 40
0.0
 41
0.8
 50
0.0
 71
0
 42
0.2
  3
txt
  4

  0
STYLE
  5
214
100
AcDbSymbolTableRecord
100
AcDbTextStyleTableRecord
  2
TEXTSTYLE_1
 70
0
 40
0.0
 41
0.8
 50
0.0
 71
0
 42
0.2
  3
gdt
  4

  0
ENDTAB
  0
TABLE
  2
VIEW
  5
6
100
AcDbSymbolTable
 70
0
  0
ENDTAB
  0
TABLE
  2
UCS
  5
7
100
AcDbSymbolTable
 70
0
  0
ENDTAB
  0
TABLE
  2
APPID
  5
9
100
AcDbSymbolTable
 70
1
  0
APPID
  5
215
100
AcDbSymbolTableRecord
100
AcDbRegAppTableRecord
  2
ACAD
 70
0
  0
ENDTAB
  0
TABLE
  2
BLOCK_RECORD
  5
1
100
AcDbSymbolTable
 70
0
  0
BLOCK_RECORD
  5
216
100
AcDbSymbolTableRecord
100
AcDbBlockTableRecord
  2
*Model_Space
  0
BLOCK_RECORD
  5
217
100
AcDbSymbolTableRecord
100
AcDbBlockTableRecord
  2
*Paper_Space
  0
BLOCK_RECORD
  5
218
100
AcDbSymbolTableRecord
100
AcDbBlockTableRecord
  2
_FILLED
  0
BLOCK_RECORD
  5
219
100
AcDbSymbolTableRecord
100
AcDbBlockTableRecord
  2
*D0
  0
BLOCK_RECORD
  5
21A
100
AcDbSymbolTableRecord
100
AcDbBlockTableRecord
  2
*D1
  0
ENDTAB
  0
TABLE
  2
DIMSTYLE
  5
A
100
AcDbSymbolTable
 70
1
100
AcDbDimStyleTable
 71
0
  0
DIMSTYLE
105
21B
100
AcDbSymbolTableRecord
100
AcDbDimStyleTableRecord
  2
STANDARD
 70
0
  3

  4

 40
1.0
 41
3.0
 42
0.5
 43
0.38
 44
0.5
 45
0.0
 46
0.0
 47
0.001
 48
0.001
140
1.8
141
0.09
142
0.0
143
25.4
144
1.0
145
0.0
146
1.0
147
0.625
 71
1.0
 72
0.0
 73
0
 74
0
 75
0
 76
0
 77
1
 78
8
170
0
171
2
172
0
173
0
174
0
175
0
176
0
177
0
178
0
270
2
271
3
272
3
273
2
274
2
275
0
280
0
281
0
282
0
283
1
284
8
285
0
286
0
287
3
288
0
340
11
278
46
341
218
342
218
343
218
344
218
  0
DIMSTYLE
105
21C
100
AcDbSymbolTableRecord
100
AcDbDimStyleTableRecord
  2
DIMSTYLE_1
 70
0
  3

  4

 40
1.0
 41
3.0
 42
0.5
 43
0.38
 44
0.5
 45
0.0
 46
0.0
 47
0.001
 48
0.001
140
1.8
141
0.09
142
0.0
143
25.4
144
1.0
145
0.0
146
1.0
147
0.45
 71
0.0
 72
0.0
 73
0
 74
0
 75
0
 76
0
 77
1
 78
8
170
0
171
2
172
0
173
0
174
0
175
0
176
0
177
0
178
0
270
2
271
1
272
1
273
2
274
2
275
0
280
0
281
0
282
0
283
1
284
8
285
0
286
0
287
3
288
0
340
11
278
46
341
218
342
218
343
218
344
218
  0
DIMSTYLE
105
21D
100
AcDbSymbolTableRecord
100
AcDbDimStyleTableRecord
  2
DIMSTYLE_2
 70
0
  3

  4

 40
1.0
 41
3.0
 42
0.5
 43
0.38
 44
0.5
 45
0.0
 46
0.0
 47
0.001
 48
0.001
140
1.8
141
0.09
142
0.0
143
25.4
144
1.0
145
0.0
146
1.0
147
0.45
 71
0.0
 72
0.0
 73
0
 74
0
 75
0
 76
0
 77
1
 78
8
170
0
171
2
172
0
173
0
174
0
175
0
176
0
177
0
178
0
270
2
271
0
272
0
273
2
274
2
275
0
280
0
281
0
282
0
283
1
284
8
285
0
286
0
287
3
288
0
340
11
278
46
341
218
342
218
343
218
344
218
  0
ENDTAB
  0
ENDSEC
  0
SECTION
  2
BLOCKS
  0
BLOCK
  5
20
100
AcDbEntity
  8
0
100
AcDbBlockBegin
  2
*Model_Space
 70
0
 10
0.0
 20
0.0
 30
0.0
  3
*Model_Space
  1

  0
ENDBLK
  5
21
100
AcDbEntity
  8
0
100
AcDbBlockEnd
  0
BLOCK
  5
1C
100
AcDbEntity
  8
0
100
AcDbBlockBegin
  2
*Paper_Space
 70
0
 10
0.0
 20
0.0
 30
0.0
  3
*Paper_Space
  1

  0
ENDBLK
  5
1D
100
AcDbEntity
  8
0
100
AcDbBlockEnd
  0
BLOCK
  5
21E
100
AcDbEntity
  8
0
100
AcDbBlockBegin
  2
_FILLED
 70
64
 10
0.0
 20
0.0
  3
_FILLED
  1

  0
SOLID
  5
21F
100
AcDbEntity
  8
0
  6
BYBLOCK
 62
0
100
AcDbTrace
 10
0.0
 20
0.0
 11
-1.0
 21
0.1666666667
 12
-1.0
 22
-0.1666666667
 13
-1.0
 23
-0.1666666667
  0
ENDBLK
  5
220
100
AcDbEntity
  8
0
  6
BYBLOCK
 62
0
100
AcDbBlockEnd
  0
BLOCK
  5
221
100
AcDbEntity
  8
0
100
AcDbBlockBegin
 62
2
  6
CONTINUOUS
  2
*D0
 70
65
 10
0.0
 20
0.0
  3
*D0
  1

  0
MTEXT
  5
222
100
AcDbEntity
  8
0
100
AcDbMText
 62
2
  6
CONTINUOUS
  7
TEXTSTYLE_1
 71
2
 72
1
 10
229.7621984116
 20
1175.8311447823
 30
0.0
 11
1.0
 21
0.0
 31
0.0
 44
0.9
  1
{\Fgdt;n}\Ftxt;309.5
 40
1.8
 41
17.4857142857
  0
LINE
  5
223
100
AcDbEntity
  8
0
100
AcDbLine
 62
2
  6
CONTINUOUS
 10
75.0254030957
 20
1092.8376462995
 11
75.0254030957
 21
1173.7597162108
  0
LINE
  5
224
100
AcDbEntity
  8
0
100
AcDbLine
 62
2
  6
CONTINUOUS
 10
384.4989937275
 20
1092.8376462995
 11
384.4989937275
 21
1173.7597162108
  0
LINE
  5
225
100
AcDbEntity
  8
0
100
AcDbLine
 62
2
  6
CONTINUOUS
 10
75.0254030957
 20
1173.2597162108
 11
229.7621984116
 21
1173.2597162108
  0
LINE
  5
226
100
AcDbEntity
  8
0
100
AcDbLine
 62
2
  6
CONTINUOUS
 10
384.4989937275
 20
1173.2597162108
 11
229.7621984116
 21
1173.2597162108
  0
INSERT
  5
227
100
AcDbEntity
  8
0
100
AcDbBlockReference
 62
2
  6
CONTINUOUS
  2
_FILLED
 10
75.0254030957
 20
1173.2597162108
 41
3.0
 42
3.0
 43
3.0
 50
180.0
  0
INSERT
  5
228
100
AcDbEntity
  8
0
100
AcDbBlockReference
 62
2
  6
CONTINUOUS
  2
_FILLED
 10
384.4989937275
 20
1173.2597162108
 41
3.0
 42
3.0
 43
3.0
  0
ENDBLK
  5
229
100
AcDbEntity
  8
0
  6
BYBLOCK
 62
0
100
AcDbBlockEnd
  0
BLOCK
  5
22A
100
AcDbEntity
  8
0
100
AcDbBlockBegin
 62
2
  6
CONTINUOUS
  2
*D1
 70
65
 10
0.0
 20
0.0
  3
*D1
  1

  0
MTEXT
  5
22B
100
AcDbEntity
  8
0
100
AcDbMText
 62
2
  6
CONTINUOUS
  7
STANDARD
 71
2
 72
1
 10
446.9223389128
 20
807.3440169035
 30
0.0
 11
0.0
 21
1.0
 31
0.0
 44
0.9
  1
658
 40
1.8
 41
8.3314285714
  0
LINE
  5
22C
100
AcDbEntity
  8
0
100
AcDbLine
 62
2
  6
CONTINUOUS
 10
246.3671984116
 20
1136.4957669035
 11
449.9937674843
 21
1136.4957669035
  0
LINE
  5
22D
100
AcDbEntity
  8
0
100
AcDbLine
 62
2
  6
CONTINUOUS
 10
364.2621984116
 20
478.1922669035
 11
449.9937674843
 21
478.1922669035
  0
LINE
  5
22E
100
AcDbEntity
  8
0
100
AcDbLine
 62
2
  6
CONTINUOUS
 10
449.4937674843
 20
1136.4957669035
 11
449.4937674843
 21
807.3440169035
  0
LINE
  5
22F
100
AcDbEntity
  8
0
100
AcDbLine
 62
2
  6
CONTINUOUS
 10
449.4937674843
 20
478.1922669035
 11
449.4937674843
 21
807.3440169035
  0
INSERT
  5
230
100
AcDbEntity
  8
0
100
AcDbBlockReference
 62
2
  6
CONTINUOUS
  2
_FILLED
 10
449.4937674843
 20
1136.4957669035
 41
3.0
 42
3.0
 43
3.0
 50
90.0
  0
INSERT
  5
231
100
AcDbEntity
  8
0
100
AcDbBlockReference
 62
2
  6
CONTINUOUS
  2
_FILLED
 10
449.4937674843
 20
478.1922669035
 41
3.0
 42
3.0
 43
3.0
 50
270.0
  0
ENDBLK
  5
232
100
AcDbEntity
  8
0
  6
BYBLOCK
 62
0
100
AcDbBlockEnd
  0
ENDSEC
  0
SECTION
  2
ENTITIES
  0
DIMENSION
  5
233
100
AcDbEntity
  8
0
100
AcDbDimension
 62
2
  6
CONTINUOUS
  2
*D0
 10
384.4989937275
 20
1173.2597162108
 11
229.7621984116
 21
1173.2597162108
 70
160
 71
2
 42
309.4735906318
  1
%%c<>
  3
DIMSTYLE_1
100
AcDbAlignedDimension
 13
75.0254030957
 23
1092.3376462995
 14
384.4989937275
 24
1092.3376462995
100
AcDbRotatedDimension
  0
DIMENSION
  5
234
100
AcDbEntity
  8
0
100
AcDbDimension
 62
2
  6
CONTINUOUS
  2
*D1
 10
449.4937674843
 20
478.1922669035
 11
449.4937674843
 21
807.3440169035
 70
160
 71
2
 42
658.3035
  3
DIMSTYLE_2
100
AcDbAlignedDimension
 13
245.8671984116
 23
1136.4957669035
 14
363.7621984116
 24
478.1922669035
 50
270.0
100
AcDbRotatedDimension
  0
LINE
  5
235
100
AcDbEntity
  8
0
100
AcDbLine
 62
7
  6
CONTINUOUS
 10
222.9421984116
 20
110.2114370642
 11
223.5251984116
 21
110.2114370642
  0
LINE
  5
236
100
AcDbEntity
  8
0
100
AcDbLine
 62
7
  6
CONTINUOUS
 10
231.4441984116
 20
110.2114370642
 11
232.1861984116
 21
110.2114370642
  0
LINE
  5
237
100
AcDbEntity
  8
0
100
AcDbLine
 62
7
  6
CONTINUOUS
 10
233.2411984116
 20
110.2114370642
 11
233.6811984116
 21
110.2114370642
  0
LINE
  5
238
100
AcDbEntity
  8
0
100
AcDbLine
 62
7
  6
CONTINUOUS
 10
234.3428727827
 20
110.2114370642
 11
234.8318727827
 21
110.2114370642
  0
LINE
  5
239
100
AcDbEntity
  8
0
100
AcDbLine
 62
7
  6
CONTINUOUS
 10
217.9511984116
 20
110.2314370642
 11
218.3601984116
 21
110.2314370642
  0
LINE
  5
23A
100
AcDbEntity
  8
0
100
AcDbLine
 62
7
  6
CONTINUOUS
 10
218.9374911917
 20
110.2314370642
 11
219.3164911917
 21
110.2314370642
  0
LINE
  5
23B
100
AcDbEntity
  8
0
100
AcDbLine
 62
7
  6
CONTINUOUS
 10
220.584258493
 20
110.2314370642
 11
220.997258493
 21
110.2314370642
  0
LINE
  5
23C
100
AcDbEntity
  8
0
100
AcDbLine
 62
7
  6
CONTINUOUS
 10
219.8941984116
 20
110.2314370642
 11
220.3031984116
 21
110.2314370642
  0
LINE
  5
23D
100
AcDbEntity
  8
0
100
AcDbLine
 62
7
  6
CONTINUOUS
 10
222.2232131703
 20
110.2314370642
 11
222.6662131703
 21
110.2314370642
  0
LINE
  5
23E
100
AcDbEntity
  8
0
100
AcDbLine
 62
7
  6
CONTINUOUS
 10
225.1281984116
 20
110.2314370642
 11
226.3491984116
 21
110.2314370642
  0
LINE
  5
23F
100
AcDbEntity
  8
0
100
AcDbLine
 62
7
  6
CONTINUOUS
 10
227.5941984116
 20
110.2314370642
 11
227.9941984116
 21
110.2314370642
  0
LINE
  5
240
100
AcDbEntity
  8
0
100
AcDbLine
 62
7
  6
CONTINUOUS
 10
229.7621984116
 20
110.2314370642
 11
230.1711984116
 21
110.2314370642
  0
LINE
  5
241
100
AcDbEntity
  8
0
100
AcDbLine
 62
7
  6
CONTINUOUS
 10
228.4341984116
 20
110.2314370642
 11
228.8431984116
 21
110.2314370642
  0
LINE
  5
242
100
AcDbEntity
  8
0
100
AcDbLine
 62
7
  6
CONTINUOUS
 10
234.9182437343
 20
110.2314370642
 11
235.3312437343
 21
110.2314370642
  0
LINE
  5
243
100
AcDbEntity
  8
0
100
AcDbLine
 62
7
  6
CONTINUOUS
 10
236.5571984116
 20
110.2314370642
 11
237.0001984116
 21
110.2314370642
  0
LINE
  5
244
100
AcDbEntity
  8
0
100
AcDbLine
 62
7
  6
CONTINUOUS
 10
237.1611984116
 20
110.2314370642
 11
238.5921984116
 21
110.2314370642
  0
LINE
  5
245
100
AcDbEntity
  8
0
100
AcDbLine
 62
7
  6
CONTINUOUS
 10
239.7981984116
 20
110.2314370642
 11
241.0101984116
 21
110.2314370642
  0
LINE
  5
246
100
AcDbEntity
  8
0
100
AcDbLine
 62
7
  6
CONTINUOUS
 10
238.9281984116
 20
110.2314370642
 11
239.3281984116
 21
110.2314370642
  0
LINE
  5
247
100
AcDbEntity
  8
0
100
AcDbLine
 62
7
  6
CONTINUOUS
 10
241.0101984116
 20
110.5414370642
 11
240.1981984116
 21
110.5414370642
  0
LINE
  5
248
100
AcDbEntity
  8
0
100
AcDbLine
 62
7
  6
CONTINUOUS
 10
238.5921984116
 20
110.5414370642
 11
237.5701984116
 21
110.5414370642
  0
LINE
  5
249
100
AcDbEntity
  8
0
100
AcDbLine
 62
7
  6
CONTINUOUS
 10
226.3491984116
 20
110.5414370642
 11
225.5281984116
 21
110.5414370642
  0
LINE
  5
24A
100
AcDbEntity
  8
0
100
AcDbLine
 62
7
  6
CONTINUOUS
 10
232.0721984116
 20
110.5624370642
 11
231.8841984116
 21
110.5624370642
  0
LINE
  5
24B
100
AcDbEntity
  8
0
100
AcDbLine
 62
7
  6
CONTINUOUS
 10
223.6061984116
 20
110.5624370642
 11
223.3821984116
 21
110.5624370642
  0
LINE
  5
24C
100
AcDbEntity
  8
0
100
AcDbLine
 62
7
  6
CONTINUOUS
 10
221.1801208351
 20
110.7114370642
 11
222.0421208351
 21
110.7114370642
  0
LINE
  5
24D
100
AcDbEntity
  8
0
100
AcDbLine
 62
7
  6
CONTINUOUS
 10
235.5141060764
 20
110.7114370642
 11
236.3761060764
 21
110.7114370642
  0
LINE
  5
24E
100
AcDbEntity
  8
0
100
AcDbLine
 62
7
  6
CONTINUOUS
 10
219.1398587641
 20
110.7184370642
 11
219.1138587641
 21
110.7184370642
  0
LINE
  5
24F
100
AcDbEntity
  8
0
100
AcDbLine
 62
7
  6
CONTINUOUS
 10
229.7621984116
 20
110.7344370642
 11
229.7361984116
 21
110.7344370642
  0
LINE
  5
250
100
AcDbEntity
  8
0
100
AcDbLine
 62
7
  6
CONTINUOUS
 10
236.2693689487
 20
111.0224370642
 11
235.6263689487
 21
111.0224370642
  0
LINE
  5
251
100
AcDbEntity
  8
0
100
AcDbLine
 62
7
  6
CONTINUOUS
 10
221.9351984116
 20
111.0224370642
 11
221.2921984116
 21
111.0224370642
  0
LINE
  5
252
100
AcDbEntity
  8
0
100
AcDbLine
 62
7
  6
CONTINUOUS
 10
233.6811984116
 20
111.0814370642
 11
233.8061984116
 21
111.0814370642
  0
LINE
  5
253
100
AcDbEntity
  8
0
100
AcDbLine
 62
7
  6
CONTINUOUS
 10
225.5281984116
 20
111.1494370642
 11
226.2751984116
 21
111.1494370642
  0
LINE
  5
254
100
AcDbEntity
  8
0
100
AcDbLine
 62
7
  6
CONTINUOUS
 10
231.8841984116
 20
111.1494370642
 11
232.0721984116
 21
111.1494370642
  0
LINE
  5
255
100
AcDbEntity
  8
0
100
AcDbLine
 62
7
  6
CONTINUOUS
 10
233.8091984116
 20
111.4234370642
 11
233.6811984116
 21
111.4234370642
  0
LINE
  5
256
100
AcDbEntity
  8
0
100
AcDbLine
 62
7
  6
CONTINUOUS
 10
226.2751984116
 20
111.4594370642
 11
225.5281984116
 21
111.4594370642
  0
LINE
  5
257
100
AcDbEntity
  8
0
100
AcDbLine
 62
7
  6
CONTINUOUS
 10
232.0451984116
 20
111.5464370642
 11
231.8841984116
 21
111.5464370642
  0
LINE
  5
258
100
AcDbEntity
  8
0
100
AcDbLine
 62
7
  6
CONTINUOUS
 10
228.8431984116
 20
111.8024370642
 11
228.8691984116
 21
111.8024370642
  0
LINE
  5
259
100
AcDbEntity
  8
0
100
AcDbLine
 62
7
  6
CONTINUOUS
 10
221.6008274833
 20
111.9044370642
 11
221.6268274833
 21
111.9044370642
  0
LINE
  5
25A
100
AcDbEntity
  8
0
100
AcDbLine
 62
7
  6
CONTINUOUS
 10
235.9349980204
 20
111.9044370642
 11
235.9609980204
 21
111.9044370642
  0
LINE
  5
25B
100
AcDbEntity
  8
0
100
AcDbLine
 62
7
  6
CONTINUOUS
 10
223.3821984116
 20
111.9554370642
 11
223.6061984116
 21
111.9554370642
  0
LINE
  5
25C
100
AcDbEntity
  8
0
100
AcDbLine
 62
7
  6
CONTINUOUS
 10
231.8841984116
 20
111.9554370642
 11
232.0361984116
 21
111.9554370642
  0
LINE
  5
25D
100
AcDbEntity
  8
0
100
AcDbLine
 62
7
  6
CONTINUOUS
 10
233.6811984116
 20
111.9554370642
 11
233.8091984116
 21
111.9554370642
  0
LINE
  5
25E
100
AcDbEntity
  8
0
100
AcDbLine
 62
7
  6
CONTINUOUS
 10
225.5281984116
 20
111.9954370642
 11
226.3431984116
 21
111.9954370642
  0
LINE
  5
25F
100
AcDbEntity
  8
0
100
AcDbLine
 62
7
  6
CONTINUOUS
 10
237.2001984116
 20
111.9954370642
 11
238.1541984116
 21
111.9954370642
  0
LINE
  5
260
100
AcDbEntity
  8
0
100
AcDbLine
 62
7
  6
CONTINUOUS
 10
240.1981984116
 20
112.3054370642
 11
239.7981984116
 21
112.3054370642
  0
LINE
  5
261
100
AcDbEntity
  8
0
100
AcDbLine
 62
7
  6
CONTINUOUS
 10
239.3281984116
 20
112.3054370642
 11
238.9281984116
 21
112.3054370642
  0
LINE
  5
262
100
AcDbEntity
  8
0
100
AcDbLine
 62
7
  6
CONTINUOUS
 10
238.5721984116
 20
112.3054370642
 11
237.2001984116
 21
112.3054370642
  0
LINE
  5
263
100
AcDbEntity
  8
0
100
AcDbLine
 62
7
  6
CONTINUOUS
 10
236.1861537166
 20
112.3054370642
 11
235.7261537166
 21
112.3054370642
  0
LINE
  5
264
100
AcDbEntity
  8
0
100
AcDbLine
 62
7
  6
CONTINUOUS
 10
230.1711984116
 20
112.3054370642
 11
229.7621984116
 21
112.3054370642
  0
LINE
  5
265
100
AcDbEntity
  8
0
100
AcDbLine
 62
7
  6
CONTINUOUS
 10
228.9401984116
 20
112.3054370642
 11
228.4341984116
 21
112.3054370642
  0
LINE
  5
266
100
AcDbEntity
  8
0
100
AcDbLine
 62
7
  6
CONTINUOUS
 10
227.9941984116
 20
112.3054370642
 11
227.5941984116
 21
112.3054370642
  0
LINE
  5
267
100
AcDbEntity
  8
0
100
AcDbLine
 62
7
  6
CONTINUOUS
 10
226.3431984116
 20
112.3054370642
 11
225.1281984116
 21
112.3054370642
  0
LINE
  5
268
100
AcDbEntity
  8
0
100
AcDbLine
 62
7
  6
CONTINUOUS
 10
221.8521684754
 20
112.3054370642
 11
221.3921684754
 21
112.3054370642
  0
LINE
  5
269
100
AcDbEntity
  8
0
100
AcDbLine
 62
7
  6
CONTINUOUS
 10
220.3031984116
 20
112.3054370642
 11
219.6381984116
 21
112.3054370642
  0
LINE
  5
26A
100
AcDbEntity
  8
0
100
AcDbLine
 62
7
  6
CONTINUOUS
 10
218.6161984116
 20
112.3054370642
 11
217.9511984116
 21
112.3054370642
  0
LINE
  5
26B
100
AcDbEntity
  8
0
100
AcDbLine
 62
7
  6
CONTINUOUS
 10
233.7041984116
 20
112.3244370642
 11
233.2411984116
 21
112.3244370642
  0
LINE
  5
26C
100
AcDbEntity
  8
0
100
AcDbLine
 62
7
  6
CONTINUOUS
 10
232.1861984116
 20
112.3244370642
 11
231.4441984116
 21
112.3244370642
  0
LINE
  5
26D
100
AcDbEntity
  8
0
100
AcDbLine
 62
7
  6
CONTINUOUS
 10
223.5251984116
 20
112.3244370642
 11
222.9421984116
 21
112.3244370642
  0
LINE
  5
26E
100
AcDbEntity
  8
0
100
AcDbLine
 62
7
  6
CONTINUOUS
 10
213.6571984116
 20
113.5514370642
 11
245.8671984116
 21
113.5514370642
  0
LINE
  5
26F
100
AcDbEntity
  8
0
100
AcDbLine
 62
7
  6
CONTINUOUS
 10
244.6362645139
 20
115.3034370642
 11
243.9652645139
 21
115.3034370642
  0
LINE
  5
270
100
AcDbEntity
  8
0
100
AcDbLine
 62
7
  6
CONTINUOUS
 10
242.2011984116
 20
115.3034370642
 11
241.5301984116
 21
115.3034370642
  0
LINE
  5
271
100
AcDbEntity
  8
0
100
AcDbLine
 62
7
  6
CONTINUOUS
 10
241.1791984116
 20
115.3034370642
 11
240.4921984116
 21
115.3034370642
  0
LINE
  5
272
100
AcDbEntity
  8
0
100
AcDbLine
 62
7
  6
CONTINUOUS
 10
239.0871984116
 20
115.3034370642
 11
238.3991984116
 21
115.3034370642
  0
LINE
  5
273
100
AcDbEntity
  8
0
100
AcDbLine
 62
7
  6
CONTINUOUS
 10
237.8741984116
 20
115.3034370642
 11
237.1871984116
 21
115.3034370642
  0
LINE
  5
274
100
AcDbEntity
  8
0
100
AcDbLine
 62
7
  6
CONTINUOUS
 10
236.0091984116
 20
115.3034370642
 11
235.3221984116
 21
115.3034370642
  0
LINE
  5
275
100
AcDbEntity
  8
0
100
AcDbLine
 62
7
  6
CONTINUOUS
 10
234.1451984116
 20
115.3034370642
 11
233.4581984116
 21
115.3034370642
  0
LINE
  5
276
100
AcDbEntity
  8
0
100
AcDbLine
 62
7
  6
CONTINUOUS
 10
232.0531984116
 20
115.3034370642
 11
231.3651984116
 21
115.3034370642
  0
LINE
  5
277
100
AcDbEntity
  8
0
100
AcDbLine
 62
7
  6
CONTINUOUS
 10
227.7741984116
 20
115.3034370642
 11
227.1001984116
 21
115.3034370642
  0
LINE
  5
278
100
AcDbEntity
  8
0
100
AcDbLine
 62
7
  6
CONTINUOUS
 10
226.0792809173
 20
115.3034370642
 11
225.6772809173
 21
115.3034370642
  0
LINE
  5
279
100
AcDbEntity
  8
0
100
AcDbLine
 62
7
  6
CONTINUOUS
 10
224.657150541
 20
115.3034370642
 11
223.983150541
 21
115.3034370642
  0
LINE
  5
27A
100
AcDbEntity
  8
0
100
AcDbLine
 62
7
  6
CONTINUOUS
 10
223.7118998493
 20
115.3034370642
 11
223.0408998493
 21
115.3034370642
  0
LINE
  5
27B
100
AcDbEntity
  8
0
100
AcDbLine
 62
7
  6
CONTINUOUS
 10
221.2761984116
 20
115.3034370642
 11
220.6051984116
 21
115.3034370642
  0
LINE
  5
27C
100
AcDbEntity
  8
0
100
AcDbLine
 62
7
  6
CONTINUOUS
 10
220.3482058588
 20
115.3034370642
 11
219.5722058588
 21
115.3034370642
  0
LINE
  5
27D
100
AcDbEntity
  8
0
100
AcDbLine
 62
7
  6
CONTINUOUS
 10
218.7391984116
 20
115.3034370642
 11
218.0521984116
 21
115.3034370642
  0
LINE
  5
27E
100
AcDbEntity
  8
0
100
AcDbLine
 62
7
  6
CONTINUOUS
 10
216.8751984116
 20
115.3034370642
 11
216.1881984116
 21
115.3034370642
  0
LINE
  5
27F
100
AcDbEntity
  8
0
100
AcDbLine
 62
7
  6
CONTINUOUS
 10
243.7186509891
 20
115.9334370642
 11
242.4486509891
 21
115.9334370642
  0
LINE
  5
280
100
AcDbEntity
  8
0
100
AcDbLine
 62
7
  6
CONTINUOUS
 10
222.7939937351
 20
115.9334370642
 11
221.5239937351
 21
115.9334370642
  0
LINE
  5
281
100
AcDbEntity
  8
0
100
AcDbLine
 62
7
  6
CONTINUOUS
 10
221.7461984116
 20
116.5004370642
 11
222.5701984116
 21
116.5004370642
  0
LINE
  5
282
100
AcDbEntity
  8
0
100
AcDbLine
 62
7
  6
CONTINUOUS
 10
242.6711984116
 20
116.5004370642
 11
243.4951984116
 21
116.5004370642
  0
LINE
  5
283
100
AcDbEntity
  8
0
100
AcDbLine
 62
7
  6
CONTINUOUS
 10
218.7391984116
 20
117.0504370642
 11
219.0051984116
 21
117.0504370642
  0
LINE
  5
284
100
AcDbEntity
  8
0
100
AcDbLine
 62
7
  6
CONTINUOUS
 10
236.7481984116
 20
117.8824370642
 11
236.0091984116
 21
117.8824370642
  0
LINE
  5
285
100
AcDbEntity
  8
0
100
AcDbLine
 62
7
  6
CONTINUOUS
 10
235.3221984116
 20
117.8824370642
 11
234.5831984116
 21
117.8824370642
  0
LINE
  5
286
100
AcDbEntity
  8
0
100
AcDbLine
 62
7
  6
CONTINUOUS
 10
219.0051984116
 20
117.8824370642
 11
218.7391984116
 21
117.8824370642
  0
LINE
  5
287
100
AcDbEntity
  8
0
100
AcDbLine
 62
7
  6
CONTINUOUS
 10
217.6141984116
 20
117.8824370642
 11
216.8751984116
 21
117.8824370642
  0
LINE
  5
288
100
AcDbEntity
  8
0
100
AcDbLine
 62
7
  6
CONTINUOUS
 10
216.1881984116
 20
117.8824370642
 11
215.4491984116
 21
117.8824370642
  0
LINE
  5
289
100
AcDbEntity
  8
0
100
AcDbLine
 62
7
  6
CONTINUOUS
 10
215.4491984116
 20
118.4534370642
 11
217.6141984116
 21
118.4534370642
  0
LINE
  5
28A
100
AcDbEntity
  8
0
100
AcDbLine
 62
7
  6
CONTINUOUS
 10
218.0521984116
 20
118.4534370642
 11
219.2301984116
 21
118.4534370642
  0
LINE
  5
28B
100
AcDbEntity
  8
0
100
AcDbLine
 62
7
  6
CONTINUOUS
 10
221.8480491304
 20
118.4534370642
 11
222.4690491304
 21
118.4534370642
  0
LINE
  5
28C
100
AcDbEntity
  8
0
100
AcDbLine
 62
7
  6
CONTINUOUS
 10
224.4989828232
 20
118.4534370642
 11
225.1869828232
 21
118.4534370642
  0
LINE
  5
28D
100
AcDbEntity
  8
0
100
AcDbLine
 62
7
  6
CONTINUOUS
 10
226.5716483861
 20
118.4534370642
 11
227.2586483861
 21
118.4534370642
  0
LINE
  5
28E
100
AcDbEntity
  8
0
100
AcDbLine
 62
7
  6
CONTINUOUS
 10
231.3651984116
 20
118.4534370642
 11
232.0531984116
 21
118.4534370642
  0
LINE
  5
28F
100
AcDbEntity
  8
0
100
AcDbLine
 62
7
  6
CONTINUOUS
 10
233.4581984116
 20
118.4534370642
 11
234.1451984116
 21
118.4534370642
  0
LINE
  5
290
100
AcDbEntity
  8
0
100
AcDbLine
 62
7
  6
CONTINUOUS
 10
234.5831984116
 20
118.4534370642
 11
236.7481984116
 21
118.4534370642
  0
LINE
  5
291
100
AcDbEntity
  8
0
100
AcDbLine
 62
7
  6
CONTINUOUS
 10
237.1871984116
 20
118.4534370642
 11
237.8741984116
 21
118.4534370642
  0
LINE
  5
292
100
AcDbEntity
  8
0
100
AcDbLine
 62
7
  6
CONTINUOUS
 10
238.3991984116
 20
118.4534370642
 11
239.0871984116
 21
118.4534370642
  0
LINE
  5
293
100
AcDbEntity
  8
0
100
AcDbLine
 62
7
  6
CONTINUOUS
 10
240.4901984116
 20
118.4534370642
 11
241.1791984116
 21
118.4534370642
  0
LINE
  5
294
100
AcDbEntity
  8
0
100
AcDbLine
 62
7
  6
CONTINUOUS
 10
242.7729220592
 20
118.4534370642
 11
243.3939220592
 21
118.4534370642
  0
LINE
  5
295
100
AcDbEntity
  8
0
100
AcDbLine
 62
7
  6
CONTINUOUS
 10
245.8671984116
 20
120.5534370642
 11
213.6571984116
 21
120.5534370642
  0
LINE
  5
296
100
AcDbEntity
  8
0
100
AcDbLine
 62
7
  6
CONTINUOUS
 10
227.0121984116
 20
125.5849278836
 11
232.5121984116
 21
125.5849278836
  0
LINE
  5
297
100
AcDbEntity
  8
0
100
AcDbLine
 62
7
  6
CONTINUOUS
 10
232.9121984116
 20
125.9349278836
 11
226.6121984116
 21
125.9349278836
  0
LINE
  5
298
100
AcDbEntity
  8
0
100
AcDbLine
 62
7
  6
CONTINUOUS
 10
233.2621984116
 20
126.2849278836
 11
226.2621984116
 21
126.2849278836
  0
LWPOLYLINE
  5
299
100
AcDbEntity
  8
0
100
AcDbPolyline
 62
7
  6
CONTINUOUS
 90
37
 70
0
 10
225.2617108264
 20
128.9725476548
 10
225.261402586
 20
128.9726120321
 10
225.2621641002
 20
128.9724413282
 10
225.266474313
 20
128.971425409
 10
225.2743778558
 20
128.9694256444
 10
225.2859560406
 20
128.9662724491
 10
225.3010840758
 20
128.96183187
 10
225.3197285193
 20
128.9559282586
 10
225.3415572076
 20
128.9484696811
 10
225.366321835
 20
128.9393404273
 10
225.3936592001
 20
128.9284731506
 10
225.423083909
 20
128.9158715466
 10
225.4547458036
 20
128.9012725976
 10
225.4885351036
 20
128.8844984057
 10
225.5247717596
 20
128.8651158665
 10
225.5637359174
 20
128.8426198403
 10
225.6052655468
 20
128.8166788899
 10
225.6494823458
 20
128.7867133365
 10
225.6955357299
 20
128.7527570046
 10
225.7428436009
 20
128.7147162984
 10
225.790663033
 20
128.672687283
 10
225.8382220357
 20
128.6269040427
 10
225.8851612988
 20
128.5772942926
 10
225.930992003
 20
128.5239530161
 10
225.9753763522
 20
128.4668444618
 10
226.0179344288
 20
128.4060003097
 10
226.0582882256
 20
128.3414767404
 10
226.0960581535
 20
128.2733633335
 10
226.130871344
 20
128.2017733659
 10
226.1623492334
 20
128.1268766344
 10
226.1901547783
 20
128.0487870032
 10
226.213939647
 20
127.9676686419
 10
226.2333555068
 20
127.8837240688
 10
226.2480597402
 20
127.7971863907
 10
226.2577164447
 20
127.7083318993
 10
226.2620021865
 20
127.6174758808
 10
226.2621984394
 20
127.5934158159
  0
LINE
  5
29A
100
AcDbEntity
  8
0
100
AcDbLine
 62
7
  6
CONTINUOUS
 10
189.5552061785
 20
365.1506793603
 11
188.8168852774
 21
362.8509200785
  0
LINE
  5
29B
100
AcDbEntity
  8
0
100
AcDbLine
 62
7
  6
CONTINUOUS
 10
186.9355980942
 20
355.3488460337
 11
188.4273967004
 21
359.9831104702
  0
LINE
  5
29C
100
AcDbEntity
  8
0
100
AcDbLine
 62
7
  6
CONTINUOUS
 10
219.4039406909
 20
116.6484370642
 11
220.3482058588
 21
115.3034370642
  0
LINE
  5
29D
100
AcDbEntity
  8
0
100
AcDbLine
 62
7
  6
CONTINUOUS
 10
219.5722058588
 20
115.3034370642
 11
218.7391984116
 21
116.4994370642
  0
LINE
  5
29E
100
AcDbEntity
  8
0
100
AcDbLine
 62
7
  6
CONTINUOUS
 10
186.9355980942
 20
126.4300582888
 11
188.4273967004
 21
121.7957938523
  0
LINE
  5
29F
100
AcDbEntity
  8
0
100
AcDbLine
 62
7
  6
CONTINUOUS
 10
189.5552061785
 20
116.6282249623
 11
188.8168852774
 21
118.9279842441
  0
LINE
  5
2A0
100
AcDbEntity
  8
0
100
AcDbLine
 62
7
  6
CONTINUOUS
 10
233.4581984116
 20
115.3034370642
 11
232.0531984116
 21
117.3954370642
  0
LINE
  5
2A1
100
AcDbEntity
  8
0
100
AcDbLine
 62
7
  6
CONTINUOUS
 10
232.0531984116
 20
118.4534370642
 11
233.4581984116
 21
116.3614370642
  0
LINE
  5
2A2
100
AcDbEntity
  8
0
100
AcDbLine
 62
7
  6
CONTINUOUS
 10
240.4921984116
 20
115.3034370642
 11
239.0871984116
 21
117.3954370642
  0
LINE
  5
2A3
100
AcDbEntity
  8
0
100
AcDbLine
 62
7
  6
CONTINUOUS
 10
239.0871984116
 20
118.4534370642
 11
240.4901984116
 21
116.3614370642
  0
LINE
  5
2A4
100
AcDbEntity
  8
0
100
AcDbLine
 62
7
  6
CONTINUOUS
 10
228.8691984116
 20
111.8024370642
 11
229.7621984116
 21
110.2314370642
  0
LINE
  5
2A5
100
AcDbEntity
  8
0
100
AcDbLine
 62
7
  6
CONTINUOUS
 10
229.7361984116
 20
110.7344370642
 11
228.9401984116
 21
112.3054370642
  0
LINE
  5
2A6
100
AcDbEntity
  8
0
100
AcDbLine
 62
7
  6
CONTINUOUS
 10
183.8250563375
 20
115.5989214158
 11
183.7354610813
 21
117.5966086647
  0
LINE
  5
2A7
100
AcDbEntity
  8
0
100
AcDbLine
 62
7
  6
CONTINUOUS
 10
183.8250563375
 20
366.1799829067
 11
183.7354610813
 21
364.1822956579
  0
LINE
  5
2A8
100
AcDbEntity
  8
0
100
AcDbLine
 62
7
  6
CONTINUOUS
 10
234.8318727827
 20
110.2114370642
 11
234.4902685525
 21
111.0444370642
  0
LINE
  5
2A9
100
AcDbEntity
  8
0
100
AcDbLine
 62
7
  6
CONTINUOUS
 10
222.4690491304
 20
118.4534370642
 11
223.7118998493
 21
115.3034370642
  0
LINE
  5
2AA
100
AcDbEntity
  8
0
100
AcDbLine
 62
7
  6
CONTINUOUS
 10
222.5701984116
 20
116.5004370642
 11
222.1579975817
 21
117.5499304478
  0
LINE
  5
2AB
100
AcDbEntity
  8
0
100
AcDbLine
 62
7
  6
CONTINUOUS
 10
222.6662131703
 20
110.2314370642
 11
221.8521684754
 21
112.3054370642
  0
LINE
  5
2AC
100
AcDbEntity
  8
0
100
AcDbLine
 62
7
  6
CONTINUOUS
 10
223.0408998493
 20
115.3034370642
 11
222.7939937351
 21
115.9334370642
  0
LINE
  5
2AD
100
AcDbEntity
  8
0
100
AcDbLine
 62
7
  6
CONTINUOUS
 10
234.0881984116
 20
110.8724370642
 11
234.3428727827
 21
110.2114370642
  0
LINE
  5
2AE
100
AcDbEntity
  8
0
100
AcDbLine
 62
7
  6
CONTINUOUS
 10
222.0421208351
 20
110.7114370642
 11
222.2232131703
 21
110.2314370642
  0
LINE
  5
2AF
100
AcDbEntity
  8
0
100
AcDbLine
 62
7
  6
CONTINUOUS
 10
221.6268274833
 20
111.9044370642
 11
221.9351984116
 21
111.0224370642
  0
LINE
  5
2B0
100
AcDbEntity
  8
0
100
AcDbLine
 62
7
  6
CONTINUOUS
 10
225.6772809173
 20
115.3034370642
 11
224.9883953056
 21
117.3369087881
  0
LINE
  5
2B1
100
AcDbEntity
  8
0
100
AcDbLine
 62
7
  6
CONTINUOUS
 10
225.1869828232
 20
118.4534370642
 11
225.8788972357
 21
116.4044370642
  0
LINE
  5
2B2
100
AcDbEntity
  8
0
100
AcDbLine
 62
7
  6
CONTINUOUS
 10
218.3601984116
 20
112.0034370642
 11
218.9374911917
 21
110.2314370642
  0
LINE
  5
2B3
100
AcDbEntity
  8
0
100
AcDbLine
 62
7
  6
CONTINUOUS
 10
219.1138587641
 20
110.7184370642
 11
218.6161984116
 21
112.3054370642
  0
LINE
  5
2B4
100
AcDbEntity
  8
0
100
AcDbLine
 62
7
  6
CONTINUOUS
 10
243.3939220592
 20
118.4534370642
 11
244.6362645139
 21
115.3034370642
  0
LINE
  5
2B5
100
AcDbEntity
  8
0
100
AcDbLine
 62
7
  6
CONTINUOUS
 10
237.0001984116
 20
110.2314370642
 11
236.1861537166
 21
112.3054370642
  0
LINE
  5
2B6
100
AcDbEntity
  8
0
100
AcDbLine
 62
7
  6
CONTINUOUS
 10
243.4951984116
 20
116.5004370642
 11
243.083293513
 21
117.5494998252
  0
LINE
  5
2B7
100
AcDbEntity
  8
0
100
AcDbLine
 62
7
  6
CONTINUOUS
 10
243.9652645139
 20
115.3034370642
 11
243.7186509891
 21
115.9334370642
  0
LINE
  5
2B8
100
AcDbEntity
  8
0
100
AcDbLine
 62
7
  6
CONTINUOUS
 10
236.3761060764
 20
110.7114370642
 11
236.5571984116
 21
110.2314370642
  0
LINE
  5
2B9
100
AcDbEntity
  8
0
100
AcDbLine
 62
7
  6
CONTINUOUS
 10
235.9609980204
 20
111.9044370642
 11
236.2693689487
 21
111.0224370642
  0
LINE
  5
2BA
100
AcDbEntity
  8
0
100
AcDbLine
 62
7
  6
CONTINUOUS
 10
198.9124523722
 20
330.7133368222
 11
198.5510291247
 21
334.7296441917
  0
LINE
  5
2BB
100
AcDbEntity
  8
0
100
AcDbLine
 62
7
  6
CONTINUOUS
 10
201.7212399067
 20
330.9012693434
 11
201.4864751993
 21
334.9468393579
  0
LINE
  5
2BC
100
AcDbEntity
  8
0
100
AcDbLine
 62
7
  6
CONTINUOUS
 10
212.2561984116
 20
119.1524370642
 11
212.2561984116
 21
114.9514370642
  0
LINE
  5
2BD
100
AcDbEntity
  8
0
100
AcDbLine
 62
7
  6
CONTINUOUS
 10
215.4491984116
 20
117.8824370642
 11
215.4491984116
 21
118.4534370642
  0
LINE
  5
2BE
100
AcDbEntity
  8
0
100
AcDbLine
 62
7
  6
CONTINUOUS
 10
216.1881984116
 20
115.3034370642
 11
216.1881984116
 21
117.8824370642
  0
LINE
  5
2BF
100
AcDbEntity
  8
0
100
AcDbLine
 62
7
  6
CONTINUOUS
 10
216.8751984116
 20
117.8824370642
 11
216.8751984116
 21
115.3034370642
  0
LINE
  5
2C0
100
AcDbEntity
  8
0
100
AcDbLine
 62
7
  6
CONTINUOUS
 10
201.7236890495
 20
150.8776315693
 11
201.4889679688
 21
146.8313758329
  0
LINE
  5
2C1
100
AcDbEntity
  8
0
100
AcDbLine
 62
7
  6
CONTINUOUS
 10
197.7429630595
 20
151.1705054157
 11
197.3290871536
 21
147.1668680291
  0
LINE
  5
2C2
100
AcDbEntity
  8
0
100
AcDbLine
 62
7
  6
CONTINUOUS
 10
227.2586483861
 20
118.4534370642
 11
227.7741984116
 21
115.3034370642
  0
LINE
  5
2C3
100
AcDbEntity
  8
0
100
AcDbLine
 62
7
  6
CONTINUOUS
 10
227.1001984116
 20
115.3034370642
 11
226.7684715987
 21
117.3414370642
  0
LINE
  5
2C4
100
AcDbEntity
  8
0
100
AcDbLine
 62
7
  6
CONTINUOUS
 10
217.6141984116
 20
118.4534370642
 11
217.6141984116
 21
117.8824370642
  0
LINE
  5
2C5
100
AcDbEntity
  8
0
100
AcDbLine
 62
7
  6
CONTINUOUS
 10
217.9511984116
 20
112.3054370642
 11
217.9511984116
 21
110.2314370642
  0
LINE
  5
2C6
100
AcDbEntity
  8
0
100
AcDbLine
 62
7
  6
CONTINUOUS
 10
218.0521984116
 20
115.3034370642
 11
218.0521984116
 21
118.4534370642
  0
LINE
  5
2C7
100
AcDbEntity
  8
0
100
AcDbLine
 62
7
  6
CONTINUOUS
 10
218.3601984116
 20
110.2314370642
 11
218.3601984116
 21
112.0034370642
  0
LINE
  5
2C8
100
AcDbEntity
  8
0
100
AcDbLine
 62
7
  6
CONTINUOUS
 10
218.7391984116
 20
117.8824370642
 11
218.7391984116
 21
117.0504370642
  0
LINE
  5
2C9
100
AcDbEntity
  8
0
100
AcDbLine
 62
7
  6
CONTINUOUS
 10
218.7391984116
 20
116.4994370642
 11
218.7391984116
 21
115.3034370642
  0
LINE
  5
2CA
100
AcDbEntity
  8
0
100
AcDbLine
 62
7
  6
CONTINUOUS
 10
219.8941984116
 20
112.0094370642
 11
219.8941984116
 21
110.2314370642
  0
LINE
  5
2CB
100
AcDbEntity
  8
0
100
AcDbLine
 62
7
  6
CONTINUOUS
 10
220.3031984116
 20
110.2314370642
 11
220.3031984116
 21
112.3054370642
  0
LINE
  5
2CC
100
AcDbEntity
  8
0
100
AcDbLine
 62
7
  6
CONTINUOUS
 10
222.9421984116
 20
112.3244370642
 11
222.9421984116
 21
110.2114370642
  0
LINE
  5
2CD
100
AcDbEntity
  8
0
100
AcDbLine
 62
7
  6
CONTINUOUS
 10
223.3821984116
 20
110.5624370642
 11
223.3821984116
 21
111.9554370642
  0
LINE
  5
2CE
100
AcDbEntity
  8
0
100
AcDbLine
 62
7
  6
CONTINUOUS
 10
225.1281984116
 20
112.3054370642
 11
225.1281984116
 21
110.2314370642
  0
LINE
  5
2CF
100
AcDbEntity
  8
0
100
AcDbLine
 62
7
  6
CONTINUOUS
 10
225.5281984116
 20
110.5414370642
 11
225.5281984116
 21
111.1494370642
  0
LINE
  5
2D0
100
AcDbEntity
  8
0
100
AcDbLine
 62
7
  6
CONTINUOUS
 10
225.5281984116
 20
111.4594370642
 11
225.5281984116
 21
111.9954370642
  0
LINE
  5
2D1
100
AcDbEntity
  8
0
100
AcDbLine
 62
7
  6
CONTINUOUS
 10
226.2621984116
 20
355.4939764389
 11
226.2621984116
 21
354.1854855662
  0
LINE
  5
2D2
100
AcDbEntity
  8
0
100
AcDbLine
 62
7
  6
CONTINUOUS
 10
226.2621984116
 20
127.5934187625
 11
226.2621984116
 21
126.2849278836
  0
LINE
  5
2D3
100
AcDbEntity
  8
0
100
AcDbLine
 62
7
  6
CONTINUOUS
 10
226.2751984116
 20
111.1494370642
 11
226.2751984116
 21
111.4594370642
  0
LINE
  5
2D4
100
AcDbEntity
  8
0
100
AcDbLine
 62
7
  6
CONTINUOUS
 10
226.3431984116
 20
111.9954370642
 11
226.3431984116
 21
112.3054370642
  0
LINE
  5
2D5
100
AcDbEntity
  8
0
100
AcDbLine
 62
7
  6
CONTINUOUS
 10
226.3491984116
 20
110.2314370642
 11
226.3491984116
 21
110.5414370642
  0
LINE
  5
2D6
100
AcDbEntity
  8
0
100
AcDbLine
 62
7
  6
CONTINUOUS
 10
227.0121984116
 20
356.7641017044
 11
227.0121984116
 21
356.1939764389
  0
LINE
  5
2D7
100
AcDbEntity
  8
0
100
AcDbLine
 62
7
  6
CONTINUOUS
 10
227.0121984116
 20
125.5849278836
 11
227.0121984116
 21
125.0148026179
  0
LINE
  5
2D8
100
AcDbEntity
  8
0
100
AcDbLine
 62
7
  6
CONTINUOUS
 10
227.5941984116
 20
112.3054370642
 11
227.5941984116
 21
110.2314370642
  0
LINE
  5
2D9
100
AcDbEntity
  8
0
100
AcDbLine
 62
7
  6
CONTINUOUS
 10
227.9941984116
 20
110.2314370642
 11
227.9941984116
 21
112.3054370642
  0
LINE
  5
2DA
100
AcDbEntity
  8
0
100
AcDbLine
 62
7
  6
CONTINUOUS
 10
228.4341984116
 20
112.3054370642
 11
228.4341984116
 21
110.2314370642
  0
LINE
  5
2DB
100
AcDbEntity
  8
0
100
AcDbLine
 62
7
  6
CONTINUOUS
 10
228.8431984116
 20
110.2314370642
 11
228.8431984116
 21
111.8024370642
  0
LINE
  5
2DC
100
AcDbEntity
  8
0
100
AcDbLine
 62
7
  6
CONTINUOUS
 10
229.7621984116
 20
112.3054370642
 11
229.7621984116
 21
110.7344370642
  0
LINE
  5
2DD
100
AcDbEntity
  8
0
100
AcDbLine
 62
7
  6
CONTINUOUS
 10
230.1711984116
 20
110.2314370642
 11
230.1711984116
 21
112.3054370642
  0
LINE
  5
2DE
100
AcDbEntity
  8
0
100
AcDbLine
 62
7
  6
CONTINUOUS
 10
231.3651984116
 20
115.3034370642
 11
231.3651984116
 21
118.4534370642
  0
LINE
  5
2DF
100
AcDbEntity
  8
0
100
AcDbLine
 62
7
  6
CONTINUOUS
 10
231.4441984116
 20
112.3244370642
 11
231.4441984116
 21
110.2114370642
  0
LWPOLYLINE
  5
2E0
100
AcDbEntity
  8
0
100
AcDbPolyline
 62
7
  6
CONTINUOUS
 90
37
 70
0
 10
226.2621984394
 20
354.1854885942
 10
226.2620085962
 20
354.1618246649
 10
226.2577824814
 20
354.0714208954
 10
226.2482484743
 20
353.9830760226
 10
226.2337351416
 20
353.8970782222
 10
226.2145795029
 20
353.8136835908
 10
226.1911214821
 20
353.7331058401
 10
226.16370329
 20
353.6555294966
 10
226.1326632334
 20
353.5811004883
 10
226.0983256024
 20
353.5099170783
 10
226.0610524647
 20
353.442134353
 10
226.0211974472
 20
353.3778531101
 10
225.9791206228
 20
353.3171559884
 10
225.9351784765
 20
353.2600938041
 10
225.889729572
 20
353.2066969847
 10
225.8431037098
 20
353.1569445918
 10
225.7957255835
 20
353.1108933197
 10
225.7479091796
 20
353.0684634787
 10
225.7003393148
 20
353.0298592377
 10
225.6536476335
 20
352.9951439133
 10
225.6084340281
 20
352.9642905817
 10
225.565387482
 20
352.937276829
 10
225.5248706032
 20
352.913843331
 10
225.4874698215
 20
352.8938580811
 10
225.4530378037
 20
352.8768166636
 10
225.4215827042
 20
352.8623673264
 10
225.3929896082
 20
352.8501552697
 10
225.3670993994
 20
352.8398616681
 10
225.3439304053
 20
352.8312793269
 10
225.323388717
 20
352.8241867739
 10
225.3056332945
 20
352.8184710483
 10
225.2907512189
 20
352.8140028272
 10
225.278842358
 20
352.8106664236
 10
225.2700177862
 20
352.8083573955
 10
225.2642448153
 20
352.8069445713
 10
225.2615254615
 20
352.8063200988
 10
225.2613116829
 20
352.8062732041
  0
LINE
  5
2E1
100
AcDbEntity
  8
0
100
AcDbLine
 62
7
  6
CONTINUOUS
 10
286.1274910744
 20
365.0376781559
 11
284.7655353342
 21
362.0378819864
  0
LINE
  5
2E2
100
AcDbEntity
  8
0
100
AcDbLine
 62
7
  6
CONTINUOUS
 10
173.3969057488
 20
116.7412261667
 11
174.758861489
 21
119.7410223362
  0
LINE
  5
2E3
100
AcDbEntity
  8
0
100
AcDbLine
 62
7
  6
CONTINUOUS
 10
175.7204931711
 20
122.5394836683
 11
177.7427090595
 21
126.9680853494
  0
LINE
  5
2E4
100
AcDbEntity
  8
0
100
AcDbLine
 62
7
  6
CONTINUOUS
 10
281.7816877637
 20
354.8108189732
 11
283.8039036521
 21
359.2394206543
  0
LINE
  5
2E5
100
AcDbEntity
  8
0
100
AcDbLine
 62
7
  6
CONTINUOUS
 10
341.3224379421
 20
249.9154602236
 11
344.8636482678
 21
250.2045193578
  0
LINE
  5
2E6
100
AcDbEntity
  8
0
100
AcDbLine
 62
7
  6
CONTINUOUS
 10
118.2019588811
 20
231.8634440989
 11
114.6607485551
 21
231.5743849688
  0
LINE
  5
2E7
100
AcDbEntity
  8
0
100
AcDbLine
 62
7
  6
CONTINUOUS
 10
341.4121979521
 20
248.7389230398
 11
344.9562641703
 21
248.9903021245
  0
LINE
  5
2E8
100
AcDbEntity
  8
0
100
AcDbLine
 62
7
  6
CONTINUOUS
 10
118.1121988711
 20
233.0399812827
 11
114.5681326529
 21
232.788602199
  0
LINE
  5
2E9
100
AcDbEntity
  8
0
100
AcDbLine
 62
7
  6
CONTINUOUS
 10
227.2703381258
 20
241.0910267535
 11
118.2018345078
 21
249.9139287718
  0
LINE
  5
2EA
100
AcDbEntity
  8
0
100
AcDbLine
 62
7
  6
CONTINUOUS
 10
232.2540586974
 20
240.687877569
 11
341.3225623154
 21
231.8649755507
  0
LINE
  5
2EB
100
AcDbEntity
  8
0
100
AcDbLine
 62
7
  6
CONTINUOUS
 10
118.2018345252
 20
249.9139287704
 11
114.6606180114
 21
250.2029384428
  0
LINE
  5
2EC
100
AcDbEntity
  8
0
100
AcDbLine
 62
7
  6
CONTINUOUS
 10
341.322562298
 20
231.8649755521
 11
344.8637788124
 21
231.575965886
  0
LINE
  5
2ED
100
AcDbEntity
  8
0
100
AcDbLine
 62
7
  6
CONTINUOUS
 10
281.7816877637
 20
126.9680853494
 11
283.8039036521
 21
122.5394836683
  0
LINE
  5
2EE
100
AcDbEntity
  8
0
100
AcDbLine
 62
7
  6
CONTINUOUS
 10
177.7427090595
 20
354.8108189732
 11
175.7204931711
 21
359.2394206543
  0
LINE
  5
2EF
100
AcDbEntity
  8
0
100
AcDbLine
 62
7
  6
CONTINUOUS
 10
286.1274910744
 20
116.7412261667
 11
284.7655353342
 21
119.7410223362
  0
LINE
  5
2F0
100
AcDbEntity
  8
0
100
AcDbLine
 62
7
  6
CONTINUOUS
 10
173.3969057488
 20
365.0376781559
 11
174.758861489
 21
362.0378819864
  0
LINE
  5
2F1
100
AcDbEntity
  8
0
100
AcDbLine
 62
7
  6
CONTINUOUS
 10
231.8841984116
 20
111.5464370642
 11
231.8841984116
 21
111.9554370642
  0
LINE
  5
2F2
100
AcDbEntity
  8
0
100
AcDbLine
 62
7
  6
CONTINUOUS
 10
231.8841984116
 20
110.5624370642
 11
231.8841984116
 21
111.1494370642
  0
LINE
  5
2F3
100
AcDbEntity
  8
0
100
AcDbLine
 62
7
  6
CONTINUOUS
 10
232.0531984116
 20
117.3954370642
 11
232.0531984116
 21
115.3034370642
  0
LINE
  5
2F4
100
AcDbEntity
  8
0
100
AcDbLine
 62
7
  6
CONTINUOUS
 10
232.5121984116
 20
356.7641016891
 11
232.5121984116
 21
356.1939764389
  0
LINE
  5
2F5
100
AcDbEntity
  8
0
100
AcDbLine
 62
7
  6
CONTINUOUS
 10
232.5121984116
 20
125.5849278836
 11
232.5121984116
 21
125.0148026332
  0
LINE
  5
2F6
100
AcDbEntity
  8
0
100
AcDbLine
 62
7
  6
CONTINUOUS
 10
233.2411984116
 20
112.3244370642
 11
233.2411984116
 21
110.2114370642
  0
LINE
  5
2F7
100
AcDbEntity
  8
0
100
AcDbLine
 62
7
  6
CONTINUOUS
 10
233.2621984116
 20
355.4939764389
 11
233.2621984116
 21
354.1854849335
  0
LINE
  5
2F8
100
AcDbEntity
  8
0
100
AcDbLine
 62
7
  6
CONTINUOUS
 10
233.2621984116
 20
127.5934193955
 11
233.2621984116
 21
126.2849278836
  0
LINE
  5
2F9
100
AcDbEntity
  8
0
100
AcDbLine
 62
7
  6
CONTINUOUS
 10
233.4581984116
 20
116.3614370642
 11
233.4581984116
 21
118.4534370642
  0
LINE
  5
2FA
100
AcDbEntity
  8
0
100
AcDbLine
 62
7
  6
CONTINUOUS
 10
233.6811984116
 20
111.4234370642
 11
233.6811984116
 21
111.9554370642
  0
LINE
  5
2FB
100
AcDbEntity
  8
0
100
AcDbLine
 62
7
  6
CONTINUOUS
 10
233.6811984116
 20
110.2114370642
 11
233.6811984116
 21
111.0814370642
  0
LINE
  5
2FC
100
AcDbEntity
  8
0
100
AcDbLine
 62
7
  6
CONTINUOUS
 10
234.1451984116
 20
118.4534370642
 11
234.1451984116
 21
115.3034370642
  0
LINE
  5
2FD
100
AcDbEntity
  8
0
100
AcDbLine
 62
7
  6
CONTINUOUS
 10
234.5831984116
 20
117.8824370642
 11
234.5831984116
 21
118.4534370642
  0
LINE
  5
2FE
100
AcDbEntity
  8
0
100
AcDbLine
 62
7
  6
CONTINUOUS
 10
235.3221984116
 20
115.3034370642
 11
235.3221984116
 21
117.8824370642
  0
LINE
  5
2FF
100
AcDbEntity
  8
0
100
AcDbLine
 62
7
  6
CONTINUOUS
 10
236.0091984116
 20
117.8824370642
 11
236.0091984116
 21
115.3034370642
  0
LINE
  5
300
100
AcDbEntity
  8
0
100
AcDbLine
 62
7
  6
CONTINUOUS
 10
236.7481984116
 20
118.4534370642
 11
236.7481984116
 21
117.8824370642
  0
LINE
  5
301
100
AcDbEntity
  8
0
100
AcDbLine
 62
7
  6
CONTINUOUS
 10
237.1611984116
 20
110.5604370642
 11
237.1611984116
 21
110.2314370642
  0
LINE
  5
302
100
AcDbEntity
  8
0
100
AcDbLine
 62
7
  6
CONTINUOUS
 10
237.1871984116
 20
115.3034370642
 11
237.1871984116
 21
118.4534370642
  0
LINE
  5
303
100
AcDbEntity
  8
0
100
AcDbLine
 62
7
  6
CONTINUOUS
 10
237.2001984116
 20
112.3054370642
 11
237.2001984116
 21
111.9954370642
  0
LINE
  5
304
100
AcDbEntity
  8
0
100
AcDbLine
 62
7
  6
CONTINUOUS
 10
237.8741984116
 20
118.4534370642
 11
237.8741984116
 21
115.3034370642
  0
LINE
  5
305
100
AcDbEntity
  8
0
100
AcDbLine
 62
7
  6
CONTINUOUS
 10
238.3991984116
 20
115.3034370642
 11
238.3991984116
 21
118.4534370642
  0
LINE
  5
306
100
AcDbEntity
  8
0
100
AcDbLine
 62
7
  6
CONTINUOUS
 10
238.5721984116
 20
111.9764370642
 11
238.5721984116
 21
112.3054370642
  0
LINE
  5
307
100
AcDbEntity
  8
0
100
AcDbLine
 62
7
  6
CONTINUOUS
 10
238.5921984116
 20
110.2314370642
 11
238.5921984116
 21
110.5414370642
  0
LINE
  5
308
100
AcDbEntity
  8
0
100
AcDbLine
 62
7
  6
CONTINUOUS
 10
238.9281984116
 20
112.3054370642
 11
238.9281984116
 21
110.2314370642
  0
LINE
  5
309
100
AcDbEntity
  8
0
100
AcDbLine
 62
7
  6
CONTINUOUS
 10
239.0871984116
 20
117.3954370642
 11
239.0871984116
 21
115.3034370642
  0
LINE
  5
30A
100
AcDbEntity
  8
0
100
AcDbLine
 62
7
  6
CONTINUOUS
 10
239.3281984116
 20
110.2314370642
 11
239.3281984116
 21
112.3054370642
  0
LINE
  5
30B
100
AcDbEntity
  8
0
100
AcDbLine
 62
7
  6
CONTINUOUS
 10
239.7981984116
 20
112.3054370642
 11
239.7981984116
 21
110.2314370642
  0
LINE
  5
30C
100
AcDbEntity
  8
0
100
AcDbLine
 62
7
  6
CONTINUOUS
 10
240.1981984116
 20
110.5414370642
 11
240.1981984116
 21
112.3054370642
  0
LINE
  5
30D
100
AcDbEntity
  8
0
100
AcDbLine
 62
7
  6
CONTINUOUS
 10
240.4901984116
 20
116.3614370642
 11
240.4901984116
 21
118.4534370642
  0
LINE
  5
30E
100
AcDbEntity
  8
0
100
AcDbLine
 62
7
  6
CONTINUOUS
 10
241.0101984116
 20
110.2314370642
 11
241.0101984116
 21
110.5414370642
  0
LINE
  5
30F
100
AcDbEntity
  8
0
100
AcDbLine
 62
7
  6
CONTINUOUS
 10
241.1791984116
 20
118.4534370642
 11
241.1791984116
 21
115.3034370642
  0
LWPOLYLINE
  5
310
100
AcDbEntity
  8
0
100
AcDbPolyline
 62
7
  6
CONTINUOUS
 90
37
 70
0
 10
233.2621983987
 20
127.5934184141
 10
233.2623882483
 20
127.6170812453
 10
233.2666143583
 20
127.7074845936
 10
233.276148232
 20
127.7958283563
 10
233.2906612892
 20
127.8818249104
 10
233.3098166295
 20
127.9652187236
 10
233.3332743228
 20
128.045795834
 10
233.3606921599
 20
128.1233716463
 10
233.3917318589
 20
128.1978002545
 10
233.4260691376
 20
128.2689833738
 10
233.4633419759
 20
128.3367659725
 10
233.5031967982
 20
128.4010472882
 10
233.5452735695
 20
128.461744682
 10
233.5892158545
 20
128.5188073475
 10
233.6346651151
 20
128.5722048302
 10
233.6812915896
 20
128.6219580588
 10
233.7286705695
 20
128.6680102749
 10
233.7764883517
 20
128.7104413712
 10
233.8240591904
 20
128.7490463651
 10
233.870750006
 20
128.783761012
 10
233.9159622093
 20
128.8146133968
 10
233.9590078621
 20
128.8416266366
 10
233.9995241985
 20
128.8650598884
 10
234.0369251022
 20
128.8850452724
 10
234.0713575408
 20
128.902086956
 10
234.1028131899
 20
128.9165365892
 10
234.131406459
 20
128.9287487532
 10
234.1572952033
 20
128.9390418184
 10
234.1804629645
 20
128.9476237633
 10
234.2010061086
 20
128.9547168569
 10
234.2187638192
 20
128.9604333284
 10
234.2336477906
 20
128.9649021068
 10
234.2455575205
 20
128.9682387354
 10
234.2543799076
 20
128.9705471915
 10
234.2601503351
 20
128.9719594079
 10
234.2628692907
 20
128.9725837597
 10
234.2630831887
 20
128.9726306648
  0
LINE
  5
311
100
AcDbEntity
  8
0
100
AcDbLine
 62
7
  6
CONTINUOUS
 10
224.9883953056
 20
117.3369087881
 11
224.657150541
 21
115.3034370642
  0
LINE
  5
312
100
AcDbEntity
  8
0
100
AcDbLine
 62
7
  6
CONTINUOUS
 10
223.983150541
 20
115.3034370642
 11
224.4989828232
 21
118.4534370642
  0
LINE
  5
313
100
AcDbEntity
  8
0
100
AcDbLine
 62
7
  6
CONTINUOUS
 10
260.611944682
 20
151.0655668352
 11
260.9733730013
 21
147.0492606081
  0
LINE
  5
314
100
AcDbEntity
  8
0
100
AcDbLine
 62
7
  6
CONTINUOUS
 10
257.803157098
 20
150.877634403
 11
258.0379261662
 21
146.8320652282
  0
LINE
  5
315
100
AcDbEntity
  8
0
100
AcDbLine
 62
7
  6
CONTINUOUS
 10
247.2661984116
 20
114.9524370642
 11
247.2661984116
 21
119.1534370642
  0
LINE
  5
316
100
AcDbEntity
  8
0
100
AcDbLine
 62
7
  6
CONTINUOUS
 10
257.8007075925
 20
330.9012721808
 11
258.0354243615
 21
334.9475287503
  0
LINE
  5
317
100
AcDbEntity
  8
0
100
AcDbLine
 62
7
  6
CONTINUOUS
 10
261.7814335334
 20
330.6083982709
 11
262.1953046005
 21
334.6120368175
  0
LINE
  5
318
100
AcDbEntity
  8
0
100
AcDbLine
 62
7
  6
CONTINUOUS
 10
219.6381984116
 20
112.3054370642
 11
219.1398587641
 21
110.7184370642
  0
LINE
  5
319
100
AcDbEntity
  8
0
100
AcDbLine
 62
7
  6
CONTINUOUS
 10
219.3164911917
 20
110.2314370642
 11
219.8941984116
 21
112.0094370642
  0
LINE
  5
31A
100
AcDbEntity
  8
0
100
AcDbLine
 62
7
  6
CONTINUOUS
 10
225.8788972357
 20
116.4044370642
 11
226.5716483861
 21
118.4534370642
  0
LINE
  5
31B
100
AcDbEntity
  8
0
100
AcDbLine
 62
7
  6
CONTINUOUS
 10
226.7684715987
 20
117.3414370642
 11
226.0792809173
 21
115.3034370642
  0
LINE
  5
31C
100
AcDbEntity
  8
0
100
AcDbLine
 62
7
  6
CONTINUOUS
 10
221.2921984116
 20
111.0224370642
 11
221.6008274833
 21
111.9044370642
  0
LINE
  5
31D
100
AcDbEntity
  8
0
100
AcDbLine
 62
7
  6
CONTINUOUS
 10
220.997258493
 20
110.2314370642
 11
221.1801208351
 21
110.7114370642
  0
LINE
  5
31E
100
AcDbEntity
  8
0
100
AcDbLine
 62
7
  6
CONTINUOUS
 10
221.3921684754
 20
112.3054370642
 11
220.584258493
 21
110.2314370642
  0
LINE
  5
31F
100
AcDbEntity
  8
0
100
AcDbLine
 62
7
  6
CONTINUOUS
 10
222.1579975817
 20
117.5499304478
 11
221.7461984116
 21
116.5004370642
  0
LINE
  5
320
100
AcDbEntity
  8
0
100
AcDbLine
 62
7
  6
CONTINUOUS
 10
221.5239937351
 20
115.9334370642
 11
221.2761984116
 21
115.3034370642
  0
LINE
  5
321
100
AcDbEntity
  8
0
100
AcDbLine
 62
7
  6
CONTINUOUS
 10
220.6051984116
 20
115.3034370642
 11
221.8480491304
 21
118.4534370642
  0
LINE
  5
322
100
AcDbEntity
  8
0
100
AcDbLine
 62
7
  6
CONTINUOUS
 10
275.6993404858
 20
366.1799829067
 11
275.7889357419
 21
364.1822956579
  0
LINE
  5
323
100
AcDbEntity
  8
0
100
AcDbLine
 62
7
  6
CONTINUOUS
 10
275.6993404858
 20
115.5989214158
 11
275.7889357419
 21
117.5966086647
  0
LINE
  5
324
100
AcDbEntity
  8
0
100
AcDbLine
 62
7
  6
CONTINUOUS
 10
235.6263689487
 20
111.0224370642
 11
235.9349980204
 21
111.9044370642
  0
LINE
  5
325
100
AcDbEntity
  8
0
100
AcDbLine
 62
7
  6
CONTINUOUS
 10
235.3312437343
 20
110.2314370642
 11
235.5141060764
 21
110.7114370642
  0
LINE
  5
326
100
AcDbEntity
  8
0
100
AcDbLine
 62
7
  6
CONTINUOUS
 10
235.7261537166
 20
112.3054370642
 11
234.9182437343
 21
110.2314370642
  0
LINE
  5
327
100
AcDbEntity
  8
0
100
AcDbLine
 62
7
  6
CONTINUOUS
 10
242.4486509891
 20
115.9334370642
 11
242.2011984116
 21
115.3034370642
  0
LINE
  5
328
100
AcDbEntity
  8
0
100
AcDbLine
 62
7
  6
CONTINUOUS
 10
243.083293513
 20
117.5494998252
 11
242.6711984116
 21
116.5004370642
  0
LINE
  5
329
100
AcDbEntity
  8
0
100
AcDbLine
 62
7
  6
CONTINUOUS
 10
241.5301984116
 20
115.3034370642
 11
242.7729220592
 21
118.4534370642
  0
LINE
  5
32A
100
AcDbEntity
  8
0
100
AcDbLine
 62
7
  6
CONTINUOUS
 10
269.9691906447
 20
116.6282249623
 11
270.7075115458
 21
118.9279842441
  0
LINE
  5
32B
100
AcDbEntity
  8
0
100
AcDbLine
 62
7
  6
CONTINUOUS
 10
271.0970001228
 20
121.7957938523
 11
272.588798729
 21
126.4300582888
  0
LINE
  5
32C
100
AcDbEntity
  8
0
100
AcDbLine
 62
7
  6
CONTINUOUS
 10
238.1541984116
 20
111.9954370642
 11
237.1611984116
 21
110.5604370642
  0
LINE
  5
32D
100
AcDbEntity
  8
0
100
AcDbLine
 62
7
  6
CONTINUOUS
 10
237.5701984116
 20
110.5414370642
 11
238.5721984116
 21
111.9764370642
  0
LINE
  5
32E
100
AcDbEntity
  8
0
100
AcDbLine
 62
7
  6
CONTINUOUS
 10
272.588798729
 20
355.3488460337
 11
271.0970001228
 21
359.9831104702
  0
LINE
  5
32F
100
AcDbEntity
  8
0
100
AcDbLine
 62
7
  6
CONTINUOUS
 10
269.9691906447
 20
365.1506793603
 11
270.7075115458
 21
362.8509200785
  0
LINE
  5
330
100
AcDbEntity
  8
0
100
AcDbLine
 62
7
  6
CONTINUOUS
 10
226.2621984116
 20
355.4939764389
 11
233.2621984116
 21
355.4939764389
  0
LINE
  5
331
100
AcDbEntity
  8
0
100
AcDbLine
 62
7
  6
CONTINUOUS
 10
226.6121984116
 20
355.8439764389
 11
232.9121984116
 21
355.8439764389
  0
LINE
  5
332
100
AcDbEntity
  8
0
100
AcDbLine
 62
7
  6
CONTINUOUS
 10
232.5121984116
 20
356.1939764389
 11
227.0121984116
 21
356.1939764389
  0
LWPOLYLINE
  5
333
100
AcDbEntity
  8
0
100
AcDbPolyline
 62
7
  6
CONTINUOUS
 90
37
 70
0
 10
234.2626827811
 20
352.8063573975
 10
234.2629907648
 20
352.8062930778
 10
234.2622305141
 20
352.8064634703
 10
234.2579288444
 20
352.8074773194
 10
234.2500346413
 20
352.8094745479
 10
234.2384616484
 20
352.8126259972
 10
234.2233373812
 20
352.8170649901
 10
234.204695782
 20
352.8229670674
 10
234.1828703391
 20
352.8304237505
 10
234.1581113588
 20
352.8395499681
 10
234.1307790785
 20
352.850414065
 10
234.1013565695
 20
352.8630133866
 10
234.0696956793
 20
352.8776103719
 10
234.0359068689
 20
352.894382666
 10
233.999670641
 20
352.9137631376
 10
233.9607076632
 20
352.9362564017
 10
233.9191792571
 20
352.9621942161
 10
233.8749637105
 20
352.9921561951
 10
233.8289103707
 20
353.0261094304
 10
233.7815997475
 20
353.0641490118
 10
233.7337764767
 20
353.106177905
 10
233.6862136194
 20
353.151961261
 10
233.6392703751
 20
353.2015715267
 10
233.5934357639
 20
353.2549135729
 10
233.5490475824
 20
353.3120231886
 10
233.5064858009
 20
353.3728686713
 10
233.4661284468
 20
353.4373938577
 10
233.428355142
 20
353.5055091688
 10
233.3935387797
 20
353.5771013452
 10
233.3620579501
 20
353.652000617
 10
233.3342497507
 20
353.7300930781
 10
233.310462552
 20
353.8112145469
 10
233.2910447431
 20
353.8951624055
 10
233.2763390041
 20
353.981703257
 10
233.2666811711
 20
354.0705613236
 10
233.2623947404
 20
354.16142181
 10
233.2621983987
 20
354.1854858217
  0
LINE
  5
334
100
AcDbEntity
  8
02___PRT_ALL_AXES
100
AcDbLine
 62
7
  6
CONTINUOUS
 10
363.7621984116
 20
478.1922669035
 11
95.7621984116
 21
478.1922669035
  0
LINE
  5
335
100
AcDbEntity
  8
0
100
AcDbLine
 62
7
  6
CONTINUOUS
 10
365.0863462705
 20
481.2188905809
 11
94.4380505527
 21
481.2188905809
  0
LINE
  5
336
100
AcDbEntity
  8
0
100
AcDbLine
 62
7
  6
CONTINUOUS
 10
370.5801596833
 20
488.5455320995
 11
88.9442371399
 21
488.5455320995
  0
LINE
  5
337
100
AcDbEntity
  8
0
100
AcDbLine
 62
7
  6
CONTINUOUS
 10
79.7639975023
 20
507.8887109967
 11
379.7603993209
 21
507.8887109967
  0
LINE
  5
338
100
AcDbEntity
  8
0
100
AcDbLine
 62
7
  6
CONTINUOUS
 10
80.0639764274
 20
508.1922669035
 11
379.4604203958
 21
508.1922669035
  0
LINE
  5
339
100
AcDbEntity
  8
0
100
AcDbLine
 62
3
  6
CONTINUOUS
 10
379.2621984116
 20
510.1922669035
 11
80.2621984116
 21
510.1922669035
  0
LINE
  5
33A
100
AcDbEntity
  8
02___PRT_ALL_AXES
100
AcDbLine
 62
7
  6
CONTINUOUS
 10
94.4380505527
 20
481.2188905809
 11
95.7621984116
 21
478.1922669035
  0
LINE
  5
33B
100
AcDbEntity
  8
0
100
AcDbLine
 62
7
  6
CONTINUOUS
 10
95.7621984116
 20
478.1922669035
 11
94.4380505527
 21
481.2188905809
  0
LINE
  5
33C
100
AcDbEntity
  8
02___PRT_ALL_AXES
100
AcDbLine
 62
3
  6
CONTINUOUS
 10
80.2621984116
 20
1091.0957669035
 11
80.2621984116
 21
510.1922669035
  0
LINE
  5
33D
100
AcDbEntity
  8
02___PRT_ALL_AXES
100
AcDbLine
 62
7
  6
CONTINUOUS
 10
75.0254030957
 20
1092.3376462995
 11
75.5554822002
 21
1107.5171257951
  0
LINE
  5
33E
100
AcDbEntity
  8
0
100
AcDbLine
 62
7
  6
CONTINUOUS
 10
75.0254030957
 20
1092.3376462995
 11
75.5554822002
 21
1107.5171257951
  0
LINE
  5
33F
100
AcDbEntity
  8
0
100
AcDbLine
 62
7
  6
CONTINUOUS
 10
212.2561984116
 20
1136.0957669035
 11
212.2561984116
 21
1136.4957669035
  0
LINE
  5
340
100
AcDbEntity
  8
0
100
AcDbLine
 62
7
  6
CONTINUOUS
 10
213.6571984116
 20
1136.0957669035
 11
213.6571984116
 21
1136.4957669035
  0
LINE
  5
341
100
AcDbEntity
  8
0
100
AcDbLine
 62
7
  6
CONTINUOUS
 10
217.9511984116
 20
1136.0957669035
 11
217.9511984116
 21
1136.4957669035
  0
LINE
  5
342
100
AcDbEntity
  8
0
100
AcDbLine
 62
7
  6
CONTINUOUS
 10
218.3601984116
 20
1136.0957669035
 11
218.3601984116
 21
1136.4957669035
  0
LINE
  5
343
100
AcDbEntity
  8
0
100
AcDbLine
 62
7
  6
CONTINUOUS
 10
218.9374911917
 20
1136.0957669035
 11
218.9374911917
 21
1136.4957669035
  0
LINE
  5
344
100
AcDbEntity
  8
0
100
AcDbLine
 62
7
  6
CONTINUOUS
 10
219.3164911917
 20
1136.0957669035
 11
219.3164911917
 21
1136.4957669035
  0
LINE
  5
345
100
AcDbEntity
  8
0
100
AcDbLine
 62
7
  6
CONTINUOUS
 10
219.8941984116
 20
1136.0957669035
 11
219.8941984116
 21
1136.4957669035
  0
LINE
  5
346
100
AcDbEntity
  8
0
100
AcDbLine
 62
7
  6
CONTINUOUS
 10
220.3031984116
 20
1136.0957669035
 11
220.3031984116
 21
1136.4957669035
  0
LINE
  5
347
100
AcDbEntity
  8
0
100
AcDbLine
 62
7
  6
CONTINUOUS
 10
220.584258493
 20
1136.0957669035
 11
220.584258493
 21
1136.4957669035
  0
LINE
  5
348
100
AcDbEntity
  8
0
100
AcDbLine
 62
7
  6
CONTINUOUS
 10
220.997258493
 20
1136.0957669035
 11
220.997258493
 21
1136.4957669035
  0
LINE
  5
349
100
AcDbEntity
  8
0
100
AcDbLine
 62
7
  6
CONTINUOUS
 10
221.1801208351
 20
1136.0957669035
 11
221.1801208351
 21
1136.4957669035
  0
LINE
  5
34A
100
AcDbEntity
  8
0
100
AcDbLine
 62
7
  6
CONTINUOUS
 10
222.0421208351
 20
1136.0957669035
 11
222.0421208351
 21
1136.4957669035
  0
LINE
  5
34B
100
AcDbEntity
  8
0
100
AcDbLine
 62
7
  6
CONTINUOUS
 10
222.2232131703
 20
1136.0957669035
 11
222.2232131703
 21
1136.4957669035
  0
LINE
  5
34C
100
AcDbEntity
  8
0
100
AcDbLine
 62
7
  6
CONTINUOUS
 10
222.6662131703
 20
1136.0957669035
 11
222.6662131703
 21
1136.4957669035
  0
LINE
  5
34D
100
AcDbEntity
  8
0
100
AcDbLine
 62
7
  6
CONTINUOUS
 10
222.9421984116
 20
1136.0957669035
 11
222.9421984116
 21
1136.4957669035
  0
LINE
  5
34E
100
AcDbEntity
  8
0
100
AcDbLine
 62
7
  6
CONTINUOUS
 10
223.5251984116
 20
1136.0957669035
 11
223.5251984116
 21
1136.4957669035
  0
LINE
  5
34F
100
AcDbEntity
  8
0
100
AcDbLine
 62
7
  6
CONTINUOUS
 10
224.7434536438
 20
1136.0957669035
 11
224.7434536438
 21
1136.4957669035
  0
LINE
  5
350
100
AcDbEntity
  8
0
100
AcDbLine
 62
7
  6
CONTINUOUS
 10
225.1281984116
 20
1136.0957669035
 11
225.1281984116
 21
1136.4957669035
  0
LINE
  5
351
100
AcDbEntity
  8
0
100
AcDbLine
 62
7
  6
CONTINUOUS
 10
226.3491984116
 20
1136.0957669035
 11
226.3491984116
 21
1136.4957669035
  0
LINE
  5
352
100
AcDbEntity
  8
0
100
AcDbLine
 62
7
  6
CONTINUOUS
 10
227.5941984116
 20
1136.0957669035
 11
227.5941984116
 21
1136.4957669035
  0
LINE
  5
353
100
AcDbEntity
  8
0
100
AcDbLine
 62
7
  6
CONTINUOUS
 10
227.9941984116
 20
1136.0957669035
 11
227.9941984116
 21
1136.4957669035
  0
LINE
  5
354
100
AcDbEntity
  8
0
100
AcDbLine
 62
7
  6
CONTINUOUS
 10
228.4341984116
 20
1136.0957669035
 11
228.4341984116
 21
1136.4957669035
  0
LINE
  5
355
100
AcDbEntity
  8
0
100
AcDbLine
 62
7
  6
CONTINUOUS
 10
228.8431984116
 20
1136.0957669035
 11
228.8431984116
 21
1136.4957669035
  0
LINE
  5
356
100
AcDbEntity
  8
0
100
AcDbLine
 62
7
  6
CONTINUOUS
 10
228.8691984116
 20
1136.0957669035
 11
228.8691984116
 21
1136.4957669035
  0
LINE
  5
357
100
AcDbEntity
  8
0
100
AcDbLine
 62
7
  6
CONTINUOUS
 10
229.7621984116
 20
1136.0957669035
 11
229.7621984116
 21
1136.4957669035
  0
LINE
  5
358
100
AcDbEntity
  8
0
100
AcDbLine
 62
7
  6
CONTINUOUS
 10
230.1711984116
 20
1136.0957669035
 11
230.1711984116
 21
1136.4957669035
  0
LINE
  5
359
100
AcDbEntity
  8
0
100
AcDbLine
 62
7
  6
CONTINUOUS
 10
231.4441984116
 20
1136.0957669035
 11
231.4441984116
 21
1136.4957669035
  0
LINE
  5
35A
100
AcDbEntity
  8
0
100
AcDbLine
 62
7
  6
CONTINUOUS
 10
232.1861984116
 20
1136.0957669035
 11
232.1861984116
 21
1136.4957669035
  0
LINE
  5
35B
100
AcDbEntity
  8
0
100
AcDbLine
 62
7
  6
CONTINUOUS
 10
232.9331984116
 20
1136.0957669035
 11
232.9331984116
 21
1136.4957669035
  0
LINE
  5
35C
100
AcDbEntity
  8
0
100
AcDbLine
 62
7
  6
CONTINUOUS
 10
233.2411984116
 20
1136.0957669035
 11
233.2411984116
 21
1136.4957669035
  0
LINE
  5
35D
100
AcDbEntity
  8
0
100
AcDbLine
 62
7
  6
CONTINUOUS
 10
233.6811984116
 20
1136.0957669035
 11
233.6811984116
 21
1136.4957669035
  0
LINE
  5
35E
100
AcDbEntity
  8
0
100
AcDbLine
 62
7
  6
CONTINUOUS
 10
233.8061984116
 20
1136.0957669035
 11
233.8061984116
 21
1136.4957669035
  0
LINE
  5
35F
100
AcDbEntity
  8
0
100
AcDbLine
 62
7
  6
CONTINUOUS
 10
234.0881984116
 20
1136.0957669035
 11
234.0881984116
 21
1136.4957669035
  0
LINE
  5
360
100
AcDbEntity
  8
0
100
AcDbLine
 62
7
  6
CONTINUOUS
 10
234.3428727827
 20
1136.0957669035
 11
234.3428727827
 21
1136.4957669035
  0
LINE
  5
361
100
AcDbEntity
  8
0
100
AcDbLine
 62
7
  6
CONTINUOUS
 10
234.8318727827
 20
1136.0957669035
 11
234.8318727827
 21
1136.4957669035
  0
LINE
  5
362
100
AcDbEntity
  8
0
100
AcDbLine
 62
7
  6
CONTINUOUS
 10
234.9182437343
 20
1136.0957669035
 11
234.9182437343
 21
1136.4957669035
  0
LINE
  5
363
100
AcDbEntity
  8
0
100
AcDbLine
 62
7
  6
CONTINUOUS
 10
235.3312437343
 20
1136.0957669035
 11
235.3312437343
 21
1136.4957669035
  0
LINE
  5
364
100
AcDbEntity
  8
0
100
AcDbLine
 62
7
  6
CONTINUOUS
 10
235.5141060764
 20
1136.0957669035
 11
235.5141060764
 21
1136.4957669035
  0
LINE
  5
365
100
AcDbEntity
  8
0
100
AcDbLine
 62
7
  6
CONTINUOUS
 10
236.3761060764
 20
1136.0957669035
 11
236.3761060764
 21
1136.4957669035
  0
LINE
  5
366
100
AcDbEntity
  8
0
100
AcDbLine
 62
7
  6
CONTINUOUS
 10
236.5571984116
 20
1136.0957669035
 11
236.5571984116
 21
1136.4957669035
  0
LINE
  5
367
100
AcDbEntity
  8
0
100
AcDbLine
 62
7
  6
CONTINUOUS
 10
237.0001984116
 20
1136.0957669035
 11
237.0001984116
 21
1136.4957669035
  0
LINE
  5
368
100
AcDbEntity
  8
0
100
AcDbLine
 62
7
  6
CONTINUOUS
 10
237.1611984116
 20
1136.0957669035
 11
237.1611984116
 21
1136.4957669035
  0
LINE
  5
369
100
AcDbEntity
  8
0
100
AcDbLine
 62
7
  6
CONTINUOUS
 10
238.5921984116
 20
1136.0957669035
 11
238.5921984116
 21
1136.4957669035
  0
LINE
  5
36A
100
AcDbEntity
  8
0
100
AcDbLine
 62
7
  6
CONTINUOUS
 10
238.9281984116
 20
1136.0957669035
 11
238.9281984116
 21
1136.4957669035
  0
LINE
  5
36B
100
AcDbEntity
  8
0
100
AcDbLine
 62
7
  6
CONTINUOUS
 10
239.3281984116
 20
1136.0957669035
 11
239.3281984116
 21
1136.4957669035
  0
LINE
  5
36C
100
AcDbEntity
  8
0
100
AcDbLine
 62
7
  6
CONTINUOUS
 10
239.7981984116
 20
1136.0957669035
 11
239.7981984116
 21
1136.4957669035
  0
LINE
  5
36D
100
AcDbEntity
  8
0
100
AcDbLine
 62
7
  6
CONTINUOUS
 10
241.0101984116
 20
1136.0957669035
 11
241.0101984116
 21
1136.4957669035
  0
LINE
  5
36E
100
AcDbEntity
  8
0
100
AcDbLine
 62
7
  6
CONTINUOUS
 10
245.8671984116
 20
1136.0957669035
 11
245.8671984116
 21
1136.4957669035
  0
LINE
  5
36F
100
AcDbEntity
  8
0
100
AcDbLine
 62
7
  6
CONTINUOUS
 10
247.2661984116
 20
1136.0957669035
 11
247.2661984116
 21
1136.4957669035
  0
LINE
  5
370
100
AcDbEntity
  8
02___PRT_ALL_AXES
100
AcDbLine
 62
7
  6
CONTINUOUS
 10
384.4989937275
 20
1092.3376462995
 11
383.968914623
 21
1107.5171257951
  0
LINE
  5
371
100
AcDbEntity
  8
0
100
AcDbLine
 62
7
  6
CONTINUOUS
 10
384.4989937275
 20
1092.3376462995
 11
383.968914623
 21
1107.5171257951
  0
LINE
  5
372
100
AcDbEntity
  8
02___PRT_ALL_AXES
100
AcDbLine
 62
3
  6
CONTINUOUS
 10
379.2621984116
 20
1091.0957669035
 11
379.2621984116
 21
510.1922669035
  0
LINE
  5
373
100
AcDbEntity
  8
02___PRT_ALL_AXES
100
AcDbLine
 62
7
  6
CONTINUOUS
 10
365.0863462705
 20
481.2188905809
 11
363.7621984116
 21
478.1922669035
  0
LINE
  5
374
100
AcDbEntity
  8
0
100
AcDbLine
 62
7
  6
CONTINUOUS
 10
363.7621984116
 20
478.1922669035
 11
365.0863462705
 21
481.2188905809
  0
LINE
  5
375
100
AcDbEntity
  8
0
100
AcDbLine
 62
7
  6
CONTINUOUS
 10
76.2246720881
 20
1091.0957669035
 11
383.2997247351
 21
1091.0957669035
  0
LINE
  5
376
100
AcDbEntity
  8
0
100
AcDbLine
 62
7
  6
CONTINUOUS
 10
75.0254030957
 20
1092.3376462995
 11
384.4989937275
 21
1092.3376462995
  0
LINE
  5
377
100
AcDbEntity
  8
02___PRT_ALL_AXES
100
AcDbLine
 62
7
  6
CONTINUOUS
 10
383.968914623
 20
1107.5171257951
 11
75.5554822002
 21
1107.5171257951
  0
LWPOLYLINE
  5
378
100
AcDbEntity
  8
0
100
AcDbPolyline
 62
7
  6
CONTINUOUS
 90
11
 70
0
 10
180.0979926307
 20
1135.8630303301
 10
179.0036835736
 20
1135.745719556
 10
178.3852984419
 20
1135.6855695903
 10
177.7732423214
 20
1135.632207798
 10
177.1680997713
 20
1135.5858233128
 10
176.5704304736
 20
1135.546562173
 10
175.9808213628
 20
1135.514532187
 10
175.3998531256
 20
1135.4897967848
 10
174.8280310155
 20
1135.4723723231
 10
174.2658805909
 20
1135.4622375453
 10
173.7649325181
 20
1135.4592914219
  0
LWPOLYLINE
  5
379
100
AcDbEntity
  8
0
100
AcDbPolyline
 62
7
  6
CONTINUOUS
 90
8
 70
0
 10
183.8249888386
 20
1136.0957669031
 10
183.3842962073
 20
1136.0915249472
 10
182.8662223445
 20
1136.0764902064
 10
182.335813828
 20
1136.0511728442
 10
181.7933822625
 20
1136.016275805
 10
181.2394103332
 20
1135.972624594
 10
180.6741755428
 20
1135.9211736116
 10
180.0979926307
 20
1135.8630303301
  0
LINE
  5
37A
100
AcDbEntity
  8
0
100
AcDbLine
 62
7
  6
CONTINUOUS
 10
366.1067187803
 20
1135.2502354863
 11
286.1274910744
 21
1135.2502354863
  0
LINE
  5
37B
100
AcDbEntity
  8
0
100
AcDbLine
 62
7
  6
CONTINUOUS
 10
173.3969057488
 20
1135.2502354863
 11
93.4176780429
 21
1135.2502354863
  0
LINE
  5
37C
100
AcDbEntity
  8
0
100
AcDbLine
 62
7
  6
CONTINUOUS
 10
94.335222979
 20
1135.4592914219
 11
173.764932186
 21
1135.4592914219
  0
LINE
  5
37D
100
AcDbEntity
  8
0
100
AcDbLine
 62
7
  6
CONTINUOUS
 10
285.7594646365
 20
1135.4592914219
 11
365.216483217
 21
1135.4592914219
  0
LINE
  5
37E
100
AcDbEntity
  8
0
100
AcDbLine
 62
7
  6
CONTINUOUS
 10
179.4746205489
 20
1135.6324246946
 11
280.0497762744
 21
1135.6324246946
  0
LINE
  5
37F
100
AcDbEntity
  8
0
100
AcDbLine
 62
7
  6
CONTINUOUS
 10
104.5260012131
 20
1136.0957669035
 11
354.9983956101
 21
1136.0957669035
  0
LINE
  5
380
100
AcDbEntity
  8
0
100
AcDbLine
 62
7
  6
CONTINUOUS
 10
212.2561984116
 20
1136.4957669035
 11
247.2661984116
 21
1136.4957669035
  0
LWPOLYLINE
  5
381
100
AcDbEntity
  8
0
100
AcDbPolyline
 62
7
  6
CONTINUOUS
 90
10
 70
0
 10
285.7594643668
 20
1135.4592914219
 10
285.2631079718
 20
1135.4621837098
 10
284.7009707832
 20
1135.4722608043
 10
284.1291651614
 20
1135.489627617
 10
283.5482166165
 20
1135.5143074893
 10
282.9586448565
 20
1135.5462813371
 10
282.3610268659
 20
1135.5854865144
 10
281.7559555448
 20
1135.6318147793
 10
281.1439756427
 20
1135.6851195353
 10
280.5256702198
 20
1135.7452137466
  0
LWPOLYLINE
  5
382
100
AcDbEntity
  8
0
100
AcDbPolyline
 62
7
  6
CONTINUOUS
 90
9
 70
0
 10
280.5256702198
 20
1135.7452137466
 10
279.4315889834
 20
1135.8624854016
 10
278.8555921763
 20
1135.9206558583
 10
278.2904880027
 20
1135.9721544528
 10
277.7365895753
 20
1136.0158742012
 10
277.1941833669
 20
1136.0508580777
 10
276.663740056
 20
1136.076274043
 10
276.1455739446
 20
1136.0914215876
 10
275.699385536
 20
1136.0957669032
  0
ARC
  5
383
100
AcDbEntity
  8
0
100
AcDbCircle
 62
7
  6
CONTINUOUS
 10
-19951.533617134
 20
-6011.6421724417
 40
21127.7433400683
100
AcDbArc
 50
17.2207071855
 51
17.4696014546
  0
ARC
  5
384
100
AcDbEntity
  8
0
100
AcDbCircle
 62
7
  6
CONTINUOUS
 10
-18882.3772728799
 20
-6288.1936838558
 40
20196.6716992527
100
AcDbArc
 50
18.868266866
 51
19.1306085221
  0
ARC
  5
385
100
AcDbEntity
  8
0
100
AcDbCircle
 62
7
  6
CONTINUOUS
 10
229.7609991061
 20
-170.6437700886
 40
502.3282340045
100
AcDbArc
 50
86.800115328
 51
93.1998904654
  0
ARC
  5
386
100
AcDbEntity
  8
0
100
AcDbCircle
 62
7
  6
CONTINUOUS
 10
228.8181031471
 20
240.8892486274
 40
114.5367898559
100
AcDbArc
 50
175.3357784035
 51
184.0556459017
  0
ARC
  5
387
100
AcDbEntity
  8
0
100
AcDbCircle
 62
7
  6
CONTINUOUS
 10
228.818135077
 20
240.8892484548
 40
110.9838935836
100
AcDbArc
 50
175.3358284468
 51
184.0555958534
  0
ARC
  5
388
100
AcDbEntity
  8
0
100
AcDbCircle
 62
7
  6
CONTINUOUS
 10
206.853423586
 20
239.3046973088
 40
92.6287890931
100
AcDbArc
 50
264.0982661508
 51
266.6799442999
  0
ARC
  5
389
100
AcDbEntity
  8
0
100
AcDbCircle
 62
7
  6
CONTINUOUS
 10
206.2153818352
 20
239.1278374064
 40
88.36443931
100
AcDbArc
 50
264.4980050152
 51
267.0863166474
  0
ARC
  5
38A
100
AcDbEntity
  8
0
100
AcDbCircle
 62
7
  6
CONTINUOUS
 10
182.840908873
 20
137.5422577725
 40
21.9653945262
100
AcDbArc
 50
272.5679655934
 51
287.7988475271
  0
ARC
  5
38B
100
AcDbEntity
  8
0
100
AcDbCircle
 62
7
  6
CONTINUOUS
 10
182.1789036265
 20
136.0904564816
 40
21.2489105722
100
AcDbArc
 50
245.5882187915
 51
262.6883144153
  0
ARC
  5
38C
100
AcDbEntity
  8
0
100
AcDbCircle
 62
7
  6
CONTINUOUS
 10
182.9037383264
 20
137.6793654384
 40
20.1054064403
100
AcDbArc
 50
245.5796808695
 51
261.8822277834
  0
ARC
  5
38D
100
AcDbEntity
  8
0
100
AcDbCircle
 62
7
  6
CONTINUOUS
 10
182.840908873
 20
137.5422577725
 40
19.9656991359
100
AcDbArc
 50
272.5679656639
 51
287.7988475271
  0
ARC
  5
38E
100
AcDbEntity
  8
0
100
AcDbCircle
 62
7
  6
CONTINUOUS
 10
182.8550510636
 20
137.2908097584
 40
19.7138702065
100
AcDbArc
 50
261.8628484615
 51
272.5596476413
  0
ARC
  5
38F
100
AcDbEntity
  8
0
100
AcDbCircle
 62
7
  6
CONTINUOUS
 10
182.840908873
 20
137.5422577725
 40
19.5498421185
100
AcDbArc
 50
245.5811868346
 51
287.7988475271
  0
ARC
  5
390
100
AcDbEntity
  8
0
100
AcDbCircle
 62
7
  6
CONTINUOUS
 10
183.0329565229
 20
138.5535935754
 40
17.6046538276
100
AcDbArc
 50
245.4573152519
 51
287.8436906561
  0
ARC
  5
391
100
AcDbEntity
  8
0
100
AcDbCircle
 62
7
  6
CONTINUOUS
 10
183.0329565229
 20
138.5535935754
 40
17.600999903
100
AcDbArc
 50
245.4573152519
 51
287.8436906561
  0
ARC
  5
392
100
AcDbEntity
  8
0
100
AcDbCircle
 62
7
  6
CONTINUOUS
 10
183.0329565229
 20
138.5535935754
 40
16.2276713744
100
AcDbArc
 50
245.4573152519
 51
287.8436906561
  0
ARC
  5
393
100
AcDbEntity
  8
0
100
AcDbCircle
 62
7
  6
CONTINUOUS
 10
183.0329565229
 20
138.5535935754
 40
12.7361971985
100
AcDbArc
 50
245.4573152519
 51
287.8436906561
  0
ARC
  5
394
100
AcDbEntity
  8
0
100
AcDbCircle
 62
7
  6
CONTINUOUS
 10
226.1247731666
 20
137.4446441092
 40
8.539496942
100
AcDbArc
 50
264.280679293
 51
264.9101437098
  0
ARC
  5
395
100
AcDbEntity
  8
0
100
AcDbCircle
 62
7
  6
CONTINUOUS
 10
226.0209539778
 20
136.3932287814
 40
7.4829695515
100
AcDbArc
 50
264.1531125932
 51
264.2693723326
  0
ARC
  5
396
100
AcDbEntity
  8
0
100
AcDbCircle
 62
7
  6
CONTINUOUS
 10
229.7621345394
 20
240.8892324594
 40
2.5002287563
100
AcDbArc
 50
72.6935715716
 51
74.8857995098
  0
ARC
  5
397
100
AcDbEntity
  8
0
100
AcDbCircle
 62
7
  6
CONTINUOUS
 10
219.0045075193
 20
116.4434323112
 40
1.4390049188
100
AcDbArc
 50
83.58851895
 51
89.9724912563
  0
ARC
  5
398
100
AcDbEntity
  8
0
100
AcDbCircle
 62
7
  6
CONTINUOUS
 10
213.6567955333
 20
119.1528399424
 40
1.4005971797
100
AcDbArc
 50
89.9835190122
 51
180.0164809878
  0
ARC
  5
399
100
AcDbEntity
  8
0
100
AcDbCircle
 62
7
  6
CONTINUOUS
 10
213.6562958209
 20
114.9515341859
 40
1.4000974127
100
AcDbArc
 50
180.0039744842
 51
270.0369364598
  0
ARC
  5
39A
100
AcDbEntity
  8
0
100
AcDbCircle
 62
7
  6
CONTINUOUS
 10
219.0046105296
 20
117.5958842196
 40
0.5454474723
100
AcDbArc
 50
270.0617532663
 51
304.3272187938
  0
ARC
  5
39B
100
AcDbEntity
  8
0
100
AcDbCircle
 62
7
  6
CONTINUOUS
 10
219.0944343086
 20
117.466279424
 40
0.3877641351
100
AcDbArc
 50
304.1657644499
 51
0.0232928072
  0
ARC
  5
39C
100
AcDbEntity
  8
0
100
AcDbCircle
 62
7
  6
CONTINUOUS
 10
219.1242704339
 20
117.5250303186
 40
0.3508024511
100
AcDbArc
 50
12.9150902121
 51
83.3000662467
  0
ARC
  5
39D
100
AcDbEntity
  8
0
100
AcDbCircle
 62
7
  6
CONTINUOUS
 10
226.6121984116
 20
126.2849278836
 40
0.35
100
AcDbArc
 50
180.0
 51
270.0
  0
ARC
  5
39E
100
AcDbEntity
  8
0
100
AcDbCircle
 62
7
  6
CONTINUOUS
 10
226.6621984116
 20
125.5849278836
 40
0.35
100
AcDbArc
 50
0.0
 51
90.0
  0
ARC
  5
39F
100
AcDbEntity
  8
0
100
AcDbCircle
 62
7
  6
CONTINUOUS
 10
-14003.72018913
 20
4640.1351441825
 40
14897.9216265448
100
AcDbArc
 50
342.4622270911
 51
342.8152018813
  0
ARC
  5
3A0
100
AcDbEntity
  8
0
100
AcDbCircle
 62
7
  6
CONTINUOUS
 10
-13328.5412269213
 20
5044.4919852267
 40
14384.1912908947
100
AcDbArc
 50
340.1117045289
 51
340.4812048932
  0
ARC
  5
3A1
100
AcDbEntity
  8
0
100
AcDbCircle
 62
7
  6
CONTINUOUS
 10
229.7575088235
 20
633.9274270224
 40
487.9156417727
100
AcDbArc
 50
266.6785742248
 51
273.3228227751
  0
ARC
  5
3A2
100
AcDbEntity
  8
0
100
AcDbCircle
 62
7
  6
CONTINUOUS
 10
228.7788817268
 20
240.8895257644
 40
114.4976862939
100
AcDbArc
 50
184.0571723466
 51
184.6665465636
  0
ARC
  5
3A3
100
AcDbEntity
  8
0
100
AcDbCircle
 62
7
  6
CONTINUOUS
 10
228.7788279411
 20
240.889521662
 40
110.9446534318
100
AcDbArc
 50
184.0571722711
 51
184.6665466417
  0
ARC
  5
3A4
100
AcDbEntity
  8
0
100
AcDbCircle
 62
7
  6
CONTINUOUS
 10
206.8524879088
 20
242.478622929
 40
92.6237828095
100
AcDbArc
 50
93.3212001647
 51
95.1420664414
  0
ARC
  5
3A5
100
AcDbEntity
  8
0
100
AcDbCircle
 62
7
  6
CONTINUOUS
 10
206.2146829229
 20
242.6598654517
 40
88.3557377395
100
AcDbArc
 50
92.9151069864
 51
94.7406626775
  0
ARC
  5
3A6
100
AcDbEntity
  8
0
100
AcDbCircle
 62
7
  6
CONTINUOUS
 10
182.840908873
 20
344.2366465501
 40
21.9653945262
100
AcDbArc
 50
72.2011524729
 51
87.4320344203
  0
ARC
  5
3A7
100
AcDbEntity
  8
0
100
AcDbCircle
 62
7
  6
CONTINUOUS
 10
182.17890441
 20
345.6884450836
 40
21.2489134068
100
AcDbArc
 50
97.3116867338
 51
114.4117800594
  0
ARC
  5
3A8
100
AcDbEntity
  8
0
100
AcDbCircle
 62
7
  6
CONTINUOUS
 10
182.9037390123
 20
344.0995365337
 40
20.105408864
100
AcDbArc
 50
98.1177732059
 51
114.4203181411
  0
ARC
  5
3A9
100
AcDbEntity
  8
0
100
AcDbCircle
 62
7
  6
CONTINUOUS
 10
182.840908873
 20
344.2366465501
 40
19.9656991359
100
AcDbArc
 50
72.2011524729
 51
87.4320343361
  0
ARC
  5
3AA
100
AcDbEntity
  8
0
100
AcDbCircle
 62
7
  6
CONTINUOUS
 10
182.8577330658
 20
344.4330355109
 40
19.7687552169
100
AcDbArc
 50
87.455244495
 51
98.1222594022
  0
ARC
  5
3AB
100
AcDbEntity
  8
0
100
AcDbCircle
 62
7
  6
CONTINUOUS
 10
182.840908873
 20
344.2366465501
 40
19.5498421185
100
AcDbArc
 50
72.2011524729
 51
114.4188131654
  0
ARC
  5
3AC
100
AcDbEntity
  8
0
100
AcDbCircle
 62
7
  6
CONTINUOUS
 10
183.0329565229
 20
343.2253107471
 40
17.6046538276
100
AcDbArc
 50
72.1563093439
 51
114.5426847481
  0
ARC
  5
3AD
100
AcDbEntity
  8
0
100
AcDbCircle
 62
7
  6
CONTINUOUS
 10
183.0329565229
 20
343.2253107471
 40
17.600999903
100
AcDbArc
 50
72.1563093439
 51
114.5426847481
  0
ARC
  5
3AE
100
AcDbEntity
  8
0
100
AcDbCircle
 62
7
  6
CONTINUOUS
 10
183.0329565229
 20
343.2253107471
 40
16.2276713744
100
AcDbArc
 50
72.1563093439
 51
114.5426847481
  0
ARC
  5
3AF
100
AcDbEntity
  8
0
100
AcDbCircle
 62
7
  6
CONTINUOUS
 10
183.0329565229
 20
343.2253107471
 40
12.7361971985
100
AcDbArc
 50
72.1563093439
 51
114.5426847481
  0
ARC
  5
3B0
100
AcDbEntity
  8
0
100
AcDbCircle
 62
7
  6
CONTINUOUS
 10
226.1248115489
 20
344.3338614295
 40
8.5398975663
100
AcDbArc
 50
95.0896182739
 51
95.719288684
  0
ARC
  5
3B1
100
AcDbEntity
  8
0
100
AcDbCircle
 62
7
  6
CONTINUOUS
 10
226.0205424958
 20
345.3897478175
 40
7.4788765399
100
AcDbArc
 50
95.730581507
 51
95.8501318612
  0
ARC
  5
3B2
100
AcDbEntity
  8
0
100
AcDbCircle
 62
7
  6
CONTINUOUS
 10
229.758121929
 20
240.8894521613
 40
2.5040632316
100
AcDbArc
 50
355.3827510197
 51
4.6172489803
  0
ARC
  5
3B3
100
AcDbEntity
  8
0
100
AcDbCircle
 62
7
  6
CONTINUOUS
 10
226.6121984116
 20
355.4939764389
 40
0.35
100
AcDbArc
 50
90.0
 51
180.0
  0
ARC
  5
3B4
100
AcDbEntity
  8
0
100
AcDbCircle
 62
7
  6
CONTINUOUS
 10
226.6621984116
 20
356.1939764389
 40
0.35
100
AcDbArc
 50
270.0
 51
360.0
  0
ARC
  5
3B5
100
AcDbEntity
  8
0
100
AcDbCircle
 62
7
  6
CONTINUOUS
 10
14463.2446067237
 20
-4158.3562463117
 40
14897.9216482942
100
AcDbArc
 50
162.4622270938
 51
162.8152018812
  0
ARC
  5
3B6
100
AcDbEntity
  8
0
100
AcDbCircle
 62
7
  6
CONTINUOUS
 10
13788.0656452852
 20
-4562.7130885713
 40
14384.1913137592
100
AcDbArc
 50
160.1117045321
 51
160.4812048931
  0
ARC
  5
3B7
100
AcDbEntity
  8
0
100
AcDbCircle
 62
7
  6
CONTINUOUS
 10
229.7668864529
 20
-152.0216276362
 40
487.7889600097
100
AcDbArc
 50
86.677711009
 51
93.3236859851
  0
ARC
  5
3B8
100
AcDbEntity
  8
0
100
AcDbCircle
 62
7
  6
CONTINUOUS
 10
229.7621984116
 20
-6.6105478387
 40
139.7638028015
100
AcDbArc
 50
72.1563093439
 51
107.8436906561
  0
ARC
  5
3B9
100
AcDbEntity
  8
0
100
AcDbCircle
 62
7
  6
CONTINUOUS
 10
229.7621984116
 20
-6.6105478387
 40
136.2723286256
100
AcDbArc
 50
72.1563093439
 51
107.8436906561
  0
ARC
  5
3BA
100
AcDbEntity
  8
0
100
AcDbCircle
 62
7
  6
CONTINUOUS
 10
229.7621984116
 20
-6.6105478387
 40
134.899000097
100
AcDbArc
 50
91.5490654421
 51
107.8436906561
  0
ARC
  5
3BB
100
AcDbEntity
  8
0
100
AcDbCircle
 62
7
  6
CONTINUOUS
 10
229.7621984116
 20
-6.6105478387
 40
134.899000097
100
AcDbArc
 50
72.1563093439
 51
88.4509342947
  0
ARC
  5
3BC
100
AcDbEntity
  8
0
100
AcDbCircle
 62
7
  6
CONTINUOUS
 10
229.7621984116
 20
-6.6105478387
 40
134.8953461724
100
AcDbArc
 50
91.5483626659
 51
107.8436906561
  0
ARC
  5
3BD
100
AcDbEntity
  8
0
100
AcDbCircle
 62
7
  6
CONTINUOUS
 10
229.7621984116
 20
-6.6105478387
 40
134.8953461724
100
AcDbArc
 50
72.1563093439
 51
88.4516311715
  0
ARC
  5
3BE
100
AcDbEntity
  8
0
100
AcDbCircle
 62
7
  6
CONTINUOUS
 10
229.7621984116
 20
-8.6105478387
 40
133.9499751157
100
AcDbArc
 50
72.2011524729
 51
88.8236166338
  0
ARC
  5
3BF
100
AcDbEntity
  8
0
100
AcDbCircle
 62
7
  6
CONTINUOUS
 10
229.7621984116
 20
-8.6105478387
 40
133.9499751157
100
AcDbArc
 50
91.1763833662
 51
107.7988475271
  0
ARC
  5
3C0
100
AcDbEntity
  8
0
100
AcDbCircle
 62
7
  6
CONTINUOUS
 10
229.7621984116
 20
-8.6105478387
 40
133.5343008641
100
AcDbArc
 50
72.2011524729
 51
107.7988475271
  0
ARC
  5
3C1
100
AcDbEntity
  8
0
100
AcDbCircle
 62
7
  6
CONTINUOUS
 10
229.7621984116
 20
-8.6105478387
 40
131.5346054738
100
AcDbArc
 50
72.2011524729
 51
107.7988475271
  0
ARC
  5
3C2
100
AcDbEntity
  8
0
100
AcDbCircle
 62
7
  6
CONTINUOUS
 10
230.7455370117
 20
240.8893802298
 40
114.4976643151
100
AcDbArc
 50
4.0571722885
 51
4.6665466241
  0
ARC
  5
3C3
100
AcDbEntity
  8
0
100
AcDbCircle
 62
7
  6
CONTINUOUS
 10
230.7455778263
 20
240.8893833428
 40
110.9446444656
100
AcDbArc
 50
4.0571722465
 51
4.6665466664
  0
ARC
  5
3C4
100
AcDbEntity
  8
0
100
AcDbCircle
 62
7
  6
CONTINUOUS
 10
252.671946754
 20
239.2997699778
 40
92.6232700606
100
AcDbArc
 50
273.3211979389
 51
275.1420747756
  0
ARC
  5
3C5
100
AcDbEntity
  8
0
100
AcDbCircle
 62
7
  6
CONTINUOUS
 10
253.3092062571
 20
239.1266718336
 40
88.3633872265
100
AcDbArc
 50
272.9151841177
 51
274.7405817879
  0
ARC
  5
3C6
100
AcDbEntity
  8
0
100
AcDbCircle
 62
7
  6
CONTINUOUS
 10
276.6834879502
 20
137.5422577725
 40
21.9653945262
100
AcDbArc
 50
252.2011524729
 51
267.4320344203
  0
ARC
  5
3C7
100
AcDbEntity
  8
0
100
AcDbCircle
 62
7
  6
CONTINUOUS
 10
277.3454924133
 20
136.090459239
 40
21.2489134068
100
AcDbArc
 50
277.3116867338
 51
294.4117800594
  0
ARC
  5
3C8
100
AcDbEntity
  8
0
100
AcDbCircle
 62
7
  6
CONTINUOUS
 10
276.6206578109
 20
137.6793677888
 40
20.105408864
100
AcDbArc
 50
278.1177732059
 51
294.4203181411
  0
ARC
  5
3C9
100
AcDbEntity
  8
0
100
AcDbCircle
 62
7
  6
CONTINUOUS
 10
276.6834879502
 20
137.5422577725
 40
19.9656991359
100
AcDbArc
 50
252.2011524729
 51
267.4320343361
  0
ARC
  5
3CA
100
AcDbEntity
  8
0
100
AcDbCircle
 62
7
  6
CONTINUOUS
 10
276.6666637574
 20
137.3458688117
 40
19.7687552168
100
AcDbArc
 50
267.455244495
 51
278.1222594022
  0
ARC
  5
3CB
100
AcDbEntity
  8
0
100
AcDbCircle
 62
7
  6
CONTINUOUS
 10
276.6834879502
 20
137.5422577725
 40
19.5498421185
100
AcDbArc
 50
252.2011524729
 51
294.4188131654
  0
ARC
  5
3CC
100
AcDbEntity
  8
0
100
AcDbCircle
 62
7
  6
CONTINUOUS
 10
276.4914403003
 20
138.5535935754
 40
17.6046538276
100
AcDbArc
 50
252.1563093439
 51
294.5426847481
  0
ARC
  5
3CD
100
AcDbEntity
  8
0
100
AcDbCircle
 62
7
  6
CONTINUOUS
 10
276.4914403003
 20
138.5535935754
 40
17.600999903
100
AcDbArc
 50
252.1563093439
 51
294.5426847481
  0
ARC
  5
3CE
100
AcDbEntity
  8
0
100
AcDbCircle
 62
7
  6
CONTINUOUS
 10
276.4914403003
 20
138.5535935754
 40
16.2276713744
100
AcDbArc
 50
252.1563093439
 51
294.5426847481
  0
ARC
  5
3CF
100
AcDbEntity
  8
0
100
AcDbCircle
 62
7
  6
CONTINUOUS
 10
276.4914403003
 20
138.5535935754
 40
12.7361971985
100
AcDbArc
 50
252.1563093439
 51
294.5426847481
  0
ARC
  5
3D0
100
AcDbEntity
  8
0
100
AcDbCircle
 62
7
  6
CONTINUOUS
 10
233.3994896033
 20
137.4460749941
 40
8.5409341057
100
AcDbArc
 50
275.0896751613
 51
275.718572764
  0
ARC
  5
3D1
100
AcDbEntity
  8
0
100
AcDbCircle
 62
7
  6
CONTINUOUS
 10
233.503758287
 20
136.390100894
 40
7.4798258213
100
AcDbArc
 50
275.7298323637
 51
275.8501300569
  0
ARC
  5
3D2
100
AcDbEntity
  8
0
100
AcDbCircle
 62
7
  6
CONTINUOUS
 10
229.7622307971
 20
240.8893430633
 40
2.500113793
100
AcDbArc
 50
105.7603037313
 51
107.3064935466
  0
ARC
  5
3D3
100
AcDbEntity
  8
0
100
AcDbCircle
 62
7
  6
CONTINUOUS
 10
245.8662996235
 20
114.9513359968
 40
1.3998992211
100
AcDbArc
 50
270.0367860546
 51
0.045065045
  0
ARC
  5
3D4
100
AcDbEntity
  8
0
100
AcDbCircle
 62
7
  6
CONTINUOUS
 10
232.9121984116
 20
126.2849278836
 40
0.35
100
AcDbArc
 50
270.0
 51
360.0
  0
ARC
  5
3D5
100
AcDbEntity
  8
0
100
AcDbCircle
 62
7
  6
CONTINUOUS
 10
232.8621984116
 20
125.5849278836
 40
0.35
100
AcDbArc
 50
90.0
 51
180.0
  0
CIRCLE
  5
3D6
100
AcDbEntity
  8
0
100
AcDbCircle
 62
7
  6
CONTINUOUS
 10
229.7621984116
 20
240.8894521613
 40
154.7375263235
  0
CIRCLE
  5
3D7
100
AcDbEntity
  8
02___PRT_ALL_AXES
100
AcDbCircle
 62
7
  6
CONTINUOUS
 10
229.7621984116
 20
240.8894521613
 40
154.2067162114
  0
ARC
  5
3D8
100
AcDbEntity
  8
0
100
AcDbCircle
 62
7
  6
CONTINUOUS
 10
229.7621984116
 20
240.8894521613
 40
136.3445203687
100
AcDbArc
 50
114.4188131654
 51
245.5811868346
  0
ARC
  5
3D9
100
AcDbEntity
  8
0
100
AcDbCircle
 62
7
  6
CONTINUOUS
 10
229.7621984116
 20
240.8894521613
 40
136.3445203687
100
AcDbArc
 50
294.4188131654
 51
65.5811868346
  0
ARC
  5
3DA
100
AcDbEntity
  8
0
100
AcDbCircle
 62
7
  6
CONTINUOUS
 10
229.7621984116
 20
240.8894521613
 40
135.5484656657
100
AcDbArc
 50
248.223107888
 51
291.776892112
  0
ARC
  5
3DB
100
AcDbEntity
  8
0
100
AcDbCircle
 62
7
  6
CONTINUOUS
 10
229.7621984116
 20
240.8894521613
 40
135.5484656657
100
AcDbArc
 50
68.223107888
 51
111.776892112
  0
ARC
  5
3DC
100
AcDbEntity
  8
0
100
AcDbCircle
 62
7
  6
CONTINUOUS
 10
229.7621984116
 20
240.8894521613
 40
133.4545894151
100
AcDbArc
 50
294.4188131654
 51
65.5811868346
  0
ARC
  5
3DD
100
AcDbEntity
  8
0
100
AcDbCircle
 62
7
  6
CONTINUOUS
 10
229.7621984116
 20
240.8894521613
 40
133.4545894151
100
AcDbArc
 50
114.4188131654
 51
245.5811868346
  0
ARC
  5
3DE
100
AcDbEntity
  8
0
100
AcDbCircle
 62
7
  6
CONTINUOUS
 10
229.7621984116
 20
240.8894521613
 40
133.4463866742
100
AcDbArc
 50
249.8647926991
 51
290.1352073029
  0
ARC
  5
3DF
100
AcDbEntity
  8
0
100
AcDbCircle
 62
7
  6
CONTINUOUS
 10
229.7621984116
 20
240.8894521613
 40
133.4463866742
100
AcDbArc
 50
69.8647926991
 51
110.1352073029
  0
ARC
  5
3E0
100
AcDbEntity
  8
0
100
AcDbCircle
 62
7
  6
CONTINUOUS
 10
229.7621984116
 20
240.8894521613
 40
133.0498421185
100
AcDbArc
 50
294.4188131654
 51
65.5811868346
  0
ARC
  5
3E1
100
AcDbEntity
  8
0
100
AcDbCircle
 62
7
  6
CONTINUOUS
 10
229.7621984116
 20
240.8894521613
 40
133.0498421185
100
AcDbArc
 50
114.4188131654
 51
245.5811868346
  0
ARC
  5
3E2
100
AcDbEntity
  8
02___PRT_ALL_AXES
100
AcDbCircle
 62
7
  6
CONTINUOUS
 10
229.7621984116
 20
240.8894521613
 40
132.363554358
100
AcDbArc
 50
292.0172661573
 51
67.9827338427
  0
ARC
  5
3E3
100
AcDbEntity
  8
02___PRT_ALL_AXES
100
AcDbCircle
 62
7
  6
CONTINUOUS
 10
229.7621984116
 20
240.8894521613
 40
132.363554358
100
AcDbArc
 50
112.0172661573
 51
247.9827338427
  0
ARC
  5
3E4
100
AcDbEntity
  8
0
100
AcDbCircle
 62
7
  6
CONTINUOUS
 10
229.7621984116
 20
240.8894521613
 40
130.1046538276
100
AcDbArc
 50
294.5426847481
 51
65.4573152519
  0
ARC
  5
3E5
100
AcDbEntity
  8
0
100
AcDbCircle
 62
7
  6
CONTINUOUS
 10
229.7621984116
 20
240.8894521613
 40
130.1046538276
100
AcDbArc
 50
114.5426847481
 51
245.4573152519
  0
ARC
  5
3E6
100
AcDbEntity
  8
0
100
AcDbCircle
 62
7
  6
CONTINUOUS
 10
229.7621984116
 20
240.8894521613
 40
130.100999903
100
AcDbArc
 50
294.5426847481
 51
65.4573152519
  0
ARC
  5
3E7
100
AcDbEntity
  8
0
100
AcDbCircle
 62
7
  6
CONTINUOUS
 10
229.7621984116
 20
240.8894521613
 40
130.100999903
100
AcDbArc
 50
114.5426847481
 51
245.4573152519
  0
ARC
  5
3E8
100
AcDbEntity
  8
0
100
AcDbCircle
 62
7
  6
CONTINUOUS
 10
229.7621984116
 20
240.8894521613
 40
128.7276713744
100
AcDbArc
 50
294.5426847481
 51
65.4573152519
  0
ARC
  5
3E9
100
AcDbEntity
  8
0
100
AcDbCircle
 62
7
  6
CONTINUOUS
 10
229.7621984116
 20
240.8894521613
 40
128.7276713744
100
AcDbArc
 50
114.5426847481
 51
245.4573152519
  0
ARC
  5
3EA
100
AcDbEntity
  8
0
100
AcDbCircle
 62
7
  6
CONTINUOUS
 10
229.7621984116
 20
240.8894521613
 40
125.2361971985
100
AcDbArc
 50
294.5426847481
 51
65.4573152519
  0
ARC
  5
3EB
100
AcDbEntity
  8
0
100
AcDbCircle
 62
7
  6
CONTINUOUS
 10
229.7621984116
 20
240.8894521613
 40
125.2361971985
100
AcDbArc
 50
114.5426847481
 51
245.4573152519
  0
ARC
  5
3EC
100
AcDbEntity
  8
0
100
AcDbCircle
 62
7
  6
CONTINUOUS
 10
229.7621984116
 20
240.8894521613
 40
123.757848156
100
AcDbArc
 50
72.3541645043
 51
74.9127210141
  0
ARC
  5
3ED
100
AcDbEntity
  8
0
100
AcDbCircle
 62
7
  6
CONTINUOUS
 10
229.7621984116
 20
240.8894521613
 40
123.757848156
100
AcDbArc
 50
105.0872789864
 51
107.6458354964
  0
ARC
  5
3EE
100
AcDbEntity
  8
0
100
AcDbCircle
 62
7
  6
CONTINUOUS
 10
229.7621984116
 20
240.8894521613
 40
123.757848156
100
AcDbArc
 50
252.3541645043
 51
254.9127210141
  0
ARC
  5
3EF
100
AcDbEntity
  8
0
100
AcDbCircle
 62
7
  6
CONTINUOUS
 10
229.7621984116
 20
240.8894521613
 40
123.757848156
100
AcDbArc
 50
285.0872789864
 51
287.6458354964
  0
ARC
  5
3F0
100
AcDbEntity
  8
0
100
AcDbCircle
 62
7
  6
CONTINUOUS
 10
229.7621984116
 20
240.8894521613
 40
121.8604815599
100
AcDbArc
 50
253.7523371718
 51
256.6242686496
  0
ARC
  5
3F1
100
AcDbEntity
  8
0
100
AcDbCircle
 62
7
  6
CONTINUOUS
 10
229.7621984116
 20
240.8894521613
 40
121.8604815599
100
AcDbArc
 50
283.3757313417
 51
286.247662829
  0
ARC
  5
3F2
100
AcDbEntity
  8
0
100
AcDbCircle
 62
7
  6
CONTINUOUS
 10
229.7621984116
 20
240.8894521613
 40
121.8604815599
100
AcDbArc
 50
73.7523371718
 51
76.6242686496
  0
ARC
  5
3F3
100
AcDbEntity
  8
0
100
AcDbCircle
 62
7
  6
CONTINUOUS
 10
229.7621984116
 20
240.8894521613
 40
121.8604815599
100
AcDbArc
 50
103.3757313417
 51
106.247662829
  0
ARC
  5
3F4
100
AcDbEntity
  8
0
100
AcDbCircle
 62
7
  6
CONTINUOUS
 10
230.7063519759
 20
240.8896553855
 40
114.536731724
100
AcDbArc
 50
355.3357761895
 51
4.0556481193
  0
ARC
  5
3F5
100
AcDbEntity
  8
0
100
AcDbCircle
 62
7
  6
CONTINUOUS
 10
230.7063200113
 20
240.8896555584
 40
110.9838352594
100
AcDbArc
 50
355.3358261601
 51
4.0555981401
  0
ARC
  5
3F6
100
AcDbEntity
  8
0
100
AcDbCircle
 62
7
  6
CONTINUOUS
 10
229.7662748942
 20
240.8894521613
 40
2.5040632316
100
AcDbArc
 50
175.3827510197
 51
184.6172489803
  0
ARC
  5
3F7
100
AcDbEntity
  8
0
100
AcDbCircle
 62
7
  6
CONTINUOUS
 10
229.7621984116
 20
240.8894521613
 40
2.5
100
AcDbArc
 50
107.3065287378
 51
175.3752303119
  0
ARC
  5
3F8
100
AcDbEntity
  8
0
100
AcDbCircle
 62
7
  6
CONTINUOUS
 10
229.7621984116
 20
240.8894521613
 40
2.5
100
AcDbArc
 50
74.8858998192
 51
105.76026854
  0
ARC
  5
3F9
100
AcDbEntity
  8
0
100
AcDbCircle
 62
7
  6
CONTINUOUS
 10
229.7621984116
 20
240.8894521613
 40
2.5
100
AcDbArc
 50
4.6247722566
 51
72.6934712622
  0
ARC
  5
3FA
100
AcDbEntity
  8
0
100
AcDbCircle
 62
7
  6
CONTINUOUS
 10
229.7621984116
 20
240.8894521613
 40
2.5
100
AcDbArc
 50
184.6247722563
 51
355.3752303119
  0
ARC
  5
3FB
100
AcDbEntity
  8
0
100
AcDbCircle
 62
7
  6
CONTINUOUS
 10
233.3995333922
 20
344.3332857594
 40
8.5404755816
100
AcDbArc
 50
84.2813665312
 51
84.9100780454
  0
ARC
  5
3FC
100
AcDbEntity
  8
0
100
AcDbCircle
 62
7
  6
CONTINUOUS
 10
233.503349239
 20
345.384754651
 40
7.4838952085
100
AcDbArc
 50
84.1531248462
 51
84.2700916687
  0
ARC
  5
3FD
100
AcDbEntity
  8
0
100
AcDbCircle
 62
7
  6
CONTINUOUS
 10
232.9121984116
 20
355.4939764389
 40
0.35
100
AcDbArc
 50
0.0
 51
90.0
  0
ARC
  5
3FE
100
AcDbEntity
  8
0
100
AcDbCircle
 62
7
  6
CONTINUOUS
 10
232.8621984116
 20
356.1939764389
 40
0.35
100
AcDbArc
 50
180.0
 51
270.0
  0
ARC
  5
3FF
100
AcDbEntity
  8
0
100
AcDbCircle
 62
7
  6
CONTINUOUS
 10
252.6709506031
 20
242.4739263582
 40
92.6290705884
100
AcDbArc
 50
84.0982732269
 51
86.6799431606
  0
ARC
  5
400
100
AcDbEntity
  8
0
100
AcDbCircle
 62
7
  6
CONTINUOUS
 10
253.3092878693
 20
242.6547982437
 40
88.3606983543
100
AcDbArc
 50
84.4979492704
 51
87.0863704747
  0
ARC
  5
401
100
AcDbEntity
  8
0
100
AcDbCircle
 62
7
  6
CONTINUOUS
 10
229.7633977433
 20
652.5226275172
 40
502.4280318856
100
AcDbArc
 50
266.8007515626
 51
273.1992542236
  0
ARC
  5
402
100
AcDbEntity
  8
0
100
AcDbCircle
 62
7
  6
CONTINUOUS
 10
229.7621984116
 20
488.3894521613
 40
139.7638028015
100
AcDbArc
 50
252.1563093439
 51
287.8436906561
  0
ARC
  5
403
100
AcDbEntity
  8
0
100
AcDbCircle
 62
7
  6
CONTINUOUS
 10
229.7621984116
 20
488.3894521613
 40
136.2723286256
100
AcDbArc
 50
252.1563093439
 51
287.8436906561
  0
ARC
  5
404
100
AcDbEntity
  8
0
100
AcDbCircle
 62
7
  6
CONTINUOUS
 10
229.7621984116
 20
488.3894521613
 40
134.899000097
100
AcDbArc
 50
271.5490653656
 51
287.8436906561
  0
ARC
  5
405
100
AcDbEntity
  8
0
100
AcDbCircle
 62
7
  6
CONTINUOUS
 10
229.7621984116
 20
488.3894521613
 40
134.899000097
100
AcDbArc
 50
252.1563093439
 51
268.450934249
  0
ARC
  5
406
100
AcDbEntity
  8
0
100
AcDbCircle
 62
7
  6
CONTINUOUS
 10
229.7621984116
 20
488.3894521613
 40
134.8953461724
100
AcDbArc
 50
271.5483625451
 51
287.8436906561
  0
ARC
  5
407
100
AcDbEntity
  8
0
100
AcDbCircle
 62
7
  6
CONTINUOUS
 10
229.7621984116
 20
488.3894521613
 40
134.8953461724
100
AcDbArc
 50
252.1563093439
 51
268.4516311302
  0
ARC
  5
408
100
AcDbEntity
  8
0
100
AcDbCircle
 62
7
  6
CONTINUOUS
 10
229.7621984116
 20
490.3894521613
 40
133.9499751157
100
AcDbArc
 50
252.2011524729
 51
268.8236166338
  0
ARC
  5
409
100
AcDbEntity
  8
0
100
AcDbCircle
 62
7
  6
CONTINUOUS
 10
229.7621984116
 20
490.3894521613
 40
133.9499751157
100
AcDbArc
 50
271.1763833662
 51
287.7988475271
  0
ARC
  5
40A
100
AcDbEntity
  8
0
100
AcDbCircle
 62
7
  6
CONTINUOUS
 10
229.7621984116
 20
490.3894521613
 40
133.5343008641
100
AcDbArc
 50
252.2011524729
 51
287.7988475271
  0
ARC
  5
40B
100
AcDbEntity
  8
0
100
AcDbCircle
 62
7
  6
CONTINUOUS
 10
229.7621984116
 20
490.3894521613
 40
131.5346054738
100
AcDbArc
 50
252.2011524729
 51
287.7988475271
  0
ARC
  5
40C
100
AcDbEntity
  8
0
100
AcDbCircle
 62
7
  6
CONTINUOUS
 10
276.6834879502
 20
344.2366465501
 40
21.9653945262
100
AcDbArc
 50
92.5679655934
 51
107.7988475272
  0
ARC
  5
40D
100
AcDbEntity
  8
0
100
AcDbCircle
 62
7
  6
CONTINUOUS
 10
277.3454931967
 20
345.6884478409
 40
21.2489105722
100
AcDbArc
 50
65.5882187915
 51
82.6883144153
  0
ARC
  5
40E
100
AcDbEntity
  8
0
100
AcDbCircle
 62
7
  6
CONTINUOUS
 10
276.6206584968
 20
344.0995388842
 40
20.1054064403
100
AcDbArc
 50
65.5796808695
 51
81.8822277834
  0
ARC
  5
40F
100
AcDbEntity
  8
0
100
AcDbCircle
 62
7
  6
CONTINUOUS
 10
276.6834879502
 20
344.2366465501
 40
19.9656991359
100
AcDbArc
 50
92.5679656639
 51
107.7988475271
  0
ARC
  5
410
100
AcDbEntity
  8
0
100
AcDbCircle
 62
7
  6
CONTINUOUS
 10
276.6693457596
 20
344.4880945641
 40
19.7138702065
100
AcDbArc
 50
81.8628484615
 51
92.5596476413
  0
ARC
  5
411
100
AcDbEntity
  8
0
100
AcDbCircle
 62
7
  6
CONTINUOUS
 10
276.6834879502
 20
344.2366465501
 40
19.5498421185
100
AcDbArc
 50
65.5811868346
 51
107.7988475271
  0
ARC
  5
412
100
AcDbEntity
  8
0
100
AcDbCircle
 62
7
  6
CONTINUOUS
 10
276.4914403003
 20
343.2253107471
 40
17.6046538276
100
AcDbArc
 50
65.4573152519
 51
107.8436906561
  0
ARC
  5
413
100
AcDbEntity
  8
0
100
AcDbCircle
 62
7
  6
CONTINUOUS
 10
276.4914403003
 20
343.2253107471
 40
17.600999903
100
AcDbArc
 50
65.4573152519
 51
107.8436906561
  0
ARC
  5
414
100
AcDbEntity
  8
0
100
AcDbCircle
 62
7
  6
CONTINUOUS
 10
276.4914403003
 20
343.2253107471
 40
16.2276713744
100
AcDbArc
 50
65.4573152519
 51
107.8436906561
  0
ARC
  5
415
100
AcDbEntity
  8
0
100
AcDbCircle
 62
7
  6
CONTINUOUS
 10
276.4914403003
 20
343.2253107471
 40
12.7361971985
100
AcDbArc
 50
65.4573152519
 51
107.8436906561
  0
ARC
  5
416
100
AcDbEntity
  8
0
100
AcDbCircle
 62
7
  6
CONTINUOUS
 10
20411.057984345
 20
6493.4210675573
 40
21127.7433090578
100
AcDbArc
 50
197.2207071854
 51
197.4696014565
  0
ARC
  5
417
100
AcDbEntity
  8
0
100
AcDbCircle
 62
7
  6
CONTINUOUS
 10
19341.9016377351
 20
6769.9725772198
 40
20196.6716654586
100
AcDbArc
 50
198.8682668659
 51
199.1306085245
  0
ARC
  5
418
100
AcDbEntity
  8
02___PRT_ALL_AXES
100
AcDbCircle
 62
7
  6
CONTINUOUS
 10
107.7621984116
 20
1106.3924424822
 40
32.2263476317
100
AcDbArc
 50
116.4308746475
 51
178.0
  0
ARC
  5
419
100
AcDbEntity
  8
02___PRT_ALL_AXES
100
AcDbCircle
 62
7
  6
CONTINUOUS
 10
351.7621984116
 20
1106.3924424822
 40
32.2263476317
100
AcDbArc
 50
2.0
 51
63.5691253525
  0
ARC
  5
41A
100
AcDbEntity
  8
0
100
AcDbCircle
 62
7
  6
CONTINUOUS
 10
351.7621984116
 20
1106.3924424822
 40
32.2263476317
100
AcDbArc
 50
2.0
 51
63.5691253525
  0
ARC
  5
41B
100
AcDbEntity
  8
0
100
AcDbCircle
 62
7
  6
CONTINUOUS
 10
107.7621984116
 20
1106.3924424822
 40
32.2263476317
100
AcDbArc
 50
116.4308746475
 51
178.0
  0
ARC
  5
41C
100
AcDbEntity
  8
02___PRT_ALL_AXES
100
AcDbCircle
 62
7
  6
CONTINUOUS
 10
354.1521984116
 20
508.1922669035
 40
25.61
100
AcDbArc
 50
309.9012720995
 51
359.3208559318
  0
ARC
  5
41D
100
AcDbEntity
  8
02___PRT_ALL_AXES
100
AcDbCircle
 62
7
  6
CONTINUOUS
 10
105.3721984116
 20
508.1922669035
 40
25.61
100
AcDbArc
 50
180.6791440682
 51
230.0987279005
  0
ARC
  5
41E
100
AcDbEntity
  8
0
100
AcDbCircle
 62
7
  6
CONTINUOUS
 10
354.1521984116
 20
508.1922669035
 40
25.61
100
AcDbArc
 50
309.9012720995
 51
359.3208559318
  0
ARC
  5
41F
100
AcDbEntity
  8
0
100
AcDbCircle
 62
7
  6
CONTINUOUS
 10
76.1149038547
 20
473.2025139005
 40
20.0
100
AcDbArc
 50
23.6293777307
 51
50.0987279005
  0
ARC
  5
420
100
AcDbEntity
  8
0
100
AcDbCircle
 62
7
  6
CONTINUOUS
 10
383.4094929685
 20
473.2025139005
 40
20.0
100
AcDbArc
 50
129.9012720995
 51
156.3706222693
  0
ARC
  5
421
100
AcDbEntity
  8
0
100
AcDbCircle
 62
7
  6
CONTINUOUS
 10
354.9983956101
 20
1132.5957669035
 40
3.5
100
AcDbArc
 50
54.9049165101
 51
90.0
  0
ARC
  5
422
100
AcDbEntity
  8
0
100
AcDbCircle
 62
7
  6
CONTINUOUS
 10
104.5260012131
 20
1132.5957669035
 40
3.5
100
AcDbArc
 50
90.0
 51
125.0950834899
  0
ARC
  5
423
100
AcDbEntity
  8
0
100
AcDbCircle
 62
7
  6
CONTINUOUS
 10
365.216483217
 20
1133.4592914219
 40
2.0
100
AcDbArc
 50
63.5691253525
 51
90.0
  0
ARC
  5
424
100
AcDbEntity
  8
0
100
AcDbCircle
 62
7
  6
CONTINUOUS
 10
94.3079136062
 20
1133.4592914219
 40
2.0
100
AcDbArc
 50
90.0
 51
116.4308746475
  0
ARC
  5
425
100
AcDbEntity
  8
0
100
AcDbCircle
 62
3
  6
CONTINUOUS
 10
377.2621984116
 20
510.1922669035
 40
2.0
100
AcDbArc
 50
270.0
 51
360.0
  0
ARC
  5
426
100
AcDbEntity
  8
0
100
AcDbCircle
 62
3
  6
CONTINUOUS
 10
82.2621984116
 20
510.1922669035
 40
2.0
100
AcDbArc
 50
180.0
 51
270.0
  0
ARC
  5
427
100
AcDbEntity
  8
0
100
AcDbCircle
 62
7
  6
CONTINUOUS
 10
383.2997247351
 20
1092.2957669035
 40
1.2
100
AcDbArc
 50
270.0
 51
2.0
  0
ARC
  5
428
100
AcDbEntity
  8
0
100
AcDbCircle
 62
7
  6
CONTINUOUS
 10
76.2246720881
 20
1092.2957669035
 40
1.2
100
AcDbArc
 50
178.0
 51
270.0
  0
ARC
  5
429
100
AcDbEntity
  8
0
100
AcDbCircle
 62
7
  6
CONTINUOUS
 10
80.0639764274
 20
507.8922669035
 40
0.3
100
AcDbArc
 50
90.0
 51
180.6791440682
  0
ARC
  5
42A
100
AcDbEntity
  8
0
100
AcDbCircle
 62
7
  6
CONTINUOUS
 10
379.4604203958
 20
507.8922669035
 40
0.3
100
AcDbArc
 50
359.3208559318
 51
90.0
  0
SPLINE
  5
42B
100
AcDbEntity
  8
0
100
AcDbSpline
 62
7
  6
CONTINUOUS
 70
0
 71
3
 72
25
 73
21
 74
0
 42
0.0000001
 43
0.0000001
 44
0.0000000001
 40
0.0
 40
0.0
 40
0.0
 40
0.0
 40
0.0243521023
 40
0.0454198403
 40
0.0631346468
 40
0.0774589005
 40
0.0884059048
 40
0.0961022436
 40
0.1010421538
 40
0.1050314481
 40
0.1108506629
 40
0.1196757529
 40
0.1318063494
 40
0.1473114317
 40
0.1883520293
 40
0.2423100108
 40
0.3853871925
 40
0.5673853783
 40
0.7766687579
 40
1.0
 40
1.0
 40
1.0
 40
1.0
 10
234.2661523534
 20
128.9492306758
 30
0.0
 10
234.3121089487
 20
128.9539397368
 30
0.0
 10
234.3977529609
 20
128.9635191053
 30
0.0
 10
234.5163896614
 20
128.9799198712
 30
0.0
 10
234.6157130115
 20
128.9973473299
 30
0.0
 10
234.6950849402
 20
129.0155064281
 30
0.0
 10
234.7551822849
 20
129.0347757525
 30
0.0
 10
234.7947494421
 20
129.0538809967
 30
0.0
 10
234.8202695884
 20
129.0774374166
 30
0.0
 10
234.8150048232
 20
129.1085409066
 30
0.0
 10
234.7854963707
 20
129.130759602
 30
0.0
 10
234.7407921908
 20
129.1539263656
 30
0.0
 10
234.6753044187
 20
129.1773675642
 30
0.0
 10
234.5500936169
 20
129.2130081759
 30
0.0
 10
234.3444742744
 20
129.2554390649
 30
0.0
 10
233.8984326136
 20
129.3262016654
 30
0.0
 10
233.1830308144
 20
129.402838229
 30
0.0
 10
232.1717905763
 20
129.4745806841
 30
0.0
 10
231.0065972909
 20
129.521617564
 30
0.0
 10
230.1858696108
 20
129.5324997412
 30
0.0
 10
229.7621984116
 20
129.5325013298
 30
0.0
  0
SPLINE
  5
42C
100
AcDbEntity
  8
0
100
AcDbSpline
 62
7
  6
CONTINUOUS
 70
0
 71
3
 72
25
 73
21
 74
0
 42
0.0000001
 43
0.0000001
 44
0.0000000001
 40
0.0
 40
0.0
 40
0.0
 40
0.0
 40
0.2233341607
 40
0.4326178268
 40
0.6146112707
 40
0.7576769111
 40
0.8116262661
 40
0.8526563475
 40
0.8681555359
 40
0.880279924
 40
0.8890987397
 40
0.89491249
 40
0.8989005599
 40
0.9038455072
 40
0.9115492512
 40
0.922504555
 40
0.9368375865
 40
0.9545614741
 40
0.9756384946
 40
1.0
 40
1.0
 40
1.0
 40
1.0
 10
229.7621984116
 20
129.5325013298
 30
0.0
 10
229.3384905622
 20
129.5324993521
 30
0.0
 10
228.5176965408
 20
129.5216159385
 30
0.0
 10
227.3524206588
 20
129.4745714373
 30
0.0
 10
226.3411371111
 20
129.402818819
 30
0.0
 10
225.6257301434
 20
129.3261730872
 30
0.0
 10
225.1797156506
 20
129.2554021289
 30
0.0
 10
224.9741288778
 20
129.2129674101
 30
0.0
 10
224.8489545708
 20
129.1773241713
 30
0.0
 10
224.7834968533
 20
129.1538805743
 30
0.0
 10
224.7388302827
 20
129.1307173989
 30
0.0
 10
224.7093449002
 20
129.1084844071
 30
0.0
 10
224.7041557897
 20
129.0773693718
 30
0.0
 10
224.7297236479
 20
129.0538381744
 30
0.0
 10
224.7693332859
 20
129.0347268734
 30
0.0
 10
224.8294859811
 20
129.0154606648
 30
0.0
 10
224.9089142689
 20
128.9973008688
 30
0.0
 10
225.0082978067
 20
128.9798748356
 30
0.0
 10
225.1269966383
 20
128.9634752241
 30
0.0
 10
225.2126827894
 20
128.9538966535
 30
0.0
 10
225.2586607749
 20
128.949188052
 30
0.0
  0
SPLINE
  5
42D
100
AcDbEntity
  8
0
100
AcDbSpline
 62
7
  6
CONTINUOUS
 70
0
 71
3
 72
25
 73
21
 74
0
 42
0.0000001
 43
0.0000001
 44
0.0000000001
 40
0.0
 40
0.0
 40
0.0
 40
0.0
 40
0.0243521132
 40
0.0454198616
 40
0.0631346783
 40
0.0774589424
 40
0.0884059568
 40
0.0961023042
 40
0.1010422204
 40
0.1050315132
 40
0.1108507215
 40
0.1196758047
 40
0.1318063943
 40
0.1473114701
 40
0.1883520576
 40
0.2423100312
 40
0.3853872059
 40
0.5673853917
 40
0.7766687807
 40
1.0
 40
1.0
 40
1.0
 40
1.0
 10
225.2582449522
 20
352.8296736742
 30
0.0
 10
225.2122883322
 20
352.8249646133
 30
0.0
 10
225.1266442717
 20
352.8153852464
 30
0.0
 10
225.0080075004
 20
352.7989844815
 30
0.0
 10
224.9086840815
 20
352.7815570236
 30
0.0
 10
224.8293120867
 20
352.7633979248
 30
0.0
 10
224.7692146762
 20
352.7441286048
 30
0.0
 10
224.7296474682
 20
352.725023353
 30
0.0
 10
224.7041272676
 20
352.7014669621
 30
0.0
 10
224.709391941
 20
352.6703634587
 30
0.0
 10
224.7389003675
 20
352.6481447453
 30
0.0
 10
224.7836045051
 20
352.6249779867
 30
0.0
 10
224.8490922446
 20
352.6015367847
 30
0.0
 10
224.9743030094
 20
352.565896169
 30
0.0
 10
225.1799223233
 20
352.5234652756
 30
0.0
 10
225.625963973
 20
352.4527026648
 30
0.0
 10
226.3413658053
 20
352.3760660825
 30
0.0
 10
227.3526061339
 20
352.3043236627
 30
0.0
 10
228.517799494
 20
352.2572865663
 30
0.0
 10
229.3385272194
 20
352.2464049699
 30
0.0
 10
229.7621984116
 20
352.2464029927
 30
0.0
  0
SPLINE
  5
42E
100
AcDbEntity
  8
0
100
AcDbSpline
 62
7
  6
CONTINUOUS
 70
0
 71
3
 72
25
 73
21
 74
0
 42
0.0000001
 43
0.0000001
 44
0.0000000001
 40
0.0
 40
0.0
 40
0.0
 40
0.0
 40
0.2233341925
 40
0.4326178502
 40
0.6146112786
 40
0.7576768879
 40
0.8116262221
 40
0.8526562787
 40
0.8681554541
 40
0.8802798284
 40
0.8890986301
 40
0.8949123687
 40
0.898900436
 40
0.9038453941
 40
0.911549154
 40
0.9225044754
 40
0.9368375257
 40
0.9545614332
 40
0.9756384742
 40
1.0
 40
1.0
 40
1.0
 40
1.0
 10
229.7621984116
 20
352.2464029927
 30
0.0
 10
230.1859063883
 20
352.246404582
 30
0.0
 10
231.0067005839
 20
352.2572885822
 30
0.0
 10
232.171976665
 20
352.3043328914
 30
0.0
 10
233.1832602672
 20
352.3760855789
 30
0.0
 10
233.8986672196
 20
352.4527313226
 30
0.0
 10
234.3446816339
 20
352.5235022984
 30
0.0
 10
234.5502683274
 20
352.5659370256
 30
0.0
 10
234.6754425502
 20
352.6015802692
 30
0.0
 10
234.7409002006
 20
352.6250238707
 30
0.0
 10
234.7855666885
 20
352.6481870392
 30
0.0
 10
234.8150520204
 20
352.6704200606
 30
0.0
 10
234.8202409712
 20
352.7015351206
 30
0.0
 10
234.794673009
 20
352.7250662634
 30
0.0
 10
234.7550632805
 20
352.7441775769
 30
0.0
 10
234.6949104672
 20
352.7634437796
 30
0.0
 10
234.615482058
 20
352.7816035773
 30
0.0
 10
234.516098389
 20
352.7990296065
 30
0.0
 10
234.3973994217
 20
352.8154292153
 30
0.0
 10
234.3117131788
 20
352.8250077848
 30
0.0
 10
234.2657351468
 20
352.8297163849
 30
0.0
  0
SPLINE
  5
42F
100
AcDbEntity
  8
0
100
AcDbSpline
 62
7
  6
CONTINUOUS
 70
0
 71
3
 72
17
 73
13
 74
0
 42
0.0000001
 43
0.0000001
 44
0.0000000001
 40
0.0
 40
0.0
 40
0.0
 40
0.0
 40
0.0109142988
 40
0.0283193006
 40
0.0538771717
 40
0.0878789102
 40
0.1805798003
 40
0.3037652594
 40
0.453156289
 40
0.6233367028
 40
0.8079631257
 40
1.0
 40
1.0
 40
1.0
 40
1.0
 10
233.2621984102
 20
127.593418043
 30
0.0
 10
233.2621960222
 20
127.6064017691
 30
0.0
 10
233.2420272742
 20
127.6378259025
 30
0.0
 10
233.1874875961
 20
127.6711116357
 30
0.0
 10
233.1032081399
 20
127.7079739456
 30
0.0
 10
232.9304480974
 20
127.7626599728
 30
0.0
 10
232.6396395892
 20
127.8266480572
 30
0.0
 10
232.2103677287
 20
127.8945384452
 30
0.0
 10
231.6868392556
 20
127.9538697262
 30
0.0
 10
231.0887274525
 20
128.0001188767
 30
0.0
 10
230.4387574942
 20
128.0294840169
 30
0.0
 10
229.9906468233
 20
128.0361547259
 30
0.0
 10
229.7621984116
 20
128.0361552544
 30
0.0
  0
SPLINE
  5
430
100
AcDbEntity
  8
0
100
AcDbSpline
 62
7
  6
CONTINUOUS
 70
0
 71
3
 72
17
 73
13
 74
0
 42
0.0000001
 43
0.0000001
 44
0.0000000001
 40
0.0
 40
0.0
 40
0.0
 40
0.0
 40
0.0109141312
 40
0.0283188661
 40
0.0538764872
 40
0.0878780182
 40
0.1805786437
 40
0.3037640435
 40
0.453155199
 40
0.6233358987
 40
0.8079627148
 40
1.0
 40
1.0
 40
1.0
 40
1.0
 10
226.2621984127
 20
354.185488014
 30
0.0
 10
226.2622002333
 20
354.1725044817
 30
0.0
 10
226.2823677748
 20
354.1410799896
 30
0.0
 10
226.3369066685
 20
354.1077942813
 30
0.0
 10
226.4211851247
 20
354.0709318464
 30
0.0
 10
226.5939443253
 20
354.0162456323
 30
0.0
 10
226.8847522401
 20
353.952257285
 30
0.0
 10
227.3140240083
 20
353.8843665963
 30
0.0
 10
227.8375530864
 20
353.8250349934
 30
0.0
 10
228.4356660816
 20
353.7787856061
 30
0.0
 10
229.0856376007
 20
353.749420167
 30
0.0
 10
229.5337494162
 20
353.7427497483
 30
0.0
 10
229.7621984116
 20
353.7427490681
 30
0.0
  0
SPLINE
  5
431
100
AcDbEntity
  8
0
100
AcDbSpline
 62
7
  6
CONTINUOUS
 70
0
 71
3
 72
15
 73
11
 74
0
 42
0.0000001
 43
0.0000001
 44
0.0000000001
 40
0.0
 40
0.0
 40
0.0
 40
0.0
 40
0.1249996622
 40
0.2499993677
 40
0.3749991416
 40
0.4999990207
 40
0.6249990332
 40
0.7499991985
 40
0.8749995262
 40
1.0
 40
1.0
 40
1.0
 40
1.0
 10
114.6607485551
 20
231.5743849688
 30
0.0
 10
115.0946790053
 20
226.258416331
 30
0.0
 10
116.8901475563
 20
215.6790232753
 30
0.0
 10
122.2780522243
 20
200.5310825819
 30
0.0
 10
130.2003273115
 20
186.5354280747
 30
0.0
 10
140.4181838569
 20
174.1177482087
 30
0.0
 10
152.6241528234
 20
163.6479813359
 30
0.0
 10
166.4534077143
 20
155.4390059099
 30
0.0
 10
181.4852188103
 20
149.7357679394
 30
0.0
 10
192.0236756819
 20
147.7153174053
 30
0.0
 10
197.3290871536
 20
147.1668680291
 30
0.0
  0
SPLINE
  5
432
100
AcDbEntity
  8
0
100
AcDbSpline
 62
7
  6
CONTINUOUS
 70
0
 71
3
 72
15
 73
11
 74
0
 42
0.0000001
 43
0.0000001
 44
0.0000000001
 40
0.0
 40
0.0
 40
0.0
 40
0.0
 40
0.1250004866
 40
0.2500008238
 40
0.3750009943
 40
0.5000010076
 40
0.6250008836
 40
0.750000651
 40
0.875000348
 40
1.0
 40
1.0
 40
1.0
 40
1.0
 10
260.9733730013
 20
147.0492606081
 30
0.0
 10
266.336394493
 20
147.531882976
 30
0.0
 10
277.0013843594
 20
149.4394120405
 30
0.0
 10
292.2395175585
 20
155.0338322816
 30
0.0
 10
306.2774181987
 20
163.1943912412
 30
0.0
 10
318.6798619678
 20
173.6730207483
 30
0.0
 10
329.0690387861
 20
186.1505627225
 30
0.0
 10
337.1263300715
 20
200.2481841692
 30
0.0
 10
342.6042191238
 20
215.5288490356
 30
0.0
 10
344.4257737895
 20
226.20915228
 30
0.0
 10
344.8637788124
 20
231.575965886
 30
0.0
  0
SPLINE
  5
433
100
AcDbEntity
  8
0
100
AcDbSpline
 62
7
  6
CONTINUOUS
 70
0
 71
3
 72
15
 73
11
 74
0
 42
0.0000001
 43
0.0000001
 44
0.0000000001
 40
0.0
 40
0.0
 40
0.0
 40
0.0
 40
0.124999663
 40
0.2499993682
 40
0.3749991424
 40
0.4999990217
 40
0.6249990343
 40
0.7499991999
 40
0.8749995277
 40
1.0
 40
1.0
 40
1.0
 40
1.0
 10
344.8636482678
 20
250.2045193578
 30
0.0
 10
344.4297177939
 20
255.5204882642
 30
0.0
 10
342.6342506318
 20
266.0998821675
 30
0.0
 10
337.2463433108
 20
281.2478226736
 30
0.0
 10
329.3240697621
 20
295.2434788947
 30
0.0
 10
319.1062105086
 20
307.6611575586
 30
0.0
 10
306.9002422413
 20
318.130926167
 30
0.0
 10
293.070985213
 20
326.3399002485
 30
0.0
 10
278.0391738485
 20
332.0431367002
 30
0.0
 10
267.5007169157
 20
334.0635939295
 30
0.0
 10
262.1953046005
 20
334.6120368175
 30
0.0
  0
SPLINE
  5
434
100
AcDbEntity
  8
0
100
AcDbSpline
 62
7
  6
CONTINUOUS
 70
0
 71
3
 72
15
 73
11
 74
0
 42
0.0000001
 43
0.0000001
 44
0.0000000001
 40
0.0
 40
0.0
 40
0.0
 40
0.0
 40
0.125000485
 40
0.2500008224
 40
0.3750009932
 40
0.5000010066
 40
0.6250008826
 40
0.7500006505
 40
0.8750003472
 40
1.0
 40
1.0
 40
1.0
 40
1.0
 10
198.5510291247
 20
334.7296441917
 30
0.0
 10
193.1880067641
 20
334.2470286626
 30
0.0
 10
182.5230165748
 20
332.3394928487
 30
0.0
 10
167.2848826036
 20
326.7450750119
 30
0.0
 10
153.2469791725
 20
318.5845179882
 30
0.0
 10
140.8445357381
 20
308.1058867479
 30
0.0
 10
130.4553561591
 20
295.6283456816
 30
0.0
 10
122.3980669856
 20
281.530721881
 30
0.0
 10
116.9201759399
 20
266.2500567073
 30
0.0
 10
115.0986230698
 20
255.5697524034
 30
0.0
 10
114.6606180114
 20
250.2029384428
 30
0.0
  0
SPLINE
  5
435
100
AcDbEntity
  8
0
100
AcDbSpline
 62
7
  6
CONTINUOUS
 70
0
 71
3
 72
15
 73
11
 74
0
 42
0.0000001
 43
0.0000001
 44
0.0000000001
 40
0.0
 40
0.0
 40
0.0
 40
0.0
 40
0.1249987206
 40
0.2499979413
 40
0.3749976004
 40
0.4999976326
 40
0.6249979638
 40
0.7499985186
 40
0.8749992251
 40
1.0
 40
1.0
 40
1.0
 40
1.0
 10
198.9124523721
 20
330.7133368227
 30
0.0
 10
193.7621016627
 20
330.2862921155
 30
0.0
 10
183.5138522513
 20
328.5215362576
 30
0.0
 10
168.8590207946
 20
323.2314493247
 30
0.0
 10
155.3503901184
 20
315.4587046896
 30
0.0
 10
143.4108761249
 20
305.4430198749
 30
0.0
 10
133.4072580605
 20
293.4933247795
 30
0.0
 10
125.648550858
 20
279.9764540125
 30
0.0
 10
120.3745714058
 20
265.3155343695
 30
0.0
 10
118.6223294536
 20
255.0649035863
 30
0.0
 10
118.2018345078
 20
249.9139287718
 30
0.0
  0
SPLINE
  5
436
100
AcDbEntity
  8
0
100
AcDbSpline
 62
7
  6
CONTINUOUS
 70
0
 71
3
 72
15
 73
11
 74
0
 42
0.0000001
 43
0.0000001
 44
0.0000000001
 40
0.0
 40
0.0
 40
0.0
 40
0.0
 40
0.1250007635
 40
0.2500014589
 40
0.3750020052
 40
0.5000023317
 40
0.6250023642
 40
0.7500020295
 40
0.8750012623
 40
1.0
 40
1.0
 40
1.0
 40
1.0
 10
341.3224379421
 20
249.9154602236
 30
0.0
 10
340.9058179745
 20
255.0177825023
 30
0.0
 10
339.1785624434
 20
265.171851221
 30
0.0
 10
333.9909121242
 20
279.7058827771
 30
0.0
 10
326.3617621174
 20
293.1255119494
 30
0.0
 10
316.5224944374
 20
305.0185651956
 30
0.0
 10
304.7713359375
 20
315.0267916729
 30
0.0
 10
291.4624884124
 20
322.847308439
 30
0.0
 10
277.0048136735
 20
328.2433677768
 30
0.0
 10
266.8770739456
 20
330.1176191076
 30
0.0
 10
261.7814335355
 20
330.608398292
 30
0.0
  0
SPLINE
  5
437
100
AcDbEntity
  8
0
100
AcDbSpline
 62
7
  6
CONTINUOUS
 70
0
 71
3
 72
9
 73
5
 74
0
 42
0.0000001
 43
0.0000001
 44
0.0000000001
 40
0.0
 40
0.0
 40
0.0
 40
0.0
 40
0.2610580321
 40
1.0
 40
1.0
 40
1.0
 40
1.0
 10
232.2516269689
 20
241.1191159547
 30
0.0
 10
241.7424046687
 20
241.8906582218
 30
0.0
 10
278.0978965108
 20
244.8406551627
 30
0.0
 10
314.4552126968
 20
247.7681978062
 30
0.0
 10
341.3224379421
 20
249.9154602236
 30
0.0
  0
SPLINE
  5
438
100
AcDbEntity
  8
0
100
AcDbSpline
 62
7
  6
CONTINUOUS
 70
0
 71
3
 72
9
 73
5
 74
0
 42
0.0000001
 43
0.0000001
 44
0.0000000001
 40
0.0
 40
0.0
 40
0.0
 40
0.0
 40
0.2610578856
 40
1.0
 40
1.0
 40
1.0
 40
1.0
 10
232.2540586974
 20
241.0910267535
 30
0.0
 10
241.7525225271
 20
241.762238346
 30
0.0
 10
278.1373943468
 20
244.3282650052
 30
0.0
 10
314.5237495736
 20
246.8732866288
 30
0.0
 10
341.4121979739
 20
248.7389230414
 30
0.0
  0
SPLINE
  5
439
100
AcDbEntity
  8
0
100
AcDbSpline
 62
7
  6
CONTINUOUS
 70
0
 71
3
 72
15
 73
11
 74
0
 42
0.0000001
 43
0.0000001
 44
0.0000000001
 40
0.0
 40
0.0
 40
0.0
 40
0.0
 40
0.1249987205
 40
0.2499979412
 40
0.3749976003
 40
0.4999976326
 40
0.6249979636
 40
0.7499985185
 40
0.8749992248
 40
1.0
 40
1.0
 40
1.0
 40
1.0
 10
260.6119446821
 20
151.0655668346
 30
0.0
 10
265.7622954576
 20
151.4926110988
 30
0.0
 10
276.0105448419
 20
153.2573679681
 30
0.0
 10
290.6653762459
 20
158.5474548213
 30
0.0
 10
304.1740075974
 20
166.3201986279
 30
0.0
 10
316.113521126
 20
176.3358841019
 30
0.0
 10
326.1171399627
 20
188.2855787014
 30
0.0
 10
333.8758461251
 20
201.8024501764
 30
0.0
 10
339.1498261837
 20
216.4633696896
 30
0.0
 10
340.9020673613
 20
226.7140006963
 30
0.0
 10
341.3225623154
 20
231.8649755507
 30
0.0
  0
SPLINE
  5
43A
100
AcDbEntity
  8
0
100
AcDbSpline
 62
7
  6
CONTINUOUS
 70
0
 71
3
 72
15
 73
11
 74
0
 42
0.0000001
 43
0.0000001
 44
0.0000000001
 40
0.0
 40
0.0
 40
0.0
 40
0.0
 40
0.1250007637
 40
0.2500014589
 40
0.3750020053
 40
0.5000023317
 40
0.6250023643
 40
0.7500020295
 40
0.8750012624
 40
1.0
 40
1.0
 40
1.0
 40
1.0
 10
118.2019588811
 20
231.8634440989
 30
0.0
 10
118.618578854
 20
226.7611218079
 30
0.0
 10
120.3458337728
 20
216.6070529371
 30
0.0
 10
125.5334849661
 20
202.0730216908
 30
0.0
 10
133.1626341488
 20
188.6533920399
 30
0.0
 10
143.0019025696
 20
176.7603393748
 30
0.0
 10
154.7530604631
 20
166.7521122132
 30
0.0
 10
168.0619084431
 20
158.9315960458
 30
0.0
 10
182.5195829716
 20
153.5355365506
 30
0.0
 10
192.6473226036
 20
151.6612841598
 30
0.0
 10
197.7429630573
 20
151.1705053946
 30
0.0
  0
SPLINE
  5
43B
100
AcDbEntity
  8
0
100
AcDbSpline
 62
7
  6
CONTINUOUS
 70
0
 71
3
 72
9
 73
5
 74
0
 42
0.0000001
 43
0.0000001
 44
0.0000000001
 40
0.0
 40
0.0
 40
0.0
 40
0.0
 40
0.2610580321
 40
1.0
 40
1.0
 40
1.0
 40
1.0
 10
227.2727698543
 20
240.6597883678
 30
0.0
 10
217.7819921545
 20
239.8882461008
 30
0.0
 10
181.4265003124
 20
236.9382491599
 30
0.0
 10
145.0691841264
 20
234.0107065163
 30
0.0
 10
118.2019588811
 20
231.8634440989
 30
0.0
  0
SPLINE
  5
43C
100
AcDbEntity
  8
0
100
AcDbSpline
 62
7
  6
CONTINUOUS
 70
0
 71
3
 72
9
 73
5
 74
0
 42
0.0000001
 43
0.0000001
 44
0.0000000001
 40
0.0
 40
0.0
 40
0.0
 40
0.0
 40
0.2610578856
 40
1.0
 40
1.0
 40
1.0
 40
1.0
 10
227.2703381258
 20
240.687877569
 30
0.0
 10
217.7718742961
 20
240.0166659766
 30
0.0
 10
181.3870024764
 20
237.4506393173
 30
0.0
 10
145.0006472496
 20
234.9056176937
 30
0.0
 10
118.1121988493
 20
233.0399812812
 30
0.0
  0
SPLINE
  5
43D
100
AcDbEntity
  8
0
100
AcDbSpline
 62
7
  6
CONTINUOUS
 70
0
 71
3
 72
17
 73
13
 74
0
 42
0.0000001
 43
0.0000001
 44
0.0000000001
 40
0.0
 40
0.0
 40
0.0
 40
0.0
 40
0.1920368526
 40
0.3766632527
 40
0.5468436494
 40
0.6962346716
 40
0.8194201337
 40
0.9121210389
 40
0.9461227893
 40
0.9716806747
 40
0.9890856918
 40
1.0
 40
1.0
 40
1.0
 40
1.0
 10
229.7621984116
 20
353.7427490681
 30
0.0
 10
229.9906467923
 20
353.7427495968
 30
0.0
 10
230.4387573999
 20
353.7494203037
 30
0.0
 10
231.0887272701
 20
353.7787854358
 30
0.0
 10
231.6868390037
 20
353.8250345735
 30
0.0
 10
232.2103674407
 20
353.8843658397
 30
0.0
 10
232.6396393054
 20
353.9522562138
 30
0.0
 10
232.9304478468
 20
354.0162442861
 30
0.0
 10
233.1032079368
 20
354.0709303047
 30
0.0
 10
233.18748745
 20
354.1077926085
 30
0.0
 10
233.2420271723
 20
354.1410783433
 30
0.0
 10
233.26219599
 20
354.1725024559
 30
0.0
 10
233.2621984102
 20
354.1854861929
 30
0.0
  0
SPLINE
  5
43E
100
AcDbEntity
  8
0
100
AcDbSpline
 62
7
  6
CONTINUOUS
 70
0
 71
3
 72
17
 73
13
 74
0
 42
0.0000001
 43
0.0000001
 44
0.0000000001
 40
0.0
 40
0.0
 40
0.0
 40
0.0
 40
0.1920372641
 40
0.3766640571
 40
0.5468447392
 40
0.696235887
 40
0.8194212898
 40
0.9121219305
 40
0.9461234734
 40
0.971681109
 40
0.9890858593
 40
1.0
 40
1.0
 40
1.0
 40
1.0
 10
229.7621984116
 20
128.0361552544
 30
0.0
 10
229.5337494466
 20
128.0361545742
 30
0.0
 10
229.0856376942
 20
128.0294841575
 30
0.0
 10
228.4356662636
 20
128.0001187265
 30
0.0
 10
227.8375533392
 20
127.953869352
 30
0.0
 10
227.3140242983
 20
127.8945377641
 30
0.0
 10
226.8847525263
 20
127.8266470895
 30
0.0
 10
226.5939445783
 20
127.7626587546
 30
0.0
 10
226.4211853299
 20
127.7079725492
 30
0.0
 10
226.3369068162
 20
127.6711101205
 30
0.0
 10
226.2823678778
 20
127.6378244105
 30
0.0
 10
226.262200266
 20
127.6063999396
 30
0.0
 10
226.2621984127
 20
127.5934163963
 30
0.0
  0
SPLINE
  5
43F
100
AcDbEntity
  8
02___PRT_ALL_AXES
100
AcDbSpline
 62
7
  6
CONTINUOUS
 70
0
 71
3
 72
39
 73
35
 74
0
 42
0.0000001
 43
0.0000001
 44
0.0000000001
 40
0.0
 40
0.0
 40
0.0
 40
0.0
 40
0.0007309156
 40
0.0025759195
 40
0.0055995218
 40
0.0098053359
 40
0.0151876204
 40
0.0217348884
 40
0.0382626962
 40
0.0592340334
 40
0.0844488502
 40
0.1136651433
 40
0.1466020069
 40
0.1829423706
 40
0.2223363087
 40
0.3087415902
 40
0.4024972002
 40
0.4999999851
 40
0.5975027987
 40
0.6912584086
 40
0.7776636902
 40
0.8170576293
 40
0.8533979927
 40
0.8863348559
 40
0.9155511502
 40
0.9407659654
 40
0.9617373046
 40
0.9782651106
 40
0.9848123793
 40
0.9901946644
 40
0.9944004784
 40
0.9974240802
 40
0.9992690842
 40
1.0
 40
1.0
 40
1.0
 40
1.0
 10
232.7621984116
 20
125.0303347208
 30
0.0
 10
232.7621984116
 20
125.0288722189
 30
0.0
 10
232.755496745
 20
125.0269057548
 30
0.0
 10
232.7460444325
 20
125.0250672857
 30
0.0
 10
232.7271144766
 20
125.0230034716
 30
0.0
 10
232.7023301115
 20
125.0211569279
 30
0.0
 10
232.6699428069
 20
125.0194011924
 30
0.0
 10
232.6131167742
 20
125.0171112231
 30
0.0
 10
232.5249636443
 20
125.0148508266
 30
0.0
 10
232.3995126038
 20
125.0128720771
 30
0.0
 10
232.2486374127
 20
125.0114582717
 30
0.0
 10
232.0738257414
 20
125.0105454665
 30
0.0
 10
231.8767479934
 20
125.0100639388
 30
0.0
 10
231.6593061597
 20
125.0099273412
 30
0.0
 10
231.3348781382
 20
125.0100937478
 30
0.0
 10
230.8955675018
 20
125.0107244849
 30
0.0
 10
230.3399858256
 20
125.0114445147
 30
0.0
 10
229.7621984438
 20
125.0117360579
 30
0.0
 10
229.1844110621
 20
125.0114445148
 30
0.0
 10
228.6288293283
 20
125.010724485
 30
0.0
 10
228.1895186899
 20
125.0100937477
 30
0.0
 10
227.8650906669
 20
125.0099273413
 30
0.0
 10
227.6476488326
 20
125.0100639387
 30
0.0
 10
227.4505710835
 20
125.0105454667
 30
0.0
 10
227.2757594139
 20
125.0114582714
 30
0.0
 10
227.1248842197
 20
125.0128720775
 30
0.0
 10
226.9994331821
 20
125.0148508263
 30
0.0
 10
226.9112800503
 20
125.0171112231
 30
0.0
 10
226.8544540184
 20
125.0194011926
 30
0.0
 10
226.8220667113
 20
125.0211569278
 30
0.0
 10
226.7972823462
 20
125.0230034714
 30
0.0
 10
226.7783523912
 20
125.0250672854
 30
0.0
 10
226.7689000797
 20
125.0269057555
 30
0.0
 10
226.7621984116
 20
125.0288722186
 30
0.0
 10
226.7621984116
 20
125.0303347208
 30
0.0
  0
SPLINE
  5
440
100
AcDbEntity
  8
0
100
AcDbSpline
 62
7
  6
CONTINUOUS
 70
0
 71
3
 72
15
 73
11
 74
0
 42
0.0000001
 43
0.0000001
 44
0.0000000001
 40
0.0
 40
0.0
 40
0.0
 40
0.0
 40
0.1226182506
 40
0.2461124925
 40
0.3694128659
 40
0.4943686488
 40
0.6202825129
 40
0.7468848011
 40
0.8738735049
 40
1.0
 40
1.0
 40
1.0
 40
1.0
 10
228.7911984116
 20
116.1644370642
 30
0.0
 10
228.8819552746
 20
116.0722239671
 30
0.0
 10
229.0965074402
 20
115.9173723372
 30
0.0
 10
229.484604733
 20
115.8332782677
 30
0.0
 10
229.8773954082
 20
115.9082460871
 30
0.0
 10
230.2090994105
 20
116.1304547561
 30
0.0
 10
230.4343785128
 20
116.466485692
 30
0.0
 10
230.5170172124
 20
116.8644831508
 30
0.0
 10
230.4448738578
 20
117.2630965312
 30
0.0
 10
230.3025089823
 20
117.493720618
 30
0.0
 10
230.2101984116
 20
117.5884370642
 30
0.0
  0
SPLINE
  5
441
100
AcDbEntity
  8
0
100
AcDbSpline
 62
7
  6
CONTINUOUS
 70
0
 71
3
 72
16
 73
12
 74
0
 42
0.0000001
 43
0.0000001
 44
0.0000000001
 40
0.0
 40
0.0
 40
0.0
 40
0.0
 40
0.124834323
 40
0.2480895363
 40
0.3715385471
 40
0.4954954061
 40
0.6208156495
 40
0.7471483602
 40
0.8730953222
 40
0.9985399184
 40
1.0
 40
1.0
 40
1.0
 40
1.0
 10
230.2101984116
 20
117.5884370642
 30
0.0
 10
230.1188335672
 20
117.6821831358
 30
0.0
 10
229.904628554
 20
117.8377833329
 30
0.0
 10
229.5132825345
 20
117.9229075354
 30
0.0
 10
229.1225535534
 20
117.8488504113
 30
0.0
 10
228.7882561869
 20
117.6251655304
 30
0.0
 10
228.5641653791
 20
117.2894936625
 30
0.0
 10
228.4821685948
 20
116.8927153216
 30
0.0
 10
228.5528017314
 20
116.4919303348
 30
0.0
 10
228.6984165448
 20
116.2631272897
 30
0.0
 10
228.7901177207
 20
116.1655350952
 30
0.0
 10
228.7911984116
 20
116.1644370642
 30
0.0
  0
SPLINE
  5
442
100
AcDbEntity
  8
0
100
AcDbSpline
 62
7
  6
CONTINUOUS
 70
0
 71
3
 72
15
 73
11
 74
0
 42
0.0000001
 43
0.0000001
 44
0.0000000001
 40
0.0
 40
0.0
 40
0.0
 40
0.0
 40
0.1214031817
 40
0.2465772123
 40
0.3712693246
 40
0.4960797406
 40
0.6213712636
 40
0.7474201458
 40
0.8738876116
 40
1.0
 40
1.0
 40
1.0
 40
1.0
 10
227.9941984116
 20
117.5244370642
 30
0.0
 10
228.0749651696
 20
117.7149704507
 30
0.0
 10
228.3127949699
 20
118.0703694474
 30
0.0
 10
228.8465399609
 20
118.4303831197
 30
0.0
 10
229.4843026767
 20
118.5596951842
 30
0.0
 10
230.1219706724
 20
118.4302434383
 30
0.0
 10
230.6610168435
 20
118.0651404922
 30
0.0
 10
231.0207456594
 20
117.5197491212
 30
0.0
 10
231.1470081564
 20
116.8779198537
 30
0.0
 10
231.0629990995
 20
116.4495214566
 30
0.0
 10
230.9811984116
 20
116.2504370642
 30
0.0
  0
SPLINE
  5
443
100
AcDbEntity
  8
0
100
AcDbSpline
 62
7
  6
CONTINUOUS
 70
0
 71
3
 72
16
 73
12
 74
0
 42
0.0000001
 43
0.0000001
 44
0.0000000001
 40
0.0
 40
0.0
 40
0.0
 40
0.0
 40
0.1247702247
 40
0.2486299424
 40
0.3723364896
 40
0.4959257793
 40
0.6199922477
 40
0.7450603439
 40
0.8703009278
 40
0.9958941345
 40
1.0
 40
1.0
 40
1.0
 40
1.0
 10
230.9811984116
 20
116.2504370642
 30
0.0
 10
230.9002682957
 20
116.0534714473
 30
0.0
 10
230.6610131195
 20
115.6899735376
 30
0.0
 10
230.1204446088
 20
115.3246447102
 30
0.0
 10
229.4838547998
 20
115.1959225563
 30
0.0
 10
228.8458248729
 20
115.3250897073
 30
0.0
 10
228.3060276599
 20
115.691026049
 30
0.0
 10
227.9465405923
 20
116.2349801419
 30
0.0
 10
227.8213735045
 20
116.8788236021
 30
0.0
 10
227.9064449385
 20
117.3138988068
 30
0.0
 10
227.9914668732
 20
117.5179932095
 30
0.0
 10
227.9941984116
 20
117.5244370642
 30
0.0
  0
SPLINE
  5
444
100
AcDbEntity
  8
0
100
AcDbSpline
 62
7
  6
CONTINUOUS
 70
0
 71
3
 72
8
 73
4
 74
0
 42
0.0000001
 43
0.0000001
 44
0.0000000001
 40
0.0
 40
0.0
 40
0.0
 40
0.0
 40
1.0
 40
1.0
 40
1.0
 40
1.0
 10
219.4821984116
 20
117.4664370642
 30
0.0
 10
219.4821984116
 20
117.5128682705
 30
0.0
 10
219.4764252689
 20
117.558809316
 30
0.0
 10
219.4661984116
 20
117.6034370642
 30
0.0
  0
SPLINE
  5
445
100
AcDbEntity
  8
0
100
AcDbSpline
 62
7
  6
CONTINUOUS
 70
0
 71
3
 72
17
 73
13
 74
0
 42
0.0000001
 43
0.0000001
 44
0.0000000001
 40
0.0
 40
0.0
 40
0.0
 40
0.0
 40
0.1156566466
 40
0.2313132932
 40
0.3469699398
 40
0.404798263
 40
0.4626265863
 40
0.529798263
 40
0.5969699398
 40
0.7313132932
 40
0.8656566466
 40
1.0
 40
1.0
 40
1.0
 40
1.0
 10
219.2301984116
 20
118.4534370642
 30
0.0
 10
219.3385990519
 20
118.4534370642
 30
0.0
 10
219.5477926502
 20
118.4139389812
 30
0.0
 10
219.8174183978
 20
118.2588428739
 30
0.0
 10
219.9876088542
 20
118.062855799
 30
0.0
 10
220.0802377956
 20
117.8757696393
 30
0.0
 10
220.1281514099
 20
117.712095614
 30
0.0
 10
220.1445345209
 20
117.5345173107
 30
0.0
 10
220.1186953648
 20
117.296504699
 30
0.0
 10
220.0028480812
 20
117.0230447431
 30
0.0
 10
219.7528388149
 20
116.7695737324
 30
0.0
 10
219.5274787573
 20
116.6729271793
 30
0.0
 10
219.4039406909
 20
116.6484370642
 30
0.0
  0
SPLINE
  5
446
100
AcDbEntity
  8
0
100
AcDbSpline
 62
7
  6
CONTINUOUS
 70
0
 71
3
 72
8
 73
4
 74
0
 42
0.0000001
 43
0.0000001
 44
0.0000000001
 40
0.0
 40
0.0
 40
0.0
 40
0.0
 40
1.0
 40
1.0
 40
1.0
 40
1.0
 10
247.2661984116
 20
119.1534370642
 30
0.0
 10
247.2661984116
 20
119.5106473372
 30
0.0
 10
247.1167734205
 20
119.8826618711
 30
0.0
 10
246.8561984116
 20
120.1434370642
 30
0.0
  0
SPLINE
  5
447
100
AcDbEntity
  8
0
100
AcDbSpline
 62
7
  6
CONTINUOUS
 70
0
 71
3
 72
8
 73
4
 74
0
 42
0.0000001
 43
0.0000001
 44
0.0000000001
 40
0.0
 40
0.0
 40
0.0
 40
0.0
 40
1.0
 40
1.0
 40
1.0
 40
1.0
 10
246.8561984116
 20
120.1434370642
 30
0.0
 10
246.5958231994
 20
120.404012307
 30
0.0
 10
246.2240082872
 20
120.5534370642
 30
0.0
 10
245.8671984116
 20
120.5534370642
 30
0.0
  0
SPLINE
  5
448
100
AcDbEntity
  8
0
100
AcDbSpline
 62
7
  6
CONTINUOUS
 70
0
 71
3
 72
27
 73
23
 74
0
 42
0.0000001
 43
0.0000001
 44
0.0000000001
 40
0.0
 40
0.0
 40
0.0
 40
0.0
 40
0.1228158602
 40
0.1842237903
 40
0.2456317204
 40
0.3070396505
 40
0.3684475806
 40
0.3991515457
 40
0.4298555108
 40
0.4605594758
 40
0.4759114583
 40
0.4912634409
 40
0.5071614583
 40
0.5230594758
 40
0.5548555108
 40
0.5866515457
 40
0.6184475806
 40
0.6820396505
 40
0.7456317204
 40
0.8092237903
 40
0.8728158602
 40
1.0
 40
1.0
 40
1.0
 40
1.0
 10
233.8091984116
 20
111.9554370642
 30
0.0
 10
233.8603494719
 20
111.9554370642
 30
0.0
 10
233.9390172451
 20
111.9534991052
 30
0.0
 10
234.0357028217
 20
111.9376723953
 30
0.0
 10
234.1010279024
 20
111.9169769523
 30
0.0
 10
234.1561749957
 20
111.8854273196
 30
0.0
 10
234.1915884562
 20
111.84846333
 30
0.0
 10
234.2125947226
 20
111.8110722574
 30
0.0
 10
234.2243673465
 20
111.7787033755
 30
0.0
 10
234.2305437766
 20
111.7476696821
 30
0.0
 10
234.233088087
 20
111.7204241101
 30
0.0
 10
234.2337429015
 20
111.6980256744
 30
0.0
 10
234.2330790983
 20
111.675311679
 30
0.0
 10
234.230503604
 20
111.6469403963
 30
0.0
 10
234.2242386137
 20
111.6145093946
 30
0.0
 10
234.2122994416
 20
111.580471247
 30
0.0
 10
234.1910035795
 20
111.5409179314
 30
0.0
 10
234.155165738
 20
111.5014399112
 30
0.0
 10
234.0996356312
 20
111.4672635967
 30
0.0
 10
234.0341434142
 20
111.4443442249
 30
0.0
 10
233.9375961772
 20
111.4262056931
 30
0.0
 10
233.8595589945
 20
111.4234370642
 30
0.0
 10
233.8091984116
 20
111.4234370642
 30
0.0
  0
SPLINE
  5
449
100
AcDbEntity
  8
0
100
AcDbSpline
 62
7
  6
CONTINUOUS
 70
0
 71
3
 72
8
 73
4
 74
0
 42
0.0000001
 43
0.0000001
 44
0.0000000001
 40
0.0
 40
0.0
 40
0.0
 40
0.0
 40
1.0
 40
1.0
 40
1.0
 40
1.0
 10
233.8061984116
 20
111.0814370642
 30
0.0
 10
233.9808753346
 20
111.0814370642
 30
0.0
 10
234.0285321872
 20
111.0272990322
 30
0.0
 10
234.0881984116
 20
110.8724370642
 30
0.0
  0
SPLINE
  5
44A
100
AcDbEntity
  8
0
100
AcDbSpline
 62
7
  6
CONTINUOUS
 70
0
 71
3
 72
8
 73
4
 74
0
 42
0.0000001
 43
0.0000001
 44
0.0000000001
 40
0.0
 40
0.0
 40
0.0
 40
0.0
 40
1.0
 40
1.0
 40
1.0
 40
1.0
 10
234.4902685525
 20
111.0444370642
 30
0.0
 10
234.4527654087
 20
111.1276824505
 30
0.0
 10
234.3954370034
 20
111.2303655533
 30
0.0
 10
234.2991984116
 20
111.2594370642
 30
0.0
  0
SPLINE
  5
44B
100
AcDbEntity
  8
0
100
AcDbSpline
 62
7
  6
CONTINUOUS
 70
0
 71
3
 72
8
 73
4
 74
0
 42
0.0000001
 43
0.0000001
 44
0.0000000001
 40
0.0
 40
0.0
 40
0.0
 40
0.0
 40
1.0
 40
1.0
 40
1.0
 40
1.0
 10
234.2991984116
 20
111.2594370642
 30
0.0
 10
234.5474895311
 20
111.3099458681
 30
0.0
 10
234.7001859438
 20
111.5103200626
 30
0.0
 10
234.7001984116
 20
111.7484370642
 30
0.0
  0
SPLINE
  5
44C
100
AcDbEntity
  8
0
100
AcDbSpline
 62
7
  6
CONTINUOUS
 70
0
 71
3
 72
8
 73
4
 74
0
 42
0.0000001
 43
0.0000001
 44
0.0000000001
 40
0.0
 40
0.0
 40
0.0
 40
0.0
 40
1.0
 40
1.0
 40
1.0
 40
1.0
 10
234.7001984116
 20
111.7484370642
 30
0.0
 10
234.7002291704
 20
112.3358868824
 30
0.0
 10
234.1534230435
 20
112.3244370642
 30
0.0
 10
233.7041984116
 20
112.3244370642
 30
0.0
  0
SPLINE
  5
44D
100
AcDbEntity
  8
0
100
AcDbSpline
 62
7
  6
CONTINUOUS
 70
0
 71
3
 72
8
 73
4
 74
0
 42
0.0000001
 43
0.0000001
 44
0.0000000001
 40
0.0
 40
0.0
 40
0.0
 40
0.0
 40
1.0
 40
1.0
 40
1.0
 40
1.0
 10
232.1861984116
 20
110.2114370642
 30
0.0
 10
232.4519994534
 20
110.2114370642
 30
0.0
 10
232.9323242402
 20
110.2939655472
 30
0.0
 10
232.9331984116
 20
110.8274370642
 30
0.0
  0
SPLINE
  5
44E
100
AcDbEntity
  8
0
100
AcDbSpline
 62
7
  6
CONTINUOUS
 70
0
 71
3
 72
8
 73
4
 74
0
 42
0.0000001
 43
0.0000001
 44
0.0000000001
 40
0.0
 40
0.0
 40
0.0
 40
0.0
 40
1.0
 40
1.0
 40
1.0
 40
1.0
 10
232.9331984116
 20
110.8274370642
 30
0.0
 10
232.9336087982
 20
111.0778794314
 30
0.0
 10
232.752816585
 20
111.2683885076
 30
0.0
 10
232.4861984116
 20
111.3104370642
 30
0.0
  0
SPLINE
  5
44F
100
AcDbEntity
  8
0
100
AcDbSpline
 62
7
  6
CONTINUOUS
 70
0
 71
3
 72
8
 73
4
 74
0
 42
0.0000001
 43
0.0000001
 44
0.0000000001
 40
0.0
 40
0.0
 40
0.0
 40
0.0
 40
1.0
 40
1.0
 40
1.0
 40
1.0
 10
232.4861984116
 20
111.3104370642
 30
0.0
 10
232.7158458537
 20
111.3667185977
 30
0.0
 10
232.8700506844
 20
111.5385531557
 30
0.0
 10
232.8701984116
 20
111.7774370642
 30
0.0
  0
SPLINE
  5
450
100
AcDbEntity
  8
0
100
AcDbSpline
 62
7
  6
CONTINUOUS
 70
0
 71
3
 72
8
 73
4
 74
0
 42
0.0000001
 43
0.0000001
 44
0.0000000001
 40
0.0
 40
0.0
 40
0.0
 40
0.0
 40
1.0
 40
1.0
 40
1.0
 40
1.0
 10
232.8701984116
 20
111.7774370642
 30
0.0
 10
232.8704856311
 20
112.2418884428
 30
0.0
 10
232.4579648775
 20
112.3244370642
 30
0.0
 10
232.1861984116
 20
112.3244370642
 30
0.0
  0
SPLINE
  5
451
100
AcDbEntity
  8
0
100
AcDbSpline
 62
7
  6
CONTINUOUS
 70
0
 71
3
 72
8
 73
4
 74
0
 42
0.0000001
 43
0.0000001
 44
0.0000000001
 40
0.0
 40
0.0
 40
0.0
 40
0.0
 40
1.0
 40
1.0
 40
1.0
 40
1.0
 10
232.0361984116
 20
111.9554370642
 30
0.0
 10
232.2233176134
 20
111.9554370642
 30
0.0
 10
232.4311984116
 20
111.9561637211
 30
0.0
 10
232.4311984116
 20
111.7244370642
 30
0.0
  0
SPLINE
  5
452
100
AcDbEntity
  8
0
100
AcDbSpline
 62
7
  6
CONTINUOUS
 70
0
 71
3
 72
8
 73
4
 74
0
 42
0.0000001
 43
0.0000001
 44
0.0000000001
 40
0.0
 40
0.0
 40
0.0
 40
0.0
 40
1.0
 40
1.0
 40
1.0
 40
1.0
 10
232.4311984116
 20
111.7244370642
 30
0.0
 10
232.4311984116
 20
111.5298178687
 30
0.0
 10
232.2083699593
 20
111.5464370642
 30
0.0
 10
232.0451984116
 20
111.5464370642
 30
0.0
  0
SPLINE
  5
453
100
AcDbEntity
  8
0
100
AcDbSpline
 62
7
  6
CONTINUOUS
 70
0
 71
3
 72
8
 73
4
 74
0
 42
0.0000001
 43
0.0000001
 44
0.0000000001
 40
0.0
 40
0.0
 40
0.0
 40
0.0
 40
1.0
 40
1.0
 40
1.0
 40
1.0
 10
232.0721984116
 20
111.1494370642
 30
0.0
 10
232.2810388956
 20
111.1494370642
 30
0.0
 10
232.4941984116
 20
111.1113419994
 30
0.0
 10
232.4941984116
 20
110.8434370642
 30
0.0
  0
SPLINE
  5
454
100
AcDbEntity
  8
0
100
AcDbSpline
 62
7
  6
CONTINUOUS
 70
0
 71
3
 72
8
 73
4
 74
0
 42
0.0000001
 43
0.0000001
 44
0.0000000001
 40
0.0
 40
0.0
 40
0.0
 40
0.0
 40
1.0
 40
1.0
 40
1.0
 40
1.0
 10
232.4941984116
 20
110.8434370642
 30
0.0
 10
232.4941984116
 20
110.6068705293
 30
0.0
 10
232.2655339341
 20
110.5624370642
 30
0.0
 10
232.0721984116
 20
110.5624370642
 30
0.0
  0
SPLINE
  5
455
100
AcDbEntity
  8
0
100
AcDbSpline
 62
7
  6
CONTINUOUS
 70
0
 71
3
 72
21
 73
17
 74
0
 42
0.0000001
 43
0.0000001
 44
0.0000000001
 40
0.0
 40
0.0
 40
0.0
 40
0.0
 40
0.125
 40
0.25
 40
0.3125
 40
0.375
 40
0.4375
 40
0.46875
 40
0.5
 40
0.53125
 40
0.5625
 40
0.625
 40
0.6875
 40
0.75
 40
0.875
 40
1.0
 40
1.0
 40
1.0
 40
1.0
 10
223.6061984116
 20
111.9554370642
 30
0.0
 10
223.6914465981
 20
111.9554370642
 30
0.0
 10
223.8604963172
 20
111.9237426673
 30
0.0
 10
224.0431740545
 20
111.8100144489
 30
0.0
 10
224.1573267422
 20
111.6775809824
 30
0.0
 10
224.2232807369
 20
111.5583039975
 30
0.0
 10
224.2587887238
 20
111.4425192478
 30
0.0
 10
224.2736282138
 20
111.3409520166
 30
0.0
 10
224.27750091
 20
111.2589370642
 30
0.0
 10
224.2736282138
 20
111.1769221117
 30
0.0
 10
224.2587887238
 20
111.0753548805
 30
0.0
 10
224.2232807369
 20
110.9595701308
 30
0.0
 10
224.1573267422
 20
110.8402931459
 30
0.0
 10
224.0431740545
 20
110.7078596794
 30
0.0
 10
223.8604963172
 20
110.594131461
 30
0.0
 10
223.6914465981
 20
110.5624370642
 30
0.0
 10
223.6061984116
 20
110.5624370642
 30
0.0
  0
SPLINE
  5
456
100
AcDbEntity
  8
0
100
AcDbSpline
 62
7
  6
CONTINUOUS
 70
0
 71
3
 72
25
 73
21
 74
0
 42
0.0000001
 43
0.0000001
 44
0.0000000001
 40
0.0
 40
0.0
 40
0.0
 40
0.0
 40
0.1250129628
 40
0.1875194442
 40
0.2500259255
 40
0.3125324069
 40
0.3750388883
 40
0.406292129
 40
0.4375453697
 40
0.4687986104
 40
0.5000518511
 40
0.5312986104
 40
0.5625453697
 40
0.593792129
 40
0.6250388883
 40
0.6875324069
 40
0.7500259255
 40
0.8125194442
 40
0.8750129628
 40
1.0
 40
1.0
 40
1.0
 40
1.0
 10
223.5251984116
 20
110.2114370642
 30
0.0
 10
223.6861363525
 20
110.2114370642
 30
0.0
 10
223.920780785
 20
110.2317191896
 30
0.0
 10
224.1972992845
 20
110.318522511
 30
0.0
 10
224.3806976859
 20
110.4184322452
 30
0.0
 10
224.5340333733
 20
110.5580030643
 30
0.0
 10
224.6315167999
 20
110.7111496679
 30
0.0
 10
224.6883355892
 20
110.8577390743
 30
0.0
 10
224.7196559762
 20
110.9805249374
 30
0.0
 10
224.7390034178
 20
111.1154774199
 30
0.0
 10
224.7456786959
 20
111.2679261066
 30
0.0
 10
224.7390036617
 20
111.4203670789
 30
0.0
 10
224.7196558553
 20
111.5552989737
 30
0.0
 10
224.6883355173
 20
111.6780703878
 30
0.0
 10
224.6315166771
 20
111.8246482923
 30
0.0
 10
224.5340334262
 20
111.9777928661
 30
0.0
 10
224.3806982312
 20
112.1173755102
 30
0.0
 10
224.1973002019
 20
112.2173054733
 30
0.0
 10
223.9207817075
 20
112.3041386588
 30
0.0
 10
223.6861368001
 20
112.3244370642
 30
0.0
 10
223.5251984116
 20
112.3244370642
 30
0.0
  0
SPLINE
  5
457
100
AcDbEntity
  8
02___PRT_ALL_AXES
100
AcDbSpline
 62
7
  6
CONTINUOUS
 70
0
 71
3
 72
39
 73
35
 74
0
 42
0.0000001
 43
0.0000001
 44
0.0000000001
 40
0.0
 40
0.0
 40
0.0
 40
0.0
 40
0.0007309158
 40
0.0025759198
 40
0.0055995216
 40
0.0098053356
 40
0.0151876207
 40
0.0217348894
 40
0.0382626955
 40
0.0592340346
 40
0.0844488498
 40
0.1136651441
 40
0.1466020073
 40
0.1829423708
 40
0.2223363099
 40
0.3087415915
 40
0.4024972014
 40
0.5000000103
 40
0.5975027996
 40
0.6912584096
 40
0.7776636912
 40
0.8170576293
 40
0.8533979931
 40
0.8863348567
 40
0.9155511498
 40
0.9407659666
 40
0.9617373038
 40
0.9782651116
 40
0.9848123796
 40
0.9901946641
 40
0.9944004782
 40
0.9974240805
 40
0.9992690844
 40
1.0
 40
1.0
 40
1.0
 40
1.0
 10
226.7621984116
 20
356.7485696018
 30
0.0
 10
226.7621984116
 20
356.750032104
 30
0.0
 10
226.7689000797
 20
356.7519985671
 30
0.0
 10
226.7783523912
 20
356.7538370372
 30
0.0
 10
226.7972823462
 20
356.7559008511
 30
0.0
 10
226.8220667114
 20
356.7577473947
 30
0.0
 10
226.8544540185
 20
356.75950313
 30
0.0
 10
226.9112800504
 20
356.7617930995
 30
0.0
 10
226.9994331822
 20
356.7640534963
 30
0.0
 10
227.1248842199
 20
356.7660322451
 30
0.0
 10
227.2757594141
 20
356.7674460512
 30
0.0
 10
227.4505710838
 20
356.7683588558
 30
0.0
 10
227.647648833
 20
356.7688403838
 30
0.0
 10
227.8650906674
 20
356.7689769813
 30
0.0
 10
228.1895186905
 20
356.7688105748
 30
0.0
 10
228.6288293288
 20
356.7681798376
 30
0.0
 10
229.1844110532
 20
356.7674598078
 30
0.0
 10
229.7621984343
 20
356.7671682646
 30
0.0
 10
230.3399858157
 20
356.7674598079
 30
0.0
 10
230.895567501
 20
356.7681798376
 30
0.0
 10
231.3348781375
 20
356.7688105748
 30
0.0
 10
231.6593061592
 20
356.7689769813
 30
0.0
 10
231.876747993
 20
356.7688403837
 30
0.0
 10
232.0738257411
 20
356.768358856
 30
0.0
 10
232.2486374125
 20
356.7674460509
 30
0.0
 10
232.3995126036
 20
356.7660322454
 30
0.0
 10
232.5249636442
 20
356.764053496
 30
0.0
 10
232.6131167742
 20
356.7617930995
 30
0.0
 10
232.6699428069
 20
356.7595031302
 30
0.0
 10
232.7023301115
 20
356.7577473947
 30
0.0
 10
232.7271144766
 20
356.755900851
 30
0.0
 10
232.7460444325
 20
356.7538370368
 30
0.0
 10
232.755496745
 20
356.7519985677
 30
0.0
 10
232.7621984116
 20
356.7500321036
 30
0.0
 10
232.7621984116
 20
356.7485696018
 30
0.0
  0
SPLINE
  5
458
100
AcDbEntity
  8
02___PRT_ALL_AXES
100
AcDbSpline
 62
7
  6
CONTINUOUS
 70
0
 71
3
 72
14
 73
10
 74
0
 42
0.0000001
 43
0.0000001
 44
0.0000000001
 40
0.0
 40
0.0
 40
0.0
 40
0.0
 40
0.0191943917
 40
0.0676968986
 40
0.1469807434
 40
0.2570859189
 40
0.3978254501
 40
0.5688546581
 40
1.0
 40
1.0
 40
1.0
 40
1.0
 10
232.7621984116
 20
356.7485696018
 30
0.0
 10
232.7621984116
 20
356.7469590287
 30
0.0
 10
232.7548575713
 20
356.7447552624
 30
0.0
 10
232.7445488181
 20
356.7422330993
 30
0.0
 10
232.7238308318
 20
356.7392548341
 30
0.0
 10
232.6967301177
 20
356.7361198466
 30
0.0
 10
232.6613237568
 20
356.7327878175
 30
0.0
 10
232.5992657973
 20
356.7277778471
 30
0.0
 10
232.5488076209
 20
356.7244801267
 30
0.0
 10
232.5126972432
 20
356.7222894211
 30
0.0
  0
SPLINE
  5
459
100
AcDbEntity
  8
02___PRT_ALL_AXES
100
AcDbSpline
 62
7
  6
CONTINUOUS
 70
0
 71
3
 72
14
 73
10
 74
0
 42
0.0000001
 43
0.0000001
 44
0.0000000001
 40
0.0
 40
0.0
 40
0.0
 40
0.0
 40
0.4311453765
 40
0.6021745711
 40
0.742914078
 40
0.8530192512
 40
0.9323031053
 40
0.9808056106
 40
1.0
 40
1.0
 40
1.0
 40
1.0
 10
227.0116993372
 20
356.7222894358
 30
0.0
 10
226.9755889915
 20
356.7244801405
 30
0.0
 10
226.9251308622
 20
356.7277778591
 30
0.0
 10
226.8630729629
 20
356.7327878264
 30
0.0
 10
226.8276666398
 20
356.7361198536
 30
0.0
 10
226.8005659531
 20
356.739254839
 30
0.0
 10
226.7798479872
 20
356.7422331034
 30
0.0
 10
226.7695392422
 20
356.7447552634
 30
0.0
 10
226.7621984116
 20
356.7469590305
 30
0.0
 10
226.7621984116
 20
356.7485696018
 30
0.0
  0
SPLINE
  5
45A
100
AcDbEntity
  8
02___PRT_ALL_AXES
100
AcDbSpline
 62
7
  6
CONTINUOUS
 70
0
 71
3
 72
14
 73
10
 74
0
 42
0.0000001
 43
0.0000001
 44
0.0000000001
 40
0.0
 40
0.0
 40
0.0
 40
0.0
 40
0.0191943894
 40
0.0676968948
 40
0.1469807488
 40
0.257085922
 40
0.3978254289
 40
0.5688546235
 40
1.0
 40
1.0
 40
1.0
 40
1.0
 10
226.7621984116
 20
125.0303347208
 30
0.0
 10
226.7621984116
 20
125.0319452921
 30
0.0
 10
226.769539242
 20
125.0341490591
 30
0.0
 10
226.7798479868
 20
125.036671219
 30
0.0
 10
226.8005659522
 20
125.0396494834
 30
0.0
 10
226.8276666383
 20
125.0427844688
 30
0.0
 10
226.8630729605
 20
125.046116496
 30
0.0
 10
226.9251308584
 20
125.0511264632
 30
0.0
 10
226.9755889866
 20
125.0544241818
 30
0.0
 10
227.0116993314
 20
125.0566148864
 30
0.0
  0
SPLINE
  5
45B
100
AcDbEntity
  8
02___PRT_ALL_AXES
100
AcDbSpline
 62
7
  6
CONTINUOUS
 70
0
 71
3
 72
14
 73
10
 74
0
 42
0.0000001
 43
0.0000001
 44
0.0000000001
 40
0.0
 40
0.0
 40
0.0
 40
0.0
 40
0.4311453419
 40
0.6021745499
 40
0.742914081
 40
0.8530192565
 40
0.9323031013
 40
0.9808056083
 40
1.0
 40
1.0
 40
1.0
 40
1.0
 10
232.5126972489
 20
125.0566149011
 30
0.0
 10
232.5488076258
 20
125.0544241955
 30
0.0
 10
232.599265801
 20
125.0511264752
 30
0.0
 10
232.6613237591
 20
125.0461165048
 30
0.0
 10
232.6967301192
 20
125.0427844758
 30
0.0
 10
232.7238308327
 20
125.0396494884
 30
0.0
 10
232.7445488185
 20
125.0366712231
 30
0.0
 10
232.7548575715
 20
125.0341490601
 30
0.0
 10
232.7621984116
 20
125.0319452938
 30
0.0
 10
232.7621984116
 20
125.0303347208
 30
0.0
  0
SPLINE
  5
45C
100
AcDbEntity
  8
0
100
AcDbSpline
 62
7
  6
CONTINUOUS
 70
0
 71
3
 72
16
 73
12
 74
0
 42
0.0000001
 43
0.0000001
 44
0.0000000001
 40
0.0
 40
0.0
 40
0.0
 40
0.0
 40
0.1652879788
 40
0.3378519588
 40
0.5073636343
 40
0.6636879128
 40
0.7975271718
 40
0.9010560678
 40
0.9686589868
 40
0.9883723662
 40
1.0
 40
1.0
 40
1.0
 40
1.0
 10
280.0497762744
 20
115.0143312794
 30
0.0
 10
280.0352366742
 20
115.1706259229
 30
0.0
 10
280.0002731337
 20
115.4896220119
 30
0.0
 10
279.9349052758
 20
115.967034775
 30
0.0
 10
279.8583469387
 20
116.4342261397
 30
0.0
 10
279.7753828935
 20
116.8627298903
 30
0.0
 10
279.6911800494
 20
117.2275664184
 30
0.0
 10
279.6118785774
 20
117.5051577206
 30
0.0
 10
279.5464393541
 20
117.6768396389
 30
0.0
 10
279.4973353407
 20
117.7554884622
 30
0.0
 10
279.4707496142
 20
117.7752132615
 30
0.0
 10
279.4597090496
 20
117.7754170842
 30
0.0
  0
SPLINE
  5
45D
100
AcDbEntity
  8
0
100
AcDbSpline
 62
7
  6
CONTINUOUS
 70
0
 71
3
 72
16
 73
12
 74
0
 42
0.0000001
 43
0.0000001
 44
0.0000000001
 40
0.0
 40
0.0
 40
0.0
 40
0.0
 40
0.165287981
 40
0.3378519639
 40
0.5073636425
 40
0.6636879237
 40
0.7975271846
 40
0.9010560807
 40
0.9686589971
 40
0.9883723729
 40
1.0
 40
1.0
 40
1.0
 40
1.0
 10
280.0497762744
 20
366.7645730432
 30
0.0
 10
280.0352366478
 20
366.6082784028
 30
0.0
 10
280.0002730634
 20
366.2892823196
 30
0.0
 10
279.934905162
 20
365.8118695633
 30
0.0
 10
279.858346802
 20
365.3446782022
 30
0.0
 10
279.7753827538
 20
364.9161744529
 30
0.0
 10
279.6911799237
 20
364.5513379232
 30
0.0
 10
279.6118784812
 20
364.2737466207
 30
0.0
 10
279.5464392907
 20
364.1020646968
 30
0.0
 10
279.4973353153
 20
364.0234158728
 30
0.0
 10
279.4707496076
 20
364.0036910625
 30
0.0
 10
279.4597090496
 20
364.0034872384
 30
0.0
  0
SPLINE
  5
45E
100
AcDbEntity
  8
0
100
AcDbSpline
 62
7
  6
CONTINUOUS
 70
0
 71
3
 72
16
 73
12
 74
0
 42
0.0000001
 43
0.0000001
 44
0.0000000001
 40
0.0
 40
0.0
 40
0.0
 40
0.0
 40
0.1652879788
 40
0.3378519588
 40
0.5073636343
 40
0.6636879128
 40
0.7975271718
 40
0.9010560678
 40
0.9686589868
 40
0.9883723662
 40
1.0
 40
1.0
 40
1.0
 40
1.0
 10
179.4746205489
 20
366.7645730432
 30
0.0
 10
179.489160149
 20
366.6082783997
 30
0.0
 10
179.5241236895
 20
366.2892823107
 30
0.0
 10
179.5894915474
 20
365.8118695476
 30
0.0
 10
179.6660498845
 20
365.3446781829
 30
0.0
 10
179.7490139297
 20
364.9161744323
 30
0.0
 10
179.8332167738
 20
364.5513379042
 30
0.0
 10
179.9125182458
 20
364.2737466019
 30
0.0
 10
179.9779574691
 20
364.1020646836
 30
0.0
 10
180.0270614825
 20
364.0234158603
 30
0.0
 10
180.053647209
 20
364.003691061
 30
0.0
 10
180.0646877736
 20
364.0034872384
 30
0.0
  0
SPLINE
  5
45F
100
AcDbEntity
  8
0
100
AcDbSpline
 62
7
  6
CONTINUOUS
 70
0
 71
3
 72
16
 73
12
 74
0
 42
0.0000001
 43
0.0000001
 44
0.0000000001
 40
0.0
 40
0.0
 40
0.0
 40
0.0
 40
0.165287981
 40
0.3378519639
 40
0.5073636425
 40
0.6636879237
 40
0.7975271846
 40
0.9010560807
 40
0.9686589971
 40
0.9883723729
 40
1.0
 40
1.0
 40
1.0
 40
1.0
 10
179.4746205489
 20
115.0143312794
 30
0.0
 10
179.4891601754
 20
115.1706259197
 30
0.0
 10
179.5241237598
 20
115.4896220029
 30
0.0
 10
179.5894916612
 20
115.9670347593
 30
0.0
 10
179.6660500212
 20
116.4342261203
 30
0.0
 10
179.7490140694
 20
116.8627298696
 30
0.0
 10
179.8332168995
 20
117.2275663993
 30
0.0
 10
179.912518342
 20
117.5051577018
 30
0.0
 10
179.9779575325
 20
117.6768396258
 30
0.0
 10
180.0270615079
 20
117.7554884498
 30
0.0
 10
180.0536472156
 20
117.77521326
 30
0.0
 10
180.0646877736
 20
117.7754170842
 30
0.0
  0
SPLINE
  5
460
100
AcDbEntity
  8
0
100
AcDbSpline
 62
7
  6
CONTINUOUS
 70
0
 71
3
 72
9
 73
5
 74
0
 42
0.0000001
 43
0.0000001
 44
0.0000000001
 40
0.0
 40
0.0
 40
0.0
 40
0.0
 40
0.5021712391
 40
1.0
 40
1.0
 40
1.0
 40
1.0
 10
183.8250563375
 20
115.5989214158
 30
0.0
 10
183.11305502
 20
115.411492039
 30
0.0
 10
181.6718227413
 20
115.1211083507
 30
0.0
 10
180.2045085433
 20
115.016476576
 30
0.0
 10
179.4746205489
 20
115.0143312794
 30
0.0
  0
SPLINE
  5
461
100
AcDbEntity
  8
0
100
AcDbSpline
 62
7
  6
CONTINUOUS
 70
0
 71
3
 72
9
 73
5
 74
0
 42
0.0000001
 43
0.0000001
 44
0.0000000001
 40
0.0
 40
0.0
 40
0.0
 40
0.0
 40
0.4978177422
 40
1.0
 40
1.0
 40
1.0
 40
1.0
 10
280.0497762744
 20
115.0143312794
 30
0.0
 10
279.3199044265
 20
115.0164772475
 30
0.0
 10
277.8525890914
 20
115.121100545
 30
0.0
 10
276.4113597226
 20
115.4114966098
 30
0.0
 10
275.6993404858
 20
115.5989214158
 30
0.0
  0
SPLINE
  5
462
100
AcDbEntity
  8
0
100
AcDbSpline
 62
7
  6
CONTINUOUS
 70
0
 71
3
 72
9
 73
5
 74
0
 42
0.0000001
 43
0.0000001
 44
0.0000000001
 40
0.0
 40
0.0
 40
0.0
 40
0.0
 40
0.5021712391
 40
1.0
 40
1.0
 40
1.0
 40
1.0
 10
275.6993404858
 20
366.1799829067
 30
0.0
 10
276.4113418032
 20
366.3674122835
 30
0.0
 10
277.8525740819
 20
366.6577959718
 30
0.0
 10
279.31988828
 20
366.7624277466
 30
0.0
 10
280.0497762744
 20
366.7645730432
 30
0.0
  0
SPLINE
  5
463
100
AcDbEntity
  8
0
100
AcDbSpline
 62
7
  6
CONTINUOUS
 70
0
 71
3
 72
9
 73
5
 74
0
 42
0.0000001
 43
0.0000001
 44
0.0000000001
 40
0.0
 40
0.0
 40
0.0
 40
0.0
 40
0.4978177422
 40
1.0
 40
1.0
 40
1.0
 40
1.0
 10
179.4746205489
 20
366.7645730432
 30
0.0
 10
180.2044923967
 20
366.7624270751
 30
0.0
 10
181.6718077318
 20
366.6578037776
 30
0.0
 10
183.1130371006
 20
366.3674077127
 30
0.0
 10
183.8250563375
 20
366.1799829067
 30
0.0
  0
SPLINE
  5
464
100
AcDbEntity
  8
0
100
AcDbSpline
 62
7
  6
CONTINUOUS
 70
0
 71
3
 72
11
 73
7
 74
0
 42
0.0000001
 43
0.0000001
 44
0.0000000001
 40
0.0
 40
0.0
 40
0.0
 40
0.0
 40
0.2115317479
 40
0.4409625663
 40
0.70140369
 40
1.0
 40
1.0
 40
1.0
 40
1.0
 10
177.7427090595
 20
1136.0957669035
 30
0.0
 10
177.6749941584
 20
1136.0957669035
 30
0.0
 10
177.5329633679
 20
1136.0710053665
 30
0.0
 10
177.3319388681
 20
1135.964925498
 30
0.0
 10
177.1423058731
 20
1135.7955720488
 30
0.0
 10
177.0323716914
 20
1135.6532577888
 30
0.0
 10
176.9790121283
 20
1135.5739521044
 30
0.0
  0
SPLINE
  5
465
100
AcDbEntity
  8
0
100
AcDbSpline
 62
7
  6
CONTINUOUS
 70
0
 71
3
 72
11
 73
7
 74
0
 42
0.0000001
 43
0.0000001
 44
0.0000000001
 40
0.0
 40
0.0
 40
0.0
 40
0.0
 40
0.2115311984
 40
0.4409617655
 40
0.7014030767
 40
1.0
 40
1.0
 40
1.0
 40
1.0
 10
281.7816877637
 20
1136.0957669035
 30
0.0
 10
281.8494033847
 20
1136.0957669035
 30
0.0
 10
281.9914358076
 20
1136.0710047998
 30
0.0
 10
282.1924623225
 20
1135.9649226536
 30
0.0
 10
282.3820969813
 20
1135.795565739
 30
0.0
 10
282.4920319156
 20
1135.6532487286
 30
0.0
 10
282.5453918207
 20
1135.5739415136
 30
0.0
  0
SPLINE
  5
466
100
AcDbEntity
  8
0
100
AcDbSpline
 62
7
  6
CONTINUOUS
 70
0
 71
3
 72
9
 73
5
 74
0
 42
0.0000001
 43
0.0000001
 44
0.0000000001
 40
0.0
 40
0.0
 40
0.0
 40
0.0
 40
0.2413540341
 40
1.0
 40
1.0
 40
1.0
 40
1.0
 10
286.1274910744
 20
1135.2502354863
 30
0.0
 10
285.6374011024
 20
1135.2502356715
 30
0.0
 10
283.6068080358
 20
1135.2858760356
 30
0.0
 10
281.5799049753
 20
1135.4540087574
 30
0.0
 10
280.0497762744
 20
1135.6324246946
 30
0.0
  0
SPLINE
  5
467
100
AcDbEntity
  8
0
100
AcDbSpline
 62
7
  6
CONTINUOUS
 70
0
 71
3
 72
9
 73
5
 74
0
 42
0.0000001
 43
0.0000001
 44
0.0000000001
 40
0.0
 40
0.0
 40
0.0
 40
0.0
 40
0.2573222055
 40
1.0
 40
1.0
 40
1.0
 40
1.0
 10
179.4746205489
 20
1135.6324246946
 30
0.0
 10
178.9556419745
 20
1135.5719107353
 30
0.0
 10
176.9363707315
 20
1135.3596454687
 30
0.0
 10
174.9049186401
 20
1135.25023628
 30
0.0
 10
173.3969057488
 20
1135.2502354863
 30
0.0
  0
SPLINE
  5
468
100
AcDbEntity
  8
0
100
AcDbSpline
 62
7
  6
CONTINUOUS
 70
0
 71
3
 72
9
 73
5
 74
0
 42
0.0000001
 43
0.0000001
 44
0.0000000001
 40
0.0
 40
0.0
 40
0.0
 40
0.0
 40
0.5043391479
 40
1.0
 40
1.0
 40
1.0
 40
1.0
 10
280.0497762744
 20
1135.6324246946
 30
0.0
 10
279.324419042
 20
1135.7580321189
 30
0.0
 10
277.8825000556
 20
1135.9866252721
 30
0.0
 10
276.4228749244
 20
1136.0957639687
 30
0.0
 10
275.6993897026
 20
1136.0957669034
 30
0.0
  0
SPLINE
  5
469
100
AcDbEntity
  8
0
100
AcDbSpline
 62
7
  6
CONTINUOUS
 70
0
 71
3
 72
10
 73
6
 74
0
 42
0.0000001
 43
0.0000001
 44
0.0000000001
 40
0.0
 40
0.0
 40
0.0
 40
0.0
 40
0.3711578911
 40
0.6560603668
 40
1.0
 40
1.0
 40
1.0
 40
1.0
 10
179.4746205489
 20
1135.6324246946
 30
0.0
 10
179.479736403
 20
1135.6569669795
 30
0.0
 10
179.4907547841
 20
1135.7006883752
 30
0.0
 10
179.512984454
 20
1135.7617561272
 30
0.0
 10
179.5435554097
 20
1135.8030780735
 30
0.0
 10
179.5666458449
 20
1135.8056330712
 30
0.0
  0
SPLINE
  5
46A
100
AcDbEntity
  8
0
100
AcDbSpline
 62
7
  6
CONTINUOUS
 70
0
 71
3
 72
9
 73
5
 74
0
 42
0.0000001
 43
0.0000001
 44
0.0000000001
 40
0.0
 40
0.0
 40
0.0
 40
0.0
 40
0.5474924029
 40
1.0
 40
1.0
 40
1.0
 40
1.0
 10
173.3969057488
 20
1135.2502354863
 30
0.0
 10
173.4475280794
 20
1135.3111037587
 30
0.0
 10
173.5542056741
 20
1135.4136369474
 30
0.0
 10
173.6994991205
 20
1135.4592899169
 30
0.0
 10
173.7649321861
 20
1135.4592913098
 30
0.0
  0
SPLINE
  5
46B
100
AcDbEntity
  8
0
100
AcDbSpline
 62
7
  6
CONTINUOUS
 70
0
 71
3
 72
9
 73
5
 74
0
 42
0.0000001
 43
0.0000001
 44
0.0000000001
 40
0.0
 40
0.0
 40
0.0
 40
0.0
 40
0.5474924029
 40
1.0
 40
1.0
 40
1.0
 40
1.0
 10
286.1274910744
 20
1135.2502354863
 30
0.0
 10
286.0768687437
 20
1135.3111037587
 30
0.0
 10
285.9701911486
 20
1135.4136369474
 30
0.0
 10
285.8248977021
 20
1135.4592899169
 30
0.0
 10
285.7594646364
 20
1135.4592913098
 30
0.0
  0
SPLINE
  5
46C
100
AcDbEntity
  8
0
100
AcDbSpline
 62
7
  6
CONTINUOUS
 70
0
 71
3
 72
10
 73
6
 74
0
 42
0.0000001
 43
0.0000001
 44
0.0000000001
 40
0.0
 40
0.0
 40
0.0
 40
0.0
 40
0.3711580492
 40
0.656060558
 40
1.0
 40
1.0
 40
1.0
 40
1.0
 10
280.0497762744
 20
1135.6324246946
 30
0.0
 10
280.0446604265
 20
1135.6569669932
 30
0.0
 10
280.0336420527
 20
1135.7006884098
 30
0.0
 10
280.0114124121
 20
1135.761756166
 30
0.0
 10
279.9808414241
 20
1135.8030781203
 30
0.0
 10
279.9577509952
 20
1135.8056330694
 30
0.0
  0
SPLINE
  5
46D
100
AcDbEntity
  8
0
100
AcDbSpline
 62
7
  6
CONTINUOUS
 70
0
 71
3
 72
9
 73
5
 74
0
 42
0.0000001
 43
0.0000001
 44
0.0000000001
 40
0.0
 40
0.0
 40
0.0
 40
0.0
 40
0.4956498487
 40
1.0
 40
1.0
 40
1.0
 40
1.0
 10
183.8249853633
 20
1136.0957669033
 30
0.0
 10
183.101519781
 20
1136.0957629399
 30
0.0
 10
181.6419019324
 20
1135.9866266056
 30
0.0
 10
180.1999900676
 20
1135.7580339543
 30
0.0
 10
179.4746205489
 20
1135.6324246946
 30
0.0
  0
ENDSEC
  0
SECTION
  2
OBJECTS
  0
DICTIONARY
  5
C
100
AcDbDictionary
280
0
281
1
  3
ACAD_GROUP
350
D
  3
ACAD_MLINESTYLE
350
17
  3
ACAD_LAYOUT
350
1A
  3
ACAD_PLOTSETTINGS
350
19
  3
ACAD_PLOTSTYLENAME
350
E
  0
DICTIONARY
  5
D
102
{ACAD_REACTORS
330
C
102
}
100
AcDbDictionary
280
0
281
1
  0
ACDBDICTIONARYWDFLT
  5
E
102
{ACAD_REACTORS
330
C
102
}
100
AcDbDictionary
281
1
  3
Normal
350
F
100
AcDbDictionaryWithDefault
340
F
  0
DICTIONARY
  5
17
102
{ACAD_REACTORS
330
C
102
}
100
AcDbDictionary
280
0
281
1
  3
Standard
350
18
  0
DICTIONARY
  5
19
102
{ACAD_REACTORS
330
C
102
}
100
AcDbDictionary
281
1
  0
DICTIONARY
  5
1A
102
{ACAD_REACTORS
330
C
102
}
100
AcDbDictionary
281
1
  3
Model
350
46E
  3
Layout1
350
46F
  0
ACDBPLACEHOLDER
  5
F
102
{ACAD_REACTORS
330
E
102
}
  0
MLINESTYLE
  5
18
102
{ACAD_REACTORS
330
17
102
}
100
AcDbMlineStyle
  2
STANDARD
 70
0
  3

 62
256
 51
90.0
 52
90.0
 71
2
 49
0.5
 62
256
  6
BYLAYER
 49
-0.5
 62
256
  6
BYLAYER
  0
LAYOUT
  5
46E
102
{ACAD_REACTORS
330
1A
102
}
100
AcDbPlotSettings
  1

  2
none_device
  4

  6

 40
0.0
 41
0.0
 42
0.0
 43
0.0
 44
454.0
 45
1200.0
 46
0.0
 47
0.0
 48
0.0
 49
0.0
140
0.0
141
0.0
142
1.0
143
1.0
 70
1024
 72
1
 73
0
 74
0
  7

 75
0
147
1.0
148
0.0
149
0.0
100
AcDbLayout
  1
Model
 70
0
 71
0
 10
0.0
 20
0.0
 11
454.0
 21
1200.0
 12
0.0
 22
0.0
 32
0.0
 14
0.0
 24
0.0
 34
0.0
 15
0.0
 25
0.0
 35
0.0
146
0.0
 13
0.0
 23
0.0
 33
0.0
 16
1.0
 26
0.0
 36
0.0
 17
0.0
 27
1.0
 37
0.0
 76
0
330
216
345
0
346
0
  0
LAYOUT
  5
46F
102
{ACAD_REACTORS
330
1A
102
}
100
AcDbPlotSettings
  1

  2
none_device
  4

  6

 40
0.0
 41
0.0
 42
0.0
 43
0.0
 44
454.0
 45
1200.0
 46
0.0
 47
0.0
 48
0.0
 49
0.0
140
0.0
141
0.0
142
1.0
143
1.0
 70
0
 72
1
 73
0
 74
0
  7

 75
0
147
1.0
148
0.0
149
0.0
100
AcDbLayout
  1
Layout1
 70
0
 71
1
 10
0.0
 20
0.0
 11
454.0
 21
1200.0
 12
0.0
 22
0.0
 32
0.0
 14
0.0
 24
0.0
 34
0.0
 15
0.0
 25
0.0
 35
0.0
146
0.0
 13
0.0
 23
0.0
 33
0.0
 16
1.0
 26
0.0
 36
0.0
 17
0.0
 27
1.0
 37
0.0
 76
0
330
217
345
0
346
0
  0
ENDSEC
  0
EOF
