999
DXF file: S:\Engenharia\Wildfire\Engenharia\Produtos\Lixeiras\94539020\94539020.dxf
999
Pro/ENGINEER 2012230 by Parametric Technology Corporation
  0
SECTION
  2
HEADER
  9
$ACADVER
  1
AC1021
  9
$DWGCODEPAGE
  3
ANSI_1252
  9
$EXTMAX
 10
450.0
 20
1300.0
 30
0.0
  9
$EXTMIN
 10
0.0
 20
0.0
 30
0.0
  9
$LIMMIN
 10
0.0
 20
0.0
  9
$LIMMAX
 10
450.0
 20
1300.0
  9
$VIEWCTR
 10
225.0
 20
650.0
  9
$VIEWSIZE
 40
1300.0
  9
$CLAYER
  8
0
  9
$LTSCALE
 40
84.7407407407
  9
$CELTYPE
  6
BYLAYER
  9
$DIMSCALE
 40
1.0
  9
$DIMASZ
 40
3.0
  9
$DIMEXO
 40
0.5
  9
$DIMDLI
 40
58.5481481481
  9
$DIMEXE
 40
0.5
  9
$DIMCEN
 40
13.8666666667
  9
$DIMLFAC
 40
1.0
  9
$DIMBLK
  1
_FILLED
  9
$DIMTXT
 40
1.8
  9
$DIMTOL
 70
1
  9
$DIMLIM
 70
0
  9
$DIMTFAC
 40
1.0
  9
$DIMTP
 40
0.001
  9
$DIMTM
 40
0.001
  9
$DIMGAP
 40
0.625
  9
$DIMDSEP
 70
46
  9
$PDMODE
 70
3
  9
$PDSIZE
 40
1.0
  9
$HANDSEED
  5
29C
  9
$TILEMODE
 70
1
  9
$MEASUREMENT
 70
1
  9
$INSUNITS
 70
4
  0
ENDSEC
  0
SECTION
  2
CLASSES
  0
CLASS
  1
ACDBDICTIONARYWDFLT
  2
AcDbDictionaryWithDefault
  3
AutoCAD 2000
 90
0
 91
1
280
0
281
0
  0
CLASS
  1
ACDBPLACEHOLDER
  2
AcDbPlaceHolder
  3
AutoCAD 2000
 90
0
 91
1
280
0
281
0
  0
CLASS
  1
LAYOUT
  2
AcDbLayout
  3
AutoCAD 2000
 90
0
 91
0
280
0
281
0
  0
ENDSEC
  0
SECTION
  2
TABLES
  0
TABLE
  2
VPORT
  5
8
100
AcDbSymbolTable
 70
2
  0
VPORT
  5
1F4
100
AcDbSymbolTableRecord
100
AcDbViewportTableRecord
  2
*ACTIVE
 70
0
 10
0.0
 20
0.0
 11
1.0
 21
1.0
 12
225.0
 22
650.0
 13
0.0
 23
0.0
 14
1.0
 24
1.0
 15
0.0
 25
0.0
 16
0.0
 26
0.0
 36
1.0
 17
0.0
 27
0.0
 37
0.0
 40
1300.0
 41
0.3461538462
 42
50.0
 43
0.0
 44
0.0
 50
0.0
 51
0.0
 71
0
 72
100
 73
1
 74
1
 75
0
 76
0
 77
0
 78
0
  0
ENDTAB
  0
TABLE
  2
LTYPE
  5
5
100
AcDbSymbolTable
 70
6
  0
LTYPE
  5
14
100
AcDbSymbolTableRecord
100
AcDbLinetypeTableRecord
  2
BYBLOCK
 70
0
  3

 72
65
 73
0
 40
0.0
  0
LTYPE
  5
15
100
AcDbSymbolTableRecord
100
AcDbLinetypeTableRecord
  2
BYLAYER
 70
0
  3

 72
65
 73
0
 40
0.0
  0
LTYPE
  5
16
100
AcDbSymbolTableRecord
100
AcDbLinetypeTableRecord
  2
CONTINUOUS
 70
64
  3
Solid line
 72
65
 73
0
 40
0.0
  0
LTYPE
  5
1F5
100
AcDbSymbolTableRecord
100
AcDbLinetypeTableRecord
  2
CENTER
 70
64
  3
____ _ ____ _ ____ _ ____ _ ____ _ ____ _ ____
 72
65
 73
4
 40
0.6
 49
0.375
 74
0
 49
-0.075
 74
0
 49
0.075
 74
0
 49
-0.075
 74
0
  0
LTYPE
  5
1F6
100
AcDbSymbolTableRecord
100
AcDbLinetypeTableRecord
  2
HIDDEN
 70
64
  3
- - - - - - - - - - - - - - - - - - - -
 72
65
 73
2
 40
0.2
 49
0.1
 74
0
 49
-0.1
 74
0
  0
LTYPE
  5
1F7
100
AcDbSymbolTableRecord
100
AcDbLinetypeTableRecord
  2
PHANTOM
 70
64
  3
_____ _ _ _____ _ _ _____ _ _ _____
 72
65
 73
6
 40
0.8
 49
0.45
 74
0
 49
-0.05
 74
0
 49
0.1
 74
0
 49
-0.05
 74
0
 49
0.1
 74
0
 49
-0.05
 74
0
  0
LTYPE
  5
1F8
100
AcDbSymbolTableRecord
100
AcDbLinetypeTableRecord
  2
DOT
 70
64
  3
. . . . . . . . . . . . . . . . . . . .
 72
65
 73
2
 40
0.2
 49
0.1
 74
0
 49
-0.1
 74
0
  0
LTYPE
  5
1F9
100
AcDbSymbolTableRecord
100
AcDbLinetypeTableRecord
  2
DASHED
 70
64
  3
- - - - - - - - - - - - - - - - - - - -
 72
65
 73
2
 40
0.2
 49
0.1
 74
0
 49
-0.1
 74
0
  0
ENDTAB
  0
TABLE
  2
LAYER
  5
2
100
AcDbSymbolTable
 70
36
  0
LAYER
  5
10
100
AcDbSymbolTableRecord
100
AcDbLayerTableRecord
  2
0
 70
0
 62
7
  6
CONTINUOUS
370
-3
390
F
  0
LAYER
  5
1FA
100
AcDbSymbolTableRecord
100
AcDbLayerTableRecord
  2
DEFAULT_1
 70
0
 62
7
  6
CENTER
370
-3
390
F
  0
LAYER
  5
1FB
100
AcDbSymbolTableRecord
100
AcDbLayerTableRecord
  2
DEFAULT_2
 70
0
 62
8
  6
HIDDEN
370
-3
390
F
  0
LAYER
  5
1FC
100
AcDbSymbolTableRecord
100
AcDbLayerTableRecord
  2
DEFAULT_3
 70
0
 62
7
  6
PHANTOM
370
-3
390
F
  0
LAYER
  5
1FD
100
AcDbSymbolTableRecord
100
AcDbLayerTableRecord
  2
01_ALL_DTM_PLN
 70
0
 62
7
  6
CONTINUOUS
370
-3
390
F
  0
LAYER
  5
1FE
100
AcDbSymbolTableRecord
100
AcDbLayerTableRecord
  2
01__ASM_ALL_DTM_PLN
 70
0
 62
7
  6
CONTINUOUS
370
-3
390
F
  0
LAYER
  5
1FF
100
AcDbSymbolTableRecord
100
AcDbLayerTableRecord
  2
01__ASM_DEF_DTM_PLN
 70
0
 62
7
  6
CONTINUOUS
370
-3
390
F
  0
LAYER
  5
200
100
AcDbSymbolTableRecord
100
AcDbLayerTableRecord
  2
01___PRT_ALL_DTM_PLN
 70
0
 62
7
  6
CONTINUOUS
370
-3
390
F
  0
LAYER
  5
201
100
AcDbSymbolTableRecord
100
AcDbLayerTableRecord
  2
01___PRT_DEF_DTM_PLN
 70
0
 62
7
  6
CONTINUOUS
370
-3
390
F
  0
LAYER
  5
202
100
AcDbSymbolTableRecord
100
AcDbLayerTableRecord
  2
02_ALL_AXES
 70
0
 62
7
  6
CONTINUOUS
370
-3
390
F
  0
LAYER
  5
203
100
AcDbSymbolTableRecord
100
AcDbLayerTableRecord
  2
02__ASM_ALL_AXES
 70
0
 62
7
  6
CONTINUOUS
370
-3
390
F
  0
LAYER
  5
204
100
AcDbSymbolTableRecord
100
AcDbLayerTableRecord
  2
02___PRT_ALL_AXES
 70
0
 62
7
  6
CONTINUOUS
370
-3
390
F
  0
LAYER
  5
205
100
AcDbSymbolTableRecord
100
AcDbLayerTableRecord
  2
03_ALL_CURVES
 70
0
 62
7
  6
CONTINUOUS
370
-3
390
F
  0
LAYER
  5
206
100
AcDbSymbolTableRecord
100
AcDbLayerTableRecord
  2
03__ASM_ALL_CURVES
 70
0
 62
7
  6
CONTINUOUS
370
-3
390
F
  0
LAYER
  5
207
100
AcDbSymbolTableRecord
100
AcDbLayerTableRecord
  2
03___PRT_ALL_CURVES
 70
0
 62
7
  6
CONTINUOUS
370
-3
390
F
  0
LAYER
  5
208
100
AcDbSymbolTableRecord
100
AcDbLayerTableRecord
  2
04_ALL_DTM_PNT
 70
0
 62
7
  6
CONTINUOUS
370
-3
390
F
  0
LAYER
  5
209
100
AcDbSymbolTableRecord
100
AcDbLayerTableRecord
  2
04__ASM_ALL_DTM_PNT
 70
0
 62
7
  6
CONTINUOUS
370
-3
390
F
  0
LAYER
  5
20A
100
AcDbSymbolTableRecord
100
AcDbLayerTableRecord
  2
04___PRT_ALL_DTM_PNT
 70
0
 62
7
  6
CONTINUOUS
370
-3
390
F
  0
LAYER
  5
20B
100
AcDbSymbolTableRecord
100
AcDbLayerTableRecord
  2
05_ALL_DTM_CSYS
 70
0
 62
7
  6
CONTINUOUS
370
-3
390
F
  0
LAYER
  5
20C
100
AcDbSymbolTableRecord
100
AcDbLayerTableRecord
  2
05__ASM_ALL_DTM_CSYS
 70
0
 62
7
  6
CONTINUOUS
370
-3
390
F
  0
LAYER
  5
20D
100
AcDbSymbolTableRecord
100
AcDbLayerTableRecord
  2
05__ASM_DEF_DTM_CSYS
 70
0
 62
7
  6
CONTINUOUS
370
-3
390
F
  0
LAYER
  5
20E
100
AcDbSymbolTableRecord
100
AcDbLayerTableRecord
  2
05___PRT_ALL_DTM_CSYS
 70
0
 62
7
  6
CONTINUOUS
370
-3
390
F
  0
LAYER
  5
20F
100
AcDbSymbolTableRecord
100
AcDbLayerTableRecord
  2
05___PRT_DEF_DTM_CSYS
 70
0
 62
7
  6
CONTINUOUS
370
-3
390
F
  0
LAYER
  5
210
100
AcDbSymbolTableRecord
100
AcDbLayerTableRecord
  2
06_ALL_SURFS
 70
0
 62
7
  6
CONTINUOUS
370
-3
390
F
  0
LAYER
  5
211
100
AcDbSymbolTableRecord
100
AcDbLayerTableRecord
  2
06__ASM_ALL_SURFS
 70
0
 62
7
  6
CONTINUOUS
370
-3
390
F
  0
LAYER
  5
212
100
AcDbSymbolTableRecord
100
AcDbLayerTableRecord
  2
06___PRT_ALL_SURFS
 70
0
 62
7
  6
CONTINUOUS
370
-3
390
F
  0
LAYER
  5
213
100
AcDbSymbolTableRecord
100
AcDbLayerTableRecord
  2
07__ASM_ALL_SKELETONS
 70
0
 62
7
  6
CONTINUOUS
370
-3
390
F
  0
ENDTAB
  0
TABLE
  2
STYLE
  5
3
100
AcDbSymbolTable
 70
1
  0
STYLE
  5
11
100
AcDbSymbolTableRecord
100
AcDbTextStyleTableRecord
  2
STANDARD
 70
0
 40
0.0
 41
0.8
 50
0.0
 71
0
 42
0.2
  3
txt
  4

  0
STYLE
  5
214
100
AcDbSymbolTableRecord
100
AcDbTextStyleTableRecord
  2
TEXTSTYLE_1
 70
0
 40
0.0
 41
0.8
 50
0.0
 71
0
 42
0.2
  3
gdt
  4

  0
ENDTAB
  0
TABLE
  2
VIEW
  5
6
100
AcDbSymbolTable
 70
0
  0
ENDTAB
  0
TABLE
  2
UCS
  5
7
100
AcDbSymbolTable
 70
0
  0
ENDTAB
  0
TABLE
  2
APPID
  5
9
100
AcDbSymbolTable
 70
1
  0
APPID
  5
215
100
AcDbSymbolTableRecord
100
AcDbRegAppTableRecord
  2
ACAD
 70
0
  0
ENDTAB
  0
TABLE
  2
BLOCK_RECORD
  5
1
100
AcDbSymbolTable
 70
0
  0
BLOCK_RECORD
  5
216
100
AcDbSymbolTableRecord
100
AcDbBlockTableRecord
  2
*Model_Space
  0
BLOCK_RECORD
  5
217
100
AcDbSymbolTableRecord
100
AcDbBlockTableRecord
  2
*Paper_Space
  0
BLOCK_RECORD
  5
218
100
AcDbSymbolTableRecord
100
AcDbBlockTableRecord
  2
_FILLED
  0
BLOCK_RECORD
  5
219
100
AcDbSymbolTableRecord
100
AcDbBlockTableRecord
  2
*D0
  0
BLOCK_RECORD
  5
21A
100
AcDbSymbolTableRecord
100
AcDbBlockTableRecord
  2
*D1
  0
BLOCK_RECORD
  5
21B
100
AcDbSymbolTableRecord
100
AcDbBlockTableRecord
  2
*D2
  0
ENDTAB
  0
TABLE
  2
DIMSTYLE
  5
A
100
AcDbSymbolTable
 70
1
100
AcDbDimStyleTable
 71
0
  0
DIMSTYLE
105
21C
100
AcDbSymbolTableRecord
100
AcDbDimStyleTableRecord
  2
STANDARD
 70
0
  3

  4

 40
1.0
 41
3.0
 42
0.5
 43
0.38
 44
0.5
 45
0.0
 46
0.0
 47
0.001
 48
0.001
140
1.8
141
0.09
142
0.0
143
25.4
144
1.0
145
0.0
146
1.0
147
0.625
 71
1.0
 72
0.0
 73
0
 74
0
 75
0
 76
0
 77
1
 78
8
170
0
171
2
172
0
173
0
174
0
175
0
176
0
177
0
178
0
270
2
271
3
272
3
273
2
274
2
275
0
280
0
281
0
282
0
283
1
284
8
285
0
286
0
287
3
288
0
340
11
278
46
341
218
342
218
343
218
344
218
  0
DIMSTYLE
105
21D
100
AcDbSymbolTableRecord
100
AcDbDimStyleTableRecord
  2
DIMSTYLE_1
 70
0
  3

  4

 40
1.0
 41
3.0
 42
0.5
 43
0.38
 44
0.5
 45
0.0
 46
0.0
 47
0.001
 48
0.001
140
1.8
141
0.09
142
0.0
143
25.4
144
1.0
145
0.0
146
1.0
147
0.45
 71
0.0
 72
0.0
 73
0
 74
0
 75
0
 76
0
 77
1
 78
8
170
0
171
2
172
0
173
0
174
0
175
0
176
0
177
0
178
0
270
2
271
3
272
3
273
2
274
2
275
0
280
0
281
0
282
0
283
1
284
8
285
0
286
0
287
3
288
0
340
11
278
46
341
218
342
218
343
218
344
218
  0
ENDTAB
  0
ENDSEC
  0
SECTION
  2
BLOCKS
  0
BLOCK
  5
20
100
AcDbEntity
  8
0
100
AcDbBlockBegin
  2
*Model_Space
 70
0
 10
0.0
 20
0.0
 30
0.0
  3
*Model_Space
  1

  0
ENDBLK
  5
21
100
AcDbEntity
  8
0
100
AcDbBlockEnd
  0
BLOCK
  5
1C
100
AcDbEntity
  8
0
100
AcDbBlockBegin
  2
*Paper_Space
 70
0
 10
0.0
 20
0.0
 30
0.0
  3
*Paper_Space
  1

  0
ENDBLK
  5
1D
100
AcDbEntity
  8
0
100
AcDbBlockEnd
  0
BLOCK
  5
21E
100
AcDbEntity
  8
0
100
AcDbBlockBegin
  2
_FILLED
 70
64
 10
0.0
 20
0.0
  3
_FILLED
  1

  0
SOLID
  5
21F
100
AcDbEntity
  8
0
  6
BYBLOCK
 62
0
100
AcDbTrace
 10
0.0
 20
0.0
 11
-1.0
 21
0.1666666667
 12
-1.0
 22
-0.1666666667
 13
-1.0
 23
-0.1666666667
  0
ENDBLK
  5
220
100
AcDbEntity
  8
0
  6
BYBLOCK
 62
0
100
AcDbBlockEnd
  0
BLOCK
  5
221
100
AcDbEntity
  8
0
100
AcDbBlockBegin
 62
2
  6
CONTINUOUS
  2
*D0
 70
65
 10
0.0
 20
0.0
  3
*D0
  1

  0
MTEXT
  5
222
100
AcDbEntity
  8
0
100
AcDbMText
 62
2
  6
CONTINUOUS
  7
STANDARD
 71
2
 72
1
 10
40.9556850876
 20
803.7217319963
 30
0.0
 11
0.0
 21
1.0
 31
0.0
 44
0.9
  1
705
 40
1.8
 41
5.5542857143
  0
LINE
  5
223
100
AcDbEntity
  8
0
100
AcDbLine
 62
2
  6
CONTINUOUS
 10
85.0844064209
 20
1155.7217319963
 11
43.027113659
 21
1155.7217319963
  0
LINE
  5
224
100
AcDbEntity
  8
0
100
AcDbLine
 62
2
  6
CONTINUOUS
 10
90.4760639785
 20
451.7217319963
 11
43.027113659
 21
451.7217319963
  0
LINE
  5
225
100
AcDbEntity
  8
0
100
AcDbLine
 62
2
  6
CONTINUOUS
 10
43.527113659
 20
1155.7217319963
 11
43.527113659
 21
803.7217319963
  0
LINE
  5
226
100
AcDbEntity
  8
0
100
AcDbLine
 62
2
  6
CONTINUOUS
 10
43.527113659
 20
451.7217319963
 11
43.527113659
 21
803.7217319963
  0
INSERT
  5
227
100
AcDbEntity
  8
0
100
AcDbBlockReference
 62
2
  6
CONTINUOUS
  2
_FILLED
 10
43.527113659
 20
1155.7217319963
 41
3.0
 42
3.0
 43
3.0
 50
90.0
  0
INSERT
  5
228
100
AcDbEntity
  8
0
100
AcDbBlockReference
 62
2
  6
CONTINUOUS
  2
_FILLED
 10
43.527113659
 20
451.7217319963
 41
3.0
 42
3.0
 43
3.0
 50
270.0
  0
ENDBLK
  5
229
100
AcDbEntity
  8
0
  6
BYBLOCK
 62
0
100
AcDbBlockEnd
  0
BLOCK
  5
22A
100
AcDbEntity
  8
0
100
AcDbBlockBegin
 62
2
  6
CONTINUOUS
  2
*D1
 70
65
 10
0.0
 20
0.0
  3
*D1
  1

  0
MTEXT
  5
22B
100
AcDbEntity
  8
0
100
AcDbMText
 62
2
  6
CONTINUOUS
  7
STANDARD
 71
2
 72
1
 10
235.9844064209
 20
398.4420582944
 30
0.0
 11
1.0
 21
0.0
 31
0.0
 44
0.9
  1
304
 40
1.8
 41
5.5542857143
  0
LINE
  5
22C
100
AcDbEntity
  8
0
100
AcDbLine
 62
2
  6
CONTINUOUS
 10
83.9844064209
 20
352.5849581906
 11
83.9844064209
 21
396.3706297229
  0
LINE
  5
22D
100
AcDbEntity
  8
0
100
AcDbLine
 62
2
  6
CONTINUOUS
 10
387.9844064209
 20
352.5849581906
 11
387.9844064209
 21
396.3706297229
  0
LINE
  5
22E
100
AcDbEntity
  8
0
100
AcDbLine
 62
2
  6
CONTINUOUS
 10
83.9844064209
 20
395.8706297229
 11
235.9844064209
 21
395.8706297229
  0
LINE
  5
22F
100
AcDbEntity
  8
0
100
AcDbLine
 62
2
  6
CONTINUOUS
 10
387.9844064209
 20
395.8706297229
 11
235.9844064209
 21
395.8706297229
  0
INSERT
  5
230
100
AcDbEntity
  8
0
100
AcDbBlockReference
 62
2
  6
CONTINUOUS
  2
_FILLED
 10
83.9844064209
 20
395.8706297229
 41
3.0
 42
3.0
 43
3.0
 50
180.0
  0
INSERT
  5
231
100
AcDbEntity
  8
0
100
AcDbBlockReference
 62
2
  6
CONTINUOUS
  2
_FILLED
 10
387.9844064209
 20
395.8706297229
 41
3.0
 42
3.0
 43
3.0
 50
0.0
  0
ENDBLK
  5
232
100
AcDbEntity
  8
0
  6
BYBLOCK
 62
0
100
AcDbBlockEnd
  0
BLOCK
  5
233
100
AcDbEntity
  8
0
100
AcDbBlockBegin
 62
2
  6
CONTINUOUS
  2
*D2
 70
65
 10
0.0
 20
0.0
  3
*D2
  1

  0
MTEXT
  5
234
100
AcDbEntity
  8
0
100
AcDbMText
 62
2
  6
CONTINUOUS
  7
STANDARD
 71
2
 72
1
 10
38.7257102765
 20
225.8849581906
 30
0.0
 11
0.0
 21
1.0
 31
0.0
 44
0.9
  1
254
 40
1.8
 41
5.5542857143
  0
LINE
  5
235
100
AcDbEntity
  8
0
100
AcDbLine
 62
2
  6
CONTINUOUS
 10
83.8844064209
 20
352.8849581906
 11
40.7971388479
 21
352.8849581906
  0
LINE
  5
236
100
AcDbEntity
  8
0
100
AcDbLine
 62
2
  6
CONTINUOUS
 10
83.8844064209
 20
98.8849581906
 11
40.7971388479
 21
98.8849581906
  0
LINE
  5
237
100
AcDbEntity
  8
0
100
AcDbLine
 62
2
  6
CONTINUOUS
 10
41.2971388479
 20
352.8849581906
 11
41.2971388479
 21
225.8849581906
  0
LINE
  5
238
100
AcDbEntity
  8
0
100
AcDbLine
 62
2
  6
CONTINUOUS
 10
41.2971388479
 20
98.8849581906
 11
41.2971388479
 21
225.8849581906
  0
INSERT
  5
239
100
AcDbEntity
  8
0
100
AcDbBlockReference
 62
2
  6
CONTINUOUS
  2
_FILLED
 10
41.2971388479
 20
352.8849581906
 41
3.0
 42
3.0
 43
3.0
 50
90.0
  0
INSERT
  5
23A
100
AcDbEntity
  8
0
100
AcDbBlockReference
 62
2
  6
CONTINUOUS
  2
_FILLED
 10
41.2971388479
 20
98.8849581906
 41
3.0
 42
3.0
 43
3.0
 50
270.0
  0
ENDBLK
  5
23B
100
AcDbEntity
  8
0
  6
BYBLOCK
 62
0
100
AcDbBlockEnd
  0
ENDSEC
  0
SECTION
  2
ENTITIES
  0
DIMENSION
  5
23C
100
AcDbEntity
  8
0
100
AcDbDimension
 62
2
  6
CONTINUOUS
  2
*D0
 10
43.527113659
 20
451.7217319963
 11
43.527113659
 21
803.7217319963
 70
160
 71
2
 42
704.0
  3
DIMSTYLE_1
100
AcDbAlignedDimension
 13
85.5844064209
 23
1155.7217319963
 14
90.9760639785
 24
451.7217319963
 50
270.0
100
AcDbRotatedDimension
  0
DIMENSION
  5
23D
100
AcDbEntity
  8
0
100
AcDbDimension
 62
2
  6
CONTINUOUS
  2
*D1
 10
387.9844064209
 20
395.8706297229
 11
235.9844064209
 21
395.8706297229
 70
160
 71
2
 42
304.0
  3
DIMSTYLE_1
100
AcDbAlignedDimension
 13
83.9844064209
 23
352.0849581906
 14
387.9844064209
 24
352.0849581906
100
AcDbRotatedDimension
  0
DIMENSION
  5
23E
100
AcDbEntity
  8
0
100
AcDbDimension
 62
2
  6
CONTINUOUS
  2
*D2
 10
41.2971388479
 20
98.8849581906
 11
41.2971388479
 21
225.8849581906
 70
160
 71
2
 42
254.0
  3
DIMSTYLE_1
100
AcDbAlignedDimension
 13
84.3844064209
 23
352.8849581906
 14
84.3844064209
 24
98.8849581906
 50
270.0
100
AcDbRotatedDimension
  0
LINE
  5
23F
100
AcDbEntity
  8
0
100
AcDbLine
 62
7
  6
CONTINUOUS
 10
83.9844064209
 20
352.0849581906
 11
83.9844064209
 21
99.6849581906
  0
LINE
  5
240
100
AcDbEntity
  8
0
100
AcDbLine
 62
7
  6
CONTINUOUS
 10
84.3844064209
 20
99.6849581906
 11
84.3844064209
 21
98.8849581906
  0
LINE
  5
241
100
AcDbEntity
  8
0
100
AcDbLine
 62
7
  6
CONTINUOUS
 10
84.3844064209
 20
352.0849581906
 11
84.3844064209
 21
352.8849581906
  0
LINE
  5
242
100
AcDbEntity
  8
0
100
AcDbLine
 62
7
  6
CONTINUOUS
 10
85.5844064209
 20
100.4849581906
 11
85.5844064209
 21
351.2849581906
  0
LINE
  5
243
100
AcDbEntity
  8
0
100
AcDbLine
 62
7
  6
CONTINUOUS
 10
113.9844064209
 20
156.8849581906
 11
113.9844064209
 21
200.8849581906
  0
LINE
  5
244
100
AcDbEntity
  8
0
100
AcDbLine
 62
7
  6
CONTINUOUS
 10
84.3844064209
 20
98.8849581906
 11
387.5844064209
 21
98.8849581906
  0
LINE
  5
245
100
AcDbEntity
  8
0
100
AcDbLine
 62
7
  6
CONTINUOUS
 10
84.3844064209
 20
99.6849581906
 11
83.9844064209
 21
99.6849581906
  0
LINE
  5
246
100
AcDbEntity
  8
0
100
AcDbLine
 62
7
  6
CONTINUOUS
 10
387.5844064209
 20
99.6849581906
 11
387.9844064209
 21
99.6849581906
  0
LINE
  5
247
100
AcDbEntity
  8
0
100
AcDbLine
 62
7
  6
CONTINUOUS
 10
386.3844064209
 20
100.4849581906
 11
85.5844064209
 21
100.4849581906
  0
LINE
  5
248
100
AcDbEntity
  8
0
100
AcDbLine
 62
7
  6
CONTINUOUS
 10
329.9844064209
 20
128.8849581906
 11
141.9844064209
 21
128.8849581906
  0
LINE
  5
249
100
AcDbEntity
  8
0
100
AcDbLine
 62
7
  6
CONTINUOUS
 10
141.9844064209
 20
228.8849581906
 11
329.9844064209
 21
228.8849581906
  0
LINE
  5
24A
100
AcDbEntity
  8
0
100
AcDbLine
 62
7
  6
CONTINUOUS
 10
357.9844064209
 20
200.8849581906
 11
357.9844064209
 21
156.8849581906
  0
LINE
  5
24B
100
AcDbEntity
  8
0
100
AcDbLine
 62
7
  6
CONTINUOUS
 10
85.5844064209
 20
351.2849581906
 11
386.3844064209
 21
351.2849581906
  0
LINE
  5
24C
100
AcDbEntity
  8
0
100
AcDbLine
 62
7
  6
CONTINUOUS
 10
84.3844064209
 20
352.0849581906
 11
83.9844064209
 21
352.0849581906
  0
LINE
  5
24D
100
AcDbEntity
  8
0
100
AcDbLine
 62
7
  6
CONTINUOUS
 10
387.5844064209
 20
352.0849581906
 11
387.9844064209
 21
352.0849581906
  0
LINE
  5
24E
100
AcDbEntity
  8
0
100
AcDbLine
 62
7
  6
CONTINUOUS
 10
387.5844064209
 20
352.8849581906
 11
84.3844064209
 21
352.8849581906
  0
LINE
  5
24F
100
AcDbEntity
  8
0
100
AcDbLine
 62
7
  6
CONTINUOUS
 10
386.3844064209
 20
351.2849581906
 11
386.3844064209
 21
100.4849581906
  0
LINE
  5
250
100
AcDbEntity
  8
0
100
AcDbLine
 62
7
  6
CONTINUOUS
 10
387.5844064209
 20
99.6849581906
 11
387.5844064209
 21
98.8849581906
  0
LINE
  5
251
100
AcDbEntity
  8
0
100
AcDbLine
 62
7
  6
CONTINUOUS
 10
387.5844064209
 20
352.0849581906
 11
387.5844064209
 21
352.8849581906
  0
LINE
  5
252
100
AcDbEntity
  8
0
100
AcDbLine
 62
7
  6
CONTINUOUS
 10
387.9844064209
 20
99.6849581906
 11
387.9844064209
 21
352.0849581906
  0
LINE
  5
253
100
AcDbEntity
  8
02___PRT_ALL_AXES
100
AcDbLine
 62
7
  6
CONTINUOUS
 10
380.9760639785
 20
451.7217319963
 11
360.9760639785
 21
451.7217319963
  0
LINE
  5
254
100
AcDbEntity
  8
02___PRT_ALL_AXES
100
AcDbLine
 62
7
  6
CONTINUOUS
 10
110.9760639785
 20
451.7217319963
 11
90.9760639785
 21
451.7217319963
  0
LINE
  5
255
100
AcDbEntity
  8
0
100
AcDbLine
 62
7
  6
CONTINUOUS
 10
86.1844064209
 20
453.7217319963
 11
386.1844064209
 21
453.7217319963
  0
LINE
  5
256
100
AcDbEntity
  8
0
100
AcDbLine
 62
7
  6
CONTINUOUS
 10
87.4844064209
 20
455.0217319963
 11
384.8844064209
 21
455.0217319963
  0
LINE
  5
257
100
AcDbEntity
  8
0
100
AcDbLine
 62
7
  6
CONTINUOUS
 10
83.9844064209
 20
1127.7217319963
 11
83.9844064209
 21
1154.1217319963
  0
LINE
  5
258
100
AcDbEntity
  8
0
100
AcDbLine
 62
7
  6
CONTINUOUS
 10
84.3844064209
 20
1154.1217319963
 11
84.3844064209
 21
1127.7217319963
  0
LINE
  5
259
100
AcDbEntity
  8
0
100
AcDbLine
 62
7
  6
CONTINUOUS
 10
86.1844064209
 20
453.7217319963
 11
86.1844064209
 21
1127.7217319963
  0
LINE
  5
25A
100
AcDbEntity
  8
0
100
AcDbLine
 62
7
  6
CONTINUOUS
 10
86.3844064209
 20
1127.7217319963
 11
86.3844064209
 21
1130.7217319963
  0
LINE
  5
25B
100
AcDbEntity
  8
0
100
AcDbLine
 62
7
  6
CONTINUOUS
 10
87.4844064209
 20
453.7217319963
 11
87.4844064209
 21
1130.7217319963
  0
LINE
  5
25C
100
AcDbEntity
  8
02___PRT_ALL_AXES
100
AcDbLine
 62
7
  6
CONTINUOUS
 10
90.9760639785
 20
453.7217319963
 11
90.9760639785
 21
451.7217319963
  0
LINE
  5
25D
100
AcDbEntity
  8
02___PRT_ALL_AXES
100
AcDbLine
 62
7
  6
CONTINUOUS
 10
110.9760639785
 20
453.7217319963
 11
110.9760639785
 21
451.7217319963
  0
LINE
  5
25E
100
AcDbEntity
  8
03___PRT_ALL_CURVES
100
AcDbLine
 62
40
  6
CONTINUOUS
 10
111.4541963653
 20
453.7217319963
 11
111.4541963653
 21
453.5915219407
  0
LINE
  5
25F
100
AcDbEntity
  8
03___PRT_ALL_CURVES
100
AcDbLine
 62
40
  6
CONTINUOUS
 10
360.9146164764
 20
453.5915219407
 11
360.9146164764
 21
453.7217319963
  0
LINE
  5
260
100
AcDbEntity
  8
02___PRT_ALL_AXES
100
AcDbLine
 62
7
  6
CONTINUOUS
 10
360.9760639785
 20
453.7217319963
 11
360.9760639785
 21
451.7217319963
  0
LINE
  5
261
100
AcDbEntity
  8
02___PRT_ALL_AXES
100
AcDbLine
 62
7
  6
CONTINUOUS
 10
380.9760639785
 20
453.7217319963
 11
380.9760639785
 21
451.7217319963
  0
LINE
  5
262
100
AcDbEntity
  8
0
100
AcDbLine
 62
7
  6
CONTINUOUS
 10
384.8844064209
 20
453.7217319963
 11
384.8844064209
 21
1130.7217319963
  0
LINE
  5
263
100
AcDbEntity
  8
0
100
AcDbLine
 62
7
  6
CONTINUOUS
 10
385.5844064209
 20
1130.7217319963
 11
385.5844064209
 21
1127.7217319963
  0
LINE
  5
264
100
AcDbEntity
  8
0
100
AcDbLine
 62
7
  6
CONTINUOUS
 10
386.1844064209
 20
453.7217319963
 11
386.1844064209
 21
1127.7217319963
  0
LINE
  5
265
100
AcDbEntity
  8
0
100
AcDbLine
 62
7
  6
CONTINUOUS
 10
387.5844064209
 20
1127.7217319963
 11
387.5844064209
 21
1154.1217319963
  0
LINE
  5
266
100
AcDbEntity
  8
0
100
AcDbLine
 62
7
  6
CONTINUOUS
 10
387.9844064209
 20
1154.1217319963
 11
387.9844064209
 21
1127.7217319963
  0
LINE
  5
267
100
AcDbEntity
  8
0
100
AcDbLine
 62
7
  6
CONTINUOUS
 10
83.9844064209
 20
1127.7217319963
 11
86.3844064209
 21
1127.7217319963
  0
LINE
  5
268
100
AcDbEntity
  8
0
100
AcDbLine
 62
7
  6
CONTINUOUS
 10
385.5844064209
 20
1127.7217319963
 11
387.9844064209
 21
1127.7217319963
  0
LINE
  5
269
100
AcDbEntity
  8
0
100
AcDbLine
 62
7
  6
CONTINUOUS
 10
385.5844064209
 20
1130.7217319963
 11
86.3844064209
 21
1130.7217319963
  0
LINE
  5
26A
100
AcDbEntity
  8
0
100
AcDbLine
 62
7
  6
CONTINUOUS
 10
83.9844064209
 20
1154.1217319963
 11
387.9844064209
 21
1154.1217319963
  0
LINE
  5
26B
100
AcDbEntity
  8
0
100
AcDbLine
 62
7
  6
CONTINUOUS
 10
386.3844064209
 20
1155.7217319963
 11
85.5844064209
 21
1155.7217319963
  0
ARC
  5
26C
100
AcDbEntity
  8
0
100
AcDbCircle
 62
7
  6
CONTINUOUS
 10
329.9844064209
 20
200.8849581906
 40
28.0
100
AcDbArc
 50
0.0
 51
90.0
  0
ARC
  5
26D
100
AcDbEntity
  8
0
100
AcDbCircle
 62
7
  6
CONTINUOUS
 10
329.9844064209
 20
156.8849581906
 40
28.0
100
AcDbArc
 50
270.0
 51
360.0
  0
ARC
  5
26E
100
AcDbEntity
  8
0
100
AcDbCircle
 62
7
  6
CONTINUOUS
 10
141.9844064209
 20
156.8849581906
 40
28.0
100
AcDbArc
 50
180.0
 51
270.0
  0
ARC
  5
26F
100
AcDbEntity
  8
0
100
AcDbCircle
 62
7
  6
CONTINUOUS
 10
141.9844064209
 20
200.8849581906
 40
28.0
100
AcDbArc
 50
90.0
 51
180.0
  0
ARC
  5
270
100
AcDbEntity
  8
0
100
AcDbCircle
 62
3
  6
CONTINUOUS
 10
84.2001071957
 20
350.8630338921
 40
1.2584355279
100
AcDbArc
 50
61.1012988553
 51
62.3369609575
  0
ARC
  5
271
100
AcDbEntity
  8
0
100
AcDbCircle
 62
3
  6
CONTINUOUS
 10
387.7687056466
 20
350.8630338911
 40
1.2584355291
100
AcDbArc
 50
117.6630390429
 51
118.898701144
  0
ARC
  5
272
100
AcDbEntity
  8
0
100
AcDbCircle
 62
3
  6
CONTINUOUS
 10
84.2001071957
 20
100.9068824891
 40
1.2584355279
100
AcDbArc
 50
297.6630390424
 51
298.8987011446
  0
ARC
  5
273
100
AcDbEntity
  8
0
100
AcDbCircle
 62
3
  6
CONTINUOUS
 10
387.7687056458
 20
100.9068824887
 40
1.2584355275
100
AcDbArc
 50
241.1012988548
 51
242.3369609575
  0
ARC
  5
274
100
AcDbEntity
  8
0
100
AcDbCircle
 62
3
  6
CONTINUOUS
 10
84.2408515253
 20
350.9412319438
 40
1.1702596552
100
AcDbArc
 50
62.3262832327
 51
64.5236513107
  0
ARC
  5
275
100
AcDbEntity
  8
0
100
AcDbCircle
 62
3
  6
CONTINUOUS
 10
387.7279613165
 20
350.9412319437
 40
1.1702596553
100
AcDbArc
 50
115.4763486897
 51
117.6737167673
  0
ARC
  5
276
100
AcDbEntity
  8
0
100
AcDbCircle
 62
3
  6
CONTINUOUS
 10
84.2408515253
 20
100.8286844373
 40
1.1702596551
100
AcDbArc
 50
295.4763486894
 51
297.6737167675
  0
ARC
  5
277
100
AcDbEntity
  8
0
100
AcDbCircle
 62
3
  6
CONTINUOUS
 10
387.7279613162
 20
100.8286844369
 40
1.1702596547
100
AcDbArc
 50
242.3262832322
 51
244.5236513111
  0
ARC
  5
278
100
AcDbEntity
  8
0
100
AcDbCircle
 62
7
  6
CONTINUOUS
 10
85.5844064209
 20
1154.1217319963
 40
1.6
100
AcDbArc
 50
90.0
 51
180.0
  0
ARC
  5
279
100
AcDbEntity
  8
0
100
AcDbCircle
 62
7
  6
CONTINUOUS
 10
386.3844064209
 20
1154.1217319963
 40
1.6
100
AcDbArc
 50
0.0
 51
90.0
  0
SPLINE
  5
27A
100
AcDbEntity
  8
0
100
AcDbSpline
 62
7
  6
CONTINUOUS
 70
0
 71
3
 72
12
 73
8
 74
0
 42
0.0000001
 43
0.0000001
 44
0.0000000001
 40
0.0
 40
0.0
 40
0.0
 40
0.0
 40
0.3508881395
 40
0.6538966532
 40
0.7752062139
 40
0.8724366818
 40
1.0
 40
1.0
 40
1.0
 40
1.0
 10
386.3844064209
 20
100.4849581906
 30
0.0
 10
386.5890069653
 20
100.4198318146
 30
0.0
 10
386.970411328
 20
100.297902786
 30
0.0
 10
387.4158903956
 20
100.1367836841
 30
0.0
 10
387.7046740707
 20
99.9944929097
 30
0.0
 10
387.8795756829
 20
99.8848122402
 30
0.0
 10
387.9844064209
 20
99.7630168162
 30
0.0
 10
387.9844064209
 20
99.6849581906
 30
0.0
  0
SPLINE
  5
27B
100
AcDbEntity
  8
0
100
AcDbSpline
 62
7
  6
CONTINUOUS
 70
0
 71
3
 72
12
 73
8
 74
0
 42
0.0000001
 43
0.0000001
 44
0.0000000001
 40
0.0
 40
0.0
 40
0.0
 40
0.0
 40
0.3508881395
 40
0.6538966532
 40
0.7752062139
 40
0.8724366818
 40
1.0
 40
1.0
 40
1.0
 40
1.0
 10
386.3844064209
 20
351.2849581906
 30
0.0
 10
386.5890069653
 20
351.3500845666
 30
0.0
 10
386.970411328
 20
351.4720135952
 30
0.0
 10
387.4158903956
 20
351.6331326971
 30
0.0
 10
387.7046740707
 20
351.7754234714
 30
0.0
 10
387.8795756829
 20
351.8851041409
 30
0.0
 10
387.9844064209
 20
352.0068995649
 30
0.0
 10
387.9844064209
 20
352.0849581906
 30
0.0
  0
SPLINE
  5
27C
100
AcDbEntity
  8
0
100
AcDbSpline
 62
7
  6
CONTINUOUS
 70
0
 71
3
 72
12
 73
8
 74
0
 42
0.0000001
 43
0.0000001
 44
0.0000000001
 40
0.0
 40
0.0
 40
0.0
 40
0.0
 40
0.3508881395
 40
0.6538966532
 40
0.7752062139
 40
0.8724366818
 40
1.0
 40
1.0
 40
1.0
 40
1.0
 10
85.5844064209
 20
100.4849581906
 30
0.0
 10
85.3798058764
 20
100.4198318146
 30
0.0
 10
84.9984015137
 20
100.297902786
 30
0.0
 10
84.5529224461
 20
100.1367836841
 30
0.0
 10
84.264138771
 20
99.9944929097
 30
0.0
 10
84.0892371588
 20
99.8848122402
 30
0.0
 10
83.9844064209
 20
99.7630168162
 30
0.0
 10
83.9844064209
 20
99.6849581906
 30
0.0
  0
SPLINE
  5
27D
100
AcDbEntity
  8
0
100
AcDbSpline
 62
7
  6
CONTINUOUS
 70
0
 71
3
 72
12
 73
8
 74
0
 42
0.0000001
 43
0.0000001
 44
0.0000000001
 40
0.0
 40
0.0
 40
0.0
 40
0.0
 40
0.3302026294
 40
0.6205295
 40
0.7412030709
 40
0.8431967012
 40
1.0
 40
1.0
 40
1.0
 40
1.0
 10
85.5844064209
 20
100.4849581906
 30
0.0
 10
85.4864760468
 20
100.2798532948
 30
0.0
 10
85.30219854
 20
99.8946209081
 30
0.0
 10
85.0569397643
 20
99.4462265625
 30
0.0
 10
84.8461803236
 20
99.16090056
 30
0.0
 10
84.6664704591
 20
98.9736529145
 30
0.0
 10
84.4923371334
 20
98.8849581906
 30
0.0
 10
84.3844064209
 20
98.8849581906
 30
0.0
  0
SPLINE
  5
27E
100
AcDbEntity
  8
0
100
AcDbSpline
 62
7
  6
CONTINUOUS
 70
0
 71
3
 72
12
 73
8
 74
0
 42
0.0000001
 43
0.0000001
 44
0.0000000001
 40
0.0
 40
0.0
 40
0.0
 40
0.0
 40
0.3302026294
 40
0.6205295
 40
0.7412030709
 40
0.8431967012
 40
1.0
 40
1.0
 40
1.0
 40
1.0
 10
386.3844064209
 20
351.2849581906
 30
0.0
 10
386.4823367949
 20
351.4900630863
 30
0.0
 10
386.6666143017
 20
351.875295473
 30
0.0
 10
386.9118730774
 20
352.3236898187
 30
0.0
 10
387.1226325181
 20
352.6090158212
 30
0.0
 10
387.3023423827
 20
352.7962634666
 30
0.0
 10
387.4764757083
 20
352.8849581906
 30
0.0
 10
387.5844064209
 20
352.8849581906
 30
0.0
  0
SPLINE
  5
27F
100
AcDbEntity
  8
0
100
AcDbSpline
 62
7
  6
CONTINUOUS
 70
0
 71
3
 72
12
 73
8
 74
0
 42
0.0000001
 43
0.0000001
 44
0.0000000001
 40
0.0
 40
0.0
 40
0.0
 40
0.0
 40
0.3302026294
 40
0.6205295
 40
0.7412030709
 40
0.8431967012
 40
1.0
 40
1.0
 40
1.0
 40
1.0
 10
85.5844064209
 20
351.2849581906
 30
0.0
 10
85.4864760468
 20
351.4900630863
 30
0.0
 10
85.30219854
 20
351.875295473
 30
0.0
 10
85.0569397643
 20
352.3236898187
 30
0.0
 10
84.8461803236
 20
352.6090158212
 30
0.0
 10
84.6664704591
 20
352.7962634666
 30
0.0
 10
84.4923371334
 20
352.8849581906
 30
0.0
 10
84.3844064209
 20
352.8849581906
 30
0.0
  0
SPLINE
  5
280
100
AcDbEntity
  8
0
100
AcDbSpline
 62
7
  6
CONTINUOUS
 70
0
 71
3
 72
12
 73
8
 74
0
 42
0.0000001
 43
0.0000001
 44
0.0000000001
 40
0.0
 40
0.0
 40
0.0
 40
0.0
 40
0.3508881395
 40
0.6538966532
 40
0.7752062139
 40
0.8724366818
 40
1.0
 40
1.0
 40
1.0
 40
1.0
 10
85.5844064209
 20
351.2849581906
 30
0.0
 10
85.3798058764
 20
351.3500845666
 30
0.0
 10
84.9984015137
 20
351.4720135952
 30
0.0
 10
84.5529224461
 20
351.6331326971
 30
0.0
 10
84.264138771
 20
351.7754234714
 30
0.0
 10
84.0892371588
 20
351.8851041409
 30
0.0
 10
83.9844064209
 20
352.0068995649
 30
0.0
 10
83.9844064209
 20
352.0849581906
 30
0.0
  0
SPLINE
  5
281
100
AcDbEntity
  8
0
100
AcDbSpline
 62
7
  6
CONTINUOUS
 70
0
 71
3
 72
12
 73
8
 74
0
 42
0.0000001
 43
0.0000001
 44
0.0000000001
 40
0.0
 40
0.0
 40
0.0
 40
0.0
 40
0.3302026294
 40
0.6205295
 40
0.7412030709
 40
0.8431967012
 40
1.0
 40
1.0
 40
1.0
 40
1.0
 10
386.3844064209
 20
100.4849581906
 30
0.0
 10
386.4823367949
 20
100.2798532948
 30
0.0
 10
386.6666143017
 20
99.8946209081
 30
0.0
 10
386.9118730774
 20
99.4462265625
 30
0.0
 10
387.1226325181
 20
99.16090056
 30
0.0
 10
387.3023423827
 20
98.9736529145
 30
0.0
 10
387.4764757083
 20
98.8849581906
 30
0.0
 10
387.5844064209
 20
98.8849581906
 30
0.0
  0
SPLINE
  5
282
100
AcDbEntity
  8
0
100
AcDbSpline
 62
3
  6
CONTINUOUS
 70
0
 71
3
 72
9
 73
5
 74
0
 42
0.0000001
 43
0.0000001
 44
0.0000000001
 40
0.0
 40
0.0
 40
0.0
 40
0.0
 40
0.2622820708
 40
1.0
 40
1.0
 40
1.0
 40
1.0
 10
85.5844064209
 20
351.2849581906
 30
0.0
 10
85.5345951482
 20
351.3371204333
 30
0.0
 10
85.344703113
 20
351.5356439707
 30
0.0
 10
85.1476137877
 20
351.7301463728
 30
0.0
 10
84.9844064209
 20
351.8506371052
 30
0.0
  0
SPLINE
  5
283
100
AcDbEntity
  8
0
100
AcDbSpline
 62
3
  6
CONTINUOUS
 70
0
 71
3
 72
8
 73
4
 74
0
 42
0.0000001
 43
0.0000001
 44
0.0000000001
 40
0.0
 40
0.0
 40
0.0
 40
0.0
 40
1.0
 40
1.0
 40
1.0
 40
1.0
 10
84.9844064209
 20
351.8506371052
 30
0.0
 10
84.9281217404
 20
351.8921902685
 30
0.0
 10
84.8695149668
 20
351.9309595335
 30
0.0
 10
84.8082619416
 20
351.964763343
 30
0.0
  0
SPLINE
  5
284
100
AcDbEntity
  8
0
100
AcDbSpline
 62
3
  6
CONTINUOUS
 70
0
 71
3
 72
8
 73
4
 74
0
 42
0.0000001
 43
0.0000001
 44
0.0000000001
 40
0.0
 40
0.0
 40
0.0
 40
0.0
 40
1.0
 40
1.0
 40
1.0
 40
1.0
 10
84.7442252334
 20
351.9976989667
 30
0.0
 10
84.7053865735
 20
352.0161906135
 30
0.0
 10
84.6653770349
 20
352.0324874345
 30
0.0
 10
84.6244565575
 20
352.0457500525
 30
0.0
  0
SPLINE
  5
285
100
AcDbEntity
  8
0
100
AcDbSpline
 62
3
  6
CONTINUOUS
 70
0
 71
3
 72
8
 73
4
 74
0
 42
0.0000001
 43
0.0000001
 44
0.0000000001
 40
0.0
 40
0.0
 40
0.0
 40
0.0
 40
1.0
 40
1.0
 40
1.0
 40
1.0
 10
84.6244565575
 20
352.0457500525
 30
0.0
 10
84.5473293329
 20
352.0707475349
 30
0.0
 10
84.4654834393
 20
352.0849581906
 30
0.0
 10
84.3844064209
 20
352.0849581906
 30
0.0
  0
SPLINE
  5
286
100
AcDbEntity
  8
0
100
AcDbSpline
 62
3
  6
CONTINUOUS
 70
0
 71
3
 72
9
 73
5
 74
0
 42
0.0000001
 43
0.0000001
 44
0.0000000001
 40
0.0
 40
0.0
 40
0.0
 40
0.0
 40
0.2622820708
 40
1.0
 40
1.0
 40
1.0
 40
1.0
 10
386.3844064209
 20
351.2849581906
 30
0.0
 10
386.4342176935
 20
351.3371204333
 30
0.0
 10
386.6241097287
 20
351.5356439707
 30
0.0
 10
386.8211990541
 20
351.7301463728
 30
0.0
 10
386.9844064209
 20
351.8506371052
 30
0.0
  0
SPLINE
  5
287
100
AcDbEntity
  8
0
100
AcDbSpline
 62
3
  6
CONTINUOUS
 70
0
 71
3
 72
8
 73
4
 74
0
 42
0.0000001
 43
0.0000001
 44
0.0000000001
 40
0.0
 40
0.0
 40
0.0
 40
0.0
 40
1.0
 40
1.0
 40
1.0
 40
1.0
 10
386.9844064209
 20
351.8506371052
 30
0.0
 10
387.0406911013
 20
351.8921902685
 30
0.0
 10
387.099297875
 20
351.9309595335
 30
0.0
 10
387.1605509002
 20
351.964763343
 30
0.0
  0
SPLINE
  5
288
100
AcDbEntity
  8
0
100
AcDbSpline
 62
3
  6
CONTINUOUS
 70
0
 71
3
 72
8
 73
4
 74
0
 42
0.0000001
 43
0.0000001
 44
0.0000000001
 40
0.0
 40
0.0
 40
0.0
 40
0.0
 40
1.0
 40
1.0
 40
1.0
 40
1.0
 10
387.2245876083
 20
351.9976989667
 30
0.0
 10
387.2634262682
 20
352.0161906135
 30
0.0
 10
387.3034358068
 20
352.0324874345
 30
0.0
 10
387.3443562842
 20
352.0457500525
 30
0.0
  0
SPLINE
  5
289
100
AcDbEntity
  8
0
100
AcDbSpline
 62
3
  6
CONTINUOUS
 70
0
 71
3
 72
8
 73
4
 74
0
 42
0.0000001
 43
0.0000001
 44
0.0000000001
 40
0.0
 40
0.0
 40
0.0
 40
0.0
 40
1.0
 40
1.0
 40
1.0
 40
1.0
 10
387.3443562842
 20
352.0457500525
 30
0.0
 10
387.4214835089
 20
352.0707475349
 30
0.0
 10
387.5033294025
 20
352.0849581906
 30
0.0
 10
387.5844064209
 20
352.0849581906
 30
0.0
  0
SPLINE
  5
28A
100
AcDbEntity
  8
0
100
AcDbSpline
 62
3
  6
CONTINUOUS
 70
0
 71
3
 72
9
 73
5
 74
0
 42
0.0000001
 43
0.0000001
 44
0.0000000001
 40
0.0
 40
0.0
 40
0.0
 40
0.0
 40
0.5755477224
 40
1.0
 40
1.0
 40
1.0
 40
1.0
 10
386.3844064209
 20
351.2849581906
 30
0.0
 10
386.5528111573
 20
351.3921679756
 30
0.0
 10
386.8412941152
 20
351.5727621054
 30
0.0
 10
387.1099227659
 20
351.8247733312
 30
0.0
 10
387.161449733
 20
351.9626878521
 30
0.0
  0
SPLINE
  5
28B
100
AcDbEntity
  8
0
100
AcDbSpline
 62
3
  6
CONTINUOUS
 70
0
 71
3
 72
9
 73
5
 74
0
 42
0.0000001
 43
0.0000001
 44
0.0000000001
 40
0.0
 40
0.0
 40
0.0
 40
0.0
 40
0.5755477224
 40
1.0
 40
1.0
 40
1.0
 40
1.0
 10
386.3844064209
 20
100.4849581906
 30
0.0
 10
386.5528111573
 20
100.3777484056
 30
0.0
 10
386.8412941152
 20
100.1971542757
 30
0.0
 10
387.1099227659
 20
99.9451430499
 30
0.0
 10
387.161449733
 20
99.8072285291
 30
0.0
  0
SPLINE
  5
28C
100
AcDbEntity
  8
0
100
AcDbSpline
 62
3
  6
CONTINUOUS
 70
0
 71
3
 72
9
 73
5
 74
0
 42
0.0000001
 43
0.0000001
 44
0.0000000001
 40
0.0
 40
0.0
 40
0.0
 40
0.0
 40
0.5755477224
 40
1.0
 40
1.0
 40
1.0
 40
1.0
 10
85.5844064209
 20
100.4849581906
 30
0.0
 10
85.4160016844
 20
100.3777484056
 30
0.0
 10
85.1275187265
 20
100.1971542757
 30
0.0
 10
84.8588900758
 20
99.9451430499
 30
0.0
 10
84.8073631087
 20
99.8072285291
 30
0.0
  0
SPLINE
  5
28D
100
AcDbEntity
  8
0
100
AcDbSpline
 62
3
  6
CONTINUOUS
 70
0
 71
3
 72
9
 73
5
 74
0
 42
0.0000001
 43
0.0000001
 44
0.0000000001
 40
0.0
 40
0.0
 40
0.0
 40
0.0
 40
0.5755477224
 40
1.0
 40
1.0
 40
1.0
 40
1.0
 10
85.5844064209
 20
351.2849581906
 30
0.0
 10
85.4160016844
 20
351.3921679756
 30
0.0
 10
85.1275187265
 20
351.5727621054
 30
0.0
 10
84.8588900758
 20
351.8247733312
 30
0.0
 10
84.8073631087
 20
351.9626878521
 30
0.0
  0
SPLINE
  5
28E
100
AcDbEntity
  8
0
100
AcDbSpline
 62
3
  6
CONTINUOUS
 70
0
 71
3
 72
9
 73
5
 74
0
 42
0.0000001
 43
0.0000001
 44
0.0000000001
 40
0.0
 40
0.0
 40
0.0
 40
0.0
 40
0.2622820708
 40
1.0
 40
1.0
 40
1.0
 40
1.0
 10
85.5844064209
 20
100.4849581906
 30
0.0
 10
85.5345951482
 20
100.4327959478
 30
0.0
 10
85.344703113
 20
100.2342724104
 30
0.0
 10
85.1476137877
 20
100.0397700084
 30
0.0
 10
84.9844064209
 20
99.919279276
 30
0.0
  0
SPLINE
  5
28F
100
AcDbEntity
  8
0
100
AcDbSpline
 62
3
  6
CONTINUOUS
 70
0
 71
3
 72
8
 73
4
 74
0
 42
0.0000001
 43
0.0000001
 44
0.0000000001
 40
0.0
 40
0.0
 40
0.0
 40
0.0
 40
1.0
 40
1.0
 40
1.0
 40
1.0
 10
84.9844064209
 20
99.919279276
 30
0.0
 10
84.9281217404
 20
99.8777261126
 30
0.0
 10
84.8695149668
 20
99.8389568477
 30
0.0
 10
84.8082619416
 20
99.8051530381
 30
0.0
  0
SPLINE
  5
290
100
AcDbEntity
  8
0
100
AcDbSpline
 62
3
  6
CONTINUOUS
 70
0
 71
3
 72
8
 73
4
 74
0
 42
0.0000001
 43
0.0000001
 44
0.0000000001
 40
0.0
 40
0.0
 40
0.0
 40
0.0
 40
1.0
 40
1.0
 40
1.0
 40
1.0
 10
84.7442252334
 20
99.7722174144
 30
0.0
 10
84.7053865735
 20
99.7537257676
 30
0.0
 10
84.6653770349
 20
99.7374289466
 30
0.0
 10
84.6244565575
 20
99.7241663287
 30
0.0
  0
SPLINE
  5
291
100
AcDbEntity
  8
0
100
AcDbSpline
 62
3
  6
CONTINUOUS
 70
0
 71
3
 72
8
 73
4
 74
0
 42
0.0000001
 43
0.0000001
 44
0.0000000001
 40
0.0
 40
0.0
 40
0.0
 40
0.0
 40
1.0
 40
1.0
 40
1.0
 40
1.0
 10
84.6244565575
 20
99.7241663287
 30
0.0
 10
84.5473293329
 20
99.6991688462
 30
0.0
 10
84.4654834393
 20
99.6849581906
 30
0.0
 10
84.3844064209
 20
99.6849581906
 30
0.0
  0
SPLINE
  5
292
100
AcDbEntity
  8
0
100
AcDbSpline
 62
3
  6
CONTINUOUS
 70
0
 71
3
 72
9
 73
5
 74
0
 42
0.0000001
 43
0.0000001
 44
0.0000000001
 40
0.0
 40
0.0
 40
0.0
 40
0.0
 40
0.2622820708
 40
1.0
 40
1.0
 40
1.0
 40
1.0
 10
386.3844064209
 20
100.4849581906
 30
0.0
 10
386.4342176935
 20
100.4327959478
 30
0.0
 10
386.6241097287
 20
100.2342724104
 30
0.0
 10
386.8211990541
 20
100.0397700084
 30
0.0
 10
386.9844064209
 20
99.919279276
 30
0.0
  0
SPLINE
  5
293
100
AcDbEntity
  8
0
100
AcDbSpline
 62
3
  6
CONTINUOUS
 70
0
 71
3
 72
8
 73
4
 74
0
 42
0.0000001
 43
0.0000001
 44
0.0000000001
 40
0.0
 40
0.0
 40
0.0
 40
0.0
 40
1.0
 40
1.0
 40
1.0
 40
1.0
 10
386.9844064209
 20
99.919279276
 30
0.0
 10
387.0406911013
 20
99.8777261126
 30
0.0
 10
387.099297875
 20
99.8389568477
 30
0.0
 10
387.1605509002
 20
99.8051530381
 30
0.0
  0
SPLINE
  5
294
100
AcDbEntity
  8
0
100
AcDbSpline
 62
3
  6
CONTINUOUS
 70
0
 71
3
 72
8
 73
4
 74
0
 42
0.0000001
 43
0.0000001
 44
0.0000000001
 40
0.0
 40
0.0
 40
0.0
 40
0.0
 40
1.0
 40
1.0
 40
1.0
 40
1.0
 10
387.2245876083
 20
99.7722174144
 30
0.0
 10
387.2634262682
 20
99.7537257676
 30
0.0
 10
387.3034358068
 20
99.7374289466
 30
0.0
 10
387.3443562842
 20
99.7241663287
 30
0.0
  0
SPLINE
  5
295
100
AcDbEntity
  8
0
100
AcDbSpline
 62
3
  6
CONTINUOUS
 70
0
 71
3
 72
8
 73
4
 74
0
 42
0.0000001
 43
0.0000001
 44
0.0000000001
 40
0.0
 40
0.0
 40
0.0
 40
0.0
 40
1.0
 40
1.0
 40
1.0
 40
1.0
 10
387.3443562842
 20
99.7241663287
 30
0.0
 10
387.4214835089
 20
99.6991688462
 30
0.0
 10
387.5033294025
 20
99.6849581906
 30
0.0
 10
387.5844064209
 20
99.6849581906
 30
0.0
  0
SPLINE
  5
296
100
AcDbEntity
  8
0
100
AcDbSpline
 62
7
  6
CONTINUOUS
 70
0
 71
3
 72
12
 73
8
 74
0
 42
0.0000001
 43
0.0000001
 44
0.0000000001
 40
0.0
 40
0.0
 40
0.0
 40
0.0
 40
0.1568032988
 40
0.2587969291
 40
0.3794705
 40
0.6697973706
 40
1.0
 40
1.0
 40
1.0
 40
1.0
 10
386.3844064209
 20
1155.7217319963
 30
0.0
 10
386.4923371334
 20
1155.7217319963
 30
0.0
 10
386.6664704591
 20
1155.6330372723
 30
0.0
 10
386.8461803236
 20
1155.4457896269
 30
0.0
 10
387.0569397643
 20
1155.1604636244
 30
0.0
 10
387.30219854
 20
1154.7120692787
 30
0.0
 10
387.4864760468
 20
1154.3268368921
 30
0.0
 10
387.5844064209
 20
1154.1217319963
 30
0.0
  0
SPLINE
  5
297
100
AcDbEntity
  8
0
100
AcDbSpline
 62
7
  6
CONTINUOUS
 70
0
 71
3
 72
12
 73
8
 74
0
 42
0.0000001
 43
0.0000001
 44
0.0000000001
 40
0.0
 40
0.0
 40
0.0
 40
0.0
 40
0.1568032988
 40
0.2587969291
 40
0.3794705
 40
0.6697973706
 40
1.0
 40
1.0
 40
1.0
 40
1.0
 10
85.5844064209
 20
1155.7217319963
 30
0.0
 10
85.4764757083
 20
1155.7217319963
 30
0.0
 10
85.3023423827
 20
1155.6330372723
 30
0.0
 10
85.1226325181
 20
1155.4457896269
 30
0.0
 10
84.9118730774
 20
1155.1604636244
 30
0.0
 10
84.6666143017
 20
1154.7120692787
 30
0.0
 10
84.4823367949
 20
1154.3268368921
 30
0.0
 10
84.3844064209
 20
1154.1217319963
 30
0.0
  0
SPLINE
  5
298
100
AcDbEntity
  8
0
100
AcDbSpline
 62
7
  6
CONTINUOUS
 70
0
 71
3
 72
8
 73
4
 74
0
 42
0.0000001
 43
0.0000001
 44
0.0000000001
 40
0.0
 40
0.0
 40
0.0
 40
0.0
 40
1.0
 40
1.0
 40
1.0
 40
1.0
 10
87.6910434823
 20
453.7217319963
 30
0.0
 10
87.6240025919
 20
453.7217319963
 30
0.0
 10
87.5564374411
 20
453.7316202501
 30
0.0
 10
87.4918693249
 20
453.7496601878
 30
0.0
  0
SPLINE
  5
299
100
AcDbEntity
  8
0
100
AcDbSpline
 62
7
  6
CONTINUOUS
 70
0
 71
3
 72
8
 73
4
 74
0
 42
0.0000001
 43
0.0000001
 44
0.0000000001
 40
0.0
 40
0.0
 40
0.0
 40
0.0
 40
1.0
 40
1.0
 40
1.0
 40
1.0
 10
384.6784528277
 20
453.7217319963
 30
0.0
 10
384.7452604182
 20
453.7217319963
 30
0.0
 10
384.8125930169
 20
453.7316186146
 30
0.0
 10
384.8769220348
 20
453.7496472479
 30
0.0
  0
ENDSEC
  0
SECTION
  2
OBJECTS
  0
DICTIONARY
  5
C
100
AcDbDictionary
280
0
281
1
  3
ACAD_GROUP
350
D
  3
ACAD_MLINESTYLE
350
17
  3
ACAD_LAYOUT
350
1A
  3
ACAD_PLOTSETTINGS
350
19
  3
ACAD_PLOTSTYLENAME
350
E
  0
DICTIONARY
  5
D
102
{ACAD_REACTORS
330
C
102
}
100
AcDbDictionary
280
0
281
1
  0
ACDBDICTIONARYWDFLT
  5
E
102
{ACAD_REACTORS
330
C
102
}
100
AcDbDictionary
281
1
  3
Normal
350
F
100
AcDbDictionaryWithDefault
340
F
  0
DICTIONARY
  5
17
102
{ACAD_REACTORS
330
C
102
}
100
AcDbDictionary
280
0
281
1
  3
Standard
350
18
  0
DICTIONARY
  5
19
102
{ACAD_REACTORS
330
C
102
}
100
AcDbDictionary
281
1
  0
DICTIONARY
  5
1A
102
{ACAD_REACTORS
330
C
102
}
100
AcDbDictionary
281
1
  3
Model
350
29A
  3
Layout1
350
29B
  0
ACDBPLACEHOLDER
  5
F
102
{ACAD_REACTORS
330
E
102
}
  0
MLINESTYLE
  5
18
102
{ACAD_REACTORS
330
17
102
}
100
AcDbMlineStyle
  2
STANDARD
 70
0
  3

 62
256
 51
90.0
 52
90.0
 71
2
 49
0.5
 62
256
  6
BYLAYER
 49
-0.5
 62
256
  6
BYLAYER
  0
LAYOUT
  5
29A
102
{ACAD_REACTORS
330
1A
102
}
100
AcDbPlotSettings
  1

  2
none_device
  4

  6

 40
0.0
 41
0.0
 42
0.0
 43
0.0
 44
450.0
 45
1300.0
 46
0.0
 47
0.0
 48
0.0
 49
0.0
140
0.0
141
0.0
142
1.0
143
1.0
 70
1024
 72
1
 73
0
 74
0
  7

 75
0
147
1.0
148
0.0
149
0.0
100
AcDbLayout
  1
Model
 70
0
 71
0
 10
0.0
 20
0.0
 11
450.0
 21
1300.0
 12
0.0
 22
0.0
 32
0.0
 14
0.0
 24
0.0
 34
0.0
 15
0.0
 25
0.0
 35
0.0
146
0.0
 13
0.0
 23
0.0
 33
0.0
 16
1.0
 26
0.0
 36
0.0
 17
0.0
 27
1.0
 37
0.0
 76
0
330
216
345
0
346
0
  0
LAYOUT
  5
29B
102
{ACAD_REACTORS
330
1A
102
}
100
AcDbPlotSettings
  1

  2
none_device
  4

  6

 40
0.0
 41
0.0
 42
0.0
 43
0.0
 44
450.0
 45
1300.0
 46
0.0
 47
0.0
 48
0.0
 49
0.0
140
0.0
141
0.0
142
1.0
143
1.0
 70
0
 72
1
 73
0
 74
0
  7

 75
0
147
1.0
148
0.0
149
0.0
100
AcDbLayout
  1
Layout1
 70
0
 71
1
 10
0.0
 20
0.0
 11
450.0
 21
1300.0
 12
0.0
 22
0.0
 32
0.0
 14
0.0
 24
0.0
 34
0.0
 15
0.0
 25
0.0
 35
0.0
146
0.0
 13
0.0
 23
0.0
 33
0.0
 16
1.0
 26
0.0
 36
0.0
 17
0.0
 27
1.0
 37
0.0
 76
0
330
217
345
0
346
0
  0
ENDSEC
  0
EOF
