999
DXF file: S:\Engenharia\Wildfire\Engenharia\Produtos\Lixeiras\94538630\94538630.dxf
999
Pro/ENGINEER 2013150 by Parametric Technology Corporation
  0
SECTION
  2
HEADER
  9
$ACADVER
  1
AC1021
  9
$DWGCODEPAGE
  3
ANSI_1252
  9
$EXTMAX
 10
1500.0
 20
1500.0
 30
0.0
  9
$EXTMIN
 10
0.0
 20
0.0
 30
0.0
  9
$LIMMIN
 10
0.0
 20
0.0
  9
$LIMMAX
 10
1500.0
 20
1500.0
  9
$VIEWCTR
 10
750.0
 20
750.0
  9
$VIEWSIZE
 40
1500.0
  9
$CLAYER
  8
0
  9
$LTSCALE
 40
97.7777777778
  9
$CELTYPE
  6
BYLAYER
  9
$DIMSCALE
 40
1.0
  9
$DIMASZ
 40
3.0
  9
$DIMEXO
 40
0.5
  9
$DIMDLI
 40
67.5555555556
  9
$DIMEXE
 40
0.5
  9
$DIMCEN
 40
16.0
  9
$DIMLFAC
 40
1.0
  9
$DIMBLK
  1
_FILLED
  9
$DIMTXT
 40
1.8
  9
$DIMTOL
 70
1
  9
$DIMLIM
 70
0
  9
$DIMTFAC
 40
1.0
  9
$DIMTP
 40
0.001
  9
$DIMTM
 40
0.001
  9
$DIMGAP
 40
0.625
  9
$DIMDSEP
 70
46
  9
$PDMODE
 70
3
  9
$PDSIZE
 40
1.0
  9
$HANDSEED
  5
3AD
  9
$TILEMODE
 70
1
  9
$MEASUREMENT
 70
1
  9
$INSUNITS
 70
4
  0
ENDSEC
  0
SECTION
  2
CLASSES
  0
CLASS
  1
ACDBDICTIONARYWDFLT
  2
AcDbDictionaryWithDefault
  3
AutoCAD 2000
 90
0
 91
1
280
0
281
0
  0
CLASS
  1
ACDBPLACEHOLDER
  2
AcDbPlaceHolder
  3
AutoCAD 2000
 90
0
 91
1
280
0
281
0
  0
CLASS
  1
LAYOUT
  2
AcDbLayout
  3
AutoCAD 2000
 90
0
 91
0
280
0
281
0
  0
ENDSEC
  0
SECTION
  2
TABLES
  0
TABLE
  2
VPORT
  5
8
100
AcDbSymbolTable
 70
2
  0
VPORT
  5
1F4
100
AcDbSymbolTableRecord
100
AcDbViewportTableRecord
  2
*ACTIVE
 70
0
 10
0.0
 20
0.0
 11
1.0
 21
1.0
 12
750.0
 22
750.0
 13
0.0
 23
0.0
 14
1.0
 24
1.0
 15
0.0
 25
0.0
 16
0.0
 26
0.0
 36
1.0
 17
0.0
 27
0.0
 37
0.0
 40
1500.0
 41
1.0
 42
50.0
 43
0.0
 44
0.0
 50
0.0
 51
0.0
 71
0
 72
100
 73
1
 74
1
 75
0
 76
0
 77
0
 78
0
  0
ENDTAB
  0
TABLE
  2
LTYPE
  5
5
100
AcDbSymbolTable
 70
6
  0
LTYPE
  5
14
100
AcDbSymbolTableRecord
100
AcDbLinetypeTableRecord
  2
BYBLOCK
 70
0
  3

 72
65
 73
0
 40
0.0
  0
LTYPE
  5
15
100
AcDbSymbolTableRecord
100
AcDbLinetypeTableRecord
  2
BYLAYER
 70
0
  3

 72
65
 73
0
 40
0.0
  0
LTYPE
  5
16
100
AcDbSymbolTableRecord
100
AcDbLinetypeTableRecord
  2
CONTINUOUS
 70
64
  3
Solid line
 72
65
 73
0
 40
0.0
  0
LTYPE
  5
1F5
100
AcDbSymbolTableRecord
100
AcDbLinetypeTableRecord
  2
CENTER
 70
64
  3
____ _ ____ _ ____ _ ____ _ ____ _ ____ _ ____
 72
65
 73
4
 40
0.6
 49
0.375
 74
0
 49
-0.075
 74
0
 49
0.075
 74
0
 49
-0.075
 74
0
  0
LTYPE
  5
1F6
100
AcDbSymbolTableRecord
100
AcDbLinetypeTableRecord
  2
HIDDEN
 70
64
  3
- - - - - - - - - - - - - - - - - - - -
 72
65
 73
2
 40
0.2
 49
0.1
 74
0
 49
-0.1
 74
0
  0
LTYPE
  5
1F7
100
AcDbSymbolTableRecord
100
AcDbLinetypeTableRecord
  2
PHANTOM
 70
64
  3
_____ _ _ _____ _ _ _____ _ _ _____
 72
65
 73
6
 40
0.8
 49
0.45
 74
0
 49
-0.05
 74
0
 49
0.1
 74
0
 49
-0.05
 74
0
 49
0.1
 74
0
 49
-0.05
 74
0
  0
LTYPE
  5
1F8
100
AcDbSymbolTableRecord
100
AcDbLinetypeTableRecord
  2
DOT
 70
64
  3
. . . . . . . . . . . . . . . . . . . .
 72
65
 73
2
 40
0.2
 49
0.1
 74
0
 49
-0.1
 74
0
  0
LTYPE
  5
1F9
100
AcDbSymbolTableRecord
100
AcDbLinetypeTableRecord
  2
DASHED
 70
64
  3
- - - - - - - - - - - - - - - - - - - -
 72
65
 73
2
 40
0.2
 49
0.1
 74
0
 49
-0.1
 74
0
  0
ENDTAB
  0
TABLE
  2
LAYER
  5
2
100
AcDbSymbolTable
 70
36
  0
LAYER
  5
10
100
AcDbSymbolTableRecord
100
AcDbLayerTableRecord
  2
0
 70
0
 62
7
  6
CONTINUOUS
370
-3
390
F
  0
LAYER
  5
1FA
100
AcDbSymbolTableRecord
100
AcDbLayerTableRecord
  2
DEFAULT_1
 70
0
 62
7
  6
CENTER
370
-3
390
F
  0
LAYER
  5
1FB
100
AcDbSymbolTableRecord
100
AcDbLayerTableRecord
  2
DEFAULT_2
 70
0
 62
8
  6
HIDDEN
370
-3
390
F
  0
LAYER
  5
1FC
100
AcDbSymbolTableRecord
100
AcDbLayerTableRecord
  2
DEFAULT_3
 70
0
 62
7
  6
PHANTOM
370
-3
390
F
  0
LAYER
  5
1FD
100
AcDbSymbolTableRecord
100
AcDbLayerTableRecord
  2
01_ALL_DTM_PLN
 70
0
 62
7
  6
CONTINUOUS
370
-3
390
F
  0
LAYER
  5
1FE
100
AcDbSymbolTableRecord
100
AcDbLayerTableRecord
  2
01__ASM_ALL_DTM_PLN
 70
0
 62
7
  6
CONTINUOUS
370
-3
390
F
  0
LAYER
  5
1FF
100
AcDbSymbolTableRecord
100
AcDbLayerTableRecord
  2
01__ASM_DEF_DTM_PLN
 70
0
 62
7
  6
CONTINUOUS
370
-3
390
F
  0
LAYER
  5
200
100
AcDbSymbolTableRecord
100
AcDbLayerTableRecord
  2
01___PRT_ALL_DTM_PLN
 70
0
 62
7
  6
CONTINUOUS
370
-3
390
F
  0
LAYER
  5
201
100
AcDbSymbolTableRecord
100
AcDbLayerTableRecord
  2
01___PRT_DEF_DTM_PLN
 70
0
 62
7
  6
CONTINUOUS
370
-3
390
F
  0
LAYER
  5
202
100
AcDbSymbolTableRecord
100
AcDbLayerTableRecord
  2
02_ALL_AXES
 70
0
 62
7
  6
CONTINUOUS
370
-3
390
F
  0
LAYER
  5
203
100
AcDbSymbolTableRecord
100
AcDbLayerTableRecord
  2
02__ASM_ALL_AXES
 70
0
 62
7
  6
CONTINUOUS
370
-3
390
F
  0
LAYER
  5
204
100
AcDbSymbolTableRecord
100
AcDbLayerTableRecord
  2
02___PRT_ALL_AXES
 70
0
 62
7
  6
CONTINUOUS
370
-3
390
F
  0
LAYER
  5
205
100
AcDbSymbolTableRecord
100
AcDbLayerTableRecord
  2
03_ALL_CURVES
 70
0
 62
7
  6
CONTINUOUS
370
-3
390
F
  0
LAYER
  5
206
100
AcDbSymbolTableRecord
100
AcDbLayerTableRecord
  2
03__ASM_ALL_CURVES
 70
0
 62
7
  6
CONTINUOUS
370
-3
390
F
  0
LAYER
  5
207
100
AcDbSymbolTableRecord
100
AcDbLayerTableRecord
  2
03___PRT_ALL_CURVES
 70
0
 62
7
  6
CONTINUOUS
370
-3
390
F
  0
LAYER
  5
208
100
AcDbSymbolTableRecord
100
AcDbLayerTableRecord
  2
04_ALL_DTM_PNT
 70
0
 62
7
  6
CONTINUOUS
370
-3
390
F
  0
LAYER
  5
209
100
AcDbSymbolTableRecord
100
AcDbLayerTableRecord
  2
04__ASM_ALL_DTM_PNT
 70
0
 62
7
  6
CONTINUOUS
370
-3
390
F
  0
LAYER
  5
20A
100
AcDbSymbolTableRecord
100
AcDbLayerTableRecord
  2
04___PRT_ALL_DTM_PNT
 70
0
 62
7
  6
CONTINUOUS
370
-3
390
F
  0
LAYER
  5
20B
100
AcDbSymbolTableRecord
100
AcDbLayerTableRecord
  2
05_ALL_DTM_CSYS
 70
0
 62
7
  6
CONTINUOUS
370
-3
390
F
  0
LAYER
  5
20C
100
AcDbSymbolTableRecord
100
AcDbLayerTableRecord
  2
05__ASM_ALL_DTM_CSYS
 70
0
 62
7
  6
CONTINUOUS
370
-3
390
F
  0
LAYER
  5
20D
100
AcDbSymbolTableRecord
100
AcDbLayerTableRecord
  2
05__ASM_DEF_DTM_CSYS
 70
0
 62
7
  6
CONTINUOUS
370
-3
390
F
  0
LAYER
  5
20E
100
AcDbSymbolTableRecord
100
AcDbLayerTableRecord
  2
05___PRT_ALL_DTM_CSYS
 70
0
 62
7
  6
CONTINUOUS
370
-3
390
F
  0
LAYER
  5
20F
100
AcDbSymbolTableRecord
100
AcDbLayerTableRecord
  2
05___PRT_DEF_DTM_CSYS
 70
0
 62
7
  6
CONTINUOUS
370
-3
390
F
  0
LAYER
  5
210
100
AcDbSymbolTableRecord
100
AcDbLayerTableRecord
  2
06_ALL_SURFS
 70
0
 62
7
  6
CONTINUOUS
370
-3
390
F
  0
LAYER
  5
211
100
AcDbSymbolTableRecord
100
AcDbLayerTableRecord
  2
06__ASM_ALL_SURFS
 70
0
 62
7
  6
CONTINUOUS
370
-3
390
F
  0
LAYER
  5
212
100
AcDbSymbolTableRecord
100
AcDbLayerTableRecord
  2
06___PRT_ALL_SURFS
 70
0
 62
7
  6
CONTINUOUS
370
-3
390
F
  0
LAYER
  5
213
100
AcDbSymbolTableRecord
100
AcDbLayerTableRecord
  2
07__ASM_ALL_SKELETONS
 70
0
 62
7
  6
CONTINUOUS
370
-3
390
F
  0
ENDTAB
  0
TABLE
  2
STYLE
  5
3
100
AcDbSymbolTable
 70
1
  0
STYLE
  5
11
100
AcDbSymbolTableRecord
100
AcDbTextStyleTableRecord
  2
STANDARD
 70
0
 40
0.0
 41
0.8
 50
0.0
 71
0
 42
0.2
  3
txt
  4

  0
STYLE
  5
214
100
AcDbSymbolTableRecord
100
AcDbTextStyleTableRecord
  2
TEXTSTYLE_1
 70
0
 40
0.0
 41
0.8
 50
0.0
 71
0
 42
0.2
  3
gdt
  4

  0
ENDTAB
  0
TABLE
  2
VIEW
  5
6
100
AcDbSymbolTable
 70
0
  0
ENDTAB
  0
TABLE
  2
UCS
  5
7
100
AcDbSymbolTable
 70
0
  0
ENDTAB
  0
TABLE
  2
APPID
  5
9
100
AcDbSymbolTable
 70
1
  0
APPID
  5
215
100
AcDbSymbolTableRecord
100
AcDbRegAppTableRecord
  2
ACAD
 70
0
  0
ENDTAB
  0
TABLE
  2
BLOCK_RECORD
  5
1
100
AcDbSymbolTable
 70
0
  0
BLOCK_RECORD
  5
216
100
AcDbSymbolTableRecord
100
AcDbBlockTableRecord
  2
*Model_Space
  0
BLOCK_RECORD
  5
217
100
AcDbSymbolTableRecord
100
AcDbBlockTableRecord
  2
*Paper_Space
  0
BLOCK_RECORD
  5
218
100
AcDbSymbolTableRecord
100
AcDbBlockTableRecord
  2
_FILLED
  0
BLOCK_RECORD
  5
219
100
AcDbSymbolTableRecord
100
AcDbBlockTableRecord
  2
*D0
  0
BLOCK_RECORD
  5
21A
100
AcDbSymbolTableRecord
100
AcDbBlockTableRecord
  2
*D1
  0
BLOCK_RECORD
  5
21B
100
AcDbSymbolTableRecord
100
AcDbBlockTableRecord
  2
*D2
  0
BLOCK_RECORD
  5
21C
100
AcDbSymbolTableRecord
100
AcDbBlockTableRecord
  2
*D3
  0
ENDTAB
  0
TABLE
  2
DIMSTYLE
  5
A
100
AcDbSymbolTable
 70
1
100
AcDbDimStyleTable
 71
0
  0
DIMSTYLE
105
21D
100
AcDbSymbolTableRecord
100
AcDbDimStyleTableRecord
  2
STANDARD
 70
0
  3

  4

 40
1.0
 41
3.0
 42
0.5
 43
0.38
 44
0.5
 45
0.0
 46
0.0
 47
0.001
 48
0.001
140
1.8
141
0.09
142
0.0
143
25.4
144
1.0
145
0.0
146
1.0
147
0.625
 71
1.0
 72
0.0
 73
0
 74
0
 75
0
 76
0
 77
1
 78
8
170
0
171
2
172
0
173
0
174
0
175
0
176
0
177
0
178
0
270
2
271
3
272
3
273
2
274
2
275
0
280
0
281
0
282
0
283
1
284
8
285
0
286
0
287
3
288
0
340
11
278
46
341
218
342
218
343
218
344
218
  0
DIMSTYLE
105
21E
100
AcDbSymbolTableRecord
100
AcDbDimStyleTableRecord
  2
DIMSTYLE_1
 70
0
  3

  4

 40
1.0
 41
3.0
 42
0.5
 43
0.38
 44
0.5
 45
0.0
 46
0.0
 47
0.001
 48
0.001
140
1.8
141
0.09
142
0.0
143
25.4
144
1.0
145
0.0
146
1.0
147
0.45
 71
0.0
 72
0.0
 73
0
 74
0
 75
0
 76
0
 77
1
 78
8
170
0
171
2
172
0
173
0
174
0
175
0
176
0
177
0
178
0
270
2
271
3
272
3
273
2
274
2
275
0
280
0
281
0
282
0
283
1
284
8
285
0
286
0
287
3
288
0
340
11
278
46
341
218
342
218
343
218
344
218
  0
DIMSTYLE
105
21F
100
AcDbSymbolTableRecord
100
AcDbDimStyleTableRecord
  2
DIMSTYLE_2
 70
0
  3

  4

 40
1.0
 41
3.0
 42
0.5
 43
0.38
 44
0.5
 45
0.0
 46
0.0
 47
0.001
 48
0.001
140
1.8
141
0.09
142
0.0
143
25.4
144
1.0
145
0.0
146
1.0
147
0.45
 71
0.0
 72
0.0
 73
0
 74
0
 75
0
 76
0
 77
1
 78
8
170
0
171
2
172
0
173
0
174
0
175
0
176
0
177
0
178
0
270
2
271
0
272
0
273
2
274
2
275
0
280
0
281
0
282
0
283
1
284
8
285
0
286
0
287
3
288
0
340
11
278
46
341
218
342
218
343
218
344
218
  0
ENDTAB
  0
ENDSEC
  0
SECTION
  2
BLOCKS
  0
BLOCK
  5
20
100
AcDbEntity
  8
0
100
AcDbBlockBegin
  2
*Model_Space
 70
0
 10
0.0
 20
0.0
 30
0.0
  3
*Model_Space
  1

  0
ENDBLK
  5
21
100
AcDbEntity
  8
0
100
AcDbBlockEnd
  0
BLOCK
  5
1C
100
AcDbEntity
  8
0
100
AcDbBlockBegin
  2
*Paper_Space
 70
0
 10
0.0
 20
0.0
 30
0.0
  3
*Paper_Space
  1

  0
ENDBLK
  5
1D
100
AcDbEntity
  8
0
100
AcDbBlockEnd
  0
BLOCK
  5
220
100
AcDbEntity
  8
0
100
AcDbBlockBegin
  2
_FILLED
 70
64
 10
0.0
 20
0.0
  3
_FILLED
  1

  0
SOLID
  5
221
100
AcDbEntity
  8
0
  6
BYBLOCK
 62
0
100
AcDbTrace
 10
0.0
 20
0.0
 11
-1.0
 21
0.1666666667
 12
-1.0
 22
-0.1666666667
 13
-1.0
 23
-0.1666666667
  0
ENDBLK
  5
222
100
AcDbEntity
  8
0
  6
BYBLOCK
 62
0
100
AcDbBlockEnd
  0
BLOCK
  5
223
100
AcDbEntity
  8
0
100
AcDbBlockBegin
 62
2
  6
CONTINUOUS
  2
*D0
 70
65
 10
0.0
 20
0.0
  3
*D0
  1

  0
MTEXT
  5
224
100
AcDbEntity
  8
0
100
AcDbMText
 62
2
  6
CONTINUOUS
  7
STANDARD
 71
2
 72
1
 10
334.3044928045
 20
989.3077395577
 30
0.0
 11
0.0
 21
1.0
 31
0.0
 44
0.9
  1
520
 40
1.8
 41
8.3314285714
  0
LINE
  5
225
100
AcDbEntity
  8
0
100
AcDbLine
 62
2
  6
CONTINUOUS
 10
347.1759213759
 20
1249.3077395577
 11
336.3759213759
 21
1249.3077395577
  0
LINE
  5
226
100
AcDbEntity
  8
0
100
AcDbLine
 62
2
  6
CONTINUOUS
 10
345.8759213759
 20
729.3077395577
 11
336.3759213759
 21
729.3077395577
  0
LINE
  5
227
100
AcDbEntity
  8
0
100
AcDbLine
 62
2
  6
CONTINUOUS
 10
336.8759213759
 20
1249.3077395577
 11
336.8759213759
 21
989.3077395577
  0
LINE
  5
228
100
AcDbEntity
  8
0
100
AcDbLine
 62
2
  6
CONTINUOUS
 10
336.8759213759
 20
729.3077395577
 11
336.8759213759
 21
989.3077395577
  0
INSERT
  5
229
100
AcDbEntity
  8
0
100
AcDbBlockReference
 62
2
  6
CONTINUOUS
  2
_FILLED
 10
336.8759213759
 20
1249.3077395577
 41
3.0
 42
3.0
 43
3.0
 50
90.0
  0
INSERT
  5
22A
100
AcDbEntity
  8
0
100
AcDbBlockReference
 62
2
  6
CONTINUOUS
  2
_FILLED
 10
336.8759213759
 20
729.3077395577
 41
3.0
 42
3.0
 43
3.0
 50
270.0
  0
ENDBLK
  5
22B
100
AcDbEntity
  8
0
  6
BYBLOCK
 62
0
100
AcDbBlockEnd
  0
BLOCK
  5
22C
100
AcDbEntity
  8
0
100
AcDbBlockBegin
 62
2
  6
CONTINUOUS
  2
*D1
 70
65
 10
0.0
 20
0.0
  3
*D1
  1

  0
MTEXT
  5
22D
100
AcDbEntity
  8
0
100
AcDbMText
 62
2
  6
CONTINUOUS
  7
STANDARD
 71
2
 72
1
 10
546.3759213759
 20
724.8791681292
 30
0.0
 11
1.0
 21
0.0
 31
0.0
 44
0.9
  1
400
 40
1.8
 41
8.3314285714
  0
LINE
  5
22E
100
AcDbEntity
  8
0
100
AcDbLine
 62
2
  6
CONTINUOUS
 10
746.3759213759
 20
728.8077395577
 11
746.3759213759
 21
721.8077395577
  0
LINE
  5
22F
100
AcDbEntity
  8
0
100
AcDbLine
 62
2
  6
CONTINUOUS
 10
346.3759213759
 20
728.8077395577
 11
346.3759213759
 21
721.8077395577
  0
LINE
  5
230
100
AcDbEntity
  8
0
100
AcDbLine
 62
2
  6
CONTINUOUS
 10
746.3759213759
 20
722.3077395577
 11
546.3759213759
 21
722.3077395577
  0
LINE
  5
231
100
AcDbEntity
  8
0
100
AcDbLine
 62
2
  6
CONTINUOUS
 10
346.3759213759
 20
722.3077395577
 11
546.3759213759
 21
722.3077395577
  0
INSERT
  5
232
100
AcDbEntity
  8
0
100
AcDbBlockReference
 62
2
  6
CONTINUOUS
  2
_FILLED
 10
746.3759213759
 20
722.3077395577
 41
3.0
 42
3.0
 43
3.0
  0
INSERT
  5
233
100
AcDbEntity
  8
0
100
AcDbBlockReference
 62
2
  6
CONTINUOUS
  2
_FILLED
 10
346.3759213759
 20
722.3077395577
 41
3.0
 42
3.0
 43
3.0
 50
180.0
  0
ENDBLK
  5
234
100
AcDbEntity
  8
0
  6
BYBLOCK
 62
0
100
AcDbBlockEnd
  0
BLOCK
  5
235
100
AcDbEntity
  8
0
100
AcDbBlockBegin
 62
2
  6
CONTINUOUS
  2
*D2
 70
65
 10
0.0
 20
0.0
  3
*D2
  1

  0
MTEXT
  5
236
100
AcDbEntity
  8
0
100
AcDbMText
 62
2
  6
CONTINUOUS
  7
STANDARD
 71
2
 72
1
 10
1098.0530777256
 20
724.5025985584
 30
0.0
 11
1.0
 21
0.0
 31
0.0
 44
0.9
  1
330
 40
1.8
 41
8.3314285714
  0
LINE
  5
237
100
AcDbEntity
  8
0
100
AcDbLine
 62
2
  6
CONTINUOUS
 10
933.0530777256
 20
728.4311699869
 11
933.0530777256
 21
721.4311699869
  0
LINE
  5
238
100
AcDbEntity
  8
0
100
AcDbLine
 62
2
  6
CONTINUOUS
 10
1263.0530777256
 20
753.4311699869
 11
1263.0530777256
 21
721.4311699869
  0
LINE
  5
239
100
AcDbEntity
  8
0
100
AcDbLine
 62
2
  6
CONTINUOUS
 10
933.0530777256
 20
721.9311699869
 11
1098.0530777256
 21
721.9311699869
  0
LINE
  5
23A
100
AcDbEntity
  8
0
100
AcDbLine
 62
2
  6
CONTINUOUS
 10
1263.0530777256
 20
721.9311699869
 11
1098.0530777256
 21
721.9311699869
  0
INSERT
  5
23B
100
AcDbEntity
  8
0
100
AcDbBlockReference
 62
2
  6
CONTINUOUS
  2
_FILLED
 10
933.0530777256
 20
721.9311699869
 41
3.0
 42
3.0
 43
3.0
 50
180.0
  0
INSERT
  5
23C
100
AcDbEntity
  8
0
100
AcDbBlockReference
 62
2
  6
CONTINUOUS
  2
_FILLED
 10
1263.0530777256
 20
721.9311699869
 41
3.0
 42
3.0
 43
3.0
  0
ENDBLK
  5
23D
100
AcDbEntity
  8
0
  6
BYBLOCK
 62
0
100
AcDbBlockEnd
  0
BLOCK
  5
23E
100
AcDbEntity
  8
0
100
AcDbBlockBegin
 62
2
  6
CONTINUOUS
  2
*D3
 70
65
 10
0.0
 20
0.0
  3
*D3
  1

  0
MTEXT
  5
23F
100
AcDbEntity
  8
0
100
AcDbMText
 62
2
  6
CONTINUOUS
  7
STANDARD
 71
2
 72
1
 10
923.2316491542
 20
1107.3175639061
 30
0.0
 11
0.0
 21
1.0
 31
0.0
 44
0.9
  1
757
 40
1.8
 41
8.3314285714
  0
LINE
  5
240
100
AcDbEntity
  8
0
100
AcDbLine
 62
2
  6
CONTINUOUS
 10
932.5530777256
 20
728.9311699869
 11
925.3030777256
 21
728.9311699869
  0
LINE
  5
241
100
AcDbEntity
  8
0
100
AcDbLine
 62
2
  6
CONTINUOUS
 10
996.8217594313
 20
1485.7039578252
 11
925.3030777256
 21
1485.7039578252
  0
LINE
  5
242
100
AcDbEntity
  8
0
100
AcDbLine
 62
2
  6
CONTINUOUS
 10
925.8030777256
 20
728.9311699869
 11
925.8030777256
 21
1107.3175639061
  0
LINE
  5
243
100
AcDbEntity
  8
0
100
AcDbLine
 62
2
  6
CONTINUOUS
 10
925.8030777256
 20
1485.7039578252
 11
925.8030777256
 21
1107.3175639061
  0
INSERT
  5
244
100
AcDbEntity
  8
0
100
AcDbBlockReference
 62
2
  6
CONTINUOUS
  2
_FILLED
 10
925.8030777256
 20
728.9311699869
 41
3.0
 42
3.0
 43
3.0
 50
270.0
  0
INSERT
  5
245
100
AcDbEntity
  8
0
100
AcDbBlockReference
 62
2
  6
CONTINUOUS
  2
_FILLED
 10
925.8030777256
 20
1485.7039578252
 41
3.0
 42
3.0
 43
3.0
 50
90.0
  0
ENDBLK
  5
246
100
AcDbEntity
  8
0
  6
BYBLOCK
 62
0
100
AcDbBlockEnd
  0
ENDSEC
  0
SECTION
  2
ENTITIES
  0
DIMENSION
  5
247
100
AcDbEntity
  8
0
100
AcDbDimension
 62
2
  6
CONTINUOUS
  2
*D0
 10
336.8759213759
 20
729.3077395577
 11
336.8759213759
 21
989.3077395577
 70
160
 71
2
 42
520.0
  3
DIMSTYLE_1
100
AcDbAlignedDimension
 13
347.6759213759
 23
1249.3077395577
 14
346.3759213759
 24
729.3077395577
 50
270.0
100
AcDbRotatedDimension
  0
DIMENSION
  5
248
100
AcDbEntity
  8
0
100
AcDbDimension
 62
2
  6
CONTINUOUS
  2
*D1
 10
346.3759213759
 20
722.3077395577
 11
546.3759213759
 21
722.3077395577
 70
160
 71
2
 42
400.0
  3
DIMSTYLE_1
100
AcDbAlignedDimension
 13
746.3759213759
 23
729.3077395577
 14
346.3759213759
 24
729.3077395577
 50
180.0
100
AcDbRotatedDimension
  0
DIMENSION
  5
249
100
AcDbEntity
  8
0
100
AcDbDimension
 62
2
  6
CONTINUOUS
  2
*D2
 10
1263.0530777256
 20
721.9311699869
 11
1098.0530777256
 21
721.9311699869
 70
160
 71
2
 42
330.0
  3
DIMSTYLE_1
100
AcDbAlignedDimension
 13
933.0530777256
 23
728.9311699869
 14
1263.0530777256
 24
753.9311699869
100
AcDbRotatedDimension
  0
DIMENSION
  5
24A
100
AcDbEntity
  8
0
100
AcDbDimension
 62
2
  6
CONTINUOUS
  2
*D3
 10
925.8030777256
 20
1485.7039578252
 11
925.8030777256
 21
1107.3175639061
 70
160
 71
2
 42
756.7727878383
  3
DIMSTYLE_2
100
AcDbAlignedDimension
 13
933.0530777256
 23
728.9311699869
 14
997.3217594313
 24
1485.7039578252
 50
90.0
100
AcDbRotatedDimension
  0
LINE
  5
24B
100
AcDbEntity
  8
0
100
AcDbLine
 62
7
  6
CONTINUOUS
 10
346.3759213759
 20
729.3077395577
 11
746.3759213759
 21
729.3077395577
  0
LINE
  5
24C
100
AcDbEntity
  8
0
100
AcDbLine
 62
7
  6
CONTINUOUS
 10
637.1759213759
 20
749.3077395577
 11
455.5759213759
 21
749.3077395577
  0
LINE
  5
24D
100
AcDbEntity
  8
0
100
AcDbLine
 62
7
  6
CONTINUOUS
 10
455.3759213759
 20
754.3077395577
 11
637.3759213759
 21
754.3077395577
  0
LINE
  5
24E
100
AcDbEntity
  8
0
100
AcDbLine
 62
7
  6
CONTINUOUS
 10
481.3759213759
 20
764.3077395577
 11
611.3759213759
 21
764.3077395577
  0
LINE
  5
24F
100
AcDbEntity
  8
0
100
AcDbLine
 62
7
  6
CONTINUOUS
 10
346.3759213759
 20
770.3077395577
 11
428.3209817432
 21
770.3077395577
  0
LINE
  5
250
100
AcDbEntity
  8
0
100
AcDbLine
 62
7
  6
CONTINUOUS
 10
665.4308610087
 20
770.3077395577
 11
746.3759213759
 21
770.3077395577
  0
LINE
  5
251
100
AcDbEntity
  8
03___PRT_ALL_CURVES
100
AcDbLine
 62
40
  6
CONTINUOUS
 10
346.3759213759
 20
770.8077395577
 11
428.5779018468
 21
770.8077395577
  0
LINE
  5
252
100
AcDbEntity
  8
03___PRT_ALL_CURVES
100
AcDbLine
 62
40
  6
CONTINUOUS
 10
665.1739409051
 20
770.8077395577
 11
746.3759213759
 21
770.8077395577
  0
LINE
  5
253
100
AcDbEntity
  8
0
100
AcDbLine
 62
7
  6
CONTINUOUS
 10
343.8759213759
 20
1152.0577395577
 11
343.8759213759
 21
1193.0577395577
  0
LINE
  5
254
100
AcDbEntity
  8
0
100
AcDbLine
 62
7
  6
CONTINUOUS
 10
346.3759213759
 20
729.3077395577
 11
346.3759213759
 21
770.3077395577
  0
LINE
  5
255
100
AcDbEntity
  8
0
100
AcDbLine
 62
7
  6
CONTINUOUS
 10
346.3759213759
 20
770.8077395577
 11
346.3759213759
 21
1220.8077395577
  0
LINE
  5
256
100
AcDbEntity
  8
0
100
AcDbLine
 62
7
  6
CONTINUOUS
 10
346.3759213759
 20
1230.8077395577
 11
346.3759213759
 21
1248.0077395577
  0
LINE
  5
257
100
AcDbEntity
  8
0
100
AcDbLine
 62
7
  6
CONTINUOUS
 10
347.8759213759
 20
1222.8077395577
 11
347.8759213759
 21
1228.8077395577
  0
LINE
  5
258
100
AcDbEntity
  8
0
100
AcDbLine
 62
7
  6
CONTINUOUS
 10
455.3759213759
 20
774.3077395577
 11
637.3759213759
 21
774.3077395577
  0
LINE
  5
259
100
AcDbEntity
  8
0
100
AcDbLine
 62
7
  6
CONTINUOUS
 10
425.3759213759
 20
757.8077395577
 11
425.3759213759
 21
729.3077395577
  0
LINE
  5
25A
100
AcDbEntity
  8
0
100
AcDbLine
 62
7
  6
CONTINUOUS
 10
452.8759213759
 20
729.3077395577
 11
452.8759213759
 21
765.8077395577
  0
LINE
  5
25B
100
AcDbEntity
  8
0
100
AcDbLine
 62
7
  6
CONTINUOUS
 10
455.3759213759
 20
754.3077395577
 11
455.3759213759
 21
774.3077395577
  0
LINE
  5
25C
100
AcDbEntity
  8
0
100
AcDbLine
 62
7
  6
CONTINUOUS
 10
455.5759213759
 20
754.3077395577
 11
455.5759213759
 21
749.3077395577
  0
LINE
  5
25D
100
AcDbEntity
  8
0
100
AcDbLine
 62
7
  6
CONTINUOUS
 10
461.0759213759
 20
729.3077395577
 11
461.0759213759
 21
749.3077395577
  0
LINE
  5
25E
100
AcDbEntity
  8
03___PRT_ALL_CURVES
100
AcDbLine
 62
40
  6
CONTINUOUS
 10
536.6087311657
 20
1193.5027086326
 11
536.3238217691
 21
1192.6932834483
  0
LINE
  5
25F
100
AcDbEntity
  8
03___PRT_ALL_CURVES
100
AcDbLine
 62
40
  6
CONTINUOUS
 10
536.838174525
 20
1194.1440131571
 11
537.3518382619
 21
1195.5747613122
  0
LINE
  5
260
100
AcDbEntity
  8
03___PRT_ALL_CURVES
100
AcDbLine
 62
40
  6
CONTINUOUS
 10
542.6059533864
 20
1195.1732354333
 11
541.781369782
 21
1192.9986911631
  0
LINE
  5
261
100
AcDbEntity
  8
03___PRT_ALL_CURVES
100
AcDbLine
 62
40
  6
CONTINUOUS
 10
541.4912927422
 20
1193.8696113017
 11
542.4438616438
 21
1196.3635159235
  0
LINE
  5
262
100
AcDbEntity
  8
03___PRT_ALL_CURVES
100
AcDbLine
 62
40
  6
CONTINUOUS
 10
535.6058638699
 20
1192.6932834483
 11
537.0112905731
 21
1196.3635159235
  0
LINE
  5
263
100
AcDbEntity
  8
03___PRT_ALL_CURVES
100
AcDbLine
 62
40
  6
CONTINUOUS
 10
560.7762482495
 20
1193.5027086326
 11
560.4903053242
 21
1192.6932834483
  0
LINE
  5
264
100
AcDbEntity
  8
03___PRT_ALL_CURVES
100
AcDbLine
 62
40
  6
CONTINUOUS
 10
561.0050025897
 20
1194.1440131571
 11
561.5190108361
 21
1195.5747613122
  0
LINE
  5
265
100
AcDbEntity
  8
03___PRT_ALL_CURVES
100
AcDbLine
 62
40
  6
CONTINUOUS
 10
559.7726919346
 20
1192.6932834483
 11
561.1782908926
 21
1196.3635159235
  0
LINE
  5
266
100
AcDbEntity
  8
03___PRT_ALL_CURVES
100
AcDbLine
 62
40
  6
CONTINUOUS
 10
526.3759363006
 20
1197.0563246256
 11
526.3759363006
 21
1192.4188815929
  0
LINE
  5
267
100
AcDbEntity
  8
03___PRT_ALL_CURVES
100
AcDbLine
 62
40
  6
CONTINUOUS
 10
540.3454539838
 20
1195.2130262862
 11
540.0152415815
 21
1192.6932834483
  0
LINE
  5
268
100
AcDbEntity
  8
03___PRT_ALL_CURVES
100
AcDbLine
 62
40
  6
CONTINUOUS
 10
539.3226051342
 20
1192.6932834483
 11
539.892768437
 21
1196.3635159235
  0
LINE
  5
269
100
AcDbEntity
  8
03___PRT_ALL_CURVES
100
AcDbLine
 62
40
  6
CONTINUOUS
 10
529.639302999
 20
1195.9867947322
 11
529.639302999
 21
1196.3635159235
  0
LINE
  5
26A
100
AcDbEntity
  8
03___PRT_ALL_CURVES
100
AcDbLine
 62
40
  6
CONTINUOUS
 10
530.6523333265
 20
1192.973541966
 11
530.6523333265
 21
1195.7075697431
  0
LINE
  5
26B
100
AcDbEntity
  8
03___PRT_ALL_CURVES
100
AcDbLine
 62
40
  6
CONTINUOUS
 10
531.3758033784
 20
1195.7075697431
 11
531.3758033784
 21
1192.6932834483
  0
LINE
  5
26C
100
AcDbEntity
  8
03___PRT_ALL_CURVES
100
AcDbLine
 62
40
  6
CONTINUOUS
 10
532.3890059606
 20
1196.3635159235
 11
532.3890059606
 21
1195.7075697431
  0
LINE
  5
26D
100
AcDbEntity
  8
03___PRT_ALL_CURVES
100
AcDbLine
 62
40
  6
CONTINUOUS
 10
532.8270498515
 20
1192.973541966
 11
532.8270498515
 21
1196.3635159235
  0
LINE
  5
26E
100
AcDbEntity
  8
03___PRT_ALL_CURVES
100
AcDbLine
 62
40
  6
CONTINUOUS
 10
533.5141741461
 20
1195.7328911949
 11
533.5141741461
 21
1194.6731798237
  0
LINE
  5
26F
100
AcDbEntity
  8
03___PRT_ALL_CURVES
100
AcDbLine
 62
40
  6
CONTINUOUS
 10
533.5141741461
 20
1194.0480672479
 11
533.5141741461
 21
1192.6932834483
  0
LINE
  5
270
100
AcDbEntity
  8
03___PRT_ALL_CURVES
100
AcDbLine
 62
40
  6
CONTINUOUS
 10
548.1241350799
 20
1192.973541966
 11
548.1241350799
 21
1196.3635159235
  0
LINE
  5
271
100
AcDbEntity
  8
03___PRT_ALL_CURVES
100
AcDbLine
 62
40
  6
CONTINUOUS
 10
548.791794585
 20
1195.243687636
 11
548.791794585
 21
1192.6932834483
  0
LINE
  5
272
100
AcDbEntity
  8
03___PRT_ALL_CURVES
100
AcDbLine
 62
40
  6
CONTINUOUS
 10
550.5474152442
 20
1193.7678087301
 11
550.5474152442
 21
1196.3635159235
  0
LINE
  5
273
100
AcDbEntity
  8
03___PRT_ALL_CURVES
100
AcDbLine
 62
40
  6
CONTINUOUS
 10
551.2150747493
 20
1196.3635159235
 11
551.2150747493
 21
1192.6932834483
  0
LINE
  5
274
100
AcDbEntity
  8
03___PRT_ALL_CURVES
100
AcDbLine
 62
40
  6
CONTINUOUS
 10
551.6522573664
 20
1195.9867947322
 11
551.6522573664
 21
1196.3635159235
  0
LINE
  5
275
100
AcDbEntity
  8
03___PRT_ALL_CURVES
100
AcDbLine
 62
40
  6
CONTINUOUS
 10
552.6658044581
 20
1192.973541966
 11
552.6658044581
 21
1195.7075697431
  0
LINE
  5
276
100
AcDbEntity
  8
03___PRT_ALL_CURVES
100
AcDbLine
 62
40
  6
CONTINUOUS
 10
553.38927451
 20
1195.7075697431
 11
553.38927451
 21
1192.6932834483
  0
LINE
  5
277
100
AcDbEntity
  8
03___PRT_ALL_CURVES
100
AcDbLine
 62
40
  6
CONTINUOUS
 10
554.4024770922
 20
1196.3635159235
 11
554.4024770922
 21
1195.7075697431
  0
LINE
  5
278
100
AcDbEntity
  8
03___PRT_ALL_CURVES
100
AcDbLine
 62
40
  6
CONTINUOUS
 10
554.8710100782
 20
1192.973541966
 11
554.8710100782
 21
1196.3635159235
  0
LINE
  5
279
100
AcDbEntity
  8
03___PRT_ALL_CURVES
100
AcDbLine
 62
40
  6
CONTINUOUS
 10
555.5931020919
 20
1196.3635159235
 11
555.5931020919
 21
1192.6932834483
  0
LINE
  5
27A
100
AcDbEntity
  8
03___PRT_ALL_CURVES
100
AcDbLine
 62
40
  6
CONTINUOUS
 10
556.2907339277
 20
1192.973541966
 11
556.2907339277
 21
1196.3635159235
  0
LINE
  5
27B
100
AcDbEntity
  8
03___PRT_ALL_CURVES
100
AcDbLine
 62
40
  6
CONTINUOUS
 10
556.9570153945
 20
1195.243687636
 11
556.9570153945
 21
1192.6932834483
  0
LINE
  5
27C
100
AcDbEntity
  8
03___PRT_ALL_CURVES
100
AcDbLine
 62
40
  6
CONTINUOUS
 10
558.7136695825
 20
1193.7678087301
 11
558.7136695825
 21
1196.3635159235
  0
LINE
  5
27D
100
AcDbEntity
  8
03___PRT_ALL_CURVES
100
AcDbLine
 62
40
  6
CONTINUOUS
 10
559.3813290875
 20
1196.3635159235
 11
559.3813290875
 21
1192.6932834483
  0
LINE
  5
27E
100
AcDbEntity
  8
03___PRT_ALL_CURVES
100
AcDbLine
 62
40
  6
CONTINUOUS
 10
566.3759064512
 20
1192.4188815929
 11
566.3759064512
 21
1197.0563246256
  0
LINE
  5
27F
100
AcDbEntity
  8
03___PRT_ALL_CURVES
100
AcDbLine
 62
40
  6
CONTINUOUS
 10
542.9013703243
 20
1192.96286217
 11
542.6059533864
 21
1195.1732354333
  0
LINE
  5
280
100
AcDbEntity
  8
03___PRT_ALL_CURVES
100
AcDbLine
 62
40
  6
CONTINUOUS
 10
543.0846494041
 20
1196.3635159235
 11
543.6553294712
 21
1192.6932834483
  0
LINE
  5
281
100
AcDbEntity
  8
03___PRT_ALL_CURVES
100
AcDbLine
 62
40
  6
CONTINUOUS
 10
537.7082333898
 20
1196.3635159235
 11
539.1241676342
 21
1192.6932834483
  0
LINE
  5
282
100
AcDbEntity
  8
03___PRT_ALL_CURVES
100
AcDbLine
 62
40
  6
CONTINUOUS
 10
541.0940732327
 20
1193.2639635154
 11
540.3454539838
 21
1195.2130262862
  0
LINE
  5
283
100
AcDbEntity
  8
03___PRT_ALL_CURVES
100
AcDbLine
 62
40
  6
CONTINUOUS
 10
540.5395851144
 20
1196.3635159235
 11
541.4912927422
 21
1193.8696113017
  0
LINE
  5
284
100
AcDbEntity
  8
03___PRT_ALL_CURVES
100
AcDbLine
 62
40
  6
CONTINUOUS
 10
538.298722756
 20
1192.943052871
 11
538.094945358
 21
1193.5027086326
  0
LINE
  5
285
100
AcDbEntity
  8
03___PRT_ALL_CURVES
100
AcDbLine
 62
40
  6
CONTINUOUS
 10
537.3518382619
 20
1195.5747613122
 11
537.8663632726
 21
1194.1440131571
  0
LINE
  5
286
100
AcDbEntity
  8
0
100
AcDbLine
 62
7
  6
CONTINUOUS
 10
632.6759213759
 20
749.3077395577
 11
632.6759213759
 21
729.3077395577
  0
LINE
  5
287
100
AcDbEntity
  8
0
100
AcDbLine
 62
7
  6
CONTINUOUS
 10
637.1759213759
 20
754.3077395577
 11
637.1759213759
 21
749.3077395577
  0
LINE
  5
288
100
AcDbEntity
  8
03___PRT_ALL_CURVES
100
AcDbLine
 62
40
  6
CONTINUOUS
 10
534.6334856692
 20
1194.1798421502
 11
535.4742612224
 21
1192.6932834483
  0
LINE
  5
289
100
AcDbEntity
  8
03___PRT_ALL_CURVES
100
AcDbLine
 62
40
  6
CONTINUOUS
 10
534.5725074791
 20
1192.9022284895
 11
533.9878747753
 21
1194.0480672479
  0
LINE
  5
28A
100
AcDbEntity
  8
03___PRT_ALL_CURVES
100
AcDbLine
 62
40
  6
CONTINUOUS
 10
561.8759227284
 20
1196.3635159235
 11
563.2908234442
 21
1192.6932834483
  0
LINE
  5
28B
100
AcDbEntity
  8
03___PRT_ALL_CURVES
100
AcDbLine
 62
40
  6
CONTINUOUS
 10
562.4664120946
 20
1192.943052871
 11
562.2617734227
 21
1193.5027086326
  0
LINE
  5
28C
100
AcDbEntity
  8
03___PRT_ALL_CURVES
100
AcDbLine
 62
40
  6
CONTINUOUS
 10
561.5190108361
 20
1195.5747613122
 11
562.032674573
 21
1194.1440131571
  0
LINE
  5
28D
100
AcDbEntity
  8
0
100
AcDbLine
 62
7
  6
CONTINUOUS
 10
637.3759213759
 20
774.3077395577
 11
637.3759213759
 21
754.3077395577
  0
LINE
  5
28E
100
AcDbEntity
  8
0
100
AcDbLine
 62
7
  6
CONTINUOUS
 10
640.8759213759
 20
765.8077395577
 11
640.8759213759
 21
729.3077395577
  0
LINE
  5
28F
100
AcDbEntity
  8
0
100
AcDbLine
 62
7
  6
CONTINUOUS
 10
668.3759213759
 20
729.3077395577
 11
668.3759213759
 21
757.8077395577
  0
LINE
  5
290
100
AcDbEntity
  8
03___PRT_ALL_CURVES
100
AcDbLine
 62
40
  6
CONTINUOUS
 10
558.5514055851
 20
1192.9478760047
 11
556.9570153945
 21
1195.243687636
  0
LINE
  5
291
100
AcDbEntity
  8
03___PRT_ALL_CURVES
100
AcDbLine
 62
40
  6
CONTINUOUS
 10
550.3854957564
 20
1192.9478760047
 11
548.791794585
 21
1195.243687636
  0
LINE
  5
292
100
AcDbEntity
  8
03___PRT_ALL_CURVES
100
AcDbLine
 62
40
  6
CONTINUOUS
 10
556.942201484
 20
1196.3635159235
 11
558.7136695825
 21
1193.7678087301
  0
LINE
  5
293
100
AcDbEntity
  8
03___PRT_ALL_CURVES
100
AcDbLine
 62
40
  6
CONTINUOUS
 10
548.7766361648
 20
1196.3635159235
 11
550.5474152442
 21
1193.7678087301
  0
LINE
  5
294
100
AcDbEntity
  8
0
100
AcDbLine
 62
7
  6
CONTINUOUS
 10
346.3759213759
 20
1151.5577395577
 11
344.3759213759
 21
1151.5577395577
  0
LINE
  5
295
100
AcDbEntity
  8
0
100
AcDbLine
 62
7
  6
CONTINUOUS
 10
746.3759213759
 20
1151.5577395577
 11
748.3759213759
 21
1151.5577395577
  0
LINE
  5
296
100
AcDbEntity
  8
0
100
AcDbLine
 62
7
  6
CONTINUOUS
 10
744.8759213759
 20
1222.8077395577
 11
744.8759213759
 21
1228.8077395577
  0
LINE
  5
297
100
AcDbEntity
  8
0
100
AcDbLine
 62
7
  6
CONTINUOUS
 10
746.3759213759
 20
770.3077395577
 11
746.3759213759
 21
729.3077395577
  0
LINE
  5
298
100
AcDbEntity
  8
0
100
AcDbLine
 62
7
  6
CONTINUOUS
 10
746.3759213759
 20
770.8077395577
 11
746.3759213759
 21
1220.8077395577
  0
LINE
  5
299
100
AcDbEntity
  8
0
100
AcDbLine
 62
7
  6
CONTINUOUS
 10
746.3759213759
 20
1230.8077395577
 11
746.3759213759
 21
1248.0077395577
  0
LINE
  5
29A
100
AcDbEntity
  8
0
100
AcDbLine
 62
7
  6
CONTINUOUS
 10
748.8759213759
 20
1193.0577395577
 11
748.8759213759
 21
1152.0577395577
  0
LINE
  5
29B
100
AcDbEntity
  8
03___PRT_ALL_CURVES
100
AcDbLine
 62
40
  6
CONTINUOUS
 10
528.1270783358
 20
1190.6677395577
 11
564.6247644161
 21
1190.6677395577
  0
LINE
  5
29C
100
AcDbEntity
  8
03___PRT_ALL_CURVES
100
AcDbLine
 62
40
  6
CONTINUOUS
 10
563.2908234442
 20
1192.6932834483
 11
562.796452242
 21
1192.6932834483
  0
LINE
  5
29D
100
AcDbEntity
  8
03___PRT_ALL_CURVES
100
AcDbLine
 62
40
  6
CONTINUOUS
 10
559.3813290875
 20
1192.6932834483
 11
558.9889327117
 21
1192.6932834483
  0
LINE
  5
29E
100
AcDbEntity
  8
03___PRT_ALL_CURVES
100
AcDbLine
 62
40
  6
CONTINUOUS
 10
560.4903053242
 20
1192.6932834483
 11
559.7726919346
 21
1192.6932834483
  0
LINE
  5
29F
100
AcDbEntity
  8
03___PRT_ALL_CURVES
100
AcDbLine
 62
40
  6
CONTINUOUS
 10
556.9570153945
 20
1192.6932834483
 11
556.5701311715
 21
1192.6932834483
  0
LINE
  5
2A0
100
AcDbEntity
  8
03___PRT_ALL_CURVES
100
AcDbLine
 62
40
  6
CONTINUOUS
 10
555.5931020919
 20
1192.6932834483
 11
555.149718303
 21
1192.6932834483
  0
LINE
  5
2A1
100
AcDbEntity
  8
03___PRT_ALL_CURVES
100
AcDbLine
 62
40
  6
CONTINUOUS
 10
553.38927451
 20
1192.6932834483
 11
552.9458907211
 21
1192.6932834483
  0
LINE
  5
2A2
100
AcDbEntity
  8
03___PRT_ALL_CURVES
100
AcDbLine
 62
40
  6
CONTINUOUS
 10
551.2150747493
 20
1192.6932834483
 11
550.8226783735
 21
1192.6932834483
  0
LINE
  5
2A3
100
AcDbEntity
  8
03___PRT_ALL_CURVES
100
AcDbLine
 62
40
  6
CONTINUOUS
 10
548.791794585
 20
1192.6932834483
 11
548.4052548715
 21
1192.6932834483
  0
LINE
  5
2A4
100
AcDbEntity
  8
03___PRT_ALL_CURVES
100
AcDbLine
 62
40
  6
CONTINUOUS
 10
543.6553294712
 20
1192.6932834483
 11
543.2322717456
 21
1192.6932834483
  0
LINE
  5
2A5
100
AcDbEntity
  8
03___PRT_ALL_CURVES
100
AcDbLine
 62
40
  6
CONTINUOUS
 10
540.0152415815
 20
1192.6932834483
 11
539.3226051342
 21
1192.6932834483
  0
LINE
  5
2A6
100
AcDbEntity
  8
03___PRT_ALL_CURVES
100
AcDbLine
 62
40
  6
CONTINUOUS
 10
539.1241676342
 20
1192.6932834483
 11
538.6297964321
 21
1192.6932834483
  0
LINE
  5
2A7
100
AcDbEntity
  8
03___PRT_ALL_CURVES
100
AcDbLine
 62
40
  6
CONTINUOUS
 10
535.4742612224
 20
1192.6932834483
 11
534.9233904543
 21
1192.6932834483
  0
LINE
  5
2A8
100
AcDbEntity
  8
03___PRT_ALL_CURVES
100
AcDbLine
 62
40
  6
CONTINUOUS
 10
536.3238217691
 20
1192.6932834483
 11
535.6058638699
 21
1192.6932834483
  0
LINE
  5
2A9
100
AcDbEntity
  8
03___PRT_ALL_CURVES
100
AcDbLine
 62
40
  6
CONTINUOUS
 10
533.5141741461
 20
1192.6932834483
 11
533.1067916049
 21
1192.6932834483
  0
LINE
  5
2AA
100
AcDbEntity
  8
03___PRT_ALL_CURVES
100
AcDbLine
 62
40
  6
CONTINUOUS
 10
531.3758033784
 20
1192.6932834483
 11
530.932764099
 21
1192.6932834483
  0
LINE
  5
2AB
100
AcDbEntity
  8
03___PRT_ALL_CURVES
100
AcDbLine
 62
40
  6
CONTINUOUS
 10
541.781369782
 20
1192.9986911631
 11
541.4502961059
 21
1192.9986911631
  0
LINE
  5
2AC
100
AcDbEntity
  8
03___PRT_ALL_CURVES
100
AcDbLine
 62
40
  6
CONTINUOUS
 10
562.2617734227
 20
1193.5027086326
 11
560.7762482495
 21
1193.5027086326
  0
LINE
  5
2AD
100
AcDbEntity
  8
03___PRT_ALL_CURVES
100
AcDbLine
 62
40
  6
CONTINUOUS
 10
538.094945358
 20
1193.5027086326
 11
536.6087311657
 21
1193.5027086326
  0
LINE
  5
2AE
100
AcDbEntity
  8
0
100
AcDbLine
 62
7
  6
CONTINUOUS
 10
346.3759213759
 20
1193.5577395577
 11
344.3759213759
 21
1193.5577395577
  0
LINE
  5
2AF
100
AcDbEntity
  8
0
100
AcDbLine
 62
7
  6
CONTINUOUS
 10
746.3759213759
 20
1193.5577395577
 11
748.3759213759
 21
1193.5577395577
  0
LINE
  5
2B0
100
AcDbEntity
  8
03___PRT_ALL_CURVES
100
AcDbLine
 62
40
  6
CONTINUOUS
 10
533.9878747753
 20
1194.0480672479
 11
533.5141741461
 21
1194.0480672479
  0
LINE
  5
2B1
100
AcDbEntity
  8
03___PRT_ALL_CURVES
100
AcDbLine
 62
40
  6
CONTINUOUS
 10
562.032674573
 20
1194.1440131571
 11
561.0050025897
 21
1194.1440131571
  0
LINE
  5
2B2
100
AcDbEntity
  8
03___PRT_ALL_CURVES
100
AcDbLine
 62
40
  6
CONTINUOUS
 10
537.8663632726
 20
1194.1440131571
 11
536.838174525
 21
1194.1440131571
  0
LINE
  5
2B3
100
AcDbEntity
  8
03___PRT_ALL_CURVES
100
AcDbLine
 62
40
  6
CONTINUOUS
 10
533.5141741461
 20
1194.6731798237
 11
533.9928701637
 21
1194.6731798237
  0
LINE
  5
2B4
100
AcDbEntity
  8
03___PRT_ALL_CURVES
100
AcDbLine
 62
40
  6
CONTINUOUS
 10
554.4024770922
 20
1195.7075697431
 11
553.38927451
 21
1195.7075697431
  0
LINE
  5
2B5
100
AcDbEntity
  8
03___PRT_ALL_CURVES
100
AcDbLine
 62
40
  6
CONTINUOUS
 10
552.6658044581
 20
1195.7075697431
 11
551.9330326484
 21
1195.7075697431
  0
LINE
  5
2B6
100
AcDbEntity
  8
03___PRT_ALL_CURVES
100
AcDbLine
 62
40
  6
CONTINUOUS
 10
532.3890059606
 20
1195.7075697431
 11
531.3758033784
 21
1195.7075697431
  0
LINE
  5
2B7
100
AcDbEntity
  8
03___PRT_ALL_CURVES
100
AcDbLine
 62
40
  6
CONTINUOUS
 10
530.6523333265
 20
1195.7075697431
 11
529.9195615168
 21
1195.7075697431
  0
LINE
  5
2B8
100
AcDbEntity
  8
03___PRT_ALL_CURVES
100
AcDbLine
 62
40
  6
CONTINUOUS
 10
533.9928701637
 20
1195.7328911949
 11
533.5141741461
 21
1195.7328911949
  0
LINE
  5
2B9
100
AcDbEntity
  8
03___PRT_ALL_CURVES
100
AcDbLine
 62
40
  6
CONTINUOUS
 10
529.639302999
 20
1196.3635159235
 11
532.3890059606
 21
1196.3635159235
  0
LINE
  5
2BA
100
AcDbEntity
  8
03___PRT_ALL_CURVES
100
AcDbLine
 62
40
  6
CONTINUOUS
 10
532.8270498515
 20
1196.3635159235
 11
534.0535038443
 21
1196.3635159235
  0
LINE
  5
2BB
100
AcDbEntity
  8
03___PRT_ALL_CURVES
100
AcDbLine
 62
40
  6
CONTINUOUS
 10
537.0112905731
 20
1196.3635159235
 11
537.7082333898
 21
1196.3635159235
  0
LINE
  5
2BC
100
AcDbEntity
  8
03___PRT_ALL_CURVES
100
AcDbLine
 62
40
  6
CONTINUOUS
 10
539.892768437
 20
1196.3635159235
 11
540.5395851144
 21
1196.3635159235
  0
LINE
  5
2BD
100
AcDbEntity
  8
03___PRT_ALL_CURVES
100
AcDbLine
 62
40
  6
CONTINUOUS
 10
542.4438616438
 20
1196.3635159235
 11
543.0846494041
 21
1196.3635159235
  0
LINE
  5
2BE
100
AcDbEntity
  8
03___PRT_ALL_CURVES
100
AcDbLine
 62
40
  6
CONTINUOUS
 10
548.1241350799
 20
1196.3635159235
 11
548.7766361648
 21
1196.3635159235
  0
LINE
  5
2BF
100
AcDbEntity
  8
03___PRT_ALL_CURVES
100
AcDbLine
 62
40
  6
CONTINUOUS
 10
550.5474152442
 20
1196.3635159235
 11
551.2150747493
 21
1196.3635159235
  0
LINE
  5
2C0
100
AcDbEntity
  8
03___PRT_ALL_CURVES
100
AcDbLine
 62
40
  6
CONTINUOUS
 10
551.6522573664
 20
1196.3635159235
 11
554.4024770922
 21
1196.3635159235
  0
LINE
  5
2C1
100
AcDbEntity
  8
03___PRT_ALL_CURVES
100
AcDbLine
 62
40
  6
CONTINUOUS
 10
554.8710100782
 20
1196.3635159235
 11
555.5931020919
 21
1196.3635159235
  0
LINE
  5
2C2
100
AcDbEntity
  8
03___PRT_ALL_CURVES
100
AcDbLine
 62
40
  6
CONTINUOUS
 10
556.2907339277
 20
1196.3635159235
 11
556.942201484
 21
1196.3635159235
  0
LINE
  5
2C3
100
AcDbEntity
  8
03___PRT_ALL_CURVES
100
AcDbLine
 62
40
  6
CONTINUOUS
 10
558.7136695825
 20
1196.3635159235
 11
559.3813290875
 21
1196.3635159235
  0
LINE
  5
2C4
100
AcDbEntity
  8
03___PRT_ALL_CURVES
100
AcDbLine
 62
40
  6
CONTINUOUS
 10
561.1782908926
 20
1196.3635159235
 11
561.8759227284
 21
1196.3635159235
  0
LINE
  5
2C5
100
AcDbEntity
  8
03___PRT_ALL_CURVES
100
AcDbLine
 62
40
  6
CONTINUOUS
 10
564.6247644161
 20
1198.8074666607
 11
528.1270783358
 21
1198.8074666607
  0
LINE
  5
2C6
100
AcDbEntity
  8
03___PRT_ALL_CURVES
100
AcDbLine
 62
40
  6
CONTINUOUS
 10
346.3759213759
 20
1220.8077395577
 11
746.3759213759
 21
1220.8077395577
  0
LINE
  5
2C7
100
AcDbEntity
  8
0
100
AcDbLine
 62
7
  6
CONTINUOUS
 10
347.8759213759
 20
1222.8077395577
 11
744.8759213759
 21
1222.8077395577
  0
LINE
  5
2C8
100
AcDbEntity
  8
0
100
AcDbLine
 62
7
  6
CONTINUOUS
 10
347.8759213759
 20
1228.8077395577
 11
744.8759213759
 21
1228.8077395577
  0
LINE
  5
2C9
100
AcDbEntity
  8
03___PRT_ALL_CURVES
100
AcDbLine
 62
40
  6
CONTINUOUS
 10
346.3759213759
 20
1230.8077395577
 11
746.3759213759
 21
1230.8077395577
  0
LINE
  5
2CA
100
AcDbEntity
  8
03___PRT_ALL_CURVES
100
AcDbLine
 62
40
  6
CONTINUOUS
 10
346.3759213759
 20
1248.0077395577
 11
746.3759213759
 21
1248.0077395577
  0
LINE
  5
2CB
100
AcDbEntity
  8
0
100
AcDbLine
 62
7
  6
CONTINUOUS
 10
347.6759213759
 20
1249.3077395577
 11
745.0759213759
 21
1249.3077395577
  0
LINE
  5
2CC
100
AcDbEntity
  8
0
100
AcDbLine
 62
7
  6
CONTINUOUS
 10
663.3759213759
 20
1249.8077395577
 11
628.3759213759
 21
1249.8077395577
  0
LINE
  5
2CD
100
AcDbEntity
  8
0
100
AcDbLine
 62
7
  6
CONTINUOUS
 10
464.3759213759
 20
1249.8077395577
 11
429.3759213759
 21
1249.8077395577
  0
LINE
  5
2CE
100
AcDbEntity
  8
0
100
AcDbLine
 62
7
  6
CONTINUOUS
 10
343.8759213759
 20
370.4286786787
 11
343.8759213759
 21
463.4286786787
  0
LINE
  5
2CF
100
AcDbEntity
  8
0
100
AcDbLine
 62
7
  6
CONTINUOUS
 10
346.3759213759
 20
518.6786786787
 11
346.3759213759
 21
315.1786786787
  0
LINE
  5
2D0
100
AcDbEntity
  8
03___PRT_ALL_CURVES
100
AcDbLine
 62
40
  6
CONTINUOUS
 10
346.3759213759
 20
518.6786786787
 11
346.3759213759
 21
315.1786786787
  0
LINE
  5
2D1
100
AcDbEntity
  8
0
100
AcDbLine
 62
7
  6
CONTINUOUS
 10
359.3759213759
 20
518.6786786787
 11
359.3759213759
 21
315.1786786787
  0
LINE
  5
2D2
100
AcDbEntity
  8
0
100
AcDbLine
 62
7
  6
CONTINUOUS
 10
359.8759213759
 20
516.6286786787
 11
359.8759213759
 21
316.6286786787
  0
LINE
  5
2D3
100
AcDbEntity
  8
0
100
AcDbLine
 62
7
  6
CONTINUOUS
 10
384.8759213759
 20
344.1286786787
 11
384.8759213759
 21
502.1286786787
  0
LINE
  5
2D4
100
AcDbEntity
  8
0
100
AcDbLine
 62
7
  6
CONTINUOUS
 10
385.1259213759
 20
344.3786786787
 11
385.1259213759
 21
501.8786786787
  0
LINE
  5
2D5
100
AcDbEntity
  8
0
100
AcDbLine
 62
7
  6
CONTINUOUS
 10
481.3759213759
 20
228.4286786787
 11
611.3759213759
 21
228.4286786787
  0
LINE
  5
2D6
100
AcDbEntity
  8
0
100
AcDbLine
 62
7
  6
CONTINUOUS
 10
425.3759213759
 20
275.1786786787
 11
425.3759213759
 21
271.7286786787
  0
LINE
  5
2D7
100
AcDbEntity
  8
0
100
AcDbLine
 62
7
  6
CONTINUOUS
 10
455.3759213759
 20
266.4286786787
 11
637.3759213759
 21
266.4286786787
  0
LINE
  5
2D8
100
AcDbEntity
  8
0
100
AcDbLine
 62
7
  6
CONTINUOUS
 10
457.3759213759
 20
270.4286786787
 11
635.3759213759
 21
270.4286786787
  0
LINE
  5
2D9
100
AcDbEntity
  8
0
100
AcDbLine
 62
7
  6
CONTINUOUS
 10
668.3759213759
 20
271.7286786787
 11
425.3759213759
 21
271.7286786787
  0
LINE
  5
2DA
100
AcDbEntity
  8
0
100
AcDbLine
 62
7
  6
CONTINUOUS
 10
426.8759213759
 20
542.6286786787
 11
426.8759213759
 21
532.1286786787
  0
LINE
  5
2DB
100
AcDbEntity
  8
0
100
AcDbLine
 62
7
  6
CONTINUOUS
 10
427.8759213759
 20
532.1286786787
 11
427.8759213759
 21
544.4286786787
  0
LINE
  5
2DC
100
AcDbEntity
  8
0
100
AcDbLine
 62
7
  6
CONTINUOUS
 10
443.3759213759
 20
275.1786786787
 11
443.3759213759
 21
271.7286786787
  0
LINE
  5
2DD
100
AcDbEntity
  8
0
100
AcDbLine
 62
7
  6
CONTINUOUS
 10
386.3759213759
 20
275.1786786787
 11
706.3759213759
 21
275.1786786787
  0
LINE
  5
2DE
100
AcDbEntity
  8
03___PRT_ALL_CURVES
100
AcDbLine
 62
40
  6
CONTINUOUS
 10
386.3759213759
 20
275.1786786787
 11
706.3759213759
 21
275.1786786787
  0
LINE
  5
2DF
100
AcDbEntity
  8
0
100
AcDbLine
 62
7
  6
CONTINUOUS
 10
386.3759213759
 20
288.1786786787
 11
706.3759213759
 21
288.1786786787
  0
LINE
  5
2E0
100
AcDbEntity
  8
0
100
AcDbLine
 62
7
  6
CONTINUOUS
 10
385.8759213759
 20
290.6286786787
 11
706.8759213759
 21
290.6286786787
  0
LINE
  5
2E1
100
AcDbEntity
  8
0
100
AcDbLine
 62
7
  6
CONTINUOUS
 10
455.3759213759
 20
268.4286786787
 11
455.3759213759
 21
254.4286786787
  0
LINE
  5
2E2
100
AcDbEntity
  8
0
100
AcDbLine
 62
7
  6
CONTINUOUS
 10
461.3759213759
 20
271.7286786787
 11
461.3759213759
 21
270.4286786787
  0
LINE
  5
2E3
100
AcDbEntity
  8
0
100
AcDbLine
 62
7
  6
CONTINUOUS
 10
465.8759213759
 20
544.4286786787
 11
465.8759213759
 21
532.1286786787
  0
LINE
  5
2E4
100
AcDbEntity
  8
0
100
AcDbLine
 62
7
  6
CONTINUOUS
 10
466.8759213759
 20
542.6286786787
 11
466.8759213759
 21
532.1286786787
  0
LINE
  5
2E5
100
AcDbEntity
  8
0
100
AcDbLine
 62
7
  6
CONTINUOUS
 10
686.8759213759
 20
323.1286786787
 11
405.8759213759
 21
323.1286786787
  0
LINE
  5
2E6
100
AcDbEntity
  8
0
100
AcDbLine
 62
7
  6
CONTINUOUS
 10
686.6259213759
 20
323.3786786787
 11
406.1259213759
 21
323.3786786787
  0
LINE
  5
2E7
100
AcDbEntity
  8
0
100
AcDbLine
 62
7
  6
CONTINUOUS
 10
346.3759213759
 20
369.9286786787
 11
344.3759213759
 21
369.9286786787
  0
LINE
  5
2E8
100
AcDbEntity
  8
0
100
AcDbLine
 62
7
  6
CONTINUOUS
 10
746.3759213759
 20
369.9286786787
 11
748.3759213759
 21
369.9286786787
  0
LINE
  5
2E9
100
AcDbEntity
  8
0
100
AcDbLine
 62
7
  6
CONTINUOUS
 10
346.3759213759
 20
463.9286786787
 11
344.3759213759
 21
463.9286786787
  0
LINE
  5
2EA
100
AcDbEntity
  8
0
100
AcDbLine
 62
7
  6
CONTINUOUS
 10
746.3759213759
 20
463.9286786787
 11
748.3759213759
 21
463.9286786787
  0
LINE
  5
2EB
100
AcDbEntity
  8
0
100
AcDbLine
 62
7
  6
CONTINUOUS
 10
625.8759213759
 20
542.6286786787
 11
625.8759213759
 21
532.1286786787
  0
LINE
  5
2EC
100
AcDbEntity
  8
0
100
AcDbLine
 62
7
  6
CONTINUOUS
 10
626.8759213759
 20
532.1286786787
 11
626.8759213759
 21
544.4286786787
  0
LINE
  5
2ED
100
AcDbEntity
  8
0
100
AcDbLine
 62
7
  6
CONTINUOUS
 10
631.3759213759
 20
271.7286786787
 11
631.3759213759
 21
270.4286786787
  0
LINE
  5
2EE
100
AcDbEntity
  8
0
100
AcDbLine
 62
7
  6
CONTINUOUS
 10
637.3759213759
 20
268.4286786787
 11
637.3759213759
 21
254.4286786787
  0
LINE
  5
2EF
100
AcDbEntity
  8
0
100
AcDbLine
 62
7
  6
CONTINUOUS
 10
650.3759213759
 20
275.1786786787
 11
650.3759213759
 21
271.7286786787
  0
LINE
  5
2F0
100
AcDbEntity
  8
0
100
AcDbLine
 62
7
  6
CONTINUOUS
 10
664.8759213759
 20
544.4286786787
 11
664.8759213759
 21
532.1286786787
  0
LINE
  5
2F1
100
AcDbEntity
  8
0
100
AcDbLine
 62
7
  6
CONTINUOUS
 10
665.8759213759
 20
542.6286786787
 11
665.8759213759
 21
532.1286786787
  0
LINE
  5
2F2
100
AcDbEntity
  8
0
100
AcDbLine
 62
7
  6
CONTINUOUS
 10
668.3759213759
 20
275.1786786787
 11
668.3759213759
 21
271.7286786787
  0
LINE
  5
2F3
100
AcDbEntity
  8
0
100
AcDbLine
 62
7
  6
CONTINUOUS
 10
406.1259213759
 20
522.8786786787
 11
686.6259213759
 21
522.8786786787
  0
LINE
  5
2F4
100
AcDbEntity
  8
0
100
AcDbLine
 62
7
  6
CONTINUOUS
 10
405.8759213759
 20
523.1286786787
 11
686.8759213759
 21
523.1286786787
  0
LINE
  5
2F5
100
AcDbEntity
  8
0
100
AcDbLine
 62
7
  6
CONTINUOUS
 10
426.8759213759
 20
532.1286786787
 11
466.8759213759
 21
532.1286786787
  0
LINE
  5
2F6
100
AcDbEntity
  8
0
100
AcDbLine
 62
7
  6
CONTINUOUS
 10
625.8759213759
 20
532.1286786787
 11
665.8759213759
 21
532.1286786787
  0
LINE
  5
2F7
100
AcDbEntity
  8
0
100
AcDbLine
 62
7
  6
CONTINUOUS
 10
706.8759213759
 20
542.6286786787
 11
665.8759213759
 21
542.6286786787
  0
LINE
  5
2F8
100
AcDbEntity
  8
0
100
AcDbLine
 62
7
  6
CONTINUOUS
 10
625.8759213759
 20
542.6286786787
 11
466.8759213759
 21
542.6286786787
  0
LINE
  5
2F9
100
AcDbEntity
  8
0
100
AcDbLine
 62
7
  6
CONTINUOUS
 10
426.8759213759
 20
542.6286786787
 11
385.8759213759
 21
542.6286786787
  0
LINE
  5
2FA
100
AcDbEntity
  8
0
100
AcDbLine
 62
7
  6
CONTINUOUS
 10
706.3759213759
 20
545.6786786787
 11
386.3759213759
 21
545.6786786787
  0
LINE
  5
2FB
100
AcDbEntity
  8
0
100
AcDbLine
 62
7
  6
CONTINUOUS
 10
707.6259213759
 20
501.8786786787
 11
707.6259213759
 21
344.3786786787
  0
LINE
  5
2FC
100
AcDbEntity
  8
0
100
AcDbLine
 62
7
  6
CONTINUOUS
 10
707.8759213759
 20
502.1286786787
 11
707.8759213759
 21
344.1286786787
  0
LINE
  5
2FD
100
AcDbEntity
  8
0
100
AcDbLine
 62
7
  6
CONTINUOUS
 10
706.3759213759
 20
558.6786786787
 11
386.3759213759
 21
558.6786786787
  0
LINE
  5
2FE
100
AcDbEntity
  8
03___PRT_ALL_CURVES
100
AcDbLine
 62
40
  6
CONTINUOUS
 10
706.3759213759
 20
558.6786786787
 11
386.3759213759
 21
558.6786786787
  0
LINE
  5
2FF
100
AcDbEntity
  8
0
100
AcDbLine
 62
7
  6
CONTINUOUS
 10
732.8759213759
 20
316.6286786787
 11
732.8759213759
 21
516.6286786787
  0
LINE
  5
300
100
AcDbEntity
  8
0
100
AcDbLine
 62
7
  6
CONTINUOUS
 10
733.3759213759
 20
315.1786786787
 11
733.3759213759
 21
518.6786786787
  0
LINE
  5
301
100
AcDbEntity
  8
0
100
AcDbLine
 62
7
  6
CONTINUOUS
 10
746.3759213759
 20
315.1786786787
 11
746.3759213759
 21
518.6786786787
  0
LINE
  5
302
100
AcDbEntity
  8
03___PRT_ALL_CURVES
100
AcDbLine
 62
40
  6
CONTINUOUS
 10
746.3759213759
 20
315.1786786787
 11
746.3759213759
 21
518.6786786787
  0
LINE
  5
303
100
AcDbEntity
  8
0
100
AcDbLine
 62
7
  6
CONTINUOUS
 10
748.8759213759
 20
463.4286786787
 11
748.8759213759
 21
370.4286786787
  0
LINE
  5
304
100
AcDbEntity
  8
0
100
AcDbLine
 62
7
  6
CONTINUOUS
 10
933.0530777256
 20
728.9311699869
 11
1219.7530777256
 21
728.9311699869
  0
LINE
  5
305
100
AcDbEntity
  8
0
100
AcDbLine
 62
7
  6
CONTINUOUS
 10
1262.8530777256
 20
748.9311699869
 11
1219.7530777256
 21
748.9311699869
  0
LINE
  5
306
100
AcDbEntity
  8
0
100
AcDbLine
 62
7
  6
CONTINUOUS
 10
1263.0530777256
 20
753.9311699869
 11
1221.0530777256
 21
753.9311699869
  0
LINE
  5
307
100
AcDbEntity
  8
0
100
AcDbLine
 62
7
  6
CONTINUOUS
 10
1219.7530777256
 20
763.9309060816
 11
1221.0530777256
 21
763.9309083041
  0
LINE
  5
308
100
AcDbEntity
  8
0
100
AcDbLine
 62
7
  6
CONTINUOUS
 10
933.0530777256
 20
769.9311699869
 11
1216.0530777256
 21
769.9311699869
  0
LINE
  5
309
100
AcDbEntity
  8
03___PRT_ALL_CURVES
100
AcDbLine
 62
40
  6
CONTINUOUS
 10
932.8030777256
 20
770.4311699869
 11
1216.3030777256
 21
770.4311699869
  0
LINE
  5
30A
100
AcDbEntity
  8
03___PRT_ALL_CURVES
100
AcDbLine
 62
40
  6
CONTINUOUS
 10
1221.0530777256
 20
773.9311699869
 11
1221.1760099981
 21
773.9311699869
  0
LINE
  5
30B
100
AcDbEntity
  8
0
100
AcDbLine
 62
7
  6
CONTINUOUS
 10
1221.1687312817
 20
773.9311699869
 11
1225.0530777256
 21
773.9311699869
  0
LINE
  5
30C
100
AcDbEntity
  8
0
100
AcDbLine
 62
7
  6
CONTINUOUS
 10
1221.9045135696
 20
777.9311699869
 11
1221.0530777256
 21
777.9311699869
  0
LINE
  5
30D
100
AcDbEntity
  8
0
100
AcDbLine
 62
7
  6
CONTINUOUS
 10
1216.3030777256
 20
783.5845636482
 11
1219.7530777256
 21
783.5845636482
  0
LINE
  5
30E
100
AcDbEntity
  8
0
100
AcDbLine
 62
7
  6
CONTINUOUS
 10
1216.3030777256
 20
797.4217695717
 11
1219.7530777256
 21
797.4217695717
  0
LINE
  5
30F
100
AcDbEntity
  8
0
100
AcDbLine
 62
7
  6
CONTINUOUS
 10
932.8030777256
 20
770.4311699869
 11
932.8030777256
 21
1220.4311699869
  0
LINE
  5
310
100
AcDbEntity
  8
0
100
AcDbLine
 62
7
  6
CONTINUOUS
 10
932.8030777256
 20
1230.4311699869
 11
932.8030777256
 21
1247.6311699869
  0
LINE
  5
311
100
AcDbEntity
  8
0
100
AcDbLine
 62
7
  6
CONTINUOUS
 10
933.0530777256
 20
769.9311699869
 11
933.0530777256
 21
728.9311699869
  0
LINE
  5
312
100
AcDbEntity
  8
0
100
AcDbLine
 62
7
  6
CONTINUOUS
 10
934.5530777256
 20
1222.4311699869
 11
934.5530777256
 21
1228.4311699869
  0
LINE
  5
313
100
AcDbEntity
  8
0
100
AcDbLine
 62
7
  6
CONTINUOUS
 10
948.7644949754
 20
1248.9311699869
 11
997.3217594313
 21
1485.7039578252
  0
LINE
  5
314
100
AcDbEntity
  8
0
100
AcDbLine
 62
7
  6
CONTINUOUS
 10
956.9309929181
 20
1248.9311699869
 11
1005.1586560361
 21
1484.0967703421
  0
LINE
  5
315
100
AcDbEntity
  8
0
100
AcDbLine
 62
7
  6
CONTINUOUS
 10
1027.5530777256
 20
1185.6811699869
 11
1027.5530777256
 21
1158.6811699869
  0
LINE
  5
316
100
AcDbEntity
  8
0
100
AcDbLine
 62
7
  6
CONTINUOUS
 10
1035.3030777256
 20
1161.6811699869
 11
1035.3030777256
 21
1182.6811699869
  0
LINE
  5
317
100
AcDbEntity
  8
0
100
AcDbLine
 62
7
  6
CONTINUOUS
 10
1113.8030777256
 20
1182.6811699869
 11
1113.8030777256
 21
1161.6811699869
  0
LINE
  5
318
100
AcDbEntity
  8
0
100
AcDbLine
 62
7
  6
CONTINUOUS
 10
1121.5530777256
 20
1158.6811699869
 11
1121.5530777256
 21
1185.6811699869
  0
LINE
  5
319
100
AcDbEntity
  8
0
100
AcDbLine
 62
7
  6
CONTINUOUS
 10
1035.0530777256
 20
1151.1811699869
 11
1114.0530777256
 21
1151.1811699869
  0
LINE
  5
31A
100
AcDbEntity
  8
0
100
AcDbLine
 62
7
  6
CONTINUOUS
 10
1111.8030777256
 20
1159.6811699869
 11
1037.3030777256
 21
1159.6811699869
  0
LINE
  5
31B
100
AcDbEntity
  8
0
100
AcDbLine
 62
7
  6
CONTINUOUS
 10
1037.3030777256
 20
1184.6811699869
 11
1111.8030777256
 21
1184.6811699869
  0
LINE
  5
31C
100
AcDbEntity
  8
0
100
AcDbLine
 62
7
  6
CONTINUOUS
 10
1114.0530777256
 20
1193.1811699869
 11
1035.0530777256
 21
1193.1811699869
  0
LINE
  5
31D
100
AcDbEntity
  8
03___PRT_ALL_CURVES
100
AcDbLine
 62
40
  6
CONTINUOUS
 10
932.8030777256
 20
1220.4311699869
 11
1216.3030777256
 21
1220.4311699869
  0
LINE
  5
31E
100
AcDbEntity
  8
0
100
AcDbLine
 62
7
  6
CONTINUOUS
 10
1214.5530777256
 20
1222.4311699869
 11
1214.5530777256
 21
1228.4311699869
  0
LINE
  5
31F
100
AcDbEntity
  8
0
100
AcDbLine
 62
7
  6
CONTINUOUS
 10
1216.0530777256
 20
728.9311699869
 11
1216.0530777256
 21
769.9311699869
  0
LINE
  5
320
100
AcDbEntity
  8
0
100
AcDbLine
 62
7
  6
CONTINUOUS
 10
1216.3030777256
 20
770.4311699869
 11
1216.3030777256
 21
1220.4311699869
  0
LINE
  5
321
100
AcDbEntity
  8
0
100
AcDbLine
 62
7
  6
CONTINUOUS
 10
1216.3030777256
 20
1230.4311699869
 11
1216.3030777256
 21
1247.6311699869
  0
LINE
  5
322
100
AcDbEntity
  8
0
100
AcDbLine
 62
7
  6
CONTINUOUS
 10
1219.7530777256
 20
797.4217695717
 11
1219.7530777256
 21
728.9311699869
  0
LINE
  5
323
100
AcDbEntity
  8
0
100
AcDbLine
 62
7
  6
CONTINUOUS
 10
1221.0530777256
 20
774.05948487
 11
1221.0530777256
 21
753.9311699869
  0
LINE
  5
324
100
AcDbEntity
  8
0
100
AcDbLine
 62
7
  6
CONTINUOUS
 10
1221.0530777256
 20
774.1053839734
 11
1221.0530777256
 21
777.931135974
  0
LINE
  5
325
100
AcDbEntity
  8
0
100
AcDbLine
 62
7
  6
CONTINUOUS
 10
1221.2530777256
 20
753.9311699869
 11
1221.2530777256
 21
748.9311699869
  0
LINE
  5
326
100
AcDbEntity
  8
0
100
AcDbLine
 62
7
  6
CONTINUOUS
 10
934.5530777256
 20
1222.4311699869
 11
1214.5530777256
 21
1222.4311699869
  0
LINE
  5
327
100
AcDbEntity
  8
0
100
AcDbLine
 62
7
  6
CONTINUOUS
 10
934.5530777256
 20
1228.4311699869
 11
1214.5530777256
 21
1228.4311699869
  0
LINE
  5
328
100
AcDbEntity
  8
03___PRT_ALL_CURVES
100
AcDbLine
 62
40
  6
CONTINUOUS
 10
932.8030777256
 20
1230.4311699869
 11
1216.3030777256
 21
1230.4311699869
  0
LINE
  5
329
100
AcDbEntity
  8
03___PRT_ALL_CURVES
100
AcDbLine
 62
40
  6
CONTINUOUS
 10
932.8030777256
 20
1247.6311699869
 11
1216.3030777256
 21
1247.6311699869
  0
LINE
  5
32A
100
AcDbEntity
  8
0
100
AcDbLine
 62
7
  6
CONTINUOUS
 10
1262.8530777256
 20
753.9311699869
 11
1262.8530777256
 21
748.9311699869
  0
LINE
  5
32B
100
AcDbEntity
  8
0
100
AcDbLine
 62
7
  6
CONTINUOUS
 10
1263.0530777256
 20
753.9311699869
 11
1263.0530777256
 21
763.9311699869
  0
LINE
  5
32C
100
AcDbEntity
  8
0
100
AcDbLine
 62
7
  6
CONTINUOUS
 10
934.1030777256
 20
1248.9311699869
 11
1215.0030777256
 21
1248.9311699869
  0
LINE
  5
32D
100
AcDbEntity
  8
0
100
AcDbLine
 62
7
  6
CONTINUOUS
 10
948.8670347666
 20
1249.4311699869
 11
948.5530777256
 21
1249.4311699869
  0
LINE
  5
32E
100
AcDbEntity
  8
0
100
AcDbLine
 62
7
  6
CONTINUOUS
 10
1005.1586560361
 20
1484.0967703421
 11
997.3217594313
 21
1485.7039578252
  0
ARC
  5
32F
100
AcDbEntity
  8
0
100
AcDbCircle
 62
7
  6
CONTINUOUS
 10
346.8759213759
 20
770.8077395577
 40
0.5
100
AcDbArc
 50
180.0
 51
270.0
  0
ARC
  5
330
100
AcDbEntity
  8
0
100
AcDbCircle
 62
7
  6
CONTINUOUS
 10
344.3759213759
 20
1193.0577395577
 40
0.5
100
AcDbArc
 50
90.0
 51
180.0
  0
ARC
  5
331
100
AcDbEntity
  8
0
100
AcDbCircle
 62
7
  6
CONTINUOUS
 10
344.3759213759
 20
1152.0577395577
 40
0.5
100
AcDbArc
 50
180.0
 51
270.0
  0
ARC
  5
332
100
AcDbEntity
  8
0
100
AcDbCircle
 62
7
  6
CONTINUOUS
 10
347.6759213759
 20
1248.0077395577
 40
1.3
100
AcDbArc
 50
90.0
 51
180.0
  0
ARC
  5
333
100
AcDbEntity
  8
0
100
AcDbCircle
 62
7
  6
CONTINUOUS
 10
348.3759213759
 20
1230.8077395577
 40
2.0
100
AcDbArc
 50
270.0
 51
273.9421492163
  0
ARC
  5
334
100
AcDbEntity
  8
0
100
AcDbCircle
 62
7
  6
CONTINUOUS
 10
348.3759213759
 20
1230.8077395577
 40
2.0
100
AcDbArc
 50
180.0
 51
264.0
  0
ARC
  5
335
100
AcDbEntity
  8
0
100
AcDbCircle
 62
7
  6
CONTINUOUS
 10
348.3759213759
 20
1220.8077395577
 40
2.0
100
AcDbArc
 50
104.0341889492
 51
180.0
  0
ARC
  5
336
100
AcDbEntity
  8
0
100
AcDbCircle
 62
7
  6
CONTINUOUS
 10
453.3759213759
 20
757.8077395577
 40
28.0
100
AcDbArc
 50
110.9248324276
 51
180.0
  0
ARC
  5
337
100
AcDbEntity
  8
0
100
AcDbCircle
 62
7
  6
CONTINUOUS
 10
457.8759213759
 20
765.8077395577
 40
5.0
100
AcDbArc
 50
120.1145581974
 51
180.0
  0
ARC
  5
338
100
AcDbEntity
  8
0
100
AcDbCircle
 62
7
  6
CONTINUOUS
 10
429.3759213759
 20
1248.3077395577
 40
1.5
100
AcDbArc
 50
90.0
 51
138.1090834285
  0
ARC
  5
339
100
AcDbEntity
  8
0
100
AcDbCircle
 62
7
  6
CONTINUOUS
 10
464.3759213759
 20
1248.3077395577
 40
1.5
100
AcDbArc
 50
41.8909165353
 51
90.0
  0
ARC
  5
33A
100
AcDbEntity
  8
0
100
AcDbCircle
 62
7
  6
CONTINUOUS
 10
546.3759213759
 20
-258.8172604423
 40
1037.125
100
AcDbArc
 50
85.0476960605
 51
94.9523039395
  0
ARC
  5
33B
100
AcDbEntity
  8
0
100
AcDbCircle
 62
7
  6
CONTINUOUS
 10
546.8759213759
 20
331.0687395577
 40
448.739
100
AcDbArc
 50
83.8892080266
 51
95.9886456632
  0
ARC
  5
33C
100
AcDbEntity
  8
0
100
AcDbCircle
 62
7
  6
CONTINUOUS
 10
546.8759213759
 20
403.7983391426
 40
394.0
100
AcDbArc
 50
74.7702416107
 51
105.2297583893
  0
ARC
  5
33D
100
AcDbEntity
  8
0
100
AcDbCircle
 62
7
  6
CONTINUOUS
 10
640.3759213759
 20
757.8077395577
 40
28.0
100
AcDbArc
 50
0.0
 51
69.0751675724
  0
ARC
  5
33E
100
AcDbEntity
  8
0
100
AcDbCircle
 62
7
  6
CONTINUOUS
 10
635.8759213759
 20
765.8077395577
 40
5.0
100
AcDbArc
 50
0.0
 51
72.4564576063
  0
ARC
  5
33F
100
AcDbEntity
  8
0
100
AcDbCircle
 62
7
  6
CONTINUOUS
 10
628.3759213759
 20
1248.3077395577
 40
1.5
100
AcDbArc
 50
90.0
 51
138.1090834285
  0
ARC
  5
340
100
AcDbEntity
  8
0
100
AcDbCircle
 62
7
  6
CONTINUOUS
 10
663.3759213759
 20
1248.3077395577
 40
1.5
100
AcDbArc
 50
41.8909165353
 51
90.0
  0
ARC
  5
341
100
AcDbEntity
  8
0
100
AcDbCircle
 62
7
  6
CONTINUOUS
 10
745.8759213759
 20
770.8077395577
 40
0.5
100
AcDbArc
 50
300.0
 51
360.0
  0
ARC
  5
342
100
AcDbEntity
  8
0
100
AcDbCircle
 62
7
  6
CONTINUOUS
 10
744.3759213759
 20
1230.8077395577
 40
2.0
100
AcDbArc
 50
276.0
 51
360.0
  0
ARC
  5
343
100
AcDbEntity
  8
0
100
AcDbCircle
 62
7
  6
CONTINUOUS
 10
744.3759213759
 20
1230.8077395577
 40
2.0
100
AcDbArc
 50
266.0578507837
 51
270.0
  0
ARC
  5
344
100
AcDbEntity
  8
0
100
AcDbCircle
 62
7
  6
CONTINUOUS
 10
744.3759213759
 20
1220.8077395577
 40
2.0
100
AcDbArc
 50
0.0
 51
77.1428571429
  0
ARC
  5
345
100
AcDbEntity
  8
0
100
AcDbCircle
 62
7
  6
CONTINUOUS
 10
745.0759213759
 20
1248.0077395577
 40
1.3
100
AcDbArc
 50
0.0
 51
90.0
  0
ARC
  5
346
100
AcDbEntity
  8
0
100
AcDbCircle
 62
7
  6
CONTINUOUS
 10
748.3759213759
 20
1152.0577395577
 40
0.5
100
AcDbArc
 50
270.0
 51
360.0
  0
ARC
  5
347
100
AcDbEntity
  8
0
100
AcDbCircle
 62
7
  6
CONTINUOUS
 10
748.3759213759
 20
1193.0577395577
 40
0.5
100
AcDbArc
 50
0.0
 51
90.0
  0
ARC
  5
348
100
AcDbEntity
  8
0
100
AcDbCircle
 62
7
  6
CONTINUOUS
 10
386.3759213759
 20
315.1786786787
 40
40.0
100
AcDbArc
 50
180.0
 51
270.0
  0
ARC
  5
349
100
AcDbEntity
  8
03___PRT_ALL_CURVES
100
AcDbCircle
 62
40
  6
CONTINUOUS
 10
386.3759213759
 20
315.1786786787
 40
40.0
100
AcDbArc
 50
180.0
 51
270.0
  0
ARC
  5
34A
100
AcDbEntity
  8
0
100
AcDbCircle
 62
7
  6
CONTINUOUS
 10
386.3759213759
 20
315.1786786787
 40
27.0
100
AcDbArc
 50
180.0
 51
270.0
  0
ARC
  5
34B
100
AcDbEntity
  8
0
100
AcDbCircle
 62
7
  6
CONTINUOUS
 10
385.8759213759
 20
316.6286786787
 40
26.0
100
AcDbArc
 50
180.0
 51
270.0
  0
ARC
  5
34C
100
AcDbEntity
  8
0
100
AcDbCircle
 62
7
  6
CONTINUOUS
 10
382.8759213759
 20
319.9286786787
 40
25.0
100
AcDbArc
 50
202.8462482897
 51
213.9199813249
  0
ARC
  5
34D
100
AcDbEntity
  8
0
100
AcDbCircle
 62
7
  6
CONTINUOUS
 10
406.1259213759
 20
344.3786786787
 40
21.0
100
AcDbArc
 50
180.0
 51
270.0
  0
ARC
  5
34E
100
AcDbEntity
  8
0
100
AcDbCircle
 62
7
  6
CONTINUOUS
 10
405.8759213759
 20
344.1286786787
 40
21.0
100
AcDbArc
 50
180.0
 51
270.0
  0
ARC
  5
34F
100
AcDbEntity
  8
0
100
AcDbCircle
 62
7
  6
CONTINUOUS
 10
344.3759213759
 20
370.4286786787
 40
0.5
100
AcDbArc
 50
180.0
 51
270.0
  0
ARC
  5
350
100
AcDbEntity
  8
0
100
AcDbCircle
 62
7
  6
CONTINUOUS
 10
386.3759213759
 20
518.6786786787
 40
40.0
100
AcDbArc
 50
90.0
 51
180.0
  0
ARC
  5
351
100
AcDbEntity
  8
03___PRT_ALL_CURVES
100
AcDbCircle
 62
40
  6
CONTINUOUS
 10
386.3759213759
 20
518.6786786787
 40
40.0
100
AcDbArc
 50
90.0
 51
180.0
  0
ARC
  5
352
100
AcDbEntity
  8
0
100
AcDbCircle
 62
7
  6
CONTINUOUS
 10
386.3759213759
 20
518.6786786787
 40
27.0
100
AcDbArc
 50
90.0
 51
180.0
  0
ARC
  5
353
100
AcDbEntity
  8
0
100
AcDbCircle
 62
7
  6
CONTINUOUS
 10
385.8759213759
 20
516.6286786787
 40
26.0
100
AcDbArc
 50
90.0
 51
180.0
  0
ARC
  5
354
100
AcDbEntity
  8
0
100
AcDbCircle
 62
7
  6
CONTINUOUS
 10
382.8759213759
 20
494.9286786787
 40
25.0
100
AcDbArc
 50
157.00651533
 51
160.4007026521
  0
ARC
  5
355
100
AcDbEntity
  8
0
100
AcDbCircle
 62
7
  6
CONTINUOUS
 10
406.1259213759
 20
501.8786786787
 40
21.0
100
AcDbArc
 50
90.0
 51
180.0
  0
ARC
  5
356
100
AcDbEntity
  8
0
100
AcDbCircle
 62
7
  6
CONTINUOUS
 10
405.8759213759
 20
502.1286786787
 40
21.0
100
AcDbArc
 50
90.0
 51
180.0
  0
ARC
  5
357
100
AcDbEntity
  8
0
100
AcDbCircle
 62
7
  6
CONTINUOUS
 10
344.3759213759
 20
463.4286786787
 40
0.5
100
AcDbArc
 50
90.0
 51
180.0
  0
ARC
  5
358
100
AcDbEntity
  8
0
100
AcDbCircle
 62
7
  6
CONTINUOUS
 10
481.3759213759
 20
254.4286786787
 40
26.0
100
AcDbArc
 50
180.0
 51
270.0
  0
ARC
  5
359
100
AcDbEntity
  8
0
100
AcDbCircle
 62
7
  6
CONTINUOUS
 10
457.3759213759
 20
268.4286786787
 40
2.0
100
AcDbArc
 50
90.0
 51
180.0
  0
ARC
  5
35A
100
AcDbEntity
  8
0
100
AcDbCircle
 62
7
  6
CONTINUOUS
 10
429.3759213759
 20
544.4286786787
 40
1.5
100
AcDbArc
 50
123.4694179989
 51
180.0
  0
ARC
  5
35B
100
AcDbEntity
  8
0
100
AcDbCircle
 62
7
  6
CONTINUOUS
 10
464.3759213759
 20
544.4286786787
 40
1.5
100
AcDbArc
 50
0.0
 51
56.5305820011
  0
ARC
  5
35C
100
AcDbEntity
  8
0
100
AcDbCircle
 62
7
  6
CONTINUOUS
 10
611.3759213759
 20
254.4286786787
 40
26.0
100
AcDbArc
 50
270.0
 51
360.0
  0
ARC
  5
35D
100
AcDbEntity
  8
0
100
AcDbCircle
 62
7
  6
CONTINUOUS
 10
635.3759213759
 20
268.4286786787
 40
2.0
100
AcDbArc
 50
0.0
 51
90.0
  0
ARC
  5
35E
100
AcDbEntity
  8
0
100
AcDbCircle
 62
7
  6
CONTINUOUS
 10
628.3759213759
 20
544.4286786787
 40
1.5
100
AcDbArc
 50
123.4694179989
 51
180.0
  0
ARC
  5
35F
100
AcDbEntity
  8
0
100
AcDbCircle
 62
7
  6
CONTINUOUS
 10
663.3759213759
 20
544.4286786787
 40
1.5
100
AcDbArc
 50
0.0
 51
56.5305820011
  0
ARC
  5
360
100
AcDbEntity
  8
0
100
AcDbCircle
 62
7
  6
CONTINUOUS
 10
706.3759213759
 20
315.1786786787
 40
40.0
100
AcDbArc
 50
270.0
 51
360.0
  0
ARC
  5
361
100
AcDbEntity
  8
03___PRT_ALL_CURVES
100
AcDbCircle
 62
40
  6
CONTINUOUS
 10
706.3759213759
 20
315.1786786787
 40
40.0
100
AcDbArc
 50
270.0
 51
360.0
  0
ARC
  5
362
100
AcDbEntity
  8
0
100
AcDbCircle
 62
7
  6
CONTINUOUS
 10
706.3759213759
 20
315.1786786787
 40
27.0
100
AcDbArc
 50
270.0
 51
360.0
  0
ARC
  5
363
100
AcDbEntity
  8
0
100
AcDbCircle
 62
7
  6
CONTINUOUS
 10
706.8759213759
 20
316.6286786787
 40
26.0
100
AcDbArc
 50
270.0
 51
360.0
  0
ARC
  5
364
100
AcDbEntity
  8
0
100
AcDbCircle
 62
7
  6
CONTINUOUS
 10
710.8759213759
 20
319.9286786787
 40
25.0
100
AcDbArc
 50
314.5956254087
 51
327.5190499782
  0
ARC
  5
365
100
AcDbEntity
  8
0
100
AcDbCircle
 62
7
  6
CONTINUOUS
 10
686.6259213759
 20
344.3786786787
 40
21.0
100
AcDbArc
 50
270.0
 51
360.0
  0
ARC
  5
366
100
AcDbEntity
  8
0
100
AcDbCircle
 62
7
  6
CONTINUOUS
 10
686.8759213759
 20
344.1286786787
 40
21.0
100
AcDbArc
 50
270.0
 51
360.0
  0
ARC
  5
367
100
AcDbEntity
  8
0
100
AcDbCircle
 62
7
  6
CONTINUOUS
 10
748.3759213759
 20
370.4286786787
 40
0.5
100
AcDbArc
 50
270.0
 51
360.0
  0
ARC
  5
368
100
AcDbEntity
  8
0
100
AcDbCircle
 62
7
  6
CONTINUOUS
 10
706.3759213759
 20
518.6786786787
 40
40.0
100
AcDbArc
 50
0.0
 51
90.0
  0
ARC
  5
369
100
AcDbEntity
  8
03___PRT_ALL_CURVES
100
AcDbCircle
 62
40
  6
CONTINUOUS
 10
706.3759213759
 20
518.6786786787
 40
40.0
100
AcDbArc
 50
0.0
 51
90.0
  0
ARC
  5
36A
100
AcDbEntity
  8
0
100
AcDbCircle
 62
7
  6
CONTINUOUS
 10
706.3759213759
 20
518.6786786787
 40
27.0
100
AcDbArc
 50
0.0
 51
90.0
  0
ARC
  5
36B
100
AcDbEntity
  8
0
100
AcDbCircle
 62
7
  6
CONTINUOUS
 10
706.8759213759
 20
516.6286786787
 40
26.0
100
AcDbArc
 50
0.0
 51
90.0
  0
ARC
  5
36C
100
AcDbEntity
  8
0
100
AcDbCircle
 62
7
  6
CONTINUOUS
 10
710.8759213759
 20
494.9286786787
 40
25.0
100
AcDbArc
 50
25.6026655846
 51
28.1990374518
  0
ARC
  5
36D
100
AcDbEntity
  8
0
100
AcDbCircle
 62
7
  6
CONTINUOUS
 10
686.6259213759
 20
501.8786786787
 40
21.0
100
AcDbArc
 50
0.0
 51
90.0
  0
ARC
  5
36E
100
AcDbEntity
  8
0
100
AcDbCircle
 62
7
  6
CONTINUOUS
 10
686.8759213759
 20
502.1286786787
 40
21.0
100
AcDbArc
 50
0.0
 51
90.0
  0
ARC
  5
36F
100
AcDbEntity
  8
0
100
AcDbCircle
 62
7
  6
CONTINUOUS
 10
748.3759213759
 20
463.4286786787
 40
0.5
100
AcDbArc
 50
0.0
 51
90.0
  0
ARC
  5
370
100
AcDbEntity
  8
0
100
AcDbCircle
 62
7
  6
CONTINUOUS
 10
546.3759213759
 20
1309.0151262652
 40
1042.5654939189
100
AcDbArc
 50
265.065938118
 51
274.934061882
  0
ARC
  5
371
100
AcDbEntity
  8
03___PRT_ALL_CURVES
100
AcDbCircle
 62
40
  6
CONTINUOUS
 10
546.3759213759
 20
1309.0151262652
 40
1042.5654939189
100
AcDbArc
 50
264.9925839309
 51
275.0074160691
  0
ARC
  5
372
100
AcDbEntity
  8
0
100
AcDbCircle
 62
7
  6
CONTINUOUS
 10
933.3030777256
 20
770.4311699869
 40
0.5
100
AcDbArc
 50
180.0
 51
270.0
  0
ARC
  5
373
100
AcDbEntity
  8
0
100
AcDbCircle
 62
7
  6
CONTINUOUS
 10
948.5530777256
 20
1246.4311699869
 40
3.0
100
AcDbArc
 50
90.0
 51
123.5422083739
  0
ARC
  5
374
100
AcDbEntity
  8
0
100
AcDbCircle
 62
7
  6
CONTINUOUS
 10
934.8030777256
 20
1230.4311699869
 40
2.0
100
AcDbArc
 50
180.0
 51
270.0
  0
ARC
  5
375
100
AcDbEntity
  8
0
100
AcDbCircle
 62
7
  6
CONTINUOUS
 10
934.8030777256
 20
1220.4311699869
 40
2.0
100
AcDbArc
 50
90.0
 51
180.0
  0
ARC
  5
376
100
AcDbEntity
  8
0
100
AcDbCircle
 62
7
  6
CONTINUOUS
 10
934.1030777256
 20
1247.6311699869
 40
1.3
100
AcDbArc
 50
90.0
 51
180.0
  0
ARC
  5
377
100
AcDbEntity
  8
0
100
AcDbCircle
 62
7
  6
CONTINUOUS
 10
1035.0530777256
 20
1185.6811699869
 40
7.5
100
AcDbArc
 50
89.9999999998
 51
180.0000000003
  0
ARC
  5
378
100
AcDbEntity
  8
0
100
AcDbCircle
 62
7
  6
CONTINUOUS
 10
1035.0530777256
 20
1158.6811699869
 40
7.5
100
AcDbArc
 50
180.0
 51
270.0
  0
ARC
  5
379
100
AcDbEntity
  8
0
100
AcDbCircle
 62
7
  6
CONTINUOUS
 10
1037.3030777256
 20
1161.6811699869
 40
2.0
100
AcDbArc
 50
180.0
 51
270.0
  0
ARC
  5
37A
100
AcDbEntity
  8
0
100
AcDbCircle
 62
7
  6
CONTINUOUS
 10
1037.3030777256
 20
1182.6811699869
 40
2.0
100
AcDbArc
 50
90.0
 51
180.0
  0
ARC
  5
37B
100
AcDbEntity
  8
0
100
AcDbCircle
 62
7
  6
CONTINUOUS
 10
1219.0997534224
 20
674.1085376346
 40
100.0
100
AcDbArc
 50
63.9258959977
 51
86.5869783294
  0
ARC
  5
37C
100
AcDbEntity
  8
0
100
AcDbCircle
 62
7
  6
CONTINUOUS
 10
1242.1832510736
 20
781.1820804864
 40
22.2302483257
100
AcDbArc
 50
198.687182351
 51
198.945130727
  0
ARC
  5
37D
100
AcDbEntity
  8
0
100
AcDbCircle
 62
7
  6
CONTINUOUS
 10
1216.0108691564
 20
770.1001699869
 40
9.801
100
AcDbArc
 50
23.0091721504
 51
53.034712008
  0
ARC
  5
37E
100
AcDbEntity
  8
0
100
AcDbCircle
 62
7
  6
CONTINUOUS
 10
1215.8030777256
 20
770.4311699869
 40
0.5
100
AcDbArc
 50
270.0
 51
360.0
  0
ARC
  5
37F
100
AcDbEntity
  8
0
100
AcDbCircle
 62
7
  6
CONTINUOUS
 10
1114.0530777256
 20
1158.6811699869
 40
7.5
100
AcDbArc
 50
270.0
 51
360.0
  0
ARC
  5
380
100
AcDbEntity
  8
0
100
AcDbCircle
 62
7
  6
CONTINUOUS
 10
1114.0530777256
 20
1185.6811699869
 40
7.5
100
AcDbArc
 50
0.0
 51
90.0
  0
ARC
  5
381
100
AcDbEntity
  8
0
100
AcDbCircle
 62
7
  6
CONTINUOUS
 10
1111.8030777256
 20
1182.6811699869
 40
2.0
100
AcDbArc
 50
0.0
 51
90.0
  0
ARC
  5
382
100
AcDbEntity
  8
0
100
AcDbCircle
 62
7
  6
CONTINUOUS
 10
1111.8030777256
 20
1161.6811699869
 40
2.0
100
AcDbArc
 50
270.0
 51
360.0
  0
ARC
  5
383
100
AcDbEntity
  8
0
100
AcDbCircle
 62
7
  6
CONTINUOUS
 10
1214.3030777256
 20
1230.4311699869
 40
2.0
100
AcDbArc
 50
270.0
 51
360.0
  0
ARC
  5
384
100
AcDbEntity
  8
0
100
AcDbCircle
 62
7
  6
CONTINUOUS
 10
1214.3030777256
 20
1220.4311699869
 40
2.0
100
AcDbArc
 50
0.0
 51
90.0
  0
ARC
  5
385
100
AcDbEntity
  8
0
100
AcDbCircle
 62
7
  6
CONTINUOUS
 10
1215.0030777256
 20
1247.6311699869
 40
1.3
100
AcDbArc
 50
0.0
 51
90.0
  0
SPLINE
  5
386
100
AcDbEntity
  8
0
100
AcDbSpline
 62
7
  6
CONTINUOUS
 70
0
 71
3
 72
8
 73
4
 74
0
 42
0.0000001
 43
0.0000001
 44
0.0000000001
 40
0.0
 40
0.0
 40
0.0
 40
0.0
 40
1.0
 40
1.0
 40
1.0
 40
1.0
 10
456.8446256853
 20
774.4360544409
 30
0.0
 10
456.7957814004
 20
774.3961910069
 30
0.0
 10
456.7494319306
 20
774.3531229057
 30
0.0
 10
456.7056688269
 20
774.3077395577
 30
0.0
  0
SPLINE
  5
387
100
AcDbEntity
  8
0
100
AcDbSpline
 62
7
  6
CONTINUOUS
 70
0
 71
3
 72
8
 73
4
 74
0
 42
0.0000001
 43
0.0000001
 44
0.0000000001
 40
0.0
 40
0.0
 40
0.0
 40
0.0
 40
1.0
 40
1.0
 40
1.0
 40
1.0
 10
636.046173925
 20
774.3077395577
 30
0.0
 10
636.0024108212
 20
774.3531229057
 30
0.0
 10
635.9560613514
 20
774.3961910069
 30
0.0
 10
635.9072170666
 20
774.4360544409
 30
0.0
  0
SPLINE
  5
388
100
AcDbEntity
  8
0
100
AcDbSpline
 62
7
  6
CONTINUOUS
 70
0
 71
3
 72
14
 73
10
 74
0
 42
0.0000001
 43
0.0000001
 44
0.0000000001
 40
0.0
 40
0.0
 40
0.0
 40
0.0
 40
0.3603128327
 40
0.6687377344
 40
0.7918062044
 40
0.8891475879
 40
0.9273164125
 40
0.9582529665
 40
1.0
 40
1.0
 40
1.0
 40
1.0
 10
611.3759213759
 20
764.3077395577
 30
0.0
 10
614.7668071155
 20
764.3077395577
 30
0.0
 10
621.0745672112
 20
764.9166353486
 30
0.0
 10
628.2889825071
 20
766.9411263263
 30
0.0
 10
632.8480125433
 20
768.9572915178
 30
0.0
 10
634.9634040225
 20
770.16662535
 30
0.0
 10
636.2187519896
 20
771.1216455754
 30
0.0
 10
636.9569075538
 20
771.8333499358
 30
0.0
 10
637.3759213759
 20
772.4674187033
 30
0.0
 10
637.3759213759
 20
772.8602979116
 30
0.0
  0
SPLINE
  5
389
100
AcDbEntity
  8
0
100
AcDbSpline
 62
7
  6
CONTINUOUS
 70
0
 71
3
 72
14
 73
10
 74
0
 42
0.0000001
 43
0.0000001
 44
0.0000000001
 40
0.0
 40
0.0
 40
0.0
 40
0.0
 40
0.0417470377
 40
0.0726835967
 40
0.1108524258
 40
0.2081938245
 40
0.3312623131
 40
0.6396872237
 40
1.0
 40
1.0
 40
1.0
 40
1.0
 10
455.3759213759
 20
772.8602979116
 30
0.0
 10
455.3759213759
 20
772.4674186633
 30
0.0
 10
455.7949352844
 20
771.8333498301
 30
0.0
 10
456.5330909472
 20
771.1216453945
 30
0.0
 10
457.7884391496
 20
770.1666250881
 30
0.0
 10
459.9038309571
 20
768.9572911105
 30
0.0
 10
464.4628614391
 20
766.9411259177
 30
0.0
 10
471.6772765176
 20
764.9166351866
 30
0.0
 10
477.9850361666
 20
764.3077395577
 30
0.0
 10
481.3759213759
 20
764.3077395577
 30
0.0
  0
SPLINE
  5
38A
100
AcDbEntity
  8
03___PRT_ALL_CURVES
100
AcDbSpline
 62
40
  6
CONTINUOUS
 70
0
 71
3
 72
8
 73
4
 74
0
 42
0.0000001
 43
0.0000001
 44
0.0000000001
 40
0.0
 40
0.0
 40
0.0
 40
0.0
 40
1.0
 40
1.0
 40
1.0
 40
1.0
 10
530.932764099
 20
1192.6932834483
 30
0.0
 10
530.8006083596
 20
1192.6932834483
 30
0.0
 10
530.6523333265
 20
1192.8413862267
 30
0.0
 10
530.6523333265
 20
1192.973541966
 30
0.0
  0
SPLINE
  5
38B
100
AcDbEntity
  8
03___PRT_ALL_CURVES
100
AcDbSpline
 62
40
  6
CONTINUOUS
 70
0
 71
3
 72
8
 73
4
 74
0
 42
0.0000001
 43
0.0000001
 44
0.0000000001
 40
0.0
 40
0.0
 40
0.0
 40
0.0
 40
1.0
 40
1.0
 40
1.0
 40
1.0
 10
550.8226783735
 20
1192.6932834483
 30
0.0
 10
550.6540413503
 20
1192.6932834483
 30
0.0
 10
550.481431401
 20
1192.8091864315
 30
0.0
 10
550.3854957564
 20
1192.9478760047
 30
0.0
  0
SPLINE
  5
38C
100
AcDbEntity
  8
03___PRT_ALL_CURVES
100
AcDbSpline
 62
40
  6
CONTINUOUS
 70
0
 71
3
 72
8
 73
4
 74
0
 42
0.0000001
 43
0.0000001
 44
0.0000000001
 40
0.0
 40
0.0
 40
0.0
 40
0.0
 40
1.0
 40
1.0
 40
1.0
 40
1.0
 10
529.9195615168
 20
1195.7075697431
 30
0.0
 10
529.7876897645
 20
1195.7075697431
 30
0.0
 10
529.639302999
 20
1195.85492298
 30
0.0
 10
529.639302999
 20
1195.9867947322
 30
0.0
  0
SPLINE
  5
38D
100
AcDbEntity
  8
03___PRT_ALL_CURVES
100
AcDbSpline
 62
40
  6
CONTINUOUS
 70
0
 71
3
 72
8
 73
4
 74
0
 42
0.0000001
 43
0.0000001
 44
0.0000000001
 40
0.0
 40
0.0
 40
0.0
 40
0.0
 40
1.0
 40
1.0
 40
1.0
 40
1.0
 10
556.5701311715
 20
1192.6932834483
 30
0.0
 10
556.4382188873
 20
1192.6932834483
 30
0.0
 10
556.2907339277
 20
1192.8416296818
 30
0.0
 10
556.2907339277
 20
1192.973541966
 30
0.0
  0
SPLINE
  5
38E
100
AcDbEntity
  8
03___PRT_ALL_CURVES
100
AcDbSpline
 62
40
  6
CONTINUOUS
 70
0
 71
3
 72
8
 73
4
 74
0
 42
0.0000001
 43
0.0000001
 44
0.0000000001
 40
0.0
 40
0.0
 40
0.0
 40
0.0
 40
1.0
 40
1.0
 40
1.0
 40
1.0
 10
558.9889327117
 20
1192.6932834483
 30
0.0
 10
558.8201964427
 20
1192.6932834483
 30
0.0
 10
558.6476551638
 20
1192.8092832665
 30
0.0
 10
558.5514055851
 20
1192.9478760047
 30
0.0
  0
SPLINE
  5
38F
100
AcDbEntity
  8
03___PRT_ALL_CURVES
100
AcDbSpline
 62
40
  6
CONTINUOUS
 70
0
 71
3
 72
8
 73
4
 74
0
 42
0.0000001
 43
0.0000001
 44
0.0000000001
 40
0.0
 40
0.0
 40
0.0
 40
0.0
 40
1.0
 40
1.0
 40
1.0
 40
1.0
 10
534.0535038443
 20
1196.3635159235
 30
0.0
 10
534.6125418758
 20
1196.3635159235
 30
0.0
 10
535.2544641304
 20
1195.7519105091
 30
0.0
 10
535.2544641304
 20
1195.1928724776
 30
0.0
  0
SPLINE
  5
390
100
AcDbEntity
  8
03___PRT_ALL_CURVES
100
AcDbSpline
 62
40
  6
CONTINUOUS
 70
0
 71
3
 72
8
 73
4
 74
0
 42
0.0000001
 43
0.0000001
 44
0.0000000001
 40
0.0
 40
0.0
 40
0.0
 40
0.0
 40
1.0
 40
1.0
 40
1.0
 40
1.0
 10
533.1067916049
 20
1192.6932834483
 30
0.0
 10
532.974798219
 20
1192.6932834483
 30
0.0
 10
532.8270498515
 20
1192.8415485801
 30
0.0
 10
532.8270498515
 20
1192.973541966
 30
0.0
  0
SPLINE
  5
391
100
AcDbEntity
  8
03___PRT_ALL_CURVES
100
AcDbSpline
 62
40
  6
CONTINUOUS
 70
0
 71
3
 72
8
 73
4
 74
0
 42
0.0000001
 43
0.0000001
 44
0.0000000001
 40
0.0
 40
0.0
 40
0.0
 40
0.0
 40
1.0
 40
1.0
 40
1.0
 40
1.0
 10
534.9233904543
 20
1192.6932834483
 30
0.0
 10
534.7872626987
 20
1192.6932834483
 30
0.0
 10
534.6332758976
 20
1192.780417303
 30
0.0
 10
534.5725074791
 20
1192.9022284895
 30
0.0
  0
SPLINE
  5
392
100
AcDbEntity
  8
03___PRT_ALL_CURVES
100
AcDbSpline
 62
40
  6
CONTINUOUS
 70
0
 71
3
 72
8
 73
4
 74
0
 42
0.0000001
 43
0.0000001
 44
0.0000000001
 40
0.0
 40
0.0
 40
0.0
 40
0.0
 40
1.0
 40
1.0
 40
1.0
 40
1.0
 10
535.2544641304
 20
1195.1928724776
 30
0.0
 10
535.2544641304
 20
1194.7968022406
 30
0.0
 10
534.9898573412
 20
1194.3526740455
 30
0.0
 10
534.6334856692
 20
1194.1798421502
 30
0.0
  0
SPLINE
  5
393
100
AcDbEntity
  8
03___PRT_ALL_CURVES
100
AcDbSpline
 62
40
  6
CONTINUOUS
 70
0
 71
3
 72
8
 73
4
 74
0
 42
0.0000001
 43
0.0000001
 44
0.0000000001
 40
0.0
 40
0.0
 40
0.0
 40
0.0
 40
1.0
 40
1.0
 40
1.0
 40
1.0
 10
543.2322717456
 20
1192.6932834483
 30
0.0
 10
543.0900010967
 20
1192.6932834483
 30
0.0
 10
542.9199171175
 20
1192.8218056069
 30
0.0
 10
542.9013703243
 20
1192.96286217
 30
0.0
  0
SPLINE
  5
394
100
AcDbEntity
  8
03___PRT_ALL_CURVES
100
AcDbSpline
 62
40
  6
CONTINUOUS
 70
0
 71
3
 72
8
 73
4
 74
0
 42
0.0000001
 43
0.0000001
 44
0.0000000001
 40
0.0
 40
0.0
 40
0.0
 40
0.0
 40
1.0
 40
1.0
 40
1.0
 40
1.0
 10
552.9458907211
 20
1192.6932834483
 30
0.0
 10
552.8138161834
 20
1192.6932834483
 30
0.0
 10
552.6658044581
 20
1192.8414674284
 30
0.0
 10
552.6658044581
 20
1192.973541966
 30
0.0
  0
SPLINE
  5
395
100
AcDbEntity
  8
03___PRT_ALL_CURVES
100
AcDbSpline
 62
40
  6
CONTINUOUS
 70
0
 71
3
 72
8
 73
4
 74
0
 42
0.0000001
 43
0.0000001
 44
0.0000000001
 40
0.0
 40
0.0
 40
0.0
 40
0.0
 40
1.0
 40
1.0
 40
1.0
 40
1.0
 10
541.4502961059
 20
1192.9986911631
 30
0.0
 10
541.302248007
 20
1192.9986911631
 30
0.0
 10
541.1489884651
 20
1193.1264769457
 30
0.0
 10
541.0940732327
 20
1193.2639635154
 30
0.0
  0
SPLINE
  5
396
100
AcDbEntity
  8
03___PRT_ALL_CURVES
100
AcDbSpline
 62
40
  6
CONTINUOUS
 70
0
 71
3
 72
9
 73
5
 74
0
 42
0.0000001
 43
0.0000001
 44
0.0000000001
 40
0.0
 40
0.0
 40
0.0
 40
0.0
 40
0.500045897
 40
1.0
 40
1.0
 40
1.0
 40
1.0
 10
566.3759064512
 20
1197.0563246256
 30
0.0
 10
566.3759064512
 20
1197.5095552449
 30
0.0
 10
566.0676308747
 20
1198.4992987691
 30
0.0
 10
565.0779118354
 20
1198.8074666607
 30
0.0
 10
564.6247644161
 20
1198.8074666607
 30
0.0
  0
SPLINE
  5
397
100
AcDbEntity
  8
03___PRT_ALL_CURVES
100
AcDbSpline
 62
40
  6
CONTINUOUS
 70
0
 71
3
 72
9
 73
5
 74
0
 42
0.0000001
 43
0.0000001
 44
0.0000000001
 40
0.0
 40
0.0
 40
0.0
 40
0.0
 40
0.4998776251
 40
1.0
 40
1.0
 40
1.0
 40
1.0
 10
564.6247644161
 20
1190.6677395577
 30
0.0
 10
565.0778739522
 20
1190.6677395577
 30
0.0
 10
566.067848379
 20
1190.975510359
 30
0.0
 10
566.3759064512
 20
1191.9655502055
 30
0.0
 10
566.3759064512
 20
1192.4188815929
 30
0.0
  0
SPLINE
  5
398
100
AcDbEntity
  8
03___PRT_ALL_CURVES
100
AcDbSpline
 62
40
  6
CONTINUOUS
 70
0
 71
3
 72
9
 73
5
 74
0
 42
0.0000001
 43
0.0000001
 44
0.0000000001
 40
0.0
 40
0.0
 40
0.0
 40
0.0
 40
0.5001223749
 40
1.0
 40
1.0
 40
1.0
 40
1.0
 10
526.3759363006
 20
1192.4188815929
 30
0.0
 10
526.3759363006
 20
1191.9655502055
 30
0.0
 10
526.6839943728
 20
1190.975510359
 30
0.0
 10
527.6739687996
 20
1190.6677395577
 30
0.0
 10
528.1270783358
 20
1190.6677395577
 30
0.0
  0
SPLINE
  5
399
100
AcDbEntity
  8
03___PRT_ALL_CURVES
100
AcDbSpline
 62
40
  6
CONTINUOUS
 70
0
 71
3
 72
9
 73
5
 74
0
 42
0.0000001
 43
0.0000001
 44
0.0000000001
 40
0.0
 40
0.0
 40
0.0
 40
0.0
 40
0.499954103
 40
1.0
 40
1.0
 40
1.0
 40
1.0
 10
528.1270783358
 20
1198.8074666607
 30
0.0
 10
527.6739309165
 20
1198.8074666607
 30
0.0
 10
526.6842118772
 20
1198.4992987691
 30
0.0
 10
526.3759363006
 20
1197.5095552449
 30
0.0
 10
526.3759363006
 20
1197.0563246256
 30
0.0
  0
SPLINE
  5
39A
100
AcDbEntity
  8
03___PRT_ALL_CURVES
100
AcDbSpline
 62
40
  6
CONTINUOUS
 70
0
 71
3
 72
11
 73
7
 74
0
 42
0.0000001
 43
0.0000001
 44
0.0000000001
 40
0.0
 40
0.0
 40
0.0
 40
0.0
 40
0.2309965955
 40
0.4975337917
 40
0.768780919
 40
1.0
 40
1.0
 40
1.0
 40
1.0
 10
533.9928701637
 20
1194.6731798237
 30
0.0
 10
534.1231453856
 20
1194.6731798237
 30
0.0
 10
534.4308637134
 20
1194.7391865095
 30
0.0
 10
534.6095711283
 20
1195.2004106415
 30
0.0
 10
534.4335461866
 20
1195.6644179133
 30
0.0
 10
534.1232708608
 20
1195.7328911949
 30
0.0
 10
533.9928701637
 20
1195.7328911949
 30
0.0
  0
SPLINE
  5
39B
100
AcDbEntity
  8
03___PRT_ALL_CURVES
100
AcDbSpline
 62
40
  6
CONTINUOUS
 70
0
 71
3
 72
11
 73
7
 74
0
 42
0.0000001
 43
0.0000001
 44
0.0000000001
 40
0.0
 40
0.0
 40
0.0
 40
0.0
 40
0.2497070694
 40
0.4998047129
 40
0.7499023565
 40
1.0
 40
1.0
 40
1.0
 40
1.0
 10
546.9128388575
 20
1194.5272002795
 30
0.0
 10
546.912504918
 20
1194.8405901569
 30
0.0
 10
546.6617437128
 20
1195.468929791
 30
0.0
 10
545.7567301277
 20
1195.8649750337
 30
0.0
 10
544.8549913044
 20
1195.4687235174
 30
0.0
 10
544.60680829
 20
1194.839607898
 30
0.0
 10
544.6068648442
 20
1194.5257297369
 30
0.0
  0
SPLINE
  5
39C
100
AcDbEntity
  8
03___PRT_ALL_CURVES
100
AcDbSpline
 62
40
  6
CONTINUOUS
 70
0
 71
3
 72
8
 73
4
 74
0
 42
0.0000001
 43
0.0000001
 44
0.0000000001
 40
0.0
 40
0.0
 40
0.0
 40
0.0
 40
1.0
 40
1.0
 40
1.0
 40
1.0
 10
551.9330326484
 20
1195.7075697431
 30
0.0
 10
551.8010388129
 20
1195.7075697431
 30
0.0
 10
551.6522573664
 20
1195.8548008967
 30
0.0
 10
551.6522573664
 20
1195.9867947322
 30
0.0
  0
SPLINE
  5
39D
100
AcDbEntity
  8
03___PRT_ALL_CURVES
100
AcDbSpline
 62
40
  6
CONTINUOUS
 70
0
 71
3
 72
11
 73
7
 74
0
 42
0.0000001
 43
0.0000001
 44
0.0000000001
 40
0.0
 40
0.0
 40
0.0
 40
0.0
 40
0.2499023565
 40
0.4998047129
 40
0.7497070694
 40
1.0
 40
1.0
 40
1.0
 40
1.0
 10
544.6068648442
 20
1194.5257297369
 30
0.0
 10
544.6069213543
 20
1194.2120966655
 30
0.0
 10
544.8549428945
 20
1193.586187698
 30
0.0
 10
545.7567299658
 20
1193.1943187096
 30
0.0
 10
546.6627358868
 20
1193.5863918483
 30
0.0
 10
546.9131735806
 20
1194.2130751287
 30
0.0
 10
546.9128388575
 20
1194.5272002795
 30
0.0
  0
SPLINE
  5
39E
100
AcDbEntity
  8
03___PRT_ALL_CURVES
100
AcDbSpline
 62
40
  6
CONTINUOUS
 70
0
 71
3
 72
11
 73
7
 74
0
 42
0.0000001
 43
0.0000001
 44
0.0000000001
 40
0.0
 40
0.0
 40
0.0
 40
0.0
 40
0.24704601
 40
0.498830251
 40
0.7494151255
 40
1.0
 40
1.0
 40
1.0
 40
1.0
 10
547.656797505
 20
1194.5029812769
 30
0.0
 10
547.64977028
 20
1194.0119133591
 30
0.0
 10
547.2307097322
 20
1193.0316724829
 30
0.0
 10
545.7470829853
 20
1192.4210005504
 30
0.0
 10
544.270237028
 20
1193.0391233853
 30
0.0
 10
543.8619650991
 20
1194.0235727282
 30
0.0
 10
543.8635854933
 20
1194.5215956223
 30
0.0
  0
SPLINE
  5
39F
100
AcDbEntity
  8
03___PRT_ALL_CURVES
100
AcDbSpline
 62
40
  6
CONTINUOUS
 70
0
 71
3
 72
12
 73
8
 74
0
 42
0.0000001
 43
0.0000001
 44
0.0000000001
 40
0.0
 40
0.0
 40
0.0
 40
0.0
 40
0.2495324897
 40
0.4990649793
 40
0.7471633742
 40
0.9952617691
 40
1.0
 40
1.0
 40
1.0
 40
1.0
 10
543.8635854933
 20
1194.5215956223
 30
0.0
 10
543.8651990823
 20
1195.0175269626
 30
0.0
 10
544.2764897639
 20
1196.0208888895
 30
0.0
 10
545.765650433
 20
1196.6354744813
 30
0.0
 10
547.2480986971
 20
1196.0172931633
 30
0.0
 10
547.6601883363
 20
1195.0150879855
 30
0.0
 10
547.656932284
 20
1194.5123997379
 30
0.0
 10
547.656797505
 20
1194.5029812769
 30
0.0
  0
SPLINE
  5
3A0
100
AcDbEntity
  8
03___PRT_ALL_CURVES
100
AcDbSpline
 62
40
  6
CONTINUOUS
 70
0
 71
3
 72
8
 73
4
 74
0
 42
0.0000001
 43
0.0000001
 44
0.0000000001
 40
0.0
 40
0.0
 40
0.0
 40
0.0
 40
1.0
 40
1.0
 40
1.0
 40
1.0
 10
562.796452242
 20
1192.6932834483
 30
0.0
 10
562.6584863592
 20
1192.6932834483
 30
0.0
 10
562.5134968954
 20
1192.8133701568
 30
0.0
 10
562.4664120946
 20
1192.943052871
 30
0.0
  0
SPLINE
  5
3A1
100
AcDbEntity
  8
03___PRT_ALL_CURVES
100
AcDbSpline
 62
40
  6
CONTINUOUS
 70
0
 71
3
 72
8
 73
4
 74
0
 42
0.0000001
 43
0.0000001
 44
0.0000000001
 40
0.0
 40
0.0
 40
0.0
 40
0.0
 40
1.0
 40
1.0
 40
1.0
 40
1.0
 10
538.6297964321
 20
1192.6932834483
 30
0.0
 10
538.4915556826
 20
1192.6932834483
 30
0.0
 10
538.3461366312
 20
1192.8131974542
 30
0.0
 10
538.298722756
 20
1192.943052871
 30
0.0
  0
SPLINE
  5
3A2
100
AcDbEntity
  8
03___PRT_ALL_CURVES
100
AcDbSpline
 62
40
  6
CONTINUOUS
 70
0
 71
3
 72
8
 73
4
 74
0
 42
0.0000001
 43
0.0000001
 44
0.0000000001
 40
0.0
 40
0.0
 40
0.0
 40
0.0
 40
1.0
 40
1.0
 40
1.0
 40
1.0
 10
555.149718303
 20
1192.6932834483
 30
0.0
 10
555.0179680716
 20
1192.6932834483
 30
0.0
 10
554.8710100782
 20
1192.8417917346
 30
0.0
 10
554.8710100782
 20
1192.973541966
 30
0.0
  0
SPLINE
  5
3A3
100
AcDbEntity
  8
03___PRT_ALL_CURVES
100
AcDbSpline
 62
40
  6
CONTINUOUS
 70
0
 71
3
 72
8
 73
4
 74
0
 42
0.0000001
 43
0.0000001
 44
0.0000000001
 40
0.0
 40
0.0
 40
0.0
 40
0.0
 40
1.0
 40
1.0
 40
1.0
 40
1.0
 10
548.4052548715
 20
1192.6932834483
 30
0.0
 10
548.2729365793
 20
1192.6932834483
 30
0.0
 10
548.1241350799
 20
1192.8412236738
 30
0.0
 10
548.1241350799
 20
1192.973541966
 30
0.0
  0
LINE
  5
3A4
100
AcDbEntity
  8
0
100
AcDbLine
 62
7
  6
CONTINUOUS
 10
456.8446256853
 20
270.3568189456
 11
457.37179776
 21
270.3318372847
  0
SPLINE
  5
3A5
100
AcDbEntity
  8
0
100
AcDbSpline
 62
7
  6
CONTINUOUS
 70
0
 71
3
 72
9
 73
5
 74
0
 42
0.0000001
 43
0.0000001
 44
0.0000000001
 40
0.0
 40
0.0
 40
0.0
 40
0.0
 40
0.5
 40
1.0
 40
1.0
 40
1.0
 40
1.0
 10
457.37179776
 20
270.3318372847
 30
0.0
 10
487.0082103313
 20
268.9393621515
 30
0.0
 10
546.3759213769
 20
270.2151242761
 30
0.0
 10
605.7436324224
 20
268.9393621518
 30
0.0
 10
635.3800449892
 20
270.3318372846
 30
0.0
  0
LINE
  5
3A6
100
AcDbEntity
  8
0
100
AcDbLine
 62
7
  6
CONTINUOUS
 10
635.3800449892
 20
270.3318372846
 11
635.9072170666
 21
270.3568189456
  0
SPLINE
  5
3A7
100
AcDbEntity
  8
0
100
AcDbSpline
 62
7
  6
CONTINUOUS
 70
0
 71
3
 72
9
 73
5
 74
0
 42
0.0000001
 43
0.0000001
 44
0.0000000001
 40
0.0
 40
0.0
 40
0.0
 40
0.0
 40
0.1411763741
 40
1.0
 40
1.0
 40
1.0
 40
1.0
 10
1221.0530777256
 20
774.1053839734
 30
0.0
 10
1221.0530777256
 20
774.101242257
 30
0.0
 10
1221.0677700234
 20
774.0733975352
 30
0.0
 10
1221.1009023701
 20
774.0670430307
 30
0.0
 10
1221.1249374586
 20
774.05948487
 30
0.0
  0
LINE
  5
3A8
100
AcDbEntity
  8
0
100
AcDbLine
 62
7
  6
CONTINUOUS
 10
1221.1249374586
 20
774.05948487
 11
1221.1299148417
 21
774.0685190463
  0
SPLINE
  5
3A9
100
AcDbEntity
  8
0
100
AcDbSpline
 62
7
  6
CONTINUOUS
 70
0
 71
3
 72
16
 73
12
 74
0
 42
0.0000001
 43
0.0000001
 44
0.0000000001
 40
0.0
 40
0.0
 40
0.0
 40
0.0
 40
0.454203603
 40
0.6224722598
 40
0.7574252634
 40
0.8621462579
 40
0.9379251595
 40
0.9648351384
 40
0.9842498803
 40
0.9960293977
 40
1.0
 40
1.0
 40
1.0
 40
1.0
 10
1221.1299148417
 20
774.0685190463
 30
0.0
 10
1221.4249575497
 20
774.6046193701
 30
0.0
 10
1221.7760515161
 20
775.3774322032
 30
0.0
 10
1222.0030910217
 20
776.3746066444
 30
0.0
 10
1222.0536136218
 20
776.9241795637
 30
0.0
 10
1222.0336544153
 20
777.3486717988
 30
0.0
 10
1221.9888903524
 20
777.6275341139
 30
0.0
 10
1221.9476687303
 20
777.7836434889
 30
0.0
 10
1221.9309921927
 20
777.8654681802
 30
0.0
 10
1221.908593577
 20
777.8991025978
 30
0.0
 10
1221.909862524
 20
777.9311437463
 30
0.0
 10
1221.9045131904
 20
777.9311699869
 30
0.0
  0
LINE
  5
3AA
100
AcDbEntity
  8
0
100
AcDbLine
 62
7
  6
CONTINUOUS
 10
1221.1572170302
 20
773.9647518237
 11
1221.1687312817
 21
773.9311699869
  0
ENDSEC
  0
SECTION
  2
OBJECTS
  0
DICTIONARY
  5
C
100
AcDbDictionary
280
0
281
1
  3
ACAD_GROUP
350
D
  3
ACAD_MLINESTYLE
350
17
  3
ACAD_LAYOUT
350
1A
  3
ACAD_PLOTSETTINGS
350
19
  3
ACAD_PLOTSTYLENAME
350
E
  0
DICTIONARY
  5
D
102
{ACAD_REACTORS
330
C
102
}
100
AcDbDictionary
280
0
281
1
  0
ACDBDICTIONARYWDFLT
  5
E
102
{ACAD_REACTORS
330
C
102
}
100
AcDbDictionary
281
1
  3
Normal
350
F
100
AcDbDictionaryWithDefault
340
F
  0
DICTIONARY
  5
17
102
{ACAD_REACTORS
330
C
102
}
100
AcDbDictionary
280
0
281
1
  3
Standard
350
18
  0
DICTIONARY
  5
19
102
{ACAD_REACTORS
330
C
102
}
100
AcDbDictionary
281
1
  0
DICTIONARY
  5
1A
102
{ACAD_REACTORS
330
C
102
}
100
AcDbDictionary
281
1
  3
Model
350
3AB
  3
Layout1
350
3AC
  0
ACDBPLACEHOLDER
  5
F
102
{ACAD_REACTORS
330
E
102
}
  0
MLINESTYLE
  5
18
102
{ACAD_REACTORS
330
17
102
}
100
AcDbMlineStyle
  2
STANDARD
 70
0
  3

 62
256
 51
90.0
 52
90.0
 71
2
 49
0.5
 62
256
  6
BYLAYER
 49
-0.5
 62
256
  6
BYLAYER
  0
LAYOUT
  5
3AB
102
{ACAD_REACTORS
330
1A
102
}
100
AcDbPlotSettings
  1

  2
none_device
  4

  6

 40
0.0
 41
0.0
 42
0.0
 43
0.0
 44
1500.0
 45
1500.0
 46
0.0
 47
0.0
 48
0.0
 49
0.0
140
0.0
141
0.0
142
1.0
143
1.0
 70
1024
 72
1
 73
0
 74
0
  7

 75
0
147
1.0
148
0.0
149
0.0
100
AcDbLayout
  1
Model
 70
0
 71
0
 10
0.0
 20
0.0
 11
1500.0
 21
1500.0
 12
0.0
 22
0.0
 32
0.0
 14
0.0
 24
0.0
 34
0.0
 15
0.0
 25
0.0
 35
0.0
146
0.0
 13
0.0
 23
0.0
 33
0.0
 16
1.0
 26
0.0
 36
0.0
 17
0.0
 27
1.0
 37
0.0
 76
0
330
216
345
0
346
0
  0
LAYOUT
  5
3AC
102
{ACAD_REACTORS
330
1A
102
}
100
AcDbPlotSettings
  1

  2
none_device
  4

  6

 40
0.0
 41
0.0
 42
0.0
 43
0.0
 44
1500.0
 45
1500.0
 46
0.0
 47
0.0
 48
0.0
 49
0.0
140
0.0
141
0.0
142
1.0
143
1.0
 70
0
 72
1
 73
0
 74
0
  7

 75
0
147
1.0
148
0.0
149
0.0
100
AcDbLayout
  1
Layout1
 70
0
 71
1
 10
0.0
 20
0.0
 11
1500.0
 21
1500.0
 12
0.0
 22
0.0
 32
0.0
 14
0.0
 24
0.0
 34
0.0
 15
0.0
 25
0.0
 35
0.0
146
0.0
 13
0.0
 23
0.0
 33
0.0
 16
1.0
 26
0.0
 36
0.0
 17
0.0
 27
1.0
 37
0.0
 76
0
330
217
345
0
346
0
  0
ENDSEC
  0
EOF
