999
DXF file: S:\Engenharia\Wildfire\Engenharia\Produtos\Lixeiras\94538120\94538120_2.dxf
999
Pro/ENGINEER 2013150 by Parametric Technology Corporation
  0
SECTION
  2
HEADER
  9
$ACADVER
  1
AC1021
  9
$DWGCODEPAGE
  3
ANSI_1252
  9
$EXTMAX
 10
1189.0
 20
1200.0
 30
0.0
  9
$EXTMIN
 10
0.0
 20
0.0
 30
0.0
  9
$LIMMIN
 10
0.0
 20
0.0
  9
$LIMMAX
 10
1189.0
 20
1200.0
  9
$VIEWCTR
 10
594.5
 20
600.0
  9
$VIEWSIZE
 40
1200.0
  9
$CLAYER
  8
0
  9
$LTSCALE
 40
78.2222222222
  9
$CELTYPE
  6
BYLAYER
  9
$DIMSCALE
 40
1.0
  9
$DIMASZ
 40
3.0
  9
$DIMEXO
 40
0.5
  9
$DIMDLI
 40
54.0444444444
  9
$DIMEXE
 40
0.5
  9
$DIMCEN
 40
12.8
  9
$DIMLFAC
 40
1.0
  9
$DIMBLK
  1
_FILLED
  9
$DIMTXT
 40
1.8
  9
$DIMTOL
 70
1
  9
$DIMLIM
 70
0
  9
$DIMTFAC
 40
1.0
  9
$DIMTP
 40
0.001
  9
$DIMTM
 40
0.001
  9
$DIMGAP
 40
0.625
  9
$DIMDSEP
 70
46
  9
$PDMODE
 70
3
  9
$PDSIZE
 40
1.0
  9
$HANDSEED
  5
3D8
  9
$TILEMODE
 70
1
  9
$MEASUREMENT
 70
1
  9
$INSUNITS
 70
4
  0
ENDSEC
  0
SECTION
  2
CLASSES
  0
CLASS
  1
ACDBDICTIONARYWDFLT
  2
AcDbDictionaryWithDefault
  3
AutoCAD 2000
 90
0
 91
1
280
0
281
0
  0
CLASS
  1
ACDBPLACEHOLDER
  2
AcDbPlaceHolder
  3
AutoCAD 2000
 90
0
 91
1
280
0
281
0
  0
CLASS
  1
LAYOUT
  2
AcDbLayout
  3
AutoCAD 2000
 90
0
 91
0
280
0
281
0
  0
ENDSEC
  0
SECTION
  2
TABLES
  0
TABLE
  2
VPORT
  5
8
100
AcDbSymbolTable
 70
2
  0
VPORT
  5
1F4
100
AcDbSymbolTableRecord
100
AcDbViewportTableRecord
  2
*ACTIVE
 70
0
 10
0.0
 20
0.0
 11
1.0
 21
1.0
 12
594.5
 22
600.0
 13
0.0
 23
0.0
 14
1.0
 24
1.0
 15
0.0
 25
0.0
 16
0.0
 26
0.0
 36
1.0
 17
0.0
 27
0.0
 37
0.0
 40
1200.0
 41
0.9908333333
 42
50.0
 43
0.0
 44
0.0
 50
0.0
 51
0.0
 71
0
 72
100
 73
1
 74
1
 75
0
 76
0
 77
0
 78
0
  0
ENDTAB
  0
TABLE
  2
LTYPE
  5
5
100
AcDbSymbolTable
 70
6
  0
LTYPE
  5
14
100
AcDbSymbolTableRecord
100
AcDbLinetypeTableRecord
  2
BYBLOCK
 70
0
  3

 72
65
 73
0
 40
0.0
  0
LTYPE
  5
15
100
AcDbSymbolTableRecord
100
AcDbLinetypeTableRecord
  2
BYLAYER
 70
0
  3

 72
65
 73
0
 40
0.0
  0
LTYPE
  5
16
100
AcDbSymbolTableRecord
100
AcDbLinetypeTableRecord
  2
CONTINUOUS
 70
64
  3
Solid line
 72
65
 73
0
 40
0.0
  0
LTYPE
  5
1F5
100
AcDbSymbolTableRecord
100
AcDbLinetypeTableRecord
  2
CENTER
 70
64
  3
____ _ ____ _ ____ _ ____ _ ____ _ ____ _ ____
 72
65
 73
4
 40
0.6
 49
0.375
 74
0
 49
-0.075
 74
0
 49
0.075
 74
0
 49
-0.075
 74
0
  0
LTYPE
  5
1F6
100
AcDbSymbolTableRecord
100
AcDbLinetypeTableRecord
  2
HIDDEN
 70
64
  3
- - - - - - - - - - - - - - - - - - - -
 72
65
 73
2
 40
0.2
 49
0.1
 74
0
 49
-0.1
 74
0
  0
LTYPE
  5
1F7
100
AcDbSymbolTableRecord
100
AcDbLinetypeTableRecord
  2
PHANTOM
 70
64
  3
_____ _ _ _____ _ _ _____ _ _ _____
 72
65
 73
6
 40
0.8
 49
0.45
 74
0
 49
-0.05
 74
0
 49
0.1
 74
0
 49
-0.05
 74
0
 49
0.1
 74
0
 49
-0.05
 74
0
  0
LTYPE
  5
1F8
100
AcDbSymbolTableRecord
100
AcDbLinetypeTableRecord
  2
DOT
 70
64
  3
. . . . . . . . . . . . . . . . . . . .
 72
65
 73
2
 40
0.2
 49
0.1
 74
0
 49
-0.1
 74
0
  0
LTYPE
  5
1F9
100
AcDbSymbolTableRecord
100
AcDbLinetypeTableRecord
  2
DASHED
 70
64
  3
- - - - - - - - - - - - - - - - - - - -
 72
65
 73
2
 40
0.2
 49
0.1
 74
0
 49
-0.1
 74
0
  0
ENDTAB
  0
TABLE
  2
LAYER
  5
2
100
AcDbSymbolTable
 70
36
  0
LAYER
  5
10
100
AcDbSymbolTableRecord
100
AcDbLayerTableRecord
  2
0
 70
0
 62
7
  6
CONTINUOUS
370
-3
390
F
  0
LAYER
  5
1FA
100
AcDbSymbolTableRecord
100
AcDbLayerTableRecord
  2
DEFAULT_1
 70
0
 62
7
  6
CENTER
370
-3
390
F
  0
LAYER
  5
1FB
100
AcDbSymbolTableRecord
100
AcDbLayerTableRecord
  2
DEFAULT_2
 70
0
 62
8
  6
HIDDEN
370
-3
390
F
  0
LAYER
  5
1FC
100
AcDbSymbolTableRecord
100
AcDbLayerTableRecord
  2
DEFAULT_3
 70
0
 62
7
  6
PHANTOM
370
-3
390
F
  0
LAYER
  5
1FD
100
AcDbSymbolTableRecord
100
AcDbLayerTableRecord
  2
01_ALL_DTM_PLN
 70
0
 62
7
  6
CONTINUOUS
370
-3
390
F
  0
LAYER
  5
1FE
100
AcDbSymbolTableRecord
100
AcDbLayerTableRecord
  2
01__ASM_ALL_DTM_PLN
 70
0
 62
7
  6
CONTINUOUS
370
-3
390
F
  0
LAYER
  5
1FF
100
AcDbSymbolTableRecord
100
AcDbLayerTableRecord
  2
01__ASM_DEF_DTM_PLN
 70
0
 62
7
  6
CONTINUOUS
370
-3
390
F
  0
LAYER
  5
200
100
AcDbSymbolTableRecord
100
AcDbLayerTableRecord
  2
01___PRT_ALL_DTM_PLN
 70
0
 62
7
  6
CONTINUOUS
370
-3
390
F
  0
LAYER
  5
201
100
AcDbSymbolTableRecord
100
AcDbLayerTableRecord
  2
01___PRT_DEF_DTM_PLN
 70
0
 62
7
  6
CONTINUOUS
370
-3
390
F
  0
LAYER
  5
202
100
AcDbSymbolTableRecord
100
AcDbLayerTableRecord
  2
02_ALL_AXES
 70
0
 62
7
  6
CONTINUOUS
370
-3
390
F
  0
LAYER
  5
203
100
AcDbSymbolTableRecord
100
AcDbLayerTableRecord
  2
02__ASM_ALL_AXES
 70
0
 62
7
  6
CONTINUOUS
370
-3
390
F
  0
LAYER
  5
204
100
AcDbSymbolTableRecord
100
AcDbLayerTableRecord
  2
02___PRT_ALL_AXES
 70
0
 62
7
  6
CONTINUOUS
370
-3
390
F
  0
LAYER
  5
205
100
AcDbSymbolTableRecord
100
AcDbLayerTableRecord
  2
03_ALL_CURVES
 70
0
 62
7
  6
CONTINUOUS
370
-3
390
F
  0
LAYER
  5
206
100
AcDbSymbolTableRecord
100
AcDbLayerTableRecord
  2
03__ASM_ALL_CURVES
 70
0
 62
7
  6
CONTINUOUS
370
-3
390
F
  0
LAYER
  5
207
100
AcDbSymbolTableRecord
100
AcDbLayerTableRecord
  2
03___PRT_ALL_CURVES
 70
0
 62
7
  6
CONTINUOUS
370
-3
390
F
  0
LAYER
  5
208
100
AcDbSymbolTableRecord
100
AcDbLayerTableRecord
  2
04_ALL_DTM_PNT
 70
0
 62
7
  6
CONTINUOUS
370
-3
390
F
  0
LAYER
  5
209
100
AcDbSymbolTableRecord
100
AcDbLayerTableRecord
  2
04__ASM_ALL_DTM_PNT
 70
0
 62
7
  6
CONTINUOUS
370
-3
390
F
  0
LAYER
  5
20A
100
AcDbSymbolTableRecord
100
AcDbLayerTableRecord
  2
04___PRT_ALL_DTM_PNT
 70
0
 62
7
  6
CONTINUOUS
370
-3
390
F
  0
LAYER
  5
20B
100
AcDbSymbolTableRecord
100
AcDbLayerTableRecord
  2
05_ALL_DTM_CSYS
 70
0
 62
7
  6
CONTINUOUS
370
-3
390
F
  0
LAYER
  5
20C
100
AcDbSymbolTableRecord
100
AcDbLayerTableRecord
  2
05__ASM_ALL_DTM_CSYS
 70
0
 62
7
  6
CONTINUOUS
370
-3
390
F
  0
LAYER
  5
20D
100
AcDbSymbolTableRecord
100
AcDbLayerTableRecord
  2
05__ASM_DEF_DTM_CSYS
 70
0
 62
7
  6
CONTINUOUS
370
-3
390
F
  0
LAYER
  5
20E
100
AcDbSymbolTableRecord
100
AcDbLayerTableRecord
  2
05___PRT_ALL_DTM_CSYS
 70
0
 62
7
  6
CONTINUOUS
370
-3
390
F
  0
LAYER
  5
20F
100
AcDbSymbolTableRecord
100
AcDbLayerTableRecord
  2
05___PRT_DEF_DTM_CSYS
 70
0
 62
7
  6
CONTINUOUS
370
-3
390
F
  0
LAYER
  5
210
100
AcDbSymbolTableRecord
100
AcDbLayerTableRecord
  2
06_ALL_SURFS
 70
0
 62
7
  6
CONTINUOUS
370
-3
390
F
  0
LAYER
  5
211
100
AcDbSymbolTableRecord
100
AcDbLayerTableRecord
  2
06__ASM_ALL_SURFS
 70
0
 62
7
  6
CONTINUOUS
370
-3
390
F
  0
LAYER
  5
212
100
AcDbSymbolTableRecord
100
AcDbLayerTableRecord
  2
06___PRT_ALL_SURFS
 70
0
 62
7
  6
CONTINUOUS
370
-3
390
F
  0
LAYER
  5
213
100
AcDbSymbolTableRecord
100
AcDbLayerTableRecord
  2
07__ASM_ALL_SKELETONS
 70
0
 62
7
  6
CONTINUOUS
370
-3
390
F
  0
ENDTAB
  0
TABLE
  2
STYLE
  5
3
100
AcDbSymbolTable
 70
1
  0
STYLE
  5
11
100
AcDbSymbolTableRecord
100
AcDbTextStyleTableRecord
  2
STANDARD
 70
0
 40
0.0
 41
0.8
 50
0.0
 71
0
 42
0.2
  3
txt
  4

  0
STYLE
  5
214
100
AcDbSymbolTableRecord
100
AcDbTextStyleTableRecord
  2
TEXTSTYLE_1
 70
0
 40
0.0
 41
0.8
 50
0.0
 71
0
 42
0.2
  3
gdt
  4

  0
ENDTAB
  0
TABLE
  2
VIEW
  5
6
100
AcDbSymbolTable
 70
0
  0
ENDTAB
  0
TABLE
  2
UCS
  5
7
100
AcDbSymbolTable
 70
0
  0
ENDTAB
  0
TABLE
  2
APPID
  5
9
100
AcDbSymbolTable
 70
1
  0
APPID
  5
215
100
AcDbSymbolTableRecord
100
AcDbRegAppTableRecord
  2
ACAD
 70
0
  0
ENDTAB
  0
TABLE
  2
BLOCK_RECORD
  5
1
100
AcDbSymbolTable
 70
0
  0
BLOCK_RECORD
  5
216
100
AcDbSymbolTableRecord
100
AcDbBlockTableRecord
  2
*Model_Space
  0
BLOCK_RECORD
  5
217
100
AcDbSymbolTableRecord
100
AcDbBlockTableRecord
  2
*Paper_Space
  0
BLOCK_RECORD
  5
218
100
AcDbSymbolTableRecord
100
AcDbBlockTableRecord
  2
_FILLED
  0
BLOCK_RECORD
  5
219
100
AcDbSymbolTableRecord
100
AcDbBlockTableRecord
  2
*D0
  0
BLOCK_RECORD
  5
21A
100
AcDbSymbolTableRecord
100
AcDbBlockTableRecord
  2
*D1
  0
ENDTAB
  0
TABLE
  2
DIMSTYLE
  5
A
100
AcDbSymbolTable
 70
1
100
AcDbDimStyleTable
 71
0
  0
DIMSTYLE
105
21B
100
AcDbSymbolTableRecord
100
AcDbDimStyleTableRecord
  2
STANDARD
 70
0
  3

  4

 40
1.0
 41
3.0
 42
0.5
 43
0.38
 44
0.5
 45
0.0
 46
0.0
 47
0.001
 48
0.001
140
1.8
141
0.09
142
0.0
143
25.4
144
1.0
145
0.0
146
1.0
147
0.625
 71
1.0
 72
0.0
 73
0
 74
0
 75
0
 76
0
 77
1
 78
8
170
0
171
2
172
0
173
0
174
0
175
0
176
0
177
0
178
0
270
2
271
3
272
3
273
2
274
2
275
0
280
0
281
0
282
0
283
1
284
8
285
0
286
0
287
3
288
0
340
11
278
46
341
218
342
218
343
218
344
218
  0
DIMSTYLE
105
21C
100
AcDbSymbolTableRecord
100
AcDbDimStyleTableRecord
  2
DIMSTYLE_1
 70
0
  3

  4

 40
1.0
 41
3.0
 42
0.5
 43
0.38
 44
0.5
 45
0.0
 46
0.0
 47
0.001
 48
0.001
140
1.8
141
0.09
142
0.0
143
25.4
144
1.0
145
0.0
146
1.0
147
0.45
 71
0.0
 72
0.0
 73
0
 74
0
 75
0
 76
0
 77
1
 78
8
170
0
171
2
172
0
173
0
174
0
175
0
176
0
177
0
178
0
270
2
271
0
272
0
273
2
274
2
275
0
280
0
281
0
282
0
283
1
284
8
285
0
286
0
287
3
288
0
340
11
278
46
341
218
342
218
343
218
344
218
  0
ENDTAB
  0
ENDSEC
  0
SECTION
  2
BLOCKS
  0
BLOCK
  5
20
100
AcDbEntity
  8
0
100
AcDbBlockBegin
  2
*Model_Space
 70
0
 10
0.0
 20
0.0
 30
0.0
  3
*Model_Space
  1

  0
ENDBLK
  5
21
100
AcDbEntity
  8
0
100
AcDbBlockEnd
  0
BLOCK
  5
1C
100
AcDbEntity
  8
0
100
AcDbBlockBegin
  2
*Paper_Space
 70
0
 10
0.0
 20
0.0
 30
0.0
  3
*Paper_Space
  1

  0
ENDBLK
  5
1D
100
AcDbEntity
  8
0
100
AcDbBlockEnd
  0
BLOCK
  5
21D
100
AcDbEntity
  8
0
100
AcDbBlockBegin
  2
_FILLED
 70
64
 10
0.0
 20
0.0
  3
_FILLED
  1

  0
SOLID
  5
21E
100
AcDbEntity
  8
0
  6
BYBLOCK
 62
0
100
AcDbTrace
 10
0.0
 20
0.0
 11
-1.0
 21
0.1666666667
 12
-1.0
 22
-0.1666666667
 13
-1.0
 23
-0.1666666667
  0
ENDBLK
  5
21F
100
AcDbEntity
  8
0
  6
BYBLOCK
 62
0
100
AcDbBlockEnd
  0
BLOCK
  5
220
100
AcDbEntity
  8
0
100
AcDbBlockBegin
 62
2
  6
CONTINUOUS
  2
*D0
 70
65
 10
0.0
 20
0.0
  3
*D0
  1

  0
MTEXT
  5
221
100
AcDbEntity
  8
0
100
AcDbMText
 62
2
  6
CONTINUOUS
  7
STANDARD
 71
2
 72
1
 10
408.717309146
 20
823.1672052761
 30
0.0
 11
0.0
 21
1.0
 31
0.0
 44
0.9
  1
470
 40
1.8
 41
8.3314285714
  0
LINE
  5
222
100
AcDbEntity
  8
0
100
AcDbLine
 62
2
  6
CONTINUOUS
 10
481.3174831879
 20
588.0878678122
 11
410.7887377174
 21
588.0878678122
  0
LINE
  5
223
100
AcDbEntity
  8
0
100
AcDbLine
 62
2
  6
CONTINUOUS
 10
591.9513833551
 20
1058.2465427399
 11
410.7887377174
 21
1058.2465427399
  0
LINE
  5
224
100
AcDbEntity
  8
0
100
AcDbLine
 62
2
  6
CONTINUOUS
 10
411.2887377174
 20
588.0878678122
 11
411.2887377174
 21
823.1672052761
  0
LINE
  5
225
100
AcDbEntity
  8
0
100
AcDbLine
 62
2
  6
CONTINUOUS
 10
411.2887377174
 20
1058.2465427399
 11
411.2887377174
 21
823.1672052761
  0
INSERT
  5
226
100
AcDbEntity
  8
0
100
AcDbBlockReference
 62
2
  6
CONTINUOUS
  2
_FILLED
 10
411.2887377174
 20
588.0878678122
 41
3.0
 42
3.0
 43
3.0
 50
270.0
  0
INSERT
  5
227
100
AcDbEntity
  8
0
100
AcDbBlockReference
 62
2
  6
CONTINUOUS
  2
_FILLED
 10
411.2887377174
 20
1058.2465427399
 41
3.0
 42
3.0
 43
3.0
 50
90.0
  0
ENDBLK
  5
228
100
AcDbEntity
  8
0
  6
BYBLOCK
 62
0
100
AcDbBlockEnd
  0
BLOCK
  5
229
100
AcDbEntity
  8
0
100
AcDbBlockBegin
 62
2
  6
CONTINUOUS
  2
*D1
 70
65
 10
0.0
 20
0.0
  3
*D1
  1

  0
MTEXT
  5
22A
100
AcDbEntity
  8
0
100
AcDbMText
 62
2
  6
CONTINUOUS
  7
STANDARD
 71
2
 72
1
 10
413.5677947295
 20
314.1986584637
 30
0.0
 11
0.0
 21
1.0
 31
0.0
 44
0.9
  1
367
 40
1.8
 41
8.3314285714
  0
LINE
  5
22B
100
AcDbEntity
  8
0
100
AcDbLine
 62
2
  6
CONTINUOUS
 10
555.95138336
 20
130.7866267868
 11
415.639223301
 21
130.7866267868
  0
LINE
  5
22C
100
AcDbEntity
  8
0
100
AcDbLine
 62
2
  6
CONTINUOUS
 10
591.9513977506
 20
497.6106901405
 11
415.639223301
 21
497.6106901405
  0
LINE
  5
22D
100
AcDbEntity
  8
0
100
AcDbLine
 62
2
  6
CONTINUOUS
 10
416.139223301
 20
130.7866267868
 11
416.139223301
 21
314.1986584637
  0
LINE
  5
22E
100
AcDbEntity
  8
0
100
AcDbLine
 62
2
  6
CONTINUOUS
 10
416.139223301
 20
497.6106901405
 11
416.139223301
 21
314.1986584637
  0
INSERT
  5
22F
100
AcDbEntity
  8
0
100
AcDbBlockReference
 62
2
  6
CONTINUOUS
  2
_FILLED
 10
416.139223301
 20
130.7866267868
 41
3.0
 42
3.0
 43
3.0
 50
270.0
  0
INSERT
  5
230
100
AcDbEntity
  8
0
100
AcDbBlockReference
 62
2
  6
CONTINUOUS
  2
_FILLED
 10
416.139223301
 20
497.6106901405
 41
3.0
 42
3.0
 43
3.0
 50
90.0
  0
ENDBLK
  5
231
100
AcDbEntity
  8
0
  6
BYBLOCK
 62
0
100
AcDbBlockEnd
  0
ENDSEC
  0
SECTION
  2
ENTITIES
  0
DIMENSION
  5
232
100
AcDbEntity
  8
0
100
AcDbDimension
 62
2
  6
CONTINUOUS
  2
*D0
 10
411.2887377174
 20
1058.2465427399
 11
411.2887377174
 21
823.1672052761
 70
160
 71
2
 42
470.1586749277
  3
DIMSTYLE_1
100
AcDbAlignedDimension
 13
481.8174831879
 23
588.0878678122
 14
592.4513833551
 24
1058.2465427399
 50
90.0
100
AcDbRotatedDimension
  0
DIMENSION
  5
233
100
AcDbEntity
  8
0
100
AcDbDimension
 62
2
  6
CONTINUOUS
  2
*D1
 10
416.139223301
 20
497.6106901405
 11
416.139223301
 21
314.1986584637
 70
160
 71
2
 42
366.8240633537
  3
DIMSTYLE_1
100
AcDbAlignedDimension
 13
556.45138336
 23
130.7866267868
 14
592.4513977506
 24
497.6106901405
 50
90.0
100
AcDbRotatedDimension
  0
LINE
  5
234
100
AcDbEntity
  8
0
100
AcDbLine
 62
7
  6
CONTINUOUS
 10
556.45138336
 20
130.1918294889
 11
628.45138336
 21
130.1918294889
  0
LINE
  5
235
100
AcDbEntity
  8
0
100
AcDbLine
 62
7
  6
CONTINUOUS
 10
563.4960670551
 20
489.7277072908
 11
563.4251433651
 21
489.6833521778
  0
LINE
  5
236
100
AcDbEntity
  8
0
100
AcDbLine
 62
7
  6
CONTINUOUS
 10
563.4960330861
 20
489.7276862565
 11
565.0703432014
 21
490.6666031278
  0
LINE
  5
237
100
AcDbEntity
  8
0
100
AcDbLine
 62
3
  6
CONTINUOUS
 10
445.45138336
 20
318.5568811374
 11
445.45138336
 21
318.4422283812
  0
LINE
  5
238
100
AcDbEntity
  8
02___PRT_ALL_AXES
100
AcDbLine
 62
3
  6
CONTINUOUS
 10
445.45138336
 20
318.5568811376
 11
445.45138336
 21
318.4422283814
  0
LINE
  5
239
100
AcDbEntity
  8
02___PRT_ALL_AXES
100
AcDbLine
 62
40
  6
CONTINUOUS
 10
585.3601397758
 20
479.0416469051
 11
585.14636244
 21
478.4702884178
  0
LINE
  5
23A
100
AcDbEntity
  8
02___PRT_ALL_AXES
100
AcDbLine
 62
40
  6
CONTINUOUS
 10
585.5322963642
 20
479.4941602333
 11
585.9175305086
 21
480.504100924
  0
LINE
  5
23B
100
AcDbEntity
  8
02___PRT_ALL_AXES
100
AcDbLine
 62
40
  6
CONTINUOUS
 10
589.8580226717
 20
480.2205746724
 11
589.2396111432
 21
478.6857497267
  0
LINE
  5
23C
100
AcDbEntity
  8
02___PRT_ALL_AXES
100
AcDbLine
 62
40
  6
CONTINUOUS
 10
589.0219473383
 20
479.3006138502
 11
589.7363148215
 21
481.0608494608
  0
LINE
  5
23D
100
AcDbEntity
  8
02___PRT_ALL_AXES
100
AcDbLine
 62
40
  6
CONTINUOUS
 10
584.6080272485
 20
478.4702884178
 11
585.6621108938
 21
481.0608494608
  0
LINE
  5
23E
100
AcDbEntity
  8
02___PRT_ALL_AXES
100
AcDbLine
 62
40
  6
CONTINUOUS
 10
603.4857276311
 20
479.0416469051
 11
603.2712397497
 21
478.4702884178
  0
LINE
  5
23F
100
AcDbEntity
  8
02___PRT_ALL_AXES
100
AcDbLine
 62
40
  6
CONTINUOUS
 10
603.6571736739
 20
479.4941602333
 11
604.0427630911
 21
480.504100924
  0
LINE
  5
240
100
AcDbEntity
  8
02___PRT_ALL_AXES
100
AcDbLine
 62
40
  6
CONTINUOUS
 10
602.7329045582
 20
478.4702884178
 11
603.7869989694
 21
481.0608494608
  0
LINE
  5
241
100
AcDbEntity
  8
0
100
AcDbLine
 62
7
  6
CONTINUOUS
 10
550.45138336
 20
176.3097188299
 11
550.45138336
 21
136.1398024678
  0
LINE
  5
242
100
AcDbEntity
  8
06___PRT_ALL_SURFS
100
AcDbLine
 62
7
  6
CONTINUOUS
 10
550.45138336
 20
136.1398024678
 11
550.45138336
 21
136.2901951653
  0
LINE
  5
243
100
AcDbEntity
  8
0
100
AcDbLine
 62
7
  6
CONTINUOUS
 10
554.45138336
 20
170.2989187939
 11
554.45138336
 21
175.1810360957
  0
LINE
  5
244
100
AcDbEntity
  8
0
100
AcDbLine
 62
7
  6
CONTINUOUS
 10
554.95138336
 20
175.0337288931
 11
554.95138336
 21
169.4389300253
  0
LINE
  5
245
100
AcDbEntity
  8
02___PRT_ALL_AXES
100
AcDbLine
 62
7
  6
CONTINUOUS
 10
562.20138336
 20
485.55415507
 11
562.20138336
 21
479.95415507
  0
LINE
  5
246
100
AcDbEntity
  8
02___PRT_ALL_AXES
100
AcDbLine
 62
7
  6
CONTINUOUS
 10
562.45138336
 20
479.9350902032
 11
562.45138336
 21
479.9497913037
  0
LINE
  5
247
100
AcDbEntity
  8
02___PRT_ALL_AXES
100
AcDbLine
 62
7
  6
CONTINUOUS
 10
562.45138336
 20
462.4249242667
 11
562.45138336
 21
479.9041794518
  0
LINE
  5
248
100
AcDbEntity
  8
02___PRT_ALL_AXES
100
AcDbLine
 62
7
  6
CONTINUOUS
 10
562.45138336
 20
485.5585188362
 11
562.45138336
 21
485.5696590332
  0
LINE
  5
249
100
AcDbEntity
  8
02___PRT_ALL_AXES
100
AcDbLine
 62
7
  6
CONTINUOUS
 10
562.45138336
 20
485.6041353915
 11
562.45138336
 21
488.740661066
  0
LINE
  5
24A
100
AcDbEntity
  8
02___PRT_ALL_AXES
100
AcDbLine
 62
40
  6
CONTINUOUS
 10
587.3956483949
 20
478.4702884178
 11
587.8232138323
 21
481.0608494608
  0
LINE
  5
24B
100
AcDbEntity
  8
02___PRT_ALL_AXES
100
AcDbLine
 62
40
  6
CONTINUOUS
 10
577.6854828223
 20
481.5497458211
 11
577.6854828223
 21
478.2766001905
  0
LINE
  5
24C
100
AcDbEntity
  8
02___PRT_ALL_AXES
100
AcDbLine
 62
40
  6
CONTINUOUS
 10
588.1625854874
 20
480.2487915324
 11
587.9149388109
 21
478.4702884178
  0
LINE
  5
24D
100
AcDbEntity
  8
0
100
AcDbLine
 62
7
  6
CONTINUOUS
 10
625.0152810012
 20
172.7011321614
 11
624.6048575137
 21
173.7169659396
  0
LINE
  5
24E
100
AcDbEntity
  8
02___PRT_ALL_AXES
100
AcDbLine
 62
40
  6
CONTINUOUS
 10
580.1330755972
 20
480.7949220192
 11
580.1330755972
 21
481.0608494608
  0
LINE
  5
24F
100
AcDbEntity
  8
02___PRT_ALL_AXES
100
AcDbLine
 62
40
  6
CONTINUOUS
 10
580.892950297
 20
478.6681509167
 11
580.892950297
 21
480.5977180826
  0
LINE
  5
250
100
AcDbEntity
  8
02___PRT_ALL_AXES
100
AcDbLine
 62
40
  6
CONTINUOUS
 10
581.4355164646
 20
480.5977180826
 11
581.4355164646
 21
478.4702884178
  0
LINE
  5
251
100
AcDbEntity
  8
02___PRT_ALL_AXES
100
AcDbLine
 62
40
  6
CONTINUOUS
 10
582.1953911644
 20
481.0608494608
 11
582.1953911644
 21
480.5977180826
  0
LINE
  5
252
100
AcDbEntity
  8
02___PRT_ALL_AXES
100
AcDbLine
 62
40
  6
CONTINUOUS
 10
582.5238247234
 20
478.6681509167
 11
582.5238247234
 21
481.0608494608
  0
LINE
  5
253
100
AcDbEntity
  8
02___PRT_ALL_AXES
100
AcDbLine
 62
40
  6
CONTINUOUS
 10
583.0392286703
 20
479.4264397693
 11
583.0392286703
 21
478.4702884178
  0
LINE
  5
254
100
AcDbEntity
  8
02___PRT_ALL_AXES
100
AcDbLine
 62
40
  6
CONTINUOUS
 10
583.0392286703
 20
480.6156512396
 11
583.0392286703
 21
479.8676562218
  0
LINE
  5
255
100
AcDbEntity
  8
02___PRT_ALL_AXES
100
AcDbLine
 62
40
  6
CONTINUOUS
 10
593.9967785914
 20
478.6681509167
 11
593.9967785914
 21
481.0608494608
  0
LINE
  5
256
100
AcDbEntity
  8
02___PRT_ALL_AXES
100
AcDbLine
 62
40
  6
CONTINUOUS
 10
594.4973687389
 20
480.2703721112
 11
594.4973687389
 21
478.4702884178
  0
LINE
  5
257
100
AcDbEntity
  8
02___PRT_ALL_AXES
100
AcDbLine
 62
40
  6
CONTINUOUS
 10
595.8142788987
 20
479.2285671387
 11
595.8142788987
 21
481.0608494608
  0
LINE
  5
258
100
AcDbEntity
  8
02___PRT_ALL_AXES
100
AcDbLine
 62
40
  6
CONTINUOUS
 10
596.3148690462
 20
481.0608494608
 11
596.3148690462
 21
478.4702884178
  0
LINE
  5
259
100
AcDbEntity
  8
02___PRT_ALL_AXES
100
AcDbLine
 62
40
  6
CONTINUOUS
 10
596.6429473324
 20
480.7949220192
 11
596.6429473324
 21
481.0608494608
  0
LINE
  5
25A
100
AcDbEntity
  8
02___PRT_ALL_AXES
100
AcDbLine
 62
40
  6
CONTINUOUS
 10
597.4028220322
 20
478.6681509167
 11
597.4028220322
 21
480.5977180826
  0
LINE
  5
25B
100
AcDbEntity
  8
02___PRT_ALL_AXES
100
AcDbLine
 62
40
  6
CONTINUOUS
 10
597.9453989657
 20
480.5977180826
 11
597.9453989657
 21
478.4702884178
  0
LINE
  5
25C
100
AcDbEntity
  8
02___PRT_ALL_AXES
100
AcDbLine
 62
40
  6
CONTINUOUS
 10
598.7052736654
 20
481.0608494608
 11
598.7052736654
 21
480.5977180826
  0
LINE
  5
25D
100
AcDbEntity
  8
02___PRT_ALL_AXES
100
AcDbLine
 62
40
  6
CONTINUOUS
 10
599.0566384691
 20
478.6681509167
 11
599.0566384691
 21
481.0608494608
  0
LINE
  5
25E
100
AcDbEntity
  8
02___PRT_ALL_AXES
100
AcDbLine
 62
40
  6
CONTINUOUS
 10
599.5981495842
 20
481.0608494608
 11
599.5981495842
 21
478.4702884178
  0
LINE
  5
25F
100
AcDbEntity
  8
02___PRT_ALL_AXES
100
AcDbLine
 62
40
  6
CONTINUOUS
 10
600.1216602105
 20
478.6681509167
 11
600.1216602105
 21
481.0608494608
  0
LINE
  5
260
100
AcDbEntity
  8
02___PRT_ALL_AXES
100
AcDbLine
 62
40
  6
CONTINUOUS
 10
600.6211953054
 20
480.2703721112
 11
600.6211953054
 21
478.4702884178
  0
LINE
  5
261
100
AcDbEntity
  8
02___PRT_ALL_AXES
100
AcDbLine
 62
40
  6
CONTINUOUS
 10
601.938805245
 20
479.2285671387
 11
601.938805245
 21
481.0608494608
  0
LINE
  5
262
100
AcDbEntity
  8
02___PRT_ALL_AXES
100
AcDbLine
 62
40
  6
CONTINUOUS
 10
602.4393953924
 20
481.0608494608
 11
602.4393953924
 21
478.4702884178
  0
LINE
  5
263
100
AcDbEntity
  8
02___PRT_ALL_AXES
100
AcDbLine
 62
40
  6
CONTINUOUS
 10
607.6854828148
 20
478.2766001905
 11
607.6854828148
 21
481.5497458211
  0
LINE
  5
264
100
AcDbEntity
  8
02___PRT_ALL_AXES
100
AcDbLine
 62
7
  6
CONTINUOUS
 10
622.45138336
 20
488.740661066
 11
622.45138336
 21
485.6041353801
  0
LINE
  5
265
100
AcDbEntity
  8
02___PRT_ALL_AXES
100
AcDbLine
 62
7
  6
CONTINUOUS
 10
622.45138336
 20
479.9041794518
 11
622.45138336
 21
462.4249242667
  0
LINE
  5
266
100
AcDbEntity
  8
02___PRT_ALL_AXES
100
AcDbLine
 62
7
  6
CONTINUOUS
 10
622.45138336
 20
479.9350902032
 11
622.45138336
 21
479.9497913037
  0
LINE
  5
267
100
AcDbEntity
  8
02___PRT_ALL_AXES
100
AcDbLine
 62
7
  6
CONTINUOUS
 10
622.45138336
 20
485.5585188362
 11
622.45138336
 21
485.5696590332
  0
LINE
  5
268
100
AcDbEntity
  8
02___PRT_ALL_AXES
100
AcDbLine
 62
7
  6
CONTINUOUS
 10
622.70138336
 20
479.95415507
 11
622.70138336
 21
485.55415507
  0
LINE
  5
269
100
AcDbEntity
  8
02___PRT_ALL_AXES
100
AcDbLine
 62
40
  6
CONTINUOUS
 10
590.2171496479
 20
481.0608494608
 11
590.6450595922
 21
478.4702884178
  0
LINE
  5
26A
100
AcDbEntity
  8
02___PRT_ALL_AXES
100
AcDbLine
 62
40
  6
CONTINUOUS
 10
590.07956218
 20
478.6605217262
 11
589.8580226717
 21
480.2205746724
  0
LINE
  5
26B
100
AcDbEntity
  8
0
100
AcDbLine
 62
7
  6
CONTINUOUS
 10
630.45138336
 20
175.1831334719
 11
630.45138336
 21
170.2989187939
  0
LINE
  5
26C
100
AcDbEntity
  8
0
100
AcDbLine
 62
7
  6
CONTINUOUS
 10
634.45138336
 20
136.1398024678
 11
634.45138336
 21
176.3107306694
  0
LINE
  5
26D
100
AcDbEntity
  8
02___PRT_ALL_AXES
100
AcDbLine
 62
40
  6
CONTINUOUS
 10
586.1849325062
 20
481.0608494608
 11
587.246778324
 21
478.4702884178
  0
LINE
  5
26E
100
AcDbEntity
  8
02___PRT_ALL_AXES
100
AcDbLine
 62
40
  6
CONTINUOUS
 10
588.7242071964
 20
478.8729941755
 11
588.1625854874
 21
480.2487915324
  0
LINE
  5
26F
100
AcDbEntity
  8
02___PRT_ALL_AXES
100
AcDbLine
 62
40
  6
CONTINUOUS
 10
588.3082796348
 20
481.0608494608
 11
589.0219473383
 21
479.3006138502
  0
LINE
  5
270
100
AcDbEntity
  8
02___PRT_ALL_AXES
100
AcDbLine
 62
40
  6
CONTINUOUS
 10
586.6276562499
 20
478.6465804697
 11
586.4749104756
 21
479.0416469051
  0
LINE
  5
271
100
AcDbEntity
  8
02___PRT_ALL_AXES
100
AcDbLine
 62
40
  6
CONTINUOUS
 10
585.9175305086
 20
480.504100924
 11
586.3034644328
 21
479.4941602333
  0
LINE
  5
272
100
AcDbEntity
  8
02___PRT_ALL_AXES
100
AcDbLine
 62
40
  6
CONTINUOUS
 10
583.8788352
 20
479.5193983656
 11
584.509250643
 21
478.4702884178
  0
LINE
  5
273
100
AcDbEntity
  8
02___PRT_ALL_AXES
100
AcDbLine
 62
40
  6
CONTINUOUS
 10
583.8329727107
 20
478.6176949157
 11
583.3944799431
 21
479.4264397693
  0
LINE
  5
274
100
AcDbEntity
  8
02___PRT_ALL_AXES
100
AcDbLine
 62
40
  6
CONTINUOUS
 10
604.3105203615
 20
481.0608494608
 11
605.3716663995
 21
478.4702884178
  0
LINE
  5
275
100
AcDbEntity
  8
02___PRT_ALL_AXES
100
AcDbLine
 62
40
  6
CONTINUOUS
 10
604.7532441052
 20
478.6465804697
 11
604.5997877853
 21
479.0416469051
  0
LINE
  5
276
100
AcDbEntity
  8
02___PRT_ALL_AXES
100
AcDbLine
 62
40
  6
CONTINUOUS
 10
604.0427630911
 20
480.504100924
 11
604.4279864697
 21
479.4941602333
  0
LINE
  5
277
100
AcDbEntity
  8
02___PRT_ALL_AXES
100
AcDbLine
 62
40
  6
CONTINUOUS
 10
601.8170973948
 20
478.6498935444
 11
600.6211953054
 21
480.2703721112
  0
LINE
  5
278
100
AcDbEntity
  8
02___PRT_ALL_AXES
100
AcDbLine
 62
40
  6
CONTINUOUS
 10
595.6925710485
 20
478.6498935444
 11
594.4973687389
 21
480.2703721112
  0
LINE
  5
279
100
AcDbEntity
  8
02___PRT_ALL_AXES
100
AcDbLine
 62
40
  6
CONTINUOUS
 10
594.4860753701
 20
481.0608494608
 11
595.8142788987
 21
479.2285671387
  0
LINE
  5
27A
100
AcDbEntity
  8
02___PRT_ALL_AXES
100
AcDbLine
 62
40
  6
CONTINUOUS
 10
600.6102572093
 20
481.0608494608
 11
601.938805245
 21
479.2285671387
  0
LINE
  5
27B
100
AcDbEntity
  8
0
100
AcDbLine
 62
3
  6
CONTINUOUS
 10
739.45138336
 20
318.5568811374
 11
739.45138336
 21
318.4422283812
  0
LINE
  5
27C
100
AcDbEntity
  8
02___PRT_ALL_AXES
100
AcDbLine
 62
3
  6
CONTINUOUS
 10
739.45138336
 20
318.5568811373
 11
739.45138336
 21
318.4422283811
  0
LINE
  5
27D
100
AcDbEntity
  8
0
100
AcDbLine
 62
7
  6
CONTINUOUS
 10
618.7944051732
 20
166.9737016461
 11
623.926484601
 21
169.047196328
  0
LINE
  5
27E
100
AcDbEntity
  8
0
100
AcDbLine
 62
7
  6
CONTINUOUS
 10
558.8530159474
 20
484.6063391079
 11
562.20138336
 21
485.3692548986
  0
LINE
  5
27F
100
AcDbEntity
  8
0
100
AcDbLine
 62
7
  6
CONTINUOUS
 10
622.70138336
 20
479.95415507
 11
622.4487352475
 21
479.9497450808
  0
LINE
  5
280
100
AcDbEntity
  8
02___PRT_ALL_AXES
100
AcDbLine
 62
7
  6
CONTINUOUS
 10
622.4487352475
 20
479.9497450808
 11
622.70138336
 21
479.95415507
  0
LINE
  5
281
100
AcDbEntity
  8
02___PRT_ALL_AXES
100
AcDbLine
 62
7
  6
CONTINUOUS
 10
562.20138336
 20
485.55415507
 11
562.4541357335
 21
485.5585668791
  0
LINE
  5
282
100
AcDbEntity
  8
0
100
AcDbLine
 62
7
  6
CONTINUOUS
 10
562.20138336
 20
485.55415507
 11
562.4541357335
 21
485.5585668791
  0
LINE
  5
283
100
AcDbEntity
  8
02___PRT_ALL_AXES
100
AcDbLine
 62
40
  6
CONTINUOUS
 10
578.9988617857
 20
477.0405700092
 11
606.3721038514
 21
477.0405700092
  0
LINE
  5
284
100
AcDbEntity
  8
02___PRT_ALL_AXES
100
AcDbLine
 62
40
  6
CONTINUOUS
 10
605.3716663995
 20
478.4702884178
 11
605.0009015475
 21
478.4702884178
  0
LINE
  5
285
100
AcDbEntity
  8
02___PRT_ALL_AXES
100
AcDbLine
 62
40
  6
CONTINUOUS
 10
603.2712397497
 20
478.4702884178
 11
602.7329045582
 21
478.4702884178
  0
LINE
  5
286
100
AcDbEntity
  8
02___PRT_ALL_AXES
100
AcDbLine
 62
40
  6
CONTINUOUS
 10
602.4393953924
 20
478.4702884178
 11
602.1451864469
 21
478.4702884178
  0
LINE
  5
287
100
AcDbEntity
  8
02___PRT_ALL_AXES
100
AcDbLine
 62
40
  6
CONTINUOUS
 10
600.6211953054
 20
478.4702884178
 11
600.331217336
 21
478.4702884178
  0
LINE
  5
288
100
AcDbEntity
  8
02___PRT_ALL_AXES
100
AcDbLine
 62
40
  6
CONTINUOUS
 10
599.5981495842
 20
478.4702884178
 11
599.265829556
 21
478.4702884178
  0
LINE
  5
289
100
AcDbEntity
  8
02___PRT_ALL_AXES
100
AcDbLine
 62
40
  6
CONTINUOUS
 10
597.9453989657
 20
478.4702884178
 11
597.6130789374
 21
478.4702884178
  0
LINE
  5
28A
100
AcDbEntity
  8
02___PRT_ALL_AXES
100
AcDbLine
 62
40
  6
CONTINUOUS
 10
596.3148690462
 20
478.4702884178
 11
596.0206493348
 21
478.4702884178
  0
LINE
  5
28B
100
AcDbEntity
  8
02___PRT_ALL_AXES
100
AcDbLine
 62
40
  6
CONTINUOUS
 10
594.4973687389
 20
478.4702884178
 11
594.2073907695
 21
478.4702884178
  0
LINE
  5
28C
100
AcDbEntity
  8
02___PRT_ALL_AXES
100
AcDbLine
 62
40
  6
CONTINUOUS
 10
590.6450595922
 20
478.4702884178
 11
590.327919402
 21
478.4702884178
  0
LINE
  5
28D
100
AcDbEntity
  8
02___PRT_ALL_AXES
100
AcDbLine
 62
40
  6
CONTINUOUS
 10
587.9149388109
 20
478.4702884178
 11
587.3956483949
 21
478.4702884178
  0
LINE
  5
28E
100
AcDbEntity
  8
02___PRT_ALL_AXES
100
AcDbLine
 62
40
  6
CONTINUOUS
 10
587.246778324
 20
478.4702884178
 11
586.876013472
 21
478.4702884178
  0
LINE
  5
28F
100
AcDbEntity
  8
02___PRT_ALL_AXES
100
AcDbLine
 62
40
  6
CONTINUOUS
 10
585.14636244
 20
478.4702884178
 11
584.6080272485
 21
478.4702884178
  0
LINE
  5
290
100
AcDbEntity
  8
02___PRT_ALL_AXES
100
AcDbLine
 62
40
  6
CONTINUOUS
 10
584.509250643
 20
478.4702884178
 11
584.0961437322
 21
478.4702884178
  0
LINE
  5
291
100
AcDbEntity
  8
02___PRT_ALL_AXES
100
AcDbLine
 62
40
  6
CONTINUOUS
 10
583.0392286703
 20
478.4702884178
 11
582.7337263559
 21
478.4702884178
  0
LINE
  5
292
100
AcDbEntity
  8
02___PRT_ALL_AXES
100
AcDbLine
 62
40
  6
CONTINUOUS
 10
581.4355164646
 20
478.4702884178
 11
581.1032072022
 21
478.4702884178
  0
LINE
  5
293
100
AcDbEntity
  8
02___PRT_ALL_AXES
100
AcDbLine
 62
40
  6
CONTINUOUS
 10
589.2396111432
 20
478.6857497267
 11
588.9912539211
 21
478.6857497267
  0
LINE
  5
294
100
AcDbEntity
  8
02___PRT_ALL_AXES
100
AcDbLine
 62
40
  6
CONTINUOUS
 10
604.5997877853
 20
479.0416469051
 11
603.4857276311
 21
479.0416469051
  0
LINE
  5
295
100
AcDbEntity
  8
02___PRT_ALL_AXES
100
AcDbLine
 62
40
  6
CONTINUOUS
 10
586.4749104756
 20
479.0416469051
 11
585.3601397758
 21
479.0416469051
  0
LINE
  5
296
100
AcDbEntity
  8
02___PRT_ALL_AXES
100
AcDbLine
 62
40
  6
CONTINUOUS
 10
583.3944799431
 20
479.4264397693
 11
583.0392286703
 21
479.4264397693
  0
LINE
  5
297
100
AcDbEntity
  8
02___PRT_ALL_AXES
100
AcDbLine
 62
40
  6
CONTINUOUS
 10
604.4279864697
 20
479.4941602333
 11
603.6571736739
 21
479.4941602333
  0
LINE
  5
298
100
AcDbEntity
  8
02___PRT_ALL_AXES
100
AcDbLine
 62
40
  6
CONTINUOUS
 10
586.3034644328
 20
479.4941602333
 11
585.5322963642
 21
479.4941602333
  0
LINE
  5
299
100
AcDbEntity
  8
02___PRT_ALL_AXES
100
AcDbLine
 62
40
  6
CONTINUOUS
 10
583.0392286703
 20
479.8676562218
 11
583.3983556465
 21
479.8676562218
  0
LINE
  5
29A
100
AcDbEntity
  8
02___PRT_ALL_AXES
100
AcDbLine
 62
40
  6
CONTINUOUS
 10
598.7052736654
 20
480.5977180826
 11
597.9453989657
 21
480.5977180826
  0
LINE
  5
29B
100
AcDbEntity
  8
02___PRT_ALL_AXES
100
AcDbLine
 62
40
  6
CONTINUOUS
 10
597.4028220322
 20
480.5977180826
 11
596.8532042377
 21
480.5977180826
  0
LINE
  5
29C
100
AcDbEntity
  8
02___PRT_ALL_AXES
100
AcDbLine
 62
40
  6
CONTINUOUS
 10
582.1953911644
 20
480.5977180826
 11
581.4355164646
 21
480.5977180826
  0
LINE
  5
29D
100
AcDbEntity
  8
02___PRT_ALL_AXES
100
AcDbLine
 62
40
  6
CONTINUOUS
 10
580.892950297
 20
480.5977180826
 11
580.3433217366
 21
480.5977180826
  0
LINE
  5
29E
100
AcDbEntity
  8
02___PRT_ALL_AXES
100
AcDbLine
 62
40
  6
CONTINUOUS
 10
583.3983556465
 20
480.6156512396
 11
583.0392286703
 21
480.6156512396
  0
LINE
  5
29F
100
AcDbEntity
  8
02___PRT_ALL_AXES
100
AcDbLine
 62
40
  6
CONTINUOUS
 10
580.1330755972
 20
481.0608494608
 11
582.1953911644
 21
481.0608494608
  0
LINE
  5
2A0
100
AcDbEntity
  8
02___PRT_ALL_AXES
100
AcDbLine
 62
40
  6
CONTINUOUS
 10
582.5238247234
 20
481.0608494608
 11
583.443862863
 21
481.0608494608
  0
LINE
  5
2A1
100
AcDbEntity
  8
02___PRT_ALL_AXES
100
AcDbLine
 62
40
  6
CONTINUOUS
 10
585.6621108938
 20
481.0608494608
 11
586.1849325062
 21
481.0608494608
  0
LINE
  5
2A2
100
AcDbEntity
  8
02___PRT_ALL_AXES
100
AcDbLine
 62
40
  6
CONTINUOUS
 10
587.8232138323
 20
481.0608494608
 11
588.3082796348
 21
481.0608494608
  0
LINE
  5
2A3
100
AcDbEntity
  8
02___PRT_ALL_AXES
100
AcDbLine
 62
40
  6
CONTINUOUS
 10
589.7363148215
 20
481.0608494608
 11
590.2171496479
 21
481.0608494608
  0
LINE
  5
2A4
100
AcDbEntity
  8
02___PRT_ALL_AXES
100
AcDbLine
 62
40
  6
CONTINUOUS
 10
593.9967785914
 20
481.0608494608
 11
594.4860753701
 21
481.0608494608
  0
LINE
  5
2A5
100
AcDbEntity
  8
02___PRT_ALL_AXES
100
AcDbLine
 62
40
  6
CONTINUOUS
 10
595.8142788987
 20
481.0608494608
 11
596.3148690462
 21
481.0608494608
  0
LINE
  5
2A6
100
AcDbEntity
  8
02___PRT_ALL_AXES
100
AcDbLine
 62
40
  6
CONTINUOUS
 10
596.6429473324
 20
481.0608494608
 11
598.7052736654
 21
481.0608494608
  0
LINE
  5
2A7
100
AcDbEntity
  8
02___PRT_ALL_AXES
100
AcDbLine
 62
40
  6
CONTINUOUS
 10
600.1216602105
 20
481.0608494608
 11
600.6102572093
 21
481.0608494608
  0
LINE
  5
2A8
100
AcDbEntity
  8
02___PRT_ALL_AXES
100
AcDbLine
 62
40
  6
CONTINUOUS
 10
599.0566384691
 20
481.0608494608
 11
599.5981495842
 21
481.0608494608
  0
LINE
  5
2A9
100
AcDbEntity
  8
02___PRT_ALL_AXES
100
AcDbLine
 62
40
  6
CONTINUOUS
 10
601.938805245
 20
481.0608494608
 11
602.4393953924
 21
481.0608494608
  0
LINE
  5
2AA
100
AcDbEntity
  8
02___PRT_ALL_AXES
100
AcDbLine
 62
40
  6
CONTINUOUS
 10
603.7869989694
 20
481.0608494608
 11
604.3105203615
 21
481.0608494608
  0
LINE
  5
2AB
100
AcDbEntity
  8
02___PRT_ALL_AXES
100
AcDbLine
 62
40
  6
CONTINUOUS
 10
606.3721038514
 20
482.7857760024
 11
578.9988617857
 21
482.7857760024
  0
LINE
  5
2AC
100
AcDbEntity
  8
0
100
AcDbLine
 62
7
  6
CONTINUOUS
 10
562.4540314725
 20
479.9497450808
 11
562.20138336
 21
479.95415507
  0
LINE
  5
2AD
100
AcDbEntity
  8
02___PRT_ALL_AXES
100
AcDbLine
 62
7
  6
CONTINUOUS
 10
562.20138336
 20
479.95415507
 11
562.4540314725
 21
479.9497450808
  0
LINE
  5
2AE
100
AcDbEntity
  8
0
100
AcDbLine
 62
7
  6
CONTINUOUS
 10
622.70138336
 20
485.55415507
 11
622.4486309865
 21
485.5585668791
  0
LINE
  5
2AF
100
AcDbEntity
  8
02___PRT_ALL_AXES
100
AcDbLine
 62
7
  6
CONTINUOUS
 10
622.4486309865
 20
485.5585668791
 11
622.70138336
 21
485.55415507
  0
LINE
  5
2B0
100
AcDbEntity
  8
0
100
AcDbLine
 62
7
  6
CONTINUOUS
 10
622.70138336
 20
485.3692548986
 11
626.0497507726
 21
484.6063391079
  0
LINE
  5
2B1
100
AcDbEntity
  8
0
100
AcDbLine
 62
7
  6
CONTINUOUS
 10
619.8324235187
 20
490.6666031277
 11
621.4067398628
 21
489.7276823994
  0
LINE
  5
2B2
100
AcDbEntity
  8
0
100
AcDbLine
 62
7
  6
CONTINUOUS
 10
621.4776296804
 20
489.6833482476
 11
621.4067059922
 21
489.7277033727
  0
LINE
  5
2B3
100
AcDbEntity
  8
02___PRT_ALL_AXES
100
AcDbLine
 62
3
  6
CONTINUOUS
 10
467.1901282465
 20
1052.5748876505
 11
465.8113389829
 21
1050.1867818338
  0
LINE
  5
2B4
100
AcDbEntity
  8
02___PRT_ALL_AXES
100
AcDbLine
 62
7
  6
CONTINUOUS
 10
604.95138336
 20
584.5514425858
 11
579.95138336
 21
584.5514425858
  0
LINE
  5
2B5
100
AcDbEntity
  8
0
100
AcDbLine
 62
7
  6
CONTINUOUS
 10
629.95138336
 20
586.5878678122
 11
617.95138336
 21
586.5878678122
  0
LINE
  5
2B6
100
AcDbEntity
  8
0
100
AcDbLine
 62
7
  6
CONTINUOUS
 10
566.95138336
 20
586.5878678122
 11
554.95138336
 21
586.5878678122
  0
LINE
  5
2B7
100
AcDbEntity
  8
0
100
AcDbLine
 62
7
  6
CONTINUOUS
 10
703.0852835321
 20
588.0878678122
 11
696.6525405716
 21
588.0878678122
  0
LINE
  5
2B8
100
AcDbEntity
  8
0
100
AcDbLine
 62
7
  6
CONTINUOUS
 10
488.2502261484
 20
588.0878678122
 11
481.8174831879
 21
588.0878678122
  0
LINE
  5
2B9
100
AcDbEntity
  8
0
100
AcDbLine
 62
7
  6
CONTINUOUS
 10
745.4513833599
 20
589.5878678122
 11
629.95138336
 21
589.5878678122
  0
LINE
  5
2BA
100
AcDbEntity
  8
0
100
AcDbLine
 62
7
  6
CONTINUOUS
 10
554.95138336
 20
589.5878678122
 11
439.4513834187
 21
589.5878678122
  0
LINE
  5
2BB
100
AcDbEntity
  8
0
100
AcDbLine
 62
7
  6
CONTINUOUS
 10
569.95138336
 20
589.5878678122
 11
614.95138336
 21
589.5878678122
  0
LINE
  5
2BC
100
AcDbEntity
  8
0
100
AcDbLine
 62
7
  6
CONTINUOUS
 10
558.95138336
 20
594.5878678122
 11
625.95138336
 21
594.5878678122
  0
LINE
  5
2BD
100
AcDbEntity
  8
0
100
AcDbLine
 62
7
  6
CONTINUOUS
 10
590.3248975438
 20
598.5514425858
 11
594.5779027736
 21
598.5514425858
  0
LINE
  5
2BE
100
AcDbEntity
  8
0
100
AcDbLine
 62
7
  6
CONTINUOUS
 10
444.9524709872
 20
603.5878678122
 11
554.95138336
 21
603.5878678122
  0
LINE
  5
2BF
100
AcDbEntity
  8
0
100
AcDbLine
 62
7
  6
CONTINUOUS
 10
629.95138336
 20
603.5878678122
 11
739.9503059408
 21
603.5878678122
  0
LINE
  5
2C0
100
AcDbEntity
  8
0
100
AcDbLine
 62
7
  6
CONTINUOUS
 10
739.95138336
 20
605.5878678122
 11
629.95138336
 21
605.5878678122
  0
LINE
  5
2C1
100
AcDbEntity
  8
0
100
AcDbLine
 62
7
  6
CONTINUOUS
 10
554.95138336
 20
605.5878678122
 11
444.95138336
 21
605.5878678122
  0
LINE
  5
2C2
100
AcDbEntity
  8
0
100
AcDbLine
 62
7
  6
CONTINUOUS
 10
579.9084426651
 20
629.2404239314
 11
579.7730976132
 21
629.2162246868
  0
LINE
  5
2C3
100
AcDbEntity
  8
0
100
AcDbLine
 62
7
  6
CONTINUOUS
 10
551.0168957166
 20
624.2510464654
 11
551.55138336
 21
624.3297480045
  0
LINE
  5
2C4
100
AcDbEntity
  8
0
100
AcDbLine
 62
7
  6
CONTINUOUS
 10
551.05138336
 20
624.3692213644
 11
551.55138336
 21
624.442844712
  0
LINE
  5
2C5
100
AcDbEntity
  8
0
100
AcDbLine
 62
7
  6
CONTINUOUS
 10
550.45138336
 20
623.5878678122
 11
551.05138336
 21
623.5878678122
  0
LINE
  5
2C6
100
AcDbEntity
  8
0
100
AcDbLine
 62
7
  6
CONTINUOUS
 10
633.85138336
 20
623.5878678122
 11
634.45138336
 21
623.5878678122
  0
LINE
  5
2C7
100
AcDbEntity
  8
0
100
AcDbLine
 62
7
  6
CONTINUOUS
 10
634.45138336
 20
623.6794613833
 11
633.85138336
 21
623.6794613833
  0
LINE
  5
2C8
100
AcDbEntity
  8
0
100
AcDbLine
 62
7
  6
CONTINUOUS
 10
551.05138336
 20
623.6794613833
 11
550.45138336
 21
623.6794613833
  0
LINE
  5
2C9
100
AcDbEntity
  8
02___PRT_ALL_AXES
100
AcDbLine
 62
7
  6
CONTINUOUS
 10
549.95138336
 20
626.8378678122
 11
550.45138336
 21
626.8378678122
  0
LINE
  5
2CA
100
AcDbEntity
  8
02___PRT_ALL_AXES
100
AcDbLine
 62
7
  6
CONTINUOUS
 10
551.05138336
 20
626.8378678122
 11
552.3512979211
 21
626.8378678122
  0
LINE
  5
2CB
100
AcDbEntity
  8
0
100
AcDbLine
 62
7
  6
CONTINUOUS
 10
552.3533050753
 20
626.8378678122
 11
554.1505196214
 21
626.8378678122
  0
LINE
  5
2CC
100
AcDbEntity
  8
0
100
AcDbLine
 62
7
  6
CONTINUOUS
 10
630.7522470986
 20
626.8378678122
 11
632.5494616447
 21
626.8378678122
  0
LINE
  5
2CD
100
AcDbEntity
  8
02___PRT_ALL_AXES
100
AcDbLine
 62
7
  6
CONTINUOUS
 10
632.5514687988
 20
626.8378678122
 11
633.85138336
 21
626.8378678122
  0
LINE
  5
2CE
100
AcDbEntity
  8
02___PRT_ALL_AXES
100
AcDbLine
 62
7
  6
CONTINUOUS
 10
634.45138336
 20
626.8378678122
 11
634.95138336
 21
626.8378678122
  0
LINE
  5
2CF
100
AcDbEntity
  8
02___PRT_ALL_AXES
100
AcDbLine
 62
7
  6
CONTINUOUS
 10
549.95138336
 20
630.3378678122
 11
550.45138336
 21
630.3378678122
  0
LINE
  5
2D0
100
AcDbEntity
  8
02___PRT_ALL_AXES
100
AcDbLine
 62
7
  6
CONTINUOUS
 10
551.05138336
 20
630.3378678122
 11
554.95138336
 21
630.3378678122
  0
LINE
  5
2D1
100
AcDbEntity
  8
02___PRT_ALL_AXES
100
AcDbLine
 62
7
  6
CONTINUOUS
 10
629.95138336
 20
630.3378678122
 11
633.85138336
 21
630.3378678122
  0
LINE
  5
2D2
100
AcDbEntity
  8
02___PRT_ALL_AXES
100
AcDbLine
 62
7
  6
CONTINUOUS
 10
634.45138336
 20
630.3378678122
 11
634.95138336
 21
630.3378678122
  0
LINE
  5
2D3
100
AcDbEntity
  8
02___PRT_ALL_AXES
100
AcDbLine
 62
7
  6
CONTINUOUS
 10
549.95138336
 20
633.3248678122
 11
550.45138336
 21
633.3248678122
  0
LINE
  5
2D4
100
AcDbEntity
  8
02___PRT_ALL_AXES
100
AcDbLine
 62
7
  6
CONTINUOUS
 10
551.05138336
 20
633.3248678122
 11
554.95138336
 21
633.3248678122
  0
LINE
  5
2D5
100
AcDbEntity
  8
02___PRT_ALL_AXES
100
AcDbLine
 62
7
  6
CONTINUOUS
 10
629.95138336
 20
633.3248678122
 11
633.85138336
 21
633.3248678122
  0
LINE
  5
2D6
100
AcDbEntity
  8
02___PRT_ALL_AXES
100
AcDbLine
 62
7
  6
CONTINUOUS
 10
634.45138336
 20
633.3248678122
 11
634.95138336
 21
633.3248678122
  0
LINE
  5
2D7
100
AcDbEntity
  8
0
100
AcDbLine
 62
7
  6
CONTINUOUS
 10
549.95138336
 20
634.8248678122
 11
550.45138336
 21
634.8248678122
  0
LINE
  5
2D8
100
AcDbEntity
  8
0
100
AcDbLine
 62
7
  6
CONTINUOUS
 10
552.9656055738
 20
634.8248678122
 11
554.95138336
 21
634.8248678122
  0
LINE
  5
2D9
100
AcDbEntity
  8
0
100
AcDbLine
 62
7
  6
CONTINUOUS
 10
629.95138336
 20
634.8248678122
 11
631.9371611465
 21
634.8248678122
  0
LINE
  5
2DA
100
AcDbEntity
  8
0
100
AcDbLine
 62
7
  6
CONTINUOUS
 10
634.45138336
 20
634.8248678122
 11
634.95138336
 21
634.8248678122
  0
LINE
  5
2DB
100
AcDbEntity
  8
0
100
AcDbLine
 62
7
  6
CONTINUOUS
 10
556.45138336
 20
635.070508778
 11
628.45138336
 21
635.070508778
  0
LINE
  5
2DC
100
AcDbEntity
  8
0
100
AcDbLine
 62
7
  6
CONTINUOUS
 10
556.45138336
 20
635.1859505203
 11
628.45138336
 21
635.1859505203
  0
LINE
  5
2DD
100
AcDbEntity
  8
0
100
AcDbLine
 62
7
  6
CONTINUOUS
 10
550.1766097433
 20
623.1181175128
 11
549.95138336
 21
623.1628900415
  0
LINE
  5
2DE
100
AcDbEntity
  8
0
100
AcDbLine
 62
7
  6
CONTINUOUS
 10
623.8356293538
 20
614.5895625685
 11
623.6577293098
 21
614.6308511473
  0
LINE
  5
2DF
100
AcDbEntity
  8
0
100
AcDbLine
 62
7
  6
CONTINUOUS
 10
577.912437445
 20
634.9382396396
 11
578.0477824968
 21
634.9624388842
  0
LINE
  5
2E0
100
AcDbEntity
  8
0
100
AcDbLine
 62
7
  6
CONTINUOUS
 10
556.45138336
 20
637.2291768498
 11
628.45138336
 21
637.2291768498
  0
LINE
  5
2E1
100
AcDbEntity
  8
0
100
AcDbLine
 62
7
  6
CONTINUOUS
 10
556.45138336
 20
638.7458926994
 11
628.45138336
 21
638.7458926994
  0
LINE
  5
2E2
100
AcDbEntity
  8
0
100
AcDbLine
 62
7
  6
CONTINUOUS
 10
628.45138336
 20
638.9791936396
 11
556.45138336
 21
638.9791936396
  0
LINE
  5
2E3
100
AcDbEntity
  8
0
100
AcDbLine
 62
7
  6
CONTINUOUS
 10
628.45138336
 20
639.5972365351
 11
556.45138336
 21
639.5972365351
  0
LINE
  5
2E4
100
AcDbEntity
  8
0
100
AcDbLine
 62
7
  6
CONTINUOUS
 10
558.95138336
 20
639.931912695
 11
625.95138336
 21
639.931912695
  0
LINE
  5
2E5
100
AcDbEntity
  8
0
100
AcDbLine
 62
7
  6
CONTINUOUS
 10
590.4325464089
 20
632.0667884407
 11
590.254646365
 21
632.1080770194
  0
LINE
  5
2E6
100
AcDbEntity
  8
0
100
AcDbLine
 62
7
  6
CONTINUOUS
 10
590.254646365
 20
632.1080770194
 11
623.6577293098
 21
614.6308511473
  0
LINE
  5
2E7
100
AcDbEntity
  8
0
100
AcDbLine
 62
7
  6
CONTINUOUS
 10
452.1458969414
 20
1015.3948059897
 11
452.0246218459
 21
1013.0748678122
  0
LINE
  5
2E8
100
AcDbEntity
  8
0
100
AcDbLine
 62
7
  6
CONTINUOUS
 10
452.0269953858
 20
1013.0748678122
 11
452.1482725947
 21
1015.3948407489
  0
LINE
  5
2E9
100
AcDbEntity
  8
0
100
AcDbLine
 62
7
  6
CONTINUOUS
 10
452.110753733
 20
1015.3942917938
 11
451.9894773179
 21
1013.0748678122
  0
LINE
  5
2EA
100
AcDbEntity
  8
0
100
AcDbLine
 62
7
  6
CONTINUOUS
 10
597.6212610429
 20
635.070508778
 11
626.4578637164
 21
619.982565574
  0
LINE
  5
2EB
100
AcDbEntity
  8
0
100
AcDbLine
 62
7
  6
CONTINUOUS
 10
614.95138336
 20
589.5878678122
 11
617.95138336
 21
586.5878678122
  0
LINE
  5
2EC
100
AcDbEntity
  8
0
100
AcDbLine
 62
7
  6
CONTINUOUS
 10
444.95138336
 20
605.5878678122
 11
444.95138336
 21
1008.5748678122
  0
LINE
  5
2ED
100
AcDbEntity
  8
0
100
AcDbLine
 62
3
  6
CONTINUOUS
 10
445.45138336
 20
1044.3516842125
 11
445.45138336
 21
1016.6340404399
  0
LINE
  5
2EE
100
AcDbEntity
  8
02___PRT_ALL_AXES
100
AcDbLine
 62
3
  6
CONTINUOUS
 10
445.45138336
 20
1044.3516842125
 11
445.45138336
 21
1016.6340404399
  0
LINE
  5
2EF
100
AcDbEntity
  8
0
100
AcDbLine
 62
7
  6
CONTINUOUS
 10
445.95138336
 20
1012.0748678122
 11
445.95138336
 21
1010.4748678122
  0
LINE
  5
2F0
100
AcDbEntity
  8
02___PRT_ALL_AXES
100
AcDbLine
 62
7
  6
CONTINUOUS
 10
444.95138336
 20
603.5878678122
 11
439.45138336
 21
589.5878678122
  0
LINE
  5
2F1
100
AcDbEntity
  8
0
100
AcDbLine
 62
7
  6
CONTINUOUS
 10
550.0080551341
 20
622.0382809453
 11
549.95138336
 21
622.4481746669
  0
LINE
  5
2F2
100
AcDbEntity
  8
0
100
AcDbLine
 62
7
  6
CONTINUOUS
 10
550.1766097433
 20
623.1181175128
 11
550.8368908216
 21
618.3424585057
  0
LINE
  5
2F3
100
AcDbEntity
  8
0
100
AcDbLine
 62
7
  6
CONTINUOUS
 10
549.95138336
 20
619.1378678122
 11
549.95138336
 21
636.5378678122
  0
LINE
  5
2F4
100
AcDbEntity
  8
0
100
AcDbLine
 62
7
  6
CONTINUOUS
 10
550.45138336
 20
636.9168612857
 11
550.45138336
 21
623.5878683404
  0
LINE
  5
2F5
100
AcDbEntity
  8
06___PRT_ALL_SURFS
100
AcDbLine
 62
7
  6
CONTINUOUS
 10
550.45138336
 20
634.0315330974
 11
550.45138336
 21
636.9168612857
  0
LINE
  5
2F6
100
AcDbEntity
  8
0
100
AcDbLine
 62
7
  6
CONTINUOUS
 10
551.05138336
 20
634.0315330974
 11
551.05138336
 21
623.5878683404
  0
LINE
  5
2F7
100
AcDbEntity
  8
0
100
AcDbLine
 62
7
  6
CONTINUOUS
 10
551.55138336
 20
619.1378678122
 11
551.55138336
 21
626.0378678122
  0
LINE
  5
2F8
100
AcDbEntity
  8
0
100
AcDbLine
 62
7
  6
CONTINUOUS
 10
554.95138336
 20
609.5878678122
 11
554.95138336
 21
586.5878678122
  0
LINE
  5
2F9
100
AcDbEntity
  8
0
100
AcDbLine
 62
7
  6
CONTINUOUS
 10
554.95138336
 20
627.6378678122
 11
554.95138336
 21
635.02949
  0
LINE
  5
2FA
100
AcDbEntity
  8
0
100
AcDbLine
 62
7
  6
CONTINUOUS
 10
556.45138336
 20
635.1859505203
 11
556.45138336
 21
639.5972365351
  0
LINE
  5
2FB
100
AcDbEntity
  8
0
100
AcDbLine
 62
7
  6
CONTINUOUS
 10
558.95138336
 20
639.931912695
 11
558.95138336
 21
639.5972365351
  0
LINE
  5
2FC
100
AcDbEntity
  8
0
100
AcDbLine
 62
7
  6
CONTINUOUS
 10
558.95138336
 20
594.5878678122
 11
558.95138336
 21
586.5878678122
  0
LINE
  5
2FD
100
AcDbEntity
  8
0
100
AcDbLine
 62
7
  6
CONTINUOUS
 10
625.95138336
 20
639.931912695
 11
625.95138336
 21
639.5972365351
  0
LINE
  5
2FE
100
AcDbEntity
  8
0
100
AcDbLine
 62
7
  6
CONTINUOUS
 10
625.95138336
 20
594.5878678122
 11
625.95138336
 21
586.5878678122
  0
LINE
  5
2FF
100
AcDbEntity
  8
0
100
AcDbLine
 62
7
  6
CONTINUOUS
 10
628.45138336
 20
635.1859505203
 11
628.45138336
 21
639.5972365351
  0
LINE
  5
300
100
AcDbEntity
  8
0
100
AcDbLine
 62
7
  6
CONTINUOUS
 10
629.95138336
 20
586.5878678122
 11
629.95138336
 21
609.5878678122
  0
LINE
  5
301
100
AcDbEntity
  8
0
100
AcDbLine
 62
7
  6
CONTINUOUS
 10
629.95138336
 20
627.6378678122
 11
629.95138336
 21
635.0294899995
  0
LINE
  5
302
100
AcDbEntity
  8
0
100
AcDbLine
 62
7
  6
CONTINUOUS
 10
633.35138336
 20
619.1378678122
 11
633.35138336
 21
626.0378678122
  0
LINE
  5
303
100
AcDbEntity
  8
0
100
AcDbLine
 62
7
  6
CONTINUOUS
 10
633.85138336
 20
634.0315330974
 11
633.85138336
 21
623.5878683404
  0
LINE
  5
304
100
AcDbEntity
  8
0
100
AcDbLine
 62
7
  6
CONTINUOUS
 10
634.45138336
 20
636.9168612857
 11
634.45138336
 21
623.5878683404
  0
LINE
  5
305
100
AcDbEntity
  8
0
100
AcDbLine
 62
7
  6
CONTINUOUS
 10
634.95138336
 20
619.1378678122
 11
634.95138336
 21
636.5378678122
  0
LINE
  5
306
100
AcDbEntity
  8
02___PRT_ALL_AXES
100
AcDbLine
 62
7
  6
CONTINUOUS
 10
739.95138336
 20
603.5878678122
 11
745.45138336
 21
589.5878678122
  0
LINE
  5
307
100
AcDbEntity
  8
0
100
AcDbLine
 62
7
  6
CONTINUOUS
 10
732.7898404863
 20
1015.3942758011
 11
732.9111163511
 21
1013.0748678122
  0
LINE
  5
308
100
AcDbEntity
  8
0
100
AcDbLine
 62
7
  6
CONTINUOUS
 10
732.9132894021
 20
1013.0748678122
 11
732.7920155178
 21
1015.3942433911
  0
LINE
  5
309
100
AcDbEntity
  8
0
100
AcDbLine
 62
7
  6
CONTINUOUS
 10
738.95138336
 20
1012.0748678122
 11
738.95138336
 21
1010.4748678122
  0
LINE
  5
30A
100
AcDbEntity
  8
0
100
AcDbLine
 62
3
  6
CONTINUOUS
 10
739.45138336
 20
1044.3516842125
 11
739.45138336
 21
1016.6340404399
  0
LINE
  5
30B
100
AcDbEntity
  8
02___PRT_ALL_AXES
100
AcDbLine
 62
3
  6
CONTINUOUS
 10
739.45138336
 20
1044.3516842125
 11
739.45138336
 21
1016.6340404399
  0
LINE
  5
30C
100
AcDbEntity
  8
0
100
AcDbLine
 62
7
  6
CONTINUOUS
 10
739.95138336
 20
605.5878678122
 11
739.95138336
 21
1008.5748678122
  0
LINE
  5
30D
100
AcDbEntity
  8
0
100
AcDbLine
 62
7
  6
CONTINUOUS
 10
566.95138336
 20
586.5878678122
 11
569.95138336
 21
589.5878678122
  0
LINE
  5
30E
100
AcDbEntity
  8
0
100
AcDbLine
 62
7
  6
CONTINUOUS
 10
578.040156837
 20
634.9842723425
 11
578.2870652578
 21
635.070508778
  0
LINE
  5
30F
100
AcDbEntity
  8
0
100
AcDbLine
 62
7
  6
CONTINUOUS
 10
579.906230903
 20
629.2382266336
 11
588.5084685536
 21
632.2426859814
  0
LINE
  5
310
100
AcDbEntity
  8
0
100
AcDbLine
 62
7
  6
CONTINUOUS
 10
444.95138336
 20
1008.5748678122
 11
739.95138336
 21
1008.5748678122
  0
LINE
  5
311
100
AcDbEntity
  8
0
100
AcDbLine
 62
7
  6
CONTINUOUS
 10
445.9513836281
 20
1010.4748678122
 11
738.9513830918
 21
1010.4748678122
  0
LINE
  5
312
100
AcDbEntity
  8
0
100
AcDbLine
 62
7
  6
CONTINUOUS
 10
445.95138336
 20
1012.0748678122
 11
738.95138336
 21
1012.0748678122
  0
LINE
  5
313
100
AcDbEntity
  8
0
100
AcDbLine
 62
7
  6
CONTINUOUS
 10
737.9511817096
 20
1013.0748678122
 11
446.9515850103
 21
1013.0748678122
  0
LINE
  5
314
100
AcDbEntity
  8
02___PRT_ALL_AXES
100
AcDbLine
 62
3
  6
CONTINUOUS
 10
717.7126384735
 20
1052.5748876505
 11
719.0914277371
 21
1050.1867818338
  0
ARC
  5
315
100
AcDbEntity
  8
0
100
AcDbCircle
 62
7
  6
CONTINUOUS
 10
555.4512259438
 20
170.3056714912
 40
1.0007011604
100
AcDbArc
 50
234.1815590952
 51
255.6413471665
  0
ARC
  5
316
100
AcDbEntity
  8
0
100
AcDbCircle
 62
7
  6
CONTINUOUS
 10
555.4471056787
 20
170.2989218866
 40
0.9957223187
100
AcDbArc
 50
180.0001779638
 51
182.6553410153
  0
ARC
  5
317
100
AcDbEntity
  8
0
100
AcDbCircle
 62
7
  6
CONTINUOUS
 10
588.6430088795
 20
448.4932419341
 40
48.3065154365
100
AcDbArc
 50
113.9738385942
 51
116.1592765085
  0
ARC
  5
318
100
AcDbEntity
  8
0
100
AcDbCircle
 62
7
  6
CONTINUOUS
 10
589.1020148801
 20
449.033770749
 40
48.0800395293
100
AcDbArc
 50
122.2791220328
 51
122.7363612679
  0
ARC
  5
319
100
AcDbEntity
  8
0
100
AcDbCircle
 62
7
  6
CONTINUOUS
 10
568.5754294903
 20
481.5106007029
 40
9.6602672027
100
AcDbArc
 50
113.502971423
 51
121.7223084358
  0
ARC
  5
31A
100
AcDbEntity
  8
02___PRT_ALL_AXES
100
AcDbCircle
 62
7
  6
CONTINUOUS
 10
560.414799135
 20
485.3440710387
 40
2.0568196282
100
AcDbArc
 50
5.5956857062
 51
6.0803751526
  0
ARC
  5
31B
100
AcDbEntity
  8
0
100
AcDbCircle
 62
7
  6
CONTINUOUS
 10
592.45138336
 20
317.68715507
 40
153.0
100
AcDbArc
 50
285.9437744735
 51
78.6885054685
  0
ARC
  5
31C
100
AcDbEntity
  8
0
100
AcDbCircle
 62
7
  6
CONTINUOUS
 10
592.45138336
 20
317.68715507
 40
153.0
100
AcDbArc
 50
101.311510748
 51
254.0562002354
  0
ARC
  5
31D
100
AcDbEntity
  8
0
100
AcDbCircle
 62
7
  6
CONTINUOUS
 10
592.45138336
 20
314.8414525486
 40
150.1972533653
100
AcDbArc
 50
255.6410385006
 51
284.3589614994
  0
ARC
  5
31E
100
AcDbEntity
  8
0
100
AcDbCircle
 62
7
  6
CONTINUOUS
 10
592.45138336
 20
317.68715507
 40
147.5
100
AcDbArc
 50
144.6108314865
 51
35.392932646
  0
ARC
  5
31F
100
AcDbEntity
  8
0
100
AcDbCircle
 62
7
  6
CONTINUOUS
 10
592.45138336
 20
317.68715507
 40
146.5
100
AcDbArc
 50
219.239935982
 51
320.7929211139
  0
ARC
  5
320
100
AcDbEntity
  8
0
100
AcDbCircle
 62
7
  6
CONTINUOUS
 10
629.4516235187
 20
170.3054947629
 40
1.000509434
100
AcDbArc
 50
284.3565722904
 51
305.8205214479
  0
ARC
  5
321
100
AcDbEntity
  8
0
100
AcDbCircle
 62
7
  6
CONTINUOUS
 10
596.3658542752
 20
448.7200781396
 40
48.0561393353
100
AcDbArc
 50
63.8350296477
 51
66.0318552496
  0
ARC
  5
322
100
AcDbEntity
  8
0
100
AcDbCircle
 62
7
  6
CONTINUOUS
 10
595.9533061178
 20
449.2731591145
 40
47.7961764068
100
AcDbArc
 50
57.2622732481
 51
57.7222284371
  0
ARC
  5
323
100
AcDbEntity
  8
0
100
AcDbCircle
 62
7
  6
CONTINUOUS
 10
616.3577821754
 20
481.5688048741
 40
9.594751472
100
AcDbArc
 50
58.2495378868
 51
66.5251462193
  0
ARC
  5
324
100
AcDbEntity
  8
02___PRT_ALL_AXES
100
AcDbCircle
 62
7
  6
CONTINUOUS
 10
624.7160725797
 20
480.1825250381
 40
2.2851612641
100
AcDbArc
 50
185.3742916935
 51
185.9407085766
  0
ARC
  5
325
100
AcDbEntity
  8
02___PRT_ALL_AXES
100
AcDbCircle
 62
3
  6
CONTINUOUS
 10
592.45138336
 20
-444.753457263
 40
1503.0000000029
100
AcDbArc
 50
85.2552258742
 51
94.7447741258
  0
ARC
  5
326
100
AcDbEntity
  8
02___PRT_ALL_AXES
100
AcDbCircle
 62
3
  6
CONTINUOUS
 10
592.452346669
 20
-444.8868167461
 40
1500.0106729893
100
AcDbArc
 50
94.8730707105
 51
95.4835511015
  0
ARC
  5
327
100
AcDbEntity
  8
02___PRT_ALL_AXES
100
AcDbCircle
 62
3
  6
CONTINUOUS
 10
592.4504200524
 20
-444.8868167303
 40
1500.0106729734
100
AcDbArc
 50
84.5164488985
 51
85.1269292936
  0
ARC
  5
328
100
AcDbEntity
  8
0
100
AcDbCircle
 62
3
  6
CONTINUOUS
 10
451.3592531086
 20
860.0306653226
 40
156.7520441562
100
AcDbArc
 50
91.312781943
 51
91.5820160683
  0
ARC
  5
329
100
AcDbEntity
  8
0
100
AcDbCircle
 62
3
  6
CONTINUOUS
 10
449.8210145488
 20
916.911293714
 40
99.8506348127
100
AcDbArc
 50
91.60078061
 51
91.7219708109
  0
ARC
  5
32A
100
AcDbEntity
  8
0
100
AcDbCircle
 62
7
  6
CONTINUOUS
 10
532.8921491562
 20
616.6859464382
 40
18.0025223184
100
AcDbArc
 50
5.2713682779
 51
7.9050339262
  0
ARC
  5
32B
100
AcDbEntity
  8
02___PRT_ALL_AXES
100
AcDbCircle
 62
7
  6
CONTINUOUS
 10
590.4227241062
 20
578.69046801
 40
12.0
100
AcDbArc
 50
114.6992293339
 51
150.7635724185
  0
ARC
  5
32C
100
AcDbEntity
  8
02___PRT_ALL_AXES
100
AcDbCircle
 62
3
  6
CONTINUOUS
 10
449.2829637067
 20
1044.3516764694
 40
3.8315803468
100
AcDbArc
 50
179.5078358155
 51
179.9998842121
  0
ARC
  5
32D
100
AcDbEntity
  8
0
100
AcDbCircle
 62
7
  6
CONTINUOUS
 10
446.95138336
 20
605.5878678122
 40
2.0
100
AcDbArc
 50
180.0
 51
270.0
  0
ARC
  5
32E
100
AcDbEntity
  8
0
100
AcDbCircle
 62
7
  6
CONTINUOUS
 10
446.85138336
 20
1008.5748678122
 40
1.9
100
AcDbArc
 50
90.0
 51
180.0
  0
ARC
  5
32F
100
AcDbEntity
  8
0
100
AcDbCircle
 62
7
  6
CONTINUOUS
 10
551.1721709542
 20
623.2615715436
 40
1.0037195567
100
AcDbArc
 50
136.1726879655
 51
143.4274182466
  0
ARC
  5
330
100
AcDbEntity
  8
0
100
AcDbCircle
 62
7
  6
CONTINUOUS
 10
446.95138336
 20
1012.0748678122
 40
1.0
100
AcDbArc
 50
90.0
 51
180.0
  0
ARC
  5
331
100
AcDbEntity
  8
0
100
AcDbCircle
 62
7
  6
CONTINUOUS
 10
554.1507491794
 20
627.6385022112
 40
0.8006344319
100
AcDbArc
 50
269.983572144
 51
359.9546005192
  0
ARC
  5
332
100
AcDbEntity
  8
0
100
AcDbCircle
 62
7
  6
CONTINUOUS
 10
550.75138336
 20
619.1378678122
 40
0.8
100
AcDbArc
 50
180.0
 51
360.0
  0
ARC
  5
333
100
AcDbEntity
  8
0
100
AcDbCircle
 62
7
  6
CONTINUOUS
 10
553.463169532
 20
639.0128046474
 40
0.4880056704
100
AcDbArc
 50
320.4733762241
 51
340.5117345668
  0
ARC
  5
334
100
AcDbEntity
  8
0
100
AcDbCircle
 62
3
  6
CONTINUOUS
 10
733.8963710427
 20
873.9920747362
 40
142.7862189883
100
AcDbArc
 50
88.4062724547
 51
88.7004213794
  0
ARC
  5
335
100
AcDbEntity
  8
0
100
AcDbCircle
 62
3
  6
CONTINUOUS
 10
735.0767847258
 20
916.742178936
 40
100.0198224898
100
AcDbArc
 50
88.2780959933
 51
88.401106742
  0
ARC
  5
336
100
AcDbEntity
  8
0
100
AcDbCircle
 62
7
  6
CONTINUOUS
 10
611.7414460423
 20
591.8436190471
 40
25.7148936164
100
AcDbArc
 50
61.203085662
 51
62.3932742087
  0
ARC
  5
337
100
AcDbEntity
  8
02___PRT_ALL_AXES
100
AcDbCircle
 62
7
  6
CONTINUOUS
 10
594.4800426138
 20
578.69046801
 40
12.0
100
AcDbArc
 50
29.2364275815
 51
65.3007706661
  0
ARC
  5
338
100
AcDbEntity
  8
02___PRT_ALL_AXES
100
AcDbCircle
 62
3
  6
CONTINUOUS
 10
735.1609166837
 20
1041.7271116073
 40
6.5625654258
100
AcDbArc
 50
83.4334418142
 51
84.1711985524
  0
ARC
  5
339
100
AcDbEntity
  8
02___PRT_ALL_AXES
100
AcDbCircle
 62
3
  6
CONTINUOUS
 10
735.6228267965
 20
1044.3516759818
 40
3.8285565634
100
AcDbArc
 50
0.0001231755
 51
0.5156848773
  0
ARC
  5
33A
100
AcDbEntity
  8
02___PRT_ALL_AXES
100
AcDbCircle
 62
3
  6
CONTINUOUS
 10
716.4931706027
 20
1049.6282743953
 40
3.4790278006
100
AcDbArc
 50
83.9137621653
 51
85.1891119179
  0
ARC
  5
33B
100
AcDbEntity
  8
0
100
AcDbCircle
 62
7
  6
CONTINUOUS
 10
737.95138336
 20
605.5878678122
 40
2.0
100
AcDbArc
 50
270.0
 51
360.0
  0
ARC
  5
33C
100
AcDbEntity
  8
0
100
AcDbCircle
 62
7
  6
CONTINUOUS
 10
738.05138336
 20
1008.5748678122
 40
1.9
100
AcDbArc
 50
0.0
 51
90.0
  0
ARC
  5
33D
100
AcDbEntity
  8
0
100
AcDbCircle
 62
3
  6
CONTINUOUS
 10
738.0366233332
 20
1016.637507348
 40
1.4147537654
100
AcDbArc
 50
334.0127751205
 51
346.6467429885
  0
ARC
  5
33E
100
AcDbEntity
  8
0
100
AcDbCircle
 62
3
  6
CONTINUOUS
 10
738.0451744171
 20
1016.6352902983
 40
1.4062094983
100
AcDbArc
 50
318.5749703628
 51
359.9490747173
  0
ARC
  5
33F
100
AcDbEntity
  8
0
100
AcDbCircle
 62
3
  6
CONTINUOUS
 10
738.0486797241
 20
1016.6367333581
 40
1.4037721044
100
AcDbArc
 50
306.5905240679
 51
320.0273307107
  0
ARC
  5
340
100
AcDbEntity
  8
0
100
AcDbCircle
 62
3
  6
CONTINUOUS
 10
738.0514411841
 20
1016.6347789078
 40
1.4005571556
100
AcDbArc
 50
225.0194441517
 51
306.5474798019
  0
ARC
  5
341
100
AcDbEntity
  8
0
100
AcDbCircle
 62
3
  6
CONTINUOUS
 10
738.0529105556
 20
1016.6333526649
 40
1.3983579763
100
AcDbArc
 50
320.0221195937
 51
331.4101991681
  0
ARC
  5
342
100
AcDbEntity
  8
0
100
AcDbCircle
 62
3
  6
CONTINUOUS
 10
738.0751274322
 20
1016.6202891834
 40
1.37259896
100
AcDbArc
 50
331.4452237497
 51
333.9545817026
  0
ARC
  5
343
100
AcDbEntity
  8
0
100
AcDbCircle
 62
7
  6
CONTINUOUS
 10
737.95138336
 20
1012.0748678122
 40
1.0
100
AcDbArc
 50
0.0
 51
90.0
  0
ARC
  5
344
100
AcDbEntity
  8
0
100
AcDbCircle
 62
7
  6
CONTINUOUS
 10
630.7520175407
 20
627.6385022113
 40
0.800634432
100
AcDbArc
 50
180.0453994916
 51
270.0164278451
  0
ARC
  5
345
100
AcDbEntity
  8
0
100
AcDbCircle
 62
7
  6
CONTINUOUS
 10
634.15138336
 20
619.1378678122
 40
0.8
100
AcDbArc
 50
180.0
 51
360.0
  0
ARC
  5
346
100
AcDbEntity
  8
0
100
AcDbCircle
 62
7
  6
CONTINUOUS
 10
631.4385330254
 20
639.0122035061
 40
0.4868019708
100
AcDbArc
 50
199.4633507616
 51
219.5392975699
  0
SPLINE
  5
347
100
AcDbEntity
  8
0
100
AcDbSpline
 62
7
  6
CONTINUOUS
 70
0
 71
3
 72
11
 73
7
 74
0
 42
0.0000001
 43
0.0000001
 44
0.0000000001
 40
0.0
 40
0.0
 40
0.0
 40
0.0
 40
0.2202756672
 40
0.4774537284
 40
0.7383304972
 40
1.0
 40
1.0
 40
1.0
 40
1.0
 10
626.0497507726
 20
484.6063391079
 30
0.0
 10
626.2208256858
 20
484.5673601858
 30
0.0
 10
626.5828393434
 20
484.4330541421
 30
0.0
 10
627.0495737158
 20
484.0551942443
 30
0.0
 10
627.3741328924
 20
483.5107593462
 30
0.0
 10
627.4498383643
 20
483.0907013209
 30
0.0
 10
627.4498863131
 20
482.8822699523
 30
0.0
  0
SPLINE
  5
348
100
AcDbEntity
  8
0
100
AcDbSpline
 62
7
  6
CONTINUOUS
 70
0
 71
3
 72
15
 73
11
 74
0
 42
0.0000001
 43
0.0000001
 44
0.0000000001
 40
0.0
 40
0.0
 40
0.0
 40
0.0
 40
0.0261279338
 40
0.0569616118
 40
0.0964594368
 40
0.197236556
 40
0.3227830319
 40
0.469242914
 40
0.6332102891
 40
1.0
 40
1.0
 40
1.0
 40
1.0
 10
625.3575603614
 20
484.5869036712
 30
0.0
 10
625.3804663645
 20
484.5901712369
 30
0.0
 10
625.2592908915
 20
484.5764848371
 30
0.0
 10
625.2083331108
 20
484.5745800935
 30
0.0
 10
625.0403624402
 20
484.5630219619
 30
0.0
 10
624.8161897564
 20
484.5531396654
 30
0.0
 10
624.4816745354
 20
484.5404430395
 30
0.0
 10
624.0972977683
 20
484.5297995844
 30
0.0
 10
623.4970750608
 20
484.5169404994
 30
0.0
 10
623.0273476821
 20
484.5110398859
 30
0.0
 10
622.7025443791
 20
484.5083049153
 30
0.0
  0
SPLINE
  5
349
100
AcDbEntity
  8
0
100
AcDbSpline
 62
7
  6
CONTINUOUS
 70
0
 71
3
 72
15
 73
11
 74
0
 42
0.0000001
 43
0.0000001
 44
0.0000000001
 40
0.0
 40
0.0
 40
0.0
 40
0.0
 40
0.1597380151
 40
0.317590171
 40
0.3901864802
 40
0.4410825134
 40
0.5133196823
 40
0.6010823791
 40
0.7138450423
 40
1.0
 40
1.0
 40
1.0
 40
1.0
 10
627.4498863131
 20
482.8822699523
 30
0.0
 10
627.4499565394
 20
482.5769992157
 30
0.0
 10
627.2846320576
 20
481.9582679615
 30
0.0
 10
626.7280439218
 20
481.4098711521
 30
0.0
 10
626.230134252
 20
481.1961957249
 30
0.0
 10
625.8636076498
 20
481.1157226855
 30
0.0
 10
625.4615159667
 20
481.0807320204
 30
0.0
 10
624.9410630116
 20
481.0536690791
 30
0.0
 10
624.0113553355
 20
481.0236197975
 30
0.0
 10
623.2490501726
 20
481.0126440313
 30
0.0
 10
622.7022058351
 20
481.0081818947
 30
0.0
  0
SPLINE
  5
34A
100
AcDbEntity
  8
0
100
AcDbSpline
 62
7
  6
CONTINUOUS
 70
0
 71
3
 72
15
 73
11
 74
0
 42
0.0000001
 43
0.0000001
 44
0.0000000001
 40
0.0
 40
0.0
 40
0.0
 40
0.0
 40
0.2862212096
 40
0.3990034869
 40
0.486774465
 40
0.5590681604
 40
0.6099012055
 40
0.6825115714
 40
0.8403816818
 40
1.0
 40
1.0
 40
1.0
 40
1.0
 10
562.2004171479
 20
481.0081830029
 30
0.0
 10
561.653463133
 20
481.0126471372
 30
0.0
 10
560.8910167316
 20
481.023615146
 30
0.0
 10
559.9611598212
 20
481.0537030941
 30
0.0
 10
559.4405593757
 20
481.0807395556
 30
0.0
 10
559.0384872373
 20
481.1158904362
 30
0.0
 10
558.6719895725
 20
481.1964867478
 30
0.0
 10
558.1741919563
 20
481.4102320059
 30
0.0
 10
557.6179157608
 20
481.9587174445
 30
0.0
 10
557.4528326621
 20
482.5771990798
 30
0.0
 10
557.4528522507
 20
482.8822316375
 30
0.0
  0
SPLINE
  5
34B
100
AcDbEntity
  8
0
100
AcDbSpline
 62
7
  6
CONTINUOUS
 70
0
 71
3
 72
11
 73
7
 74
0
 42
0.0000001
 43
0.0000001
 44
0.0000000001
 40
0.0
 40
0.0
 40
0.0
 40
0.0
 40
0.3600629598
 40
0.6664676197
 40
0.8931484464
 40
1.0
 40
1.0
 40
1.0
 40
1.0
 10
562.2002682298
 20
484.5083046156
 30
0.0
 10
561.881400133
 20
484.5109899097
 30
0.0
 10
561.2912388437
 20
484.5187167023
 30
0.0
 10
560.5002966785
 20
484.5360553001
 30
0.0
 10
559.9342626383
 20
484.5600676558
 30
0.0
 10
559.6389756701
 20
484.5755466813
 30
0.0
 10
559.5450345245
 20
484.5869440057
 30
0.0
  0
SPLINE
  5
34C
100
AcDbEntity
  8
0
100
AcDbSpline
 62
7
  6
CONTINUOUS
 70
0
 71
3
 72
11
 73
7
 74
0
 42
0.0000001
 43
0.0000001
 44
0.0000000001
 40
0.0
 40
0.0
 40
0.0
 40
0.0
 40
0.2617699847
 40
0.5224550813
 40
0.7795702487
 40
1.0
 40
1.0
 40
1.0
 40
1.0
 10
557.4528522507
 20
482.8822316375
 30
0.0
 10
557.4528656411
 20
483.0907459032
 30
0.0
 10
557.5286669222
 20
483.510734462
 30
0.0
 10
557.8531190826
 20
484.0550607747
 30
0.0
 10
558.3197547955
 20
484.4329160238
 30
0.0
 10
558.6818190232
 20
484.5673323859
 30
0.0
 10
558.8530159474
 20
484.6063391079
 30
0.0
  0
SPLINE
  5
34D
100
AcDbEntity
  8
0
100
AcDbSpline
 62
7
  6
CONTINUOUS
 70
0
 71
3
 72
11
 73
7
 74
0
 42
0.0000001
 43
0.0000001
 44
0.0000000001
 40
0.0
 40
0.0
 40
0.0
 40
0.0
 40
0.2512595105
 40
0.5000441712
 40
0.7486796437
 40
1.0
 40
1.0
 40
1.0
 40
1.0
 10
630.45138336
 20
170.2989187939
 30
0.0
 10
630.45138336
 20
170.2203785421
 30
0.0
 10
630.4327378645
 20
170.0634164824
 30
0.0
 10
630.3499981914
 20
169.8422016276
 30
0.0
 10
630.2175265646
 20
169.6466911389
 30
0.0
 10
630.1008689918
 20
169.5402053804
 30
0.0
 10
630.0371697976
 20
169.4942274317
 30
0.0
  0
SPLINE
  5
34E
100
AcDbEntity
  8
0
100
AcDbSpline
 62
7
  6
CONTINUOUS
 70
0
 71
3
 72
11
 73
7
 74
0
 42
0.0000001
 43
0.0000001
 44
0.0000000001
 40
0.0
 40
0.0
 40
0.0
 40
0.0
 40
0.2515075968
 40
0.5003677656
 40
0.7490520553
 40
1.0
 40
1.0
 40
1.0
 40
1.0
 10
554.8655969224
 20
169.4942274317
 30
0.0
 10
554.804966152
 20
169.5379905983
 30
0.0
 10
554.6934737797
 20
169.6386370289
 30
0.0
 10
554.5643523735
 20
169.8223096184
 30
0.0
 10
554.4796733343
 20
170.0300987462
 30
0.0
 10
554.455909169
 20
170.1782636848
 30
0.0
 10
554.4524524785
 20
170.252792207
 30
0.0
  0
SPLINE
  5
34F
100
AcDbEntity
  8
0
100
AcDbSpline
 62
7
  6
CONTINUOUS
 70
0
 71
3
 72
11
 73
7
 74
0
 42
0.0000001
 43
0.0000001
 44
0.0000000001
 40
0.0
 40
0.0
 40
0.0
 40
0.0
 40
0.2453949913
 40
0.4999999145
 40
0.7546029823
 40
1.0
 40
1.0
 40
1.0
 40
1.0
 10
615.8876357542
 20
492.6324064279
 30
0.0
 10
612.2865347373
 20
494.2339640789
 30
0.0
 10
604.5912381475
 20
496.7506946672
 30
0.0
 10
592.451417193
 20
498.0486046072
 30
0.0
 10
580.3115642706
 20
496.7507030568
 30
0.0
 10
572.6162617191
 20
494.2339773039
 30
0.0
 10
569.0151309657
 20
492.6324064279
 30
0.0
  0
SPLINE
  5
350
100
AcDbEntity
  8
0
100
AcDbSpline
 62
7
  6
CONTINUOUS
 70
0
 71
3
 72
9
 73
5
 74
0
 42
0.0000001
 43
0.0000001
 44
0.0000000001
 40
0.0
 40
0.0
 40
0.0
 40
0.0
 40
0.5495103248
 40
1.0
 40
1.0
 40
1.0
 40
1.0
 10
622.4477024854
 20
488.9091136342
 30
0.0
 10
622.3402239969
 20
489.0247701536
 30
0.0
 10
622.1341562371
 20
489.2253068163
 30
0.0
 10
621.9100835786
 20
489.4071516856
 30
0.0
 10
621.8012059366
 20
489.4771459077
 30
0.0
  0
SPLINE
  5
351
100
AcDbEntity
  8
0
100
AcDbSpline
 62
7
  6
CONTINUOUS
 70
0
 71
3
 72
9
 73
5
 74
0
 42
0.0000001
 43
0.0000001
 44
0.0000000001
 40
0.0
 40
0.0
 40
0.0
 40
0.0
 40
0.45048818
 40
1.0
 40
1.0
 40
1.0
 40
1.0
 10
563.1015673493
 20
489.4771500506
 30
0.0
 10
562.9926889136
 20
489.4071553396
 30
0.0
 10
562.7686139467
 20
489.2253084987
 30
0.0
 10
562.5625439888
 20
489.0247697544
 30
0.0
 10
562.4550641303
 20
488.9091116544
 30
0.0
  0
SPLINE
  5
352
100
AcDbEntity
  8
0
100
AcDbSpline
 62
7
  6
CONTINUOUS
 70
0
 71
3
 72
9
 73
5
 74
0
 42
0.0000001
 43
0.0000001
 44
0.0000000001
 40
0.0
 40
0.0
 40
0.0
 40
0.0
 40
0.2796958644
 40
1.0
 40
1.0
 40
1.0
 40
1.0
 10
622.45138336
 20
488.740661066
 30
0.0
 10
622.45138336
 20
488.7563708645
 30
0.0
 10
622.4511247023
 20
488.8125357498
 30
0.0
 10
622.4498290845
 20
488.8687119302
 30
0.0
 10
622.4477024854
 20
488.9091136342
 30
0.0
  0
SPLINE
  5
353
100
AcDbEntity
  8
02___PRT_ALL_AXES
100
AcDbSpline
 62
7
  6
CONTINUOUS
 70
0
 71
3
 72
9
 73
5
 74
0
 42
0.0000001
 43
0.0000001
 44
0.0000000001
 40
0.0
 40
0.0
 40
0.0
 40
0.0
 40
0.2665033644
 40
1.0
 40
1.0
 40
1.0
 40
1.0
 10
622.4495305985
 20
479.9041794518
 30
0.0
 10
622.4461383107
 20
479.9058093682
 30
0.0
 10
622.4484508884
 20
479.9242984536
 30
0.0
 10
622.4442610007
 20
479.9357103571
 30
0.0
 10
622.4431837008
 20
479.9460125706
 30
0.0
  0
SPLINE
  5
354
100
AcDbEntity
  8
02___PRT_ALL_AXES
100
AcDbSpline
 62
7
  6
CONTINUOUS
 70
0
 71
3
 72
14
 73
10
 74
0
 42
0.0000001
 43
0.0000001
 44
0.0000000001
 40
0.0
 40
0.0
 40
0.0
 40
0.0
 40
0.0657511038
 40
0.1822309976
 40
0.5083286263
 40
0.6797037036
 40
0.8297388274
 40
0.9408565437
 40
1.0
 40
1.0
 40
1.0
 40
1.0
 10
622.4409566782
 20
479.9684931765
 30
0.0
 10
622.4294031809
 20
480.090641574
 30
0.0
 10
622.4075511151
 20
480.4300672821
 30
0.0
 10
622.3585753805
 20
481.3773240779
 30
0.0
 10
622.33674735
 20
482.5232842379
 30
0.0
 10
622.3513970902
 20
483.7314912391
 30
0.0
 10
622.3777562379
 20
484.5382909738
 30
0.0
 10
622.4106033398
 20
485.135006775
 30
0.0
 10
622.4309908174
 20
485.4521976477
 30
0.0
 10
622.4427190063
 20
485.5619362142
 30
0.0
  0
SPLINE
  5
355
100
AcDbEntity
  8
02___PRT_ALL_AXES
100
AcDbSpline
 62
7
  6
CONTINUOUS
 70
0
 71
3
 72
8
 73
4
 74
0
 42
0.0000001
 43
0.0000001
 44
0.0000000001
 40
0.0
 40
0.0
 40
0.0
 40
0.0
 40
1.0
 40
1.0
 40
1.0
 40
1.0
 10
622.4427190063
 20
485.5619362142
 30
0.0
 10
622.4437079969
 20
485.5711900221
 30
0.0
 10
622.4447377167
 20
485.5804431331
 30
0.0
 10
622.4460648311
 20
485.5896545298
 30
0.0
  0
SPLINE
  5
356
100
AcDbEntity
  8
02___PRT_ALL_AXES
100
AcDbSpline
 62
7
  6
CONTINUOUS
 70
0
 71
3
 72
9
 73
5
 74
0
 42
0.0000001
 43
0.0000001
 44
0.0000000001
 40
0.0
 40
0.0
 40
0.0
 40
0.0
 40
0.7374311608
 40
1.0
 40
1.0
 40
1.0
 40
1.0
 10
622.4460648311
 20
485.5896545298
 30
0.0
 10
622.446588908
 20
485.5932921064
 30
0.0
 10
622.4479545364
 20
485.5967135341
 30
0.0
 10
622.4481178536
 20
485.6041427815
 30
0.0
 10
622.4494263618
 20
485.6041548891
 30
0.0
  0
SPLINE
  5
357
100
AcDbEntity
  8
0
100
AcDbSpline
 62
7
  6
CONTINUOUS
 70
0
 71
3
 72
9
 73
5
 74
0
 42
0.0000001
 43
0.0000001
 44
0.0000000001
 40
0.0
 40
0.0
 40
0.0
 40
0.0
 40
0.2201791229
 40
1.0
 40
1.0
 40
1.0
 40
1.0
 10
562.4550641303
 20
488.9091116544
 30
0.0
 10
562.4544140949
 20
488.8967618609
 30
0.0
 10
562.4520102813
 20
488.840643158
 30
0.0
 10
562.45138336
 20
488.7844615779
 30
0.0
 10
562.45138336
 20
488.740661066
 30
0.0
  0
SPLINE
  5
358
100
AcDbEntity
  8
02___PRT_ALL_AXES
100
AcDbSpline
 62
7
  6
CONTINUOUS
 70
0
 71
3
 72
10
 73
6
 74
0
 42
0.0000001
 43
0.0000001
 44
0.0000000001
 40
0.0
 40
0.0
 40
0.0
 40
0.0
 40
0.0683581699
 40
0.2568929508
 40
1.0
 40
1.0
 40
1.0
 40
1.0
 10
562.453340358
 20
485.6041548891
 30
0.0
 10
562.4543174504
 20
485.6041458488
 30
0.0
 10
562.4547518847
 20
485.5988591552
 30
0.0
 10
562.4579995177
 20
485.5873382266
 30
0.0
 10
562.4589188667
 20
485.5724986126
 30
0.0
 10
562.4600476784
 20
485.5619365444
 30
0.0
  0
SPLINE
  5
359
100
AcDbEntity
  8
02___PRT_ALL_AXES
100
AcDbSpline
 62
7
  6
CONTINUOUS
 70
0
 71
3
 72
14
 73
10
 74
0
 42
0.0000001
 43
0.0000001
 44
0.0000000001
 40
0.0
 40
0.0
 40
0.0
 40
0.0
 40
0.0646716036
 40
0.1805693855
 40
0.5068407105
 40
0.6787076894
 40
0.8292643909
 40
0.9407578742
 40
1.0
 40
1.0
 40
1.0
 40
1.0
 10
562.4618174932
 20
485.5446273252
 30
0.0
 10
562.4736373389
 20
485.4244159852
 30
0.0
 10
562.4954016064
 20
485.0877628738
 30
0.0
 10
562.5447264195
 20
484.1424407488
 30
0.0
 10
562.5660936561
 20
482.9952308402
 30
0.0
 10
562.5510320224
 20
481.7836946005
 30
0.0
 10
562.524336481
 20
480.9735650585
 30
0.0
 10
562.4914375554
 20
480.3744280227
 30
0.0
 10
562.4710909281
 20
480.056062734
 30
0.0
 10
562.4595830337
 20
479.9460127095
 30
0.0
  0
LINE
  5
35A
100
AcDbEntity
  8
02___PRT_ALL_AXES
100
AcDbLine
 62
7
  6
CONTINUOUS
 10
562.4595830337
 20
479.9460127095
 11
562.4566983541
 21
479.9210987847
  0
SPLINE
  5
35B
100
AcDbEntity
  8
02___PRT_ALL_AXES
100
AcDbSpline
 62
7
  6
CONTINUOUS
 70
0
 71
3
 72
9
 73
5
 74
0
 42
0.0000001
 43
0.0000001
 44
0.0000000001
 40
0.0
 40
0.0
 40
0.0
 40
0.0
 40
0.7233613548
 40
1.0
 40
1.0
 40
1.0
 40
1.0
 10
562.4566983541
 20
479.9210987847
 30
0.0
 10
562.4561468654
 20
479.9169599656
 30
0.0
 10
562.454571418
 20
479.9121906051
 30
0.0
 10
562.4546754224
 20
479.9048710028
 30
0.0
 10
562.4532361215
 20
479.9041794518
 30
0.0
  0
SPLINE
  5
35C
100
AcDbEntity
  8
0
100
AcDbSpline
 62
7
  6
CONTINUOUS
 70
0
 71
3
 72
9
 73
5
 74
0
 42
0.0000001
 43
0.0000001
 44
0.0000000001
 40
0.0
 40
0.0
 40
0.0
 40
0.0
 40
0.4360247875
 40
1.0
 40
1.0
 40
1.0
 40
1.0
 10
619.8324143616
 20
490.6666070156
 30
0.0
 10
619.5089340178
 20
490.852286927
 30
0.0
 10
618.7538067028
 20
491.2548148633
 30
0.0
 10
617.9895428743
 20
491.6390606118
 30
0.0
 10
617.5565550191
 20
491.8518150603
 30
0.0
  0
SPLINE
  5
35D
100
AcDbEntity
  8
0
100
AcDbSpline
 62
7
  6
CONTINUOUS
 70
0
 71
3
 72
9
 73
5
 74
0
 42
0.0000001
 43
0.0000001
 44
0.0000000001
 40
0.0
 40
0.0
 40
0.0
 40
0.0
 40
0.5639751687
 40
1.0
 40
1.0
 40
1.0
 40
1.0
 10
567.3462117009
 20
491.8518150603
 30
0.0
 10
566.9132238859
 20
491.6390606315
 30
0.0
 10
566.1489600606
 20
491.2548149032
 30
0.0
 10
565.3938327819
 20
490.8522869299
 30
0.0
 10
565.0703523948
 20
490.6666070298
 30
0.0
  0
SPLINE
  5
35E
100
AcDbEntity
  8
0
100
AcDbSpline
 62
7
  6
CONTINUOUS
 70
0
 71
3
 72
9
 73
5
 74
0
 42
0.0000001
 43
0.0000001
 44
0.0000000001
 40
0.0
 40
0.0
 40
0.0
 40
0.0
 40
0.5466666047
 40
1.0
 40
1.0
 40
1.0
 40
1.0
 10
621.6917710106
 20
487.008305563
 30
0.0
 10
621.9071125005
 20
487.3166672357
 30
0.0
 10
622.2494519448
 20
487.9197286666
 30
0.0
 10
622.429458187
 20
488.5977513524
 30
0.0
 10
622.4477024854
 20
488.9091136342
 30
0.0
  0
SPLINE
  5
35F
100
AcDbEntity
  8
0
100
AcDbSpline
 62
7
  6
CONTINUOUS
 70
0
 71
3
 72
9
 73
5
 74
0
 42
0.0000001
 43
0.0000001
 44
0.0000000001
 40
0.0
 40
0.0
 40
0.0
 40
0.0
 40
0.453332752
 40
1.0
 40
1.0
 40
1.0
 40
1.0
 10
562.4550641303
 20
488.9091116544
 30
0.0
 10
562.4733081567
 20
488.5977501603
 30
0.0
 10
562.6533147538
 20
487.9197282215
 30
0.0
 10
562.9956545704
 20
487.3166680957
 30
0.0
 10
563.2109957094
 20
487.0083061671
 30
0.0
  0
SPLINE
  5
360
100
AcDbEntity
  8
02___PRT_ALL_AXES
100
AcDbSpline
 62
40
  6
CONTINUOUS
 70
0
 71
3
 72
8
 73
4
 74
0
 42
0.0000001
 43
0.0000001
 44
0.0000000001
 40
0.0
 40
0.0
 40
0.0
 40
0.0
 40
1.0
 40
1.0
 40
1.0
 40
1.0
 10
583.443862863
 20
481.0608494608
 30
0.0
 10
583.8631377862
 20
481.0608503164
 30
0.0
 10
584.3445000452
 20
480.6290952741
 30
0.0
 10
584.3445009542
 20
480.2345159289
 30
0.0
  0
SPLINE
  5
361
100
AcDbEntity
  8
02___PRT_ALL_AXES
100
AcDbSpline
 62
40
  6
CONTINUOUS
 70
0
 71
3
 72
8
 73
4
 74
0
 42
0.0000001
 43
0.0000001
 44
0.0000000001
 40
0.0
 40
0.0
 40
0.0
 40
0.0
 40
1.0
 40
1.0
 40
1.0
 40
1.0
 10
582.7337263559
 20
478.4702884178
 30
0.0
 10
582.634696543
 20
478.4702882158
 30
0.0
 10
582.5238247234
 20
478.5749540272
 30
0.0
 10
582.5238247234
 20
478.6681509167
 30
0.0
  0
SPLINE
  5
362
100
AcDbEntity
  8
02___PRT_ALL_AXES
100
AcDbSpline
 62
40
  6
CONTINUOUS
 70
0
 71
3
 72
8
 73
4
 74
0
 42
0.0000001
 43
0.0000001
 44
0.0000000001
 40
0.0
 40
0.0
 40
0.0
 40
0.0
 40
1.0
 40
1.0
 40
1.0
 40
1.0
 10
584.0961437322
 20
478.4702884178
 30
0.0
 10
583.9940584485
 20
478.4702884178
 30
0.0
 10
583.8785167977
 20
478.5317135494
 30
0.0
 10
583.8329727107
 20
478.6176949157
 30
0.0
  0
SPLINE
  5
363
100
AcDbEntity
  8
02___PRT_ALL_AXES
100
AcDbSpline
 62
40
  6
CONTINUOUS
 70
0
 71
3
 72
8
 73
4
 74
0
 42
0.0000001
 43
0.0000001
 44
0.0000000001
 40
0.0
 40
0.0
 40
0.0
 40
0.0
 40
1.0
 40
1.0
 40
1.0
 40
1.0
 10
584.3445009542
 20
480.2345159289
 30
0.0
 10
584.3445015983
 20
479.9549437493
 30
0.0
 10
584.1460328828
 20
479.6415814027
 30
0.0
 10
583.8788352
 20
479.5193983656
 30
0.0
  0
SPLINE
  5
364
100
AcDbEntity
  8
02___PRT_ALL_AXES
100
AcDbSpline
 62
40
  6
CONTINUOUS
 70
0
 71
3
 72
8
 73
4
 74
0
 42
0.0000001
 43
0.0000001
 44
0.0000000001
 40
0.0
 40
0.0
 40
0.0
 40
0.0
 40
1.0
 40
1.0
 40
1.0
 40
1.0
 10
590.327919402
 20
478.4702884178
 30
0.0
 10
590.2211789739
 20
478.4702884178
 30
0.0
 10
590.0935380118
 20
478.5609331611
 30
0.0
 10
590.07956218
 20
478.6605217262
 30
0.0
  0
SPLINE
  5
365
100
AcDbEntity
  8
02___PRT_ALL_AXES
100
AcDbSpline
 62
40
  6
CONTINUOUS
 70
0
 71
3
 72
8
 73
4
 74
0
 42
0.0000001
 43
0.0000001
 44
0.0000000001
 40
0.0
 40
0.0
 40
0.0
 40
0.0
 40
1.0
 40
1.0
 40
1.0
 40
1.0
 10
588.9912539211
 20
478.6857497267
 30
0.0
 10
588.8802481945
 20
478.6857497267
 30
0.0
 10
588.7654279797
 20
478.7759964681
 30
0.0
 10
588.7242071964
 20
478.8729941755
 30
0.0
  0
SPLINE
  5
366
100
AcDbEntity
  8
02___PRT_ALL_AXES
100
AcDbSpline
 62
40
  6
CONTINUOUS
 70
0
 71
3
 72
9
 73
5
 74
0
 42
0.0000001
 43
0.0000001
 44
0.0000000001
 40
0.0
 40
0.0
 40
0.0
 40
0.0
 40
0.5000428424
 40
1.0
 40
1.0
 40
1.0
 40
1.0
 10
607.6854828148
 20
481.5497458211
 30
0.0
 10
607.6854806398
 20
481.8696492395
 30
0.0
 10
607.4542523683
 20
482.5682244257
 30
0.0
 10
606.7119708501
 20
482.7857780489
 30
0.0
 10
606.3721038514
 20
482.7857760024
 30
0.0
  0
SPLINE
  5
367
100
AcDbEntity
  8
02___PRT_ALL_AXES
100
AcDbSpline
 62
40
  6
CONTINUOUS
 70
0
 71
3
 72
9
 73
5
 74
0
 42
0.0000001
 43
0.0000001
 44
0.0000000001
 40
0.0
 40
0.0
 40
0.0
 40
0.0
 40
0.4998730333
 40
1.0
 40
1.0
 40
1.0
 40
1.0
 10
606.3721038514
 20
477.0405700092
 30
0.0
 10
606.7119395955
 20
477.0405720555
 30
0.0
 10
607.4544307231
 20
477.25781124
 30
0.0
 10
607.6854828148
 20
477.9566185359
 30
0.0
 10
607.6854828148
 20
478.2766001905
 30
0.0
  0
SPLINE
  5
368
100
AcDbEntity
  8
02___PRT_ALL_AXES
100
AcDbSpline
 62
40
  6
CONTINUOUS
 70
0
 71
3
 72
9
 73
5
 74
0
 42
0.0000001
 43
0.0000001
 44
0.0000000001
 40
0.0
 40
0.0
 40
0.0
 40
0.0
 40
0.5001269667
 40
1.0
 40
1.0
 40
1.0
 40
1.0
 10
577.6854828223
 20
478.2766001905
 30
0.0
 10
577.6854828223
 20
477.9566185359
 30
0.0
 10
577.916534914
 20
477.2578122637
 30
0.0
 10
578.6590260415
 20
477.0405700092
 30
0.0
 10
578.9988617857
 20
477.0405700092
 30
0.0
  0
SPLINE
  5
369
100
AcDbEntity
  8
02___PRT_ALL_AXES
100
AcDbSpline
 62
40
  6
CONTINUOUS
 70
0
 71
3
 72
9
 73
5
 74
0
 42
0.0000001
 43
0.0000001
 44
0.0000000001
 40
0.0
 40
0.0
 40
0.0
 40
0.0
 40
0.4999571576
 40
1.0
 40
1.0
 40
1.0
 40
1.0
 10
578.9988617857
 20
482.7857760024
 30
0.0
 10
578.658994787
 20
482.785775309
 30
0.0
 10
577.916714356
 20
482.568225796
 30
0.0
 10
577.6854828223
 20
481.8696492395
 30
0.0
 10
577.6854828223
 20
481.5497458211
 30
0.0
  0
SPLINE
  5
36A
100
AcDbEntity
  8
02___PRT_ALL_AXES
100
AcDbSpline
 62
40
  6
CONTINUOUS
 70
0
 71
3
 72
11
 73
7
 74
0
 42
0.0000001
 43
0.0000001
 44
0.0000000001
 40
0.0
 40
0.0
 40
0.0
 40
0.0
 40
0.2497396285
 40
0.499826419
 40
0.7499132095
 40
1.0
 40
1.0
 40
1.0
 40
1.0
 10
593.0883887082
 20
479.764667793
 30
0.0
 10
593.088165888
 20
479.9858916368
 30
0.0
 10
592.8999669225
 20
480.4293973611
 30
0.0
 10
592.2211359281
 20
480.7088428616
 30
0.0
 10
591.5448971674
 20
480.4292679957
 30
0.0
 10
591.3586895804
 20
479.9852754256
 30
0.0
 10
591.3587272957
 20
479.7637452285
 30
0.0
  0
SPLINE
  5
36B
100
AcDbEntity
  8
02___PRT_ALL_AXES
100
AcDbSpline
 62
40
  6
CONTINUOUS
 70
0
 71
3
 72
11
 73
7
 74
0
 42
0.0000001
 43
0.0000001
 44
0.0000000001
 40
0.0
 40
0.0
 40
0.0
 40
0.0
 40
0.2499132095
 40
0.499826419
 40
0.7497396285
 40
1.0
 40
1.0
 40
1.0
 40
1.0
 10
591.3587272957
 20
479.7637452285
 30
0.0
 10
591.3587649848
 20
479.5423687917
 30
0.0
 10
591.5448648825
 20
479.1005468003
 30
0.0
 10
592.2211358186
 20
478.8239595996
 30
0.0
 10
592.9006283897
 20
479.1006748715
 30
0.0
 10
593.088611993
 20
479.5429826657
 30
0.0
 10
593.0883887082
 20
479.764667793
 30
0.0
  0
SPLINE
  5
36C
100
AcDbEntity
  8
02___PRT_ALL_AXES
100
AcDbSpline
 62
40
  6
CONTINUOUS
 70
0
 71
3
 72
11
 73
7
 74
0
 42
0.0000001
 43
0.0000001
 44
0.0000000001
 40
0.0
 40
0.0
 40
0.0
 40
0.0
 40
0.2471990108
 40
0.4989595642
 40
0.7494797821
 40
1.0
 40
1.0
 40
1.0
 40
1.0
 10
593.6459966493
 20
479.7481925042
 30
0.0
 10
593.6409082662
 20
479.4014214301
 30
0.0
 10
593.3269095918
 20
478.7092531323
 30
0.0
 10
592.2140117833
 20
478.2781301655
 30
0.0
 10
591.1062531205
 20
478.7144509579
 30
0.0
 10
590.8001537276
 20
479.4093033793
 30
0.0
 10
590.8013473287
 20
479.760756369
 30
0.0
  0
SPLINE
  5
36D
100
AcDbEntity
  8
02___PRT_ALL_AXES
100
AcDbSpline
 62
40
  6
CONTINUOUS
 70
0
 71
3
 72
12
 73
8
 74
0
 42
0.0000001
 43
0.0000001
 44
0.0000000001
 40
0.0
 40
0.0
 40
0.0
 40
0.0
 40
0.2495323371
 40
0.4990646742
 40
0.7472515658
 40
0.9954384573
 40
1.0
 40
1.0
 40
1.0
 40
1.0
 10
590.8013473287
 20
479.760756369
 30
0.0
 10
590.8025362231
 20
480.1108234678
 30
0.0
 10
591.1109724828
 20
480.8189478333
 30
0.0
 10
592.2279124983
 20
481.2526720204
 30
0.0
 10
593.3396154534
 20
480.8164004857
 30
0.0
 10
593.6484541086
 20
480.1092199089
 30
0.0
 10
593.6460905448
 20
479.7545914419
 30
0.0
 10
593.6459966493
 20
479.7481925042
 30
0.0
  0
SPLINE
  5
36E
100
AcDbEntity
  8
02___PRT_ALL_AXES
100
AcDbSpline
 62
40
  6
CONTINUOUS
 70
0
 71
3
 72
8
 73
4
 74
0
 42
0.0000001
 43
0.0000001
 44
0.0000000001
 40
0.0
 40
0.0
 40
0.0
 40
0.0
 40
1.0
 40
1.0
 40
1.0
 40
1.0
 10
599.265829556
 20
478.4702884178
 30
0.0
 10
599.1669669409
 20
478.4702884178
 30
0.0
 10
599.0566384691
 20
478.5751113769
 30
0.0
 10
599.0566384691
 20
478.6681509167
 30
0.0
  0
SPLINE
  5
36F
100
AcDbEntity
  8
02___PRT_ALL_AXES
100
AcDbSpline
 62
40
  6
CONTINUOUS
 70
0
 71
3
 72
11
 73
7
 74
0
 42
0.0000001
 43
0.0000001
 44
0.0000000001
 40
0.0
 40
0.0
 40
0.0
 40
0.0
 40
0.2309633786
 40
0.497546378
 40
0.7688270485
 40
1.0
 40
1.0
 40
1.0
 40
1.0
 10
583.3983556465
 20
479.8676562218
 30
0.0
 10
583.4960343282
 20
479.8676562218
 30
0.0
 10
583.7267405879
 20
479.9143626653
 30
0.0
 10
583.8608420493
 20
480.2398238793
 30
0.0
 10
583.7287572084
 20
480.5672834768
 30
0.0
 10
583.4961229604
 20
480.6156514391
 30
0.0
 10
583.3983556465
 20
480.6156512396
 30
0.0
  0
SPLINE
  5
370
100
AcDbEntity
  8
02___PRT_ALL_AXES
100
AcDbSpline
 62
40
  6
CONTINUOUS
 70
0
 71
3
 72
8
 73
4
 74
0
 42
0.0000001
 43
0.0000001
 44
0.0000000001
 40
0.0
 40
0.0
 40
0.0
 40
0.0
 40
1.0
 40
1.0
 40
1.0
 40
1.0
 10
581.1032072022
 20
478.4702884178
 30
0.0
 10
581.0040936841
 20
478.4702884178
 30
0.0
 10
580.892950297
 20
478.5748752521
 30
0.0
 10
580.892950297
 20
478.6681509167
 30
0.0
  0
SPLINE
  5
371
100
AcDbEntity
  8
02___PRT_ALL_AXES
100
AcDbSpline
 62
40
  6
CONTINUOUS
 70
0
 71
3
 72
8
 73
4
 74
0
 42
0.0000001
 43
0.0000001
 44
0.0000000001
 40
0.0
 40
0.0
 40
0.0
 40
0.0
 40
1.0
 40
1.0
 40
1.0
 40
1.0
 10
580.3433217366
 20
480.5977180826
 30
0.0
 10
580.2443755582
 20
480.5977178807
 30
0.0
 10
580.1330755972
 20
480.701803838
 30
0.0
 10
580.1330755972
 20
480.7949220192
 30
0.0
  0
SPLINE
  5
372
100
AcDbEntity
  8
02___PRT_ALL_AXES
100
AcDbSpline
 62
40
  6
CONTINUOUS
 70
0
 71
3
 72
8
 73
4
 74
0
 42
0.0000001
 43
0.0000001
 44
0.0000000001
 40
0.0
 40
0.0
 40
0.0
 40
0.0
 40
1.0
 40
1.0
 40
1.0
 40
1.0
 10
597.6130789374
 20
478.4702884178
 30
0.0
 10
597.5139654193
 20
478.470289083
 30
0.0
 10
597.4028220322
 20
478.5748752521
 30
0.0
 10
597.4028220322
 20
478.6681509167
 30
0.0
  0
SPLINE
  5
373
100
AcDbEntity
  8
02___PRT_ALL_AXES
100
AcDbSpline
 62
40
  6
CONTINUOUS
 70
0
 71
3
 72
8
 73
4
 74
0
 42
0.0000001
 43
0.0000001
 44
0.0000000001
 40
0.0
 40
0.0
 40
0.0
 40
0.0
 40
1.0
 40
1.0
 40
1.0
 40
1.0
 10
596.8532042377
 20
480.5977180826
 30
0.0
 10
596.7542555175
 20
480.5977180826
 30
0.0
 10
596.6429473324
 20
480.7018014459
 30
0.0
 10
596.6429473324
 20
480.7949220192
 30
0.0
  0
SPLINE
  5
374
100
AcDbEntity
  8
02___PRT_ALL_AXES
100
AcDbSpline
 62
40
  6
CONTINUOUS
 70
0
 71
3
 72
8
 73
4
 74
0
 42
0.0000001
 43
0.0000001
 44
0.0000000001
 40
0.0
 40
0.0
 40
0.0
 40
0.0
 40
1.0
 40
1.0
 40
1.0
 40
1.0
 10
605.0009015475
 20
478.4702884178
 30
0.0
 10
604.8973935705
 20
478.4702877946
 30
0.0
 10
604.7886601212
 20
478.5550486683
 30
0.0
 10
604.7532441052
 20
478.6465804697
 30
0.0
  0
SPLINE
  5
375
100
AcDbEntity
  8
02___PRT_ALL_AXES
100
AcDbSpline
 62
40
  6
CONTINUOUS
 70
0
 71
3
 72
8
 73
4
 74
0
 42
0.0000001
 43
0.0000001
 44
0.0000000001
 40
0.0
 40
0.0
 40
0.0
 40
0.0
 40
1.0
 40
1.0
 40
1.0
 40
1.0
 10
586.876013472
 20
478.4702884178
 30
0.0
 10
586.7723193636
 20
478.4702884767
 30
0.0
 10
586.6631353286
 20
478.5548838593
 30
0.0
 10
586.6276562499
 20
478.6465804697
 30
0.0
  0
SPLINE
  5
376
100
AcDbEntity
  8
02___PRT_ALL_AXES
100
AcDbSpline
 62
40
  6
CONTINUOUS
 70
0
 71
3
 72
8
 73
4
 74
0
 42
0.0000001
 43
0.0000001
 44
0.0000000001
 40
0.0
 40
0.0
 40
0.0
 40
0.0
 40
1.0
 40
1.0
 40
1.0
 40
1.0
 10
594.2073907695
 20
478.4702884178
 30
0.0
 10
594.1081934752
 20
478.4702884178
 30
0.0
 10
593.9967785914
 20
478.5747964105
 30
0.0
 10
593.9967785914
 20
478.6681509167
 30
0.0
  0
SPLINE
  5
377
100
AcDbEntity
  8
02___PRT_ALL_AXES
100
AcDbSpline
 62
40
  6
CONTINUOUS
 70
0
 71
3
 72
8
 73
4
 74
0
 42
0.0000001
 43
0.0000001
 44
0.0000000001
 40
0.0
 40
0.0
 40
0.0
 40
0.0
 40
1.0
 40
1.0
 40
1.0
 40
1.0
 10
596.0206493348
 20
478.4702884178
 30
0.0
 10
595.894132936
 20
478.4702880808
 30
0.0
 10
595.7647134695
 20
478.5520831663
 30
0.0
 10
595.6925710485
 20
478.6498935444
 30
0.0
  0
SPLINE
  5
378
100
AcDbEntity
  8
02___PRT_ALL_AXES
100
AcDbSpline
 62
40
  6
CONTINUOUS
 70
0
 71
3
 72
8
 73
4
 74
0
 42
0.0000001
 43
0.0000001
 44
0.0000000001
 40
0.0
 40
0.0
 40
0.0
 40
0.0
 40
1.0
 40
1.0
 40
1.0
 40
1.0
 10
600.331217336
 20
478.4702884178
 30
0.0
 10
600.2322686242
 20
478.4702884178
 30
0.0
 10
600.1216602105
 20
478.5750303514
 30
0.0
 10
600.1216602105
 20
478.6681509167
 30
0.0
  0
SPLINE
  5
379
100
AcDbEntity
  8
02___PRT_ALL_AXES
100
AcDbSpline
 62
40
  6
CONTINUOUS
 70
0
 71
3
 72
8
 73
4
 74
0
 42
0.0000001
 43
0.0000001
 44
0.0000000001
 40
0.0
 40
0.0
 40
0.0
 40
0.0
 40
1.0
 40
1.0
 40
1.0
 40
1.0
 10
602.1451864469
 20
478.4702884178
 30
0.0
 10
602.0186669461
 20
478.4702884178
 30
0.0
 10
601.8892693348
 20
478.552098901
 30
0.0
 10
601.8170973948
 20
478.6498935444
 30
0.0
  0
SPLINE
  5
37A
100
AcDbEntity
  8
0
100
AcDbSpline
 62
7
  6
CONTINUOUS
 70
0
 71
3
 72
11
 73
7
 74
0
 42
0.0000001
 43
0.0000001
 44
0.0000000001
 40
0.0
 40
0.0
 40
0.0
 40
0.0
 40
0.194808678
 40
0.4241849313
 40
0.6979920424
 40
1.0
 40
1.0
 40
1.0
 40
1.0
 10
623.926484601
 20
169.047196328
 30
0.0
 10
624.1786376748
 20
169.1490727827
 30
0.0
 10
624.6812412299
 20
169.5017765422
 30
0.0
 10
625.183282269
 20
170.3678209144
 30
0.0
 10
625.3473784707
 20
171.5050877915
 30
0.0
 10
625.1732180106
 20
172.3102243456
 30
0.0
 10
625.0152810012
 20
172.7011321614
 30
0.0
  0
SPLINE
  5
37B
100
AcDbEntity
  8
02___PRT_ALL_AXES
100
AcDbSpline
 62
3
  6
CONTINUOUS
 70
0
 71
3
 72
23
 73
19
 74
0
 42
0.0000001
 43
0.0000001
 44
0.0000000001
 40
0.0
 40
0.0
 40
0.0
 40
0.0
 40
0.0624996983
 40
0.1249995195
 40
0.1874993789
 40
0.2499993282
 40
0.3124993793
 40
0.3749995248
 40
0.4374997428
 40
0.5
 40
0.5625002572
 40
0.6250004752
 40
0.6875006207
 40
0.7500006718
 40
0.8125006211
 40
0.8750004805
 40
0.9375003017
 40
1.0
 40
1.0
 40
1.0
 40
1.0
 10
739.45138336
 20
318.5568811374
 30
0.0
 10
739.45138336
 20
328.1624722901
 30
0.0
 10
737.5561941451
 20
347.4269090113
 30
0.0
 10
729.1371265792
 20
375.1715835151
 30
0.0
 10
715.4652877145
 20
400.7519781218
 30
0.0
 10
697.0660987672
 20
423.1705972526
 30
0.0
 10
674.6466294859
 20
441.5697834862
 30
0.0
 10
649.0684489219
 20
455.241432703
 30
0.0
 10
621.3145115029
 20
463.660432554
 30
0.0
 10
592.4513833601
 20
466.5031720737
 30
0.0
 10
563.5882552172
 20
463.660432554
 30
0.0
 10
535.8343177982
 20
455.2414327031
 30
0.0
 10
510.2561372342
 20
441.5697834863
 30
0.0
 10
487.8366679528
 20
423.1705972527
 30
0.0
 10
469.4374790055
 20
400.7519781219
 30
0.0
 10
455.7656401409
 20
375.1715835153
 30
0.0
 10
447.3465725749
 20
347.4269090114
 30
0.0
 10
445.45138336
 20
328.1624722902
 30
0.0
 10
445.45138336
 20
318.5568811376
 30
0.0
  0
SPLINE
  5
37C
100
AcDbEntity
  8
0
100
AcDbSpline
 62
3
  6
CONTINUOUS
 70
0
 71
3
 72
23
 73
19
 74
0
 42
0.0000001
 43
0.0000001
 44
0.0000000001
 40
0.0
 40
0.0
 40
0.0
 40
0.0
 40
0.062501236
 40
0.1249994794
 40
0.1874993671
 40
0.249999351
 40
0.3124993747
 40
0.3749995318
 40
0.4374997384
 40
0.5
 40
0.5625002616
 40
0.6250004682
 40
0.6875006253
 40
0.750000649
 40
0.8125006329
 40
0.8750005206
 40
0.937498764
 40
1.0
 40
1.0
 40
1.0
 40
1.0
 10
739.45138336
 20
318.4422283811
 30
0.0
 10
739.45138336
 20
308.8364034967
 30
0.0
 10
737.5561774569
 20
289.5719699769
 30
0.0
 10
729.1369930047
 20
261.8273462077
 30
0.0
 10
715.4651960152
 20
236.2472075694
 30
0.0
 10
697.0660637738
 20
213.8285600181
 30
0.0
 10
674.6466307824
 20
195.4293064742
 30
0.0
 10
649.0683891283
 20
181.7578374959
 30
0.0
 10
621.3145328711
 20
173.3385482499
 30
0.0
 10
592.4513833599
 20
170.4961552178
 30
0.0
 10
563.5882338487
 20
173.3385482499
 30
0.0
 10
535.8343775916
 20
181.7578374959
 30
0.0
 10
510.2561359374
 20
195.4293064743
 30
0.0
 10
487.836702946
 20
213.8285600182
 30
0.0
 10
469.4375707047
 20
236.2472075695
 30
0.0
 10
455.7657737152
 20
261.8273462079
 30
0.0
 10
447.3465892631
 20
289.571969977
 30
0.0
 10
445.45138336
 20
308.8364034968
 30
0.0
 10
445.45138336
 20
318.4422283812
 30
0.0
  0
SPLINE
  5
37D
100
AcDbEntity
  8
0
100
AcDbSpline
 62
7
  6
CONTINUOUS
 70
0
 71
3
 72
18
 73
14
 74
0
 42
0.0000001
 43
0.0000001
 44
0.0000000001
 40
0.0
 40
0.0
 40
0.0
 40
0.0
 40
0.2884847714
 40
0.4110756323
 40
0.5119337121
 40
0.5550225095
 40
0.5966676815
 40
0.6444214356
 40
0.70624593
 40
0.7772372368
 40
0.8509082171
 40
0.9253242506
 40
1.0
 40
1.0
 40
1.0
 40
1.0
 10
628.45138336
 20
639.5972365351
 30
0.0
 10
628.7226781991
 20
639.5972365351
 30
0.0
 10
629.109315634
 20
639.5927389596
 30
0.0
 10
629.5904182917
 20
639.5746836287
 30
0.0
 10
629.840664816
 20
639.559363903
 30
0.0
 10
630.014400721
 20
639.5424642657
 30
0.0
 10
630.1379122123
 20
639.5257438856
 30
0.0
 10
630.2773711408
 20
639.4969253534
 30
0.0
 10
630.4386301687
 20
639.4415043897
 30
0.0
 10
630.6092872181
 20
639.3462855722
 30
0.0
 10
630.7667551904
 20
639.2111657699
 30
0.0
 10
630.895206595
 20
639.0438408931
 30
0.0
 10
630.956108982
 20
638.9161977343
 30
0.0
 10
630.9795494419
 20
638.8499992247
 30
0.0
  0
SPLINE
  5
37E
100
AcDbEntity
  8
0
100
AcDbSpline
 62
7
  6
CONTINUOUS
 70
0
 71
3
 72
18
 73
14
 74
0
 42
0.0000001
 43
0.0000001
 44
0.0000000001
 40
0.0
 40
0.0
 40
0.0
 40
0.0
 40
0.0746763013
 40
0.1491049845
 40
0.2227917941
 40
0.2937929118
 40
0.3556143036
 40
0.4033588078
 40
0.4450005458
 40
0.4880889901
 40
0.5889462374
 40
0.7115324964
 40
1.0
 40
1.0
 40
1.0
 40
1.0
 10
553.9232172781
 20
638.8499992247
 30
0.0
 10
553.9466579055
 20
638.9161982075
 30
0.0
 10
554.0075659339
 20
639.043852536
 30
0.0
 10
554.1360378587
 20
639.2111968036
 30
0.0
 10
554.2935411686
 20
639.3463321672
 30
0.0
 10
554.4642268068
 20
639.4415440582
 30
0.0
 10
554.6254882075
 20
639.4969497243
 30
0.0
 10
554.7649342239
 20
639.5257563757
 30
0.0
 10
554.8884339422
 20
639.5424716769
 30
0.0
 10
555.0621656899
 20
639.5593686723
 30
0.0
 10
555.312406813
 20
639.5746862183
 30
0.0
 10
555.7934880628
 20
639.5927394515
 30
0.0
 10
556.1801048257
 20
639.5972365351
 30
0.0
 10
556.45138336
 20
639.5972365351
 30
0.0
  0
SPLINE
  5
37F
100
AcDbEntity
  8
0
100
AcDbSpline
 62
7
  6
CONTINUOUS
 70
0
 71
3
 72
14
 73
10
 74
0
 42
0.0000001
 43
0.0000001
 44
0.0000000001
 40
0.0
 40
0.0
 40
0.0
 40
0.0
 40
0.1442347696
 40
0.2850607971
 40
0.4047464051
 40
0.4988711164
 40
0.6005549638
 40
0.720415308
 40
1.0
 40
1.0
 40
1.0
 40
1.0
 10
557.4619667555
 20
639.5974072296
 30
0.0
 10
557.5129636336
 20
639.6533313748
 30
0.0
 10
557.628208847
 20
639.751553264
 30
0.0
 10
557.8204519715
 20
639.8466046713
 30
0.0
 10
558.0022402594
 20
639.890916295
 30
0.0
 10
558.1669288328
 20
639.9089622847
 30
0.0
 10
558.332260761
 20
639.919422681
 30
0.0
 10
558.5950471662
 20
639.9294179856
 30
0.0
 10
558.8046759022
 20
639.931912695
 30
0.0
 10
558.95138336
 20
639.931912695
 30
0.0
  0
SPLINE
  5
380
100
AcDbEntity
  8
0
100
AcDbSpline
 62
7
  6
CONTINUOUS
 70
0
 71
3
 72
14
 73
10
 74
0
 42
0.0000001
 43
0.0000001
 44
0.0000000001
 40
0.0
 40
0.0
 40
0.0
 40
0.0
 40
0.2795939122
 40
0.3994548377
 40
0.5011389359
 40
0.5952701202
 40
0.7149601695
 40
0.8557755455
 40
1.0
 40
1.0
 40
1.0
 40
1.0
 10
625.95138336
 20
639.931912695
 30
0.0
 10
626.098101842
 20
639.931912695
 30
0.0
 10
626.3077445549
 20
639.9294175395
 30
0.0
 10
626.5705473089
 20
639.9194209696
 30
0.0
 10
626.7358898911
 20
639.9089577916
 30
0.0
 10
626.9005910023
 20
639.8909071537
 30
0.0
 10
627.0823845004
 20
639.8465802426
 30
0.0
 10
627.2746186759
 20
639.751511047
 30
0.0
 10
627.3898541171
 20
639.6532850539
 30
0.0
 10
627.4408448603
 20
639.5973583214
 30
0.0
  0
SPLINE
  5
381
100
AcDbEntity
  8
0
100
AcDbSpline
 62
7
  6
CONTINUOUS
 70
0
 71
3
 72
19
 73
15
 74
0
 42
0.0000001
 43
0.0000001
 44
0.0000000001
 40
0.0
 40
0.0
 40
0.0
 40
0.0
 40
0.0774096609
 40
0.1543333442
 40
0.2289686209
 40
0.2929938304
 40
0.3378053985
 40
0.3751583282
 40
0.4145393921
 40
0.4591755025
 40
0.5669132022
 40
0.6972786671
 40
0.8442794625
 40
1.0
 40
1.0
 40
1.0
 40
1.0
 10
550.45138336
 20
636.9168612857
 30
0.0
 10
550.45138336
 20
637.0956135852
 30
0.0
 10
550.511796225
 20
637.454843494
 30
0.0
 10
550.7699621316
 20
637.9269122337
 30
0.0
 10
551.141975601
 20
638.2706648056
 30
0.0
 10
551.5270302969
 20
638.4585744566
 30
0.0
 10
551.8548495952
 20
638.5430876139
 30
0.0
 10
552.1322268914
 20
638.5869372547
 30
0.0
 10
552.4108003265
 20
638.6181447828
 30
0.0
 10
552.8520691908
 20
638.6552953541
 30
0.0
 10
553.5040669999
 20
638.691433254
 30
0.0
 10
554.392829538
 20
638.7223758851
 30
0.0
 10
555.392754618
 20
638.7415690236
 30
0.0
 10
556.0917976979
 20
638.7458926994
 30
0.0
 10
556.45138336
 20
638.7458926994
 30
0.0
  0
SPLINE
  5
382
100
AcDbEntity
  8
0
100
AcDbSpline
 62
7
  6
CONTINUOUS
 70
0
 71
3
 72
19
 73
15
 74
0
 42
0.0000001
 43
0.0000001
 44
0.0000000001
 40
0.0
 40
0.0
 40
0.0
 40
0.0
 40
0.1557274658
 40
0.3027340043
 40
0.4331030436
 40
0.5408416711
 40
0.5854773086
 40
0.624858349
 40
0.662213093
 40
0.7070331236
 40
0.7710564506
 40
0.8456786898
 40
0.9225908701
 40
1.0
 40
1.0
 40
1.0
 40
1.0
 10
628.45138336
 20
638.7458926994
 30
0.0
 10
628.810985166
 20
638.7458926994
 30
0.0
 10
629.5100577904
 20
638.7415686532
 30
0.0
 10
630.5100207685
 20
638.7223738837
 30
0.0
 10
631.3988072632
 20
638.6914287522
 30
0.0
 10
632.0508144927
 20
638.6552877959
 30
0.0
 10
632.4920842806
 20
638.6181336468
 30
0.0
 10
632.7706602635
 20
638.5869207548
 30
0.0
 10
633.0480603761
 20
638.5430618049
 30
0.0
 10
633.3758927921
 20
638.458518075
 30
0.0
 10
633.760916713
 20
638.2705780225
 30
0.0
 10
634.1328507507
 20
637.9268347814
 30
0.0
 10
634.3909760375
 20
637.4548150527
 30
0.0
 10
634.45138336
 20
637.0956124314
 30
0.0
 10
634.45138336
 20
636.9168612857
 30
0.0
  0
SPLINE
  5
383
100
AcDbEntity
  8
0
100
AcDbSpline
 62
7
  6
CONTINUOUS
 70
0
 71
3
 72
25
 73
21
 74
0
 42
0.0000001
 43
0.0000001
 44
0.0000000001
 40
0.0
 40
0.0
 40
0.0
 40
0.0
 40
0.0028094855
 40
0.00477203
 40
0.0072200493
 40
0.0137081983
 40
0.0224242439
 40
0.0334072028
 40
0.0466598898
 40
0.062166768
 40
0.0799006404
 40
0.1218973416
 40
0.1722810861
 40
0.2305856732
 40
0.2962618978
 40
0.3686856441
 40
0.4471658385
 40
0.619239018
 40
0.8059003221
 40
1.0
 40
1.0
 40
1.0
 40
1.0
 10
550.45138336
 20
636.9168612857
 30
0.0
 10
550.45138336
 20
636.9225090095
 30
0.0
 10
550.456976491
 20
636.9316951902
 30
0.0
 10
550.4682393733
 20
636.94061806
 30
0.0
 10
550.4872206598
 20
636.9518240253
 30
0.0
 10
550.5203565227
 20
636.9648065979
 30
0.0
 10
550.5709331562
 20
636.9795206507
 30
0.0
 10
550.6355722809
 20
636.9941403235
 30
0.0
 10
550.7141390748
 20
637.0086944185
 30
0.0
 10
550.8064989405
 20
637.0230774075
 30
0.0
 10
550.956419012
 20
637.0431153546
 30
0.0
 10
551.1765469238
 20
637.066707995
 30
0.0
 10
551.4783738349
 20
637.092480179
 30
0.0
 10
551.8280625468
 20
637.1166961963
 30
0.0
 10
552.2222530405
 20
637.1391006106
 30
0.0
 10
552.6571606641
 20
637.1594437126
 30
0.0
 10
553.3059505981
 20
637.1842949335
 30
0.0
 10
554.1845599289
 20
637.2081304241
 30
0.0
 10
555.2957722484
 20
637.2253294003
 30
0.0
 10
556.0611975531
 20
637.2291768498
 30
0.0
 10
556.45138336
 20
637.2291768498
 30
0.0
  0
SPLINE
  5
384
100
AcDbEntity
  8
0
100
AcDbSpline
 62
7
  6
CONTINUOUS
 70
0
 71
3
 72
20
 73
16
 74
0
 42
0.0000001
 43
0.0000001
 44
0.0000000001
 40
0.0
 40
0.0
 40
0.0
 40
0.0
 40
0.0032498194
 40
0.0083120716
 40
0.0248396966
 40
0.0502309946
 40
0.0844016377
 40
0.1270897021
 40
0.1779232911
 40
0.2364416278
 40
0.3021056568
 40
0.4523671178
 40
0.6231126533
 40
0.8079624982
 40
1.0
 40
1.0
 40
1.0
 40
1.0
 10
630.9795491726
 20
638.8499992245
 30
0.0
 10
630.9786307282
 20
638.8525918459
 30
0.0
 10
630.9732893266
 20
638.8578435525
 30
0.0
 10
630.9546091796
 20
638.8672757619
 30
0.0
 10
630.9158302478
 20
638.8777602435
 30
0.0
 10
630.8526462305
 20
638.8894610109
 30
0.0
 10
630.7667761747
 20
638.9009520746
 30
0.0
 10
630.6593028857
 20
638.9121401006
 30
0.0
 10
630.5310484647
 20
638.9227962305
 30
0.0
 10
630.3832610798
 20
638.9328115901
 30
0.0
 10
630.1513386135
 20
638.9457322363
 30
0.0
 10
629.8243326785
 20
638.9590448975
 30
0.0
 10
629.3963430227
 20
638.9705264902
 30
0.0
 10
628.9328971756
 20
638.9776067642
 30
0.0
 10
628.6139149424
 20
638.9791936396
 30
0.0
 10
628.45138336
 20
638.9791936396
 30
0.0
  0
SPLINE
  5
385
100
AcDbEntity
  8
0
100
AcDbSpline
 62
7
  6
CONTINUOUS
 70
0
 71
3
 72
20
 73
16
 74
0
 42
0.0000001
 43
0.0000001
 44
0.0000000001
 40
0.0
 40
0.0
 40
0.0
 40
0.0
 40
0.1920375018
 40
0.3768873467
 40
0.5476328822
 40
0.6978943432
 40
0.7635583722
 40
0.8220767089
 40
0.8729102979
 40
0.9155983623
 40
0.9497690054
 40
0.9751603034
 40
0.9916879284
 40
0.9967501806
 40
1.0
 40
1.0
 40
1.0
 40
1.0
 10
556.45138336
 20
638.9791936396
 30
0.0
 10
556.2888517775
 20
638.9791936396
 30
0.0
 10
555.9698695444
 20
638.9776067642
 30
0.0
 10
555.5064236972
 20
638.9705264902
 30
0.0
 10
555.0784340415
 20
638.9590448975
 30
0.0
 10
554.7514281065
 20
638.9457322363
 30
0.0
 10
554.5195056402
 20
638.9328115901
 30
0.0
 10
554.3717182552
 20
638.9227962305
 30
0.0
 10
554.2434638342
 20
638.9121401006
 30
0.0
 10
554.1359905453
 20
638.9009520746
 30
0.0
 10
554.0501204894
 20
638.8894610109
 30
0.0
 10
553.9869364722
 20
638.8777602435
 30
0.0
 10
553.9481575403
 20
638.8672757619
 30
0.0
 10
553.9294773933
 20
638.8578435525
 30
0.0
 10
553.9241359918
 20
638.8525918459
 30
0.0
 10
553.9232175473
 20
638.8499992245
 30
0.0
  0
SPLINE
  5
386
100
AcDbEntity
  8
0
100
AcDbSpline
 62
7
  6
CONTINUOUS
 70
0
 71
3
 72
25
 73
21
 74
0
 42
0.0000001
 43
0.0000001
 44
0.0000000001
 40
0.0
 40
0.0
 40
0.0
 40
0.0
 40
0.1940996779
 40
0.380760982
 40
0.5528341615
 40
0.6313143559
 40
0.7037381022
 40
0.7694143268
 40
0.8277189139
 40
0.8781026584
 40
0.9200993596
 40
0.937833232
 40
0.9533401102
 40
0.9665927972
 40
0.9775757561
 40
0.9862918017
 40
0.9927799507
 40
0.99522797
 40
0.9971905145
 40
1.0
 40
1.0
 40
1.0
 40
1.0
 10
628.45138336
 20
637.2291768498
 30
0.0
 10
628.8415691669
 20
637.2291768498
 30
0.0
 10
629.6069944716
 20
637.2253294003
 30
0.0
 10
630.7182067911
 20
637.2081304241
 30
0.0
 10
631.5968161219
 20
637.1842949335
 30
0.0
 10
632.2456060558
 20
637.1594437126
 30
0.0
 10
632.6805136794
 20
637.1391006106
 30
0.0
 10
633.0747041731
 20
637.1166961963
 30
0.0
 10
633.424392885
 20
637.092480179
 30
0.0
 10
633.7262197961
 20
637.066707995
 30
0.0
 10
633.946347708
 20
637.0431153546
 30
0.0
 10
634.0962677795
 20
637.0230774075
 30
0.0
 10
634.1886276452
 20
637.0086944185
 30
0.0
 10
634.2671944391
 20
636.9941403235
 30
0.0
 10
634.3318335638
 20
636.9795206507
 30
0.0
 10
634.3824101973
 20
636.9648065979
 30
0.0
 10
634.4155460601
 20
636.9518240253
 30
0.0
 10
634.4345273467
 20
636.94061806
 30
0.0
 10
634.445790229
 20
636.9316951902
 30
0.0
 10
634.45138336
 20
636.9225090095
 30
0.0
 10
634.45138336
 20
636.9168612857
 30
0.0
  0
SPLINE
  5
387
100
AcDbEntity
  8
0
100
AcDbSpline
 62
7
  6
CONTINUOUS
 70
0
 71
3
 72
16
 73
12
 74
0
 42
0.0000001
 43
0.0000001
 44
0.0000000001
 40
0.0
 40
0.0
 40
0.0
 40
0.0
 40
0.0780612022
 40
0.196230507
 40
0.3483956827
 40
0.517748977
 40
0.6837390229
 40
0.8264995415
 40
0.8844354999
 40
0.9320316517
 40
1.0
 40
1.0
 40
1.0
 40
1.0
 10
579.7730976132
 20
629.2162246868
 30
0.0
 10
579.6005101971
 20
629.2162246868
 30
0.0
 10
579.1914733869
 20
629.4501506908
 30
0.0
 10
578.702298229
 20
630.0394854706
 30
0.0
 10
578.2145799822
 20
630.8890660919
 30
0.0
 10
577.8158454042
 20
631.8928286518
 30
0.0
 10
577.553243477
 20
632.9198017749
 30
0.0
 10
577.466077232
 20
633.730386909
 30
0.0
 10
577.5121679457
 20
634.2815744417
 30
0.0
 10
577.6003051014
 20
634.6501301031
 30
0.0
 10
577.7706433167
 20
634.888490143
 30
0.0
 10
577.9120672114
 20
634.9392958538
 30
0.0
  0
SPLINE
  5
388
100
AcDbEntity
  8
0
100
AcDbSpline
 62
7
  6
CONTINUOUS
 70
0
 71
3
 72
8
 73
4
 74
0
 42
0.0000001
 43
0.0000001
 44
0.0000000001
 40
0.0
 40
0.0
 40
0.0
 40
0.0
 40
1.0
 40
1.0
 40
1.0
 40
1.0
 10
549.9504878181
 20
622.1319295732
 30
0.0
 10
549.9715512297
 20
622.1019461415
 30
0.0
 10
549.9904333871
 20
622.0704079981
 30
0.0
 10
550.0080551341
 20
622.0382809453
 30
0.0
  0
SPLINE
  5
389
100
AcDbEntity
  8
0
100
AcDbSpline
 62
7
  6
CONTINUOUS
 70
0
 71
3
 72
8
 73
4
 74
0
 42
0.0000001
 43
0.0000001
 44
0.0000000001
 40
0.0
 40
0.0
 40
0.0
 40
0.0
 40
1.0
 40
1.0
 40
1.0
 40
1.0
 10
549.9491544132
 20
623.7785665975
 30
0.0
 10
550.0523825163
 20
623.98284822
 30
0.0
 10
550.239141037
 20
624.1591178152
 30
0.0
 10
550.4498895467
 20
624.2484043664
 30
0.0
  0
SPLINE
  5
38A
100
AcDbEntity
  8
0
100
AcDbSpline
 62
7
  6
CONTINUOUS
 70
0
 71
3
 72
9
 73
5
 74
0
 42
0.0000001
 43
0.0000001
 44
0.0000000001
 40
0.0
 40
0.0
 40
0.0
 40
0.0
 40
0.2441461418
 40
1.0
 40
1.0
 40
1.0
 40
1.0
 10
589.2275096378
 20
632.3657927425
 30
0.0
 10
589.3141674312
 20
632.3658493439
 30
0.0
 10
589.6689527893
 20
632.3443551955
 30
0.0
 10
590.0169340509
 20
632.2324533177
 30
0.0
 10
590.254646365
 20
632.1080770194
 30
0.0
  0
SPLINE
  5
38B
100
AcDbEntity
  8
0
100
AcDbSpline
 62
7
  6
CONTINUOUS
 70
0
 71
3
 72
8
 73
4
 74
0
 42
0.0000001
 43
0.0000001
 44
0.0000000001
 40
0.0
 40
0.0
 40
0.0
 40
0.0
 40
1.0
 40
1.0
 40
1.0
 40
1.0
 10
588.5084685536
 20
632.2426859814
 30
0.0
 10
588.7380371171
 20
632.322866214
 30
0.0
 10
588.9843418566
 20
632.3656339149
 30
0.0
 10
589.2275096378
 20
632.3657927425
 30
0.0
  0
SPLINE
  5
38C
100
AcDbEntity
  8
0
100
AcDbSpline
 62
7
  6
CONTINUOUS
 70
0
 71
3
 72
14
 73
10
 74
0
 42
0.0000001
 43
0.0000001
 44
0.0000000001
 40
0.0
 40
0.0
 40
0.0
 40
0.0
 40
0.2511430861
 40
0.3551628458
 40
0.4693203225
 40
0.6039744049
 40
0.7443343756
 40
0.8811987953
 40
1.0
 40
1.0
 40
1.0
 40
1.0
 10
626.4578637164
 20
619.982565574
 30
0.0
 10
627.3946893865
 20
619.4923978292
 30
0.0
 10
628.7006180605
 20
618.7486169825
 30
0.0
 10
630.2430280724
 20
617.5039165385
 30
0.0
 10
631.1505836946
 20
616.2906118266
 30
0.0
 10
631.4687714016
 20
614.6026241613
 30
0.0
 10
630.8107082602
 20
612.8939198074
 30
0.0
 10
629.4089712675
 20
611.8436027777
 30
0.0
 10
628.3155287006
 20
611.6678678122
 30
0.0
 10
627.815376242
 20
611.6678678122
 30
0.0
  0
SPLINE
  5
38D
100
AcDbEntity
  8
0
100
AcDbSpline
 62
7
  6
CONTINUOUS
 70
0
 71
3
 72
15
 73
11
 74
0
 42
0.0000001
 43
0.0000001
 44
0.0000000001
 40
0.0
 40
0.0
 40
0.0
 40
0.0
 40
0.3721357579
 40
0.5367525502
 40
0.6835883315
 40
0.8090334497
 40
0.9085493963
 40
0.9465194098
 40
0.9752635441
 40
1.0
 40
1.0
 40
1.0
 40
1.0
 10
624.1284769283
 20
614.3784192355
 30
0.0
 10
624.3526945053
 20
614.2551047761
 30
0.0
 10
624.6732498515
 20
614.0722999616
 30
0.0
 10
625.074157716
 20
613.8259546032
 30
0.0
 10
625.3256339578
 20
613.6635934219
 30
0.0
 10
625.5384040968
 20
613.5158502807
 30
0.0
 10
625.6791673487
 20
613.4153714744
 30
0.0
 10
625.7759134802
 20
613.3342365704
 30
0.0
 10
625.8105298198
 20
613.3144214002
 30
0.0
 10
625.8667724214
 20
613.2477750269
 30
0.0
 10
625.860408269
 20
613.2635490258
 30
0.0
  0
SPLINE
  5
38E
100
AcDbEntity
  8
0
100
AcDbSpline
 62
7
  6
CONTINUOUS
 70
0
 71
3
 72
9
 73
5
 74
0
 42
0.0000001
 43
0.0000001
 44
0.0000000001
 40
0.0
 40
0.0
 40
0.0
 40
0.0
 40
0.2144309346
 40
1.0
 40
1.0
 40
1.0
 40
1.0
 10
578.0477824968
 20
634.9624388842
 30
0.0
 10
578.0818447016
 20
634.9624388842
 30
0.0
 10
578.2408357109
 20
634.9434721279
 30
0.0
 10
578.3856008424
 20
634.8622650095
 30
0.0
 10
578.4867385756
 20
634.7891693249
 30
0.0
  0
SPLINE
  5
38F
100
AcDbEntity
  8
0
100
AcDbSpline
 62
7
  6
CONTINUOUS
 70
0
 71
3
 72
14
 73
10
 74
0
 42
0.0000001
 43
0.0000001
 44
0.0000000001
 40
0.0
 40
0.0
 40
0.0
 40
0.0
 40
0.1081438952
 40
0.2471161581
 40
0.4055662113
 40
0.5686429376
 40
0.7207626423
 40
0.8481328958
 40
1.0
 40
1.0
 40
1.0
 40
1.0
 10
578.4867385756
 20
634.7891693249
 30
0.0
 10
578.6658281464
 20
634.6597351923
 30
0.0
 10
579.0124056875
 20
634.281652061
 30
0.0
 10
579.4536555102
 20
633.5790268325
 30
0.0
 10
579.8449251126
 20
632.7188951349
 30
0.0
 10
580.1441415942
 20
631.801208352
 30
0.0
 10
580.3155923315
 20
630.8945890243
 30
0.0
 10
580.3656380835
 20
630.0646359074
 30
0.0
 10
580.200845044
 20
629.3442785653
 30
0.0
 10
579.9088128987
 20
629.2393677172
 30
0.0
  0
SPLINE
  5
390
100
AcDbEntity
  8
0
100
AcDbSpline
 62
7
  6
CONTINUOUS
 70
0
 71
3
 72
8
 73
4
 74
0
 42
0.0000001
 43
0.0000001
 44
0.0000000001
 40
0.0
 40
0.0
 40
0.0
 40
0.0
 40
1.0
 40
1.0
 40
1.0
 40
1.0
 10
550.3660810683
 20
623.8596284341
 30
0.0
 10
550.2141055339
 20
623.6547249983
 30
0.0
 10
550.1416704457
 20
623.3708253016
 30
0.0
 10
550.1766097433
 20
623.1181175128
 30
0.0
  0
SPLINE
  5
391
100
AcDbEntity
  8
0
100
AcDbSpline
 62
7
  6
CONTINUOUS
 70
0
 71
3
 72
9
 73
5
 74
0
 42
0.0000001
 43
0.0000001
 44
0.0000000001
 40
0.0
 40
0.0
 40
0.0
 40
0.0
 40
0.4927873233
 40
1.0
 40
1.0
 40
1.0
 40
1.0
 10
626.5932090826
 20
611.9707220201
 30
0.0
 10
626.250800621
 20
612.1498776398
 30
0.0
 10
625.6290216082
 20
612.6686228815
 30
0.0
 10
625.2615005119
 20
613.3864389587
 30
0.0
 10
625.1485212264
 20
613.7678143816
 30
0.0
  0
SPLINE
  5
392
100
AcDbEntity
  8
0
100
AcDbSpline
 62
7
  6
CONTINUOUS
 70
0
 71
3
 72
12
 73
8
 74
0
 42
0.0000001
 43
0.0000001
 44
0.0000000001
 40
0.0
 40
0.0
 40
0.0
 40
0.0
 40
0.3463429901
 40
0.6405132932
 40
0.7595038576
 40
0.8575631917
 40
1.0
 40
1.0
 40
1.0
 40
1.0
 10
588.650899316
 20
635.0704940968
 30
0.0
 10
588.7491388671
 20
634.7398066558
 30
0.0
 10
588.8930099377
 20
634.116370624
 30
0.0
 10
588.9569995223
 20
633.3581183473
 30
0.0
 10
588.9010555298
 20
632.848340138
 30
0.0
 10
588.8084976298
 20
632.5061044747
 30
0.0
 10
588.6422631033
 20
632.2898771307
 30
0.0
 10
588.5083988741
 20
632.2428853561
 30
0.0
  0
SPLINE
  5
393
100
AcDbEntity
  8
0
100
AcDbSpline
 62
7
  6
CONTINUOUS
 70
0
 71
3
 72
9
 73
5
 74
0
 42
0.0000001
 43
0.0000001
 44
0.0000000001
 40
0.0
 40
0.0
 40
0.0
 40
0.0
 40
0.2124385158
 40
1.0
 40
1.0
 40
1.0
 40
1.0
 10
550.0080551341
 20
622.0382809453
 30
0.0
 10
550.021721261
 20
622.0133655735
 30
0.0
 10
550.0824277304
 20
621.8940970262
 30
0.0
 10
550.1318024086
 20
621.7693970884
 30
0.0
 10
550.1677061207
 20
621.6703543584
 30
0.0
  0
SPLINE
  5
394
100
AcDbEntity
  8
0
100
AcDbSpline
 62
7
  6
CONTINUOUS
 70
0
 71
3
 72
9
 73
5
 74
0
 42
0.0000001
 43
0.0000001
 44
0.0000000001
 40
0.0
 40
0.0
 40
0.0
 40
0.0
 40
0.4450841337
 40
1.0
 40
1.0
 40
1.0
 40
1.0
 10
550.1677061207
 20
621.6703543584
 30
0.0
 10
550.297762735
 20
621.3115847118
 30
0.0
 10
550.509545367
 20
620.4777337063
 30
0.0
 10
550.6584383521
 20
619.6331635876
 30
0.0
 10
550.7236004132
 20
619.1618616014
 30
0.0
  0
SPLINE
  5
395
100
AcDbEntity
  8
0
100
AcDbSpline
 62
7
  6
CONTINUOUS
 70
0
 71
3
 72
8
 73
4
 74
0
 42
0.0000001
 43
0.0000001
 44
0.0000000001
 40
0.0
 40
0.0
 40
0.0
 40
0.0
 40
1.0
 40
1.0
 40
1.0
 40
1.0
 10
627.8153762443
 20
611.6678504458
 30
0.0
 10
627.3956642104
 20
611.6677849273
 30
0.0
 10
626.9650930188
 20
611.7761441854
 30
0.0
 10
626.5932090826
 20
611.9707220201
 30
0.0
  0
SPLINE
  5
396
100
AcDbEntity
  8
0
100
AcDbSpline
 62
7
  6
CONTINUOUS
 70
0
 71
3
 72
10
 73
6
 74
0
 42
0.0000001
 43
0.0000001
 44
0.0000000001
 40
0.0
 40
0.0
 40
0.0
 40
0.0
 40
0.5583851548
 40
0.8052030767
 40
1.0
 40
1.0
 40
1.0
 40
1.0
 10
592.9090162386
 20
635.0715440105
 30
0.0
 10
592.6626842014
 20
634.4642649315
 30
0.0
 10
592.2085030888
 20
633.6219565526
 30
0.0
 10
591.4760486066
 20
632.7039048176
 30
0.0
 10
591.0868942993
 20
632.3520732937
 30
0.0
 10
590.8931835696
 20
632.2306523823
 30
0.0
  0
SPLINE
  5
397
100
AcDbEntity
  8
0
100
AcDbSpline
 62
7
  6
CONTINUOUS
 70
0
 71
3
 72
9
 73
5
 74
0
 42
0.0000001
 43
0.0000001
 44
0.0000000001
 40
0.0
 40
0.0
 40
0.0
 40
0.0
 40
0.2947988642
 40
1.0
 40
1.0
 40
1.0
 40
1.0
 10
590.8931835696
 20
632.2306523823
 30
0.0
 10
590.8522247713
 20
632.2049787677
 30
0.0
 10
590.7104535262
 20
632.1243252816
 30
0.0
 10
590.5481826679
 20
632.0667884407
 30
0.0
 10
590.4325464089
 20
632.0667884407
 30
0.0
  0
SPLINE
  5
398
100
AcDbEntity
  8
0
100
AcDbSpline
 62
7
  6
CONTINUOUS
 70
0
 71
3
 72
15
 73
11
 74
0
 42
0.0000001
 43
0.0000001
 44
0.0000000001
 40
0.0
 40
0.0
 40
0.0
 40
0.0
 40
0.0603513416
 40
0.1511177686
 40
0.275761345
 40
0.425811305
 40
0.5879564173
 40
0.7470314144
 40
0.8883188876
 40
1.0
 40
1.0
 40
1.0
 40
1.0
 10
626.4577408576
 20
619.9823307833
 30
0.0
 10
626.5654068845
 20
619.9259526303
 30
0.0
 10
626.7352435296
 20
619.6309369203
 30
0.0
 10
626.7307377928
 20
619.0716116791
 30
0.0
 10
626.5925965862
 20
618.3453145549
 30
0.0
 10
626.2974589535
 20
617.5138489087
 30
0.0
 10
625.8843309473
 20
616.6577931591
 30
0.0
 10
625.3906967454
 20
615.8651077012
 30
0.0
 10
624.8698888801
 20
615.2176856126
 30
0.0
 10
624.4868258905
 20
614.8728721039
 30
0.0
 10
624.2962665144
 20
614.7534265102
 30
0.0
  0
SPLINE
  5
399
100
AcDbEntity
  8
0
100
AcDbSpline
 62
7
  6
CONTINUOUS
 70
0
 71
3
 72
9
 73
5
 74
0
 42
0.0000001
 43
0.0000001
 44
0.0000000001
 40
0.0
 40
0.0
 40
0.0
 40
0.0
 40
0.2947988642
 40
1.0
 40
1.0
 40
1.0
 40
1.0
 10
624.2962665144
 20
614.7534265102
 30
0.0
 10
624.2553077161
 20
614.7277528956
 30
0.0
 10
624.113536471
 20
614.6470994095
 30
0.0
 10
623.9512656127
 20
614.5895625685
 30
0.0
 10
623.8356293538
 20
614.5895625685
 30
0.0
  0
SPLINE
  5
39A
100
AcDbEntity
  8
0
100
AcDbSpline
 62
7
  6
CONTINUOUS
 70
0
 71
3
 72
9
 73
5
 74
0
 42
0.0000001
 43
0.0000001
 44
0.0000000001
 40
0.0
 40
0.0
 40
0.0
 40
0.0
 40
0.4944567049
 40
1.0
 40
1.0
 40
1.0
 40
1.0
 10
634.4066314219
 20
637.2947867574
 30
0.0
 10
634.5595061945
 20
637.2428013049
 30
0.0
 10
634.8438978405
 20
637.038403228
 30
0.0
 10
634.95138336
 20
636.7029602247
 30
0.0
 10
634.95138336
 20
636.5378678122
 30
0.0
  0
SPLINE
  5
39B
100
AcDbEntity
  8
0
100
AcDbSpline
 62
7
  6
CONTINUOUS
 70
0
 71
3
 72
9
 73
5
 74
0
 42
0.0000001
 43
0.0000001
 44
0.0000000001
 40
0.0
 40
0.0
 40
0.0
 40
0.0
 40
0.5055437171
 40
1.0
 40
1.0
 40
1.0
 40
1.0
 10
549.95138336
 20
636.5378678122
 30
0.0
 10
549.95138336
 20
636.702974411
 30
0.0
 10
550.0588880595
 20
637.0384478468
 30
0.0
 10
550.3433248226
 20
637.2428412626
 30
0.0
 10
550.4962179891
 20
637.2948148717
 30
0.0
  0
SPLINE
  5
39C
100
AcDbEntity
  8
0
100
AcDbSpline
 62
7
  6
CONTINUOUS
 70
0
 71
3
 72
9
 73
5
 74
0
 42
0.0000001
 43
0.0000001
 44
0.0000000001
 40
0.0
 40
0.0
 40
0.0
 40
0.0
 40
0.5057977416
 40
1.0
 40
1.0
 40
1.0
 40
1.0
 10
633.35138336
 20
626.0378678122
 30
0.0
 10
633.35138336
 20
626.2445868534
 30
0.0
 10
633.1769268135
 20
626.6707266366
 30
0.0
 10
632.7514416233
 20
626.8378678122
 30
0.0
 10
632.5494616447
 20
626.8378678122
 30
0.0
  0
SPLINE
  5
39D
100
AcDbEntity
  8
0
100
AcDbSpline
 62
7
  6
CONTINUOUS
 70
0
 71
3
 72
9
 73
5
 74
0
 42
0.0000001
 43
0.0000001
 44
0.0000000001
 40
0.0
 40
0.0
 40
0.0
 40
0.0
 40
0.4942022584
 40
1.0
 40
1.0
 40
1.0
 40
1.0
 10
552.3533050753
 20
626.8378678122
 30
0.0
 10
552.1513250967
 20
626.8378678122
 30
0.0
 10
551.7258399064
 20
626.6707266367
 30
0.0
 10
551.55138336
 20
626.2445868535
 30
0.0
 10
551.55138336
 20
626.0378678122
 30
0.0
  0
SPLINE
  5
39E
100
AcDbEntity
  8
0
100
AcDbSpline
 62
3
  6
CONTINUOUS
 70
0
 71
3
 72
9
 73
5
 74
0
 42
0.0000001
 43
0.0000001
 44
0.0000000001
 40
0.0
 40
0.0
 40
0.0
 40
0.0
 40
0.0940940639
 40
1.0
 40
1.0
 40
1.0
 40
1.0
 10
737.7980051471
 20
1015.2647839873
 30
0.0
 10
737.7699086615
 20
1015.2675410046
 30
0.0
 10
737.4708543842
 20
1015.2921303739
 30
0.0
 10
737.1706982834
 20
1015.2998335018
 30
0.0
 10
736.8990468264
 20
1015.3088994329
 30
0.0
  0
SPLINE
  5
39F
100
AcDbEntity
  8
0
100
AcDbSpline
 62
3
  6
CONTINUOUS
 70
0
 71
3
 72
21
 73
17
 74
0
 42
0.0000001
 43
0.0000001
 44
0.0000000001
 40
0.0
 40
0.0
 40
0.0
 40
0.0
 40
0.0192369623
 40
0.0542538257
 40
0.1038506582
 40
0.1664032191
 40
0.2398718632
 40
0.3218629039
 40
0.5004785227
 40
0.6790225397
 40
0.7609258846
 40
0.8342771051
 40
0.896686669
 40
0.9461193053
 40
0.9809557955
 40
1.0
 40
1.0
 40
1.0
 40
1.0
 10
736.8990468264
 20
1015.3088994329
 30
0.0
 10
735.0473227674
 20
1015.37069775
 30
0.0
 10
729.8218772989
 20
1015.4347034573
 30
0.0
 10
719.8206305447
 20
1015.5351765297
 30
0.0
 10
705.6467593264
 20
1015.6164657878
 30
0.0
 10
687.7697026039
 20
1015.693926295
 30
0.0
 10
666.772515169
 20
1015.7555182356
 30
0.0
 10
634.5970418656
 20
1015.8189738711
 30
0.0
 10
592.3014441591
 20
1015.8483012494
 30
0.0
 10
550.0142923973
 20
1015.8186212595
 30
0.0
 10
517.8654719995
 20
1015.7548641496
 30
0.0
 10
496.9018115134
 20
1015.6931245438
 30
0.0
 10
479.0656560617
 20
1015.6154402354
 30
0.0
 10
464.9387331858
 20
1015.5342696153
 30
0.0
 10
454.9892639054
 20
1015.4333564754
 30
0.0
 10
449.7997259955
 20
1015.3699175372
 30
0.0
 10
447.9665932015
 20
1015.307649451
 30
0.0
  0
SPLINE
  5
3A0
100
AcDbEntity
  8
0
100
AcDbSpline
 62
3
  6
CONTINUOUS
 70
0
 71
3
 72
9
 73
5
 74
0
 42
0.0000001
 43
0.0000001
 44
0.0000000001
 40
0.0
 40
0.0
 40
0.0
 40
0.0
 40
0.3632452248
 40
1.0
 40
1.0
 40
1.0
 40
1.0
 10
447.9665932015
 20
1015.307649451
 30
0.0
 10
447.8639184186
 20
1015.304161781
 30
0.0
 10
447.5813811889
 20
1015.292937017
 30
0.0
 10
447.2984185402
 20
1015.2836351607
 30
0.0
 10
447.1191680537
 20
1015.2662798127
 30
0.0
  0
SPLINE
  5
3A1
100
AcDbEntity
  8
0
100
AcDbSpline
 62
3
  6
CONTINUOUS
 70
0
 71
3
 72
9
 73
5
 74
0
 42
0.0000001
 43
0.0000001
 44
0.0000000001
 40
0.0
 40
0.0
 40
0.0
 40
0.0
 40
0.2594926704
 40
1.0
 40
1.0
 40
1.0
 40
1.0
 10
445.45138336
 20
1016.6340404399
 30
0.0
 10
445.45138336
 20
1016.5572112614
 30
0.0
 10
445.4750371598
 20
1016.2613623639
 30
0.0
 10
445.5976540439
 20
1015.9753501832
 30
0.0
 10
445.7283569321
 20
1015.7993237849
 30
0.0
  0
SPLINE
  5
3A2
100
AcDbEntity
  8
0
100
AcDbSpline
 62
3
  6
CONTINUOUS
 70
0
 71
3
 72
9
 73
5
 74
0
 42
0.0000001
 43
0.0000001
 44
0.0000000001
 40
0.0
 40
0.0
 40
0.0
 40
0.0
 40
0.5226563799
 40
1.0
 40
1.0
 40
1.0
 40
1.0
 10
445.7283569321
 20
1015.7993237849
 30
0.0
 10
445.8434917347
 20
1015.6442639778
 30
0.0
 10
446.1273598395
 20
1015.3878717796
 30
0.0
 10
446.4863197055
 20
1015.2683734367
 30
0.0
 10
446.6602432057
 20
1015.2389962963
 30
0.0
  0
SPLINE
  5
3A3
100
AcDbEntity
  8
0
100
AcDbSpline
 62
3
  6
CONTINUOUS
 70
0
 71
3
 72
9
 73
5
 74
0
 42
0.0000001
 43
0.0000001
 44
0.0000000001
 40
0.0
 40
0.0
 40
0.0
 40
0.0
 40
0.4004446937
 40
1.0
 40
1.0
 40
1.0
 40
1.0
 10
446.6602432057
 20
1015.2389962963
 30
0.0
 10
446.8412217247
 20
1015.208427504
 30
0.0
 10
447.3003530588
 20
1015.1837219399
 30
0.0
 10
447.7577438474
 20
1015.1654727731
 30
0.0
 10
448.0324095204
 20
1015.1567709738
 30
0.0
  0
SPLINE
  5
3A4
100
AcDbEntity
  8
0
100
AcDbSpline
 62
3
  6
CONTINUOUS
 70
0
 71
3
 72
9
 73
5
 74
0
 42
0.0000001
 43
0.0000001
 44
0.0000000001
 40
0.0
 40
0.0
 40
0.0
 40
0.0
 40
0.186378464
 40
1.0
 40
1.0
 40
1.0
 40
1.0
 10
448.0324095204
 20
1015.1567709738
 30
0.0
 10
448.2844789613
 20
1015.1487850552
 30
0.0
 10
449.6371370222
 20
1015.1122903483
 30
0.0
 10
450.9901318568
 20
1015.0902474715
 30
0.0
 10
452.0909513401
 20
1015.073770817
 30
0.0
  0
SPLINE
  5
3A5
100
AcDbEntity
  8
0
100
AcDbSpline
 62
3
  6
CONTINUOUS
 70
0
 71
3
 72
9
 73
5
 74
0
 42
0.0000001
 43
0.0000001
 44
0.0000000001
 40
0.0
 40
0.0
 40
0.0
 40
0.0
 40
0.3143549558
 40
1.0
 40
1.0
 40
1.0
 40
1.0
 10
732.8095615526
 20
1015.0737370855
 30
0.0
 10
733.2375532091
 20
1015.0801416568
 30
0.0
 10
734.5990050992
 20
1015.1022315612
 30
0.0
 10
735.9604888697
 20
1015.1276656662
 30
0.0
 10
736.8936162257
 20
1015.1575113688
 30
0.0
  0
SPLINE
  5
3A6
100
AcDbEntity
  8
0
100
AcDbSpline
 62
3
  6
CONTINUOUS
 70
0
 71
3
 72
9
 73
5
 74
0
 42
0.0000001
 43
0.0000001
 44
0.0000000001
 40
0.0
 40
0.0
 40
0.0
 40
0.0
 40
0.5987922985
 40
1.0
 40
1.0
 40
1.0
 40
1.0
 10
736.8936162257
 20
1015.1575113688
 30
0.0
 10
737.1617319211
 20
1015.1660869413
 30
0.0
 10
737.6088330061
 20
1015.1839358074
 30
0.0
 10
738.0574694396
 20
1015.2085006801
 30
0.0
 10
738.2347977959
 20
1015.2378267573
 30
0.0
  0
SPLINE
  5
3A7
100
AcDbEntity
  8
0
100
AcDbSpline
 62
3
  6
CONTINUOUS
 70
0
 71
3
 72
9
 73
5
 74
0
 42
0.0000001
 43
0.0000001
 44
0.0000000001
 40
0.0
 40
0.0
 40
0.0
 40
0.0
 40
0.0864490071
 40
1.0
 40
1.0
 40
1.0
 40
1.0
 10
738.2347977959
 20
1015.2378267573
 30
0.0
 10
738.2628651207
 20
1015.2424684545
 30
0.0
 10
738.5858856885
 20
1015.3024424043
 30
0.0
 10
738.9004728557
 20
1015.4796434718
 30
0.0
 10
739.0995813822
 20
1015.7048865659
 30
0.0
  0
SPLINE
  5
3A8
100
AcDbEntity
  8
02___PRT_ALL_AXES
100
AcDbSpline
 62
3
  6
CONTINUOUS
 70
0
 71
3
 72
9
 73
5
 74
0
 42
0.0000001
 43
0.0000001
 44
0.0000000001
 40
0.0
 40
0.0
 40
0.0
 40
0.0
 40
0.1839573109
 40
1.0
 40
1.0
 40
1.0
 40
1.0
 10
449.1111478294
 20
1048.2592986339
 30
0.0
 10
449.0836967477
 20
1048.2566607982
 30
0.0
 10
448.9345657899
 20
1048.2414437965
 30
0.0
 10
448.7859545771
 20
1048.2202099626
 30
0.0
 10
448.6657244219
 20
1048.1976136748
 30
0.0
  0
SPLINE
  5
3A9
100
AcDbEntity
  8
02___PRT_ALL_AXES
100
AcDbSpline
 62
3
  6
CONTINUOUS
 70
0
 71
3
 72
10
 73
6
 74
0
 42
0.0000001
 43
0.0000001
 44
0.0000000001
 40
0.0
 40
0.0
 40
0.0
 40
0.0
 40
0.3839855297
 40
0.6890457685
 40
1.0
 40
1.0
 40
1.0
 40
1.0
 10
448.6657244219
 20
1048.1976136748
 30
0.0
 10
447.9917472619
 20
1048.0709451043
 30
0.0
 10
446.8155412645
 20
1047.5146439745
 30
0.0
 10
445.7090992374
 20
1046.0525673834
 30
0.0
 10
445.4562939188
 20
1044.9399155741
 30
0.0
 10
445.4515247179
 20
1044.384588901
 30
0.0
  0
SPLINE
  5
3AA
100
AcDbEntity
  8
02___PRT_ALL_AXES
100
AcDbSpline
 62
3
  6
CONTINUOUS
 70
0
 71
3
 72
10
 73
6
 74
0
 42
0.0000001
 43
0.0000001
 44
0.0000000001
 40
0.0
 40
0.0
 40
0.0
 40
0.0
 40
0.3757326946
 40
0.7323465671
 40
1.0
 40
1.0
 40
1.0
 40
1.0
 10
739.4512282907
 20
1044.3861340533
 30
0.0
 10
739.4448337302
 20
1045.0967578852
 30
0.0
 10
739.0349699073
 20
1046.5087999575
 30
0.0
 10
737.5760390821
 20
1047.8463936475
 30
0.0
 10
736.4143142601
 20
1048.1887966429
 30
0.0
 10
735.9113941391
 20
1048.2466245153
 30
0.0
  0
LINE
  5
3AB
100
AcDbEntity
  8
02___PRT_ALL_AXES
100
AcDbLine
 62
3
  6
CONTINUOUS
 10
735.7923470512
 20
1048.2592212218
 11
735.7912514535
 21
1048.2593267043
  0
LINE
  5
3AC
100
AcDbEntity
  8
02___PRT_ALL_AXES
100
AcDbLine
 62
3
  6
CONTINUOUS
 10
465.1799641831
 20
1049.714722033
 11
465.0284999909
 21
1049.7018164167
  0
LINE
  5
3AD
100
AcDbEntity
  8
02___PRT_ALL_AXES
100
AcDbLine
 62
3
  6
CONTINUOUS
 10
719.874266621
 20
1049.7018164259
 11
719.7228025369
 21
1049.7147220329
  0
SPLINE
  5
3AE
100
AcDbEntity
  8
02___PRT_ALL_AXES
100
AcDbSpline
 62
3
  6
CONTINUOUS
 70
0
 71
3
 72
9
 73
5
 74
0
 42
0.0000001
 43
0.0000001
 44
0.0000000001
 40
0.0
 40
0.0
 40
0.0
 40
0.0
 40
0.1143526461
 40
1.0
 40
1.0
 40
1.0
 40
1.0
 10
465.1454459886
 20
1049.7117015088
 30
0.0
 10
465.1488127485
 20
1049.7122377833
 30
0.0
 10
465.1781933959
 20
1049.7172995203
 30
0.0
 10
465.2072614086
 20
1049.7242484846
 30
0.0
 10
465.2326434562
 20
1049.7315227876
 30
0.0
  0
SPLINE
  5
3AF
100
AcDbEntity
  8
02___PRT_ALL_AXES
100
AcDbSpline
 62
3
  6
CONTINUOUS
 70
0
 71
3
 72
9
 73
5
 74
0
 42
0.0000001
 43
0.0000001
 44
0.0000000001
 40
0.0
 40
0.0
 40
0.0
 40
0.0
 40
0.0992804895
 40
1.0
 40
1.0
 40
1.0
 40
1.0
 10
465.2326434562
 20
1049.7315227876
 30
0.0
 10
465.2562249668
 20
1049.7382810703
 30
0.0
 10
465.4910001556
 20
1049.8143310103
 30
0.0
 10
465.700060353
 20
1049.9940437916
 30
0.0
 10
465.8113389829
 20
1050.1867818338
 30
0.0
  0
SPLINE
  5
3B0
100
AcDbEntity
  8
02___PRT_ALL_AXES
100
AcDbSpline
 62
3
  6
CONTINUOUS
 70
0
 71
3
 72
9
 73
5
 74
0
 42
0.0000001
 43
0.0000001
 44
0.0000000001
 40
0.0
 40
0.0
 40
0.0
 40
0.0
 40
0.6137843526
 40
1.0
 40
1.0
 40
1.0
 40
1.0
 10
719.0914277371
 20
1050.1867818338
 30
0.0
 10
719.1770033338
 20
1050.0385622432
 30
0.0
 10
719.3847058645
 20
1049.8306162284
 30
0.0
 10
719.6508747842
 20
1049.728667031
 30
0.0
 10
719.7572262173
 20
1049.711716983
 30
0.0
  0
SPLINE
  5
3B1
100
AcDbEntity
  8
02___PRT_ALL_AXES
100
AcDbSpline
 62
3
  6
CONTINUOUS
 70
0
 71
3
 72
9
 73
5
 74
0
 42
0.0000001
 43
0.0000001
 44
0.0000000001
 40
0.0
 40
0.0
 40
0.0
 40
0.0
 40
0.1492475793
 40
1.0
 40
1.0
 40
1.0
 40
1.0
 10
468.1272553295
 20
1053.0958382181
 30
0.0
 10
468.1005632648
 20
1053.0936226469
 30
0.0
 10
467.9221275477
 20
1053.0779275244
 30
0.0
 10
467.741403577
 20
1053.0374546819
 30
0.0
 10
467.6051980538
 20
1052.968477654
 30
0.0
  0
SPLINE
  5
3B2
100
AcDbEntity
  8
02___PRT_ALL_AXES
100
AcDbSpline
 62
3
  6
CONTINUOUS
 70
0
 71
3
 72
9
 73
5
 74
0
 42
0.0000001
 43
0.0000001
 44
0.0000000001
 40
0.0
 40
0.0
 40
0.0
 40
0.0
 40
0.1789845162
 40
1.0
 40
1.0
 40
1.0
 40
1.0
 10
467.6051980538
 20
1052.968477654
 30
0.0
 10
467.5767005475
 20
1052.9540459831
 30
0.0
 10
467.4209054919
 20
1052.8669529834
 30
0.0
 10
467.2902888648
 20
1052.7335173282
 30
0.0
 10
467.2114623785
 20
1052.6100001706
 30
0.0
  0
SPLINE
  5
3B3
100
AcDbEntity
  8
02___PRT_ALL_AXES
100
AcDbSpline
 62
3
  6
CONTINUOUS
 70
0
 71
3
 72
8
 73
4
 74
0
 42
0.0000001
 43
0.0000001
 44
0.0000000001
 40
0.0
 40
0.0
 40
0.0
 40
0.0
 40
1.0
 40
1.0
 40
1.0
 40
1.0
 10
717.7126384735
 20
1052.5748876505
 30
0.0
 10
717.6795293486
 20
1052.6322336829
 30
0.0
 10
717.6399962285
 20
1052.6861756514
 30
0.0
 10
717.5961814748
 20
1052.7358249105
 30
0.0
  0
SPLINE
  5
3B4
100
AcDbEntity
  8
02___PRT_ALL_AXES
100
AcDbSpline
 62
3
  6
CONTINUOUS
 70
0
 71
3
 72
9
 73
5
 74
0
 42
0.0000001
 43
0.0000001
 44
0.0000000001
 40
0.0
 40
0.0
 40
0.0
 40
0.0
 40
0.6126086723
 40
1.0
 40
1.0
 40
1.0
 40
1.0
 10
717.5961814748
 20
1052.7358249105
 30
0.0
 10
717.4841952922
 20
1052.8627235125
 30
0.0
 10
717.2429006892
 20
1053.0274143135
 30
0.0
 10
716.9684466437
 20
1053.07624861
 30
0.0
 10
716.8620353365
 20
1053.0876924455
 30
0.0
  0
LINE
  5
3B5
100
AcDbEntity
  8
02___PRT_ALL_AXES
100
AcDbLine
 62
3
  6
CONTINUOUS
 10
716.7759042401
 20
1053.0958055795
 11
716.775483445
 21
1053.09584052
  0
SPLINE
  5
3B6
100
AcDbEntity
  8
0
100
AcDbSpline
 62
3
  6
CONTINUOUS
 70
0
 71
3
 72
8
 73
4
 74
0
 42
0.0000001
 43
0.0000001
 44
0.0000000001
 40
0.0
 40
0.0
 40
0.0
 40
0.0
 40
1.0
 40
1.0
 40
1.0
 40
1.0
 10
739.45138336
 20
1016.6340404399
 30
0.0
 10
739.45138336
 20
1016.5255297765
 30
0.0
 10
739.4382248398
 20
1016.4163326851
 30
0.0
 10
739.4131286913
 20
1016.3107639994
 30
0.0
  0
SPLINE
  5
3B7
100
AcDbEntity
  8
0
100
AcDbSpline
 62
3
  6
CONTINUOUS
 70
0
 71
3
 72
13
 73
9
 74
0
 42
0.0000001
 43
0.0000001
 44
0.0000000001
 40
0.0
 40
0.0
 40
0.0
 40
0.0
 40
0.0173414523
 40
0.0647565858
 40
0.1430934588
 40
0.2524522216
 40
0.564245128
 40
1.0
 40
1.0
 40
1.0
 40
1.0
 10
739.45138336
 20
1016.6340404399
 30
0.0
 10
739.45138336
 20
1016.6419833348
 30
0.0
 10
739.4088022259
 20
1016.646400916
 30
0.0
 10
739.3564451551
 20
1016.6581963022
 30
0.0
 10
739.2421631904
 20
1016.6663036757
 30
0.0
 10
739.0181247492
 20
1016.6824181726
 30
0.0
 10
738.6227626775
 20
1016.6991397027
 30
0.0
 10
738.2817156071
 20
1016.710831958
 30
0.0
 10
738.0822174273
 20
1016.7168370508
 30
0.0
  0
SPLINE
  5
3B8
100
AcDbEntity
  8
0
100
AcDbSpline
 62
3
  6
CONTINUOUS
 70
0
 71
3
 72
19
 73
15
 74
0
 42
0.0000001
 43
0.0000001
 44
0.0000000001
 40
0.0
 40
0.0
 40
0.0
 40
0.0
 40
0.0231268393
 40
0.0606746605
 40
0.1115092014
 40
0.1740932664
 40
0.3266396633
 40
0.5
 40
0.6733603367
 40
0.8259067336
 40
0.8884907986
 40
0.9393253395
 40
0.9768731607
 40
1.0
 40
1.0
 40
1.0
 40
1.0
 10
737.1347597774
 20
1016.7415657034
 30
0.0
 10
734.9046109619
 20
1016.792907617
 30
0.0
 10
729.0523735882
 20
1016.8633871385
 30
0.0
 10
718.2970305192
 20
1016.9547855731
 30
0.0
 10
703.7354671892
 20
1017.0354434007
 30
0.0
 10
678.0815709642
 20
1017.1386003533
 30
0.0
 10
640.6090593094
 20
1017.2201345641
 30
0.0
 10
592.45138336
 20
1017.2537740311
 30
0.0
 10
544.2937074106
 20
1017.2201345641
 30
0.0
 10
506.8211957558
 20
1017.1386003533
 30
0.0
 10
481.1672995307
 20
1017.0354434007
 30
0.0
 10
466.6057362007
 20
1016.9547855731
 30
0.0
 10
455.8503931318
 20
1016.8633871385
 30
0.0
 10
449.998155758
 20
1016.792907617
 30
0.0
 10
447.7680069426
 20
1016.7415657034
 30
0.0
  0
SPLINE
  5
3B9
100
AcDbEntity
  8
0
100
AcDbSpline
 62
3
  6
CONTINUOUS
 70
0
 71
3
 72
13
 73
9
 74
0
 42
0.0000001
 43
0.0000001
 44
0.0000000001
 40
0.0
 40
0.0
 40
0.0
 40
0.0
 40
0.435754872
 40
0.7475477784
 40
0.8569065412
 40
0.9352434142
 40
0.9826585477
 40
1.0
 40
1.0
 40
1.0
 40
1.0
 10
446.8205492926
 20
1016.7168370508
 30
0.0
 10
446.6210511129
 20
1016.710831958
 30
0.0
 10
446.2800040425
 20
1016.6991397027
 30
0.0
 10
445.8846419707
 20
1016.6824181726
 30
0.0
 10
445.6606035296
 20
1016.6663036757
 30
0.0
 10
445.5463215648
 20
1016.6581963022
 30
0.0
 10
445.4939644941
 20
1016.646400916
 30
0.0
 10
445.45138336
 20
1016.6419833348
 30
0.0
 10
445.45138336
 20
1016.6340404399
 30
0.0
  0
SPLINE
  5
3BA
100
AcDbEntity
  8
02___PRT_ALL_AXES
100
AcDbSpline
 62
3
  6
CONTINUOUS
 70
0
 71
3
 72
29
 73
25
 74
0
 42
0.0000001
 43
0.0000001
 44
0.0000000001
 40
0.0
 40
0.0
 40
0.0
 40
0.0
 40
0.0043362614
 40
0.0131856544
 40
0.0264691427
 40
0.0440661023
 40
0.0658163821
 40
0.0915219173
 40
0.1538283095
 40
0.2287202282
 40
0.313474932
 40
0.4050110546
 40
0.5000006575
 40
0.5949902354
 40
0.686526284
 40
0.7712808674
 40
0.8461726237
 40
0.9084788174
 40
0.934184242
 40
0.955934405
 40
0.9735312426
 40
0.986814605
 40
0.9956638692
 40
1.0
 40
1.0
 40
1.0
 40
1.0
 10
735.7913303589
 20
1048.2593192041
 30
0.0
 10
735.3788433902
 20
1048.2989098789
 30
0.0
 10
734.1174874558
 20
1048.3233446696
 30
0.0
 10
731.5899491225
 20
1048.3863772355
 30
0.0
 10
727.7929062858
 20
1048.4313505473
 30
0.0
 10
722.7639401429
 20
1048.4848508195
 30
0.0
 10
716.5474410944
 20
1048.5331230547
 30
0.0
 10
706.0585828986
 20
1048.6003946546
 30
0.0
 10
690.4912611485
 20
1048.6716140988
 30
0.0
 10
669.2810627691
 20
1048.7391567896
 30
0.0
 10
645.2775370508
 20
1048.7893068249
 30
0.0
 10
619.3534051903
 20
1048.8203049129
 30
0.0
 10
592.4511887354
 20
1048.8307634806
 30
0.0
 10
565.5489793565
 20
1048.8203046132
 30
0.0
 10
539.6248684669
 20
1048.7893062356
 30
0.0
 10
515.6213768509
 20
1048.7391559426
 30
0.0
 10
494.411224469
 20
1048.6716130078
 30
0.0
 10
478.8439477679
 20
1048.6003934331
 30
0.0
 10
468.3551302765
 20
1048.5331216341
 30
0.0
 10
462.1386645904
 20
1048.4848494796
 30
0.0
 10
457.1097333558
 20
1048.4313487985
 30
0.0
 10
453.3127264079
 20
1048.3863763862
 30
0.0
 10
450.7852251489
 20
1048.3233421982
 30
0.0
 10
449.5238937097
 20
1048.2989095619
 30
0.0
 10
449.1114193956
 20
1048.2593175757
 30
0.0
  0
SPLINE
  5
3BB
100
AcDbEntity
  8
02___PRT_ALL_AXES
100
AcDbSpline
 62
3
  6
CONTINUOUS
 70
0
 71
3
 72
51
 73
47
 74
0
 42
0.0000001
 43
0.0000001
 44
0.0000000001
 40
0.0
 40
0.0
 40
0.0
 40
0.0
 40
0.0001589628
 40
0.0006135068
 40
0.0013676224
 40
0.0024216027
 40
0.003775148
 40
0.0054273839
 40
0.0096239016
 40
0.0150016773
 40
0.0215474824
 40
0.029245953
 40
0.0380782525
 40
0.0480234195
 40
0.059057248
 40
0.0842825375
 40
0.1135112518
 40
0.1464619408
 40
0.1828172983
 40
0.2222272221
 40
0.2643121889
 40
0.3086669103
 40
0.4024592722
 40
0.5
 40
0.5975407278
 40
0.6913330897
 40
0.7356878111
 40
0.7777727779
 40
0.8171827017
 40
0.8535380592
 40
0.8864887482
 40
0.9157174625
 40
0.940942752
 40
0.9519765805
 40
0.9619217475
 40
0.970754047
 40
0.9784525176
 40
0.9849983227
 40
0.9903760984
 40
0.9945726161
 40
0.996224852
 40
0.9975783973
 40
0.9986323776
 40
0.9993864932
 40
0.9998410372
 40
1.0
 40
1.0
 40
1.0
 40
1.0
 10
739.45138336
 20
1044.3516842125
 30
0.0
 10
739.45138336
 20
1044.3672632748
 30
0.0
 10
739.3600922143
 20
1044.3640748167
 30
0.0
 10
739.2567293604
 20
1044.3899129921
 30
0.0
 10
739.0183953888
 20
1044.3964370621
 30
0.0
 10
738.7163615028
 20
1044.4140102453
 30
0.0
 10
738.3158471645
 20
1044.4272390404
 30
0.0
 10
737.6116822579
 20
1044.4489547221
 30
0.0
 10
736.5108075153
 20
1044.4737022822
 30
0.0
 10
734.9316125324
 20
1044.5023236802
 30
0.0
 10
733.0086278386
 20
1044.53052168
 30
0.0
 10
730.7472410373
 20
1044.5585258442
 30
0.0
 10
728.1526110712
 20
1044.5860869409
 30
0.0
 10
725.2311014533
 20
1044.6131571797
 30
0.0
 10
720.7030244863
 20
1044.6501337314
 30
0.0
 10
714.2850714933
 20
1044.6936119045
 30
0.0
 10
705.7191511273
 20
1044.7407700342
 30
0.0
 10
696.0624040501
 20
1044.7843760469
 30
0.0
 10
685.4078285691
 20
1044.8239769406
 30
0.0
 10
673.8580334655
 20
1044.8591468947
 30
0.0
 10
661.5242491359
 20
1044.8895299345
 30
0.0
 10
643.8607402103
 20
1044.9238721007
 30
0.0
 10
620.7623016367
 20
1044.9522353766
 30
0.0
 10
592.45138336
 20
1044.9635622085
 30
0.0
 10
564.1404650833
 20
1044.9522353766
 30
0.0
 10
541.0420265097
 20
1044.9238721007
 30
0.0
 10
523.3785175841
 20
1044.8895299345
 30
0.0
 10
511.0447332545
 20
1044.8591468947
 30
0.0
 10
499.4949381509
 20
1044.8239769406
 30
0.0
 10
488.8403626699
 20
1044.7843760469
 30
0.0
 10
479.1836155926
 20
1044.7407700342
 30
0.0
 10
470.6176952266
 20
1044.6936119045
 30
0.0
 10
464.1997422336
 20
1044.6501337314
 30
0.0
 10
459.6716652667
 20
1044.6131571797
 30
0.0
 10
456.7501556488
 20
1044.5860869409
 30
0.0
 10
454.1555256827
 20
1044.5585258442
 30
0.0
 10
451.8941388814
 20
1044.53052168
 30
0.0
 10
449.9711541876
 20
1044.5023236802
 30
0.0
 10
448.3919592047
 20
1044.4737022822
 30
0.0
 10
447.2910844621
 20
1044.4489547221
 30
0.0
 10
446.5869195555
 20
1044.4272390404
 30
0.0
 10
446.1864052172
 20
1044.4140102453
 30
0.0
 10
445.8843713312
 20
1044.3964370621
 30
0.0
 10
445.6460373596
 20
1044.3899129921
 30
0.0
 10
445.5426745056
 20
1044.3640748167
 30
0.0
 10
445.45138336
 20
1044.3672632748
 30
0.0
 10
445.45138336
 20
1044.3516842125
 30
0.0
  0
SPLINE
  5
3BC
100
AcDbEntity
  8
0
100
AcDbSpline
 62
3
  6
CONTINUOUS
 70
0
 71
3
 72
11
 73
7
 74
0
 42
0.0000001
 43
0.0000001
 44
0.0000000001
 40
0.0
 40
0.0
 40
0.0
 40
0.0
 40
0.2500669782
 40
0.5000024883
 40
0.7500013586
 40
1.0
 40
1.0
 40
1.0
 40
1.0
 10
445.45138336
 20
1016.6340404399
 30
0.0
 10
445.45138336
 20
1016.3630519061
 30
0.0
 10
445.6178698501
 20
1015.8079644435
 30
0.0
 10
446.2842917896
 20
1015.2648013508
 30
0.0
 10
447.1394918864
 20
1015.1779159609
 30
0.0
 10
447.6497665685
 20
1015.4525347691
 30
0.0
 10
447.8413328536
 20
1015.6440994153
 30
0.0
  0
LINE
  5
3BD
100
AcDbEntity
  8
02___PRT_ALL_AXES
100
AcDbLine
 62
3
  6
CONTINUOUS
 10
719.7227242797
 20
1049.7147220172
 11
719.7148764174
 21
1049.715381713
  0
SPLINE
  5
3BE
100
AcDbEntity
  8
02___PRT_ALL_AXES
100
AcDbSpline
 62
3
  6
CONTINUOUS
 70
0
 71
3
 72
29
 73
25
 74
0
 42
0.0000001
 43
0.0000001
 44
0.0000000001
 40
0.0
 40
0.0
 40
0.0
 40
0.0
 40
0.0046268672
 40
0.0137248111
 40
0.0272130643
 40
0.0449701906
 40
0.066835996
 40
0.0926131134
 40
0.1549371718
 40
0.2296965305
 40
0.3141970503
 40
0.4053935107
 40
0.4999993854
 40
0.5946052834
 40
0.685801813
 40
0.7703024451
 40
0.8450619554
 40
0.9073861993
 40
0.93316342
 40
0.9550293345
 40
0.9727865749
 40
0.986274946
 40
0.9953730106
 40
1.0
 40
1.0
 40
1.0
 40
1.0
 10
719.7148764174
 20
1049.715381713
 30
0.0
 10
719.3236588808
 20
1049.747853544
 30
0.0
 10
718.1585424606
 20
1049.773460394
 30
0.0
 10
715.8509347428
 20
1049.8262618855
 30
0.0
 10
712.42791609
 20
1049.8676792338
 30
0.0
 10
707.9221267353
 20
1049.9142603066
 30
0.0
 10
702.3734183236
 20
1049.9571114153
 30
0.0
 10
693.0435684507
 20
1050.0162804802
 30
0.0
 10
679.2259149577
 20
1050.0791324804
 30
0.0
 10
660.4259006341
 20
1050.1386289916
 30
0.0
 10
639.1761734112
 20
1050.1828181467
 30
0.0
 10
616.242558647
 20
1050.2101147819
 30
0.0
 10
592.4515460376
 20
1050.2193256686
 30
0.0
 10
568.6605275654
 20
1050.2101150314
 30
0.0
 10
545.7268954239
 20
1050.182818637
 30
0.0
 10
524.4771399368
 20
1050.1386296982
 30
0.0
 10
505.6770874793
 20
1050.0791333859
 30
0.0
 10
491.8593966255
 20
1050.0162815068
 30
0.0
 10
482.5295129861
 20
1049.9571125894
 30
0.0
 10
476.980776876
 20
1049.9142614552
 30
0.0
 10
472.474958552
 20
1049.8676806154
 30
0.0
 10
469.0519100431
 20
1049.8262627772
 30
0.0
 10
466.7442715886
 20
1049.7734621663
 30
0.0
 10
465.5791347078
 20
1049.7478540873
 30
0.0
 10
465.1879066951
 20
1049.7153830735
 30
0.0
  0
LINE
  5
3BF
100
AcDbEntity
  8
02___PRT_ALL_AXES
100
AcDbLine
 62
3
  6
CONTINUOUS
 10
465.1879066951
 20
1049.7153830735
 11
465.1800424403
 21
1049.7147220172
  0
SPLINE
  5
3C0
100
AcDbEntity
  8
02___PRT_ALL_AXES
100
AcDbSpline
 62
3
  6
CONTINUOUS
 70
0
 71
3
 72
51
 73
47
 74
0
 42
0.0000001
 43
0.0000001
 44
0.0000000001
 40
0.0
 40
0.0
 40
0.0
 40
0.0
 40
0.0001864934
 40
0.0006687565
 40
0.0014497374
 40
0.0025296307
 40
0.0039081514
 40
0.0055844156
 40
0.0098258909
 40
0.0152446204
 40
0.0218271858
 40
0.0295583035
 40
0.0384189997
 40
0.0483884138
 40
0.0594422606
 40
0.0846952236
 40
0.1139354903
 40
0.146882354
 40
0.1832195085
 40
0.2225980894
 40
0.2646400268
 40
0.3089416766
 40
0.402605129
 40
0.5
 40
0.597394871
 40
0.6910583234
 40
0.7353599732
 40
0.7774019106
 40
0.8167804915
 40
0.853117646
 40
0.8860645097
 40
0.9153047764
 40
0.9405577394
 40
0.9516115862
 40
0.9615810003
 40
0.9704416965
 40
0.9781728142
 40
0.9847553796
 40
0.9901741091
 40
0.9944155844
 40
0.9960918486
 40
0.9974703693
 40
0.9985502626
 40
0.9993312435
 40
0.9998135066
 40
1.0
 40
1.0
 40
1.0
 40
1.0
 10
719.0914271453
 20
1050.1867818338
 30
0.0
 10
719.0835447834
 20
1050.2004124962
 30
0.0
 10
719.0134169911
 20
1050.1970802265
 30
0.0
 10
718.9041632371
 20
1050.2194177058
 30
0.0
 10
718.6997641862
 20
1050.2253144717
 30
0.0
 10
718.4295368066
 20
1050.240306877
 30
0.0
 10
718.079513393
 20
1050.2517600449
 30
0.0
 10
717.4642968153
 20
1050.2703835849
 30
0.0
 10
716.5070376105
 20
1050.2916925431
 30
0.0
 10
715.1360264935
 20
1050.3162990213
 30
0.0
 10
713.4701338339
 20
1050.3405533598
 30
0.0
 10
711.5136810204
 20
1050.3646291903
 30
0.0
 10
709.2712282694
 20
1050.3883237489
 30
0.0
 10
706.7482271983
 20
1050.4115924857
 30
0.0
 10
702.8412422313
 20
1050.4433664212
 30
0.0
 10
697.3072108102
 20
1050.4807291099
 30
0.0
 10
689.924732352
 20
1050.5212552005
 30
0.0
 10
681.6063864529
 20
1050.5587241444
 30
0.0
 10
672.4320392178
 20
1050.5927481115
 30
0.0
 10
662.4897756926
 20
1050.6229626374
 30
0.0
 10
651.8750541763
 20
1050.6490629241
 30
0.0
 10
636.6770443488
 20
1050.6785608751
 30
0.0
 10
616.8055569447
 20
1050.7029240901
 30
0.0
 10
592.45138336
 20
1050.7126534687
 30
0.0
 10
568.0972097753
 20
1050.7029240901
 30
0.0
 10
548.2257223712
 20
1050.6785608751
 30
0.0
 10
533.0277125437
 20
1050.6490629241
 30
0.0
 10
522.4129910274
 20
1050.6229626374
 30
0.0
 10
512.4707275022
 20
1050.5927481115
 30
0.0
 10
503.2963802671
 20
1050.5587241444
 30
0.0
 10
494.9780343679
 20
1050.5212552005
 30
0.0
 10
487.5955559098
 20
1050.4807291099
 30
0.0
 10
482.0615244887
 20
1050.4433664212
 30
0.0
 10
478.1545395217
 20
1050.4115924857
 30
0.0
 10
475.6315384505
 20
1050.3883237489
 30
0.0
 10
473.3890856996
 20
1050.3646291903
 30
0.0
 10
471.4326328861
 20
1050.3405533598
 30
0.0
 10
469.7667402264
 20
1050.3162990213
 30
0.0
 10
468.3957291095
 20
1050.2916925431
 30
0.0
 10
467.4384699047
 20
1050.2703835849
 30
0.0
 10
466.823253327
 20
1050.2517600449
 30
0.0
 10
466.4732299134
 20
1050.240306877
 30
0.0
 10
466.2030025337
 20
1050.2253144717
 30
0.0
 10
465.9986034829
 20
1050.2194177058
 30
0.0
 10
465.8893497289
 20
1050.1970802265
 30
0.0
 10
465.8192219366
 20
1050.2004124962
 30
0.0
 10
465.8113395747
 20
1050.1867818338
 30
0.0
  0
SPLINE
  5
3C1
100
AcDbEntity
  8
02___PRT_ALL_AXES
100
AcDbSpline
 62
3
  6
CONTINUOUS
 70
0
 71
3
 72
29
 73
25
 74
0
 42
0.0000001
 43
0.0000001
 44
0.0000000001
 40
0.0
 40
0.0
 40
0.0
 40
0.0
 40
0.0046271356
 40
0.013725324
 40
0.0272137958
 40
0.0449711134
 40
0.0668370818
 40
0.0926143334
 40
0.1549385737
 40
0.229698003
 40
0.3141984922
 40
0.4053948365
 40
0.5000005289
 40
0.5946062013
 40
0.6858024861
 40
0.7703028786
 40
0.8450621774
 40
0.9073862581
 40
0.9331634208
 40
0.9550292952
 40
0.9727865147
 40
0.9862748851
 40
0.9953729697
 40
1.0
 40
1.0
 40
1.0
 40
1.0
 10
716.775411986
 20
1053.095839795
 30
0.0
 10
716.3932080538
 20
1053.1275596538
 30
0.0
 10
715.2549605704
 20
1053.1525778425
 30
0.0
 10
713.0005915598
 20
1053.2041576156
 30
0.0
 10
709.6565814685
 20
1053.2446193869
 30
0.0
 10
705.2548163637
 20
1053.2901239394
 30
0.0
 10
699.8342279474
 20
1053.3319852941
 30
0.0
 10
690.7198331704
 20
1053.3897872982
 30
0.0
 10
677.2212988265
 20
1053.4511872685
 30
0.0
 10
658.855496635
 20
1053.5093091454
 30
0.0
 10
638.096588136
 20
1053.5524772756
 30
0.0
 10
615.6927063932
 20
1053.5791430954
 30
0.0
 10
592.4512465942
 20
1053.5881409692
 30
0.0
 10
569.2097917242
 20
1053.5791428856
 30
0.0
 10
546.8059245907
 20
1053.5524768634
 30
0.0
 10
526.0470398537
 20
1053.5093085513
 30
0.0
 10
507.6812697219
 20
1053.4511865073
 30
0.0
 10
494.1827667877
 20
1053.3897864351
 30
0.0
 10
485.0684003986
 20
1053.331984307
 30
0.0
 10
479.6478352688
 20
1053.2901229737
 30
0.0
 10
475.2460945189
 20
1053.2446182254
 30
0.0
 10
471.9021095281
 20
1053.2041568658
 30
0.0
 10
469.6477663582
 20
1053.1525763526
 30
0.0
 10
468.5095360763
 20
1053.127559197
 30
0.0
 10
468.1273409515
 20
1053.0958386511
 30
0.0
  0
SPLINE
  5
3C2
100
AcDbEntity
  8
02___PRT_ALL_AXES
100
AcDbSpline
 62
3
  6
CONTINUOUS
 70
0
 71
3
 72
13
 73
9
 74
0
 42
0.0000001
 43
0.0000001
 44
0.0000000001
 40
0.0
 40
0.0
 40
0.0
 40
0.0
 40
0.0201498415
 40
0.0698646938
 40
0.1496355505
 40
0.259527697
 40
0.5696704216
 40
1.0
 40
1.0
 40
1.0
 40
1.0
 10
717.7126378882
 20
1052.5748876505
 30
0.0
 10
717.7077697206
 20
1052.5833059837
 30
0.0
 10
717.667011059
 20
1052.5848327808
 30
0.0
 10
717.6018654143
 20
1052.5980943139
 30
0.0
 10
717.4831545278
 20
1052.6046279644
 30
0.0
 10
717.2444360202
 20
1052.6202573095
 30
0.0
 10
716.8327674441
 20
1052.6354136462
 30
0.0
 10
716.4761267867
 20
1052.6465046301
 30
0.0
 10
716.2685197784
 20
1052.6521101999
 30
0.0
  0
SPLINE
  5
3C3
100
AcDbEntity
  8
02___PRT_ALL_AXES
100
AcDbSpline
 62
3
  6
CONTINUOUS
 70
0
 71
3
 72
19
 73
15
 74
0
 42
0.0000001
 43
0.0000001
 44
0.0000000001
 40
0.0
 40
0.0
 40
0.0
 40
0.0
 40
0.0213583091
 40
0.0577300502
 40
0.1079752474
 40
0.1705178322
 40
0.3243235664
 40
0.5
 40
0.6756764336
 40
0.8294821678
 40
0.8920247526
 40
0.9422699498
 40
0.9786416909
 40
1.0
 40
1.0
 40
1.0
 40
1.0
 10
716.2685197784
 20
1052.6521101999
 30
0.0
 10
714.506122334
 20
1052.6996964634
 30
0.0
 10
709.740865206
 20
1052.7587295337
 30
0.0
 10
700.8284611363
 20
1052.8398539892
 30
0.0
 10
688.516078003
 20
1052.9096411706
 30
0.0
 10
666.5101089581
 20
1053.0009410136
 30
0.0
 10
634.1501239203
 20
1053.0723665913
 30
0.0
 10
592.45138336
 20
1053.102138021
 30
0.0
 10
550.7526427996
 20
1053.0723665913
 30
0.0
 10
518.3926577619
 20
1053.0009410136
 30
0.0
 10
496.3866887169
 20
1052.9096411706
 30
0.0
 10
484.0743055837
 20
1052.8398539892
 30
0.0
 10
475.161901514
 20
1052.7587295337
 30
0.0
 10
470.396644386
 20
1052.6996964634
 30
0.0
 10
468.6342469415
 20
1052.6521101999
 30
0.0
  0
SPLINE
  5
3C4
100
AcDbEntity
  8
02___PRT_ALL_AXES
100
AcDbSpline
 62
3
  6
CONTINUOUS
 70
0
 71
3
 72
9
 73
5
 74
0
 42
0.0000001
 43
0.0000001
 44
0.0000000001
 40
0.0
 40
0.0
 40
0.0
 40
0.0
 40
0.3432192495
 40
1.0
 40
1.0
 40
1.0
 40
1.0
 10
468.6342469415
 20
1052.6521101999
 30
0.0
 10
468.4873192343
 20
1052.648143024
 30
0.0
 10
468.0593513273
 20
1052.6347439927
 30
0.0
 10
467.6309523334
 20
1052.6227567069
 30
0.0
 10
467.3506213533
 20
1052.5998933138
 30
0.0
  0
SPLINE
  5
3C5
100
AcDbEntity
  8
02___PRT_ALL_AXES
100
AcDbSpline
 62
3
  6
CONTINUOUS
 70
0
 71
3
 72
9
 73
5
 74
0
 42
0.0000001
 43
0.0000001
 44
0.0000000001
 40
0.0
 40
0.0
 40
0.0
 40
0.0
 40
0.7206726477
 40
1.0
 40
1.0
 40
1.0
 40
1.0
 10
467.3506213533
 20
1052.5998933138
 30
0.0
 10
467.3116154864
 20
1052.5967120512
 30
0.0
 10
467.2654654815
 20
1052.5847798335
 30
0.0
 10
467.1977222937
 20
1052.5880187293
 30
0.0
 10
467.1901288318
 20
1052.5748876505
 30
0.0
  0
ELLIPSE
  5
3C6
100
AcDbEntity
  8
0
100
AcDbEllipse
 62
7
  6
CONTINUOUS
 10
628.45138336
 20
136.1398024678
 30
0.0
 11
6.0
 21
0.0
 31
0.0
 40
0.9913288298
 41
-1.5707963268
 42
-0.0
  0
ELLIPSE
  5
3C7
100
AcDbEntity
  8
0
100
AcDbEllipse
 62
7
  6
CONTINUOUS
 10
556.45138336
 20
136.1398024678
 30
0.0
 11
6.0
 21
0.0
 31
0.0
 40
0.9913288298
 41
-3.1415926536
 42
-1.5707963268
  0
ELLIPSE
  5
3C8
100
AcDbEntity
  8
0
100
AcDbEllipse
 62
7
  6
CONTINUOUS
 10
556.45138336
 20
634.0315330974
 30
0.0
 11
5.4
 21
0.0
 31
0.0
 40
0.1924029038
 41
1.5707963268
 42
3.1415926536
  0
ELLIPSE
  5
3C9
100
AcDbEntity
  8
0
100
AcDbEllipse
 62
7
  6
CONTINUOUS
 10
628.45138336
 20
634.0315330974
 30
0.0
 11
5.4
 21
0.0
 31
0.0
 40
0.1924029038
 41
-0.0
 42
1.5707963268
  0
ELLIPSE
  5
3CA
100
AcDbEntity
  8
0
100
AcDbEllipse
 62
7
  6
CONTINUOUS
 10
556.45138336
 20
634.0315330974
 30
0.0
 11
6.0
 21
0.0
 31
0.0
 40
0.1924029038
 41
1.5707963268
 42
3.1415926536
  0
ELLIPSE
  5
3CB
100
AcDbEntity
  8
0
100
AcDbEllipse
 62
7
  6
CONTINUOUS
 10
628.45138336
 20
634.0315330974
 30
0.0
 11
6.0
 21
0.0
 31
0.0
 40
0.1924029038
 41
-0.0
 42
1.5707963268
  0
ELLIPSE
  5
3CC
100
AcDbEntity
  8
0
100
AcDbEllipse
 62
7
  6
CONTINUOUS
 10
592.45138336
 20
584.5878678122
 30
0.0
 11
-141.3535684742
 21
141.3535684742
 31
0.0
 40
0.4142135624
 41
1.1454116869
 42
1.1552194325
  0
ELLIPSE
  5
3CD
100
AcDbEntity
  8
0
100
AcDbEllipse
 62
7
  6
CONTINUOUS
 10
592.45138336
 20
584.5878678122
 30
0.0
 11
141.3535684742
 21
141.3535684742
 31
0.0
 40
0.4142135624
 41
-1.1552194325
 42
-1.1454116869
  0
ELLIPSE
  5
3CE
100
AcDbEntity
  8
0
100
AcDbEllipse
 62
7
  6
CONTINUOUS
 10
542.4294855378
 20
513.8462214964
 30
0.0
 11
159.9788515104
 21
168.9462914226
 31
0.0
 40
0.3894735138
 41
1.4899878161
 42
1.4991503493
  0
ELLIPSE
  5
3CF
100
AcDbEntity
  8
0
100
AcDbEllipse
 62
7
  6
CONTINUOUS
 10
642.4732811822
 20
513.8462214964
 30
0.0
 11
-159.9788515104
 21
168.9462914226
 31
0.0
 40
0.3894735138
 41
-1.4991503493
 42
-1.4899878161
  0
ELLIPSE
  5
3D0
100
AcDbEntity
  8
0
100
AcDbEllipse
 62
7
  6
CONTINUOUS
 10
592.45138336
 20
672.8084881277
 30
0.0
 11
147.5
 21
0.0
 31
0.0
 40
0.4431763191
 41
-1.8278553236
 42
-1.31373733
  0
ELLIPSE
  5
3D1
100
AcDbEntity
  8
0
100
AcDbEllipse
 62
7
  6
CONTINUOUS
 10
592.45138336
 20
600.7923362792
 30
0.0
 11
5.5
 21
-0.0
 31
0.0
 40
0.4431763191
 41
0.0
 42
6.2831853072
  0
ELLIPSE
  5
3D2
100
AcDbEntity
  8
0
100
AcDbEllipse
 62
7
  6
CONTINUOUS
 10
558.95138336
 20
596.3605730885
 30
0.0
 11
4.0
 21
0.0
 31
0.0
 40
0.4431763191
 41
-3.1415926536
 42
-1.5707963268
  0
ELLIPSE
  5
3D3
100
AcDbEntity
  8
0
100
AcDbEllipse
 62
7
  6
CONTINUOUS
 10
592.45138336
 20
584.5878678122
 30
0.0
 11
141.3535684742
 21
141.3535684742
 31
0.0
 40
0.4142135624
 41
-4.3523754568
 42
-4.3425677113
  0
ELLIPSE
  5
3D4
100
AcDbEntity
  8
0
100
AcDbEllipse
 62
7
  6
CONTINUOUS
 10
592.45138336
 20
584.5878678122
 30
0.0
 11
-141.3535684742
 21
141.3535684742
 31
0.0
 40
0.4142135624
 41
-1.9406175959
 42
-1.9308098503
  0
ELLIPSE
  5
3D5
100
AcDbEntity
  8
0
100
AcDbEllipse
 62
7
  6
CONTINUOUS
 10
625.95138336
 20
596.3605730885
 30
0.0
 11
4.0
 21
0.0
 31
0.0
 40
0.4431763191
 41
-1.5707963268
 42
-0.0
  0
ENDSEC
  0
SECTION
  2
OBJECTS
  0
DICTIONARY
  5
C
100
AcDbDictionary
280
0
281
1
  3
ACAD_GROUP
350
D
  3
ACAD_MLINESTYLE
350
17
  3
ACAD_LAYOUT
350
1A
  3
ACAD_PLOTSETTINGS
350
19
  3
ACAD_PLOTSTYLENAME
350
E
  0
DICTIONARY
  5
D
102
{ACAD_REACTORS
330
C
102
}
100
AcDbDictionary
280
0
281
1
  0
ACDBDICTIONARYWDFLT
  5
E
102
{ACAD_REACTORS
330
C
102
}
100
AcDbDictionary
281
1
  3
Normal
350
F
100
AcDbDictionaryWithDefault
340
F
  0
DICTIONARY
  5
17
102
{ACAD_REACTORS
330
C
102
}
100
AcDbDictionary
280
0
281
1
  3
Standard
350
18
  0
DICTIONARY
  5
19
102
{ACAD_REACTORS
330
C
102
}
100
AcDbDictionary
281
1
  0
DICTIONARY
  5
1A
102
{ACAD_REACTORS
330
C
102
}
100
AcDbDictionary
281
1
  3
Model
350
3D6
  3
Layout1
350
3D7
  0
ACDBPLACEHOLDER
  5
F
102
{ACAD_REACTORS
330
E
102
}
  0
MLINESTYLE
  5
18
102
{ACAD_REACTORS
330
17
102
}
100
AcDbMlineStyle
  2
STANDARD
 70
0
  3

 62
256
 51
90.0
 52
90.0
 71
2
 49
0.5
 62
256
  6
BYLAYER
 49
-0.5
 62
256
  6
BYLAYER
  0
LAYOUT
  5
3D6
102
{ACAD_REACTORS
330
1A
102
}
100
AcDbPlotSettings
  1

  2
none_device
  4

  6

 40
0.0
 41
0.0
 42
0.0
 43
0.0
 44
1189.0
 45
1200.0
 46
0.0
 47
0.0
 48
0.0
 49
0.0
140
0.0
141
0.0
142
1.0
143
1.0
 70
1024
 72
1
 73
0
 74
0
  7

 75
0
147
1.0
148
0.0
149
0.0
100
AcDbLayout
  1
Model
 70
0
 71
0
 10
0.0
 20
0.0
 11
1189.0
 21
1200.0
 12
0.0
 22
0.0
 32
0.0
 14
0.0
 24
0.0
 34
0.0
 15
0.0
 25
0.0
 35
0.0
146
0.0
 13
0.0
 23
0.0
 33
0.0
 16
1.0
 26
0.0
 36
0.0
 17
0.0
 27
1.0
 37
0.0
 76
0
330
216
345
0
346
0
  0
LAYOUT
  5
3D7
102
{ACAD_REACTORS
330
1A
102
}
100
AcDbPlotSettings
  1

  2
none_device
  4

  6

 40
0.0
 41
0.0
 42
0.0
 43
0.0
 44
1189.0
 45
1200.0
 46
0.0
 47
0.0
 48
0.0
 49
0.0
140
0.0
141
0.0
142
1.0
143
1.0
 70
0
 72
1
 73
0
 74
0
  7

 75
0
147
1.0
148
0.0
149
0.0
100
AcDbLayout
  1
Layout1
 70
0
 71
1
 10
0.0
 20
0.0
 11
1189.0
 21
1200.0
 12
0.0
 22
0.0
 32
0.0
 14
0.0
 24
0.0
 34
0.0
 15
0.0
 25
0.0
 35
0.0
146
0.0
 13
0.0
 23
0.0
 33
0.0
 16
1.0
 26
0.0
 36
0.0
 17
0.0
 27
1.0
 37
0.0
 76
0
330
217
345
0
346
0
  0
ENDSEC
  0
EOF
