999
DXF file: S:\Engenharia\Wildfire\Engenharia\Produtos\Lixeiras\94538130\94538130.dxf
999
Pro/ENGINEER 2013150 by Parametric Technology Corporation
  0
SECTION
  2
HEADER
  9
$ACADVER
  1
AC1021
  9
$DWGCODEPAGE
  3
ANSI_1252
  9
$EXTMAX
 10
558.8
 20
900.0
 30
0.0
  9
$EXTMIN
 10
0.0
 20
0.0
 30
0.0
  9
$LIMMIN
 10
0.0
 20
0.0
  9
$LIMMAX
 10
558.8
 20
900.0
  9
$VIEWCTR
 10
279.4
 20
450.0
  9
$VIEWSIZE
 40
900.0
  9
$CLAYER
  8
0
  9
$LTSCALE
 40
58.6666666667
  9
$CELTYPE
  6
BYLAYER
  9
$DIMSCALE
 40
1.0
  9
$DIMASZ
 40
3.0
  9
$DIMEXO
 40
0.5
  9
$DIMDLI
 40
40.5333333333
  9
$DIMEXE
 40
0.5
  9
$DIMCEN
 40
9.6
  9
$DIMLFAC
 40
1.0
  9
$DIMBLK
  1
_FILLED
  9
$DIMTXT
 40
1.8
  9
$DIMTOL
 70
1
  9
$DIMLIM
 70
0
  9
$DIMTFAC
 40
1.0
  9
$DIMTP
 40
0.001
  9
$DIMTM
 40
0.001
  9
$DIMGAP
 40
0.625
  9
$DIMDSEP
 70
46
  9
$PDMODE
 70
3
  9
$PDSIZE
 40
1.0
  9
$HANDSEED
  5
51F
  9
$TILEMODE
 70
1
  9
$MEASUREMENT
 70
1
  9
$INSUNITS
 70
4
  0
ENDSEC
  0
SECTION
  2
CLASSES
  0
CLASS
  1
ACDBDICTIONARYWDFLT
  2
AcDbDictionaryWithDefault
  3
AutoCAD 2000
 90
0
 91
1
280
0
281
0
  0
CLASS
  1
ACDBPLACEHOLDER
  2
AcDbPlaceHolder
  3
AutoCAD 2000
 90
0
 91
1
280
0
281
0
  0
CLASS
  1
LAYOUT
  2
AcDbLayout
  3
AutoCAD 2000
 90
0
 91
0
280
0
281
0
  0
ENDSEC
  0
SECTION
  2
TABLES
  0
TABLE
  2
VPORT
  5
8
100
AcDbSymbolTable
 70
2
  0
VPORT
  5
1F4
100
AcDbSymbolTableRecord
100
AcDbViewportTableRecord
  2
*ACTIVE
 70
0
 10
0.0
 20
0.0
 11
1.0
 21
1.0
 12
279.4
 22
450.0
 13
0.0
 23
0.0
 14
1.0
 24
1.0
 15
0.0
 25
0.0
 16
0.0
 26
0.0
 36
1.0
 17
0.0
 27
0.0
 37
0.0
 40
900.0
 41
0.6208888889
 42
50.0
 43
0.0
 44
0.0
 50
0.0
 51
0.0
 71
0
 72
100
 73
1
 74
1
 75
0
 76
0
 77
0
 78
0
  0
ENDTAB
  0
TABLE
  2
LTYPE
  5
5
100
AcDbSymbolTable
 70
6
  0
LTYPE
  5
14
100
AcDbSymbolTableRecord
100
AcDbLinetypeTableRecord
  2
BYBLOCK
 70
0
  3

 72
65
 73
0
 40
0.0
  0
LTYPE
  5
15
100
AcDbSymbolTableRecord
100
AcDbLinetypeTableRecord
  2
BYLAYER
 70
0
  3

 72
65
 73
0
 40
0.0
  0
LTYPE
  5
16
100
AcDbSymbolTableRecord
100
AcDbLinetypeTableRecord
  2
CONTINUOUS
 70
64
  3
Solid line
 72
65
 73
0
 40
0.0
  0
LTYPE
  5
1F5
100
AcDbSymbolTableRecord
100
AcDbLinetypeTableRecord
  2
CENTER
 70
64
  3
____ _ ____ _ ____ _ ____ _ ____ _ ____ _ ____
 72
65
 73
4
 40
0.6
 49
0.375
 74
0
 49
-0.075
 74
0
 49
0.075
 74
0
 49
-0.075
 74
0
  0
LTYPE
  5
1F6
100
AcDbSymbolTableRecord
100
AcDbLinetypeTableRecord
  2
HIDDEN
 70
64
  3
- - - - - - - - - - - - - - - - - - - -
 72
65
 73
2
 40
0.2
 49
0.1
 74
0
 49
-0.1
 74
0
  0
LTYPE
  5
1F7
100
AcDbSymbolTableRecord
100
AcDbLinetypeTableRecord
  2
PHANTOM
 70
64
  3
_____ _ _ _____ _ _ _____ _ _ _____
 72
65
 73
6
 40
0.8
 49
0.45
 74
0
 49
-0.05
 74
0
 49
0.1
 74
0
 49
-0.05
 74
0
 49
0.1
 74
0
 49
-0.05
 74
0
  0
LTYPE
  5
1F8
100
AcDbSymbolTableRecord
100
AcDbLinetypeTableRecord
  2
DOT
 70
64
  3
. . . . . . . . . . . . . . . . . . . .
 72
65
 73
2
 40
0.2
 49
0.1
 74
0
 49
-0.1
 74
0
  0
LTYPE
  5
1F9
100
AcDbSymbolTableRecord
100
AcDbLinetypeTableRecord
  2
DASHED
 70
64
  3
- - - - - - - - - - - - - - - - - - - -
 72
65
 73
2
 40
0.2
 49
0.1
 74
0
 49
-0.1
 74
0
  0
ENDTAB
  0
TABLE
  2
LAYER
  5
2
100
AcDbSymbolTable
 70
36
  0
LAYER
  5
10
100
AcDbSymbolTableRecord
100
AcDbLayerTableRecord
  2
0
 70
0
 62
7
  6
CONTINUOUS
370
-3
390
F
  0
LAYER
  5
1FA
100
AcDbSymbolTableRecord
100
AcDbLayerTableRecord
  2
DEFAULT_1
 70
0
 62
7
  6
CENTER
370
-3
390
F
  0
LAYER
  5
1FB
100
AcDbSymbolTableRecord
100
AcDbLayerTableRecord
  2
DEFAULT_2
 70
0
 62
8
  6
HIDDEN
370
-3
390
F
  0
LAYER
  5
1FC
100
AcDbSymbolTableRecord
100
AcDbLayerTableRecord
  2
DEFAULT_3
 70
0
 62
7
  6
PHANTOM
370
-3
390
F
  0
LAYER
  5
1FD
100
AcDbSymbolTableRecord
100
AcDbLayerTableRecord
  2
01___PRT_ALL_DTM_PLN
 70
0
 62
7
  6
CONTINUOUS
370
-3
390
F
  0
LAYER
  5
1FE
100
AcDbSymbolTableRecord
100
AcDbLayerTableRecord
  2
01___PRT_DEF_DTM_PLN
 70
0
 62
7
  6
CONTINUOUS
370
-3
390
F
  0
LAYER
  5
1FF
100
AcDbSymbolTableRecord
100
AcDbLayerTableRecord
  2
02___PRT_ALL_AXES
 70
0
 62
7
  6
CONTINUOUS
370
-3
390
F
  0
LAYER
  5
200
100
AcDbSymbolTableRecord
100
AcDbLayerTableRecord
  2
03___PRT_ALL_CURVES
 70
0
 62
7
  6
CONTINUOUS
370
-3
390
F
  0
LAYER
  5
201
100
AcDbSymbolTableRecord
100
AcDbLayerTableRecord
  2
04___PRT_ALL_DTM_PNT
 70
0
 62
7
  6
CONTINUOUS
370
-3
390
F
  0
LAYER
  5
202
100
AcDbSymbolTableRecord
100
AcDbLayerTableRecord
  2
05___PRT_ALL_DTM_CSYS
 70
0
 62
7
  6
CONTINUOUS
370
-3
390
F
  0
LAYER
  5
203
100
AcDbSymbolTableRecord
100
AcDbLayerTableRecord
  2
05___PRT_DEF_DTM_CSYS
 70
0
 62
7
  6
CONTINUOUS
370
-3
390
F
  0
LAYER
  5
204
100
AcDbSymbolTableRecord
100
AcDbLayerTableRecord
  2
06___PRT_ALL_SURFS
 70
0
 62
7
  6
CONTINUOUS
370
-3
390
F
  0
LAYER
  5
205
100
AcDbSymbolTableRecord
100
AcDbLayerTableRecord
  2
INTFCLR_19552
 70
0
 62
7
  6
CONTINUOUS
370
-3
390
F
  0
LAYER
  5
206
100
AcDbSymbolTableRecord
100
AcDbLayerTableRecord
  2
INTFCLR_33261
 70
0
 62
7
  6
CONTINUOUS
370
-3
390
F
  0
LAYER
  5
207
100
AcDbSymbolTableRecord
100
AcDbLayerTableRecord
  2
INTFCLR_45830
 70
0
 62
7
  6
CONTINUOUS
370
-3
390
F
  0
LAYER
  5
208
100
AcDbSymbolTableRecord
100
AcDbLayerTableRecord
  2
INTFCLR_71587
 70
0
 62
7
  6
CONTINUOUS
370
-3
390
F
  0
LAYER
  5
209
100
AcDbSymbolTableRecord
100
AcDbLayerTableRecord
  2
INTFCLR_7196
 70
0
 62
7
  6
CONTINUOUS
370
-3
390
F
  0
LAYER
  5
20A
100
AcDbSymbolTableRecord
100
AcDbLayerTableRecord
  2
INTF_RED
 70
0
 62
7
  6
CONTINUOUS
370
-3
390
F
  0
LAYER
  5
20B
100
AcDbSymbolTableRecord
100
AcDbLayerTableRecord
  2
SHELL
 70
0
 62
7
  6
CONTINUOUS
370
-3
390
F
  0
ENDTAB
  0
TABLE
  2
STYLE
  5
3
100
AcDbSymbolTable
 70
1
  0
STYLE
  5
11
100
AcDbSymbolTableRecord
100
AcDbTextStyleTableRecord
  2
STANDARD
 70
0
 40
0.0
 41
0.8
 50
0.0
 71
0
 42
0.2
  3
txt
  4

  0
STYLE
  5
20C
100
AcDbSymbolTableRecord
100
AcDbTextStyleTableRecord
  2
TEXTSTYLE_1
 70
0
 40
0.0
 41
0.8
 50
0.0
 71
0
 42
0.2
  3
gdt
  4

  0
ENDTAB
  0
TABLE
  2
VIEW
  5
6
100
AcDbSymbolTable
 70
0
  0
ENDTAB
  0
TABLE
  2
UCS
  5
7
100
AcDbSymbolTable
 70
0
  0
ENDTAB
  0
TABLE
  2
APPID
  5
9
100
AcDbSymbolTable
 70
1
  0
APPID
  5
20D
100
AcDbSymbolTableRecord
100
AcDbRegAppTableRecord
  2
ACAD
 70
0
  0
ENDTAB
  0
TABLE
  2
BLOCK_RECORD
  5
1
100
AcDbSymbolTable
 70
0
  0
BLOCK_RECORD
  5
20E
100
AcDbSymbolTableRecord
100
AcDbBlockTableRecord
  2
*Model_Space
  0
BLOCK_RECORD
  5
20F
100
AcDbSymbolTableRecord
100
AcDbBlockTableRecord
  2
*Paper_Space
  0
BLOCK_RECORD
  5
210
100
AcDbSymbolTableRecord
100
AcDbBlockTableRecord
  2
_FILLED
  0
BLOCK_RECORD
  5
211
100
AcDbSymbolTableRecord
100
AcDbBlockTableRecord
  2
*D0
  0
BLOCK_RECORD
  5
212
100
AcDbSymbolTableRecord
100
AcDbBlockTableRecord
  2
*D1
  0
ENDTAB
  0
TABLE
  2
DIMSTYLE
  5
A
100
AcDbSymbolTable
 70
1
100
AcDbDimStyleTable
 71
0
  0
DIMSTYLE
105
213
100
AcDbSymbolTableRecord
100
AcDbDimStyleTableRecord
  2
STANDARD
 70
0
  3

  4

 40
1.0
 41
3.0
 42
0.5
 43
0.38
 44
0.5
 45
0.0
 46
0.0
 47
0.001
 48
0.001
140
1.8
141
0.09
142
0.0
143
25.4
144
1.0
145
0.0
146
1.0
147
0.625
 71
1.0
 72
0.0
 73
0
 74
0
 75
0
 76
0
 77
1
 78
8
170
0
171
2
172
0
173
0
174
0
175
0
176
0
177
0
178
0
270
2
271
3
272
3
273
2
274
2
275
0
280
0
281
0
282
0
283
1
284
8
285
0
286
0
287
3
288
0
340
11
278
46
341
210
342
210
343
210
344
210
  0
DIMSTYLE
105
214
100
AcDbSymbolTableRecord
100
AcDbDimStyleTableRecord
  2
DIMSTYLE_1
 70
0
  3

  4

 40
1.0
 41
3.0
 42
0.5
 43
0.38
 44
0.5
 45
0.0
 46
0.0
 47
0.001
 48
0.001
140
1.8
141
0.09
142
0.0
143
25.4
144
1.0
145
0.0
146
1.0
147
0.45
 71
0.0
 72
0.0
 73
0
 74
0
 75
0
 76
0
 77
1
 78
8
170
0
171
2
172
0
173
0
174
0
175
0
176
0
177
0
178
0
270
2
271
3
272
3
273
2
274
2
275
0
280
0
281
0
282
0
283
1
284
8
285
0
286
0
287
3
288
0
340
11
278
46
341
210
342
210
343
210
344
210
  0
ENDTAB
  0
ENDSEC
  0
SECTION
  2
BLOCKS
  0
BLOCK
  5
20
100
AcDbEntity
  8
0
100
AcDbBlockBegin
  2
*Model_Space
 70
0
 10
0.0
 20
0.0
 30
0.0
  3
*Model_Space
  1

  0
ENDBLK
  5
21
100
AcDbEntity
  8
0
100
AcDbBlockEnd
  0
BLOCK
  5
1C
100
AcDbEntity
  8
0
100
AcDbBlockBegin
  2
*Paper_Space
 70
0
 10
0.0
 20
0.0
 30
0.0
  3
*Paper_Space
  1

  0
ENDBLK
  5
1D
100
AcDbEntity
  8
0
100
AcDbBlockEnd
  0
BLOCK
  5
215
100
AcDbEntity
  8
0
100
AcDbBlockBegin
  2
_FILLED
 70
64
 10
0.0
 20
0.0
  3
_FILLED
  1

  0
SOLID
  5
216
100
AcDbEntity
  8
0
  6
BYBLOCK
 62
0
100
AcDbTrace
 10
0.0
 20
0.0
 11
-1.0
 21
0.1666666667
 12
-1.0
 22
-0.1666666667
 13
-1.0
 23
-0.1666666667
  0
ENDBLK
  5
217
100
AcDbEntity
  8
0
  6
BYBLOCK
 62
0
100
AcDbBlockEnd
  0
BLOCK
  5
218
100
AcDbEntity
  8
0
100
AcDbBlockBegin
 62
2
  6
CONTINUOUS
  2
*D0
 70
65
 10
0.0
 20
0.0
  3
*D0
  1

  0
MTEXT
  5
219
100
AcDbEntity
  8
0
100
AcDbMText
 62
2
  6
CONTINUOUS
  7
STANDARD
 71
2
 72
1
 10
509.5511415109
 20
421.4427529859
 30
0.0
 11
0.0
 21
1.0
 31
0.0
 44
0.9
  1
655
 40
1.8
 41
8.3314285714
  0
LINE
  5
21A
100
AcDbEntity
  8
0
100
AcDbLine
 62
2
  6
CONTINUOUS
 10
323.1639176563
 20
752.3177529859
 11
512.6225700823
 21
752.3177529859
  0
LINE
  5
21B
100
AcDbEntity
  8
0
100
AcDbLine
 62
2
  6
CONTINUOUS
 10
410.9986226266
 20
90.5677529859
 11
512.6225700823
 21
90.5677529859
  0
LINE
  5
21C
100
AcDbEntity
  8
0
100
AcDbLine
 62
2
  6
CONTINUOUS
 10
512.1225700823
 20
752.3177529859
 11
512.1225700823
 21
421.4427529859
  0
LINE
  5
21D
100
AcDbEntity
  8
0
100
AcDbLine
 62
2
  6
CONTINUOUS
 10
512.1225700823
 20
90.5677529859
 11
512.1225700823
 21
421.4427529859
  0
INSERT
  5
21E
100
AcDbEntity
  8
0
100
AcDbBlockReference
 62
2
  6
CONTINUOUS
  2
_FILLED
 10
512.1225700823
 20
752.3177529859
 41
3.0
 42
3.0
 43
3.0
 50
90.0
  0
INSERT
  5
21F
100
AcDbEntity
  8
0
100
AcDbBlockReference
 62
2
  6
CONTINUOUS
  2
_FILLED
 10
512.1225700823
 20
90.5677529859
 41
3.0
 42
3.0
 43
3.0
 50
270.0
  0
ENDBLK
  5
220
100
AcDbEntity
  8
0
  6
BYBLOCK
 62
0
100
AcDbBlockEnd
  0
BLOCK
  5
221
100
AcDbEntity
  8
0
100
AcDbBlockBegin
 62
2
  6
CONTINUOUS
  2
*D1
 70
65
 10
0.0
 20
0.0
  3
*D1
  1

  0
MTEXT
  5
222
100
AcDbEntity
  8
0
100
AcDbMText
 62
2
  6
CONTINUOUS
  7
TEXTSTYLE_1
 71
2
 72
1
 10
295.6772509896
 20
794.6341160301
 30
0.0
 11
1.0
 21
0.0
 31
0.0
 44
0.9
  1
{\Fgdt;n}\Ftxt;295
 40
1.8
 41
11.9314285714
  0
LINE
  5
223
100
AcDbEntity
  8
0
100
AcDbLine
 62
2
  6
CONTINUOUS
 10
148.6772509896
 20
739.3356338854
 11
148.6772509896
 21
792.5626874587
  0
LINE
  5
224
100
AcDbEntity
  8
0
100
AcDbLine
 62
2
  6
CONTINUOUS
 10
442.6772509896
 20
739.3356338854
 11
442.6772509896
 21
792.5626874587
  0
LINE
  5
225
100
AcDbEntity
  8
0
100
AcDbLine
 62
2
  6
CONTINUOUS
 10
148.6772509896
 20
792.0626874587
 11
295.6772509896
 21
792.0626874587
  0
LINE
  5
226
100
AcDbEntity
  8
0
100
AcDbLine
 62
2
  6
CONTINUOUS
 10
442.6772509896
 20
792.0626874587
 11
295.6772509896
 21
792.0626874587
  0
INSERT
  5
227
100
AcDbEntity
  8
0
100
AcDbBlockReference
 62
2
  6
CONTINUOUS
  2
_FILLED
 10
148.6772509896
 20
792.0626874587
 41
3.0
 42
3.0
 43
3.0
 50
180.0
  0
INSERT
  5
228
100
AcDbEntity
  8
0
100
AcDbBlockReference
 62
2
  6
CONTINUOUS
  2
_FILLED
 10
442.6772509896
 20
792.0626874587
 41
3.0
 42
3.0
 43
3.0
  0
ENDBLK
  5
229
100
AcDbEntity
  8
0
  6
BYBLOCK
 62
0
100
AcDbBlockEnd
  0
ENDSEC
  0
SECTION
  2
ENTITIES
  0
DIMENSION
  5
22A
100
AcDbEntity
  8
0
100
AcDbDimension
 62
2
  6
CONTINUOUS
  2
*D0
 10
512.1225700823
 20
90.5677529859
 11
512.1225700823
 21
421.4427529859
 70
160
 71
2
 42
661.75
  3
DIMSTYLE_1
100
AcDbAlignedDimension
 13
322.6639176563
 23
752.3177529859
 14
410.4986226266
 24
90.5677529859
 50
270.0
100
AcDbRotatedDimension
  0
DIMENSION
  5
22B
100
AcDbEntity
  8
0
100
AcDbDimension
 62
2
  6
CONTINUOUS
  2
*D1
 10
442.6772509896
 20
792.0626874587
 11
295.6772509896
 21
792.0626874587
 70
160
 71
2
 42
294.0
  1
%%c<>
  3
DIMSTYLE_1
100
AcDbAlignedDimension
 13
148.6772509896
 23
738.8356338854
 14
442.6772509896
 24
738.8356338854
100
AcDbRotatedDimension
  0
LINE
  5
22C
100
AcDbEntity
  8
0
100
AcDbLine
 62
7
  6
CONTINUOUS
 10
145.8087777774
 20
87.0313277594
 11
120.8121183812
 21
87.0313277594
  0
LINE
  5
22D
100
AcDbEntity
  8
0
100
AcDbLine
 62
7
  6
CONTINUOUS
 10
132.8301089801
 20
89.0677529859
 11
120.3541781762
 21
89.0677529859
  0
LINE
  5
22E
100
AcDbEntity
  8
0
100
AcDbLine
 62
7
  6
CONTINUOUS
 10
120.2880295166
 20
89.0677529859
 11
117.9658242677
 21
89.0677529859
  0
LINE
  5
22F
100
AcDbEntity
  8
0
100
AcDbLine
 62
7
  6
CONTINUOUS
 10
410.4986226266
 20
90.5677529859
 11
404.2114885332
 21
90.5677529859
  0
LINE
  5
230
100
AcDbEntity
  8
0
100
AcDbLine
 62
7
  6
CONTINUOUS
 10
401.9423121457
 20
90.5677529859
 11
395.3745058275
 21
90.5677529859
  0
LINE
  5
231
100
AcDbEntity
  8
0
100
AcDbLine
 62
7
  6
CONTINUOUS
 10
195.9799961517
 20
90.5677529859
 11
189.4121898335
 21
90.5677529859
  0
LINE
  5
232
100
AcDbEntity
  8
0
100
AcDbLine
 62
7
  6
CONTINUOUS
 10
187.143013446
 20
90.5677529859
 11
180.8558793526
 21
90.5677529859
  0
LINE
  5
233
100
AcDbEntity
  8
0
100
AcDbLine
 62
7
  6
CONTINUOUS
 10
120.2327364521
 20
92.0677529859
 11
118.4111105896
 21
92.0677529859
  0
LINE
  5
234
100
AcDbEntity
  8
0
100
AcDbLine
 62
7
  6
CONTINUOUS
 10
135.8276499569
 20
92.0677529859
 11
448.6760973505
 21
92.0677529859
  0
LINE
  5
235
100
AcDbEntity
  8
0
100
AcDbLine
 62
7
  6
CONTINUOUS
 10
117.9658242677
 20
97.0677529859
 11
120.678022774
 21
97.0677529859
  0
LINE
  5
236
100
AcDbEntity
  8
0
100
AcDbLine
 62
7
  6
CONTINUOUS
 10
154.658775726
 20
106.0677529859
 11
443.176520195
 21
106.0677529859
  0
LINE
  5
237
100
AcDbEntity
  8
0
100
AcDbLine
 62
7
  6
CONTINUOUS
 10
442.1772509896
 20
108.2177529859
 11
154.658775726
 21
108.2177529859
  0
LINE
  5
238
100
AcDbEntity
  8
0
100
AcDbLine
 62
7
  6
CONTINUOUS
 10
442.0839173573
 20
111.3177529859
 11
442.3425434269
 21
111.3177529859
  0
LINE
  5
239
100
AcDbEntity
  8
0
100
AcDbLine
 62
7
  6
CONTINUOUS
 10
153.9848710271
 20
113.9377529859
 11
155.4382902702
 21
113.9377529859
  0
LINE
  5
23A
100
AcDbEntity
  8
0
100
AcDbLine
 62
7
  6
CONTINUOUS
 10
153.9848710271
 20
118.6977529859
 11
155.1039050657
 21
118.6977529859
  0
LINE
  5
23B
100
AcDbEntity
  8
0
100
AcDbLine
 62
7
  6
CONTINUOUS
 10
157.1895395747
 20
119.9177529859
 11
156.7732696819
 21
119.9177529859
  0
LINE
  5
23C
100
AcDbEntity
  8
0
100
AcDbLine
 62
7
  6
CONTINUOUS
 10
106.435249461
 20
128.0949259742
 11
106.4402139402
 21
128.0942547559
  0
LINE
  5
23D
100
AcDbEntity
  8
0
100
AcDbLine
 62
7
  6
CONTINUOUS
 10
129.0610974977
 20
126.0739768332
 11
144.8365945849
 21
115.8648331057
  0
LINE
  5
23E
100
AcDbEntity
  8
0
100
AcDbLine
 62
7
  6
CONTINUOUS
 10
137.851882872
 20
126.0548116368
 11
147.4227329887
 21
119.8610173053
  0
LINE
  5
23F
100
AcDbEntity
  8
0
100
AcDbLine
 62
7
  6
CONTINUOUS
 10
117.9658242677
 20
97.0677529859
 11
117.9641891007
 21
97.070033418
  0
LINE
  5
240
100
AcDbEntity
  8
0
100
AcDbLine
 62
7
  6
CONTINUOUS
 10
123.0361368719
 20
124.9300044179
 11
122.8515510255
 21
124.9039902495
  0
LINE
  5
241
100
AcDbEntity
  8
0
100
AcDbLine
 62
7
  6
CONTINUOUS
 10
115.5344369967
 20
128.9292933616
 11
157.3127363024
 21
134.8056671316
  0
LINE
  5
242
100
AcDbEntity
  8
0
100
AcDbLine
 62
7
  6
CONTINUOUS
 10
157.278524676
 20
136.4256893182
 11
115.2471736382
 21
130.5137222716
  0
LINE
  5
243
100
AcDbEntity
  8
0
100
AcDbLine
 62
7
  6
CONTINUOUS
 10
157.371961733
 20
136.8966875695
 11
156.1882762812
 21
136.7301949584
  0
LINE
  5
244
100
AcDbEntity
  8
0
100
AcDbLine
 62
7
  6
CONTINUOUS
 10
114.9995295973
 20
131.008856306
 11
115.1583346163
 21
131.0311932049
  0
LINE
  5
245
100
AcDbEntity
  8
0
100
AcDbLine
 62
7
  6
CONTINUOUS
 10
115.1587562383
 20
131.0255984224
 11
151.0167783047
 21
136.0692091709
  0
LINE
  5
246
100
AcDbEntity
  8
0
100
AcDbLine
 62
7
  6
CONTINUOUS
 10
122.8515510255
 20
124.9039902495
 11
122.3892478644
 21
124.839279633
  0
LINE
  5
247
100
AcDbEntity
  8
0
100
AcDbLine
 62
7
  6
CONTINUOUS
 10
114.6027764266
 20
128.7986721656
 11
115.5344369967
 21
128.9292933616
  0
LINE
  5
248
100
AcDbEntity
  8
0
100
AcDbLine
 62
7
  6
CONTINUOUS
 10
115.231485844
 20
130.5137222716
 11
114.4300728975
 21
130.4014684242
  0
LINE
  5
249
100
AcDbEntity
  8
0
100
AcDbLine
 62
7
  6
CONTINUOUS
 10
114.2204838694
 20
130.3722906739
 11
114.8753998985
 21
130.4637541851
  0
LINE
  5
24A
100
AcDbEntity
  8
0
100
AcDbLine
 62
7
  6
CONTINUOUS
 10
114.9531946012
 20
130.9969107652
 11
115.1587562383
 21
131.0255984224
  0
LINE
  5
24B
100
AcDbEntity
  8
0
100
AcDbLine
 62
7
  6
CONTINUOUS
 10
113.6879964309
 20
128.6712522415
 11
114.6027764266
 21
128.7986721656
  0
LINE
  5
24C
100
AcDbEntity
  8
0
100
AcDbLine
 62
7
  6
CONTINUOUS
 10
113.9238568486
 20
130.3310811104
 11
114.2204838694
 21
130.3722906739
  0
LINE
  5
24D
100
AcDbEntity
  8
0
100
AcDbLine
 62
7
  6
CONTINUOUS
 10
122.3892478644
 20
124.839279633
 11
121.9724299669
 21
124.7814986341
  0
LINE
  5
24E
100
AcDbEntity
  8
0
100
AcDbLine
 62
7
  6
CONTINUOUS
 10
113.3916767761
 20
130.2575201191
 11
113.9238568486
 21
130.3310811104
  0
LINE
  5
24F
100
AcDbEntity
  8
0
100
AcDbLine
 62
7
  6
CONTINUOUS
 10
121.9724299669
 20
124.7814986341
 11
121.5913896982
 21
124.7292643778
  0
LINE
  5
250
100
AcDbEntity
  8
0
100
AcDbLine
 62
7
  6
CONTINUOUS
 10
112.9377744009
 20
130.1952153298
 11
113.3916767761
 21
130.2575201191
  0
LINE
  5
251
100
AcDbEntity
  8
0
100
AcDbLine
 62
7
  6
CONTINUOUS
 10
112.7382925807
 20
130.1679851326
 11
112.9377744009
 21
130.1952153298
  0
LINE
  5
252
100
AcDbEntity
  8
0
100
AcDbLine
 62
7
  6
CONTINUOUS
 10
111.2655772701
 20
128.3388593326
 11
111.9985232085
 21
128.4384699841
  0
LINE
  5
253
100
AcDbEntity
  8
0
100
AcDbLine
 62
7
  6
CONTINUOUS
 10
112.2387333859
 20
130.100315358
 11
112.7382925807
 21
130.1679851326
  0
LINE
  5
254
100
AcDbEntity
  8
0
100
AcDbLine
 62
7
  6
CONTINUOUS
 10
151.0167783047
 20
136.0692091709
 11
151.0430438724
 21
136.0725997532
  0
LINE
  5
255
100
AcDbEntity
  8
0
100
AcDbLine
 62
7
  6
CONTINUOUS
 10
151.0167783047
 20
136.0692091709
 11
150.9162387602
 21
136.0570464173
  0
LINE
  5
256
100
AcDbEntity
  8
0
100
AcDbLine
 62
7
  6
CONTINUOUS
 10
111.1982711515
 20
129.9656891318
 11
111.2438458711
 21
129.970801204
  0
LINE
  5
257
100
AcDbEntity
  8
0
100
AcDbLine
 62
7
  6
CONTINUOUS
 10
108.1843024503
 20
129.9552956068
 11
111.2443143678
 21
129.9708666968
  0
LINE
  5
258
100
AcDbEntity
  8
0
100
AcDbLine
 62
7
  6
CONTINUOUS
 10
106.7212374021
 20
126.0677529859
 11
157.1895395747
 21
126.0677529859
  0
LINE
  5
259
100
AcDbEntity
  8
0
100
AcDbLine
 62
7
  6
CONTINUOUS
 10
106.4402139402
 20
128.0942547559
 11
109.3548153202
 21
128.0942547559
  0
LINE
  5
25A
100
AcDbEntity
  8
0
100
AcDbLine
 62
7
  6
CONTINUOUS
 10
110.7154510755
 20
129.9013606274
 11
107.8008496955
 21
129.9013606274
  0
LINE
  5
25B
100
AcDbEntity
  8
0
100
AcDbLine
 62
7
  6
CONTINUOUS
 10
113.9999530822
 20
130.869683205
 11
111.1055919896
 21
130.869683205
  0
LINE
  5
25C
100
AcDbEntity
  8
0
100
AcDbLine
 62
7
  6
CONTINUOUS
 10
112.1570807167
 20
131.008856306
 11
112.1658893667
 21
131.008856306
  0
LINE
  5
25D
100
AcDbEntity
  8
0
100
AcDbLine
 62
7
  6
CONTINUOUS
 10
112.2987627282
 20
131.008856306
 11
112.3075713783
 21
131.008856306
  0
LINE
  5
25E
100
AcDbEntity
  8
0
100
AcDbLine
 62
7
  6
CONTINUOUS
 10
112.4404447397
 20
131.008856306
 11
112.4492533898
 21
131.008856306
  0
LINE
  5
25F
100
AcDbEntity
  8
0
100
AcDbLine
 62
7
  6
CONTINUOUS
 10
112.5821267512
 20
131.008856306
 11
112.5909354013
 21
131.008856306
  0
LINE
  5
260
100
AcDbEntity
  8
0
100
AcDbLine
 62
7
  6
CONTINUOUS
 10
112.7238087628
 20
131.008856306
 11
112.7326174128
 21
131.008856306
  0
LINE
  5
261
100
AcDbEntity
  8
0
100
AcDbLine
 62
7
  6
CONTINUOUS
 10
112.8654907743
 20
131.008856306
 11
112.8742994244
 21
131.008856306
  0
LINE
  5
262
100
AcDbEntity
  8
0
100
AcDbLine
 62
7
  6
CONTINUOUS
 10
113.0071727858
 20
131.008856306
 11
113.0159814359
 21
131.008856306
  0
LINE
  5
263
100
AcDbEntity
  8
0
100
AcDbLine
 62
7
  6
CONTINUOUS
 10
113.1488547973
 20
131.008856306
 11
113.1576634474
 21
131.008856306
  0
LINE
  5
264
100
AcDbEntity
  8
0
100
AcDbLine
 62
7
  6
CONTINUOUS
 10
113.2905368089
 20
131.008856306
 11
113.299345459
 21
131.008856306
  0
LINE
  5
265
100
AcDbEntity
  8
0
100
AcDbLine
 62
7
  6
CONTINUOUS
 10
113.4322188204
 20
131.008856306
 11
113.4410274705
 21
131.008856306
  0
LINE
  5
266
100
AcDbEntity
  8
0
100
AcDbLine
 62
7
  6
CONTINUOUS
 10
113.5739008319
 20
131.008856306
 11
113.582709482
 21
131.008856306
  0
LINE
  5
267
100
AcDbEntity
  8
0
100
AcDbLine
 62
7
  6
CONTINUOUS
 10
113.7155828434
 20
131.008856306
 11
113.7243914935
 21
131.008856306
  0
LINE
  5
268
100
AcDbEntity
  8
0
100
AcDbLine
 62
7
  6
CONTINUOUS
 10
113.857264855
 20
131.008856306
 11
113.8660735051
 21
131.008856306
  0
LINE
  5
269
100
AcDbEntity
  8
0
100
AcDbLine
 62
7
  6
CONTINUOUS
 10
113.9989468665
 20
131.008856306
 11
114.0077555166
 21
131.008856306
  0
LINE
  5
26A
100
AcDbEntity
  8
0
100
AcDbLine
 62
7
  6
CONTINUOUS
 10
114.140628878
 20
131.008856306
 11
114.1494375281
 21
131.008856306
  0
LINE
  5
26B
100
AcDbEntity
  8
0
100
AcDbLine
 62
7
  6
CONTINUOUS
 10
114.2823108896
 20
131.008856306
 11
114.2911195396
 21
131.008856306
  0
LINE
  5
26C
100
AcDbEntity
  8
0
100
AcDbLine
 62
7
  6
CONTINUOUS
 10
114.4239929011
 20
131.008856306
 11
114.4328015512
 21
131.008856306
  0
LINE
  5
26D
100
AcDbEntity
  8
0
100
AcDbLine
 62
7
  6
CONTINUOUS
 10
114.5656749126
 20
131.008856306
 11
114.5744835627
 21
131.008856306
  0
LINE
  5
26E
100
AcDbEntity
  8
0
100
AcDbLine
 62
7
  6
CONTINUOUS
 10
114.7073569241
 20
131.008856306
 11
114.7161655742
 21
131.008856306
  0
LINE
  5
26F
100
AcDbEntity
  8
0
100
AcDbLine
 62
7
  6
CONTINUOUS
 10
114.8490389357
 20
131.008856306
 11
114.8578475857
 21
131.008856306
  0
LINE
  5
270
100
AcDbEntity
  8
0
100
AcDbLine
 62
7
  6
CONTINUOUS
 10
117.1786801432
 20
131.4959621594
 11
117.1874887933
 21
131.4959621594
  0
LINE
  5
271
100
AcDbEntity
  8
0
100
AcDbLine
 62
7
  6
CONTINUOUS
 10
117.6037261778
 20
131.4959621594
 11
117.6125348279
 21
131.4959621594
  0
LINE
  5
272
100
AcDbEntity
  8
0
100
AcDbLine
 62
7
  6
CONTINUOUS
 10
117.7454081893
 20
131.4959621594
 11
117.7542168394
 21
131.4959621594
  0
LINE
  5
273
100
AcDbEntity
  8
0
100
AcDbLine
 62
7
  6
CONTINUOUS
 10
117.3203621547
 20
131.4959621594
 11
117.3291708048
 21
131.4959621594
  0
LINE
  5
274
100
AcDbEntity
  8
0
100
AcDbLine
 62
7
  6
CONTINUOUS
 10
117.4620441663
 20
131.4959621594
 11
117.4708528163
 21
131.4959621594
  0
LINE
  5
275
100
AcDbEntity
  8
0
100
AcDbLine
 62
7
  6
CONTINUOUS
 10
120.641777443
 20
131.9830680127
 11
120.650586093
 21
131.9830680127
  0
LINE
  5
276
100
AcDbEntity
  8
0
100
AcDbLine
 62
7
  6
CONTINUOUS
 10
120.7834594545
 20
131.9830680127
 11
120.7922681046
 21
131.9830680127
  0
LINE
  5
277
100
AcDbEntity
  8
0
100
AcDbLine
 62
7
  6
CONTINUOUS
 10
120.925141466
 20
131.9830680127
 11
120.9339501161
 21
131.9830680127
  0
LINE
  5
278
100
AcDbEntity
  8
0
100
AcDbLine
 62
7
  6
CONTINUOUS
 10
121.0668234775
 20
131.9830680127
 11
121.0756321276
 21
131.9830680127
  0
LINE
  5
279
100
AcDbEntity
  8
0
100
AcDbLine
 62
7
  6
CONTINUOUS
 10
121.2085054891
 20
131.9830680127
 11
121.2173141391
 21
131.9830680127
  0
LINE
  5
27A
100
AcDbEntity
  8
0
100
AcDbLine
 62
7
  6
CONTINUOUS
 10
115.5528135746
 20
131.9910961937
 11
115.5594571543
 21
131.9910961937
  0
LINE
  5
27B
100
AcDbEntity
  8
0
100
AcDbLine
 62
7
  6
CONTINUOUS
 10
115.6944955862
 20
131.9910961937
 11
115.7011391659
 21
131.9910961937
  0
LINE
  5
27C
100
AcDbEntity
  8
0
100
AcDbLine
 62
7
  6
CONTINUOUS
 10
115.8361775977
 20
131.9910961937
 11
115.8428211774
 21
131.9910961937
  0
LINE
  5
27D
100
AcDbEntity
  8
0
100
AcDbLine
 62
7
  6
CONTINUOUS
 10
115.9778596092
 20
131.9910961937
 11
115.9845031889
 21
131.9910961937
  0
LINE
  5
27E
100
AcDbEntity
  8
0
100
AcDbLine
 62
7
  6
CONTINUOUS
 10
116.1195416207
 20
131.9910961937
 11
116.1261852004
 21
131.9910961937
  0
LINE
  5
27F
100
AcDbEntity
  8
0
100
AcDbLine
 62
7
  6
CONTINUOUS
 10
116.2612236323
 20
131.9910961937
 11
116.267867212
 21
131.9910961937
  0
LINE
  5
280
100
AcDbEntity
  8
0
100
AcDbLine
 62
7
  6
CONTINUOUS
 10
116.4029056438
 20
131.9910961937
 11
116.4095492235
 21
131.9910961937
  0
LINE
  5
281
100
AcDbEntity
  8
0
100
AcDbLine
 62
7
  6
CONTINUOUS
 10
116.5445876553
 20
131.9910961937
 11
116.551231235
 21
131.9910961937
  0
LINE
  5
282
100
AcDbEntity
  8
0
100
AcDbLine
 62
7
  6
CONTINUOUS
 10
116.6862696668
 20
131.9910961937
 11
116.6929132465
 21
131.9910961937
  0
LINE
  5
283
100
AcDbEntity
  8
0
100
AcDbLine
 62
7
  6
CONTINUOUS
 10
116.8279516784
 20
131.9910961937
 11
116.8345952581
 21
131.9910961937
  0
LINE
  5
284
100
AcDbEntity
  8
0
100
AcDbLine
 62
7
  6
CONTINUOUS
 10
124.1048747427
 20
132.4701738661
 11
124.1136833928
 21
132.4701738661
  0
LINE
  5
285
100
AcDbEntity
  8
0
100
AcDbLine
 62
7
  6
CONTINUOUS
 10
124.2465567542
 20
132.4701738661
 11
124.2553654043
 21
132.4701738661
  0
LINE
  5
286
100
AcDbEntity
  8
0
100
AcDbLine
 62
7
  6
CONTINUOUS
 10
124.3882387658
 20
132.4701738661
 11
124.3970474158
 21
132.4701738661
  0
LINE
  5
287
100
AcDbEntity
  8
0
100
AcDbLine
 62
7
  6
CONTINUOUS
 10
124.5299207773
 20
132.4701738661
 11
124.5387294274
 21
132.4701738661
  0
LINE
  5
288
100
AcDbEntity
  8
0
100
AcDbLine
 62
7
  6
CONTINUOUS
 10
124.6716027888
 20
132.4701738661
 11
124.6804114389
 21
132.4701738661
  0
LINE
  5
289
100
AcDbEntity
  8
0
100
AcDbLine
 62
7
  6
CONTINUOUS
 10
119.0159108744
 20
132.4782020471
 11
119.0225544541
 21
132.4782020471
  0
LINE
  5
28A
100
AcDbEntity
  8
0
100
AcDbLine
 62
7
  6
CONTINUOUS
 10
119.1575928859
 20
132.4782020471
 11
119.1642364656
 21
132.4782020471
  0
LINE
  5
28B
100
AcDbEntity
  8
0
100
AcDbLine
 62
7
  6
CONTINUOUS
 10
119.2992748974
 20
132.4782020471
 11
119.3059184771
 21
132.4782020471
  0
LINE
  5
28C
100
AcDbEntity
  8
0
100
AcDbLine
 62
7
  6
CONTINUOUS
 10
119.440956909
 20
132.4782020471
 11
119.4476004887
 21
132.4782020471
  0
LINE
  5
28D
100
AcDbEntity
  8
0
100
AcDbLine
 62
7
  6
CONTINUOUS
 10
119.5826389205
 20
132.4782020471
 11
119.5892825002
 21
132.4782020471
  0
LINE
  5
28E
100
AcDbEntity
  8
0
100
AcDbLine
 62
7
  6
CONTINUOUS
 10
119.724320932
 20
132.4782020471
 11
119.7309645117
 21
132.4782020471
  0
LINE
  5
28F
100
AcDbEntity
  8
0
100
AcDbLine
 62
7
  6
CONTINUOUS
 10
119.8660029436
 20
132.4782020471
 11
119.8726465232
 21
132.4782020471
  0
LINE
  5
290
100
AcDbEntity
  8
0
100
AcDbLine
 62
7
  6
CONTINUOUS
 10
120.0076849551
 20
132.4782020471
 11
120.0143285348
 21
132.4782020471
  0
LINE
  5
291
100
AcDbEntity
  8
0
100
AcDbLine
 62
7
  6
CONTINUOUS
 10
120.1493669666
 20
132.4782020471
 11
120.1560105463
 21
132.4782020471
  0
LINE
  5
292
100
AcDbEntity
  8
0
100
AcDbLine
 62
7
  6
CONTINUOUS
 10
120.2910489781
 20
132.4782020471
 11
120.2976925578
 21
132.4782020471
  0
LINE
  5
293
100
AcDbEntity
  8
0
100
AcDbLine
 62
7
  6
CONTINUOUS
 10
127.5679720425
 20
132.9572797194
 11
127.5767806926
 21
132.9572797194
  0
LINE
  5
294
100
AcDbEntity
  8
0
100
AcDbLine
 62
7
  6
CONTINUOUS
 10
127.709654054
 20
132.9572797194
 11
127.7184627041
 21
132.9572797194
  0
LINE
  5
295
100
AcDbEntity
  8
0
100
AcDbLine
 62
7
  6
CONTINUOUS
 10
127.8513360655
 20
132.9572797194
 11
127.8601447156
 21
132.9572797194
  0
LINE
  5
296
100
AcDbEntity
  8
0
100
AcDbLine
 62
7
  6
CONTINUOUS
 10
127.993018077
 20
132.9572797194
 11
128.0018267271
 21
132.9572797194
  0
LINE
  5
297
100
AcDbEntity
  8
0
100
AcDbLine
 62
7
  6
CONTINUOUS
 10
128.1347000886
 20
132.9572797194
 11
128.1435087387
 21
132.9572797194
  0
LINE
  5
298
100
AcDbEntity
  8
0
100
AcDbLine
 62
7
  6
CONTINUOUS
 10
122.4790081741
 20
132.9653079004
 11
122.4856517538
 21
132.9653079004
  0
LINE
  5
299
100
AcDbEntity
  8
0
100
AcDbLine
 62
7
  6
CONTINUOUS
 10
122.6206901857
 20
132.9653079004
 11
122.6273337654
 21
132.9653079004
  0
LINE
  5
29A
100
AcDbEntity
  8
0
100
AcDbLine
 62
7
  6
CONTINUOUS
 10
122.7623721972
 20
132.9653079004
 11
122.7690157769
 21
132.9653079004
  0
LINE
  5
29B
100
AcDbEntity
  8
0
100
AcDbLine
 62
7
  6
CONTINUOUS
 10
122.9040542087
 20
132.9653079004
 11
122.9106977884
 21
132.9653079004
  0
LINE
  5
29C
100
AcDbEntity
  8
0
100
AcDbLine
 62
7
  6
CONTINUOUS
 10
123.0457362203
 20
132.9653079004
 11
123.0523797999
 21
132.9653079004
  0
LINE
  5
29D
100
AcDbEntity
  8
0
100
AcDbLine
 62
7
  6
CONTINUOUS
 10
123.1874182318
 20
132.9653079004
 11
123.1940618115
 21
132.9653079004
  0
LINE
  5
29E
100
AcDbEntity
  8
0
100
AcDbLine
 62
7
  6
CONTINUOUS
 10
123.3291002433
 20
132.9653079004
 11
123.335743823
 21
132.9653079004
  0
LINE
  5
29F
100
AcDbEntity
  8
0
100
AcDbLine
 62
7
  6
CONTINUOUS
 10
123.4707822548
 20
132.9653079004
 11
123.4774258345
 21
132.9653079004
  0
LINE
  5
2A0
100
AcDbEntity
  8
0
100
AcDbLine
 62
7
  6
CONTINUOUS
 10
123.6124642664
 20
132.9653079004
 11
123.6191078461
 21
132.9653079004
  0
LINE
  5
2A1
100
AcDbEntity
  8
0
100
AcDbLine
 62
7
  6
CONTINUOUS
 10
123.7541462779
 20
132.9653079004
 11
123.7607898576
 21
132.9653079004
  0
LINE
  5
2A2
100
AcDbEntity
  8
0
100
AcDbLine
 62
7
  6
CONTINUOUS
 10
131.0310693422
 20
133.4443855728
 11
131.0398779923
 21
133.4443855728
  0
LINE
  5
2A3
100
AcDbEntity
  8
0
100
AcDbLine
 62
7
  6
CONTINUOUS
 10
131.1727513537
 20
133.4443855728
 11
131.1815600038
 21
133.4443855728
  0
LINE
  5
2A4
100
AcDbEntity
  8
0
100
AcDbLine
 62
7
  6
CONTINUOUS
 10
131.3144333653
 20
133.4443855728
 11
131.3232420154
 21
133.4443855728
  0
LINE
  5
2A5
100
AcDbEntity
  8
0
100
AcDbLine
 62
7
  6
CONTINUOUS
 10
131.4561153768
 20
133.4443855728
 11
131.4649240269
 21
133.4443855728
  0
LINE
  5
2A6
100
AcDbEntity
  8
0
100
AcDbLine
 62
7
  6
CONTINUOUS
 10
131.5977973883
 20
133.4443855728
 11
131.6066060384
 21
133.4443855728
  0
LINE
  5
2A7
100
AcDbEntity
  8
0
100
AcDbLine
 62
7
  6
CONTINUOUS
 10
125.9421054739
 20
133.4524137538
 11
125.9487490536
 21
133.4524137538
  0
LINE
  5
2A8
100
AcDbEntity
  8
0
100
AcDbLine
 62
7
  6
CONTINUOUS
 10
126.0837874854
 20
133.4524137538
 11
126.0904310651
 21
133.4524137538
  0
LINE
  5
2A9
100
AcDbEntity
  8
0
100
AcDbLine
 62
7
  6
CONTINUOUS
 10
126.225469497
 20
133.4524137538
 11
126.2321130767
 21
133.4524137538
  0
LINE
  5
2AA
100
AcDbEntity
  8
0
100
AcDbLine
 62
7
  6
CONTINUOUS
 10
126.3671515085
 20
133.4524137538
 11
126.3737950882
 21
133.4524137538
  0
LINE
  5
2AB
100
AcDbEntity
  8
0
100
AcDbLine
 62
7
  6
CONTINUOUS
 10
126.50883352
 20
133.4524137538
 11
126.5154770997
 21
133.4524137538
  0
LINE
  5
2AC
100
AcDbEntity
  8
0
100
AcDbLine
 62
7
  6
CONTINUOUS
 10
126.6505155315
 20
133.4524137538
 11
126.6571591112
 21
133.4524137538
  0
LINE
  5
2AD
100
AcDbEntity
  8
0
100
AcDbLine
 62
7
  6
CONTINUOUS
 10
126.7921975431
 20
133.4524137538
 11
126.7988411228
 21
133.4524137538
  0
LINE
  5
2AE
100
AcDbEntity
  8
0
100
AcDbLine
 62
7
  6
CONTINUOUS
 10
126.9338795546
 20
133.4524137538
 11
126.9405231343
 21
133.4524137538
  0
LINE
  5
2AF
100
AcDbEntity
  8
0
100
AcDbLine
 62
7
  6
CONTINUOUS
 10
127.0755615661
 20
133.4524137538
 11
127.0822051458
 21
133.4524137538
  0
LINE
  5
2B0
100
AcDbEntity
  8
0
100
AcDbLine
 62
7
  6
CONTINUOUS
 10
127.2172435776
 20
133.4524137538
 11
127.2238871573
 21
133.4524137538
  0
LINE
  5
2B1
100
AcDbEntity
  8
0
100
AcDbLine
 62
7
  6
CONTINUOUS
 10
134.494166642
 20
133.9314914262
 11
134.5029752921
 21
133.9314914262
  0
LINE
  5
2B2
100
AcDbEntity
  8
0
100
AcDbLine
 62
7
  6
CONTINUOUS
 10
134.6358486535
 20
133.9314914262
 11
134.6446573036
 21
133.9314914262
  0
LINE
  5
2B3
100
AcDbEntity
  8
0
100
AcDbLine
 62
7
  6
CONTINUOUS
 10
134.777530665
 20
133.9314914262
 11
134.7863393151
 21
133.9314914262
  0
LINE
  5
2B4
100
AcDbEntity
  8
0
100
AcDbLine
 62
7
  6
CONTINUOUS
 10
134.9192126766
 20
133.9314914262
 11
134.9280213266
 21
133.9314914262
  0
LINE
  5
2B5
100
AcDbEntity
  8
0
100
AcDbLine
 62
7
  6
CONTINUOUS
 10
135.0608946881
 20
133.9314914262
 11
135.0697033382
 21
133.9314914262
  0
LINE
  5
2B6
100
AcDbEntity
  8
0
100
AcDbLine
 62
7
  6
CONTINUOUS
 10
129.4052027737
 20
133.9395196072
 11
129.4118463534
 21
133.9395196072
  0
LINE
  5
2B7
100
AcDbEntity
  8
0
100
AcDbLine
 62
7
  6
CONTINUOUS
 10
129.5468847852
 20
133.9395196072
 11
129.5535283649
 21
133.9395196072
  0
LINE
  5
2B8
100
AcDbEntity
  8
0
100
AcDbLine
 62
7
  6
CONTINUOUS
 10
129.6885667967
 20
133.9395196072
 11
129.6952103764
 21
133.9395196072
  0
LINE
  5
2B9
100
AcDbEntity
  8
0
100
AcDbLine
 62
7
  6
CONTINUOUS
 10
129.8302488082
 20
133.9395196072
 11
129.8368923879
 21
133.9395196072
  0
LINE
  5
2BA
100
AcDbEntity
  8
0
100
AcDbLine
 62
7
  6
CONTINUOUS
 10
129.9719308198
 20
133.9395196072
 11
129.9785743995
 21
133.9395196072
  0
LINE
  5
2BB
100
AcDbEntity
  8
0
100
AcDbLine
 62
7
  6
CONTINUOUS
 10
130.1136128313
 20
133.9395196072
 11
130.120256411
 21
133.9395196072
  0
LINE
  5
2BC
100
AcDbEntity
  8
0
100
AcDbLine
 62
7
  6
CONTINUOUS
 10
130.2552948428
 20
133.9395196072
 11
130.2619384225
 21
133.9395196072
  0
LINE
  5
2BD
100
AcDbEntity
  8
0
100
AcDbLine
 62
7
  6
CONTINUOUS
 10
130.3969768543
 20
133.9395196072
 11
130.403620434
 21
133.9395196072
  0
LINE
  5
2BE
100
AcDbEntity
  8
0
100
AcDbLine
 62
7
  6
CONTINUOUS
 10
130.5386588659
 20
133.9395196072
 11
130.5453024456
 21
133.9395196072
  0
LINE
  5
2BF
100
AcDbEntity
  8
0
100
AcDbLine
 62
7
  6
CONTINUOUS
 10
130.6803408774
 20
133.9395196072
 11
130.6869844571
 21
133.9395196072
  0
LINE
  5
2C0
100
AcDbEntity
  8
0
100
AcDbLine
 62
7
  6
CONTINUOUS
 10
137.9572639417
 20
134.4185972795
 11
137.9660725918
 21
134.4185972795
  0
LINE
  5
2C1
100
AcDbEntity
  8
0
100
AcDbLine
 62
7
  6
CONTINUOUS
 10
138.0989459533
 20
134.4185972795
 11
138.1077546033
 21
134.4185972795
  0
LINE
  5
2C2
100
AcDbEntity
  8
0
100
AcDbLine
 62
7
  6
CONTINUOUS
 10
138.2406279648
 20
134.4185972795
 11
138.2494366149
 21
134.4185972795
  0
LINE
  5
2C3
100
AcDbEntity
  8
0
100
AcDbLine
 62
7
  6
CONTINUOUS
 10
138.3823099763
 20
134.4185972795
 11
138.3911186264
 21
134.4185972795
  0
LINE
  5
2C4
100
AcDbEntity
  8
0
100
AcDbLine
 62
7
  6
CONTINUOUS
 10
138.5239919878
 20
134.4185972795
 11
138.5328006379
 21
134.4185972795
  0
LINE
  5
2C5
100
AcDbEntity
  8
0
100
AcDbLine
 62
7
  6
CONTINUOUS
 10
132.8683000734
 20
134.4266254605
 11
132.8749436531
 21
134.4266254605
  0
LINE
  5
2C6
100
AcDbEntity
  8
0
100
AcDbLine
 62
7
  6
CONTINUOUS
 10
133.0099820849
 20
134.4266254605
 11
133.0166256646
 21
134.4266254605
  0
LINE
  5
2C7
100
AcDbEntity
  8
0
100
AcDbLine
 62
7
  6
CONTINUOUS
 10
133.1516640965
 20
134.4266254605
 11
133.1583076762
 21
134.4266254605
  0
LINE
  5
2C8
100
AcDbEntity
  8
0
100
AcDbLine
 62
7
  6
CONTINUOUS
 10
133.293346108
 20
134.4266254605
 11
133.2999896877
 21
134.4266254605
  0
LINE
  5
2C9
100
AcDbEntity
  8
0
100
AcDbLine
 62
7
  6
CONTINUOUS
 10
133.4350281195
 20
134.4266254605
 11
133.4416716992
 21
134.4266254605
  0
LINE
  5
2CA
100
AcDbEntity
  8
0
100
AcDbLine
 62
7
  6
CONTINUOUS
 10
133.576710131
 20
134.4266254605
 11
133.5833537107
 21
134.4266254605
  0
LINE
  5
2CB
100
AcDbEntity
  8
0
100
AcDbLine
 62
7
  6
CONTINUOUS
 10
133.7183921426
 20
134.4266254605
 11
133.7250357223
 21
134.4266254605
  0
LINE
  5
2CC
100
AcDbEntity
  8
0
100
AcDbLine
 62
7
  6
CONTINUOUS
 10
133.8600741541
 20
134.4266254605
 11
133.8667177338
 21
134.4266254605
  0
LINE
  5
2CD
100
AcDbEntity
  8
0
100
AcDbLine
 62
7
  6
CONTINUOUS
 10
134.0017561656
 20
134.4266254605
 11
134.0083997453
 21
134.4266254605
  0
LINE
  5
2CE
100
AcDbEntity
  8
0
100
AcDbLine
 62
7
  6
CONTINUOUS
 10
134.1434381771
 20
134.4266254605
 11
134.1500817568
 21
134.4266254605
  0
LINE
  5
2CF
100
AcDbEntity
  8
0
100
AcDbLine
 62
7
  6
CONTINUOUS
 10
141.4203612415
 20
134.9057031329
 11
141.4291698916
 21
134.9057031329
  0
LINE
  5
2D0
100
AcDbEntity
  8
0
100
AcDbLine
 62
7
  6
CONTINUOUS
 10
141.562043253
 20
134.9057031329
 11
141.5708519031
 21
134.9057031329
  0
LINE
  5
2D1
100
AcDbEntity
  8
0
100
AcDbLine
 62
7
  6
CONTINUOUS
 10
141.7037252645
 20
134.9057031329
 11
141.7125339146
 21
134.9057031329
  0
LINE
  5
2D2
100
AcDbEntity
  8
0
100
AcDbLine
 62
7
  6
CONTINUOUS
 10
141.8454072761
 20
134.9057031329
 11
141.8542159261
 21
134.9057031329
  0
LINE
  5
2D3
100
AcDbEntity
  8
0
100
AcDbLine
 62
7
  6
CONTINUOUS
 10
141.9870892876
 20
134.9057031329
 11
141.9958979377
 21
134.9057031329
  0
LINE
  5
2D4
100
AcDbEntity
  8
0
100
AcDbLine
 62
7
  6
CONTINUOUS
 10
136.3313973732
 20
134.9137313139
 11
136.3380409529
 21
134.9137313139
  0
LINE
  5
2D5
100
AcDbEntity
  8
0
100
AcDbLine
 62
7
  6
CONTINUOUS
 10
136.4730793847
 20
134.9137313139
 11
136.4797229644
 21
134.9137313139
  0
LINE
  5
2D6
100
AcDbEntity
  8
0
100
AcDbLine
 62
7
  6
CONTINUOUS
 10
136.6147613962
 20
134.9137313139
 11
136.6214049759
 21
134.9137313139
  0
LINE
  5
2D7
100
AcDbEntity
  8
0
100
AcDbLine
 62
7
  6
CONTINUOUS
 10
136.7564434077
 20
134.9137313139
 11
136.7630869874
 21
134.9137313139
  0
LINE
  5
2D8
100
AcDbEntity
  8
0
100
AcDbLine
 62
7
  6
CONTINUOUS
 10
136.8981254193
 20
134.9137313139
 11
136.904768999
 21
134.9137313139
  0
LINE
  5
2D9
100
AcDbEntity
  8
0
100
AcDbLine
 62
7
  6
CONTINUOUS
 10
137.0398074308
 20
134.9137313139
 11
137.0464510105
 21
134.9137313139
  0
LINE
  5
2DA
100
AcDbEntity
  8
0
100
AcDbLine
 62
7
  6
CONTINUOUS
 10
137.1814894423
 20
134.9137313139
 11
137.188133022
 21
134.9137313139
  0
LINE
  5
2DB
100
AcDbEntity
  8
0
100
AcDbLine
 62
7
  6
CONTINUOUS
 10
137.3231714539
 20
134.9137313139
 11
137.3298150335
 21
134.9137313139
  0
LINE
  5
2DC
100
AcDbEntity
  8
0
100
AcDbLine
 62
7
  6
CONTINUOUS
 10
137.4648534654
 20
134.9137313139
 11
137.4714970451
 21
134.9137313139
  0
LINE
  5
2DD
100
AcDbEntity
  8
0
100
AcDbLine
 62
7
  6
CONTINUOUS
 10
137.6065354769
 20
134.9137313139
 11
137.6131790566
 21
134.9137313139
  0
LINE
  5
2DE
100
AcDbEntity
  8
0
100
AcDbLine
 62
7
  6
CONTINUOUS
 10
139.7944946729
 20
135.4008371672
 11
139.8011382526
 21
135.4008371672
  0
LINE
  5
2DF
100
AcDbEntity
  8
0
100
AcDbLine
 62
7
  6
CONTINUOUS
 10
139.9361766844
 20
135.4008371672
 11
139.9428202641
 21
135.4008371672
  0
LINE
  5
2E0
100
AcDbEntity
  8
0
100
AcDbLine
 62
7
  6
CONTINUOUS
 10
140.077858696
 20
135.4008371672
 11
140.0845022757
 21
135.4008371672
  0
LINE
  5
2E1
100
AcDbEntity
  8
0
100
AcDbLine
 62
7
  6
CONTINUOUS
 10
140.2195407075
 20
135.4008371672
 11
140.2261842872
 21
135.4008371672
  0
LINE
  5
2E2
100
AcDbEntity
  8
0
100
AcDbLine
 62
7
  6
CONTINUOUS
 10
140.361222719
 20
135.4008371672
 11
140.3678662987
 21
135.4008371672
  0
LINE
  5
2E3
100
AcDbEntity
  8
0
100
AcDbLine
 62
7
  6
CONTINUOUS
 10
140.5029047306
 20
135.4008371672
 11
140.5095483102
 21
135.4008371672
  0
LINE
  5
2E4
100
AcDbEntity
  8
0
100
AcDbLine
 62
7
  6
CONTINUOUS
 10
140.6445867421
 20
135.4008371672
 11
140.6512303218
 21
135.4008371672
  0
LINE
  5
2E5
100
AcDbEntity
  8
0
100
AcDbLine
 62
7
  6
CONTINUOUS
 10
140.7862687536
 20
135.4008371672
 11
140.7929123333
 21
135.4008371672
  0
LINE
  5
2E6
100
AcDbEntity
  8
0
100
AcDbLine
 62
7
  6
CONTINUOUS
 10
140.9279507651
 20
135.4008371672
 11
140.9345943448
 21
135.4008371672
  0
LINE
  5
2E7
100
AcDbEntity
  8
0
100
AcDbLine
 62
7
  6
CONTINUOUS
 10
141.0696327767
 20
135.4008371672
 11
141.0762763564
 21
135.4008371672
  0
LINE
  5
2E8
100
AcDbEntity
  8
0
100
AcDbLine
 62
7
  6
CONTINUOUS
 10
155.6921464437
 20
137.3177529859
 11
156.1056326447
 21
137.3177529859
  0
LINE
  5
2E9
100
AcDbEntity
  8
0
100
AcDbLine
 62
7
  6
CONTINUOUS
 10
157.040525554
 20
138.1177529859
 11
155.9386126106
 21
138.1177529859
  0
LINE
  5
2EA
100
AcDbEntity
  8
0
100
AcDbLine
 62
7
  6
CONTINUOUS
 10
108.9349908744
 20
130.0785649975
 11
108.6456026068
 21
130.0359183641
  0
LINE
  5
2EB
100
AcDbEntity
  8
0
100
AcDbLine
 62
7
  6
CONTINUOUS
 10
109.2914607075
 20
130.1306120236
 11
108.9349908744
 21
130.0785649975
  0
LINE
  5
2EC
100
AcDbEntity
  8
0
100
AcDbLine
 62
7
  6
CONTINUOUS
 10
109.4455168782
 20
130.1529354542
 11
108.9502611699
 21
130.0807462793
  0
LINE
  5
2ED
100
AcDbEntity
  8
0
100
AcDbLine
 62
7
  6
CONTINUOUS
 10
109.7252865329
 20
130.1934334677
 11
109.2914607075
 21
130.1306120236
  0
LINE
  5
2EE
100
AcDbEntity
  8
0
100
AcDbLine
 62
7
  6
CONTINUOUS
 10
110.0079877997
 20
130.2340962458
 11
109.4455168782
 21
130.1529354542
  0
LINE
  5
2EF
100
AcDbEntity
  8
0
100
AcDbLine
 62
7
  6
CONTINUOUS
 10
109.80759025
 20
130.2025915318
 11
110.3207669017
 21
130.2764844723
  0
LINE
  5
2F0
100
AcDbEntity
  8
0
100
AcDbLine
 62
7
  6
CONTINUOUS
 10
109.9743851618
 20
130.2293017712
 11
109.7252865329
 21
130.1934334677
  0
LINE
  5
2F1
100
AcDbEntity
  8
0
100
AcDbLine
 62
7
  6
CONTINUOUS
 10
110.3221908693
 20
130.2791445059
 11
110.0079877997
 21
130.2340962458
  0
LINE
  5
2F2
100
AcDbEntity
  8
0
100
AcDbLine
 62
7
  6
CONTINUOUS
 10
110.3269751415
 20
130.2798601237
 11
109.9743851618
 21
130.2293017712
  0
LINE
  5
2F3
100
AcDbEntity
  8
0
100
AcDbLine
 62
7
  6
CONTINUOUS
 10
144.6260030908
 20
135.5916517046
 11
148.0212157752
 21
136.0692091709
  0
LINE
  5
2F4
100
AcDbEntity
  8
0
100
AcDbLine
 62
7
  6
CONTINUOUS
 10
114.9300000851
 20
131.5039903404
 11
116.9089128278
 21
131.7823365423
  0
LINE
  5
2F5
100
AcDbEntity
  8
0
100
AcDbLine
 62
7
  6
CONTINUOUS
 10
118.3930973849
 20
131.9910961937
 11
120.3720101276
 21
132.2694423956
  0
LINE
  5
2F6
100
AcDbEntity
  8
0
100
AcDbLine
 62
7
  6
CONTINUOUS
 10
121.8561946846
 20
132.4782020471
 11
123.8351074273
 21
132.756548249
  0
LINE
  5
2F7
100
AcDbEntity
  8
0
100
AcDbLine
 62
7
  6
CONTINUOUS
 10
125.3192919844
 20
132.9653079004
 11
127.2982047271
 21
133.2436541024
  0
LINE
  5
2F8
100
AcDbEntity
  8
0
100
AcDbLine
 62
7
  6
CONTINUOUS
 10
128.7823892841
 20
133.4524137538
 11
130.7613020268
 21
133.7307599557
  0
LINE
  5
2F9
100
AcDbEntity
  8
0
100
AcDbLine
 62
7
  6
CONTINUOUS
 10
132.2454865839
 20
133.9395196072
 11
134.2243993266
 21
134.2178658091
  0
LINE
  5
2FA
100
AcDbEntity
  8
0
100
AcDbLine
 62
7
  6
CONTINUOUS
 10
135.7085838836
 20
134.4266254605
 11
137.6874966263
 21
134.7049716624
  0
LINE
  5
2FB
100
AcDbEntity
  8
0
100
AcDbLine
 62
7
  6
CONTINUOUS
 10
139.1716811834
 20
134.9137313139
 11
141.1505939261
 21
135.1920775158
  0
LINE
  5
2FC
100
AcDbEntity
  8
0
100
AcDbLine
 62
7
  6
CONTINUOUS
 10
142.6347784831
 20
135.4008371672
 11
144.6136912259
 21
135.6791833692
  0
LINE
  5
2FD
100
AcDbEntity
  8
0
100
AcDbLine
 62
6
  6
CONTINUOUS
 10
170.415638666
 20
747.0576702632
 11
169.0368454705
 21
744.6695303955
  0
LINE
  5
2FE
100
AcDbEntity
  8
0
100
AcDbLine
 62
7
  6
CONTINUOUS
 10
106.7205318877
 20
126.0633708192
 11
106.435249461
 21
128.0949259742
  0
LINE
  5
2FF
100
AcDbEntity
  8
0
100
AcDbLine
 62
7
  6
CONTINUOUS
 10
109.3548153202
 20
128.0942547559
 11
109.6393881221
 21
126.0677529859
  0
LINE
  5
300
100
AcDbEntity
  8
0
100
AcDbLine
 62
7
  6
CONTINUOUS
 10
112.1658893667
 20
131.008856306
 11
112.0963598546
 21
131.5039903404
  0
LINE
  5
301
100
AcDbEntity
  8
0
100
AcDbLine
 62
7
  6
CONTINUOUS
 10
112.3075713783
 20
131.008856306
 11
112.2380418661
 21
131.5039903404
  0
LINE
  5
302
100
AcDbEntity
  8
0
100
AcDbLine
 62
7
  6
CONTINUOUS
 10
112.4492533898
 20
131.008856306
 11
112.3797238776
 21
131.5039903404
  0
LINE
  5
303
100
AcDbEntity
  8
0
100
AcDbLine
 62
7
  6
CONTINUOUS
 10
112.5909354013
 20
131.008856306
 11
112.5214058892
 21
131.5039903404
  0
LINE
  5
304
100
AcDbEntity
  8
0
100
AcDbLine
 62
7
  6
CONTINUOUS
 10
112.7326174128
 20
131.008856306
 11
112.6630879007
 21
131.5039903404
  0
LINE
  5
305
100
AcDbEntity
  8
0
100
AcDbLine
 62
7
  6
CONTINUOUS
 10
112.8742994244
 20
131.008856306
 11
112.8047699122
 21
131.5039903404
  0
LINE
  5
306
100
AcDbEntity
  8
0
100
AcDbLine
 62
7
  6
CONTINUOUS
 10
113.0159814359
 20
131.008856306
 11
112.9464519237
 21
131.5039903404
  0
LINE
  5
307
100
AcDbEntity
  8
0
100
AcDbLine
 62
7
  6
CONTINUOUS
 10
113.1576634474
 20
131.008856306
 11
113.0881339353
 21
131.5039903404
  0
LINE
  5
308
100
AcDbEntity
  8
0
100
AcDbLine
 62
7
  6
CONTINUOUS
 10
113.299345459
 20
131.008856306
 11
113.2298159468
 21
131.5039903404
  0
LINE
  5
309
100
AcDbEntity
  8
0
100
AcDbLine
 62
7
  6
CONTINUOUS
 10
113.4410274705
 20
131.008856306
 11
113.3714979583
 21
131.5039903404
  0
LINE
  5
30A
100
AcDbEntity
  8
0
100
AcDbLine
 62
7
  6
CONTINUOUS
 10
113.582709482
 20
131.008856306
 11
113.5131799698
 21
131.5039903404
  0
LINE
  5
30B
100
AcDbEntity
  8
0
100
AcDbLine
 62
7
  6
CONTINUOUS
 10
113.7243914935
 20
131.008856306
 11
113.6548619814
 21
131.5039903404
  0
LINE
  5
30C
100
AcDbEntity
  8
0
100
AcDbLine
 62
7
  6
CONTINUOUS
 10
113.8660735051
 20
131.008856306
 11
113.7965439929
 21
131.5039903404
  0
LINE
  5
30D
100
AcDbEntity
  8
0
100
AcDbLine
 62
7
  6
CONTINUOUS
 10
114.0077555166
 20
131.008856306
 11
113.9382260044
 21
131.5039903404
  0
LINE
  5
30E
100
AcDbEntity
  8
0
100
AcDbLine
 62
7
  6
CONTINUOUS
 10
114.1494375281
 20
131.008856306
 11
114.0799080159
 21
131.5039903404
  0
LINE
  5
30F
100
AcDbEntity
  8
0
100
AcDbLine
 62
7
  6
CONTINUOUS
 10
114.2911195396
 20
131.008856306
 11
114.2215900275
 21
131.5039903404
  0
LINE
  5
310
100
AcDbEntity
  8
0
100
AcDbLine
 62
7
  6
CONTINUOUS
 10
114.4328015512
 20
131.008856306
 11
114.363272039
 21
131.5039903404
  0
LINE
  5
311
100
AcDbEntity
  8
0
100
AcDbLine
 62
7
  6
CONTINUOUS
 10
114.5744835627
 20
131.008856306
 11
114.5049540505
 21
131.5039903404
  0
LINE
  5
312
100
AcDbEntity
  8
0
100
AcDbLine
 62
7
  6
CONTINUOUS
 10
114.7161655742
 20
131.008856306
 11
114.646636062
 21
131.5039903404
  0
LINE
  5
313
100
AcDbEntity
  8
0
100
AcDbLine
 62
7
  6
CONTINUOUS
 10
114.8578475857
 20
131.008856306
 11
114.7883180736
 21
131.5039903404
  0
LINE
  5
314
100
AcDbEntity
  8
0
100
AcDbLine
 62
7
  6
CONTINUOUS
 10
114.9995295973
 20
131.008856306
 11
114.9300000851
 21
131.5039903404
  0
LINE
  5
315
100
AcDbEntity
  8
0
100
AcDbLine
 62
7
  6
CONTINUOUS
 10
115.9362706267
 20
126.0677529859
 11
115.5344369967
 21
128.9292933616
  0
LINE
  5
316
100
AcDbEntity
  8
0
100
AcDbLine
 62
7
  6
CONTINUOUS
 10
115.5786832165
 20
131.8541834291
 11
115.5594571543
 21
131.9910961937
  0
LINE
  5
317
100
AcDbEntity
  8
0
100
AcDbLine
 62
7
  6
CONTINUOUS
 10
115.720365228
 20
131.8541834291
 11
115.7011391659
 21
131.9910961937
  0
LINE
  5
318
100
AcDbEntity
  8
0
100
AcDbLine
 62
7
  6
CONTINUOUS
 10
115.8620472396
 20
131.8541834291
 11
115.8428211774
 21
131.9910961937
  0
LINE
  5
319
100
AcDbEntity
  8
0
100
AcDbLine
 62
7
  6
CONTINUOUS
 10
116.0037292511
 20
131.8541834291
 11
115.9845031889
 21
131.9910961937
  0
LINE
  5
31A
100
AcDbEntity
  8
0
100
AcDbLine
 62
7
  6
CONTINUOUS
 10
116.1454112626
 20
131.8541834291
 11
116.1261852004
 21
131.9910961937
  0
LINE
  5
31B
100
AcDbEntity
  8
0
100
AcDbLine
 62
7
  6
CONTINUOUS
 10
116.2870932741
 20
131.8541834291
 11
116.267867212
 21
131.9910961937
  0
LINE
  5
31C
100
AcDbEntity
  8
0
100
AcDbLine
 62
7
  6
CONTINUOUS
 10
116.4287752857
 20
131.8541834291
 11
116.4095492235
 21
131.9910961937
  0
LINE
  5
31D
100
AcDbEntity
  8
0
100
AcDbLine
 62
7
  6
CONTINUOUS
 10
116.5704572972
 20
131.8541834291
 11
116.551231235
 21
131.9910961937
  0
LINE
  5
31E
100
AcDbEntity
  8
0
100
AcDbLine
 62
7
  6
CONTINUOUS
 10
116.7121393087
 20
131.8541834291
 11
116.6929132465
 21
131.9910961937
  0
LINE
  5
31F
100
AcDbEntity
  8
0
100
AcDbLine
 62
7
  6
CONTINUOUS
 10
116.8538213203
 20
131.8541834291
 11
116.8345952581
 21
131.9910961937
  0
LINE
  5
320
100
AcDbEntity
  8
0
100
AcDbLine
 62
7
  6
CONTINUOUS
 10
116.97844234
 20
131.2872025079
 11
116.9089128278
 21
131.7823365423
  0
LINE
  5
321
100
AcDbEntity
  8
0
100
AcDbLine
 62
7
  6
CONTINUOUS
 10
116.9955033318
 20
131.8541834291
 11
116.9762772696
 21
131.9910961937
  0
LINE
  5
322
100
AcDbEntity
  8
0
100
AcDbLine
 62
7
  6
CONTINUOUS
 10
117.1874887933
 20
131.4959621594
 11
117.1179592811
 21
131.9910961937
  0
LINE
  5
323
100
AcDbEntity
  8
0
100
AcDbLine
 62
7
  6
CONTINUOUS
 10
117.3291708048
 20
131.4959621594
 11
117.2596412926
 21
131.9910961937
  0
LINE
  5
324
100
AcDbEntity
  8
0
100
AcDbLine
 62
7
  6
CONTINUOUS
 10
117.4708528163
 20
131.4959621594
 11
117.4013233042
 21
131.9910961937
  0
LINE
  5
325
100
AcDbEntity
  8
0
100
AcDbLine
 62
7
  6
CONTINUOUS
 10
117.6125348279
 20
131.4959621594
 11
117.5430053157
 21
131.9910961937
  0
LINE
  5
326
100
AcDbEntity
  8
0
100
AcDbLine
 62
7
  6
CONTINUOUS
 10
117.7542168394
 20
131.4959621594
 11
117.6846873272
 21
131.9910961937
  0
LINE
  5
327
100
AcDbEntity
  8
0
100
AcDbLine
 62
7
  6
CONTINUOUS
 10
117.8958988509
 20
131.4959621594
 11
117.8263693388
 21
131.9910961937
  0
LINE
  5
328
100
AcDbEntity
  8
0
100
AcDbLine
 62
7
  6
CONTINUOUS
 10
118.0375808624
 20
131.4959621594
 11
117.9680513503
 21
131.9910961937
  0
LINE
  5
329
100
AcDbEntity
  8
0
100
AcDbLine
 62
7
  6
CONTINUOUS
 10
118.179262874
 20
131.4959621594
 11
118.1097333618
 21
131.9910961937
  0
LINE
  5
32A
100
AcDbEntity
  8
0
100
AcDbLine
 62
7
  6
CONTINUOUS
 10
118.3209448855
 20
131.4959621594
 11
118.2514153733
 21
131.9910961937
  0
LINE
  5
32B
100
AcDbEntity
  8
0
100
AcDbLine
 62
7
  6
CONTINUOUS
 10
118.462626897
 20
131.4959621594
 11
118.3930973849
 21
131.9910961937
  0
LINE
  5
32C
100
AcDbEntity
  8
0
100
AcDbLine
 62
7
  6
CONTINUOUS
 10
119.0417805163
 20
132.3412892825
 11
119.0225544541
 21
132.4782020471
  0
LINE
  5
32D
100
AcDbEntity
  8
0
100
AcDbLine
 62
7
  6
CONTINUOUS
 10
119.1834625278
 20
132.3412892825
 11
119.1642364656
 21
132.4782020471
  0
LINE
  5
32E
100
AcDbEntity
  8
0
100
AcDbLine
 62
7
  6
CONTINUOUS
 10
119.3251445393
 20
132.3412892825
 11
119.3059184771
 21
132.4782020471
  0
LINE
  5
32F
100
AcDbEntity
  8
0
100
AcDbLine
 62
7
  6
CONTINUOUS
 10
119.4668265508
 20
132.3412892825
 11
119.4476004887
 21
132.4782020471
  0
LINE
  5
330
100
AcDbEntity
  8
0
100
AcDbLine
 62
7
  6
CONTINUOUS
 10
119.6085085624
 20
132.3412892825
 11
119.5892825002
 21
132.4782020471
  0
LINE
  5
331
100
AcDbEntity
  8
0
100
AcDbLine
 62
7
  6
CONTINUOUS
 10
120.5875446594
 20
126.0677529859
 11
120.7900223069
 21
124.6258677871
  0
LINE
  5
332
100
AcDbEntity
  8
0
100
AcDbLine
 62
7
  6
CONTINUOUS
 10
119.7501905739
 20
132.3412892825
 11
119.7309645117
 21
132.4782020471
  0
LINE
  5
333
100
AcDbEntity
  8
0
100
AcDbLine
 62
7
  6
CONTINUOUS
 10
119.8918725854
 20
132.3412892825
 11
119.8726465232
 21
132.4782020471
  0
LINE
  5
334
100
AcDbEntity
  8
0
100
AcDbLine
 62
7
  6
CONTINUOUS
 10
120.033554597
 20
132.3412892825
 11
120.0143285348
 21
132.4782020471
  0
LINE
  5
335
100
AcDbEntity
  8
0
100
AcDbLine
 62
7
  6
CONTINUOUS
 10
120.1752366085
 20
132.3412892825
 11
120.1560105463
 21
132.4782020471
  0
LINE
  5
336
100
AcDbEntity
  8
0
100
AcDbLine
 62
7
  6
CONTINUOUS
 10
120.31691862
 20
132.3412892825
 11
120.2976925578
 21
132.4782020471
  0
LINE
  5
337
100
AcDbEntity
  8
0
100
AcDbLine
 62
7
  6
CONTINUOUS
 10
120.4415396397
 20
131.7743083613
 11
120.3720101276
 21
132.2694423956
  0
LINE
  5
338
100
AcDbEntity
  8
0
100
AcDbLine
 62
7
  6
CONTINUOUS
 10
120.4586006315
 20
132.3412892825
 11
120.4393745693
 21
132.4782020471
  0
LINE
  5
339
100
AcDbEntity
  8
0
100
AcDbLine
 62
7
  6
CONTINUOUS
 10
120.650586093
 20
131.9830680127
 11
120.5810565809
 21
132.4782020471
  0
LINE
  5
33A
100
AcDbEntity
  8
0
100
AcDbLine
 62
7
  6
CONTINUOUS
 10
120.7922681046
 20
131.9830680127
 11
120.7227385924
 21
132.4782020471
  0
LINE
  5
33B
100
AcDbEntity
  8
0
100
AcDbLine
 62
7
  6
CONTINUOUS
 10
120.9339501161
 20
131.9830680127
 11
120.8644206039
 21
132.4782020471
  0
LINE
  5
33C
100
AcDbEntity
  8
0
100
AcDbLine
 62
7
  6
CONTINUOUS
 10
121.0756321276
 20
131.9830680127
 11
121.0061026155
 21
132.4782020471
  0
LINE
  5
33D
100
AcDbEntity
  8
0
100
AcDbLine
 62
7
  6
CONTINUOUS
 10
121.2173141391
 20
131.9830680127
 11
121.147784627
 21
132.4782020471
  0
LINE
  5
33E
100
AcDbEntity
  8
0
100
AcDbLine
 62
7
  6
CONTINUOUS
 10
121.3589961507
 20
131.9830680127
 11
121.2894666385
 21
132.4782020471
  0
LINE
  5
33F
100
AcDbEntity
  8
0
100
AcDbLine
 62
7
  6
CONTINUOUS
 10
121.5006781622
 20
131.9830680127
 11
121.43114865
 21
132.4782020471
  0
LINE
  5
340
100
AcDbEntity
  8
0
100
AcDbLine
 62
7
  6
CONTINUOUS
 10
121.6423601737
 20
131.9830680127
 11
121.5728306616
 21
132.4782020471
  0
LINE
  5
341
100
AcDbEntity
  8
0
100
AcDbLine
 62
7
  6
CONTINUOUS
 10
121.7840421853
 20
131.9830680127
 11
121.7145126731
 21
132.4782020471
  0
LINE
  5
342
100
AcDbEntity
  8
0
100
AcDbLine
 62
7
  6
CONTINUOUS
 10
121.9257241968
 20
131.9830680127
 11
121.8561946846
 21
132.4782020471
  0
LINE
  5
343
100
AcDbEntity
  8
0
100
AcDbLine
 62
7
  6
CONTINUOUS
 10
123.0163791427
 20
126.0677529859
 11
123.2188567902
 21
124.6258677871
  0
LINE
  5
344
100
AcDbEntity
  8
0
100
AcDbLine
 62
7
  6
CONTINUOUS
 10
122.504877816
 20
132.8283951358
 11
122.4856517538
 21
132.9653079004
  0
LINE
  5
345
100
AcDbEntity
  8
0
100
AcDbLine
 62
7
  6
CONTINUOUS
 10
122.6465598276
 20
132.8283951358
 11
122.6273337654
 21
132.9653079004
  0
LINE
  5
346
100
AcDbEntity
  8
0
100
AcDbLine
 62
7
  6
CONTINUOUS
 10
122.7882418391
 20
132.8283951358
 11
122.7690157769
 21
132.9653079004
  0
LINE
  5
347
100
AcDbEntity
  8
0
100
AcDbLine
 62
7
  6
CONTINUOUS
 10
122.9299238506
 20
132.8283951358
 11
122.9106977884
 21
132.9653079004
  0
LINE
  5
348
100
AcDbEntity
  8
0
100
AcDbLine
 62
7
  6
CONTINUOUS
 10
123.0716058621
 20
132.8283951358
 11
123.0523797999
 21
132.9653079004
  0
LINE
  5
349
100
AcDbEntity
  8
0
100
AcDbLine
 62
7
  6
CONTINUOUS
 10
123.2132878737
 20
132.8283951358
 11
123.1940618115
 21
132.9653079004
  0
LINE
  5
34A
100
AcDbEntity
  8
0
100
AcDbLine
 62
7
  6
CONTINUOUS
 10
123.3549698852
 20
132.8283951358
 11
123.335743823
 21
132.9653079004
  0
LINE
  5
34B
100
AcDbEntity
  8
0
100
AcDbLine
 62
7
  6
CONTINUOUS
 10
123.4966518967
 20
132.8283951358
 11
123.4774258345
 21
132.9653079004
  0
LINE
  5
34C
100
AcDbEntity
  8
0
100
AcDbLine
 62
7
  6
CONTINUOUS
 10
123.6383339082
 20
132.8283951358
 11
123.6191078461
 21
132.9653079004
  0
LINE
  5
34D
100
AcDbEntity
  8
0
100
AcDbLine
 62
7
  6
CONTINUOUS
 10
123.7800159198
 20
132.8283951358
 11
123.7607898576
 21
132.9653079004
  0
LINE
  5
34E
100
AcDbEntity
  8
0
100
AcDbLine
 62
7
  6
CONTINUOUS
 10
123.9046369395
 20
132.2614142146
 11
123.8351074273
 21
132.756548249
  0
LINE
  5
34F
100
AcDbEntity
  8
0
100
AcDbLine
 62
7
  6
CONTINUOUS
 10
123.9216979313
 20
132.8283951358
 11
123.9024718691
 21
132.9653079004
  0
LINE
  5
350
100
AcDbEntity
  8
0
100
AcDbLine
 62
7
  6
CONTINUOUS
 10
124.1136833928
 20
132.4701738661
 11
124.0441538806
 21
132.9653079004
  0
LINE
  5
351
100
AcDbEntity
  8
0
100
AcDbLine
 62
7
  6
CONTINUOUS
 10
124.2553654043
 20
132.4701738661
 11
124.1858358922
 21
132.9653079004
  0
LINE
  5
352
100
AcDbEntity
  8
0
100
AcDbLine
 62
7
  6
CONTINUOUS
 10
124.3970474158
 20
132.4701738661
 11
124.3275179037
 21
132.9653079004
  0
LINE
  5
353
100
AcDbEntity
  8
0
100
AcDbLine
 62
7
  6
CONTINUOUS
 10
124.5387294274
 20
132.4701738661
 11
124.4691999152
 21
132.9653079004
  0
LINE
  5
354
100
AcDbEntity
  8
0
100
AcDbLine
 62
7
  6
CONTINUOUS
 10
124.6804114389
 20
132.4701738661
 11
124.6108819267
 21
132.9653079004
  0
LINE
  5
355
100
AcDbEntity
  8
0
100
AcDbLine
 62
7
  6
CONTINUOUS
 10
124.8220934504
 20
132.4701738661
 11
124.7525639383
 21
132.9653079004
  0
LINE
  5
356
100
AcDbEntity
  8
0
100
AcDbLine
 62
7
  6
CONTINUOUS
 10
124.963775462
 20
132.4701738661
 11
124.8942459498
 21
132.9653079004
  0
LINE
  5
357
100
AcDbEntity
  8
0
100
AcDbLine
 62
7
  6
CONTINUOUS
 10
125.1054574735
 20
132.4701738661
 11
125.0359279613
 21
132.9653079004
  0
LINE
  5
358
100
AcDbEntity
  8
0
100
AcDbLine
 62
7
  6
CONTINUOUS
 10
125.247139485
 20
132.4701738661
 11
125.1776099728
 21
132.9653079004
  0
LINE
  5
359
100
AcDbEntity
  8
0
100
AcDbLine
 62
7
  6
CONTINUOUS
 10
125.3888214965
 20
132.4701738661
 11
125.3192919844
 21
132.9653079004
  0
LINE
  5
35A
100
AcDbEntity
  8
0
100
AcDbLine
 62
7
  6
CONTINUOUS
 10
125.9679751158
 20
133.3155009892
 11
125.9487490536
 21
133.4524137538
  0
LINE
  5
35B
100
AcDbEntity
  8
0
100
AcDbLine
 62
7
  6
CONTINUOUS
 10
127.0556253289
 20
126.0677529859
 11
127.1799919285
 21
125.182112712
  0
LINE
  5
35C
100
AcDbEntity
  8
0
100
AcDbLine
 62
7
  6
CONTINUOUS
 10
126.1096571273
 20
133.3155009892
 11
126.0904310651
 21
133.4524137538
  0
LINE
  5
35D
100
AcDbEntity
  8
0
100
AcDbLine
 62
7
  6
CONTINUOUS
 10
126.2513391388
 20
133.3155009892
 11
126.2321130767
 21
133.4524137538
  0
LINE
  5
35E
100
AcDbEntity
  8
0
100
AcDbLine
 62
7
  6
CONTINUOUS
 10
126.3930211504
 20
133.3155009892
 11
126.3737950882
 21
133.4524137538
  0
LINE
  5
35F
100
AcDbEntity
  8
0
100
AcDbLine
 62
7
  6
CONTINUOUS
 10
126.5347031619
 20
133.3155009892
 11
126.5154770997
 21
133.4524137538
  0
LINE
  5
360
100
AcDbEntity
  8
0
100
AcDbLine
 62
7
  6
CONTINUOUS
 10
126.6763851734
 20
133.3155009892
 11
126.6571591112
 21
133.4524137538
  0
LINE
  5
361
100
AcDbEntity
  8
0
100
AcDbLine
 62
7
  6
CONTINUOUS
 10
126.8180671849
 20
133.3155009892
 11
126.7988411228
 21
133.4524137538
  0
LINE
  5
362
100
AcDbEntity
  8
0
100
AcDbLine
 62
7
  6
CONTINUOUS
 10
126.9597491965
 20
133.3155009892
 11
126.9405231343
 21
133.4524137538
  0
LINE
  5
363
100
AcDbEntity
  8
0
100
AcDbLine
 62
7
  6
CONTINUOUS
 10
127.101431208
 20
133.3155009892
 11
127.0822051458
 21
133.4524137538
  0
LINE
  5
364
100
AcDbEntity
  8
0
100
AcDbLine
 62
7
  6
CONTINUOUS
 10
127.2431132195
 20
133.3155009892
 11
127.2238871573
 21
133.4524137538
  0
LINE
  5
365
100
AcDbEntity
  8
0
100
AcDbLine
 62
7
  6
CONTINUOUS
 10
127.3677342392
 20
132.748520068
 11
127.2982047271
 21
133.2436541024
  0
LINE
  5
366
100
AcDbEntity
  8
0
100
AcDbLine
 62
7
  6
CONTINUOUS
 10
127.384795231
 20
133.3155009892
 11
127.3655691689
 21
133.4524137538
  0
LINE
  5
367
100
AcDbEntity
  8
0
100
AcDbLine
 62
7
  6
CONTINUOUS
 10
127.5767806926
 20
132.9572797194
 11
127.5072511804
 21
133.4524137538
  0
LINE
  5
368
100
AcDbEntity
  8
0
100
AcDbLine
 62
7
  6
CONTINUOUS
 10
127.7184627041
 20
132.9572797194
 11
127.6489331919
 21
133.4524137538
  0
LINE
  5
369
100
AcDbEntity
  8
0
100
AcDbLine
 62
7
  6
CONTINUOUS
 10
127.8601447156
 20
132.9572797194
 11
127.7906152034
 21
133.4524137538
  0
LINE
  5
36A
100
AcDbEntity
  8
0
100
AcDbLine
 62
7
  6
CONTINUOUS
 10
128.0018267271
 20
132.9572797194
 11
127.932297215
 21
133.4524137538
  0
LINE
  5
36B
100
AcDbEntity
  8
0
100
AcDbLine
 62
7
  6
CONTINUOUS
 10
128.1435087387
 20
132.9572797194
 11
128.0739792265
 21
133.4524137538
  0
LINE
  5
36C
100
AcDbEntity
  8
0
100
AcDbLine
 62
7
  6
CONTINUOUS
 10
128.2851907502
 20
132.9572797194
 11
128.215661238
 21
133.4524137538
  0
LINE
  5
36D
100
AcDbEntity
  8
0
100
AcDbLine
 62
7
  6
CONTINUOUS
 10
128.4268727617
 20
132.9572797194
 11
128.3573432495
 21
133.4524137538
  0
LINE
  5
36E
100
AcDbEntity
  8
0
100
AcDbLine
 62
7
  6
CONTINUOUS
 10
128.5685547732
 20
132.9572797194
 11
128.4990252611
 21
133.4524137538
  0
LINE
  5
36F
100
AcDbEntity
  8
0
100
AcDbLine
 62
7
  6
CONTINUOUS
 10
128.7102367848
 20
132.9572797194
 11
128.6407072726
 21
133.4524137538
  0
LINE
  5
370
100
AcDbEntity
  8
0
100
AcDbLine
 62
7
  6
CONTINUOUS
 10
128.8519187963
 20
132.9572797194
 11
128.7823892841
 21
133.4524137538
  0
LINE
  5
371
100
AcDbEntity
  8
0
100
AcDbLine
 62
7
  6
CONTINUOUS
 10
129.4310724155
 20
133.8026068425
 11
129.4118463534
 21
133.9395196072
  0
LINE
  5
372
100
AcDbEntity
  8
0
100
AcDbLine
 62
7
  6
CONTINUOUS
 10
129.5727544271
 20
133.8026068425
 11
129.5535283649
 21
133.9395196072
  0
LINE
  5
373
100
AcDbEntity
  8
0
100
AcDbLine
 62
7
  6
CONTINUOUS
 10
129.7144364386
 20
133.8026068425
 11
129.6952103764
 21
133.9395196072
  0
LINE
  5
374
100
AcDbEntity
  8
0
100
AcDbLine
 62
7
  6
CONTINUOUS
 10
129.8561184501
 20
133.8026068425
 11
129.8368923879
 21
133.9395196072
  0
LINE
  5
375
100
AcDbEntity
  8
0
100
AcDbLine
 62
7
  6
CONTINUOUS
 10
129.9978004616
 20
133.8026068425
 11
129.9785743995
 21
133.9395196072
  0
LINE
  5
376
100
AcDbEntity
  8
0
100
AcDbLine
 62
7
  6
CONTINUOUS
 10
130.1394824732
 20
133.8026068425
 11
130.120256411
 21
133.9395196072
  0
LINE
  5
377
100
AcDbEntity
  8
0
100
AcDbLine
 62
7
  6
CONTINUOUS
 10
130.2811644847
 20
133.8026068425
 11
130.2619384225
 21
133.9395196072
  0
LINE
  5
378
100
AcDbEntity
  8
0
100
AcDbLine
 62
7
  6
CONTINUOUS
 10
130.4228464962
 20
133.8026068425
 11
130.403620434
 21
133.9395196072
  0
LINE
  5
379
100
AcDbEntity
  8
0
100
AcDbLine
 62
7
  6
CONTINUOUS
 10
130.5645285077
 20
133.8026068425
 11
130.5453024456
 21
133.9395196072
  0
LINE
  5
37A
100
AcDbEntity
  8
0
100
AcDbLine
 62
7
  6
CONTINUOUS
 10
130.7062105193
 20
133.8026068425
 11
130.6869844571
 21
133.9395196072
  0
LINE
  5
37B
100
AcDbEntity
  8
0
100
AcDbLine
 62
7
  6
CONTINUOUS
 10
130.830831539
 20
133.2356259214
 11
130.7613020268
 21
133.7307599557
  0
LINE
  5
37C
100
AcDbEntity
  8
0
100
AcDbLine
 62
7
  6
CONTINUOUS
 10
130.8478925308
 20
133.8026068425
 11
130.8286664686
 21
133.9395196072
  0
LINE
  5
37D
100
AcDbEntity
  8
0
100
AcDbLine
 62
7
  6
CONTINUOUS
 10
131.0398779923
 20
133.4443855728
 11
130.9703484801
 21
133.9395196072
  0
LINE
  5
37E
100
AcDbEntity
  8
0
100
AcDbLine
 62
7
  6
CONTINUOUS
 10
131.1815600038
 20
133.4443855728
 11
131.1120304917
 21
133.9395196072
  0
LINE
  5
37F
100
AcDbEntity
  8
0
100
AcDbLine
 62
7
  6
CONTINUOUS
 10
131.3232420154
 20
133.4443855728
 11
131.2537125032
 21
133.9395196072
  0
LINE
  5
380
100
AcDbEntity
  8
0
100
AcDbLine
 62
7
  6
CONTINUOUS
 10
131.4649240269
 20
133.4443855728
 11
131.3953945147
 21
133.9395196072
  0
LINE
  5
381
100
AcDbEntity
  8
0
100
AcDbLine
 62
7
  6
CONTINUOUS
 10
131.6066060384
 20
133.4443855728
 11
131.5370765262
 21
133.9395196072
  0
LINE
  5
382
100
AcDbEntity
  8
0
100
AcDbLine
 62
7
  6
CONTINUOUS
 10
131.7482880499
 20
133.4443855728
 11
131.6787585378
 21
133.9395196072
  0
LINE
  5
383
100
AcDbEntity
  8
0
100
AcDbLine
 62
7
  6
CONTINUOUS
 10
131.8899700615
 20
133.4443855728
 11
131.8204405493
 21
133.9395196072
  0
LINE
  5
384
100
AcDbEntity
  8
0
100
AcDbLine
 62
7
  6
CONTINUOUS
 10
132.031652073
 20
133.4443855728
 11
131.9621225608
 21
133.9395196072
  0
LINE
  5
385
100
AcDbEntity
  8
0
100
AcDbLine
 62
7
  6
CONTINUOUS
 10
132.1733340845
 20
133.4443855728
 11
132.1038045723
 21
133.9395196072
  0
LINE
  5
386
100
AcDbEntity
  8
0
100
AcDbLine
 62
7
  6
CONTINUOUS
 10
132.315016096
 20
133.4443855728
 11
132.2454865839
 21
133.9395196072
  0
LINE
  5
387
100
AcDbEntity
  8
0
100
AcDbLine
 62
7
  6
CONTINUOUS
 10
132.8941697153
 20
134.2897126959
 11
132.8749436531
 21
134.4266254605
  0
LINE
  5
388
100
AcDbEntity
  8
0
100
AcDbLine
 62
7
  6
CONTINUOUS
 10
133.0358517268
 20
134.2897126959
 11
133.0166256646
 21
134.4266254605
  0
LINE
  5
389
100
AcDbEntity
  8
0
100
AcDbLine
 62
7
  6
CONTINUOUS
 10
133.1775337383
 20
134.2897126959
 11
133.1583076762
 21
134.4266254605
  0
LINE
  5
38A
100
AcDbEntity
  8
0
100
AcDbLine
 62
7
  6
CONTINUOUS
 10
133.3192157499
 20
134.2897126959
 11
133.2999896877
 21
134.4266254605
  0
LINE
  5
38B
100
AcDbEntity
  8
0
100
AcDbLine
 62
7
  6
CONTINUOUS
 10
133.4608977614
 20
134.2897126959
 11
133.4416716992
 21
134.4266254605
  0
LINE
  5
38C
100
AcDbEntity
  8
0
100
AcDbLine
 62
7
  6
CONTINUOUS
 10
133.6025797729
 20
134.2897126959
 11
133.5833537107
 21
134.4266254605
  0
LINE
  5
38D
100
AcDbEntity
  8
0
100
AcDbLine
 62
7
  6
CONTINUOUS
 10
133.7442617844
 20
134.2897126959
 11
133.7250357223
 21
134.4266254605
  0
LINE
  5
38E
100
AcDbEntity
  8
0
100
AcDbLine
 62
7
  6
CONTINUOUS
 10
133.885943796
 20
134.2897126959
 11
133.8667177338
 21
134.4266254605
  0
LINE
  5
38F
100
AcDbEntity
  8
0
100
AcDbLine
 62
7
  6
CONTINUOUS
 10
134.0276258075
 20
134.2897126959
 11
134.0083997453
 21
134.4266254605
  0
LINE
  5
390
100
AcDbEntity
  8
0
100
AcDbLine
 62
7
  6
CONTINUOUS
 10
134.169307819
 20
134.2897126959
 11
134.1500817568
 21
134.4266254605
  0
LINE
  5
391
100
AcDbEntity
  8
0
100
AcDbLine
 62
7
  6
CONTINUOUS
 10
134.2939288388
 20
133.7227317747
 11
134.2243993266
 21
134.2178658091
  0
LINE
  5
392
100
AcDbEntity
  8
0
100
AcDbLine
 62
7
  6
CONTINUOUS
 10
134.3109898306
 20
134.2897126959
 11
134.2917637684
 21
134.4266254605
  0
LINE
  5
393
100
AcDbEntity
  8
0
100
AcDbLine
 62
7
  6
CONTINUOUS
 10
134.5029752921
 20
133.9314914262
 11
134.4334457799
 21
134.4266254605
  0
LINE
  5
394
100
AcDbEntity
  8
0
100
AcDbLine
 62
7
  6
CONTINUOUS
 10
134.6446573036
 20
133.9314914262
 11
134.5751277914
 21
134.4266254605
  0
LINE
  5
395
100
AcDbEntity
  8
0
100
AcDbLine
 62
7
  6
CONTINUOUS
 10
134.7863393151
 20
133.9314914262
 11
134.7168098029
 21
134.4266254605
  0
LINE
  5
396
100
AcDbEntity
  8
0
100
AcDbLine
 62
7
  6
CONTINUOUS
 10
134.9280213266
 20
133.9314914262
 11
134.8584918145
 21
134.4266254605
  0
LINE
  5
397
100
AcDbEntity
  8
0
100
AcDbLine
 62
7
  6
CONTINUOUS
 10
135.0697033382
 20
133.9314914262
 11
135.000173826
 21
134.4266254605
  0
LINE
  5
398
100
AcDbEntity
  8
0
100
AcDbLine
 62
7
  6
CONTINUOUS
 10
135.2113853497
 20
133.9314914262
 11
135.1418558375
 21
134.4266254605
  0
LINE
  5
399
100
AcDbEntity
  8
0
100
AcDbLine
 62
7
  6
CONTINUOUS
 10
135.3530673612
 20
133.9314914262
 11
135.2835378491
 21
134.4266254605
  0
LINE
  5
39A
100
AcDbEntity
  8
0
100
AcDbLine
 62
7
  6
CONTINUOUS
 10
135.4947493727
 20
133.9314914262
 11
135.4252198606
 21
134.4266254605
  0
LINE
  5
39B
100
AcDbEntity
  8
0
100
AcDbLine
 62
7
  6
CONTINUOUS
 10
135.6364313843
 20
133.9314914262
 11
135.5669018721
 21
134.4266254605
  0
LINE
  5
39C
100
AcDbEntity
  8
0
100
AcDbLine
 62
7
  6
CONTINUOUS
 10
135.7781133958
 20
133.9314914262
 11
135.7085838836
 21
134.4266254605
  0
LINE
  5
39D
100
AcDbEntity
  8
0
100
AcDbLine
 62
7
  6
CONTINUOUS
 10
136.357267015
 20
134.7768185493
 11
136.3380409529
 21
134.9137313139
  0
LINE
  5
39E
100
AcDbEntity
  8
0
100
AcDbLine
 62
7
  6
CONTINUOUS
 10
136.4989490266
 20
134.7768185493
 11
136.4797229644
 21
134.9137313139
  0
LINE
  5
39F
100
AcDbEntity
  8
0
100
AcDbLine
 62
7
  6
CONTINUOUS
 10
136.6406310381
 20
134.7768185493
 11
136.6214049759
 21
134.9137313139
  0
LINE
  5
3A0
100
AcDbEntity
  8
0
100
AcDbLine
 62
7
  6
CONTINUOUS
 10
136.7823130496
 20
134.7768185493
 11
136.7630869874
 21
134.9137313139
  0
LINE
  5
3A1
100
AcDbEntity
  8
0
100
AcDbLine
 62
7
  6
CONTINUOUS
 10
136.9239950611
 20
134.7768185493
 11
136.904768999
 21
134.9137313139
  0
LINE
  5
3A2
100
AcDbEntity
  8
0
100
AcDbLine
 62
7
  6
CONTINUOUS
 10
137.0656770727
 20
134.7768185493
 11
137.0464510105
 21
134.9137313139
  0
LINE
  5
3A3
100
AcDbEntity
  8
0
100
AcDbLine
 62
7
  6
CONTINUOUS
 10
137.2073590842
 20
134.7768185493
 11
137.188133022
 21
134.9137313139
  0
LINE
  5
3A4
100
AcDbEntity
  8
0
100
AcDbLine
 62
7
  6
CONTINUOUS
 10
137.3490410957
 20
134.7768185493
 11
137.3298150335
 21
134.9137313139
  0
LINE
  5
3A5
100
AcDbEntity
  8
0
100
AcDbLine
 62
7
  6
CONTINUOUS
 10
137.4907231073
 20
134.7768185493
 11
137.4714970451
 21
134.9137313139
  0
LINE
  5
3A6
100
AcDbEntity
  8
0
100
AcDbLine
 62
7
  6
CONTINUOUS
 10
137.6324051188
 20
134.7768185493
 11
137.6131790566
 21
134.9137313139
  0
LINE
  5
3A7
100
AcDbEntity
  8
0
100
AcDbLine
 62
7
  6
CONTINUOUS
 10
137.7570261385
 20
134.2098376281
 11
137.6874966263
 21
134.7049716624
  0
LINE
  5
3A8
100
AcDbEntity
  8
0
100
AcDbLine
 62
7
  6
CONTINUOUS
 10
137.7740871303
 20
134.7768185493
 11
137.7548610681
 21
134.9137313139
  0
LINE
  5
3A9
100
AcDbEntity
  8
0
100
AcDbLine
 62
7
  6
CONTINUOUS
 10
137.9660725918
 20
134.4185972795
 11
137.8965430796
 21
134.9137313139
  0
LINE
  5
3AA
100
AcDbEntity
  8
0
100
AcDbLine
 62
7
  6
CONTINUOUS
 10
138.1077546033
 20
134.4185972795
 11
138.0382250912
 21
134.9137313139
  0
LINE
  5
3AB
100
AcDbEntity
  8
0
100
AcDbLine
 62
7
  6
CONTINUOUS
 10
138.2494366149
 20
134.4185972795
 11
138.1799071027
 21
134.9137313139
  0
LINE
  5
3AC
100
AcDbEntity
  8
0
100
AcDbLine
 62
7
  6
CONTINUOUS
 10
138.3911186264
 20
134.4185972795
 11
138.3215891142
 21
134.9137313139
  0
LINE
  5
3AD
100
AcDbEntity
  8
0
100
AcDbLine
 62
7
  6
CONTINUOUS
 10
138.5328006379
 20
134.4185972795
 11
138.4632711258
 21
134.9137313139
  0
LINE
  5
3AE
100
AcDbEntity
  8
0
100
AcDbLine
 62
7
  6
CONTINUOUS
 10
138.6744826494
 20
134.4185972795
 11
138.6049531373
 21
134.9137313139
  0
LINE
  5
3AF
100
AcDbEntity
  8
0
100
AcDbLine
 62
7
  6
CONTINUOUS
 10
138.816164661
 20
134.4185972795
 11
138.7466351488
 21
134.9137313139
  0
LINE
  5
3B0
100
AcDbEntity
  8
0
100
AcDbLine
 62
7
  6
CONTINUOUS
 10
138.9578466725
 20
134.4185972795
 11
138.8883171603
 21
134.9137313139
  0
LINE
  5
3B1
100
AcDbEntity
  8
0
100
AcDbLine
 62
7
  6
CONTINUOUS
 10
139.099528684
 20
134.4185972795
 11
139.0299991719
 21
134.9137313139
  0
LINE
  5
3B2
100
AcDbEntity
  8
0
100
AcDbLine
 62
7
  6
CONTINUOUS
 10
139.2412106956
 20
134.4185972795
 11
139.1716811834
 21
134.9137313139
  0
LINE
  5
3B3
100
AcDbEntity
  8
0
100
AcDbLine
 62
7
  6
CONTINUOUS
 10
139.8203643148
 20
135.2639244026
 11
139.8011382526
 21
135.4008371672
  0
LINE
  5
3B4
100
AcDbEntity
  8
0
100
AcDbLine
 62
7
  6
CONTINUOUS
 10
139.9620463263
 20
135.2639244026
 11
139.9428202641
 21
135.4008371672
  0
LINE
  5
3B5
100
AcDbEntity
  8
0
100
AcDbLine
 62
7
  6
CONTINUOUS
 10
140.1037283379
 20
135.2639244026
 11
140.0845022757
 21
135.4008371672
  0
LINE
  5
3B6
100
AcDbEntity
  8
0
100
AcDbLine
 62
7
  6
CONTINUOUS
 10
140.2454103494
 20
135.2639244026
 11
140.2261842872
 21
135.4008371672
  0
LINE
  5
3B7
100
AcDbEntity
  8
0
100
AcDbLine
 62
7
  6
CONTINUOUS
 10
140.3870923609
 20
135.2639244026
 11
140.3678662987
 21
135.4008371672
  0
LINE
  5
3B8
100
AcDbEntity
  8
0
100
AcDbLine
 62
7
  6
CONTINUOUS
 10
140.5287743724
 20
135.2639244026
 11
140.5095483102
 21
135.4008371672
  0
LINE
  5
3B9
100
AcDbEntity
  8
0
100
AcDbLine
 62
7
  6
CONTINUOUS
 10
140.670456384
 20
135.2639244026
 11
140.6512303218
 21
135.4008371672
  0
LINE
  5
3BA
100
AcDbEntity
  8
0
100
AcDbLine
 62
7
  6
CONTINUOUS
 10
120.2327364521
 20
92.0677529859
 11
120.3541781762
 21
89.0677529859
  0
LINE
  5
3BB
100
AcDbEntity
  8
0
100
AcDbLine
 62
7
  6
CONTINUOUS
 10
117.9625455701
 20
97.0783446826
 11
117.9625455701
 21
89.0677529859
  0
LINE
  5
3BC
100
AcDbEntity
  8
0
100
AcDbLine
 62
7
  6
CONTINUOUS
 10
120.678022774
 20
97.0677529859
 11
120.678022774
 21
89.0677529859
  0
LINE
  5
3BD
100
AcDbEntity
  8
0
100
AcDbLine
 62
7
  6
CONTINUOUS
 10
124.8366663753
 20
89.0677529859
 11
124.8366663753
 21
98.8404582621
  0
LINE
  5
3BE
100
AcDbEntity
  8
0
100
AcDbLine
 62
7
  6
CONTINUOUS
 10
118.2896688654
 20
89.0677529859
 11
118.4111105896
 21
92.0677529859
  0
LINE
  5
3BF
100
AcDbEntity
  8
0
100
AcDbLine
 62
7
  6
CONTINUOUS
 10
120.3211038464
 20
89.8847949876
 11
120.2880295166
 21
89.0677529859
  0
LINE
  5
3C0
100
AcDbEntity
  8
0
100
AcDbLine
 62
7
  6
CONTINUOUS
 10
140.8121383955
 20
135.2639244026
 11
140.7929123333
 21
135.4008371672
  0
LINE
  5
3C1
100
AcDbEntity
  8
0
100
AcDbLine
 62
7
  6
CONTINUOUS
 10
140.953820407
 20
135.2639244026
 11
140.9345943448
 21
135.4008371672
  0
LINE
  5
3C2
100
AcDbEntity
  8
0
100
AcDbLine
 62
7
  6
CONTINUOUS
 10
141.0955024185
 20
135.2639244026
 11
141.0762763564
 21
135.4008371672
  0
LINE
  5
3C3
100
AcDbEntity
  8
0
100
AcDbLine
 62
7
  6
CONTINUOUS
 10
141.2201234383
 20
134.6969434814
 11
141.1505939261
 21
135.1920775158
  0
LINE
  5
3C4
100
AcDbEntity
  8
0
100
AcDbLine
 62
7
  6
CONTINUOUS
 10
141.2371844301
 20
135.2639244026
 11
141.2179583679
 21
135.4008371672
  0
LINE
  5
3C5
100
AcDbEntity
  8
0
100
AcDbLine
 62
7
  6
CONTINUOUS
 10
141.4291698916
 20
134.9057031329
 11
141.3596403794
 21
135.4008371672
  0
LINE
  5
3C6
100
AcDbEntity
  8
0
100
AcDbLine
 62
7
  6
CONTINUOUS
 10
141.5708519031
 20
134.9057031329
 11
141.5013223909
 21
135.4008371672
  0
LINE
  5
3C7
100
AcDbEntity
  8
0
100
AcDbLine
 62
7
  6
CONTINUOUS
 10
141.7125339146
 20
134.9057031329
 11
141.6430044025
 21
135.4008371672
  0
LINE
  5
3C8
100
AcDbEntity
  8
0
100
AcDbLine
 62
7
  6
CONTINUOUS
 10
141.8542159261
 20
134.9057031329
 11
141.784686414
 21
135.4008371672
  0
LINE
  5
3C9
100
AcDbEntity
  8
0
100
AcDbLine
 62
7
  6
CONTINUOUS
 10
141.9958979377
 20
134.9057031329
 11
141.9263684255
 21
135.4008371672
  0
LINE
  5
3CA
100
AcDbEntity
  8
0
100
AcDbLine
 62
7
  6
CONTINUOUS
 10
142.1375799492
 20
134.9057031329
 11
142.068050437
 21
135.4008371672
  0
LINE
  5
3CB
100
AcDbEntity
  8
0
100
AcDbLine
 62
7
  6
CONTINUOUS
 10
142.2792619607
 20
134.9057031329
 11
142.2097324486
 21
135.4008371672
  0
LINE
  5
3CC
100
AcDbEntity
  8
0
100
AcDbLine
 62
7
  6
CONTINUOUS
 10
142.4209439723
 20
134.9057031329
 11
142.3514144601
 21
135.4008371672
  0
LINE
  5
3CD
100
AcDbEntity
  8
0
100
AcDbLine
 62
7
  6
CONTINUOUS
 10
142.5626259838
 20
134.9057031329
 11
142.4930964716
 21
135.4008371672
  0
LINE
  5
3CE
100
AcDbEntity
  8
0
100
AcDbLine
 62
7
  6
CONTINUOUS
 10
142.7043079953
 20
134.9057031329
 11
142.6347784831
 21
135.4008371672
  0
LINE
  5
3CF
100
AcDbEntity
  8
0
100
AcDbLine
 62
7
  6
CONTINUOUS
 10
144.683220738
 20
135.1840493348
 11
144.6136912259
 21
135.6791833692
  0
LINE
  5
3D0
100
AcDbEntity
  8
0
100
AcDbLine
 62
7
  6
CONTINUOUS
 10
148.1772509896
 20
706.8177529859
 11
148.1772509896
 21
704.2177529859
  0
LINE
  5
3D1
100
AcDbEntity
  8
0
100
AcDbLine
 62
7
  6
CONTINUOUS
 10
149.1772509896
 20
704.2177529859
 11
149.1772509896
 21
135.8501597175
  0
LINE
  5
3D2
100
AcDbEntity
  8
0
100
AcDbLine
 62
7
  6
CONTINUOUS
 10
149.1772509896
 20
126.0677529859
 11
149.1772509896
 21
119.2601343211
  0
LINE
  5
3D3
100
AcDbEntity
  8
0
100
AcDbLine
 62
7
  6
CONTINUOUS
 10
149.1772509896
 20
114.3970969032
 11
149.1772509896
 21
110.1145581156
  0
LINE
  5
3D4
100
AcDbEntity
  8
0
100
AcDbLine
 62
7
  6
CONTINUOUS
 10
154.658775726
 20
112.0677529859
 11
154.658775726
 21
106.0677529859
  0
LINE
  5
3D5
100
AcDbEntity
  8
0
100
AcDbLine
 62
7
  6
CONTINUOUS
 10
155.6921464437
 20
136.2047877678
 11
155.6921464437
 21
137.3177529859
  0
LINE
  5
3D6
100
AcDbEntity
  8
0
100
AcDbLine
 62
7
  6
CONTINUOUS
 10
156.1056326447
 20
137.3177529859
 11
156.1056326447
 21
136.2629471354
  0
LINE
  5
3D7
100
AcDbEntity
  8
0
100
AcDbLine
 62
7
  6
CONTINUOUS
 10
156.7732696819
 20
119.9177529859
 11
156.7732696819
 21
126.0677529859
  0
LINE
  5
3D8
100
AcDbEntity
  8
0
100
AcDbLine
 62
7
  6
CONTINUOUS
 10
157.1895395747
 20
126.0677529859
 11
157.1895395747
 21
119.9177529859
  0
LINE
  5
3D9
100
AcDbEntity
  8
0
100
AcDbLine
 62
7
  6
CONTINUOUS
 10
157.3127363024
 20
137.3177529859
 11
157.3127363024
 21
119.9177529859
  0
LINE
  5
3DA
100
AcDbEntity
  8
0
100
AcDbLine
 62
6
  6
CONTINUOUS
 10
148.6772509896
 20
738.8356338854
 11
148.6675500247
 21
706.8765967158
  0
LINE
  5
3DB
100
AcDbEntity
  8
0
100
AcDbLine
 62
7
  6
CONTINUOUS
 10
467.1919856124
 20
683.8540694336
 11
467.4104163977
 21
683.9787691343
  0
LINE
  5
3DC
100
AcDbEntity
  8
0
100
AcDbLine
 62
7
  6
CONTINUOUS
 10
467.4104163977
 20
683.9787691343
 11
467.6576352013
 21
684.1155195026
  0
LINE
  5
3DD
100
AcDbEntity
  8
0
100
AcDbLine
 62
7
  6
CONTINUOUS
 10
467.6576352013
 20
684.1155195026
 11
467.8748668342
 21
684.2314627294
  0
LINE
  5
3DE
100
AcDbEntity
  8
0
100
AcDbLine
 62
7
  6
CONTINUOUS
 10
462.8107412171
 20
682.8527760921
 11
459.8676847398
 21
681.2978616097
  0
LINE
  5
3DF
100
AcDbEntity
  8
0
100
AcDbLine
 62
7
  6
CONTINUOUS
 10
461.2033851518
 20
680.7308324134
 11
461.3706263311
 21
680.8191011877
  0
LINE
  5
3E0
100
AcDbEntity
  8
0
100
AcDbLine
 62
7
  6
CONTINUOUS
 10
461.3706263311
 20
680.8191011877
 11
463.6919675394
 21
682.04157227
  0
LINE
  5
3E1
100
AcDbEntity
  8
0
100
AcDbLine
 62
7
  6
CONTINUOUS
 10
463.6918796123
 20
683.3165129266
 11
462.8107412171
 21
682.8527760921
  0
LINE
  5
3E2
100
AcDbEntity
  8
0
100
AcDbLine
 62
7
  6
CONTINUOUS
 10
467.1919246987
 20
683.8750695739
 11
467.896701985
 21
684.2428591431
  0
LINE
  5
3E3
100
AcDbEntity
  8
0
100
AcDbLine
 62
7
  6
CONTINUOUS
 10
468.4428496388
 20
685.80222363
 11
467.1919791477
 21
685.1502052968
  0
LINE
  5
3E4
100
AcDbEntity
  8
0
100
AcDbLine
 62
7
  6
CONTINUOUS
 10
467.8748668342
 20
684.2314627294
 11
468.9653206242
 21
684.7996081444
  0
LINE
  5
3E5
100
AcDbEntity
  8
0
100
AcDbLine
 62
7
  6
CONTINUOUS
 10
468.6595674805
 20
685.9150082728
 11
468.4428496388
 21
685.80222363
  0
LINE
  5
3E6
100
AcDbEntity
  8
0
100
AcDbLine
 62
7
  6
CONTINUOUS
 10
462.0998550895
 20
680.6820501819
 11
462.183922968
 21
680.7418845566
  0
LINE
  5
3E7
100
AcDbEntity
  8
0
100
AcDbLine
 62
7
  6
CONTINUOUS
 10
462.1834651611
 20
680.741603906
 11
463.6919856124
 21
681.699619511
  0
LINE
  5
3E8
100
AcDbEntity
  8
0
100
AcDbLine
 62
7
  6
CONTINUOUS
 10
461.9578954686
 20
680.5446044501
 11
462.0998550895
 21
680.6820501819
  0
LINE
  5
3E9
100
AcDbEntity
  8
0
100
AcDbLine
 62
7
  6
CONTINUOUS
 10
148.9836178003
 20
92.0677529859
 11
149.9312947347
 21
94.4079095591
  0
LINE
  5
3EA
100
AcDbEntity
  8
0
100
AcDbLine
 62
7
  6
CONTINUOUS
 10
149.9312947347
 20
94.4079095591
 11
154.1877185435
 21
104.9070221449
  0
LINE
  5
3EB
100
AcDbEntity
  8
0
100
AcDbLine
 62
7
  6
CONTINUOUS
 10
154.1877185435
 20
104.9070221449
 11
154.658775726
 21
106.0677529859
  0
LINE
  5
3EC
100
AcDbEntity
  8
0
100
AcDbLine
 62
7
  6
CONTINUOUS
 10
461.835248429
 20
680.3624010203
 11
461.9578954686
 21
680.5446044501
  0
LINE
  5
3ED
100
AcDbEntity
  8
0
100
AcDbLine
 62
7
  6
CONTINUOUS
 10
443.1772509896
 20
106.0677529859
 11
448.6772509896
 21
92.0677529859
  0
LINE
  5
3EE
100
AcDbEntity
  8
0
100
AcDbLine
 62
7
  6
CONTINUOUS
 10
454.1781037477
 20
727.4852528757
 11
454.0479832299
 21
727.1070454455
  0
LINE
  5
3EF
100
AcDbEntity
  8
0
100
AcDbLine
 62
7
  6
CONTINUOUS
 10
123.1087841272
 20
124.4022140031
 11
123.2579637706
 21
124.5957188503
  0
LINE
  5
3F0
100
AcDbEntity
  8
0
100
AcDbLine
 62
7
  6
CONTINUOUS
 10
459.5253374228
 20
725.6620722526
 11
459.395216905
 21
725.2838648224
  0
LINE
  5
3F1
100
AcDbEntity
  8
0
100
AcDbLine
 62
7
  6
CONTINUOUS
 10
460.6623843567
 20
724.8284037137
 11
460.7925048746
 21
725.206611144
  0
LINE
  5
3F2
100
AcDbEntity
  8
0
100
AcDbLine
 62
7
  6
CONTINUOUS
 10
461.7532096836
 20
680.1497125595
 11
461.835248429
 21
680.3624010203
  0
LINE
  5
3F3
100
AcDbEntity
  8
0
100
AcDbLine
 62
7
  6
CONTINUOUS
 10
126.8785674906
 20
121.4959563764
 11
129.9596330914
 21
125.4924877702
  0
LINE
  5
3F4
100
AcDbEntity
  8
0
100
AcDbLine
 62
7
  6
CONTINUOUS
 10
442.146303711
 20
110.5547986339
 11
442.1448204535
 21
110.585338229
  0
LINE
  5
3F5
100
AcDbEntity
  8
0
100
AcDbLine
 62
7
  6
CONTINUOUS
 10
442.1448204535
 20
110.585338229
 11
442.143162001
 21
110.6236291263
  0
LINE
  5
3F6
100
AcDbEntity
  8
0
100
AcDbLine
 62
7
  6
CONTINUOUS
 10
442.143162001
 20
110.6236291263
 11
442.13977115
 21
110.7154625617
  0
LINE
  5
3F7
100
AcDbEntity
  8
0
100
AcDbLine
 62
7
  6
CONTINUOUS
 10
442.13977115
 20
110.7154625617
 11
442.1363540997
 21
110.8282914873
  0
LINE
  5
3F8
100
AcDbEntity
  8
0
100
AcDbLine
 62
7
  6
CONTINUOUS
 10
453.4640879254
 20
641.9005885945
 11
461.7439152633
 21
680.1106892768
  0
LINE
  5
3F9
100
AcDbEntity
  8
0
100
AcDbLine
 62
7
  6
CONTINUOUS
 10
461.7439798826
 20
680.110987278
 11
461.7532096836
 21
680.1497125595
  0
LINE
  5
3FA
100
AcDbEntity
  8
0
100
AcDbLine
 62
7
  6
CONTINUOUS
 10
132.8301089801
 20
89.0677529859
 11
135.8276499569
 21
92.0677529859
  0
LINE
  5
3FB
100
AcDbEntity
  8
0
100
AcDbLine
 62
7
  6
CONTINUOUS
 10
441.7967021752
 20
709.1456128517
 11
442.2072772766
 21
704.2177529859
  0
LINE
  5
3FC
100
AcDbEntity
  8
0
100
AcDbLine
 62
7
  6
CONTINUOUS
 10
442.1363540997
 20
110.8282914873
 11
442.1330054657
 21
110.9628771267
  0
LINE
  5
3FD
100
AcDbEntity
  8
0
100
AcDbLine
 62
7
  6
CONTINUOUS
 10
441.3616417056
 20
664.7177529859
 11
441.3535682412
 21
665.1190777174
  0
LINE
  5
3FE
100
AcDbEntity
  8
0
100
AcDbLine
 62
7
  6
CONTINUOUS
 10
442.1330054657
 20
110.9628771267
 11
442.1283375318
 21
111.2053723739
  0
LINE
  5
3FF
100
AcDbEntity
  8
0
100
AcDbLine
 62
7
  6
CONTINUOUS
 10
442.1283375318
 20
111.2053723739
 11
442.1243858598
 21
111.4923972615
  0
LINE
  5
400
100
AcDbEntity
  8
0
100
AcDbLine
 62
7
  6
CONTINUOUS
 10
442.1243858598
 20
111.4923972615
 11
442.1215083639
 21
111.8169668594
  0
LINE
  5
401
100
AcDbEntity
  8
0
100
AcDbLine
 62
7
  6
CONTINUOUS
 10
442.1215083639
 20
111.8169668594
 11
442.1201176845
 21
112.1697844272
  0
LINE
  5
402
100
AcDbEntity
  8
0
100
AcDbLine
 62
7
  6
CONTINUOUS
 10
442.119388013
 20
640.7177529859
 11
442.1201176845
 21
112.1697844272
  0
LINE
  5
403
100
AcDbEntity
  8
0
100
AcDbLine
 62
7
  6
CONTINUOUS
 10
442.3425434269
 20
640.7177529859
 11
442.3425434269
 21
108.2177529859
  0
LINE
  5
404
100
AcDbEntity
  8
0
100
AcDbLine
 62
7
  6
CONTINUOUS
 10
461.48579429
 20
678.9225833234
 11
461.48579429
 21
655.7077176502
  0
LINE
  5
405
100
AcDbEntity
  8
0
100
AcDbLine
 62
7
  6
CONTINUOUS
 10
463.6919856124
 20
655.7077176502
 11
463.6919856124
 21
698.0177529859
  0
LINE
  5
406
100
AcDbEntity
  8
0
100
AcDbLine
 62
7
  6
CONTINUOUS
 10
467.1919856124
 20
655.7077176502
 11
467.1919856124
 21
698.0177529859
  0
LINE
  5
407
100
AcDbEntity
  8
0
100
AcDbLine
 62
7
  6
CONTINUOUS
 10
468.8069817874
 20
720.647813384
 11
468.8069817874
 21
709.1177529859
  0
LINE
  5
408
100
AcDbEntity
  8
0
100
AcDbLine
 62
7
  6
CONTINUOUS
 10
469.7232072518
 20
709.1177529859
 11
469.7232072518
 21
706.4245625657
  0
LINE
  5
409
100
AcDbEntity
  8
0
100
AcDbLine
 62
7
  6
CONTINUOUS
 10
469.9187435221
 20
709.1177529859
 11
469.9187435221
 21
720.647813384
  0
LINE
  5
40A
100
AcDbEntity
  8
0
100
AcDbLine
 62
6
  6
CONTINUOUS
 10
442.6772509896
 20
738.8356338854
 11
442.6378720544
 21
709.8624897516
  0
LINE
  5
40B
100
AcDbEntity
  8
0
100
AcDbLine
 62
7
  6
CONTINUOUS
 10
468.7750371168
 20
705.0013325833
 11
468.6595674805
 21
685.9150082728
  0
LINE
  5
40C
100
AcDbEntity
  8
0
100
AcDbLine
 62
7
  6
CONTINUOUS
 10
469.7753639552
 20
686.122354045
 11
469.8908336156
 21
705.2086823326
  0
LINE
  5
40D
100
AcDbEntity
  8
0
100
AcDbLine
 62
7
  6
CONTINUOUS
 10
453.4641000675
 20
641.9006113909
 11
452.3168483018
 21
641.8917399847
  0
LINE
  5
40E
100
AcDbEntity
  8
0
100
AcDbLine
 62
7
  6
CONTINUOUS
 10
441.9182104764
 20
640.7177529859
 11
451.9976462341
 21
640.7177529859
  0
LINE
  5
40F
100
AcDbEntity
  8
0
100
AcDbLine
 62
7
  6
CONTINUOUS
 10
463.5488615818
 20
704.0439377408
 11
463.5521149684
 21
704.0013920632
  0
LINE
  5
410
100
AcDbEntity
  8
0
100
AcDbLine
 62
7
  6
CONTINUOUS
 10
462.1673045803
 20
680.7409739985
 11
462.1834531703
 21
680.7415935222
  0
LINE
  5
411
100
AcDbEntity
  8
0
100
AcDbLine
 62
7
  6
CONTINUOUS
 10
460.7158645198
 20
680.0876791542
 11
461.7209372766
 21
680.1054969038
  0
LINE
  5
412
100
AcDbEntity
  8
0
100
AcDbLine
 62
7
  6
CONTINUOUS
 10
441.7674664523
 20
642.0013325833
 11
451.2595487545
 21
642.0013325833
  0
LINE
  5
413
100
AcDbEntity
  8
0
100
AcDbLine
 62
7
  6
CONTINUOUS
 10
441.5522280427
 20
654.7177529859
 11
441.4035856677
 21
654.7177529859
  0
LINE
  5
414
100
AcDbEntity
  8
0
100
AcDbLine
 62
7
  6
CONTINUOUS
 10
467.1919856124
 20
655.7077176502
 11
461.48579429
 21
655.7077176502
  0
LINE
  5
415
100
AcDbEntity
  8
0
100
AcDbLine
 62
7
  6
CONTINUOUS
 10
441.2329678058
 20
664.7177529859
 11
441.3616417056
 21
664.7177529859
  0
LINE
  5
416
100
AcDbEntity
  8
0
100
AcDbLine
 62
7
  6
CONTINUOUS
 10
121.8006232712
 20
98.8404582621
 11
149.1772509896
 21
110.9830843626
  0
LINE
  5
417
100
AcDbEntity
  8
0
100
AcDbLine
 62
7
  6
CONTINUOUS
 10
154.658775726
 20
112.0677529859
 11
124.8366663753
 21
98.8404582621
  0
LINE
  5
418
100
AcDbEntity
  8
0
100
AcDbLine
 62
7
  6
CONTINUOUS
 10
469.9174957578
 20
709.1177529859
 11
467.7456842925
 21
709.0934396172
  0
LINE
  5
419
100
AcDbEntity
  8
0
100
AcDbLine
 62
7
  6
CONTINUOUS
 10
461.2033806813
 20
680.7308379213
 11
462.1673045803
 21
680.7409739985
  0
LINE
  5
41A
100
AcDbEntity
  8
0
100
AcDbLine
 62
7
  6
CONTINUOUS
 10
442.0980806282
 20
709.7081107051
 11
465.5014477759
 21
709.7403077897
  0
LINE
  5
41B
100
AcDbEntity
  8
0
100
AcDbLine
 62
7
  6
CONTINUOUS
 10
440.5529406034
 20
697.7177529859
 11
440.5256948015
 21
697.7177529859
  0
LINE
  5
41C
100
AcDbEntity
  8
0
100
AcDbLine
 62
7
  6
CONTINUOUS
 10
463.6919856124
 20
698.0177529859
 11
467.1919856124
 21
698.0177529859
  0
LINE
  5
41D
100
AcDbEntity
  8
0
100
AcDbLine
 62
7
  6
CONTINUOUS
 10
148.1784959488
 20
704.2177529859
 11
442.2072772766
 21
704.2177529859
  0
LINE
  5
41E
100
AcDbEntity
  8
0
100
AcDbLine
 62
7
  6
CONTINUOUS
 10
465.1586215893
 20
706.7677529859
 11
464.8246568479
 21
706.7677529859
  0
LINE
  5
41F
100
AcDbEntity
  8
0
100
AcDbLine
 62
7
  6
CONTINUOUS
 10
148.1810844877
 20
706.8177529859
 11
441.9906527595
 21
706.8177529859
  0
LINE
  5
420
100
AcDbEntity
  8
0
100
AcDbLine
 62
7
  6
CONTINUOUS
 10
441.7967021752
 20
709.1456128517
 11
443.4484865891
 21
709.1454891379
  0
LINE
  5
421
100
AcDbEntity
  8
0
100
AcDbLine
 62
7
  6
CONTINUOUS
 10
445.3396860728
 20
728.6773063583
 11
442.6826892199
 21
728.6585951129
  0
LINE
  5
422
100
AcDbEntity
  8
0
100
AcDbLine
 62
7
  6
CONTINUOUS
 10
444.9766478128
 20
730.2119680939
 11
442.6334008616
 21
730.1954663548
  0
LINE
  5
423
100
AcDbEntity
  8
0
100
AcDbLine
 62
7
  6
CONTINUOUS
 10
468.8069817874
 20
720.647813384
 11
469.9187435165
 21
720.647813384
  0
LINE
  5
424
100
AcDbEntity
  8
0
100
AcDbLine
 62
7
  6
CONTINUOUS
 10
453.3249769412
 20
727.4852528757
 11
454.1781037477
 21
727.4852528757
  0
LINE
  5
425
100
AcDbEntity
  8
0
100
AcDbLine
 62
6
  6
CONTINUOUS
 10
148.6772509896
 20
738.8356338854
 11
442.6772509896
 21
738.8356338854
  0
LINE
  5
426
100
AcDbEntity
  8
0
100
AcDbLine
 62
6
  6
CONTINUOUS
 10
152.2424805865
 20
742.3195869243
 11
439.1120213926
 21
742.3195869243
  0
LINE
  5
427
100
AcDbEntity
  8
0
100
AcDbLine
 62
6
  6
CONTINUOUS
 10
420.9388633132
 20
747.0576702632
 11
422.3176565087
 21
744.6695303955
  0
LINE
  5
428
100
AcDbEntity
  8
0
100
AcDbLine
 62
7
  6
CONTINUOUS
 10
455.5574167456
 20
727.02945772
 11
459.5253374228
 21
725.6620722526
  0
LINE
  5
429
100
AcDbEntity
  8
0
100
AcDbLine
 62
7
  6
CONTINUOUS
 10
468.8069817874
 20
720.647813384
 11
445.8378334967
 21
728.6360308493
  0
LINE
  5
42A
100
AcDbEntity
  8
0
100
AcDbLine
 62
7
  6
CONTINUOUS
 10
468.9114666008
 20
722.0645787025
 11
445.94231831
 21
730.0527961678
  0
ARC
  5
42B
100
AcDbEntity
  8
0
100
AcDbCircle
 62
6
  6
CONTINUOUS
 10
295.6772509896
 20
-750.2822470141
 40
1503.0
100
AcDbArc
 50
85.2493240431
 51
94.7506759569
  0
ARC
  5
42C
100
AcDbEntity
  8
0
100
AcDbCircle
 62
6
  6
CONTINUOUS
 10
295.6762420061
 20
-750.3942853325
 40
1499.9892598628
100
AcDbArc
 50
94.8730110783
 51
95.4886575161
  0
ARC
  5
42D
100
AcDbEntity
  8
0
100
AcDbCircle
 62
6
  6
CONTINUOUS
 10
295.6784493049
 20
-750.3919485412
 40
1499.9869155827
100
AcDbArc
 50
84.5113411669
 51
85.1269884861
  0
ARC
  5
42E
100
AcDbEntity
  8
0
100
AcDbCircle
 62
7
  6
CONTINUOUS
 10
151.6757062644
 20
-159.4666707391
 40
292.6793819919
100
AcDbArc
 50
98.2244406252
 51
98.3382390827
  0
ARC
  5
42F
100
AcDbEntity
  8
0
100
AcDbCircle
 62
7
  6
CONTINUOUS
 10
138.8866502419
 20
-58.1810911161
 40
191.0845205471
100
AcDbArc
 50
98.000375241
 51
98.1732180614
  0
ARC
  5
430
100
AcDbEntity
  8
0
100
AcDbCircle
 62
7
  6
CONTINUOUS
 10
136.5495899298
 20
-41.8051884027
 40
174.5426760859
100
AcDbArc
 50
98.0584528273
 51
98.1922064169
  0
ARC
  5
431
100
AcDbEntity
  8
0
100
AcDbCircle
 62
7
  6
CONTINUOUS
 10
126.2855722115
 20
10.8727522179
 40
120.4617312413
100
AcDbArc
 50
98.4204607021
 51
98.6206614977
  0
ARC
  5
432
100
AcDbEntity
  8
0
100
AcDbCircle
 62
7
  6
CONTINUOUS
 10
126.3275040289
 20
29.205376047
 40
102.8001693137
100
AcDbArc
 50
98.1686629487
 51
98.3385529294
  0
ARC
  5
433
100
AcDbEntity
  8
0
100
AcDbCircle
 62
7
  6
CONTINUOUS
 10
125.606953353
 20
34.1752396595
 40
97.7783177395
100
AcDbArc
 50
98.1897477065
 51
98.3355152693
  0
ARC
  5
434
100
AcDbEntity
  8
0
100
AcDbCircle
 62
7
  6
CONTINUOUS
 10
8.7662689313
 20
883.9186552761
 40
762.5006286502
100
AcDbArc
 50
277.7809670849
 51
277.9091167866
  0
ARC
  5
435
100
AcDbEntity
  8
0
100
AcDbCircle
 62
7
  6
CONTINUOUS
 10
16.8931981835
 20
829.3316077946
 40
705.7052795711
100
AcDbArc
 50
277.8468038267
 51
278.0113786272
  0
ARC
  5
436
100
AcDbEntity
  8
0
100
AcDbCircle
 62
7
  6
CONTINUOUS
 10
55.7825539312
 20
546.7243476061
 40
420.4348115677
100
AcDbArc
 50
277.7002375017
 51
277.854666061
  0
ARC
  5
437
100
AcDbEntity
  8
0
100
AcDbCircle
 62
7
  6
CONTINUOUS
 10
225.3139062527
 20
696.1985176153
 40
215.2456457861
100
AcDbArc
 50
1.7028061212
 51
1.91900722
  0
ARC
  5
438
100
AcDbEntity
  8
0
100
AcDbCircle
 62
7
  6
CONTINUOUS
 10
277.2960365711
 20
656.063989262
 40
189.9652115092
100
AcDbArc
 50
356.661435078
 51
356.9954773345
  0
ARC
  5
439
100
AcDbEntity
  8
0
100
AcDbCircle
 62
7
  6
CONTINUOUS
 10
89.5035255681
 20
296.657977027
 40
168.1051193828
100
AcDbArc
 50
277.446394441
 51
277.7307654685
  0
ARC
  5
43A
100
AcDbEntity
  8
0
100
AcDbCircle
 62
7
  6
CONTINUOUS
 10
92.5685936537
 20
275.8623513605
 40
147.0832605591
100
AcDbArc
 50
277.465053389
 51
277.6854616653
  0
ARC
  5
43B
100
AcDbEntity
  8
0
100
AcDbCircle
 62
7
  6
CONTINUOUS
 10
101.7613737203
 20
205.7626404033
 40
76.3833554958
100
AcDbArc
 50
277.3460148854
 51
277.4594962532
  0
ARC
  5
43C
100
AcDbEntity
  8
0
100
AcDbCircle
 62
7
  6
CONTINUOUS
 10
117.993383816
 20
86.0395367058
 40
45.3582043005
100
AcDbArc
 50
98.3337375822
 51
98.5244674213
  0
ARC
  5
43D
100
AcDbEntity
  8
0
100
AcDbCircle
 62
7
  6
CONTINUOUS
 10
143.2789305816
 20
163.2400775058
 40
27.8704873802
100
AcDbArc
 50
274.6157037239
 51
275.0367660687
  0
ARC
  5
43E
100
AcDbEntity
  8
0
100
AcDbCircle
 62
7
  6
CONTINUOUS
 10
143.6880523378
 20
158.9713361649
 40
23.5809184169
100
AcDbArc
 50
274.5711318526
 51
274.8009986627
  0
ARC
  5
43F
100
AcDbEntity
  8
0
100
AcDbCircle
 62
7
  6
CONTINUOUS
 10
154.000735998
 20
137.535337876
 40
18.8375915708
100
AcDbArc
 50
267.448565025
 51
269.951745637
  0
ARC
  5
440
100
AcDbEntity
  8
0
100
AcDbCircle
 62
7
  6
CONTINUOUS
 10
131.2817888254
 20
81.1703531837
 40
12.0
100
AcDbArc
 50
138.7048934912
 51
150.7635724185
  0
ARC
  5
441
100
AcDbEntity
  8
0
100
AcDbCircle
 62
7
  6
CONTINUOUS
 10
135.3391073331
 20
81.1703531837
 40
12.0
100
AcDbArc
 50
29.2364275815
 51
63.9254750166
  0
ARC
  5
442
100
AcDbEntity
  8
0
100
AcDbCircle
 62
7
  6
CONTINUOUS
 10
146.9550076999
 20
116.1176572255
 40
8.8136393252
100
AcDbArc
 50
356.6003428078
 51
3.4125733363
  0
ARC
  5
443
100
AcDbEntity
  8
0
100
AcDbCircle
 62
7
  6
CONTINUOUS
 10
147.7017908066
 20
116.1697783751
 40
8.0650814467
100
AcDbArc
 50
3.3587510704
 51
6.9893801598
  0
ARC
  5
444
100
AcDbEntity
  8
0
100
AcDbCircle
 62
7
  6
CONTINUOUS
 10
110.3032572247
 20
137.7124970684
 40
7.798983147
100
AcDbArc
 50
276.4416194492
 51
276.7001728304
  0
ARC
  5
445
100
AcDbEntity
  8
0
100
AcDbCircle
 62
7
  6
CONTINUOUS
 10
149.2904739737
 20
116.3176839529
 40
5.6746881373
100
AcDbArc
 50
353.8001359078
 51
3.1707049705
  0
ARC
  5
446
100
AcDbEntity
  8
0
100
AcDbCircle
 62
7
  6
CONTINUOUS
 10
149.5957308986
 20
116.3425592479
 40
5.368528521
100
AcDbArc
 50
3.0858247172
 51
7.9574522436
  0
ARC
  5
447
100
AcDbEntity
  8
0
100
AcDbCircle
 62
7
  6
CONTINUOUS
 10
150.0706176171
 20
116.233280751
 40
4.8899921021
100
AcDbArc
 50
348.6162769393
 51
353.796109672
  0
ARC
  5
448
100
AcDbEntity
  8
0
100
AcDbCircle
 62
6
  6
CONTINUOUS
 10
152.5772509896
 20
738.8356338854
 40
3.9
100
AcDbArc
 50
95.4886568394
 51
180.0
  0
ARC
  5
449
100
AcDbEntity
  8
0
100
AcDbCircle
 62
7
  6
CONTINUOUS
 10
158.2305255853
 20
137.3179126502
 40
2.5383791466
100
AcDbArc
 50
175.4536800861
 51
180.0036039098
  0
ARC
  5
44A
100
AcDbEntity
  8
0
100
AcDbCircle
 62
7
  6
CONTINUOUS
 10
153.1921301769
 20
114.8113766618
 40
2.4147869745
100
AcDbArc
 50
336.4588793026
 51
338.5797263096
  0
ARC
  5
44B
100
AcDbEntity
  8
0
100
AcDbCircle
 62
7
  6
CONTINUOUS
 10
159.5262908109
 20
119.9176112687
 40
2.3367512405
100
AcDbArc
 50
179.9965251767
 51
184.925505417
  0
ARC
  5
44C
100
AcDbEntity
  8
0
100
AcDbCircle
 62
7
  6
CONTINUOUS
 10
155.0516019682
 20
119.9177720093
 40
2.2611343343
100
AcDbArc
 50
354.9183471957
 51
359.999517957
  0
ARC
  5
44D
100
AcDbEntity
  8
0
100
AcDbCircle
 62
7
  6
CONTINUOUS
 10
110.9397178417
 20
128.3168453614
 40
1.6003075363
100
AcDbArc
 50
98.0559355215
 51
109.2942733986
  0
ARC
  5
44E
100
AcDbEntity
  8
0
100
AcDbCircle
 62
7
  6
CONTINUOUS
 10
108.0243738767
 20
128.3172721228
 40
1.5997810632
100
AcDbArc
 50
98.0317444106
 51
188.0134135756
  0
ARC
  5
44F
100
AcDbEntity
  8
0
100
AcDbCircle
 62
7
  6
CONTINUOUS
 10
148.2417309072
 20
134.5561943032
 40
1.5289970237
100
AcDbArc
 50
83.7736762428
 51
98.0202936525
  0
ARC
  5
450
100
AcDbEntity
  8
0
100
AcDbCircle
 62
7
  6
CONTINUOUS
 10
148.3635045204
 20
134.9361206482
 40
1.125517036
100
AcDbArc
 50
53.050704533
 51
60.5811237998
  0
ARC
  5
451
100
AcDbEntity
  8
0
100
AcDbCircle
 62
7
  6
CONTINUOUS
 10
111.2507555338
 20
129.8610152617
 40
1.0194773718
100
AcDbArc
 50
103.985365643
 51
106.6971444409
  0
ARC
  5
452
100
AcDbEntity
  8
0
100
AcDbCircle
 62
7
  6
CONTINUOUS
 10
111.2437615582
 20
129.8795283108
 40
1.0001396971
100
AcDbArc
 50
123.4144870024
 51
187.9908611583
  0
ARC
  5
453
100
AcDbEntity
  8
0
100
AcDbCircle
 62
6
  6
CONTINUOUS
 10
171.2816640697
 20
746.5576702632
 40
1.0
100
AcDbArc
 50
94.7506759567
 51
150.0
  0
ARC
  5
454
100
AcDbEntity
  8
0
100
AcDbCircle
 62
6
  6
CONTINUOUS
 10
168.1708200667
 20
745.1695303955
 40
1.0
100
AcDbArc
 50
274.8730148647
 51
330.0
  0
ARC
  5
455
100
AcDbEntity
  8
0
100
AcDbCircle
 62
7
  6
CONTINUOUS
 10
111.2433680937
 20
129.8961678963
 40
0.9832163095
100
AcDbArc
 50
98.0552513005
 51
106.8733565626
  0
ARC
  5
456
100
AcDbEntity
  8
0
100
AcDbCircle
 62
7
  6
CONTINUOUS
 10
153.9840876927
 20
118.2852317538
 40
0.4122417863
100
AcDbArc
 50
81.1286955153
 51
89.8911378859
  0
ARC
  5
457
100
AcDbEntity
  8
0
100
AcDbCircle
 62
7
  6
CONTINUOUS
 10
641.2359407145
 20
655.5185974725
 40
179.8047691746
100
AcDbArc
 50
183.0004272894
 51
183.6317435072
  0
ARC
  5
458
100
AcDbEntity
  8
0
100
AcDbCircle
 62
7
  6
CONTINUOUS
 10
603.1411198797
 20
708.8576447634
 40
162.7935808258
100
AcDbArc
 50
181.6332475842
 51
181.9189468612
  0
ARC
  5
459
100
AcDbEntity
  8
0
100
AcDbCircle
 62
7
  6
CONTINUOUS
 10
510.6759016907
 20
112.2632365592
 40
68.5559871867
100
AcDbArc
 50
180.0380126865
 51
180.3352177963
  0
ARC
  5
45A
100
AcDbEntity
  8
0
100
AcDbCircle
 62
7
  6
CONTINUOUS
 10
510.2918209644
 20
112.2569610231
 40
68.1718764372
100
AcDbArc
 50
180.3318321535
 51
180.6102668622
  0
ARC
  5
45B
100
AcDbEntity
  8
0
100
AcDbCircle
 62
7
  6
CONTINUOUS
 10
500.04235677
 20
112.1429407016
 40
57.921779401
100
AcDbArc
 50
180.605472076
 51
180.9165014729
  0
ARC
  5
45C
100
AcDbEntity
  8
0
100
AcDbCircle
 62
7
  6
CONTINUOUS
 10
464.640677567
 20
661.2475389504
 40
47.9068345182
100
AcDbArc
 50
88.9884799055
 51
89.2869661521
  0
ARC
  5
45D
100
AcDbEntity
  8
0
100
AcDbCircle
 62
7
  6
CONTINUOUS
 10
464.7085583461
 20
665.185931016
 40
43.9678578904
100
AcDbArc
 50
88.8186453439
 51
88.9863219722
  0
ARC
  5
45E
100
AcDbEntity
  8
0
100
AcDbCircle
 62
7
  6
CONTINUOUS
 10
480.1787814473
 20
111.8134163562
 40
38.055476261
100
AcDbArc
 50
180.8987978675
 51
181.385129262
  0
ARC
  5
45F
100
AcDbEntity
  8
0
100
AcDbCircle
 62
7
  6
CONTINUOUS
 10
457.0197170386
 20
698.1444750852
 40
16.4723045721
100
AcDbArc
 50
180.4460943766
 51
181.4844377519
  0
ARC
  5
460
100
AcDbEntity
  8
0
100
AcDbCircle
 62
7
  6
CONTINUOUS
 10
468.3939045545
 20
694.0744546842
 40
8.1637701203
100
AcDbArc
 50
271.8648310722
 51
274.0724900636
  0
ARC
  5
461
100
AcDbEntity
  8
0
100
AcDbCircle
 62
7
  6
CONTINUOUS
 10
463.3516339478
 20
722.4193851546
 40
5.7357899708
100
AcDbArc
 50
342.009293086
 51
345.1200429467
  0
ARC
  5
462
100
AcDbEntity
  8
0
100
AcDbCircle
 62
7
  6
CONTINUOUS
 10
465.3049236993
 20
705.2340987501
 40
4.5847369691
100
AcDbArc
 50
359.795725405
 51
8.3675190673
  0
ARC
  5
463
100
AcDbEntity
  8
0
100
AcDbCircle
 62
7
  6
CONTINUOUS
 10
465.4417486335
 20
705.3053583251
 40
4.4294434563
100
AcDbArc
 50
44.7706541649
 51
54.3552338875
  0
ARC
  5
464
100
AcDbEntity
  8
0
100
AcDbCircle
 62
7
  6
CONTINUOUS
 10
465.4858231191
 20
705.3336206915
 40
4.3841323889
100
AcDbArc
 50
81.6642512966
 51
89.9881051707
  0
ARC
  5
465
100
AcDbEntity
  8
0
100
AcDbCircle
 62
7
  6
CONTINUOUS
 10
465.4907156521
 20
705.3742447927
 40
4.3449272536
100
AcDbArc
 50
54.3506012387
 51
63.7976914051
  0
ARC
  5
466
100
AcDbEntity
  8
0
100
AcDbCircle
 62
7
  6
CONTINUOUS
 10
445.5406336606
 20
664.6165610531
 40
4.3083544437
100
AcDbArc
 50
179.1424253324
 51
181.0243956895
  0
ARC
  5
467
100
AcDbEntity
  8
0
100
AcDbCircle
 62
6
  6
CONTINUOUS
 10
438.7772509896
 20
738.8356338854
 40
3.9
100
AcDbArc
 50
0.0
 51
84.5113431606
  0
ARC
  5
468
100
AcDbEntity
  8
0
100
AcDbCircle
 62
7
  6
CONTINUOUS
 10
464.8902186208
 20
705.6087725599
 40
3.7557670617
100
AcDbArc
 50
39.2121025197
 51
41.1598399232
  0
ARC
  5
469
100
AcDbEntity
  8
0
100
AcDbCircle
 62
7
  6
CONTINUOUS
 10
445.8082007427
 20
110.7206950727
 40
3.6661749551
100
AcDbArc
 50
182.8221433872
 51
183.7780486296
  0
ARC
  5
46A
100
AcDbEntity
  8
0
100
AcDbCircle
 62
7
  6
CONTINUOUS
 10
464.9970514598
 20
705.7033926416
 40
3.6130599209
100
AcDbArc
 50
41.1451883924
 51
45.4015099721
  0
ARC
  5
46B
100
AcDbEntity
  8
0
100
AcDbCircle
 62
7
  6
CONTINUOUS
 10
465.1017180807
 20
705.8082493986
 40
3.4649073331
100
AcDbArc
 50
45.4164547744
 51
47.6304778838
  0
ARC
  5
46C
100
AcDbEntity
  8
0
100
AcDbCircle
 62
7
  6
CONTINUOUS
 10
444.9625088954
 20
727.2277406014
 40
2.9900145306
100
AcDbArc
 50
70.9677705238
 51
89.9313527652
  0
ARC
  5
46D
100
AcDbEntity
  8
0
100
AcDbCircle
 62
7
  6
CONTINUOUS
 10
463.4681894062
 20
645.4286951958
 40
2.1569079833
100
AcDbArc
 50
85.9393096001
 51
89.9929077968
  0
ARC
  5
46E
100
AcDbEntity
  8
0
100
AcDbCircle
 62
7
  6
CONTINUOUS
 10
440.1939021311
 20
108.2171333346
 40
2.1486413851
100
AcDbArc
 50
292.4455384559
 51
0.0165236519
  0
ARC
  5
46F
100
AcDbEntity
  8
0
100
AcDbCircle
 62
7
  6
CONTINUOUS
 10
465.036235807
 20
705.0183930102
 40
1.9992741744
100
AcDbArc
 50
351.5487596796
 51
85.6243654962
  0
ARC
  5
470
100
AcDbEntity
  8
0
100
AcDbCircle
 62
7
  6
CONTINUOUS
 10
465.1615881325
 20
705.0166511076
 40
1.7521295601
100
AcDbArc
 50
128.6019415709
 51
141.4380184277
  0
ARC
  5
471
100
AcDbEntity
  8
0
100
AcDbCircle
 62
7
  6
CONTINUOUS
 10
465.1476748177
 20
705.0152552142
 40
1.7374085048
100
AcDbArc
 50
192.8674294833
 51
198.2142220767
  0
ARC
  5
472
100
AcDbEntity
  8
0
100
AcDbCircle
 62
7
  6
CONTINUOUS
 10
450.7988493151
 20
642.2327897451
 40
1.555831296
100
AcDbArc
 50
334.8132761415
 51
347.3375813865
  0
ARC
  5
473
100
AcDbEntity
  8
0
100
AcDbCircle
 62
7
  6
CONTINUOUS
 10
468.2505454824
 20
686.1585552317
 40
1.5359142689
100
AcDbArc
 50
306.6968919288
 51
315.6291136148
  0
ARC
  5
474
100
AcDbEntity
  8
0
100
AcDbCircle
 62
7
  6
CONTINUOUS
 10
468.4164102199
 20
720.6483259623
 40
1.500146001
100
AcDbArc
 50
59.1101417108
 51
70.9238201147
  0
ARC
  5
475
100
AcDbEntity
  8
0
100
AcDbCircle
 62
7
  6
CONTINUOUS
 10
451.998009617
 20
642.2177529851
 40
1.5
100
AcDbArc
 50
269.9999496202
 51
347.7665752757
  0
ARC
  5
476
100
AcDbEntity
  8
0
100
AcDbCircle
 62
7
  6
CONTINUOUS
 10
468.2807901404
 20
686.1158223861
 40
1.4835776334
100
AcDbArc
 50
297.4783458428
 51
306.7465554868
  0
ARC
  5
477
100
AcDbEntity
  8
0
100
AcDbCircle
 62
7
  6
CONTINUOUS
 10
468.2889145091
 20
686.1220665357
 40
1.4829706464
100
AcDbArc
 50
315.600201551
 51
324.8122637481
  0
ARC
  5
478
100
AcDbEntity
  8
0
100
AcDbCircle
 62
6
  6
CONTINUOUS
 10
423.1836819125
 20
745.1695303955
 40
1.0
100
AcDbArc
 50
210.0
 51
265.1269851353
  0
ARC
  5
479
100
AcDbEntity
  8
0
100
AcDbCircle
 62
6
  6
CONTINUOUS
 10
420.0728379094
 20
746.5576702632
 40
1.0
100
AcDbArc
 50
30.0
 51
85.2493240433
  0
SPLINE
  5
47A
100
AcDbEntity
  8
0
100
AcDbSpline
 62
7
  6
CONTINUOUS
 70
0
 71
3
 72
8
 73
4
 74
0
 42
0.0000001
 43
0.0000001
 44
0.0000000001
 40
0.0
 40
0.0
 40
0.0
 40
0.0
 40
1.0
 40
1.0
 40
1.0
 40
1.0
 10
111.2698580848
 20
130.8966531881
 30
0.0
 10
111.221439579
 20
130.8893824841
 30
0.0
 10
111.1730195387
 20
130.882104368
 30
0.0
 10
111.1246975801
 20
130.87421747
 30
0.0
  0
SPLINE
  5
47B
100
AcDbEntity
  8
0
100
AcDbSpline
 62
7
  6
CONTINUOUS
 70
0
 71
3
 72
9
 73
5
 74
0
 42
0.0000001
 43
0.0000001
 44
0.0000000001
 40
0.0
 40
0.0
 40
0.0
 40
0.0
 40
0.5896813088
 40
1.0
 40
1.0
 40
1.0
 40
1.0
 10
111.1246975801
 20
130.87421747
 30
0.0
 10
111.100891115
 20
130.8703318832
 30
0.0
 10
111.0605195628
 20
130.863609139
 30
0.0
 10
111.0206614429
 20
130.854328334
 30
0.0
 10
111.0043743013
 20
130.850272761
 30
0.0
  0
SPLINE
  5
47C
100
AcDbEntity
  8
0
100
AcDbSpline
 62
7
  6
CONTINUOUS
 70
0
 71
3
 72
9
 73
5
 74
0
 42
0.0000001
 43
0.0000001
 44
0.0000000001
 40
0.0
 40
0.0
 40
0.0
 40
0.0
 40
0.7336901249
 40
1.0
 40
1.0
 40
1.0
 40
1.0
 10
151.0428194598
 20
136.072561846
 30
0.0
 10
151.3512291759
 20
136.109936231
 30
0.0
 10
151.805968618
 20
136.049398497
 30
0.0
 10
152.1560820409
 20
135.8003505685
 30
0.0
 10
152.2355412484
 20
135.7203391153
 30
0.0
  0
SPLINE
  5
47D
100
AcDbEntity
  8
0
100
AcDbSpline
 62
7
  6
CONTINUOUS
 70
0
 71
3
 72
14
 73
10
 74
0
 42
0.0000001
 43
0.0000001
 44
0.0000000001
 40
0.0
 40
0.0
 40
0.0
 40
0.0
 40
0.0190887296
 40
0.0756464664
 40
0.1671826462
 40
0.2905916696
 40
0.4414479722
 40
0.6146042613
 40
1.0
 40
1.0
 40
1.0
 40
1.0
 10
127.1797233776
 20
125.1820657198
 30
0.0
 10
127.1804451639
 20
125.1698724578
 30
0.0
 10
127.1023614976
 20
125.1836226696
 30
0.0
 10
127.0255044917
 20
125.1462057804
 30
0.0
 10
126.837843102
 20
125.1317810482
 30
0.0
 10
126.6129346022
 20
125.092841319
 30
0.0
 10
126.3271974738
 20
125.0534374409
 30
0.0
 10
125.8788920584
 20
124.9881678063
 30
0.0
 10
125.5245908943
 20
124.9383392333
 30
0.0
 10
125.2803855088
 20
124.9039902495
 30
0.0
  0
SPLINE
  5
47E
100
AcDbEntity
  8
0
100
AcDbSpline
 62
7
  6
CONTINUOUS
 70
0
 71
3
 72
9
 73
5
 74
0
 42
0.0000001
 43
0.0000001
 44
0.0000000001
 40
0.0
 40
0.0
 40
0.0
 40
0.0
 40
0.5922685275
 40
1.0
 40
1.0
 40
1.0
 40
1.0
 10
108.2293356067
 20
129.9735541183
 30
0.0
 10
108.0640128329
 20
129.9484156094
 30
0.0
 10
107.783790878
 20
129.9137683932
 30
0.0
 10
107.5094629948
 20
129.8386482245
 30
0.0
 10
107.4032819621
 20
129.7941705056
 30
0.0
  0
SPLINE
  5
47F
100
AcDbEntity
  8
0
100
AcDbSpline
 62
7
  6
CONTINUOUS
 70
0
 71
3
 72
9
 73
5
 74
0
 42
0.0000001
 43
0.0000001
 44
0.0000000001
 40
0.0
 40
0.0
 40
0.0
 40
0.0
 40
0.1788151594
 40
1.0
 40
1.0
 40
1.0
 40
1.0
 10
111.2438458711
 20
129.970801204
 30
0.0
 10
111.2607901696
 20
129.9727736008
 30
0.0
 10
111.3555075324
 20
129.984157429
 30
0.0
 10
111.4501412687
 20
129.9962227909
 30
0.0
 10
111.527838856
 20
130.0062337069
 30
0.0
  0
SPLINE
  5
480
100
AcDbEntity
  8
0
100
AcDbSpline
 62
7
  6
CONTINUOUS
 70
0
 71
3
 72
10
 73
6
 74
0
 42
0.0000001
 43
0.0000001
 44
0.0000000001
 40
0.0
 40
0.0
 40
0.0
 40
0.0
 40
0.2067569148
 40
0.453342794
 40
1.0
 40
1.0
 40
1.0
 40
1.0
 10
144.8365945849
 20
115.8648331057
 30
0.0
 10
145.3822416691
 20
115.5117165303
 30
0.0
 10
146.7129950664
 20
114.9542854273
 30
0.0
 10
149.7626295293
 20
114.1941008887
 30
0.0
 10
152.266454949
 20
113.9377529859
 30
0.0
 10
153.9848710271
 20
113.9377529859
 30
0.0
  0
SPLINE
  5
481
100
AcDbEntity
  8
0
100
AcDbSpline
 62
7
  6
CONTINUOUS
 70
0
 71
3
 72
9
 73
5
 74
0
 42
0.0000001
 43
0.0000001
 44
0.0000000001
 40
0.0
 40
0.0
 40
0.0
 40
0.0
 40
0.110218258
 40
1.0
 40
1.0
 40
1.0
 40
1.0
 10
147.4227329887
 20
119.8610173053
 30
0.0
 10
147.4519337193
 20
119.8421199955
 30
0.0
 10
147.7308634515
 20
119.6933297664
 30
0.0
 10
148.03032604
 20
119.5875986214
 30
0.0
 10
148.2976292873
 20
119.5016145385
 30
0.0
  0
SPLINE
  5
482
100
AcDbEntity
  8
0
100
AcDbSpline
 62
7
  6
CONTINUOUS
 70
0
 71
3
 72
9
 73
5
 74
0
 42
0.0000001
 43
0.0000001
 44
0.0000000001
 40
0.0
 40
0.0
 40
0.0
 40
0.0
 40
0.4650752519
 40
1.0
 40
1.0
 40
1.0
 40
1.0
 10
148.2976292873
 20
119.5016145385
 30
0.0
 10
149.0261829739
 20
119.2672589098
 30
0.0
 10
150.6436606037
 20
118.9283243846
 30
0.0
 10
152.2827357816
 20
118.7548706368
 30
0.0
 10
153.1621575348
 20
118.7164207352
 30
0.0
  0
SPLINE
  5
483
100
AcDbEntity
  8
0
100
AcDbSpline
 62
7
  6
CONTINUOUS
 70
0
 71
3
 72
9
 73
5
 74
0
 42
0.0000001
 43
0.0000001
 44
0.0000000001
 40
0.0
 40
0.0
 40
0.0
 40
0.0
 40
0.2417613582
 40
1.0
 40
1.0
 40
1.0
 40
1.0
 10
126.8807795497
 20
121.4989593473
 30
0.0
 10
126.8023160786
 20
121.3967166976
 30
0.0
 10
126.4252256056
 20
121.0127611096
 30
0.0
 10
125.8597185076
 20
120.8498400187
 30
0.0
 10
125.4555105748
 20
120.8498400187
 30
0.0
  0
SPLINE
  5
484
100
AcDbEntity
  8
0
100
AcDbSpline
 62
7
  6
CONTINUOUS
 70
0
 71
3
 72
9
 73
5
 74
0
 42
0.0000001
 43
0.0000001
 44
0.0000000001
 40
0.0
 40
0.0
 40
0.0
 40
0.0
 40
0.59054618
 40
1.0
 40
1.0
 40
1.0
 40
1.0
 10
467.1919856124
 20
698.0177529859
 30
0.0
 10
467.1919856124
 20
699.3092530254
 30
0.0
 10
467.1635891887
 20
701.4954144721
 30
0.0
 10
467.0973530735
 20
703.6834673316
 30
0.0
 10
467.0163029171
 20
704.5752503112
 30
0.0
  0
SPLINE
  5
485
100
AcDbEntity
  8
0
100
AcDbSpline
 62
7
  6
CONTINUOUS
 70
0
 71
3
 72
9
 73
5
 74
0
 42
0.0000001
 43
0.0000001
 44
0.0000000001
 40
0.0
 40
0.0
 40
0.0
 40
0.0
 40
0.3686829218
 40
1.0
 40
1.0
 40
1.0
 40
1.0
 10
467.0163029171
 20
704.5752503112
 30
0.0
 10
466.9960957334
 20
704.7975869888
 30
0.0
 10
466.9442177171
 20
705.3986088961
 30
0.0
 10
466.6707401601
 20
705.9876079874
 30
0.0
 10
466.3997144253
 20
706.2572188569
 30
0.0
  0
SPLINE
  5
486
100
AcDbEntity
  8
0
100
AcDbSpline
 62
7
  6
CONTINUOUS
 70
0
 71
3
 72
8
 73
4
 74
0
 42
0.0000001
 43
0.0000001
 44
0.0000000001
 40
0.0
 40
0.0
 40
0.0
 40
0.0
 40
1.0
 40
1.0
 40
1.0
 40
1.0
 10
466.3997144253
 20
706.2572188569
 30
0.0
 10
466.0825759352
 20
706.5727017544
 30
0.0
 10
465.6059539942
 20
706.7677529859
 30
0.0
 10
465.1586215893
 20
706.7677529859
 30
0.0
  0
SPLINE
  5
487
100
AcDbEntity
  8
0
100
AcDbSpline
 62
7
  6
CONTINUOUS
 70
0
 71
3
 72
9
 73
5
 74
0
 42
0.0000001
 43
0.0000001
 44
0.0000000001
 40
0.0
 40
0.0
 40
0.0
 40
0.0
 40
0.3602736436
 40
1.0
 40
1.0
 40
1.0
 40
1.0
 10
463.548758889
 20
704.0381670995
 30
0.0
 10
463.5443473482
 20
704.0974364208
 30
0.0
 10
463.5309639998
 20
704.2618215026
 30
0.0
 10
463.51585456
 20
704.4262882788
 30
0.0
 10
463.4997245318
 20
704.5305820787
 30
0.0
  0
SPLINE
  5
488
100
AcDbEntity
  8
0
100
AcDbSpline
 62
7
  6
CONTINUOUS
 70
0
 71
3
 72
9
 73
5
 74
0
 42
0.0000001
 43
0.0000001
 44
0.0000000001
 40
0.0
 40
0.0
 40
0.0
 40
0.0
 40
0.5838431556
 40
1.0
 40
1.0
 40
1.0
 40
1.0
 10
463.6919856124
 20
698.0177529859
 30
0.0
 10
463.6919856124
 20
699.1826646137
 30
0.0
 10
463.6696527576
 20
701.1775790108
 30
0.0
 10
463.611405842
 20
703.1730183144
 30
0.0
 10
463.5514726608
 20
704.0011884438
 30
0.0
  0
SPLINE
  5
489
100
AcDbEntity
  8
0
100
AcDbSpline
 62
7
  6
CONTINUOUS
 70
0
 71
3
 72
9
 73
5
 74
0
 42
0.0000001
 43
0.0000001
 44
0.0000000001
 40
0.0
 40
0.0
 40
0.0
 40
0.0
 40
0.2018320224
 40
1.0
 40
1.0
 40
1.0
 40
1.0
 10
467.0001219923
 20
646.1070038653
 30
0.0
 10
467.0340491463
 20
646.7521904874
 30
0.0
 10
467.1596465684
 20
649.950994357
 30
0.0
 10
467.1919856124
 20
653.1527276469
 30
0.0
 10
467.1919856124
 20
655.7077176502
 30
0.0
  0
SPLINE
  5
48A
100
AcDbEntity
  8
0
100
AcDbSpline
 62
7
  6
CONTINUOUS
 70
0
 71
3
 72
9
 73
5
 74
0
 42
0.0000001
 43
0.0000001
 44
0.0000000001
 40
0.0
 40
0.0
 40
0.0
 40
0.0
 40
0.1993650049
 40
1.0
 40
1.0
 40
1.0
 40
1.0
 10
463.504951053
 20
646.2907975129
 30
0.0
 10
463.5378218557
 20
646.9158956904
 30
0.0
 10
463.6605362918
 20
650.0534728622
 30
0.0
 10
463.6919856124
 20
653.1939015852
 30
0.0
 10
463.6919856124
 20
655.7077176502
 30
0.0
  0
SPLINE
  5
48B
100
AcDbEntity
  8
0
100
AcDbSpline
 62
7
  6
CONTINUOUS
 70
0
 71
3
 72
14
 73
10
 74
0
 42
0.0000001
 43
0.0000001
 44
0.0000000001
 40
0.0
 40
0.0
 40
0.0
 40
0.0
 40
0.0117990022
 40
0.0703125098
 40
0.1614321674
 40
0.2804260666
 40
0.4251359161
 40
0.5940965807
 40
1.0
 40
1.0
 40
1.0
 40
1.0
 10
462.8686027134
 20
639.3608432473
 30
0.0
 10
462.8578876898
 20
639.3356351482
 30
0.0
 10
462.9488729713
 20
639.6724001037
 30
0.0
 10
462.9572935336
 20
639.8342402421
 30
0.0
 10
463.0769253423
 20
640.5668267963
 30
0.0
 10
463.1546433497
 20
641.3390907803
 30
0.0
 10
463.250749396
 20
642.3560525732
 30
0.0
 10
463.3760701248
 20
644.0142461212
 30
0.0
 10
463.4554692205
 20
645.3498103503
 30
0.0
 10
463.504951053
 20
646.2907975129
 30
0.0
  0
SPLINE
  5
48C
100
AcDbEntity
  8
0
100
AcDbSpline
 62
7
  6
CONTINUOUS
 70
0
 71
3
 72
9
 73
5
 74
0
 42
0.0000001
 43
0.0000001
 44
0.0000000001
 40
0.0
 40
0.0
 40
0.0
 40
0.0
 40
0.2766586986
 40
1.0
 40
1.0
 40
1.0
 40
1.0
 10
461.7922577236
 20
644.1291439057
 30
0.0
 10
461.8087762784
 20
643.8712288888
 30
0.0
 10
461.8711014121
 20
642.9391593738
 30
0.0
 10
461.943914255
 20
642.0077132527
 30
0.0
 10
462.0075682004
 20
641.3350016885
 30
0.0
  0
SPLINE
  5
48D
100
AcDbEntity
  8
0
100
AcDbSpline
 62
7
  6
CONTINUOUS
 70
0
 71
3
 72
12
 73
8
 74
0
 42
0.0000001
 43
0.0000001
 44
0.0000000001
 40
0.0
 40
0.0
 40
0.0
 40
0.0
 40
0.253082026
 40
0.4472675566
 40
0.6175114421
 40
0.759030628
 40
1.0
 40
1.0
 40
1.0
 40
1.0
 10
462.0075682004
 20
641.3350016885
 30
0.0
 10
462.0522789039
 20
640.8624872649
 30
0.0
 10
462.1409428734
 20
640.0276631565
 30
0.0
 10
462.3130324502
 20
638.8838245465
 30
0.0
 10
462.5517703351
 20
637.956252813
 30
0.0
 10
463.1355696546
 20
637.072896229
 30
0.0
 10
463.8849684255
 20
636.7716709647
 30
0.0
 10
464.3368776089
 20
636.7715265385
 30
0.0
  0
SPLINE
  5
48E
100
AcDbEntity
  8
0
100
AcDbSpline
 62
7
  6
CONTINUOUS
 70
0
 71
3
 72
15
 73
11
 74
0
 42
0.0000001
 43
0.0000001
 44
0.0000000001
 40
0.0
 40
0.0
 40
0.0
 40
0.0
 40
0.1125462733
 40
0.1950031345
 40
0.2834522696
 40
0.3579241212
 40
0.4459234292
 40
0.5532790897
 40
0.6814206934
 40
1.0
 40
1.0
 40
1.0
 40
1.0
 10
464.3368776089
 20
636.7715265385
 30
0.0
 10
464.6866605222
 20
636.7714147509
 30
0.0
 10
465.3042738383
 20
636.9624192734
 30
0.0
 10
465.9500345706
 20
637.5963331686
 30
0.0
 10
466.2285002299
 20
638.3223110783
 30
0.0
 10
466.393186433
 20
639.0832654405
 30
0.0
 10
466.5182782014
 20
639.9134275926
 30
0.0
 10
466.6327446128
 20
640.9121761523
 30
0.0
 10
466.7896368803
 20
642.6272334249
 30
0.0
 10
466.8810907257
 20
644.0127508562
 30
0.0
 10
466.9388476708
 20
645.0011785031
 30
0.0
  0
SPLINE
  5
48F
100
AcDbEntity
  8
0
100
AcDbSpline
 62
7
  6
CONTINUOUS
 70
0
 71
3
 72
9
 73
5
 74
0
 42
0.0000001
 43
0.0000001
 44
0.0000000001
 40
0.0
 40
0.0
 40
0.0
 40
0.0
 40
0.2851789716
 40
1.0
 40
1.0
 40
1.0
 40
1.0
 10
461.48579429
 20
655.7077176502
 30
0.0
 10
461.48579429
 20
654.7948521205
 30
0.0
 10
461.502793288
 20
651.5940559369
 30
0.0
 10
461.5575009085
 20
648.3920080833
 30
0.0
 10
461.6776579101
 20
646.1070038653
 30
0.0
  0
SPLINE
  5
490
100
AcDbEntity
  8
0
100
AcDbSpline
 62
7
  6
CONTINUOUS
 70
0
 71
3
 72
8
 73
4
 74
0
 42
0.0000001
 43
0.0000001
 44
0.0000000001
 40
0.0
 40
0.0
 40
0.0
 40
0.0
 40
1.0
 40
1.0
 40
1.0
 40
1.0
 10
154.9529883459
 20
113.367753178
 30
0.0
 10
155.0295617101
 20
113.36774019
 30
0.0
 10
155.1054588322
 20
113.4119775517
 30
0.0
 10
155.1615009338
 20
113.4641576544
 30
0.0
  0
SPLINE
  5
491
100
AcDbEntity
  8
0
100
AcDbSpline
 62
7
  6
CONTINUOUS
 70
0
 71
3
 72
9
 73
5
 74
0
 42
0.0000001
 43
0.0000001
 44
0.0000000001
 40
0.0
 40
0.0
 40
0.0
 40
0.0
 40
0.2061989022
 40
1.0
 40
1.0
 40
1.0
 40
1.0
 10
155.1615009338
 20
113.4641576544
 30
0.0
 10
155.1844388689
 20
113.4855148799
 30
0.0
 10
155.2867116463
 20
113.598721591
 30
0.0
 10
155.3576963422
 20
113.7363055179
 30
0.0
 10
155.4059432681
 20
113.8468935208
 30
0.0
  0
SPLINE
  5
492
100
AcDbEntity
  8
0
100
AcDbSpline
 62
7
  6
CONTINUOUS
 70
0
 71
3
 72
9
 73
5
 74
0
 42
0.0000001
 43
0.0000001
 44
0.0000000001
 40
0.0
 40
0.0
 40
0.0
 40
0.0
 40
0.2232148672
 40
1.0
 40
1.0
 40
1.0
 40
1.0
 10
155.4401197221
 20
113.9294814659
 30
0.0
 10
155.4594818519
 20
113.9787656448
 30
0.0
 10
155.5395074958
 20
114.2021959095
 30
0.0
 10
155.5962120299
 20
114.4334552828
 30
0.0
 10
155.6320609992
 20
114.6142038205
 30
0.0
  0
SPLINE
  5
493
100
AcDbEntity
  8
0
100
AcDbSpline
 62
7
  6
CONTINUOUS
 70
0
 71
3
 72
9
 73
5
 74
0
 42
0.0000001
 43
0.0000001
 44
0.0000000001
 40
0.0
 40
0.0
 40
0.0
 40
0.0
 40
0.2346675063
 40
1.0
 40
1.0
 40
1.0
 40
1.0
 10
155.6320609992
 20
114.6142038205
 30
0.0
 10
155.6471068946
 20
114.6900644004
 30
0.0
 10
155.7047172535
 20
115.0146144268
 30
0.0
 10
155.7381736296
 20
115.3432345897
 30
0.0
 10
155.7531318279
 20
115.5950176663
 30
0.0
  0
SPLINE
  5
494
100
AcDbEntity
  8
0
100
AcDbSpline
 62
7
  6
CONTINUOUS
 70
0
 71
3
 72
9
 73
5
 74
0
 42
0.0000001
 43
0.0000001
 44
0.0000000001
 40
0.0
 40
0.0
 40
0.0
 40
0.0
 40
0.2057499287
 40
1.0
 40
1.0
 40
1.0
 40
1.0
 10
155.1596570322
 20
113.4640049894
 30
0.0
 10
155.1376950067
 20
113.4851564762
 30
0.0
 10
155.040119581
 20
113.5974797948
 30
0.0
 10
154.9745148786
 20
113.7335562427
 30
0.0
 10
154.9302462105
 20
113.8426186635
 30
0.0
  0
SPLINE
  5
495
100
AcDbEntity
  8
0
100
AcDbSpline
 62
7
  6
CONTINUOUS
 70
0
 71
3
 72
9
 73
5
 74
0
 42
0.0000001
 43
0.0000001
 44
0.0000000001
 40
0.0
 40
0.0
 40
0.0
 40
0.0
 40
0.202805452
 40
1.0
 40
1.0
 40
1.0
 40
1.0
 10
440.5546377182
 20
698.0183701996
 30
0.0
 10
440.5505856483
 20
697.9983468006
 30
0.0
 10
440.5344853418
 20
697.8988458287
 30
0.0
 10
440.5281933631
 20
697.798018242
 30
0.0
 10
440.5256948015
 20
697.7177529859
 30
0.0
  0
SPLINE
  5
496
100
AcDbEntity
  8
0
100
AcDbSpline
 62
7
  6
CONTINUOUS
 70
0
 71
3
 72
9
 73
5
 74
0
 42
0.0000001
 43
0.0000001
 44
0.0000000001
 40
0.0
 40
0.0
 40
0.0
 40
0.0
 40
0.164517614
 40
1.0
 40
1.0
 40
1.0
 40
1.0
 10
157.0405272879
 20
119.1177530901
 30
0.0
 10
157.0613561152
 20
119.1177488072
 30
0.0
 10
157.1853754151
 20
119.169868034
 30
0.0
 10
157.2239414572
 20
119.3138504061
 30
0.0
 10
157.25208134
 20
119.4158153132
 30
0.0
  0
SPLINE
  5
497
100
AcDbEntity
  8
0
100
AcDbSpline
 62
7
  6
CONTINUOUS
 70
0
 71
3
 72
8
 73
4
 74
0
 42
0.0000001
 43
0.0000001
 44
0.0000000001
 40
0.0
 40
0.0
 40
0.0
 40
0.0
 40
1.0
 40
1.0
 40
1.0
 40
1.0
 10
157.25208134
 20
119.4158153132
 30
0.0
 10
157.2792240925
 20
119.5141671168
 30
0.0
 10
157.2948080837
 20
119.6158641495
 30
0.0
 10
157.3038488687
 20
119.7174912645
 30
0.0
  0
SPLINE
  5
498
100
AcDbEntity
  8
0
100
AcDbSpline
 62
7
  6
CONTINUOUS
 70
0
 71
3
 72
8
 73
4
 74
0
 42
0.0000001
 43
0.0000001
 44
0.0000000001
 40
0.0
 40
0.0
 40
0.0
 40
0.0
 40
1.0
 40
1.0
 40
1.0
 40
1.0
 10
157.2484031378
 20
119.4158093852
 30
0.0
 10
157.2219703182
 20
119.514093012
 30
0.0
 10
157.2069175116
 20
119.6155774414
 30
0.0
 10
157.1981687865
 20
119.7169767761
 30
0.0
  0
SPLINE
  5
499
100
AcDbEntity
  8
0
100
AcDbSpline
 62
7
  6
CONTINUOUS
 70
0
 71
3
 72
9
 73
5
 74
0
 42
0.0000001
 43
0.0000001
 44
0.0000000001
 40
0.0
 40
0.0
 40
0.0
 40
0.0
 40
0.6128052467
 40
1.0
 40
1.0
 40
1.0
 40
1.0
 10
156.1056326447
 20
137.3177529859
 30
0.0
 10
156.1056326447
 20
137.4817006158
 30
0.0
 10
156.1312383877
 20
137.740681343
 30
0.0
 10
156.2094225498
 20
138.0204890878
 30
0.0
 10
156.2870694877
 20
138.0890570059
 30
0.0
  0
SPLINE
  5
49A
100
AcDbEntity
  8
0
100
AcDbSpline
 62
7
  6
CONTINUOUS
 70
0
 71
3
 72
9
 73
5
 74
0
 42
0.0000001
 43
0.0000001
 44
0.0000000001
 40
0.0
 40
0.0
 40
0.0
 40
0.0
 40
0.6095690727
 40
1.0
 40
1.0
 40
1.0
 40
1.0
 10
157.3127363024
 20
137.3177529859
 30
0.0
 10
157.3127363024
 20
137.482063408
 30
0.0
 10
157.2851757663
 20
137.7437116453
 30
0.0
 10
157.1939039151
 20
138.0223063829
 30
0.0
 10
157.1122756184
 20
138.0887335036
 30
0.0
  0
SPLINE
  5
49B
100
AcDbEntity
  8
0
100
AcDbSpline
 62
7
  6
CONTINUOUS
 70
0
 71
3
 72
9
 73
5
 74
0
 42
0.0000001
 43
0.0000001
 44
0.0000000001
 40
0.0
 40
0.0
 40
0.0
 40
0.0
 40
0.5321281731
 40
1.0
 40
1.0
 40
1.0
 40
1.0
 10
157.1122756184
 20
138.0887335036
 30
0.0
 10
157.1014675355
 20
138.0975288583
 30
0.0
 10
157.0791048146
 20
138.111944655
 30
0.0
 10
157.0527774971
 20
138.1177529859
 30
0.0
 10
157.040525554
 20
138.1177529859
 30
0.0
  0
SPLINE
  5
49C
100
AcDbEntity
  8
0
100
AcDbSpline
 62
7
  6
CONTINUOUS
 70
0
 71
3
 72
10
 73
6
 74
0
 42
0.0000001
 43
0.0000001
 44
0.0000000001
 40
0.0
 40
0.0
 40
0.0
 40
0.0
 40
0.70808454
 40
0.9176018756
 40
1.0
 40
1.0
 40
1.0
 40
1.0
 10
441.4035856677
 20
654.6749640068
 30
0.0
 10
441.405245411
 20
654.5739097036
 30
0.0
 10
441.4087013335
 20
654.4297065226
 30
0.0
 10
441.4317235203
 20
654.3108242287
 30
0.0
 10
441.4421782906
 20
654.2531812393
 30
0.0
 10
441.4539393271
 20
654.2531812393
 30
0.0
  0
SPLINE
  5
49D
100
AcDbEntity
  8
0
100
AcDbSpline
 62
7
  6
CONTINUOUS
 70
0
 71
3
 72
9
 73
5
 74
0
 42
0.0000001
 43
0.0000001
 44
0.0000000001
 40
0.0
 40
0.0
 40
0.0
 40
0.0
 40
0.2714907046
 40
1.0
 40
1.0
 40
1.0
 40
1.0
 10
155.7069384008
 20
117.1511808089
 30
0.0
 10
155.696829926
 20
117.2329853801
 30
0.0
 10
155.654373297
 20
117.5335594022
 30
0.0
 10
155.5920019222
 20
117.831864765
 30
0.0
 10
155.5293215361
 20
118.0439786848
 30
0.0
  0
SPLINE
  5
49E
100
AcDbEntity
  8
0
100
AcDbSpline
 62
7
  6
CONTINUOUS
 70
0
 71
3
 72
8
 73
4
 74
0
 42
0.0000001
 43
0.0000001
 44
0.0000000001
 40
0.0
 40
0.0
 40
0.0
 40
0.0
 40
1.0
 40
1.0
 40
1.0
 40
1.0
 10
155.5293215361
 20
118.0439786848
 30
0.0
 10
155.4944795808
 20
118.1618858036
 30
0.0
 10
155.4541331136
 20
118.2785479919
 30
0.0
 10
155.4048257297
 20
118.3911749532
 30
0.0
  0
SPLINE
  5
49F
100
AcDbEntity
  8
0
100
AcDbSpline
 62
7
  6
CONTINUOUS
 70
0
 71
3
 72
9
 73
5
 74
0
 42
0.0000001
 43
0.0000001
 44
0.0000000001
 40
0.0
 40
0.0
 40
0.0
 40
0.0
 40
0.2832612691
 40
1.0
 40
1.0
 40
1.0
 40
1.0
 10
155.4048257297
 20
118.3911749532
 30
0.0
 10
155.3909119361
 20
118.4229565683
 30
0.0
 10
155.3391388388
 20
118.5338244414
 30
0.0
 10
155.2761804916
 20
118.6405387916
 30
0.0
 10
155.2203675986
 20
118.7082982535
 30
0.0
  0
SPLINE
  5
4A0
100
AcDbEntity
  8
0
100
AcDbSpline
 62
7
  6
CONTINUOUS
 70
0
 71
3
 72
9
 73
5
 74
0
 42
0.0000001
 43
0.0000001
 44
0.0000000001
 40
0.0
 40
0.0
 40
0.0
 40
0.0
 40
0.5153695736
 40
1.0
 40
1.0
 40
1.0
 40
1.0
 10
155.2203675986
 20
118.7082982535
 30
0.0
 10
155.2109418456
 20
118.7197415584
 30
0.0
 10
155.1920184667
 20
118.741434022
 30
0.0
 10
155.1717076525
 20
118.7618436699
 30
0.0
 10
155.1615044753
 20
118.7713437736
 30
0.0
  0
SPLINE
  5
4A1
100
AcDbEntity
  8
0
100
AcDbSpline
 62
7
  6
CONTINUOUS
 70
0
 71
3
 72
8
 73
4
 74
0
 42
0.0000001
 43
0.0000001
 44
0.0000000001
 40
0.0
 40
0.0
 40
0.0
 40
0.0
 40
1.0
 40
1.0
 40
1.0
 40
1.0
 10
155.1615044753
 20
118.7713437736
 30
0.0
 10
155.105461062
 20
118.823525387
 30
0.0
 10
155.029562855
 20
118.8677610189
 30
0.0
 10
154.9529875007
 20
118.8677529841
 30
0.0
  0
SPLINE
  5
4A2
100
AcDbEntity
  8
0
100
AcDbSpline
 62
7
  6
CONTINUOUS
 70
0
 71
3
 72
8
 73
4
 74
0
 42
0.0000001
 43
0.0000001
 44
0.0000000001
 40
0.0
 40
0.0
 40
0.0
 40
0.0
 40
1.0
 40
1.0
 40
1.0
 40
1.0
 10
148.9163480774
 20
135.9165045525
 30
0.0
 10
148.7615634035
 20
136.0038953979
 30
0.0
 10
148.5842367408
 20
136.0566588862
 30
0.0
 10
148.407559951
 20
136.0761721407
 30
0.0
  0
SPLINE
  5
4A3
100
AcDbEntity
  8
0
100
AcDbSpline
 62
7
  6
CONTINUOUS
 70
0
 71
3
 72
11
 73
7
 74
0
 42
0.0000001
 43
0.0000001
 44
0.0000000001
 40
0.0
 40
0.0
 40
0.0
 40
0.0
 40
0.4193685527
 40
0.736044325
 40
0.933504348
 40
1.0
 40
1.0
 40
1.0
 40
1.0
 10
121.5913896982
 20
124.7292643778
 30
0.0
 10
121.4795024658
 20
124.7140295885
 30
0.0
 10
121.2898603985
 20
124.6949193027
 30
0.0
 10
121.0191640045
 20
124.6381879743
 30
0.0
 10
120.902791067
 20
124.6612194009
 30
0.0
 10
120.7913488834
 20
124.6080413698
 30
0.0
 10
120.7902908578
 20
124.6259147793
 30
0.0
  0
SPLINE
  5
4A4
100
AcDbEntity
  8
0
100
AcDbSpline
 62
7
  6
CONTINUOUS
 70
0
 71
3
 72
14
 73
10
 74
0
 42
0.0000001
 43
0.0000001
 44
0.0000000001
 40
0.0
 40
0.0
 40
0.0
 40
0.0
 40
0.3797869915
 40
0.5529920316
 40
0.7050616037
 40
0.8301012784
 40
0.9232762237
 40
0.9807417236
 40
1.0
 40
1.0
 40
1.0
 40
1.0
 10
125.2803855088
 20
124.9039902495
 30
0.0
 10
125.0196325366
 20
124.8673137464
 30
0.0
 10
124.6394902565
 20
124.8138652229
 30
0.0
 10
124.1562198813
 20
124.7483072494
 30
0.0
 10
123.8444436914
 20
124.7035992281
 30
0.0
 10
123.5966906406
 20
124.6767963059
 30
0.0
 10
123.3911122524
 20
124.6345766733
 30
0.0
 10
123.3033587909
 20
124.6516344986
 30
0.0
 10
123.2199143646
 20
124.6125856694
 30
0.0
 10
123.2191253411
 20
124.6259147793
 30
0.0
  0
SPLINE
  5
4A5
100
AcDbEntity
  8
0
100
AcDbSpline
 62
7
  6
CONTINUOUS
 70
0
 71
3
 72
8
 73
4
 74
0
 42
0.0000001
 43
0.0000001
 44
0.0000000001
 40
0.0
 40
0.0
 40
0.0
 40
0.0
 40
1.0
 40
1.0
 40
1.0
 40
1.0
 10
469.9175140105
 20
720.647813384
 30
0.0
 10
469.9175140105
 20
720.9526767065
 30
0.0
 10
469.8159086231
 20
721.2706952984
 30
0.0
 10
469.6389628441
 20
721.5189528999
 30
0.0
  0
SPLINE
  5
4A6
100
AcDbEntity
  8
0
100
AcDbSpline
 62
7
  6
CONTINUOUS
 70
0
 71
3
 72
8
 73
4
 74
0
 42
0.0000001
 43
0.0000001
 44
0.0000000001
 40
0.0
 40
0.0
 40
0.0
 40
0.0
 40
1.0
 40
1.0
 40
1.0
 40
1.0
 10
469.6389628441
 20
721.5189528999
 30
0.0
 10
469.5199629342
 20
721.6859115714
 30
0.0
 10
469.3625699118
 20
721.8305187311
 30
0.0
 10
469.186569217
 20
721.9356849423
 30
0.0
  0
SPLINE
  5
4A7
100
AcDbEntity
  8
0
100
AcDbSpline
 62
7
  6
CONTINUOUS
 70
0
 71
3
 72
11
 73
7
 74
0
 42
0.0000001
 43
0.0000001
 44
0.0000000001
 40
0.0
 40
0.0
 40
0.0
 40
0.0
 40
0.0875747127
 40
0.3083026802
 40
0.6286668778
 40
1.0
 40
1.0
 40
1.0
 40
1.0
 10
454.1781037477
 20
727.4852528757
 30
0.0
 10
454.2205139976
 20
727.4852528757
 30
0.0
 10
454.3609916758
 20
727.4203052742
 30
0.0
 10
454.6522034482
 20
727.3432034263
 30
0.0
 10
455.0701904621
 20
727.1940443498
 30
0.0
 10
455.3874014127
 20
727.0880467177
 30
0.0
 10
455.5574167456
 20
727.02945772
 30
0.0
  0
SPLINE
  5
4A8
100
AcDbEntity
  8
0
100
AcDbSpline
 62
7
  6
CONTINUOUS
 70
0
 71
3
 72
13
 73
9
 74
0
 42
0.0000001
 43
0.0000001
 44
0.0000000001
 40
0.0
 40
0.0
 40
0.0
 40
0.0
 40
0.3849470107
 40
0.7084643398
 40
0.8319346694
 40
0.9237904039
 40
0.9803859216
 40
1.0
 40
1.0
 40
1.0
 40
1.0
 10
459.5253374228
 20
725.6620722526
 30
0.0
 10
459.6887204596
 20
725.605768811
 30
0.0
 10
459.9879059558
 20
725.5008686522
 30
0.0
 10
460.3440138834
 20
725.3781909933
 30
0.0
 10
460.5656430018
 20
725.2933324496
 30
0.0
 10
460.6905416198
 20
725.255479419
 30
0.0
 10
460.7418141979
 20
725.2199236411
 30
0.0
 10
460.7936709026
 20
725.2153779097
 30
0.0
 10
460.7924905164
 20
725.2066521379
 30
0.0
  0
SPLINE
  5
4A9
100
AcDbEntity
  8
0
100
AcDbSpline
 62
7
  6
CONTINUOUS
 70
0
 71
3
 72
8
 73
4
 74
0
 42
0.0000001
 43
0.0000001
 44
0.0000000001
 40
0.0
 40
0.0
 40
0.0
 40
0.0
 40
1.0
 40
1.0
 40
1.0
 40
1.0
 10
466.1214064439
 20
709.6714370362
 30
0.0
 10
466.5660262048
 20
709.6062973558
 30
0.0
 10
467.0058870735
 20
709.470886374
 30
0.0
 10
467.4091835445
 20
709.2726898398
 30
0.0
  0
SPLINE
  5
4AA
100
AcDbEntity
  8
0
100
AcDbSpline
 62
7
  6
CONTINUOUS
 70
0
 71
3
 72
8
 73
4
 74
0
 42
0.0000001
 43
0.0000001
 44
0.0000000001
 40
0.0
 40
0.0
 40
0.0
 40
0.0
 40
1.0
 40
1.0
 40
1.0
 40
1.0
 10
468.5863502655
 20
708.4248855182
 30
0.0
 10
468.9283273603
 20
708.0800794873
 30
0.0
 10
469.2161922193
 20
707.6729560988
 30
0.0
 10
469.429148078
 20
707.2365052602
 30
0.0
  0
SPLINE
  5
4AB
100
AcDbEntity
  8
0
100
AcDbSpline
 62
7
  6
CONTINUOUS
 70
0
 71
3
 72
8
 73
4
 74
0
 42
0.0000001
 43
0.0000001
 44
0.0000000001
 40
0.0
 40
0.0
 40
0.0
 40
0.0
 40
1.0
 40
1.0
 40
1.0
 40
1.0
 10
469.429148078
 20
707.2365052602
 30
0.0
 10
469.6333861658
 20
706.8179214031
 30
0.0
 10
469.7732172302
 20
706.3620948786
 30
0.0
 10
469.8408560899
 20
705.9012797025
 30
0.0
  0
SPLINE
  5
4AC
100
AcDbEntity
  8
0
100
AcDbSpline
 62
7
  6
CONTINUOUS
 70
0
 71
3
 72
11
 73
7
 74
0
 42
0.0000001
 43
0.0000001
 44
0.0000000001
 40
0.0
 40
0.0
 40
0.0
 40
0.0
 40
0.3977076968
 40
0.7165832978
 40
0.9211695228
 40
1.0
 40
1.0
 40
1.0
 40
1.0
 10
441.7674664523
 20
642.0013325833
 30
0.0
 10
441.7701844119
 20
641.8287021475
 30
0.0
 10
441.7819473944
 20
641.5249596925
 30
0.0
 10
441.8102659667
 20
641.1018576727
 30
0.0
 10
441.8550819907
 20
640.889161934
 30
0.0
 10
441.8839887947
 20
640.7177529859
 30
0.0
 10
441.9182104764
 20
640.7177529859
 30
0.0
  0
SPLINE
  5
4AD
100
AcDbEntity
  8
0
100
AcDbSpline
 62
7
  6
CONTINUOUS
 70
0
 71
3
 72
8
 73
4
 74
0
 42
0.0000001
 43
0.0000001
 44
0.0000000001
 40
0.0
 40
0.0
 40
0.0
 40
0.0
 40
1.0
 40
1.0
 40
1.0
 40
1.0
 10
469.7741618934
 20
686.1314286724
 30
0.0
 10
469.7742730027
 20
685.8293882237
 30
0.0
 10
469.6747174722
 20
685.5145073018
 30
0.0
 10
469.5008993502
 20
685.2674937283
 30
0.0
  0
SPLINE
  5
4AE
100
AcDbEntity
  8
0
100
AcDbSpline
 62
7
  6
CONTINUOUS
 70
0
 71
3
 72
9
 73
5
 74
0
 42
0.0000001
 43
0.0000001
 44
0.0000000001
 40
0.0
 40
0.0
 40
0.0
 40
0.0
 40
0.3622706951
 40
1.0
 40
1.0
 40
1.0
 40
1.0
 10
441.7967021752
 20
709.1456128517
 30
0.0
 10
441.7900038157
 20
709.2260088064
 30
0.0
 10
441.7926632357
 20
709.4352731769
 30
0.0
 10
441.9374085246
 20
709.7177529859
 30
0.0
 10
442.0794252645
 20
709.7177529859
 30
0.0
  0
SPLINE
  5
4AF
100
AcDbEntity
  8
0
100
AcDbSpline
 62
7
  6
CONTINUOUS
 70
0
 71
3
 72
8
 73
4
 74
0
 42
0.0000001
 43
0.0000001
 44
0.0000000001
 40
0.0
 40
0.0
 40
0.0
 40
0.0
 40
1.0
 40
1.0
 40
1.0
 40
1.0
 10
440.5479117306
 20
698.0162260542
 30
0.0
 10
440.5464851363
 20
698.1875707078
 30
0.0
 10
440.5472534024
 20
698.3589319455
 30
0.0
 10
440.5485809005
 20
698.5302773954
 30
0.0
  0
SPLINE
  5
4B0
100
AcDbEntity
  8
0
100
AcDbSpline
 62
7
  6
CONTINUOUS
 70
0
 71
3
 72
8
 73
4
 74
0
 42
0.0000001
 43
0.0000001
 44
0.0000000001
 40
0.0
 40
0.0
 40
0.0
 40
0.0
 40
1.0
 40
1.0
 40
1.0
 40
1.0
 10
440.5485809005
 20
698.5302773954
 30
0.0
 10
440.559078899
 20
699.8852957053
 30
0.0
 10
440.5037773999
 20
701.2400950778
 30
0.0
 10
440.4645008499
 20
702.5945847162
 30
0.0
  0
SPLINE
  5
4B1
100
AcDbEntity
  8
0
100
AcDbSpline
 62
7
  6
CONTINUOUS
 70
0
 71
3
 72
9
 73
5
 74
0
 42
0.0000001
 43
0.0000001
 44
0.0000000001
 40
0.0
 40
0.0
 40
0.0
 40
0.0
 40
0.5192186059
 40
1.0
 40
1.0
 40
1.0
 40
1.0
 10
125.4555105748
 20
120.8498400187
 30
0.0
 10
124.6996305034
 20
120.8498400187
 30
0.0
 10
123.2183724247
 20
121.5521578775
 30
0.0
 10
122.6544407932
 20
123.1701637609
 30
0.0
 10
122.8359420137
 20
123.8461442298
 30
0.0
  0
SPLINE
  5
4B2
100
AcDbEntity
  8
0
100
AcDbSpline
 62
7
  6
CONTINUOUS
 70
0
 71
3
 72
8
 73
4
 74
0
 42
0.0000001
 43
0.0000001
 44
0.0000000001
 40
0.0
 40
0.0
 40
0.0
 40
0.0
 40
1.0
 40
1.0
 40
1.0
 40
1.0
 10
122.8359420137
 20
123.8461442298
 30
0.0
 10
122.8891648917
 20
124.0443667315
 30
0.0
 10
122.9816178801
 20
124.2363881659
 30
0.0
 10
123.1065720681
 20
124.3992110323
 30
0.0
  0
SPLINE
  5
4B3
100
AcDbEntity
  8
0
100
AcDbSpline
 62
7
  6
CONTINUOUS
 70
0
 71
3
 72
10
 73
6
 74
0
 42
0.0000001
 43
0.0000001
 44
0.0000000001
 40
0.0
 40
0.0
 40
0.0
 40
0.0
 40
0.5000863239
 40
0.7500691001
 40
1.0
 40
1.0
 40
1.0
 40
1.0
 10
441.3535682412
 20
665.1190777174
 30
0.0
 10
441.2791845593
 20
668.7972756088
 30
0.0
 10
441.1763264073
 20
674.3142958894
 30
0.0
 10
440.9944810696
 20
681.6687736115
 30
0.0
 10
440.8577074962
 20
685.344012467
 30
0.0
 10
440.8090776834
 20
687.1820183575
 30
0.0
  0
SPLINE
  5
4B4
100
AcDbEntity
  8
0
100
AcDbSpline
 62
7
  6
CONTINUOUS
 70
0
 71
3
 72
8
 73
4
 74
0
 42
0.0000001
 43
0.0000001
 44
0.0000000001
 40
0.0
 40
0.0
 40
0.0
 40
0.0
 40
1.0
 40
1.0
 40
1.0
 40
1.0
 10
127.3767608632
 20
126.0584741322
 30
0.0
 10
127.5758208211
 20
125.9038734802
 30
0.0
 10
127.7963912654
 20
125.7732695173
 30
0.0
 10
128.0286179287
 20
125.6753052111
 30
0.0
  0
SPLINE
  5
4B5
100
AcDbEntity
  8
0
100
AcDbSpline
 62
7
  6
CONTINUOUS
 70
0
 71
3
 72
8
 73
4
 74
0
 42
0.0000001
 43
0.0000001
 44
0.0000000001
 40
0.0
 40
0.0
 40
0.0
 40
0.0
 40
1.0
 40
1.0
 40
1.0
 40
1.0
 10
128.0286179287
 20
125.6753052111
 30
0.0
 10
128.3383233635
 20
125.5446566558
 30
0.0
 10
128.6792253952
 20
125.4674145853
 30
0.0
 10
129.0153600428
 20
125.4674145853
 30
0.0
  0
SPLINE
  5
4B6
100
AcDbEntity
  8
0
100
AcDbSpline
 62
7
  6
CONTINUOUS
 70
0
 71
3
 72
9
 73
5
 74
0
 42
0.0000001
 43
0.0000001
 44
0.0000000001
 40
0.0
 40
0.0
 40
0.0
 40
0.0
 40
0.3388816092
 40
1.0
 40
1.0
 40
1.0
 40
1.0
 10
111.4320756978
 20
130.9206388442
 30
0.0
 10
111.398851499
 20
130.9157663579
 30
0.0
 10
111.3008330782
 20
130.9012476008
 30
0.0
 10
111.2027908231
 20
130.8868258372
 30
0.0
 10
111.1381525684
 20
130.8761752253
 30
0.0
  0
SPLINE
  5
4B7
100
AcDbEntity
  8
0
100
AcDbSpline
 62
7
  6
CONTINUOUS
 70
0
 71
3
 72
9
 73
5
 74
0
 42
0.0000001
 43
0.0000001
 44
0.0000000001
 40
0.0
 40
0.0
 40
0.0
 40
0.0
 40
0.3197761993
 40
1.0
 40
1.0
 40
1.0
 40
1.0
 10
468.9114488555
 20
722.0645786912
 30
0.0
 10
469.0266839627
 20
722.0242312561
 30
0.0
 10
469.0303940329
 20
721.508361018
 30
0.0
 10
468.9617127602
 20
721.1974890608
 30
0.0
 10
468.8950797611
 20
720.9464645511
 30
0.0
  0
SPLINE
  5
4B8
100
AcDbEntity
  8
0
100
AcDbSpline
 62
7
  6
CONTINUOUS
 70
0
 71
3
 72
8
 73
4
 74
0
 42
0.0000001
 43
0.0000001
 44
0.0000000001
 40
0.0
 40
0.0
 40
0.0
 40
0.0
 40
1.0
 40
1.0
 40
1.0
 40
1.0
 10
440.5529406034
 20
697.7177529859
 30
0.0
 10
440.5585249673
 20
697.484551907
 30
0.0
 10
440.5558114006
 20
697.2511833886
 30
0.0
 10
440.5517892033
 20
697.0179501358
 30
0.0
  0
SPLINE
  5
4B9
100
AcDbEntity
  8
0
100
AcDbSpline
 62
7
  6
CONTINUOUS
 70
0
 71
3
 72
13
 73
9
 74
0
 42
0.0000001
 43
0.0000001
 44
0.0000000001
 40
0.0
 40
0.0
 40
0.0
 40
0.0
 40
0.2501115587
 40
0.6251724864
 40
0.7189352915
 40
0.8127672032
 40
0.9064022106
 40
1.0
 40
1.0
 40
1.0
 40
1.0
 10
440.5517892033
 20
697.0179501358
 30
0.0
 10
440.5384134137
 20
696.2423345441
 30
0.0
 10
440.6000561989
 20
694.3033378003
 30
0.0
 10
440.6362756774
 20
692.0741957136
 30
0.0
 10
440.6876855335
 20
690.3297694994
 30
0.0
 10
440.6861863175
 20
689.4573048815
 30
0.0
 10
440.7319881525
 20
688.5865222751
 30
0.0
 10
440.7890170295
 20
688.0079795014
 30
0.0
 10
440.7954253391
 20
687.7177529859
 30
0.0
  0
SPLINE
  5
4BA
100
AcDbEntity
  8
0
100
AcDbSpline
 62
7
  6
CONTINUOUS
 70
0
 71
3
 72
9
 73
5
 74
0
 42
0.0000001
 43
0.0000001
 44
0.0000000001
 40
0.0
 40
0.0
 40
0.0
 40
0.0
 40
0.3334869097
 40
1.0
 40
1.0
 40
1.0
 40
1.0
 10
155.9386126106
 20
138.1177529859
 30
0.0
 10
155.8645923531
 20
138.1177529859
 30
0.0
 10
155.7318499523
 20
137.8623210413
 30
0.0
 10
155.7118734713
 20
137.6665889767
 30
0.0
 10
155.7001332484
 20
137.5191173059
 30
0.0
  0
SPLINE
  5
4BB
100
AcDbEntity
  8
0
100
AcDbSpline
 62
7
  6
CONTINUOUS
 70
0
 71
3
 72
9
 73
5
 74
0
 42
0.0000001
 43
0.0000001
 44
0.0000000001
 40
0.0
 40
0.0
 40
0.0
 40
0.0
 40
0.6111254342
 40
1.0
 40
1.0
 40
1.0
 40
1.0
 10
156.7732696819
 20
119.9177529859
 30
0.0
 10
156.7732696819
 20
119.7530474488
 30
0.0
 10
156.8000810503
 20
119.4920433483
 30
0.0
 10
156.8885995795
 20
119.2116646502
 30
0.0
 10
156.9701067264
 20
119.1457788015
 30
0.0
  0
SPLINE
  5
4BC
100
AcDbEntity
  8
0
100
AcDbSpline
 62
7
  6
CONTINUOUS
 70
0
 71
3
 72
9
 73
5
 74
0
 42
0.0000001
 43
0.0000001
 44
0.0000000001
 40
0.0
 40
0.0
 40
0.0
 40
0.0
 40
0.5290201388
 40
1.0
 40
1.0
 40
1.0
 40
1.0
 10
156.9701067264
 20
119.1457788015
 30
0.0
 10
156.9806564748
 20
119.1372509711
 30
0.0
 10
157.0026505168
 20
119.1232573241
 30
0.0
 10
157.0284501531
 20
119.1177555734
 30
0.0
 10
157.0405272879
 20
119.1177530901
 30
0.0
  0
SPLINE
  5
4BD
100
AcDbEntity
  8
0
100
AcDbSpline
 62
7
  6
CONTINUOUS
 70
0
 71
3
 72
9
 73
5
 74
0
 42
0.0000001
 43
0.0000001
 44
0.0000000001
 40
0.0
 40
0.0
 40
0.0
 40
0.0
 40
0.3083600632
 40
1.0
 40
1.0
 40
1.0
 40
1.0
 10
154.5207315115
 20
113.8400613583
 30
0.0
 10
154.5403007078
 20
113.7919082784
 30
0.0
 10
154.6091484088
 20
113.6395200324
 30
0.0
 10
154.7042700707
 20
113.4890116288
 30
0.0
 10
154.7993340793
 20
113.4215236894
 30
0.0
  0
SPLINE
  5
4BE
100
AcDbEntity
  8
0
100
AcDbSpline
 62
7
  6
CONTINUOUS
 70
0
 71
3
 72
8
 73
4
 74
0
 42
0.0000001
 43
0.0000001
 44
0.0000000001
 40
0.0
 40
0.0
 40
0.0
 40
0.0
 40
1.0
 40
1.0
 40
1.0
 40
1.0
 10
154.7993340793
 20
113.4215236894
 30
0.0
 10
154.8435813922
 20
113.3901115912
 30
0.0
 10
154.8987246884
 20
113.367762382
 30
0.0
 10
154.9529883459
 20
113.367753178
 30
0.0
  0
SPLINE
  5
4BF
100
AcDbEntity
  8
0
100
AcDbSpline
 62
7
  6
CONTINUOUS
 70
0
 71
3
 72
9
 73
5
 74
0
 42
0.0000001
 43
0.0000001
 44
0.0000000001
 40
0.0
 40
0.0
 40
0.0
 40
0.0
 40
0.1950022955
 40
1.0
 40
1.0
 40
1.0
 40
1.0
 10
442.1464721849
 20
110.5401880901
 30
0.0
 10
442.1453156405
 20
110.5631390055
 30
0.0
 10
442.1401046675
 20
110.6808705387
 30
0.0
 10
442.1367584577
 20
110.7986760893
 30
0.0
 10
442.1344250986
 20
110.8935123088
 30
0.0
  0
SPLINE
  5
4C0
100
AcDbEntity
  8
0
100
AcDbSpline
 62
7
  6
CONTINUOUS
 70
0
 71
3
 72
9
 73
5
 74
0
 42
0.0000001
 43
0.0000001
 44
0.0000000001
 40
0.0
 40
0.0
 40
0.0
 40
0.0
 40
0.2954973048
 40
1.0
 40
1.0
 40
1.0
 40
1.0
 10
113.9999530822
 20
130.869683205
 30
0.0
 10
114.0946803743
 20
130.869683205
 30
0.0
 10
114.4112693857
 20
130.9344501453
 30
0.0
 10
114.7295054739
 20
130.9658032622
 30
0.0
 10
114.9531946012
 20
130.9969107652
 30
0.0
  0
LINE
  5
4C1
100
AcDbEntity
  8
0
100
AcDbLine
 62
7
  6
CONTINUOUS
 10
146.9650722434
 20
135.6002935852
 11
146.862057815
 21
135.5893440314
  0
LINE
  5
4C2
100
AcDbEntity
  8
0
100
AcDbLine
 62
7
  6
CONTINUOUS
 10
146.862057815
 20
135.5893440314
 11
146.7557922915
 21
135.5781461768
  0
SPLINE
  5
4C3
100
AcDbEntity
  8
0
100
AcDbSpline
 62
7
  6
CONTINUOUS
 70
0
 71
3
 72
9
 73
5
 74
0
 42
0.0000001
 43
0.0000001
 44
0.0000000001
 40
0.0
 40
0.0
 40
0.0
 40
0.0
 40
0.2857027104
 40
1.0
 40
1.0
 40
1.0
 40
1.0
 10
146.7557922915
 20
135.5781461768
 30
0.0
 10
146.6577708541
 20
135.5678650298
 30
0.0
 10
146.3146315652
 20
135.5323770095
 30
0.0
 10
145.9712847553
 20
135.4987848833
 30
0.0
 10
145.7258192378
 20
135.4772101698
 30
0.0
  0
SPLINE
  5
4C4
100
AcDbEntity
  8
0
100
AcDbSpline
 62
7
  6
CONTINUOUS
 70
0
 71
3
 72
9
 73
5
 74
0
 42
0.0000001
 43
0.0000001
 44
0.0000000001
 40
0.0
 40
0.0
 40
0.0
 40
0.0
 40
0.2985433472
 40
1.0
 40
1.0
 40
1.0
 40
1.0
 10
145.5217277907
 20
135.4599780191
 30
0.0
 10
145.4774831616
 20
135.4564166813
 30
0.0
 10
145.3292489456
 20
135.4449743201
 30
0.0
 10
145.1808522226
 20
135.4350950601
 30
0.0
 10
145.0766365
 20
135.4310735423
 30
0.0
  0
SPLINE
  5
4C5
100
AcDbEntity
  8
0
100
AcDbSpline
 62
7
  6
CONTINUOUS
 70
0
 71
3
 72
11
 73
7
 74
0
 42
0.0000001
 43
0.0000001
 44
0.0000000001
 40
0.0
 40
0.0
 40
0.0
 40
0.0
 40
0.4821127052
 40
0.7651331849
 40
0.8605614495
 40
1.0
 40
1.0
 40
1.0
 40
1.0
 10
145.0766365
 20
135.4310735423
 30
0.0
 10
145.0316858193
 20
135.4293389675
 30
0.0
 10
144.9557015889
 20
135.4322719483
 30
0.0
 10
144.8865990062
 20
135.4233445771
 30
0.0
 10
144.8233291946
 20
135.4493603165
 30
0.0
 10
144.8602877301
 20
135.463824524
 30
0.0
 10
144.8723087588
 20
135.4688012424
 30
0.0
  0
SPLINE
  5
4C6
100
AcDbEntity
  8
0
100
AcDbSpline
 62
7
  6
CONTINUOUS
 70
0
 71
3
 72
9
 73
5
 74
0
 42
0.0000001
 43
0.0000001
 44
0.0000000001
 40
0.0
 40
0.0
 40
0.0
 40
0.0
 40
0.1416504715
 40
1.0
 40
1.0
 40
1.0
 40
1.0
 10
144.8723087588
 20
135.4688012424
 30
0.0
 10
144.8939279416
 20
135.4777516065
 30
0.0
 10
145.0518947476
 20
135.527142428
 30
0.0
 10
145.2139248731
 20
135.5602632575
 30
0.0
 10
145.3526979177
 20
135.5893440314
 30
0.0
  0
SPLINE
  5
4C7
100
AcDbEntity
  8
0
100
AcDbSpline
 62
7
  6
CONTINUOUS
 70
0
 71
3
 72
9
 73
5
 74
0
 42
0.0000001
 43
0.0000001
 44
0.0000000001
 40
0.0
 40
0.0
 40
0.0
 40
0.0
 40
0.1997952465
 40
1.0
 40
1.0
 40
1.0
 40
1.0
 10
145.3526979177
 20
135.5893440314
 30
0.0
 10
145.4222841086
 20
135.6039262602
 30
0.0
 10
145.7710609627
 20
135.6745731062
 30
0.0
 10
146.1210822204
 20
135.7389003764
 30
0.0
 10
146.4013402755
 20
135.789307103
 30
0.0
  0
SPLINE
  5
4C8
100
AcDbEntity
  8
0
100
AcDbSpline
 62
7
  6
CONTINUOUS
 70
0
 71
3
 72
9
 73
5
 74
0
 42
0.0000001
 43
0.0000001
 44
0.0000000001
 40
0.0
 40
0.0
 40
0.0
 40
0.0
 40
0.2174690771
 40
1.0
 40
1.0
 40
1.0
 40
1.0
 10
146.4013402755
 20
135.789307103
 30
0.0
 10
146.5186231403
 20
135.8104013952
 30
0.0
 10
147.0581437846
 20
135.906219565
 30
0.0
 10
147.5983324484
 20
135.9982398915
 30
0.0
 10
148.0212157752
 20
136.0692091709
 30
0.0
  0
SPLINE
  5
4C9
100
AcDbEntity
  8
0
100
AcDbSpline
 62
7
  6
CONTINUOUS
 70
0
 71
3
 72
8
 73
4
 74
0
 42
0.0000001
 43
0.0000001
 44
0.0000000001
 40
0.0
 40
0.0
 40
0.0
 40
0.0
 40
1.0
 40
1.0
 40
1.0
 40
1.0
 10
110.250149848
 20
129.9711502852
 30
0.0
 10
110.2591613785
 20
130.0677133928
 30
0.0
 10
110.2821102407
 20
130.1640150053
 30
0.0
 10
110.3182271483
 20
130.2540217297
 30
0.0
  0
SPLINE
  5
4CA
100
AcDbEntity
  8
0
100
AcDbSpline
 62
7
  6
CONTINUOUS
 70
0
 71
3
 72
8
 73
4
 74
0
 42
0.0000001
 43
0.0000001
 44
0.0000000001
 40
0.0
 40
0.0
 40
0.0
 40
0.0
 40
1.0
 40
1.0
 40
1.0
 40
1.0
 10
110.3182271483
 20
130.2540217297
 30
0.0
 10
110.3824652065
 20
130.4141090017
 30
0.0
 10
110.4933869534
 20
130.5614575669
 30
0.0
 10
110.6294941806
 20
130.6674258899
 30
0.0
  0
SPLINE
  5
4CB
100
AcDbEntity
  8
0
100
AcDbSpline
 62
7
  6
CONTINUOUS
 70
0
 71
3
 72
8
 73
4
 74
0
 42
0.0000001
 43
0.0000001
 44
0.0000000001
 40
0.0
 40
0.0
 40
0.0
 40
0.0
 40
1.0
 40
1.0
 40
1.0
 40
1.0
 10
110.6294941806
 20
130.6674258899
 30
0.0
 10
110.7267318037
 20
130.7431316997
 30
0.0
 10
110.8400319544
 20
130.8013594193
 30
0.0
 10
110.9579824524
 20
130.8370554278
 30
0.0
  0
SPLINE
  5
4CC
100
AcDbEntity
  8
0
100
AcDbSpline
 62
7
  6
CONTINUOUS
 70
0
 71
3
 72
9
 73
5
 74
0
 42
0.0000001
 43
0.0000001
 44
0.0000000001
 40
0.0
 40
0.0
 40
0.0
 40
0.0
 40
0.3409668783
 40
1.0
 40
1.0
 40
1.0
 40
1.0
 10
115.3937871673
 20
130.5373499277
 30
0.0
 10
115.3849841985
 20
130.59129013
 30
0.0
 10
115.3574102668
 20
130.7490568828
 30
0.0
 10
115.3323235416
 20
130.908054031
 30
0.0
 10
115.302650481
 20
131.0094377147
 30
0.0
  0
SPLINE
  5
4CD
100
AcDbEntity
  8
0
100
AcDbSpline
 62
7
  6
CONTINUOUS
 70
0
 71
3
 72
9
 73
5
 74
0
 42
0.0000001
 43
0.0000001
 44
0.0000000001
 40
0.0
 40
0.0
 40
0.0
 40
0.0
 40
0.7142437959
 40
1.0
 40
1.0
 40
1.0
 40
1.0
 10
115.302650481
 20
131.0094377147
 30
0.0
 10
115.3001198973
 20
131.0180839376
 30
0.0
 10
115.2961927091
 20
131.0275564547
 30
0.0
 10
115.2909785816
 20
131.0436495812
 30
0.0
 10
115.2873742648
 20
131.0436495812
 30
0.0
  0
SPLINE
  5
4CE
100
AcDbEntity
  8
0
100
AcDbSpline
 62
7
  6
CONTINUOUS
 70
0
 71
3
 72
8
 73
4
 74
0
 42
0.0000001
 43
0.0000001
 44
0.0000000001
 40
0.0
 40
0.0
 40
0.0
 40
0.0
 40
1.0
 40
1.0
 40
1.0
 40
1.0
 10
113.9999530822
 20
130.869683205
 30
0.0
 10
113.6636348697
 20
130.8223779878
 30
0.0
 10
113.3236676992
 20
130.5510647872
 30
0.0
 10
113.2044503586
 20
130.2330475717
 30
0.0
  0
SPLINE
  5
4CF
100
AcDbEntity
  8
0
100
AcDbSpline
 62
7
  6
CONTINUOUS
 70
0
 71
3
 72
9
 73
5
 74
0
 42
0.0000001
 43
0.0000001
 44
0.0000000001
 40
0.0
 40
0.0
 40
0.0
 40
0.0
 40
0.2847917897
 40
1.0
 40
1.0
 40
1.0
 40
1.0
 10
109.3548153202
 20
128.0942547559
 30
0.0
 10
109.5376898807
 20
128.0942547559
 30
0.0
 10
110.1730425418
 20
128.213854258
 30
0.0
 10
110.8104539566
 20
128.2773595262
 30
0.0
 10
111.2655772701
 20
128.3388593326
 30
0.0
  0
SPLINE
  5
4D0
100
AcDbEntity
  8
0
100
AcDbSpline
 62
7
  6
CONTINUOUS
 70
0
 71
3
 72
9
 73
5
 74
0
 42
0.0000001
 43
0.0000001
 44
0.0000000001
 40
0.0
 40
0.0
 40
0.0
 40
0.0
 40
0.2681999342
 40
1.0
 40
1.0
 40
1.0
 40
1.0
 10
115.5344369967
 20
128.9292933616
 30
0.0
 10
115.521831644
 20
129.0190586847
 30
0.0
 10
115.473622094
 20
129.3535790056
 30
0.0
 10
115.4214872363
 20
129.6875651627
 30
0.0
 10
115.3791403885
 20
129.9312463856
 30
0.0
  0
SPLINE
  5
4D1
100
AcDbEntity
  8
0
100
AcDbSpline
 62
7
  6
CONTINUOUS
 70
0
 71
3
 72
9
 73
5
 74
0
 42
0.0000001
 43
0.0000001
 44
0.0000000001
 40
0.0
 40
0.0
 40
0.0
 40
0.0
 40
0.3524327465
 40
1.0
 40
1.0
 40
1.0
 40
1.0
 10
115.3791403885
 20
129.9312463856
 30
0.0
 10
115.3678003036
 20
129.9965019101
 30
0.0
 10
115.332868995
 20
130.1808569043
 30
0.0
 10
115.3038847909
 20
130.3680514899
 30
0.0
 10
115.2641123806
 20
130.4830678833
 30
0.0
  0
SPLINE
  5
4D2
100
AcDbEntity
  8
0
100
AcDbSpline
 62
7
  6
CONTINUOUS
 70
0
 71
3
 72
9
 73
5
 74
0
 42
0.0000001
 43
0.0000001
 44
0.0000000001
 40
0.0
 40
0.0
 40
0.0
 40
0.0
 40
0.6989090904
 40
1.0
 40
1.0
 40
1.0
 40
1.0
 10
115.2641123806
 20
130.4830678833
 30
0.0
 10
115.2614064633
 20
130.4908930278
 30
0.0
 10
115.2575947051
 20
130.5003161287
 30
0.0
 10
115.2507405808
 20
130.5137222716
 30
0.0
 10
115.2471736382
 20
130.5137222716
 30
0.0
  0
SPLINE
  5
4D3
100
AcDbEntity
  8
0
100
AcDbSpline
 62
7
  6
CONTINUOUS
 70
0
 71
3
 72
8
 73
4
 74
0
 42
0.0000001
 43
0.0000001
 44
0.0000000001
 40
0.0
 40
0.0
 40
0.0
 40
0.0
 40
1.0
 40
1.0
 40
1.0
 40
1.0
 10
110.4109441296
 20
129.8272699944
 30
0.0
 10
110.0258301508
 20
129.6926164543
 30
0.0
 10
109.6752280436
 20
129.3795192248
 30
0.0
 10
109.4980514999
 20
129.0120238849
 30
0.0
  0
SPLINE
  5
4D4
100
AcDbEntity
  8
0
100
AcDbSpline
 62
7
  6
CONTINUOUS
 70
0
 71
3
 72
8
 73
4
 74
0
 42
0.0000001
 43
0.0000001
 44
0.0000000001
 40
0.0
 40
0.0
 40
0.0
 40
0.0
 40
1.0
 40
1.0
 40
1.0
 40
1.0
 10
109.4980514999
 20
129.0120238849
 30
0.0
 10
109.3635863535
 20
128.7331195013
 30
0.0
 10
109.3117582866
 20
128.4008727962
 30
0.0
 10
109.3548153202
 20
128.0942547559
 30
0.0
  0
SPLINE
  5
4D5
100
AcDbEntity
  8
0
100
AcDbSpline
 62
7
  6
CONTINUOUS
 70
0
 71
3
 72
9
 73
5
 74
0
 42
0.0000001
 43
0.0000001
 44
0.0000000001
 40
0.0
 40
0.0
 40
0.0
 40
0.0
 40
0.2299138625
 40
1.0
 40
1.0
 40
1.0
 40
1.0
 10
108.1843024503
 20
129.9552956068
 30
0.0
 10
108.103005276
 20
129.9552956068
 30
0.0
 10
108.8824235388
 20
130.0568616967
 30
0.0
 10
108.9629250504
 20
130.0793515682
 30
0.0
 10
109.2323443543
 20
130.1188635559
 30
0.0
  0
SPLINE
  5
4D6
100
AcDbEntity
  8
0
100
AcDbSpline
 62
7
  6
CONTINUOUS
 70
0
 71
3
 72
9
 73
5
 74
0
 42
0.0000001
 43
0.0000001
 44
0.0000000001
 40
0.0
 40
0.0
 40
0.0
 40
0.0
 40
0.3741697663
 40
1.0
 40
1.0
 40
1.0
 40
1.0
 10
108.9502611699
 20
130.0807462793
 30
0.0
 10
108.8102939234
 20
130.0602192271
 30
0.0
 10
108.4365167519
 20
130.0036674205
 30
0.0
 10
108.0616115782
 20
129.9530351215
 30
0.0
 10
107.8290673553
 20
129.9093543741
 30
0.0
  0
SPLINE
  5
4D7
100
AcDbEntity
  8
0
100
AcDbSpline
 62
7
  6
CONTINUOUS
 70
0
 71
3
 72
9
 73
5
 74
0
 42
0.0000001
 43
0.0000001
 44
0.0000000001
 40
0.0
 40
0.0
 40
0.0
 40
0.0
 40
0.0914246012
 40
1.0
 40
1.0
 40
1.0
 40
1.0
 10
110.7154510755
 20
129.9013606274
 30
0.0
 10
110.7330791603
 20
129.9013606274
 30
0.0
 10
110.9249182784
 20
129.9256194669
 30
0.0
 10
111.1159880646
 20
129.94791
 30
0.0
 10
111.2897045915
 20
129.9705642861
 30
0.0
  0
SPLINE
  5
4D8
100
AcDbEntity
  8
0
100
AcDbSpline
 62
7
  6
CONTINUOUS
 70
0
 71
3
 72
9
 73
5
 74
0
 42
0.0000001
 43
0.0000001
 44
0.0000000001
 40
0.0
 40
0.0
 40
0.0
 40
0.0
 40
0.4583272806
 40
1.0
 40
1.0
 40
1.0
 40
1.0
 10
463.5050770455
 20
646.2907909353
 30
0.0
 10
463.4851184379
 20
645.906828915
 30
0.0
 10
463.958910071
 20
645.0499947011
 30
0.0
 10
464.8413525291
 20
644.8121982156
 30
0.0
 10
465.2957495362
 20
644.8121982156
 30
0.0
  0
SPLINE
  5
4D9
100
AcDbEntity
  8
0
100
AcDbSpline
 62
7
  6
CONTINUOUS
 70
0
 71
3
 72
9
 73
5
 74
0
 42
0.0000001
 43
0.0000001
 44
0.0000000001
 40
0.0
 40
0.0
 40
0.0
 40
0.0
 40
0.3424837014
 40
1.0
 40
1.0
 40
1.0
 40
1.0
 10
114.4300728975
 20
130.4014684242
 30
0.0
 10
114.0630444302
 20
130.3502737545
 30
0.0
 10
112.9910566625
 20
130.2033450493
 30
0.0
 10
111.9198099894
 20
130.0496577971
 30
0.0
 10
111.2131937017
 20
129.9667786553
 30
0.0
  0
SPLINE
  5
4DA
100
AcDbEntity
  8
0
100
AcDbSpline
 62
7
  6
CONTINUOUS
 70
0
 71
3
 72
9
 73
5
 74
0
 42
0.0000001
 43
0.0000001
 44
0.0000000001
 40
0.0
 40
0.0
 40
0.0
 40
0.0
 40
0.6665699634
 40
1.0
 40
1.0
 40
1.0
 40
1.0
 10
111.1782311662
 20
129.9627513481
 30
0.0
 10
111.1606367465
 20
129.9607686101
 30
0.0
 10
111.1342365137
 20
129.9581424538
 30
0.0
 10
111.1077605763
 20
129.9552956068
 30
0.0
 10
111.0989038303
 20
129.9552956068
 30
0.0
  0
SPLINE
  5
4DB
100
AcDbEntity
  8
0
100
AcDbSpline
 62
7
  6
CONTINUOUS
 70
0
 71
3
 72
9
 73
5
 74
0
 42
0.0000001
 43
0.0000001
 44
0.0000000001
 40
0.0
 40
0.0
 40
0.0
 40
0.0
 40
0.6985704402
 40
1.0
 40
1.0
 40
1.0
 40
1.0
 10
154.9529875007
 20
118.8677529841
 30
0.0
 10
154.8804807385
 20
118.8677453761
 30
0.0
 10
154.7787165282
 20
118.8101586269
 30
0.0
 10
154.7111920906
 20
118.7328006404
 30
0.0
 10
154.6918731865
 20
118.7081914498
 30
0.0
  0
SPLINE
  5
4DC
100
AcDbEntity
  8
0
100
AcDbSpline
 62
7
  6
CONTINUOUS
 70
0
 71
3
 72
8
 73
4
 74
0
 42
0.0000001
 43
0.0000001
 44
0.0000000001
 40
0.0
 40
0.0
 40
0.0
 40
0.0
 40
1.0
 40
1.0
 40
1.0
 40
1.0
 10
445.3543430602
 20
728.7177529859
 30
0.0
 10
445.5177925077
 20
728.7177907914
 30
0.0
 10
445.6834408313
 20
728.6896836982
 30
0.0
 10
445.8378334967
 20
728.6360308493
 30
0.0
  0
SPLINE
  5
4DD
100
AcDbEntity
  8
0
100
AcDbSpline
 62
7
  6
CONTINUOUS
 70
0
 71
3
 72
10
 73
6
 74
0
 42
0.0000001
 43
0.0000001
 44
0.0000000001
 40
0.0
 40
0.0
 40
0.0
 40
0.0
 40
0.6707006494
 40
0.8851648513
 40
1.0
 40
1.0
 40
1.0
 40
1.0
 10
445.8378334967
 20
728.6360308493
 30
0.0
 10
445.9390714103
 20
728.9480291296
 30
0.0
 10
446.0416667425
 20
729.3838693896
 30
0.0
 10
446.0653225095
 20
729.8544557138
 30
0.0
 10
445.9953689983
 20
730.0341403313
 30
0.0
 10
445.9423861894
 20
730.0527655706
 30
0.0
  0
SPLINE
  5
4DE
100
AcDbEntity
  8
0
100
AcDbSpline
 62
7
  6
CONTINUOUS
 70
0
 71
3
 72
10
 73
6
 74
0
 42
0.0000001
 43
0.0000001
 44
0.0000000001
 40
0.0
 40
0.0
 40
0.0
 40
0.0
 40
0.096214061
 40
0.2976878946
 40
1.0
 40
1.0
 40
1.0
 40
1.0
 10
469.7753255561
 20
686.1223693789
 30
0.0
 10
469.7749663487
 20
686.0953933261
 30
0.0
 10
469.6879680839
 20
686.0400293264
 30
0.0
 10
469.4335396336
 20
685.9755784054
 30
0.0
 10
469.1701054432
 20
685.9454131048
 30
0.0
 10
468.9736834744
 20
685.9312981107
 30
0.0
  0
SPLINE
  5
4DF
100
AcDbEntity
  8
0
100
AcDbSpline
 62
7
  6
CONTINUOUS
 70
0
 71
3
 72
9
 73
5
 74
0
 42
0.0000001
 43
0.0000001
 44
0.0000000001
 40
0.0
 40
0.0
 40
0.0
 40
0.0
 40
0.4979806866
 40
1.0
 40
1.0
 40
1.0
 40
1.0
 10
450.8754838839
 20
640.7177529906
 30
0.0
 10
451.1488371427
 20
640.7177749545
 30
0.0
 10
451.7094740466
 20
640.8798309686
 30
0.0
 10
452.0894978393
 20
641.3212994744
 30
0.0
 10
452.2067610188
 20
641.5706752109
 30
0.0
  0
SPLINE
  5
4E0
100
AcDbEntity
  8
0
100
AcDbSpline
 62
7
  6
CONTINUOUS
 70
0
 71
3
 72
10
 73
6
 74
0
 42
0.0000001
 43
0.0000001
 44
0.0000000001
 40
0.0
 40
0.0
 40
0.0
 40
0.0
 40
0.6255137165
 40
0.8543630247
 40
1.0
 40
1.0
 40
1.0
 40
1.0
 10
445.3543295301
 20
728.7177529859
 30
0.0
 10
445.3543295301
 20
729.0362516891
 30
0.0
 10
445.3243006108
 20
729.4777583609
 30
0.0
 10
445.1927889881
 20
729.9649100385
 30
0.0
 10
445.100605457
 20
730.1435260335
 30
0.0
 10
445.0418225491
 20
730.1887320673
 30
0.0
  0
SPLINE
  5
4E1
100
AcDbEntity
  8
0
100
AcDbSpline
 62
7
  6
CONTINUOUS
 70
0
 71
3
 72
9
 73
5
 74
0
 42
0.0000001
 43
0.0000001
 44
0.0000000001
 40
0.0
 40
0.0
 40
0.0
 40
0.0
 40
0.5296962077
 40
1.0
 40
1.0
 40
1.0
 40
1.0
 10
445.0418225491
 20
730.1887320673
 30
0.0
 10
445.0303135561
 20
730.1975828701
 30
0.0
 10
445.0065441554
 20
730.2120537401
 30
0.0
 10
444.9789820792
 20
730.2177529859
 30
0.0
 10
444.9660912647
 20
730.2177529859
 30
0.0
  0
SPLINE
  5
4E2
100
AcDbEntity
  8
0
100
AcDbSpline
 62
7
  6
CONTINUOUS
 70
0
 71
3
 72
9
 73
5
 74
0
 42
0.0000001
 43
0.0000001
 44
0.0000000001
 40
0.0
 40
0.0
 40
0.0
 40
0.0
 40
0.4998545923
 40
1.0
 40
1.0
 40
1.0
 40
1.0
 10
465.9064768746
 20
706.8136468735
 30
0.0
 10
466.2714360894
 20
706.6350988018
 30
0.0
 10
466.9041430722
 20
706.0324142312
 30
0.0
 10
467.0599007439
 20
705.1733108297
 30
0.0
 10
467.009837995
 20
704.769874961
 30
0.0
  0
SPLINE
  5
4E3
100
AcDbEntity
  8
0
100
AcDbSpline
 62
7
  6
CONTINUOUS
 70
0
 71
3
 72
9
 73
5
 74
0
 42
0.0000001
 43
0.0000001
 44
0.0000000001
 40
0.0
 40
0.0
 40
0.0
 40
0.0
 40
0.3411605289
 40
1.0
 40
1.0
 40
1.0
 40
1.0
 10
459.8676847946
 20
681.2978617233
 30
0.0
 10
460.0135987695
 20
681.230903915
 30
0.0
 10
460.4432228279
 20
681.039603298
 30
0.0
 10
460.8668303172
 20
680.8307306752
 30
0.0
 10
461.1597888175
 20
680.7292498884
 30
0.0
  0
SPLINE
  5
4E4
100
AcDbEntity
  8
0
100
AcDbSpline
 62
7
  6
CONTINUOUS
 70
0
 71
3
 72
8
 73
4
 74
0
 42
0.0000001
 43
0.0000001
 44
0.0000000001
 40
0.0
 40
0.0
 40
0.0
 40
0.0
 40
1.0
 40
1.0
 40
1.0
 40
1.0
 10
461.1597887348
 20
680.7292499042
 30
0.0
 10
460.9326370911
 20
680.5994652154
 30
0.0
 10
460.7481193723
 20
680.3594710091
 30
0.0
 10
460.6824893697
 20
680.1062228355
 30
0.0
  0
SPLINE
  5
4E5
100
AcDbEntity
  8
0
100
AcDbSpline
 62
7
  6
CONTINUOUS
 70
0
 71
3
 72
9
 73
5
 74
0
 42
0.0000001
 43
0.0000001
 44
0.0000000001
 40
0.0
 40
0.0
 40
0.0
 40
0.0
 40
0.5423342941
 40
1.0
 40
1.0
 40
1.0
 40
1.0
 10
461.2033951964
 20
680.7308377478
 30
0.0
 10
461.1957544497
 20
680.7285163964
 30
0.0
 10
461.1812017448
 20
680.7254342887
 30
0.0
 10
461.166156256
 20
680.7270439905
 30
0.0
 10
461.1597886142
 20
680.7292498441
 30
0.0
  0
SPLINE
  5
4E6
100
AcDbEntity
  8
0
100
AcDbSpline
 62
7
  6
CONTINUOUS
 70
0
 71
3
 72
9
 73
5
 74
0
 42
0.0000001
 43
0.0000001
 44
0.0000000001
 40
0.0
 40
0.0
 40
0.0
 40
0.0
 40
0.5060571538
 40
1.0
 40
1.0
 40
1.0
 40
1.0
 10
460.6824893757
 20
680.1062228278
 30
0.0
 10
460.6868128816
 20
680.1005032587
 30
0.0
 10
460.69524896
 20
680.085705035
 30
0.0
 10
460.7127842518
 20
680.0922669104
 30
0.0
 10
460.7177339504
 20
680.0972141249
 30
0.0
  0
SPLINE
  5
4E7
100
AcDbEntity
  8
0
100
AcDbSpline
 62
7
  6
CONTINUOUS
 70
0
 71
3
 72
9
 73
5
 74
0
 42
0.0000001
 43
0.0000001
 44
0.0000000001
 40
0.0
 40
0.0
 40
0.0
 40
0.0
 40
0.304270025
 40
1.0
 40
1.0
 40
1.0
 40
1.0
 10
459.8676847412
 20
681.297861609
 30
0.0
 10
459.9517146563
 20
681.1909309542
 30
0.0
 10
460.2227861603
 20
680.8363817233
 30
0.0
 10
460.4974851005
 20
680.4790406578
 30
0.0
 10
460.641571213
 20
680.2034718296
 30
0.0
  0
SPLINE
  5
4E8
100
AcDbEntity
  8
0
100
AcDbSpline
 62
7
  6
CONTINUOUS
 70
0
 71
3
 72
9
 73
5
 74
0
 42
0.0000001
 43
0.0000001
 44
0.0000000001
 40
0.0
 40
0.0
 40
0.0
 40
0.0
 40
0.5580897154
 40
1.0
 40
1.0
 40
1.0
 40
1.0
 10
460.641571213
 20
680.2034718296
 30
0.0
 10
460.6506789264
 20
680.1860530661
 30
0.0
 10
460.6661878639
 20
680.154422695
 30
0.0
 10
460.6786153303
 20
680.1212973906
 30
0.0
 10
460.682489064
 20
680.1062229034
 30
0.0
  0
SPLINE
  5
4E9
100
AcDbEntity
  8
0
100
AcDbSpline
 62
7
  6
CONTINUOUS
 70
0
 71
3
 72
8
 73
4
 74
0
 42
0.0000001
 43
0.0000001
 44
0.0000000001
 40
0.0
 40
0.0
 40
0.0
 40
0.0
 40
1.0
 40
1.0
 40
1.0
 40
1.0
 10
459.8676847398
 20
681.2978616097
 30
0.0
 10
456.8294256914
 20
668.2371570335
 30
0.0
 10
454.0062810725
 20
655.1264414837
 30
0.0
 10
451.2595487545
 20
642.0013325833
 30
0.0
  0
SPLINE
  5
4EA
100
AcDbEntity
  8
0
100
AcDbSpline
 62
7
  6
CONTINUOUS
 70
0
 71
3
 72
8
 73
4
 74
0
 42
0.0000001
 43
0.0000001
 44
0.0000000001
 40
0.0
 40
0.0
 40
0.0
 40
0.0
 40
1.0
 40
1.0
 40
1.0
 40
1.0
 10
452.3168358176
 20
641.8917194294
 30
0.0
 10
454.9879534516
 20
654.6550205179
 30
0.0
 10
457.7343184247
 20
667.404032079
 30
0.0
 10
460.6824835845
 20
680.1061990705
 30
0.0
  0
SPLINE
  5
4EB
100
AcDbEntity
  8
0
100
AcDbSpline
 62
7
  6
CONTINUOUS
 70
0
 71
3
 72
8
 73
4
 74
0
 42
0.0000001
 43
0.0000001
 44
0.0000000001
 40
0.0
 40
0.0
 40
0.0
 40
0.0
 40
1.0
 40
1.0
 40
1.0
 40
1.0
 10
461.2033954513
 20
680.7308378831
 30
0.0
 10
460.9678716487
 20
680.6008394263
 30
0.0
 10
460.778191479
 20
680.3493782495
 30
0.0
 10
460.7158645225
 20
680.087679165
 30
0.0
  0
SPLINE
  5
4EC
100
AcDbEntity
  8
0
100
AcDbSpline
 62
7
  6
CONTINUOUS
 70
0
 71
3
 72
9
 73
5
 74
0
 42
0.0000001
 43
0.0000001
 44
0.0000000001
 40
0.0
 40
0.0
 40
0.0
 40
0.0
 40
0.295177705
 40
1.0
 40
1.0
 40
1.0
 40
1.0
 10
154.9125666392
 20
117.0857659411
 30
0.0
 10
154.8925462945
 20
117.2282837258
 30
0.0
 10
154.8031269288
 20
117.7043093395
 30
0.0
 10
154.6378199841
 20
118.1899926744
 30
0.0
 10
154.417152324
 20
118.4534254664
 30
0.0
  0
SPLINE
  5
4ED
100
AcDbEntity
  8
0
100
AcDbSpline
 62
7
  6
CONTINUOUS
 70
0
 71
3
 72
8
 73
4
 74
0
 42
0.0000001
 43
0.0000001
 44
0.0000000001
 40
0.0
 40
0.0
 40
0.0
 40
0.0
 40
1.0
 40
1.0
 40
1.0
 40
1.0
 10
154.417152324
 20
118.4534254664
 30
0.0
 10
154.3650446937
 20
118.515631494
 30
0.0
 10
154.3054161879
 20
118.5733895829
 30
0.0
 10
154.2372906922
 20
118.6174771303
 30
0.0
  0
SPLINE
  5
4EE
100
AcDbEntity
  8
0
100
AcDbSpline
 62
7
  6
CONTINUOUS
 70
0
 71
3
 72
8
 73
4
 74
0
 42
0.0000001
 43
0.0000001
 44
0.0000000001
 40
0.0
 40
0.0
 40
0.0
 40
0.0
 40
1.0
 40
1.0
 40
1.0
 40
1.0
 10
146.3820834519
 20
120.1626493499
 30
0.0
 10
145.9466602679
 20
120.1626493499
 30
0.0
 10
145.498465759
 20
120.0142551034
 30
0.0
 10
145.1346525534
 20
119.7750202803
 30
0.0
  0
SPLINE
  5
4EF
100
AcDbEntity
  8
0
100
AcDbSpline
 62
7
  6
CONTINUOUS
 70
0
 71
3
 72
8
 73
4
 74
0
 42
0.0000001
 43
0.0000001
 44
0.0000000001
 40
0.0
 40
0.0
 40
0.0
 40
0.0
 40
1.0
 40
1.0
 40
1.0
 40
1.0
 10
145.1346525534
 20
119.7750202803
 30
0.0
 10
144.5097717401
 20
119.3641136706
 30
0.0
 10
144.0424635784
 20
118.6063376801
 30
0.0
 10
143.9608659971
 20
117.8629252055
 30
0.0
  0
SPLINE
  5
4F0
100
AcDbEntity
  8
0
100
AcDbSpline
 62
7
  6
CONTINUOUS
 70
0
 71
3
 72
9
 73
5
 74
0
 42
0.0000001
 43
0.0000001
 44
0.0000000001
 40
0.0
 40
0.0
 40
0.0
 40
0.0
 40
0.5147529008
 40
1.0
 40
1.0
 40
1.0
 40
1.0
 10
143.9608659971
 20
117.8629252055
 30
0.0
 10
143.9183959473
 20
117.475992599
 30
0.0
 10
144.0139686735
 20
116.6857219016
 30
0.0
 10
144.5286234532
 20
116.0643368833
 30
0.0
 10
144.8366079182
 20
115.864853695
 30
0.0
  0
SPLINE
  5
4F1
100
AcDbEntity
  8
0
100
AcDbSpline
 62
7
  6
CONTINUOUS
 70
0
 71
3
 72
8
 73
4
 74
0
 42
0.0000001
 43
0.0000001
 44
0.0000000001
 40
0.0
 40
0.0
 40
0.0
 40
0.0
 40
1.0
 40
1.0
 40
1.0
 40
1.0
 10
154.2372906922
 20
118.6174771303
 30
0.0
 10
154.1802175399
 20
118.6544121323
 30
0.0
 10
154.1148355636
 20
118.6820909736
 30
0.0
 10
154.047661793
 20
118.6925419847
 30
0.0
  0
SPLINE
  5
4F2
100
AcDbEntity
  8
0
100
AcDbSpline
 62
7
  6
CONTINUOUS
 70
0
 71
3
 72
9
 73
5
 74
0
 42
0.0000001
 43
0.0000001
 44
0.0000000001
 40
0.0
 40
0.0
 40
0.0
 40
0.0
 40
0.3423377812
 40
1.0
 40
1.0
 40
1.0
 40
1.0
 10
452.3168405152
 20
641.8917417458
 30
0.0
 10
452.2000808941
 20
641.8580243782
 30
0.0
 10
451.8348157796
 20
641.920510027
 30
0.0
 10
451.4892711973
 20
641.9596931356
 30
0.0
 10
451.2595431116
 20
642.0013325833
 30
0.0
  0
SPLINE
  5
4F3
100
AcDbEntity
  8
0
100
AcDbSpline
 62
7
  6
CONTINUOUS
 70
0
 71
3
 72
9
 73
5
 74
0
 42
0.0000001
 43
0.0000001
 44
0.0000000001
 40
0.0
 40
0.0
 40
0.0
 40
0.0
 40
0.6232305433
 40
1.0
 40
1.0
 40
1.0
 40
1.0
 10
451.2595431116
 20
642.0013325833
 30
0.0
 10
451.2494131336
 20
641.7329054215
 30
0.0
 10
451.1980914592
 20
641.3194770892
 30
0.0
 10
451.0837578756
 20
640.8647182553
 30
0.0
 10
450.9626286798
 20
640.7565581175
 30
0.0
  0
SPLINE
  5
4F4
100
AcDbEntity
  8
0
100
AcDbSpline
 62
7
  6
CONTINUOUS
 70
0
 71
3
 72
9
 73
5
 74
0
 42
0.0000001
 43
0.0000001
 44
0.0000000001
 40
0.0
 40
0.0
 40
0.0
 40
0.0
 40
0.5379675975
 40
1.0
 40
1.0
 40
1.0
 40
1.0
 10
450.9626286798
 20
640.7565581175
 30
0.0
 10
450.9496355587
 20
640.7449561436
 30
0.0
 10
450.9228747872
 20
640.7257601466
 30
0.0
 10
450.8903274437
 20
640.7177529859
 30
0.0
 10
450.8753670363
 20
640.7177529859
 30
0.0
  0
SPLINE
  5
4F5
100
AcDbEntity
  8
0
100
AcDbSpline
 62
7
  6
CONTINUOUS
 70
0
 71
3
 72
9
 73
5
 74
0
 42
0.0000001
 43
0.0000001
 44
0.0000000001
 40
0.0
 40
0.0
 40
0.0
 40
0.0
 40
0.2734038884
 40
1.0
 40
1.0
 40
1.0
 40
1.0
 10
468.6595674811
 20
685.9150082697
 30
0.0
 10
468.6914562344
 20
685.8468632997
 30
0.0
 10
468.8036304814
 20
685.5957413086
 30
0.0
 10
468.9059809535
 20
685.3388669741
 30
0.0
 10
468.9587804866
 20
685.1460144649
 30
0.0
  0
SPLINE
  5
4F6
100
AcDbEntity
  8
0
100
AcDbSpline
 62
7
  6
CONTINUOUS
 70
0
 71
3
 72
9
 73
5
 74
0
 42
0.0000001
 43
0.0000001
 44
0.0000000001
 40
0.0
 40
0.0
 40
0.0
 40
0.0
 40
0.3293600174
 40
1.0
 40
1.0
 40
1.0
 40
1.0
 10
468.9587804866
 20
685.1460144649
 30
0.0
 10
468.9672687584
 20
685.1150106963
 30
0.0
 10
468.9897893623
 20
685.0207187683
 30
0.0
 10
469.0082080645
 20
684.9212149547
 30
0.0
 10
468.9976182339
 20
684.8566244759
 30
0.0
  0
SPLINE
  5
4F7
100
AcDbEntity
  8
0
100
AcDbSpline
 62
7
  6
CONTINUOUS
 70
0
 71
3
 72
9
 73
5
 74
0
 42
0.0000001
 43
0.0000001
 44
0.0000000001
 40
0.0
 40
0.0
 40
0.0
 40
0.0
 40
0.5799993491
 40
1.0
 40
1.0
 40
1.0
 40
1.0
 10
468.9976182339
 20
684.8566244759
 30
0.0
 10
468.9955068109
 20
684.8437462891
 30
0.0
 10
468.9902495904
 20
684.8214728898
 30
0.0
 10
468.9739797715
 20
684.8034262726
 30
0.0
 10
468.9653327114
 20
684.7996140474
 30
0.0
  0
SPLINE
  5
4F8
100
AcDbEntity
  8
0
100
AcDbSpline
 62
7
  6
CONTINUOUS
 70
0
 71
3
 72
10
 73
6
 74
0
 42
0.0000001
 43
0.0000001
 44
0.0000000001
 40
0.0
 40
0.0
 40
0.0
 40
0.0
 40
0.6813117429
 40
0.9006932513
 40
1.0
 40
1.0
 40
1.0
 40
1.0
 10
468.7750371168
 20
705.0013325833
 30
0.0
 10
469.0367482194
 20
705.0100509608
 30
0.0
 10
469.404185685
 20
705.0344214618
 30
0.0
 10
469.7438831761
 20
705.1094062951
 30
0.0
 10
469.888862235
 20
705.1704510298
 30
0.0
 10
469.8906488859
 20
705.2085768803
 30
0.0
  0
SPLINE
  5
4F9
100
AcDbEntity
  8
0
100
AcDbSpline
 62
7
  6
CONTINUOUS
 70
0
 71
3
 72
8
 73
4
 74
0
 42
0.0000001
 43
0.0000001
 44
0.0000000001
 40
0.0
 40
0.0
 40
0.0
 40
0.0
 40
1.0
 40
1.0
 40
1.0
 40
1.0
 10
465.6150466404
 20
709.144443348
 30
0.0
 10
465.7696123974
 20
709.1412692394
 30
0.0
 10
465.9244910499
 20
709.1225053797
 30
0.0
 10
466.0756370836
 20
709.0900165403
 30
0.0
  0
SPLINE
  5
4FA
100
AcDbEntity
  8
0
100
AcDbSpline
 62
7
  6
CONTINUOUS
 70
0
 71
3
 72
8
 73
4
 74
0
 42
0.0000001
 43
0.0000001
 44
0.0000000001
 40
0.0
 40
0.0
 40
0.0
 40
0.0
 40
1.0
 40
1.0
 40
1.0
 40
1.0
 10
466.0756370836
 20
709.0900165403
 30
0.0
 10
466.5777288155
 20
708.9820919243
 30
0.0
 10
467.0572945328
 20
708.7142288064
 30
0.0
 10
467.4367519753
 20
708.3681711822
 30
0.0
  0
SPLINE
  5
4FB
100
AcDbEntity
  8
0
100
AcDbSpline
 62
7
  6
CONTINUOUS
 70
0
 71
3
 72
9
 73
5
 74
0
 42
0.0000001
 43
0.0000001
 44
0.0000000001
 40
0.0
 40
0.0
 40
0.0
 40
0.0
 40
0.2575346699
 40
1.0
 40
1.0
 40
1.0
 40
1.0
 10
467.8002281357
 20
707.9831421277
 30
0.0
 10
467.9725725457
 20
707.771946761
 30
0.0
 10
468.5555012494
 20
706.8808241369
 30
0.0
 10
468.7797178724
 20
705.7871921481
 30
0.0
 10
468.7750371168
 20
705.0013325833
 30
0.0
  0
SPLINE
  5
4FC
100
AcDbEntity
  8
0
100
AcDbSpline
 62
7
  6
CONTINUOUS
 70
0
 71
3
 72
9
 73
5
 74
0
 42
0.0000001
 43
0.0000001
 44
0.0000000001
 40
0.0
 40
0.0
 40
0.0
 40
0.0
 40
0.3194773761
 40
1.0
 40
1.0
 40
1.0
 40
1.0
 10
465.4867449929
 20
709.7177529858
 30
0.0
 10
465.5363416486
 20
709.717752995
 30
0.0
 10
465.6066104352
 20
709.5191172127
 30
0.0
 10
465.614403958
 20
709.3893535695
 30
0.0
 10
465.6170153495
 20
709.2837394127
 30
0.0
  0
SPLINE
  5
4FD
100
AcDbEntity
  8
0
100
AcDbSpline
 62
7
  6
CONTINUOUS
 70
0
 71
3
 72
8
 73
4
 74
0
 42
0.0000001
 43
0.0000001
 44
0.0000000001
 40
0.0
 40
0.0
 40
0.0
 40
0.0
 40
1.0
 40
1.0
 40
1.0
 40
1.0
 10
465.6170153495
 20
709.2837394127
 30
0.0
 10
465.6181631818
 20
709.2373169059
 30
0.0
 10
465.6177198766
 20
709.190803658
 30
0.0
 10
465.6150635384
 20
709.1444430009
 30
0.0
  0
SPLINE
  5
4FE
100
AcDbEntity
  8
0
100
AcDbSpline
 62
7
  6
CONTINUOUS
 70
0
 71
3
 72
9
 73
5
 74
0
 42
0.0000001
 43
0.0000001
 44
0.0000000001
 40
0.0
 40
0.0
 40
0.0
 40
0.0
 40
0.4999960899
 40
1.0
 40
1.0
 40
1.0
 40
1.0
 10
443.4484865891
 20
709.1454891379
 30
0.0
 10
446.717199727
 20
709.1450389265
 30
0.0
 10
453.2546380633
 20
709.1553937976
 30
0.0
 10
459.792233023
 20
709.12557704
 30
0.0
 10
463.0609185388
 20
709.1482706733
 30
0.0
  0
SPLINE
  5
4FF
100
AcDbEntity
  8
0
100
AcDbSpline
 62
7
  6
CONTINUOUS
 70
0
 71
3
 72
8
 73
4
 74
0
 42
0.0000001
 43
0.0000001
 44
0.0000000001
 40
0.0
 40
0.0
 40
0.0
 40
0.0
 40
1.0
 40
1.0
 40
1.0
 40
1.0
 10
463.0609185388
 20
709.1482706733
 30
0.0
 10
463.7862128489
 20
709.153306203
 30
0.0
 10
464.5115974317
 20
709.15972711
 30
0.0
 10
465.236852593
 20
709.1506637848
 30
0.0
  0
SPLINE
  5
500
100
AcDbEntity
  8
0
100
AcDbSpline
 62
7
  6
CONTINUOUS
 70
0
 71
3
 72
8
 73
4
 74
0
 42
0.0000001
 43
0.0000001
 44
0.0000000001
 40
0.0
 40
0.0
 40
0.0
 40
0.0
 40
1.0
 40
1.0
 40
1.0
 40
1.0
 10
129.0153600428
 20
125.4674145853
 30
0.0
 10
129.270780311
 20
125.4674145853
 30
0.0
 10
129.5317256839
 20
125.5134041594
 30
0.0
 10
129.7682913962
 20
125.6097170723
 30
0.0
  0
SPLINE
  5
501
100
AcDbEntity
  8
0
100
AcDbSpline
 62
7
  6
CONTINUOUS
 70
0
 71
3
 72
8
 73
4
 74
0
 42
0.0000001
 43
0.0000001
 44
0.0000000001
 40
0.0
 40
0.0
 40
0.0
 40
0.0
 40
1.0
 40
1.0
 40
1.0
 40
1.0
 10
465.1586215893
 20
706.7677529859
 30
0.0
 10
464.7735800485
 20
706.7677529859
 30
0.0
 10
464.369335121
 20
706.6261669817
 30
0.0
 10
464.0684238478
 20
706.3859391861
 30
0.0
  0
SPLINE
  5
502
100
AcDbEntity
  8
0
100
AcDbSpline
 62
7
  6
CONTINUOUS
 70
0
 71
3
 72
8
 73
4
 74
0
 42
0.0000001
 43
0.0000001
 44
0.0000000001
 40
0.0
 40
0.0
 40
0.0
 40
0.0
 40
1.0
 40
1.0
 40
1.0
 40
1.0
 10
463.7915379777
 20
706.1088601391
 30
0.0
 10
463.4762843497
 20
705.7128418743
 30
0.0
 10
463.3412534786
 20
705.1218258308
 30
0.0
 10
463.453896209
 20
704.6283413515
 30
0.0
  0
SPLINE
  5
503
100
AcDbEntity
  8
0
100
AcDbSpline
 62
7
  6
CONTINUOUS
 70
0
 71
3
 72
8
 73
4
 74
0
 42
0.0000001
 43
0.0000001
 44
0.0000000001
 40
0.0
 40
0.0
 40
0.0
 40
0.0
 40
1.0
 40
1.0
 40
1.0
 40
1.0
 10
463.4973200455
 20
704.4721921993
 30
0.0
 10
463.6400524885
 20
704.0382666982
 30
0.0
 10
463.988263203
 20
703.6389968384
 30
0.0
 10
464.3999474218
 20
703.441057467
 30
0.0
  0
SPLINE
  5
504
100
AcDbEntity
  8
0
100
AcDbSpline
 62
7
  6
CONTINUOUS
 70
0
 71
3
 72
9
 73
5
 74
0
 42
0.0000001
 43
0.0000001
 44
0.0000000001
 40
0.0
 40
0.0
 40
0.0
 40
0.0
 40
0.5398549722
 40
1.0
 40
1.0
 40
1.0
 40
1.0
 10
465.2957495362
 20
644.8121982156
 30
0.0
 10
465.7094128898
 20
644.8121982156
 30
0.0
 10
466.5119910741
 20
645.0125629384
 30
0.0
 10
466.981693066
 20
645.7549001362
 30
0.0
 10
466.9999959999
 20
646.1070104429
 30
0.0
  0
SPLINE
  5
505
100
AcDbEntity
  8
0
100
AcDbSpline
 62
7
  6
CONTINUOUS
 70
0
 71
3
 72
8
 73
4
 74
0
 42
0.0000001
 43
0.0000001
 44
0.0000000001
 40
0.0
 40
0.0
 40
0.0
 40
0.0
 40
1.0
 40
1.0
 40
1.0
 40
1.0
 10
463.4684563933
 20
647.5856031626
 30
0.0
 10
463.2100517097
 20
647.5856031626
 30
0.0
 10
462.9473336189
 20
647.5393304511
 30
0.0
 10
462.7055027921
 20
647.4482764468
 30
0.0
  0
SPLINE
  5
506
100
AcDbEntity
  8
0
100
AcDbSpline
 62
7
  6
CONTINUOUS
 70
0
 71
3
 72
9
 73
5
 74
0
 42
0.0000001
 43
0.0000001
 44
0.0000000001
 40
0.0
 40
0.0
 40
0.0
 40
0.0
 40
0.2650498872
 40
1.0
 40
1.0
 40
1.0
 40
1.0
 10
462.7055027921
 20
647.4482764468
 30
0.0
 10
462.6171990672
 20
647.4150283789
 30
0.0
 10
462.2936242645
 20
647.2671528841
 30
0.0
 10
462.0096285158
 20
647.0209947577
 30
0.0
 10
461.8688250223
 20
646.8004773568
 30
0.0
  0
SPLINE
  5
507
100
AcDbEntity
  8
0
100
AcDbSpline
 62
7
  6
CONTINUOUS
 70
0
 71
3
 72
8
 73
4
 74
0
 42
0.0000001
 43
0.0000001
 44
0.0000000001
 40
0.0
 40
0.0
 40
0.0
 40
0.0
 40
1.0
 40
1.0
 40
1.0
 40
1.0
 10
461.8688250223
 20
646.8004773568
 30
0.0
 10
461.7397909219
 20
646.5983924245
 30
0.0
 10
461.6653374645
 20
646.346453975
 30
0.0
 10
461.6777839026
 20
646.1070104429
 30
0.0
  0
SPLINE
  5
508
100
AcDbEntity
  8
0
100
AcDbSpline
 62
7
  6
CONTINUOUS
 70
0
 71
3
 72
9
 73
5
 74
0
 42
0.0000001
 43
0.0000001
 44
0.0000000001
 40
0.0
 40
0.0
 40
0.0
 40
0.0
 40
0.3783834919
 40
1.0
 40
1.0
 40
1.0
 40
1.0
 10
153.9848711017
 20
113.9380331757
 30
0.0
 10
154.1950415562
 20
113.9377034063
 30
0.0
 10
154.666707668
 20
114.4004084995
 30
0.0
 10
154.7958914222
 20
114.9296937994
 30
0.0
 10
154.8644103069
 20
115.2680997289
 30
0.0
  0
SPLINE
  5
509
100
AcDbEntity
  8
0
100
AcDbSpline
 62
7
  6
CONTINUOUS
 70
0
 71
3
 72
8
 73
4
 74
0
 42
0.0000001
 43
0.0000001
 44
0.0000000001
 40
0.0
 40
0.0
 40
0.0
 40
0.0
 40
1.0
 40
1.0
 40
1.0
 40
1.0
 10
147.4227196554
 20
119.860996716
 30
0.0
 10
147.1195913229
 20
120.0573345613
 30
0.0
 10
146.7432417766
 20
120.1626493499
 30
0.0
 10
146.3820834519
 20
120.1626493499
 30
0.0
  0
ELLIPSE
  5
50A
100
AcDbEntity
  8
0
100
AcDbEllipse
 62
7
  6
CONTINUOUS
 10
121.9625455701
 20
98.8404582621
 30
0.0
 11
3.9999117377
 21
1.7716898606
 31
0.0
 40
0.0149983191
 41
1.6046448241
 42
3.1335574195
  0
ELLIPSE
  5
50B
100
AcDbEntity
  8
0
100
AcDbEllipse
 62
7
  6
CONTINUOUS
 10
295.6772509896
 20
522.5729920534
 30
0.0
 11
6.0827337317
 21
924.9640960371
 31
0.0
 40
0.1582479444
 41
4.8567380811
 42
4.8675219487
  0
ELLIPSE
  5
50C
100
AcDbEntity
  8
0
100
AcDbEllipse
 62
7
  6
CONTINUOUS
 10
295.6772509896
 20
87.0677529859
 30
0.0
 11
-140.139276347
 21
140.139276347
 31
0.0
 40
0.4381369073
 41
1.1251658676
 42
1.1349736131
  0
ELLIPSE
  5
50D
100
AcDbEntity
  8
0
100
AcDbEllipse
 62
7
  6
CONTINUOUS
 10
347.6830623153
 20
16.3261066701
 30
0.0
 11
-161.9929417368
 21
169.9956798535
 31
0.0
 40
0.3665883683
 41
-1.481904183
 42
-1.4727416498
  0
ELLIPSE
  5
50E
100
AcDbEntity
  8
0
100
AcDbEllipse
 62
7
  6
CONTINUOUS
 10
295.6772509896
 20
87.0677529859
 30
0.0
 11
142.509922714
 21
142.509922714
 31
0.0
 40
0.3906881813
 41
-1.1754652518
 42
-1.1667686488
  0
ELLIPSE
  5
50F
100
AcDbEntity
  8
0
100
AcDbEllipse
 62
7
  6
CONTINUOUS
 10
295.6772509896
 20
87.0677529859
 30
0.0
 11
140.139276347
 21
140.139276347
 31
0.0
 40
0.4381369073
 41
-1.1349736131
 42
-1.1251658676
  0
ELLIPSE
  5
510
100
AcDbEntity
  8
0
100
AcDbEllipse
 62
7
  6
CONTINUOUS
 10
343.6332319703
 20
16.3261066701
 30
0.0
 11
-157.8528789355
 21
167.8626284107
 31
0.0
 40
0.41285697
 41
-1.516151484
 42
-1.5069889508
  0
ELLIPSE
  5
511
100
AcDbEntity
  8
0
100
AcDbEllipse
 62
7
  6
CONTINUOUS
 10
243.6714396638
 20
16.3261066701
 30
0.0
 11
161.9929417368
 21
169.9956798535
 31
0.0
 40
0.3665883683
 41
1.4727416498
 42
1.481904183
  0
ELLIPSE
  5
512
100
AcDbEntity
  8
0
100
AcDbEllipse
 62
7
  6
CONTINUOUS
 10
295.6772509896
 20
87.0677529859
 30
0.0
 11
-142.509922714
 21
142.509922714
 31
0.0
 40
0.3906881813
 41
1.1656575063
 42
1.1754652518
  0
ELLIPSE
  5
513
100
AcDbEntity
  8
0
100
AcDbEllipse
 62
7
  6
CONTINUOUS
 10
247.7212700089
 20
16.3261066701
 30
0.0
 11
157.8528789355
 21
167.8626284107
 31
0.0
 40
0.41285697
 41
7.7912136607
 42
7.7993367912
  0
ELLIPSE
  5
514
100
AcDbEntity
  8
0
100
AcDbEllipse
 62
7
  6
CONTINUOUS
 10
306.4621961282
 20
310.8653121073
 30
0.0
 11
35.9110211928
 21
932.7335073846
 31
0.0
 40
0.1406330548
 41
5.0807298381
 42
5.0953541886
  0
ELLIPSE
  5
515
100
AcDbEntity
  8
0
100
AcDbEllipse
 62
7
  6
CONTINUOUS
 10
295.6772509896
 20
175.2883733014
 30
0.0
 11
147.4967453266
 21
65.3310636096
 31
0.0
 40
0.0149983191
 41
3.0224566022
 42
3.3682579415
  0
ELLIPSE
  5
516
100
AcDbEntity
  8
0
100
AcDbEllipse
 62
7
  6
CONTINUOUS
 10
343.6332319703
 20
16.3261066701
 30
0.0
 11
-157.8528789355
 21
167.8626284107
 31
0.0
 40
0.41285697
 41
0.7663372832
 42
0.7754998164
  0
ELLIPSE
  5
517
100
AcDbEntity
  8
0
100
AcDbEllipse
 62
7
  6
CONTINUOUS
 10
243.6714396638
 20
16.3261066701
 30
0.0
 11
161.9929417368
 21
169.9956798535
 31
0.0
 40
0.3665883683
 41
-0.8097471174
 42
-0.8005845842
  0
ELLIPSE
  5
518
100
AcDbEntity
  8
0
100
AcDbEllipse
 62
7
  6
CONTINUOUS
 10
295.6772509896
 20
87.0677529859
 30
0.0
 11
-140.139276347
 21
140.139276347
 31
0.0
 40
0.4381369073
 41
-1.9608634152
 42
-1.9510556697
  0
ELLIPSE
  5
519
100
AcDbEntity
  8
0
100
AcDbEllipse
 62
7
  6
CONTINUOUS
 10
295.6772509896
 20
87.0677529859
 30
0.0
 11
142.509922714
 21
142.509922714
 31
0.0
 40
0.3906881813
 41
-4.3726212762
 42
-4.3628135306
  0
ELLIPSE
  5
51A
100
AcDbEntity
  8
0
100
AcDbEllipse
 62
7
  6
CONTINUOUS
 10
124.6747440764
 20
98.8404582621
 30
0.0
 11
3.9999117377
 21
1.7716898606
 31
0.0
 40
0.0149983191
 41
-3.1077441563
 42
-1.5369478295
  0
ELLIPSE
  5
51B
100
AcDbEntity
  8
0
100
AcDbEllipse
 62
7
  6
CONTINUOUS
 10
133.3104480793
 20
103.2722214528
 30
0.0
 11
5.4998786393
 21
2.4360735583
 31
0.0
 40
0.0149983191
 41
0.0
 42
6.2831853072
  0
ELLIPSE
  5
51C
100
AcDbEntity
  8
0
100
AcDbEllipse
 62
7
  6
CONTINUOUS
 10
465.2843170242
 20
705.0177529859
 30
0.0
 11
0.5438775271
 21
1.9264032333
 31
0.0
 40
0.9883839915
 41
4.5335118423
 42
8.6346535912
  0
ENDSEC
  0
SECTION
  2
OBJECTS
  0
DICTIONARY
  5
C
100
AcDbDictionary
280
0
281
1
  3
ACAD_GROUP
350
D
  3
ACAD_MLINESTYLE
350
17
  3
ACAD_LAYOUT
350
1A
  3
ACAD_PLOTSETTINGS
350
19
  3
ACAD_PLOTSTYLENAME
350
E
  0
DICTIONARY
  5
D
102
{ACAD_REACTORS
330
C
102
}
100
AcDbDictionary
280
0
281
1
  0
ACDBDICTIONARYWDFLT
  5
E
102
{ACAD_REACTORS
330
C
102
}
100
AcDbDictionary
281
1
  3
Normal
350
F
100
AcDbDictionaryWithDefault
340
F
  0
DICTIONARY
  5
17
102
{ACAD_REACTORS
330
C
102
}
100
AcDbDictionary
280
0
281
1
  3
Standard
350
18
  0
DICTIONARY
  5
19
102
{ACAD_REACTORS
330
C
102
}
100
AcDbDictionary
281
1
  0
DICTIONARY
  5
1A
102
{ACAD_REACTORS
330
C
102
}
100
AcDbDictionary
281
1
  3
Model
350
51D
  3
Layout1
350
51E
  0
ACDBPLACEHOLDER
  5
F
102
{ACAD_REACTORS
330
E
102
}
  0
MLINESTYLE
  5
18
102
{ACAD_REACTORS
330
17
102
}
100
AcDbMlineStyle
  2
STANDARD
 70
0
  3

 62
256
 51
90.0
 52
90.0
 71
2
 49
0.5
 62
256
  6
BYLAYER
 49
-0.5
 62
256
  6
BYLAYER
  0
LAYOUT
  5
51D
102
{ACAD_REACTORS
330
1A
102
}
100
AcDbPlotSettings
  1

  2
none_device
  4

  6

 40
0.0
 41
0.0
 42
0.0
 43
0.0
 44
558.8
 45
900.0
 46
0.0
 47
0.0
 48
0.0
 49
0.0
140
0.0
141
0.0
142
1.0
143
1.0
 70
1024
 72
1
 73
0
 74
0
  7

 75
0
147
1.0
148
0.0
149
0.0
100
AcDbLayout
  1
Model
 70
0
 71
0
 10
0.0
 20
0.0
 11
558.8
 21
900.0
 12
0.0
 22
0.0
 32
0.0
 14
0.0
 24
0.0
 34
0.0
 15
0.0
 25
0.0
 35
0.0
146
0.0
 13
0.0
 23
0.0
 33
0.0
 16
1.0
 26
0.0
 36
0.0
 17
0.0
 27
1.0
 37
0.0
 76
0
330
20E
345
0
346
0
  0
LAYOUT
  5
51E
102
{ACAD_REACTORS
330
1A
102
}
100
AcDbPlotSettings
  1

  2
none_device
  4

  6

 40
0.0
 41
0.0
 42
0.0
 43
0.0
 44
558.8
 45
900.0
 46
0.0
 47
0.0
 48
0.0
 49
0.0
140
0.0
141
0.0
142
1.0
143
1.0
 70
0
 72
1
 73
0
 74
0
  7

 75
0
147
1.0
148
0.0
149
0.0
100
AcDbLayout
  1
Layout1
 70
0
 71
1
 10
0.0
 20
0.0
 11
558.8
 21
900.0
 12
0.0
 22
0.0
 32
0.0
 14
0.0
 24
0.0
 34
0.0
 15
0.0
 25
0.0
 35
0.0
146
0.0
 13
0.0
 23
0.0
 33
0.0
 16
1.0
 26
0.0
 36
0.0
 17
0.0
 27
1.0
 37
0.0
 76
0
330
20F
345
0
346
0
  0
ENDSEC
  0
EOF
