999
DXF file: S:\Engenharia\Wildfire\Engenharia\Produtos\Lixeiras\94538120\94538120.dxf
999
Pro/ENGINEER 2013150 by Parametric Technology Corporation
  0
SECTION
  2
HEADER
  9
$ACADVER
  1
AC1021
  9
$DWGCODEPAGE
  3
ANSI_1252
  9
$EXTMAX
 10
558.8
 20
600.0
 30
0.0
  9
$EXTMIN
 10
0.0
 20
0.0
 30
0.0
  9
$LIMMIN
 10
0.0
 20
0.0
  9
$LIMMAX
 10
558.8
 20
600.0
  9
$VIEWCTR
 10
279.4
 20
300.0
  9
$VIEWSIZE
 40
600.0
  9
$CLAYER
  8
0
  9
$LTSCALE
 40
39.1111111111
  9
$CELTYPE
  6
BYLAYER
  9
$DIMSCALE
 40
1.0
  9
$DIMASZ
 40
3.0
  9
$DIMEXO
 40
0.5
  9
$DIMDLI
 40
27.0222222222
  9
$DIMEXE
 40
0.5
  9
$DIMCEN
 40
6.4
  9
$DIMLFAC
 40
1.0
  9
$DIMBLK
  1
_FILLED
  9
$DIMTXT
 40
1.8
  9
$DIMTOL
 70
1
  9
$DIMLIM
 70
0
  9
$DIMTFAC
 40
1.0
  9
$DIMTP
 40
0.001
  9
$DIMTM
 40
0.001
  9
$DIMGAP
 40
0.625
  9
$DIMDSEP
 70
46
  9
$PDMODE
 70
3
  9
$PDSIZE
 40
1.0
  9
$HANDSEED
  5
563
  9
$TILEMODE
 70
1
  9
$MEASUREMENT
 70
1
  9
$INSUNITS
 70
4
  0
ENDSEC
  0
SECTION
  2
CLASSES
  0
CLASS
  1
ACDBDICTIONARYWDFLT
  2
AcDbDictionaryWithDefault
  3
AutoCAD 2000
 90
0
 91
1
280
0
281
0
  0
CLASS
  1
ACDBPLACEHOLDER
  2
AcDbPlaceHolder
  3
AutoCAD 2000
 90
0
 91
1
280
0
281
0
  0
CLASS
  1
LAYOUT
  2
AcDbLayout
  3
AutoCAD 2000
 90
0
 91
0
280
0
281
0
  0
ENDSEC
  0
SECTION
  2
TABLES
  0
TABLE
  2
VPORT
  5
8
100
AcDbSymbolTable
 70
2
  0
VPORT
  5
1F4
100
AcDbSymbolTableRecord
100
AcDbViewportTableRecord
  2
*ACTIVE
 70
0
 10
0.0
 20
0.0
 11
1.0
 21
1.0
 12
279.4
 22
300.0
 13
0.0
 23
0.0
 14
1.0
 24
1.0
 15
0.0
 25
0.0
 16
0.0
 26
0.0
 36
1.0
 17
0.0
 27
0.0
 37
0.0
 40
600.0
 41
0.9313333333
 42
50.0
 43
0.0
 44
0.0
 50
0.0
 51
0.0
 71
0
 72
100
 73
1
 74
1
 75
0
 76
0
 77
0
 78
0
  0
ENDTAB
  0
TABLE
  2
LTYPE
  5
5
100
AcDbSymbolTable
 70
6
  0
LTYPE
  5
14
100
AcDbSymbolTableRecord
100
AcDbLinetypeTableRecord
  2
BYBLOCK
 70
0
  3

 72
65
 73
0
 40
0.0
  0
LTYPE
  5
15
100
AcDbSymbolTableRecord
100
AcDbLinetypeTableRecord
  2
BYLAYER
 70
0
  3

 72
65
 73
0
 40
0.0
  0
LTYPE
  5
16
100
AcDbSymbolTableRecord
100
AcDbLinetypeTableRecord
  2
CONTINUOUS
 70
64
  3
Solid line
 72
65
 73
0
 40
0.0
  0
LTYPE
  5
1F5
100
AcDbSymbolTableRecord
100
AcDbLinetypeTableRecord
  2
CENTER
 70
64
  3
____ _ ____ _ ____ _ ____ _ ____ _ ____ _ ____
 72
65
 73
4
 40
0.6
 49
0.375
 74
0
 49
-0.075
 74
0
 49
0.075
 74
0
 49
-0.075
 74
0
  0
LTYPE
  5
1F6
100
AcDbSymbolTableRecord
100
AcDbLinetypeTableRecord
  2
HIDDEN
 70
64
  3
- - - - - - - - - - - - - - - - - - - -
 72
65
 73
2
 40
0.2
 49
0.1
 74
0
 49
-0.1
 74
0
  0
LTYPE
  5
1F7
100
AcDbSymbolTableRecord
100
AcDbLinetypeTableRecord
  2
PHANTOM
 70
64
  3
_____ _ _ _____ _ _ _____ _ _ _____
 72
65
 73
6
 40
0.8
 49
0.45
 74
0
 49
-0.05
 74
0
 49
0.1
 74
0
 49
-0.05
 74
0
 49
0.1
 74
0
 49
-0.05
 74
0
  0
LTYPE
  5
1F8
100
AcDbSymbolTableRecord
100
AcDbLinetypeTableRecord
  2
DOT
 70
64
  3
. . . . . . . . . . . . . . . . . . . .
 72
65
 73
2
 40
0.2
 49
0.1
 74
0
 49
-0.1
 74
0
  0
LTYPE
  5
1F9
100
AcDbSymbolTableRecord
100
AcDbLinetypeTableRecord
  2
DASHED
 70
64
  3
- - - - - - - - - - - - - - - - - - - -
 72
65
 73
2
 40
0.2
 49
0.1
 74
0
 49
-0.1
 74
0
  0
ENDTAB
  0
TABLE
  2
LAYER
  5
2
100
AcDbSymbolTable
 70
36
  0
LAYER
  5
10
100
AcDbSymbolTableRecord
100
AcDbLayerTableRecord
  2
0
 70
0
 62
7
  6
CONTINUOUS
370
-3
390
F
  0
LAYER
  5
1FA
100
AcDbSymbolTableRecord
100
AcDbLayerTableRecord
  2
DEFAULT_1
 70
0
 62
7
  6
CENTER
370
-3
390
F
  0
LAYER
  5
1FB
100
AcDbSymbolTableRecord
100
AcDbLayerTableRecord
  2
DEFAULT_2
 70
0
 62
8
  6
HIDDEN
370
-3
390
F
  0
LAYER
  5
1FC
100
AcDbSymbolTableRecord
100
AcDbLayerTableRecord
  2
DEFAULT_3
 70
0
 62
7
  6
PHANTOM
370
-3
390
F
  0
LAYER
  5
1FD
100
AcDbSymbolTableRecord
100
AcDbLayerTableRecord
  2
01___PRT_ALL_DTM_PLN
 70
0
 62
7
  6
CONTINUOUS
370
-3
390
F
  0
LAYER
  5
1FE
100
AcDbSymbolTableRecord
100
AcDbLayerTableRecord
  2
01___PRT_DEF_DTM_PLN
 70
0
 62
7
  6
CONTINUOUS
370
-3
390
F
  0
LAYER
  5
1FF
100
AcDbSymbolTableRecord
100
AcDbLayerTableRecord
  2
02___PRT_ALL_AXES
 70
0
 62
7
  6
CONTINUOUS
370
-3
390
F
  0
LAYER
  5
200
100
AcDbSymbolTableRecord
100
AcDbLayerTableRecord
  2
03___PRT_ALL_CURVES
 70
0
 62
7
  6
CONTINUOUS
370
-3
390
F
  0
LAYER
  5
201
100
AcDbSymbolTableRecord
100
AcDbLayerTableRecord
  2
04___PRT_ALL_DTM_PNT
 70
0
 62
7
  6
CONTINUOUS
370
-3
390
F
  0
LAYER
  5
202
100
AcDbSymbolTableRecord
100
AcDbLayerTableRecord
  2
05___PRT_ALL_DTM_CSYS
 70
0
 62
7
  6
CONTINUOUS
370
-3
390
F
  0
LAYER
  5
203
100
AcDbSymbolTableRecord
100
AcDbLayerTableRecord
  2
05___PRT_DEF_DTM_CSYS
 70
0
 62
7
  6
CONTINUOUS
370
-3
390
F
  0
LAYER
  5
204
100
AcDbSymbolTableRecord
100
AcDbLayerTableRecord
  2
06___PRT_ALL_SURFS
 70
0
 62
7
  6
CONTINUOUS
370
-3
390
F
  0
LAYER
  5
205
100
AcDbSymbolTableRecord
100
AcDbLayerTableRecord
  2
INTFCLR_19552
 70
0
 62
7
  6
CONTINUOUS
370
-3
390
F
  0
LAYER
  5
206
100
AcDbSymbolTableRecord
100
AcDbLayerTableRecord
  2
INTFCLR_33261
 70
0
 62
7
  6
CONTINUOUS
370
-3
390
F
  0
LAYER
  5
207
100
AcDbSymbolTableRecord
100
AcDbLayerTableRecord
  2
INTFCLR_45830
 70
0
 62
7
  6
CONTINUOUS
370
-3
390
F
  0
LAYER
  5
208
100
AcDbSymbolTableRecord
100
AcDbLayerTableRecord
  2
INTFCLR_69537
 70
0
 62
7
  6
CONTINUOUS
370
-3
390
F
  0
LAYER
  5
209
100
AcDbSymbolTableRecord
100
AcDbLayerTableRecord
  2
INTFCLR_7196
 70
0
 62
7
  6
CONTINUOUS
370
-3
390
F
  0
LAYER
  5
20A
100
AcDbSymbolTableRecord
100
AcDbLayerTableRecord
  2
INTF_RED
 70
0
 62
7
  6
CONTINUOUS
370
-3
390
F
  0
LAYER
  5
20B
100
AcDbSymbolTableRecord
100
AcDbLayerTableRecord
  2
SHELL
 70
0
 62
7
  6
CONTINUOUS
370
-3
390
F
  0
ENDTAB
  0
TABLE
  2
STYLE
  5
3
100
AcDbSymbolTable
 70
1
  0
STYLE
  5
11
100
AcDbSymbolTableRecord
100
AcDbTextStyleTableRecord
  2
STANDARD
 70
0
 40
0.0
 41
0.8
 50
0.0
 71
0
 42
0.2
  3
txt
  4

  0
STYLE
  5
20C
100
AcDbSymbolTableRecord
100
AcDbTextStyleTableRecord
  2
TEXTSTYLE_1
 70
0
 40
0.0
 41
0.8
 50
0.0
 71
0
 42
0.2
  3
gdt
  4

  0
ENDTAB
  0
TABLE
  2
VIEW
  5
6
100
AcDbSymbolTable
 70
0
  0
ENDTAB
  0
TABLE
  2
UCS
  5
7
100
AcDbSymbolTable
 70
0
  0
ENDTAB
  0
TABLE
  2
APPID
  5
9
100
AcDbSymbolTable
 70
1
  0
APPID
  5
20D
100
AcDbSymbolTableRecord
100
AcDbRegAppTableRecord
  2
ACAD
 70
0
  0
ENDTAB
  0
TABLE
  2
BLOCK_RECORD
  5
1
100
AcDbSymbolTable
 70
0
  0
BLOCK_RECORD
  5
20E
100
AcDbSymbolTableRecord
100
AcDbBlockTableRecord
  2
*Model_Space
  0
BLOCK_RECORD
  5
20F
100
AcDbSymbolTableRecord
100
AcDbBlockTableRecord
  2
*Paper_Space
  0
BLOCK_RECORD
  5
210
100
AcDbSymbolTableRecord
100
AcDbBlockTableRecord
  2
_FILLED
  0
BLOCK_RECORD
  5
211
100
AcDbSymbolTableRecord
100
AcDbBlockTableRecord
  2
*D0
  0
BLOCK_RECORD
  5
212
100
AcDbSymbolTableRecord
100
AcDbBlockTableRecord
  2
*D1
  0
ENDTAB
  0
TABLE
  2
DIMSTYLE
  5
A
100
AcDbSymbolTable
 70
1
100
AcDbDimStyleTable
 71
0
  0
DIMSTYLE
105
213
100
AcDbSymbolTableRecord
100
AcDbDimStyleTableRecord
  2
STANDARD
 70
0
  3

  4

 40
1.0
 41
3.0
 42
0.5
 43
0.38
 44
0.5
 45
0.0
 46
0.0
 47
0.001
 48
0.001
140
1.8
141
0.09
142
0.0
143
25.4
144
1.0
145
0.0
146
1.0
147
0.625
 71
1.0
 72
0.0
 73
0
 74
0
 75
0
 76
0
 77
1
 78
8
170
0
171
2
172
0
173
0
174
0
175
0
176
0
177
0
178
0
270
2
271
3
272
3
273
2
274
2
275
0
280
0
281
0
282
0
283
1
284
8
285
0
286
0
287
3
288
0
340
11
278
46
341
210
342
210
343
210
344
210
  0
DIMSTYLE
105
214
100
AcDbSymbolTableRecord
100
AcDbDimStyleTableRecord
  2
DIMSTYLE_1
 70
0
  3

  4

 40
1.0
 41
3.0
 42
0.5
 43
0.38
 44
0.5
 45
0.0
 46
0.0
 47
0.001
 48
0.001
140
1.8
141
0.09
142
0.0
143
25.4
144
1.0
145
0.0
146
1.0
147
0.45
 71
0.0
 72
0.0
 73
0
 74
0
 75
0
 76
0
 77
1
 78
8
170
0
171
2
172
0
173
0
174
0
175
0
176
0
177
0
178
0
270
2
271
3
272
3
273
2
274
2
275
0
280
0
281
0
282
0
283
1
284
8
285
0
286
0
287
3
288
0
340
11
278
46
341
210
342
210
343
210
344
210
  0
ENDTAB
  0
ENDSEC
  0
SECTION
  2
BLOCKS
  0
BLOCK
  5
20
100
AcDbEntity
  8
0
100
AcDbBlockBegin
  2
*Model_Space
 70
0
 10
0.0
 20
0.0
 30
0.0
  3
*Model_Space
  1

  0
ENDBLK
  5
21
100
AcDbEntity
  8
0
100
AcDbBlockEnd
  0
BLOCK
  5
1C
100
AcDbEntity
  8
0
100
AcDbBlockBegin
  2
*Paper_Space
 70
0
 10
0.0
 20
0.0
 30
0.0
  3
*Paper_Space
  1

  0
ENDBLK
  5
1D
100
AcDbEntity
  8
0
100
AcDbBlockEnd
  0
BLOCK
  5
215
100
AcDbEntity
  8
0
100
AcDbBlockBegin
  2
_FILLED
 70
64
 10
0.0
 20
0.0
  3
_FILLED
  1

  0
SOLID
  5
216
100
AcDbEntity
  8
0
  6
BYBLOCK
 62
0
100
AcDbTrace
 10
0.0
 20
0.0
 11
-1.0
 21
0.1666666667
 12
-1.0
 22
-0.1666666667
 13
-1.0
 23
-0.1666666667
  0
ENDBLK
  5
217
100
AcDbEntity
  8
0
  6
BYBLOCK
 62
0
100
AcDbBlockEnd
  0
BLOCK
  5
218
100
AcDbEntity
  8
0
100
AcDbBlockBegin
 62
2
  6
CONTINUOUS
  2
*D0
 70
65
 10
0.0
 20
0.0
  3
*D0
  1

  0
MTEXT
  5
219
100
AcDbEntity
  8
0
100
AcDbMText
 62
2
  6
CONTINUOUS
  7
TEXTSTYLE_1
 71
2
 72
1
 10
269.1672336471
 20
560.3753928615
 30
0.0
 11
1.0
 21
0.0
 31
0.0
 44
0.9
  1
{\Fgdt;n}\Ftxt;295
 40
1.8
 41
11.9314285714
  0
LINE
  5
21A
100
AcDbEntity
  8
0
100
AcDbLine
 62
2
  6
CONTINUOUS
 10
122.1672336471
 20
508.0597069431
 11
122.1672336471
 21
558.3039642901
  0
LINE
  5
21B
100
AcDbEntity
  8
0
100
AcDbLine
 62
2
  6
CONTINUOUS
 10
416.1672336471
 20
508.0597069431
 11
416.1672336471
 21
558.3039642901
  0
LINE
  5
21C
100
AcDbEntity
  8
0
100
AcDbLine
 62
2
  6
CONTINUOUS
 10
122.1672336471
 20
557.8039642901
 11
269.1672336471
 21
557.8039642901
  0
LINE
  5
21D
100
AcDbEntity
  8
0
100
AcDbLine
 62
2
  6
CONTINUOUS
 10
416.1672336471
 20
557.8039642901
 11
269.1672336471
 21
557.8039642901
  0
INSERT
  5
21E
100
AcDbEntity
  8
0
100
AcDbBlockReference
 62
2
  6
CONTINUOUS
  2
_FILLED
 10
122.1672336471
 20
557.8039642901
 41
3.0
 42
3.0
 43
3.0
 50
180.0
  0
INSERT
  5
21F
100
AcDbEntity
  8
0
100
AcDbBlockReference
 62
2
  6
CONTINUOUS
  2
_FILLED
 10
416.1672336471
 20
557.8039642901
 41
3.0
 42
3.0
 43
3.0
  0
ENDBLK
  5
220
100
AcDbEntity
  8
0
  6
BYBLOCK
 62
0
100
AcDbBlockEnd
  0
BLOCK
  5
221
100
AcDbEntity
  8
0
100
AcDbBlockBegin
 62
2
  6
CONTINUOUS
  2
*D1
 70
65
 10
0.0
 20
0.0
  3
*D1
  1

  0
MTEXT
  5
222
100
AcDbEntity
  8
0
100
AcDbMText
 62
2
  6
CONTINUOUS
  7
STANDARD
 71
2
 72
1
 10
480.1731116494
 20
288.0168260436
 30
0.0
 11
0.0
 21
1.0
 31
0.0
 44
0.9
  1
460
 40
1.8
 41
8.3314285714
  0
LINE
  5
223
100
AcDbEntity
  8
0
100
AcDbLine
 62
2
  6
CONTINUOUS
 10
269.6672336471
 20
521.4418260436
 11
483.2445402208
 21
521.4418260436
  0
LINE
  5
224
100
AcDbEntity
  8
0
100
AcDbLine
 62
2
  6
CONTINUOUS
 10
384.1880741936
 20
54.5918260436
 11
483.2445402208
 21
54.5918260436
  0
LINE
  5
225
100
AcDbEntity
  8
0
100
AcDbLine
 62
2
  6
CONTINUOUS
 10
482.7445402208
 20
521.4418260436
 11
482.7445402208
 21
288.0168260436
  0
LINE
  5
226
100
AcDbEntity
  8
0
100
AcDbLine
 62
2
  6
CONTINUOUS
 10
482.7445402208
 20
54.5918260436
 11
482.7445402208
 21
288.0168260436
  0
INSERT
  5
227
100
AcDbEntity
  8
0
100
AcDbBlockReference
 62
2
  6
CONTINUOUS
  2
_FILLED
 10
482.7445402208
 20
521.4418260436
 41
3.0
 42
3.0
 43
3.0
 50
90.0
  0
INSERT
  5
228
100
AcDbEntity
  8
0
100
AcDbBlockReference
 62
2
  6
CONTINUOUS
  2
_FILLED
 10
482.7445402208
 20
54.5918260436
 41
3.0
 42
3.0
 43
3.0
 50
270.0
  0
ENDBLK
  5
229
100
AcDbEntity
  8
0
  6
BYBLOCK
 62
0
100
AcDbBlockEnd
  0
ENDSEC
  0
SECTION
  2
ENTITIES
  0
DIMENSION
  5
22A
100
AcDbEntity
  8
0
100
AcDbDimension
 62
2
  6
CONTINUOUS
  2
*D0
 10
416.1672336471
 20
557.8039642901
 11
269.1672336471
 21
557.8039642901
 70
160
 71
2
 42
294.0
  1
%%c<>
  3
DIMSTYLE_1
100
AcDbAlignedDimension
 13
122.1672336471
 23
507.5597069431
 14
416.1672336471
 24
507.5597069431
100
AcDbRotatedDimension
  0
DIMENSION
  5
22B
100
AcDbEntity
  8
0
100
AcDbDimension
 62
2
  6
CONTINUOUS
  2
*D1
 10
482.7445402208
 20
54.5918260436
 11
482.7445402208
 21
288.0168260436
 70
160
 71
2
 42
466.85
  3
DIMSTYLE_1
100
AcDbAlignedDimension
 13
269.1672336471
 23
521.4418260436
 14
383.6880741936
 24
54.5918260436
 50
270.0
100
AcDbRotatedDimension
  0
LINE
  5
22C
100
AcDbEntity
  8
0
100
AcDbLine
 62
7
  6
CONTINUOUS
 10
91.5347049624
 20
61.0918260436
 11
91.5332157308
 21
61.0937429258
  0
LINE
  5
22D
100
AcDbEntity
  8
0
100
AcDbLine
 62
7
  6
CONTINUOUS
 10
119.2799575605
 20
51.0554008171
 11
94.2832981643
 21
51.0554008171
  0
LINE
  5
22E
100
AcDbEntity
  8
0
100
AcDbLine
 62
7
  6
CONTINUOUS
 10
102.0782363271
 20
90.0351358157
 11
117.7560806961
 21
79.8810468253
  0
LINE
  5
22F
100
AcDbEntity
  8
0
100
AcDbLine
 62
7
  6
CONTINUOUS
 10
110.7469272268
 20
90.0918260436
 11
120.3436812149
 21
83.8762844346
  0
LINE
  5
230
100
AcDbEntity
  8
0
100
AcDbLine
 62
7
  6
CONTINUOUS
 10
143.9056213235
 20
515.7817433209
 11
142.526828128
 21
513.3936034532
  0
LINE
  5
231
100
AcDbEntity
  8
0
100
AcDbLine
 62
7
  6
CONTINUOUS
 10
106.1898772855
 20
53.0918260436
 11
91.5347049624
 21
53.0918260436
  0
LINE
  5
232
100
AcDbEntity
  8
0
100
AcDbLine
 62
7
  6
CONTINUOUS
 10
383.6880741936
 20
54.5918260436
 11
377.389917536
 21
54.5918260436
  0
LINE
  5
233
100
AcDbEntity
  8
0
100
AcDbLine
 62
7
  6
CONTINUOUS
 10
375.7584287901
 20
54.5918260436
 11
369.2001563708
 21
54.5918260436
  0
LINE
  5
234
100
AcDbEntity
  8
0
100
AcDbLine
 62
7
  6
CONTINUOUS
 10
169.1343109234
 20
54.5918260436
 11
162.5760385041
 21
54.5918260436
  0
LINE
  5
235
100
AcDbEntity
  8
0
100
AcDbLine
 62
7
  6
CONTINUOUS
 10
160.9445497583
 20
54.5918260436
 11
154.6463931006
 21
54.5918260436
  0
LINE
  5
236
100
AcDbEntity
  8
0
100
AcDbLine
 62
7
  6
CONTINUOUS
 10
93.6355882606
 20
56.0918260436
 11
91.9473784674
 21
56.0918260436
  0
LINE
  5
237
100
AcDbEntity
  8
0
100
AcDbLine
 62
7
  6
CONTINUOUS
 10
109.1877653923
 20
56.0918260436
 11
422.1661787015
 21
56.0918260436
  0
LINE
  5
238
100
AcDbEntity
  8
0
100
AcDbLine
 62
7
  6
CONTINUOUS
 10
91.5347049624
 20
61.0918260436
 11
94.0482617656
 21
61.0918260436
  0
LINE
  5
239
100
AcDbEntity
  8
0
100
AcDbLine
 62
7
  6
CONTINUOUS
 10
128.0210718984
 20
70.0918260436
 11
416.6672344215
 21
70.0918260436
  0
LINE
  5
23A
100
AcDbEntity
  8
0
100
AcDbLine
 62
7
  6
CONTINUOUS
 10
80.0109199672
 20
92.1189042769
 11
80.0151836361
 21
92.1183278136
  0
LINE
  5
23B
100
AcDbEntity
  8
0
100
AcDbLine
 62
7
  6
CONTINUOUS
 10
128.0210718984
 20
72.2418260436
 11
415.6672336159
 21
72.2418260436
  0
LINE
  5
23C
100
AcDbEntity
  8
0
100
AcDbLine
 62
7
  6
CONTINUOUS
 10
415.8325260844
 20
75.3418260436
 11
415.6114325021
 21
75.3418260436
  0
LINE
  5
23D
100
AcDbEntity
  8
0
100
AcDbLine
 62
7
  6
CONTINUOUS
 10
415.6093706706
 20
75.7418260436
 11
415.6095171923
 21
75.7418260436
  0
LINE
  5
23E
100
AcDbEntity
  8
0
100
AcDbLine
 62
7
  6
CONTINUOUS
 10
126.8976157936
 20
77.9618260436
 11
128.2785463171
 21
77.9618260436
  0
LINE
  5
23F
100
AcDbEntity
  8
0
100
AcDbLine
 62
7
  6
CONTINUOUS
 10
126.8976157936
 20
82.7218260436
 11
128.9001497809
 21
82.7218260436
  0
LINE
  5
240
100
AcDbEntity
  8
0
100
AcDbLine
 62
7
  6
CONTINUOUS
 10
130.542032558
 20
84.6418260436
 11
130.1257144592
 21
84.6418260436
  0
LINE
  5
241
100
AcDbEntity
  8
0
100
AcDbLine
 62
7
  6
CONTINUOUS
 10
80.2966137759
 20
90.0918260436
 11
130.6604923695
 21
90.0918260436
  0
LINE
  5
242
100
AcDbEntity
  8
0
100
AcDbLine
 62
7
  6
CONTINUOUS
 10
80.2961801976
 20
90.0877424051
 11
80.0109199672
 21
92.1189042769
  0
LINE
  5
243
100
AcDbEntity
  8
0
100
AcDbLine
 62
7
  6
CONTINUOUS
 10
82.7163193052
 20
92.1183278136
 11
83.000925062
 21
90.0918260436
  0
LINE
  5
244
100
AcDbEntity
  8
0
100
AcDbLine
 62
7
  6
CONTINUOUS
 10
85.7355831452
 20
95.0329293637
 11
85.6660455812
 21
95.528063398
  0
LINE
  5
245
100
AcDbEntity
  8
0
100
AcDbLine
 62
7
  6
CONTINUOUS
 10
85.8668883514
 20
95.0329293637
 11
85.7973507873
 21
95.528063398
  0
LINE
  5
246
100
AcDbEntity
  8
0
100
AcDbLine
 62
7
  6
CONTINUOUS
 10
85.9981935575
 20
95.0329293637
 11
85.9286559935
 21
95.528063398
  0
LINE
  5
247
100
AcDbEntity
  8
0
100
AcDbLine
 62
7
  6
CONTINUOUS
 10
86.1294987636
 20
95.0329293637
 11
86.0599611996
 21
95.528063398
  0
LINE
  5
248
100
AcDbEntity
  8
0
100
AcDbLine
 62
7
  6
CONTINUOUS
 10
86.2608039698
 20
95.0329293637
 11
86.1912664057
 21
95.528063398
  0
LINE
  5
249
100
AcDbEntity
  8
0
100
AcDbLine
 62
7
  6
CONTINUOUS
 10
86.3921091759
 20
95.0329293637
 11
86.3225716119
 21
95.528063398
  0
LINE
  5
24A
100
AcDbEntity
  8
0
100
AcDbLine
 62
7
  6
CONTINUOUS
 10
86.523414382
 20
95.0329293637
 11
86.453876818
 21
95.528063398
  0
LINE
  5
24B
100
AcDbEntity
  8
0
100
AcDbLine
 62
7
  6
CONTINUOUS
 10
86.6547195882
 20
95.0329293637
 11
86.5851820242
 21
95.528063398
  0
LINE
  5
24C
100
AcDbEntity
  8
0
100
AcDbLine
 62
7
  6
CONTINUOUS
 10
86.7860247943
 20
95.0329293637
 11
86.7164872303
 21
95.528063398
  0
LINE
  5
24D
100
AcDbEntity
  8
0
100
AcDbLine
 62
7
  6
CONTINUOUS
 10
86.9173300005
 20
95.0329293637
 11
86.8477924364
 21
95.528063398
  0
LINE
  5
24E
100
AcDbEntity
  8
0
100
AcDbLine
 62
7
  6
CONTINUOUS
 10
87.0486352066
 20
95.0329293637
 11
86.9790976426
 21
95.528063398
  0
LINE
  5
24F
100
AcDbEntity
  8
0
100
AcDbLine
 62
7
  6
CONTINUOUS
 10
87.1799404127
 20
95.0329293637
 11
87.1104028487
 21
95.528063398
  0
LINE
  5
250
100
AcDbEntity
  8
0
100
AcDbLine
 62
7
  6
CONTINUOUS
 10
87.3112456189
 20
95.0329293637
 11
87.2417080548
 21
95.528063398
  0
LINE
  5
251
100
AcDbEntity
  8
0
100
AcDbLine
 62
7
  6
CONTINUOUS
 10
87.442550825
 20
95.0329293637
 11
87.373013261
 21
95.528063398
  0
LINE
  5
252
100
AcDbEntity
  8
0
100
AcDbLine
 62
7
  6
CONTINUOUS
 10
87.5738560311
 20
95.0329293637
 11
87.5043184671
 21
95.528063398
  0
LINE
  5
253
100
AcDbEntity
  8
0
100
AcDbLine
 62
7
  6
CONTINUOUS
 10
87.7051612373
 20
95.0329293637
 11
87.6356236732
 21
95.528063398
  0
LINE
  5
254
100
AcDbEntity
  8
0
100
AcDbLine
 62
7
  6
CONTINUOUS
 10
87.8364664434
 20
95.0329293637
 11
87.7669288794
 21
95.528063398
  0
LINE
  5
255
100
AcDbEntity
  8
0
100
AcDbLine
 62
7
  6
CONTINUOUS
 10
87.9677716495
 20
95.0329293637
 11
87.8982340855
 21
95.528063398
  0
LINE
  5
256
100
AcDbEntity
  8
0
100
AcDbLine
 62
7
  6
CONTINUOUS
 10
88.0990768557
 20
95.0329293637
 11
88.0295392917
 21
95.528063398
  0
LINE
  5
257
100
AcDbEntity
  8
0
100
AcDbLine
 62
7
  6
CONTINUOUS
 10
88.2303820618
 20
95.0329293637
 11
88.1608444978
 21
95.528063398
  0
LINE
  5
258
100
AcDbEntity
  8
0
100
AcDbLine
 62
7
  6
CONTINUOUS
 10
88.361687268
 20
95.0329293637
 11
88.2921497039
 21
95.528063398
  0
LINE
  5
259
100
AcDbEntity
  8
0
100
AcDbLine
 62
7
  6
CONTINUOUS
 10
89.2807198403
 20
90.0918260436
 11
88.878839676
 21
92.9533664193
  0
LINE
  5
25A
100
AcDbEntity
  8
0
100
AcDbLine
 62
7
  6
CONTINUOUS
 10
89.1473627122
 20
95.8882926731
 11
89.1295439246
 21
96.0151692514
  0
LINE
  5
25B
100
AcDbEntity
  8
0
100
AcDbLine
 62
7
  6
CONTINUOUS
 10
89.2786679184
 20
95.8882926731
 11
89.2608491308
 21
96.0151692514
  0
LINE
  5
25C
100
AcDbEntity
  8
0
100
AcDbLine
 62
7
  6
CONTINUOUS
 10
89.4099731245
 20
95.8882926731
 11
89.3921543369
 21
96.0151692514
  0
LINE
  5
25D
100
AcDbEntity
  8
0
100
AcDbLine
 62
7
  6
CONTINUOUS
 10
89.5412783307
 20
95.8882926731
 11
89.5234595431
 21
96.0151692514
  0
LINE
  5
25E
100
AcDbEntity
  8
0
100
AcDbLine
 62
7
  6
CONTINUOUS
 10
89.6725835368
 20
95.8882926731
 11
89.6547647492
 21
96.0151692514
  0
LINE
  5
25F
100
AcDbEntity
  8
0
100
AcDbLine
 62
7
  6
CONTINUOUS
 10
89.8038887429
 20
95.8882926731
 11
89.7860699553
 21
96.0151692514
  0
LINE
  5
260
100
AcDbEntity
  8
0
100
AcDbLine
 62
7
  6
CONTINUOUS
 10
89.9351939491
 20
95.8882926731
 11
89.9173751615
 21
96.0151692514
  0
LINE
  5
261
100
AcDbEntity
  8
0
100
AcDbLine
 62
7
  6
CONTINUOUS
 10
90.0664991552
 20
95.8882926731
 11
90.0486803676
 21
96.0151692514
  0
LINE
  5
262
100
AcDbEntity
  8
0
100
AcDbLine
 62
7
  6
CONTINUOUS
 10
90.1978043613
 20
95.8882926731
 11
90.1799855737
 21
96.0151692514
  0
LINE
  5
263
100
AcDbEntity
  8
0
100
AcDbLine
 62
7
  6
CONTINUOUS
 10
90.3408291785
 20
95.3112755656
 11
90.2712916145
 21
95.8064096
  0
LINE
  5
264
100
AcDbEntity
  8
0
100
AcDbLine
 62
7
  6
CONTINUOUS
 10
90.3291095675
 20
95.8882926731
 11
90.3112907799
 21
96.0151692514
  0
LINE
  5
265
100
AcDbEntity
  8
0
100
AcDbLine
 62
7
  6
CONTINUOUS
 10
90.51213355
 20
95.520035217
 11
90.442595986
 21
96.0151692514
  0
LINE
  5
266
100
AcDbEntity
  8
0
100
AcDbLine
 62
7
  6
CONTINUOUS
 10
90.6434387562
 20
95.520035217
 11
90.5739011922
 21
96.0151692514
  0
LINE
  5
267
100
AcDbEntity
  8
0
100
AcDbLine
 62
7
  6
CONTINUOUS
 10
90.7747439623
 20
95.520035217
 11
90.7052063983
 21
96.0151692514
  0
LINE
  5
268
100
AcDbEntity
  8
0
100
AcDbLine
 62
7
  6
CONTINUOUS
 10
90.9060491685
 20
95.520035217
 11
90.8365116044
 21
96.0151692514
  0
LINE
  5
269
100
AcDbEntity
  8
0
100
AcDbLine
 62
7
  6
CONTINUOUS
 10
91.0373543746
 20
95.520035217
 11
90.9678168106
 21
96.0151692514
  0
LINE
  5
26A
100
AcDbEntity
  8
0
100
AcDbLine
 62
7
  6
CONTINUOUS
 10
93.6355882606
 20
56.0918260436
 11
93.7481355802
 21
53.0918260436
  0
LINE
  5
26B
100
AcDbEntity
  8
0
100
AcDbLine
 62
7
  6
CONTINUOUS
 10
81.7594741202
 20
93.9793686644
 11
81.9819943251
 21
93.9949397544
  0
LINE
  5
26C
100
AcDbEntity
  8
0
100
AcDbLine
 62
7
  6
CONTINUOUS
 10
80.0151836361
 20
92.1183278136
 11
82.7163193052
 21
92.1183278136
  0
LINE
  5
26D
100
AcDbEntity
  8
0
100
AcDbLine
 62
7
  6
CONTINUOUS
 10
84.0771126288
 20
93.9254336851
 11
81.3759769597
 21
93.9254336851
  0
LINE
  5
26E
100
AcDbEntity
  8
0
100
AcDbLine
 62
7
  6
CONTINUOUS
 10
81.7594741202
 20
93.9793686644
 11
84.6037173123
 21
93.9949397544
  0
LINE
  5
26F
100
AcDbEntity
  8
0
100
AcDbLine
 62
7
  6
CONTINUOUS
 10
87.3627373694
 20
94.8937562627
 11
84.6803595869
 21
94.8937562627
  0
LINE
  5
270
100
AcDbEntity
  8
0
100
AcDbLine
 62
7
  6
CONTINUOUS
 10
85.722319241
 20
95.0329293637
 11
85.7355831452
 21
95.0329293637
  0
LINE
  5
271
100
AcDbEntity
  8
0
100
AcDbLine
 62
7
  6
CONTINUOUS
 10
85.8536244471
 20
95.0329293637
 11
85.8668883514
 21
95.0329293637
  0
LINE
  5
272
100
AcDbEntity
  8
0
100
AcDbLine
 62
7
  6
CONTINUOUS
 10
85.9849296532
 20
95.0329293637
 11
85.9981935575
 21
95.0329293637
  0
LINE
  5
273
100
AcDbEntity
  8
0
100
AcDbLine
 62
7
  6
CONTINUOUS
 10
86.1162348594
 20
95.0329293637
 11
86.1294987636
 21
95.0329293637
  0
LINE
  5
274
100
AcDbEntity
  8
0
100
AcDbLine
 62
7
  6
CONTINUOUS
 10
86.2475400655
 20
95.0329293637
 11
86.2608039698
 21
95.0329293637
  0
LINE
  5
275
100
AcDbEntity
  8
0
100
AcDbLine
 62
7
  6
CONTINUOUS
 10
86.3788452717
 20
95.0329293637
 11
86.3921091759
 21
95.0329293637
  0
LINE
  5
276
100
AcDbEntity
  8
0
100
AcDbLine
 62
7
  6
CONTINUOUS
 10
86.5101504778
 20
95.0329293637
 11
86.523414382
 21
95.0329293637
  0
LINE
  5
277
100
AcDbEntity
  8
0
100
AcDbLine
 62
7
  6
CONTINUOUS
 10
86.6414556839
 20
95.0329293637
 11
86.6547195882
 21
95.0329293637
  0
LINE
  5
278
100
AcDbEntity
  8
0
100
AcDbLine
 62
7
  6
CONTINUOUS
 10
86.7727608901
 20
95.0329293637
 11
86.7860247943
 21
95.0329293637
  0
LINE
  5
279
100
AcDbEntity
  8
0
100
AcDbLine
 62
7
  6
CONTINUOUS
 10
86.9040660962
 20
95.0329293637
 11
86.9173300005
 21
95.0329293637
  0
LINE
  5
27A
100
AcDbEntity
  8
0
100
AcDbLine
 62
7
  6
CONTINUOUS
 10
87.0353713023
 20
95.0329293637
 11
87.0486352066
 21
95.0329293637
  0
LINE
  5
27B
100
AcDbEntity
  8
0
100
AcDbLine
 62
7
  6
CONTINUOUS
 10
87.1666765085
 20
95.0329293637
 11
87.1799404127
 21
95.0329293637
  0
LINE
  5
27C
100
AcDbEntity
  8
0
100
AcDbLine
 62
7
  6
CONTINUOUS
 10
87.2979817146
 20
95.0329293637
 11
87.3112456189
 21
95.0329293637
  0
LINE
  5
27D
100
AcDbEntity
  8
0
100
AcDbLine
 62
7
  6
CONTINUOUS
 10
87.4292869207
 20
95.0329293637
 11
87.442550825
 21
95.0329293637
  0
LINE
  5
27E
100
AcDbEntity
  8
0
100
AcDbLine
 62
7
  6
CONTINUOUS
 10
87.5605921269
 20
95.0329293637
 11
87.5738560311
 21
95.0329293637
  0
LINE
  5
27F
100
AcDbEntity
  8
0
100
AcDbLine
 62
7
  6
CONTINUOUS
 10
87.691897333
 20
95.0329293637
 11
87.7051612373
 21
95.0329293637
  0
LINE
  5
280
100
AcDbEntity
  8
0
100
AcDbLine
 62
7
  6
CONTINUOUS
 10
87.8232025392
 20
95.0329293637
 11
87.8364664434
 21
95.0329293637
  0
LINE
  5
281
100
AcDbEntity
  8
0
100
AcDbLine
 62
7
  6
CONTINUOUS
 10
87.9545077453
 20
95.0329293637
 11
87.9677716495
 21
95.0329293637
  0
LINE
  5
282
100
AcDbEntity
  8
0
100
AcDbLine
 62
7
  6
CONTINUOUS
 10
88.0858129514
 20
95.0329293637
 11
88.0990768557
 21
95.0329293637
  0
LINE
  5
283
100
AcDbEntity
  8
0
100
AcDbLine
 62
7
  6
CONTINUOUS
 10
88.2171181576
 20
95.0329293637
 11
88.2303820618
 21
95.0329293637
  0
LINE
  5
284
100
AcDbEntity
  8
0
100
AcDbLine
 62
7
  6
CONTINUOUS
 10
90.4988696458
 20
95.520035217
 11
90.51213355
 21
95.520035217
  0
LINE
  5
285
100
AcDbEntity
  8
0
100
AcDbLine
 62
7
  6
CONTINUOUS
 10
90.6301748519
 20
95.520035217
 11
90.6434387562
 21
95.520035217
  0
LINE
  5
286
100
AcDbEntity
  8
0
100
AcDbLine
 62
7
  6
CONTINUOUS
 10
90.7614800581
 20
95.520035217
 11
90.7747439623
 21
95.520035217
  0
LINE
  5
287
100
AcDbEntity
  8
0
100
AcDbLine
 62
7
  6
CONTINUOUS
 10
90.8927852642
 20
95.520035217
 11
90.9060491685
 21
95.520035217
  0
LINE
  5
288
100
AcDbEntity
  8
0
100
AcDbLine
 62
7
  6
CONTINUOUS
 10
91.0240904703
 20
95.520035217
 11
91.0373543746
 21
95.520035217
  0
LINE
  5
289
100
AcDbEntity
  8
0
100
AcDbLine
 62
7
  6
CONTINUOUS
 10
91.1553956765
 20
95.520035217
 11
91.1686595807
 21
95.520035217
  0
LINE
  5
28A
100
AcDbEntity
  8
0
100
AcDbLine
 62
7
  6
CONTINUOUS
 10
93.9623679892
 20
96.0071410704
 11
93.9756318935
 21
96.0071410704
  0
LINE
  5
28B
100
AcDbEntity
  8
0
100
AcDbLine
 62
7
  6
CONTINUOUS
 10
94.0936731954
 20
96.0071410704
 11
94.1069370996
 21
96.0071410704
  0
LINE
  5
28C
100
AcDbEntity
  8
0
100
AcDbLine
 62
7
  6
CONTINUOUS
 10
94.2249784015
 20
96.0071410704
 11
94.2382423058
 21
96.0071410704
  0
LINE
  5
28D
100
AcDbEntity
  8
0
100
AcDbLine
 62
7
  6
CONTINUOUS
 10
94.3562836077
 20
96.0071410704
 11
94.3695475119
 21
96.0071410704
  0
LINE
  5
28E
100
AcDbEntity
  8
0
100
AcDbLine
 62
7
  6
CONTINUOUS
 10
94.4875888138
 20
96.0071410704
 11
94.500852718
 21
96.0071410704
  0
LINE
  5
28F
100
AcDbEntity
  8
0
100
AcDbLine
 62
7
  6
CONTINUOUS
 10
94.6188940199
 20
96.0071410704
 11
94.6321579242
 21
96.0071410704
  0
LINE
  5
290
100
AcDbEntity
  8
0
100
AcDbLine
 62
7
  6
CONTINUOUS
 10
97.4258663327
 20
96.4942469238
 11
97.439130237
 21
96.4942469238
  0
LINE
  5
291
100
AcDbEntity
  8
0
100
AcDbLine
 62
7
  6
CONTINUOUS
 10
97.5571715388
 20
96.4942469238
 11
97.5704354431
 21
96.4942469238
  0
LINE
  5
292
100
AcDbEntity
  8
0
100
AcDbLine
 62
7
  6
CONTINUOUS
 10
97.688476745
 20
96.4942469238
 11
97.7017406492
 21
96.4942469238
  0
LINE
  5
293
100
AcDbEntity
  8
0
100
AcDbLine
 62
7
  6
CONTINUOUS
 10
97.8197819511
 20
96.4942469238
 11
97.8330458554
 21
96.4942469238
  0
LINE
  5
294
100
AcDbEntity
  8
0
100
AcDbLine
 62
7
  6
CONTINUOUS
 10
97.9510871573
 20
96.4942469238
 11
97.9643510615
 21
96.4942469238
  0
LINE
  5
295
100
AcDbEntity
  8
0
100
AcDbLine
 62
7
  6
CONTINUOUS
 10
98.0823923634
 20
96.4942469238
 11
98.0956562676
 21
96.4942469238
  0
LINE
  5
296
100
AcDbEntity
  8
0
100
AcDbLine
 62
7
  6
CONTINUOUS
 10
100.8893646762
 20
96.9813527771
 11
100.9026285804
 21
96.9813527771
  0
LINE
  5
297
100
AcDbEntity
  8
0
100
AcDbLine
 62
7
  6
CONTINUOUS
 10
101.0206698823
 20
96.9813527771
 11
101.0339337865
 21
96.9813527771
  0
LINE
  5
298
100
AcDbEntity
  8
0
100
AcDbLine
 62
7
  6
CONTINUOUS
 10
101.1519750884
 20
96.9813527771
 11
101.1652389927
 21
96.9813527771
  0
LINE
  5
299
100
AcDbEntity
  8
0
100
AcDbLine
 62
7
  6
CONTINUOUS
 10
101.2832802946
 20
96.9813527771
 11
101.2965441988
 21
96.9813527771
  0
LINE
  5
29A
100
AcDbEntity
  8
0
100
AcDbLine
 62
7
  6
CONTINUOUS
 10
101.4145855007
 20
96.9813527771
 11
101.427849405
 21
96.9813527771
  0
LINE
  5
29B
100
AcDbEntity
  8
0
100
AcDbLine
 62
7
  6
CONTINUOUS
 10
101.5458907068
 20
96.9813527771
 11
101.5591546111
 21
96.9813527771
  0
LINE
  5
29C
100
AcDbEntity
  8
0
100
AcDbLine
 62
7
  6
CONTINUOUS
 10
104.3528630196
 20
97.4684586305
 11
104.3661269239
 21
97.4684586305
  0
LINE
  5
29D
100
AcDbEntity
  8
0
100
AcDbLine
 62
7
  6
CONTINUOUS
 10
104.4841682258
 20
97.4684586305
 11
104.49743213
 21
97.4684586305
  0
LINE
  5
29E
100
AcDbEntity
  8
0
100
AcDbLine
 62
7
  6
CONTINUOUS
 10
104.6154734319
 20
97.4684586305
 11
104.6287373361
 21
97.4684586305
  0
LINE
  5
29F
100
AcDbEntity
  8
0
100
AcDbLine
 62
7
  6
CONTINUOUS
 10
104.746778638
 20
97.4684586305
 11
104.7600425423
 21
97.4684586305
  0
LINE
  5
2A0
100
AcDbEntity
  8
0
100
AcDbLine
 62
7
  6
CONTINUOUS
 10
104.8780838442
 20
97.4684586305
 11
104.8913477484
 21
97.4684586305
  0
LINE
  5
2A1
100
AcDbEntity
  8
0
100
AcDbLine
 62
7
  6
CONTINUOUS
 10
105.0093890503
 20
97.4684586305
 11
105.0226529546
 21
97.4684586305
  0
LINE
  5
2A2
100
AcDbEntity
  8
0
100
AcDbLine
 62
7
  6
CONTINUOUS
 10
107.8163613631
 20
97.9555644838
 11
107.8296252673
 21
97.9555644838
  0
LINE
  5
2A3
100
AcDbEntity
  8
0
100
AcDbLine
 62
7
  6
CONTINUOUS
 10
107.9476665692
 20
97.9555644838
 11
107.9609304735
 21
97.9555644838
  0
LINE
  5
2A4
100
AcDbEntity
  8
0
100
AcDbLine
 62
7
  6
CONTINUOUS
 10
108.0789717753
 20
97.9555644838
 11
108.0922356796
 21
97.9555644838
  0
LINE
  5
2A5
100
AcDbEntity
  8
0
100
AcDbLine
 62
7
  6
CONTINUOUS
 10
108.2102769815
 20
97.9555644838
 11
108.2235408857
 21
97.9555644838
  0
LINE
  5
2A6
100
AcDbEntity
  8
0
100
AcDbLine
 62
7
  6
CONTINUOUS
 10
108.3415821876
 20
97.9555644838
 11
108.3548460919
 21
97.9555644838
  0
LINE
  5
2A7
100
AcDbEntity
  8
0
100
AcDbLine
 62
7
  6
CONTINUOUS
 10
108.4728873938
 20
97.9555644838
 11
108.486151298
 21
97.9555644838
  0
LINE
  5
2A8
100
AcDbEntity
  8
0
100
AcDbLine
 62
7
  6
CONTINUOUS
 10
111.2798597065
 20
98.4426703372
 11
111.2931236108
 21
98.4426703372
  0
LINE
  5
2A9
100
AcDbEntity
  8
0
100
AcDbLine
 62
7
  6
CONTINUOUS
 10
111.4111649127
 20
98.4426703372
 11
111.4244288169
 21
98.4426703372
  0
LINE
  5
2AA
100
AcDbEntity
  8
0
100
AcDbLine
 62
7
  6
CONTINUOUS
 10
111.5424701188
 20
98.4426703372
 11
111.5557340231
 21
98.4426703372
  0
LINE
  5
2AB
100
AcDbEntity
  8
0
100
AcDbLine
 62
7
  6
CONTINUOUS
 10
111.6737753249
 20
98.4426703372
 11
111.6870392292
 21
98.4426703372
  0
LINE
  5
2AC
100
AcDbEntity
  8
0
100
AcDbLine
 62
7
  6
CONTINUOUS
 10
111.8050805311
 20
98.4426703372
 11
111.8183444353
 21
98.4426703372
  0
LINE
  5
2AD
100
AcDbEntity
  8
0
100
AcDbLine
 62
7
  6
CONTINUOUS
 10
111.9363857372
 20
98.4426703372
 11
111.9496496415
 21
98.4426703372
  0
LINE
  5
2AE
100
AcDbEntity
  8
0
100
AcDbLine
 62
7
  6
CONTINUOUS
 10
114.74335805
 20
98.9297761906
 11
114.7566219542
 21
98.9297761906
  0
LINE
  5
2AF
100
AcDbEntity
  8
0
100
AcDbLine
 62
7
  6
CONTINUOUS
 10
114.8746632561
 20
98.9297761906
 11
114.8879271604
 21
98.9297761906
  0
LINE
  5
2B0
100
AcDbEntity
  8
0
100
AcDbLine
 62
7
  6
CONTINUOUS
 10
115.0059684623
 20
98.9297761906
 11
115.0192323665
 21
98.9297761906
  0
LINE
  5
2B1
100
AcDbEntity
  8
0
100
AcDbLine
 62
7
  6
CONTINUOUS
 10
115.1372736684
 20
98.9297761906
 11
115.1505375726
 21
98.9297761906
  0
LINE
  5
2B2
100
AcDbEntity
  8
0
100
AcDbLine
 62
7
  6
CONTINUOUS
 10
115.2685788745
 20
98.9297761906
 11
115.2818427788
 21
98.9297761906
  0
LINE
  5
2B3
100
AcDbEntity
  8
0
100
AcDbLine
 62
7
  6
CONTINUOUS
 10
115.3998840807
 20
98.9297761906
 11
115.4131479849
 21
98.9297761906
  0
LINE
  5
2B4
100
AcDbEntity
  8
0
100
AcDbLine
 62
7
  6
CONTINUOUS
 10
129.0545622855
 20
102.0418260436
 11
129.4680963703
 21
102.0418260436
  0
LINE
  5
2B5
100
AcDbEntity
  8
0
100
AcDbLine
 62
7
  6
CONTINUOUS
 10
130.3906256893
 20
102.8418260436
 11
129.2986814029
 21
102.8418260436
  0
LINE
  5
2B6
100
AcDbEntity
  8
0
100
AcDbLine
 62
7
  6
CONTINUOUS
 10
91.1686595807
 20
95.520035217
 11
91.0991220167
 21
96.0151692514
  0
LINE
  5
2B7
100
AcDbEntity
  8
0
100
AcDbLine
 62
7
  6
CONTINUOUS
 10
91.2999647869
 20
95.520035217
 11
91.2304272228
 21
96.0151692514
  0
LINE
  5
2B8
100
AcDbEntity
  8
0
100
AcDbLine
 62
7
  6
CONTINUOUS
 10
91.431269993
 20
95.520035217
 11
91.361732429
 21
96.0151692514
  0
LINE
  5
2B9
100
AcDbEntity
  8
0
100
AcDbLine
 62
7
  6
CONTINUOUS
 10
91.5625751991
 20
95.520035217
 11
91.4930376351
 21
96.0151692514
  0
LINE
  5
2BA
100
AcDbEntity
  8
0
100
AcDbLine
 62
7
  6
CONTINUOUS
 10
91.6938804053
 20
95.520035217
 11
91.6243428413
 21
96.0151692514
  0
LINE
  5
2BB
100
AcDbEntity
  8
0
100
AcDbLine
 62
7
  6
CONTINUOUS
 10
91.8251856114
 20
95.520035217
 11
91.7556480474
 21
96.0151692514
  0
LINE
  5
2BC
100
AcDbEntity
  8
0
100
AcDbLine
 62
7
  6
CONTINUOUS
 10
92.6108610557
 20
96.3753985264
 11
92.5930422681
 21
96.5022751048
  0
LINE
  5
2BD
100
AcDbEntity
  8
0
100
AcDbLine
 62
7
  6
CONTINUOUS
 10
92.7421662618
 20
96.3753985264
 11
92.7243474742
 21
96.5022751048
  0
LINE
  5
2BE
100
AcDbEntity
  8
0
100
AcDbLine
 62
7
  6
CONTINUOUS
 10
92.873471468
 20
96.3753985264
 11
92.8556526804
 21
96.5022751048
  0
LINE
  5
2BF
100
AcDbEntity
  8
0
100
AcDbLine
 62
7
  6
CONTINUOUS
 10
93.0047766741
 20
96.3753985264
 11
92.9869578865
 21
96.5022751048
  0
LINE
  5
2C0
100
AcDbEntity
  8
0
100
AcDbLine
 62
7
  6
CONTINUOUS
 10
93.1360818803
 20
96.3753985264
 11
93.1182630927
 21
96.5022751048
  0
LINE
  5
2C1
100
AcDbEntity
  8
0
100
AcDbLine
 62
7
  6
CONTINUOUS
 10
94.1465651086
 20
90.0918260436
 11
94.3490706399
 21
88.6499092598
  0
LINE
  5
2C2
100
AcDbEntity
  8
0
100
AcDbLine
 62
7
  6
CONTINUOUS
 10
93.2673870864
 20
96.3753985264
 11
93.2495682988
 21
96.5022751048
  0
LINE
  5
2C3
100
AcDbEntity
  8
0
100
AcDbLine
 62
7
  6
CONTINUOUS
 10
93.3986922925
 20
96.3753985264
 11
93.3808735049
 21
96.5022751048
  0
LINE
  5
2C4
100
AcDbEntity
  8
0
100
AcDbLine
 62
7
  6
CONTINUOUS
 10
93.5299974987
 20
96.3753985264
 11
93.5121787111
 21
96.5022751048
  0
LINE
  5
2C5
100
AcDbEntity
  8
0
100
AcDbLine
 62
7
  6
CONTINUOUS
 10
93.6613027048
 20
96.3753985264
 11
93.6434839172
 21
96.5022751048
  0
LINE
  5
2C6
100
AcDbEntity
  8
0
100
AcDbLine
 62
7
  6
CONTINUOUS
 10
93.804327522
 20
95.798381419
 11
93.7347899579
 21
96.2935154533
  0
LINE
  5
2C7
100
AcDbEntity
  8
0
100
AcDbLine
 62
7
  6
CONTINUOUS
 10
93.7926079109
 20
96.3753985264
 11
93.7747891233
 21
96.5022751048
  0
LINE
  5
2C8
100
AcDbEntity
  8
0
100
AcDbLine
 62
7
  6
CONTINUOUS
 10
93.9756318935
 20
96.0071410704
 11
93.9060943295
 21
96.5022751048
  0
LINE
  5
2C9
100
AcDbEntity
  8
0
100
AcDbLine
 62
7
  6
CONTINUOUS
 10
94.1069370996
 20
96.0071410704
 11
94.0373995356
 21
96.5022751048
  0
LINE
  5
2CA
100
AcDbEntity
  8
0
100
AcDbLine
 62
7
  6
CONTINUOUS
 10
94.2382423058
 20
96.0071410704
 11
94.1687047417
 21
96.5022751048
  0
LINE
  5
2CB
100
AcDbEntity
  8
0
100
AcDbLine
 62
7
  6
CONTINUOUS
 10
94.3695475119
 20
96.0071410704
 11
94.3000099479
 21
96.5022751048
  0
LINE
  5
2CC
100
AcDbEntity
  8
0
100
AcDbLine
 62
7
  6
CONTINUOUS
 10
94.500852718
 20
96.0071410704
 11
94.431315154
 21
96.5022751048
  0
LINE
  5
2CD
100
AcDbEntity
  8
0
100
AcDbLine
 62
7
  6
CONTINUOUS
 10
94.6321579242
 20
96.0071410704
 11
94.5626203602
 21
96.5022751048
  0
LINE
  5
2CE
100
AcDbEntity
  8
0
100
AcDbLine
 62
7
  6
CONTINUOUS
 10
94.7634631303
 20
96.0071410704
 11
94.6939255663
 21
96.5022751048
  0
LINE
  5
2CF
100
AcDbEntity
  8
0
100
AcDbLine
 62
7
  6
CONTINUOUS
 10
94.8947683365
 20
96.0071410704
 11
94.8252307724
 21
96.5022751048
  0
LINE
  5
2D0
100
AcDbEntity
  8
0
100
AcDbLine
 62
7
  6
CONTINUOUS
 10
95.0260735426
 20
96.0071410704
 11
94.9565359786
 21
96.5022751048
  0
LINE
  5
2D1
100
AcDbEntity
  8
0
100
AcDbLine
 62
7
  6
CONTINUOUS
 10
95.1573787487
 20
96.0071410704
 11
95.0878411847
 21
96.5022751048
  0
LINE
  5
2D2
100
AcDbEntity
  8
0
100
AcDbLine
 62
7
  6
CONTINUOUS
 10
95.2886839549
 20
96.0071410704
 11
95.2191463908
 21
96.5022751048
  0
LINE
  5
2D3
100
AcDbEntity
  8
0
100
AcDbLine
 62
7
  6
CONTINUOUS
 10
96.3975114996
 20
90.0918260436
 11
96.6000170308
 21
88.6499092598
  0
LINE
  5
2D4
100
AcDbEntity
  8
0
100
AcDbLine
 62
7
  6
CONTINUOUS
 10
96.0743593992
 20
96.8625043798
 11
96.0565406116
 21
96.9893809581
  0
LINE
  5
2D5
100
AcDbEntity
  8
0
100
AcDbLine
 62
7
  6
CONTINUOUS
 10
96.2056646053
 20
96.8625043798
 11
96.1878458177
 21
96.9893809581
  0
LINE
  5
2D6
100
AcDbEntity
  8
0
100
AcDbLine
 62
7
  6
CONTINUOUS
 10
96.3369698114
 20
96.8625043798
 11
96.3191510238
 21
96.9893809581
  0
LINE
  5
2D7
100
AcDbEntity
  8
0
100
AcDbLine
 62
7
  6
CONTINUOUS
 10
96.4682750176
 20
96.8625043798
 11
96.45045623
 21
96.9893809581
  0
LINE
  5
2D8
100
AcDbEntity
  8
0
100
AcDbLine
 62
7
  6
CONTINUOUS
 10
96.5995802237
 20
96.8625043798
 11
96.5817614361
 21
96.9893809581
  0
LINE
  5
2D9
100
AcDbEntity
  8
0
100
AcDbLine
 62
7
  6
CONTINUOUS
 10
96.7308854298
 20
96.8625043798
 11
96.7130666422
 21
96.9893809581
  0
LINE
  5
2DA
100
AcDbEntity
  8
0
100
AcDbLine
 62
7
  6
CONTINUOUS
 10
96.862190636
 20
96.8625043798
 11
96.8443718484
 21
96.9893809581
  0
LINE
  5
2DB
100
AcDbEntity
  8
0
100
AcDbLine
 62
7
  6
CONTINUOUS
 10
96.9934958421
 20
96.8625043798
 11
96.9756770545
 21
96.9893809581
  0
LINE
  5
2DC
100
AcDbEntity
  8
0
100
AcDbLine
 62
7
  6
CONTINUOUS
 10
97.1248010483
 20
96.8625043798
 11
97.1069822607
 21
96.9893809581
  0
LINE
  5
2DD
100
AcDbEntity
  8
0
100
AcDbLine
 62
7
  6
CONTINUOUS
 10
97.2678258654
 20
96.2854872723
 11
97.1982883014
 21
96.7806213067
  0
LINE
  5
2DE
100
AcDbEntity
  8
0
100
AcDbLine
 62
7
  6
CONTINUOUS
 10
97.2561062544
 20
96.8625043798
 11
97.2382874668
 21
96.9893809581
  0
LINE
  5
2DF
100
AcDbEntity
  8
0
100
AcDbLine
 62
7
  6
CONTINUOUS
 10
97.439130237
 20
96.4942469238
 11
97.3695926729
 21
96.9893809581
  0
LINE
  5
2E0
100
AcDbEntity
  8
0
100
AcDbLine
 62
7
  6
CONTINUOUS
 10
97.5704354431
 20
96.4942469238
 11
97.5008978791
 21
96.9893809581
  0
LINE
  5
2E1
100
AcDbEntity
  8
0
100
AcDbLine
 62
7
  6
CONTINUOUS
 10
97.7017406492
 20
96.4942469238
 11
97.6322030852
 21
96.9893809581
  0
LINE
  5
2E2
100
AcDbEntity
  8
0
100
AcDbLine
 62
7
  6
CONTINUOUS
 10
97.8330458554
 20
96.4942469238
 11
97.7635082913
 21
96.9893809581
  0
LINE
  5
2E3
100
AcDbEntity
  8
0
100
AcDbLine
 62
7
  6
CONTINUOUS
 10
97.9643510615
 20
96.4942469238
 11
97.8948134975
 21
96.9893809581
  0
LINE
  5
2E4
100
AcDbEntity
  8
0
100
AcDbLine
 62
7
  6
CONTINUOUS
 10
98.0956562676
 20
96.4942469238
 11
98.0261187036
 21
96.9893809581
  0
LINE
  5
2E5
100
AcDbEntity
  8
0
100
AcDbLine
 62
7
  6
CONTINUOUS
 10
98.2269614738
 20
96.4942469238
 11
98.1574239098
 21
96.9893809581
  0
LINE
  5
2E6
100
AcDbEntity
  8
0
100
AcDbLine
 62
7
  6
CONTINUOUS
 10
98.3582666799
 20
96.4942469238
 11
98.2887291159
 21
96.9893809581
  0
LINE
  5
2E7
100
AcDbEntity
  8
0
100
AcDbLine
 62
7
  6
CONTINUOUS
 10
98.4895718861
 20
96.4942469238
 11
98.420034322
 21
96.9893809581
  0
LINE
  5
2E8
100
AcDbEntity
  8
0
100
AcDbLine
 62
7
  6
CONTINUOUS
 10
98.6208770922
 20
96.4942469238
 11
98.5513395282
 21
96.9893809581
  0
LINE
  5
2E9
100
AcDbEntity
  8
0
100
AcDbLine
 62
7
  6
CONTINUOUS
 10
98.7521822983
 20
96.4942469238
 11
98.6826447343
 21
96.9893809581
  0
LINE
  5
2EA
100
AcDbEntity
  8
0
100
AcDbLine
 62
7
  6
CONTINUOUS
 10
100.4367667319
 20
90.0918260436
 11
100.5611432979
 21
89.2062173547
  0
LINE
  5
2EB
100
AcDbEntity
  8
0
100
AcDbLine
 62
7
  6
CONTINUOUS
 10
99.5378577426
 20
97.3496102331
 11
99.520038955
 21
97.4764868115
  0
LINE
  5
2EC
100
AcDbEntity
  8
0
100
AcDbLine
 62
7
  6
CONTINUOUS
 10
99.6691629488
 20
97.3496102331
 11
99.6513441612
 21
97.4764868115
  0
LINE
  5
2ED
100
AcDbEntity
  8
0
100
AcDbLine
 62
7
  6
CONTINUOUS
 10
99.8004681549
 20
97.3496102331
 11
99.7826493673
 21
97.4764868115
  0
LINE
  5
2EE
100
AcDbEntity
  8
0
100
AcDbLine
 62
7
  6
CONTINUOUS
 10
99.931773361
 20
97.3496102331
 11
99.9139545734
 21
97.4764868115
  0
LINE
  5
2EF
100
AcDbEntity
  8
0
100
AcDbLine
 62
7
  6
CONTINUOUS
 10
100.0630785672
 20
97.3496102331
 11
100.0452597796
 21
97.4764868115
  0
LINE
  5
2F0
100
AcDbEntity
  8
0
100
AcDbLine
 62
7
  6
CONTINUOUS
 10
100.1943837733
 20
97.3496102331
 11
100.1765649857
 21
97.4764868115
  0
LINE
  5
2F1
100
AcDbEntity
  8
0
100
AcDbLine
 62
7
  6
CONTINUOUS
 10
100.3256889794
 20
97.3496102331
 11
100.3078701918
 21
97.4764868115
  0
LINE
  5
2F2
100
AcDbEntity
  8
0
100
AcDbLine
 62
7
  6
CONTINUOUS
 10
100.4569941856
 20
97.3496102331
 11
100.439175398
 21
97.4764868115
  0
LINE
  5
2F3
100
AcDbEntity
  8
0
100
AcDbLine
 62
7
  6
CONTINUOUS
 10
100.5882993917
 20
97.3496102331
 11
100.5704806041
 21
97.4764868115
  0
LINE
  5
2F4
100
AcDbEntity
  8
0
100
AcDbLine
 62
7
  6
CONTINUOUS
 10
100.7313242089
 20
96.7725931257
 11
100.6617866448
 21
97.26772716
  0
LINE
  5
2F5
100
AcDbEntity
  8
0
100
AcDbLine
 62
7
  6
CONTINUOUS
 10
100.7196045978
 20
97.3496102331
 11
100.7017858102
 21
97.4764868115
  0
LINE
  5
2F6
100
AcDbEntity
  8
0
100
AcDbLine
 62
7
  6
CONTINUOUS
 10
100.9026285804
 20
96.9813527771
 11
100.8330910164
 21
97.4764868115
  0
LINE
  5
2F7
100
AcDbEntity
  8
0
100
AcDbLine
 62
7
  6
CONTINUOUS
 10
101.0339337865
 20
96.9813527771
 11
100.9643962225
 21
97.4764868115
  0
LINE
  5
2F8
100
AcDbEntity
  8
0
100
AcDbLine
 62
7
  6
CONTINUOUS
 10
101.1652389927
 20
96.9813527771
 11
101.0957014287
 21
97.4764868115
  0
LINE
  5
2F9
100
AcDbEntity
  8
0
100
AcDbLine
 62
7
  6
CONTINUOUS
 10
101.2965441988
 20
96.9813527771
 11
101.2270066348
 21
97.4764868115
  0
LINE
  5
2FA
100
AcDbEntity
  8
0
100
AcDbLine
 62
7
  6
CONTINUOUS
 10
101.427849405
 20
96.9813527771
 11
101.3583118409
 21
97.4764868115
  0
LINE
  5
2FB
100
AcDbEntity
  8
0
100
AcDbLine
 62
7
  6
CONTINUOUS
 10
101.5591546111
 20
96.9813527771
 11
101.4896170471
 21
97.4764868115
  0
LINE
  5
2FC
100
AcDbEntity
  8
0
100
AcDbLine
 62
7
  6
CONTINUOUS
 10
101.6904598172
 20
96.9813527771
 11
101.6209222532
 21
97.4764868115
  0
LINE
  5
2FD
100
AcDbEntity
  8
0
100
AcDbLine
 62
7
  6
CONTINUOUS
 10
101.8217650234
 20
96.9813527771
 11
101.7522274593
 21
97.4764868115
  0
LINE
  5
2FE
100
AcDbEntity
  8
0
100
AcDbLine
 62
7
  6
CONTINUOUS
 10
101.9530702295
 20
96.9813527771
 11
101.8835326655
 21
97.4764868115
  0
LINE
  5
2FF
100
AcDbEntity
  8
0
100
AcDbLine
 62
7
  6
CONTINUOUS
 10
102.0843754356
 20
96.9813527771
 11
102.0148378716
 21
97.4764868115
  0
LINE
  5
300
100
AcDbEntity
  8
0
100
AcDbLine
 62
7
  6
CONTINUOUS
 10
102.2156806418
 20
96.9813527771
 11
102.1461430778
 21
97.4764868115
  0
LINE
  5
301
100
AcDbEntity
  8
0
100
AcDbLine
 62
7
  6
CONTINUOUS
 10
103.0013560861
 20
97.8367160865
 11
102.9835372985
 21
97.9635926648
  0
LINE
  5
302
100
AcDbEntity
  8
0
100
AcDbLine
 62
7
  6
CONTINUOUS
 10
103.1326612922
 20
97.8367160865
 11
103.1148425046
 21
97.9635926648
  0
LINE
  5
303
100
AcDbEntity
  8
0
100
AcDbLine
 62
7
  6
CONTINUOUS
 10
103.2639664983
 20
97.8367160865
 11
103.2461477107
 21
97.9635926648
  0
LINE
  5
304
100
AcDbEntity
  8
0
100
AcDbLine
 62
7
  6
CONTINUOUS
 10
103.3952717045
 20
97.8367160865
 11
103.3774529169
 21
97.9635926648
  0
LINE
  5
305
100
AcDbEntity
  8
0
100
AcDbLine
 62
7
  6
CONTINUOUS
 10
103.5265769106
 20
97.8367160865
 11
103.508758123
 21
97.9635926648
  0
LINE
  5
306
100
AcDbEntity
  8
0
100
AcDbLine
 62
7
  6
CONTINUOUS
 10
103.6578821168
 20
97.8367160865
 11
103.6400633292
 21
97.9635926648
  0
LINE
  5
307
100
AcDbEntity
  8
0
100
AcDbLine
 62
7
  6
CONTINUOUS
 10
103.7891873229
 20
97.8367160865
 11
103.7713685353
 21
97.9635926648
  0
LINE
  5
308
100
AcDbEntity
  8
0
100
AcDbLine
 62
7
  6
CONTINUOUS
 10
103.920492529
 20
97.8367160865
 11
103.9026737414
 21
97.9635926648
  0
LINE
  5
309
100
AcDbEntity
  8
0
100
AcDbLine
 62
7
  6
CONTINUOUS
 10
104.0517977352
 20
97.8367160865
 11
104.0339789476
 21
97.9635926648
  0
LINE
  5
30A
100
AcDbEntity
  8
0
100
AcDbLine
 62
7
  6
CONTINUOUS
 10
104.1948225523
 20
97.259698979
 11
104.1252849883
 21
97.7548330134
  0
LINE
  5
30B
100
AcDbEntity
  8
0
100
AcDbLine
 62
7
  6
CONTINUOUS
 10
104.1831029413
 20
97.8367160865
 11
104.1652841537
 21
97.9635926648
  0
LINE
  5
30C
100
AcDbEntity
  8
0
100
AcDbLine
 62
7
  6
CONTINUOUS
 10
104.3661269239
 20
97.4684586305
 11
104.2965893598
 21
97.9635926648
  0
LINE
  5
30D
100
AcDbEntity
  8
0
100
AcDbLine
 62
7
  6
CONTINUOUS
 10
104.49743213
 20
97.4684586305
 11
104.427894566
 21
97.9635926648
  0
LINE
  5
30E
100
AcDbEntity
  8
0
100
AcDbLine
 62
7
  6
CONTINUOUS
 10
104.6287373361
 20
97.4684586305
 11
104.5591997721
 21
97.9635926648
  0
LINE
  5
30F
100
AcDbEntity
  8
0
100
AcDbLine
 62
7
  6
CONTINUOUS
 10
104.7600425423
 20
97.4684586305
 11
104.6905049783
 21
97.9635926648
  0
LINE
  5
310
100
AcDbEntity
  8
0
100
AcDbLine
 62
7
  6
CONTINUOUS
 10
104.8913477484
 20
97.4684586305
 11
104.8218101844
 21
97.9635926648
  0
LINE
  5
311
100
AcDbEntity
  8
0
100
AcDbLine
 62
7
  6
CONTINUOUS
 10
105.0226529546
 20
97.4684586305
 11
104.9531153905
 21
97.9635926648
  0
LINE
  5
312
100
AcDbEntity
  8
0
100
AcDbLine
 62
7
  6
CONTINUOUS
 10
105.1539581607
 20
97.4684586305
 11
105.0844205967
 21
97.9635926648
  0
LINE
  5
313
100
AcDbEntity
  8
0
100
AcDbLine
 62
7
  6
CONTINUOUS
 10
105.2852633668
 20
97.4684586305
 11
105.2157258028
 21
97.9635926648
  0
LINE
  5
314
100
AcDbEntity
  8
0
100
AcDbLine
 62
7
  6
CONTINUOUS
 10
105.416568573
 20
97.4684586305
 11
105.3470310089
 21
97.9635926648
  0
LINE
  5
315
100
AcDbEntity
  8
0
100
AcDbLine
 62
7
  6
CONTINUOUS
 10
105.5478737791
 20
97.4684586305
 11
105.4783362151
 21
97.9635926648
  0
LINE
  5
316
100
AcDbEntity
  8
0
100
AcDbLine
 62
7
  6
CONTINUOUS
 10
105.6791789852
 20
97.4684586305
 11
105.6096414212
 21
97.9635926648
  0
LINE
  5
317
100
AcDbEntity
  8
0
100
AcDbLine
 62
7
  6
CONTINUOUS
 10
106.4648544295
 20
98.3238219399
 11
106.4470356419
 21
98.4506985182
  0
LINE
  5
318
100
AcDbEntity
  8
0
100
AcDbLine
 62
7
  6
CONTINUOUS
 10
106.5961596357
 20
98.3238219399
 11
106.5783408481
 21
98.4506985182
  0
LINE
  5
319
100
AcDbEntity
  8
0
100
AcDbLine
 62
7
  6
CONTINUOUS
 10
106.7274648418
 20
98.3238219399
 11
106.7096460542
 21
98.4506985182
  0
LINE
  5
31A
100
AcDbEntity
  8
0
100
AcDbLine
 62
7
  6
CONTINUOUS
 10
106.8587700479
 20
98.3238219399
 11
106.8409512603
 21
98.4506985182
  0
LINE
  5
31B
100
AcDbEntity
  8
0
100
AcDbLine
 62
7
  6
CONTINUOUS
 10
106.9900752541
 20
98.3238219399
 11
106.9722564665
 21
98.4506985182
  0
LINE
  5
31C
100
AcDbEntity
  8
0
100
AcDbLine
 62
7
  6
CONTINUOUS
 10
107.1213804602
 20
98.3238219399
 11
107.1035616726
 21
98.4506985182
  0
LINE
  5
31D
100
AcDbEntity
  8
0
100
AcDbLine
 62
7
  6
CONTINUOUS
 10
107.2526856663
 20
98.3238219399
 11
107.2348668788
 21
98.4506985182
  0
LINE
  5
31E
100
AcDbEntity
  8
0
100
AcDbLine
 62
7
  6
CONTINUOUS
 10
107.3839908725
 20
98.3238219399
 11
107.3661720849
 21
98.4506985182
  0
LINE
  5
31F
100
AcDbEntity
  8
0
100
AcDbLine
 62
7
  6
CONTINUOUS
 10
107.5152960786
 20
98.3238219399
 11
107.497477291
 21
98.4506985182
  0
LINE
  5
320
100
AcDbEntity
  8
0
100
AcDbLine
 62
7
  6
CONTINUOUS
 10
107.6583208958
 20
97.7468048324
 11
107.5887833318
 21
98.2419388668
  0
LINE
  5
321
100
AcDbEntity
  8
0
100
AcDbLine
 62
7
  6
CONTINUOUS
 10
107.6466012848
 20
98.3238219399
 11
107.6287824972
 21
98.4506985182
  0
LINE
  5
322
100
AcDbEntity
  8
0
100
AcDbLine
 62
7
  6
CONTINUOUS
 10
107.8296252673
 20
97.9555644838
 11
107.7600877033
 21
98.4506985182
  0
LINE
  5
323
100
AcDbEntity
  8
0
100
AcDbLine
 62
7
  6
CONTINUOUS
 10
107.9609304735
 20
97.9555644838
 11
107.8913929094
 21
98.4506985182
  0
LINE
  5
324
100
AcDbEntity
  8
0
100
AcDbLine
 62
7
  6
CONTINUOUS
 10
108.0922356796
 20
97.9555644838
 11
108.0226981156
 21
98.4506985182
  0
LINE
  5
325
100
AcDbEntity
  8
0
100
AcDbLine
 62
7
  6
CONTINUOUS
 10
108.2235408857
 20
97.9555644838
 11
108.1540033217
 21
98.4506985182
  0
LINE
  5
326
100
AcDbEntity
  8
0
100
AcDbLine
 62
7
  6
CONTINUOUS
 10
108.3548460919
 20
97.9555644838
 11
108.2853085278
 21
98.4506985182
  0
LINE
  5
327
100
AcDbEntity
  8
0
100
AcDbLine
 62
7
  6
CONTINUOUS
 10
108.486151298
 20
97.9555644838
 11
108.416613734
 21
98.4506985182
  0
LINE
  5
328
100
AcDbEntity
  8
0
100
AcDbLine
 62
7
  6
CONTINUOUS
 10
108.6174565041
 20
97.9555644838
 11
108.5479189401
 21
98.4506985182
  0
LINE
  5
329
100
AcDbEntity
  8
0
100
AcDbLine
 62
7
  6
CONTINUOUS
 10
108.7487617103
 20
97.9555644838
 11
108.6792241463
 21
98.4506985182
  0
LINE
  5
32A
100
AcDbEntity
  8
0
100
AcDbLine
 62
7
  6
CONTINUOUS
 10
108.8800669164
 20
97.9555644838
 11
108.8105293524
 21
98.4506985182
  0
LINE
  5
32B
100
AcDbEntity
  8
0
100
AcDbLine
 62
7
  6
CONTINUOUS
 10
109.0113721226
 20
97.9555644838
 11
108.9418345585
 21
98.4506985182
  0
LINE
  5
32C
100
AcDbEntity
  8
0
100
AcDbLine
 62
7
  6
CONTINUOUS
 10
109.1426773287
 20
97.9555644838
 11
109.0731397647
 21
98.4506985182
  0
LINE
  5
32D
100
AcDbEntity
  8
0
100
AcDbLine
 62
7
  6
CONTINUOUS
 10
109.928352773
 20
98.8109277932
 11
109.9105339854
 21
98.9378043716
  0
LINE
  5
32E
100
AcDbEntity
  8
0
100
AcDbLine
 62
7
  6
CONTINUOUS
 10
110.0596579791
 20
98.8109277932
 11
110.0418391915
 21
98.9378043716
  0
LINE
  5
32F
100
AcDbEntity
  8
0
100
AcDbLine
 62
7
  6
CONTINUOUS
 10
110.1909631853
 20
98.8109277932
 11
110.1731443977
 21
98.9378043716
  0
LINE
  5
330
100
AcDbEntity
  8
0
100
AcDbLine
 62
7
  6
CONTINUOUS
 10
110.3222683914
 20
98.8109277932
 11
110.3044496038
 21
98.9378043716
  0
LINE
  5
331
100
AcDbEntity
  8
0
100
AcDbLine
 62
7
  6
CONTINUOUS
 10
110.4535735975
 20
98.8109277932
 11
110.4357548099
 21
98.9378043716
  0
LINE
  5
332
100
AcDbEntity
  8
0
100
AcDbLine
 62
7
  6
CONTINUOUS
 10
110.5848788037
 20
98.8109277932
 11
110.5670600161
 21
98.9378043716
  0
LINE
  5
333
100
AcDbEntity
  8
0
100
AcDbLine
 62
7
  6
CONTINUOUS
 10
91.5318891048
 20
61.1015416863
 11
91.5318891048
 21
53.0918260436
  0
LINE
  5
334
100
AcDbEntity
  8
0
100
AcDbLine
 62
7
  6
CONTINUOUS
 10
94.0482617656
 20
61.0918260436
 11
94.0482617656
 21
53.0918260436
  0
LINE
  5
335
100
AcDbEntity
  8
0
100
AcDbLine
 62
7
  6
CONTINUOUS
 10
98.1955090007
 20
53.0918260436
 11
98.1955090007
 21
62.8645313198
  0
LINE
  5
336
100
AcDbEntity
  8
0
100
AcDbLine
 62
7
  6
CONTINUOUS
 10
91.8348311479
 20
53.0918260436
 11
91.9473784674
 21
56.0918260436
  0
LINE
  5
337
100
AcDbEntity
  8
0
100
AcDbLine
 62
7
  6
CONTINUOUS
 10
88.878839676
 20
92.9533664193
 11
130.6604923695
 21
98.8295313751
  0
LINE
  5
338
100
AcDbEntity
  8
0
100
AcDbLine
 62
7
  6
CONTINUOUS
 10
130.6604923695
 20
100.4536974308
 11
88.596294234
 21
94.5377953293
  0
LINE
  5
339
100
AcDbEntity
  8
0
100
AcDbLine
 62
7
  6
CONTINUOUS
 10
130.6604923695
 20
100.8779706511
 11
129.4680963703
 21
100.7102722683
  0
LINE
  5
33A
100
AcDbEntity
  8
0
100
AcDbLine
 62
7
  6
CONTINUOUS
 10
124.3801374605
 20
100.0932822286
 11
88.64659578
 21
95.0677226389
  0
LINE
  5
33B
100
AcDbEntity
  8
0
100
AcDbLine
 62
7
  6
CONTINUOUS
 10
88.361687268
 20
95.0329293637
 11
88.5088940989
 21
95.0536325088
  0
LINE
  5
33C
100
AcDbEntity
  8
0
100
AcDbLine
 62
7
  6
CONTINUOUS
 10
117.9957933636
 20
99.5858288088
 11
121.603970245
 21
100.0932822286
  0
LINE
  5
33D
100
AcDbEntity
  8
0
100
AcDbLine
 62
7
  6
CONTINUOUS
 10
88.2921497039
 20
95.528063398
 11
90.2712916145
 21
95.8064096
  0
LINE
  5
33E
100
AcDbEntity
  8
0
100
AcDbLine
 62
7
  6
CONTINUOUS
 10
91.7556480474
 20
96.0151692514
 11
93.7347899579
 21
96.2935154533
  0
LINE
  5
33F
100
AcDbEntity
  8
0
100
AcDbLine
 62
7
  6
CONTINUOUS
 10
95.2191463908
 20
96.5022751048
 11
97.1982883014
 21
96.7806213067
  0
LINE
  5
340
100
AcDbEntity
  8
0
100
AcDbLine
 62
7
  6
CONTINUOUS
 10
98.6826447343
 20
96.9893809581
 11
100.6617866448
 21
97.26772716
  0
LINE
  5
341
100
AcDbEntity
  8
0
100
AcDbLine
 62
7
  6
CONTINUOUS
 10
102.1461430778
 20
97.4764868115
 11
104.1252849883
 21
97.7548330134
  0
LINE
  5
342
100
AcDbEntity
  8
0
100
AcDbLine
 62
7
  6
CONTINUOUS
 10
105.6096414212
 20
97.9635926648
 11
107.5887833318
 21
98.2419388668
  0
LINE
  5
343
100
AcDbEntity
  8
0
100
AcDbLine
 62
7
  6
CONTINUOUS
 10
109.0731397647
 20
98.4506985182
 11
111.0522816752
 21
98.7290447201
  0
LINE
  5
344
100
AcDbEntity
  8
0
100
AcDbLine
 62
7
  6
CONTINUOUS
 10
112.5366381081
 20
98.9378043716
 11
114.5157800187
 21
99.2161505735
  0
LINE
  5
345
100
AcDbEntity
  8
0
100
AcDbLine
 62
7
  6
CONTINUOUS
 10
116.0001364516
 20
99.4249102249
 11
117.9792783621
 21
99.7032564268
  0
LINE
  5
346
100
AcDbEntity
  8
0
100
AcDbLine
 62
7
  6
CONTINUOUS
 10
124.3801374605
 20
100.0932822286
 11
124.4046739737
 21
100.0964678453
  0
LINE
  5
347
100
AcDbEntity
  8
0
100
AcDbLine
 62
7
  6
CONTINUOUS
 10
110.7161840098
 20
98.8109277932
 11
110.6983652222
 21
98.9378043716
  0
LINE
  5
348
100
AcDbEntity
  8
0
100
AcDbLine
 62
7
  6
CONTINUOUS
 10
110.8474892159
 20
98.8109277932
 11
110.8296704283
 21
98.9378043716
  0
LINE
  5
349
100
AcDbEntity
  8
0
100
AcDbLine
 62
7
  6
CONTINUOUS
 10
110.9787944221
 20
98.8109277932
 11
110.9609756345
 21
98.9378043716
  0
LINE
  5
34A
100
AcDbEntity
  8
0
100
AcDbLine
 62
7
  6
CONTINUOUS
 10
111.1218192392
 20
98.2339106858
 11
111.0522816752
 21
98.7290447201
  0
LINE
  5
34B
100
AcDbEntity
  8
0
100
AcDbLine
 62
7
  6
CONTINUOUS
 10
111.1100996282
 20
98.8109277932
 11
111.0922808406
 21
98.9378043716
  0
LINE
  5
34C
100
AcDbEntity
  8
0
100
AcDbLine
 62
7
  6
CONTINUOUS
 10
111.2931236108
 20
98.4426703372
 11
111.2235860468
 21
98.9378043716
  0
LINE
  5
34D
100
AcDbEntity
  8
0
100
AcDbLine
 62
7
  6
CONTINUOUS
 10
111.4244288169
 20
98.4426703372
 11
111.3548912529
 21
98.9378043716
  0
LINE
  5
34E
100
AcDbEntity
  8
0
100
AcDbLine
 62
7
  6
CONTINUOUS
 10
111.5557340231
 20
98.4426703372
 11
111.486196459
 21
98.9378043716
  0
LINE
  5
34F
100
AcDbEntity
  8
0
100
AcDbLine
 62
7
  6
CONTINUOUS
 10
111.6870392292
 20
98.4426703372
 11
111.6175016652
 21
98.9378043716
  0
LINE
  5
350
100
AcDbEntity
  8
0
100
AcDbLine
 62
7
  6
CONTINUOUS
 10
111.8183444353
 20
98.4426703372
 11
111.7488068713
 21
98.9378043716
  0
LINE
  5
351
100
AcDbEntity
  8
0
100
AcDbLine
 62
7
  6
CONTINUOUS
 10
111.9496496415
 20
98.4426703372
 11
111.8801120774
 21
98.9378043716
  0
LINE
  5
352
100
AcDbEntity
  8
0
100
AcDbLine
 62
7
  6
CONTINUOUS
 10
112.0809548476
 20
98.4426703372
 11
112.0114172836
 21
98.9378043716
  0
LINE
  5
353
100
AcDbEntity
  8
0
100
AcDbLine
 62
7
  6
CONTINUOUS
 10
112.2122600537
 20
98.4426703372
 11
112.1427224897
 21
98.9378043716
  0
LINE
  5
354
100
AcDbEntity
  8
0
100
AcDbLine
 62
7
  6
CONTINUOUS
 10
112.3435652599
 20
98.4426703372
 11
112.2740276958
 21
98.9378043716
  0
LINE
  5
355
100
AcDbEntity
  8
0
100
AcDbLine
 62
7
  6
CONTINUOUS
 10
112.474870466
 20
98.4426703372
 11
112.405332902
 21
98.9378043716
  0
LINE
  5
356
100
AcDbEntity
  8
0
100
AcDbLine
 62
7
  6
CONTINUOUS
 10
112.6061756721
 20
98.4426703372
 11
112.5366381081
 21
98.9378043716
  0
LINE
  5
357
100
AcDbEntity
  8
0
100
AcDbLine
 62
7
  6
CONTINUOUS
 10
113.3918511164
 20
99.2980336466
 11
113.3740323288
 21
99.4249102249
  0
LINE
  5
358
100
AcDbEntity
  8
0
100
AcDbLine
 62
7
  6
CONTINUOUS
 10
113.5231563226
 20
99.2980336466
 11
113.505337535
 21
99.4249102249
  0
LINE
  5
359
100
AcDbEntity
  8
0
100
AcDbLine
 62
7
  6
CONTINUOUS
 10
113.6544615287
 20
99.2980336466
 11
113.6366427411
 21
99.4249102249
  0
LINE
  5
35A
100
AcDbEntity
  8
0
100
AcDbLine
 62
7
  6
CONTINUOUS
 10
113.7857667348
 20
99.2980336466
 11
113.7679479473
 21
99.4249102249
  0
LINE
  5
35B
100
AcDbEntity
  8
0
100
AcDbLine
 62
7
  6
CONTINUOUS
 10
113.917071941
 20
99.2980336466
 11
113.8992531534
 21
99.4249102249
  0
LINE
  5
35C
100
AcDbEntity
  8
0
100
AcDbLine
 62
7
  6
CONTINUOUS
 10
114.0483771471
 20
99.2980336466
 11
114.0305583595
 21
99.4249102249
  0
LINE
  5
35D
100
AcDbEntity
  8
0
100
AcDbLine
 62
7
  6
CONTINUOUS
 10
114.1796823533
 20
99.2980336466
 11
114.1618635657
 21
99.4249102249
  0
LINE
  5
35E
100
AcDbEntity
  8
0
100
AcDbLine
 62
7
  6
CONTINUOUS
 10
114.3109875594
 20
99.2980336466
 11
114.2931687718
 21
99.4249102249
  0
LINE
  5
35F
100
AcDbEntity
  8
0
100
AcDbLine
 62
7
  6
CONTINUOUS
 10
114.4422927655
 20
99.2980336466
 11
114.4244739779
 21
99.4249102249
  0
LINE
  5
360
100
AcDbEntity
  8
0
100
AcDbLine
 62
7
  6
CONTINUOUS
 10
114.5853175827
 20
98.7210165391
 11
114.5157800187
 21
99.2161505735
  0
LINE
  5
361
100
AcDbEntity
  8
0
100
AcDbLine
 62
7
  6
CONTINUOUS
 10
114.5735979717
 20
99.2980336466
 11
114.5557791841
 21
99.4249102249
  0
LINE
  5
362
100
AcDbEntity
  8
0
100
AcDbLine
 62
7
  6
CONTINUOUS
 10
114.7566219542
 20
98.9297761906
 11
114.6870843902
 21
99.4249102249
  0
LINE
  5
363
100
AcDbEntity
  8
0
100
AcDbLine
 62
7
  6
CONTINUOUS
 10
114.8879271604
 20
98.9297761906
 11
114.8183895963
 21
99.4249102249
  0
LINE
  5
364
100
AcDbEntity
  8
0
100
AcDbLine
 62
7
  6
CONTINUOUS
 10
115.0192323665
 20
98.9297761906
 11
114.9496948025
 21
99.4249102249
  0
LINE
  5
365
100
AcDbEntity
  8
0
100
AcDbLine
 62
7
  6
CONTINUOUS
 10
115.1505375726
 20
98.9297761906
 11
115.0810000086
 21
99.4249102249
  0
LINE
  5
366
100
AcDbEntity
  8
0
100
AcDbLine
 62
7
  6
CONTINUOUS
 10
115.2818427788
 20
98.9297761906
 11
115.2123052148
 21
99.4249102249
  0
LINE
  5
367
100
AcDbEntity
  8
0
100
AcDbLine
 62
7
  6
CONTINUOUS
 10
115.4131479849
 20
98.9297761906
 11
115.3436104209
 21
99.4249102249
  0
LINE
  5
368
100
AcDbEntity
  8
0
100
AcDbLine
 62
7
  6
CONTINUOUS
 10
115.5444531911
 20
98.9297761906
 11
115.474915627
 21
99.4249102249
  0
LINE
  5
369
100
AcDbEntity
  8
0
100
AcDbLine
 62
7
  6
CONTINUOUS
 10
115.6757583972
 20
98.9297761906
 11
115.6062208332
 21
99.4249102249
  0
LINE
  5
36A
100
AcDbEntity
  8
0
100
AcDbLine
 62
7
  6
CONTINUOUS
 10
115.8070636033
 20
98.9297761906
 11
115.7375260393
 21
99.4249102249
  0
LINE
  5
36B
100
AcDbEntity
  8
0
100
AcDbLine
 62
7
  6
CONTINUOUS
 10
115.9383688095
 20
98.9297761906
 11
115.8688312454
 21
99.4249102249
  0
LINE
  5
36C
100
AcDbEntity
  8
0
100
AcDbLine
 62
7
  6
CONTINUOUS
 10
116.0696740156
 20
98.9297761906
 11
116.0001364516
 21
99.4249102249
  0
LINE
  5
36D
100
AcDbEntity
  8
0
100
AcDbLine
 62
7
  6
CONTINUOUS
 10
118.0488159262
 20
99.2081223925
 11
117.9792783621
 21
99.7032564268
  0
LINE
  5
36E
100
AcDbEntity
  8
0
100
AcDbLine
 62
7
  6
CONTINUOUS
 10
122.1672336471
 20
507.5597069431
 11
122.1672336471
 21
479.8418260436
  0
LINE
  5
36F
100
AcDbEntity
  8
0
100
AcDbLine
 62
7
  6
CONTINUOUS
 10
122.6672336471
 20
476.7418260436
 11
122.6672336471
 21
475.1418260436
  0
LINE
  5
370
100
AcDbEntity
  8
0
100
AcDbLine
 62
7
  6
CONTINUOUS
 10
122.6672336471
 20
473.2418260436
 11
122.6672336471
 21
99.886779981
  0
LINE
  5
371
100
AcDbEntity
  8
0
100
AcDbLine
 62
7
  6
CONTINUOUS
 10
122.6672336471
 20
90.0918260436
 11
122.6672336471
 21
83.154114352
  0
LINE
  5
372
100
AcDbEntity
  8
0
100
AcDbLine
 62
7
  6
CONTINUOUS
 10
122.6672336471
 20
78.321640111
 11
122.6672336471
 21
74.1543579395
  0
LINE
  5
373
100
AcDbEntity
  8
0
100
AcDbLine
 62
7
  6
CONTINUOUS
 10
128.3610887896
 20
478.4418260436
 11
128.3244033441
 21
477.7418260436
  0
LINE
  5
374
100
AcDbEntity
  8
0
100
AcDbLine
 62
7
  6
CONTINUOUS
 10
128.0210718984
 20
76.0918260436
 11
128.0210718984
 21
70.0918260436
  0
LINE
  5
375
100
AcDbEntity
  8
0
100
AcDbLine
 62
7
  6
CONTINUOUS
 10
129.0545622855
 20
100.2299064715
 11
129.0545622855
 21
102.0418260436
  0
LINE
  5
376
100
AcDbEntity
  8
0
100
AcDbLine
 62
7
  6
CONTINUOUS
 10
129.4680963703
 20
102.0418260436
 11
129.4680963703
 21
100.2880658391
  0
LINE
  5
377
100
AcDbEntity
  8
0
100
AcDbLine
 62
7
  6
CONTINUOUS
 10
130.1257144592
 20
84.6418260436
 11
130.1257144592
 21
90.0918260436
  0
LINE
  5
378
100
AcDbEntity
  8
0
100
AcDbLine
 62
7
  6
CONTINUOUS
 10
130.542032558
 20
90.0918260436
 11
130.542032558
 21
84.6418260436
  0
LINE
  5
379
100
AcDbEntity
  8
0
100
AcDbLine
 62
7
  6
CONTINUOUS
 10
130.6604923695
 20
102.0418260436
 11
130.6604923695
 21
84.6418260436
  0
LINE
  5
37A
100
AcDbEntity
  8
0
100
AcDbLine
 62
7
  6
CONTINUOUS
 10
441.4535598391
 20
453.0198805697
 11
442.4211158019
 21
453.5236812021
  0
LINE
  5
37B
100
AcDbEntity
  8
0
100
AcDbLine
 62
7
  6
CONTINUOUS
 10
435.6794438182
 20
449.4657689259
 11
437.1207092753
 21
450.382871703
  0
LWPOLYLINE
  5
37C
100
AcDbEntity
  8
0
100
AcDbPolyline
 62
7
  6
CONTINUOUS
 90
5
 70
0
 10
440.6207092753
 20
452.5531827928
 10
440.7242228617
 20
452.6140904041
 10
441.012237075
 20
452.7790119094
 10
441.2474727466
 20
452.9095399528
 10
441.4535598391
 20
453.0198805697
  0
LINE
  5
37D
100
AcDbEntity
  8
0
100
AcDbLine
 62
7
  6
CONTINUOUS
 10
264.6597383544
 20
478.4418260436
 11
264.6585572192
 21
477.7418260436
  0
LINE
  5
37E
100
AcDbEntity
  8
0
100
AcDbLine
 62
7
  6
CONTINUOUS
 10
96.1578603681
 20
88.3350400104
 11
96.4724740009
 21
88.7472538278
  0
LINE
  5
37F
100
AcDbEntity
  8
0
100
AcDbLine
 62
7
  6
CONTINUOUS
 10
99.9416981265
 20
85.447104447
 11
102.9918157119
 21
89.4434367176
  0
LINE
  5
380
100
AcDbEntity
  8
0
100
AcDbLine
 62
7
  6
CONTINUOUS
 10
270.7497770001
 20
477.7418260436
 11
270.7497770001
 21
478.4418260436
  0
LINE
  5
381
100
AcDbEntity
  8
0
100
AcDbLine
 62
7
  6
CONTINUOUS
 10
278.0480042665
 20
478.4418260436
 11
278.0480042665
 21
477.7418260436
  0
LINE
  5
382
100
AcDbEntity
  8
0
100
AcDbLine
 62
7
  6
CONTINUOUS
 10
273.4865218487
 20
478.2921635745
 11
273.4893828153
 21
477.7418260436
  0
LINE
  5
383
100
AcDbEntity
  8
0
100
AcDbLine
 62
7
  6
CONTINUOUS
 10
277.8021914333
 20
477.9313745383
 11
277.8038919213
 21
478.4418260436
  0
LINE
  5
384
100
AcDbEntity
  8
0
100
AcDbLine
 62
7
  6
CONTINUOUS
 10
284.1577548456
 20
477.7418260436
 11
284.1538277882
 21
478.4418260436
  0
LINE
  5
385
100
AcDbEntity
  8
0
100
AcDbLine
 62
6
  6
CONTINUOUS
 10
297.6844155293
 20
99.0918260436
 11
297.6844155293
 21
99.4918260436
  0
LINE
  5
386
100
AcDbEntity
  8
0
100
AcDbLine
 62
6
  6
CONTINUOUS
 10
297.7355130807
 20
99.0918260436
 11
297.7355130807
 21
99.4918260436
  0
LINE
  5
387
100
AcDbEntity
  8
0
100
AcDbLine
 62
6
  6
CONTINUOUS
 10
297.7894626483
 20
99.0918260436
 11
297.7894626483
 21
99.4918260436
  0
LINE
  5
388
100
AcDbEntity
  8
0
100
AcDbLine
 62
6
  6
CONTINUOUS
 10
297.8495054222
 20
99.0918260436
 11
297.8495054222
 21
99.4918260436
  0
LINE
  5
389
100
AcDbEntity
  8
0
100
AcDbLine
 62
6
  6
CONTINUOUS
 10
297.8925458503
 20
99.0918260436
 11
297.8925458503
 21
99.4918260436
  0
LINE
  5
38A
100
AcDbEntity
  8
0
100
AcDbLine
 62
6
  6
CONTINUOUS
 10
297.9875152084
 20
99.0918260436
 11
297.9875152084
 21
99.4918260436
  0
LINE
  5
38B
100
AcDbEntity
  8
0
100
AcDbLine
 62
6
  6
CONTINUOUS
 10
298.0191880805
 20
99.0918260436
 11
298.0191880805
 21
99.4918260436
  0
LINE
  5
38C
100
AcDbEntity
  8
0
100
AcDbLine
 62
6
  6
CONTINUOUS
 10
298.0974481906
 20
99.0918260436
 11
298.0974481906
 21
99.4918260436
  0
LINE
  5
38D
100
AcDbEntity
  8
0
100
AcDbLine
 62
6
  6
CONTINUOUS
 10
298.1330300476
 20
99.0918260436
 11
298.1330300476
 21
99.4918260436
  0
LINE
  5
38E
100
AcDbEntity
  8
0
100
AcDbLine
 62
6
  6
CONTINUOUS
 10
298.2216899805
 20
99.0918260436
 11
298.2216899805
 21
99.4918260436
  0
LINE
  5
38F
100
AcDbEntity
  8
0
100
AcDbLine
 62
6
  6
CONTINUOUS
 10
298.2603474909
 20
99.0918260436
 11
298.2603474909
 21
99.4918260436
  0
LINE
  5
390
100
AcDbEntity
  8
0
100
AcDbLine
 62
6
  6
CONTINUOUS
 10
298.3578643226
 20
99.0918260436
 11
298.3578643226
 21
99.4918260436
  0
LINE
  5
391
100
AcDbEntity
  8
0
100
AcDbLine
 62
6
  6
CONTINUOUS
 10
298.3999515194
 20
99.0918260436
 11
298.3999515194
 21
99.4918260436
  0
LINE
  5
392
100
AcDbEntity
  8
0
100
AcDbLine
 62
6
  6
CONTINUOUS
 10
298.5074477637
 20
99.0918260436
 11
298.5074477637
 21
99.4918260436
  0
LINE
  5
393
100
AcDbEntity
  8
0
100
AcDbLine
 62
6
  6
CONTINUOUS
 10
298.549071787
 20
99.0918260436
 11
298.549071787
 21
99.4918260436
  0
LINE
  5
394
100
AcDbEntity
  8
0
100
AcDbLine
 62
6
  6
CONTINUOUS
 10
298.6754750325
 20
99.0918260436
 11
298.6754750325
 21
99.4918260436
  0
LINE
  5
395
100
AcDbEntity
  8
0
100
AcDbLine
 62
6
  6
CONTINUOUS
 10
298.8546884611
 20
99.0918260436
 11
298.8546884611
 21
99.4918260436
  0
LINE
  5
396
100
AcDbEntity
  8
0
100
AcDbLine
 62
6
  6
CONTINUOUS
 10
299.0316887937
 20
99.0918260436
 11
299.0316887937
 21
99.4918260436
  0
LINE
  5
397
100
AcDbEntity
  8
0
100
AcDbLine
 62
6
  6
CONTINUOUS
 10
299.2028048653
 20
99.0918260436
 11
299.2028048653
 21
99.4918260436
  0
LINE
  5
398
100
AcDbEntity
  8
0
100
AcDbLine
 62
6
  6
CONTINUOUS
 10
299.3668335079
 20
99.0918260436
 11
299.3668335079
 21
99.4918260436
  0
LINE
  5
399
100
AcDbEntity
  8
0
100
AcDbLine
 62
6
  6
CONTINUOUS
 10
299.5271403059
 20
99.0918260436
 11
299.5271403059
 21
99.4918260436
  0
LINE
  5
39A
100
AcDbEntity
  8
0
100
AcDbLine
 62
6
  6
CONTINUOUS
 10
299.5622876754
 20
99.0918260436
 11
299.5622876754
 21
99.4918260436
  0
LINE
  5
39B
100
AcDbEntity
  8
0
100
AcDbLine
 62
6
  6
CONTINUOUS
 10
299.6809493031
 20
99.0918260436
 11
299.6809493031
 21
99.4918260436
  0
LINE
  5
39C
100
AcDbEntity
  8
0
100
AcDbLine
 62
6
  6
CONTINUOUS
 10
299.724275926
 20
99.0918260436
 11
299.724275926
 21
99.4918260436
  0
LINE
  5
39D
100
AcDbEntity
  8
0
100
AcDbLine
 62
6
  6
CONTINUOUS
 10
299.8271579123
 20
99.0918260436
 11
299.8271579123
 21
99.4918260436
  0
LINE
  5
39E
100
AcDbEntity
  8
0
100
AcDbLine
 62
6
  6
CONTINUOUS
 10
299.8681405018
 20
99.0918260436
 11
299.8681405018
 21
99.4918260436
  0
LINE
  5
39F
100
AcDbEntity
  8
0
100
AcDbLine
 62
6
  6
CONTINUOUS
 10
299.9630552312
 20
99.0918260436
 11
299.9630552312
 21
99.4918260436
  0
LINE
  5
3A0
100
AcDbEntity
  8
0
100
AcDbLine
 62
6
  6
CONTINUOUS
 10
300.0005618533
 20
99.0918260436
 11
300.0005618533
 21
99.4918260436
  0
LINE
  5
3A1
100
AcDbEntity
  8
0
100
AcDbLine
 62
6
  6
CONTINUOUS
 10
300.0856758945
 20
99.0918260436
 11
300.0856758945
 21
99.4918260436
  0
LINE
  5
3A2
100
AcDbEntity
  8
0
100
AcDbLine
 62
6
  6
CONTINUOUS
 10
300.120169933
 20
99.0918260436
 11
300.120169933
 21
99.4918260436
  0
LINE
  5
3A3
100
AcDbEntity
  8
0
100
AcDbLine
 62
6
  6
CONTINUOUS
 10
300.1951475098
 20
99.0918260436
 11
300.1951475098
 21
99.4918260436
  0
LINE
  5
3A4
100
AcDbEntity
  8
0
100
AcDbLine
 62
6
  6
CONTINUOUS
 10
300.2898920417
 20
99.0918260436
 11
300.2898920417
 21
99.4918260436
  0
LINE
  5
3A5
100
AcDbEntity
  8
0
100
AcDbLine
 62
6
  6
CONTINUOUS
 10
300.3679455313
 20
99.0918260436
 11
300.3679455313
 21
99.4918260436
  0
LINE
  5
3A6
100
AcDbEntity
  8
0
100
AcDbLine
 62
6
  6
CONTINUOUS
 10
300.4279376691
 20
99.0918260436
 11
300.4279376691
 21
99.4918260436
  0
LINE
  5
3A7
100
AcDbEntity
  8
0
100
AcDbLine
 62
6
  6
CONTINUOUS
 10
300.4694373837
 20
99.0918260436
 11
300.4694373837
 21
99.4918260436
  0
LINE
  5
3A8
100
AcDbEntity
  8
0
100
AcDbLine
 62
7
  6
CONTINUOUS
 10
106.1898772855
 20
53.0918260436
 11
109.1877653923
 21
56.0918260436
  0
LINE
  5
3A9
100
AcDbEntity
  8
0
100
AcDbLine
 62
7
  6
CONTINUOUS
 10
416.6672336471
 20
70.0918260436
 11
422.1672336471
 21
56.0918260436
  0
LINE
  5
3AA
100
AcDbEntity
  8
0
100
AcDbLine
 62
7
  6
CONTINUOUS
 10
427.6386312618
 20
496.2093259334
 11
427.5084956754
 21
495.8311185032
  0
LINE
  5
3AB
100
AcDbEntity
  8
0
100
AcDbLine
 62
7
  6
CONTINUOUS
 10
428.8838111218
 20
495.3753233474
 11
429.0139467082
 21
495.7535307776
  0
LINE
  5
3AC
100
AcDbEntity
  8
0
100
AcDbLine
 62
6
  6
CONTINUOUS
 10
428.8838111218
 20
495.3753233474
 11
428.8375839665
 21
495.1674013384
  0
LINE
  5
3AD
100
AcDbEntity
  8
0
100
AcDbLine
 62
6
  6
CONTINUOUS
 10
428.9749291781
 20
495.5414866007
 11
428.8447935917
 21
495.1632791705
  0
LINE
  5
3AE
100
AcDbEntity
  8
0
100
AcDbLine
 62
6
  6
CONTINUOUS
 10
429.0177064117
 20
495.5235337343
 11
428.8875708253
 21
495.145326304
  0
LINE
  5
3AF
100
AcDbEntity
  8
0
100
AcDbLine
 62
6
  6
CONTINUOUS
 10
429.0530409241
 20
495.509803456
 11
428.9229053377
 21
495.1315960258
  0
LINE
  5
3B0
100
AcDbEntity
  8
0
100
AcDbLine
 62
6
  6
CONTINUOUS
 10
429.0975359241
 20
495.4929633651
 11
428.9674003376
 21
495.1147559349
  0
LINE
  5
3B1
100
AcDbEntity
  8
0
100
AcDbLine
 62
6
  6
CONTINUOUS
 10
429.150966019
 20
495.4730973115
 11
429.0208304326
 21
495.0948898812
  0
LINE
  5
3B2
100
AcDbEntity
  8
0
100
AcDbLine
 62
6
  6
CONTINUOUS
 10
429.2126941328
 20
495.4504389638
 11
429.0825585464
 21
495.0722315335
  0
LINE
  5
3B3
100
AcDbEntity
  8
0
100
AcDbLine
 62
6
  6
CONTINUOUS
 10
429.2822139681
 20
495.4251724962
 11
429.1520783817
 21
495.046965066
  0
LINE
  5
3B4
100
AcDbEntity
  8
0
100
AcDbLine
 62
6
  6
CONTINUOUS
 10
429.3194996174
 20
495.4382816285
 11
429.189364031
 21
495.0600741983
  0
LINE
  5
3B5
100
AcDbEntity
  8
0
100
AcDbLine
 62
6
  6
CONTINUOUS
 10
429.3590045865
 20
495.3974873461
 11
429.2288690001
 21
495.0192799158
  0
LINE
  5
3B6
100
AcDbEntity
  8
0
100
AcDbLine
 62
6
  6
CONTINUOUS
 10
429.400240314
 20
495.4117324987
 11
429.2701047276
 21
495.0335250684
  0
LINE
  5
3B7
100
AcDbEntity
  8
0
100
AcDbLine
 62
6
  6
CONTINUOUS
 10
429.4428349521
 20
495.3674688844
 11
429.3126993657
 21
494.9892614541
  0
LINE
  5
3B8
100
AcDbEntity
  8
0
100
AcDbLine
 62
6
  6
CONTINUOUS
 10
429.4877688911
 20
495.382757023
 11
429.3576333047
 21
495.0045495928
  0
LINE
  5
3B9
100
AcDbEntity
  8
0
100
AcDbLine
 62
6
  6
CONTINUOUS
 10
429.5338373311
 20
495.3350695288
 11
429.4037017446
 21
494.9568620985
  0
LINE
  5
3BA
100
AcDbEntity
  8
0
100
AcDbLine
 62
6
  6
CONTINUOUS
 10
429.439428285
 20
494.9595687951
 11
429.5695638715
 21
495.3377762253
  0
LINE
  5
3BB
100
AcDbEntity
  8
0
100
AcDbLine
 62
6
  6
CONTINUOUS
 10
429.5001867568
 20
494.9445300884
 11
429.6303223433
 21
495.3227375187
  0
LINE
  5
3BC
100
AcDbEntity
  8
0
100
AcDbLine
 62
6
  6
CONTINUOUS
 10
429.6819352411
 20
495.3179400648
 11
429.5517996547
 21
494.9397326346
  0
LINE
  5
3BD
100
AcDbEntity
  8
0
100
AcDbLine
 62
6
  6
CONTINUOUS
 10
429.5856142246
 20
494.9036824337
 11
429.7157498111
 21
495.281889864
  0
LINE
  5
3BE
100
AcDbEntity
  8
0
100
AcDbLine
 62
6
  6
CONTINUOUS
 10
429.6508012397
 20
494.896130768
 11
429.7809368261
 21
495.2743381983
  0
LINE
  5
3BF
100
AcDbEntity
  8
0
100
AcDbLine
 62
6
  6
CONTINUOUS
 10
429.6758945185
 20
494.8710367049
 11
429.8060301049
 21
495.2492441352
  0
LINE
  5
3C0
100
AcDbEntity
  8
0
100
AcDbLine
 62
6
  6
CONTINUOUS
 10
429.8410512745
 20
495.2267159211
 11
429.7109156881
 21
494.8485084908
  0
LINE
  5
3C1
100
AcDbEntity
  8
0
100
AcDbLine
 62
6
  6
CONTINUOUS
 10
429.7541845614
 20
494.8619928832
 11
429.8843201479
 21
495.2402003135
  0
LINE
  5
3C2
100
AcDbEntity
  8
0
100
AcDbLine
 62
6
  6
CONTINUOUS
 10
429.7836868723
 20
494.832575027
 11
429.9138224588
 21
495.2107824573
  0
LINE
  5
3C3
100
AcDbEntity
  8
0
100
AcDbLine
 62
6
  6
CONTINUOUS
 10
429.95249984
 20
495.1877139716
 11
429.8223642535
 21
494.8095065413
  0
LINE
  5
3C4
100
AcDbEntity
  8
0
100
AcDbLine
 62
6
  6
CONTINUOUS
 10
429.8738149784
 20
494.8220359614
 11
430.0039505648
 21
495.2002433917
  0
LINE
  5
3C5
100
AcDbEntity
  8
0
100
AcDbLine
 62
6
  6
CONTINUOUS
 10
429.9066188672
 20
494.789141876
 11
430.0367544537
 21
495.1673493063
  0
LINE
  5
3C6
100
AcDbEntity
  8
0
100
AcDbLine
 62
6
  6
CONTINUOUS
 10
430.0676102262
 20
495.1475726843
 11
429.9374746398
 21
494.7693652541
  0
LINE
  5
3C7
100
AcDbEntity
  8
0
100
AcDbLine
 62
6
  6
CONTINUOUS
 10
430.0057126091
 20
494.7775947925
 11
430.1358481956
 21
495.1558022227
  0
LINE
  5
3C8
100
AcDbEntity
  8
0
100
AcDbLine
 62
6
  6
CONTINUOUS
 10
430.0407365208
 20
494.7421324083
 11
430.1708721072
 21
495.1203398386
  0
LINE
  5
3C9
100
AcDbEntity
  8
0
100
AcDbLine
 62
6
  6
CONTINUOUS
 10
430.2749240739
 20
495.1169745185
 11
430.1447884875
 21
494.7387670882
  0
LINE
  5
3CA
100
AcDbEntity
  8
0
100
AcDbLine
 62
6
  6
CONTINUOUS
 10
430.3051338471
 20
495.0651517655
 11
430.1749982607
 21
494.6869443352
  0
LINE
  5
3CB
100
AcDbEntity
  8
0
100
AcDbLine
 62
6
  6
CONTINUOUS
 10
430.4092984967
 20
495.0709514672
 11
430.2791629103
 21
494.692744037
  0
LINE
  5
3CC
100
AcDbEntity
  8
0
100
AcDbLine
 62
6
  6
CONTINUOUS
 10
430.4269403857
 20
495.023083504
 11
430.2968047993
 21
494.6448760737
  0
LINE
  5
3CD
100
AcDbEntity
  8
0
100
AcDbLine
 62
6
  6
CONTINUOUS
 10
430.3318346905
 20
494.6411300182
 11
430.461970277
 21
495.0193374484
  0
LINE
  5
3CE
100
AcDbEntity
  8
0
100
AcDbLine
 62
6
  6
CONTINUOUS
 10
430.5435310625
 20
495.0248185963
 11
430.4275498503
 21
494.5998646467
  0
LINE
  5
3CF
100
AcDbEntity
  8
0
100
AcDbLine
 62
6
  6
CONTINUOUS
 10
430.4427237554
 20
494.6282788602
 11
430.5728593419
 21
495.0064862904
  0
LINE
  5
3D0
100
AcDbEntity
  8
0
100
AcDbLine
 62
6
  6
CONTINUOUS
 10
430.4811838526
 20
494.5897879278
 11
430.611319439
 21
494.967995358
  0
LINE
  5
3D1
100
AcDbEntity
  8
0
100
AcDbLine
 62
6
  6
CONTINUOUS
 10
430.668992819
 20
494.9815551358
 11
430.5388572326
 21
494.6033477055
  0
LINE
  5
3D2
100
AcDbEntity
  8
0
100
AcDbLine
 62
6
  6
CONTINUOUS
 10
430.5624212854
 20
494.5535918017
 11
430.7208339576
 21
494.9553039558
  0
LINE
  5
3D3
100
AcDbEntity
  8
0
100
AcDbLine
 62
6
  6
CONTINUOUS
 10
430.7894518354
 20
494.939887422
 11
430.6287298969
 21
494.5393758998
  0
LINE
  5
3D4
100
AcDbEntity
  8
0
100
AcDbLine
 62
6
  6
CONTINUOUS
 10
430.8261569914
 20
494.8861211594
 11
430.696021405
 21
494.5079137292
  0
LINE
  5
3D5
100
AcDbEntity
  8
0
100
AcDbLine
 62
6
  6
CONTINUOUS
 10
430.9082884689
 20
494.8986510759
 11
430.7781528824
 21
494.5204436456
  0
LINE
  5
3D6
100
AcDbEntity
  8
0
100
AcDbLine
 62
6
  6
CONTINUOUS
 10
430.9574774379
 20
494.8413829429
 11
430.8273418515
 21
494.4631755126
  0
LINE
  5
3D7
100
AcDbEntity
  8
0
100
AcDbLine
 62
6
  6
CONTINUOUS
 10
430.8679536264
 20
494.4802647661
 11
430.9980892129
 21
494.8584721964
  0
LINE
  5
3D8
100
AcDbEntity
  8
0
100
AcDbLine
 62
6
  6
CONTINUOUS
 10
430.9006620371
 20
494.44740369
 11
431.0307976235
 21
494.8256111202
  0
LINE
  5
3D9
100
AcDbEntity
  8
0
100
AcDbLine
 62
6
  6
CONTINUOUS
 10
431.0812148185
 20
494.7993873828
 11
430.9510792321
 21
494.4211799526
  0
LINE
  5
3DA
100
AcDbEntity
  8
0
100
AcDbLine
 62
6
  6
CONTINUOUS
 10
430.990841079
 20
494.4368475524
 11
431.1209766654
 21
494.8150549826
  0
LINE
  5
3DB
100
AcDbEntity
  8
0
100
AcDbLine
 62
6
  6
CONTINUOUS
 10
431.02029353
 20
494.4074470981
 11
431.1504291164
 21
494.7856545283
  0
LINE
  5
3DC
100
AcDbEntity
  8
0
100
AcDbLine
 62
6
  6
CONTINUOUS
 10
431.1933333992
 20
494.7614772001
 11
431.0631978128
 21
494.3832697698
  0
LINE
  5
3DD
100
AcDbEntity
  8
0
100
AcDbLine
 62
6
  6
CONTINUOUS
 10
431.2476620595
 20
494.7800983279
 11
431.1175264731
 21
494.4018908977
  0
LINE
  5
3DE
100
AcDbEntity
  8
0
100
AcDbLine
 62
6
  6
CONTINUOUS
 10
431.3006409652
 20
494.7253343014
 11
431.1705053788
 21
494.3471268712
  0
LINE
  5
3DF
100
AcDbEntity
  8
0
100
AcDbLine
 62
6
  6
CONTINUOUS
 10
431.2093584466
 20
494.3454641918
 11
431.339494033
 21
494.7236716221
  0
LINE
  5
3E0
100
AcDbEntity
  8
0
100
AcDbLine
 62
6
  6
CONTINUOUS
 10
431.2597736682
 20
494.3396030413
 11
431.3899092546
 21
494.7178104715
  0
LINE
  5
3E1
100
AcDbEntity
  8
0
100
AcDbLine
 62
6
  6
CONTINUOUS
 10
431.3086566896
 20
494.3209111032
 11
431.4387922761
 21
494.6991185335
  0
LINE
  5
3E2
100
AcDbEntity
  8
0
100
AcDbLine
 62
6
  6
CONTINUOUS
 10
431.3381704834
 20
494.3068081242
 11
431.4683060699
 21
494.6850155544
  0
LINE
  5
3E3
100
AcDbEntity
  8
0
100
AcDbLine
 62
6
  6
CONTINUOUS
 10
431.5004148966
 20
494.6584837081
 11
431.3702793102
 21
494.2802762779
  0
LINE
  5
3E4
100
AcDbEntity
  8
0
100
AcDbLine
 62
6
  6
CONTINUOUS
 10
431.5469952116
 20
494.6742966405
 11
431.4168596252
 21
494.2960892102
  0
LINE
  5
3E5
100
AcDbEntity
  8
0
100
AcDbLine
 62
6
  6
CONTINUOUS
 10
431.5913142993
 20
494.6283019085
 11
431.4611787128
 21
494.2500944783
  0
LINE
  5
3E6
100
AcDbEntity
  8
0
100
AcDbLine
 62
6
  6
CONTINUOUS
 10
431.6345846011
 20
494.6430261775
 11
431.5044490147
 21
494.2648187472
  0
LINE
  5
3E7
100
AcDbEntity
  8
0
100
AcDbLine
 62
6
  6
CONTINUOUS
 10
431.6755136481
 20
494.6005185193
 11
431.5453780617
 21
494.2223110891
  0
LINE
  5
3E8
100
AcDbEntity
  8
0
100
AcDbLine
 62
6
  6
CONTINUOUS
 10
431.7147803972
 20
494.6142152589
 11
431.5846448108
 21
494.2360078287
  0
LINE
  5
3E9
100
AcDbEntity
  8
0
100
AcDbLine
 62
6
  6
CONTINUOUS
 10
431.7526738657
 20
494.5752436399
 11
431.6225382793
 21
494.1970362097
  0
LINE
  5
3EA
100
AcDbEntity
  8
0
100
AcDbLine
 62
6
  6
CONTINUOUS
 10
431.8223206613
 20
494.5526321686
 11
431.6921850749
 21
494.1744247384
  0
LINE
  5
3EB
100
AcDbEntity
  8
0
100
AcDbLine
 62
6
  6
CONTINUOUS
 10
431.8839906778
 20
494.5328354002
 11
431.7538550914
 21
494.1546279699
  0
LINE
  5
3EC
100
AcDbEntity
  8
0
100
AcDbLine
 62
6
  6
CONTINUOUS
 10
431.937078599
 20
494.5160495473
 11
431.8069430126
 21
494.1378421171
  0
LINE
  5
3ED
100
AcDbEntity
  8
0
100
AcDbLine
 62
6
  6
CONTINUOUS
 10
431.9813582346
 20
494.50234647
 11
431.8512226482
 21
494.1241390397
  0
LINE
  5
3EE
100
AcDbEntity
  8
0
100
AcDbLine
 62
6
  6
CONTINUOUS
 10
432.0166687249
 20
494.4917724138
 11
431.8865331385
 21
494.1135649835
  0
LINE
  5
3EF
100
AcDbEntity
  8
0
100
AcDbLine
 62
6
  6
CONTINUOUS
 10
432.0524383973
 20
494.48762365
 11
431.9223028108
 21
494.1094162198
  0
LINE
  5
3F0
100
AcDbEntity
  8
0
100
AcDbLine
 62
7
  6
CONTINUOUS
 10
432.9823268901
 20
494.3861453103
 11
432.8521913037
 21
494.00793788
  0
LINE
  5
3F1
100
AcDbEntity
  8
0
100
AcDbLine
 62
7
  6
CONTINUOUS
 10
434.1234932486
 20
493.5524296101
 11
434.253628835
 21
493.9306370404
  0
LWPOLYLINE
  5
3F2
100
AcDbEntity
  8
0
100
AcDbPolyline
 62
7
  6
CONTINUOUS
 90
6
 70
0
 10
435.2404161401
 20
448.8352808257
 10
435.3005912304
 20
449.0218119091
 10
435.3999552662
 20
449.1986766825
 10
435.5222243949
 20
449.3415899477
 10
435.6565473171
 20
449.4506988366
 10
435.6799492574
 20
449.4660803924
  0
LWPOLYLINE
  5
3F3
100
AcDbEntity
  8
0
100
AcDbPolyline
 62
7
  6
CONTINUOUS
 90
7
 70
0
 10
415.6415906433
 20
73.9991871037
 10
415.6414128616
 20
74.0009544901
 10
415.6404766549
 20
74.0117187295
 10
415.639117991
 20
74.0305735346
 10
415.6376421999
 20
74.0546297844
 10
415.6360519204
 20
74.0843907251
 10
415.6343996886
 20
74.1193882194
  0
LINE
  5
3F4
100
AcDbEntity
  8
0
100
AcDbLine
 62
7
  6
CONTINUOUS
 10
426.9637856035
 20
410.6247068166
 11
435.2403430973
 21
448.8349438566
  0
LINE
  5
3F5
100
AcDbEntity
  8
0
100
AcDbLine
 62
7
  6
CONTINUOUS
 10
95.3818260121
 20
62.8645313198
 11
122.6672336471
 21
74.9652963476
  0
LINE
  5
3F6
100
AcDbEntity
  8
0
100
AcDbLine
 62
7
  6
CONTINUOUS
 10
128.0210718984
 20
76.0918260436
 11
98.1955090007
 21
62.8645313198
  0
LINE
  5
3F7
100
AcDbEntity
  8
0
100
AcDbLine
 62
7
  6
CONTINUOUS
 10
426.9637979574
 20
410.6247297926
 11
425.7777424
 21
410.6158130424
  0
LINE
  5
3F8
100
AcDbEntity
  8
0
100
AcDbLine
 62
7
  6
CONTINUOUS
 10
415.3727905448
 20
409.4418260436
 11
425.4972866732
 21
409.4418260436
  0
LINE
  5
3F9
100
AcDbEntity
  8
0
100
AcDbLine
 62
7
  6
CONTINUOUS
 10
415.2173679555
 20
410.725405641
 11
424.7169550744
 21
410.725405641
  0
LINE
  5
3FA
100
AcDbEntity
  8
0
100
AcDbLine
 62
7
  6
CONTINUOUS
 10
414.9962639927
 20
423.4418260436
 11
414.8483138313
 21
423.4418260436
  0
LINE
  5
3FB
100
AcDbEntity
  8
0
100
AcDbLine
 62
7
  6
CONTINUOUS
 10
440.6207092753
 20
424.4317907079
 11
435.0760996369
 21
424.4317907079
  0
LINE
  5
3FC
100
AcDbEntity
  8
0
100
AcDbLine
 62
7
  6
CONTINUOUS
 10
409.9733785046
 20
478.4418260436
 11
410.0100639501
 21
477.7418260436
  0
LINE
  5
3FD
100
AcDbEntity
  8
0
100
AcDbLine
 62
7
  6
CONTINUOUS
 10
415.6343996886
 20
74.1193882194
 11
415.6309776021
 21
74.2051878641
  0
LINE
  5
3FE
100
AcDbEntity
  8
0
100
AcDbLine
 62
7
  6
CONTINUOUS
 10
415.6309776021
 20
74.2051878641
 11
415.6275081636
 21
74.3118557839
  0
LINE
  5
3FF
100
AcDbEntity
  8
0
100
AcDbLine
 62
7
  6
CONTINUOUS
 10
415.6275081636
 20
74.3118557839
 11
415.6240994562
 21
74.4394099107
  0
LINE
  5
400
100
AcDbEntity
  8
0
100
AcDbLine
 62
7
  6
CONTINUOUS
 10
415.6240994562
 20
74.4394099107
 11
415.6193381101
 21
74.668611982
  0
LINE
  5
401
100
AcDbEntity
  8
0
100
AcDbLine
 62
7
  6
CONTINUOUS
 10
415.6193381101
 20
74.668611982
 11
415.6152549909
 21
74.9387803522
  0
LINE
  5
402
100
AcDbEntity
  8
0
100
AcDbLine
 62
7
  6
CONTINUOUS
 10
415.6152549909
 20
74.9387803522
 11
415.6121287508
 21
75.2442013024
  0
LINE
  5
403
100
AcDbEntity
  8
0
100
AcDbLine
 62
7
  6
CONTINUOUS
 10
415.6121287508
 20
75.2442013024
 11
415.6102931679
 21
75.5779339114
  0
LINE
  5
404
100
AcDbEntity
  8
0
100
AcDbLine
 62
7
  6
CONTINUOUS
 10
414.1583214706
 20
497.4418260436
 11
414.1583214706
 21
479.8418260436
  0
LINE
  5
405
100
AcDbEntity
  8
0
100
AcDbLine
 62
7
  6
CONTINUOUS
 10
415.6093706706
 20
409.4418260436
 11
415.6102931679
 21
75.5779339114
  0
LINE
  5
406
100
AcDbEntity
  8
0
100
AcDbLine
 62
7
  6
CONTINUOUS
 10
415.8325260844
 20
72.2418260436
 11
415.8325260844
 21
409.4418260436
  0
LINE
  5
407
100
AcDbEntity
  8
0
100
AcDbLine
 62
7
  6
CONTINUOUS
 10
416.1672336471
 20
507.5597069431
 11
416.1672336471
 21
498.9418260436
  0
LINE
  5
408
100
AcDbEntity
  8
0
100
AcDbLine
 62
7
  6
CONTINUOUS
 10
435.6570658777
 20
449.4650470561
 11
435.6794344117
 21
449.4657591048
  0
LINE
  5
409
100
AcDbEntity
  8
0
100
AcDbLine
 62
7
  6
CONTINUOUS
 10
414.6730366966
 20
433.4418260436
 11
414.8010482122
 21
433.4418260436
  0
LINE
  5
40A
100
AcDbEntity
  8
0
100
AcDbLine
 62
7
  6
CONTINUOUS
 10
413.016976697
 20
477.8696859094
 11
413.0293238994
 21
477.7418260436
  0
LINE
  5
40B
100
AcDbEntity
  8
0
100
AcDbLine
 62
7
  6
CONTINUOUS
 10
415.2165544937
 20
477.8696859094
 11
415.6296612813
 21
472.9418260436
  0
LINE
  5
40C
100
AcDbEntity
  8
0
100
AcDbLine
 62
7
  6
CONTINUOUS
 10
435.0760996369
 20
448.0783604361
 11
435.0760996369
 21
424.4317907079
  0
LINE
  5
40D
100
AcDbEntity
  8
0
100
AcDbLine
 62
7
  6
CONTINUOUS
 10
437.1207092753
 20
424.4317907079
 11
437.1207092753
 21
466.7418260436
  0
LINE
  5
40E
100
AcDbEntity
  8
0
100
AcDbLine
 62
7
  6
CONTINUOUS
 10
440.6207092753
 20
424.4317907079
 11
440.6207092753
 21
466.7418260436
  0
LINE
  5
40F
100
AcDbEntity
  8
0
100
AcDbLine
 62
7
  6
CONTINUOUS
 10
441.6839199141
 20
477.9802509725
 11
441.6839199141
 21
477.8418260436
  0
LINE
  5
410
100
AcDbEntity
  8
0
100
AcDbLine
 62
7
  6
CONTINUOUS
 10
442.2479332564
 20
489.3718864417
 11
442.2479332564
 21
477.8418260436
  0
LINE
  5
411
100
AcDbEntity
  8
0
100
AcDbLine
 62
7
  6
CONTINUOUS
 10
442.2180756997
 20
473.725405641
 11
442.1110630717
 21
454.6390813305
  0
LINE
  5
412
100
AcDbEntity
  8
0
100
AcDbLine
 62
7
  6
CONTINUOUS
 10
443.2311190562
 20
454.8470917076
 11
443.3381317049
 21
473.9334197046
  0
LINE
  5
413
100
AcDbEntity
  8
0
100
AcDbLine
 62
7
  6
CONTINUOUS
 10
434.6545276767
 20
449.454910979
 11
435.6570658777
 21
449.4650470561
  0
LINE
  5
414
100
AcDbEntity
  8
0
100
AcDbLine
 62
7
  6
CONTINUOUS
 10
414.2791868793
 20
456.4418260436
 11
414.1689791783
 21
456.4418260436
  0
LINE
  5
415
100
AcDbEntity
  8
0
100
AcDbLine
 62
7
  6
CONTINUOUS
 10
413.9769278168
 20
466.4418260436
 11
413.949955211
 21
466.4418260436
  0
LINE
  5
416
100
AcDbEntity
  8
0
100
AcDbLine
 62
7
  6
CONTINUOUS
 10
437.1207092753
 20
466.7418260436
 11
440.6207092753
 21
466.7418260436
  0
LINE
  5
417
100
AcDbEntity
  8
0
100
AcDbLine
 62
7
  6
CONTINUOUS
 10
436.9881969371
 20
472.7680107985
 11
436.9905697189
 21
472.7362321362
  0
LINE
  5
418
100
AcDbEntity
  8
0
100
AcDbLine
 62
7
  6
CONTINUOUS
 10
443.1828639675
 20
477.8418260436
 11
443.1828639675
 21
475.0926559952
  0
LINE
  5
419
100
AcDbEntity
  8
0
100
AcDbLine
 62
7
  6
CONTINUOUS
 10
443.3639956254
 20
477.8418260436
 11
443.3639956254
 21
489.3718864417
  0
LINE
  5
41A
100
AcDbEntity
  8
0
100
AcDbLine
 62
7
  6
CONTINUOUS
 10
413.8406719749
 20
472.9418260436
 11
415.6296612813
 21
472.9418260436
  0
LINE
  5
41B
100
AcDbEntity
  8
0
100
AcDbLine
 62
7
  6
CONTINUOUS
 10
122.6672336471
 20
473.2418260436
 11
415.4326207844
 21
473.2418260436
  0
LINE
  5
41C
100
AcDbEntity
  8
0
100
AcDbLine
 62
7
  6
CONTINUOUS
 10
415.4452333638
 20
475.1418260436
 11
122.6692457142
 21
475.1418260436
  0
LINE
  5
41D
100
AcDbEntity
  8
0
100
AcDbLine
 62
7
  6
CONTINUOUS
 10
438.6080988631
 20
475.4918260436
 11
438.2985937343
 21
475.4918260436
  0
LINE
  5
41E
100
AcDbEntity
  8
0
100
AcDbLine
 62
7
  6
CONTINUOUS
 10
122.6672336471
 20
476.7418260436
 11
415.3111039693
 21
476.7418260436
  0
LINE
  5
41F
100
AcDbEntity
  8
0
100
AcDbLine
 62
7
  6
CONTINUOUS
 10
123.6687499262
 20
477.7418260436
 11
414.6657173681
 21
477.7418260436
  0
LINE
  5
420
100
AcDbEntity
  8
0
100
AcDbLine
 62
7
  6
CONTINUOUS
 10
443.3628201435
 20
477.8418260436
 11
441.9216761267
 21
477.8418260436
  0
LINE
  5
421
100
AcDbEntity
  8
0
100
AcDbLine
 62
7
  6
CONTINUOUS
 10
441.6839199141
 20
477.8418260436
 11
441.8639956254
 21
477.8418260436
  0
LINE
  5
422
100
AcDbEntity
  8
0
100
AcDbLine
 62
7
  6
CONTINUOUS
 10
272.6656592403
 20
477.9313745383
 11
270.7497770001
 21
477.9313745383
  0
LINE
  5
423
100
AcDbEntity
  8
0
100
AcDbLine
 62
7
  6
CONTINUOUS
 10
414.6647364302
 20
478.4418260436
 11
123.669730864
 21
478.4418260436
  0
LINE
  5
424
100
AcDbEntity
  8
0
100
AcDbLine
 62
7
  6
CONTINUOUS
 10
414.7672336471
 20
478.4418260436
 11
438.9268392711
 21
478.4418260436
  0
LINE
  5
425
100
AcDbEntity
  8
0
100
AcDbLine
 62
7
  6
CONTINUOUS
 10
439.0007539395
 20
478.9418260436
 11
413.8107125399
 21
478.9418260436
  0
LINE
  5
426
100
AcDbEntity
  8
0
100
AcDbLine
 62
7
  6
CONTINUOUS
 10
414.1583214706
 20
479.8418260436
 11
122.1672336471
 21
479.8418260436
  0
LINE
  5
427
100
AcDbEntity
  8
0
100
AcDbLine
 62
7
  6
CONTINUOUS
 10
273.769485679
 20
478.2918793075
 11
272.4207001799
 21
478.4418260436
  0
LINE
  5
428
100
AcDbEntity
  8
0
100
AcDbLine
 62
7
  6
CONTINUOUS
 10
442.2479332564
 20
489.3718864417
 11
443.3639956205
 21
489.3718864417
  0
LINE
  5
429
100
AcDbEntity
  8
0
100
AcDbLine
 62
7
  6
CONTINUOUS
 10
426.757905885
 20
496.2093259334
 11
427.6386312618
 21
496.2093259334
  0
LINE
  5
42A
100
AcDbEntity
  8
0
100
AcDbLine
 62
7
  6
CONTINUOUS
 10
414.1583214706
 20
497.4418260436
 11
418.776751943
 21
497.4418260436
  0
LINE
  5
42B
100
AcDbEntity
  8
0
100
AcDbLine
 62
7
  6
CONTINUOUS
 10
414.4197859487
 20
498.9418260436
 11
418.3927949275
 21
498.9418260436
  0
LINE
  5
42C
100
AcDbEntity
  8
0
100
AcDbLine
 62
7
  6
CONTINUOUS
 10
122.1672336471
 20
507.5597069431
 11
416.1672336471
 21
507.5597069431
  0
LINE
  5
42D
100
AcDbEntity
  8
0
100
AcDbLine
 62
7
  6
CONTINUOUS
 10
125.6944049765
 20
511.4418453772
 11
412.6400513574
 21
511.4418464094
  0
LINE
  5
42E
100
AcDbEntity
  8
0
100
AcDbLine
 62
7
  6
CONTINUOUS
 10
396.5877615809
 20
512.8972994845
 11
141.7447949447
 21
512.8971365752
  0
LINE
  5
42F
100
AcDbEntity
  8
0
100
AcDbLine
 62
7
  6
CONTINUOUS
 10
395.8076391662
 20
513.3936034532
 11
142.526828128
 21
513.3936034532
  0
LINE
  5
430
100
AcDbEntity
  8
0
100
AcDbLine
 62
7
  6
CONTINUOUS
 10
143.9056213235
 20
515.7817433209
 11
394.4288459708
 21
515.7817433209
  0
LINE
  5
431
100
AcDbEntity
  8
0
100
AcDbLine
 62
7
  6
CONTINUOUS
 10
393.6456405316
 20
516.2783078464
 11
144.6888267626
 21
516.2783078464
  0
LINE
  5
432
100
AcDbEntity
  8
0
100
AcDbLine
 62
7
  6
CONTINUOUS
 10
394.4288459708
 20
515.7817433209
 11
395.8076391662
 21
513.3936034532
  0
LINE
  5
433
100
AcDbEntity
  8
0
100
AcDbLine
 62
2
  6
CONTINUOUS
 10
430.8273418515
 20
494.4631755126
 11
430.9510792321
 21
494.4211799526
  0
LINE
  5
434
100
AcDbEntity
  8
0
100
AcDbLine
 62
2
  6
CONTINUOUS
 10
431.0812148185
 20
494.7993873828
 11
430.9574774379
 21
494.8413829429
  0
LINE
  5
435
100
AcDbEntity
  8
0
100
AcDbLine
 62
2
  6
CONTINUOUS
 10
430.2968047993
 20
494.6448760737
 11
430.4275498503
 21
494.5998646467
  0
LINE
  5
436
100
AcDbEntity
  8
0
100
AcDbLine
 62
2
  6
CONTINUOUS
 10
430.5576854367
 20
494.9780720769
 11
430.4269403857
 21
495.023083504
  0
LINE
  5
437
100
AcDbEntity
  8
0
100
AcDbLine
 62
7
  6
CONTINUOUS
 10
429.0139467082
 20
495.7535307776
 11
432.9823268901
 21
494.3861453103
  0
LINE
  5
438
100
AcDbEntity
  8
0
100
AcDbLine
 62
7
  6
CONTINUOUS
 10
442.2479332564
 20
489.3718864417
 11
419.2606246461
 21
497.360103907
  0
LINE
  5
439
100
AcDbEntity
  8
0
100
AcDbLine
 62
7
  6
CONTINUOUS
 10
442.3563714023
 20
490.7887724972
 11
419.369062792
 21
498.7769899625
  0
ARC
  5
43A
100
AcDbEntity
  8
0
100
AcDbCircle
 62
7
  6
CONTINUOUS
 10
132.9018336863
 20
-248.7243906452
 40
346.5062595
100
AcDbArc
 50
98.1481469595
 51
98.3109057326
  0
ARC
  5
43B
100
AcDbEntity
  8
0
100
AcDbCircle
 62
7
  6
CONTINUOUS
 10
115.9420781505
 20
-118.8386505401
 40
216.0098296087
100
AcDbArc
 50
98.0024336853
 51
98.1308758395
  0
ARC
  5
43C
100
AcDbEntity
  8
0
100
AcDbCircle
 62
7
  6
CONTINUOUS
 10
145.8252051977
 20
-47.4345153256
 40
149.5029072421
100
AcDbArc
 50
99.3236875575
 51
99.9640206414
  0
ARC
  5
43D
100
AcDbEntity
  8
0
100
AcDbCircle
 62
7
  6
CONTINUOUS
 10
103.1281210743
 20
-47.5825650387
 40
143.1760622896
100
AcDbArc
 50
98.3745125296
 51
98.5455262956
  0
ARC
  5
43E
100
AcDbEntity
  8
0
100
AcDbCircle
 62
7
  6
CONTINUOUS
 10
-25.7734576123
 20
904.0538327151
 40
819.1629492136
100
AcDbArc
 50
277.7962024508
 51
277.9153261125
  0
ARC
  5
43F
100
AcDbEntity
  8
0
100
AcDbCircle
 62
7
  6
CONTINUOUS
 10
-17.4024478991
 20
847.7925285477
 40
760.6762954435
100
AcDbArc
 50
277.8581690468
 51
278.0101212361
  0
ARC
  5
440
100
AcDbEntity
  8
0
100
AcDbCircle
 62
7
  6
CONTINUOUS
 10
24.7990134348
 20
541.5907315462
 40
451.5800354668
100
AcDbArc
 50
277.721111461
 51
277.86567426
  0
ARC
  5
441
100
AcDbEntity
  8
0
100
AcDbCircle
 62
7
  6
CONTINUOUS
 10
70.995575603
 20
200.8332740706
 40
107.702303357
100
AcDbArc
 50
277.438330611
 51
277.5791616037
  0
ARC
  5
442
100
AcDbEntity
  8
0
100
AcDbCircle
 62
7
  6
CONTINUOUS
 10
96.7531004902
 20
14.603595181
 40
81.1948987334
100
AcDbArc
 50
98.2328703843
 51
98.3686390645
  0
ARC
  5
443
100
AcDbEntity
  8
0
100
AcDbCircle
 62
7
  6
CONTINUOUS
 10
92.5530487719
 20
43.2769908914
 40
52.215498784
100
AcDbArc
 50
98.3065423407
 51
98.4678595824
  0
ARC
  5
444
100
AcDbEntity
  8
0
100
AcDbCircle
 62
7
  6
CONTINUOUS
 10
90.4097406389
 20
57.6928154703
 40
37.6412642723
100
AcDbArc
 50
98.361719734
 51
98.5613638615
  0
ARC
  5
445
100
AcDbEntity
  8
0
100
AcDbCircle
 62
7
  6
CONTINUOUS
 10
116.6775118231
 20
126.9828069571
 40
27.594135702
100
AcDbArc
 50
274.7804916078
 51
275.1647824884
  0
ARC
  5
446
100
AcDbEntity
  8
0
100
AcDbCircle
 62
7
  6
CONTINUOUS
 10
104.7529686086
 20
45.1944262414
 40
12.0
100
AcDbArc
 50
138.7048934912
 51
150.7635724185
  0
ARC
  5
447
100
AcDbEntity
  8
0
100
AcDbCircle
 62
7
  6
CONTINUOUS
 10
108.8102871162
 20
45.1944262414
 40
12.0
100
AcDbArc
 50
29.2364275815
 51
65.4574607909
  0
ARC
  5
448
100
AcDbEntity
  8
0
100
AcDbCircle
 62
7
  6
CONTINUOUS
 10
122.9405614696
 20
80.2581038597
 40
4.926442188
100
AcDbArc
 50
348.7291302883
 51
353.8720792102
  0
ARC
  5
449
100
AcDbEntity
  8
0
100
AcDbCircle
 62
7
  6
CONTINUOUS
 10
126.0672336471
 20
507.5597069431
 40
3.9
100
AcDbArc
 50
95.4886568394
 51
180.0
  0
ARC
  5
44A
100
AcDbEntity
  8
0
100
AcDbCircle
 62
7
  6
CONTINUOUS
 10
102.2107377358
 20
92.3426437689
 40
2.9476819455
100
AcDbArc
 50
233.2789448236
 51
240.5061141692
  0
ARC
  5
44B
100
AcDbEntity
  8
0
100
AcDbCircle
 62
7
  6
CONTINUOUS
 10
102.1591603401
 20
92.2472328539
 40
2.8392431269
100
AcDbArc
 50
240.4641332038
 51
249.7718920164
  0
ARC
  5
44C
100
AcDbEntity
  8
0
100
AcDbCircle
 62
7
  6
CONTINUOUS
 10
131.6174150889
 20
102.0419902571
 40
2.5628528087
100
AcDbArc
 50
175.4972866897
 51
180.0036711993
  0
ARC
  5
44D
100
AcDbEntity
  8
0
100
AcDbCircle
 62
7
  6
CONTINUOUS
 10
132.892812184
 20
84.641762251
 40
2.3507796269
100
AcDbArc
 50
179.9984451774
 51
184.9072705843
  0
ARC
  5
44E
100
AcDbEntity
  8
0
100
AcDbCircle
 62
7
  6
CONTINUOUS
 10
128.386118822
 20
84.6419202944
 40
2.2743735495
100
AcDbArc
 50
354.9366843198
 51
359.9976256439
  0
ARC
  5
44F
100
AcDbEntity
  8
0
100
AcDbCircle
 62
7
  6
CONTINUOUS
 10
124.5672336471
 20
473.2418260436
 40
1.9
100
AcDbArc
 50
99.0
 51
180.0
  0
ARC
  5
450
100
AcDbEntity
  8
0
100
AcDbCircle
 62
7
  6
CONTINUOUS
 10
84.3014003293
 20
92.340580693
 40
1.6006448635
100
AcDbArc
 50
98.0549833192
 51
109.2921775676
  0
ARC
  5
451
100
AcDbEntity
  8
0
100
AcDbCircle
 62
7
  6
CONTINUOUS
 10
81.5993814912
 20
92.3412971438
 40
1.5998119159
100
AcDbArc
 50
98.0272609268
 51
188.0115206706
  0
ARC
  5
452
100
AcDbEntity
  8
0
100
AcDbCircle
 62
7
  6
CONTINUOUS
 10
123.5672336471
 20
479.8418260436
 40
1.4
100
AcDbArc
 50
180.0
 51
270.0
  0
ARC
  5
453
100
AcDbEntity
  8
0
100
AcDbCircle
 62
7
  6
CONTINUOUS
 10
123.6672336471
 20
476.7418260436
 40
1.0
100
AcDbArc
 50
90.0
 51
180.0
  0
ARC
  5
454
100
AcDbEntity
  8
0
100
AcDbCircle
 62
7
  6
CONTINUOUS
 10
141.6608027242
 20
513.8936034532
 40
1.0
100
AcDbArc
 50
274.8730148647
 51
330.0
  0
ARC
  5
455
100
AcDbEntity
  8
0
100
AcDbCircle
 62
7
  6
CONTINUOUS
 10
144.7716467273
 20
515.2817433209
 40
1.0
100
AcDbArc
 50
94.7506759567
 51
150.0
  0
ARC
  5
456
100
AcDbEntity
  8
0
100
AcDbCircle
 62
7
  6
CONTINUOUS
 10
269.1672336471
 20
-981.5581739564
 40
1503.0
100
AcDbArc
 50
85.2493240431
 51
94.7506759569
  0
ARC
  5
457
100
AcDbEntity
  8
0
100
AcDbCircle
 62
7
  6
CONTINUOUS
 10
269.1684492608
 20
-981.6947234529
 40
1500.0138714669
100
AcDbArc
 50
94.8730162877
 51
95.4886525522
  0
ARC
  5
458
100
AcDbEntity
  8
0
100
AcDbCircle
 62
7
  6
CONTINUOUS
 10
269.1665513386
 20
-981.6886724711
 40
1500.0077971597
100
AcDbArc
 50
84.5113456601
 51
85.1269843713
  0
ARC
  5
459
100
AcDbEntity
  8
0
100
AcDbCircle
 62
7
  6
CONTINUOUS
 10
238.8194188589
 20
424.6374260088
 40
201.8616504913
100
AcDbArc
 50
356.9080118563
 51
357.2174085094
  0
ARC
  5
45A
100
AcDbEntity
  8
0
100
AcDbCircle
 62
7
  6
CONTINUOUS
 10
290.856505226
 20
477.9235396068
 40
18.1908478197
100
AcDbArc
 50
179.9753222669
 51
180.4134042466
  0
ARC
  5
45B
100
AcDbEntity
  8
0
100
AcDbCircle
 62
7
  6
CONTINUOUS
 10
272.6673771264
 20
463.5758738511
 40
14.3555007966
100
AcDbArc
 50
89.1460463487
 51
90.0068564528
  0
ARC
  5
45C
100
AcDbEntity
  8
0
100
AcDbCircle
 62
7
  6
CONTINUOUS
 10
274.3078224872
 20
480.2431989527
 40
2.0013450185
100
AcDbArc
 50
280.4383692544
 51
295.8172634585
  0
ARC
  5
45D
100
AcDbEntity
  8
0
100
AcDbCircle
 62
7
  6
CONTINUOUS
 10
273.9267454918
 20
479.7098021323
 40
1.4264397511
100
AcDbArc
 50
263.6712724462
 51
279.3536375628
  0
ARC
  5
45E
100
AcDbEntity
  8
0
100
AcDbCircle
 62
7
  6
CONTINUOUS
 10
483.6257690731
 20
75.7857287113
 40
68.0159349073
100
AcDbArc
 50
180.0369828166
 51
180.3365478116
  0
ARC
  5
45F
100
AcDbEntity
  8
0
100
AcDbCircle
 62
7
  6
CONTINUOUS
 10
483.3202537604
 20
75.7799063114
 40
67.710390785
100
AcDbArc
 50
180.3331395715
 51
180.6134721428
  0
ARC
  5
460
100
AcDbEntity
  8
0
100
AcDbCircle
 62
7
  6
CONTINUOUS
 10
473.2133396977
 20
75.6668477646
 40
57.6028457523
100
AcDbArc
 50
180.6086596288
 51
180.9214116221
  0
ARC
  5
461
100
AcDbEntity
  8
0
100
AcDbCircle
 62
7
  6
CONTINUOUS
 10
451.75299863
 20
75.3031300749
 40
36.1394354967
100
AcDbArc
 50
180.8919745675
 51
181.4117907766
  0
ARC
  5
462
100
AcDbEntity
  8
0
100
AcDbCircle
 62
7
  6
CONTINUOUS
 10
413.6835404679
 20
72.2414205814
 40
2.1489856547
100
AcDbArc
 50
282.6777436768
 51
0.0108103417
  0
ARC
  5
463
100
AcDbEntity
  8
0
100
AcDbCircle
 62
7
  6
CONTINUOUS
 10
471.0849203333
 20
467.534529616
 40
57.1200753084
100
AcDbArc
 50
180.0097516124
 51
180.6952225969
  0
ARC
  5
464
100
AcDbEntity
  8
0
100
AcDbCircle
 62
7
  6
CONTINUOUS
 10
438.0824166143
 20
430.1365893454
 40
47.7418270904
100
AcDbArc
 50
88.9870164191
 51
89.2645968853
  0
ARC
  5
465
100
AcDbEntity
  8
0
100
AcDbCircle
 62
7
  6
CONTINUOUS
 10
438.146786567
 20
433.8533558198
 40
44.0245035178
100
AcDbArc
 50
88.8195715466
 51
88.9852610998
  0
ARC
  5
466
100
AcDbEntity
  8
0
100
AcDbCircle
 62
7
  6
CONTINUOUS
 10
447.6460794869
 20
467.2888344895
 40
33.6800010013
100
AcDbArc
 50
180.7610941787
 51
180.9591214641
  0
ARC
  5
467
100
AcDbEntity
  8
0
100
AcDbCircle
 62
7
  6
CONTINUOUS
 10
441.8990134043
 20
467.1878681376
 40
27.9320504504
100
AcDbArc
 50
180.9493742986
 51
181.5305051551
  0
ARC
  5
468
100
AcDbEntity
  8
0
100
AcDbCircle
 62
7
  6
CONTINUOUS
 10
441.844651468
 20
462.8257994658
 40
8.191051765
100
AcDbArc
 50
271.8638574698
 51
274.0666781546
  0
ARC
  5
469
100
AcDbEntity
  8
0
100
AcDbCircle
 62
7
  6
CONTINUOUS
 10
436.6545624205
 20
491.1897260941
 40
5.8813551423
100
AcDbArc
 50
341.9958927729
 51
344.6913337002
  0
ARC
  5
46A
100
AcDbEntity
  8
0
100
AcDbCircle
 62
7
  6
CONTINUOUS
 10
438.7339648287
 20
473.9548430291
 40
4.6031528903
100
AcDbArc
 50
359.8379764163
 51
17.005871666
  0
ARC
  5
46B
100
AcDbEntity
  8
0
100
AcDbCircle
 62
7
  6
CONTINUOUS
 10
438.8508359803
 20
473.992932531
 40
4.4802524904
100
AcDbArc
 50
16.9771901049
 51
44.6577779653
  0
ARC
  5
46C
100
AcDbEntity
  8
0
100
AcDbCircle
 62
7
  6
CONTINUOUS
 10
438.8831363516
 20
474.0204915167
 40
4.4379073458
100
AcDbArc
 50
44.697797968
 51
54.2645318696
  0
ARC
  5
46D
100
AcDbEntity
  8
0
100
AcDbCircle
 62
7
  6
CONTINUOUS
 10
438.9258926809
 20
474.0490833121
 40
4.3927428335
100
AcDbArc
 50
73.0710824959
 51
89.9876529678
  0
ARC
  5
46E
100
AcDbEntity
  8
0
100
AcDbCircle
 62
7
  6
CONTINUOUS
 10
438.9456478527
 20
474.1088335983
 40
4.3299723748
100
AcDbArc
 50
54.2596018514
 51
73.0657001004
  0
ARC
  5
46F
100
AcDbEntity
  8
0
100
AcDbCircle
 62
7
  6
CONTINUOUS
 10
418.8713897979
 20
433.3406313289
 40
4.1990595651
100
AcDbArc
 50
179.1200643243
 51
181.0510240771
  0
ARC
  5
470
100
AcDbEntity
  8
0
100
AcDbCircle
 62
7
  6
CONTINUOUS
 10
412.2672336471
 20
507.5597069431
 40
3.9
100
AcDbArc
 50
0.0
 51
84.5113431606
  0
ARC
  5
471
100
AcDbEntity
  8
0
100
AcDbCircle
 62
7
  6
CONTINUOUS
 10
438.4238723092
 20
474.4115732281
 40
3.6340629776
100
AcDbArc
 50
41.1467266149
 51
44.7109724559
  0
ARC
  5
472
100
AcDbEntity
  8
0
100
AcDbCircle
 62
7
  6
CONTINUOUS
 10
438.541377772
 20
474.5279269166
 40
3.4686975815
100
AcDbArc
 50
44.7106461922
 51
48.4339147024
  0
ARC
  5
473
100
AcDbEntity
  8
0
100
AcDbCircle
 62
7
  6
CONTINUOUS
 10
418.3892316643
 20
495.9492743334
 40
2.9925538386
100
AcDbArc
 50
70.9759231438
 51
89.9316649795
  0
ARC
  5
474
100
AcDbEntity
  8
0
100
AcDbCircle
 62
7
  6
CONTINUOUS
 10
438.3778718868
 20
473.7419608196
 40
2.0128158411
100
AcDbArc
 50
359.7626580515
 51
8.4327402714
  0
ARC
  5
475
100
AcDbEntity
  8
0
100
AcDbCircle
 62
7
  6
CONTINUOUS
 10
438.4950576889
 20
473.7429183983
 40
1.9988027602
100
AcDbArc
 50
346.9721113629
 51
85.8906282602
  0
ARC
  5
476
100
AcDbEntity
  8
0
100
AcDbCircle
 62
7
  6
CONTINUOUS
 10
437.3142448636
 20
473.7598510096
 40
1.9791726608
100
AcDbArc
 50
61.2330859732
 51
69.0237074366
  0
ARC
  5
477
100
AcDbEntity
  8
0
100
AcDbCircle
 62
7
  6
CONTINUOUS
 10
438.610922935
 20
473.740581827
 40
1.7522306799
100
AcDbArc
 50
128.5986232225
 51
141.4347020285
  0
ARC
  5
478
100
AcDbEntity
  8
0
100
AcDbCircle
 62
7
  6
CONTINUOUS
 10
424.2585380854
 20
410.9570525822
 40
1.5570489155
100
AcDbArc
 50
334.8266301213
 51
347.3404903383
  0
ARC
  5
479
100
AcDbEntity
  8
0
100
AcDbCircle
 62
7
  6
CONTINUOUS
 10
441.7129906767
 20
454.8745868596
 40
1.5255098211
100
AcDbArc
 50
302.1735117239
 51
311.1785123759
  0
ARC
  5
47A
100
AcDbEntity
  8
0
100
AcDbCircle
 62
7
  6
CONTINUOUS
 10
441.8616882522
 20
489.3721419694
 40
1.5003989303
100
AcDbArc
 50
59.1131169618
 51
70.9259246583
  0
ARC
  5
47B
100
AcDbEntity
  8
0
100
AcDbCircle
 62
7
  6
CONTINUOUS
 10
425.4976976989
 20
410.9418260428
 40
1.5
100
AcDbArc
 50
269.9999496206
 51
347.7665752755
  0
ARC
  5
47C
100
AcDbEntity
  8
0
100
AcDbCircle
 62
7
  6
CONTINUOUS
 10
441.7514197142
 20
454.8141110728
 40
1.4538578805
100
AcDbArc
 50
297.4285478795
 51
302.1606877971
  0
ARC
  5
47D
100
AcDbEntity
  8
0
100
AcDbCircle
 62
7
  6
CONTINUOUS
 10
414.7672336471
 20
479.8418260436
 40
1.4
100
AcDbArc
 50
270.0
 51
319.7307013012
  0
ARC
  5
47E
100
AcDbEntity
  8
0
100
AcDbCircle
 62
7
  6
CONTINUOUS
 10
414.6672336471
 20
476.7418260436
 40
1.0
100
AcDbArc
 50
60.0
 51
90.0
  0
ARC
  5
47F
100
AcDbEntity
  8
0
100
AcDbCircle
 62
7
  6
CONTINUOUS
 10
393.562820567
 20
515.2817433209
 40
1.0
100
AcDbArc
 50
30.0
 51
85.2493240433
  0
ARC
  5
480
100
AcDbEntity
  8
0
100
AcDbCircle
 62
7
  6
CONTINUOUS
 10
396.67366457
 20
513.8936034532
 40
1.0
100
AcDbArc
 50
210.0
 51
265.1269851353
  0
LINE
  5
481
100
AcDbEntity
  8
0
100
AcDbLine
 62
7
  6
CONTINUOUS
 10
85.3907882941
 20
94.9997584881
 11
85.1262555818
 21
94.9617189632
  0
SPLINE
  5
482
100
AcDbEntity
  8
0
100
AcDbSpline
 62
7
  6
CONTINUOUS
 70
0
 71
3
 72
9
 73
5
 74
0
 42
0.0000001
 43
0.0000001
 44
0.0000000001
 40
0.0
 40
0.0
 40
0.0
 40
0.0
 40
0.3059497587
 40
1.0
 40
1.0
 40
1.0
 40
1.0
 10
84.8061396963
 20
94.9146428367
 30
0.0
 10
84.7918435665
 20
94.9124869264
 30
0.0
 10
84.7451276231
 20
94.9053731634
 30
0.0
 10
84.6984128562
 20
94.8982108482
 30
0.0
 10
84.6660971164
 20
94.8926093693
 30
0.0
  0
SPLINE
  5
483
100
AcDbEntity
  8
0
100
AcDbSpline
 62
7
  6
CONTINUOUS
 70
0
 71
3
 72
9
 73
5
 74
0
 42
0.0000001
 43
0.0000001
 44
0.0000000001
 40
0.0
 40
0.0
 40
0.0
 40
0.0
 40
0.4730198984
 40
1.0
 40
1.0
 40
1.0
 40
1.0
 10
84.6660971164
 20
94.8926093693
 30
0.0
 10
84.4302321032
 20
94.8517254877
 30
0.0
 10
83.9407479236
 20
94.5862042022
 30
0.0
 10
83.7911744518
 20
94.0286293191
 30
0.0
 10
83.8282648838
 20
93.7645312668
 30
0.0
  0
SPLINE
  5
484
100
AcDbEntity
  8
0
100
AcDbSpline
 62
7
  6
CONTINUOUS
 70
0
 71
3
 72
9
 73
5
 74
0
 42
0.0000001
 43
0.0000001
 44
0.0000000001
 40
0.0
 40
0.0
 40
0.0
 40
0.0
 40
0.2444146963
 40
1.0
 40
1.0
 40
1.0
 40
1.0
 10
124.4044608735
 20
100.0964323093
 30
0.0
 10
124.5065281854
 20
100.1089269404
 30
0.0
 10
124.9250877147
 20
100.124758802
 30
0.0
 10
125.3712855466
 20
99.9708249882
 30
0.0
 10
125.5954315749
 20
99.7454126607
 30
0.0
  0
SPLINE
  5
485
100
AcDbEntity
  8
0
100
AcDbSpline
 62
7
  6
CONTINUOUS
 70
0
 71
3
 72
9
 73
5
 74
0
 42
0.0000001
 43
0.0000001
 44
0.0000000001
 40
0.0
 40
0.0
 40
0.0
 40
0.0
 40
0.2161492073
 40
1.0
 40
1.0
 40
1.0
 40
1.0
 10
118.9295942639
 20
99.4825667369
 30
0.0
 10
118.964067355
 20
99.4852515908
 30
0.0
 10
119.1235150938
 20
99.498183164
 30
0.0
 10
119.2828239623
 20
99.5127781151
 30
0.0
 10
119.4076501524
 20
99.5246867928
 30
0.0
  0
LINE
  5
486
100
AcDbEntity
  8
0
100
AcDbLine
 62
7
  6
CONTINUOUS
 10
96.5592066164
 20
88.9498311231
 11
96.4046653198
 21
88.9280633072
  0
SPLINE
  5
487
100
AcDbEntity
  8
0
100
AcDbSpline
 62
7
  6
CONTINUOUS
 70
0
 71
3
 72
9
 73
5
 74
0
 42
0.0000001
 43
0.0000001
 44
0.0000000001
 40
0.0
 40
0.0
 40
0.0
 40
0.0
 40
0.6099615815
 40
1.0
 40
1.0
 40
1.0
 40
1.0
 10
130.6604923695
 20
102.0418260436
 30
0.0
 10
130.6604923695
 20
102.2061179103
 30
0.0
 10
130.6330623526
 20
102.467523539
 30
0.0
 10
130.5429527729
 20
102.7461502351
 30
0.0
 10
130.4617516429
 20
102.8128071562
 30
0.0
  0
SPLINE
  5
488
100
AcDbEntity
  8
0
100
AcDbSpline
 62
7
  6
CONTINUOUS
 70
0
 71
3
 72
8
 73
4
 74
0
 42
0.0000001
 43
0.0000001
 44
0.0000000001
 40
0.0
 40
0.0
 40
0.0
 40
0.0
 40
1.0
 40
1.0
 40
1.0
 40
1.0
 10
130.4617516429
 20
102.8128071562
 30
0.0
 10
130.4419599679
 20
102.8290538773
 30
0.0
 10
130.4162316719
 20
102.8418260436
 30
0.0
 10
130.3906256893
 20
102.8418260436
 30
0.0
  0
SPLINE
  5
489
100
AcDbEntity
  8
0
100
AcDbSpline
 62
7
  6
CONTINUOUS
 70
0
 71
3
 72
15
 73
11
 74
0
 42
0.0000001
 43
0.0000001
 44
0.0000000001
 40
0.0
 40
0.0
 40
0.0
 40
0.0
 40
0.0190882911
 40
0.0428221633
 40
0.075679362
 40
0.1672726534
 40
0.2907397828
 40
0.4416403393
 40
0.6148000717
 40
1.0
 40
1.0
 40
1.0
 40
1.0
 10
100.5608725828
 20
89.2061712891
 30
0.0
 10
100.561589544
 20
89.1939406993
 30
0.0
 10
100.5146204058
 20
89.2038522383
 30
0.0
 10
100.4768748228
 20
89.1886482373
 30
0.0
 10
100.3771995761
 20
89.1782502685
 30
0.0
 10
100.2239394725
 20
89.1516550341
 30
0.0
 10
99.9896572359
 20
89.1189040952
 30
0.0
 10
99.7060673806
 20
89.0772223038
 30
0.0
 10
99.2551554944
 20
89.0128239038
 30
0.0
 10
98.9004381453
 20
88.9624956579
 30
0.0
 10
98.6556117107
 20
88.9280633072
 30
0.0
  0
SPLINE
  5
48A
100
AcDbEntity
  8
0
100
AcDbSpline
 62
7
  6
CONTINUOUS
 70
0
 71
3
 72
9
 73
5
 74
0
 42
0.0000001
 43
0.0000001
 44
0.0000000001
 40
0.0
 40
0.0
 40
0.0
 40
0.0
 40
0.6131759764
 40
1.0
 40
1.0
 40
1.0
 40
1.0
 10
129.4680963703
 20
102.0418260436
 30
0.0
 10
129.4680963703
 20
102.2057567922
 30
0.0
 10
129.4935903105
 20
102.4645336609
 30
0.0
 10
129.5706113496
 20
102.744311474
 30
0.0
 10
129.6478053889
 20
102.8131300636
 30
0.0
  0
SPLINE
  5
48B
100
AcDbEntity
  8
0
100
AcDbSpline
 62
7
  6
CONTINUOUS
 70
0
 71
3
 72
9
 73
5
 74
0
 42
0.0000001
 43
0.0000001
 44
0.0000000001
 40
0.0
 40
0.0
 40
0.0
 40
0.0
 40
0.6381446134
 40
1.0
 40
1.0
 40
1.0
 40
1.0
 10
414.8483138313
 20
423.3990370645
 30
0.0
 10
414.8497886645
 20
423.3117507154
 30
0.0
 10
414.8593807906
 20
423.1768918964
 30
0.0
 10
414.8684075667
 20
423.0367689165
 30
0.0
 10
414.8880074511
 20
422.9913122395
 30
0.0
  0
SPLINE
  5
48C
100
AcDbEntity
  8
0
100
AcDbSpline
 62
7
  6
CONTINUOUS
 70
0
 71
3
 72
10
 73
6
 74
0
 42
0.0000001
 43
0.0000001
 44
0.0000000001
 40
0.0
 40
0.0
 40
0.0
 40
0.0
 40
0.6980238917
 40
0.9101015947
 40
1.0
 40
1.0
 40
1.0
 40
1.0
 10
414.1819709449
 20
456.4418260436
 30
0.0
 10
414.1831078325
 20
456.3309555725
 30
0.0
 10
414.1921773294
 20
456.175368588
 30
0.0
 10
414.2184539883
 20
456.0375772305
 30
0.0
 10
414.2396440412
 20
455.977254297
 30
0.0
 10
414.2539237853
 20
455.977254297
 30
0.0
  0
SPLINE
  5
48D
100
AcDbEntity
  8
0
100
AcDbSpline
 62
7
  6
CONTINUOUS
 70
0
 71
3
 72
9
 73
5
 74
0
 42
0.0000001
 43
0.0000001
 44
0.0000000001
 40
0.0
 40
0.0
 40
0.0
 40
0.0
 40
0.2089604476
 40
1.0
 40
1.0
 40
1.0
 40
1.0
 10
413.9761936689
 20
466.7256721172
 30
0.0
 10
413.9725837339
 20
466.7061373592
 30
0.0
 10
413.9583470985
 20
466.6120989445
 30
0.0
 10
413.9523408368
 20
466.516990955
 30
0.0
 10
413.949955211
 20
466.4418260436
 30
0.0
  0
LINE
  5
48E
100
AcDbEntity
  8
0
100
AcDbLine
 62
7
  6
CONTINUOUS
 10
83.8667778357
 20
94.2971129705
 11
83.5983898828
 21
94.2586854882
  0
SPLINE
  5
48F
100
AcDbEntity
  8
0
100
AcDbSpline
 62
7
  6
CONTINUOUS
 70
0
 71
3
 72
9
 73
5
 74
0
 42
0.0000001
 43
0.0000001
 44
0.0000000001
 40
0.0
 40
0.0
 40
0.0
 40
0.0
 40
0.2618261792
 40
1.0
 40
1.0
 40
1.0
 40
1.0
 10
83.5983898828
 20
94.2586854882
 30
0.0
 10
83.5393264237
 20
94.2502148453
 30
0.0
 10
83.313748901
 20
94.2178265401
 30
0.0
 10
83.0881924324
 20
94.1852914651
 30
0.0
 10
82.9217082496
 20
94.161166689
 30
0.0
  0
LINE
  5
490
100
AcDbEntity
  8
0
100
AcDbLine
 62
7
  6
CONTINUOUS
 10
82.9217082496
 20
94.161166689
 11
82.566094881
 21
94.1094467336
  0
LINE
  5
491
100
AcDbEntity
  8
0
100
AcDbLine
 62
7
  6
CONTINUOUS
 10
82.566094881
 20
94.1094467336
 11
82.2755375736
 21
94.0668422106
  0
SPLINE
  5
492
100
AcDbEntity
  8
0
100
AcDbSpline
 62
7
  6
CONTINUOUS
 70
0
 71
3
 72
9
 73
5
 74
0
 42
0.0000001
 43
0.0000001
 44
0.0000000001
 40
0.0
 40
0.0
 40
0.0
 40
0.0
 40
0.2892100832
 40
1.0
 40
1.0
 40
1.0
 40
1.0
 10
81.8528425532
 20
94.0039715267
 30
0.0
 10
81.7808374939
 20
93.9931259064
 30
0.0
 10
81.5324202356
 20
93.9542522958
 30
0.0
 10
81.2808018448
 20
93.9207025303
 30
0.0
 10
81.1103320222
 20
93.8662263845
 30
0.0
  0
SPLINE
  5
493
100
AcDbEntity
  8
0
100
AcDbSpline
 62
7
  6
CONTINUOUS
 70
0
 71
3
 72
8
 73
4
 74
0
 42
0.0000001
 43
0.0000001
 44
0.0000000001
 40
0.0
 40
0.0
 40
0.0
 40
0.0
 40
1.0
 40
1.0
 40
1.0
 40
1.0
 10
81.1103320222
 20
93.8662263845
 30
0.0
 10
81.0473763174
 20
93.8461079606
 30
0.0
 10
80.9853852325
 20
93.8224675067
 30
0.0
 10
80.9253920896
 20
93.7947367555
 30
0.0
  0
SPLINE
  5
494
100
AcDbEntity
  8
0
100
AcDbSpline
 62
7
  6
CONTINUOUS
 70
0
 71
3
 72
9
 73
5
 74
0
 42
0.0000001
 43
0.0000001
 44
0.0000000001
 40
0.0
 40
0.0
 40
0.0
 40
0.0
 40
0.061694274
 40
1.0
 40
1.0
 40
1.0
 40
1.0
 10
84.5570964235
 20
93.9896336601
 30
0.0
 10
84.5492481282
 20
93.9886740013
 30
0.0
 10
84.8117878058
 20
94.0184626706
 30
0.0
 10
84.8193636353
 20
94.0217572978
 30
0.0
 10
84.9386071367
 20
94.0373096334
 30
0.0
  0
LINE
  5
495
100
AcDbEntity
  8
0
100
AcDbLine
 62
7
  6
CONTINUOUS
 10
85.2010654439
 20
94.0719036841
 11
85.5671130189
 21
94.1209477166
  0
LINE
  5
496
100
AcDbEntity
  8
0
100
AcDbLine
 62
7
  6
CONTINUOUS
 10
85.5671130189
 20
94.1209477166
 11
85.8815908734
 21
94.1635415005
  0
LINE
  5
497
100
AcDbEntity
  8
0
100
AcDbLine
 62
7
  6
CONTINUOUS
 10
85.8815908734
 20
94.1635415005
 11
86.2621856381
 21
94.2154859084
  0
LINE
  5
498
100
AcDbEntity
  8
0
100
AcDbLine
 62
7
  6
CONTINUOUS
 10
86.2621856381
 20
94.2154859084
 11
86.4798613494
 21
94.2453502687
  0
LINE
  5
499
100
AcDbEntity
  8
0
100
AcDbLine
 62
7
  6
CONTINUOUS
 10
86.4798613494
 20
94.2453502687
 11
86.7171291609
 21
94.2780125325
  0
LINE
  5
49A
100
AcDbEntity
  8
0
100
AcDbLine
 62
7
  6
CONTINUOUS
 10
86.7171291609
 20
94.2780125325
 11
87.2534575653
 21
94.3522115041
  0
LINE
  5
49B
100
AcDbEntity
  8
0
100
AcDbLine
 62
7
  6
CONTINUOUS
 10
87.2534575653
 20
94.3522115041
 11
87.5535856761
 21
94.3939316822
  0
LINE
  5
49C
100
AcDbEntity
  8
0
100
AcDbLine
 62
7
  6
CONTINUOUS
 10
87.5535856761
 20
94.3939316822
 11
88.2188697863
 21
94.4868696724
  0
LINE
  5
49D
100
AcDbEntity
  8
0
100
AcDbLine
 62
7
  6
CONTINUOUS
 10
88.2188697863
 20
94.4868696724
 11
88.5814444073
 21
94.537773643
  0
SPLINE
  5
49E
100
AcDbEntity
  8
0
100
AcDbSpline
 62
7
  6
CONTINUOUS
 70
0
 71
3
 72
9
 73
5
 74
0
 42
0.0000001
 43
0.0000001
 44
0.0000000001
 40
0.0
 40
0.0
 40
0.0
 40
0.0
 40
0.5363092788
 40
1.0
 40
1.0
 40
1.0
 40
1.0
 10
274.0113910787
 20
478.2643815066
 30
0.0
 10
274.0543629165
 20
478.2574711803
 30
0.0
 10
273.8502757911
 20
478.2838987746
 30
0.0
 10
273.8068858661
 20
478.2877214663
 30
0.0
 10
273.769485679
 20
478.2918793075
 30
0.0
  0
SPLINE
  5
49F
100
AcDbEntity
  8
0
100
AcDbSpline
 62
7
  6
CONTINUOUS
 70
0
 71
3
 72
9
 73
5
 74
0
 42
0.0000001
 43
0.0000001
 44
0.0000000001
 40
0.0
 40
0.0
 40
0.0
 40
0.0
 40
0.2754025051
 40
1.0
 40
1.0
 40
1.0
 40
1.0
 10
273.4484417631
 20
478.3154372136
 30
0.0
 10
273.5602039733
 20
478.3040980378
 30
0.0
 10
273.9646024133
 20
478.2638485585
 30
0.0
 10
274.3797434872
 20
478.2214710634
 30
0.0
 10
274.6704217204
 20
478.2749754697
 30
0.0
  0
SPLINE
  5
4A0
100
AcDbEntity
  8
0
100
AcDbSpline
 62
7
  6
CONTINUOUS
 70
0
 71
3
 72
10
 73
6
 74
0
 42
0.0000001
 43
0.0000001
 44
0.0000000001
 40
0.0
 40
0.0
 40
0.0
 40
0.0
 40
0.2065407912
 40
0.452899593
 40
1.0
 40
1.0
 40
1.0
 40
1.0
 10
117.7560806961
 20
79.8810468253
 30
0.0
 10
118.3005497626
 20
79.5284098668
 30
0.0
 10
119.6293387311
 20
78.972801132
 30
0.0
 10
122.6769679799
 20
78.2161752625
 30
0.0
 10
125.1793167367
 20
77.9618260436
 30
0.0
 10
126.8976157936
 20
77.9618260436
 30
0.0
  0
SPLINE
  5
4A1
100
AcDbEntity
  8
0
100
AcDbSpline
 62
7
  6
CONTINUOUS
 70
0
 71
3
 72
12
 73
8
 74
0
 42
0.0000001
 43
0.0000001
 44
0.0000000001
 40
0.0
 40
0.0
 40
0.0
 40
0.0
 40
0.0419863644
 40
0.1310947549
 40
0.3894914495
 40
0.697840226
 40
1.0
 40
1.0
 40
1.0
 40
1.0
 10
120.3436812149
 20
83.8762844346
 30
0.0
 10
120.4223590549
 20
83.82532706
 30
0.0
 10
120.6901576654
 20
83.7032485796
 30
0.0
 10
121.5060753839
 20
83.4036561565
 30
0.0
 10
122.9380543686
 20
83.0713573296
 30
0.0
 10
124.8592241683
 20
82.7973493564
 30
0.0
 10
126.223017646
 20
82.7218260436
 30
0.0
 10
126.8976157936
 20
82.7218260436
 30
0.0
  0
SPLINE
  5
4A2
100
AcDbEntity
  8
0
100
AcDbSpline
 62
7
  6
CONTINUOUS
 70
0
 71
3
 72
9
 73
5
 74
0
 42
0.0000001
 43
0.0000001
 44
0.0000000001
 40
0.0
 40
0.0
 40
0.0
 40
0.0
 40
0.4821753822
 40
1.0
 40
1.0
 40
1.0
 40
1.0
 10
99.941238681
 20
85.446605721
 30
0.0
 10
99.7836409501
 20
85.2400381465
 30
0.0
 10
99.3371957478
 20
84.8944945845
 30
0.0
 10
98.7888448088
 20
84.7934406686
 30
0.0
 10
98.5098136312
 20
84.7934406686
 30
0.0
  0
SPLINE
  5
4A3
100
AcDbEntity
  8
0
100
AcDbSpline
 62
7
  6
CONTINUOUS
 70
0
 71
3
 72
8
 73
4
 74
0
 42
0.0000001
 43
0.0000001
 44
0.0000000001
 40
0.0
 40
0.0
 40
0.0
 40
0.0
 40
1.0
 40
1.0
 40
1.0
 40
1.0
 10
437.4860644945
 20
475.2914633124
 30
0.0
 10
437.7331122913
 20
475.4210161607
 30
0.0
 10
438.0196375471
 20
475.4918260436
 30
0.0
 10
438.2985937343
 20
475.4918260436
 30
0.0
  0
SPLINE
  5
4A4
100
AcDbEntity
  8
0
100
AcDbSpline
 62
7
  6
CONTINUOUS
 70
0
 71
3
 72
10
 73
6
 74
0
 42
0.0000001
 43
0.0000001
 44
0.0000000001
 40
0.0
 40
0.0
 40
0.0
 40
0.0
 40
0.6115158454
 40
0.8422570276
 40
1.0
 40
1.0
 40
1.0
 40
1.0
 10
440.6207092753
 20
466.7418260436
 30
0.0
 10
440.6207092753
 20
468.1492956089
 30
0.0
 10
440.6042110603
 20
470.0884601895
 30
0.0
 10
440.5204379711
 20
472.3880437503
 30
0.0
 10
440.4669931233
 20
473.2815281491
 30
0.0
 10
440.4227321049
 20
473.6418825513
 30
0.0
  0
SPLINE
  5
4A5
100
AcDbEntity
  8
0
100
AcDbSpline
 62
7
  6
CONTINUOUS
 70
0
 71
3
 72
9
 73
5
 74
0
 42
0.0000001
 43
0.0000001
 44
0.0000000001
 40
0.0
 40
0.0
 40
0.0
 40
0.0
 40
0.1714972976
 40
1.0
 40
1.0
 40
1.0
 40
1.0
 10
440.4227321049
 20
473.6418825513
 30
0.0
 10
440.4142267481
 20
473.711129552
 30
0.0
 10
440.3607248144
 20
474.1130912733
 30
0.0
 10
440.2200937338
 20
474.5186788638
 30
0.0
 10
440.0168480533
 20
474.7875490186
 30
0.0
  0
SPLINE
  5
4A6
100
AcDbEntity
  8
0
100
AcDbSpline
 62
7
  6
CONTINUOUS
 70
0
 71
3
 72
9
 73
5
 74
0
 42
0.0000001
 43
0.0000001
 44
0.0000000001
 40
0.0
 40
0.0
 40
0.0
 40
0.0
 40
0.4939870838
 40
1.0
 40
1.0
 40
1.0
 40
1.0
 10
440.0168480533
 20
474.7875490186
 30
0.0
 10
439.856162525
 20
475.0001170926
 30
0.0
 10
439.4287328719
 20
475.3628912773
 30
0.0
 10
438.8810535472
 20
475.4918260436
 30
0.0
 10
438.6080988631
 20
475.4918260436
 30
0.0
  0
SPLINE
  5
4A7
100
AcDbEntity
  8
0
100
AcDbSpline
 62
7
  6
CONTINUOUS
 70
0
 71
3
 72
9
 73
5
 74
0
 42
0.0000001
 43
0.0000001
 44
0.0000000001
 40
0.0
 40
0.0
 40
0.0
 40
0.0
 40
0.5836501497
 40
1.0
 40
1.0
 40
1.0
 40
1.0
 10
437.1207092753
 20
466.7418260436
 30
0.0
 10
437.1207092753
 20
467.9084137223
 30
0.0
 10
437.0999487528
 20
469.9069041735
 30
0.0
 10
437.0458491594
 20
471.9058522308
 30
0.0
 10
436.9900715233
 20
472.7361722274
 30
0.0
  0
SPLINE
  5
4A8
100
AcDbEntity
  8
0
100
AcDbSpline
 62
7
  6
CONTINUOUS
 70
0
 71
3
 72
9
 73
5
 74
0
 42
0.0000001
 43
0.0000001
 44
0.0000000001
 40
0.0
 40
0.0
 40
0.0
 40
0.0
 40
0.4440134189
 40
1.0
 40
1.0
 40
1.0
 40
1.0
 10
440.44306105
 20
414.8377908805
 30
0.0
 10
440.5121946497
 20
416.2563905768
 30
0.0
 10
440.5942132174
 20
419.4546725688
 30
0.0
 10
440.6207092753
 20
422.6533344653
 30
0.0
 10
440.6207092753
 20
424.4317907079
 30
0.0
  0
SPLINE
  5
4A9
100
AcDbEntity
  8
0
100
AcDbSpline
 62
7
  6
CONTINUOUS
 70
0
 71
3
 72
9
 73
5
 74
0
 42
0.0000001
 43
0.0000001
 44
0.0000000001
 40
0.0
 40
0.0
 40
0.0
 40
0.0
 40
0.441588948
 40
1.0
 40
1.0
 40
1.0
 40
1.0
 10
436.9472098637
 20
415.0081566131
 30
0.0
 10
437.0147448665
 20
416.3939536063
 30
0.0
 10
437.094632535
 20
419.5354543326
 30
0.0
 10
437.1207092753
 20
422.677302184
 30
0.0
 10
437.1207092753
 20
424.4317907079
 30
0.0
  0
SPLINE
  5
4AA
100
AcDbEntity
  8
0
100
AcDbSpline
 62
7
  6
CONTINUOUS
 70
0
 71
3
 72
14
 73
10
 74
0
 42
0.0000001
 43
0.0000001
 44
0.0000000001
 40
0.0
 40
0.0
 40
0.0
 40
0.0
 40
0.0217617603
 40
0.0843099874
 40
0.1766507629
 40
0.2951417224
 40
0.4379345185
 40
0.6037362498
 40
1.0
 40
1.0
 40
1.0
 40
1.0
 10
436.3457618278
 20
408.0292965074
 30
0.0
 10
436.3294035569
 20
407.9811502133
 30
0.0
 10
436.4402950862
 20
408.4051071291
 30
0.0
 10
436.4468665569
 20
408.603519984
 30
0.0
 10
436.5574910002
 20
409.3425662132
 30
0.0
 10
436.6288007503
 20
410.123404966
 30
0.0
 10
436.7161086887
 20
411.1325262399
 30
0.0
 10
436.8298583307
 20
412.7690428404
 30
0.0
 10
436.9021395979
 20
414.0833289507
 30
0.0
 10
436.9472098637
 20
415.0081566131
 30
0.0
  0
SPLINE
  5
4AB
100
AcDbEntity
  8
0
100
AcDbSpline
 62
7
  6
CONTINUOUS
 70
0
 71
3
 72
9
 73
5
 74
0
 42
0.0000001
 43
0.0000001
 44
0.0000000001
 40
0.0
 40
0.0
 40
0.0
 40
0.0
 40
0.2870052826
 40
1.0
 40
1.0
 40
1.0
 40
1.0
 10
435.2537478622
 20
414.8377908805
 30
0.0
 10
435.2755547128
 20
414.3903211728
 30
0.0
 10
435.3564823038
 20
412.8315067738
 30
0.0
 10
435.4554195531
 20
411.2733500899
 30
0.0
 10
435.5510105015
 20
410.1645140744
 30
0.0
  0
SPLINE
  5
4AC
100
AcDbEntity
  8
0
100
AcDbSpline
 62
7
  6
CONTINUOUS
 70
0
 71
3
 72
13
 73
9
 74
0
 42
0.0000001
 43
0.0000001
 44
0.0000000001
 40
0.0
 40
0.0
 40
0.0
 40
0.0
 40
0.2552475222
 40
0.4493537887
 40
0.5301911709
 40
0.6154758293
 40
0.7545511252
 40
1.0
 40
1.0
 40
1.0
 40
1.0
 10
435.5510105015
 20
410.1645140744
 30
0.0
 10
435.592833421
 20
409.6793765144
 30
0.0
 10
435.6756369506
 20
408.8261684902
 30
0.0
 10
435.8125296212
 20
407.8231352879
 30
0.0
 10
435.9561367054
 20
407.1506340376
 30
0.0
 10
436.1339833396
 20
406.5945027628
 30
0.0
 10
436.614614775
 20
405.8173663097
 30
0.0
 10
437.3831144369
 20
405.487216914
 30
0.0
 10
437.8513279965
 20
405.4925593088
 30
0.0
  0
SPLINE
  5
4AD
100
AcDbEntity
  8
0
100
AcDbSpline
 62
7
  6
CONTINUOUS
 70
0
 71
3
 72
15
 73
11
 74
0
 42
0.0000001
 43
0.0000001
 44
0.0000000001
 40
0.0
 40
0.0
 40
0.0
 40
0.0
 40
0.1163075344
 40
0.1993927764
 40
0.2852303121
 40
0.3583697998
 40
0.4457733482
 40
0.5528688545
 40
0.6809915789
 40
1.0
 40
1.0
 40
1.0
 40
1.0
 10
437.8513279965
 20
405.4925593088
 30
0.0
 10
438.2129644949
 20
405.4966856416
 30
0.0
 10
438.8505373929
 20
405.6913967544
 30
0.0
 10
439.4671690491
 20
406.3637588159
 30
0.0
 10
439.7332649167
 20
407.0798298268
 30
0.0
 10
439.8819930156
 20
407.8310624037
 30
0.0
 10
439.9977042933
 20
408.6557457851
 30
0.0
 10
440.1033799908
 20
409.6533692795
 30
0.0
 10
440.2489341681
 20
411.3707133404
 30
0.0
 10
440.3336525156
 20
412.7586583654
 30
0.0
 10
440.3872037177
 20
413.7491733393
 30
0.0
  0
SPLINE
  5
4AE
100
AcDbEntity
  8
0
100
AcDbSpline
 62
7
  6
CONTINUOUS
 70
0
 71
3
 72
9
 73
5
 74
0
 42
0.0000001
 43
0.0000001
 44
0.0000000001
 40
0.0
 40
0.0
 40
0.0
 40
0.0
 40
0.5559867764
 40
1.0
 40
1.0
 40
1.0
 40
1.0
 10
435.0760996369
 20
424.4317907079
 30
0.0
 10
435.0760996369
 20
422.6533338404
 30
0.0
 10
435.1025957062
 20
419.4546719437
 30
0.0
 10
435.184614293
 20
416.2563899526
 30
0.0
 10
435.2537478622
 20
414.8377908805
 30
0.0
  0
SPLINE
  5
4AF
100
AcDbEntity
  8
0
100
AcDbSpline
 62
7
  6
CONTINUOUS
 70
0
 71
3
 72
9
 73
5
 74
0
 42
0.0000001
 43
0.0000001
 44
0.0000000001
 40
0.0
 40
0.0
 40
0.0
 40
0.0
 40
0.7104953891
 40
1.0
 40
1.0
 40
1.0
 40
1.0
 10
128.3227839091
 20
83.5917719873
 30
0.0
 10
128.3801981936
 20
83.5918733437
 30
0.0
 10
128.4609138143
 20
83.5564954237
 30
0.0
 10
128.5211437682
 20
83.5033341527
 30
0.0
 10
128.5378260042
 20
83.486932678
 30
0.0
  0
SPLINE
  5
4B0
100
AcDbEntity
  8
0
100
AcDbSpline
 62
7
  6
CONTINUOUS
 70
0
 71
3
 72
9
 73
5
 74
0
 42
0.0000001
 43
0.0000001
 44
0.0000000001
 40
0.0
 40
0.0
 40
0.0
 40
0.0
 40
0.1882882156
 40
1.0
 40
1.0
 40
1.0
 40
1.0
 10
128.5378260042
 20
83.486932678
 30
0.0
 10
128.5755844242
 20
83.4498097305
 30
0.0
 10
128.7489030999
 20
83.225623242
 30
0.0
 10
128.8413783925
 20
82.9520415658
 30
0.0
 10
128.9034952018
 20
82.7323833725
 30
0.0
  0
SPLINE
  5
4B1
100
AcDbEntity
  8
0
100
AcDbSpline
 62
7
  6
CONTINUOUS
 70
0
 71
3
 72
9
 73
5
 74
0
 42
0.0000001
 43
0.0000001
 44
0.0000000001
 40
0.0
 40
0.0
 40
0.0
 40
0.0
 40
0.2279359178
 40
1.0
 40
1.0
 40
1.0
 40
1.0
 10
128.9034952018
 20
82.7323833725
 30
0.0
 10
128.9219073434
 20
82.6672741404
 30
0.0
 10
128.9955549216
 20
82.3796142758
 30
0.0
 10
129.0437348967
 20
82.0858272113
 30
0.0
 10
129.0711373847
 20
81.8582848732
 30
0.0
  0
SPLINE
  5
4B2
100
AcDbEntity
  8
0
100
AcDbSpline
 62
7
  6
CONTINUOUS
 70
0
 71
3
 72
9
 73
5
 74
0
 42
0.0000001
 43
0.0000001
 44
0.0000000001
 40
0.0
 40
0.0
 40
0.0
 40
0.0
 40
0.5492956273
 40
1.0
 40
1.0
 40
1.0
 40
1.0
 10
129.0711373847
 20
81.8582848732
 30
0.0
 10
129.1435010555
 20
81.2573978727
 30
0.0
 10
129.1491254457
 20
80.1528363238
 30
0.0
 10
128.9712506265
 20
79.0443331319
 30
0.0
 10
128.7778042616
 20
78.5869621468
 30
0.0
  0
SPLINE
  5
4B3
100
AcDbEntity
  8
0
100
AcDbSpline
 62
7
  6
CONTINUOUS
 70
0
 71
3
 72
9
 73
5
 74
0
 42
0.0000001
 43
0.0000001
 44
0.0000000001
 40
0.0
 40
0.0
 40
0.0
 40
0.0
 40
0.279690528
 40
1.0
 40
1.0
 40
1.0
 40
1.0
 10
128.7778042616
 20
78.5869621468
 30
0.0
 10
128.7654703202
 20
78.5578006427
 30
0.0
 10
128.7192261699
 20
78.4545423648
 30
0.0
 10
128.6641341618
 20
78.3546390599
 30
0.0
 10
128.6161776179
 20
78.2886885948
 30
0.0
  0
SPLINE
  5
4B4
100
AcDbEntity
  8
0
100
AcDbSpline
 62
7
  6
CONTINUOUS
 70
0
 71
3
 72
9
 73
5
 74
0
 42
0.0000001
 43
0.0000001
 44
0.0000000001
 40
0.0
 40
0.0
 40
0.0
 40
0.0
 40
0.4104596263
 40
1.0
 40
1.0
 40
1.0
 40
1.0
 10
128.5359685105
 20
83.4997385118
 30
0.0
 10
128.4510542616
 20
83.4187920057
 30
0.0
 10
128.3066093964
 20
83.1625020898
 30
0.0
 10
128.2220728762
 20
82.8901615935
 30
0.0
 10
128.1806470012
 20
82.7268348246
 30
0.0
  0
SPLINE
  5
4B5
100
AcDbEntity
  8
0
100
AcDbSpline
 62
7
  6
CONTINUOUS
 70
0
 71
3
 72
11
 73
7
 74
0
 42
0.0000001
 43
0.0000001
 44
0.0000000001
 40
0.0
 40
0.0
 40
0.0
 40
0.0
 40
0.0849922428
 40
0.2948957491
 40
0.6123285193
 40
1.0
 40
1.0
 40
1.0
 40
1.0
 10
414.7302998081
 20
433.8418260436
 30
0.0
 10
414.7176939813
 20
433.8418260436
 30
0.0
 10
414.7037098308
 20
433.7830206107
 30
0.0
 10
414.6886308146
 20
433.7076187204
 30
0.0
 10
414.6773408624
 20
433.5650411189
 30
0.0
 10
414.6736915757
 20
433.4626088986
 30
0.0
 10
414.6728254207
 20
433.4051170048
 30
0.0
  0
SPLINE
  5
4B6
100
AcDbEntity
  8
0
100
AcDbSpline
 62
7
  6
CONTINUOUS
 70
0
 71
3
 72
9
 73
5
 74
0
 42
0.0000001
 43
0.0000001
 44
0.0000000001
 40
0.0
 40
0.0
 40
0.0
 40
0.0
 40
0.162877598
 40
1.0
 40
1.0
 40
1.0
 40
1.0
 10
130.3906279905
 20
83.8418261224
 30
0.0
 10
130.4115903515
 20
83.8418216636
 30
0.0
 10
130.5373471623
 20
83.89608594
 30
0.0
 10
130.5744932941
 20
84.0430682239
 30
0.0
 10
130.6022765997
 20
84.1471619607
 30
0.0
  0
SPLINE
  5
4B7
100
AcDbEntity
  8
0
100
AcDbSpline
 62
7
  6
CONTINUOUS
 70
0
 71
3
 72
8
 73
4
 74
0
 42
0.0000001
 43
0.0000001
 44
0.0000000001
 40
0.0
 40
0.0
 40
0.0
 40
0.0
 40
1.0
 40
1.0
 40
1.0
 40
1.0
 10
130.6022765997
 20
84.1471619607
 30
0.0
 10
130.6279047176
 20
84.2431810091
 30
0.0
 10
130.6428461239
 20
84.342199377
 30
0.0
 10
130.6516172584
 20
84.4411919286
 30
0.0
  0
SPLINE
  5
4B8
100
AcDbEntity
  8
0
100
AcDbSpline
 62
7
  6
CONTINUOUS
 70
0
 71
3
 72
8
 73
4
 74
0
 42
0.0000001
 43
0.0000001
 44
0.0000000001
 40
0.0
 40
0.0
 40
0.0
 40
0.0
 40
1.0
 40
1.0
 40
1.0
 40
1.0
 10
130.5985076987
 20
84.147163321
 30
0.0
 10
130.5735665327
 20
84.2431015239
 30
0.0
 10
130.5591356977
 20
84.3419054025
 30
0.0
 10
130.5506494595
 20
84.4406686764
 30
0.0
  0
SPLINE
  5
4B9
100
AcDbEntity
  8
0
100
AcDbSpline
 62
7
  6
CONTINUOUS
 70
0
 71
3
 72
9
 73
5
 74
0
 42
0.0000001
 43
0.0000001
 44
0.0000000001
 40
0.0
 40
0.0
 40
0.0
 40
0.0
 40
0.6165680464
 40
1.0
 40
1.0
 40
1.0
 40
1.0
 10
413.016976697
 20
477.8696859094
 30
0.0
 10
413.0029082867
 20
478.0153695218
 30
0.0
 10
413.0328462771
 20
478.2708341244
 30
0.0
 10
413.253645982
 20
478.4418260436
 30
0.0
 10
413.3446653042
 20
478.4418260436
 30
0.0
  0
SPLINE
  5
4BA
100
AcDbEntity
  8
0
100
AcDbSpline
 62
7
  6
CONTINUOUS
 70
0
 71
3
 72
11
 73
7
 74
0
 42
0.0000001
 43
0.0000001
 44
0.0000000001
 40
0.0
 40
0.0
 40
0.0
 40
0.0
 40
0.3973709625
 40
0.7160363187
 40
0.9206353101
 40
1.0
 40
1.0
 40
1.0
 40
1.0
 10
415.2173679555
 20
410.725405641
 30
0.0
 10
415.2201654721
 20
410.5527695819
 30
0.0
 10
415.2320444342
 20
410.2488135687
 30
0.0
 10
415.2619816499
 20
409.8262494554
 30
0.0
 10
415.3067545328
 20
409.6122662097
 30
0.0
 10
415.3383063792
 20
409.4418260436
 30
0.0
 10
415.3727905448
 20
409.4418260436
 30
0.0
  0
LINE
  5
4BB
100
AcDbEntity
  8
0
100
AcDbLine
 62
7
  6
CONTINUOUS
 10
434.6545321242
 20
449.4549054711
 11
434.8575014859
 21
449.5619643337
  0
LINE
  5
4BC
100
AcDbEntity
  8
0
100
AcDbLine
 62
7
  6
CONTINUOUS
 10
434.8575014859
 20
449.5619643337
 11
437.1206871572
 21
450.7530874028
  0
LINE
  5
4BD
100
AcDbEntity
  8
0
100
AcDbLine
 62
7
  6
CONTINUOUS
 10
440.6206468884
 20
452.5855711643
 11
441.49257471
 21
453.0402668337
  0
SPLINE
  5
4BE
100
AcDbEntity
  8
0
100
AcDbSpline
 62
7
  6
CONTINUOUS
 70
0
 71
3
 72
8
 73
4
 74
0
 42
0.0000001
 43
0.0000001
 44
0.0000000001
 40
0.0
 40
0.0
 40
0.0
 40
0.0
 40
1.0
 40
1.0
 40
1.0
 40
1.0
 10
443.2300866858
 20
454.8555017301
 30
0.0
 10
443.2301896576
 20
454.5534557528
 30
0.0
 10
443.1306084019
 20
454.238572267
 30
0.0
 10
442.9567691792
 20
453.991566786
 30
0.0
  0
SPLINE
  5
4BF
100
AcDbEntity
  8
0
100
AcDbSpline
 62
7
  6
CONTINUOUS
 70
0
 71
3
 72
8
 73
4
 74
0
 42
0.0000001
 43
0.0000001
 44
0.0000000001
 40
0.0
 40
0.0
 40
0.0
 40
0.0
 40
1.0
 40
1.0
 40
1.0
 40
1.0
 10
442.9567691791
 20
453.9915667859
 30
0.0
 10
442.8882353021
 20
453.8941880529
 30
0.0
 10
442.8070471791
 20
453.8047673794
 30
0.0
 10
442.7173973812
 20
453.7263937633
 30
0.0
  0
SPLINE
  5
4C0
100
AcDbEntity
  8
0
100
AcDbSpline
 62
7
  6
CONTINUOUS
 70
0
 71
3
 72
9
 73
5
 74
0
 42
0.0000001
 43
0.0000001
 44
0.0000000001
 40
0.0
 40
0.0
 40
0.0
 40
0.0
 40
0.3349673318
 40
1.0
 40
1.0
 40
1.0
 40
1.0
 10
415.2165544937
 20
477.8696859094
 30
0.0
 10
415.2107862475
 20
477.938494048
 30
0.0
 10
415.2161259476
 20
478.1380228771
 30
0.0
 10
415.3091518154
 20
478.3779057097
 30
0.0
 10
415.4363574589
 20
478.429013255
 30
0.0
  0
SPLINE
  5
4C1
100
AcDbEntity
  8
0
100
AcDbSpline
 62
7
  6
CONTINUOUS
 70
0
 71
3
 72
9
 73
5
 74
0
 42
0.0000001
 43
0.0000001
 44
0.0000000001
 40
0.0
 40
0.0
 40
0.0
 40
0.0
 40
0.508292772
 40
1.0
 40
1.0
 40
1.0
 40
1.0
 10
415.4363574589
 20
478.429013255
 30
0.0
 10
415.4467692609
 20
478.4331964156
 30
0.0
 10
415.4680387945
 20
478.4396294248
 30
0.0
 10
415.4901663243
 20
478.4418260436
 30
0.0
 10
415.5010209088
 20
478.4418260436
 30
0.0
  0
SPLINE
  5
4C2
100
AcDbEntity
  8
0
100
AcDbSpline
 62
7
  6
CONTINUOUS
 70
0
 71
3
 72
8
 73
4
 74
0
 42
0.0000001
 43
0.0000001
 44
0.0000000001
 40
0.0
 40
0.0
 40
0.0
 40
0.0
 40
1.0
 40
1.0
 40
1.0
 40
1.0
 10
413.9648458522
 20
467.5248079081
 30
0.0
 10
413.9628891114
 20
468.9697029746
 30
0.0
 10
413.9090921435
 20
470.4140915129
 30
0.0
 10
413.8700641387
 20
471.8584607167
 30
0.0
  0
LINE
  5
4C3
100
AcDbEntity
  8
0
100
AcDbLine
 62
7
  6
CONTINUOUS
 10
413.8700641387
 20
471.8584607167
 11
413.8406719749
 21
472.9418260436
  0
SPLINE
  5
4C4
100
AcDbEntity
  8
0
100
AcDbSpline
 62
7
  6
CONTINUOUS
 70
0
 71
3
 72
11
 73
7
 74
0
 42
0.0000001
 43
0.0000001
 44
0.0000000001
 40
0.0
 40
0.0
 40
0.0
 40
0.0
 40
0.2599141306
 40
0.5289566479
 40
0.7782621822
 40
1.0
 40
1.0
 40
1.0
 40
1.0
 10
98.5098136312
 20
84.7934406686
 30
0.0
 10
98.0707149124
 20
84.7934406686
 30
0.0
 10
97.1696236785
 20
85.0577375803
 30
0.0
 10
96.1707643348
 20
85.973495735
 30
0.0
 10
95.7001194101
 20
87.197779308
 30
0.0
 10
95.9310996144
 20
88.0377151248
 30
0.0
 10
96.1583198136
 20
88.3355387364
 30
0.0
  0
SPLINE
  5
4C5
100
AcDbEntity
  8
0
100
AcDbSpline
 62
7
  6
CONTINUOUS
 70
0
 71
3
 72
14
 73
10
 74
0
 42
0.0000001
 43
0.0000001
 44
0.0000000001
 40
0.0
 40
0.0
 40
0.0
 40
0.0
 40
0.3847893774
 40
0.5575466459
 40
0.7083726966
 40
0.831901664
 40
0.9238041004
 40
0.9804171476
 40
1.0
 40
1.0
 40
1.0
 40
1.0
 10
432.9823268901
 20
494.3861453103
 30
0.0
 10
433.1461148724
 20
494.329708856
 30
0.0
 10
433.3835452122
 20
494.2475508693
 30
0.0
 10
433.6837267168
 20
494.1414478493
 30
0.0
 10
433.8750045011
 20
494.0747575577
 30
0.0
 10
434.0256794453
 20
494.016816235
 30
0.0
 10
434.1512166457
 20
493.9792574766
 30
0.0
 10
434.2025790548
 20
493.9434428271
 30
0.0
 10
434.2547737885
 20
493.9394128604
 30
0.0
 10
434.2536162388
 20
493.9306726583
 30
0.0
  0
SPLINE
  5
4C6
100
AcDbEntity
  8
0
100
AcDbSpline
 62
7
  6
CONTINUOUS
 70
0
 71
3
 72
11
 73
7
 74
0
 42
0.0000001
 43
0.0000001
 44
0.0000000001
 40
0.0
 40
0.0
 40
0.0
 40
0.0
 40
0.0867588299
 40
0.3072059017
 40
0.6278573616
 40
1.0
 40
1.0
 40
1.0
 40
1.0
 10
427.6386312618
 20
496.2093259334
 30
0.0
 10
427.6805360737
 20
496.2093259334
 30
0.0
 10
427.8199033292
 20
496.1439373934
 30
0.0
 10
428.1100007672
 20
496.0673229082
 30
0.0
 10
428.5271247421
 20
495.9179485966
 30
0.0
 10
428.84400606
 20
495.8120872571
 30
0.0
 10
429.0139467082
 20
495.7535307776
 30
0.0
  0
SPLINE
  5
4C7
100
AcDbEntity
  8
0
100
AcDbSpline
 62
7
  6
CONTINUOUS
 70
0
 71
3
 72
8
 73
4
 74
0
 42
0.0000001
 43
0.0000001
 44
0.0000000001
 40
0.0
 40
0.0
 40
0.0
 40
0.0
 40
1.0
 40
1.0
 40
1.0
 40
1.0
 10
443.3629396788
 20
489.3718864417
 30
0.0
 10
443.3629396788
 20
489.6767530392
 30
0.0
 10
443.2613175222
 20
489.9947753743
 30
0.0
 10
443.0843562548
 20
490.2430259575
 30
0.0
  0
SPLINE
  5
4C8
100
AcDbEntity
  8
0
100
AcDbSpline
 62
7
  6
CONTINUOUS
 70
0
 71
3
 72
8
 73
4
 74
0
 42
0.0000001
 43
0.0000001
 44
0.0000000001
 40
0.0
 40
0.0
 40
0.0
 40
0.0
 40
1.0
 40
1.0
 40
1.0
 40
1.0
 10
443.0843562548
 20
490.2430259575
 30
0.0
 10
442.9653397514
 20
490.4099885749
 30
0.0
 10
442.8079273214
 20
490.5545941748
 30
0.0
 10
442.6319102383
 20
490.659758
 30
0.0
  0
SPLINE
  5
4C9
100
AcDbEntity
  8
0
100
AcDbSpline
 62
7
  6
CONTINUOUS
 70
0
 71
3
 72
9
 73
5
 74
0
 42
0.0000001
 43
0.0000001
 44
0.0000000001
 40
0.0
 40
0.0
 40
0.0
 40
0.0
 40
0.2636650656
 40
1.0
 40
1.0
 40
1.0
 40
1.0
 10
122.5956563327
 20
99.8811689368
 30
0.0
 10
122.5221021034
 20
99.9327395562
 30
0.0
 10
122.2193058825
 20
100.0941139019
 30
0.0
 10
121.8590870265
 20
100.1291457543
 30
0.0
 10
121.6106553258
 20
100.0942363121
 30
0.0
  0
LINE
  5
4CA
100
AcDbEntity
  8
0
100
AcDbLine
 62
7
  6
CONTINUOUS
 10
96.4046653198
 20
88.9280633072
 11
95.9424729837
 21
88.8633526907
  0
LINE
  5
4CB
100
AcDbEntity
  8
0
100
AcDbLine
 62
7
  6
CONTINUOUS
 10
95.9424729837
 20
88.8633526907
 11
95.5260485456
 21
88.8055716918
  0
LINE
  5
4CC
100
AcDbEntity
  8
0
100
AcDbLine
 62
7
  6
CONTINUOUS
 10
95.5260485456
 20
88.8055716918
 11
95.1456741527
 21
88.7533374354
  0
SPLINE
  5
4CD
100
AcDbEntity
  8
0
100
AcDbSpline
 62
7
  6
CONTINUOUS
 70
0
 71
3
 72
13
 73
9
 74
0
 42
0.0000001
 43
0.0000001
 44
0.0000000001
 40
0.0
 40
0.0
 40
0.0
 40
0.0
 40
0.4194661367
 40
0.7361000771
 40
0.8506526468
 40
0.9335058205
 40
0.9833648529
 40
1.0
 40
1.0
 40
1.0
 40
1.0
 10
95.1456741527
 20
88.7533374354
 30
0.0
 10
95.0344179175
 20
88.738154737
 30
0.0
 10
94.8399878518
 20
88.7125131326
 30
0.0
 10
94.6118558067
 20
88.6800523317
 30
0.0
 10
94.4786732426
 20
88.6658268222
 30
0.0
 10
94.4074178274
 20
88.6520641406
 30
0.0
 10
94.3775888902
 20
88.6574961264
 30
0.0
 10
94.3496019488
 20
88.6455098734
 30
0.0
 10
94.3493413549
 20
88.6499553254
 30
0.0
  0
SPLINE
  5
4CE
100
AcDbEntity
  8
0
100
AcDbSpline
 62
7
  6
CONTINUOUS
 70
0
 71
3
 72
16
 73
12
 74
0
 42
0.0000001
 43
0.0000001
 44
0.0000000001
 40
0.0
 40
0.0
 40
0.0
 40
0.0
 40
0.3800022186
 40
0.5532051314
 40
0.7052284296
 40
0.8302049458
 40
0.9233172095
 40
0.9567223846
 40
0.9807469993
 40
0.99518274
 40
1.0
 40
1.0
 40
1.0
 40
1.0
 10
98.6556117107
 20
88.9280633072
 30
0.0
 10
98.3954466308
 20
88.891473732
 30
0.0
 10
98.0165962923
 20
88.8385289849
 30
0.0
 10
97.5337072602
 20
88.7720722425
 30
0.0
 10
97.225005887
 20
88.7297184285
 30
0.0
 10
96.9722223734
 20
88.6964409241
 30
0.0
 10
96.798029643
 20
88.6719958221
 30
0.0
 10
96.697267331
 20
88.6613679155
 30
0.0
 10
96.6437627881
 20
88.6513003556
 30
0.0
 10
96.6214247242
 20
88.6552619963
 30
0.0
 10
96.6004826493
 20
88.6466304819
 30
0.0
 10
96.6002877459
 20
88.6499553254
 30
0.0
  0
SPLINE
  5
4CF
100
AcDbEntity
  8
0
100
AcDbSpline
 62
7
  6
CONTINUOUS
 70
0
 71
3
 72
8
 73
4
 74
0
 42
0.0000001
 43
0.0000001
 44
0.0000000001
 40
0.0
 40
0.0
 40
0.0
 40
0.0
 40
1.0
 40
1.0
 40
1.0
 40
1.0
 10
277.8021914333
 20
477.9313745383
 30
0.0
 10
277.8019809446
 20
477.8681901739
 30
0.0
 10
277.8049621615
 20
477.8048687189
 30
0.0
 10
277.8007278619
 20
477.7418260436
 30
0.0
  0
SPLINE
  5
4D0
100
AcDbEntity
  8
0
100
AcDbSpline
 62
7
  6
CONTINUOUS
 70
0
 71
3
 72
11
 73
7
 74
0
 42
0.0000001
 43
0.0000001
 44
0.0000000001
 40
0.0
 40
0.0
 40
0.0
 40
0.0
 40
0.3852299186
 40
0.7015802396
 40
0.9087697739
 40
1.0
 40
1.0
 40
1.0
 40
1.0
 10
414.1583214706
 20
497.4418260436
 30
0.0
 10
414.1583214706
 20
497.6410298152
 30
0.0
 10
414.1691158489
 20
497.999378307
 30
0.0
 10
414.2281761341
 20
498.4827117709
 30
0.0
 10
414.287104034
 20
498.7622876597
 30
0.0
 10
414.3726104718
 20
498.9418260436
 30
0.0
 10
414.4197859487
 20
498.9418260436
 30
0.0
  0
SPLINE
  5
4D1
100
AcDbEntity
  8
0
100
AcDbSpline
 62
7
  6
CONTINUOUS
 70
0
 71
3
 72
10
 73
6
 74
0
 42
0.0000001
 43
0.0000001
 44
0.0000000001
 40
0.0
 40
0.0
 40
0.0
 40
0.0
 40
0.6259345342
 40
0.8547509854
 40
1.0
 40
1.0
 40
1.0
 40
1.0
 10
418.7767384021
 20
497.4418260436
 30
0.0
 10
418.7767384021
 20
497.7602949161
 30
0.0
 10
418.7471338808
 20
498.2016333833
 30
0.0
 10
418.6170146034
 20
498.6886743657
 30
0.0
 10
418.5260308755
 20
498.8674389213
 30
0.0
 10
418.4676931568
 20
498.912805125
 30
0.0
  0
SPLINE
  5
4D2
100
AcDbEntity
  8
0
100
AcDbSpline
 62
7
  6
CONTINUOUS
 70
0
 71
3
 72
8
 73
4
 74
0
 42
0.0000001
 43
0.0000001
 44
0.0000000001
 40
0.0
 40
0.0
 40
0.0
 40
0.0
 40
1.0
 40
1.0
 40
1.0
 40
1.0
 10
418.4676931568
 20
498.912805125
 30
0.0
 10
418.4465585956
 20
498.9292403718
 30
0.0
 10
418.4195736495
 20
498.9418260436
 30
0.0
 10
418.3928007711
 20
498.9418260436
 30
0.0
  0
SPLINE
  5
4D3
100
AcDbEntity
  8
0
100
AcDbSpline
 62
7
  6
CONTINUOUS
 70
0
 71
3
 72
9
 73
5
 74
0
 42
0.0000001
 43
0.0000001
 44
0.0000000001
 40
0.0
 40
0.0
 40
0.0
 40
0.0
 40
0.3326098654
 40
1.0
 40
1.0
 40
1.0
 40
1.0
 10
129.2986814029
 20
102.8418260436
 30
0.0
 10
129.2249807541
 20
102.8418260436
 30
0.0
 10
129.0938905953
 20
102.5854751496
 30
0.0
 10
129.074095845
 20
102.3906150665
 30
0.0
 10
129.0624722253
 20
102.2431903636
 30
0.0
  0
SPLINE
  5
4D4
100
AcDbEntity
  8
0
100
AcDbSpline
 62
7
  6
CONTINUOUS
 70
0
 71
3
 72
8
 73
4
 74
0
 42
0.0000001
 43
0.0000001
 44
0.0000000001
 40
0.0
 40
0.0
 40
0.0
 40
0.0
 40
1.0
 40
1.0
 40
1.0
 40
1.0
 10
419.8385688934
 20
478.9418260436
 30
0.0
 10
420.3106624536
 20
478.9418260436
 30
0.0
 10
420.8093874579
 20
478.7526561845
 30
0.0
 10
421.1628552799
 20
478.4397139719
 30
0.0
  0
SPLINE
  5
4D5
100
AcDbEntity
  8
0
100
AcDbSpline
 62
7
  6
CONTINUOUS
 70
0
 71
3
 72
8
 73
4
 74
0
 42
0.0000001
 43
0.0000001
 44
0.0000000001
 40
0.0
 40
0.0
 40
0.0
 40
0.0
 40
1.0
 40
1.0
 40
1.0
 40
1.0
 10
415.5291064034
 20
474.2719723128
 30
0.0
 10
415.2713179035
 20
474.6713137343
 30
0.0
 10
414.825815465
 20
474.9848138906
 30
0.0
 10
414.3628443954
 20
475.0924534297
 30
0.0
  0
SPLINE
  5
4D6
100
AcDbEntity
  8
0
100
AcDbSpline
 62
7
  6
CONTINUOUS
 70
0
 71
3
 72
8
 73
4
 74
0
 42
0.0000001
 43
0.0000001
 44
0.0000000001
 40
0.0
 40
0.0
 40
0.0
 40
0.0
 40
1.0
 40
1.0
 40
1.0
 40
1.0
 10
426.8830532845
 20
478.9418260436
 30
0.0
 10
427.351410588
 20
478.9418260436
 30
0.0
 10
427.8459554845
 20
478.7561788499
 30
0.0
 10
428.19837204
 20
478.4476968647
 30
0.0
  0
SPLINE
  5
4D7
100
AcDbEntity
  8
0
100
AcDbSpline
 62
7
  6
CONTINUOUS
 70
0
 71
3
 72
9
 73
5
 74
0
 42
0.0000001
 43
0.0000001
 44
0.0000000001
 40
0.0
 40
0.0
 40
0.0
 40
0.0
 40
0.330911879
 40
1.0
 40
1.0
 40
1.0
 40
1.0
 10
442.3563665744
 20
490.7887714641
 30
0.0
 10
442.4275189676
 20
490.7639631283
 30
0.0
 10
442.4887511974
 20
490.4834413039
 30
0.0
 10
442.4582935039
 20
490.2809193122
 30
0.0
 10
442.4350424093
 20
490.130343132
 30
0.0
  0
SPLINE
  5
4D8
100
AcDbEntity
  8
0
100
AcDbSpline
 62
7
  6
CONTINUOUS
 70
0
 71
3
 72
9
 73
5
 74
0
 42
0.0000001
 43
0.0000001
 44
0.0000000001
 40
0.0
 40
0.0
 40
0.0
 40
0.0
 40
0.2326037831
 40
1.0
 40
1.0
 40
1.0
 40
1.0
 10
442.4350424093
 20
490.130343132
 30
0.0
 10
442.4290647335
 20
490.0916311659
 30
0.0
 10
442.4004185734
 20
489.9256595302
 30
0.0
 10
442.3613215043
 20
489.761590237
 30
0.0
 10
442.3272323506
 20
489.6369369346
 30
0.0
  0
SPLINE
  5
4D9
100
AcDbEntity
  8
0
100
AcDbSpline
 62
7
  6
CONTINUOUS
 70
0
 71
3
 72
8
 73
4
 74
0
 42
0.0000001
 43
0.0000001
 44
0.0000000001
 40
0.0
 40
0.0
 40
0.0
 40
0.0
 40
1.0
 40
1.0
 40
1.0
 40
1.0
 10
438.6080988631
 20
475.4918260436
 30
0.0
 10
438.223017604
 20
475.4918260436
 30
0.0
 10
437.8187307487
 20
475.350247828
 30
0.0
 10
437.5177748712
 20
475.1100122438
 30
0.0
  0
SPLINE
  5
4DA
100
AcDbEntity
  8
0
100
AcDbSpline
 62
7
  6
CONTINUOUS
 70
0
 71
3
 72
8
 73
4
 74
0
 42
0.0000001
 43
0.0000001
 44
0.0000000001
 40
0.0
 40
0.0
 40
0.0
 40
0.0
 40
1.0
 40
1.0
 40
1.0
 40
1.0
 10
437.2408569364
 20
474.8329331968
 30
0.0
 10
437.0008832791
 20
474.5315157386
 30
0.0
 10
436.8594860632
 20
474.1271049559
 30
0.0
 10
436.8594860632
 20
473.7418260436
 30
0.0
  0
SPLINE
  5
4DB
100
AcDbEntity
  8
0
100
AcDbSpline
 62
7
  6
CONTINUOUS
 70
0
 71
3
 72
8
 73
4
 74
0
 42
0.0000001
 43
0.0000001
 44
0.0000000001
 40
0.0
 40
0.0
 40
0.0
 40
0.0
 40
1.0
 40
1.0
 40
1.0
 40
1.0
 10
436.8594860632
 20
473.7418260436
 30
0.0
 10
436.8594860632
 20
473.5668646241
 30
0.0
 10
436.88607683
 20
473.3899120299
 30
0.0
 10
436.9380903907
 20
473.2228608766
 30
0.0
  0
SPLINE
  5
4DC
100
AcDbEntity
  8
0
100
AcDbSpline
 62
7
  6
CONTINUOUS
 70
0
 71
3
 72
8
 73
4
 74
0
 42
0.0000001
 43
0.0000001
 44
0.0000000001
 40
0.0
 40
0.0
 40
0.0
 40
0.0
 40
1.0
 40
1.0
 40
1.0
 40
1.0
 10
436.9380903907
 20
473.2228608766
 30
0.0
 10
437.0764397595
 20
472.7785263363
 30
0.0
 10
437.4299132016
 20
472.3667676873
 30
0.0
 10
437.8493368373
 20
472.1651305247
 30
0.0
  0
SPLINE
  5
4DD
100
AcDbEntity
  8
0
100
AcDbSpline
 62
7
  6
CONTINUOUS
 70
0
 71
3
 72
10
 73
6
 74
0
 42
0.0000001
 43
0.0000001
 44
0.0000000001
 40
0.0
 40
0.0
 40
0.0
 40
0.0
 40
0.6713579754
 40
0.885935545
 40
1.0
 40
1.0
 40
1.0
 40
1.0
 10
419.2606246461
 20
497.360103907
 30
0.0
 10
419.3620251064
 20
497.6723562497
 30
0.0
 10
419.4643448607
 20
498.108623508
 30
0.0
 10
419.4908265902
 20
498.5785512106
 30
0.0
 10
419.4217604301
 20
498.7585760476
 30
0.0
 10
419.369102415
 20
498.7769732049
 30
0.0
  0
SPLINE
  5
4DE
100
AcDbEntity
  8
0
100
AcDbSpline
 62
7
  6
CONTINUOUS
 70
0
 71
3
 72
8
 73
4
 74
0
 42
0.0000001
 43
0.0000001
 44
0.0000000001
 40
0.0
 40
0.0
 40
0.0
 40
0.0
 40
1.0
 40
1.0
 40
1.0
 40
1.0
 10
418.776751943
 20
497.4418260436
 30
0.0
 10
418.9403270319
 20
497.4418638483
 30
0.0
 10
419.1061001519
 20
497.4137601448
 30
0.0
 10
419.2606246461
 20
497.360103907
 30
0.0
  0
SPLINE
  5
4DF
100
AcDbEntity
  8
0
100
AcDbSpline
 62
7
  6
CONTINUOUS
 70
0
 71
3
 72
10
 73
6
 74
0
 42
0.0000001
 43
0.0000001
 44
0.0000000001
 40
0.0
 40
0.0
 40
0.0
 40
0.0
 40
0.2236456962
 40
0.4652973036
 40
1.0
 40
1.0
 40
1.0
 40
1.0
 10
436.9473398091
 20
415.0081503267
 30
0.0
 10
436.9382258685
 20
414.818927808
 30
0.0
 10
437.0284373816
 20
414.4144791069
 30
0.0
 10
437.5867478419
 20
413.7482570337
 30
0.0
 10
438.2822569506
 20
413.5362712733
 30
0.0
 10
438.7351835447
 20
413.5362712733
 30
0.0
  0
LINE
  5
4E0
100
AcDbEntity
  8
0
100
AcDbLine
 62
7
  6
CONTINUOUS
 10
85.6589831357
 20
95.0378863405
 11
85.3970331158
 21
95.0006341329
  0
LINE
  5
4E1
100
AcDbEntity
  8
0
100
AcDbLine
 62
7
  6
CONTINUOUS
 10
85.3907906552
 20
94.9997419692
 11
85.1892023387
 21
94.9707962371
  0
LINE
  5
4E2
100
AcDbEntity
  8
0
100
AcDbLine
 62
7
  6
CONTINUOUS
 10
85.1892023387
 20
94.9707962371
 11
85.0095179862
 21
94.9447125031
  0
SPLINE
  5
4E3
100
AcDbEntity
  8
0
100
AcDbSpline
 62
7
  6
CONTINUOUS
 70
0
 71
3
 72
9
 73
5
 74
0
 42
0.0000001
 43
0.0000001
 44
0.0000000001
 40
0.0
 40
0.0
 40
0.0
 40
0.0
 40
0.3460057687
 40
1.0
 40
1.0
 40
1.0
 40
1.0
 10
84.8640767286
 20
94.9232688035
 30
0.0
 10
84.8447179498
 20
94.9203832104
 30
0.0
 10
84.7887860919
 20
94.911938084
 30
0.0
 10
84.7328253248
 20
94.9036215912
 30
0.0
 10
84.6963688543
 20
94.897333571
 30
0.0
  0
SPLINE
  5
4E4
100
AcDbEntity
  8
0
100
AcDbSpline
 62
7
  6
CONTINUOUS
 70
0
 71
3
 72
9
 73
5
 74
0
 42
0.0000001
 43
0.0000001
 44
0.0000000001
 40
0.0
 40
0.0
 40
0.0
 40
0.0
 40
0.1932022861
 40
1.0
 40
1.0
 40
1.0
 40
1.0
 10
415.6368593352
 20
74.0573933869
 30
0.0
 10
415.6356742509
 20
74.0802607938
 30
0.0
 10
415.63031367
 20
74.1986603358
 30
0.0
 10
415.6269137867
 20
74.3171390982
 30
0.0
 10
415.6245335925
 20
74.4127301298
 30
0.0
  0
SPLINE
  5
4E5
100
AcDbEntity
  8
0
100
AcDbSpline
 62
7
  6
CONTINUOUS
 70
0
 71
3
 72
9
 73
5
 74
0
 42
0.0000001
 43
0.0000001
 44
0.0000000001
 40
0.0
 40
0.0
 40
0.0
 40
0.0
 40
0.6379513561
 40
1.0
 40
1.0
 40
1.0
 40
1.0
 10
433.3142970841
 20
450.0219347834
 30
0.0
 10
433.5879199784
 20
449.8964981801
 30
0.0
 10
434.0195860729
 20
449.7071691965
 30
0.0
 10
434.448780568
 20
449.5085555443
 30
0.0
 10
434.6104305086
 20
449.4533229475
 30
0.0
  0
LINE
  5
4E6
100
AcDbEntity
  8
0
100
AcDbLine
 62
7
  6
CONTINUOUS
 10
442.1110630717
 20
454.6390813305
 11
441.897932183
 21
454.5282256722
  0
LINE
  5
4E7
100
AcDbEntity
  8
0
100
AcDbLine
 62
7
  6
CONTINUOUS
 10
441.897932183
 20
454.5282256722
 11
440.6206963656
 21
453.8628220102
  0
LINE
  5
4E8
100
AcDbEntity
  8
0
100
AcDbLine
 62
7
  6
CONTINUOUS
 10
437.1206018335
 20
452.0300702663
 11
436.2606712934
 21
451.5777374703
  0
LINE
  5
4E9
100
AcDbEntity
  8
0
100
AcDbLine
 62
7
  6
CONTINUOUS
 10
436.2606712934
 20
451.5777374703
 11
434.7892545655
 21
450.8019185293
  0
LINE
  5
4EA
100
AcDbEntity
  8
0
100
AcDbLine
 62
7
  6
CONTINUOUS
 10
434.7892545655
 20
450.8019185293
 11
433.3142970282
 21
450.0219346674
  0
SPLINE
  5
4EB
100
AcDbEntity
  8
0
100
AcDbSpline
 62
7
  6
CONTINUOUS
 70
0
 71
3
 72
8
 73
4
 74
0
 42
0.0000001
 43
0.0000001
 44
0.0000000001
 40
0.0
 40
0.0
 40
0.0
 40
0.0
 40
1.0
 40
1.0
 40
1.0
 40
1.0
 10
434.6104304238
 20
449.4533229619
 30
0.0
 10
434.3832664797
 20
449.3235196176
 30
0.0
 10
434.1987436404
 20
449.0835436795
 30
0.0
 10
434.1330327248
 20
448.8302958931
 30
0.0
  0
SPLINE
  5
4EC
100
AcDbEntity
  8
0
100
AcDbSpline
 62
7
  6
CONTINUOUS
 70
0
 71
3
 72
9
 73
5
 74
0
 42
0.0000001
 43
0.0000001
 44
0.0000000001
 40
0.0
 40
0.0
 40
0.0
 40
0.0
 40
0.5418541432
 40
1.0
 40
1.0
 40
1.0
 40
1.0
 10
434.6545421757
 20
449.4549108056
 30
0.0
 10
434.646815494
 20
449.4525866739
 30
0.0
 10
434.6320930898
 20
449.4495074997
 30
0.0
 10
434.6168860033
 20
449.4511170149
 30
0.0
 10
434.6104303032
 20
449.4533229019
 30
0.0
  0
SPLINE
  5
4ED
100
AcDbEntity
  8
0
100
AcDbSpline
 62
7
  6
CONTINUOUS
 70
0
 71
3
 72
9
 73
5
 74
0
 42
0.0000001
 43
0.0000001
 44
0.0000000001
 40
0.0
 40
0.0
 40
0.0
 40
0.0
 40
0.531948581
 40
1.0
 40
1.0
 40
1.0
 40
1.0
 10
434.133032731
 20
448.8302958855
 30
0.0
 10
434.1373915575
 20
448.8246878763
 30
0.0
 10
434.1473166652
 20
448.81502991
 30
0.0
 10
434.1609727393
 20
448.811664821
 30
0.0
 10
434.1672217076
 20
448.8117521976
 30
0.0
  0
SPLINE
  5
4EE
100
AcDbEntity
  8
0
100
AcDbSpline
 62
7
  6
CONTINUOUS
 70
0
 71
3
 72
9
 73
5
 74
0
 42
0.0000001
 43
0.0000001
 44
0.0000000001
 40
0.0
 40
0.0
 40
0.0
 40
0.0
 40
0.5825683774
 40
1.0
 40
1.0
 40
1.0
 40
1.0
 10
433.3142970295
 20
450.0219346667
 30
0.0
 10
433.4757187981
 20
449.8168628532
 30
0.0
 10
433.7451976191
 20
449.4597739637
 30
0.0
 10
434.0043229987
 20
449.0919871122
 30
0.0
 10
434.0917055557
 20
448.9266559534
 30
0.0
  0
SPLINE
  5
4EF
100
AcDbEntity
  8
0
100
AcDbSpline
 62
7
  6
CONTINUOUS
 70
0
 71
3
 72
8
 73
4
 74
0
 42
0.0000001
 43
0.0000001
 44
0.0000000001
 40
0.0
 40
0.0
 40
0.0
 40
0.0
 40
1.0
 40
1.0
 40
1.0
 40
1.0
 10
434.0917055557
 20
448.9266559534
 30
0.0
 10
434.1080366869
 20
448.8957568251
 30
0.0
 10
434.1239522991
 20
448.8640452336
 30
0.0
 10
434.1330324194
 20
448.8302959611
 30
0.0
  0
SPLINE
  5
4F0
100
AcDbEntity
  8
0
100
AcDbSpline
 62
7
  6
CONTINUOUS
 70
0
 71
3
 72
8
 73
4
 74
0
 42
0.0000001
 43
0.0000001
 44
0.0000000001
 40
0.0
 40
0.0
 40
0.0
 40
0.0
 40
1.0
 40
1.0
 40
1.0
 40
1.0
 10
433.3142970282
 20
450.0219346674
 30
0.0
 10
430.2794828436
 20
436.961219152
 30
0.0
 10
427.459978467
 20
423.8505041007
 30
0.0
 10
424.7169550744
 20
410.725405641
 30
0.0
  0
SPLINE
  5
4F1
100
AcDbEntity
  8
0
100
AcDbSpline
 62
7
  6
CONTINUOUS
 70
0
 71
3
 72
8
 73
4
 74
0
 42
0.0000001
 43
0.0000001
 44
0.0000000001
 40
0.0
 40
0.0
 40
0.0
 40
0.0
 40
1.0
 40
1.0
 40
1.0
 40
1.0
 10
425.7777299258
 20
410.6157924871
 30
0.0
 10
428.4452447272
 20
423.3790937214
 30
0.0
 10
431.1881122663
 20
436.1281080942
 30
0.0
 10
434.1330269455
 20
448.8302721282
 30
0.0
  0
SPLINE
  5
4F2
100
AcDbEntity
  8
0
100
AcDbSpline
 62
7
  6
CONTINUOUS
 70
0
 71
3
 72
8
 73
4
 74
0
 42
0.0000001
 43
0.0000001
 44
0.0000000001
 40
0.0
 40
0.0
 40
0.0
 40
0.0
 40
1.0
 40
1.0
 40
1.0
 40
1.0
 10
434.6545424302
 20
449.4549109407
 30
0.0
 10
434.4190788209
 20
449.3248909757
 30
0.0
 10
434.229511132
 20
449.0734167358
 30
0.0
 10
434.1672216046
 20
448.8117522227
 30
0.0
  0
LINE
  5
4F3
100
AcDbEntity
  8
0
100
AcDbLine
 62
7
  6
CONTINUOUS
 10
434.1672216019
 20
448.8117522119
 11
435.2108222987
 21
448.8295699615
  0
LINE
  5
4F4
100
AcDbEntity
  8
0
100
AcDbLine
 62
7
  6
CONTINUOUS
 10
122.3452567614
 20
56.0918260436
 11
123.2933220616
 21
58.4326704168
  0
SPLINE
  5
4F5
100
AcDbEntity
  8
0
100
AcDbSpline
 62
7
  6
CONTINUOUS
 70
0
 71
3
 72
8
 73
4
 74
0
 42
0.0000001
 43
0.0000001
 44
0.0000000001
 40
0.0
 40
0.0
 40
0.0
 40
0.0
 40
1.0
 40
1.0
 40
1.0
 40
1.0
 10
123.2933220616
 20
58.4326704168
 30
0.0
 10
124.8678766151
 20
62.3196076583
 30
0.0
 10
126.4437486663
 20
66.2060115109
 30
0.0
 10
128.0210718984
 20
70.0918260436
 30
0.0
  0
SPLINE
  5
4F6
100
AcDbEntity
  8
0
100
AcDbSpline
 62
7
  6
CONTINUOUS
 70
0
 71
3
 72
10
 73
6
 74
0
 42
0.0000001
 43
0.0000001
 44
0.0000000001
 40
0.0
 40
0.0
 40
0.0
 40
0.0
 40
0.1227021384
 40
0.3437737413
 40
1.0
 40
1.0
 40
1.0
 40
1.0
 10
425.7777346175
 20
410.6158148035
 30
0.0
 10
425.7356671797
 20
410.6038530031
 30
0.0
 10
425.6106541009
 20
410.6062245115
 30
0.0
 10
425.2572119661
 20
410.6309152717
 30
0.0
 10
424.9471061664
 20
410.6837248357
 30
0.0
 10
424.7169494271
 20
410.725405641
 30
0.0
  0
SPLINE
  5
4F7
100
AcDbEntity
  8
0
100
AcDbSpline
 62
7
  6
CONTINUOUS
 70
0
 71
3
 72
10
 73
6
 74
0
 42
0.0000001
 43
0.0000001
 44
0.0000000001
 40
0.0
 40
0.0
 40
0.0
 40
0.0
 40
0.6193366501
 40
0.8468899933
 40
1.0
 40
1.0
 40
1.0
 40
1.0
 10
424.7169494271
 20
410.725405641
 30
0.0
 10
424.7070120248
 20
410.4591318112
 30
0.0
 10
424.6720250923
 20
410.091980013
 30
0.0
 10
424.5536408564
 20
409.6798341904
 30
0.0
 10
424.4752163507
 20
409.5298324044
 30
0.0
 10
424.4274182763
 20
409.4845047353
 30
0.0
  0
SPLINE
  5
4F8
100
AcDbEntity
  8
0
100
AcDbSpline
 62
7
  6
CONTINUOUS
 70
0
 71
3
 72
8
 73
4
 74
0
 42
0.0000001
 43
0.0000001
 44
0.0000000001
 40
0.0
 40
0.0
 40
0.0
 40
0.0
 40
1.0
 40
1.0
 40
1.0
 40
1.0
 10
424.4274182763
 20
409.4845047353
 30
0.0
 10
424.4032413436
 20
409.4615773681
 30
0.0
 10
424.3703484753
 20
409.4418260436
 30
0.0
 10
424.3370289879
 20
409.4418260436
 30
0.0
  0
SPLINE
  5
4F9
100
AcDbEntity
  8
0
100
AcDbSpline
 62
7
  6
CONTINUOUS
 70
0
 71
3
 72
9
 73
5
 74
0
 42
0.0000001
 43
0.0000001
 44
0.0000000001
 40
0.0
 40
0.0
 40
0.0
 40
0.0
 40
0.7636510009
 40
1.0
 40
1.0
 40
1.0
 40
1.0
 10
442.1110630723
 20
454.6390813274
 30
0.0
 10
442.1748426387
 20
454.5030247759
 30
0.0
 10
442.2533503619
 20
454.322387978
 30
0.0
 10
442.3231081844
 20
454.1383791195
 30
0.0
 10
442.3389226745
 20
454.0946440897
 30
0.0
  0
SPLINE
  5
4FA
100
AcDbEntity
  8
0
100
AcDbSpline
 62
7
  6
CONTINUOUS
 70
0
 71
3
 72
9
 73
5
 74
0
 42
0.0000001
 43
0.0000001
 44
0.0000000001
 40
0.0
 40
0.0
 40
0.0
 40
0.0
 40
0.3010328373
 40
1.0
 40
1.0
 40
1.0
 40
1.0
 10
442.3389226745
 20
454.0946440897
 30
0.0
 10
442.3529935389
 20
454.0557310631
 30
0.0
 10
442.3977115229
 20
453.9259096373
 30
0.0
 10
442.4361927793
 20
453.7928361908
 30
0.0
 10
442.4492804072
 20
453.6976542407
 30
0.0
  0
SPLINE
  5
4FB
100
AcDbEntity
  8
0
100
AcDbSpline
 62
7
  6
CONTINUOUS
 70
0
 71
3
 72
8
 73
4
 74
0
 42
0.0000001
 43
0.0000001
 44
0.0000000001
 40
0.0
 40
0.0
 40
0.0
 40
0.0
 40
1.0
 40
1.0
 40
1.0
 40
1.0
 10
442.4492804072
 20
453.6976542407
 30
0.0
 10
442.4545929414
 20
453.6590179515
 30
0.0
 10
442.4583500801
 20
453.6192473874
 30
0.0
 10
442.4524429119
 20
453.5806975336
 30
0.0
  0
SPLINE
  5
4FC
100
AcDbEntity
  8
0
100
AcDbSpline
 62
7
  6
CONTINUOUS
 70
0
 71
3
 72
9
 73
5
 74
0
 42
0.0000001
 43
0.0000001
 44
0.0000000001
 40
0.0
 40
0.0
 40
0.0
 40
0.0
 40
0.5820483438
 40
1.0
 40
1.0
 40
1.0
 40
1.0
 10
442.4524429119
 20
453.5806975336
 30
0.0
 10
442.4504736512
 20
453.5678462471
 30
0.0
 10
442.4455459456
 20
453.5456923926
 30
0.0
 10
442.4296429478
 20
453.5275148629
 30
0.0
 10
442.4211278907
 20
453.5236871051
 30
0.0
  0
SPLINE
  5
4FD
100
AcDbEntity
  8
0
100
AcDbSpline
 62
7
  6
CONTINUOUS
 70
0
 71
3
 72
11
 73
7
 74
0
 42
0.0000001
 43
0.0000001
 44
0.0000000001
 40
0.0
 40
0.0
 40
0.0
 40
0.0
 40
0.3607090009
 40
0.6814169156
 40
0.9008051728
 40
1.0
 40
1.0
 40
1.0
 40
1.0
 10
442.2180756997
 20
473.725405641
 30
0.0
 10
442.3572087024
 20
473.7300369837
 30
0.0
 10
442.6164943992
 20
473.7445760029
 30
0.0
 10
442.974650203
 20
473.7856403114
 30
0.0
 10
443.1902669489
 20
473.8338990228
 30
0.0
 10
443.3362898256
 20
473.8950752928
 30
0.0
 10
443.3379715051
 20
473.933321049
 30
0.0
  0
SPLINE
  5
4FE
100
AcDbEntity
  8
0
100
AcDbSpline
 62
7
  6
CONTINUOUS
 70
0
 71
3
 72
8
 73
4
 74
0
 42
0.0000001
 43
0.0000001
 44
0.0000000001
 40
0.0
 40
0.0
 40
0.0
 40
0.0
 40
1.0
 40
1.0
 40
1.0
 40
1.0
 10
439.0537312105
 20
477.8685164057
 30
0.0
 10
439.2073346059
 20
477.8653645808
 30
0.0
 10
439.3612427458
 20
477.8468438452
 30
0.0
 10
439.5114949177
 20
477.8147779452
 30
0.0
  0
SPLINE
  5
4FF
100
AcDbEntity
  8
0
100
AcDbSpline
 62
7
  6
CONTINUOUS
 70
0
 71
3
 72
8
 73
4
 74
0
 42
0.0000001
 43
0.0000001
 44
0.0000000001
 40
0.0
 40
0.0
 40
0.0
 40
0.0
 40
1.0
 40
1.0
 40
1.0
 40
1.0
 10
439.5114949177
 20
477.8147779452
 30
0.0
 10
439.6654828851
 20
477.7819147745
 30
0.0
 10
439.8169429603
 20
477.7346208502
 30
0.0
 10
439.9628111518
 20
477.6753354994
 30
0.0
  0
SPLINE
  5
500
100
AcDbEntity
  8
0
100
AcDbSpline
 62
7
  6
CONTINUOUS
 70
0
 71
3
 72
8
 73
4
 74
0
 42
0.0000001
 43
0.0000001
 44
0.0000000001
 40
0.0
 40
0.0
 40
0.0
 40
0.0
 40
1.0
 40
1.0
 40
1.0
 40
1.0
 10
439.9628111518
 20
477.6753354994
 30
0.0
 10
440.2836189193
 20
477.5449492869
 30
0.0
 10
440.583647607
 20
477.3528652583
 30
0.0
 10
440.8428012358
 20
477.1231750651
 30
0.0
  0
SPLINE
  5
501
100
AcDbEntity
  8
0
100
AcDbSpline
 62
7
  6
CONTINUOUS
 70
0
 71
3
 72
9
 73
5
 74
0
 42
0.0000001
 43
0.0000001
 44
0.0000000001
 40
0.0
 40
0.0
 40
0.0
 40
0.0
 40
0.5068882712
 40
1.0
 40
1.0
 40
1.0
 40
1.0
 10
441.1604199614
 20
476.8027488118
 30
0.0
 10
441.5282288842
 20
476.3820084971
 30
0.0
 10
442.069491577
 20
475.3804458302
 30
0.0
 10
442.2210728536
 20
474.2690520536
 30
0.0
 10
442.2180756997
 20
473.725405641
 30
0.0
  0
SPLINE
  5
502
100
AcDbEntity
  8
0
100
AcDbSpline
 62
7
  6
CONTINUOUS
 70
0
 71
3
 72
9
 73
5
 74
0
 42
0.0000001
 43
0.0000001
 44
0.0000000001
 40
0.0
 40
0.0
 40
0.0
 40
0.0
 40
0.3207402381
 40
1.0
 40
1.0
 40
1.0
 40
1.0
 10
438.9268510241
 20
478.4418260435
 30
0.0
 10
438.9618710324
 20
478.44182605
 30
0.0
 10
439.0267161075
 20
478.3166834693
 30
0.0
 10
439.0393476698
 20
478.2213295265
 30
0.0
 10
439.047002542
 20
478.1475606836
 30
0.0
  0
SPLINE
  5
503
100
AcDbEntity
  8
0
100
AcDbSpline
 62
7
  6
CONTINUOUS
 70
0
 71
3
 72
8
 73
4
 74
0
 42
0.0000001
 43
0.0000001
 44
0.0000000001
 40
0.0
 40
0.0
 40
0.0
 40
0.0
 40
1.0
 40
1.0
 40
1.0
 40
1.0
 10
439.047002542
 20
478.1475606836
 30
0.0
 10
439.0518198546
 20
478.101136972
 30
0.0
 10
439.0545724342
 20
478.0544716954
 30
0.0
 10
439.0557056686
 20
478.0078124704
 30
0.0
  0
SPLINE
  5
504
100
AcDbEntity
  8
0
100
AcDbSpline
 62
7
  6
CONTINUOUS
 70
0
 71
3
 72
8
 73
4
 74
0
 42
0.0000001
 43
0.0000001
 44
0.0000000001
 40
0.0
 40
0.0
 40
0.0
 40
0.0
 40
1.0
 40
1.0
 40
1.0
 40
1.0
 10
439.0557056686
 20
478.0078124704
 30
0.0
 10
439.0568331665
 20
477.9613894384
 30
0.0
 10
439.0563858584
 20
477.9148778046
 30
0.0
 10
439.0537481219
 20
477.8685160586
 30
0.0
  0
LINE
  5
505
100
AcDbEntity
  8
0
100
AcDbLine
 62
7
  6
CONTINUOUS
 10
415.2165544937
 20
477.8696859094
 11
416.7386578586
 21
477.8695796862
  0
SPLINE
  5
506
100
AcDbEntity
  8
0
100
AcDbSpline
 62
7
  6
CONTINUOUS
 70
0
 71
3
 72
10
 73
6
 74
0
 42
0.0000001
 43
0.0000001
 44
0.0000000001
 40
0.0
 40
0.0
 40
0.0
 40
0.0
 40
0.4999938607
 40
0.7499955995
 40
1.0
 40
1.0
 40
1.0
 40
1.0
 10
416.7386578586
 20
477.8695796862
 30
0.0
 10
420.0774986824
 20
477.8691477825
 30
0.0
 10
425.0858034588
 20
477.8655924265
 30
0.0
 10
431.7635368645
 20
477.8760186099
 30
0.0
 10
435.102518873
 20
477.8625148502
 30
0.0
 10
436.7719477342
 20
477.8742789302
 30
0.0
  0
SPLINE
  5
507
100
AcDbEntity
  8
0
100
AcDbSpline
 62
7
  6
CONTINUOUS
 70
0
 71
3
 72
8
 73
4
 74
0
 42
0.0000001
 43
0.0000001
 44
0.0000000001
 40
0.0
 40
0.0
 40
0.0
 40
0.0
 40
1.0
 40
1.0
 40
1.0
 40
1.0
 10
436.7719477342
 20
477.8742789302
 30
0.0
 10
437.4130078966
 20
477.8787963333
 30
0.0
 10
438.0541530487
 20
477.8827402299
 30
0.0
 10
438.6951759597
 20
477.8744839357
 30
0.0
  0
SPLINE
  5
508
100
AcDbEntity
  8
0
100
AcDbSpline
 62
7
  6
CONTINUOUS
 70
0
 71
3
 72
9
 73
5
 74
0
 42
0.0000001
 43
0.0000001
 44
0.0000000001
 40
0.0
 40
0.0
 40
0.0
 40
0.0
 40
0.5000768281
 40
1.0
 40
1.0
 40
1.0
 40
1.0
 10
413.9769278168
 20
466.4418260436
 30
0.0
 10
414.0176187021
 20
464.775080127
 30
0.0
 10
414.0328821537
 20
461.4407937642
 30
0.0
 10
414.1313191139
 20
458.1081307793
 30
0.0
 10
414.1689791783
 20
456.4418260436
 30
0.0
  0
SPLINE
  5
509
100
AcDbEntity
  8
0
100
AcDbSpline
 62
7
  6
CONTINUOUS
 70
0
 71
3
 72
10
 73
6
 74
0
 42
0.0000001
 43
0.0000001
 44
0.0000000001
 40
0.0
 40
0.0
 40
0.0
 40
0.0
 40
0.0961457703
 40
0.2976834459
 40
1.0
 40
1.0
 40
1.0
 40
1.0
 10
443.2310856366
 20
454.8471059937
 30
0.0
 10
443.230747345
 20
454.820021132
 30
0.0
 10
443.1431893435
 20
454.764493126
 30
0.0
 10
442.8876724753
 20
454.6998153931
 30
0.0
 10
442.6228941414
 20
454.6695313549
 30
0.0
 10
442.4255391098
 20
454.6553711684
 30
0.0
  0
SPLINE
  5
50A
100
AcDbEntity
  8
0
100
AcDbSpline
 62
7
  6
CONTINUOUS
 70
0
 71
3
 72
9
 73
5
 74
0
 42
0.0000001
 43
0.0000001
 44
0.0000000001
 40
0.0
 40
0.0
 40
0.0
 40
0.0
 40
0.6288463547
 40
1.0
 40
1.0
 40
1.0
 40
1.0
 10
130.1257144592
 20
84.6418260436
 30
0.0
 10
130.1257144592
 20
84.4669139814
 30
0.0
 10
130.1531660944
 20
84.205123123
 30
0.0
 10
130.2537109497
 20
83.9010413986
 30
0.0
 10
130.3453542414
 20
83.8535117287
 30
0.0
  0
SPLINE
  5
50B
100
AcDbEntity
  8
0
100
AcDbSpline
 62
7
  6
CONTINUOUS
 70
0
 71
3
 72
9
 73
5
 74
0
 42
0.0000001
 43
0.0000001
 44
0.0000000001
 40
0.0
 40
0.0
 40
0.0
 40
0.0
 40
0.5133993528
 40
1.0
 40
1.0
 40
1.0
 40
1.0
 10
130.3453542414
 20
83.8535117287
 30
0.0
 10
130.3525095446
 20
83.8498007184
 30
0.0
 10
130.3672305271
 20
83.8439293277
 30
0.0
 10
130.382988337
 20
83.8418277473
 30
0.0
 10
130.3906279905
 20
83.8418261224
 30
0.0
  0
SPLINE
  5
50C
100
AcDbEntity
  8
0
100
AcDbSpline
 62
7
  6
CONTINUOUS
 70
0
 71
3
 72
9
 73
5
 74
0
 42
0.0000001
 43
0.0000001
 44
0.0000000001
 40
0.0
 40
0.0
 40
0.0
 40
0.0
 40
0.4979166771
 40
1.0
 40
1.0
 40
1.0
 40
1.0
 10
424.3370371551
 20
409.4418260436
 30
0.0
 10
424.6102732021
 20
409.4418276166
 30
0.0
 10
425.1707554166
 20
409.6039246219
 30
0.0
 10
425.5505180631
 20
410.0453898256
 30
0.0
 10
425.6677060463
 20
410.2947482843
 30
0.0
  0
SPLINE
  5
50D
100
AcDbEntity
  8
0
100
AcDbSpline
 62
7
  6
CONTINUOUS
 70
0
 71
3
 72
9
 73
5
 74
0
 42
0.0000001
 43
0.0000001
 44
0.0000000001
 40
0.0
 40
0.0
 40
0.0
 40
0.0
 40
0.6085878649
 40
1.0
 40
1.0
 40
1.0
 40
1.0
 10
127.7708097212
 20
82.7291450848
 30
0.0
 10
127.8174417182
 20
82.9130196614
 30
0.0
 10
127.9094525256
 20
83.20709103
 30
0.0
 10
128.0864545019
 20
83.4865402453
 30
0.0
 10
128.1900895239
 20
83.5509168902
 30
0.0
  0
SPLINE
  5
50E
100
AcDbEntity
  8
0
100
AcDbSpline
 62
7
  6
CONTINUOUS
 70
0
 71
3
 72
8
 73
4
 74
0
 42
0.0000001
 43
0.0000001
 44
0.0000000001
 40
0.0
 40
0.0
 40
0.0
 40
0.0
 40
1.0
 40
1.0
 40
1.0
 40
1.0
 10
128.1900895239
 20
83.5509168902
 30
0.0
 10
128.2294025228
 20
83.5753375823
 30
0.0
 10
128.2765035092
 20
83.591690286
 30
0.0
 10
128.3227839091
 20
83.5917719873
 30
0.0
  0
SPLINE
  5
50F
100
AcDbEntity
  8
0
100
AcDbSpline
 62
7
  6
CONTINUOUS
 70
0
 71
3
 72
9
 73
5
 74
0
 42
0.0000001
 43
0.0000001
 44
0.0000000001
 40
0.0
 40
0.0
 40
0.0
 40
0.0
 40
0.2144283876
 40
1.0
 40
1.0
 40
1.0
 40
1.0
 10
128.2805319536
 20
77.9620228026
 30
0.0
 10
128.2987472082
 20
77.9622244022
 30
0.0
 10
128.3839963076
 20
77.976381794
 30
0.0
 10
128.4519408491
 20
78.039630139
 30
0.0
 10
128.4942665592
 20
78.0912279495
 30
0.0
  0
SPLINE
  5
510
100
AcDbEntity
  8
0
100
AcDbSpline
 62
7
  6
CONTINUOUS
 70
0
 71
3
 72
8
 73
4
 74
0
 42
0.0000001
 43
0.0000001
 44
0.0000000001
 40
0.0
 40
0.0
 40
0.0
 40
0.0
 40
1.0
 40
1.0
 40
1.0
 40
1.0
 10
128.4942665592
 20
78.0912279495
 30
0.0
 10
128.5433260069
 20
78.151034627
 30
0.0
 10
128.5823899293
 20
78.2191036814
 30
0.0
 10
128.6161776179
 20
78.2886885948
 30
0.0
  0
SPLINE
  5
511
100
AcDbEntity
  8
0
100
AcDbSpline
 62
7
  6
CONTINUOUS
 70
0
 71
3
 72
9
 73
5
 74
0
 42
0.0000001
 43
0.0000001
 44
0.0000000001
 40
0.0
 40
0.0
 40
0.0
 40
0.0
 40
0.1978772482
 40
1.0
 40
1.0
 40
1.0
 40
1.0
 10
126.8976158665
 20
77.962108418
 30
0.0
 10
126.9574297823
 20
77.9620161186
 30
0.0
 10
127.2616019688
 20
78.0375288594
 30
0.0
 10
127.439582243
 20
78.3369199122
 30
0.0
 10
127.5416438901
 20
78.55685703
 30
0.0
  0
SPLINE
  5
512
100
AcDbEntity
  8
0
100
AcDbSpline
 62
7
  6
CONTINUOUS
 70
0
 71
3
 72
9
 73
5
 74
0
 42
0.0000001
 43
0.0000001
 44
0.0000000001
 40
0.0
 40
0.0
 40
0.0
 40
0.0
 40
0.2278332175
 40
1.0
 40
1.0
 40
1.0
 40
1.0
 10
127.5416438901
 20
78.55685703
 30
0.0
 10
127.5664037774
 20
78.6102131965
 30
0.0
 10
127.6659605781
 20
78.8486329625
 30
0.0
 10
127.7328181183
 20
79.0997744212
 30
0.0
 10
127.7719930554
 20
79.2952427773
 30
0.0
  0
SPLINE
  5
513
100
AcDbEntity
  8
0
100
AcDbSpline
 62
7
  6
CONTINUOUS
 70
0
 71
3
 72
8
 73
4
 74
0
 42
0.0000001
 43
0.0000001
 44
0.0000000001
 40
0.0
 40
0.0
 40
0.0
 40
0.0
 40
1.0
 40
1.0
 40
1.0
 40
1.0
 10
120.3436673926
 20
83.8762631071
 30
0.0
 10
120.0395002719
 20
84.0734312124
 30
0.0
 10
119.6617716332
 20
84.1792681481
 30
0.0
 10
119.2992900489
 20
84.1792681481
 30
0.0
  0
SPLINE
  5
514
100
AcDbEntity
  8
0
100
AcDbSpline
 62
7
  6
CONTINUOUS
 70
0
 71
3
 72
8
 73
4
 74
0
 42
0.0000001
 43
0.0000001
 44
0.0000000001
 40
0.0
 40
0.0
 40
0.0
 40
0.0
 40
1.0
 40
1.0
 40
1.0
 40
1.0
 10
101.1774677239
 20
89.5831042644
 30
0.0
 10
101.4530386654
 20
89.4819148676
 30
0.0
 10
101.7499960196
 20
89.4234315694
 30
0.0
 10
102.0435580025
 20
89.4234315694
 30
0.0
  0
SPLINE
  5
515
100
AcDbEntity
  8
0
100
AcDbSpline
 62
7
  6
CONTINUOUS
 70
0
 71
3
 72
9
 73
5
 74
0
 42
0.0000001
 43
0.0000001
 44
0.0000000001
 40
0.0
 40
0.0
 40
0.0
 40
0.0
 40
0.301757174
 40
1.0
 40
1.0
 40
1.0
 40
1.0
 10
87.3627373694
 20
94.8937562627
 30
0.0
 10
87.4791202975
 20
94.8937562627
 30
0.0
 10
87.8597902872
 20
94.9735465115
 30
0.0
 10
88.242689165
 20
95.011117581
 30
0.0
 10
88.5093877323
 20
95.0484668362
 30
0.0
  0
LINE
  5
516
100
AcDbEntity
  8
0
100
AcDbLine
 62
7
  6
CONTINUOUS
 10
88.5093877323
 20
95.0484668362
 11
88.64659578
 21
95.0677226389
  0
LINE
  5
517
100
AcDbEntity
  8
0
100
AcDbLine
 62
7
  6
CONTINUOUS
 10
124.3801374605
 20
100.0932822286
 11
124.2877271028
 21
100.0819877518
  0
LINE
  5
518
100
AcDbEntity
  8
0
100
AcDbLine
 62
7
  6
CONTINUOUS
 10
120.3729958775
 20
99.6235379274
 11
120.279446707
 21
99.6134170891
  0
LINE
  5
519
100
AcDbEntity
  8
0
100
AcDbLine
 62
7
  6
CONTINUOUS
 10
120.279446707
 20
99.6134170891
 11
120.1874300383
 21
99.6035350445
  0
SPLINE
  5
51A
100
AcDbEntity
  8
0
100
AcDbSpline
 62
7
  6
CONTINUOUS
 70
0
 71
3
 72
9
 73
5
 74
0
 42
0.0000001
 43
0.0000001
 44
0.0000000001
 40
0.0
 40
0.0
 40
0.0
 40
0.0
 40
0.2871648518
 40
1.0
 40
1.0
 40
1.0
 40
1.0
 10
120.1874300383
 20
99.6035350445
 30
0.0
 10
120.0892982815
 20
99.593036759
 30
0.0
 10
119.747522127
 20
99.5569624363
 30
0.0
 10
119.4055422546
 20
99.5227080316
 30
0.0
 10
119.1615478199
 20
99.5007056854
 30
0.0
  0
SPLINE
  5
51B
100
AcDbEntity
  8
0
100
AcDbSpline
 62
7
  6
CONTINUOUS
 70
0
 71
3
 72
9
 73
5
 74
0
 42
0.0000001
 43
0.0000001
 44
0.0000000001
 40
0.0
 40
0.0
 40
0.0
 40
0.0
 40
0.3014197327
 40
1.0
 40
1.0
 40
1.0
 40
1.0
 10
118.9771669966
 20
99.4846631793
 30
0.0
 10
118.9333348114
 20
99.4810067908
 30
0.0
 10
118.7878827217
 20
99.4693599511
 30
0.0
 10
118.6422671445
 20
99.4591788768
 30
0.0
 10
118.5404101536
 20
99.4550721178
 30
0.0
  0
SPLINE
  5
51C
100
AcDbEntity
  8
0
100
AcDbSpline
 62
7
  6
CONTINUOUS
 70
0
 71
3
 72
11
 73
7
 74
0
 42
0.0000001
 43
0.0000001
 44
0.0000000001
 40
0.0
 40
0.0
 40
0.0
 40
0.0
 40
0.4797421392
 40
0.7475379546
 40
0.8220851112
 40
1.0
 40
1.0
 40
1.0
 40
1.0
 10
118.5404101536
 20
99.4550721178
 30
0.0
 10
118.4986645275
 20
99.4533889812
 30
0.0
 10
118.4331508491
 20
99.4597915174
 30
0.0
 10
118.3624816214
 20
99.4433351671
 30
0.0
 10
118.3164623389
 20
99.4798333258
 30
0.0
 10
118.3579933007
 20
99.4875963532
 30
0.0
 10
118.372560811
 20
99.4928743001
 30
0.0
  0
SPLINE
  5
51D
100
AcDbEntity
  8
0
100
AcDbSpline
 62
7
  6
CONTINUOUS
 70
0
 71
3
 72
9
 73
5
 74
0
 42
0.0000001
 43
0.0000001
 44
0.0000000001
 40
0.0
 40
0.0
 40
0.0
 40
0.0
 40
0.1469969992
 40
1.0
 40
1.0
 40
1.0
 40
1.0
 10
118.372560811
 20
99.4928743001
 30
0.0
 10
118.3966257122
 20
99.5015932415
 30
0.0
 10
118.5641175201
 20
99.5499125112
 30
0.0
 10
118.7350523462
 20
99.5839713379
 30
0.0
 10
118.8806324869
 20
99.6134170891
 30
0.0
  0
SPLINE
  5
51E
100
AcDbEntity
  8
0
100
AcDbSpline
 62
7
  6
CONTINUOUS
 70
0
 71
3
 72
9
 73
5
 74
0
 42
0.0000001
 43
0.0000001
 44
0.0000000001
 40
0.0
 40
0.0
 40
0.0
 40
0.0
 40
0.2010367796
 40
1.0
 40
1.0
 40
1.0
 40
1.0
 10
118.8806324869
 20
99.6134170891
 30
0.0
 10
118.9525257404
 20
99.6279585701
 30
0.0
 10
119.3105576475
 20
99.6982143711
 30
0.0
 10
119.6696771731
 20
99.7627865054
 30
0.0
 10
119.9567582266
 20
99.8133801607
 30
0.0
  0
SPLINE
  5
51F
100
AcDbEntity
  8
0
100
AcDbSpline
 62
7
  6
CONTINUOUS
 70
0
 71
3
 72
8
 73
4
 74
0
 42
0.0000001
 43
0.0000001
 44
0.0000000001
 40
0.0
 40
0.0
 40
0.0
 40
0.0
 40
1.0
 40
1.0
 40
1.0
 40
1.0
 10
83.8248183808
 20
93.9952233428
 30
0.0
 10
83.8338310031
 20
94.0917869662
 30
0.0
 10
83.8567828259
 20
94.188088938
 30
0.0
 10
83.8929035648
 20
94.2780947874
 30
0.0
  0
SPLINE
  5
520
100
AcDbEntity
  8
0
100
AcDbSpline
 62
7
  6
CONTINUOUS
 70
0
 71
3
 72
8
 73
4
 74
0
 42
0.0000001
 43
0.0000001
 44
0.0000000001
 40
0.0
 40
0.0
 40
0.0
 40
0.0
 40
1.0
 40
1.0
 40
1.0
 40
1.0
 10
83.8929035648
 20
94.2780947874
 30
0.0
 10
83.990504747
 20
94.5212979324
 30
0.0
 10
84.2070847328
 20
94.7352075802
 30
0.0
 10
84.450481698
 20
94.8323244059
 30
0.0
  0
SPLINE
  5
521
100
AcDbEntity
  8
0
100
AcDbSpline
 62
7
  6
CONTINUOUS
 70
0
 71
3
 72
8
 73
4
 74
0
 42
0.0000001
 43
0.0000001
 44
0.0000000001
 40
0.0
 40
0.0
 40
0.0
 40
0.0
 40
1.0
 40
1.0
 40
1.0
 40
1.0
 10
84.450481698
 20
94.8323244059
 30
0.0
 10
84.5241489832
 20
94.8617180874
 30
0.0
 10
84.6018176207
 20
94.8827101332
 30
0.0
 10
84.6803595869
 20
94.8937562627
 30
0.0
  0
SPLINE
  5
522
100
AcDbEntity
  8
0
100
AcDbSpline
 62
7
  6
CONTINUOUS
 70
0
 71
3
 72
9
 73
5
 74
0
 42
0.0000001
 43
0.0000001
 44
0.0000000001
 40
0.0
 40
0.0
 40
0.0
 40
0.0
 40
0.34108489
 40
1.0
 40
1.0
 40
1.0
 40
1.0
 10
88.7502979794
 20
94.5622426197
 30
0.0
 10
88.7415976775
 20
94.6160827825
 30
0.0
 10
88.7144583582
 20
94.7735443553
 30
0.0
 10
88.6896588281
 20
94.932094822
 30
0.0
 10
88.6611055826
 20
95.0335107724
 30
0.0
  0
SPLINE
  5
523
100
AcDbEntity
  8
0
100
AcDbSpline
 62
7
  6
CONTINUOUS
 70
0
 71
3
 72
9
 73
5
 74
0
 42
0.0000001
 43
0.0000001
 44
0.0000000001
 40
0.0
 40
0.0
 40
0.0
 40
0.0
 40
0.7176301802
 40
1.0
 40
1.0
 40
1.0
 40
1.0
 10
88.6611055826
 20
95.0335107724
 30
0.0
 10
88.6586750602
 20
95.0421435471
 30
0.0
 10
88.6547713868
 20
95.0513946456
 30
0.0
 10
88.6501246256
 20
95.0677226389
 30
0.0
 10
88.64659578
 20
95.0677226389
 30
0.0
  0
SPLINE
  5
524
100
AcDbEntity
  8
0
100
AcDbSpline
 62
7
  6
CONTINUOUS
 70
0
 71
3
 72
9
 73
5
 74
0
 42
0.0000001
 43
0.0000001
 44
0.0000000001
 40
0.0
 40
0.0
 40
0.0
 40
0.0
 40
0.4999151358
 40
1.0
 40
1.0
 40
1.0
 40
1.0
 10
87.3627373694
 20
94.8937562627
 30
0.0
 10
87.1886490919
 20
94.8692725152
 30
0.0
 10
86.8474933862
 20
94.7237795715
 30
0.0
 10
86.6297201626
 20
94.4232024172
 30
0.0
 10
86.5677120221
 20
94.2586358273
 30
0.0
  0
SPLINE
  5
525
100
AcDbEntity
  8
0
100
AcDbSpline
 62
7
  6
CONTINUOUS
 70
0
 71
3
 72
11
 73
7
 74
0
 42
0.0000001
 43
0.0000001
 44
0.0000000001
 40
0.0
 40
0.0
 40
0.0
 40
0.0
 40
0.0830221418
 40
0.2831246362
 40
0.592705176
 40
1.0
 40
1.0
 40
1.0
 40
1.0
 10
82.7163193052
 20
92.1183278136
 30
0.0
 10
82.7692916556
 20
92.1183278136
 30
0.0
 10
82.9485462397
 20
92.1470627828
 30
0.0
 10
83.3238804499
 20
92.1880464115
 30
0.0
 10
83.9038451209
 20
92.2680709557
 30
0.0
 10
84.3571832418
 20
92.3280375265
 30
0.0
 10
84.6147046395
 20
92.3629323903
 30
0.0
  0
SPLINE
  5
526
100
AcDbEntity
  8
0
100
AcDbSpline
 62
7
  6
CONTINUOUS
 70
0
 71
3
 72
9
 73
5
 74
0
 42
0.0000001
 43
0.0000001
 44
0.0000000001
 40
0.0
 40
0.0
 40
0.0
 40
0.0
 40
0.2382018239
 40
1.0
 40
1.0
 40
1.0
 40
1.0
 10
84.6147046395
 20
92.3629323903
 30
0.0
 10
84.6727691223
 20
92.3708002888
 30
0.0
 10
84.9165244366
 20
92.4038778374
 30
0.0
 10
85.1602558168
 20
92.437131658
 30
0.0
 10
85.3459191436
 20
92.4625430418
 30
0.0
  0
LINE
  5
527
100
AcDbEntity
  8
0
100
AcDbLine
 62
7
  6
CONTINUOUS
 10
87.0330573062
 20
92.6953252992
 11
87.9472915972
 21
92.8227452233
  0
LINE
  5
528
100
AcDbEntity
  8
0
100
AcDbLine
 62
7
  6
CONTINUOUS
 10
87.9472915972
 20
92.8227452233
 11
88.7321134464
 21
92.9327406631
  0
LINE
  5
529
100
AcDbEntity
  8
0
100
AcDbLine
 62
7
  6
CONTINUOUS
 10
88.7321134464
 20
92.9327406631
 11
88.878839676
 21
92.9533664193
  0
SPLINE
  5
52A
100
AcDbEntity
  8
0
100
AcDbSpline
 62
7
  6
CONTINUOUS
 70
0
 71
3
 72
9
 73
5
 74
0
 42
0.0000001
 43
0.0000001
 44
0.0000000001
 40
0.0
 40
0.0
 40
0.0
 40
0.0
 40
0.2682093201
 40
1.0
 40
1.0
 40
1.0
 40
1.0
 10
88.878839676
 20
92.9533664193
 30
0.0
 10
88.8662408781
 20
93.0430746756
 30
0.0
 10
88.8181473933
 20
93.3773838933
 30
0.0
 10
88.7664205628
 20
93.711197466
 30
0.0
 10
88.7246826528
 20
93.9548127685
 30
0.0
  0
SPLINE
  5
52B
100
AcDbEntity
  8
0
100
AcDbSpline
 62
7
  6
CONTINUOUS
 70
0
 71
3
 72
9
 73
5
 74
0
 42
0.0000001
 43
0.0000001
 44
0.0000000001
 40
0.0
 40
0.0
 40
0.0
 40
0.0
 40
0.3526234711
 40
1.0
 40
1.0
 40
1.0
 40
1.0
 10
88.7246826528
 20
93.9548127685
 30
0.0
 10
88.7134930505
 20
94.0201240967
 30
0.0
 10
88.6791828806
 20
94.2046167293
 30
0.0
 10
88.6505113524
 20
94.391644053
 30
0.0
 10
88.6123081535
 20
94.507140941
 30
0.0
  0
SPLINE
  5
52C
100
AcDbEntity
  8
0
100
AcDbSpline
 62
7
  6
CONTINUOUS
 70
0
 71
3
 72
9
 73
5
 74
0
 42
0.0000001
 43
0.0000001
 44
0.0000000001
 40
0.0
 40
0.0
 40
0.0
 40
0.0
 40
0.7037285423
 40
1.0
 40
1.0
 40
1.0
 40
1.0
 10
88.6123081535
 20
94.507140941
 30
0.0
 10
88.6097260871
 20
94.5149471103
 30
0.0
 10
88.6060340348
 20
94.5241107909
 30
0.0
 10
88.5997557691
 20
94.5377953293
 30
0.0
 10
88.596294234
 20
94.5377953293
 30
0.0
  0
SPLINE
  5
52D
100
AcDbEntity
  8
0
100
AcDbSpline
 62
7
  6
CONTINUOUS
 70
0
 71
3
 72
8
 73
4
 74
0
 42
0.0000001
 43
0.0000001
 44
0.0000000001
 40
0.0
 40
0.0
 40
0.0
 40
0.0
 40
1.0
 40
1.0
 40
1.0
 40
1.0
 10
83.7725704195
 20
93.8513430521
 30
0.0
 10
83.4804350212
 20
93.7492109228
 30
0.0
 10
83.2088779095
 20
93.5511286345
 30
0.0
 10
83.0227155551
 20
93.3039088121
 30
0.0
  0
SPLINE
  5
52E
100
AcDbEntity
  8
0
100
AcDbSpline
 62
7
  6
CONTINUOUS
 70
0
 71
3
 72
8
 73
4
 74
0
 42
0.0000001
 43
0.0000001
 44
0.0000000001
 40
0.0
 40
0.0
 40
0.0
 40
0.0
 40
1.0
 40
1.0
 40
1.0
 40
1.0
 10
83.0227155551
 20
93.3039088121
 30
0.0
 10
82.7771784499
 20
92.9778405276
 30
0.0
 10
82.6595511721
 20
92.5225386191
 30
0.0
 10
82.7163193052
 20
92.1183278136
 30
0.0
  0
SPLINE
  5
52F
100
AcDbEntity
  8
0
100
AcDbSpline
 62
7
  6
CONTINUOUS
 70
0
 71
3
 72
9
 73
5
 74
0
 42
0.0000001
 43
0.0000001
 44
0.0000000001
 40
0.0
 40
0.0
 40
0.0
 40
0.0
 40
0.2322688849
 40
1.0
 40
1.0
 40
1.0
 40
1.0
 10
81.7594741202
 20
93.9793686644
 30
0.0
 10
81.6766770488
 20
93.9793686644
 30
0.0
 10
82.4636119504
 20
94.0798366668
 30
0.0
 10
82.5454481516
 20
94.1033767808
 30
0.0
 10
82.8162438406
 20
94.1429620767
 30
0.0
  0
LINE
  5
530
100
AcDbEntity
  8
0
100
AcDbLine
 62
7
  6
CONTINUOUS
 10
83.7904198351
 20
94.2838554688
 11
83.8975475182
 21
94.2992079658
  0
LINE
  5
531
100
AcDbEntity
  8
0
100
AcDbLine
 62
7
  6
CONTINUOUS
 10
83.896522617
 20
94.3013376219
 11
83.6028864142
 21
94.2593013437
  0
LINE
  5
532
100
AcDbEntity
  8
0
100
AcDbLine
 62
7
  6
CONTINUOUS
 10
83.6028864142
 20
94.2593013437
 11
83.0354770908
 21
94.1775997366
  0
LINE
  5
533
100
AcDbEntity
  8
0
100
AcDbLine
 62
7
  6
CONTINUOUS
 10
83.0354770908
 20
94.1775997366
 11
82.5346344777
 21
94.1048013988
  0
SPLINE
  5
534
100
AcDbEntity
  8
0
100
AcDbSpline
 62
7
  6
CONTINUOUS
 70
0
 71
3
 72
9
 73
5
 74
0
 42
0.0000001
 43
0.0000001
 44
0.0000000001
 40
0.0
 40
0.0
 40
0.0
 40
0.0
 40
0.7677349438
 40
1.0
 40
1.0
 40
1.0
 40
1.0
 10
82.5346344777
 20
94.1048013988
 30
0.0
 10
82.2377286766
 20
94.0613990834
 30
0.0
 10
82.1480036046
 20
94.0355902671
 30
0.0
 10
81.2851985372
 20
93.9254336851
 30
0.0
 10
81.3759769597
 20
93.9254336851
 30
0.0
  0
SPLINE
  5
535
100
AcDbEntity
  8
0
100
AcDbSpline
 62
7
  6
CONTINUOUS
 70
0
 71
3
 72
9
 73
5
 74
0
 42
0.0000001
 43
0.0000001
 44
0.0000000001
 40
0.0
 40
0.0
 40
0.0
 40
0.0
 40
0.2831321827
 40
1.0
 40
1.0
 40
1.0
 40
1.0
 10
84.0771126288
 20
93.9254336851
 30
0.0
 10
84.2096010025
 20
93.9254336851
 30
0.0
 10
84.6724574642
 20
94.0137670614
 30
0.0
 10
85.1369745646
 20
94.0597847235
 30
0.0
 10
85.4693865842
 20
94.1048275737
 30
0.0
  0
SPLINE
  5
536
100
AcDbEntity
  8
0
100
AcDbSpline
 62
7
  6
CONTINUOUS
 70
0
 71
3
 72
8
 73
4
 74
0
 42
0.0000001
 43
0.0000001
 44
0.0000000001
 40
0.0
 40
0.0
 40
0.0
 40
0.0
 40
1.0
 40
1.0
 40
1.0
 40
1.0
 10
274.576774262
 20
478.436536964
 30
0.0
 10
274.4450872595
 20
478.3726466928
 30
0.0
 10
274.3030981494
 20
478.326141559
 30
0.0
 10
274.1586768134
 20
478.3023526728
 30
0.0
  0
LINE
  5
537
100
AcDbEntity
  8
0
100
AcDbLine
 62
7
  6
CONTINUOUS
 10
88.5817554155
 20
94.5377953293
 11
87.9484373277
 21
94.4489962583
  0
SPLINE
  5
538
100
AcDbEntity
  8
0
100
AcDbSpline
 62
7
  6
CONTINUOUS
 70
0
 71
3
 72
9
 73
5
 74
0
 42
0.0000001
 43
0.0000001
 44
0.0000000001
 40
0.0
 40
0.0
 40
0.0
 40
0.0
 40
0.3491039646
 40
1.0
 40
1.0
 40
1.0
 40
1.0
 10
87.9484373277
 20
94.4489962583
 30
0.0
 10
87.5514855644
 20
94.3935080546
 30
0.0
 10
86.4139990909
 20
94.2380215796
 30
0.0
 10
85.2778028198
 20
94.0710438059
 30
0.0
 10
84.5352967637
 20
93.9865066185
 30
0.0
  0
SPLINE
  5
539
100
AcDbEntity
  8
0
100
AcDbSpline
 62
7
  6
CONTINUOUS
 70
0
 71
3
 72
9
 73
5
 74
0
 42
0.0000001
 43
0.0000001
 44
0.0000000001
 40
0.0
 40
0.0
 40
0.0
 40
0.0
 40
0.3768499249
 40
1.0
 40
1.0
 40
1.0
 40
1.0
 10
84.5352967637
 20
93.9865066185
 30
0.0
 10
84.5259319403
 20
93.9854403971
 30
0.0
 10
84.5010724104
 20
93.9829156359
 30
0.0
 10
84.476195282
 20
93.9793686644
 30
0.0
 10
84.4606097893
 20
93.9793686644
 30
0.0
  0
SPLINE
  5
53A
100
AcDbEntity
  8
0
100
AcDbSpline
 62
7
  6
CONTINUOUS
 70
0
 71
3
 72
8
 73
4
 74
0
 42
0.0000001
 43
0.0000001
 44
0.0000000001
 40
0.0
 40
0.0
 40
0.0
 40
0.0
 40
1.0
 40
1.0
 40
1.0
 40
1.0
 10
437.0417215433
 20
416.3096762203
 30
0.0
 10
436.7833908595
 20
416.3096762203
 30
0.0
 10
436.5207327009
 20
416.2634368569
 30
0.0
 10
436.2789935101
 20
416.1723495045
 30
0.0
  0
SPLINE
  5
53B
100
AcDbEntity
  8
0
100
AcDbSpline
 62
7
  6
CONTINUOUS
 70
0
 71
3
 72
9
 73
5
 74
0
 42
0.0000001
 43
0.0000001
 44
0.0000000001
 40
0.0
 40
0.0
 40
0.0
 40
0.0
 40
0.2651085565
 40
1.0
 40
1.0
 40
1.0
 40
1.0
 10
436.2789935101
 20
416.1723495045
 30
0.0
 10
436.1907662794
 20
416.1391054747
 30
0.0
 10
435.8675624799
 20
415.991275609
 30
0.0
 10
435.5840052042
 20
415.7450518046
 30
0.0
 10
435.443699684
 20
415.5245504144
 30
0.0
  0
SPLINE
  5
53C
100
AcDbEntity
  8
0
100
AcDbSpline
 62
7
  6
CONTINUOUS
 70
0
 71
3
 72
8
 73
4
 74
0
 42
0.0000001
 43
0.0000001
 44
0.0000000001
 40
0.0
 40
0.0
 40
0.0
 40
0.0
 40
1.0
 40
1.0
 40
1.0
 40
1.0
 10
435.443699684
 20
415.5245504144
 30
0.0
 10
435.3161997482
 20
415.3241740283
 30
0.0
 10
435.2424517494
 20
415.0750235882
 30
0.0
 10
435.2538778077
 20
414.8377971669
 30
0.0
  0
SPLINE
  5
53D
100
AcDbEntity
  8
0
100
AcDbSpline
 62
7
  6
CONTINUOUS
 70
0
 71
3
 72
10
 73
6
 74
0
 42
0.0000001
 43
0.0000001
 44
0.0000000001
 40
0.0
 40
0.0
 40
0.0
 40
0.0
 40
0.5338900423
 40
0.7748912536
 40
1.0
 40
1.0
 40
1.0
 40
1.0
 10
438.7351835447
 20
413.5362712733
 30
0.0
 10
439.1503553248
 20
413.5362712733
 30
0.0
 10
439.7860448744
 20
413.7143222895
 30
0.0
 10
440.3239020446
 20
414.3008803341
 30
0.0
 10
440.4345094276
 20
414.6629473422
 30
0.0
 10
440.4429311046
 20
414.8377971669
 30
0.0
  0
LINE
  5
53E
100
AcDbEntity
  8
0
100
AcDbLine
 62
7
  6
CONTINUOUS
 10
263.8297989907
 20
478.4418260436
 11
263.8286190513
 21
477.7418260437
  0
LINE
  5
53F
100
AcDbEntity
  8
0
100
AcDbLine
 62
7
  6
CONTINUOUS
 10
285.0434478199
 20
477.7418260437
 11
285.0395219516
 21
478.4418260436
  0
LINE
  5
540
100
AcDbEntity
  8
0
100
AcDbLine
 62
7
  6
CONTINUOUS
 10
273.8000318507
 20
478.2918486106
 11
273.7994793609
 21
477.7418260309
  0
LINE
  5
541
100
AcDbEntity
  8
0
100
AcDbLine
 62
7
  6
CONTINUOUS
 10
272.6656592404
 20
477.9313745381
 11
272.666145606
 21
478.4145394662
  0
SPLINE
  5
542
100
AcDbEntity
  8
0
100
AcDbSpline
 62
7
  6
CONTINUOUS
 70
0
 71
3
 72
11
 73
7
 74
0
 42
0.0000001
 43
0.0000001
 44
0.0000000001
 40
0.0
 40
0.0
 40
0.0
 40
0.0
 40
0.0773621964
 40
0.2815610181
 40
0.6035970867
 40
1.0
 40
1.0
 40
1.0
 40
1.0
 10
273.4861163868
 20
477.8895685173
 30
0.0
 10
273.4807216072
 20
477.9042747044
 30
0.0
 10
273.4043900118
 20
477.8982594865
 30
0.0
 10
273.3002870812
 20
477.9223112587
 30
0.0
 10
273.1042456315
 20
477.9232481714
 30
0.0
 10
272.9615838287
 20
477.9286019977
 30
0.0
 10
272.8813279369
 20
477.9297802243
 30
0.0
  0
SPLINE
  5
543
100
AcDbEntity
  8
0
100
AcDbSpline
 62
7
  6
CONTINUOUS
 70
0
 71
3
 72
8
 73
4
 74
0
 42
0.0000001
 43
0.0000001
 44
0.0000000001
 40
0.0
 40
0.0
 40
0.0
 40
0.0
 40
1.0
 40
1.0
 40
1.0
 40
1.0
 10
102.0435580025
 20
89.4234315694
 30
0.0
 10
102.2998662781
 20
89.4234315694
 30
0.0
 10
102.5618321476
 20
89.4691806014
 30
0.0
 10
102.7991501357
 20
89.5660005615
 30
0.0
  0
SPLINE
  5
544
100
AcDbEntity
  8
0
100
AcDbSpline
 62
7
  6
CONTINUOUS
 70
0
 71
3
 72
8
 73
4
 74
0
 42
0.0000001
 43
0.0000001
 44
0.0000000001
 40
0.0
 40
0.0
 40
0.0
 40
0.0
 40
1.0
 40
1.0
 40
1.0
 40
1.0
 10
127.1470248869
 20
82.6424285617
 30
0.0
 10
127.0738190078
 20
82.6898419046
 30
0.0
 10
126.9848344555
 20
82.721409081
 30
0.0
 10
126.8976157207
 20
82.7215436691
 30
0.0
  0
SPLINE
  5
545
100
AcDbEntity
  8
0
100
AcDbSpline
 62
7
  6
CONTINUOUS
 70
0
 71
3
 72
9
 73
5
 74
0
 42
0.0000001
 43
0.0000001
 44
0.0000000001
 40
0.0
 40
0.0
 40
0.0
 40
0.0
 40
0.5145260072
 40
1.0
 40
1.0
 40
1.0
 40
1.0
 10
116.8781845194
 20
81.8786656299
 30
0.0
 10
116.8362461826
 20
81.491817492
 30
0.0
 10
116.9330844127
 20
80.7016903353
 30
0.0
 10
117.4480151073
 20
80.0807722944
 30
0.0
 10
117.7560945184
 20
79.8810681527
 30
0.0
  0
SPLINE
  5
546
100
AcDbEntity
  8
0
100
AcDbSpline
 62
7
  6
CONTINUOUS
 70
0
 71
3
 72
9
 73
5
 74
0
 42
0.0000001
 43
0.0000001
 44
0.0000000001
 40
0.0
 40
0.0
 40
0.0
 40
0.0
 40
0.4895768311
 40
1.0
 40
1.0
 40
1.0
 40
1.0
 10
119.2992900489
 20
84.1792681481
 30
0.0
 10
118.7179245993
 20
84.1792681481
 30
0.0
 10
117.5133911408
 20
83.6453524974
 30
0.0
 10
116.9435114459
 20
82.4812550926
 30
0.0
 10
116.8781845194
 20
81.8786656299
 30
0.0
  0
SPLINE
  5
547
100
AcDbEntity
  8
0
100
AcDbSpline
 62
7
  6
CONTINUOUS
 70
0
 71
3
 72
9
 73
5
 74
0
 42
0.0000001
 43
0.0000001
 44
0.0000000001
 40
0.0
 40
0.0
 40
0.0
 40
0.0
 40
0.5417332713
 40
1.0
 40
1.0
 40
1.0
 40
1.0
 10
127.8388541766
 20
79.7322130076
 30
0.0
 10
127.8884769494
 20
80.1899440173
 30
0.0
 10
127.8756896195
 20
81.0442629615
 30
0.0
 10
127.6724593563
 20
81.8908650925
 30
0.0
 10
127.4882360853
 20
82.2340168135
 30
0.0
  0
SPLINE
  5
548
100
AcDbEntity
  8
0
100
AcDbSpline
 62
7
  6
CONTINUOUS
 70
0
 71
3
 72
9
 73
5
 74
0
 42
0.0000001
 43
0.0000001
 44
0.0000000001
 40
0.0
 40
0.0
 40
0.0
 40
0.0
 40
0.2882420511
 40
1.0
 40
1.0
 40
1.0
 40
1.0
 10
127.4882360853
 20
82.2340168135
 30
0.0
 10
127.4639266596
 20
82.2792978532
 30
0.0
 10
127.3734078554
 20
82.4321708476
 30
0.0
 10
127.2535424489
 20
82.5734401997
 30
0.0
 10
127.1470248869
 20
82.6424285617
 30
0.0
  0
SPLINE
  5
549
100
AcDbEntity
  8
0
100
AcDbSpline
 62
7
  6
CONTINUOUS
 70
0
 71
3
 72
9
 73
5
 74
0
 42
0.0000001
 43
0.0000001
 44
0.0000000001
 40
0.0
 40
0.0
 40
0.0
 40
0.0
 40
0.4998891499
 40
1.0
 40
1.0
 40
1.0
 40
1.0
 10
439.3656915942
 20
475.5377199312
 30
0.0
 10
439.6939193669
 20
475.3771604834
 30
0.0
 10
440.2710135966
 20
474.8603161139
 30
0.0
 10
440.4829638368
 20
474.115582163
 30
0.0
 10
440.4844598915
 20
473.7500291289
 30
0.0
  0
SPLINE
  5
54A
100
AcDbEntity
  8
0
100
AcDbSpline
 62
7
  6
CONTINUOUS
 70
0
 71
3
 72
8
 73
4
 74
0
 42
0.0000001
 43
0.0000001
 44
0.0000000001
 40
0.0
 40
0.0
 40
0.0
 40
0.0
 40
1.0
 40
1.0
 40
1.0
 40
1.0
 10
413.8107125399
 20
478.9418260436
 30
0.0
 10
413.9205596396
 20
479.0651576809
 30
0.0
 10
414.0100618002
 20
479.2102955769
 30
0.0
 10
414.0693174457
 20
479.3644573314
 30
0.0
  0
SPLINE
  5
54B
100
AcDbEntity
  8
0
100
AcDbSpline
 62
7
  6
CONTINUOUS
 70
0
 71
3
 72
8
 73
4
 74
0
 42
0.0000001
 43
0.0000001
 44
0.0000000001
 40
0.0
 40
0.0
 40
0.0
 40
0.0
 40
1.0
 40
1.0
 40
1.0
 40
1.0
 10
414.0693174457
 20
479.3644573314
 30
0.0
 10
414.1273917284
 20
479.5155456069
 30
0.0
 10
414.1583214706
 20
479.6799610093
 30
0.0
 10
414.1583214706
 20
479.8418260436
 30
0.0
  0
ELLIPSE
  5
54C
100
AcDbEntity
  8
0
100
AcDbEllipse
 62
7
  6
CONTINUOUS
 10
269.1672336471
 20
291.2970651111
 30
0.0
 11
5.6372685065
 21
924.9641666068
 31
0.0
 40
0.1582672119
 41
4.8566619859
 42
4.8674458535
  0
ELLIPSE
  5
54D
100
AcDbEntity
  8
0
100
AcDbEllipse
 62
7
  6
CONTINUOUS
 10
269.1672336471
 20
51.0918260436
 30
0.0
 11
-140.2302111144
 21
140.2302111144
 31
0.0
 40
0.4363697405
 41
1.1266493975
 42
1.136457143
  0
ELLIPSE
  5
54E
100
AcDbEntity
  8
0
100
AcDbEllipse
 62
7
  6
CONTINUOUS
 10
321.0305280068
 20
-19.6498202723
 30
0.0
 11
-161.8490953255
 21
169.9200518344
 31
0.0
 40
0.3682490834
 41
-1.4831753968
 42
-1.4740128636
  0
ELLIPSE
  5
54F
100
AcDbEntity
  8
0
100
AcDbEllipse
 62
7
  6
CONTINUOUS
 10
269.1672336471
 20
51.0918260436
 30
0.0
 11
142.4271675151
 21
142.4271675151
 31
0.0
 40
0.392399146
 41
-1.1739817219
 42
-1.1677336025
  0
ELLIPSE
  5
550
100
AcDbEntity
  8
0
100
AcDbEllipse
 62
7
  6
CONTINUOUS
 10
269.1672336471
 20
51.0918260436
 30
0.0
 11
140.2302111144
 21
140.2302111144
 31
0.0
 40
0.4363697405
 41
-1.136457143
 42
-1.1266493975
  0
ELLIPSE
  5
551
100
AcDbEntity
  8
0
100
AcDbEllipse
 62
7
  6
CONTINUOUS
 10
317.2773076611
 20
-19.6498202723
 30
0.0
 11
-158.0125313653
 21
167.9430860994
 31
0.0
 40
0.4111258919
 41
-1.5149149453
 42
-1.5057524121
  0
ELLIPSE
  5
552
100
AcDbEntity
  8
0
100
AcDbEllipse
 62
7
  6
CONTINUOUS
 10
217.3039392874
 20
-19.6498202723
 30
0.0
 11
161.8490953255
 21
169.9200518344
 31
0.0
 40
0.3682490834
 41
1.4740128636
 42
1.4831753968
  0
ELLIPSE
  5
553
100
AcDbEntity
  8
0
100
AcDbEllipse
 62
7
  6
CONTINUOUS
 10
269.1672336471
 20
51.0918260436
 30
0.0
 11
-142.4271675151
 21
142.4271675151
 31
0.0
 40
0.392399146
 41
1.1641739764
 42
1.1739817219
  0
ELLIPSE
  5
554
100
AcDbEntity
  8
0
100
AcDbEllipse
 62
7
  6
CONTINUOUS
 10
95.5318891048
 20
62.8645313198
 30
0.0
 11
3.9999241856
 21
1.7718332373
 31
0.0
 40
0.0138993993
 41
1.6021640124
 42
3.1342081754
  0
ELLIPSE
  5
555
100
AcDbEntity
  8
0
100
AcDbEllipse
 62
7
  6
CONTINUOUS
 10
221.0571596331
 20
-19.6498202723
 30
0.0
 11
158.0125313653
 21
167.9430860994
 31
0.0
 40
0.4111258919
 41
7.7922667872
 42
7.7981002525
  0
ELLIPSE
  5
556
100
AcDbEntity
  8
0
100
AcDbEllipse
 62
7
  6
CONTINUOUS
 10
279.9534277355
 20
79.589385165
 30
0.0
 11
35.5143925533
 21
932.7337857238
 31
0.0
 40
0.1407487374
 41
5.0806744411
 42
5.0952987915
  0
ELLIPSE
  5
557
100
AcDbEntity
  8
0
100
AcDbEllipse
 62
7
  6
CONTINUOUS
 10
279.9534277355
 20
79.589385165
 30
0.0
 11
35.5143925533
 21
932.7337857238
 31
0.0
 40
0.1407487374
 41
5.1068588527
 42
5.1336598674
  0
ELLIPSE
  5
558
100
AcDbEntity
  8
0
100
AcDbEllipse
 62
7
  6
CONTINUOUS
 10
438.7245883511
 20
473.7418260436
 30
0.0
 11
0.5462310906
 21
1.9256150681
 31
0.0
 40
0.989281585
 41
4.5317949087
 42
8.6361159506
  0
ELLIPSE
  5
559
100
AcDbEntity
  8
0
100
AcDbEllipse
 62
7
  6
CONTINUOUS
 10
317.2773076611
 20
-19.6498202723
 30
0.0
 11
-158.0125313653
 21
167.9430860994
 31
0.0
 40
0.4111258919
 41
0.7675738219
 42
0.7767363551
  0
ELLIPSE
  5
55A
100
AcDbEntity
  8
0
100
AcDbEllipse
 62
7
  6
CONTINUOUS
 10
217.3039392874
 20
-19.6498202723
 30
0.0
 11
161.8490953255
 21
169.9200518344
 31
0.0
 40
0.3682490834
 41
-0.8084759036
 42
-0.7993133704
  0
ELLIPSE
  5
55B
100
AcDbEntity
  8
0
100
AcDbEllipse
 62
7
  6
CONTINUOUS
 10
439.0007539395
 20
474.4418260436
 30
0.0
 11
0.0
 21
4.5
 31
0.0
 40
0.9908549866
 41
-0.7142945546
 42
0.0
  0
ELLIPSE
  5
55C
100
AcDbEntity
  8
0
100
AcDbEllipse
 62
7
  6
CONTINUOUS
 10
269.1672336471
 20
51.0918260436
 30
0.0
 11
-140.2302111144
 21
140.2302111144
 31
0.0
 40
0.4363697405
 41
-1.9593798853
 42
-1.9495721398
  0
ELLIPSE
  5
55D
100
AcDbEntity
  8
0
100
AcDbEllipse
 62
7
  6
CONTINUOUS
 10
269.1672336471
 20
51.0918260436
 30
0.0
 11
142.4271675151
 21
142.4271675151
 31
0.0
 40
0.392399146
 41
-4.3711377463
 42
-4.3613300008
  0
ELLIPSE
  5
55E
100
AcDbEntity
  8
0
100
AcDbEllipse
 62
7
  6
CONTINUOUS
 10
98.045445908
 20
62.8645313198
 30
0.0
 11
3.9999241856
 21
1.7718332373
 31
0.0
 40
0.0138993993
 41
-3.110224968
 42
-1.5394286412
  0
ELLIPSE
  5
55F
100
AcDbEntity
  8
0
100
AcDbEllipse
 62
7
  6
CONTINUOUS
 10
269.1672336471
 20
139.3124463591
 30
0.0
 11
147.4972043428
 21
65.3363506262
 31
0.0
 40
0.0138993993
 41
3.0227205833
 42
3.3657771297
  0
ELLIPSE
  5
560
100
AcDbEntity
  8
0
100
AcDbEllipse
 62
7
  6
CONTINUOUS
 10
106.7816278624
 20
67.2962945105
 30
0.0
 11
5.4998957552
 21
2.4362707013
 31
0.0
 40
0.0138993993
 41
0.0
 42
6.2831853072
  0
ENDSEC
  0
SECTION
  2
OBJECTS
  0
DICTIONARY
  5
C
100
AcDbDictionary
280
0
281
1
  3
ACAD_GROUP
350
D
  3
ACAD_MLINESTYLE
350
17
  3
ACAD_LAYOUT
350
1A
  3
ACAD_PLOTSETTINGS
350
19
  3
ACAD_PLOTSTYLENAME
350
E
  0
DICTIONARY
  5
D
102
{ACAD_REACTORS
330
C
102
}
100
AcDbDictionary
280
0
281
1
  0
ACDBDICTIONARYWDFLT
  5
E
102
{ACAD_REACTORS
330
C
102
}
100
AcDbDictionary
281
1
  3
Normal
350
F
100
AcDbDictionaryWithDefault
340
F
  0
DICTIONARY
  5
17
102
{ACAD_REACTORS
330
C
102
}
100
AcDbDictionary
280
0
281
1
  3
Standard
350
18
  0
DICTIONARY
  5
19
102
{ACAD_REACTORS
330
C
102
}
100
AcDbDictionary
281
1
  0
DICTIONARY
  5
1A
102
{ACAD_REACTORS
330
C
102
}
100
AcDbDictionary
281
1
  3
Model
350
561
  3
Layout1
350
562
  0
ACDBPLACEHOLDER
  5
F
102
{ACAD_REACTORS
330
E
102
}
  0
MLINESTYLE
  5
18
102
{ACAD_REACTORS
330
17
102
}
100
AcDbMlineStyle
  2
STANDARD
 70
0
  3

 62
256
 51
90.0
 52
90.0
 71
2
 49
0.5
 62
256
  6
BYLAYER
 49
-0.5
 62
256
  6
BYLAYER
  0
LAYOUT
  5
561
102
{ACAD_REACTORS
330
1A
102
}
100
AcDbPlotSettings
  1

  2
none_device
  4

  6

 40
0.0
 41
0.0
 42
0.0
 43
0.0
 44
558.8
 45
600.0
 46
0.0
 47
0.0
 48
0.0
 49
0.0
140
0.0
141
0.0
142
1.0
143
1.0
 70
1024
 72
1
 73
0
 74
0
  7

 75
0
147
1.0
148
0.0
149
0.0
100
AcDbLayout
  1
Model
 70
0
 71
0
 10
0.0
 20
0.0
 11
558.8
 21
600.0
 12
0.0
 22
0.0
 32
0.0
 14
0.0
 24
0.0
 34
0.0
 15
0.0
 25
0.0
 35
0.0
146
0.0
 13
0.0
 23
0.0
 33
0.0
 16
1.0
 26
0.0
 36
0.0
 17
0.0
 27
1.0
 37
0.0
 76
0
330
20E
345
0
346
0
  0
LAYOUT
  5
562
102
{ACAD_REACTORS
330
1A
102
}
100
AcDbPlotSettings
  1

  2
none_device
  4

  6

 40
0.0
 41
0.0
 42
0.0
 43
0.0
 44
558.8
 45
600.0
 46
0.0
 47
0.0
 48
0.0
 49
0.0
140
0.0
141
0.0
142
1.0
143
1.0
 70
0
 72
1
 73
0
 74
0
  7

 75
0
147
1.0
148
0.0
149
0.0
100
AcDbLayout
  1
Layout1
 70
0
 71
1
 10
0.0
 20
0.0
 11
558.8
 21
600.0
 12
0.0
 22
0.0
 32
0.0
 14
0.0
 24
0.0
 34
0.0
 15
0.0
 25
0.0
 35
0.0
146
0.0
 13
0.0
 23
0.0
 33
0.0
 16
1.0
 26
0.0
 36
0.0
 17
0.0
 27
1.0
 37
0.0
 76
0
330
20F
345
0
346
0
  0
ENDSEC
  0
EOF
