999
DXF file: S:\Engenharia\Wildfire\Engenharia\Produtos\Lixeiras\94538112\94538112.dxf
999
Pro/ENGINEER 2013150 by Parametric Technology Corporation
  0
SECTION
  2
HEADER
  9
$ACADVER
  1
AC1021
  9
$DWGCODEPAGE
  3
ANSI_1252
  9
$EXTMAX
 10
558.8
 20
550.0
 30
0.0
  9
$EXTMIN
 10
0.0
 20
0.0
 30
0.0
  9
$LIMMIN
 10
0.0
 20
0.0
  9
$LIMMAX
 10
558.8
 20
550.0
  9
$VIEWCTR
 10
279.4
 20
275.0
  9
$VIEWSIZE
 40
550.0
  9
$CLAYER
  8
0
  9
$LTSCALE
 40
35.8518518519
  9
$CELTYPE
  6
BYLAYER
  9
$DIMSCALE
 40
1.0
  9
$DIMASZ
 40
3.0
  9
$DIMEXO
 40
0.5
  9
$DIMDLI
 40
24.7703703704
  9
$DIMEXE
 40
0.5
  9
$DIMCEN
 40
5.8666666667
  9
$DIMLFAC
 40
1.0
  9
$DIMBLK
  1
_FILLED
  9
$DIMTXT
 40
1.8
  9
$DIMTOL
 70
1
  9
$DIMLIM
 70
0
  9
$DIMTFAC
 40
1.0
  9
$DIMTP
 40
0.001
  9
$DIMTM
 40
0.001
  9
$DIMGAP
 40
0.625
  9
$DIMDSEP
 70
46
  9
$PDMODE
 70
3
  9
$PDSIZE
 40
1.0
  9
$HANDSEED
  5
5DB
  9
$TILEMODE
 70
1
  9
$MEASUREMENT
 70
1
  9
$INSUNITS
 70
4
  0
ENDSEC
  0
SECTION
  2
CLASSES
  0
CLASS
  1
ACDBDICTIONARYWDFLT
  2
AcDbDictionaryWithDefault
  3
AutoCAD 2000
 90
0
 91
1
280
0
281
0
  0
CLASS
  1
ACDBPLACEHOLDER
  2
AcDbPlaceHolder
  3
AutoCAD 2000
 90
0
 91
1
280
0
281
0
  0
CLASS
  1
LAYOUT
  2
AcDbLayout
  3
AutoCAD 2000
 90
0
 91
0
280
0
281
0
  0
ENDSEC
  0
SECTION
  2
TABLES
  0
TABLE
  2
VPORT
  5
8
100
AcDbSymbolTable
 70
2
  0
VPORT
  5
1F4
100
AcDbSymbolTableRecord
100
AcDbViewportTableRecord
  2
*ACTIVE
 70
0
 10
0.0
 20
0.0
 11
1.0
 21
1.0
 12
279.4
 22
275.0
 13
0.0
 23
0.0
 14
1.0
 24
1.0
 15
0.0
 25
0.0
 16
0.0
 26
0.0
 36
1.0
 17
0.0
 27
0.0
 37
0.0
 40
550.0
 41
1.016
 42
50.0
 43
0.0
 44
0.0
 50
0.0
 51
0.0
 71
0
 72
100
 73
1
 74
1
 75
0
 76
0
 77
0
 78
0
  0
ENDTAB
  0
TABLE
  2
LTYPE
  5
5
100
AcDbSymbolTable
 70
6
  0
LTYPE
  5
14
100
AcDbSymbolTableRecord
100
AcDbLinetypeTableRecord
  2
BYBLOCK
 70
0
  3

 72
65
 73
0
 40
0.0
  0
LTYPE
  5
15
100
AcDbSymbolTableRecord
100
AcDbLinetypeTableRecord
  2
BYLAYER
 70
0
  3

 72
65
 73
0
 40
0.0
  0
LTYPE
  5
16
100
AcDbSymbolTableRecord
100
AcDbLinetypeTableRecord
  2
CONTINUOUS
 70
64
  3
Solid line
 72
65
 73
0
 40
0.0
  0
LTYPE
  5
1F5
100
AcDbSymbolTableRecord
100
AcDbLinetypeTableRecord
  2
CENTER
 70
64
  3
____ _ ____ _ ____ _ ____ _ ____ _ ____ _ ____
 72
65
 73
4
 40
0.6
 49
0.375
 74
0
 49
-0.075
 74
0
 49
0.075
 74
0
 49
-0.075
 74
0
  0
LTYPE
  5
1F6
100
AcDbSymbolTableRecord
100
AcDbLinetypeTableRecord
  2
HIDDEN
 70
64
  3
- - - - - - - - - - - - - - - - - - - -
 72
65
 73
2
 40
0.2
 49
0.1
 74
0
 49
-0.1
 74
0
  0
LTYPE
  5
1F7
100
AcDbSymbolTableRecord
100
AcDbLinetypeTableRecord
  2
PHANTOM
 70
64
  3
_____ _ _ _____ _ _ _____ _ _ _____
 72
65
 73
6
 40
0.8
 49
0.45
 74
0
 49
-0.05
 74
0
 49
0.1
 74
0
 49
-0.05
 74
0
 49
0.1
 74
0
 49
-0.05
 74
0
  0
LTYPE
  5
1F8
100
AcDbSymbolTableRecord
100
AcDbLinetypeTableRecord
  2
DOT
 70
64
  3
. . . . . . . . . . . . . . . . . . . .
 72
65
 73
2
 40
0.2
 49
0.1
 74
0
 49
-0.1
 74
0
  0
LTYPE
  5
1F9
100
AcDbSymbolTableRecord
100
AcDbLinetypeTableRecord
  2
DASHED
 70
64
  3
- - - - - - - - - - - - - - - - - - - -
 72
65
 73
2
 40
0.2
 49
0.1
 74
0
 49
-0.1
 74
0
  0
ENDTAB
  0
TABLE
  2
LAYER
  5
2
100
AcDbSymbolTable
 70
36
  0
LAYER
  5
10
100
AcDbSymbolTableRecord
100
AcDbLayerTableRecord
  2
0
 70
0
 62
7
  6
CONTINUOUS
370
-3
390
F
  0
LAYER
  5
1FA
100
AcDbSymbolTableRecord
100
AcDbLayerTableRecord
  2
DEFAULT_1
 70
0
 62
7
  6
CENTER
370
-3
390
F
  0
LAYER
  5
1FB
100
AcDbSymbolTableRecord
100
AcDbLayerTableRecord
  2
DEFAULT_2
 70
0
 62
8
  6
HIDDEN
370
-3
390
F
  0
LAYER
  5
1FC
100
AcDbSymbolTableRecord
100
AcDbLayerTableRecord
  2
DEFAULT_3
 70
0
 62
7
  6
PHANTOM
370
-3
390
F
  0
LAYER
  5
1FD
100
AcDbSymbolTableRecord
100
AcDbLayerTableRecord
  2
01___PRT_ALL_DTM_PLN
 70
0
 62
7
  6
CONTINUOUS
370
-3
390
F
  0
LAYER
  5
1FE
100
AcDbSymbolTableRecord
100
AcDbLayerTableRecord
  2
01___PRT_DEF_DTM_PLN
 70
0
 62
7
  6
CONTINUOUS
370
-3
390
F
  0
LAYER
  5
1FF
100
AcDbSymbolTableRecord
100
AcDbLayerTableRecord
  2
02___PRT_ALL_AXES
 70
0
 62
7
  6
CONTINUOUS
370
-3
390
F
  0
LAYER
  5
200
100
AcDbSymbolTableRecord
100
AcDbLayerTableRecord
  2
03___PRT_ALL_CURVES
 70
0
 62
7
  6
CONTINUOUS
370
-3
390
F
  0
LAYER
  5
201
100
AcDbSymbolTableRecord
100
AcDbLayerTableRecord
  2
04___PRT_ALL_DTM_PNT
 70
0
 62
7
  6
CONTINUOUS
370
-3
390
F
  0
LAYER
  5
202
100
AcDbSymbolTableRecord
100
AcDbLayerTableRecord
  2
05___PRT_ALL_DTM_CSYS
 70
0
 62
7
  6
CONTINUOUS
370
-3
390
F
  0
LAYER
  5
203
100
AcDbSymbolTableRecord
100
AcDbLayerTableRecord
  2
05___PRT_DEF_DTM_CSYS
 70
0
 62
7
  6
CONTINUOUS
370
-3
390
F
  0
LAYER
  5
204
100
AcDbSymbolTableRecord
100
AcDbLayerTableRecord
  2
06___PRT_ALL_SURFS
 70
0
 62
7
  6
CONTINUOUS
370
-3
390
F
  0
LAYER
  5
205
100
AcDbSymbolTableRecord
100
AcDbLayerTableRecord
  2
INTFCLR_19839
 70
0
 62
7
  6
CONTINUOUS
370
-3
390
F
  0
LAYER
  5
206
100
AcDbSymbolTableRecord
100
AcDbLayerTableRecord
  2
INTFCLR_33548
 70
0
 62
7
  6
CONTINUOUS
370
-3
390
F
  0
LAYER
  5
207
100
AcDbSymbolTableRecord
100
AcDbLayerTableRecord
  2
INTFCLR_46117
 70
0
 62
7
  6
CONTINUOUS
370
-3
390
F
  0
LAYER
  5
208
100
AcDbSymbolTableRecord
100
AcDbLayerTableRecord
  2
INTFCLR_71504
 70
0
 62
7
  6
CONTINUOUS
370
-3
390
F
  0
LAYER
  5
209
100
AcDbSymbolTableRecord
100
AcDbLayerTableRecord
  2
INTFCLR_7428
 70
0
 62
7
  6
CONTINUOUS
370
-3
390
F
  0
LAYER
  5
20A
100
AcDbSymbolTableRecord
100
AcDbLayerTableRecord
  2
INTF_RED
 70
0
 62
7
  6
CONTINUOUS
370
-3
390
F
  0
LAYER
  5
20B
100
AcDbSymbolTableRecord
100
AcDbLayerTableRecord
  2
SHELL
 70
0
 62
7
  6
CONTINUOUS
370
-3
390
F
  0
ENDTAB
  0
TABLE
  2
STYLE
  5
3
100
AcDbSymbolTable
 70
1
  0
STYLE
  5
11
100
AcDbSymbolTableRecord
100
AcDbTextStyleTableRecord
  2
STANDARD
 70
0
 40
0.0
 41
0.8
 50
0.0
 71
0
 42
0.2
  3
txt
  4

  0
STYLE
  5
20C
100
AcDbSymbolTableRecord
100
AcDbTextStyleTableRecord
  2
TEXTSTYLE_1
 70
0
 40
0.0
 41
0.8
 50
0.0
 71
0
 42
0.2
  3
gdt
  4

  0
ENDTAB
  0
TABLE
  2
VIEW
  5
6
100
AcDbSymbolTable
 70
0
  0
ENDTAB
  0
TABLE
  2
UCS
  5
7
100
AcDbSymbolTable
 70
0
  0
ENDTAB
  0
TABLE
  2
APPID
  5
9
100
AcDbSymbolTable
 70
1
  0
APPID
  5
20D
100
AcDbSymbolTableRecord
100
AcDbRegAppTableRecord
  2
ACAD
 70
0
  0
ENDTAB
  0
TABLE
  2
BLOCK_RECORD
  5
1
100
AcDbSymbolTable
 70
0
  0
BLOCK_RECORD
  5
20E
100
AcDbSymbolTableRecord
100
AcDbBlockTableRecord
  2
*Model_Space
  0
BLOCK_RECORD
  5
20F
100
AcDbSymbolTableRecord
100
AcDbBlockTableRecord
  2
*Paper_Space
  0
BLOCK_RECORD
  5
210
100
AcDbSymbolTableRecord
100
AcDbBlockTableRecord
  2
_FILLED
  0
BLOCK_RECORD
  5
211
100
AcDbSymbolTableRecord
100
AcDbBlockTableRecord
  2
*D0
  0
BLOCK_RECORD
  5
212
100
AcDbSymbolTableRecord
100
AcDbBlockTableRecord
  2
*D1
  0
ENDTAB
  0
TABLE
  2
DIMSTYLE
  5
A
100
AcDbSymbolTable
 70
1
100
AcDbDimStyleTable
 71
0
  0
DIMSTYLE
105
213
100
AcDbSymbolTableRecord
100
AcDbDimStyleTableRecord
  2
STANDARD
 70
0
  3

  4

 40
1.0
 41
3.0
 42
0.5
 43
0.38
 44
0.5
 45
0.0
 46
0.0
 47
0.001
 48
0.001
140
1.8
141
0.09
142
0.0
143
25.4
144
1.0
145
0.0
146
1.0
147
0.625
 71
1.0
 72
0.0
 73
0
 74
0
 75
0
 76
0
 77
1
 78
8
170
0
171
2
172
0
173
0
174
0
175
0
176
0
177
0
178
0
270
2
271
3
272
3
273
2
274
2
275
0
280
0
281
0
282
0
283
1
284
8
285
0
286
0
287
3
288
0
340
11
278
46
341
210
342
210
343
210
344
210
  0
DIMSTYLE
105
214
100
AcDbSymbolTableRecord
100
AcDbDimStyleTableRecord
  2
DIMSTYLE_1
 70
0
  3

  4

 40
1.0
 41
3.0
 42
0.5
 43
0.38
 44
0.5
 45
0.0
 46
0.0
 47
0.001
 48
0.001
140
1.8
141
0.09
142
0.0
143
25.4
144
1.0
145
0.0
146
1.0
147
0.45
 71
0.0
 72
0.0
 73
0
 74
0
 75
0
 76
0
 77
1
 78
8
170
0
171
2
172
0
173
0
174
0
175
0
176
0
177
0
178
0
270
2
271
3
272
3
273
2
274
2
275
0
280
0
281
0
282
0
283
1
284
8
285
0
286
0
287
3
288
0
340
11
278
46
341
210
342
210
343
210
344
210
  0
ENDTAB
  0
ENDSEC
  0
SECTION
  2
BLOCKS
  0
BLOCK
  5
20
100
AcDbEntity
  8
0
100
AcDbBlockBegin
  2
*Model_Space
 70
0
 10
0.0
 20
0.0
 30
0.0
  3
*Model_Space
  1

  0
ENDBLK
  5
21
100
AcDbEntity
  8
0
100
AcDbBlockEnd
  0
BLOCK
  5
1C
100
AcDbEntity
  8
0
100
AcDbBlockBegin
  2
*Paper_Space
 70
0
 10
0.0
 20
0.0
 30
0.0
  3
*Paper_Space
  1

  0
ENDBLK
  5
1D
100
AcDbEntity
  8
0
100
AcDbBlockEnd
  0
BLOCK
  5
215
100
AcDbEntity
  8
0
100
AcDbBlockBegin
  2
_FILLED
 70
64
 10
0.0
 20
0.0
  3
_FILLED
  1

  0
SOLID
  5
216
100
AcDbEntity
  8
0
  6
BYBLOCK
 62
0
100
AcDbTrace
 10
0.0
 20
0.0
 11
-1.0
 21
0.1666666667
 12
-1.0
 22
-0.1666666667
 13
-1.0
 23
-0.1666666667
  0
ENDBLK
  5
217
100
AcDbEntity
  8
0
  6
BYBLOCK
 62
0
100
AcDbBlockEnd
  0
BLOCK
  5
218
100
AcDbEntity
  8
0
100
AcDbBlockBegin
 62
2
  6
CONTINUOUS
  2
*D0
 70
65
 10
0.0
 20
0.0
  3
*D0
  1

  0
MTEXT
  5
219
100
AcDbEntity
  8
0
100
AcDbMText
 62
2
  6
CONTINUOUS
  7
STANDARD
 71
2
 72
1
 10
473.9670356318
 20
264.5008312734
 30
0.0
 11
0.0
 21
1.0
 31
0.0
 44
0.9
  1
400
 40
1.8
 41
8.3314285714
  0
LINE
  5
21A
100
AcDbEntity
  8
0
100
AcDbLine
 62
2
  6
CONTINUOUS
 10
284.4756393841
 20
467.9258312734
 11
477.0384642032
 21
467.9258312734
  0
LINE
  5
21B
100
AcDbEntity
  8
0
100
AcDbLine
 62
2
  6
CONTINUOUS
 10
383.4349168075
 20
61.0758312734
 11
477.0384642032
 21
61.0758312734
  0
LINE
  5
21C
100
AcDbEntity
  8
0
100
AcDbLine
 62
2
  6
CONTINUOUS
 10
476.5384642032
 20
467.9258312734
 11
476.5384642032
 21
264.5008312734
  0
LINE
  5
21D
100
AcDbEntity
  8
0
100
AcDbLine
 62
2
  6
CONTINUOUS
 10
476.5384642032
 20
61.0758312734
 11
476.5384642032
 21
264.5008312734
  0
INSERT
  5
21E
100
AcDbEntity
  8
0
100
AcDbBlockReference
 62
2
  6
CONTINUOUS
  2
_FILLED
 10
476.5384642032
 20
467.9258312734
 41
3.0
 42
3.0
 43
3.0
 50
90.0
  0
INSERT
  5
21F
100
AcDbEntity
  8
0
100
AcDbBlockReference
 62
2
  6
CONTINUOUS
  2
_FILLED
 10
476.5384642032
 20
61.0758312734
 41
3.0
 42
3.0
 43
3.0
 50
270.0
  0
ENDBLK
  5
220
100
AcDbEntity
  8
0
  6
BYBLOCK
 62
0
100
AcDbBlockEnd
  0
BLOCK
  5
221
100
AcDbEntity
  8
0
100
AcDbBlockBegin
 62
2
  6
CONTINUOUS
  2
*D1
 70
65
 10
0.0
 20
0.0
  3
*D1
  1

  0
MTEXT
  5
222
100
AcDbEntity
  8
0
100
AcDbMText
 62
2
  6
CONTINUOUS
  7
TEXTSTYLE_1
 71
2
 72
1
 10
283.9756393841
 20
506.5663162386
 30
0.0
 11
1.0
 21
0.0
 31
0.0
 44
0.9
  1
{\Fgdt;n}\Ftxt;255
 40
1.8
 41
11.9314285714
  0
LINE
  5
223
100
AcDbEntity
  8
0
100
AcDbLine
 62
2
  6
CONTINUOUS
 10
408.2256393841
 20
456.53847019
 11
408.2256393841
 21
504.4948876671
  0
LINE
  5
224
100
AcDbEntity
  8
0
100
AcDbLine
 62
2
  6
CONTINUOUS
 10
159.7256393841
 20
456.53847019
 11
159.7256393841
 21
504.4948876671
  0
LINE
  5
225
100
AcDbEntity
  8
0
100
AcDbLine
 62
2
  6
CONTINUOUS
 10
408.2256393841
 20
503.9948876671
 11
283.9756393841
 21
503.9948876671
  0
LINE
  5
226
100
AcDbEntity
  8
0
100
AcDbLine
 62
2
  6
CONTINUOUS
 10
159.7256393841
 20
503.9948876671
 11
283.9756393841
 21
503.9948876671
  0
INSERT
  5
227
100
AcDbEntity
  8
0
100
AcDbBlockReference
 62
2
  6
CONTINUOUS
  2
_FILLED
 10
408.2256393841
 20
503.9948876671
 41
3.0
 42
3.0
 43
3.0
  0
INSERT
  5
228
100
AcDbEntity
  8
0
100
AcDbBlockReference
 62
2
  6
CONTINUOUS
  2
_FILLED
 10
159.7256393841
 20
503.9948876671
 41
3.0
 42
3.0
 43
3.0
 50
180.0
  0
ENDBLK
  5
229
100
AcDbEntity
  8
0
  6
BYBLOCK
 62
0
100
AcDbBlockEnd
  0
ENDSEC
  0
SECTION
  2
ENTITIES
  0
DIMENSION
  5
22A
100
AcDbEntity
  8
0
100
AcDbDimension
 62
2
  6
CONTINUOUS
  2
*D0
 10
476.5384642032
 20
61.0758312734
 11
476.5384642032
 21
264.5008312734
 70
160
 71
2
 42
406.85
  3
DIMSTYLE_1
100
AcDbAlignedDimension
 13
283.9756393841
 23
467.9258312734
 14
382.9349168075
 24
61.0758312734
 50
270.0
100
AcDbRotatedDimension
  0
DIMENSION
  5
22B
100
AcDbEntity
  8
0
100
AcDbDimension
 62
2
  6
CONTINUOUS
  2
*D1
 10
159.7256393841
 20
503.9948876671
 11
283.9756393841
 21
503.9948876671
 70
160
 71
2
 42
248.5
  1
%%c<>
  3
DIMSTYLE_1
100
AcDbAlignedDimension
 13
408.2256393841
 23
456.03847019
 14
159.7256393841
 24
456.03847019
 50
180.0
100
AcDbRotatedDimension
  0
LINE
  5
22C
100
AcDbEntity
  8
0
100
AcDbLine
 62
7
  6
CONTINUOUS
 10
128.6609637838
 20
67.5758312734
 11
128.6587212301
 21
67.5777668729
  0
LINE
  5
22D
100
AcDbEntity
  8
0
100
AcDbLine
 62
7
  6
CONTINUOUS
 10
142.2111634605
 20
91.5758312734
 11
154.3185079888
 21
82.3448867635
  0
LINE
  5
22E
100
AcDbEntity
  8
0
100
AcDbLine
 62
7
  6
CONTINUOUS
 10
150.180481603
 20
91.4854957025
 11
157.2045199772
 21
86.1301918771
  0
LINE
  5
22F
100
AcDbEntity
  8
0
100
AcDbLine
 62
7
  6
CONTINUOUS
 10
156.6088167544
 20
57.437900239
 11
131.6089599709
 21
57.437900239
  0
LINE
  5
230
100
AcDbEntity
  8
0
100
AcDbLine
 62
7
  6
CONTINUOUS
 10
143.7465189457
 20
59.5758312734
 11
131.2345076384
 21
59.5758312734
  0
LINE
  5
231
100
AcDbEntity
  8
0
100
AcDbLine
 62
7
  6
CONTINUOUS
 10
131.0080153259
 20
59.5758312734
 11
128.6609637838
 21
59.5758312734
  0
LINE
  5
232
100
AcDbEntity
  8
0
100
AcDbLine
 62
7
  6
CONTINUOUS
 10
382.9349168075
 20
61.0758312734
 11
376.5024979222
 21
61.0758312734
  0
LINE
  5
233
100
AcDbEntity
  8
0
100
AcDbLine
 62
7
  6
CONTINUOUS
 10
375.0688556359
 20
61.0758312734
 11
367.0963063488
 21
61.0758312734
  0
LINE
  5
234
100
AcDbEntity
  8
0
100
AcDbLine
 62
7
  6
CONTINUOUS
 10
366.2406791333
 20
61.0758312734
 11
359.7279523385
 21
61.0758312734
  0
LINE
  5
235
100
AcDbEntity
  8
0
100
AcDbLine
 62
7
  6
CONTINUOUS
 10
208.2233264298
 20
61.0758312734
 11
201.710599635
 21
61.0758312734
  0
LINE
  5
236
100
AcDbEntity
  8
0
100
AcDbLine
 62
7
  6
CONTINUOUS
 10
200.8549724195
 20
61.0758312734
 11
192.8824231324
 21
61.0758312734
  0
LINE
  5
237
100
AcDbEntity
  8
0
100
AcDbLine
 62
7
  6
CONTINUOUS
 10
191.4487808461
 20
61.0758312734
 11
185.0163619608
 21
61.0758312734
  0
LINE
  5
238
100
AcDbEntity
  8
0
100
AcDbLine
 62
7
  6
CONTINUOUS
 10
414.1707485189
 20
62.5758312734
 11
383.2734515787
 21
62.5758312734
  0
LINE
  5
239
100
AcDbEntity
  8
0
100
AcDbLine
 62
7
  6
CONTINUOUS
 10
376.5175495025
 20
62.5758312734
 11
199.7676670831
 21
62.5758312734
  0
LINE
  5
23A
100
AcDbEntity
  8
0
100
AcDbLine
 62
7
  6
CONTINUOUS
 10
192.394893715
 20
62.5758312734
 11
146.7436636105
 21
62.5758312734
  0
LINE
  5
23B
100
AcDbEntity
  8
0
100
AcDbLine
 62
7
  6
CONTINUOUS
 10
131.1036494763
 20
62.5758312734
 11
129.1407770448
 21
62.5758312734
  0
LINE
  5
23C
100
AcDbEntity
  8
0
100
AcDbLine
 62
7
  6
CONTINUOUS
 10
131.5834627373
 20
67.5758312734
 11
128.6609637838
 21
67.5758312734
  0
LINE
  5
23D
100
AcDbEntity
  8
0
100
AcDbLine
 62
7
  6
CONTINUOUS
 10
140.9213607301
 20
71.237900239
 11
140.2588883627
 21
71.237900239
  0
LINE
  5
23E
100
AcDbEntity
  8
0
100
AcDbLine
 62
7
  6
CONTINUOUS
 10
140.4588883627
 20
71.437900239
 11
141.5171537483
 21
71.437900239
  0
LINE
  5
23F
100
AcDbEntity
  8
0
100
AcDbLine
 62
7
  6
CONTINUOUS
 10
166.4824585762
 20
71.5758312734
 11
408.9721305403
 21
71.5758312734
  0
LINE
  5
240
100
AcDbEntity
  8
0
100
AcDbLine
 62
7
  6
CONTINUOUS
 10
407.9756393841
 20
73.7258312734
 11
166.4824585762
 21
73.7258312734
  0
LINE
  5
241
100
AcDbEntity
  8
0
100
AcDbLine
 62
7
  6
CONTINUOUS
 10
117.1256802646
 20
93.6031124427
 11
117.1314448446
 21
93.6023330434
  0
LINE
  5
242
100
AcDbEntity
  8
0
100
AcDbLine
 62
7
  6
CONTINUOUS
 10
178.6033782758
 20
463.6089055246
 11
177.4531394305
 21
461.6166334037
  0
LINE
  5
243
100
AcDbEntity
  8
0
100
AcDbLine
 62
7
  6
CONTINUOUS
 10
408.1348479101
 20
76.8258312734
 11
407.6811282212
 21
76.8258312734
  0
LINE
  5
244
100
AcDbEntity
  8
0
100
AcDbLine
 62
7
  6
CONTINUOUS
 10
166.2044102764
 20
84.2058312734
 11
167.5632579098
 21
84.2058312734
  0
LINE
  5
245
100
AcDbEntity
  8
0
100
AcDbLine
 62
7
  6
CONTINUOUS
 10
169.2338552265
 20
87.1258312734
 11
168.8104627855
 21
87.1258312734
  0
LINE
  5
246
100
AcDbEntity
  8
0
100
AcDbLine
 62
7
  6
CONTINUOUS
 10
117.4117953506
 20
91.5758312734
 11
169.4510654281
 21
91.5758312734
  0
LINE
  5
247
100
AcDbEntity
  8
0
100
AcDbLine
 62
7
  6
CONTINUOUS
 10
117.4108502703
 20
91.5720893342
 11
117.1256802646
 21
93.6031124427
  0
LINE
  5
248
100
AcDbEntity
  8
0
100
AcDbLine
 62
7
  6
CONTINUOUS
 10
120.2720407349
 20
93.6023330434
 11
120.5565759127
 21
91.5758312734
  0
LINE
  5
249
100
AcDbEntity
  8
0
100
AcDbLine
 62
7
  6
CONTINUOUS
 10
122.7058925009
 20
97.0120686279
 11
122.7754128204
 21
96.5169345936
  0
LINE
  5
24A
100
AcDbEntity
  8
0
100
AcDbLine
 62
7
  6
CONTINUOUS
 10
122.8626515952
 20
96.5169345936
 11
122.7931312757
 21
97.0120686279
  0
LINE
  5
24B
100
AcDbEntity
  8
0
100
AcDbLine
 62
7
  6
CONTINUOUS
 10
122.8585603567
 20
97.0120686279
 11
122.9280806762
 21
96.5169345936
  0
LINE
  5
24C
100
AcDbEntity
  8
0
100
AcDbLine
 62
7
  6
CONTINUOUS
 10
123.0153194509
 20
96.5169345936
 11
122.9457991314
 21
97.0120686279
  0
LINE
  5
24D
100
AcDbEntity
  8
0
100
AcDbLine
 62
7
  6
CONTINUOUS
 10
123.0112282125
 20
97.0120686279
 11
123.080748532
 21
96.5169345936
  0
LINE
  5
24E
100
AcDbEntity
  8
0
100
AcDbLine
 62
7
  6
CONTINUOUS
 10
123.1679873067
 20
96.5169345936
 11
123.0984669872
 21
97.0120686279
  0
LINE
  5
24F
100
AcDbEntity
  8
0
100
AcDbLine
 62
7
  6
CONTINUOUS
 10
123.1638960683
 20
97.0120686279
 11
123.2334163878
 21
96.5169345936
  0
LINE
  5
250
100
AcDbEntity
  8
0
100
AcDbLine
 62
7
  6
CONTINUOUS
 10
123.3206551625
 20
96.5169345936
 11
123.251134843
 21
97.0120686279
  0
LINE
  5
251
100
AcDbEntity
  8
0
100
AcDbLine
 62
7
  6
CONTINUOUS
 10
123.3165639241
 20
97.0120686279
 11
123.3860842436
 21
96.5169345936
  0
LINE
  5
252
100
AcDbEntity
  8
0
100
AcDbLine
 62
7
  6
CONTINUOUS
 10
123.4733230183
 20
96.5169345936
 11
123.4038026988
 21
97.0120686279
  0
LINE
  5
253
100
AcDbEntity
  8
0
100
AcDbLine
 62
7
  6
CONTINUOUS
 10
123.4692317798
 20
97.0120686279
 11
123.5387520993
 21
96.5169345936
  0
LINE
  5
254
100
AcDbEntity
  8
0
100
AcDbLine
 62
7
  6
CONTINUOUS
 10
123.6259908741
 20
96.5169345936
 11
123.5564705546
 21
97.0120686279
  0
LINE
  5
255
100
AcDbEntity
  8
0
100
AcDbLine
 62
7
  6
CONTINUOUS
 10
123.6218996356
 20
97.0120686279
 11
123.6914199551
 21
96.5169345936
  0
LINE
  5
256
100
AcDbEntity
  8
0
100
AcDbLine
 62
7
  6
CONTINUOUS
 10
123.7786587298
 20
96.5169345936
 11
123.7091384103
 21
97.0120686279
  0
LINE
  5
257
100
AcDbEntity
  8
0
100
AcDbLine
 62
7
  6
CONTINUOUS
 10
123.7745674914
 20
97.0120686279
 11
123.8440878109
 21
96.5169345936
  0
LINE
  5
258
100
AcDbEntity
  8
0
100
AcDbLine
 62
7
  6
CONTINUOUS
 10
123.9313265856
 20
96.5169345936
 11
123.8618062661
 21
97.0120686279
  0
LINE
  5
259
100
AcDbEntity
  8
0
100
AcDbLine
 62
7
  6
CONTINUOUS
 10
123.9272353472
 20
97.0120686279
 11
123.9967556667
 21
96.5169345936
  0
LINE
  5
25A
100
AcDbEntity
  8
0
100
AcDbLine
 62
7
  6
CONTINUOUS
 10
124.0839944414
 20
96.5169345936
 11
124.0144741219
 21
97.0120686279
  0
LINE
  5
25B
100
AcDbEntity
  8
0
100
AcDbLine
 62
7
  6
CONTINUOUS
 10
124.0799032029
 20
97.0120686279
 11
124.1494235224
 21
96.5169345936
  0
LINE
  5
25C
100
AcDbEntity
  8
0
100
AcDbLine
 62
7
  6
CONTINUOUS
 10
124.2366622972
 20
96.5169345936
 11
124.1671419777
 21
97.0120686279
  0
LINE
  5
25D
100
AcDbEntity
  8
0
100
AcDbLine
 62
7
  6
CONTINUOUS
 10
124.2325710587
 20
97.0120686279
 11
124.3020913782
 21
96.5169345936
  0
LINE
  5
25E
100
AcDbEntity
  8
0
100
AcDbLine
 62
7
  6
CONTINUOUS
 10
124.389330153
 20
96.5169345936
 11
124.3198098335
 21
97.0120686279
  0
LINE
  5
25F
100
AcDbEntity
  8
0
100
AcDbLine
 62
7
  6
CONTINUOUS
 10
124.3852389145
 20
97.0120686279
 11
124.454759234
 21
96.5169345936
  0
LINE
  5
260
100
AcDbEntity
  8
0
100
AcDbLine
 62
7
  6
CONTINUOUS
 10
124.5419980087
 20
96.5169345936
 11
124.4724776892
 21
97.0120686279
  0
LINE
  5
261
100
AcDbEntity
  8
0
100
AcDbLine
 62
7
  6
CONTINUOUS
 10
124.5379067703
 20
97.0120686279
 11
124.6074270898
 21
96.5169345936
  0
LINE
  5
262
100
AcDbEntity
  8
0
100
AcDbLine
 62
7
  6
CONTINUOUS
 10
124.6946658645
 20
96.5169345936
 11
124.625145545
 21
97.0120686279
  0
LINE
  5
263
100
AcDbEntity
  8
0
100
AcDbLine
 62
7
  6
CONTINUOUS
 10
124.6905746261
 20
97.0120686279
 11
124.7600949456
 21
96.5169345936
  0
LINE
  5
264
100
AcDbEntity
  8
0
100
AcDbLine
 62
7
  6
CONTINUOUS
 10
124.8473337203
 20
96.5169345936
 11
124.7778134008
 21
97.0120686279
  0
LINE
  5
265
100
AcDbEntity
  8
0
100
AcDbLine
 62
7
  6
CONTINUOUS
 10
124.8432424818
 20
97.0120686279
 11
124.9127628013
 21
96.5169345936
  0
LINE
  5
266
100
AcDbEntity
  8
0
100
AcDbLine
 62
7
  6
CONTINUOUS
 10
125.0000015761
 20
96.5169345936
 11
124.9304812566
 21
97.0120686279
  0
LINE
  5
267
100
AcDbEntity
  8
0
100
AcDbLine
 62
7
  6
CONTINUOUS
 10
124.9959103376
 20
97.0120686279
 11
125.0654306571
 21
96.5169345936
  0
LINE
  5
268
100
AcDbEntity
  8
0
100
AcDbLine
 62
7
  6
CONTINUOUS
 10
125.1526694319
 20
96.5169345936
 11
125.0831491123
 21
97.0120686279
  0
LINE
  5
269
100
AcDbEntity
  8
0
100
AcDbLine
 62
7
  6
CONTINUOUS
 10
125.1485781934
 20
97.0120686279
 11
125.2180985129
 21
96.5169345936
  0
LINE
  5
26A
100
AcDbEntity
  8
0
100
AcDbLine
 62
7
  6
CONTINUOUS
 10
125.3053372876
 20
96.5169345936
 11
125.2358169681
 21
97.0120686279
  0
LINE
  5
26B
100
AcDbEntity
  8
0
100
AcDbLine
 62
7
  6
CONTINUOUS
 10
125.3012460492
 20
97.0120686279
 11
125.3707663687
 21
96.5169345936
  0
LINE
  5
26C
100
AcDbEntity
  8
0
100
AcDbLine
 62
7
  6
CONTINUOUS
 10
125.4580051434
 20
96.5169345936
 11
125.3884848239
 21
97.0120686279
  0
LINE
  5
26D
100
AcDbEntity
  8
0
100
AcDbLine
 62
7
  6
CONTINUOUS
 10
125.453913905
 20
97.0120686279
 11
125.5234342245
 21
96.5169345936
  0
LINE
  5
26E
100
AcDbEntity
  8
0
100
AcDbLine
 62
7
  6
CONTINUOUS
 10
125.6106729992
 20
96.5169345936
 11
125.5411526797
 21
97.0120686279
  0
LINE
  5
26F
100
AcDbEntity
  8
0
100
AcDbLine
 62
7
  6
CONTINUOUS
 10
125.6065817607
 20
97.0120686279
 11
125.6761020802
 21
96.5169345936
  0
LINE
  5
270
100
AcDbEntity
  8
0
100
AcDbLine
 62
7
  6
CONTINUOUS
 10
125.763340855
 20
96.5169345936
 11
125.6938205355
 21
97.0120686279
  0
LINE
  5
271
100
AcDbEntity
  8
0
100
AcDbLine
 62
7
  6
CONTINUOUS
 10
125.7592496165
 20
97.0120686279
 11
125.828769936
 21
96.5169345936
  0
LINE
  5
272
100
AcDbEntity
  8
0
100
AcDbLine
 62
7
  6
CONTINUOUS
 10
125.9160087107
 20
96.5169345936
 11
125.8464883912
 21
97.0120686279
  0
LINE
  5
273
100
AcDbEntity
  8
0
100
AcDbLine
 62
7
  6
CONTINUOUS
 10
126.8714908795
 20
91.5758312734
 11
126.4697103768
 21
94.4373716492
  0
LINE
  5
274
100
AcDbEntity
  8
0
100
AcDbLine
 62
7
  6
CONTINUOUS
 10
126.1685319363
 20
97.4991744813
 11
126.1968369807
 21
97.2975817539
  0
LINE
  5
275
100
AcDbEntity
  8
0
100
AcDbLine
 62
7
  6
CONTINUOUS
 10
126.2705830494
 20
97.3936788093
 11
126.255770711
 21
97.4991744813
  0
LINE
  5
276
100
AcDbEntity
  8
0
100
AcDbLine
 62
7
  6
CONTINUOUS
 10
126.3211997921
 20
97.4991744813
 11
126.3495048365
 21
97.2975817539
  0
LINE
  5
277
100
AcDbEntity
  8
0
100
AcDbLine
 62
7
  6
CONTINUOUS
 10
126.4232509051
 20
97.3936788093
 11
126.4084385668
 21
97.4991744813
  0
LINE
  5
278
100
AcDbEntity
  8
0
100
AcDbLine
 62
7
  6
CONTINUOUS
 10
126.4738676479
 20
97.4991744813
 11
126.5021726923
 21
97.2975817539
  0
LINE
  5
279
100
AcDbEntity
  8
0
100
AcDbLine
 62
7
  6
CONTINUOUS
 10
126.5759187609
 20
97.3936788093
 11
126.5611064226
 21
97.4991744813
  0
LINE
  5
27A
100
AcDbEntity
  8
0
100
AcDbLine
 62
7
  6
CONTINUOUS
 10
126.6265355037
 20
97.4991744813
 11
126.654840548
 21
97.2975817539
  0
LINE
  5
27B
100
AcDbEntity
  8
0
100
AcDbLine
 62
7
  6
CONTINUOUS
 10
126.7285866167
 20
97.3936788093
 11
126.7137742784
 21
97.4991744813
  0
LINE
  5
27C
100
AcDbEntity
  8
0
100
AcDbLine
 62
7
  6
CONTINUOUS
 10
126.7792033594
 20
97.4991744813
 11
126.8075084038
 21
97.2975817539
  0
LINE
  5
27D
100
AcDbEntity
  8
0
100
AcDbLine
 62
7
  6
CONTINUOUS
 10
126.8812544725
 20
97.3936788093
 11
126.8664421342
 21
97.4991744813
  0
LINE
  5
27E
100
AcDbEntity
  8
0
100
AcDbLine
 62
7
  6
CONTINUOUS
 10
126.9318712152
 20
97.4991744813
 11
126.9601762596
 21
97.2975817539
  0
LINE
  5
27F
100
AcDbEntity
  8
0
100
AcDbLine
 62
7
  6
CONTINUOUS
 10
131.1036494763
 20
62.5758312734
 11
131.2345076384
 21
59.5758312734
  0
LINE
  5
280
100
AcDbEntity
  8
0
100
AcDbLine
 62
7
  6
CONTINUOUS
 10
118.8753027645
 20
95.4633738943
 11
119.0977677869
 21
95.4789449843
  0
LINE
  5
281
100
AcDbEntity
  8
0
100
AcDbLine
 62
7
  6
CONTINUOUS
 10
117.1314448446
 20
93.6023330434
 11
120.2720407349
 21
93.6023330434
  0
LINE
  5
282
100
AcDbEntity
  8
0
100
AcDbLine
 62
7
  6
CONTINUOUS
 10
121.6324965972
 20
95.409438915
 11
118.4919007069
 21
95.409438915
  0
LINE
  5
283
100
AcDbEntity
  8
0
100
AcDbLine
 62
7
  6
CONTINUOUS
 10
118.8753027645
 20
95.4633738943
 11
122.1637116102
 21
95.4789449843
  0
LINE
  5
284
100
AcDbEntity
  8
0
100
AcDbLine
 62
7
  6
CONTINUOUS
 10
124.9157783109
 20
96.3777614926
 11
121.7969921143
 21
96.3777614926
  0
LINE
  5
285
100
AcDbEntity
  8
0
100
AcDbLine
 62
2
  6
CONTINUOUS
 10
314.5083663151
 20
102.5858312734
 11
314.399753754
 21
102.5858312734
  0
LINE
  5
286
100
AcDbEntity
  8
0
100
AcDbLine
 62
2
  6
CONTINUOUS
 10
314.0432760904
 20
102.5858312734
 11
313.9249913574
 21
102.5858312734
  0
LINE
  5
287
100
AcDbEntity
  8
0
100
AcDbLine
 62
2
  6
CONTINUOUS
 10
313.9249913574
 20
102.9858312734
 11
314.0432760904
 21
102.9858312734
  0
LINE
  5
288
100
AcDbEntity
  8
0
100
AcDbLine
 62
2
  6
CONTINUOUS
 10
314.399753754
 20
102.9858312734
 11
314.5083663151
 21
102.9858312734
  0
LINE
  5
289
100
AcDbEntity
  8
0
100
AcDbLine
 62
7
  6
CONTINUOUS
 10
167.5301636648
 20
104.5258312734
 11
167.949482691
 21
104.5258312734
  0
LINE
  5
28A
100
AcDbEntity
  8
0
100
AcDbLine
 62
7
  6
CONTINUOUS
 10
169.1276773342
 20
105.3258312734
 11
167.8216218037
 21
105.3258312734
  0
LINE
  5
28B
100
AcDbEntity
  8
0
100
AcDbLine
 62
7
  6
CONTINUOUS
 10
127.0339223282
 20
97.3936788093
 11
127.0191099899
 21
97.4991744813
  0
LINE
  5
28C
100
AcDbEntity
  8
0
100
AcDbLine
 62
7
  6
CONTINUOUS
 10
127.084539071
 20
97.4991744813
 11
127.1128441154
 21
97.2975817539
  0
LINE
  5
28D
100
AcDbEntity
  8
0
100
AcDbLine
 62
7
  6
CONTINUOUS
 10
127.186590184
 20
97.3936788093
 11
127.1717778457
 21
97.4991744813
  0
LINE
  5
28E
100
AcDbEntity
  8
0
100
AcDbLine
 62
7
  6
CONTINUOUS
 10
127.2372069268
 20
97.4991744813
 11
127.2655119711
 21
97.2975817539
  0
LINE
  5
28F
100
AcDbEntity
  8
0
100
AcDbLine
 62
7
  6
CONTINUOUS
 10
127.3392580398
 20
97.3936788093
 11
127.3244457015
 21
97.4991744813
  0
LINE
  5
290
100
AcDbEntity
  8
0
100
AcDbLine
 62
7
  6
CONTINUOUS
 10
127.3898747825
 20
97.4991744813
 11
127.4181798269
 21
97.2975817539
  0
LINE
  5
291
100
AcDbEntity
  8
0
100
AcDbLine
 62
7
  6
CONTINUOUS
 10
127.4919258956
 20
97.3936788093
 11
127.4771135573
 21
97.4991744813
  0
LINE
  5
292
100
AcDbEntity
  8
0
100
AcDbLine
 62
7
  6
CONTINUOUS
 10
127.5425426383
 20
97.4991744813
 11
127.5708476827
 21
97.2975817539
  0
LINE
  5
293
100
AcDbEntity
  8
0
100
AcDbLine
 62
7
  6
CONTINUOUS
 10
127.6445937514
 20
97.3936788093
 11
127.6297814131
 21
97.4991744813
  0
LINE
  5
294
100
AcDbEntity
  8
0
100
AcDbLine
 62
7
  6
CONTINUOUS
 10
127.6952104941
 20
97.4991744813
 11
127.7235155385
 21
97.2975817539
  0
LINE
  5
295
100
AcDbEntity
  8
0
100
AcDbLine
 62
7
  6
CONTINUOUS
 10
127.7972616071
 20
97.3936788093
 11
127.7824492688
 21
97.4991744813
  0
LINE
  5
296
100
AcDbEntity
  8
0
100
AcDbLine
 62
7
  6
CONTINUOUS
 10
127.8946598167
 20
96.7952807955
 11
127.8251394972
 21
97.2904148298
  0
LINE
  5
297
100
AcDbEntity
  8
0
100
AcDbLine
 62
7
  6
CONTINUOUS
 10
127.8478783499
 20
97.4991744813
 11
127.8761833943
 21
97.2975817539
  0
LINE
  5
298
100
AcDbEntity
  8
0
100
AcDbLine
 62
7
  6
CONTINUOUS
 10
128.0046374441
 20
97.0040404469
 11
127.9351171246
 21
97.4991744813
  0
LINE
  5
299
100
AcDbEntity
  8
0
100
AcDbLine
 62
7
  6
CONTINUOUS
 10
128.0005462057
 20
97.4991744813
 11
128.0700665252
 21
97.0040404469
  0
LINE
  5
29A
100
AcDbEntity
  8
0
100
AcDbLine
 62
7
  6
CONTINUOUS
 10
128.1573052999
 20
97.0040404469
 11
128.0877849804
 21
97.4991744813
  0
LINE
  5
29B
100
AcDbEntity
  8
0
100
AcDbLine
 62
7
  6
CONTINUOUS
 10
128.1532140614
 20
97.4991744813
 11
128.2227343809
 21
97.0040404469
  0
LINE
  5
29C
100
AcDbEntity
  8
0
100
AcDbLine
 62
7
  6
CONTINUOUS
 10
128.3099731557
 20
97.0040404469
 11
128.2404528362
 21
97.4991744813
  0
LINE
  5
29D
100
AcDbEntity
  8
0
100
AcDbLine
 62
7
  6
CONTINUOUS
 10
128.3058819172
 20
97.4991744813
 11
128.3754022367
 21
97.0040404469
  0
LINE
  5
29E
100
AcDbEntity
  8
0
100
AcDbLine
 62
7
  6
CONTINUOUS
 10
128.4626410115
 20
97.0040404469
 11
128.3931206919
 21
97.4991744813
  0
LINE
  5
29F
100
AcDbEntity
  8
0
100
AcDbLine
 62
7
  6
CONTINUOUS
 10
128.458549773
 20
97.4991744813
 11
128.5280700925
 21
97.0040404469
  0
LINE
  5
2A0
100
AcDbEntity
  8
0
100
AcDbLine
 62
7
  6
CONTINUOUS
 10
128.6153088672
 20
97.0040404469
 11
128.5457885477
 21
97.4991744813
  0
LINE
  5
2A1
100
AcDbEntity
  8
0
100
AcDbLine
 62
7
  6
CONTINUOUS
 10
128.6112176288
 20
97.4991744813
 11
128.6807379483
 21
97.0040404469
  0
LINE
  5
2A2
100
AcDbEntity
  8
0
100
AcDbLine
 62
7
  6
CONTINUOUS
 10
128.767976723
 20
97.0040404469
 11
128.6984564035
 21
97.4991744813
  0
LINE
  5
2A3
100
AcDbEntity
  8
0
100
AcDbLine
 62
7
  6
CONTINUOUS
 10
128.7638854846
 20
97.4991744813
 11
128.8334058041
 21
97.0040404469
  0
LINE
  5
2A4
100
AcDbEntity
  8
0
100
AcDbLine
 62
7
  6
CONTINUOUS
 10
128.9206445788
 20
97.0040404469
 11
128.8511242593
 21
97.4991744813
  0
LINE
  5
2A5
100
AcDbEntity
  8
0
100
AcDbLine
 62
7
  6
CONTINUOUS
 10
128.9165533403
 20
97.4991744813
 11
128.9860736598
 21
97.0040404469
  0
LINE
  5
2A6
100
AcDbEntity
  8
0
100
AcDbLine
 62
7
  6
CONTINUOUS
 10
129.0733124346
 20
97.0040404469
 11
129.0037921151
 21
97.4991744813
  0
LINE
  5
2A7
100
AcDbEntity
  8
0
100
AcDbLine
 62
7
  6
CONTINUOUS
 10
129.0692211961
 20
97.4991744813
 11
129.1387415156
 21
97.0040404469
  0
LINE
  5
2A8
100
AcDbEntity
  8
0
100
AcDbLine
 62
7
  6
CONTINUOUS
 10
129.2259802903
 20
97.0040404469
 11
129.1564599708
 21
97.4991744813
  0
LINE
  5
2A9
100
AcDbEntity
  8
0
100
AcDbLine
 62
7
  6
CONTINUOUS
 10
129.2218890519
 20
97.4991744813
 11
129.2914093714
 21
97.0040404469
  0
LINE
  5
2AA
100
AcDbEntity
  8
0
100
AcDbLine
 62
7
  6
CONTINUOUS
 10
129.3786481461
 20
97.0040404469
 11
129.3091278266
 21
97.4991744813
  0
LINE
  5
2AB
100
AcDbEntity
  8
0
100
AcDbLine
 62
7
  6
CONTINUOUS
 10
129.6311713717
 20
97.9862803346
 11
129.6594764161
 21
97.7846876073
  0
LINE
  5
2AC
100
AcDbEntity
  8
0
100
AcDbLine
 62
7
  6
CONTINUOUS
 10
129.7332224847
 20
97.8807846626
 11
129.7184101464
 21
97.9862803346
  0
LINE
  5
2AD
100
AcDbEntity
  8
0
100
AcDbLine
 62
7
  6
CONTINUOUS
 10
129.7838392275
 20
97.9862803346
 11
129.8121442719
 21
97.7846876073
  0
LINE
  5
2AE
100
AcDbEntity
  8
0
100
AcDbLine
 62
7
  6
CONTINUOUS
 10
129.8858903405
 20
97.8807846626
 11
129.8710780022
 21
97.9862803346
  0
LINE
  5
2AF
100
AcDbEntity
  8
0
100
AcDbLine
 62
7
  6
CONTINUOUS
 10
129.9365070833
 20
97.9862803346
 11
129.9648121276
 21
97.7846876073
  0
LINE
  5
2B0
100
AcDbEntity
  8
0
100
AcDbLine
 62
7
  6
CONTINUOUS
 10
130.0385581963
 20
97.8807846626
 11
130.023745858
 21
97.9862803346
  0
LINE
  5
2B1
100
AcDbEntity
  8
0
100
AcDbLine
 62
7
  6
CONTINUOUS
 10
130.089174939
 20
97.9862803346
 11
130.1174799834
 21
97.7846876073
  0
LINE
  5
2B2
100
AcDbEntity
  8
0
100
AcDbLine
 62
7
  6
CONTINUOUS
 10
130.1912260521
 20
97.8807846626
 11
130.1764137138
 21
97.9862803346
  0
LINE
  5
2B3
100
AcDbEntity
  8
0
100
AcDbLine
 62
7
  6
CONTINUOUS
 10
130.2418427948
 20
97.9862803346
 11
130.2701478392
 21
97.7846876073
  0
LINE
  5
2B4
100
AcDbEntity
  8
0
100
AcDbLine
 62
7
  6
CONTINUOUS
 10
130.3438939078
 20
97.8807846626
 11
130.3290815695
 21
97.9862803346
  0
LINE
  5
2B5
100
AcDbEntity
  8
0
100
AcDbLine
 62
7
  6
CONTINUOUS
 10
130.3945106506
 20
97.9862803346
 11
130.422815695
 21
97.7846876073
  0
LINE
  5
2B6
100
AcDbEntity
  8
0
100
AcDbLine
 62
7
  6
CONTINUOUS
 10
131.2955082435
 20
91.5758312734
 11
131.4979540578
 21
90.1339821349
  0
LINE
  5
2B7
100
AcDbEntity
  8
0
100
AcDbLine
 62
7
  6
CONTINUOUS
 10
130.4965617636
 20
97.8807846626
 11
130.4817494253
 21
97.9862803346
  0
LINE
  5
2B8
100
AcDbEntity
  8
0
100
AcDbLine
 62
7
  6
CONTINUOUS
 10
130.5471785064
 20
97.9862803346
 11
130.5754835507
 21
97.7846876073
  0
LINE
  5
2B9
100
AcDbEntity
  8
0
100
AcDbLine
 62
7
  6
CONTINUOUS
 10
130.6492296194
 20
97.8807846626
 11
130.6344172811
 21
97.9862803346
  0
LINE
  5
2BA
100
AcDbEntity
  8
0
100
AcDbLine
 62
7
  6
CONTINUOUS
 10
130.6998463621
 20
97.9862803346
 11
130.7281514065
 21
97.7846876073
  0
LINE
  5
2BB
100
AcDbEntity
  8
0
100
AcDbLine
 62
7
  6
CONTINUOUS
 10
130.8018974752
 20
97.8807846626
 11
130.7870851369
 21
97.9862803346
  0
LINE
  5
2BC
100
AcDbEntity
  8
0
100
AcDbLine
 62
7
  6
CONTINUOUS
 10
130.8525142179
 20
97.9862803346
 11
130.8808192623
 21
97.7846876073
  0
LINE
  5
2BD
100
AcDbEntity
  8
0
100
AcDbLine
 62
7
  6
CONTINUOUS
 10
130.954565331
 20
97.8807846626
 11
130.9397529927
 21
97.9862803346
  0
LINE
  5
2BE
100
AcDbEntity
  8
0
100
AcDbLine
 62
7
  6
CONTINUOUS
 10
131.0051820737
 20
97.9862803346
 11
131.0334871181
 21
97.7846876073
  0
LINE
  5
2BF
100
AcDbEntity
  8
0
100
AcDbLine
 62
7
  6
CONTINUOUS
 10
131.1072331867
 20
97.8807846626
 11
131.0924208484
 21
97.9862803346
  0
LINE
  5
2C0
100
AcDbEntity
  8
0
100
AcDbLine
 62
7
  6
CONTINUOUS
 10
131.1578499295
 20
97.9862803346
 11
131.1861549739
 21
97.7846876073
  0
LINE
  5
2C1
100
AcDbEntity
  8
0
100
AcDbLine
 62
7
  6
CONTINUOUS
 10
131.2599010425
 20
97.8807846626
 11
131.2450887042
 21
97.9862803346
  0
LINE
  5
2C2
100
AcDbEntity
  8
0
100
AcDbLine
 62
7
  6
CONTINUOUS
 10
131.3572992521
 20
97.2823866488
 11
131.2877789326
 21
97.7775206832
  0
LINE
  5
2C3
100
AcDbEntity
  8
0
100
AcDbLine
 62
7
  6
CONTINUOUS
 10
131.3105177853
 20
97.9862803346
 11
131.3388228296
 21
97.7846876073
  0
LINE
  5
2C4
100
AcDbEntity
  8
0
100
AcDbLine
 62
7
  6
CONTINUOUS
 10
131.4672768795
 20
97.4911463003
 11
131.39775656
 21
97.9862803346
  0
LINE
  5
2C5
100
AcDbEntity
  8
0
100
AcDbLine
 62
7
  6
CONTINUOUS
 10
131.463185641
 20
97.9862803346
 11
131.5327059605
 21
97.4911463003
  0
LINE
  5
2C6
100
AcDbEntity
  8
0
100
AcDbLine
 62
7
  6
CONTINUOUS
 10
131.6199447353
 20
97.4911463003
 11
131.5504244158
 21
97.9862803346
  0
LINE
  5
2C7
100
AcDbEntity
  8
0
100
AcDbLine
 62
7
  6
CONTINUOUS
 10
131.6158534968
 20
97.9862803346
 11
131.6853738163
 21
97.4911463003
  0
LINE
  5
2C8
100
AcDbEntity
  8
0
100
AcDbLine
 62
7
  6
CONTINUOUS
 10
131.7726125911
 20
97.4911463003
 11
131.7030922715
 21
97.9862803346
  0
LINE
  5
2C9
100
AcDbEntity
  8
0
100
AcDbLine
 62
7
  6
CONTINUOUS
 10
131.7685213526
 20
97.9862803346
 11
131.8380416721
 21
97.4911463003
  0
LINE
  5
2CA
100
AcDbEntity
  8
0
100
AcDbLine
 62
7
  6
CONTINUOUS
 10
131.9252804468
 20
97.4911463003
 11
131.8557601273
 21
97.9862803346
  0
LINE
  5
2CB
100
AcDbEntity
  8
0
100
AcDbLine
 62
7
  6
CONTINUOUS
 10
131.9211892084
 20
97.9862803346
 11
131.9907095279
 21
97.4911463003
  0
LINE
  5
2CC
100
AcDbEntity
  8
0
100
AcDbLine
 62
7
  6
CONTINUOUS
 10
132.0779483026
 20
97.4911463003
 11
132.0084279831
 21
97.9862803346
  0
LINE
  5
2CD
100
AcDbEntity
  8
0
100
AcDbLine
 62
7
  6
CONTINUOUS
 10
132.0738570642
 20
97.9862803346
 11
132.1433773837
 21
97.4911463003
  0
LINE
  5
2CE
100
AcDbEntity
  8
0
100
AcDbLine
 62
7
  6
CONTINUOUS
 10
132.2306161584
 20
97.4911463003
 11
132.1610958389
 21
97.9862803346
  0
LINE
  5
2CF
100
AcDbEntity
  8
0
100
AcDbLine
 62
7
  6
CONTINUOUS
 10
132.2265249199
 20
97.9862803346
 11
132.2960452394
 21
97.4911463003
  0
LINE
  5
2D0
100
AcDbEntity
  8
0
100
AcDbLine
 62
7
  6
CONTINUOUS
 10
132.3832840142
 20
97.4911463003
 11
132.3137636947
 21
97.9862803346
  0
LINE
  5
2D1
100
AcDbEntity
  8
0
100
AcDbLine
 62
7
  6
CONTINUOUS
 10
132.3791927757
 20
97.9862803346
 11
132.4487130952
 21
97.4911463003
  0
LINE
  5
2D2
100
AcDbEntity
  8
0
100
AcDbLine
 62
7
  6
CONTINUOUS
 10
132.5359518699
 20
97.4911463003
 11
132.4664315504
 21
97.9862803346
  0
LINE
  5
2D3
100
AcDbEntity
  8
0
100
AcDbLine
 62
7
  6
CONTINUOUS
 10
132.5318606315
 20
97.9862803346
 11
132.601380951
 21
97.4911463003
  0
LINE
  5
2D4
100
AcDbEntity
  8
0
100
AcDbLine
 62
7
  6
CONTINUOUS
 10
132.6886197257
 20
97.4911463003
 11
132.6190994062
 21
97.9862803346
  0
LINE
  5
2D5
100
AcDbEntity
  8
0
100
AcDbLine
 62
7
  6
CONTINUOUS
 10
132.6845284873
 20
97.9862803346
 11
132.7540488068
 21
97.4911463003
  0
LINE
  5
2D6
100
AcDbEntity
  8
0
100
AcDbLine
 62
7
  6
CONTINUOUS
 10
132.8412875815
 20
97.4911463003
 11
132.771767262
 21
97.9862803346
  0
LINE
  5
2D7
100
AcDbEntity
  8
0
100
AcDbLine
 62
7
  6
CONTINUOUS
 10
133.9126714854
 20
91.5758312734
 11
134.1151172997
 21
90.1339821349
  0
LINE
  5
2D8
100
AcDbEntity
  8
0
100
AcDbLine
 62
7
  6
CONTINUOUS
 10
133.0938108071
 20
98.473386188
 11
133.1221158515
 21
98.2717934606
  0
LINE
  5
2D9
100
AcDbEntity
  8
0
100
AcDbLine
 62
7
  6
CONTINUOUS
 10
133.1958619201
 20
98.367890516
 11
133.1810495818
 21
98.473386188
  0
LINE
  5
2DA
100
AcDbEntity
  8
0
100
AcDbLine
 62
7
  6
CONTINUOUS
 10
133.2464786629
 20
98.473386188
 11
133.2747837072
 21
98.2717934606
  0
LINE
  5
2DB
100
AcDbEntity
  8
0
100
AcDbLine
 62
7
  6
CONTINUOUS
 10
133.3485297759
 20
98.367890516
 11
133.3337174376
 21
98.473386188
  0
LINE
  5
2DC
100
AcDbEntity
  8
0
100
AcDbLine
 62
7
  6
CONTINUOUS
 10
133.3991465186
 20
98.473386188
 11
133.427451563
 21
98.2717934606
  0
LINE
  5
2DD
100
AcDbEntity
  8
0
100
AcDbLine
 62
7
  6
CONTINUOUS
 10
133.5011976317
 20
98.367890516
 11
133.4863852934
 21
98.473386188
  0
LINE
  5
2DE
100
AcDbEntity
  8
0
100
AcDbLine
 62
7
  6
CONTINUOUS
 10
133.5518143744
 20
98.473386188
 11
133.5801194188
 21
98.2717934606
  0
LINE
  5
2DF
100
AcDbEntity
  8
0
100
AcDbLine
 62
7
  6
CONTINUOUS
 10
133.6538654874
 20
98.367890516
 11
133.6390531491
 21
98.473386188
  0
LINE
  5
2E0
100
AcDbEntity
  8
0
100
AcDbLine
 62
7
  6
CONTINUOUS
 10
133.7044822302
 20
98.473386188
 11
133.7327872746
 21
98.2717934606
  0
LINE
  5
2E1
100
AcDbEntity
  8
0
100
AcDbLine
 62
7
  6
CONTINUOUS
 10
133.8065333432
 20
98.367890516
 11
133.7917210049
 21
98.473386188
  0
LINE
  5
2E2
100
AcDbEntity
  8
0
100
AcDbLine
 62
7
  6
CONTINUOUS
 10
133.857150086
 20
98.473386188
 11
133.8854551303
 21
98.2717934606
  0
LINE
  5
2E3
100
AcDbEntity
  8
0
100
AcDbLine
 62
7
  6
CONTINUOUS
 10
133.959201199
 20
98.367890516
 11
133.9443888607
 21
98.473386188
  0
LINE
  5
2E4
100
AcDbEntity
  8
0
100
AcDbLine
 62
7
  6
CONTINUOUS
 10
134.0098179417
 20
98.473386188
 11
134.0381229861
 21
98.2717934606
  0
LINE
  5
2E5
100
AcDbEntity
  8
0
100
AcDbLine
 62
7
  6
CONTINUOUS
 10
134.1118690548
 20
98.367890516
 11
134.0970567165
 21
98.473386188
  0
LINE
  5
2E6
100
AcDbEntity
  8
0
100
AcDbLine
 62
7
  6
CONTINUOUS
 10
134.1624857975
 20
98.473386188
 11
134.1907908419
 21
98.2717934606
  0
LINE
  5
2E7
100
AcDbEntity
  8
0
100
AcDbLine
 62
7
  6
CONTINUOUS
 10
134.2645369106
 20
98.367890516
 11
134.2497245723
 21
98.473386188
  0
LINE
  5
2E8
100
AcDbEntity
  8
0
100
AcDbLine
 62
7
  6
CONTINUOUS
 10
134.3151536533
 20
98.473386188
 11
134.3434586977
 21
98.2717934606
  0
LINE
  5
2E9
100
AcDbEntity
  8
0
100
AcDbLine
 62
7
  6
CONTINUOUS
 10
134.4172047663
 20
98.367890516
 11
134.402392428
 21
98.473386188
  0
LINE
  5
2EA
100
AcDbEntity
  8
0
100
AcDbLine
 62
7
  6
CONTINUOUS
 10
134.4678215091
 20
98.473386188
 11
134.4961265535
 21
98.2717934606
  0
LINE
  5
2EB
100
AcDbEntity
  8
0
100
AcDbLine
 62
7
  6
CONTINUOUS
 10
134.5698726221
 20
98.367890516
 11
134.5550602838
 21
98.473386188
  0
LINE
  5
2EC
100
AcDbEntity
  8
0
100
AcDbLine
 62
7
  6
CONTINUOUS
 10
134.6204893649
 20
98.473386188
 11
134.6487944092
 21
98.2717934606
  0
LINE
  5
2ED
100
AcDbEntity
  8
0
100
AcDbLine
 62
7
  6
CONTINUOUS
 10
134.7225404779
 20
98.367890516
 11
134.7077281396
 21
98.473386188
  0
LINE
  5
2EE
100
AcDbEntity
  8
0
100
AcDbLine
 62
7
  6
CONTINUOUS
 10
134.8199386874
 20
97.7694925022
 11
134.7504183679
 21
98.2646265366
  0
LINE
  5
2EF
100
AcDbEntity
  8
0
100
AcDbLine
 62
7
  6
CONTINUOUS
 10
134.7731572206
 20
98.473386188
 11
134.801462265
 21
98.2717934606
  0
LINE
  5
2F0
100
AcDbEntity
  8
0
100
AcDbLine
 62
7
  6
CONTINUOUS
 10
134.9299163149
 20
97.9782521536
 11
134.8603959954
 21
98.473386188
  0
LINE
  5
2F1
100
AcDbEntity
  8
0
100
AcDbLine
 62
7
  6
CONTINUOUS
 10
134.9258250764
 20
98.473386188
 11
134.9953453959
 21
97.9782521536
  0
LINE
  5
2F2
100
AcDbEntity
  8
0
100
AcDbLine
 62
7
  6
CONTINUOUS
 10
135.0825841707
 20
97.9782521536
 11
135.0130638511
 21
98.473386188
  0
LINE
  5
2F3
100
AcDbEntity
  8
0
100
AcDbLine
 62
7
  6
CONTINUOUS
 10
135.0784929322
 20
98.473386188
 11
135.1480132517
 21
97.9782521536
  0
LINE
  5
2F4
100
AcDbEntity
  8
0
100
AcDbLine
 62
7
  6
CONTINUOUS
 10
135.2352520264
 20
97.9782521536
 11
135.1657317069
 21
98.473386188
  0
LINE
  5
2F5
100
AcDbEntity
  8
0
100
AcDbLine
 62
7
  6
CONTINUOUS
 10
135.231160788
 20
98.473386188
 11
135.3006811075
 21
97.9782521536
  0
LINE
  5
2F6
100
AcDbEntity
  8
0
100
AcDbLine
 62
7
  6
CONTINUOUS
 10
135.3879198822
 20
97.9782521536
 11
135.3183995627
 21
98.473386188
  0
LINE
  5
2F7
100
AcDbEntity
  8
0
100
AcDbLine
 62
7
  6
CONTINUOUS
 10
135.3838286438
 20
98.473386188
 11
135.4533489633
 21
97.9782521536
  0
LINE
  5
2F8
100
AcDbEntity
  8
0
100
AcDbLine
 62
7
  6
CONTINUOUS
 10
135.540587738
 20
97.9782521536
 11
135.4710674185
 21
98.473386188
  0
LINE
  5
2F9
100
AcDbEntity
  8
0
100
AcDbLine
 62
7
  6
CONTINUOUS
 10
135.5364964995
 20
98.473386188
 11
135.606016819
 21
97.9782521536
  0
LINE
  5
2FA
100
AcDbEntity
  8
0
100
AcDbLine
 62
7
  6
CONTINUOUS
 10
135.6932555938
 20
97.9782521536
 11
135.6237352743
 21
98.473386188
  0
LINE
  5
2FB
100
AcDbEntity
  8
0
100
AcDbLine
 62
7
  6
CONTINUOUS
 10
135.6891643553
 20
98.473386188
 11
135.7586846748
 21
97.9782521536
  0
LINE
  5
2FC
100
AcDbEntity
  8
0
100
AcDbLine
 62
7
  6
CONTINUOUS
 10
135.8459234495
 20
97.9782521536
 11
135.77640313
 21
98.473386188
  0
LINE
  5
2FD
100
AcDbEntity
  8
0
100
AcDbLine
 62
7
  6
CONTINUOUS
 10
135.8418322111
 20
98.473386188
 11
135.9113525306
 21
97.9782521536
  0
LINE
  5
2FE
100
AcDbEntity
  8
0
100
AcDbLine
 62
7
  6
CONTINUOUS
 10
135.9985913053
 20
97.9782521536
 11
135.9290709858
 21
98.473386188
  0
LINE
  5
2FF
100
AcDbEntity
  8
0
100
AcDbLine
 62
7
  6
CONTINUOUS
 10
135.9945000669
 20
98.473386188
 11
136.0640203864
 21
97.9782521536
  0
LINE
  5
300
100
AcDbEntity
  8
0
100
AcDbLine
 62
7
  6
CONTINUOUS
 10
136.1512591611
 20
97.9782521536
 11
136.0817388416
 21
98.473386188
  0
LINE
  5
301
100
AcDbEntity
  8
0
100
AcDbLine
 62
7
  6
CONTINUOUS
 10
136.1471679226
 20
98.473386188
 11
136.2166882422
 21
97.9782521536
  0
LINE
  5
302
100
AcDbEntity
  8
0
100
AcDbLine
 62
7
  6
CONTINUOUS
 10
136.3039270169
 20
97.9782521536
 11
136.2344066974
 21
98.473386188
  0
LINE
  5
303
100
AcDbEntity
  8
0
100
AcDbLine
 62
7
  6
CONTINUOUS
 10
136.5564502425
 20
98.9604920414
 11
136.5847552868
 21
98.758899314
  0
LINE
  5
304
100
AcDbEntity
  8
0
100
AcDbLine
 62
7
  6
CONTINUOUS
 10
136.6585013555
 20
98.8549963693
 11
136.6436890172
 21
98.9604920414
  0
LINE
  5
305
100
AcDbEntity
  8
0
100
AcDbLine
 62
7
  6
CONTINUOUS
 10
136.7091180982
 20
98.9604920414
 11
136.7374231426
 21
98.758899314
  0
LINE
  5
306
100
AcDbEntity
  8
0
100
AcDbLine
 62
7
  6
CONTINUOUS
 10
136.8111692113
 20
98.8549963693
 11
136.796356873
 21
98.9604920414
  0
LINE
  5
307
100
AcDbEntity
  8
0
100
AcDbLine
 62
7
  6
CONTINUOUS
 10
136.861785954
 20
98.9604920414
 11
136.8900909984
 21
98.758899314
  0
LINE
  5
308
100
AcDbEntity
  8
0
100
AcDbLine
 62
7
  6
CONTINUOUS
 10
137.9519073449
 20
91.5758312734
 11
138.0762625649
 21
90.6901549393
  0
LINE
  5
309
100
AcDbEntity
  8
0
100
AcDbLine
 62
7
  6
CONTINUOUS
 10
136.9638370671
 20
98.8549963693
 11
136.9490247287
 21
98.9604920414
  0
LINE
  5
30A
100
AcDbEntity
  8
0
100
AcDbLine
 62
7
  6
CONTINUOUS
 10
137.0144538098
 20
98.9604920414
 11
137.0427588542
 21
98.758899314
  0
LINE
  5
30B
100
AcDbEntity
  8
0
100
AcDbLine
 62
7
  6
CONTINUOUS
 10
137.1165049228
 20
98.8549963693
 11
137.1016925845
 21
98.9604920414
  0
LINE
  5
30C
100
AcDbEntity
  8
0
100
AcDbLine
 62
7
  6
CONTINUOUS
 10
137.1671216656
 20
98.9604920414
 11
137.1954267099
 21
98.758899314
  0
LINE
  5
30D
100
AcDbEntity
  8
0
100
AcDbLine
 62
7
  6
CONTINUOUS
 10
137.2691727786
 20
98.8549963693
 11
137.2543604403
 21
98.9604920414
  0
LINE
  5
30E
100
AcDbEntity
  8
0
100
AcDbLine
 62
7
  6
CONTINUOUS
 10
137.3197895213
 20
98.9604920414
 11
137.3480945657
 21
98.758899314
  0
LINE
  5
30F
100
AcDbEntity
  8
0
100
AcDbLine
 62
7
  6
CONTINUOUS
 10
137.4218406344
 20
98.8549963693
 11
137.4070282961
 21
98.9604920414
  0
LINE
  5
310
100
AcDbEntity
  8
0
100
AcDbLine
 62
7
  6
CONTINUOUS
 10
137.4724573771
 20
98.9604920414
 11
137.5007624215
 21
98.758899314
  0
LINE
  5
311
100
AcDbEntity
  8
0
100
AcDbLine
 62
7
  6
CONTINUOUS
 10
137.5745084902
 20
98.8549963693
 11
137.5596961519
 21
98.9604920414
  0
LINE
  5
312
100
AcDbEntity
  8
0
100
AcDbLine
 62
7
  6
CONTINUOUS
 10
137.6251252329
 20
98.9604920414
 11
137.6534302773
 21
98.758899314
  0
LINE
  5
313
100
AcDbEntity
  8
0
100
AcDbLine
 62
7
  6
CONTINUOUS
 10
137.7271763459
 20
98.8549963693
 11
137.7123640076
 21
98.9604920414
  0
LINE
  5
314
100
AcDbEntity
  8
0
100
AcDbLine
 62
7
  6
CONTINUOUS
 10
137.7777930887
 20
98.9604920414
 11
137.8060981331
 21
98.758899314
  0
LINE
  5
315
100
AcDbEntity
  8
0
100
AcDbLine
 62
7
  6
CONTINUOUS
 10
137.8798442017
 20
98.8549963693
 11
137.8650318634
 21
98.9604920414
  0
LINE
  5
316
100
AcDbEntity
  8
0
100
AcDbLine
 62
7
  6
CONTINUOUS
 10
137.9304609445
 20
98.9604920414
 11
137.9587659888
 21
98.758899314
  0
LINE
  5
317
100
AcDbEntity
  8
0
100
AcDbLine
 62
7
  6
CONTINUOUS
 10
138.0325120575
 20
98.8549963693
 11
138.0176997192
 21
98.9604920414
  0
LINE
  5
318
100
AcDbEntity
  8
0
100
AcDbLine
 62
7
  6
CONTINUOUS
 10
138.0831288002
 20
98.9604920414
 11
138.1114338446
 21
98.758899314
  0
LINE
  5
319
100
AcDbEntity
  8
0
100
AcDbLine
 62
7
  6
CONTINUOUS
 10
138.1851799133
 20
98.8549963693
 11
138.170367575
 21
98.9604920414
  0
LINE
  5
31A
100
AcDbEntity
  8
0
100
AcDbLine
 62
7
  6
CONTINUOUS
 10
138.2825781228
 20
98.2565983556
 11
138.2130578033
 21
98.7517323899
  0
LINE
  5
31B
100
AcDbEntity
  8
0
100
AcDbLine
 62
7
  6
CONTINUOUS
 10
138.235796656
 20
98.9604920414
 11
138.2641017004
 21
98.758899314
  0
LINE
  5
31C
100
AcDbEntity
  8
0
100
AcDbLine
 62
7
  6
CONTINUOUS
 10
138.3925557503
 20
98.465358007
 11
138.3230354308
 21
98.9604920414
  0
LINE
  5
31D
100
AcDbEntity
  8
0
100
AcDbLine
 62
7
  6
CONTINUOUS
 10
138.3884645118
 20
98.9604920414
 11
138.4579848313
 21
98.465358007
  0
LINE
  5
31E
100
AcDbEntity
  8
0
100
AcDbLine
 62
7
  6
CONTINUOUS
 10
138.545223606
 20
98.465358007
 11
138.4757032865
 21
98.9604920414
  0
LINE
  5
31F
100
AcDbEntity
  8
0
100
AcDbLine
 62
7
  6
CONTINUOUS
 10
138.5411323676
 20
98.9604920414
 11
138.6106526871
 21
98.465358007
  0
LINE
  5
320
100
AcDbEntity
  8
0
100
AcDbLine
 62
7
  6
CONTINUOUS
 10
138.6978914618
 20
98.465358007
 11
138.6283711423
 21
98.9604920414
  0
LINE
  5
321
100
AcDbEntity
  8
0
100
AcDbLine
 62
7
  6
CONTINUOUS
 10
138.6938002234
 20
98.9604920414
 11
138.7633205429
 21
98.465358007
  0
LINE
  5
322
100
AcDbEntity
  8
0
100
AcDbLine
 62
7
  6
CONTINUOUS
 10
138.8505593176
 20
98.465358007
 11
138.7810389981
 21
98.9604920414
  0
LINE
  5
323
100
AcDbEntity
  8
0
100
AcDbLine
 62
7
  6
CONTINUOUS
 10
138.8464680791
 20
98.9604920414
 11
138.9159883986
 21
98.465358007
  0
LINE
  5
324
100
AcDbEntity
  8
0
100
AcDbLine
 62
7
  6
CONTINUOUS
 10
139.0032271734
 20
98.465358007
 11
138.9337068539
 21
98.9604920414
  0
LINE
  5
325
100
AcDbEntity
  8
0
100
AcDbLine
 62
7
  6
CONTINUOUS
 10
138.9991359349
 20
98.9604920414
 11
139.0686562544
 21
98.465358007
  0
LINE
  5
326
100
AcDbEntity
  8
0
100
AcDbLine
 62
7
  6
CONTINUOUS
 10
139.1558950291
 20
98.465358007
 11
139.0863747096
 21
98.9604920414
  0
LINE
  5
327
100
AcDbEntity
  8
0
100
AcDbLine
 62
7
  6
CONTINUOUS
 10
139.1518037907
 20
98.9604920414
 11
139.2213241102
 21
98.465358007
  0
LINE
  5
328
100
AcDbEntity
  8
0
100
AcDbLine
 62
7
  6
CONTINUOUS
 10
139.3085628849
 20
98.465358007
 11
139.2390425654
 21
98.9604920414
  0
LINE
  5
329
100
AcDbEntity
  8
0
100
AcDbLine
 62
7
  6
CONTINUOUS
 10
139.3044716465
 20
98.9604920414
 11
139.373991966
 21
98.465358007
  0
LINE
  5
32A
100
AcDbEntity
  8
0
100
AcDbLine
 62
7
  6
CONTINUOUS
 10
139.4612307407
 20
98.465358007
 11
139.3917104212
 21
98.9604920414
  0
LINE
  5
32B
100
AcDbEntity
  8
0
100
AcDbLine
 62
7
  6
CONTINUOUS
 10
139.4571395022
 20
98.9604920414
 11
139.5266598218
 21
98.465358007
  0
LINE
  5
32C
100
AcDbEntity
  8
0
100
AcDbLine
 62
7
  6
CONTINUOUS
 10
139.6138985965
 20
98.465358007
 11
139.544378277
 21
98.9604920414
  0
LINE
  5
32D
100
AcDbEntity
  8
0
100
AcDbLine
 62
7
  6
CONTINUOUS
 10
139.609807358
 20
98.9604920414
 11
139.6793276775
 21
98.465358007
  0
LINE
  5
32E
100
AcDbEntity
  8
0
100
AcDbLine
 62
7
  6
CONTINUOUS
 10
139.7665664523
 20
98.465358007
 11
139.6970461328
 21
98.9604920414
  0
LINE
  5
32F
100
AcDbEntity
  8
0
100
AcDbLine
 62
7
  6
CONTINUOUS
 10
140.0190896778
 20
99.4475978947
 11
140.0473947222
 21
99.2460051674
  0
LINE
  5
330
100
AcDbEntity
  8
0
100
AcDbLine
 62
7
  6
CONTINUOUS
 10
140.1211407909
 20
99.3421022227
 11
140.1063284526
 21
99.4475978947
  0
LINE
  5
331
100
AcDbEntity
  8
0
100
AcDbLine
 62
7
  6
CONTINUOUS
 10
140.1717575336
 20
99.4475978947
 11
140.200062578
 21
99.2460051674
  0
LINE
  5
332
100
AcDbEntity
  8
0
100
AcDbLine
 62
7
  6
CONTINUOUS
 10
140.2738086467
 20
99.3421022227
 11
140.2589963083
 21
99.4475978947
  0
LINE
  5
333
100
AcDbEntity
  8
0
100
AcDbLine
 62
7
  6
CONTINUOUS
 10
140.3244253894
 20
99.4475978947
 11
140.3527304338
 21
99.2460051674
  0
LINE
  5
334
100
AcDbEntity
  8
0
100
AcDbLine
 62
7
  6
CONTINUOUS
 10
140.4264765024
 20
99.3421022227
 11
140.4116641641
 21
99.4475978947
  0
LINE
  5
335
100
AcDbEntity
  8
0
100
AcDbLine
 62
7
  6
CONTINUOUS
 10
140.4770932452
 20
99.4475978947
 11
140.5053982895
 21
99.2460051674
  0
LINE
  5
336
100
AcDbEntity
  8
0
100
AcDbLine
 62
7
  6
CONTINUOUS
 10
140.5791443582
 20
99.3421022227
 11
140.5643320199
 21
99.4475978947
  0
LINE
  5
337
100
AcDbEntity
  8
0
100
AcDbLine
 62
7
  6
CONTINUOUS
 10
140.6297611009
 20
99.4475978947
 11
140.6580661453
 21
99.2460051674
  0
LINE
  5
338
100
AcDbEntity
  8
0
100
AcDbLine
 62
7
  6
CONTINUOUS
 10
140.731812214
 20
99.3421022227
 11
140.7169998757
 21
99.4475978947
  0
LINE
  5
339
100
AcDbEntity
  8
0
100
AcDbLine
 62
7
  6
CONTINUOUS
 10
140.7824289567
 20
99.4475978947
 11
140.8107340011
 21
99.2460051674
  0
LINE
  5
33A
100
AcDbEntity
  8
0
100
AcDbLine
 62
7
  6
CONTINUOUS
 10
140.8844800698
 20
99.3421022227
 11
140.8696677315
 21
99.4475978947
  0
LINE
  5
33B
100
AcDbEntity
  8
0
100
AcDbLine
 62
7
  6
CONTINUOUS
 10
140.9350968125
 20
99.4475978947
 11
140.9634018569
 21
99.2460051674
  0
LINE
  5
33C
100
AcDbEntity
  8
0
100
AcDbLine
 62
7
  6
CONTINUOUS
 10
141.0371479255
 20
99.3421022227
 11
141.0223355872
 21
99.4475978947
  0
LINE
  5
33D
100
AcDbEntity
  8
0
100
AcDbLine
 62
7
  6
CONTINUOUS
 10
141.0877646683
 20
99.4475978947
 11
141.1160697127
 21
99.2460051674
  0
LINE
  5
33E
100
AcDbEntity
  8
0
100
AcDbLine
 62
7
  6
CONTINUOUS
 10
141.1898157813
 20
99.3421022227
 11
141.175003443
 21
99.4475978947
  0
LINE
  5
33F
100
AcDbEntity
  8
0
100
AcDbLine
 62
7
  6
CONTINUOUS
 10
141.2404325241
 20
99.4475978947
 11
141.2687375684
 21
99.2460051674
  0
LINE
  5
340
100
AcDbEntity
  8
0
100
AcDbLine
 62
7
  6
CONTINUOUS
 10
141.3424836371
 20
99.3421022227
 11
141.3276712988
 21
99.4475978947
  0
LINE
  5
341
100
AcDbEntity
  8
0
100
AcDbLine
 62
7
  6
CONTINUOUS
 10
141.3931003798
 20
99.4475978947
 11
141.4214054242
 21
99.2460051674
  0
LINE
  5
342
100
AcDbEntity
  8
0
100
AcDbLine
 62
7
  6
CONTINUOUS
 10
141.4951514929
 20
99.3421022227
 11
141.4803391546
 21
99.4475978947
  0
LINE
  5
343
100
AcDbEntity
  8
0
100
AcDbLine
 62
7
  6
CONTINUOUS
 10
141.5457682356
 20
99.4475978947
 11
141.57407328
 21
99.2460051674
  0
LINE
  5
344
100
AcDbEntity
  8
0
100
AcDbLine
 62
7
  6
CONTINUOUS
 10
141.6478193487
 20
99.3421022227
 11
141.6330070104
 21
99.4475978947
  0
LINE
  5
345
100
AcDbEntity
  8
0
100
AcDbLine
 62
7
  6
CONTINUOUS
 10
141.7452175582
 20
98.7437042089
 11
141.6756972387
 21
99.2388382433
  0
LINE
  5
346
100
AcDbEntity
  8
0
100
AcDbLine
 62
7
  6
CONTINUOUS
 10
141.6984360914
 20
99.4475978947
 11
141.7267411358
 21
99.2460051674
  0
LINE
  5
347
100
AcDbEntity
  8
0
100
AcDbLine
 62
7
  6
CONTINUOUS
 10
141.8551951856
 20
98.9524638604
 11
141.7856748661
 21
99.4475978947
  0
LINE
  5
348
100
AcDbEntity
  8
0
100
AcDbLine
 62
7
  6
CONTINUOUS
 10
141.8511039472
 20
99.4475978947
 11
141.9206242667
 21
98.9524638604
  0
LINE
  5
349
100
AcDbEntity
  8
0
100
AcDbLine
 62
7
  6
CONTINUOUS
 10
142.0078630414
 20
98.9524638604
 11
141.9383427219
 21
99.4475978947
  0
LINE
  5
34A
100
AcDbEntity
  8
0
100
AcDbLine
 62
7
  6
CONTINUOUS
 10
142.003771803
 20
99.4475978947
 11
142.0732921225
 21
98.9524638604
  0
LINE
  5
34B
100
AcDbEntity
  8
0
100
AcDbLine
 62
7
  6
CONTINUOUS
 10
142.1605308972
 20
98.9524638604
 11
142.0910105777
 21
99.4475978947
  0
LINE
  5
34C
100
AcDbEntity
  8
0
100
AcDbLine
 62
7
  6
CONTINUOUS
 10
142.1564396587
 20
99.4475978947
 11
142.2259599782
 21
98.9524638604
  0
LINE
  5
34D
100
AcDbEntity
  8
0
100
AcDbLine
 62
7
  6
CONTINUOUS
 10
142.313198753
 20
98.9524638604
 11
142.2436784335
 21
99.4475978947
  0
LINE
  5
34E
100
AcDbEntity
  8
0
100
AcDbLine
 62
7
  6
CONTINUOUS
 10
142.3091075145
 20
99.4475978947
 11
142.378627834
 21
98.9524638604
  0
LINE
  5
34F
100
AcDbEntity
  8
0
100
AcDbLine
 62
7
  6
CONTINUOUS
 10
142.4658666087
 20
98.9524638604
 11
142.3963462892
 21
99.4475978947
  0
LINE
  5
350
100
AcDbEntity
  8
0
100
AcDbLine
 62
7
  6
CONTINUOUS
 10
142.4617753703
 20
99.4475978947
 11
142.5312956898
 21
98.9524638604
  0
LINE
  5
351
100
AcDbEntity
  8
0
100
AcDbLine
 62
7
  6
CONTINUOUS
 10
142.6185344645
 20
98.9524638604
 11
142.549014145
 21
99.4475978947
  0
LINE
  5
352
100
AcDbEntity
  8
0
100
AcDbLine
 62
7
  6
CONTINUOUS
 10
142.6144432261
 20
99.4475978947
 11
142.6839635456
 21
98.9524638604
  0
LINE
  5
353
100
AcDbEntity
  8
0
100
AcDbLine
 62
7
  6
CONTINUOUS
 10
142.7712023203
 20
98.9524638604
 11
142.7016820008
 21
99.4475978947
  0
LINE
  5
354
100
AcDbEntity
  8
0
100
AcDbLine
 62
7
  6
CONTINUOUS
 10
142.7671110819
 20
99.4475978947
 11
142.8366314014
 21
98.9524638604
  0
LINE
  5
355
100
AcDbEntity
  8
0
100
AcDbLine
 62
7
  6
CONTINUOUS
 10
142.9238701761
 20
98.9524638604
 11
142.8543498566
 21
99.4475978947
  0
LINE
  5
356
100
AcDbEntity
  8
0
100
AcDbLine
 62
7
  6
CONTINUOUS
 10
142.9197789376
 20
99.4475978947
 11
142.9892992571
 21
98.9524638604
  0
LINE
  5
357
100
AcDbEntity
  8
0
100
AcDbLine
 62
7
  6
CONTINUOUS
 10
143.0765380319
 20
98.9524638604
 11
143.0070177124
 21
99.4475978947
  0
LINE
  5
358
100
AcDbEntity
  8
0
100
AcDbLine
 62
7
  6
CONTINUOUS
 10
143.0724467934
 20
99.4475978947
 11
143.1419671129
 21
98.9524638604
  0
LINE
  5
359
100
AcDbEntity
  8
0
100
AcDbLine
 62
7
  6
CONTINUOUS
 10
143.2292058876
 20
98.9524638604
 11
143.1596855681
 21
99.4475978947
  0
LINE
  5
35A
100
AcDbEntity
  8
0
100
AcDbLine
 62
7
  6
CONTINUOUS
 10
143.4817291132
 20
99.9347037481
 11
143.5100341576
 21
99.7331110207
  0
LINE
  5
35B
100
AcDbEntity
  8
0
100
AcDbLine
 62
7
  6
CONTINUOUS
 10
143.5837802263
 20
99.8292080761
 11
143.5689678879
 21
99.9347037481
  0
LINE
  5
35C
100
AcDbEntity
  8
0
100
AcDbLine
 62
7
  6
CONTINUOUS
 10
143.634396969
 20
99.9347037481
 11
143.6627020134
 21
99.7331110207
  0
LINE
  5
35D
100
AcDbEntity
  8
0
100
AcDbLine
 62
7
  6
CONTINUOUS
 10
143.736448082
 20
99.8292080761
 11
143.7216357437
 21
99.9347037481
  0
LINE
  5
35E
100
AcDbEntity
  8
0
100
AcDbLine
 62
7
  6
CONTINUOUS
 10
143.7870648248
 20
99.9347037481
 11
143.8153698691
 21
99.7331110207
  0
LINE
  5
35F
100
AcDbEntity
  8
0
100
AcDbLine
 62
7
  6
CONTINUOUS
 10
143.8891159378
 20
99.8292080761
 11
143.8743035995
 21
99.9347037481
  0
LINE
  5
360
100
AcDbEntity
  8
0
100
AcDbLine
 62
7
  6
CONTINUOUS
 10
143.9397326805
 20
99.9347037481
 11
143.9680377249
 21
99.7331110207
  0
LINE
  5
361
100
AcDbEntity
  8
0
100
AcDbLine
 62
7
  6
CONTINUOUS
 10
144.0417837936
 20
99.8292080761
 11
144.0269714553
 21
99.9347037481
  0
LINE
  5
362
100
AcDbEntity
  8
0
100
AcDbLine
 62
7
  6
CONTINUOUS
 10
128.6571566701
 20
67.5847872452
 11
128.6571566701
 21
59.5758312734
  0
LINE
  5
363
100
AcDbEntity
  8
0
100
AcDbLine
 62
7
  6
CONTINUOUS
 10
131.5834627373
 20
67.5758312734
 11
131.5834627373
 21
59.5758312734
  0
LINE
  5
364
100
AcDbEntity
  8
0
100
AcDbLine
 62
7
  6
CONTINUOUS
 10
135.7541331731
 20
59.5758312734
 11
135.7541331731
 21
68.9551416183
  0
LINE
  5
365
100
AcDbEntity
  8
0
100
AcDbLine
 62
7
  6
CONTINUOUS
 10
129.0099188827
 20
59.5758312734
 11
129.1407770448
 21
62.5758312734
  0
LINE
  5
366
100
AcDbEntity
  8
0
100
AcDbLine
 62
7
  6
CONTINUOUS
 10
131.1212614821
 20
62.172065725
 11
131.0080153259
 21
59.5758312734
  0
LINE
  5
367
100
AcDbEntity
  8
0
100
AcDbLine
 62
7
  6
CONTINUOUS
 10
126.4697103768
 20
94.4373716492
 11
169.4510654281
 21
100.4837619886
  0
LINE
  5
368
100
AcDbEntity
  8
0
100
AcDbLine
 62
7
  6
CONTINUOUS
 10
169.4510654281
 20
102.1093039372
 11
126.1774543347
 21
96.0218005592
  0
LINE
  5
369
100
AcDbEntity
  8
0
100
AcDbLine
 62
7
  6
CONTINUOUS
 10
169.4510654281
 20
102.6027264878
 11
167.949482691
 21
102.3914917478
  0
LINE
  5
36A
100
AcDbEntity
  8
0
100
AcDbLine
 62
7
  6
CONTINUOUS
 10
161.9316396562
 20
101.5772874585
 11
126.2069594864
 21
96.5517278688
  0
LINE
  5
36B
100
AcDbEntity
  8
0
100
AcDbLine
 62
7
  6
CONTINUOUS
 10
125.9160087107
 20
96.5169345936
 11
126.087087658
 21
96.5410010776
  0
LINE
  5
36C
100
AcDbEntity
  8
0
100
AcDbLine
 62
7
  6
CONTINUOUS
 10
155.534114414
 20
101.1313921055
 11
158.7038049912
 21
101.5772874585
  0
LINE
  5
36D
100
AcDbEntity
  8
0
100
AcDbLine
 62
7
  6
CONTINUOUS
 10
125.8464883912
 20
97.0120686279
 11
127.8251394972
 21
97.2904148298
  0
LINE
  5
36E
100
AcDbEntity
  8
0
100
AcDbLine
 62
7
  6
CONTINUOUS
 10
129.3091278266
 20
97.4991744813
 11
131.2877789326
 21
97.7775206832
  0
LINE
  5
36F
100
AcDbEntity
  8
0
100
AcDbLine
 62
7
  6
CONTINUOUS
 10
132.771767262
 20
97.9862803346
 11
134.7504183679
 21
98.2646265366
  0
LINE
  5
370
100
AcDbEntity
  8
0
100
AcDbLine
 62
7
  6
CONTINUOUS
 10
136.2344066974
 20
98.473386188
 11
138.2130578033
 21
98.7517323899
  0
LINE
  5
371
100
AcDbEntity
  8
0
100
AcDbLine
 62
7
  6
CONTINUOUS
 10
139.6970461328
 20
98.9604920414
 11
141.6756972387
 21
99.2388382433
  0
LINE
  5
372
100
AcDbEntity
  8
0
100
AcDbLine
 62
7
  6
CONTINUOUS
 10
143.1596855681
 20
99.4475978947
 11
145.1383366741
 21
99.7259440966
  0
LINE
  5
373
100
AcDbEntity
  8
0
100
AcDbLine
 62
7
  6
CONTINUOUS
 10
146.6223250035
 20
99.9347037481
 11
148.6009761094
 21
100.21304995
  0
LINE
  5
374
100
AcDbEntity
  8
0
100
AcDbLine
 62
7
  6
CONTINUOUS
 10
150.0849644389
 20
100.4218096014
 11
152.0636155448
 21
100.7001558034
  0
LINE
  5
375
100
AcDbEntity
  8
0
100
AcDbLine
 62
7
  6
CONTINUOUS
 10
153.5476038743
 20
100.9089154548
 11
155.5262549802
 21
101.1872616567
  0
LINE
  5
376
100
AcDbEntity
  8
0
100
AcDbLine
 62
7
  6
CONTINUOUS
 10
161.9316396562
 20
101.5772874585
 11
161.9597096983
 21
101.5808894077
  0
LINE
  5
377
100
AcDbEntity
  8
0
100
AcDbLine
 62
7
  6
CONTINUOUS
 10
144.0924005363
 20
99.9347037481
 11
144.1207055807
 21
99.7331110207
  0
LINE
  5
378
100
AcDbEntity
  8
0
100
AcDbLine
 62
7
  6
CONTINUOUS
 10
144.1944516494
 20
99.8292080761
 11
144.1796393111
 21
99.9347037481
  0
LINE
  5
379
100
AcDbEntity
  8
0
100
AcDbLine
 62
7
  6
CONTINUOUS
 10
144.2450683921
 20
99.9347037481
 11
144.2733734365
 21
99.7331110207
  0
LINE
  5
37A
100
AcDbEntity
  8
0
100
AcDbLine
 62
7
  6
CONTINUOUS
 10
144.3471195051
 20
99.8292080761
 11
144.3323071668
 21
99.9347037481
  0
LINE
  5
37B
100
AcDbEntity
  8
0
100
AcDbLine
 62
7
  6
CONTINUOUS
 10
144.3977362479
 20
99.9347037481
 11
144.4260412923
 21
99.7331110207
  0
LINE
  5
37C
100
AcDbEntity
  8
0
100
AcDbLine
 62
7
  6
CONTINUOUS
 10
144.4997873609
 20
99.8292080761
 11
144.4849750226
 21
99.9347037481
  0
LINE
  5
37D
100
AcDbEntity
  8
0
100
AcDbLine
 62
7
  6
CONTINUOUS
 10
144.5504041037
 20
99.9347037481
 11
144.578709148
 21
99.7331110207
  0
LINE
  5
37E
100
AcDbEntity
  8
0
100
AcDbLine
 62
7
  6
CONTINUOUS
 10
144.6524552167
 20
99.8292080761
 11
144.6376428784
 21
99.9347037481
  0
LINE
  5
37F
100
AcDbEntity
  8
0
100
AcDbLine
 62
7
  6
CONTINUOUS
 10
144.7030719594
 20
99.9347037481
 11
144.7313770038
 21
99.7331110207
  0
LINE
  5
380
100
AcDbEntity
  8
0
100
AcDbLine
 62
7
  6
CONTINUOUS
 10
144.8051230725
 20
99.8292080761
 11
144.7903107342
 21
99.9347037481
  0
LINE
  5
381
100
AcDbEntity
  8
0
100
AcDbLine
 62
7
  6
CONTINUOUS
 10
144.8557398152
 20
99.9347037481
 11
144.8840448596
 21
99.7331110207
  0
LINE
  5
382
100
AcDbEntity
  8
0
100
AcDbLine
 62
7
  6
CONTINUOUS
 10
144.9577909283
 20
99.8292080761
 11
144.94297859
 21
99.9347037481
  0
LINE
  5
383
100
AcDbEntity
  8
0
100
AcDbLine
 62
7
  6
CONTINUOUS
 10
145.008407671
 20
99.9347037481
 11
145.0367127154
 21
99.7331110207
  0
LINE
  5
384
100
AcDbEntity
  8
0
100
AcDbLine
 62
7
  6
CONTINUOUS
 10
145.110458784
 20
99.8292080761
 11
145.0956464457
 21
99.9347037481
  0
LINE
  5
385
100
AcDbEntity
  8
0
100
AcDbLine
 62
7
  6
CONTINUOUS
 10
145.2078569936
 20
99.2308100623
 11
145.1383366741
 21
99.7259440966
  0
LINE
  5
386
100
AcDbEntity
  8
0
100
AcDbLine
 62
7
  6
CONTINUOUS
 10
145.1610755268
 20
99.9347037481
 11
145.1893805712
 21
99.7331110207
  0
LINE
  5
387
100
AcDbEntity
  8
0
100
AcDbLine
 62
7
  6
CONTINUOUS
 10
145.317834621
 20
99.4395697137
 11
145.2483143015
 21
99.9347037481
  0
LINE
  5
388
100
AcDbEntity
  8
0
100
AcDbLine
 62
7
  6
CONTINUOUS
 10
145.3137433826
 20
99.9347037481
 11
145.3832637021
 21
99.4395697137
  0
LINE
  5
389
100
AcDbEntity
  8
0
100
AcDbLine
 62
7
  6
CONTINUOUS
 10
145.4705024768
 20
99.4395697137
 11
145.4009821573
 21
99.9347037481
  0
LINE
  5
38A
100
AcDbEntity
  8
0
100
AcDbLine
 62
7
  6
CONTINUOUS
 10
145.4664112383
 20
99.9347037481
 11
145.5359315578
 21
99.4395697137
  0
LINE
  5
38B
100
AcDbEntity
  8
0
100
AcDbLine
 62
7
  6
CONTINUOUS
 10
145.6231703326
 20
99.4395697137
 11
145.5536500131
 21
99.9347037481
  0
LINE
  5
38C
100
AcDbEntity
  8
0
100
AcDbLine
 62
7
  6
CONTINUOUS
 10
145.6190790941
 20
99.9347037481
 11
145.6885994136
 21
99.4395697137
  0
LINE
  5
38D
100
AcDbEntity
  8
0
100
AcDbLine
 62
7
  6
CONTINUOUS
 10
145.7758381883
 20
99.4395697137
 11
145.7063178688
 21
99.9347037481
  0
LINE
  5
38E
100
AcDbEntity
  8
0
100
AcDbLine
 62
7
  6
CONTINUOUS
 10
145.7717469499
 20
99.9347037481
 11
145.8412672694
 21
99.4395697137
  0
LINE
  5
38F
100
AcDbEntity
  8
0
100
AcDbLine
 62
7
  6
CONTINUOUS
 10
145.9285060441
 20
99.4395697137
 11
145.8589857246
 21
99.9347037481
  0
LINE
  5
390
100
AcDbEntity
  8
0
100
AcDbLine
 62
7
  6
CONTINUOUS
 10
145.9244148057
 20
99.9347037481
 11
145.9939351252
 21
99.4395697137
  0
LINE
  5
391
100
AcDbEntity
  8
0
100
AcDbLine
 62
7
  6
CONTINUOUS
 10
146.0811738999
 20
99.4395697137
 11
146.0116535804
 21
99.9347037481
  0
LINE
  5
392
100
AcDbEntity
  8
0
100
AcDbLine
 62
7
  6
CONTINUOUS
 10
146.0770826615
 20
99.9347037481
 11
146.146602981
 21
99.4395697137
  0
LINE
  5
393
100
AcDbEntity
  8
0
100
AcDbLine
 62
7
  6
CONTINUOUS
 10
146.2338417557
 20
99.4395697137
 11
146.1643214362
 21
99.9347037481
  0
LINE
  5
394
100
AcDbEntity
  8
0
100
AcDbLine
 62
7
  6
CONTINUOUS
 10
146.2297505172
 20
99.9347037481
 11
146.2992708367
 21
99.4395697137
  0
LINE
  5
395
100
AcDbEntity
  8
0
100
AcDbLine
 62
7
  6
CONTINUOUS
 10
146.3865096115
 20
99.4395697137
 11
146.316989292
 21
99.9347037481
  0
LINE
  5
396
100
AcDbEntity
  8
0
100
AcDbLine
 62
7
  6
CONTINUOUS
 10
146.382418373
 20
99.9347037481
 11
146.4519386925
 21
99.4395697137
  0
LINE
  5
397
100
AcDbEntity
  8
0
100
AcDbLine
 62
7
  6
CONTINUOUS
 10
146.5391774672
 20
99.4395697137
 11
146.4696571477
 21
99.9347037481
  0
LINE
  5
398
100
AcDbEntity
  8
0
100
AcDbLine
 62
7
  6
CONTINUOUS
 10
146.5350862288
 20
99.9347037481
 11
146.6046065483
 21
99.4395697137
  0
LINE
  5
399
100
AcDbEntity
  8
0
100
AcDbLine
 62
7
  6
CONTINUOUS
 10
146.691845323
 20
99.4395697137
 11
146.6223250035
 21
99.9347037481
  0
LINE
  5
39A
100
AcDbEntity
  8
0
100
AcDbLine
 62
7
  6
CONTINUOUS
 10
146.9443685486
 20
100.4218096014
 11
146.972673593
 21
100.2202168741
  0
LINE
  5
39B
100
AcDbEntity
  8
0
100
AcDbLine
 62
7
  6
CONTINUOUS
 10
147.0464196616
 20
100.3163139294
 11
147.0316073233
 21
100.4218096014
  0
LINE
  5
39C
100
AcDbEntity
  8
0
100
AcDbLine
 62
7
  6
CONTINUOUS
 10
147.0970364044
 20
100.4218096014
 11
147.1253414487
 21
100.2202168741
  0
LINE
  5
39D
100
AcDbEntity
  8
0
100
AcDbLine
 62
7
  6
CONTINUOUS
 10
147.1990875174
 20
100.3163139294
 11
147.1842751791
 21
100.4218096014
  0
LINE
  5
39E
100
AcDbEntity
  8
0
100
AcDbLine
 62
7
  6
CONTINUOUS
 10
147.2497042602
 20
100.4218096014
 11
147.2780093045
 21
100.2202168741
  0
LINE
  5
39F
100
AcDbEntity
  8
0
100
AcDbLine
 62
7
  6
CONTINUOUS
 10
147.3517553732
 20
100.3163139294
 11
147.3369430349
 21
100.4218096014
  0
LINE
  5
3A0
100
AcDbEntity
  8
0
100
AcDbLine
 62
7
  6
CONTINUOUS
 10
147.4023721159
 20
100.4218096014
 11
147.4306771603
 21
100.2202168741
  0
LINE
  5
3A1
100
AcDbEntity
  8
0
100
AcDbLine
 62
7
  6
CONTINUOUS
 10
147.504423229
 20
100.3163139294
 11
147.4896108907
 21
100.4218096014
  0
LINE
  5
3A2
100
AcDbEntity
  8
0
100
AcDbLine
 62
7
  6
CONTINUOUS
 10
147.5550399717
 20
100.4218096014
 11
147.5833450161
 21
100.2202168741
  0
LINE
  5
3A3
100
AcDbEntity
  8
0
100
AcDbLine
 62
7
  6
CONTINUOUS
 10
147.6570910847
 20
100.3163139294
 11
147.6422787464
 21
100.4218096014
  0
LINE
  5
3A4
100
AcDbEntity
  8
0
100
AcDbLine
 62
7
  6
CONTINUOUS
 10
147.7077078275
 20
100.4218096014
 11
147.7360128719
 21
100.2202168741
  0
LINE
  5
3A5
100
AcDbEntity
  8
0
100
AcDbLine
 62
7
  6
CONTINUOUS
 10
147.8097589405
 20
100.3163139294
 11
147.7949466022
 21
100.4218096014
  0
LINE
  5
3A6
100
AcDbEntity
  8
0
100
AcDbLine
 62
7
  6
CONTINUOUS
 10
147.8603756833
 20
100.4218096014
 11
147.8886807276
 21
100.2202168741
  0
LINE
  5
3A7
100
AcDbEntity
  8
0
100
AcDbLine
 62
7
  6
CONTINUOUS
 10
147.9624267963
 20
100.3163139294
 11
147.947614458
 21
100.4218096014
  0
LINE
  5
3A8
100
AcDbEntity
  8
0
100
AcDbLine
 62
7
  6
CONTINUOUS
 10
148.013043539
 20
100.4218096014
 11
148.0413485834
 21
100.2202168741
  0
LINE
  5
3A9
100
AcDbEntity
  8
0
100
AcDbLine
 62
7
  6
CONTINUOUS
 10
148.1150946521
 20
100.3163139294
 11
148.1002823138
 21
100.4218096014
  0
LINE
  5
3AA
100
AcDbEntity
  8
0
100
AcDbLine
 62
7
  6
CONTINUOUS
 10
148.1657113948
 20
100.4218096014
 11
148.1940164392
 21
100.2202168741
  0
LINE
  5
3AB
100
AcDbEntity
  8
0
100
AcDbLine
 62
7
  6
CONTINUOUS
 10
148.2677625079
 20
100.3163139294
 11
148.2529501696
 21
100.4218096014
  0
LINE
  5
3AC
100
AcDbEntity
  8
0
100
AcDbLine
 62
7
  6
CONTINUOUS
 10
148.3183792506
 20
100.4218096014
 11
148.346684295
 21
100.2202168741
  0
LINE
  5
3AD
100
AcDbEntity
  8
0
100
AcDbLine
 62
7
  6
CONTINUOUS
 10
148.4204303636
 20
100.3163139294
 11
148.4056180253
 21
100.4218096014
  0
LINE
  5
3AE
100
AcDbEntity
  8
0
100
AcDbLine
 62
7
  6
CONTINUOUS
 10
148.4710471064
 20
100.4218096014
 11
148.4993521508
 21
100.2202168741
  0
LINE
  5
3AF
100
AcDbEntity
  8
0
100
AcDbLine
 62
7
  6
CONTINUOUS
 10
148.5730982194
 20
100.3163139294
 11
148.5582858811
 21
100.4218096014
  0
LINE
  5
3B0
100
AcDbEntity
  8
0
100
AcDbLine
 62
7
  6
CONTINUOUS
 10
148.670496429
 20
99.7179159156
 11
148.6009761094
 21
100.21304995
  0
LINE
  5
3B1
100
AcDbEntity
  8
0
100
AcDbLine
 62
7
  6
CONTINUOUS
 10
148.6237149622
 20
100.4218096014
 11
148.6520200065
 21
100.2202168741
  0
LINE
  5
3B2
100
AcDbEntity
  8
0
100
AcDbLine
 62
7
  6
CONTINUOUS
 10
148.7804740564
 20
99.9266755671
 11
148.7109537369
 21
100.4218096014
  0
LINE
  5
3B3
100
AcDbEntity
  8
0
100
AcDbLine
 62
7
  6
CONTINUOUS
 10
148.7763828179
 20
100.4218096014
 11
148.8459031374
 21
99.9266755671
  0
LINE
  5
3B4
100
AcDbEntity
  8
0
100
AcDbLine
 62
7
  6
CONTINUOUS
 10
148.9331419122
 20
99.9266755671
 11
148.8636215927
 21
100.4218096014
  0
LINE
  5
3B5
100
AcDbEntity
  8
0
100
AcDbLine
 62
7
  6
CONTINUOUS
 10
148.9290506737
 20
100.4218096014
 11
148.9985709932
 21
99.9266755671
  0
LINE
  5
3B6
100
AcDbEntity
  8
0
100
AcDbLine
 62
7
  6
CONTINUOUS
 10
149.0858097679
 20
99.9266755671
 11
149.0162894484
 21
100.4218096014
  0
LINE
  5
3B7
100
AcDbEntity
  8
0
100
AcDbLine
 62
7
  6
CONTINUOUS
 10
149.0817185295
 20
100.4218096014
 11
149.151238849
 21
99.9266755671
  0
LINE
  5
3B8
100
AcDbEntity
  8
0
100
AcDbLine
 62
7
  6
CONTINUOUS
 10
149.2384776237
 20
99.9266755671
 11
149.1689573042
 21
100.4218096014
  0
LINE
  5
3B9
100
AcDbEntity
  8
0
100
AcDbLine
 62
7
  6
CONTINUOUS
 10
149.2343863853
 20
100.4218096014
 11
149.3039067048
 21
99.9266755671
  0
LINE
  5
3BA
100
AcDbEntity
  8
0
100
AcDbLine
 62
7
  6
CONTINUOUS
 10
149.3911454795
 20
99.9266755671
 11
149.32162516
 21
100.4218096014
  0
LINE
  5
3BB
100
AcDbEntity
  8
0
100
AcDbLine
 62
7
  6
CONTINUOUS
 10
149.3870542411
 20
100.4218096014
 11
149.4565745606
 21
99.9266755671
  0
LINE
  5
3BC
100
AcDbEntity
  8
0
100
AcDbLine
 62
7
  6
CONTINUOUS
 10
149.5438133353
 20
99.9266755671
 11
149.4742930158
 21
100.4218096014
  0
LINE
  5
3BD
100
AcDbEntity
  8
0
100
AcDbLine
 62
7
  6
CONTINUOUS
 10
149.5397220968
 20
100.4218096014
 11
149.6092424163
 21
99.9266755671
  0
LINE
  5
3BE
100
AcDbEntity
  8
0
100
AcDbLine
 62
7
  6
CONTINUOUS
 10
149.6964811911
 20
99.9266755671
 11
149.6269608716
 21
100.4218096014
  0
LINE
  5
3BF
100
AcDbEntity
  8
0
100
AcDbLine
 62
7
  6
CONTINUOUS
 10
149.6923899526
 20
100.4218096014
 11
149.7619102721
 21
99.9266755671
  0
LINE
  5
3C0
100
AcDbEntity
  8
0
100
AcDbLine
 62
7
  6
CONTINUOUS
 10
149.8491490468
 20
99.9266755671
 11
149.7796287273
 21
100.4218096014
  0
LINE
  5
3C1
100
AcDbEntity
  8
0
100
AcDbLine
 62
7
  6
CONTINUOUS
 10
149.8450578084
 20
100.4218096014
 11
149.9145781279
 21
99.9266755671
  0
LINE
  5
3C2
100
AcDbEntity
  8
0
100
AcDbLine
 62
7
  6
CONTINUOUS
 10
150.0018169026
 20
99.9266755671
 11
149.9322965831
 21
100.4218096014
  0
LINE
  5
3C3
100
AcDbEntity
  8
0
100
AcDbLine
 62
7
  6
CONTINUOUS
 10
149.9977256642
 20
100.4218096014
 11
150.0672459837
 21
99.9266755671
  0
LINE
  5
3C4
100
AcDbEntity
  8
0
100
AcDbLine
 62
7
  6
CONTINUOUS
 10
150.1544847584
 20
99.9266755671
 11
150.0849644389
 21
100.4218096014
  0
LINE
  5
3C5
100
AcDbEntity
  8
0
100
AcDbLine
 62
7
  6
CONTINUOUS
 10
150.407007984
 20
100.9089154548
 11
150.4353130283
 21
100.7073227274
  0
LINE
  5
3C6
100
AcDbEntity
  8
0
100
AcDbLine
 62
7
  6
CONTINUOUS
 10
150.509059097
 20
100.8034197828
 11
150.4942467587
 21
100.9089154548
  0
LINE
  5
3C7
100
AcDbEntity
  8
0
100
AcDbLine
 62
7
  6
CONTINUOUS
 10
150.5596758398
 20
100.9089154548
 11
150.5879808841
 21
100.7073227274
  0
LINE
  5
3C8
100
AcDbEntity
  8
0
100
AcDbLine
 62
7
  6
CONTINUOUS
 10
150.6617269528
 20
100.8034197828
 11
150.6469146145
 21
100.9089154548
  0
LINE
  5
3C9
100
AcDbEntity
  8
0
100
AcDbLine
 62
7
  6
CONTINUOUS
 10
150.7123436955
 20
100.9089154548
 11
150.7406487399
 21
100.7073227274
  0
LINE
  5
3CA
100
AcDbEntity
  8
0
100
AcDbLine
 62
7
  6
CONTINUOUS
 10
150.8143948086
 20
100.8034197828
 11
150.7995824703
 21
100.9089154548
  0
LINE
  5
3CB
100
AcDbEntity
  8
0
100
AcDbLine
 62
7
  6
CONTINUOUS
 10
150.8650115513
 20
100.9089154548
 11
150.8933165957
 21
100.7073227274
  0
LINE
  5
3CC
100
AcDbEntity
  8
0
100
AcDbLine
 62
7
  6
CONTINUOUS
 10
150.9670626643
 20
100.8034197828
 11
150.952250326
 21
100.9089154548
  0
LINE
  5
3CD
100
AcDbEntity
  8
0
100
AcDbLine
 62
7
  6
CONTINUOUS
 10
151.0176794071
 20
100.9089154548
 11
151.0459844515
 21
100.7073227274
  0
LINE
  5
3CE
100
AcDbEntity
  8
0
100
AcDbLine
 62
7
  6
CONTINUOUS
 10
151.1197305201
 20
100.8034197828
 11
151.1049181818
 21
100.9089154548
  0
LINE
  5
3CF
100
AcDbEntity
  8
0
100
AcDbLine
 62
7
  6
CONTINUOUS
 10
151.1703472629
 20
100.9089154548
 11
151.1986523072
 21
100.7073227274
  0
LINE
  5
3D0
100
AcDbEntity
  8
0
100
AcDbLine
 62
7
  6
CONTINUOUS
 10
151.2723983759
 20
100.8034197828
 11
151.2575860376
 21
100.9089154548
  0
LINE
  5
3D1
100
AcDbEntity
  8
0
100
AcDbLine
 62
7
  6
CONTINUOUS
 10
151.3230151186
 20
100.9089154548
 11
151.351320163
 21
100.7073227274
  0
LINE
  5
3D2
100
AcDbEntity
  8
0
100
AcDbLine
 62
7
  6
CONTINUOUS
 10
151.4250662317
 20
100.8034197828
 11
151.4102538934
 21
100.9089154548
  0
LINE
  5
3D3
100
AcDbEntity
  8
0
100
AcDbLine
 62
7
  6
CONTINUOUS
 10
151.4756829744
 20
100.9089154548
 11
151.5039880188
 21
100.7073227274
  0
LINE
  5
3D4
100
AcDbEntity
  8
0
100
AcDbLine
 62
7
  6
CONTINUOUS
 10
151.5777340875
 20
100.8034197828
 11
151.5629217492
 21
100.9089154548
  0
LINE
  5
3D5
100
AcDbEntity
  8
0
100
AcDbLine
 62
7
  6
CONTINUOUS
 10
151.6283508302
 20
100.9089154548
 11
151.6566558746
 21
100.7073227274
  0
LINE
  5
3D6
100
AcDbEntity
  8
0
100
AcDbLine
 62
7
  6
CONTINUOUS
 10
151.7304019432
 20
100.8034197828
 11
151.7155896049
 21
100.9089154548
  0
LINE
  5
3D7
100
AcDbEntity
  8
0
100
AcDbLine
 62
7
  6
CONTINUOUS
 10
151.781018686
 20
100.9089154548
 11
151.8093237304
 21
100.7073227274
  0
LINE
  5
3D8
100
AcDbEntity
  8
0
100
AcDbLine
 62
7
  6
CONTINUOUS
 10
151.883069799
 20
100.8034197828
 11
151.8682574607
 21
100.9089154548
  0
LINE
  5
3D9
100
AcDbEntity
  8
0
100
AcDbLine
 62
7
  6
CONTINUOUS
 10
151.9336865418
 20
100.9089154548
 11
151.9619915861
 21
100.7073227274
  0
LINE
  5
3DA
100
AcDbEntity
  8
0
100
AcDbLine
 62
7
  6
CONTINUOUS
 10
152.0357376548
 20
100.8034197828
 11
152.0209253165
 21
100.9089154548
  0
LINE
  5
3DB
100
AcDbEntity
  8
0
100
AcDbLine
 62
7
  6
CONTINUOUS
 10
152.1331358643
 20
100.205021769
 11
152.0636155448
 21
100.7001558034
  0
LINE
  5
3DC
100
AcDbEntity
  8
0
100
AcDbLine
 62
7
  6
CONTINUOUS
 10
152.0863543975
 20
100.9089154548
 11
152.1146594419
 21
100.7073227274
  0
LINE
  5
3DD
100
AcDbEntity
  8
0
100
AcDbLine
 62
7
  6
CONTINUOUS
 10
152.2431134918
 20
100.4137814204
 11
152.1735931723
 21
100.9089154548
  0
LINE
  5
3DE
100
AcDbEntity
  8
0
100
AcDbLine
 62
7
  6
CONTINUOUS
 10
152.2390222533
 20
100.9089154548
 11
152.3085425728
 21
100.4137814204
  0
LINE
  5
3DF
100
AcDbEntity
  8
0
100
AcDbLine
 62
7
  6
CONTINUOUS
 10
152.3957813476
 20
100.4137814204
 11
152.326261028
 21
100.9089154548
  0
LINE
  5
3E0
100
AcDbEntity
  8
0
100
AcDbLine
 62
7
  6
CONTINUOUS
 10
152.3916901091
 20
100.9089154548
 11
152.4612104286
 21
100.4137814204
  0
LINE
  5
3E1
100
AcDbEntity
  8
0
100
AcDbLine
 62
7
  6
CONTINUOUS
 10
152.5484492033
 20
100.4137814204
 11
152.4789288838
 21
100.9089154548
  0
LINE
  5
3E2
100
AcDbEntity
  8
0
100
AcDbLine
 62
7
  6
CONTINUOUS
 10
152.5443579649
 20
100.9089154548
 11
152.6138782844
 21
100.4137814204
  0
LINE
  5
3E3
100
AcDbEntity
  8
0
100
AcDbLine
 62
7
  6
CONTINUOUS
 10
152.7011170591
 20
100.4137814204
 11
152.6315967396
 21
100.9089154548
  0
LINE
  5
3E4
100
AcDbEntity
  8
0
100
AcDbLine
 62
7
  6
CONTINUOUS
 10
152.6970258207
 20
100.9089154548
 11
152.7665461402
 21
100.4137814204
  0
LINE
  5
3E5
100
AcDbEntity
  8
0
100
AcDbLine
 62
7
  6
CONTINUOUS
 10
152.8537849149
 20
100.4137814204
 11
152.7842645954
 21
100.9089154548
  0
LINE
  5
3E6
100
AcDbEntity
  8
0
100
AcDbLine
 62
7
  6
CONTINUOUS
 10
152.8496936764
 20
100.9089154548
 11
152.9192139959
 21
100.4137814204
  0
LINE
  5
3E7
100
AcDbEntity
  8
0
100
AcDbLine
 62
7
  6
CONTINUOUS
 10
153.0064527707
 20
100.4137814204
 11
152.9369324512
 21
100.9089154548
  0
LINE
  5
3E8
100
AcDbEntity
  8
0
100
AcDbLine
 62
7
  6
CONTINUOUS
 10
153.0023615322
 20
100.9089154548
 11
153.0718818517
 21
100.4137814204
  0
LINE
  5
3E9
100
AcDbEntity
  8
0
100
AcDbLine
 62
7
  6
CONTINUOUS
 10
153.1591206264
 20
100.4137814204
 11
153.0896003069
 21
100.9089154548
  0
LINE
  5
3EA
100
AcDbEntity
  8
0
100
AcDbLine
 62
7
  6
CONTINUOUS
 10
153.155029388
 20
100.9089154548
 11
153.2245497075
 21
100.4137814204
  0
LINE
  5
3EB
100
AcDbEntity
  8
0
100
AcDbLine
 62
7
  6
CONTINUOUS
 10
153.3117884822
 20
100.4137814204
 11
153.2422681627
 21
100.9089154548
  0
LINE
  5
3EC
100
AcDbEntity
  8
0
100
AcDbLine
 62
7
  6
CONTINUOUS
 10
153.3076972438
 20
100.9089154548
 11
153.3772175633
 21
100.4137814204
  0
LINE
  5
3ED
100
AcDbEntity
  8
0
100
AcDbLine
 62
7
  6
CONTINUOUS
 10
153.464456338
 20
100.4137814204
 11
153.3949360185
 21
100.9089154548
  0
LINE
  5
3EE
100
AcDbEntity
  8
0
100
AcDbLine
 62
7
  6
CONTINUOUS
 10
153.4603650995
 20
100.9089154548
 11
153.529885419
 21
100.4137814204
  0
LINE
  5
3EF
100
AcDbEntity
  8
0
100
AcDbLine
 62
7
  6
CONTINUOUS
 10
153.6171241938
 20
100.4137814204
 11
153.5476038743
 21
100.9089154548
  0
LINE
  5
3F0
100
AcDbEntity
  8
0
100
AcDbLine
 62
7
  6
CONTINUOUS
 10
155.5957752997
 20
100.6921276224
 11
155.5262549802
 21
101.1872616567
  0
LINE
  5
3F1
100
AcDbEntity
  8
0
100
AcDbLine
 62
7
  6
CONTINUOUS
 10
140.2588883627
 20
71.237900239
 11
140.2588883627
 21
71.0180063299
  0
LINE
  5
3F2
100
AcDbEntity
  8
0
100
AcDbLine
 62
7
  6
CONTINUOUS
 10
165.623601566
 20
430.9258312734
 11
165.5869161205
 21
430.2258312734
  0
LINE
  5
3F3
100
AcDbEntity
  8
0
100
AcDbLine
 62
7
  6
CONTINUOUS
 10
159.7256393841
 20
456.03847019
 11
159.7256393841
 21
432.3258312734
  0
LINE
  5
3F4
100
AcDbEntity
  8
0
100
AcDbLine
 62
7
  6
CONTINUOUS
 10
159.9756393841
 20
425.7258312734
 11
159.9756393841
 21
101.3473477688
  0
LINE
  5
3F5
100
AcDbEntity
  8
0
100
AcDbLine
 62
7
  6
CONTINUOUS
 10
159.9756393841
 20
91.5758312734
 11
159.9756393841
 21
85.0244516343
  0
LINE
  5
3F6
100
AcDbEntity
  8
0
100
AcDbLine
 62
7
  6
CONTINUOUS
 10
159.9756393841
 20
80.1309225022
 11
159.9756393841
 21
77.7298919775
  0
LINE
  5
3F7
100
AcDbEntity
  8
0
100
AcDbLine
 62
7
  6
CONTINUOUS
 10
160.4756393841
 20
427.6258312734
 11
160.4756393841
 21
429.2258312734
  0
LINE
  5
3F8
100
AcDbEntity
  8
0
100
AcDbLine
 62
7
  6
CONTINUOUS
 10
166.4824585762
 20
79.5612105227
 11
166.4824585762
 21
71.5758312734
  0
LINE
  5
3F9
100
AcDbEntity
  8
0
100
AcDbLine
 62
7
  6
CONTINUOUS
 10
167.5301636648
 20
101.8414894311
 11
167.5301636648
 21
104.5258312734
  0
LINE
  5
3FA
100
AcDbEntity
  8
0
100
AcDbLine
 62
7
  6
CONTINUOUS
 10
167.949482691
 20
104.5258312734
 11
167.949482691
 21
101.9004770202
  0
LINE
  5
3FB
100
AcDbEntity
  8
0
100
AcDbLine
 62
7
  6
CONTINUOUS
 10
168.8104627855
 20
87.1258312734
 11
168.8104627855
 21
91.5758312734
  0
LINE
  5
3FC
100
AcDbEntity
  8
0
100
AcDbLine
 62
7
  6
CONTINUOUS
 10
169.2338552265
 20
91.5758312734
 11
169.2338552265
 21
87.1258312734
  0
LINE
  5
3FD
100
AcDbEntity
  8
0
100
AcDbLine
 62
7
  6
CONTINUOUS
 10
169.4510654281
 20
104.5258312734
 11
169.4510654281
 21
87.1258312734
  0
LINE
  5
3FE
100
AcDbEntity
  8
0
100
AcDbLine
 62
7
  6
CONTINUOUS
 10
433.1488037668
 20
405.3447156017
 11
434.4200404707
 21
406.007686432
  0
LINE
  5
3FF
100
AcDbEntity
  8
0
100
AcDbLine
 62
7
  6
CONTINUOUS
 10
427.596802802
 20
401.9495773705
 11
429.1754032186
 21
402.9498056847
  0
LWPOLYLINE
  5
400
100
AcDbEntity
  8
0
100
AcDbPolyline
 62
7
  6
CONTINUOUS
 90
3
 70
0
 10
432.6754032186
 20
405.0862903269
 10
432.9264038766
 20
405.2254343328
 10
433.1488037668
 20
405.3447156017
  0
LINE
  5
401
100
AcDbEntity
  8
0
100
AcDbLine
 62
7
  6
CONTINUOUS
 10
285.4959959098
 20
430.3285018643
 11
285.4959959098
 21
431.0189194897
  0
LINE
  5
402
100
AcDbEntity
  8
0
100
AcDbLine
 62
7
  6
CONTINUOUS
 10
292.5833405203
 20
430.9258312734
 11
292.5833405203
 21
430.3285018643
  0
LINE
  5
403
100
AcDbEntity
  8
0
100
AcDbLine
 62
7
  6
CONTINUOUS
 10
286.9516750665
 20
430.8890031651
 11
286.9565083386
 21
430.3285018643
  0
LINE
  5
404
100
AcDbEntity
  8
0
100
AcDbLine
 62
7
  6
CONTINUOUS
 10
280.9078831449
 20
430.2258312734
 11
280.9088402799
 21
430.9258312734
  0
LINE
  5
405
100
AcDbEntity
  8
0
100
AcDbLine
 62
7
  6
CONTINUOUS
 10
292.2982467252
 20
430.9258312734
 11
292.296188464
 21
430.3951070262
  0
LINE
  5
406
100
AcDbEntity
  8
0
100
AcDbLine
 62
7
  6
CONTINUOUS
 10
408.9756393841
 20
71.5758312734
 11
414.1717918069
 21
62.5758312734
  0
LINE
  5
407
100
AcDbEntity
  8
0
100
AcDbLine
 62
7
  6
CONTINUOUS
 10
297.2764330966
 20
430.2258312734
 11
297.2722832706
 21
430.9258312734
  0
LINE
  5
408
100
AcDbEntity
  8
0
100
AcDbLine
 62
7
  6
CONTINUOUS
 10
297.1141217693
 20
430.2258312734
 11
297.1141217693
 21
430.9258312734
  0
LINE
  5
409
100
AcDbEntity
  8
0
100
AcDbLine
 62
6
  6
CONTINUOUS
 10
312.486667187
 20
102.5858312734
 11
312.486667187
 21
102.9858312734
  0
LINE
  5
40A
100
AcDbEntity
  8
0
100
AcDbLine
 62
6
  6
CONTINUOUS
 10
312.5179539889
 20
102.5858312734
 11
312.5179539889
 21
102.9858312734
  0
LINE
  5
40B
100
AcDbEntity
  8
0
100
AcDbLine
 62
6
  6
CONTINUOUS
 10
312.5453476632
 20
102.5858312734
 11
312.5453476632
 21
102.9858312734
  0
LINE
  5
40C
100
AcDbEntity
  8
0
100
AcDbLine
 62
6
  6
CONTINUOUS
 10
312.5810029327
 20
102.5858312734
 11
312.5810029327
 21
102.9858312734
  0
LINE
  5
40D
100
AcDbEntity
  8
0
100
AcDbLine
 62
6
  6
CONTINUOUS
 10
312.6249092918
 20
102.5858312734
 11
312.6249092918
 21
102.9858312734
  0
LINE
  5
40E
100
AcDbEntity
  8
0
100
AcDbLine
 62
6
  6
CONTINUOUS
 10
312.6549666192
 20
102.5858312734
 11
312.6549666192
 21
102.9858312734
  0
LINE
  5
40F
100
AcDbEntity
  8
0
100
AcDbLine
 62
6
  6
CONTINUOUS
 10
312.7114273001
 20
102.5858312734
 11
312.7114273001
 21
102.9858312734
  0
LINE
  5
410
100
AcDbEntity
  8
0
100
AcDbLine
 62
6
  6
CONTINUOUS
 10
312.7750368326
 20
102.5858312734
 11
312.7750368326
 21
102.9858312734
  0
LINE
  5
411
100
AcDbEntity
  8
0
100
AcDbLine
 62
6
  6
CONTINUOUS
 10
312.8018935543
 20
102.5858312734
 11
312.8018935543
 21
102.9858312734
  0
LINE
  5
412
100
AcDbEntity
  8
0
100
AcDbLine
 62
6
  6
CONTINUOUS
 10
312.8452827629
 20
102.5858312734
 11
312.8452827629
 21
102.9858312734
  0
LINE
  5
413
100
AcDbEntity
  8
0
100
AcDbLine
 62
6
  6
CONTINUOUS
 10
312.8746809746
 20
102.5858312734
 11
312.8746809746
 21
102.9858312734
  0
LINE
  5
414
100
AcDbEntity
  8
0
100
AcDbLine
 62
6
  6
CONTINUOUS
 10
312.9216411403
 20
102.5858312734
 11
312.9216411403
 21
102.9858312734
  0
LINE
  5
415
100
AcDbEntity
  8
0
100
AcDbLine
 62
6
  6
CONTINUOUS
 10
312.9540228212
 20
102.5858312734
 11
312.9540228212
 21
102.9858312734
  0
LINE
  5
416
100
AcDbEntity
  8
0
100
AcDbLine
 62
6
  6
CONTINUOUS
 10
313.0038770126
 20
102.5858312734
 11
313.0038770126
 21
102.9858312734
  0
LINE
  5
417
100
AcDbEntity
  8
0
100
AcDbLine
 62
6
  6
CONTINUOUS
 10
313.0357544396
 20
102.9858312734
 11
313.0357544396
 21
102.5858312734
  0
LINE
  5
418
100
AcDbEntity
  8
0
100
AcDbLine
 62
6
  6
CONTINUOUS
 10
313.0643643558
 20
102.9858312734
 11
313.0643643558
 21
102.5858312734
  0
LINE
  5
419
100
AcDbEntity
  8
0
100
AcDbLine
 62
6
  6
CONTINUOUS
 10
313.0921200069
 20
102.5858312734
 11
313.0921200069
 21
102.9858312734
  0
LINE
  5
41A
100
AcDbEntity
  8
0
100
AcDbLine
 62
6
  6
CONTINUOUS
 10
313.1294224927
 20
102.5858312734
 11
313.1294224927
 21
102.9858312734
  0
LINE
  5
41B
100
AcDbEntity
  8
0
100
AcDbLine
 62
6
  6
CONTINUOUS
 10
313.1815654439
 20
102.9858312734
 11
313.1815654439
 21
102.5858312734
  0
LINE
  5
41C
100
AcDbEntity
  8
0
100
AcDbLine
 62
6
  6
CONTINUOUS
 10
313.2048102064
 20
102.9858312734
 11
313.2048102064
 21
102.5858312734
  0
LINE
  5
41D
100
AcDbEntity
  8
0
100
AcDbLine
 62
6
  6
CONTINUOUS
 10
313.2670880476
 20
102.9858312734
 11
313.2670880476
 21
102.5858312734
  0
LINE
  5
41E
100
AcDbEntity
  8
0
100
AcDbLine
 62
6
  6
CONTINUOUS
 10
313.2951362284
 20
102.9858312734
 11
313.2951362284
 21
102.5858312734
  0
LINE
  5
41F
100
AcDbEntity
  8
0
100
AcDbLine
 62
6
  6
CONTINUOUS
 10
313.3266282213
 20
102.5858312734
 11
313.3266282213
 21
102.9858312734
  0
LINE
  5
420
100
AcDbEntity
  8
0
100
AcDbLine
 62
6
  6
CONTINUOUS
 10
313.3685257885
 20
102.9858312734
 11
313.3685257885
 21
102.5858312734
  0
LINE
  5
421
100
AcDbEntity
  8
0
100
AcDbLine
 62
6
  6
CONTINUOUS
 10
313.4001011312
 20
102.9858312734
 11
313.4001011312
 21
102.5858312734
  0
LINE
  5
422
100
AcDbEntity
  8
0
100
AcDbLine
 62
6
  6
CONTINUOUS
 10
313.4402325819
 20
102.5858312734
 11
313.4402325819
 21
102.9858312734
  0
LINE
  5
423
100
AcDbEntity
  8
0
100
AcDbLine
 62
6
  6
CONTINUOUS
 10
313.4824861965
 20
102.9858312734
 11
313.4824861965
 21
102.5858312734
  0
LINE
  5
424
100
AcDbEntity
  8
0
100
AcDbLine
 62
6
  6
CONTINUOUS
 10
313.5174054292
 20
102.9858312734
 11
313.5174054292
 21
102.5858312734
  0
LINE
  5
425
100
AcDbEntity
  8
0
100
AcDbLine
 62
6
  6
CONTINUOUS
 10
313.5580007577
 20
102.5858312734
 11
313.5580007577
 21
102.9858312734
  0
LINE
  5
426
100
AcDbEntity
  8
0
100
AcDbLine
 62
6
  6
CONTINUOUS
 10
313.5956349773
 20
102.5858312734
 11
313.5956349773
 21
102.9858312734
  0
LINE
  5
427
100
AcDbEntity
  8
0
100
AcDbLine
 62
6
  6
CONTINUOUS
 10
313.6433095307
 20
102.9858312734
 11
313.6433095307
 21
102.5858312734
  0
LINE
  5
428
100
AcDbEntity
  8
0
100
AcDbLine
 62
6
  6
CONTINUOUS
 10
313.6782369049
 20
102.5858312734
 11
313.6782369049
 21
102.9858312734
  0
LINE
  5
429
100
AcDbEntity
  8
0
100
AcDbLine
 62
6
  6
CONTINUOUS
 10
313.7367986226
 20
102.9858312734
 11
313.7367986226
 21
102.5858312734
  0
LINE
  5
42A
100
AcDbEntity
  8
0
100
AcDbLine
 62
6
  6
CONTINUOUS
 10
313.7758515324
 20
102.9858312734
 11
313.7758515324
 21
102.5858312734
  0
LINE
  5
42B
100
AcDbEntity
  8
0
100
AcDbLine
 62
6
  6
CONTINUOUS
 10
313.8140703959
 20
102.5858312734
 11
313.8140703959
 21
102.9858312734
  0
LINE
  5
42C
100
AcDbEntity
  8
0
100
AcDbLine
 62
6
  6
CONTINUOUS
 10
313.8714967609
 20
102.9858312734
 11
313.8714967609
 21
102.5858312734
  0
LINE
  5
42D
100
AcDbEntity
  8
0
100
AcDbLine
 62
6
  6
CONTINUOUS
 10
313.9110372798
 20
102.9858312734
 11
313.9110372798
 21
102.5858312734
  0
LINE
  5
42E
100
AcDbEntity
  8
0
100
AcDbLine
 62
6
  6
CONTINUOUS
 10
314.0066523868
 20
102.9858312734
 11
314.0066523868
 21
102.5858312734
  0
LINE
  5
42F
100
AcDbEntity
  8
0
100
AcDbLine
 62
6
  6
CONTINUOUS
 10
314.0432760904
 20
102.5858312734
 11
314.0432760904
 21
102.9858312734
  0
LINE
  5
430
100
AcDbEntity
  8
0
100
AcDbLine
 62
6
  6
CONTINUOUS
 10
314.1324962987
 20
102.5858312734
 11
314.1324962987
 21
102.9858312734
  0
LINE
  5
431
100
AcDbEntity
  8
0
100
AcDbLine
 62
6
  6
CONTINUOUS
 10
314.1644203461
 20
102.5858312734
 11
314.1644203461
 21
102.9858312734
  0
LINE
  5
432
100
AcDbEntity
  8
0
100
AcDbLine
 62
6
  6
CONTINUOUS
 10
314.2403994359
 20
102.5858312734
 11
314.2403994359
 21
102.9858312734
  0
LINE
  5
433
100
AcDbEntity
  8
0
100
AcDbLine
 62
6
  6
CONTINUOUS
 10
314.2835479311
 20
102.5858312734
 11
314.2835479311
 21
102.9858312734
  0
LINE
  5
434
100
AcDbEntity
  8
0
100
AcDbLine
 62
6
  6
CONTINUOUS
 10
314.3462036348
 20
102.5858312734
 11
314.3462036348
 21
102.9858312734
  0
LINE
  5
435
100
AcDbEntity
  8
0
100
AcDbLine
 62
6
  6
CONTINUOUS
 10
314.3824781832
 20
102.9858312734
 11
314.3824781832
 21
102.5858312734
  0
LINE
  5
436
100
AcDbEntity
  8
0
100
AcDbLine
 62
6
  6
CONTINUOUS
 10
314.4140970446
 20
102.9858312734
 11
314.4140970446
 21
102.5858312734
  0
LINE
  5
437
100
AcDbEntity
  8
0
100
AcDbLine
 62
6
  6
CONTINUOUS
 10
314.4490033647
 20
102.5858312734
 11
314.4490033647
 21
102.9858312734
  0
LINE
  5
438
100
AcDbEntity
  8
0
100
AcDbLine
 62
6
  6
CONTINUOUS
 10
314.487459035
 20
102.9858312734
 11
314.487459035
 21
102.5858312734
  0
LINE
  5
439
100
AcDbEntity
  8
0
100
AcDbLine
 62
6
  6
CONTINUOUS
 10
314.5155376795
 20
102.9858312734
 11
314.5155376795
 21
102.5858312734
  0
LINE
  5
43A
100
AcDbEntity
  8
0
100
AcDbLine
 62
6
  6
CONTINUOUS
 10
314.5485689098
 20
102.5858312734
 11
314.5485689098
 21
102.9858312734
  0
LINE
  5
43B
100
AcDbEntity
  8
0
100
AcDbLine
 62
6
  6
CONTINUOUS
 10
314.5777735049
 20
102.9858312734
 11
314.5777735049
 21
102.5858312734
  0
LINE
  5
43C
100
AcDbEntity
  8
0
100
AcDbLine
 62
6
  6
CONTINUOUS
 10
314.6059841988
 20
102.5858312734
 11
314.6059841988
 21
102.9858312734
  0
LINE
  5
43D
100
AcDbEntity
  8
0
100
AcDbLine
 62
6
  6
CONTINUOUS
 10
314.6441138258
 20
102.5858312734
 11
314.6441138258
 21
102.9858312734
  0
LINE
  5
43E
100
AcDbEntity
  8
0
100
AcDbLine
 62
6
  6
CONTINUOUS
 10
314.6986341364
 20
102.5858312734
 11
314.6986341364
 21
102.9858312734
  0
LINE
  5
43F
100
AcDbEntity
  8
0
100
AcDbLine
 62
6
  6
CONTINUOUS
 10
314.734956963
 20
102.5858312734
 11
314.734956963
 21
102.9858312734
  0
LINE
  5
440
100
AcDbEntity
  8
0
100
AcDbLine
 62
6
  6
CONTINUOUS
 10
314.7863983982
 20
102.5858312734
 11
314.7863983982
 21
102.9858312734
  0
LINE
  5
441
100
AcDbEntity
  8
0
100
AcDbLine
 62
6
  6
CONTINUOUS
 10
314.820352984
 20
102.5858312734
 11
314.820352984
 21
102.9858312734
  0
LINE
  5
442
100
AcDbEntity
  8
0
100
AcDbLine
 62
6
  6
CONTINUOUS
 10
314.8687170648
 20
102.5858312734
 11
314.8687170648
 21
102.9858312734
  0
LINE
  5
443
100
AcDbEntity
  8
0
100
AcDbLine
 62
6
  6
CONTINUOUS
 10
314.8995418594
 20
102.5858312734
 11
314.8995418594
 21
102.9858312734
  0
LINE
  5
444
100
AcDbEntity
  8
0
100
AcDbLine
 62
6
  6
CONTINUOUS
 10
314.9448069493
 20
102.5858312734
 11
314.9448069493
 21
102.9858312734
  0
LINE
  5
445
100
AcDbEntity
  8
0
100
AcDbLine
 62
6
  6
CONTINUOUS
 10
314.9729207282
 20
102.5858312734
 11
314.9729207282
 21
102.9858312734
  0
LINE
  5
446
100
AcDbEntity
  8
0
100
AcDbLine
 62
6
  6
CONTINUOUS
 10
315.0143306613
 20
102.5858312734
 11
315.0143306613
 21
102.9858312734
  0
LINE
  5
447
100
AcDbEntity
  8
0
100
AcDbLine
 62
6
  6
CONTINUOUS
 10
315.0770161254
 20
102.5858312734
 11
315.0770161254
 21
102.9858312734
  0
LINE
  5
448
100
AcDbEntity
  8
0
100
AcDbLine
 62
6
  6
CONTINUOUS
 10
315.1324807003
 20
102.5858312734
 11
315.1324807003
 21
102.9858312734
  0
LINE
  5
449
100
AcDbEntity
  8
0
100
AcDbLine
 62
6
  6
CONTINUOUS
 10
315.1803478872
 20
102.5858312734
 11
315.1803478872
 21
102.9858312734
  0
LINE
  5
44A
100
AcDbEntity
  8
0
100
AcDbLine
 62
6
  6
CONTINUOUS
 10
315.2201409631
 20
102.5858312734
 11
315.2201409631
 21
102.9858312734
  0
LINE
  5
44B
100
AcDbEntity
  8
0
100
AcDbLine
 62
6
  6
CONTINUOUS
 10
315.2516881345
 20
102.5858312734
 11
315.2516881345
 21
102.9858312734
  0
LINE
  5
44C
100
AcDbEntity
  8
0
100
AcDbLine
 62
6
  6
CONTINUOUS
 10
315.2819714656
 20
102.5858312734
 11
315.2819714656
 21
102.9858312734
  0
LINE
  5
44D
100
AcDbEntity
  8
0
100
AcDbLine
 62
7
  6
CONTINUOUS
 10
143.7465189457
 20
59.5758312734
 11
146.7436636105
 21
62.5758312734
  0
LINE
  5
44E
100
AcDbEntity
  8
0
100
AcDbLine
 62
7
  6
CONTINUOUS
 10
140.4588883627
 20
71.437900239
 11
140.2588883627
 21
71.237900239
  0
LINE
  5
44F
100
AcDbEntity
  8
0
100
AcDbLine
 62
7
  6
CONTINUOUS
 10
138.972946645
 20
89.2184400921
 11
142.3870530291
 21
91.4417286348
  0
LINE
  5
450
100
AcDbEntity
  8
0
100
AcDbLine
 62
7
  6
CONTINUOUS
 10
419.6279547759
 20
448.6933311633
 11
419.5398529485
 21
448.4372211176
  0
LINE
  5
451
100
AcDbEntity
  8
0
100
AcDbLine
 62
7
  6
CONTINUOUS
 10
420.9154660445
 20
447.9584045368
 11
421.0114872397
 21
448.2375360075
  0
LINE
  5
452
100
AcDbEntity
  8
0
100
AcDbLine
 62
6
  6
CONTINUOUS
 10
421.3286157572
 20
447.4466319404
 11
421.4587190715
 21
447.8248393706
  0
LINE
  5
453
100
AcDbEntity
  8
0
100
AcDbLine
 62
6
  6
CONTINUOUS
 10
421.3562978748
 20
447.4325184023
 11
421.4864011891
 21
447.8107258325
  0
LINE
  5
454
100
AcDbEntity
  8
0
100
AcDbLine
 62
6
  6
CONTINUOUS
 10
421.3943242198
 20
447.4285353183
 11
421.5244275341
 21
447.8067427486
  0
LINE
  5
455
100
AcDbEntity
  8
0
100
AcDbLine
 62
6
  6
CONTINUOUS
 10
421.4601495285
 20
447.4079636418
 11
421.5902528428
 21
447.7861710721
  0
LINE
  5
456
100
AcDbEntity
  8
0
100
AcDbLine
 62
6
  6
CONTINUOUS
 10
421.5465554802
 20
447.3801359979
 11
421.6766587945
 21
447.7583434282
  0
LINE
  5
457
100
AcDbEntity
  8
0
100
AcDbLine
 62
6
  6
CONTINUOUS
 10
421.650615365
 20
447.3459981131
 11
421.7807186793
 21
447.7242055434
  0
LINE
  5
458
100
AcDbEntity
  8
0
100
AcDbLine
 62
6
  6
CONTINUOUS
 10
421.6710062346
 20
447.3165802569
 11
421.8011095488
 21
447.6947876871
  0
LINE
  5
459
100
AcDbEntity
  8
0
100
AcDbLine
 62
6
  6
CONTINUOUS
 10
421.7708139156
 20
447.3060411913
 11
421.9009172299
 21
447.6842486216
  0
LINE
  5
45A
100
AcDbEntity
  8
0
100
AcDbLine
 62
6
  6
CONTINUOUS
 10
421.79339965
 20
447.2731471059
 11
421.9235029643
 21
447.6513545362
  0
LINE
  5
45B
100
AcDbEntity
  8
0
100
AcDbLine
 62
6
  6
CONTINUOUS
 10
421.9031549494
 20
447.2616000224
 11
422.0332582637
 21
447.6398074526
  0
LINE
  5
45C
100
AcDbEntity
  8
0
100
AcDbLine
 62
6
  6
CONTINUOUS
 10
421.9271073785
 20
447.2261376382
 11
422.0572106928
 21
447.6043450684
  0
LINE
  5
45D
100
AcDbEntity
  8
0
100
AcDbLine
 62
6
  6
CONTINUOUS
 10
422.0435233194
 20
447.2140572086
 11
422.1736266336
 21
447.5922646388
  0
LINE
  5
45E
100
AcDbEntity
  8
0
100
AcDbLine
 62
6
  6
CONTINUOUS
 10
422.0699951254
 20
447.176305332
 11
422.2000984397
 21
447.5545127622
  0
LINE
  5
45F
100
AcDbEntity
  8
0
100
AcDbLine
 62
6
  6
CONTINUOUS
 10
422.1912464145
 20
447.1636404406
 11
422.3213497287
 21
447.5418478708
  0
LINE
  5
460
100
AcDbEntity
  8
0
100
AcDbLine
 62
6
  6
CONTINUOUS
 10
422.2178029809
 20
447.1251352481
 11
422.3479062952
 21
447.5033426783
  0
LINE
  5
461
100
AcDbEntity
  8
0
100
AcDbLine
 62
6
  6
CONTINUOUS
 10
422.3406559595
 20
447.1122840901
 11
422.4707592738
 21
447.4904915203
  0
LINE
  5
462
100
AcDbEntity
  8
0
100
AcDbLine
 62
6
  6
CONTINUOUS
 10
422.3671714632
 20
447.0737931577
 11
422.4972747775
 21
447.4520005879
  0
LINE
  5
463
100
AcDbEntity
  8
0
100
AcDbLine
 62
6
  6
CONTINUOUS
 10
422.4885018107
 20
447.0611017555
 11
422.618605125
 21
447.4393091857
  0
LINE
  5
464
100
AcDbEntity
  8
0
100
AcDbLine
 62
6
  6
CONTINUOUS
 10
422.5148832844
 20
447.0233811297
 11
422.6449865987
 21
447.40158856
  0
LINE
  5
465
100
AcDbEntity
  8
0
100
AcDbLine
 62
6
  6
CONTINUOUS
 10
422.6314123515
 20
447.0112627333
 11
422.7615156658
 21
447.3894701636
  0
LINE
  5
466
100
AcDbEntity
  8
0
100
AcDbLine
 62
6
  6
CONTINUOUS
 10
422.6552388382
 20
446.9758438248
 11
422.7853421525
 21
447.3540512551
  0
LINE
  5
467
100
AcDbEntity
  8
0
100
AcDbLine
 62
6
  6
CONTINUOUS
 10
422.7650745661
 20
446.964269996
 11
422.8951778804
 21
447.3424774263
  0
LINE
  5
468
100
AcDbEntity
  8
0
100
AcDbLine
 62
6
  6
CONTINUOUS
 10
422.7875648982
 20
446.9314089199
 11
422.9176682125
 21
447.3096163501
  0
LINE
  5
469
100
AcDbEntity
  8
0
100
AcDbLine
 62
6
  6
CONTINUOUS
 10
422.887423729
 20
446.9208527822
 11
423.0175270433
 21
447.2990602125
  0
LINE
  5
46A
100
AcDbEntity
  8
0
100
AcDbLine
 62
6
  6
CONTINUOUS
 10
422.9077648558
 20
446.8914523279
 11
423.0378681701
 21
447.2696597582
  0
LINE
  5
46B
100
AcDbEntity
  8
0
100
AcDbLine
 62
6
  6
CONTINUOUS
 10
422.99454901
 20
446.882396951
 11
423.1246523243
 21
447.2606043813
  0
LINE
  5
46C
100
AcDbEntity
  8
0
100
AcDbLine
 62
6
  6
CONTINUOUS
 10
423.0840896707
 20
446.8497472939
 11
423.2141929849
 21
447.2279547241
  0
LINE
  5
46D
100
AcDbEntity
  8
0
100
AcDbLine
 62
6
  6
CONTINUOUS
 10
423.1541245807
 20
446.8236082711
 11
423.284227895
 21
447.2018157014
  0
LINE
  5
46E
100
AcDbEntity
  8
0
100
AcDbLine
 62
6
  6
CONTINUOUS
 10
423.2021214404
 20
446.8049163331
 11
423.3322247546
 21
447.1831237634
  0
LINE
  5
46F
100
AcDbEntity
  8
0
100
AcDbLine
 62
6
  6
CONTINUOUS
 10
423.2276117416
 20
446.7938649167
 11
423.3577150558
 21
447.1720723469
  0
LINE
  5
470
100
AcDbEntity
  8
0
100
AcDbLine
 62
7
  6
CONTINUOUS
 10
424.9788833086
 20
446.8701505402
 11
424.8487799943
 21
446.4919431099
  0
LINE
  5
471
100
AcDbEntity
  8
0
100
AcDbLine
 62
7
  6
CONTINUOUS
 10
426.1463587946
 20
446.1376613436
 11
426.2416749491
 21
446.4147432769
  0
LWPOLYLINE
  5
472
100
AcDbEntity
  8
0
100
AcDbPolyline
 62
7
  6
CONTINUOUS
 90
6
 70
0
 10
427.1567961066
 20
401.3188145928
 10
427.218047309
 20
401.5076211752
 10
427.3151203893
 20
401.6802168345
 10
427.4335273588
 20
401.8198687845
 10
427.5620201442
 20
401.9263951738
 10
427.5972130541
 20
401.9498267329
  0
LINE
  5
473
100
AcDbEntity
  8
0
100
AcDbLine
 62
7
  6
CONTINUOUS
 10
418.8731924798
 20
363.1086379083
 11
417.7663290419
 21
363.0998182723
  0
LINE
  5
474
100
AcDbEntity
  8
0
100
AcDbLine
 62
7
  6
CONTINUOUS
 10
407.374476438
 20
361.9258312734
 11
417.4068006401
 21
361.9258312734
  0
LINE
  5
475
100
AcDbEntity
  8
0
100
AcDbLine
 62
7
  6
CONTINUOUS
 10
407.2286876345
 20
363.2094108708
 11
416.7127325809
 21
363.2094108708
  0
LINE
  5
476
100
AcDbEntity
  8
0
100
AcDbLine
 62
7
  6
CONTINUOUS
 10
418.8731805591
 20
363.1086151252
 11
427.156741367
 21
401.3185616866
  0
LINE
  5
477
100
AcDbEntity
  8
0
100
AcDbLine
 62
7
  6
CONTINUOUS
 10
406.9616298569
 20
375.9258312734
 11
406.9928825764
 21
375.9258312734
  0
LINE
  5
478
100
AcDbEntity
  8
0
100
AcDbLine
 62
7
  6
CONTINUOUS
 10
432.6754032186
 20
376.9157959378
 11
426.7981466072
 21
376.9157959378
  0
LINE
  5
479
100
AcDbEntity
  8
0
100
AcDbLine
 62
7
  6
CONTINUOUS
 10
406.7496444357
 20
385.9258312734
 11
406.8339791292
 21
385.9258312734
  0
LINE
  5
47A
100
AcDbEntity
  8
0
100
AcDbLine
 62
7
  6
CONTINUOUS
 10
402.3276772023
 20
430.9258312734
 11
402.3643626478
 21
430.2258312734
  0
LINE
  5
47B
100
AcDbEntity
  8
0
100
AcDbLine
 62
7
  6
CONTINUOUS
 10
405.758531681
 20
431.4258312734
 11
405.758531681
 21
432.015740089
  0
LINE
  5
47C
100
AcDbEntity
  8
0
100
AcDbLine
 62
7
  6
CONTINUOUS
 10
405.7960427313
 20
449.9258312734
 11
405.7960427313
 21
432.3258312734
  0
LINE
  5
47D
100
AcDbEntity
  8
0
100
AcDbLine
 62
7
  6
CONTINUOUS
 10
408.1348479101
 20
361.9258312734
 11
408.1348479101
 21
73.7258312734
  0
LINE
  5
47E
100
AcDbEntity
  8
0
100
AcDbLine
 62
7
  6
CONTINUOUS
 10
408.2256393841
 20
456.03847019
 11
408.2256393841
 21
451.4258312734
  0
LINE
  5
47F
100
AcDbEntity
  8
0
100
AcDbLine
 62
7
  6
CONTINUOUS
 10
132.4826791207
 20
68.9551416183
 11
159.9756393841
 21
78.4445045144
  0
LINE
  5
480
100
AcDbEntity
  8
0
100
AcDbLine
 62
7
  6
CONTINUOUS
 10
166.4824585762
 20
79.5612105227
 11
135.7541331731
 21
68.9551416183
  0
LINE
  5
481
100
AcDbEntity
  8
0
100
AcDbLine
 62
7
  6
CONTINUOUS
 10
427.5861255366
 20
401.949052286
 11
427.5967924454
 21
401.9495686435
  0
LINE
  5
482
100
AcDbEntity
  8
0
100
AcDbLine
 62
7
  6
CONTINUOUS
 10
426.663096611
 20
401.9389162089
 11
427.5861255366
 21
401.949052286
  0
LINE
  5
483
100
AcDbEntity
  8
0
100
AcDbLine
 62
7
  6
CONTINUOUS
 10
404.7323026008
 20
430.3536911392
 11
404.7447794253
 21
430.2258312734
  0
LINE
  5
484
100
AcDbEntity
  8
0
100
AcDbLine
 62
7
  6
CONTINUOUS
 10
407.289739855
 20
430.3536911392
 11
407.6976304082
 21
425.4258312734
  0
LINE
  5
485
100
AcDbEntity
  8
0
100
AcDbLine
 62
7
  6
CONTINUOUS
 10
426.7981466072
 20
399.669359316
 11
426.7981466072
 21
376.9157959378
  0
LINE
  5
486
100
AcDbEntity
  8
0
100
AcDbLine
 62
7
  6
CONTINUOUS
 10
429.1754032186
 20
376.9157959378
 11
429.1754032186
 21
419.2258312734
  0
LINE
  5
487
100
AcDbEntity
  8
0
100
AcDbLine
 62
7
  6
CONTINUOUS
 10
432.6754032186
 20
376.9157959378
 11
432.6754032186
 21
419.2258312734
  0
LINE
  5
488
100
AcDbEntity
  8
0
100
AcDbLine
 62
7
  6
CONTINUOUS
 10
433.6752588072
 20
430.487040946
 11
433.6752588072
 21
430.3258312734
  0
LINE
  5
489
100
AcDbEntity
  8
0
100
AcDbLine
 62
7
  6
CONTINUOUS
 10
434.2774200186
 20
441.8558916716
 11
434.2774200186
 21
430.3258312734
  0
LINE
  5
48A
100
AcDbEntity
  8
0
100
AcDbLine
 62
7
  6
CONTINUOUS
 10
434.2432657695
 20
426.2094108708
 11
434.1188427634
 21
407.1230865604
  0
LINE
  5
48B
100
AcDbEntity
  8
0
100
AcDbLine
 62
7
  6
CONTINUOUS
 10
435.2301325358
 20
407.3297287262
 11
435.3545555699
 21
426.4160573233
  0
LINE
  5
48C
100
AcDbEntity
  8
0
100
AcDbLine
 62
7
  6
CONTINUOUS
 10
406.3341629898
 20
408.9258312734
 11
406.1805254952
 21
408.9258312734
  0
LINE
  5
48D
100
AcDbEntity
  8
0
100
AcDbLine
 62
7
  6
CONTINUOUS
 10
405.8967352887
 20
418.9258312734
 11
406.0845407716
 21
418.9258312734
  0
LINE
  5
48E
100
AcDbEntity
  8
0
100
AcDbLine
 62
7
  6
CONTINUOUS
 10
429.1754032186
 20
419.2258312734
 11
432.6754032186
 21
419.2258312734
  0
LINE
  5
48F
100
AcDbEntity
  8
0
100
AcDbLine
 62
7
  6
CONTINUOUS
 10
429.0210614459
 20
425.2520160284
 11
429.0253653111
 21
425.1979778963
  0
LINE
  5
490
100
AcDbEntity
  8
0
100
AcDbLine
 62
7
  6
CONTINUOUS
 10
435.1738311396
 20
430.3258312734
 11
435.1738311396
 21
427.6946285164
  0
LINE
  5
491
100
AcDbEntity
  8
0
100
AcDbLine
 62
7
  6
CONTINUOUS
 10
435.3846318666
 20
430.3258312734
 11
435.3846318666
 21
441.8558916716
  0
LINE
  5
492
100
AcDbEntity
  8
0
100
AcDbLine
 62
7
  6
CONTINUOUS
 10
405.911568048
 20
425.4258312734
 11
407.6976304082
 21
425.4258312734
  0
LINE
  5
493
100
AcDbEntity
  8
0
100
AcDbLine
 62
7
  6
CONTINUOUS
 10
159.9756393841
 20
425.7258312734
 11
407.6289102346
 21
425.7258312734
  0
LINE
  5
494
100
AcDbEntity
  8
0
100
AcDbLine
 62
7
  6
CONTINUOUS
 10
407.4751723651
 20
427.6258312734
 11
160.4761064032
 21
427.6258312734
  0
LINE
  5
495
100
AcDbEntity
  8
0
100
AcDbLine
 62
7
  6
CONTINUOUS
 10
430.6200675071
 20
427.9758312734
 11
430.2602075613
 21
427.9758312734
  0
LINE
  5
496
100
AcDbEntity
  8
0
100
AcDbLine
 62
7
  6
CONTINUOUS
 10
160.4756393841
 20
429.2258312734
 11
407.3830954692
 21
429.2258312734
  0
LINE
  5
497
100
AcDbEntity
  8
0
100
AcDbLine
 62
7
  6
CONTINUOUS
 10
161.4784335998
 20
430.2258312734
 11
406.4728451685
 21
430.2258312734
  0
LINE
  5
498
100
AcDbEntity
  8
0
100
AcDbLine
 62
7
  6
CONTINUOUS
 10
435.3833201559
 20
430.3258312734
 11
433.9516966746
 21
430.3258312734
  0
LINE
  5
499
100
AcDbEntity
  8
0
100
AcDbLine
 62
7
  6
CONTINUOUS
 10
433.6752588072
 20
430.3258312734
 11
433.8846318666
 21
430.3258312734
  0
LINE
  5
49A
100
AcDbEntity
  8
0
100
AcDbLine
 62
7
  6
CONTINUOUS
 10
285.4959959098
 20
430.3285018643
 11
292.5833405203
 21
430.3285018643
  0
LINE
  5
49B
100
AcDbEntity
  8
0
100
AcDbLine
 62
7
  6
CONTINUOUS
 10
286.1380929508
 20
430.4153792656
 11
285.4959959098
 21
430.4153792656
  0
LINE
  5
49C
100
AcDbEntity
  8
0
100
AcDbLine
 62
7
  6
CONTINUOUS
 10
406.7320308602
 20
430.9258312734
 11
161.2425653628
 21
430.9258312734
  0
LINE
  5
49D
100
AcDbEntity
  8
0
100
AcDbLine
 62
7
  6
CONTINUOUS
 10
406.8256393841
 20
430.9258312734
 11
430.9580985204
 21
430.9258312734
  0
LINE
  5
49E
100
AcDbEntity
  8
0
100
AcDbLine
 62
7
  6
CONTINUOUS
 10
431.0355533769
 20
431.4258312734
 11
405.758531681
 21
431.4258312734
  0
LINE
  5
49F
100
AcDbEntity
  8
0
100
AcDbLine
 62
7
  6
CONTINUOUS
 10
405.7960427313
 20
432.3258312734
 11
159.7256393841
 21
432.3258312734
  0
LINE
  5
4A0
100
AcDbEntity
  8
0
100
AcDbLine
 62
7
  6
CONTINUOUS
 10
434.2774200186
 20
441.8558916716
 11
435.3846318651
 21
441.8558916716
  0
LINE
  5
4A1
100
AcDbEntity
  8
0
100
AcDbLine
 62
7
  6
CONTINUOUS
 10
418.804063197
 20
448.6933311633
 11
419.6279547759
 21
448.6933311633
  0
LINE
  5
4A2
100
AcDbEntity
  8
0
100
AcDbLine
 62
7
  6
CONTINUOUS
 10
405.7960427313
 20
449.9258312734
 11
410.844639653
 21
449.9258312734
  0
LINE
  5
4A3
100
AcDbEntity
  8
0
100
AcDbLine
 62
7
  6
CONTINUOUS
 10
406.1135066304
 20
451.4258312734
 11
410.4518379822
 21
451.4258312734
  0
LINE
  5
4A4
100
AcDbEntity
  8
0
100
AcDbLine
 62
7
  6
CONTINUOUS
 10
159.7256393841
 20
456.03847019
 11
408.2256393841
 21
456.03847019
  0
LINE
  5
4A5
100
AcDbEntity
  8
0
100
AcDbLine
 62
7
  6
CONTINUOUS
 10
163.3121051896
 20
459.9258467276
 11
404.6392598652
 21
459.9258397616
  0
LINE
  5
4A6
100
AcDbEntity
  8
0
100
AcDbLine
 62
7
  6
CONTINUOUS
 10
391.6093295893
 20
460.9202989127
 11
176.3403972579
 21
460.920187252
  0
LINE
  5
4A7
100
AcDbEntity
  8
0
100
AcDbLine
 62
7
  6
CONTINUOUS
 10
390.4981393378
 20
461.6166334037
 11
177.4531394305
 21
461.6166334037
  0
LINE
  5
4A8
100
AcDbEntity
  8
0
100
AcDbLine
 62
7
  6
CONTINUOUS
 10
178.6033782758
 20
463.6089055246
 11
389.3479004925
 21
463.6089055246
  0
LINE
  5
4A9
100
AcDbEntity
  8
0
100
AcDbLine
 62
7
  6
CONTINUOUS
 10
388.232577178
 20
464.3055333242
 11
179.7187015903
 21
464.3055333242
  0
LINE
  5
4AA
100
AcDbEntity
  8
0
100
AcDbLine
 62
7
  6
CONTINUOUS
 10
389.3479004925
 20
463.6089055246
 11
390.4981393378
 21
461.6166334037
  0
LINE
  5
4AB
100
AcDbEntity
  8
0
100
AcDbLine
 62
7
  6
CONTINUOUS
 10
421.0114872397
 20
448.2375360075
 11
424.9788833086
 21
446.8701505402
  0
LINE
  5
4AC
100
AcDbEntity
  8
0
100
AcDbLine
 62
7
  6
CONTINUOUS
 10
434.2774200186
 20
441.8558916716
 11
411.3277206972
 21
449.8441091368
  0
LINE
  5
4AD
100
AcDbEntity
  8
0
100
AcDbLine
 62
7
  6
CONTINUOUS
 10
434.3777274024
 20
443.272527402
 11
411.4280280809
 21
451.2607448672
  0
ARC
  5
4AE
100
AcDbEntity
  8
0
100
AcDbCircle
 62
7
  6
CONTINUOUS
 10
90.1002029363
 20
399.309753074
 40
311.9407550131
100
AcDbArc
 50
277.8672000466
 51
278.0096080543
  0
ARC
  5
4AF
100
AcDbEntity
  8
0
100
AcDbCircle
 62
7
  6
CONTINUOUS
 10
87.4310641005
 20
360.1751984499
 40
266.9722926859
100
AcDbArc
 50
277.564984851
 51
277.7820435539
  0
ARC
  5
4B0
100
AcDbEntity
  8
0
100
AcDbCircle
 62
7
  6
CONTINUOUS
 10
136.4978336052
 20
302.8578793125
 40
202.8736125456
100
AcDbArc
 50
276.0368925377
 51
276.4887481426
  0
ARC
  5
4B1
100
AcDbEntity
  8
0
100
AcDbCircle
 62
7
  6
CONTINUOUS
 10
134.3289750131
 20
13.4155732178
 40
83.9060484935
100
AcDbArc
 50
98.2429015821
 51
98.3662196945
  0
ARC
  5
4B2
100
AcDbEntity
  8
0
100
AcDbCircle
 62
7
  6
CONTINUOUS
 10
113.2430116339
 20
167.5237524536
 40
72.5956312597
100
AcDbArc
 50
277.2312420076
 51
277.5468136774
  0
ARC
  5
4B3
100
AcDbEntity
  8
0
100
AcDbCircle
 62
7
  6
CONTINUOUS
 10
129.1598206912
 20
48.5022640233
 40
48.4406681286
100
AcDbArc
 50
98.375973822
 51
98.5012355634
  0
ARC
  5
4B4
100
AcDbEntity
  8
0
100
AcDbCircle
 62
7
  6
CONTINUOUS
 10
128.4926153514
 20
53.0663479823
 40
43.8280372622
100
AcDbArc
 50
98.3595878698
 51
98.5502485225
  0
ARC
  5
4B5
100
AcDbEntity
  8
0
100
AcDbCircle
 62
7
  6
CONTINUOUS
 10
126.0761948676
 20
69.1234341195
 40
27.5902148631
100
AcDbArc
 50
98.4985312928
 51
98.6669865677
  0
ARC
  5
4B6
100
AcDbEntity
  8
0
100
AcDbCircle
 62
7
  6
CONTINUOUS
 10
142.0802291089
 20
51.5769256632
 40
12.0
100
AcDbArc
 50
138.0495763199
 51
150.7635724185
  0
ARC
  5
4B7
100
AcDbEntity
  8
0
100
AcDbCircle
 62
7
  6
CONTINUOUS
 10
141.8143780417
 20
93.420018227
 40
1.9765317601
100
AcDbArc
 50
269.9904502552
 51
284.2152104588
  0
ARC
  5
4B8
100
AcDbEntity
  8
0
100
AcDbCircle
 62
7
  6
CONTINUOUS
 10
118.7155615105
 20
93.8254052461
 40
1.5997458608
100
AcDbArc
 50
98.0368640313
 51
188.0155744163
  0
ARC
  5
4B9
100
AcDbEntity
  8
0
100
AcDbCircle
 62
7
  6
CONTINUOUS
 10
122.233789742
 20
93.9128415685
 40
1.5657672302
100
AcDbArc
 50
94.098033568
 51
97.9992020641
  0
ARC
  5
4BA
100
AcDbEntity
  8
0
100
AcDbCircle
 62
7
  6
CONTINUOUS
 10
125.055265981
 20
95.3882198796
 40
0.9993244788
100
AcDbArc
 50
98.0236568427
 51
159.3574862033
  0
ARC
  5
4BB
100
AcDbEntity
  8
0
100
AcDbCircle
 62
7
  6
CONTINUOUS
 10
121.9361877099
 20
95.3883537815
 40
0.9990002421
100
AcDbArc
 50
98.0570229094
 51
174.7829444304
  0
ARC
  5
4BC
100
AcDbEntity
  8
0
100
AcDbCircle
 62
7
  6
CONTINUOUS
 10
26.8815089777
 20
798.3249457783
 40
710.8968747395
100
AcDbArc
 50
277.7649705714
 51
277.9026187306
  0
ARC
  5
4BD
100
AcDbEntity
  8
0
100
AcDbCircle
 62
7
  6
CONTINUOUS
 10
42.5760782954
 20
689.2882465813
 40
599.127921275
100
AcDbArc
 50
277.7704062784
 51
278.0211387007
  0
ARC
  5
4BE
100
AcDbEntity
  8
0
100
AcDbCircle
 62
7
  6
CONTINUOUS
 10
48.0396825998
 20
650.4615157878
 40
559.9162162572
100
AcDbArc
 50
277.7755294897
 51
277.9547539109
  0
ARC
  5
4BF
100
AcDbEntity
  8
0
100
AcDbCircle
 62
7
  6
CONTINUOUS
 10
258.9778145529
 20
377.1113231354
 40
173.7674028494
100
AcDbArc
 50
356.4001675726
 51
356.7658568496
  0
ARC
  5
4C0
100
AcDbEntity
  8
0
100
AcDbCircle
 62
7
  6
CONTINUOUS
 10
154.1409398396
 20
129.2004151683
 40
28.3184110871
100
AcDbArc
 50
274.4570360729
 51
274.9075416638
  0
ARC
  5
4C1
100
AcDbEntity
  8
0
100
AcDbCircle
 62
7
  6
CONTINUOUS
 10
166.2282386501
 20
105.9632120511
 40
26.5174614603
100
AcDbArc
 50
267.2449543442
 51
269.7378483238
  0
ARC
  5
4C2
100
AcDbEntity
  8
0
100
AcDbCircle
 62
7
  6
CONTINUOUS
 10
166.231410479
 20
106.1344906374
 40
21.9286759863
100
AcDbArc
 50
267.351996303
 51
269.9294531942
  0
ARC
  5
4C3
100
AcDbEntity
  8
0
100
AcDbCircle
 62
7
  6
CONTINUOUS
 10
146.1375476165
 20
51.5769256632
 40
12.0
100
AcDbArc
 50
29.2364275815
 51
66.7672818121
  0
ARC
  5
4C4
100
AcDbEntity
  8
0
100
AcDbCircle
 62
7
  6
CONTINUOUS
 10
160.1598280053
 20
83.3260920404
 40
7.4609008723
100
AcDbArc
 50
354.8475166586
 51
3.6302150927
  0
ARC
  5
4C5
100
AcDbEntity
  8
0
100
AcDbCircle
 62
7
  6
CONTINUOUS
 10
173.0012657066
 20
83.4476133175
 40
7.2322038098
100
AcDbArc
 50
172.9729243443
 51
173.8809693843
  0
ARC
  5
4C6
100
AcDbEntity
  8
0
100
AcDbCircle
 62
7
  6
CONTINUOUS
 10
173.1849644425
 20
83.4725751237
 40
7.0004149043
100
AcDbArc
 50
171.4524260658
 51
173.9455994879
  0
ARC
  5
4C7
100
AcDbEntity
  8
0
100
AcDbCircle
 62
7
  6
CONTINUOUS
 10
160.7684799995
 20
83.3717259101
 40
6.8505843415
100
AcDbArc
 50
3.5716328979
 51
8.2444544802
  0
ARC
  5
4C8
100
AcDbEntity
  8
0
100
AcDbCircle
 62
7
  6
CONTINUOUS
 10
161.6375075994
 20
81.825807113
 40
5.5544875726
100
AcDbArc
 50
352.5785150312
 51
6.8676195448
  0
ARC
  5
4C9
100
AcDbEntity
  8
0
100
AcDbCircle
 62
7
  6
CONTINUOUS
 10
169.6747844485
 20
104.5257452065
 40
2.1446207854
100
AcDbArc
 50
174.6372961208
 51
179.9977006308
  0
ARC
  5
4CA
100
AcDbEntity
  8
0
100
AcDbCircle
 62
7
  6
CONTINUOUS
 10
171.2005146061
 20
87.1259743782
 40
1.9666593848
100
AcDbArc
 50
180.0041691494
 51
185.80817427
  0
ARC
  5
4CB
100
AcDbEntity
  8
0
100
AcDbCircle
 62
7
  6
CONTINUOUS
 10
167.5496858306
 20
87.1261438256
 40
1.9013796232
100
AcDbArc
 50
354.0087204319
 51
359.990581618
  0
ARC
  5
4CC
100
AcDbEntity
  8
0
100
AcDbCircle
 62
7
  6
CONTINUOUS
 10
166.1558893866
 20
81.1891443112
 40
0.9928676318
100
AcDbArc
 50
341.2036896961
 51
355.3323034717
  0
ARC
  5
4CD
100
AcDbEntity
  8
0
100
AcDbCircle
 62
7
  6
CONTINUOUS
 10
166.2029334855
 20
83.7848919887
 40
0.420753381
100
AcDbArc
 50
78.7892323313
 51
89.7989092323
  0
ARC
  5
4CE
100
AcDbEntity
  8
0
100
AcDbCircle
 62
7
  6
CONTINUOUS
 10
163.6256393841
 20
456.03847019
 40
3.9
100
AcDbArc
 50
94.6140001628
 51
180.0
  0
ARC
  5
4CF
100
AcDbEntity
  8
0
100
AcDbCircle
 62
7
  6
CONTINUOUS
 10
161.8756393841
 20
425.7258312734
 40
1.9
100
AcDbArc
 50
99.0
 51
180.0
  0
ARC
  5
4D0
100
AcDbEntity
  8
0
100
AcDbCircle
 62
7
  6
CONTINUOUS
 10
161.1256393841
 20
432.3258312734
 40
1.4
100
AcDbArc
 50
180.0
 51
270.0
  0
ARC
  5
4D1
100
AcDbEntity
  8
0
100
AcDbCircle
 62
7
  6
CONTINUOUS
 10
176.2407038652
 20
462.3166334037
 40
1.4
100
AcDbArc
 50
274.1148705512
 51
330.0
  0
ARC
  5
4D2
100
AcDbEntity
  8
0
100
AcDbCircle
 62
7
  6
CONTINUOUS
 10
179.8158138411
 20
462.9089055246
 40
1.4
100
AcDbArc
 50
93.9775670554
 51
150.0
  0
ARC
  5
4D3
100
AcDbEntity
  8
0
100
AcDbCircle
 62
7
  6
CONTINUOUS
 10
161.4756393841
 20
429.2258312734
 40
1.0
100
AcDbArc
 50
90.0
 51
180.0
  0
ARC
  5
4D4
100
AcDbEntity
  8
0
100
AcDbCircle
 62
7
  6
CONTINUOUS
 10
283.9756393841
 20
-1035.0741687266
 40
1503.0
100
AcDbArc
 50
86.0224329445
 51
93.9775670555
  0
ARC
  5
4D5
100
AcDbEntity
  8
0
100
AcDbCircle
 62
7
  6
CONTINUOUS
 10
283.9764170034
 20
-1035.2235694139
 40
1500.0105508805
100
AcDbArc
 50
94.1148713271
 51
94.6139974279
  0
ARC
  5
4D6
100
AcDbEntity
  8
0
100
AcDbCircle
 62
7
  6
CONTINUOUS
 10
283.975317723
 20
-1035.2174434164
 40
1500.0044080286
100
AcDbArc
 50
85.3860011543
 51
85.8851292445
  0
ARC
  5
4D7
100
AcDbEntity
  8
0
100
AcDbCircle
 62
7
  6
CONTINUOUS
 10
286.1401459283
 20
416.0396924554
 40
14.3756869445
100
AcDbArc
 50
89.2303602541
 51
90.0081823577
  0
ARC
  5
4D8
100
AcDbEntity
  8
0
100
AcDbCircle
 62
7
  6
CONTINUOUS
 10
388.1354649272
 20
462.9089055246
 40
1.4
100
AcDbArc
 50
30.0
 51
86.0224329446
  0
ARC
  5
4D9
100
AcDbEntity
  8
0
100
AcDbCircle
 62
7
  6
CONTINUOUS
 10
405.9853045377
 20
73.7255312454
 40
2.1495433933
100
AcDbArc
 50
281.0150393631
 51
0.0079972063
  0
ARC
  5
4DA
100
AcDbEntity
  8
0
100
AcDbCircle
 62
7
  6
CONTINUOUS
 10
430.5413070014
 20
402.2116596359
 40
28.1462581415
100
AcDbArc
 50
89.1523696681
 51
89.6999591947
  0
ARC
  5
4DB
100
AcDbEntity
  8
0
100
AcDbCircle
 62
7
  6
CONTINUOUS
 10
430.6110301996
 20
407.2010422914
 40
23.1563903846
100
AcDbArc
 50
88.8199602621
 51
89.1422389887
  0
ARC
  5
4DC
100
AcDbEntity
  8
0
100
AcDbCircle
 62
7
  6
CONTINUOUS
 10
428.8005663352
 20
366.5884751492
 40
2.2052069697
100
AcDbArc
 50
90.04461894
 51
100.2352372309
  0
ARC
  5
4DD
100
AcDbEntity
  8
0
100
AcDbCircle
 62
7
  6
CONTINUOUS
 10
428.7982684502
 20
366.6276613767
 40
2.1660201513
100
AcDbArc
 50
82.2934697352
 51
89.9846422824
  0
ARC
  5
4DE
100
AcDbEntity
  8
0
100
AcDbCircle
 62
7
  6
CONTINUOUS
 10
433.7093301382
 20
407.3615662122
 40
1.5293884073
100
AcDbArc
 50
302.1952355467
 51
320.1272286195
  0
ARC
  5
4DF
100
AcDbEntity
  8
0
100
AcDbCircle
 62
7
  6
CONTINUOUS
 10
417.407113229
 20
363.4258312726
 40
1.5
100
AcDbArc
 50
269.9999496197
 51
347.7665752759
  0
ARC
  5
4E0
100
AcDbEntity
  8
0
100
AcDbCircle
 62
7
  6
CONTINUOUS
 10
433.7626991149
 20
407.315261
 40
1.4587443487
100
AcDbArc
 50
320.1792244196
 51
324.8566220544
  0
ARC
  5
4E1
100
AcDbEntity
  8
0
100
AcDbCircle
 62
7
  6
CONTINUOUS
 10
433.7504549755
 20
407.2975450381
 40
1.4532998984
100
AcDbArc
 50
297.4350523575
 51
302.1680121187
  0
ARC
  5
4E2
100
AcDbEntity
  8
0
100
AcDbCircle
 62
7
  6
CONTINUOUS
 10
433.8537678452
 20
415.2581859498
 40
8.1394168608
100
AcDbArc
 50
271.8662712917
 51
274.0693435262
  0
ARC
  5
4E3
100
AcDbEntity
  8
0
100
AcDbCircle
 62
7
  6
CONTINUOUS
 10
430.7378337608
 20
426.441876087
 40
4.6153538743
100
AcDbArc
 50
359.8008165833
 51
16.8903386464
  0
ARC
  5
4E4
100
AcDbEntity
  8
0
100
AcDbCircle
 62
7
  6
CONTINUOUS
 10
430.9100957863
 20
426.521379426
 40
4.4227049236
100
AcDbArc
 50
44.4948378375
 51
54.0639685115
  0
ARC
  5
4E5
100
AcDbEntity
  8
0
100
AcDbCircle
 62
7
  6
CONTINUOUS
 10
430.9572457374
 20
426.5510744662
 40
4.3747568904
100
AcDbArc
 50
73.018078116
 51
89.9888307258
  0
ARC
  5
4E6
100
AcDbEntity
  8
0
100
AcDbCircle
 62
7
  6
CONTINUOUS
 10
430.9615590453
 20
426.5929796083
 40
4.3345293805
100
AcDbArc
 50
54.0593098559
 51
63.62119727
  0
ARC
  5
4E7
100
AcDbEntity
  8
0
100
AcDbCircle
 62
7
  6
CONTINUOUS
 10
430.9780464527
 20
426.6172774219
 40
4.3054379655
100
AcDbArc
 50
63.6740965387
 51
73.011869593
  0
ARC
  5
4E8
100
AcDbEntity
  8
0
100
AcDbCircle
 62
7
  6
CONTINUOUS
 10
404.3256393841
 20
456.03847019
 40
3.9
100
AcDbArc
 50
0.0
 51
85.3859998372
  0
ARC
  5
4E9
100
AcDbEntity
  8
0
100
AcDbCircle
 62
7
  6
CONTINUOUS
 10
430.5777594969
 20
427.0249766845
 40
3.4550914382
100
AcDbArc
 50
45.4172980305
 51
47.8127893393
  0
ARC
  5
4EA
100
AcDbEntity
  8
0
100
AcDbCircle
 62
7
  6
CONTINUOUS
 10
410.4482412773
 20
448.4385602222
 40
2.9872732165
100
AcDbArc
 50
70.9589575679
 51
89.9310147737
  0
ARC
  5
4EB
100
AcDbEntity
  8
0
100
AcDbCircle
 62
7
  6
CONTINUOUS
 10
430.8799810018
 20
427.4302023867
 40
2.9482493809
100
AcDbArc
 50
58.0189911348
 51
67.8390216566
  0
ARC
  5
4EC
100
AcDbEntity
  8
0
100
AcDbCircle
 62
7
  6
CONTINUOUS
 10
408.228497117
 20
418.8394626501
 40
2.30986292
100
AcDbArc
 50
175.2108730612
 51
177.8571406191
  0
ARC
  5
4ED
100
AcDbEntity
  8
0
100
AcDbCircle
 62
7
  6
CONTINUOUS
 10
430.4914565294
 20
426.2261942456
 40
1.995796492
100
AcDbArc
 50
353.3586082596
 51
85.4990786903
  0
ARC
  5
4EE
100
AcDbEntity
  8
0
100
AcDbCircle
 62
7
  6
CONTINUOUS
 10
406.2301439142
 20
425.7188738283
 40
1.9083585715
100
AcDbArc
 50
45.746774732
 51
56.1411703906
  0
ARC
  5
4EF
100
AcDbEntity
  8
0
100
AcDbCircle
 62
7
  6
CONTINUOUS
 10
430.6285731901
 20
426.22269432
 40
1.7574079904
100
AcDbArc
 50
154.2926645747
 51
167.0930747834
  0
ARC
  5
4F0
100
AcDbEntity
  8
0
100
AcDbCircle
 62
7
  6
CONTINUOUS
 10
430.619794441
 20
426.2483084177
 40
1.7275228773
100
AcDbArc
 50
86.0013703711
 51
89.9909433702
  0
ARC
  5
4F1
100
AcDbEntity
  8
0
100
AcDbCircle
 62
7
  6
CONTINUOUS
 10
433.882263554
 20
441.8566789879
 40
1.4998767093
100
AcDbArc
 50
59.1069337898
 51
70.9214551898
  0
ARC
  5
4F2
100
AcDbEntity
  8
0
100
AcDbCircle
 62
7
  6
CONTINUOUS
 10
391.7105749031
 20
462.3166334037
 40
1.4
100
AcDbArc
 50
210.0
 51
265.8851294488
  0
ARC
  5
4F3
100
AcDbEntity
  8
0
100
AcDbCircle
 62
7
  6
CONTINUOUS
 10
406.8256393841
 20
432.3258312734
 40
1.4
100
AcDbArc
 50
270.0
 51
319.9947991151
  0
ARC
  5
4F4
100
AcDbEntity
  8
0
100
AcDbCircle
 62
7
  6
CONTINUOUS
 10
404.4883420133
 20
432.3267065535
 40
1.307701011
100
AcDbArc
 50
346.2434872654
 51
359.9616503655
  0
ARC
  5
4F5
100
AcDbEntity
  8
0
100
AcDbCircle
 62
7
  6
CONTINUOUS
 10
406.4756393841
 20
429.2258312734
 40
1.0
100
AcDbArc
 50
29.9916487531
 51
90.0
  0
ARC
  5
4F6
100
AcDbEntity
  8
0
100
AcDbCircle
 62
7
  6
CONTINUOUS
 10
492.9843238145
 20
377.4541403907
 40
86.0091890644
100
AcDbArc
 50
181.0176599756
 51
181.3289312077
  0
LINE
  5
4F7
100
AcDbEntity
  8
0
100
AcDbLine
 62
7
  6
CONTINUOUS
 10
122.6065848506
 20
96.4989806606
 11
122.4039781582
 21
96.469943235
  0
LINE
  5
4F8
100
AcDbEntity
  8
0
100
AcDbLine
 62
7
  6
CONTINUOUS
 10
122.4039781582
 20
96.469943235
 11
122.2372890733
 21
96.4458155583
  0
LINE
  5
4F9
100
AcDbEntity
  8
0
100
AcDbLine
 62
7
  6
CONTINUOUS
 10
122.2372890733
 20
96.4458155583
 11
122.1035568085
 21
96.4262399515
  0
SPLINE
  5
4FA
100
AcDbEntity
  8
0
100
AcDbSpline
 62
7
  6
CONTINUOUS
 70
0
 71
3
 72
9
 73
5
 74
0
 42
0.0000001
 43
0.0000001
 44
0.0000000001
 40
0.0
 40
0.0
 40
0.0
 40
0.0
 40
0.1557161958
 40
1.0
 40
1.0
 40
1.0
 40
1.0
 10
121.9185914036
 20
96.3985929573
 30
0.0
 10
121.8874498991
 20
96.3938414715
 30
0.0
 10
121.6877606178
 20
96.3653417019
 30
0.0
 10
121.4862757394
 20
96.2976784999
 30
0.0
 10
121.3479952483
 20
96.1974206828
 30
0.0
  0
SPLINE
  5
4FB
100
AcDbEntity
  8
0
100
AcDbSpline
 62
7
  6
CONTINUOUS
 70
0
 71
3
 72
8
 73
4
 74
0
 42
0.0000001
 43
0.0000001
 44
0.0000000001
 40
0.0
 40
0.0
 40
0.0
 40
0.0
 40
1.0
 40
1.0
 40
1.0
 40
1.0
 10
121.3479952483
 20
96.1974206828
 30
0.0
 10
121.2259102633
 20
96.10890513
 30
0.0
 10
121.1218813044
 20
95.989186074
 30
0.0
 10
121.0512499106
 20
95.8559533722
 30
0.0
  0
SPLINE
  5
4FC
100
AcDbEntity
  8
0
100
AcDbSpline
 62
7
  6
CONTINUOUS
 70
0
 71
3
 72
9
 73
5
 74
0
 42
0.0000001
 43
0.0000001
 44
0.0000000001
 40
0.0
 40
0.0
 40
0.0
 40
0.0
 40
0.2445444112
 40
1.0
 40
1.0
 40
1.0
 40
1.0
 10
161.9594715904
 20
101.5808487379
 30
0.0
 10
162.0619021211
 20
101.5931317679
 30
0.0
 10
162.4815886498
 20
101.6081367116
 30
0.0
 10
162.9289109071
 20
101.4539244746
 30
0.0
 10
163.1535225956
 20
101.2278299364
 30
0.0
  0
SPLINE
  5
4FD
100
AcDbEntity
  8
0
100
AcDbSpline
 62
7
  6
CONTINUOUS
 70
0
 71
3
 72
9
 73
5
 74
0
 42
0.0000001
 43
0.0000001
 44
0.0000000001
 40
0.0
 40
0.0
 40
0.0
 40
0.0
 40
0.1834079946
 40
1.0
 40
1.0
 40
1.0
 40
1.0
 10
156.8198855176
 20
101.0098042155
 30
0.0
 10
157.0500934207
 20
101.0307159859
 30
0.0
 10
158.3044191103
 20
101.1539214786
 30
0.0
 10
159.5565945487
 20
101.2978098005
 30
0.0
 10
160.5788125454
 20
101.4173210364
 30
0.0
  0
LINE
  5
4FE
100
AcDbEntity
  8
0
100
AcDbLine
 62
7
  6
CONTINUOUS
 10
133.961971542
 20
90.4680574322
 11
133.5657654651
 21
90.4120685371
  0
SPLINE
  5
4FF
100
AcDbEntity
  8
0
100
AcDbSpline
 62
7
  6
CONTINUOUS
 70
0
 71
3
 72
16
 73
12
 74
0
 42
0.0000001
 43
0.0000001
 44
0.0000000001
 40
0.0
 40
0.0
 40
0.0
 40
0.0
 40
0.0047657675
 40
0.018951251
 40
0.0424440978
 40
0.0751110886
 40
0.1666724482
 40
0.2900264114
 40
0.4408995821
 40
0.6139316853
 40
1.0
 40
1.0
 40
1.0
 40
1.0
 10
138.0761862809
 20
90.690153919
 30
0.0
 10
138.0768059368
 20
90.6871776892
 30
0.0
 10
138.0565845746
 20
90.6890500016
 30
0.0
 10
138.0379707432
 20
90.6801412713
 30
0.0
 10
137.9891695402
 20
90.675215733
 30
0.0
 10
137.8987922471
 20
90.659144159
 30
0.0
 10
137.74067782
 20
90.6365283158
 30
0.0
 10
137.5107597707
 20
90.6019002591
 30
0.0
 10
137.2281050816
 20
90.5609705329
 30
0.0
 10
136.7799723141
 20
90.496402306
 30
0.0
 10
136.4267979942
 20
90.4463747822
 30
0.0
 10
136.182928707
 20
90.4120685371
 30
0.0
  0
LINE
  5
500
100
AcDbEntity
  8
0
100
AcDbLine
 62
7
  6
CONTINUOUS
 10
121.2041046912
 20
95.8164472451
 11
120.9068356012
 21
95.77388292
  0
LINE
  5
501
100
AcDbEntity
  8
0
100
AcDbLine
 62
7
  6
CONTINUOUS
 10
120.9068356012
 20
95.77388292
 11
120.6343441767
 21
95.7347137567
  0
LINE
  5
502
100
AcDbEntity
  8
0
100
AcDbLine
 62
7
  6
CONTINUOUS
 10
120.6343441767
 20
95.7347137567
 11
120.385414337
 21
95.6987882314
  0
LINE
  5
503
100
AcDbEntity
  8
0
100
AcDbLine
 62
7
  6
CONTINUOUS
 10
120.385414337
 20
95.6987882314
 11
120.1588827456
 21
95.6659603393
  0
LINE
  5
504
100
AcDbEntity
  8
0
100
AcDbLine
 62
7
  6
CONTINUOUS
 10
120.1588827456
 20
95.6659603393
 11
119.7674506094
 21
95.6088703893
  0
SPLINE
  5
505
100
AcDbEntity
  8
0
100
AcDbSpline
 62
7
  6
CONTINUOUS
 70
0
 71
3
 72
9
 73
5
 74
0
 42
0.0000001
 43
0.0000001
 44
0.0000000001
 40
0.0
 40
0.0
 40
0.0
 40
0.0
 40
0.6392659554
 40
1.0
 40
1.0
 40
1.0
 40
1.0
 10
119.7674506094
 20
95.6088703893
 30
0.0
 10
119.4586816161
 20
95.5636234345
 30
0.0
 10
118.9773280659
 20
95.4866000583
 30
0.0
 10
118.4917409276
 20
95.4227933966
 30
0.0
 10
118.3213341199
 20
95.3783883876
 30
0.0
  0
SPLINE
  5
506
100
AcDbEntity
  8
0
100
AcDbSpline
 62
7
  6
CONTINUOUS
 70
0
 71
3
 72
9
 73
5
 74
0
 42
0.0000001
 43
0.0000001
 44
0.0000000001
 40
0.0
 40
0.0
 40
0.0
 40
0.0
 40
0.2079475915
 40
1.0
 40
1.0
 40
1.0
 40
1.0
 10
118.3213341199
 20
95.3783883876
 30
0.0
 10
118.3049915411
 20
95.3741297998
 30
0.0
 10
118.2266688807
 20
95.3526749959
 30
0.0
 10
118.1496813099
 20
95.3260037852
 30
0.0
 10
118.0904053662
 20
95.3010198537
 30
0.0
  0
LINE
  5
507
100
AcDbEntity
  8
0
100
AcDbLine
 62
7
  6
CONTINUOUS
 10
122.1199247536
 20
95.4741086394
 11
122.1787785628
 21
95.480679442
  0
SPLINE
  5
508
100
AcDbEntity
  8
0
100
AcDbSpline
 62
7
  6
CONTINUOUS
 70
0
 71
3
 72
9
 73
5
 74
0
 42
0.0000001
 43
0.0000001
 44
0.0000000001
 40
0.0
 40
0.0
 40
0.0
 40
0.0
 40
0.1949486317
 40
1.0
 40
1.0
 40
1.0
 40
1.0
 10
122.1787785628
 20
95.480679442
 30
0.0
 10
122.191924286
 20
95.4822156298
 30
0.0
 10
122.2593384349
 20
95.490245772
 30
0.0
 10
122.3267053286
 20
95.4986673099
 30
0.0
 10
122.380927999
 20
95.5055314085
 30
0.0
  0
LINE
  5
509
100
AcDbEntity
  8
0
100
AcDbLine
 62
7
  6
CONTINUOUS
 10
122.7774468054
 20
95.5569529975
 11
123.0105025684
 21
95.5878645191
  0
LINE
  5
50A
100
AcDbEntity
  8
0
100
AcDbLine
 62
7
  6
CONTINUOUS
 10
123.0105025684
 20
95.5878645191
 11
123.1465693125
 21
95.6060569644
  0
LINE
  5
50B
100
AcDbEntity
  8
0
100
AcDbLine
 62
7
  6
CONTINUOUS
 10
123.1465693125
 20
95.6060569644
 11
123.4627493974
 21
95.6486442375
  0
LINE
  5
50C
100
AcDbEntity
  8
0
100
AcDbLine
 62
7
  6
CONTINUOUS
 10
123.4627493974
 20
95.6486442375
 11
123.6449233747
 21
95.6733442692
  0
LINE
  5
50D
100
AcDbEntity
  8
0
100
AcDbLine
 62
7
  6
CONTINUOUS
 10
123.6449233747
 20
95.6733442692
 11
123.8445665398
 21
95.7005263281
  0
SPLINE
  5
50E
100
AcDbEntity
  8
0
100
AcDbSpline
 62
7
  6
CONTINUOUS
 70
0
 71
3
 72
9
 73
5
 74
0
 42
0.0000001
 43
0.0000001
 44
0.0000000001
 40
0.0
 40
0.0
 40
0.0
 40
0.0
 40
0.2399247717
 40
1.0
 40
1.0
 40
1.0
 40
1.0
 10
123.8445665398
 20
95.7005263281
 30
0.0
 10
123.9016000936
 20
95.7083072067
 30
0.0
 10
124.1393072427
 20
95.7407902493
 30
0.0
 10
124.3769874244
 20
95.7734705217
 30
0.0
 10
124.5576296337
 20
95.7984011197
 30
0.0
  0
LINE
  5
50F
100
AcDbEntity
  8
0
100
AcDbLine
 62
7
  6
CONTINUOUS
 10
124.5576296337
 20
95.7984011197
 11
124.8360606158
 21
95.8369001852
  0
LINE
  5
510
100
AcDbEntity
  8
0
100
AcDbLine
 62
7
  6
CONTINUOUS
 10
124.8360606158
 20
95.8369001852
 11
125.4565727133
 21
95.9231862287
  0
LINE
  5
511
100
AcDbEntity
  8
0
100
AcDbLine
 62
7
  6
CONTINUOUS
 10
125.4565727133
 20
95.9231862287
 11
125.9032779441
 21
95.9856903942
  0
LINE
  5
512
100
AcDbEntity
  8
0
100
AcDbLine
 62
7
  6
CONTINUOUS
 10
125.9032779441
 20
95.9856903942
 11
126.1601301633
 21
96.0217713091
  0
SPLINE
  5
513
100
AcDbEntity
  8
0
100
AcDbSpline
 62
7
  6
CONTINUOUS
 70
0
 71
3
 72
8
 73
4
 74
0
 42
0.0000001
 43
0.0000001
 44
0.0000000001
 40
0.0
 40
0.0
 40
0.0
 40
0.0
 40
1.0
 40
1.0
 40
1.0
 40
1.0
 10
289.1025667272
 20
430.7259417831
 30
0.0
 10
289.3947639009
 20
430.7260558053
 30
0.0
 10
289.6936068709
 20
430.7938733148
 30
0.0
 10
289.9576144485
 20
430.919089928
 30
0.0
  0
LINE
  5
514
100
AcDbEntity
  8
0
100
AcDbLine
 62
7
  6
CONTINUOUS
 10
286.5230504375
 20
430.9257705599
 11
287.15781366
 21
430.8714167344
  0
LINE
  5
515
100
AcDbEntity
  8
0
100
AcDbLine
 62
7
  6
CONTINUOUS
 10
287.15781366
 20
430.8714167344
 11
287.3526251005
 21
430.8548648402
  0
LINE
  5
516
100
AcDbEntity
  8
0
100
AcDbLine
 62
7
  6
CONTINUOUS
 10
287.3526251005
 20
430.8548648402
 11
287.5302670823
 21
430.8398361367
  0
SPLINE
  5
517
100
AcDbEntity
  8
0
100
AcDbSpline
 62
7
  6
CONTINUOUS
 70
0
 71
3
 72
9
 73
5
 74
0
 42
0.0000001
 43
0.0000001
 44
0.0000000001
 40
0.0
 40
0.0
 40
0.0
 40
0.0
 40
0.6456430174
 40
1.0
 40
1.0
 40
1.0
 40
1.0
 10
287.5302670823
 20
430.8398361367
 30
0.0
 10
287.8540019047
 20
430.8125090945
 30
0.0
 10
288.3554003602
 20
430.7755423738
 30
0.0
 10
288.8571709485
 20
430.7258312734
 30
0.0
 10
289.0354825981
 20
430.7258312734
 30
0.0
  0
SPLINE
  5
518
100
AcDbEntity
  8
0
100
AcDbSpline
 62
7
  6
CONTINUOUS
 70
0
 71
3
 72
9
 73
5
 74
0
 42
0.0000001
 43
0.0000001
 44
0.0000000001
 40
0.0
 40
0.0
 40
0.0
 40
0.0
 40
0.6068213473
 40
1.0
 40
1.0
 40
1.0
 40
1.0
 10
167.949482691
 20
104.5258312734
 30
0.0
 10
167.949482691
 20
104.6903623506
 30
0.0
 10
167.9774114098
 20
104.9539384855
 30
0.0
 10
168.0781722532
 20
105.2322514098
 30
0.0
 10
168.1632481577
 20
105.2964907086
 30
0.0
  0
SPLINE
  5
519
100
AcDbEntity
  8
0
100
AcDbSpline
 62
7
  6
CONTINUOUS
 70
0
 71
3
 72
9
 73
5
 74
0
 42
0.0000001
 43
0.0000001
 44
0.0000000001
 40
0.0
 40
0.0
 40
0.0
 40
0.0
 40
0.6025560591
 40
1.0
 40
1.0
 40
1.0
 40
1.0
 10
169.4510654281
 20
104.5258312734
 30
0.0
 10
169.4510654281
 20
104.69089526
 30
0.0
 10
169.420130246
 20
104.9586106083
 30
0.0
 10
169.3034981999
 20
105.2339138695
 30
0.0
 10
169.2140826727
 20
105.2960328698
 30
0.0
  0
SPLINE
  5
51A
100
AcDbEntity
  8
0
100
AcDbSpline
 62
7
  6
CONTINUOUS
 70
0
 71
3
 72
8
 73
4
 74
0
 42
0.0000001
 43
0.0000001
 44
0.0000000001
 40
0.0
 40
0.0
 40
0.0
 40
0.0
 40
1.0
 40
1.0
 40
1.0
 40
1.0
 10
169.2140826727
 20
105.2960328698
 30
0.0
 10
169.1890617292
 20
105.3134154883
 30
0.0
 10
169.1581437591
 20
105.3258312734
 30
0.0
 10
169.1276773342
 20
105.3258312734
 30
0.0
  0
SPLINE
  5
51B
100
AcDbEntity
  8
0
100
AcDbSpline
 62
7
  6
CONTINUOUS
 70
0
 71
3
 72
10
 73
6
 74
0
 42
0.0000001
 43
0.0000001
 44
0.0000000001
 40
0.0
 40
0.0
 40
0.0
 40
0.0
 40
0.6931018879
 40
0.9047138231
 40
1.0
 40
1.0
 40
1.0
 40
1.0
 10
406.1977908725
 20
408.9258312734
 30
0.0
 10
406.1991538875
 20
408.8146742307
 30
0.0
 10
406.2112435535
 20
408.660981372
 30
0.0
 10
406.2408629807
 20
408.5181658126
 30
0.0
 10
406.2685332511
 20
408.4612595269
 30
0.0
 10
406.2838160343
 20
408.4612595269
 30
0.0
  0
SPLINE
  5
51C
100
AcDbEntity
  8
0
100
AcDbSpline
 62
7
  6
CONTINUOUS
 70
0
 71
3
 72
12
 73
8
 74
0
 42
0.0000001
 43
0.0000001
 44
0.0000000001
 40
0.0
 40
0.0
 40
0.0
 40
0.0
 40
0.0533931353
 40
0.1433449889
 40
0.3934606263
 40
0.6934917402
 40
1.0
 40
1.0
 40
1.0
 40
1.0
 10
157.2045199772
 20
86.1301918771
 30
0.0
 10
157.3220632079
 20
86.0405739566
 30
0.0
 10
157.6675288995
 20
85.8411139857
 30
0.0
 10
158.6615619645
 20
85.3945477648
 30
0.0
 10
160.3658206404
 20
84.8832691016
 30
0.0
 10
162.6961773338
 20
84.4330437172
 30
0.0
 10
164.3706832804
 20
84.2681470629
 30
0.0
 10
165.2183071352
 20
84.2292298052
 30
0.0
  0
SPLINE
  5
51D
100
AcDbEntity
  8
0
100
AcDbSpline
 62
7
  6
CONTINUOUS
 70
0
 71
3
 72
10
 73
6
 74
0
 42
0.0000001
 43
0.0000001
 44
0.0000000001
 40
0.0
 40
0.0
 40
0.0
 40
0.0
 40
0.205201737
 40
0.4483552273
 40
1.0
 40
1.0
 40
1.0
 40
1.0
 10
154.3185079888
 20
82.3448867635
 30
0.0
 10
154.9237304941
 20
81.8834498771
 30
0.0
 10
156.4240383093
 20
81.1167650009
 30
0.0
 10
159.9629845793
 20
80.0007403232
 30
0.0
 10
162.9099879102
 20
79.5736296229
 30
0.0
 10
164.953647955
 20
79.4764005998
 30
0.0
  0
SPLINE
  5
51E
100
AcDbEntity
  8
0
100
AcDbSpline
 62
7
  6
CONTINUOUS
 70
0
 71
3
 72
8
 73
4
 74
0
 42
0.0000001
 43
0.0000001
 44
0.0000000001
 40
0.0
 40
0.0
 40
0.0
 40
0.0
 40
1.0
 40
1.0
 40
1.0
 40
1.0
 10
138.9718931247
 20
89.2177643424
 30
0.0
 10
138.6691622259
 20
89.0207906715
 30
0.0
 10
138.2926689715
 20
88.9151438547
 30
0.0
 10
137.9314977876
 20
88.9151438547
 30
0.0
  0
SPLINE
  5
51F
100
AcDbEntity
  8
0
100
AcDbSpline
 62
7
  6
CONTINUOUS
 70
0
 71
3
 72
11
 73
7
 74
0
 42
0.0000001
 43
0.0000001
 44
0.0000000001
 40
0.0
 40
0.0
 40
0.0
 40
0.0
 40
0.3307132767
 40
0.6238601854
 40
0.8488141062
 40
1.0
 40
1.0
 40
1.0
 40
1.0
 10
432.6754032186
 20
419.2258312734
 30
0.0
 10
432.6754032186
 20
420.0203650284
 30
0.0
 10
432.6643683662
 20
421.5190180159
 30
0.0
 10
432.6187042207
 20
423.558561905
 30
0.0
 10
432.5432041363
 20
425.1632946795
 30
0.0
 10
432.469213099
 20
426.0670742775
 30
0.0
 10
432.3981108649
 20
426.4232688896
 30
0.0
  0
SPLINE
  5
520
100
AcDbEntity
  8
0
100
AcDbSpline
 62
7
  6
CONTINUOUS
 70
0
 71
3
 72
9
 73
5
 74
0
 42
0.0000001
 43
0.0000001
 44
0.0000000001
 40
0.0
 40
0.0
 40
0.0
 40
0.0
 40
0.1999133597
 40
1.0
 40
1.0
 40
1.0
 40
1.0
 10
432.3981108649
 20
426.4232688896
 30
0.0
 10
432.3916129296
 20
426.4558210252
 30
0.0
 10
432.3571651622
 20
426.6182250637
 30
0.0
 10
432.3045206387
 20
426.7770856408
 30
0.0
 10
432.251044086
 20
426.8986964961
 30
0.0
  0
SPLINE
  5
521
100
AcDbEntity
  8
0
100
AcDbSpline
 62
7
  6
CONTINUOUS
 70
0
 71
3
 72
9
 73
5
 74
0
 42
0.0000001
 43
0.0000001
 44
0.0000000001
 40
0.0
 40
0.0
 40
0.0
 40
0.0
 40
0.4752552193
 40
1.0
 40
1.0
 40
1.0
 40
1.0
 10
432.251044086
 20
426.8986964961
 30
0.0
 10
432.1283312648
 20
427.1777573257
 30
0.0
 10
431.7181002029
 20
427.7111964826
 30
0.0
 10
431.0760375437
 20
427.9482003844
 30
0.0
 10
430.7402591278
 20
427.9716260178
 30
0.0
  0
SPLINE
  5
522
100
AcDbEntity
  8
0
100
AcDbSpline
 62
7
  6
CONTINUOUS
 70
0
 71
3
 72
9
 73
5
 74
0
 42
0.0000001
 43
0.0000001
 44
0.0000000001
 40
0.0
 40
0.0
 40
0.0
 40
0.0
 40
0.368043271
 40
1.0
 40
1.0
 40
1.0
 40
1.0
 10
429.0208213459
 20
425.2443203461
 30
0.0
 10
429.0161098946
 20
425.3026740163
 30
0.0
 10
429.0020243859
 20
425.4610665282
 30
0.0
 10
428.9866106088
 20
425.6196233494
 30
0.0
 10
428.9697640512
 20
425.7187251532
 30
0.0
  0
SPLINE
  5
523
100
AcDbEntity
  8
0
100
AcDbSpline
 62
7
  6
CONTINUOUS
 70
0
 71
3
 72
9
 73
5
 74
0
 42
0.0000001
 43
0.0000001
 44
0.0000000001
 40
0.0
 40
0.0
 40
0.0
 40
0.0
 40
0.5840434435
 40
1.0
 40
1.0
 40
1.0
 40
1.0
 10
429.1754032186
 20
419.2258312734
 30
0.0
 10
429.1754032186
 20
420.3889689032
 30
0.0
 10
429.1513876101
 20
422.3801093632
 30
0.0
 10
429.0888405377
 20
424.371856711
 30
0.0
 10
429.0245144466
 20
425.1977436515
 30
0.0
  0
SPLINE
  5
524
100
AcDbEntity
  8
0
100
AcDbSpline
 62
7
  6
CONTINUOUS
 70
0
 71
3
 72
9
 73
5
 74
0
 42
0.0000001
 43
0.0000001
 44
0.0000000001
 40
0.0
 40
0.0
 40
0.0
 40
0.0
 40
0.4442408849
 40
1.0
 40
1.0
 40
1.0
 40
1.0
 10
432.4684619333
 20
367.3079785754
 30
0.0
 10
432.5489732205
 20
368.7288729734
 30
0.0
 10
432.6445588133
 20
371.9318579045
 30
0.0
 10
432.6754032186
 20
375.1353617172
 30
0.0
 10
432.6754032186
 20
376.9157959378
 30
0.0
  0
SPLINE
  5
525
100
AcDbEntity
  8
0
100
AcDbSpline
 62
7
  6
CONTINUOUS
 70
0
 71
3
 72
9
 73
5
 74
0
 42
0.0000001
 43
0.0000001
 44
0.0000000001
 40
0.0
 40
0.0
 40
0.0
 40
0.0
 40
0.4414590667
 40
1.0
 40
1.0
 40
1.0
 40
1.0
 10
428.9740670383
 20
367.5059793779
 30
0.0
 10
429.0524250555
 20
368.8888720322
 30
0.0
 10
429.1451136359
 20
372.025868773
 30
0.0
 10
429.1754032186
 20
375.1633319694
 30
0.0
 10
429.1754032186
 20
376.9157959378
 30
0.0
  0
SPLINE
  5
526
100
AcDbEntity
  8
0
100
AcDbSpline
 62
7
  6
CONTINUOUS
 70
0
 71
3
 72
19
 73
15
 74
0
 42
0.0000001
 43
0.0000001
 44
0.0000000001
 40
0.0
 40
0.0
 40
0.0
 40
0.0
 40
0.0035242557
 40
0.0050065544
 40
0.0182708056
 40
0.042679803
 40
0.0763043728
 40
0.117924607
 40
0.1668611547
 40
0.2851636181
 40
0.4289987667
 40
0.5968815645
 40
0.7876161401
 40
1.0
 40
1.0
 40
1.0
 40
1.0
 10
428.2943410142
 20
360.6085473025
 30
0.0
 10
428.2909776455
 20
360.6010616071
 30
0.0
 10
428.2810324907
 20
360.5762820636
 30
0.0
 10
428.2987745667
 20
360.6323142261
 30
0.0
 10
428.3168454273
 20
360.7019625324
 30
0.0
 10
428.357745248
 20
360.8758861788
 30
0.0
 10
428.3993467429
 20
361.0986086834
 30
0.0
 10
428.4470836497
 20
361.385889429
 30
0.0
 10
428.5163778123
 20
361.8663953761
 30
0.0
 10
428.6023804844
 20
362.5862925378
 30
0.0
 10
428.7001530008
 20
363.582669291
 30
0.0
 10
428.7962420175
 20
364.7488430941
 30
0.0
 10
428.8894007947
 20
366.0752063709
 30
0.0
 10
428.9460891466
 20
367.0122147035
 30
0.0
 10
428.9740670383
 20
367.5059793779
 30
0.0
  0
SPLINE
  5
527
100
AcDbEntity
  8
0
100
AcDbSpline
 62
7
  6
CONTINUOUS
 70
0
 71
3
 72
10
 73
6
 74
0
 42
0.0000001
 43
0.0000001
 44
0.0000000001
 40
0.0
 40
0.0
 40
0.0
 40
0.0
 40
0.6150867286
 40
0.8346708152
 40
1.0
 40
1.0
 40
1.0
 40
1.0
 10
427.0050878926
 20
367.3079785754
 30
0.0
 10
427.0907000953
 20
365.7970612438
 30
0.0
 10
427.2232906357
 20
363.7465377156
 30
0.0
 10
427.4924807491
 20
361.3011679828
 30
0.0
 10
427.6416984819
 20
360.3643892741
 30
0.0
 10
427.7336214893
 20
359.9681409065
 30
0.0
  0
SPLINE
  5
528
100
AcDbEntity
  8
0
100
AcDbSpline
 62
7
  6
CONTINUOUS
 70
0
 71
3
 72
10
 73
6
 74
0
 42
0.0000001
 43
0.0000001
 44
0.0000000001
 40
0.0
 40
0.0
 40
0.0
 40
0.0
 40
0.314628375
 40
0.5769360798
 40
1.0
 40
1.0
 40
1.0
 40
1.0
 10
427.7336214893
 20
359.9681409065
 30
0.0
 10
427.8057796681
 20
359.6570918954
 30
0.0
 10
427.9714168873
 20
359.0869806905
 30
0.0
 10
428.58383904
 20
358.2504392152
 30
0.0
 10
429.3075609337
 20
357.9769508652
 30
0.0
 10
429.7369134948
 20
357.9790752617
 30
0.0
  0
SPLINE
  5
529
100
AcDbEntity
  8
0
100
AcDbSpline
 62
7
  6
CONTINUOUS
 70
0
 71
3
 72
15
 73
11
 74
0
 42
0.0000001
 43
0.0000001
 44
0.0000000001
 40
0.0
 40
0.0
 40
0.0
 40
0.0
 40
0.1093316841
 40
0.1906895569
 40
0.2809968735
 40
0.3568095513
 40
0.4455457704
 40
0.5532787493
 40
0.6815730821
 40
1.0
 40
1.0
 40
1.0
 40
1.0
 10
429.7369134948
 20
357.9790752617
 30
0.0
 10
430.0769557329
 20
357.980757759
 30
0.0
 10
430.6819986209
 20
358.1567623324
 30
0.0
 10
431.3318134127
 20
358.7753956971
 30
0.0
 10
431.634182182
 20
359.4993404708
 30
0.0
 10
431.8129241665
 20
360.2707814705
 30
0.0
 10
431.9487737361
 20
361.1075363614
 30
0.0
 10
432.0724184514
 20
362.1099873165
 30
0.0
 10
432.2415271374
 20
363.8263482907
 30
0.0
 10
432.3401209048
 20
365.2124622587
 30
0.0
 10
432.4023590366
 20
366.2008848468
 30
0.0
  0
SPLINE
  5
52A
100
AcDbEntity
  8
0
100
AcDbSpline
 62
7
  6
CONTINUOUS
 70
0
 71
3
 72
9
 73
5
 74
0
 42
0.0000001
 43
0.0000001
 44
0.0000000001
 40
0.0
 40
0.0
 40
0.0
 40
0.0
 40
0.5557593424
 40
1.0
 40
1.0
 40
1.0
 40
1.0
 10
426.7981466072
 20
376.9157959378
 30
0.0
 10
426.7981466072
 20
375.1353609893
 30
0.0
 10
426.8289910284
 20
371.9318571763
 30
0.0
 10
426.9245766466
 20
368.7288722466
 30
0.0
 10
427.0050878926
 20
367.3079785754
 30
0.0
  0
SPLINE
  5
52B
100
AcDbEntity
  8
0
100
AcDbSpline
 62
7
  6
CONTINUOUS
 70
0
 71
3
 72
8
 73
4
 74
0
 42
0.0000001
 43
0.0000001
 44
0.0000000001
 40
0.0
 40
0.0
 40
0.0
 40
0.0
 40
1.0
 40
1.0
 40
1.0
 40
1.0
 10
166.6576225892
 20
86.0757495516
 30
0.0
 10
166.7288733339
 20
86.0758191964
 30
0.0
 10
166.80127084
 20
86.0488136775
 30
0.0
 10
166.861001389
 20
86.0099686653
 30
0.0
  0
SPLINE
  5
52C
100
AcDbEntity
  8
0
100
AcDbSpline
 62
7
  6
CONTINUOUS
 70
0
 71
3
 72
9
 73
5
 74
0
 42
0.0000001
 43
0.0000001
 44
0.0000000001
 40
0.0
 40
0.0
 40
0.0
 40
0.0
 40
0.2126727904
 40
1.0
 40
1.0
 40
1.0
 40
1.0
 10
166.861001389
 20
86.0099686653
 30
0.0
 10
166.8871475913
 20
85.992964811
 30
0.0
 10
167.0028402092
 20
85.9018057442
 30
0.0
 10
167.0893376338
 20
85.7788652118
 30
0.0
 10
167.1472275976
 20
85.6789622952
 30
0.0
  0
SPLINE
  5
52D
100
AcDbEntity
  8
0
100
AcDbSpline
 62
7
  6
CONTINUOUS
 70
0
 71
3
 72
9
 73
5
 74
0
 42
0.0000001
 43
0.0000001
 44
0.0000000001
 40
0.0
 40
0.0
 40
0.0
 40
0.0
 40
0.2152075323
 40
1.0
 40
1.0
 40
1.0
 40
1.0
 10
167.1472275976
 20
85.6789622952
 30
0.0
 10
167.1784208746
 20
85.6251308684
 30
0.0
 10
167.3097011787
 20
85.36710183
 30
0.0
 10
167.3964391331
 20
85.0885000341
 30
0.0
 10
167.4499383157
 20
84.8680157885
 30
0.0
  0
SPLINE
  5
52E
100
AcDbEntity
  8
0
100
AcDbSpline
 62
7
  6
CONTINUOUS
 70
0
 71
3
 72
9
 73
5
 74
0
 42
0.0000001
 43
0.0000001
 44
0.0000000001
 40
0.0
 40
0.0
 40
0.0
 40
0.0
 40
0.2400024739
 40
1.0
 40
1.0
 40
1.0
 40
1.0
 10
167.4499383157
 20
84.8680157885
 30
0.0
 10
167.4598112975
 20
84.8273266258
 30
0.0
 10
167.4987047816
 20
84.6572489957
 30
0.0
 10
167.529154388
 20
84.485279497
 30
0.0
 10
167.5482654049
 20
84.354078025
 30
0.0
  0
SPLINE
  5
52F
100
AcDbEntity
  8
0
100
AcDbSpline
 62
7
  6
CONTINUOUS
 70
0
 71
3
 72
9
 73
5
 74
0
 42
0.0000001
 43
0.0000001
 44
0.0000000001
 40
0.0
 40
0.0
 40
0.0
 40
0.0
 40
0.2883526709
 40
1.0
 40
1.0
 40
1.0
 40
1.0
 10
167.5905810166
 20
82.6560536006
 30
0.0
 10
167.5763365347
 20
82.4990135955
 30
0.0
 10
167.5073320129
 20
81.957758785
 30
0.0
 10
167.3740427562
 20
81.4149723625
 30
0.0
 10
167.1984439935
 20
81.0676797732
 30
0.0
  0
SPLINE
  5
530
100
AcDbEntity
  8
0
100
AcDbSpline
 62
7
  6
CONTINUOUS
 70
0
 71
3
 72
8
 73
4
 74
0
 42
0.0000001
 43
0.0000001
 44
0.0000000001
 40
0.0
 40
0.0
 40
0.0
 40
0.0
 40
1.0
 40
1.0
 40
1.0
 40
1.0
 10
167.1984439935
 20
81.0676797732
 30
0.0
 10
167.1644344519
 20
81.0004169885
 30
0.0
 10
167.1268602461
 20
80.9346744058
 30
0.0
 10
167.0841009251
 20
80.8726053184
 30
0.0
  0
SPLINE
  5
531
100
AcDbEntity
  8
0
100
AcDbSpline
 62
7
  6
CONTINUOUS
 70
0
 71
3
 72
9
 73
5
 74
0
 42
0.0000001
 43
0.0000001
 44
0.0000000001
 40
0.0
 40
0.0
 40
0.0
 40
0.0
 40
0.4062390299
 40
1.0
 40
1.0
 40
1.0
 40
1.0
 10
166.8594655339
 20
86.0004130973
 30
0.0
 10
166.7361749848
 20
85.9118009541
 30
0.0
 10
166.5254402295
 20
85.5820774645
 30
0.0
 10
166.4134203527
 20
85.2272310158
 30
0.0
 10
166.3600962212
 20
85.011815824
 30
0.0
  0
SPLINE
  5
532
100
AcDbEntity
  8
0
100
AcDbSpline
 62
7
  6
CONTINUOUS
 70
0
 71
3
 72
9
 73
5
 74
0
 42
0.0000001
 43
0.0000001
 44
0.0000000001
 40
0.0
 40
0.0
 40
0.0
 40
0.0
 40
0.2382394766
 40
1.0
 40
1.0
 40
1.0
 40
1.0
 10
166.3600962212
 20
85.011815824
 30
0.0
 10
166.3503955441
 20
84.9726276897
 30
0.0
 10
166.3118648345
 20
84.8075982573
 30
0.0
 10
166.2815685226
 20
84.64068956
 30
0.0
 10
166.2623045951
 20
84.5130507217
 30
0.0
  0
SPLINE
  5
533
100
AcDbEntity
  8
0
100
AcDbSpline
 62
7
  6
CONTINUOUS
 70
0
 71
3
 72
9
 73
5
 74
0
 42
0.0000001
 43
0.0000001
 44
0.0000000001
 40
0.0
 40
0.0
 40
0.0
 40
0.0
 40
0.2992570207
 40
1.0
 40
1.0
 40
1.0
 40
1.0
 10
406.0103509142
 20
419.3258312734
 30
0.0
 10
405.9793870225
 20
419.3258312734
 30
0.0
 10
405.9456429474
 20
419.1853449071
 30
0.0
 10
405.9327927753
 20
419.1045589511
 30
0.0
 10
405.926698573
 20
419.0323101871
 30
0.0
  0
SPLINE
  5
534
100
AcDbEntity
  8
0
100
AcDbSpline
 62
7
  6
CONTINUOUS
 70
0
 71
3
 72
9
 73
5
 74
0
 42
0.0000001
 43
0.0000001
 44
0.0000000001
 40
0.0
 40
0.0
 40
0.0
 40
0.0
 40
0.1934505277
 40
1.0
 40
1.0
 40
1.0
 40
1.0
 10
169.1276808897
 20
86.3258313897
 30
0.0
 10
169.147439232
 20
86.32582722
 30
0.0
 10
169.2500065823
 20
86.3525293984
 30
0.0
 10
169.3086493137
 20
86.4546700866
 30
0.0
 10
169.3426318536
 20
86.5297122959
 30
0.0
  0
SPLINE
  5
535
100
AcDbEntity
  8
0
100
AcDbSpline
 62
7
  6
CONTINUOUS
 70
0
 71
3
 72
9
 73
5
 74
0
 42
0.0000001
 43
0.0000001
 44
0.0000000001
 40
0.0
 40
0.0
 40
0.0
 40
0.0
 40
0.2185248065
 40
1.0
 40
1.0
 40
1.0
 40
1.0
 10
169.3426318536
 20
86.5297122959
 30
0.0
 10
169.3549779689
 20
86.5569757013
 30
0.0
 10
169.4043795024
 20
86.6849414065
 30
0.0
 10
169.4295182887
 20
86.8212381426
 30
0.0
 10
169.4406797249
 20
86.9276833429
 30
0.0
  0
SPLINE
  5
536
100
AcDbEntity
  8
0
100
AcDbSpline
 62
7
  6
CONTINUOUS
 70
0
 71
3
 72
9
 73
5
 74
0
 42
0.0000001
 43
0.0000001
 44
0.0000000001
 40
0.0
 40
0.0
 40
0.0
 40
0.0
 40
0.2183532303
 40
1.0
 40
1.0
 40
1.0
 40
1.0
 10
169.339176819
 20
86.5297927881
 30
0.0
 10
169.3271175975
 20
86.5570400246
 30
0.0
 10
169.2789709078
 20
86.6849509279
 30
0.0
 10
169.2547448774
 20
86.8208355193
 30
0.0
 10
169.2439514976
 20
86.9269519221
 30
0.0
  0
SPLINE
  5
537
100
AcDbEntity
  8
0
100
AcDbSpline
 62
7
  6
CONTINUOUS
 70
0
 71
3
 72
9
 73
5
 74
0
 42
0.0000001
 43
0.0000001
 44
0.0000000001
 40
0.0
 40
0.0
 40
0.0
 40
0.0
 40
0.2450171047
 40
1.0
 40
1.0
 40
1.0
 40
1.0
 10
434.0648713389
 20
429.6210100579
 30
0.0
 10
434.1878187422
 20
429.4958494102
 30
0.0
 10
434.659130676
 20
428.9558323627
 30
0.0
 10
434.9966272388
 20
428.2999934916
 30
0.0
 10
435.1540932198
 20
427.7828249212
 30
0.0
  0
SPLINE
  5
538
100
AcDbEntity
  8
0
100
AcDbSpline
 62
7
  6
CONTINUOUS
 70
0
 71
3
 72
9
 73
5
 74
0
 42
0.0000001
 43
0.0000001
 44
0.0000000001
 40
0.0
 40
0.0
 40
0.0
 40
0.0
 40
0.6148659982
 40
1.0
 40
1.0
 40
1.0
 40
1.0
 10
404.7323026008
 20
430.3536911392
 30
0.0
 10
404.7180813934
 20
430.4994270726
 30
0.0
 10
404.7491783394
 20
430.756252253
 30
0.0
 10
404.9717130168
 20
430.9258312734
 30
0.0
 10
405.0634313132
 20
430.9258312734
 30
0.0
  0
SPLINE
  5
539
100
AcDbEntity
  8
0
100
AcDbSpline
 62
7
  6
CONTINUOUS
 70
0
 71
3
 72
10
 73
6
 74
0
 42
0.0000001
 43
0.0000001
 44
0.0000000001
 40
0.0
 40
0.0
 40
0.0
 40
0.0
 40
0.5000587061
 40
0.7500903934
 40
1.0
 40
1.0
 40
1.0
 40
1.0
 10
407.2286876345
 20
363.2094108708
 30
0.0
 10
407.1975323476
 20
365.2514659932
 30
0.0
 10
407.1392259411
 20
368.3143248846
 30
0.0
 10
407.0960867161
 20
372.3983956419
 30
0.0
 10
407.0218124343
 20
374.4390170057
 30
0.0
 10
406.9982689841
 20
375.4594027617
 30
0.0
  0
SPLINE
  5
53A
100
AcDbEntity
  8
0
100
AcDbSpline
 62
7
  6
CONTINUOUS
 70
0
 71
3
 72
10
 73
6
 74
0
 42
0.0000001
 43
0.0000001
 44
0.0000000001
 40
0.0
 40
0.0
 40
0.0
 40
0.0
 40
0.6593093644
 40
0.8776947948
 40
1.0
 40
1.0
 40
1.0
 40
1.0
 10
407.2286876345
 20
363.2094108708
 30
0.0
 10
407.2329350233
 20
362.9310182469
 30
0.0
 10
407.2453210572
 20
362.5584209485
 30
0.0
 10
407.2992110153
 20
362.141938687
 30
0.0
 10
407.3256718953
 20
361.9977134361
 30
0.0
 10
407.3489320641
 20
361.9515982667
 30
0.0
  0
SPLINE
  5
53B
100
AcDbEntity
  8
0
100
AcDbSpline
 62
7
  6
CONTINUOUS
 70
0
 71
3
 72
9
 73
5
 74
0
 42
0.0000001
 43
0.0000001
 44
0.0000000001
 40
0.0
 40
0.0
 40
0.0
 40
0.0
 40
0.6204303641
 40
1.0
 40
1.0
 40
1.0
 40
1.0
 10
407.3489320641
 20
361.9515982667
 30
0.0
 10
407.352417186
 20
361.9446887302
 30
0.0
 10
407.3582395507
 20
361.9337833155
 30
0.0
 10
407.3697420103
 20
361.9258312734
 30
0.0
 10
407.374476438
 20
361.9258312734
 30
0.0
  0
LINE
  5
53C
100
AcDbEntity
  8
0
100
AcDbLine
 62
7
  6
CONTINUOUS
 10
426.6631011058
 20
401.9389107009
 11
426.7933474458
 21
402.0077000393
  0
LINE
  5
53D
100
AcDbEntity
  8
0
100
AcDbLine
 62
7
  6
CONTINUOUS
 10
426.7933474458
 20
402.0077000393
 11
429.1753895871
 21
403.2629543297
  0
LINE
  5
53E
100
AcDbEntity
  8
0
100
AcDbLine
 62
7
  6
CONTINUOUS
 10
432.6753353556
 20
405.0975392099
 11
433.2017897221
 21
405.3724794942
  0
SPLINE
  5
53F
100
AcDbEntity
  8
0
100
AcDbSpline
 62
7
  6
CONTINUOUS
 70
0
 71
3
 72
9
 73
5
 74
0
 42
0.0000001
 43
0.0000001
 44
0.0000000001
 40
0.0
 40
0.0
 40
0.0
 40
0.0
 40
0.2433857795
 40
1.0
 40
1.0
 40
1.0
 40
1.0
 10
435.2287358291
 20
407.3406327157
 30
0.0
 10
435.2288264938
 20
407.2664143043
 30
0.0
 10
435.2046299636
 20
406.9620224833
 30
0.0
 10
435.0882961598
 20
406.6642719797
 30
0.0
 10
434.9555350152
 20
406.4755720159
 30
0.0
  0
SPLINE
  5
540
100
AcDbEntity
  8
0
100
AcDbSpline
 62
7
  6
CONTINUOUS
 70
0
 71
3
 72
9
 73
5
 74
0
 42
0.0000001
 43
0.0000001
 44
0.0000000001
 40
0.0
 40
0.0
 40
0.0
 40
0.0
 40
0.3355342882
 40
1.0
 40
1.0
 40
1.0
 40
1.0
 10
407.289739855
 20
430.3536911392
 30
0.0
 10
407.2840499097
 20
430.4224332383
 30
0.0
 10
407.2894398003
 20
430.6212703913
 30
0.0
 10
407.3799993133
 20
430.8611398667
 30
0.0
 10
407.5064193716
 20
430.9128767533
 30
0.0
  0
SPLINE
  5
541
100
AcDbEntity
  8
0
100
AcDbSpline
 62
7
  6
CONTINUOUS
 70
0
 71
3
 72
8
 73
4
 74
0
 42
0.0000001
 43
0.0000001
 44
0.0000000001
 40
0.0
 40
0.0
 40
0.0
 40
0.0
 40
1.0
 40
1.0
 40
1.0
 40
1.0
 10
407.5064193716
 20
430.9128767533
 30
0.0
 10
407.5266226715
 20
430.9211448703
 30
0.0
 10
407.5487846738
 20
430.9258312734
 30
0.0
 10
407.5706143574
 20
430.9258312734
 30
0.0
  0
SPLINE
  5
542
100
AcDbEntity
  8
0
100
AcDbSpline
 62
7
  6
CONTINUOUS
 70
0
 71
3
 72
9
 73
5
 74
0
 42
0.0000001
 43
0.0000001
 44
0.0000000001
 40
0.0
 40
0.0
 40
0.0
 40
0.0
 40
0.2428620869
 40
1.0
 40
1.0
 40
1.0
 40
1.0
 10
137.9314977876
 20
88.9151438547
 30
0.0
 10
137.7884962571
 20
88.9151438547
 30
0.0
 10
137.1999965866
 20
88.9769285456
 30
0.0
 10
136.6478159237
 20
89.2815275615
 30
0.0
 10
136.3244605776
 20
89.5884371672
 30
0.0
  0
SPLINE
  5
543
100
AcDbEntity
  8
0
100
AcDbSpline
 62
7
  6
CONTINUOUS
 70
0
 71
3
 72
8
 73
4
 74
0
 42
0.0000001
 43
0.0000001
 44
0.0000000001
 40
0.0
 40
0.0
 40
0.0
 40
0.0
 40
1.0
 40
1.0
 40
1.0
 40
1.0
 10
136.3244605776
 20
89.5884371672
 30
0.0
 10
136.0951362368
 20
89.8060981518
 30
0.0
 10
135.9021149005
 20
90.068868703
 30
0.0
 10
135.7624209221
 20
90.3525085272
 30
0.0
  0
SPLINE
  5
544
100
AcDbEntity
  8
0
100
AcDbSpline
 62
7
  6
CONTINUOUS
 70
0
 71
3
 72
14
 73
10
 74
0
 42
0.0000001
 43
0.0000001
 44
0.0000000001
 40
0.0
 40
0.0
 40
0.0
 40
0.0
 40
0.3851122787
 40
0.5578357289
 40
0.7085601137
 40
0.831968185
 40
0.9237743323
 40
0.9803515781
 40
1.0
 40
1.0
 40
1.0
 40
1.0
 10
424.9788833086
 20
446.8701505402
 30
0.0
 10
425.1418370733
 20
446.8139876046
 30
0.0
 10
425.3779512
 20
446.7321638761
 30
0.0
 10
425.6763349781
 20
446.6263569311
 30
0.0
 10
425.8662417003
 20
446.559730808
 30
0.0
 10
426.0158281431
 20
446.5019724912
 30
0.0
 10
426.1402051886
 20
446.4638825108
 30
0.0
 10
426.1913661731
 20
446.4285863072
 30
0.0
 10
426.2428630125
 20
446.4235012693
 30
0.0
 10
426.2416586509
 20
446.4147902924
 30
0.0
  0
SPLINE
  5
545
100
AcDbEntity
  8
0
100
AcDbSpline
 62
7
  6
CONTINUOUS
 70
0
 71
3
 72
11
 73
7
 74
0
 42
0.0000001
 43
0.0000001
 44
0.0000000001
 40
0.0
 40
0.0
 40
0.0
 40
0.0
 40
0.088434864
 40
0.3094586704
 40
0.6295199587
 40
1.0
 40
1.0
 40
1.0
 40
1.0
 10
419.6279547759
 20
448.6933311633
 30
0.0
 10
419.6709003465
 20
448.6933311633
 30
0.0
 10
419.8125469311
 20
448.6288411272
 30
0.0
 10
420.1049427803
 20
448.5512378835
 30
0.0
 10
420.5238363811
 20
448.402298659
 30
0.0
 10
420.8413944612
 20
448.2961594445
 30
0.0
 10
421.0114872397
 20
448.2375360075
 30
0.0
  0
SPLINE
  5
546
100
AcDbEntity
  8
0
100
AcDbSpline
 62
7
  6
CONTINUOUS
 70
0
 71
3
 72
8
 73
4
 74
0
 42
0.0000001
 43
0.0000001
 44
0.0000000001
 40
0.0
 40
0.0
 40
0.0
 40
0.0
 40
1.0
 40
1.0
 40
1.0
 40
1.0
 10
435.3832041989
 20
441.8558916716
 30
0.0
 10
435.3832522627
 20
442.0608783272
 30
0.0
 10
435.3392565526
 20
442.2699452484
 30
0.0
 10
435.2572555147
 20
442.4578158451
 30
0.0
  0
SPLINE
  5
547
100
AcDbEntity
  8
0
100
AcDbSpline
 62
7
  6
CONTINUOUS
 70
0
 71
3
 72
8
 73
4
 74
0
 42
0.0000001
 43
0.0000001
 44
0.0000000001
 40
0.0
 40
0.0
 40
0.0
 40
0.0
 40
1.0
 40
1.0
 40
1.0
 40
1.0
 10
435.2572555147
 20
442.4578158451
 30
0.0
 10
435.1353041539
 20
442.7372156611
 30
0.0
 10
434.9140428292
 20
442.9873777461
 30
0.0
 10
434.6523563631
 20
443.1437637591
 30
0.0
  0
SPLINE
  5
548
100
AcDbEntity
  8
0
100
AcDbSpline
 62
7
  6
CONTINUOUS
 70
0
 71
3
 72
9
 73
5
 74
0
 42
0.0000001
 43
0.0000001
 44
0.0000000001
 40
0.0
 40
0.0
 40
0.0
 40
0.0
 40
0.2662222583
 40
1.0
 40
1.0
 40
1.0
 40
1.0
 10
159.7483706369
 20
101.3215497979
 30
0.0
 10
159.67339765
 20
101.3821768847
 30
0.0
 10
159.3608934321
 20
101.5717266388
 30
0.0
 10
158.9747174601
 20
101.6153783132
 30
0.0
 10
158.711547946
 20
101.5783954902
 30
0.0
  0
SPLINE
  5
549
100
AcDbEntity
  8
0
100
AcDbSpline
 62
7
  6
CONTINUOUS
 70
0
 71
3
 72
14
 73
10
 74
0
 42
0.0000001
 43
0.0000001
 44
0.0000000001
 40
0.0
 40
0.0
 40
0.0
 40
0.0
 40
0.4053319697
 40
0.5777741381
 40
0.7247476288
 40
0.8429392995
 40
0.9292955695
 40
0.9820663222
 40
1.0
 40
1.0
 40
1.0
 40
1.0
 10
132.7978703198
 20
90.3049896185
 30
0.0
 10
132.6223905314
 20
90.2807486772
 30
0.0
 10
132.371979544
 20
90.2461298281
 30
0.0
 10
132.0586488392
 20
90.2044466643
 30
0.0
 10
131.8677987382
 20
90.1776988211
 30
0.0
 10
131.7188817782
 20
90.1619475976
 30
0.0
 10
131.5993121743
 20
90.1382711513
 30
0.0
 10
131.5454859258
 20
90.1474755801
 30
0.0
 10
131.4996279119
 20
90.1263099681
 30
0.0
 10
131.4980303417
 20
90.1339831552
 30
0.0
  0
SPLINE
  5
54A
100
AcDbEntity
  8
0
100
AcDbSpline
 62
7
  6
CONTINUOUS
 70
0
 71
3
 72
16
 73
12
 74
0
 42
0.0000001
 43
0.0000001
 44
0.0000000001
 40
0.0
 40
0.0
 40
0.0
 40
0.0
 40
0.3792110181
 40
0.5520869932
 40
0.7041322649
 40
0.8293422694
 40
0.9227459707
 40
0.9561695991
 40
0.9803379071
 40
0.9950183024
 40
1.0
 40
1.0
 40
1.0
 40
1.0
 10
136.182928707
 20
90.4120685371
 30
0.0
 10
135.9217641176
 20
90.3753292801
 30
0.0
 10
135.541434891
 20
90.322227436
 30
0.0
 10
135.0563834257
 20
90.2556779488
 30
0.0
 10
134.745918702
 20
90.2132923768
 30
0.0
 10
134.4910906557
 20
90.1799689196
 30
0.0
 10
134.3157461542
 20
90.1556544468
 30
0.0
 10
134.2136429322
 20
90.1450224882
 30
0.0
 10
134.1601713336
 20
90.1352076665
 30
0.0
 10
134.1362279331
 20
90.1390124325
 30
0.0
 10
134.1158997964
 20
90.1305911901
 30
0.0
 10
134.1151935837
 20
90.1339831552
 30
0.0
  0
SPLINE
  5
54B
100
AcDbEntity
  8
0
100
AcDbSpline
 62
7
  6
CONTINUOUS
 70
0
 71
3
 72
9
 73
5
 74
0
 42
0.0000001
 43
0.0000001
 44
0.0000000001
 40
0.0
 40
0.0
 40
0.0
 40
0.0
 40
0.7601448376
 40
1.0
 40
1.0
 40
1.0
 40
1.0
 10
165.8233869549
 20
84.3323893195
 30
0.0
 10
165.839671844
 20
84.4644151848
 30
0.0
 10
165.865986596
 20
84.637587192
 30
0.0
 10
165.9000843995
 20
84.8092447775
 30
0.0
 10
165.9087554924
 20
84.8503143763
 30
0.0
  0
SPLINE
  5
54C
100
AcDbEntity
  8
0
100
AcDbSpline
 62
7
  6
CONTINUOUS
 70
0
 71
3
 72
9
 73
5
 74
0
 42
0.0000001
 43
0.0000001
 44
0.0000000001
 40
0.0
 40
0.0
 40
0.0
 40
0.0
 40
0.6219845303
 40
1.0
 40
1.0
 40
1.0
 40
1.0
 10
165.9087554924
 20
84.8503143763
 30
0.0
 10
165.9686977133
 20
85.1342235671
 30
0.0
 10
166.0863220262
 20
85.5738480728
 30
0.0
 10
166.3846687902
 20
85.999885067
 30
0.0
 10
166.5513544486
 20
86.0574680843
 30
0.0
  0
SPLINE
  5
54D
100
AcDbEntity
  8
0
100
AcDbSpline
 62
7
  6
CONTINUOUS
 70
0
 71
3
 72
8
 73
4
 74
0
 42
0.0000001
 43
0.0000001
 44
0.0000000001
 40
0.0
 40
0.0
 40
0.0
 40
0.0
 40
1.0
 40
1.0
 40
1.0
 40
1.0
 10
166.5513544486
 20
86.0574680843
 30
0.0
 10
166.5853274296
 20
86.0692043474
 30
0.0
 10
166.62167955
 20
86.0757144187
 30
0.0
 10
166.6576225892
 20
86.0757495516
 30
0.0
  0
SPLINE
  5
54E
100
AcDbEntity
  8
0
100
AcDbSpline
 62
7
  6
CONTINUOUS
 70
0
 71
3
 72
11
 73
7
 74
0
 42
0.0000001
 43
0.0000001
 44
0.0000000001
 40
0.0
 40
0.0
 40
0.0
 40
0.0
 40
0.2217742567
 40
0.4616049966
 40
0.7242240469
 40
1.0
 40
1.0
 40
1.0
 40
1.0
 10
428.9741885954
 20
367.5059725389
 30
0.0
 10
428.963529193
 20
367.3157020396
 30
0.0
 10
429.0512804333
 20
366.9080833952
 30
0.0
 10
429.4627530855
 20
366.4161047533
 30
0.0
 10
430.0646398035
 20
366.0950474078
 30
0.0
 10
430.5308561075
 20
366.0202765032
 30
0.0
 10
430.7678281818
 20
366.0202765032
 30
0.0
  0
SPLINE
  5
54F
100
AcDbEntity
  8
0
100
AcDbSpline
 62
7
  6
CONTINUOUS
 70
0
 71
3
 72
10
 73
6
 74
0
 42
0.0000001
 43
0.0000001
 44
0.0000000001
 40
0.0
 40
0.0
 40
0.0
 40
0.0
 40
0.6699168753
 40
0.8845447303
 40
1.0
 40
1.0
 40
1.0
 40
1.0
 10
411.3277206972
 20
449.8441091368
 30
0.0
 10
411.4287969507
 20
450.1558731919
 30
0.0
 10
411.5301240071
 20
450.5912358364
 30
0.0
 10
411.5534428345
 20
451.0631091756
 30
0.0
 10
411.4813844306
 20
451.242057236
 30
0.0
 10
411.4280747944
 20
451.2607246013
 30
0.0
  0
SPLINE
  5
550
100
AcDbEntity
  8
0
100
AcDbSpline
 62
7
  6
CONTINUOUS
 70
0
 71
3
 72
8
 73
4
 74
0
 42
0.0000001
 43
0.0000001
 44
0.0000000001
 40
0.0
 40
0.0
 40
0.0
 40
0.0
 40
1.0
 40
1.0
 40
1.0
 40
1.0
 10
410.844639653
 20
449.9258312734
 30
0.0
 10
411.0079545465
 20
449.9258690799
 30
0.0
 10
411.1734692208
 20
449.8977583484
 30
0.0
 10
411.3277206972
 20
449.8441091368
 30
0.0
  0
SPLINE
  5
551
100
AcDbEntity
  8
0
100
AcDbSpline
 62
7
  6
CONTINUOUS
 70
0
 71
3
 72
9
 73
5
 74
0
 42
0.0000001
 43
0.0000001
 44
0.0000000001
 40
0.0
 40
0.0
 40
0.0
 40
0.0
 40
0.5000446494
 40
1.0
 40
1.0
 40
1.0
 40
1.0
 10
406.7496444357
 20
385.9258312734
 30
0.0
 10
406.7867453022
 20
384.2590711059
 30
0.0
 10
406.8457057452
 20
380.9254939684
 30
0.0
 10
406.9551312072
 20
377.5931042522
 30
0.0
 10
406.9887011172
 20
375.9265670169
 30
0.0
  0
SPLINE
  5
552
100
AcDbEntity
  8
0
100
AcDbSpline
 62
7
  6
CONTINUOUS
 70
0
 71
3
 72
11
 73
7
 74
0
 42
0.0000001
 43
0.0000001
 44
0.0000000001
 40
0.0
 40
0.0
 40
0.0
 40
0.0
 40
0.0962985391
 40
0.2976605746
 40
0.60487895
 40
1.0
 40
1.0
 40
1.0
 40
1.0
 10
435.2300865613
 20
407.3296918436
 30
0.0
 10
435.2296543399
 20
407.3027779378
 30
0.0
 10
435.1429318829
 20
407.2475994882
 30
0.0
 10
434.9904912105
 20
407.2090363245
 30
0.0
 10
434.735457163
 20
407.1642780691
 30
0.0
 10
434.5415319862
 20
407.1471998044
 30
0.0
 10
434.4313713644
 20
407.1392894109
 30
0.0
  0
SPLINE
  5
553
100
AcDbEntity
  8
0
100
AcDbSpline
 62
7
  6
CONTINUOUS
 70
0
 71
3
 72
9
 73
5
 74
0
 42
0.0000001
 43
0.0000001
 44
0.0000000001
 40
0.0
 40
0.0
 40
0.0
 40
0.0
 40
0.4987046148
 40
1.0
 40
1.0
 40
1.0
 40
1.0
 10
416.3240567608
 20
361.9258312735
 30
0.0
 10
416.5442723124
 20
361.9258325402
 30
0.0
 10
416.9915940335
 20
362.0292118748
 30
0.0
 10
417.3467698285
 20
362.319932758
 30
0.0
 10
417.4825404435
 20
362.4947652489
 30
0.0
  0
SPLINE
  5
554
100
AcDbEntity
  8
0
100
AcDbSpline
 62
7
  6
CONTINUOUS
 70
0
 71
3
 72
8
 73
4
 74
0
 42
0.0000001
 43
0.0000001
 44
0.0000000001
 40
0.0
 40
0.0
 40
0.0
 40
0.0
 40
1.0
 40
1.0
 40
1.0
 40
1.0
 10
417.4825404435
 20
362.4947652489
 30
0.0
 10
417.6191737849
 20
362.670708677
 30
0.0
 10
417.7176340223
 20
362.8824394601
 30
0.0
 10
417.766321251
 20
363.0998200333
 30
0.0
  0
SPLINE
  5
555
100
AcDbEntity
  8
0
100
AcDbSpline
 62
7
  6
CONTINUOUS
 70
0
 71
3
 72
9
 73
5
 74
0
 42
0.0000001
 43
0.0000001
 44
0.0000000001
 40
0.0
 40
0.0
 40
0.0
 40
0.0
 40
0.6363167775
 40
1.0
 40
1.0
 40
1.0
 40
1.0
 10
425.3322149964
 20
402.5059400147
 30
0.0
 10
425.6035694665
 20
402.3812866829
 30
0.0
 10
426.0325395358
 20
402.1919684956
 30
0.0
 10
426.4590272879
 20
401.9939314197
 30
0.0
 10
426.6200401997
 20
401.9373281782
 30
0.0
  0
LINE
  5
556
100
AcDbEntity
  8
0
100
AcDbLine
 62
7
  6
CONTINUOUS
 10
434.1188427634
 20
407.1230865604
 11
433.8983256906
 21
407.0082553308
  0
LINE
  5
557
100
AcDbEntity
  8
0
100
AcDbLine
 62
7
  6
CONTINUOUS
 10
433.8983256906
 20
407.0082553308
 11
432.6753970129
 21
406.370432612
  0
SPLINE
  5
558
100
AcDbEntity
  8
0
100
AcDbSpline
 62
7
  6
CONTINUOUS
 70
0
 71
3
 72
8
 73
4
 74
0
 42
0.0000001
 43
0.0000001
 44
0.0000000001
 40
0.0
 40
0.0
 40
0.0
 40
0.0
 40
1.0
 40
1.0
 40
1.0
 40
1.0
 10
429.1752985046
 20
404.5357289072
 30
0.0
 10
428.4073582767
 20
404.1317094708
 30
0.0
 10
427.6398133538
 20
403.726937811
 30
0.0
 10
426.8726555054
 20
403.3214347478
 30
0.0
  0
LINE
  5
559
100
AcDbEntity
  8
0
100
AcDbLine
 62
7
  6
CONTINUOUS
 10
426.8726555054
 20
403.3214347478
 11
425.3322149398
 21
402.5059398973
  0
SPLINE
  5
55A
100
AcDbEntity
  8
0
100
AcDbSpline
 62
7
  6
CONTINUOUS
 70
0
 71
3
 72
8
 73
4
 74
0
 42
0.0000001
 43
0.0000001
 44
0.0000000001
 40
0.0
 40
0.0
 40
0.0
 40
0.0
 40
1.0
 40
1.0
 40
1.0
 40
1.0
 10
426.6200401131
 20
401.9373281918
 30
0.0
 10
426.3929028351
 20
401.8075627737
 30
0.0
 10
426.2083929474
 20
401.5675489388
 30
0.0
 10
426.1428494461
 20
401.314301123
 30
0.0
  0
SPLINE
  5
55B
100
AcDbEntity
  8
0
100
AcDbSpline
 62
7
  6
CONTINUOUS
 70
0
 71
3
 72
9
 73
5
 74
0
 42
0.0000001
 43
0.0000001
 44
0.0000000001
 40
0.0
 40
0.0
 40
0.0
 40
0.0
 40
0.5428549155
 40
1.0
 40
1.0
 40
1.0
 40
1.0
 10
426.6631111436
 20
401.9389160355
 30
0.0
 10
426.655561482
 20
401.9365976962
 30
0.0
 10
426.6411886585
 20
401.9335123884
 30
0.0
 10
426.6263142228
 20
401.9351223541
 30
0.0
 10
426.6200399929
 20
401.9373281319
 30
0.0
  0
SPLINE
  5
55C
100
AcDbEntity
  8
0
100
AcDbSpline
 62
7
  6
CONTINUOUS
 70
0
 71
3
 72
9
 73
5
 74
0
 42
0.0000001
 43
0.0000001
 44
0.0000000001
 40
0.0
 40
0.0
 40
0.0
 40
0.0
 40
0.5356488078
 40
1.0
 40
1.0
 40
1.0
 40
1.0
 10
426.1428494519
 20
401.3143011154
 30
0.0
 10
426.1469280521
 20
401.3087403585
 30
0.0
 10
426.1562056593
 20
401.2991085169
 30
0.0
 10
426.1693851869
 20
401.2956697925
 30
0.0
 10
426.1753627885
 20
401.2957574275
 30
0.0
  0
SPLINE
  5
55D
100
AcDbEntity
  8
0
100
AcDbSpline
 62
7
  6
CONTINUOUS
 70
0
 71
3
 72
9
 73
5
 74
0
 42
0.0000001
 43
0.0000001
 44
0.0000000001
 40
0.0
 40
0.0
 40
0.0
 40
0.0
 40
0.5832369716
 40
1.0
 40
1.0
 40
1.0
 40
1.0
 10
425.3322149411
 20
402.5059398966
 30
0.0
 10
425.4932110456
 20
402.3008788192
 30
0.0
 10
425.7611142401
 20
401.9439304775
 30
0.0
 10
426.0183769131
 20
401.5757474212
 30
0.0
 10
426.1034748196
 20
401.4100238007
 30
0.0
  0
SPLINE
  5
55E
100
AcDbEntity
  8
0
100
AcDbSpline
 62
7
  6
CONTINUOUS
 70
0
 71
3
 72
8
 73
4
 74
0
 42
0.0000001
 43
0.0000001
 44
0.0000000001
 40
0.0
 40
0.0
 40
0.0
 40
0.0
 40
1.0
 40
1.0
 40
1.0
 40
1.0
 10
426.1034748196
 20
401.4100238007
 30
0.0
 10
426.119234747
 20
401.3793321853
 30
0.0
 10
426.1345440345
 20
401.3477881405
 30
0.0
 10
426.1428491401
 20
401.314301191
 30
0.0
  0
SPLINE
  5
55F
100
AcDbEntity
  8
0
100
AcDbSpline
 62
7
  6
CONTINUOUS
 70
0
 71
3
 72
8
 73
4
 74
0
 42
0.0000001
 43
0.0000001
 44
0.0000000001
 40
0.0
 40
0.0
 40
0.0
 40
0.0
 40
1.0
 40
1.0
 40
1.0
 40
1.0
 10
425.3322149398
 20
402.5059398973
 30
0.0
 10
422.2903373667
 20
389.4452461215
 30
0.0
 10
419.4633655311
 20
376.3345302778
 30
0.0
 10
416.7127325809
 20
363.2094108708
 30
0.0
  0
SPLINE
  5
560
100
AcDbEntity
  8
0
100
AcDbSpline
 62
7
  6
CONTINUOUS
 70
0
 71
3
 72
8
 73
4
 74
0
 42
0.0000001
 43
0.0000001
 44
0.0000000001
 40
0.0
 40
0.0
 40
0.0
 40
0.0
 40
1.0
 40
1.0
 40
1.0
 40
1.0
 10
417.7663165472
 20
363.099797717
 30
0.0
 10
420.4412231986
 20
375.8630981012
 30
0.0
 10
423.1912649197
 20
388.6121064703
 30
0.0
 10
426.1428436547
 20
401.3142773581
 30
0.0
  0
SPLINE
  5
561
100
AcDbEntity
  8
0
100
AcDbSpline
 62
7
  6
CONTINUOUS
 70
0
 71
3
 72
8
 73
4
 74
0
 42
0.0000001
 43
0.0000001
 44
0.0000000001
 40
0.0
 40
0.0
 40
0.0
 40
0.0
 40
1.0
 40
1.0
 40
1.0
 40
1.0
 10
426.6631113985
 20
401.9389161706
 30
0.0
 10
426.4275252196
 20
401.8089399701
 30
0.0
 10
426.2377284986
 20
401.5574923677
 30
0.0
 10
426.1753626855
 20
401.2957574526
 30
0.0
  0
LINE
  5
562
100
AcDbEntity
  8
0
100
AcDbLine
 62
7
  6
CONTINUOUS
 10
426.1753626828
 20
401.2957574418
 11
427.1396315133
 21
401.3135751914
  0
SPLINE
  5
563
100
AcDbEntity
  8
0
100
AcDbSpline
 62
7
  6
CONTINUOUS
 70
0
 71
3
 72
10
 73
6
 74
0
 42
0.0000001
 43
0.0000001
 44
0.0000000001
 40
0.0
 40
0.0
 40
0.0
 40
0.0
 40
0.1213131704
 40
0.3418577605
 40
1.0
 40
1.0
 40
1.0
 40
1.0
 10
417.766321251
 20
363.0998200334
 30
0.0
 10
417.7251101617
 20
363.0877196423
 30
0.0
 10
417.6014625286
 20
363.0903825906
 30
0.0
 10
417.2505669876
 20
363.1149146482
 30
0.0
 10
416.9419989602
 20
363.1678152919
 30
0.0
 10
416.7127269428
 20
363.2094108708
 30
0.0
  0
SPLINE
  5
564
100
AcDbEntity
  8
0
100
AcDbSpline
 62
7
  6
CONTINUOUS
 70
0
 71
3
 72
10
 73
6
 74
0
 42
0.0000001
 43
0.0000001
 44
0.0000000001
 40
0.0
 40
0.0
 40
0.0
 40
0.0
 40
0.6303207459
 40
0.8549929583
 40
1.0
 40
1.0
 40
1.0
 40
1.0
 10
416.7127269428
 20
363.2094108708
 30
0.0
 10
416.702133833
 20
362.9319630039
 30
0.0
 10
416.6643379553
 20
362.5509182852
 30
0.0
 10
416.5341336566
 20
362.1335179548
 30
0.0
 10
416.446345472
 20
361.9860167772
 30
0.0
 10
416.3937478672
 20
361.9497759133
 30
0.0
  0
SPLINE
  5
565
100
AcDbEntity
  8
0
100
AcDbSpline
 62
7
  6
CONTINUOUS
 70
0
 71
3
 72
8
 73
4
 74
0
 42
0.0000001
 43
0.0000001
 44
0.0000000001
 40
0.0
 40
0.0
 40
0.0
 40
0.0
 40
1.0
 40
1.0
 40
1.0
 40
1.0
 10
416.3937478672
 20
361.9497759133
 30
0.0
 10
416.373518941
 20
361.9358377547
 30
0.0
 10
416.3486144517
 20
361.9258312734
 30
0.0
 10
416.3240485868
 20
361.9258312734
 30
0.0
  0
SPLINE
  5
566
100
AcDbEntity
  8
0
100
AcDbSpline
 62
7
  6
CONTINUOUS
 70
0
 71
3
 72
10
 73
6
 74
0
 42
0.0000001
 43
0.0000001
 44
0.0000000001
 40
0.0
 40
0.0
 40
0.0
 40
0.0
 40
0.6308625064
 40
0.8594650396
 40
1.0
 40
1.0
 40
1.0
 40
1.0
 10
434.1188427641
 20
407.1230865573
 30
0.0
 10
434.2183105455
 20
406.9101318254
 30
0.0
 10
434.3449292397
 20
406.6134605689
 30
0.0
 10
434.4446981182
 20
406.2561338503
 30
0.0
 10
434.4624060784
 20
406.1162752302
 30
0.0
 10
434.4533653583
 20
406.0647027635
 30
0.0
  0
SPLINE
  5
567
100
AcDbEntity
  8
0
100
AcDbSpline
 62
7
  6
CONTINUOUS
 70
0
 71
3
 72
8
 73
4
 74
0
 42
0.0000001
 43
0.0000001
 44
0.0000000001
 40
0.0
 40
0.0
 40
0.0
 40
0.0
 40
1.0
 40
1.0
 40
1.0
 40
1.0
 10
434.4533653583
 20
406.0647027635
 30
0.0
 10
434.4495649423
 20
406.0430234254
 30
0.0
 10
434.4402572483
 20
406.016422013
 30
0.0
 10
434.4200525562
 20
406.007692335
 30
0.0
  0
SPLINE
  5
568
100
AcDbEntity
  8
0
100
AcDbSpline
 62
7
  6
CONTINUOUS
 70
0
 71
3
 72
11
 73
7
 74
0
 42
0.0000001
 43
0.0000001
 44
0.0000000001
 40
0.0
 40
0.0
 40
0.0
 40
0.0
 40
0.3608816227
 40
0.681435474
 40
0.900649459
 40
1.0
 40
1.0
 40
1.0
 40
1.0
 10
434.2432657695
 20
426.2094108708
 30
0.0
 10
434.381384181
 20
426.2140158336
 30
0.0
 10
434.6387185729
 20
426.2284406527
 30
0.0
 10
434.9938205871
 20
426.2691939012
 30
0.0
 10
435.2081483121
 20
426.3170626529
 30
0.0
 10
435.3524493785
 20
426.3779467742
 30
0.0
 10
435.3543432604
 20
426.4159446678
 30
0.0
  0
SPLINE
  5
569
100
AcDbEntity
  8
0
100
AcDbSpline
 62
7
  6
CONTINUOUS
 70
0
 71
3
 72
8
 73
4
 74
0
 42
0.0000001
 43
0.0000001
 44
0.0000000001
 40
0.0
 40
0.0
 40
0.0
 40
0.0
 40
1.0
 40
1.0
 40
1.0
 40
1.0
 10
431.0879157452
 20
430.3525216356
 30
0.0
 10
431.2405466786
 20
430.349384573
 30
0.0
 10
431.3934782053
 20
430.331022132
 30
0.0
 10
431.5427939989
 20
430.2992284725
 30
0.0
  0
SPLINE
  5
56A
100
AcDbEntity
  8
0
100
AcDbSpline
 62
7
  6
CONTINUOUS
 70
0
 71
3
 72
8
 73
4
 74
0
 42
0.0000001
 43
0.0000001
 44
0.0000000001
 40
0.0
 40
0.0
 40
0.0
 40
0.0
 40
1.0
 40
1.0
 40
1.0
 40
1.0
 10
431.5427939989
 20
430.2992284725
 30
0.0
 10
431.6960841822
 20
430.2665885502
 30
0.0
 10
431.8468659812
 20
430.2195906066
 30
0.0
 10
431.9920905316
 20
430.1606578077
 30
0.0
  0
SPLINE
  5
56B
100
AcDbEntity
  8
0
100
AcDbSpline
 62
7
  6
CONTINUOUS
 70
0
 71
3
 72
8
 73
4
 74
0
 42
0.0000001
 43
0.0000001
 44
0.0000000001
 40
0.0
 40
0.0
 40
0.0
 40
0.0
 40
1.0
 40
1.0
 40
1.0
 40
1.0
 10
432.4414863289
 20
429.9309773717
 30
0.0
 10
432.6035421171
 20
429.8300057419
 30
0.0
 10
432.7565537238
 20
429.7132522903
 30
0.0
 10
432.8980441639
 20
429.5850422911
 30
0.0
  0
SPLINE
  5
56C
100
AcDbEntity
  8
0
100
AcDbSpline
 62
7
  6
CONTINUOUS
 70
0
 71
3
 72
9
 73
5
 74
0
 42
0.0000001
 43
0.0000001
 44
0.0000000001
 40
0.0
 40
0.0
 40
0.0
 40
0.0
 40
0.507436031
 40
1.0
 40
1.0
 40
1.0
 40
1.0
 10
433.0030196606
 20
429.4858240963
 30
0.0
 10
433.4335485814
 20
429.0616100715
 30
0.0
 10
434.0714210363
 20
427.9985817049
 30
0.0
 10
434.2470354545
 20
426.7960955584
 30
0.0
 10
434.2432657695
 20
426.2094108708
 30
0.0
  0
SPLINE
  5
56D
100
AcDbEntity
  8
0
100
AcDbSpline
 62
7
  6
CONTINUOUS
 70
0
 71
3
 72
9
 73
5
 74
0
 42
0.0000001
 43
0.0000001
 44
0.0000000001
 40
0.0
 40
0.0
 40
0.0
 40
0.0
 40
0.3417607038
 40
1.0
 40
1.0
 40
1.0
 40
1.0
 10
430.9581102526
 20
430.9258312734
 30
0.0
 10
430.9818834671
 20
430.9258312777
 30
0.0
 10
431.034579171
 20
430.8600440872
 30
0.0
 10
431.0516616988
 20
430.7971695085
 30
0.0
 10
431.0617735939
 20
430.7525122539
 30
0.0
  0
SPLINE
  5
56E
100
AcDbEntity
  8
0
100
AcDbSpline
 62
7
  6
CONTINUOUS
 70
0
 71
3
 72
9
 73
5
 74
0
 42
0.0000001
 43
0.0000001
 44
0.0000000001
 40
0.0
 40
0.0
 40
0.0
 40
0.0
 40
0.2278081013
 40
1.0
 40
1.0
 40
1.0
 40
1.0
 10
431.0617735939
 20
430.7525122539
 30
0.0
 10
431.066174796
 20
430.733075185
 30
0.0
 10
431.0819047104
 20
430.6469540327
 30
0.0
 10
431.0881772542
 20
430.5593492446
 30
0.0
 10
431.0898783481
 20
430.4918177003
 30
0.0
  0
SPLINE
  5
56F
100
AcDbEntity
  8
0
100
AcDbSpline
 62
7
  6
CONTINUOUS
 70
0
 71
3
 72
8
 73
4
 74
0
 42
0.0000001
 43
0.0000001
 44
0.0000000001
 40
0.0
 40
0.0
 40
0.0
 40
0.0
 40
1.0
 40
1.0
 40
1.0
 40
1.0
 10
431.0898783481
 20
430.4918177003
 30
0.0
 10
431.0910476992
 20
430.445395759
 30
0.0
 10
431.0906086359
 20
430.3988807859
 30
0.0
 10
431.0879326287
 20
430.3525212884
 30
0.0
  0
LINE
  5
570
100
AcDbEntity
  8
0
100
AcDbLine
 62
7
  6
CONTINUOUS
 10
407.289739855
 20
430.3536911392
 11
408.8211856265
 21
430.3537270023
  0
SPLINE
  5
571
100
AcDbEntity
  8
0
100
AcDbSpline
 62
7
  6
CONTINUOUS
 70
0
 71
3
 72
11
 73
7
 74
0
 42
0.0000001
 43
0.0000001
 44
0.0000000001
 40
0.0
 40
0.0
 40
0.0
 40
0.0
 40
0.4999998706
 40
0.7499989745
 40
0.8750021694
 40
1.0
 40
1.0
 40
1.0
 40
1.0
 10
408.8211856265
 20
430.3537270023
 30
0.0
 10
412.2860301552
 20
430.3538772945
 30
0.0
 10
417.4832888518
 20
430.3557410034
 30
0.0
 10
423.5467888523
 20
430.3508888882
 30
0.0
 10
427.0116265464
 20
430.357502684
 30
0.0
 10
428.7440727183
 20
430.3493086327
 30
0.0
 10
429.610257706
 20
430.3537401526
 30
0.0
  0
SPLINE
  5
572
100
AcDbEntity
  8
0
100
AcDbSpline
 62
7
  6
CONTINUOUS
 70
0
 71
3
 72
8
 73
4
 74
0
 42
0.0000001
 43
0.0000001
 44
0.0000000001
 40
0.0
 40
0.0
 40
0.0
 40
0.0
 40
1.0
 40
1.0
 40
1.0
 40
1.0
 10
429.610257706
 20
430.3537401526
 30
0.0
 10
429.9697359333
 20
430.355579292
 30
0.0
 10
430.3292222777
 20
430.3594973957
 30
0.0
 10
430.6886998361
 20
430.3575318505
 30
0.0
  0
SPLINE
  5
573
100
AcDbEntity
  8
0
100
AcDbSpline
 62
7
  6
CONTINUOUS
 70
0
 71
3
 72
8
 73
4
 74
0
 42
0.0000001
 43
0.0000001
 44
0.0000000001
 40
0.0
 40
0.0
 40
0.0
 40
0.0
 40
1.0
 40
1.0
 40
1.0
 40
1.0
 10
411.7390467311
 20
431.4258312734
 30
0.0
 10
412.2110379341
 20
431.4258312734
 30
0.0
 10
412.7096520417
 20
431.2366370629
 30
0.0
 10
413.0630047097
 20
430.9237192018
 30
0.0
  0
SPLINE
  5
574
100
AcDbEntity
  8
0
100
AcDbSpline
 62
7
  6
CONTINUOUS
 70
0
 71
3
 72
9
 73
5
 74
0
 42
0.0000001
 43
0.0000001
 44
0.0000000001
 40
0.0
 40
0.0
 40
0.0
 40
0.0
 40
0.2374741896
 40
1.0
 40
1.0
 40
1.0
 40
1.0
 10
166.9822513327
 20
80.3608599438
 30
0.0
 10
166.9926419012
 20
80.4008437792
 30
0.0
 10
167.0337416625
 20
80.569902438
 30
0.0
 10
167.0648294705
 20
80.7413221893
 30
0.0
 10
167.0840832581
 20
80.8725692198
 30
0.0
  0
SPLINE
  5
575
100
AcDbEntity
  8
0
100
AcDbSpline
 62
7
  6
CONTINUOUS
 70
0
 71
3
 72
8
 73
4
 74
0
 42
0.0000001
 43
0.0000001
 44
0.0000000001
 40
0.0
 40
0.0
 40
0.0
 40
0.0
 40
1.0
 40
1.0
 40
1.0
 40
1.0
 10
418.8780626236
 20
431.4258312734
 30
0.0
 10
419.346318146
 20
431.4258312734
 30
0.0
 10
419.8407531383
 20
431.2401603495
 30
0.0
 10
420.1930551952
 20
430.9317020946
 30
0.0
  0
SPLINE
  5
576
100
AcDbEntity
  8
0
100
AcDbSpline
 62
7
  6
CONTINUOUS
 70
0
 71
3
 72
10
 73
6
 74
0
 42
0.0000001
 43
0.0000001
 44
0.0000000001
 40
0.0
 40
0.0
 40
0.0
 40
0.0
 40
0.1153833045
 40
0.3299271557
 40
1.0
 40
1.0
 40
1.0
 40
1.0
 10
434.3777215515
 20
443.2725258021
 30
0.0
 10
434.4310130903
 20
443.2539072041
 30
0.0
 10
434.5031443782
 20
443.0750607489
 30
0.0
 10
434.4798372921
 20
442.603154967
 30
0.0
 10
434.3785234288
 20
442.1677394901
 30
0.0
 10
434.2774200186
 20
441.8558916716
 30
0.0
  0
SPLINE
  5
577
100
AcDbEntity
  8
0
100
AcDbSpline
 62
7
  6
CONTINUOUS
 70
0
 71
3
 72
9
 73
5
 74
0
 42
0.0000001
 43
0.0000001
 44
0.0000000001
 40
0.0
 40
0.0
 40
0.0
 40
0.0
 40
0.3485247803
 40
1.0
 40
1.0
 40
1.0
 40
1.0
 10
167.8216218037
 20
105.3258312734
 30
0.0
 10
167.7414863771
 20
105.3258312734
 30
0.0
 10
167.5785678218
 20
105.087962767
 30
0.0
 10
167.5535518997
 20
104.8753182506
 30
0.0
 10
167.5395506413
 20
104.7261819845
 30
0.0
  0
SPLINE
  5
578
100
AcDbEntity
  8
0
100
AcDbSpline
 62
7
  6
CONTINUOUS
 70
0
 71
3
 72
9
 73
5
 74
0
 42
0.0000001
 43
0.0000001
 44
0.0000000001
 40
0.0
 40
0.0
 40
0.0
 40
0.0
 40
0.6043291248
 40
1.0
 40
1.0
 40
1.0
 40
1.0
 10
168.8104627855
 20
87.1258312734
 30
0.0
 10
168.8104627855
 20
86.9603742856
 30
0.0
 10
168.8401679071
 20
86.6934949615
 30
0.0
 10
168.953819334
 20
86.4160328335
 30
0.0
 10
169.0430003069
 20
86.3545350529
 30
0.0
  0
SPLINE
  5
579
100
AcDbEntity
  8
0
100
AcDbSpline
 62
7
  6
CONTINUOUS
 70
0
 71
3
 72
8
 73
4
 74
0
 42
0.0000001
 43
0.0000001
 44
0.0000000001
 40
0.0
 40
0.0
 40
0.0
 40
0.0
 40
1.0
 40
1.0
 40
1.0
 40
1.0
 10
169.0430003069
 20
86.3545350529
 30
0.0
 10
169.067536456
 20
86.3376153147
 30
0.0
 10
169.0978765257
 20
86.3258376793
 30
0.0
 10
169.1276808897
 20
86.3258313897
 30
0.0
  0
SPLINE
  5
57A
100
AcDbEntity
  8
0
100
AcDbSpline
 62
7
  6
CONTINUOUS
 70
0
 71
3
 72
8
 73
4
 74
0
 42
0.0000001
 43
0.0000001
 44
0.0000000001
 40
0.0
 40
0.0
 40
0.0
 40
0.0
 40
1.0
 40
1.0
 40
1.0
 40
1.0
 10
407.2933831297
 20
427.3035992961
 30
0.0
 10
407.0893521356
 20
427.4405057935
 30
0.0
 10
406.8540114199
 20
427.5388336022
 30
0.0
 10
406.6132146382
 20
427.5877104422
 30
0.0
  0
LINE
  5
57B
100
AcDbEntity
  8
0
100
AcDbLine
 62
7
  6
CONTINUOUS
 10
122.7736423564
 20
96.522713192
 11
122.5064379302
 21
96.4846393628
  0
LINE
  5
57C
100
AcDbEntity
  8
0
100
AcDbLine
 62
7
  6
CONTINUOUS
 10
122.5064379302
 20
96.4846393628
 11
122.2993638149
 21
96.4548014669
  0
SPLINE
  5
57D
100
AcDbEntity
  8
0
100
AcDbSpline
 62
7
  6
CONTINUOUS
 70
0
 71
3
 72
9
 73
5
 74
0
 42
0.0000001
 43
0.0000001
 44
0.0000000001
 40
0.0
 40
0.0
 40
0.0
 40
0.0
 40
0.3478190293
 40
1.0
 40
1.0
 40
1.0
 40
1.0
 10
121.9764063858
 20
96.4072740334
 30
0.0
 10
121.9572633831
 20
96.4043917757
 30
0.0
 10
121.9022479455
 20
96.3959773614
 30
0.0
 10
121.8471914882
 20
96.3877392309
 30
0.0
 10
121.811461403
 20
96.3813388009
 30
0.0
  0
SPLINE
  5
57E
100
AcDbEntity
  8
0
100
AcDbSpline
 62
7
  6
CONTINUOUS
 70
0
 71
3
 72
10
 73
6
 74
0
 42
0.0000001
 43
0.0000001
 44
0.0000000001
 40
0.0
 40
0.0
 40
0.0
 40
0.0
 40
0.0874140204
 40
0.3048823947
 40
1.0
 40
1.0
 40
1.0
 40
1.0
 10
124.9157783109
 20
96.3777614926
 30
0.0
 10
124.9502381252
 20
96.3777614926
 30
0.0
 10
125.0692358062
 20
96.3993256875
 30
0.0
 10
125.4603555492
 20
96.4429642976
 30
0.0
 10
125.8165158582
 20
96.4970019589
 30
0.0
 10
126.0878915378
 20
96.5350140641
 30
0.0
  0
LINE
  5
57F
100
AcDbEntity
  8
0
100
AcDbLine
 62
7
  6
CONTINUOUS
 10
126.0878915378
 20
96.5350140641
 11
126.2069594864
 21
96.5517278688
  0
LINE
  5
580
100
AcDbEntity
  8
0
100
AcDbLine
 62
7
  6
CONTINUOUS
 10
161.9316396562
 20
101.5772874585
 11
161.8228828892
 21
101.5642710668
  0
LINE
  5
581
100
AcDbEntity
  8
0
100
AcDbLine
 62
7
  6
CONTINUOUS
 10
157.8338101134
 20
101.1093259751
 11
157.7197510873
 21
101.097422319
  0
LINE
  5
582
100
AcDbEntity
  8
0
100
AcDbLine
 62
7
  6
CONTINUOUS
 10
157.7197510873
 20
101.097422319
 11
157.6035720938
 21
101.0854164954
  0
SPLINE
  5
583
100
AcDbEntity
  8
0
100
AcDbSpline
 62
7
  6
CONTINUOUS
 70
0
 71
3
 72
9
 73
5
 74
0
 42
0.0000001
 43
0.0000001
 44
0.0000000001
 40
0.0
 40
0.0
 40
0.0
 40
0.0
 40
0.2843984209
 40
1.0
 40
1.0
 40
1.0
 40
1.0
 10
157.6035720938
 20
101.0854164954
 30
0.0
 10
157.5050437285
 20
101.0752885037
 30
0.0
 10
157.1585478648
 20
101.0401905229
 30
0.0
 10
156.8118399788
 20
101.0070733311
 30
0.0
 10
156.5635252027
 20
100.9858181189
 30
0.0
  0
SPLINE
  5
584
100
AcDbEntity
  8
0
100
AcDbSpline
 62
7
  6
CONTINUOUS
 70
0
 71
3
 72
9
 73
5
 74
0
 42
0.0000001
 43
0.0000001
 44
0.0000000001
 40
0.0
 40
0.0
 40
0.0
 40
0.0
 40
0.2959289154
 40
1.0
 40
1.0
 40
1.0
 40
1.0
 10
156.3416067033
 20
100.9676421579
 30
0.0
 10
156.2966429711
 20
100.9641492596
 30
0.0
 10
156.1446697636
 20
100.9528389769
 30
0.0
 10
155.9925349237
 20
100.9431858173
 30
0.0
 10
155.885308461
 20
100.9392260403
 30
0.0
  0
SPLINE
  5
585
100
AcDbEntity
  8
0
100
AcDbSpline
 62
7
  6
CONTINUOUS
 70
0
 71
3
 72
11
 73
7
 74
0
 42
0.0000001
 43
0.0000001
 44
0.0000000001
 40
0.0
 40
0.0
 40
0.0
 40
0.0
 40
0.4818219796
 40
0.7774571373
 40
0.8945793726
 40
1.0
 40
1.0
 40
1.0
 40
1.0
 10
155.885308461
 20
100.9392260403
 30
0.0
 10
155.8369708007
 20
100.9374409739
 30
0.0
 10
155.7517719516
 20
100.9371555589
 30
0.0
 10
155.6802478924
 20
100.9359187354
 30
0.0
 10
155.6030222236
 20
100.9512990906
 30
0.0
 10
155.6327712705
 20
100.9722405533
 30
0.0
 10
155.6422836754
 20
100.97687953
 30
0.0
  0
SPLINE
  5
586
100
AcDbEntity
  8
0
100
AcDbSpline
 62
7
  6
CONTINUOUS
 70
0
 71
3
 72
9
 73
5
 74
0
 42
0.0000001
 43
0.0000001
 44
0.0000000001
 40
0.0
 40
0.0
 40
0.0
 40
0.0
 40
0.3466812578
 40
1.0
 40
1.0
 40
1.0
 40
1.0
 10
155.6422836754
 20
100.97687953
 30
0.0
 10
155.6908174802
 20
101.0005483275
 30
0.0
 10
155.8432241203
 20
101.0392684866
 30
0.0
 10
155.9939316314
 20
101.0757599802
 30
0.0
 10
156.0933573296
 20
101.097422319
 30
0.0
  0
SPLINE
  5
587
100
AcDbEntity
  8
0
100
AcDbSpline
 62
7
  6
CONTINUOUS
 70
0
 71
3
 72
9
 73
5
 74
0
 42
0.0000001
 43
0.0000001
 44
0.0000000001
 40
0.0
 40
0.0
 40
0.0
 40
0.0
 40
0.198414288
 40
1.0
 40
1.0
 40
1.0
 40
1.0
 10
156.0933573296
 20
101.097422319
 30
0.0
 10
156.1604985861
 20
101.1120506965
 30
0.0
 10
156.4994622126
 20
101.1831351849
 30
0.0
 10
156.8398549503
 20
101.2471844909
 30
0.0
 10
157.1128895789
 20
101.2973853905
 30
0.0
  0
SPLINE
  5
588
100
AcDbEntity
  8
0
100
AcDbSpline
 62
7
  6
CONTINUOUS
 70
0
 71
3
 72
9
 73
5
 74
0
 42
0.0000001
 43
0.0000001
 44
0.0000000001
 40
0.0
 40
0.0
 40
0.0
 40
0.0
 40
0.2168796618
 40
1.0
 40
1.0
 40
1.0
 40
1.0
 10
157.1128895789
 20
101.2973853905
 30
0.0
 10
157.2277437305
 20
101.3185027915
 30
0.0
 10
157.7575591975
 20
101.4145668591
 30
0.0
 10
158.2881237787
 20
101.5064549083
 30
0.0
 10
158.7038049912
 20
101.5772874585
 30
0.0
  0
SPLINE
  5
589
100
AcDbEntity
  8
0
100
AcDbSpline
 62
7
  6
CONTINUOUS
 70
0
 71
3
 72
9
 73
5
 74
0
 42
0.0000001
 43
0.0000001
 44
0.0000000001
 40
0.0
 40
0.0
 40
0.0
 40
0.0
 40
0.6478832886
 40
1.0
 40
1.0
 40
1.0
 40
1.0
 10
126.3160161284
 20
96.0459504717
 30
0.0
 10
126.2985439248
 20
96.1517545912
 30
0.0
 10
126.2679232415
 20
96.3139407629
 30
0.0
 10
126.2379820069
 20
96.4777618473
 30
0.0
 10
126.2181581138
 20
96.5325688761
 30
0.0
  0
SPLINE
  5
58A
100
AcDbEntity
  8
0
100
AcDbSpline
 62
7
  6
CONTINUOUS
 70
0
 71
3
 72
11
 73
7
 74
0
 42
0.0000001
 43
0.0000001
 44
0.0000000001
 40
0.0
 40
0.0
 40
0.0
 40
0.0
 40
0.085588246
 40
0.2865592198
 40
0.595271862
 40
1.0
 40
1.0
 40
1.0
 40
1.0
 10
120.2720407349
 20
93.6023330434
 30
0.0
 10
120.3273715232
 20
93.6023330434
 30
0.0
 10
120.5113329102
 20
93.630427717
 30
0.0
 10
120.8933102115
 20
93.6720781547
 30
0.0
 10
121.4794157765
 20
93.7518181232
 30
0.0
 10
121.9365848075
 20
93.8120004545
 30
0.0
 10
122.1958889996
 20
93.8469376202
 30
0.0
  0
SPLINE
  5
58B
100
AcDbEntity
  8
0
100
AcDbSpline
 62
7
  6
CONTINUOUS
 70
0
 71
3
 72
9
 73
5
 74
0
 42
0.0000001
 43
0.0000001
 44
0.0000000001
 40
0.0
 40
0.0
 40
0.0
 40
0.0
 40
0.2383459339
 40
1.0
 40
1.0
 40
1.0
 40
1.0
 10
122.1958889996
 20
93.8469376202
 30
0.0
 10
122.2542721075
 20
93.8548038267
 30
0.0
 10
122.4992159053
 20
93.8878616206
 30
0.0
 10
122.7441321814
 20
93.9211232035
 30
0.0
 10
122.9306611881
 20
93.9465482716
 30
0.0
  0
SPLINE
  5
58C
100
AcDbEntity
  8
0
100
AcDbSpline
 62
7
  6
CONTINUOUS
 70
0
 71
3
 72
8
 73
4
 74
0
 42
0.0000001
 43
0.0000001
 44
0.0000000001
 40
0.0
 40
0.0
 40
0.0
 40
0.0
 40
1.0
 40
1.0
 40
1.0
 40
1.0
 10
124.6225906152
 20
94.1793305291
 30
0.0
 10
124.927728309
 20
94.2216501608
 30
0.0
 10
125.2328439559
 20
94.2641290011
 30
0.0
 10
125.537939638
 20
94.3067504532
 30
0.0
  0
LINE
  5
58D
100
AcDbEntity
  8
0
100
AcDbLine
 62
7
  6
CONTINUOUS
 10
125.537939638
 20
94.3067504532
 11
126.2991514766
 21
94.4133937166
  0
LINE
  5
58E
100
AcDbEntity
  8
0
100
AcDbLine
 62
7
  6
CONTINUOUS
 10
126.2991514766
 20
94.4133937166
 11
126.4697103768
 21
94.4373716492
  0
SPLINE
  5
58F
100
AcDbEntity
  8
0
100
AcDbSpline
 62
7
  6
CONTINUOUS
 70
0
 71
3
 72
9
 73
5
 74
0
 42
0.0000001
 43
0.0000001
 44
0.0000000001
 40
0.0
 40
0.0
 40
0.0
 40
0.0
 40
0.2681896036
 40
1.0
 40
1.0
 40
1.0
 40
1.0
 10
126.4697103768
 20
94.4373716492
 30
0.0
 10
126.4570982087
 20
94.5271973831
 30
0.0
 10
126.4087659355
 20
94.861941593
 30
0.0
 10
126.3561984416
 20
95.1961109649
 30
0.0
 10
126.3132060195
 20
95.4398607282
 30
0.0
  0
SPLINE
  5
590
100
AcDbEntity
  8
0
100
AcDbSpline
 62
7
  6
CONTINUOUS
 70
0
 71
3
 72
9
 73
5
 74
0
 42
0.0000001
 43
0.0000001
 44
0.0000000001
 40
0.0
 40
0.0
 40
0.0
 40
0.0
 40
0.6415078339
 40
1.0
 40
1.0
 40
1.0
 40
1.0
 10
126.3132060195
 20
95.4398607282
 30
0.0
 10
126.292258426
 20
95.5586251682
 30
0.0
 10
126.256194188
 20
95.7427104072
 30
0.0
 10
126.2182950989
 20
95.9277711648
 30
0.0
 10
126.1953721386
 20
95.9911461709
 30
0.0
  0
SPLINE
  5
591
100
AcDbEntity
  8
0
100
AcDbSpline
 62
7
  6
CONTINUOUS
 70
0
 71
3
 72
9
 73
5
 74
0
 42
0.0000001
 43
0.0000001
 44
0.0000000001
 40
0.0
 40
0.0
 40
0.0
 40
0.0
 40
0.693798039
 40
1.0
 40
1.0
 40
1.0
 40
1.0
 10
126.1953721386
 20
95.9911461709
 30
0.0
 10
126.1925342112
 20
95.9989921762
 30
0.0
 10
126.1885709638
 20
96.0086832478
 30
0.0
 10
126.181136659
 20
96.0218005592
 30
0.0
 10
126.1774543347
 20
96.0218005592
 30
0.0
  0
SPLINE
  5
592
100
AcDbEntity
  8
0
100
AcDbSpline
 62
7
  6
CONTINUOUS
 70
0
 71
3
 72
8
 73
4
 74
0
 42
0.0000001
 43
0.0000001
 44
0.0000000001
 40
0.0
 40
0.0
 40
0.0
 40
0.0
 40
1.0
 40
1.0
 40
1.0
 40
1.0
 10
121.6324965972
 20
95.409438915
 30
0.0
 10
121.2285665162
 20
95.3526161615
 30
0.0
 10
120.8236966197
 20
95.1137955701
 30
0.0
 10
120.578361002
 20
94.787914042
 30
0.0
  0
SPLINE
  5
593
100
AcDbEntity
  8
0
100
AcDbSpline
 62
7
  6
CONTINUOUS
 70
0
 71
3
 72
8
 73
4
 74
0
 42
0.0000001
 43
0.0000001
 44
0.0000000001
 40
0.0
 40
0.0
 40
0.0
 40
0.0
 40
1.0
 40
1.0
 40
1.0
 40
1.0
 10
120.578361002
 20
94.787914042
 30
0.0
 10
120.4532240364
 20
94.6216934747
 30
0.0
 10
120.3593385258
 20
94.4270898435
 30
0.0
 10
120.3073997343
 20
94.2256180115
 30
0.0
  0
SPLINE
  5
594
100
AcDbEntity
  8
0
100
AcDbSpline
 62
7
  6
CONTINUOUS
 70
0
 71
3
 72
8
 73
4
 74
0
 42
0.0000001
 43
0.0000001
 44
0.0000000001
 40
0.0
 40
0.0
 40
0.0
 40
0.0
 40
1.0
 40
1.0
 40
1.0
 40
1.0
 10
120.3073997343
 20
94.2256180115
 30
0.0
 10
120.2554517731
 20
94.0241106104
 30
0.0
 10
120.2431064416
 20
93.8084073748
 30
0.0
 10
120.2720407349
 20
93.6023330434
 30
0.0
  0
LINE
  5
595
100
AcDbEntity
  8
0
100
AcDbLine
 62
7
  6
CONTINUOUS
 10
126.1605501287
 20
96.0218005592
 11
126.0283544207
 21
96.0032177892
  0
LINE
  5
596
100
AcDbEntity
  8
0
100
AcDbLine
 62
7
  6
CONTINUOUS
 10
126.0283544207
 20
96.0032177892
 11
125.5270754877
 21
95.9330014882
  0
SPLINE
  5
597
100
AcDbEntity
  8
0
100
AcDbSpline
 62
7
  6
CONTINUOUS
 70
0
 71
3
 72
9
 73
5
 74
0
 42
0.0000001
 43
0.0000001
 44
0.0000000001
 40
0.0
 40
0.0
 40
0.0
 40
0.0
 40
0.3099419972
 40
1.0
 40
1.0
 40
1.0
 40
1.0
 10
123.7921028359
 20
95.6933299153
 30
0.0
 10
123.6444307464
 20
95.6732019972
 30
0.0
 10
123.1679314192
 20
95.6086290815
 30
0.0
 10
122.6913396525
 20
95.544667848
 30
0.0
 10
122.3621506735
 20
95.5029759699
 30
0.0
  0
SPLINE
  5
598
100
AcDbEntity
  8
0
100
AcDbSpline
 62
7
  6
CONTINUOUS
 70
0
 71
3
 72
9
 73
5
 74
0
 42
0.0000001
 43
0.0000001
 44
0.0000000001
 40
0.0
 40
0.0
 40
0.0
 40
0.0
 40
0.3133335959
 40
1.0
 40
1.0
 40
1.0
 40
1.0
 10
122.3621506735
 20
95.5029759699
 30
0.0
 10
122.3342107849
 20
95.4994373751
 30
0.0
 10
122.2450282827
 20
95.4882507461
 30
0.0
 10
122.1558128401
 20
95.4772877207
 30
0.0
 10
122.0944669019
 20
95.4705118483
 30
0.0
  0
SPLINE
  5
599
100
AcDbEntity
  8
0
100
AcDbSpline
 62
7
  6
CONTINUOUS
 70
0
 71
3
 72
9
 73
5
 74
0
 42
0.0000001
 43
0.0000001
 44
0.0000000001
 40
0.0
 40
0.0
 40
0.0
 40
0.0
 40
0.3705358775
 40
1.0
 40
1.0
 40
1.0
 40
1.0
 10
122.0944669019
 20
95.4705118483
 30
0.0
 10
122.084780977
 20
95.4694420042
 30
0.0
 10
122.0586323525
 20
95.4668452538
 30
0.0
 10
122.0324531132
 20
95.4633738943
 30
0.0
 10
122.0158986548
 20
95.4633738943
 30
0.0
  0
SPLINE
  5
59A
100
AcDbEntity
  8
0
100
AcDbSpline
 62
7
  6
CONTINUOUS
 70
0
 71
3
 72
9
 73
5
 74
0
 42
0.0000001
 43
0.0000001
 44
0.0000000001
 40
0.0
 40
0.0
 40
0.0
 40
0.0
 40
0.2272604463
 40
1.0
 40
1.0
 40
1.0
 40
1.0
 10
118.8753027645
 20
95.4633738943
 30
0.0
 10
118.7956069246
 20
95.4633738943
 30
0.0
 10
119.5672811101
 20
95.5661838046
 30
0.0
 10
119.6463697778
 20
95.5875133753
 30
0.0
 10
119.9144670589
 20
95.6269673065
 30
0.0
  0
SPLINE
  5
59B
100
AcDbEntity
  8
0
100
AcDbSpline
 62
7
  6
CONTINUOUS
 70
0
 71
3
 72
9
 73
5
 74
0
 42
0.0000001
 43
0.0000001
 44
0.0000000001
 40
0.0
 40
0.0
 40
0.0
 40
0.0
 40
0.236185006
 40
1.0
 40
1.0
 40
1.0
 40
1.0
 10
119.9144670589
 20
95.6269673065
 30
0.0
 10
119.9502159021
 20
95.6322282044
 30
0.0
 10
120.1015812881
 20
95.6544626504
 30
0.0
 10
120.2529683671
 20
95.6765492931
 30
0.0
 10
120.3686092403
 20
95.6933562328
 30
0.0
  0
LINE
  5
59C
100
AcDbEntity
  8
0
100
AcDbLine
 62
7
  6
CONTINUOUS
 10
120.3686092403
 20
95.6933562328
 11
120.8838998778
 21
95.7678606987
  0
LINE
  5
59D
100
AcDbEntity
  8
0
100
AcDbLine
 62
7
  6
CONTINUOUS
 10
120.8838998778
 20
95.7678606987
 11
121.0157056598
 21
95.7868093986
  0
LINE
  5
59E
100
AcDbEntity
  8
0
100
AcDbLine
 62
7
  6
CONTINUOUS
 10
121.0155770617
 20
95.7894362401
 11
120.6943037145
 21
95.7433065736
  0
SPLINE
  5
59F
100
AcDbEntity
  8
0
100
AcDbSpline
 62
7
  6
CONTINUOUS
 70
0
 71
3
 72
9
 73
5
 74
0
 42
0.0000001
 43
0.0000001
 44
0.0000000001
 40
0.0
 40
0.0
 40
0.0
 40
0.0
 40
0.6800620618
 40
1.0
 40
1.0
 40
1.0
 40
1.0
 10
120.6943037145
 20
95.7433065736
 30
0.0
 10
120.2003224035
 20
95.6722150879
 30
0.0
 10
119.4750772934
 20
95.5614416975
 30
0.0
 10
118.7475341853
 20
95.4619069464
 30
0.0
 10
118.5170272108
 20
95.4172662798
 30
0.0
  0
SPLINE
  5
5A0
100
AcDbEntity
  8
0
100
AcDbSpline
 62
7
  6
CONTINUOUS
 70
0
 71
3
 72
9
 73
5
 74
0
 42
0.0000001
 43
0.0000001
 44
0.0000000001
 40
0.0
 40
0.0
 40
0.0
 40
0.0
 40
0.2880039255
 40
1.0
 40
1.0
 40
1.0
 40
1.0
 10
121.6324965972
 20
95.409438915
 30
0.0
 10
121.7239758011
 20
95.409438915
 30
0.0
 10
122.0386628535
 20
95.4649705898
 30
0.0
 10
122.3539386832
 20
95.4968481476
 30
0.0
 10
122.5781277915
 20
95.5265842917
 30
0.0
  0
SPLINE
  5
5A1
100
AcDbEntity
  8
0
100
AcDbSpline
 62
7
  6
CONTINUOUS
 70
0
 71
3
 72
8
 73
4
 74
0
 42
0.0000001
 43
0.0000001
 44
0.0000000001
 40
0.0
 40
0.0
 40
0.0
 40
0.0
 40
1.0
 40
1.0
 40
1.0
 40
1.0
 10
288.240465555
 20
430.9208303367
 30
0.0
 10
288.5063533863
 20
430.793930144
 30
0.0
 10
288.8079483563
 20
430.725826816
 30
0.0
 10
289.1025667272
 20
430.7259417831
 30
0.0
  0
LINE
  5
5A2
100
AcDbEntity
  8
0
100
AcDbLine
 62
7
  6
CONTINUOUS
 10
286.1385046873
 20
431.0184486783
 11
286.1380929511
 21
430.4153792647
  0
LINE
  5
5A3
100
AcDbEntity
  8
0
100
AcDbLine
 62
7
  6
CONTINUOUS
 10
280.0818221898
 20
430.2258312737
 11
280.082777628
 21
430.9258312735
  0
LINE
  5
5A4
100
AcDbEntity
  8
0
100
AcDbLine
 62
7
  6
CONTINUOUS
 10
298.1673140949
 20
430.2258312737
 11
298.1631659545
 21
430.9258312735
  0
LINE
  5
5A5
100
AcDbEntity
  8
0
100
AcDbLine
 62
7
  6
CONTINUOUS
 10
287.4783519827
 20
430.844228147
 11
287.4780002789
 21
430.3285018421
  0
SPLINE
  5
5A6
100
AcDbEntity
  8
0
100
AcDbSpline
 62
7
  6
CONTINUOUS
 70
0
 71
3
 72
9
 73
5
 74
0
 42
0.0000001
 43
0.0000001
 44
0.0000000001
 40
0.0
 40
0.0
 40
0.0
 40
0.0
 40
0.2103159155
 40
1.0
 40
1.0
 40
1.0
 40
1.0
 10
166.4827418934
 20
79.5424305662
 30
0.0
 10
166.5219600499
 20
79.5702220166
 30
0.0
 10
166.693912115
 20
79.7229172772
 30
0.0
 10
166.8087766254
 20
79.9290373711
 30
0.0
 10
166.8814468107
 20
80.0942397903
 30
0.0
  0
SPLINE
  5
5A7
100
AcDbEntity
  8
0
100
AcDbSpline
 62
7
  6
CONTINUOUS
 70
0
 71
3
 72
8
 73
4
 74
0
 42
0.0000001
 43
0.0000001
 44
0.0000000001
 40
0.0
 40
0.0
 40
0.0
 40
0.0
 40
1.0
 40
1.0
 40
1.0
 40
1.0
 10
166.8814468107
 20
80.0942397903
 30
0.0
 10
166.9197040352
 20
80.1812106161
 30
0.0
 10
166.9529751144
 20
80.270469442
 30
0.0
 10
166.9822513327
 20
80.3608599438
 30
0.0
  0
SPLINE
  5
5A8
100
AcDbEntity
  8
0
100
AcDbSpline
 62
7
  6
CONTINUOUS
 70
0
 71
3
 72
9
 73
5
 74
0
 42
0.0000001
 43
0.0000001
 44
0.0000000001
 40
0.0
 40
0.0
 40
0.0
 40
0.0
 40
0.7437349722
 40
1.0
 40
1.0
 40
1.0
 40
1.0
 10
157.2044789559
 20
86.1301380888
 30
0.0
 10
156.9644375248
 20
86.3132216191
 30
0.0
 10
156.5683062186
 20
86.4764612447
 30
0.0
 10
156.163071199
 20
86.5068162841
 30
0.0
 10
156.0590493946
 20
86.5068162841
 30
0.0
  0
SPLINE
  5
5A9
100
AcDbEntity
  8
0
100
AcDbSpline
 62
7
  6
CONTINUOUS
 70
0
 71
3
 72
10
 73
6
 74
0
 42
0.0000001
 43
0.0000001
 44
0.0000000001
 40
0.0
 40
0.0
 40
0.0
 40
0.0
 40
0.5328804151
 40
0.7736913806
 40
1.0
 40
1.0
 40
1.0
 40
1.0
 10
428.4087231248
 20
368.758589588
 30
0.0
 10
428.0280772811
 20
368.6900261829
 30
0.0
 10
427.474372475
 20
368.4319223932
 30
0.0
 10
427.0568893644
 20
367.8190509907
 30
0.0
 10
426.9960217507
 20
367.4719859849
 30
0.0
 10
427.0052094497
 20
367.3079854144
 30
0.0
  0
SPLINE
  5
5AA
100
AcDbEntity
  8
0
100
AcDbSpline
 62
7
  6
CONTINUOUS
 70
0
 71
3
 72
10
 73
6
 74
0
 42
0.0000001
 43
0.0000001
 44
0.0000000001
 40
0.0
 40
0.0
 40
0.0
 40
0.0
 40
0.5338291329
 40
0.7747842477
 40
1.0
 40
1.0
 40
1.0
 40
1.0
 10
430.7678281818
 20
366.0202765032
 30
0.0
 10
431.179893603
 20
366.0202765032
 30
0.0
 10
431.810648289
 20
366.195738799
 30
0.0
 10
432.3465923114
 20
366.7758498239
 30
0.0
 10
432.4586164062
 20
367.1344123969
 30
0.0
 10
432.4683403762
 20
367.3079854144
 30
0.0
  0
SPLINE
  5
5AB
100
AcDbEntity
  8
0
100
AcDbSpline
 62
7
  6
CONTINUOUS
 70
0
 71
3
 72
8
 73
4
 74
0
 42
0.0000001
 43
0.0000001
 44
0.0000000001
 40
0.0
 40
0.0
 40
0.0
 40
0.0
 40
1.0
 40
1.0
 40
1.0
 40
1.0
 10
430.6200675071
 20
427.9758312734
 30
0.0
 10
430.2350713113
 20
427.9758312734
 30
0.0
 10
429.830874253
 20
427.8342363753
 30
0.0
 10
429.5300139032
 20
427.5940174736
 30
0.0
  0
SPLINE
  5
5AC
100
AcDbEntity
  8
0
100
AcDbSpline
 62
7
  6
CONTINUOUS
 70
0
 71
3
 72
8
 73
4
 74
0
 42
0.0000001
 43
0.0000001
 44
0.0000000001
 40
0.0
 40
0.0
 40
0.0
 40
0.0
 40
1.0
 40
1.0
 40
1.0
 40
1.0
 10
429.5300139032
 20
427.5940174736
 30
0.0
 10
429.3272317027
 20
427.4321080777
 30
0.0
 10
429.1576289043
 20
427.2188397525
 30
0.0
 10
429.0451108175
 20
426.985012993
 30
0.0
  0
SPLINE
  5
5AD
100
AcDbEntity
  8
0
100
AcDbSpline
 62
7
  6
CONTINUOUS
 70
0
 71
3
 72
8
 73
4
 74
0
 42
0.0000001
 43
0.0000001
 44
0.0000000001
 40
0.0
 40
0.0
 40
0.0
 40
0.0
 40
1.0
 40
1.0
 40
1.0
 40
1.0
 10
428.9155675126
 20
426.6152429079
 30
0.0
 10
428.8438676789
 20
426.3010865157
 30
0.0
 10
428.8630051996
 20
425.9542502349
 30
0.0
 10
428.9692375198
 20
425.6500302502
 30
0.0
  0
SPLINE
  5
5AE
100
AcDbEntity
  8
0
100
AcDbSpline
 62
7
  6
CONTINUOUS
 70
0
 71
3
 72
8
 73
4
 74
0
 42
0.0000001
 43
0.0000001
 44
0.0000000001
 40
0.0
 40
0.0
 40
0.0
 40
0.0
 40
1.0
 40
1.0
 40
1.0
 40
1.0
 10
141.1007885588
 20
91.5667674448
 30
0.0
 10
141.3287493471
 20
91.4877154252
 30
0.0
 10
141.5727700458
 20
91.4434864944
 30
0.0
 10
141.8140486043
 20
91.4434864944
 30
0.0
  0
SPLINE
  5
5AF
100
AcDbEntity
  8
0
100
AcDbSpline
 62
7
  6
CONTINUOUS
 70
0
 71
3
 72
9
 73
5
 74
0
 42
0.0000001
 43
0.0000001
 44
0.0000000001
 40
0.0
 40
0.0
 40
0.0
 40
0.0
 40
0.5151042499
 40
1.0
 40
1.0
 40
1.0
 40
1.0
 10
153.5958061584
 20
84.2375393203
 30
0.0
 10
153.5489609566
 20
83.8802549999
 30
0.0
 10
153.6121223716
 20
83.150450297
 30
0.0
 10
154.0488362895
 20
82.5506548605
 30
0.0
 10
154.3185490102
 20
82.3449405518
 30
0.0
  0
SPLINE
  5
5B0
100
AcDbEntity
  8
0
100
AcDbSpline
 62
7
  6
CONTINUOUS
 70
0
 71
3
 72
9
 73
5
 74
0
 42
0.0000001
 43
0.0000001
 44
0.0000000001
 40
0.0
 40
0.0
 40
0.0
 40
0.0
 40
0.4910625989
 40
1.0
 40
1.0
 40
1.0
 40
1.0
 10
156.0590493946
 20
86.5068162841
 30
0.0
 10
155.4758193293
 20
86.5068162841
 30
0.0
 10
154.2736334141
 20
85.9827273681
 30
0.0
 10
153.6743871139
 20
84.8368695022
 30
0.0
 10
153.5958061584
 20
84.2375393203
 30
0.0
  0
SPLINE
  5
5B1
100
AcDbEntity
  8
0
100
AcDbSpline
 62
7
  6
CONTINUOUS
 70
0
 71
3
 72
9
 73
5
 74
0
 42
0.0000001
 43
0.0000001
 44
0.0000000001
 40
0.0
 40
0.0
 40
0.0
 40
0.0
 40
0.5581634991
 40
1.0
 40
1.0
 40
1.0
 40
1.0
 10
167.1521421579
 20
82.4899892263
 30
0.0
 10
167.118533151
 20
82.7687231968
 30
0.0
 10
167.0197726032
 20
83.2633651866
 30
0.0
 10
166.8135799297
 20
83.7338172452
 30
0.0
 10
166.6797548505
 20
83.9112488159
 30
0.0
  0
SPLINE
  5
5B2
100
AcDbEntity
  8
0
100
AcDbSpline
 62
7
  6
CONTINUOUS
 70
0
 71
3
 72
8
 73
4
 74
0
 42
0.0000001
 43
0.0000001
 44
0.0000000001
 40
0.0
 40
0.0
 40
0.0
 40
0.0
 40
1.0
 40
1.0
 40
1.0
 40
1.0
 10
166.6797548505
 20
83.9112488159
 30
0.0
 10
166.6284157339
 20
83.9793166262
 30
0.0
 10
166.5697456158
 20
84.0434158639
 30
0.0
 10
166.5019456879
 20
84.0951082372
 30
0.0
  0
SPLINE
  5
5B3
100
AcDbEntity
  8
0
100
AcDbSpline
 62
7
  6
CONTINUOUS
 70
0
 71
3
 72
8
 73
4
 74
0
 42
0.0000001
 43
0.0000001
 44
0.0000000001
 40
0.0
 40
0.0
 40
0.0
 40
0.0
 40
1.0
 40
1.0
 40
1.0
 40
1.0
 10
166.5019456879
 20
84.0951082372
 30
0.0
 10
166.4382784581
 20
84.1436497373
 30
0.0
 10
166.3632797867
 20
84.1821043347
 30
0.0
 10
166.2847358108
 20
84.197616821
 30
0.0
  0
SPLINE
  5
5B4
100
AcDbEntity
  8
0
100
AcDbSpline
 62
7
  6
CONTINUOUS
 70
0
 71
3
 72
9
 73
5
 74
0
 42
0.0000001
 43
0.0000001
 44
0.0000000001
 40
0.0
 40
0.0
 40
0.0
 40
0.0
 40
0.6094425354
 40
1.0
 40
1.0
 40
1.0
 40
1.0
 10
166.9822513327
 20
80.3608599438
 30
0.0
 10
166.9292018686
 20
80.1567208697
 30
0.0
 10
166.822540098
 20
79.8329295203
 30
0.0
 10
166.6055231128
 20
79.5280870547
 30
0.0
 10
166.4827767932
 20
79.4714893593
 30
0.0
  0
SPLINE
  5
5B5
100
AcDbEntity
  8
0
100
AcDbSpline
 62
7
  6
CONTINUOUS
 70
0
 71
3
 72
8
 73
4
 74
0
 42
0.0000001
 43
0.0000001
 44
0.0000000001
 40
0.0
 40
0.0
 40
0.0
 40
0.0
 40
1.0
 40
1.0
 40
1.0
 40
1.0
 10
166.4824585762
 20
71.5758312734
 30
0.0
 10
164.6694581353
 20
68.5774090906
 30
0.0
 10
162.8591797619
 20
65.5773397146
 30
0.0
 10
161.0512933542
 20
62.5758312734
 30
0.0
  0
SPLINE
  5
5B6
100
AcDbEntity
  8
0
100
AcDbSpline
 62
7
  6
CONTINUOUS
 70
0
 71
3
 72
11
 73
7
 74
0
 42
0.0000001
 43
0.0000001
 44
0.0000000001
 40
0.0
 40
0.0
 40
0.0
 40
0.0
 40
0.3830334059
 40
0.6960958122
 40
0.9020542013
 40
1.0
 40
1.0
 40
1.0
 40
1.0
 10
405.7960437543
 20
449.9258312734
 30
0.0
 10
405.7960437543
 20
450.1266137989
 30
0.0
 10
405.8092414926
 20
450.4887820839
 30
0.0
 10
405.8823501476
 20
450.9682026037
 30
0.0
 10
405.9543511188
 20
451.2605680715
 30
0.0
 10
406.0621643596
 20
451.4258312734
 30
0.0
 10
406.1135066304
 20
451.4258312734
 30
0.0
  0
SPLINE
  5
5B7
100
AcDbEntity
  8
0
100
AcDbSpline
 62
7
  6
CONTINUOUS
 70
0
 71
3
 72
9
 73
5
 74
0
 42
0.0000001
 43
0.0000001
 44
0.0000000001
 40
0.0
 40
0.0
 40
0.0
 40
0.0
 40
0.5608950833
 40
1.0
 40
1.0
 40
1.0
 40
1.0
 10
410.8446261342
 20
449.9258312734
 30
0.0
 10
410.8446261342
 20
450.1620977567
 30
0.0
 10
410.8188196554
 20
450.5826556727
 30
0.0
 10
410.7375252278
 20
451.0007802419
 30
0.0
 10
410.6700530324
 20
451.1729993823
 30
0.0
  0
SPLINE
  5
5B8
100
AcDbEntity
  8
0
100
AcDbSpline
 62
7
  6
CONTINUOUS
 70
0
 71
3
 72
9
 73
5
 74
0
 42
0.0000001
 43
0.0000001
 44
0.0000000001
 40
0.0
 40
0.0
 40
0.0
 40
0.0
 40
0.3099962442
 40
1.0
 40
1.0
 40
1.0
 40
1.0
 10
410.6700530324
 20
451.1729993823
 30
0.0
 10
410.6600179001
 20
451.1986135165
 30
0.0
 10
410.6248945014
 20
451.2793449962
 30
0.0
 10
410.5772048485
 20
451.3597557093
 30
0.0
 10
410.5284567854
 20
451.3968103548
 30
0.0
  0
SPLINE
  5
5B9
100
AcDbEntity
  8
0
100
AcDbSpline
 62
7
  6
CONTINUOUS
 70
0
 71
3
 72
8
 73
4
 74
0
 42
0.0000001
 43
0.0000001
 44
0.0000000001
 40
0.0
 40
0.0
 40
0.0
 40
0.0
 40
1.0
 40
1.0
 40
1.0
 40
1.0
 10
410.5284567854
 20
451.3968103548
 30
0.0
 10
410.5067147001
 20
451.4133370681
 30
0.0
 10
410.4791482463
 20
451.4258312734
 30
0.0
 10
410.4518379822
 20
451.4258312734
 30
0.0
  0
ELLIPSE
  5
5BA
100
AcDbEntity
  8
0
100
AcDbEllipse
 62
7
  6
CONTINUOUS
 10
283.9756393841
 20
57.5758312734
 30
0.0
 11
109.9769285754
 21
109.9769285754
 31
0.0
 40
0.3888787319
 41
-1.1702484929
 42
-1.1651239404
  0
ELLIPSE
  5
5BB
100
AcDbEntity
  8
0
100
AcDbEllipse
 62
7
  6
CONTINUOUS
 10
283.9756393841
 20
57.5758312734
 30
0.0
 11
108.0067545361
 21
108.0067545361
 31
0.0
 40
0.4400105309
 41
-1.1266152616
 42
-1.113895058
  0
ELLIPSE
  5
5BC
100
AcDbEntity
  8
0
100
AcDbEllipse
 62
7
  6
CONTINUOUS
 10
283.9756393841
 20
57.5758312734
 30
0.0
 11
-109.9769285754
 21
109.9769285754
 31
0.0
 40
0.3888787319
 41
7.4438729221
 42
7.4534338001
  0
ELLIPSE
  5
5BD
100
AcDbEntity
  8
0
100
AcDbEllipse
 62
7
  6
CONTINUOUS
 10
283.9756393841
 20
57.5758312734
 30
0.0
 11
108.1129128368
 21
108.1129128368
 31
0.0
 40
0.3888787319
 41
1.8985619864
 42
1.9115017991
  0
ELLIPSE
  5
5BE
100
AcDbEntity
  8
0
100
AcDbEllipse
 62
7
  6
CONTINUOUS
 10
283.9756393841
 20
57.5758312734
 30
0.0
 11
-106.1761315779
 21
106.1761315779
 31
0.0
 40
0.4400105309
 41
4.3280502767
 42
4.3409900895
  0
ELLIPSE
  5
5BF
100
AcDbEntity
  8
0
100
AcDbEllipse
 62
7
  6
CONTINUOUS
 10
283.9756393841
 20
57.5758312734
 30
0.0
 11
-108.1129128368
 21
108.1129128368
 31
0.0
 40
0.3888787319
 41
-1.9115017991
 42
-1.8985619864
  0
ELLIPSE
  5
5C0
100
AcDbEntity
  8
0
100
AcDbEllipse
 62
7
  6
CONTINUOUS
 10
283.9756393841
 20
57.5758312734
 30
0.0
 11
106.1761315779
 21
106.1761315779
 31
0.0
 40
0.4400105309
 41
-4.3332633058
 42
-4.3280502767
  0
ELLIPSE
  5
5C1
100
AcDbEntity
  8
0
100
AcDbEllipse
 62
7
  6
CONTINUOUS
 10
132.6571566701
 20
68.9551416183
 30
0.0
 11
3.9999570752
 21
1.3782614868
 31
0.0
 40
0.0134451743
 41
1.6097968
 42
3.1355642265
  0
ELLIPSE
  5
5C2
100
AcDbEntity
  8
0
100
AcDbEllipse
 62
7
  6
CONTINUOUS
 10
200.4766397861
 20
-55.6773441996
 30
0.0
 11
169.55244936
 21
187.9465318007
 31
0.0
 40
0.3312774908
 41
1.2141476663
 42
1.2236974785
  0
ELLIPSE
  5
5C3
100
AcDbEntity
  8
0
100
AcDbEllipse
 62
7
  6
CONTINUOUS
 10
207.4629030532
 20
-55.6773441996
 30
0.0
 11
162.9179300546
 21
186.2234670353
 31
0.0
 40
0.3783587695
 41
7.5298486081
 42
7.5361322039
  0
ELLIPSE
  5
5C4
100
AcDbEntity
  8
0
100
AcDbEllipse
 62
7
  6
CONTINUOUS
 10
283.9756393841
 20
120.6792795493
 30
0.0
 11
124.9986585994
 21
43.0706714628
 31
0.0
 40
0.0134451743
 41
-2.8013136172
 42
-2.7978995263
  0
ELLIPSE
  5
5C5
100
AcDbEntity
  8
0
100
AcDbEllipse
 62
7
  6
CONTINUOUS
 10
361.8395561304
 20
-57.6773441996
 30
0.0
 11
-165.7949872209
 21
189.5120894736
 31
0.0
 40
0.3783587695
 41
0.604639045
 42
0.6140198415
  0
ELLIPSE
  5
5C6
100
AcDbEntity
  8
0
100
AcDbEllipse
 62
7
  6
CONTINUOUS
 10
368.9491936558
 20
-57.6773441996
 30
0.0
 11
-172.546669145
 21
191.2655827856
 31
0.0
 40
0.3312774908
 41
0.6338884632
 42
0.6432692597
  0
ELLIPSE
  5
5C7
100
AcDbEntity
  8
0
100
AcDbEllipse
 62
7
  6
CONTINUOUS
 10
199.0020851125
 20
-57.6773441996
 30
0.0
 11
172.546669145
 21
191.2655827856
 31
0.0
 40
0.3312774908
 41
-0.6432692597
 42
-0.6370967321
  0
ELLIPSE
  5
5C8
100
AcDbEntity
  8
0
100
AcDbEllipse
 62
7
  6
CONTINUOUS
 10
206.1117226379
 20
-57.6773441996
 30
0.0
 11
165.7949872209
 21
189.5120894736
 31
0.0
 40
0.3783587695
 41
-0.6140198415
 42
-0.604639045
  0
ELLIPSE
  5
5C9
100
AcDbEntity
  8
0
100
AcDbEllipse
 62
7
  6
CONTINUOUS
 10
360.4883757151
 20
-55.6773441996
 30
0.0
 11
-162.9179300546
 21
186.2234670353
 31
0.0
 40
0.3783587695
 41
-1.2529468967
 42
-1.2433970846
  0
ELLIPSE
  5
5CA
100
AcDbEntity
  8
0
100
AcDbEllipse
 62
7
  6
CONTINUOUS
 10
271.8809543452
 20
32.0733903949
 30
0.0
 11
36.3305944977
 21
932.7332106737
 31
0.0
 40
0.1405091759
 41
5.1455246497
 42
5.1531965343
  0
ELLIPSE
  5
5CB
100
AcDbEntity
  8
0
100
AcDbEllipse
 62
7
  6
CONTINUOUS
 10
271.8809543452
 20
32.0733903949
 30
0.0
 11
36.3305944977
 21
932.7332106737
 31
0.0
 40
0.1405091759
 41
5.1069726858
 42
5.1337737006
  0
ELLIPSE
  5
5CC
100
AcDbEntity
  8
0
100
AcDbEllipse
 62
7
  6
CONTINUOUS
 10
283.9756393841
 20
57.5758312734
 30
0.0
 11
-108.0067545361
 21
108.0067545361
 31
0.0
 40
0.4400105309
 41
-1.9556466563
 42
-1.9429264527
  0
ELLIPSE
  5
5CD
100
AcDbEntity
  8
0
100
AcDbEllipse
 62
7
  6
CONTINUOUS
 10
283.9756393841
 20
57.5758312734
 30
0.0
 11
109.9769285754
 21
109.9769285754
 31
0.0
 40
0.3888787319
 41
-4.3838920858
 42
-4.3711718822
  0
ELLIPSE
  5
5CE
100
AcDbEntity
  8
0
100
AcDbEllipse
 62
7
  6
CONTINUOUS
 10
283.9756393841
 20
50.2994086568
 30
0.0
 11
33.1249538067
 21
850.4332214966
 31
0.0
 40
0.1405091759
 41
-1.1300126988
 42
-1.1170050492
  0
ELLIPSE
  5
5CF
100
AcDbEntity
  8
0
100
AcDbEllipse
 62
7
  6
CONTINUOUS
 10
430.7555092072
 20
426.2258312734
 30
0.0
 11
0.5414088986
 21
1.9272264525
 31
0.0
 40
0.987425539
 41
4.5287088285
 42
8.6331179652
  0
ELLIPSE
  5
5D0
100
AcDbEntity
  8
0
100
AcDbEllipse
 62
7
  6
CONTINUOUS
 10
431.0355533769
 20
426.9258312734
 30
0.0
 11
0.0
 21
4.5
 31
0.0
 40
0.9892338594
 41
-0.7142945546
 42
0.0
  0
ELLIPSE
  5
5D1
100
AcDbEntity
  8
0
100
AcDbEllipse
 62
7
  6
CONTINUOUS
 10
283.9756393841
 20
120.6792795493
 30
0.0
 11
124.9986585994
 21
43.0706714628
 31
0.0
 40
0.0134451743
 41
3.0129715488
 42
3.4383002343
  0
ELLIPSE
  5
5D2
100
AcDbEntity
  8
0
100
AcDbEllipse
 62
7
  6
CONTINUOUS
 10
360.4883757151
 20
-55.6773441996
 30
0.0
 11
-162.9179300546
 21
186.2234670353
 31
0.0
 40
0.3783587695
 41
0.6040847803
 42
0.6136345925
  0
ELLIPSE
  5
5D3
100
AcDbEntity
  8
0
100
AcDbEllipse
 62
7
  6
CONTINUOUS
 10
144.1088883627
 20
72.4034174803
 30
0.0
 11
5.4999409784
 21
1.8951095444
 31
0.0
 40
0.0134451743
 41
8.6272660571
 42
14.7120645993
  0
ELLIPSE
  5
5D4
100
AcDbEntity
  8
0
100
AcDbEllipse
 62
7
  6
CONTINUOUS
 10
135.5796556236
 20
68.9551416183
 30
0.0
 11
3.9999570752
 21
1.3782614868
 31
0.0
 40
0.0134451743
 41
-3.1025921804
 42
-1.5317958536
  0
ELLIPSE
  5
5D5
100
AcDbEntity
  8
0
100
AcDbEllipse
 62
7
  6
CONTINUOUS
 10
199.0020851125
 20
-57.6773441996
 30
0.0
 11
172.546669145
 21
191.2655827856
 31
0.0
 40
0.3312774908
 41
1.2147019309
 42
1.2240827274
  0
ELLIPSE
  5
5D6
100
AcDbEntity
  8
0
100
AcDbEllipse
 62
7
  6
CONTINUOUS
 10
200.4766397861
 20
-55.6773441996
 30
0.0
 11
169.55244936
 21
187.9465318007
 31
0.0
 40
0.3312774908
 41
-0.6428840108
 42
-0.6412950298
  0
ELLIPSE
  5
5D7
100
AcDbEntity
  8
0
100
AcDbEllipse
 62
7
  6
CONTINUOUS
 10
361.8395561304
 20
-57.6773441996
 30
0.0
 11
-165.7949872209
 21
189.5120894736
 31
0.0
 40
0.3783587695
 41
-1.2533321457
 42
-1.2439513492
  0
ELLIPSE
  5
5D8
100
AcDbEntity
  8
0
100
AcDbEllipse
 62
7
  6
CONTINUOUS
 10
283.9756393841
 20
57.5758312734
 30
0.0
 11
108.1129128368
 21
108.1129128368
 31
0.0
 40
0.3888787319
 41
-1.169736867
 42
-1.1567970543
  0
ENDSEC
  0
SECTION
  2
OBJECTS
  0
DICTIONARY
  5
C
100
AcDbDictionary
280
0
281
1
  3
ACAD_GROUP
350
D
  3
ACAD_MLINESTYLE
350
17
  3
ACAD_LAYOUT
350
1A
  3
ACAD_PLOTSETTINGS
350
19
  3
ACAD_PLOTSTYLENAME
350
E
  0
DICTIONARY
  5
D
102
{ACAD_REACTORS
330
C
102
}
100
AcDbDictionary
280
0
281
1
  0
ACDBDICTIONARYWDFLT
  5
E
102
{ACAD_REACTORS
330
C
102
}
100
AcDbDictionary
281
1
  3
Normal
350
F
100
AcDbDictionaryWithDefault
340
F
  0
DICTIONARY
  5
17
102
{ACAD_REACTORS
330
C
102
}
100
AcDbDictionary
280
0
281
1
  3
Standard
350
18
  0
DICTIONARY
  5
19
102
{ACAD_REACTORS
330
C
102
}
100
AcDbDictionary
281
1
  0
DICTIONARY
  5
1A
102
{ACAD_REACTORS
330
C
102
}
100
AcDbDictionary
281
1
  3
Model
350
5D9
  3
Layout1
350
5DA
  0
ACDBPLACEHOLDER
  5
F
102
{ACAD_REACTORS
330
E
102
}
  0
MLINESTYLE
  5
18
102
{ACAD_REACTORS
330
17
102
}
100
AcDbMlineStyle
  2
STANDARD
 70
0
  3

 62
256
 51
90.0
 52
90.0
 71
2
 49
0.5
 62
256
  6
BYLAYER
 49
-0.5
 62
256
  6
BYLAYER
  0
LAYOUT
  5
5D9
102
{ACAD_REACTORS
330
1A
102
}
100
AcDbPlotSettings
  1

  2
none_device
  4

  6

 40
0.0
 41
0.0
 42
0.0
 43
0.0
 44
558.8
 45
550.0
 46
0.0
 47
0.0
 48
0.0
 49
0.0
140
0.0
141
0.0
142
1.0
143
1.0
 70
1024
 72
1
 73
0
 74
0
  7

 75
0
147
1.0
148
0.0
149
0.0
100
AcDbLayout
  1
Model
 70
0
 71
0
 10
0.0
 20
0.0
 11
558.8
 21
550.0
 12
0.0
 22
0.0
 32
0.0
 14
0.0
 24
0.0
 34
0.0
 15
0.0
 25
0.0
 35
0.0
146
0.0
 13
0.0
 23
0.0
 33
0.0
 16
1.0
 26
0.0
 36
0.0
 17
0.0
 27
1.0
 37
0.0
 76
0
330
20E
345
0
346
0
  0
LAYOUT
  5
5DA
102
{ACAD_REACTORS
330
1A
102
}
100
AcDbPlotSettings
  1

  2
none_device
  4

  6

 40
0.0
 41
0.0
 42
0.0
 43
0.0
 44
558.8
 45
550.0
 46
0.0
 47
0.0
 48
0.0
 49
0.0
140
0.0
141
0.0
142
1.0
143
1.0
 70
0
 72
1
 73
0
 74
0
  7

 75
0
147
1.0
148
0.0
149
0.0
100
AcDbLayout
  1
Layout1
 70
0
 71
1
 10
0.0
 20
0.0
 11
558.8
 21
550.0
 12
0.0
 22
0.0
 32
0.0
 14
0.0
 24
0.0
 34
0.0
 15
0.0
 25
0.0
 35
0.0
146
0.0
 13
0.0
 23
0.0
 33
0.0
 16
1.0
 26
0.0
 36
0.0
 17
0.0
 27
1.0
 37
0.0
 76
0
330
20F
345
0
346
0
  0
ENDSEC
  0
EOF
