999
DXF file: S:\Engenharia\Wildfire\Engenharia\Produtos\Lixeiras\94538105\94538105.dxf
999
Pro/ENGINEER 2013150 by Parametric Technology Corporation
  0
SECTION
  2
HEADER
  9
$ACADVER
  1
AC1021
  9
$DWGCODEPAGE
  3
ANSI_1252
  9
$EXTMAX
 10
700.0
 20
700.0
 30
0.0
  9
$EXTMIN
 10
0.0
 20
0.0
 30
0.0
  9
$LIMMIN
 10
0.0
 20
0.0
  9
$LIMMAX
 10
700.0
 20
700.0
  9
$VIEWCTR
 10
350.0
 20
350.0
  9
$VIEWSIZE
 40
700.0
  9
$CLAYER
  8
0
  9
$LTSCALE
 40
45.6296296296
  9
$CELTYPE
  6
BYLAYER
  9
$DIMSCALE
 40
1.0
  9
$DIMASZ
 40
3.0
  9
$DIMEXO
 40
0.5
  9
$DIMDLI
 40
31.5259259259
  9
$DIMEXE
 40
0.5
  9
$DIMCEN
 40
7.4666666667
  9
$DIMLFAC
 40
1.0
  9
$DIMBLK
  1
_FILLED
  9
$DIMTXT
 40
1.8
  9
$DIMTOL
 70
1
  9
$DIMLIM
 70
0
  9
$DIMTFAC
 40
1.0
  9
$DIMTP
 40
0.001
  9
$DIMTM
 40
0.001
  9
$DIMGAP
 40
0.625
  9
$DIMDSEP
 70
46
  9
$PDMODE
 70
3
  9
$PDSIZE
 40
1.0
  9
$HANDSEED
  5
6EB
  9
$TILEMODE
 70
1
  9
$MEASUREMENT
 70
1
  9
$INSUNITS
 70
4
  0
ENDSEC
  0
SECTION
  2
CLASSES
  0
CLASS
  1
ACDBDICTIONARYWDFLT
  2
AcDbDictionaryWithDefault
  3
AutoCAD 2000
 90
0
 91
1
280
0
281
0
  0
CLASS
  1
ACDBPLACEHOLDER
  2
AcDbPlaceHolder
  3
AutoCAD 2000
 90
0
 91
1
280
0
281
0
  0
CLASS
  1
LAYOUT
  2
AcDbLayout
  3
AutoCAD 2000
 90
0
 91
0
280
0
281
0
  0
ENDSEC
  0
SECTION
  2
TABLES
  0
TABLE
  2
VPORT
  5
8
100
AcDbSymbolTable
 70
2
  0
VPORT
  5
1F4
100
AcDbSymbolTableRecord
100
AcDbViewportTableRecord
  2
*ACTIVE
 70
0
 10
0.0
 20
0.0
 11
1.0
 21
1.0
 12
350.0
 22
350.0
 13
0.0
 23
0.0
 14
1.0
 24
1.0
 15
0.0
 25
0.0
 16
0.0
 26
0.0
 36
1.0
 17
0.0
 27
0.0
 37
0.0
 40
700.0
 41
1.0
 42
50.0
 43
0.0
 44
0.0
 50
0.0
 51
0.0
 71
0
 72
100
 73
1
 74
1
 75
0
 76
0
 77
0
 78
0
  0
ENDTAB
  0
TABLE
  2
LTYPE
  5
5
100
AcDbSymbolTable
 70
6
  0
LTYPE
  5
14
100
AcDbSymbolTableRecord
100
AcDbLinetypeTableRecord
  2
BYBLOCK
 70
0
  3

 72
65
 73
0
 40
0.0
  0
LTYPE
  5
15
100
AcDbSymbolTableRecord
100
AcDbLinetypeTableRecord
  2
BYLAYER
 70
0
  3

 72
65
 73
0
 40
0.0
  0
LTYPE
  5
16
100
AcDbSymbolTableRecord
100
AcDbLinetypeTableRecord
  2
CONTINUOUS
 70
64
  3
Solid line
 72
65
 73
0
 40
0.0
  0
LTYPE
  5
1F5
100
AcDbSymbolTableRecord
100
AcDbLinetypeTableRecord
  2
CENTER
 70
64
  3
____ _ ____ _ ____ _ ____ _ ____ _ ____ _ ____
 72
65
 73
4
 40
0.6
 49
0.375
 74
0
 49
-0.075
 74
0
 49
0.075
 74
0
 49
-0.075
 74
0
  0
LTYPE
  5
1F6
100
AcDbSymbolTableRecord
100
AcDbLinetypeTableRecord
  2
HIDDEN
 70
64
  3
- - - - - - - - - - - - - - - - - - - -
 72
65
 73
2
 40
0.2
 49
0.1
 74
0
 49
-0.1
 74
0
  0
LTYPE
  5
1F7
100
AcDbSymbolTableRecord
100
AcDbLinetypeTableRecord
  2
PHANTOM
 70
64
  3
_____ _ _ _____ _ _ _____ _ _ _____
 72
65
 73
6
 40
0.8
 49
0.45
 74
0
 49
-0.05
 74
0
 49
0.1
 74
0
 49
-0.05
 74
0
 49
0.1
 74
0
 49
-0.05
 74
0
  0
LTYPE
  5
1F8
100
AcDbSymbolTableRecord
100
AcDbLinetypeTableRecord
  2
DOT
 70
64
  3
. . . . . . . . . . . . . . . . . . . .
 72
65
 73
2
 40
0.2
 49
0.1
 74
0
 49
-0.1
 74
0
  0
LTYPE
  5
1F9
100
AcDbSymbolTableRecord
100
AcDbLinetypeTableRecord
  2
DASHED
 70
64
  3
- - - - - - - - - - - - - - - - - - - -
 72
65
 73
2
 40
0.2
 49
0.1
 74
0
 49
-0.1
 74
0
  0
ENDTAB
  0
TABLE
  2
LAYER
  5
2
100
AcDbSymbolTable
 70
36
  0
LAYER
  5
10
100
AcDbSymbolTableRecord
100
AcDbLayerTableRecord
  2
0
 70
0
 62
7
  6
CONTINUOUS
370
-3
390
F
  0
LAYER
  5
1FA
100
AcDbSymbolTableRecord
100
AcDbLayerTableRecord
  2
DEFAULT_1
 70
0
 62
7
  6
CENTER
370
-3
390
F
  0
LAYER
  5
1FB
100
AcDbSymbolTableRecord
100
AcDbLayerTableRecord
  2
DEFAULT_2
 70
0
 62
8
  6
HIDDEN
370
-3
390
F
  0
LAYER
  5
1FC
100
AcDbSymbolTableRecord
100
AcDbLayerTableRecord
  2
DEFAULT_3
 70
0
 62
7
  6
PHANTOM
370
-3
390
F
  0
LAYER
  5
1FD
100
AcDbSymbolTableRecord
100
AcDbLayerTableRecord
  2
01_ALL_DTM_PLN
 70
0
 62
7
  6
CONTINUOUS
370
-3
390
F
  0
LAYER
  5
1FE
100
AcDbSymbolTableRecord
100
AcDbLayerTableRecord
  2
01__ASM_ALL_DTM_PLN
 70
0
 62
7
  6
CONTINUOUS
370
-3
390
F
  0
LAYER
  5
1FF
100
AcDbSymbolTableRecord
100
AcDbLayerTableRecord
  2
01__ASM_DEF_DTM_PLN
 70
0
 62
7
  6
CONTINUOUS
370
-3
390
F
  0
LAYER
  5
200
100
AcDbSymbolTableRecord
100
AcDbLayerTableRecord
  2
01___PRT_ALL_DTM_PLN
 70
0
 62
7
  6
CONTINUOUS
370
-3
390
F
  0
LAYER
  5
201
100
AcDbSymbolTableRecord
100
AcDbLayerTableRecord
  2
01___PRT_DEF_DTM_PLN
 70
0
 62
7
  6
CONTINUOUS
370
-3
390
F
  0
LAYER
  5
202
100
AcDbSymbolTableRecord
100
AcDbLayerTableRecord
  2
02_ALL_AXES
 70
0
 62
7
  6
CONTINUOUS
370
-3
390
F
  0
LAYER
  5
203
100
AcDbSymbolTableRecord
100
AcDbLayerTableRecord
  2
02__ASM_ALL_AXES
 70
0
 62
7
  6
CONTINUOUS
370
-3
390
F
  0
LAYER
  5
204
100
AcDbSymbolTableRecord
100
AcDbLayerTableRecord
  2
02___PRT_ALL_AXES
 70
0
 62
7
  6
CONTINUOUS
370
-3
390
F
  0
LAYER
  5
205
100
AcDbSymbolTableRecord
100
AcDbLayerTableRecord
  2
03_ALL_CURVES
 70
0
 62
7
  6
CONTINUOUS
370
-3
390
F
  0
LAYER
  5
206
100
AcDbSymbolTableRecord
100
AcDbLayerTableRecord
  2
03__ASM_ALL_CURVES
 70
0
 62
7
  6
CONTINUOUS
370
-3
390
F
  0
LAYER
  5
207
100
AcDbSymbolTableRecord
100
AcDbLayerTableRecord
  2
03___PRT_ALL_CURVES
 70
0
 62
7
  6
CONTINUOUS
370
-3
390
F
  0
LAYER
  5
208
100
AcDbSymbolTableRecord
100
AcDbLayerTableRecord
  2
04_ALL_DTM_PNT
 70
0
 62
7
  6
CONTINUOUS
370
-3
390
F
  0
LAYER
  5
209
100
AcDbSymbolTableRecord
100
AcDbLayerTableRecord
  2
04__ASM_ALL_DTM_PNT
 70
0
 62
7
  6
CONTINUOUS
370
-3
390
F
  0
LAYER
  5
20A
100
AcDbSymbolTableRecord
100
AcDbLayerTableRecord
  2
04___PRT_ALL_DTM_PNT
 70
0
 62
7
  6
CONTINUOUS
370
-3
390
F
  0
LAYER
  5
20B
100
AcDbSymbolTableRecord
100
AcDbLayerTableRecord
  2
05_ALL_DTM_CSYS
 70
0
 62
7
  6
CONTINUOUS
370
-3
390
F
  0
LAYER
  5
20C
100
AcDbSymbolTableRecord
100
AcDbLayerTableRecord
  2
05__ASM_ALL_DTM_CSYS
 70
0
 62
7
  6
CONTINUOUS
370
-3
390
F
  0
LAYER
  5
20D
100
AcDbSymbolTableRecord
100
AcDbLayerTableRecord
  2
05__ASM_DEF_DTM_CSYS
 70
0
 62
7
  6
CONTINUOUS
370
-3
390
F
  0
LAYER
  5
20E
100
AcDbSymbolTableRecord
100
AcDbLayerTableRecord
  2
05___PRT_ALL_DTM
 70
0
 62
7
  6
CONTINUOUS
370
-3
390
F
  0
LAYER
  5
20F
100
AcDbSymbolTableRecord
100
AcDbLayerTableRecord
  2
05___PRT_ALL_DTM_CSYS
 70
0
 62
7
  6
CONTINUOUS
370
-3
390
F
  0
LAYER
  5
210
100
AcDbSymbolTableRecord
100
AcDbLayerTableRecord
  2
05___PRT_DEF_DTM_CSYS
 70
0
 62
7
  6
CONTINUOUS
370
-3
390
F
  0
LAYER
  5
211
100
AcDbSymbolTableRecord
100
AcDbLayerTableRecord
  2
06_ALL_SURFS
 70
0
 62
7
  6
CONTINUOUS
370
-3
390
F
  0
LAYER
  5
212
100
AcDbSymbolTableRecord
100
AcDbLayerTableRecord
  2
06__ASM_ALL_SURFS
 70
0
 62
7
  6
CONTINUOUS
370
-3
390
F
  0
LAYER
  5
213
100
AcDbSymbolTableRecord
100
AcDbLayerTableRecord
  2
06___PRT_ALL_SURFS
 70
0
 62
7
  6
CONTINUOUS
370
-3
390
F
  0
LAYER
  5
214
100
AcDbSymbolTableRecord
100
AcDbLayerTableRecord
  2
07__ASM_ALL_SKELETONS
 70
0
 62
7
  6
CONTINUOUS
370
-3
390
F
  0
LAYER
  5
215
100
AcDbSymbolTableRecord
100
AcDbLayerTableRecord
  2
ABERTO
 70
0
 62
7
  6
CONTINUOUS
370
-3
390
F
  0
ENDTAB
  0
TABLE
  2
STYLE
  5
3
100
AcDbSymbolTable
 70
1
  0
STYLE
  5
11
100
AcDbSymbolTableRecord
100
AcDbTextStyleTableRecord
  2
STANDARD
 70
0
 40
0.0
 41
0.8
 50
0.0
 71
0
 42
0.2
  3
txt
  4

  0
STYLE
  5
216
100
AcDbSymbolTableRecord
100
AcDbTextStyleTableRecord
  2
TEXTSTYLE_1
 70
0
 40
0.0
 41
0.8
 50
0.0
 71
0
 42
0.2
  3
gdt
  4

  0
ENDTAB
  0
TABLE
  2
VIEW
  5
6
100
AcDbSymbolTable
 70
0
  0
ENDTAB
  0
TABLE
  2
UCS
  5
7
100
AcDbSymbolTable
 70
0
  0
ENDTAB
  0
TABLE
  2
APPID
  5
9
100
AcDbSymbolTable
 70
1
  0
APPID
  5
217
100
AcDbSymbolTableRecord
100
AcDbRegAppTableRecord
  2
ACAD
 70
0
  0
ENDTAB
  0
TABLE
  2
BLOCK_RECORD
  5
1
100
AcDbSymbolTable
 70
0
  0
BLOCK_RECORD
  5
218
100
AcDbSymbolTableRecord
100
AcDbBlockTableRecord
  2
*Model_Space
  0
BLOCK_RECORD
  5
219
100
AcDbSymbolTableRecord
100
AcDbBlockTableRecord
  2
*Paper_Space
  0
BLOCK_RECORD
  5
21A
100
AcDbSymbolTableRecord
100
AcDbBlockTableRecord
  2
_FILLED
  0
BLOCK_RECORD
  5
21B
100
AcDbSymbolTableRecord
100
AcDbBlockTableRecord
  2
*D0
  0
BLOCK_RECORD
  5
21C
100
AcDbSymbolTableRecord
100
AcDbBlockTableRecord
  2
*D1
  0
ENDTAB
  0
TABLE
  2
DIMSTYLE
  5
A
100
AcDbSymbolTable
 70
1
100
AcDbDimStyleTable
 71
0
  0
DIMSTYLE
105
21D
100
AcDbSymbolTableRecord
100
AcDbDimStyleTableRecord
  2
STANDARD
 70
0
  3

  4

 40
1.0
 41
3.0
 42
0.5
 43
0.38
 44
0.5
 45
0.0
 46
0.0
 47
0.001
 48
0.001
140
1.8
141
0.09
142
0.0
143
25.4
144
1.0
145
0.0
146
1.0
147
0.625
 71
1.0
 72
0.0
 73
0
 74
0
 75
0
 76
0
 77
1
 78
8
170
0
171
2
172
0
173
0
174
0
175
0
176
0
177
0
178
0
270
2
271
3
272
3
273
2
274
2
275
0
280
0
281
0
282
0
283
1
284
8
285
0
286
0
287
3
288
0
340
11
278
46
341
21A
342
21A
343
21A
344
21A
  0
DIMSTYLE
105
21E
100
AcDbSymbolTableRecord
100
AcDbDimStyleTableRecord
  2
DIMSTYLE_1
 70
0
  3

  4

 40
1.0
 41
3.0
 42
0.5
 43
0.38
 44
0.5
 45
0.0
 46
0.0
 47
0.001
 48
0.001
140
1.8
141
0.09
142
0.0
143
25.4
144
1.0
145
0.0
146
1.0
147
0.45
 71
0.0
 72
0.0
 73
0
 74
0
 75
0
 76
0
 77
1
 78
8
170
0
171
2
172
0
173
0
174
0
175
0
176
0
177
0
178
0
270
2
271
0
272
0
273
2
274
2
275
0
280
0
281
0
282
0
283
1
284
8
285
0
286
0
287
3
288
0
340
11
278
46
341
21A
342
21A
343
21A
344
21A
  0
ENDTAB
  0
ENDSEC
  0
SECTION
  2
BLOCKS
  0
BLOCK
  5
20
100
AcDbEntity
  8
0
100
AcDbBlockBegin
  2
*Model_Space
 70
0
 10
0.0
 20
0.0
 30
0.0
  3
*Model_Space
  1

  0
ENDBLK
  5
21
100
AcDbEntity
  8
0
100
AcDbBlockEnd
  0
BLOCK
  5
1C
100
AcDbEntity
  8
0
100
AcDbBlockBegin
  2
*Paper_Space
 70
0
 10
0.0
 20
0.0
 30
0.0
  3
*Paper_Space
  1

  0
ENDBLK
  5
1D
100
AcDbEntity
  8
0
100
AcDbBlockEnd
  0
BLOCK
  5
21F
100
AcDbEntity
  8
0
100
AcDbBlockBegin
  2
_FILLED
 70
64
 10
0.0
 20
0.0
  3
_FILLED
  1

  0
SOLID
  5
220
100
AcDbEntity
  8
0
  6
BYBLOCK
 62
0
100
AcDbTrace
 10
0.0
 20
0.0
 11
-1.0
 21
0.1666666667
 12
-1.0
 22
-0.1666666667
 13
-1.0
 23
-0.1666666667
  0
ENDBLK
  5
221
100
AcDbEntity
  8
0
  6
BYBLOCK
 62
0
100
AcDbBlockEnd
  0
BLOCK
  5
222
100
AcDbEntity
  8
0
100
AcDbBlockBegin
 62
2
  6
CONTINUOUS
  2
*D0
 70
65
 10
0.0
 20
0.0
  3
*D0
  1

  0
MTEXT
  5
223
100
AcDbEntity
  8
0
100
AcDbMText
 62
2
  6
CONTINUOUS
  7
TEXTSTYLE_1
 71
2
 72
1
 10
366.8579674171
 20
515.1486713821
 30
0.0
 11
1.0
 21
0.0
 31
0.0
 44
0.9
  1
{\Fgdt;n}\Ftxt;205
 40
1.8
 41
11.9314285714
  0
LINE
  5
224
100
AcDbEntity
  8
0
100
AcDbLine
 62
2
  6
CONTINUOUS
 10
264.6079674171
 20
482.2021112308
 11
264.6079674171
 21
513.0772428106
  0
LINE
  5
225
100
AcDbEntity
  8
0
100
AcDbLine
 62
2
  6
CONTINUOUS
 10
469.1079674171
 20
482.2021112308
 11
469.1079674171
 21
513.0772428106
  0
LINE
  5
226
100
AcDbEntity
  8
0
100
AcDbLine
 62
2
  6
CONTINUOUS
 10
264.6079674171
 20
512.5772428106
 11
366.8579674171
 21
512.5772428106
  0
LINE
  5
227
100
AcDbEntity
  8
0
100
AcDbLine
 62
2
  6
CONTINUOUS
 10
469.1079674171
 20
512.5772428106
 11
366.8579674171
 21
512.5772428106
  0
INSERT
  5
228
100
AcDbEntity
  8
0
100
AcDbBlockReference
 62
2
  6
CONTINUOUS
  2
_FILLED
 10
264.6079674171
 20
512.5772428106
 41
3.0
 42
3.0
 43
3.0
 50
180.0
  0
INSERT
  5
229
100
AcDbEntity
  8
0
100
AcDbBlockReference
 62
2
  6
CONTINUOUS
  2
_FILLED
 10
469.1079674171
 20
512.5772428106
 41
3.0
 42
3.0
 43
3.0
  0
ENDBLK
  5
22A
100
AcDbEntity
  8
0
  6
BYBLOCK
 62
0
100
AcDbBlockEnd
  0
BLOCK
  5
22B
100
AcDbEntity
  8
0
100
AcDbBlockBegin
 62
2
  6
CONTINUOUS
  2
*D1
 70
65
 10
0.0
 20
0.0
  3
*D1
  1

  0
MTEXT
  5
22C
100
AcDbEntity
  8
0
100
AcDbMText
 62
2
  6
CONTINUOUS
  7
STANDARD
 71
2
 72
1
 10
511.1408733698
 20
348.4822639417
 30
0.0
 11
0.0
 21
1.0
 31
0.0
 44
0.9
  1
290
 40
1.8
 41
8.3314285714
  0
LINE
  5
22D
100
AcDbEntity
  8
0
100
AcDbLine
 62
2
  6
CONTINUOUS
 10
367.3579674171
 20
493.1822639417
 11
514.2123019412
 21
493.1822639417
  0
LINE
  5
22E
100
AcDbEntity
  8
0
100
AcDbLine
 62
2
  6
CONTINUOUS
 10
448.9756017015
 20
203.7822639417
 11
514.2123019412
 21
203.7822639417
  0
LINE
  5
22F
100
AcDbEntity
  8
0
100
AcDbLine
 62
2
  6
CONTINUOUS
 10
513.7123019412
 20
493.1822639417
 11
513.7123019412
 21
348.4822639417
  0
LINE
  5
230
100
AcDbEntity
  8
0
100
AcDbLine
 62
2
  6
CONTINUOUS
 10
513.7123019412
 20
203.7822639417
 11
513.7123019412
 21
348.4822639417
  0
INSERT
  5
231
100
AcDbEntity
  8
0
100
AcDbBlockReference
 62
2
  6
CONTINUOUS
  2
_FILLED
 10
513.7123019412
 20
493.1822639417
 41
3.0
 42
3.0
 43
3.0
 50
90.0
  0
INSERT
  5
232
100
AcDbEntity
  8
0
100
AcDbBlockReference
 62
2
  6
CONTINUOUS
  2
_FILLED
 10
513.7123019412
 20
203.7822639417
 41
3.0
 42
3.0
 43
3.0
 50
270.0
  0
ENDBLK
  5
233
100
AcDbEntity
  8
0
  6
BYBLOCK
 62
0
100
AcDbBlockEnd
  0
ENDSEC
  0
SECTION
  2
ENTITIES
  0
DIMENSION
  5
234
100
AcDbEntity
  8
0
100
AcDbDimension
 62
2
  6
CONTINUOUS
  2
*D0
 10
469.1079674171
 20
512.5772428106
 11
366.8579674171
 21
512.5772428106
 70
160
 71
2
 42
204.5
  1
%%c<>
  3
DIMSTYLE_1
100
AcDbAlignedDimension
 13
264.6079674171
 23
481.7021112308
 14
469.1079674171
 24
481.7021112308
100
AcDbRotatedDimension
  0
DIMENSION
  5
235
100
AcDbEntity
  8
0
100
AcDbDimension
 62
2
  6
CONTINUOUS
  2
*D1
 10
513.7123019412
 20
203.7822639417
 11
513.7123019412
 21
348.4822639417
 70
160
 71
2
 42
289.4
  3
DIMSTYLE_1
100
AcDbAlignedDimension
 13
366.8579674171
 23
493.1822639417
 14
448.4756017015
 24
203.7822639417
 50
270.0
100
AcDbRotatedDimension
  0
LINE
  5
236
100
AcDbEntity
  8
0
100
AcDbLine
 62
7
  6
CONTINUOUS
 10
239.2084878739
 20
207.2847184312
 11
239.2149729819
 21
207.2822639417
  0
LINE
  5
237
100
AcDbEntity
  8
0
100
AcDbLine
 62
7
  6
CONTINUOUS
 10
250.8945130481
 20
211.2489306084
 11
250.6945130481
 21
211.4489306084
  0
LINE
  5
238
100
AcDbEntity
  8
0
100
AcDbLine
 62
7
  6
CONTINUOUS
 10
258.1945130481
 20
214.2489306084
 11
258.3945130481
 21
214.0489306084
  0
LINE
  5
239
100
AcDbEntity
  8
0
100
AcDbLine
 62
7
  6
CONTINUOUS
 10
248.976977845
 20
230.2822639417
 11
257.8269728669
 21
221.1077360088
  0
LINE
  5
23A
100
AcDbEntity
  8
0
100
AcDbLine
 62
7
  6
CONTINUOUS
 10
255.5906458599
 20
230.2822639417
 11
261.2528478805
 21
224.4124266738
  0
LINE
  5
23B
100
AcDbEntity
  8
02___PRT_ALL_AXES
100
AcDbLine
 62
3
  6
CONTINUOUS
 10
278.9942350803
 20
489.050187719
 11
277.8777015234
 21
487.1162948702
  0
LINE
  5
23C
100
AcDbEntity
  8
02___PRT_ALL_AXES
100
AcDbLine
 62
7
  6
CONTINUOUS
 10
242.0445130481
 20
200.2489306084
 11
267.0445130481
 21
200.2489306084
  0
LINE
  5
23D
100
AcDbEntity
  8
0
100
AcDbLine
 62
7
  6
CONTINUOUS
 10
250.1374728898
 20
203.2822639417
 11
241.6902261412
 21
203.2822639417
  0
LINE
  5
23E
100
AcDbEntity
  8
0
100
AcDbLine
 62
7
  6
CONTINUOUS
 10
241.441912723
 20
203.2822639417
 11
239.2106447958
 21
203.2822639417
  0
LINE
  5
23F
100
AcDbEntity
  8
06___PRT_ALL_SURFS
100
AcDbLine
 62
7
  6
CONTINUOUS
 10
230.4451826292
 20
230.282192277
 11
229.9946679623
 21
233.4930949629
  0
LINE
  5
240
100
AcDbEntity
  8
0
100
AcDbLine
 62
7
  6
CONTINUOUS
 10
230.0047109199
 20
233.4917370699
 11
230.4550250087
 21
230.2822639417
  0
LINE
  5
241
100
AcDbEntity
  8
0
100
AcDbLine
 62
7
  6
CONTINUOUS
 10
232.8541302544
 20
233.4917370699
 11
233.3044443432
 21
230.2822639417
  0
LINE
  5
242
100
AcDbEntity
  8
0
100
AcDbLine
 62
7
  6
CONTINUOUS
 10
448.4756017015
 20
203.7822639417
 11
442.0937451348
 21
203.7822639417
  0
LINE
  5
243
100
AcDbEntity
  8
0
100
AcDbLine
 62
7
  6
CONTINUOUS
 10
285.2403331328
 20
203.7822639417
 11
291.6221896995
 21
203.7822639417
  0
LINE
  5
244
100
AcDbEntity
  8
0
100
AcDbLine
 62
7
  6
CONTINUOUS
 10
293.6005193981
 20
203.7822639417
 11
300.3641230826
 21
203.7822639417
  0
LINE
  5
245
100
AcDbEntity
  8
0
100
AcDbLine
 62
7
  6
CONTINUOUS
 10
433.3518117517
 20
203.7822639417
 11
440.1154154361
 21
203.7822639417
  0
LINE
  5
246
100
AcDbEntity
  8
0
100
AcDbLine
 62
7
  6
CONTINUOUS
 10
472.2444529514
 20
205.2822639417
 11
448.7812824569
 21
205.2822639417
  0
LINE
  5
247
100
AcDbEntity
  8
0
100
AcDbLine
 62
7
  6
CONTINUOUS
 10
442.1289789104
 20
205.2822639417
 11
300.5636402681
 21
205.2822639417
  0
LINE
  5
248
100
AcDbEntity
  8
0
100
AcDbLine
 62
7
  6
CONTINUOUS
 10
239.5603571437
 20
205.2822639417
 11
241.5750980873
 21
205.2822639417
  0
LINE
  5
249
100
AcDbEntity
  8
0
100
AcDbLine
 62
7
  6
CONTINUOUS
 10
252.134156523
 20
205.2822639417
 11
293.0972584452
 21
205.2822639417
  0
LINE
  5
24A
100
AcDbEntity
  8
0
100
AcDbLine
 62
7
  6
CONTINUOUS
 10
241.920482249
 20
207.2822639417
 11
239.2149729819
 21
207.2822639417
  0
LINE
  5
24B
100
AcDbEntity
  8
0
100
AcDbLine
 62
7
  6
CONTINUOUS
 10
269.8626223582
 20
210.2822639417
 11
469.3578713592
 21
210.2822639417
  0
LINE
  5
24C
100
AcDbEntity
  8
0
100
AcDbLine
 62
3
  6
CONTINUOUS
 10
467.3802365292
 20
210.4822639417
 11
269.8580148171
 21
210.4822639417
  0
LINE
  5
24D
100
AcDbEntity
  8
0
100
AcDbLine
 62
7
  6
CONTINUOUS
 10
250.8946125419
 20
211.2489306084
 11
252.0216594688
 21
211.2489306084
  0
LINE
  5
24E
100
AcDbEntity
  8
0
100
AcDbLine
 62
7
  6
CONTINUOUS
 10
250.6945130481
 20
211.4489306084
 11
252.6016152604
 21
211.4489306084
  0
LINE
  5
24F
100
AcDbEntity
  8
0
100
AcDbLine
 62
7
  6
CONTINUOUS
 10
469.5126269009
 20
212.3822639417
 11
469.2801668938
 21
212.3822639417
  0
LINE
  5
250
100
AcDbEntity
  8
0
100
AcDbLine
 62
3
  6
CONTINUOUS
 10
469.2801668938
 20
212.3822639417
 11
269.8626223582
 21
212.3822639417
  0
LINE
  5
251
100
AcDbEntity
  8
0
100
AcDbLine
 62
7
  6
CONTINUOUS
 10
250.6945130481
 20
214.0489306084
 11
258.3945130481
 21
214.0489306084
  0
LINE
  5
252
100
AcDbEntity
  8
0
100
AcDbLine
 62
7
  6
CONTINUOUS
 10
250.8946125416
 20
214.2489306084
 11
258.1944135545
 21
214.2489306084
  0
LINE
  5
253
100
AcDbEntity
  8
0
100
AcDbLine
 62
3
  6
CONTINUOUS
 10
469.5126269009
 20
215.4822639417
 11
469.2794972832
 21
215.4822639417
  0
LINE
  5
254
100
AcDbEntity
  8
0
100
AcDbLine
 62
3
  6
CONTINUOUS
 10
469.2693205438
 20
216.3822639417
 11
469.2696420539
 21
216.3822639417
  0
LINE
  5
255
100
AcDbEntity
  8
0
100
AcDbLine
 62
7
  6
CONTINUOUS
 10
235.7022521974
 20
236.40633862
 11
235.6327810342
 21
236.9014726543
  0
LINE
  5
256
100
AcDbEntity
  8
0
100
AcDbLine
 62
7
  6
CONTINUOUS
 10
235.8173802513
 20
236.40633862
 11
235.7479090881
 21
236.9014726543
  0
LINE
  5
257
100
AcDbEntity
  8
0
100
AcDbLine
 62
7
  6
CONTINUOUS
 10
235.9037262918
 20
236.40633862
 11
235.8342551286
 21
236.9014726543
  0
LINE
  5
258
100
AcDbEntity
  8
0
100
AcDbLine
 62
7
  6
CONTINUOUS
 10
236.0188543457
 20
236.40633862
 11
235.9493831825
 21
236.9014726543
  0
LINE
  5
259
100
AcDbEntity
  8
0
100
AcDbLine
 62
7
  6
CONTINUOUS
 10
236.1052003861
 20
236.40633862
 11
236.0357292229
 21
236.9014726543
  0
LINE
  5
25A
100
AcDbEntity
  8
0
100
AcDbLine
 62
7
  6
CONTINUOUS
 10
236.2203284401
 20
236.40633862
 11
236.1508572768
 21
236.9014726543
  0
LINE
  5
25B
100
AcDbEntity
  8
0
100
AcDbLine
 62
7
  6
CONTINUOUS
 10
236.3066744805
 20
236.40633862
 11
236.2372033173
 21
236.9014726543
  0
LINE
  5
25C
100
AcDbEntity
  8
0
100
AcDbLine
 62
7
  6
CONTINUOUS
 10
236.4218025344
 20
236.40633862
 11
236.3523313712
 21
236.9014726543
  0
LINE
  5
25D
100
AcDbEntity
  8
0
100
AcDbLine
 62
7
  6
CONTINUOUS
 10
236.5081485749
 20
236.40633862
 11
236.4386774116
 21
236.9014726543
  0
LINE
  5
25E
100
AcDbEntity
  8
0
100
AcDbLine
 62
7
  6
CONTINUOUS
 10
236.6232766288
 20
236.40633862
 11
236.5538054656
 21
236.9014726543
  0
LINE
  5
25F
100
AcDbEntity
  8
0
100
AcDbLine
 62
7
  6
CONTINUOUS
 10
236.7096226692
 20
236.40633862
 11
236.640151506
 21
236.9014726543
  0
LINE
  5
260
100
AcDbEntity
  8
0
100
AcDbLine
 62
7
  6
CONTINUOUS
 10
236.8247507231
 20
236.40633862
 11
236.7552795599
 21
236.9014726543
  0
LINE
  5
261
100
AcDbEntity
  8
0
100
AcDbLine
 62
7
  6
CONTINUOUS
 10
236.9110967636
 20
236.40633862
 11
236.8416256003
 21
236.9014726543
  0
LINE
  5
262
100
AcDbEntity
  8
0
100
AcDbLine
 62
7
  6
CONTINUOUS
 10
237.0262248175
 20
236.40633862
 11
236.9567536543
 21
236.9014726543
  0
LINE
  5
263
100
AcDbEntity
  8
0
100
AcDbLine
 62
7
  6
CONTINUOUS
 10
237.1125708579
 20
236.40633862
 11
237.0430996947
 21
236.9014726543
  0
LINE
  5
264
100
AcDbEntity
  8
0
100
AcDbLine
 62
7
  6
CONTINUOUS
 10
237.2276989118
 20
236.40633862
 11
237.1582277486
 21
236.9014726543
  0
LINE
  5
265
100
AcDbEntity
  8
0
100
AcDbLine
 62
7
  6
CONTINUOUS
 10
237.3140449523
 20
236.40633862
 11
237.2445737891
 21
236.9014726543
  0
LINE
  5
266
100
AcDbEntity
  8
0
100
AcDbLine
 62
7
  6
CONTINUOUS
 10
237.4291730062
 20
236.40633862
 11
237.359701843
 21
236.9014726543
  0
LINE
  5
267
100
AcDbEntity
  8
0
100
AcDbLine
 62
7
  6
CONTINUOUS
 10
237.5155190466
 20
236.40633862
 11
237.4460478834
 21
236.9014726543
  0
LINE
  5
268
100
AcDbEntity
  8
0
100
AcDbLine
 62
7
  6
CONTINUOUS
 10
237.6306471006
 20
236.40633862
 11
237.5611759373
 21
236.9014726543
  0
LINE
  5
269
100
AcDbEntity
  8
0
100
AcDbLine
 62
7
  6
CONTINUOUS
 10
237.716993141
 20
236.40633862
 11
237.6475219778
 21
236.9014726543
  0
LINE
  5
26A
100
AcDbEntity
  8
0
100
AcDbLine
 62
7
  6
CONTINUOUS
 10
237.8321211949
 20
236.40633862
 11
237.7626500317
 21
236.9014726543
  0
LINE
  5
26B
100
AcDbEntity
  8
0
100
AcDbLine
 62
7
  6
CONTINUOUS
 10
237.7268281482
 20
237.1679377291
 11
237.7251611335
 21
237.1798188563
  0
LINE
  5
26C
100
AcDbEntity
  8
0
100
AcDbLine
 62
7
  6
CONTINUOUS
 10
237.9184672354
 20
236.40633862
 11
237.8489960721
 21
236.9014726543
  0
LINE
  5
26D
100
AcDbEntity
  8
0
100
AcDbLine
 62
7
  6
CONTINUOUS
 10
238.0335952893
 20
236.40633862
 11
237.9641241261
 21
236.9014726543
  0
LINE
  5
26E
100
AcDbEntity
  8
0
100
AcDbLine
 62
7
  6
CONTINUOUS
 10
237.9283022426
 20
237.1679377291
 11
237.9266352278
 21
237.1798188563
  0
LINE
  5
26F
100
AcDbEntity
  8
0
100
AcDbLine
 62
7
  6
CONTINUOUS
 10
238.1199413297
 20
236.40633862
 11
238.0504701665
 21
236.9014726543
  0
LINE
  5
270
100
AcDbEntity
  8
0
100
AcDbLine
 62
7
  6
CONTINUOUS
 10
238.2350693836
 20
236.40633862
 11
238.1655982204
 21
236.9014726543
  0
LINE
  5
271
100
AcDbEntity
  8
0
100
AcDbLine
 62
7
  6
CONTINUOUS
 10
238.1297763369
 20
237.1679377291
 11
238.1281093222
 21
237.1798188563
  0
LINE
  5
272
100
AcDbEntity
  8
0
100
AcDbLine
 62
7
  6
CONTINUOUS
 10
238.3214154241
 20
236.40633862
 11
238.2519442609
 21
236.9014726543
  0
LINE
  5
273
100
AcDbEntity
  8
0
100
AcDbLine
 62
7
  6
CONTINUOUS
 10
238.436543478
 20
236.40633862
 11
238.3670723148
 21
236.9014726543
  0
LINE
  5
274
100
AcDbEntity
  8
0
100
AcDbLine
 62
7
  6
CONTINUOUS
 10
238.3312504313
 20
237.1679377291
 11
238.3295834166
 21
237.1798188563
  0
LINE
  5
275
100
AcDbEntity
  8
0
100
AcDbLine
 62
7
  6
CONTINUOUS
 10
238.5327245256
 20
237.1679377291
 11
238.5310575109
 21
237.1798188563
  0
LINE
  5
276
100
AcDbEntity
  8
0
100
AcDbLine
 62
7
  6
CONTINUOUS
 10
239.1312705522
 20
234.3267756756
 11
239.6987470642
 21
230.2822639417
  0
LINE
  5
277
100
AcDbEntity
  8
0
100
AcDbLine
 62
7
  6
CONTINUOUS
 10
238.73419862
 20
237.1679377291
 11
238.7325316053
 21
237.1798188563
  0
LINE
  5
278
100
AcDbEntity
  8
0
100
AcDbLine
 62
7
  6
CONTINUOUS
 10
238.9356727144
 20
237.1679377291
 11
238.9340056996
 21
237.1798188563
  0
LINE
  5
279
100
AcDbEntity
  8
0
100
AcDbLine
 62
7
  6
CONTINUOUS
 10
239.122517891
 20
237.1780002003
 11
239.0929721136
 21
237.3885785077
  0
LINE
  5
27A
100
AcDbEntity
  8
0
100
AcDbLine
 62
7
  6
CONTINUOUS
 10
239.1371468087
 20
237.1679377291
 11
239.135479794
 21
237.1798188563
  0
LINE
  5
27B
100
AcDbEntity
  8
0
100
AcDbLine
 62
7
  6
CONTINUOUS
 10
239.2370902733
 20
237.181960576
 11
239.2081001675
 21
237.3885785077
  0
LINE
  5
27C
100
AcDbEntity
  8
0
100
AcDbLine
 62
7
  6
CONTINUOUS
 10
239.3239919854
 20
237.1780002003
 11
239.2944462079
 21
237.3885785077
  0
LINE
  5
27D
100
AcDbEntity
  8
0
100
AcDbLine
 62
7
  6
CONTINUOUS
 10
239.3386209031
 20
237.1679377291
 11
239.3369538884
 21
237.1798188563
  0
LINE
  5
27E
100
AcDbEntity
  8
0
100
AcDbLine
 62
7
  6
CONTINUOUS
 10
239.4385643677
 20
237.181960576
 11
239.4095742619
 21
237.3885785077
  0
LINE
  5
27F
100
AcDbEntity
  8
0
100
AcDbLine
 62
7
  6
CONTINUOUS
 10
239.5254660797
 20
237.1780002003
 11
239.4959203023
 21
237.3885785077
  0
LINE
  5
280
100
AcDbEntity
  8
0
100
AcDbLine
 62
7
  6
CONTINUOUS
 10
239.5400949974
 20
237.1679377291
 11
239.5384279827
 21
237.1798188563
  0
LINE
  5
281
100
AcDbEntity
  8
0
100
AcDbLine
 62
7
  6
CONTINUOUS
 10
239.6400384621
 20
237.181960576
 11
239.6110483562
 21
237.3885785077
  0
LINE
  5
282
100
AcDbEntity
  8
0
100
AcDbLine
 62
7
  6
CONTINUOUS
 10
239.7269401741
 20
237.1780002003
 11
239.6973943967
 21
237.3885785077
  0
LINE
  5
283
100
AcDbEntity
  8
0
100
AcDbLine
 62
7
  6
CONTINUOUS
 10
239.7415690918
 20
237.1679377291
 11
239.7399020771
 21
237.1798188563
  0
LINE
  5
284
100
AcDbEntity
  8
0
100
AcDbLine
 62
7
  6
CONTINUOUS
 10
239.8415125564
 20
237.181960576
 11
239.8125224506
 21
237.3885785077
  0
LINE
  5
285
100
AcDbEntity
  8
0
100
AcDbLine
 62
7
  6
CONTINUOUS
 10
239.9284142684
 20
237.1780002003
 11
239.898868491
 21
237.3885785077
  0
LINE
  5
286
100
AcDbEntity
  8
0
100
AcDbLine
 62
7
  6
CONTINUOUS
 10
239.9430431861
 20
237.1679377291
 11
239.9413761714
 21
237.1798188563
  0
LINE
  5
287
100
AcDbEntity
  8
0
100
AcDbLine
 62
7
  6
CONTINUOUS
 10
240.0429866508
 20
237.181960576
 11
240.0139965449
 21
237.3885785077
  0
LINE
  5
288
100
AcDbEntity
  8
0
100
AcDbLine
 62
7
  6
CONTINUOUS
 10
240.1298883628
 20
237.1780002003
 11
240.1003425854
 21
237.3885785077
  0
LINE
  5
289
100
AcDbEntity
  8
0
100
AcDbLine
 62
7
  6
CONTINUOUS
 10
240.1445172805
 20
237.1679377291
 11
240.1428502658
 21
237.1798188563
  0
LINE
  5
28A
100
AcDbEntity
  8
0
100
AcDbLine
 62
7
  6
CONTINUOUS
 10
240.2444607451
 20
237.181960576
 11
240.2154706393
 21
237.3885785077
  0
LINE
  5
28B
100
AcDbEntity
  8
0
100
AcDbLine
 62
7
  6
CONTINUOUS
 10
240.3313624571
 20
237.1780002003
 11
240.3018166797
 21
237.3885785077
  0
LINE
  5
28C
100
AcDbEntity
  8
0
100
AcDbLine
 62
7
  6
CONTINUOUS
 10
240.4137955234
 20
236.6846848219
 11
240.3443243601
 21
237.1798188563
  0
LINE
  5
28D
100
AcDbEntity
  8
0
100
AcDbLine
 62
7
  6
CONTINUOUS
 10
240.4864158969
 20
236.8934444733
 11
240.4169447337
 21
237.3885785077
  0
LINE
  5
28E
100
AcDbEntity
  8
0
100
AcDbLine
 62
7
  6
CONTINUOUS
 10
240.5727619373
 20
236.8934444733
 11
240.5032907741
 21
237.3885785077
  0
LINE
  5
28F
100
AcDbEntity
  8
0
100
AcDbLine
 62
7
  6
CONTINUOUS
 10
240.6878899912
 20
236.8934444733
 11
240.618418828
 21
237.3885785077
  0
LINE
  5
290
100
AcDbEntity
  8
0
100
AcDbLine
 62
7
  6
CONTINUOUS
 10
240.7742360317
 20
236.8934444733
 11
240.7047648685
 21
237.3885785077
  0
LINE
  5
291
100
AcDbEntity
  8
0
100
AcDbLine
 62
7
  6
CONTINUOUS
 10
240.8893640856
 20
236.8934444733
 11
240.8198929224
 21
237.3885785077
  0
LINE
  5
292
100
AcDbEntity
  8
0
100
AcDbLine
 62
7
  6
CONTINUOUS
 10
240.975710126
 20
236.8934444733
 11
240.9062389628
 21
237.3885785077
  0
LINE
  5
293
100
AcDbEntity
  8
0
100
AcDbLine
 62
7
  6
CONTINUOUS
 10
241.09083818
 20
236.8934444733
 11
241.0213670167
 21
237.3885785077
  0
LINE
  5
294
100
AcDbEntity
  8
0
100
AcDbLine
 62
7
  6
CONTINUOUS
 10
241.1771842204
 20
236.8934444733
 11
241.1077130572
 21
237.3885785077
  0
LINE
  5
295
100
AcDbEntity
  8
0
100
AcDbLine
 62
7
  6
CONTINUOUS
 10
241.2923122743
 20
236.8934444733
 11
241.2228411111
 21
237.3885785077
  0
LINE
  5
296
100
AcDbEntity
  8
0
100
AcDbLine
 62
7
  6
CONTINUOUS
 10
241.1870192276
 20
237.6550435825
 11
241.1853522129
 21
237.6669247096
  0
LINE
  5
297
100
AcDbEntity
  8
0
100
AcDbLine
 62
7
  6
CONTINUOUS
 10
241.3786583147
 20
236.8934444733
 11
241.3091871515
 21
237.3885785077
  0
LINE
  5
298
100
AcDbEntity
  8
0
100
AcDbLine
 62
7
  6
CONTINUOUS
 10
241.4937863687
 20
236.8934444733
 11
241.4243152054
 21
237.3885785077
  0
LINE
  5
299
100
AcDbEntity
  8
0
100
AcDbLine
 62
7
  6
CONTINUOUS
 10
241.3884933219
 20
237.6550435825
 11
241.3868263072
 21
237.6669247096
  0
LINE
  5
29A
100
AcDbEntity
  8
0
100
AcDbLine
 62
7
  6
CONTINUOUS
 10
241.5801324091
 20
236.8934444733
 11
241.5106612459
 21
237.3885785077
  0
LINE
  5
29B
100
AcDbEntity
  8
0
100
AcDbLine
 62
7
  6
CONTINUOUS
 10
241.695260463
 20
236.8934444733
 11
241.6257892998
 21
237.3885785077
  0
LINE
  5
29C
100
AcDbEntity
  8
0
100
AcDbLine
 62
7
  6
CONTINUOUS
 10
241.5899674163
 20
237.6550435825
 11
241.5883004016
 21
237.6669247096
  0
LINE
  5
29D
100
AcDbEntity
  8
0
100
AcDbLine
 62
7
  6
CONTINUOUS
 10
241.7816065035
 20
236.8934444733
 11
241.7121353402
 21
237.3885785077
  0
LINE
  5
29E
100
AcDbEntity
  8
0
100
AcDbLine
 62
7
  6
CONTINUOUS
 10
241.8967345574
 20
236.8934444733
 11
241.8272633942
 21
237.3885785077
  0
LINE
  5
29F
100
AcDbEntity
  8
0
100
AcDbLine
 62
7
  6
CONTINUOUS
 10
241.7914415107
 20
237.6550435825
 11
241.7897744959
 21
237.6669247096
  0
LINE
  5
2A0
100
AcDbEntity
  8
0
100
AcDbLine
 62
7
  6
CONTINUOUS
 10
241.992915605
 20
237.6550435825
 11
241.9912485903
 21
237.6669247096
  0
LINE
  5
2A1
100
AcDbEntity
  8
0
100
AcDbLine
 62
7
  6
CONTINUOUS
 10
242.1943896994
 20
237.6550435825
 11
242.1927226847
 21
237.6669247096
  0
LINE
  5
2A2
100
AcDbEntity
  8
0
100
AcDbLine
 62
7
  6
CONTINUOUS
 10
242.3958637937
 20
237.6550435825
 11
242.394196779
 21
237.6669247096
  0
LINE
  5
2A3
100
AcDbEntity
  8
0
100
AcDbLine
 62
7
  6
CONTINUOUS
 10
242.5827089704
 20
237.6651060536
 11
242.553163193
 21
237.8756843611
  0
LINE
  5
2A4
100
AcDbEntity
  8
0
100
AcDbLine
 62
7
  6
CONTINUOUS
 10
242.5973378881
 20
237.6550435825
 11
242.5956708734
 21
237.6669247096
  0
LINE
  5
2A5
100
AcDbEntity
  8
0
100
AcDbLine
 62
7
  6
CONTINUOUS
 10
242.6972813527
 20
237.6690664293
 11
242.6682912469
 21
237.8756843611
  0
LINE
  5
2A6
100
AcDbEntity
  8
0
100
AcDbLine
 62
7
  6
CONTINUOUS
 10
242.7841830647
 20
237.6651060536
 11
242.7546372873
 21
237.8756843611
  0
LINE
  5
2A7
100
AcDbEntity
  8
0
100
AcDbLine
 62
7
  6
CONTINUOUS
 10
242.7988119825
 20
237.6550435825
 11
242.7971449677
 21
237.6669247096
  0
LINE
  5
2A8
100
AcDbEntity
  8
0
100
AcDbLine
 62
7
  6
CONTINUOUS
 10
242.8987554471
 20
237.6690664293
 11
242.8697653413
 21
237.8756843611
  0
LINE
  5
2A9
100
AcDbEntity
  8
0
100
AcDbLine
 62
7
  6
CONTINUOUS
 10
242.9856571591
 20
237.6651060536
 11
242.9561113817
 21
237.8756843611
  0
LINE
  5
2AA
100
AcDbEntity
  8
0
100
AcDbLine
 62
7
  6
CONTINUOUS
 10
243.0002860768
 20
237.6550435825
 11
242.9986190621
 21
237.6669247096
  0
LINE
  5
2AB
100
AcDbEntity
  8
0
100
AcDbLine
 62
7
  6
CONTINUOUS
 10
243.1002295414
 20
237.6690664293
 11
243.0712394356
 21
237.8756843611
  0
LINE
  5
2AC
100
AcDbEntity
  8
0
100
AcDbLine
 62
7
  6
CONTINUOUS
 10
243.1871312535
 20
237.6651060536
 11
243.1575854761
 21
237.8756843611
  0
LINE
  5
2AD
100
AcDbEntity
  8
0
100
AcDbLine
 62
7
  6
CONTINUOUS
 10
243.2017601712
 20
237.6550435825
 11
243.2000931565
 21
237.6669247096
  0
LINE
  5
2AE
100
AcDbEntity
  8
0
100
AcDbLine
 62
7
  6
CONTINUOUS
 10
243.3017036358
 20
237.6690664293
 11
243.27271353
 21
237.8756843611
  0
LINE
  5
2AF
100
AcDbEntity
  8
0
100
AcDbLine
 62
7
  6
CONTINUOUS
 10
243.3886053478
 20
237.6651060536
 11
243.3590595704
 21
237.8756843611
  0
LINE
  5
2B0
100
AcDbEntity
  8
0
100
AcDbLine
 62
7
  6
CONTINUOUS
 10
243.4032342655
 20
237.6550435825
 11
243.4015672508
 21
237.6669247096
  0
LINE
  5
2B1
100
AcDbEntity
  8
0
100
AcDbLine
 62
7
  6
CONTINUOUS
 10
243.5031777302
 20
237.6690664293
 11
243.4741876243
 21
237.8756843611
  0
LINE
  5
2B2
100
AcDbEntity
  8
0
100
AcDbLine
 62
7
  6
CONTINUOUS
 10
243.5900794422
 20
237.6651060536
 11
243.5605336648
 21
237.8756843611
  0
LINE
  5
2B3
100
AcDbEntity
  8
0
100
AcDbLine
 62
7
  6
CONTINUOUS
 10
243.6047083599
 20
237.6550435825
 11
243.6030413452
 21
237.6669247096
  0
LINE
  5
2B4
100
AcDbEntity
  8
0
100
AcDbLine
 62
7
  6
CONTINUOUS
 10
243.7046518245
 20
237.6690664293
 11
243.6756617187
 21
237.8756843611
  0
LINE
  5
2B5
100
AcDbEntity
  8
0
100
AcDbLine
 62
7
  6
CONTINUOUS
 10
243.7915535365
 20
237.6651060536
 11
243.7620077591
 21
237.8756843611
  0
LINE
  5
2B6
100
AcDbEntity
  8
0
100
AcDbLine
 62
7
  6
CONTINUOUS
 10
243.8739866027
 20
237.1717906753
 11
243.8045154395
 21
237.6669247096
  0
LINE
  5
2B7
100
AcDbEntity
  8
0
100
AcDbLine
 62
7
  6
CONTINUOUS
 10
243.9466069763
 20
237.3805503267
 11
243.877135813
 21
237.8756843611
  0
LINE
  5
2B8
100
AcDbEntity
  8
0
100
AcDbLine
 62
7
  6
CONTINUOUS
 10
244.0329530167
 20
237.3805503267
 11
243.9634818535
 21
237.8756843611
  0
LINE
  5
2B9
100
AcDbEntity
  8
0
100
AcDbLine
 62
7
  6
CONTINUOUS
 10
244.1480810706
 20
237.3805503267
 11
244.0786099074
 21
237.8756843611
  0
LINE
  5
2BA
100
AcDbEntity
  8
0
100
AcDbLine
 62
7
  6
CONTINUOUS
 10
244.2344271111
 20
237.3805503267
 11
244.1649559478
 21
237.8756843611
  0
LINE
  5
2BB
100
AcDbEntity
  8
0
100
AcDbLine
 62
7
  6
CONTINUOUS
 10
244.349555165
 20
237.3805503267
 11
244.2800840018
 21
237.8756843611
  0
LINE
  5
2BC
100
AcDbEntity
  8
0
100
AcDbLine
 62
7
  6
CONTINUOUS
 10
244.4359012054
 20
237.3805503267
 11
244.3664300422
 21
237.8756843611
  0
LINE
  5
2BD
100
AcDbEntity
  8
0
100
AcDbLine
 62
7
  6
CONTINUOUS
 10
244.5510292593
 20
237.3805503267
 11
244.4815580961
 21
237.8756843611
  0
LINE
  5
2BE
100
AcDbEntity
  8
0
100
AcDbLine
 62
7
  6
CONTINUOUS
 10
244.6373752998
 20
237.3805503267
 11
244.5679041366
 21
237.8756843611
  0
LINE
  5
2BF
100
AcDbEntity
  8
0
100
AcDbLine
 62
7
  6
CONTINUOUS
 10
244.7525033537
 20
237.3805503267
 11
244.6830321905
 21
237.8756843611
  0
LINE
  5
2C0
100
AcDbEntity
  8
0
100
AcDbLine
 62
7
  6
CONTINUOUS
 10
244.647210307
 20
238.1421494358
 11
244.6455432923
 21
238.154030563
  0
LINE
  5
2C1
100
AcDbEntity
  8
0
100
AcDbLine
 62
7
  6
CONTINUOUS
 10
244.8388493941
 20
237.3805503267
 11
244.7693782309
 21
237.8756843611
  0
LINE
  5
2C2
100
AcDbEntity
  8
0
100
AcDbLine
 62
7
  6
CONTINUOUS
 10
244.9539774481
 20
237.3805503267
 11
244.8845062848
 21
237.8756843611
  0
LINE
  5
2C3
100
AcDbEntity
  8
0
100
AcDbLine
 62
7
  6
CONTINUOUS
 10
244.8486844013
 20
238.1421494358
 11
244.8470173866
 21
238.154030563
  0
LINE
  5
2C4
100
AcDbEntity
  8
0
100
AcDbLine
 62
7
  6
CONTINUOUS
 10
245.0403234885
 20
237.3805503267
 11
244.9708523253
 21
237.8756843611
  0
LINE
  5
2C5
100
AcDbEntity
  8
0
100
AcDbLine
 62
7
  6
CONTINUOUS
 10
245.1554515424
 20
237.3805503267
 11
245.0859803792
 21
237.8756843611
  0
LINE
  5
2C6
100
AcDbEntity
  8
0
100
AcDbLine
 62
7
  6
CONTINUOUS
 10
245.0501584957
 20
238.1421494358
 11
245.048491481
 21
238.154030563
  0
LINE
  5
2C7
100
AcDbEntity
  8
0
100
AcDbLine
 62
7
  6
CONTINUOUS
 10
245.2417975829
 20
237.3805503267
 11
245.1723264196
 21
237.8756843611
  0
LINE
  5
2C8
100
AcDbEntity
  8
0
100
AcDbLine
 62
7
  6
CONTINUOUS
 10
245.3569256368
 20
237.3805503267
 11
245.2874544736
 21
237.8756843611
  0
LINE
  5
2C9
100
AcDbEntity
  8
0
100
AcDbLine
 62
7
  6
CONTINUOUS
 10
245.2516325901
 20
238.1421494358
 11
245.2499655753
 21
238.154030563
  0
LINE
  5
2CA
100
AcDbEntity
  8
0
100
AcDbLine
 62
7
  6
CONTINUOUS
 10
245.4531066844
 20
238.1421494358
 11
245.4514396697
 21
238.154030563
  0
LINE
  5
2CB
100
AcDbEntity
  8
0
100
AcDbLine
 62
7
  6
CONTINUOUS
 10
245.6545807788
 20
238.1421494358
 11
245.6529137641
 21
238.154030563
  0
LINE
  5
2CC
100
AcDbEntity
  8
0
100
AcDbLine
 62
7
  6
CONTINUOUS
 10
245.8560548731
 20
238.1421494358
 11
245.8543878584
 21
238.154030563
  0
LINE
  5
2CD
100
AcDbEntity
  8
0
100
AcDbLine
 62
7
  6
CONTINUOUS
 10
246.0429000498
 20
238.152211907
 11
246.0133542724
 21
238.3627902144
  0
LINE
  5
2CE
100
AcDbEntity
  8
0
100
AcDbLine
 62
7
  6
CONTINUOUS
 10
246.0575289675
 20
238.1421494358
 11
246.0558619528
 21
238.154030563
  0
LINE
  5
2CF
100
AcDbEntity
  8
0
100
AcDbLine
 62
7
  6
CONTINUOUS
 10
246.1574724321
 20
238.1561722827
 11
246.1284823263
 21
238.3627902144
  0
LINE
  5
2D0
100
AcDbEntity
  8
0
100
AcDbLine
 62
7
  6
CONTINUOUS
 10
246.2443741441
 20
238.152211907
 11
246.2148283667
 21
238.3627902144
  0
LINE
  5
2D1
100
AcDbEntity
  8
0
100
AcDbLine
 62
7
  6
CONTINUOUS
 10
246.2590030618
 20
238.1421494358
 11
246.2573360471
 21
238.154030563
  0
LINE
  5
2D2
100
AcDbEntity
  8
0
100
AcDbLine
 62
7
  6
CONTINUOUS
 10
246.3589465265
 20
238.1561722827
 11
246.3299564206
 21
238.3627902144
  0
LINE
  5
2D3
100
AcDbEntity
  8
0
100
AcDbLine
 62
7
  6
CONTINUOUS
 10
246.4458482385
 20
238.152211907
 11
246.4163024611
 21
238.3627902144
  0
LINE
  5
2D4
100
AcDbEntity
  8
0
100
AcDbLine
 62
7
  6
CONTINUOUS
 10
246.4604771562
 20
238.1421494358
 11
246.4588101415
 21
238.154030563
  0
LINE
  5
2D5
100
AcDbEntity
  8
0
100
AcDbLine
 62
7
  6
CONTINUOUS
 10
246.5604206208
 20
238.1561722827
 11
246.531430515
 21
238.3627902144
  0
LINE
  5
2D6
100
AcDbEntity
  8
0
100
AcDbLine
 62
7
  6
CONTINUOUS
 10
246.6473223328
 20
238.152211907
 11
246.6177765554
 21
238.3627902144
  0
LINE
  5
2D7
100
AcDbEntity
  8
0
100
AcDbLine
 62
7
  6
CONTINUOUS
 10
246.6619512506
 20
238.1421494358
 11
246.6602842358
 21
238.154030563
  0
LINE
  5
2D8
100
AcDbEntity
  8
0
100
AcDbLine
 62
7
  6
CONTINUOUS
 10
241.5750980873
 20
205.2822639417
 11
241.6902261412
 21
203.2822639417
  0
LINE
  5
2D9
100
AcDbEntity
  8
0
100
AcDbLine
 62
7
  6
CONTINUOUS
 10
239.2083402484
 20
207.2925349414
 11
239.2083402484
 21
203.2822639417
  0
LINE
  5
2DA
100
AcDbEntity
  8
0
100
AcDbLine
 62
7
  6
CONTINUOUS
 10
239.2149729819
 20
203.2822639417
 11
239.2149729819
 21
207.2822639417
  0
LINE
  5
2DB
100
AcDbEntity
  8
0
100
AcDbLine
 62
7
  6
CONTINUOUS
 10
241.920482249
 20
203.2822639417
 11
241.920482249
 21
207.2822639417
  0
LINE
  5
2DC
100
AcDbEntity
  8
0
100
AcDbLine
 62
7
  6
CONTINUOUS
 10
266.6613766447
 20
222.9122639417
 11
269.4609221444
 21
222.9122639417
  0
LINE
  5
2DD
100
AcDbEntity
  8
0
100
AcDbLine
 62
7
  6
CONTINUOUS
 10
271.0267581063
 20
225.5322639417
 11
270.6095118354
 21
225.5322639417
  0
LINE
  5
2DE
100
AcDbEntity
  8
0
100
AcDbLine
 62
7
  6
CONTINUOUS
 10
246.7618947152
 20
238.1561722827
 11
246.7329046094
 21
238.3627902144
  0
LINE
  5
2DF
100
AcDbEntity
  8
0
100
AcDbLine
 62
7
  6
CONTINUOUS
 10
246.8487964272
 20
238.152211907
 11
246.8192506498
 21
238.3627902144
  0
LINE
  5
2E0
100
AcDbEntity
  8
0
100
AcDbLine
 62
7
  6
CONTINUOUS
 10
246.8634253449
 20
238.1421494358
 11
246.8617583302
 21
238.154030563
  0
LINE
  5
2E1
100
AcDbEntity
  8
0
100
AcDbLine
 62
7
  6
CONTINUOUS
 10
246.9633688095
 20
238.1561722827
 11
246.9343787037
 21
238.3627902144
  0
LINE
  5
2E2
100
AcDbEntity
  8
0
100
AcDbLine
 62
7
  6
CONTINUOUS
 10
247.0502705216
 20
238.152211907
 11
247.0207247442
 21
238.3627902144
  0
LINE
  5
2E3
100
AcDbEntity
  8
0
100
AcDbLine
 62
7
  6
CONTINUOUS
 10
247.0648994393
 20
238.1421494358
 11
247.0632324246
 21
238.154030563
  0
LINE
  5
2E4
100
AcDbEntity
  8
0
100
AcDbLine
 62
7
  6
CONTINUOUS
 10
247.1648429039
 20
238.1561722827
 11
247.1358527981
 21
238.3627902144
  0
LINE
  5
2E5
100
AcDbEntity
  8
0
100
AcDbLine
 62
7
  6
CONTINUOUS
 10
247.2517446159
 20
238.152211907
 11
247.2221988385
 21
238.3627902144
  0
LINE
  5
2E6
100
AcDbEntity
  8
0
100
AcDbLine
 62
7
  6
CONTINUOUS
 10
247.3341776821
 20
237.6588965286
 11
247.2647065189
 21
238.154030563
  0
LINE
  5
2E7
100
AcDbEntity
  8
0
100
AcDbLine
 62
7
  6
CONTINUOUS
 10
247.4067980557
 20
237.8676561801
 11
247.3373268924
 21
238.3627902144
  0
LINE
  5
2E8
100
AcDbEntity
  8
0
100
AcDbLine
 62
7
  6
CONTINUOUS
 10
247.4931440961
 20
237.8676561801
 11
247.4236729329
 21
238.3627902144
  0
LINE
  5
2E9
100
AcDbEntity
  8
0
100
AcDbLine
 62
7
  6
CONTINUOUS
 10
247.60827215
 20
237.8676561801
 11
247.5388009868
 21
238.3627902144
  0
LINE
  5
2EA
100
AcDbEntity
  8
0
100
AcDbLine
 62
7
  6
CONTINUOUS
 10
247.6946181904
 20
237.8676561801
 11
247.6251470272
 21
238.3627902144
  0
LINE
  5
2EB
100
AcDbEntity
  8
0
100
AcDbLine
 62
7
  6
CONTINUOUS
 10
247.8097462444
 20
237.8676561801
 11
247.7402750812
 21
238.3627902144
  0
LINE
  5
2EC
100
AcDbEntity
  8
0
100
AcDbLine
 62
7
  6
CONTINUOUS
 10
247.8960922848
 20
237.8676561801
 11
247.8266211216
 21
238.3627902144
  0
LINE
  5
2ED
100
AcDbEntity
  8
0
100
AcDbLine
 62
7
  6
CONTINUOUS
 10
248.0112203387
 20
237.8676561801
 11
247.9417491755
 21
238.3627902144
  0
LINE
  5
2EE
100
AcDbEntity
  8
0
100
AcDbLine
 62
7
  6
CONTINUOUS
 10
248.0975663792
 20
237.8676561801
 11
248.0280952159
 21
238.3627902144
  0
LINE
  5
2EF
100
AcDbEntity
  8
0
100
AcDbLine
 62
7
  6
CONTINUOUS
 10
248.2126944331
 20
237.8676561801
 11
248.1432232699
 21
238.3627902144
  0
LINE
  5
2F0
100
AcDbEntity
  8
0
100
AcDbLine
 62
7
  6
CONTINUOUS
 10
248.1074013864
 20
238.6292552892
 11
248.1057343716
 21
238.6411364163
  0
LINE
  5
2F1
100
AcDbEntity
  8
0
100
AcDbLine
 62
7
  6
CONTINUOUS
 10
248.2990404735
 20
237.8676561801
 11
248.2295693103
 21
238.3627902144
  0
LINE
  5
2F2
100
AcDbEntity
  8
0
100
AcDbLine
 62
7
  6
CONTINUOUS
 10
248.4141685274
 20
237.8676561801
 11
248.3446973642
 21
238.3627902144
  0
LINE
  5
2F3
100
AcDbEntity
  8
0
100
AcDbLine
 62
7
  6
CONTINUOUS
 10
248.3088754807
 20
238.6292552892
 11
248.307208466
 21
238.6411364163
  0
LINE
  5
2F4
100
AcDbEntity
  8
0
100
AcDbLine
 62
7
  6
CONTINUOUS
 10
248.5005145679
 20
237.8676561801
 11
248.4310434047
 21
238.3627902144
  0
LINE
  5
2F5
100
AcDbEntity
  8
0
100
AcDbLine
 62
7
  6
CONTINUOUS
 10
248.6156426218
 20
237.8676561801
 11
248.5461714586
 21
238.3627902144
  0
LINE
  5
2F6
100
AcDbEntity
  8
0
100
AcDbLine
 62
7
  6
CONTINUOUS
 10
248.5103495751
 20
238.6292552892
 11
248.5086825604
 21
238.6411364163
  0
LINE
  5
2F7
100
AcDbEntity
  8
0
100
AcDbLine
 62
7
  6
CONTINUOUS
 10
248.7019886622
 20
237.8676561801
 11
248.632517499
 21
238.3627902144
  0
LINE
  5
2F8
100
AcDbEntity
  8
0
100
AcDbLine
 62
7
  6
CONTINUOUS
 10
248.8171167162
 20
237.8676561801
 11
248.7476455529
 21
238.3627902144
  0
LINE
  5
2F9
100
AcDbEntity
  8
0
100
AcDbLine
 62
7
  6
CONTINUOUS
 10
248.7118236694
 20
238.6292552892
 11
248.7101566547
 21
238.6411364163
  0
LINE
  5
2FA
100
AcDbEntity
  8
0
100
AcDbLine
 62
7
  6
CONTINUOUS
 10
248.9132977638
 20
238.6292552892
 11
248.9116307491
 21
238.6411364163
  0
LINE
  5
2FB
100
AcDbEntity
  8
0
100
AcDbLine
 62
7
  6
CONTINUOUS
 10
249.1147718582
 20
238.6292552892
 11
249.1131048434
 21
238.6411364163
  0
LINE
  5
2FC
100
AcDbEntity
  8
0
100
AcDbLine
 62
7
  6
CONTINUOUS
 10
249.3162459525
 20
238.6292552892
 11
249.3145789378
 21
238.6411364163
  0
LINE
  5
2FD
100
AcDbEntity
  8
0
100
AcDbLine
 62
7
  6
CONTINUOUS
 10
249.5030911292
 20
238.6393177604
 11
249.4735453518
 21
238.8498960678
  0
LINE
  5
2FE
100
AcDbEntity
  8
0
100
AcDbLine
 62
7
  6
CONTINUOUS
 10
249.5177200469
 20
238.6292552892
 11
249.5160530322
 21
238.6411364163
  0
LINE
  5
2FF
100
AcDbEntity
  8
0
100
AcDbLine
 62
7
  6
CONTINUOUS
 10
249.6176635115
 20
238.6432781361
 11
249.5886734057
 21
238.8498960678
  0
LINE
  5
300
100
AcDbEntity
  8
0
100
AcDbLine
 62
7
  6
CONTINUOUS
 10
249.7045652235
 20
238.6393177604
 11
249.6750194461
 21
238.8498960678
  0
LINE
  5
301
100
AcDbEntity
  8
0
100
AcDbLine
 62
7
  6
CONTINUOUS
 10
249.7191941412
 20
238.6292552892
 11
249.7175271265
 21
238.6411364163
  0
LINE
  5
302
100
AcDbEntity
  8
0
100
AcDbLine
 62
7
  6
CONTINUOUS
 10
249.8191376059
 20
238.6432781361
 11
249.7901475
 21
238.8498960678
  0
LINE
  5
303
100
AcDbEntity
  8
0
100
AcDbLine
 62
7
  6
CONTINUOUS
 10
249.9060393179
 20
238.6393177604
 11
249.8764935405
 21
238.8498960678
  0
LINE
  5
304
100
AcDbEntity
  8
0
100
AcDbLine
 62
7
  6
CONTINUOUS
 10
249.9206682356
 20
238.6292552892
 11
249.9190012209
 21
238.6411364163
  0
LINE
  5
305
100
AcDbEntity
  8
0
100
AcDbLine
 62
7
  6
CONTINUOUS
 10
250.0206117002
 20
238.6432781361
 11
249.9916215944
 21
238.8498960678
  0
LINE
  5
306
100
AcDbEntity
  8
0
100
AcDbLine
 62
7
  6
CONTINUOUS
 10
250.1075134122
 20
238.6393177604
 11
250.0779676348
 21
238.8498960678
  0
LINE
  5
307
100
AcDbEntity
  8
0
100
AcDbLine
 62
7
  6
CONTINUOUS
 10
250.12214233
 20
238.6292552892
 11
250.1204753152
 21
238.6411364163
  0
LINE
  5
308
100
AcDbEntity
  8
0
100
AcDbLine
 62
7
  6
CONTINUOUS
 10
250.2220857946
 20
238.6432781361
 11
250.1930956887
 21
238.8498960678
  0
LINE
  5
309
100
AcDbEntity
  8
0
100
AcDbLine
 62
7
  6
CONTINUOUS
 10
250.3089875066
 20
238.6393177604
 11
250.2794417292
 21
238.8498960678
  0
LINE
  5
30A
100
AcDbEntity
  8
0
100
AcDbLine
 62
7
  6
CONTINUOUS
 10
250.3236164243
 20
238.6292552892
 11
250.3219494096
 21
238.6411364163
  0
LINE
  5
30B
100
AcDbEntity
  8
0
100
AcDbLine
 62
7
  6
CONTINUOUS
 10
250.4235598889
 20
238.6432781361
 11
250.3945697831
 21
238.8498960678
  0
LINE
  5
30C
100
AcDbEntity
  8
0
100
AcDbLine
 62
7
  6
CONTINUOUS
 10
250.510461601
 20
238.6393177604
 11
250.4809158235
 21
238.8498960678
  0
LINE
  5
30D
100
AcDbEntity
  8
0
100
AcDbLine
 62
7
  6
CONTINUOUS
 10
250.5250905187
 20
238.6292552892
 11
250.5234235039
 21
238.6411364163
  0
LINE
  5
30E
100
AcDbEntity
  8
0
100
AcDbLine
 62
7
  6
CONTINUOUS
 10
250.6250339833
 20
238.6432781361
 11
250.5960438775
 21
238.8498960678
  0
LINE
  5
30F
100
AcDbEntity
  8
0
100
AcDbLine
 62
7
  6
CONTINUOUS
 10
250.7119356953
 20
238.6393177604
 11
250.6823899179
 21
238.8498960678
  0
LINE
  5
310
100
AcDbEntity
  8
0
100
AcDbLine
 62
7
  6
CONTINUOUS
 10
250.7943687615
 20
238.146002382
 11
250.7248975983
 21
238.6411364163
  0
LINE
  5
311
100
AcDbEntity
  8
0
100
AcDbLine
 62
7
  6
CONTINUOUS
 10
250.866989135
 20
238.3547620334
 11
250.7975179718
 21
238.8498960678
  0
LINE
  5
312
100
AcDbEntity
  8
0
100
AcDbLine
 62
7
  6
CONTINUOUS
 10
250.9533351755
 20
238.3547620334
 11
250.8838640123
 21
238.8498960678
  0
LINE
  5
313
100
AcDbEntity
  8
0
100
AcDbLine
 62
7
  6
CONTINUOUS
 10
251.0684632294
 20
238.3547620334
 11
250.9989920662
 21
238.8498960678
  0
LINE
  5
314
100
AcDbEntity
  8
0
100
AcDbLine
 62
7
  6
CONTINUOUS
 10
251.1548092698
 20
238.3547620334
 11
251.0853381066
 21
238.8498960678
  0
LINE
  5
315
100
AcDbEntity
  8
0
100
AcDbLine
 62
7
  6
CONTINUOUS
 10
251.2699373238
 20
238.3547620334
 11
251.2004661605
 21
238.8498960678
  0
LINE
  5
316
100
AcDbEntity
  8
0
100
AcDbLine
 62
7
  6
CONTINUOUS
 10
251.3562833642
 20
238.3547620334
 11
251.286812201
 21
238.8498960678
  0
LINE
  5
317
100
AcDbEntity
  8
0
100
AcDbLine
 62
7
  6
CONTINUOUS
 10
251.4714114181
 20
238.3547620334
 11
251.4019402549
 21
238.8498960678
  0
LINE
  5
318
100
AcDbEntity
  8
0
100
AcDbLine
 62
7
  6
CONTINUOUS
 10
251.5577574586
 20
238.3547620334
 11
251.4882862953
 21
238.8498960678
  0
LINE
  5
319
100
AcDbEntity
  8
0
100
AcDbLine
 62
7
  6
CONTINUOUS
 10
251.6728855125
 20
238.3547620334
 11
251.6034143493
 21
238.8498960678
  0
LINE
  5
31A
100
AcDbEntity
  8
0
100
AcDbLine
 62
7
  6
CONTINUOUS
 10
251.5675924658
 20
239.1163611426
 11
251.565925451
 21
239.1282422697
  0
LINE
  5
31B
100
AcDbEntity
  8
0
100
AcDbLine
 62
7
  6
CONTINUOUS
 10
251.7592315529
 20
238.3547620334
 11
251.6897603897
 21
238.8498960678
  0
LINE
  5
31C
100
AcDbEntity
  8
0
100
AcDbLine
 62
7
  6
CONTINUOUS
 10
251.8743596068
 20
238.3547620334
 11
251.8048884436
 21
238.8498960678
  0
LINE
  5
31D
100
AcDbEntity
  8
0
100
AcDbLine
 62
7
  6
CONTINUOUS
 10
251.7690665601
 20
239.1163611426
 11
251.7673995454
 21
239.1282422697
  0
LINE
  5
31E
100
AcDbEntity
  8
0
100
AcDbLine
 62
7
  6
CONTINUOUS
 10
251.9607056473
 20
238.3547620334
 11
251.8912344841
 21
238.8498960678
  0
LINE
  5
31F
100
AcDbEntity
  8
0
100
AcDbLine
 62
7
  6
CONTINUOUS
 10
252.0758337012
 20
238.3547620334
 11
252.006362538
 21
238.8498960678
  0
LINE
  5
320
100
AcDbEntity
  8
0
100
AcDbLine
 62
7
  6
CONTINUOUS
 10
251.9705406545
 20
239.1163611426
 11
251.9688736398
 21
239.1282422697
  0
LINE
  5
321
100
AcDbEntity
  8
0
100
AcDbLine
 62
7
  6
CONTINUOUS
 10
252.1621797416
 20
238.3547620334
 11
252.0927085784
 21
238.8498960678
  0
LINE
  5
322
100
AcDbEntity
  8
0
100
AcDbLine
 62
7
  6
CONTINUOUS
 10
252.2773077955
 20
238.3547620334
 11
252.2078366323
 21
238.8498960678
  0
LINE
  5
323
100
AcDbEntity
  8
0
100
AcDbLine
 62
7
  6
CONTINUOUS
 10
252.1720147488
 20
239.1163611426
 11
252.1703477341
 21
239.1282422697
  0
LINE
  5
324
100
AcDbEntity
  8
0
100
AcDbLine
 62
7
  6
CONTINUOUS
 10
252.3734888432
 20
239.1163611426
 11
252.3718218285
 21
239.1282422697
  0
LINE
  5
325
100
AcDbEntity
  8
0
100
AcDbLine
 62
7
  6
CONTINUOUS
 10
252.5749629375
 20
239.1163611426
 11
252.5732959228
 21
239.1282422697
  0
LINE
  5
326
100
AcDbEntity
  8
0
100
AcDbLine
 62
7
  6
CONTINUOUS
 10
252.7764370319
 20
239.1163611426
 11
252.7747700172
 21
239.1282422697
  0
LINE
  5
327
100
AcDbEntity
  8
0
100
AcDbLine
 62
7
  6
CONTINUOUS
 10
252.9632822085
 20
239.1264236137
 11
252.9337364311
 21
239.3370019211
  0
LINE
  5
328
100
AcDbEntity
  8
0
100
AcDbLine
 62
7
  6
CONTINUOUS
 10
252.9779111263
 20
239.1163611426
 11
252.9762441115
 21
239.1282422697
  0
LINE
  5
329
100
AcDbEntity
  8
0
100
AcDbLine
 62
7
  6
CONTINUOUS
 10
253.0778545909
 20
239.1303839894
 11
253.0488644851
 21
239.3370019211
  0
LINE
  5
32A
100
AcDbEntity
  8
0
100
AcDbLine
 62
7
  6
CONTINUOUS
 10
253.1647563029
 20
239.1264236137
 11
253.1352105255
 21
239.3370019211
  0
LINE
  5
32B
100
AcDbEntity
  8
0
100
AcDbLine
 62
7
  6
CONTINUOUS
 10
253.1793852206
 20
239.1163611426
 11
253.1777182059
 21
239.1282422697
  0
LINE
  5
32C
100
AcDbEntity
  8
0
100
AcDbLine
 62
7
  6
CONTINUOUS
 10
253.2793286853
 20
239.1303839894
 11
253.2503385794
 21
239.3370019211
  0
LINE
  5
32D
100
AcDbEntity
  8
0
100
AcDbLine
 62
7
  6
CONTINUOUS
 10
253.3662303973
 20
239.1264236137
 11
253.3366846199
 21
239.3370019211
  0
LINE
  5
32E
100
AcDbEntity
  8
0
100
AcDbLine
 62
7
  6
CONTINUOUS
 10
253.380859315
 20
239.1163611426
 11
253.3791923003
 21
239.1282422697
  0
LINE
  5
32F
100
AcDbEntity
  8
0
100
AcDbLine
 62
7
  6
CONTINUOUS
 10
253.4808027796
 20
239.1303839894
 11
253.4518126738
 21
239.3370019211
  0
LINE
  5
330
100
AcDbEntity
  8
0
100
AcDbLine
 62
7
  6
CONTINUOUS
 10
253.5677044916
 20
239.1264236137
 11
253.5381587142
 21
239.3370019211
  0
LINE
  5
331
100
AcDbEntity
  8
0
100
AcDbLine
 62
7
  6
CONTINUOUS
 10
253.5823334093
 20
239.1163611426
 11
253.5806663946
 21
239.1282422697
  0
LINE
  5
332
100
AcDbEntity
  8
0
100
AcDbLine
 62
7
  6
CONTINUOUS
 10
253.682276874
 20
239.1303839894
 11
253.6532867681
 21
239.3370019211
  0
LINE
  5
333
100
AcDbEntity
  8
0
100
AcDbLine
 62
7
  6
CONTINUOUS
 10
253.769178586
 20
239.1264236137
 11
253.7396328086
 21
239.3370019211
  0
LINE
  5
334
100
AcDbEntity
  8
0
100
AcDbLine
 62
7
  6
CONTINUOUS
 10
253.7838075037
 20
239.1163611426
 11
253.782140489
 21
239.1282422697
  0
LINE
  5
335
100
AcDbEntity
  8
0
100
AcDbLine
 62
7
  6
CONTINUOUS
 10
253.8837509683
 20
239.1303839894
 11
253.8547608625
 21
239.3370019211
  0
LINE
  5
336
100
AcDbEntity
  8
0
100
AcDbLine
 62
7
  6
CONTINUOUS
 10
253.9706526803
 20
239.1264236137
 11
253.9411069029
 21
239.3370019211
  0
LINE
  5
337
100
AcDbEntity
  8
0
100
AcDbLine
 62
7
  6
CONTINUOUS
 10
253.9852815981
 20
239.1163611426
 11
253.9836145833
 21
239.1282422697
  0
LINE
  5
338
100
AcDbEntity
  8
0
100
AcDbLine
 62
7
  6
CONTINUOUS
 10
254.0852250627
 20
239.1303839894
 11
254.0562349569
 21
239.3370019211
  0
LINE
  5
339
100
AcDbEntity
  8
0
100
AcDbLine
 62
7
  6
CONTINUOUS
 10
254.1721267747
 20
239.1264236137
 11
254.1425809973
 21
239.3370019211
  0
LINE
  5
33A
100
AcDbEntity
  8
0
100
AcDbLine
 62
7
  6
CONTINUOUS
 10
254.2545598409
 20
238.6331082353
 11
254.1850886777
 21
239.1282422697
  0
LINE
  5
33B
100
AcDbEntity
  8
0
100
AcDbLine
 62
7
  6
CONTINUOUS
 10
254.3271802144
 20
238.8418678868
 11
254.2577090512
 21
239.3370019211
  0
LINE
  5
33C
100
AcDbEntity
  8
0
100
AcDbLine
 62
7
  6
CONTINUOUS
 10
254.4135262549
 20
238.8418678868
 11
254.3440550916
 21
239.3370019211
  0
LINE
  5
33D
100
AcDbEntity
  8
0
100
AcDbLine
 62
7
  6
CONTINUOUS
 10
254.5286543088
 20
238.8418678868
 11
254.4591831456
 21
239.3370019211
  0
LINE
  5
33E
100
AcDbEntity
  8
0
100
AcDbLine
 62
7
  6
CONTINUOUS
 10
254.6150003492
 20
238.8418678868
 11
254.545529186
 21
239.3370019211
  0
LINE
  5
33F
100
AcDbEntity
  8
0
100
AcDbLine
 62
7
  6
CONTINUOUS
 10
254.7301284031
 20
238.8418678868
 11
254.6606572399
 21
239.3370019211
  0
LINE
  5
340
100
AcDbEntity
  8
0
100
AcDbLine
 62
7
  6
CONTINUOUS
 10
254.8164744436
 20
238.8418678868
 11
254.7470032804
 21
239.3370019211
  0
LINE
  5
341
100
AcDbEntity
  8
0
100
AcDbLine
 62
7
  6
CONTINUOUS
 10
254.9316024975
 20
238.8418678868
 11
254.8621313343
 21
239.3370019211
  0
LINE
  5
342
100
AcDbEntity
  8
0
100
AcDbLine
 62
7
  6
CONTINUOUS
 10
255.0179485379
 20
238.8418678868
 11
254.9484773747
 21
239.3370019211
  0
LINE
  5
343
100
AcDbEntity
  8
0
100
AcDbLine
 62
7
  6
CONTINUOUS
 10
255.1330765919
 20
238.8418678868
 11
255.0636054286
 21
239.3370019211
  0
LINE
  5
344
100
AcDbEntity
  8
0
100
AcDbLine
 62
7
  6
CONTINUOUS
 10
255.0277835451
 20
239.6034669959
 11
255.0261165304
 21
239.6153481231
  0
LINE
  5
345
100
AcDbEntity
  8
0
100
AcDbLine
 62
7
  6
CONTINUOUS
 10
255.2194226323
 20
238.8418678868
 11
255.1499514691
 21
239.3370019211
  0
LINE
  5
346
100
AcDbEntity
  8
0
100
AcDbLine
 62
7
  6
CONTINUOUS
 10
255.3345506862
 20
238.8418678868
 11
255.265079523
 21
239.3370019211
  0
LINE
  5
347
100
AcDbEntity
  8
0
100
AcDbLine
 62
7
  6
CONTINUOUS
 10
255.2292576395
 20
239.6034669959
 11
255.2275906248
 21
239.6153481231
  0
LINE
  5
348
100
AcDbEntity
  8
0
100
AcDbLine
 62
7
  6
CONTINUOUS
 10
255.4208967267
 20
238.8418678868
 11
255.3514255634
 21
239.3370019211
  0
LINE
  5
349
100
AcDbEntity
  8
0
100
AcDbLine
 62
7
  6
CONTINUOUS
 10
255.5360247806
 20
238.8418678868
 11
255.4665536174
 21
239.3370019211
  0
LINE
  5
34A
100
AcDbEntity
  8
0
100
AcDbLine
 62
7
  6
CONTINUOUS
 10
255.4307317339
 20
239.6034669959
 11
255.4290647191
 21
239.6153481231
  0
LINE
  5
34B
100
AcDbEntity
  8
0
100
AcDbLine
 62
7
  6
CONTINUOUS
 10
255.622370821
 20
238.8418678868
 11
255.5528996578
 21
239.3370019211
  0
LINE
  5
34C
100
AcDbEntity
  8
0
100
AcDbLine
 62
7
  6
CONTINUOUS
 10
255.7374988749
 20
238.8418678868
 11
255.6680277117
 21
239.3370019211
  0
LINE
  5
34D
100
AcDbEntity
  8
0
100
AcDbLine
 62
7
  6
CONTINUOUS
 10
255.6322058282
 20
239.6034669959
 11
255.6305388135
 21
239.6153481231
  0
LINE
  5
34E
100
AcDbEntity
  8
0
100
AcDbLine
 62
7
  6
CONTINUOUS
 10
255.8336799226
 20
239.6034669959
 11
255.8320129079
 21
239.6153481231
  0
LINE
  5
34F
100
AcDbEntity
  8
0
100
AcDbLine
 62
7
  6
CONTINUOUS
 10
256.0351540169
 20
239.6034669959
 11
256.0334870022
 21
239.6153481231
  0
LINE
  5
350
100
AcDbEntity
  8
0
100
AcDbLine
 62
7
  6
CONTINUOUS
 10
256.2366281113
 20
239.6034669959
 11
256.2349610966
 21
239.6153481231
  0
LINE
  5
351
100
AcDbEntity
  8
0
100
AcDbLine
 62
7
  6
CONTINUOUS
 10
256.4234732879
 20
239.6135294671
 11
256.3939275105
 21
239.8241077745
  0
LINE
  5
352
100
AcDbEntity
  8
0
100
AcDbLine
 62
7
  6
CONTINUOUS
 10
256.4381022057
 20
239.6034669959
 11
256.4364351909
 21
239.6153481231
  0
LINE
  5
353
100
AcDbEntity
  8
0
100
AcDbLine
 62
7
  6
CONTINUOUS
 10
256.5380456703
 20
239.6174898428
 11
256.5090555644
 21
239.8241077745
  0
LINE
  5
354
100
AcDbEntity
  8
0
100
AcDbLine
 62
7
  6
CONTINUOUS
 10
256.6249473823
 20
239.6135294671
 11
256.5954016049
 21
239.8241077745
  0
LINE
  5
355
100
AcDbEntity
  8
0
100
AcDbLine
 62
7
  6
CONTINUOUS
 10
256.6395763
 20
239.6034669959
 11
256.6379092853
 21
239.6153481231
  0
LINE
  5
356
100
AcDbEntity
  8
0
100
AcDbLine
 62
7
  6
CONTINUOUS
 10
256.7395197646
 20
239.6174898428
 11
256.7105296588
 21
239.8241077745
  0
LINE
  5
357
100
AcDbEntity
  8
0
100
AcDbLine
 62
7
  6
CONTINUOUS
 10
256.8264214767
 20
239.6135294671
 11
256.7968756992
 21
239.8241077745
  0
LINE
  5
358
100
AcDbEntity
  8
0
100
AcDbLine
 62
7
  6
CONTINUOUS
 10
256.8410503944
 20
239.6034669959
 11
256.8393833796
 21
239.6153481231
  0
LINE
  5
359
100
AcDbEntity
  8
0
100
AcDbLine
 62
7
  6
CONTINUOUS
 10
256.940993859
 20
239.6174898428
 11
256.9120037532
 21
239.8241077745
  0
LINE
  5
35A
100
AcDbEntity
  8
0
100
AcDbLine
 62
7
  6
CONTINUOUS
 10
257.027895571
 20
239.6135294671
 11
256.9983497936
 21
239.8241077745
  0
LINE
  5
35B
100
AcDbEntity
  8
0
100
AcDbLine
 62
7
  6
CONTINUOUS
 10
257.0425244887
 20
239.6034669959
 11
257.040857474
 21
239.6153481231
  0
LINE
  5
35C
100
AcDbEntity
  8
0
100
AcDbLine
 62
7
  6
CONTINUOUS
 10
257.1424679534
 20
239.6174898428
 11
257.1134778475
 21
239.8241077745
  0
LINE
  5
35D
100
AcDbEntity
  8
0
100
AcDbLine
 62
7
  6
CONTINUOUS
 10
257.2293696654
 20
239.6135294671
 11
257.199823888
 21
239.8241077745
  0
LINE
  5
35E
100
AcDbEntity
  8
0
100
AcDbLine
 62
7
  6
CONTINUOUS
 10
257.2439985831
 20
239.6034669959
 11
257.2423315684
 21
239.6153481231
  0
LINE
  5
35F
100
AcDbEntity
  8
0
100
AcDbLine
 62
7
  6
CONTINUOUS
 10
257.3439420477
 20
239.6174898428
 11
257.3149519419
 21
239.8241077745
  0
LINE
  5
360
100
AcDbEntity
  8
0
100
AcDbLine
 62
7
  6
CONTINUOUS
 10
257.4308437597
 20
239.6135294671
 11
257.4012979823
 21
239.8241077745
  0
LINE
  5
361
100
AcDbEntity
  8
0
100
AcDbLine
 62
7
  6
CONTINUOUS
 10
257.4454726774
 20
239.6034669959
 11
257.4438056627
 21
239.6153481231
  0
LINE
  5
362
100
AcDbEntity
  8
0
100
AcDbLine
 62
7
  6
CONTINUOUS
 10
257.5454161421
 20
239.6174898428
 11
257.5164260362
 21
239.8241077745
  0
LINE
  5
363
100
AcDbEntity
  8
0
100
AcDbLine
 62
7
  6
CONTINUOUS
 10
257.6323178541
 20
239.6135294671
 11
257.6027720767
 21
239.8241077745
  0
LINE
  5
364
100
AcDbEntity
  8
0
100
AcDbLine
 62
7
  6
CONTINUOUS
 10
257.7147509203
 20
239.1202140887
 11
257.6452797571
 21
239.6153481231
  0
LINE
  5
365
100
AcDbEntity
  8
0
100
AcDbLine
 62
7
  6
CONTINUOUS
 10
257.7873712938
 20
239.3289737401
 11
257.7179001306
 21
239.8241077745
  0
LINE
  5
366
100
AcDbEntity
  8
0
100
AcDbLine
 62
7
  6
CONTINUOUS
 10
257.8737173343
 20
239.3289737401
 11
257.804246171
 21
239.8241077745
  0
LINE
  5
367
100
AcDbEntity
  8
0
100
AcDbLine
 62
7
  6
CONTINUOUS
 10
257.9888453882
 20
239.3289737401
 11
257.919374225
 21
239.8241077745
  0
LINE
  5
368
100
AcDbEntity
  8
0
100
AcDbLine
 62
7
  6
CONTINUOUS
 10
258.0751914286
 20
239.3289737401
 11
258.0057202654
 21
239.8241077745
  0
LINE
  5
369
100
AcDbEntity
  8
0
100
AcDbLine
 62
7
  6
CONTINUOUS
 10
258.1903194825
 20
239.3289737401
 11
258.1208483193
 21
239.8241077745
  0
LINE
  5
36A
100
AcDbEntity
  8
0
100
AcDbLine
 62
7
  6
CONTINUOUS
 10
258.276665523
 20
239.3289737401
 11
258.2071943598
 21
239.8241077745
  0
LINE
  5
36B
100
AcDbEntity
  8
0
100
AcDbLine
 62
7
  6
CONTINUOUS
 10
258.3917935769
 20
239.3289737401
 11
258.3223224137
 21
239.8241077745
  0
LINE
  5
36C
100
AcDbEntity
  8
0
100
AcDbLine
 62
7
  6
CONTINUOUS
 10
258.4781396173
 20
239.3289737401
 11
258.4086684541
 21
239.8241077745
  0
LINE
  5
36D
100
AcDbEntity
  8
0
100
AcDbLine
 62
7
  6
CONTINUOUS
 10
258.5932676712
 20
239.3289737401
 11
258.523796508
 21
239.8241077745
  0
LINE
  5
36E
100
AcDbEntity
  8
0
100
AcDbLine
 62
7
  6
CONTINUOUS
 10
258.4879746245
 20
240.0905728493
 11
258.4863076098
 21
240.1024539764
  0
LINE
  5
36F
100
AcDbEntity
  8
0
100
AcDbLine
 62
7
  6
CONTINUOUS
 10
258.6796137117
 20
239.3289737401
 11
258.6101425485
 21
239.8241077745
  0
LINE
  5
370
100
AcDbEntity
  8
0
100
AcDbLine
 62
7
  6
CONTINUOUS
 10
258.7947417656
 20
239.3289737401
 11
258.7252706024
 21
239.8241077745
  0
LINE
  5
371
100
AcDbEntity
  8
0
100
AcDbLine
 62
7
  6
CONTINUOUS
 10
258.6894487189
 20
240.0905728493
 11
258.6877817042
 21
240.1024539764
  0
LINE
  5
372
100
AcDbEntity
  8
0
100
AcDbLine
 62
7
  6
CONTINUOUS
 10
258.881087806
 20
239.3289737401
 11
258.8116166428
 21
239.8241077745
  0
LINE
  5
373
100
AcDbEntity
  8
0
100
AcDbLine
 62
7
  6
CONTINUOUS
 10
258.99621586
 20
239.3289737401
 11
258.9267446967
 21
239.8241077745
  0
LINE
  5
374
100
AcDbEntity
  8
0
100
AcDbLine
 62
7
  6
CONTINUOUS
 10
258.8909228132
 20
240.0905728493
 11
258.8892557985
 21
240.1024539764
  0
LINE
  5
375
100
AcDbEntity
  8
0
100
AcDbLine
 62
7
  6
CONTINUOUS
 10
259.0825619004
 20
239.3289737401
 11
259.0130907372
 21
239.8241077745
  0
LINE
  5
376
100
AcDbEntity
  8
0
100
AcDbLine
 62
7
  6
CONTINUOUS
 10
259.1976899543
 20
239.3289737401
 11
259.1282187911
 21
239.8241077745
  0
LINE
  5
377
100
AcDbEntity
  8
0
100
AcDbLine
 62
7
  6
CONTINUOUS
 10
259.0923969076
 20
240.0905728493
 11
259.0907298929
 21
240.1024539764
  0
LINE
  5
378
100
AcDbEntity
  8
0
100
AcDbLine
 62
7
  6
CONTINUOUS
 10
259.293871002
 20
240.0905728493
 11
259.2922039872
 21
240.1024539764
  0
LINE
  5
379
100
AcDbEntity
  8
0
100
AcDbLine
 62
7
  6
CONTINUOUS
 10
259.4953450963
 20
240.0905728493
 11
259.4936780816
 21
240.1024539764
  0
LINE
  5
37A
100
AcDbEntity
  8
0
100
AcDbLine
 62
7
  6
CONTINUOUS
 10
259.6968191907
 20
240.0905728493
 11
259.695152176
 21
240.1024539764
  0
LINE
  5
37B
100
AcDbEntity
  8
0
100
AcDbLine
 62
7
  6
CONTINUOUS
 10
246.1441056233
 20
208.6989306084
 11
246.1441056233
 21
203.2822639417
  0
LINE
  5
37C
100
AcDbEntity
  8
02___PRT_ALL_AXES
100
AcDbLine
 62
7
  6
CONTINUOUS
 10
250.6945130481
 20
214.0489306084
 11
250.6945130481
 21
211.4489306084
  0
LINE
  5
37D
100
AcDbEntity
  8
02___PRT_ALL_AXES
100
AcDbLine
 62
7
  6
CONTINUOUS
 10
258.3945130481
 20
214.0489306084
 11
258.3945130481
 21
213.522095606
  0
LINE
  5
37E
100
AcDbEntity
  8
0
100
AcDbLine
 62
7
  6
CONTINUOUS
 10
239.4452290897
 20
203.2822639417
 11
239.5603571437
 21
205.2822639417
  0
LINE
  5
37F
100
AcDbEntity
  8
0
100
AcDbLine
 62
7
  6
CONTINUOUS
 10
241.5570407769
 20
205.2822639417
 11
241.441912723
 21
203.2822639417
  0
LINE
  5
380
100
AcDbEntity
  8
0
100
AcDbLine
 62
7
  6
CONTINUOUS
 10
230.4451725504
 20
230.2822639417
 11
271.1985970021
 21
230.2822639417
  0
LINE
  5
381
100
AcDbEntity
  8
0
100
AcDbLine
 62
7
  6
CONTINUOUS
 10
230.0047109199
 20
233.4917370699
 11
232.8541302544
 21
233.4917370699
  0
LINE
  5
382
100
AcDbEntity
  8
0
100
AcDbLine
 62
7
  6
CONTINUOUS
 10
231.3642048339
 20
235.2988429414
 11
234.2136241684
 21
235.2988429414
  0
LINE
  5
383
100
AcDbEntity
  8
0
100
AcDbLine
 62
7
  6
CONTINUOUS
 10
231.7473357964
 20
235.3527779207
 11
234.5967551309
 21
235.3527779207
  0
LINE
  5
384
100
AcDbEntity
  8
0
100
AcDbLine
 62
7
  6
CONTINUOUS
 10
231.9696435187
 20
235.3683490107
 11
234.7548083778
 21
235.3683490107
  0
LINE
  5
385
100
AcDbEntity
  8
0
100
AcDbLine
 62
7
  6
CONTINUOUS
 10
234.47272795
 20
236.2393308988
 11
237.293365271
 21
236.2393308988
  0
LINE
  5
386
100
AcDbEntity
  8
0
100
AcDbLine
 62
7
  6
CONTINUOUS
 10
236.1052003861
 20
236.40633862
 11
236.2203284401
 21
236.40633862
  0
LINE
  5
387
100
AcDbEntity
  8
0
100
AcDbLine
 62
7
  6
CONTINUOUS
 10
236.3066744805
 20
236.40633862
 11
236.4218025344
 21
236.40633862
  0
LINE
  5
388
100
AcDbEntity
  8
0
100
AcDbLine
 62
7
  6
CONTINUOUS
 10
235.7022521974
 20
236.40633862
 11
235.8173802513
 21
236.40633862
  0
LINE
  5
389
100
AcDbEntity
  8
0
100
AcDbLine
 62
7
  6
CONTINUOUS
 10
235.9037262918
 20
236.40633862
 11
236.0188543457
 21
236.40633862
  0
LINE
  5
38A
100
AcDbEntity
  8
0
100
AcDbLine
 62
7
  6
CONTINUOUS
 10
237.1125708579
 20
236.40633862
 11
237.2276989118
 21
236.40633862
  0
LINE
  5
38B
100
AcDbEntity
  8
0
100
AcDbLine
 62
7
  6
CONTINUOUS
 10
236.5081485749
 20
236.40633862
 11
236.6232766288
 21
236.40633862
  0
LINE
  5
38C
100
AcDbEntity
  8
0
100
AcDbLine
 62
7
  6
CONTINUOUS
 10
236.7096226692
 20
236.40633862
 11
236.8247507231
 21
236.40633862
  0
LINE
  5
38D
100
AcDbEntity
  8
0
100
AcDbLine
 62
7
  6
CONTINUOUS
 10
236.9110967636
 20
236.40633862
 11
237.0262248175
 21
236.40633862
  0
LINE
  5
38E
100
AcDbEntity
  8
0
100
AcDbLine
 62
7
  6
CONTINUOUS
 10
237.3140449523
 20
236.40633862
 11
237.4291730062
 21
236.40633862
  0
LINE
  5
38F
100
AcDbEntity
  8
0
100
AcDbLine
 62
7
  6
CONTINUOUS
 10
237.5155190466
 20
236.40633862
 11
237.6306471006
 21
236.40633862
  0
LINE
  5
390
100
AcDbEntity
  8
0
100
AcDbLine
 62
7
  6
CONTINUOUS
 10
237.716993141
 20
236.40633862
 11
237.8321211949
 21
236.40633862
  0
LINE
  5
391
100
AcDbEntity
  8
0
100
AcDbLine
 62
7
  6
CONTINUOUS
 10
237.9184672354
 20
236.40633862
 11
238.0335952893
 21
236.40633862
  0
LINE
  5
392
100
AcDbEntity
  8
0
100
AcDbLine
 62
7
  6
CONTINUOUS
 10
238.1199413297
 20
236.40633862
 11
238.2350693836
 21
236.40633862
  0
LINE
  5
393
100
AcDbEntity
  8
0
100
AcDbLine
 62
7
  6
CONTINUOUS
 10
238.3214154241
 20
236.40633862
 11
238.436543478
 21
236.40633862
  0
LINE
  5
394
100
AcDbEntity
  8
0
100
AcDbLine
 62
7
  6
CONTINUOUS
 10
240.3845049176
 20
236.8934444733
 11
240.4864158969
 21
236.8934444733
  0
LINE
  5
395
100
AcDbEntity
  8
0
100
AcDbLine
 62
7
  6
CONTINUOUS
 10
240.5727619373
 20
236.8934444733
 11
240.6878899912
 21
236.8934444733
  0
LINE
  5
396
100
AcDbEntity
  8
0
100
AcDbLine
 62
7
  6
CONTINUOUS
 10
240.7742360317
 20
236.8934444733
 11
240.8893640856
 21
236.8934444733
  0
LINE
  5
397
100
AcDbEntity
  8
0
100
AcDbLine
 62
7
  6
CONTINUOUS
 10
240.975710126
 20
236.8934444733
 11
241.09083818
 21
236.8934444733
  0
LINE
  5
398
100
AcDbEntity
  8
0
100
AcDbLine
 62
7
  6
CONTINUOUS
 10
241.1771842204
 20
236.8934444733
 11
241.2923122743
 21
236.8934444733
  0
LINE
  5
399
100
AcDbEntity
  8
0
100
AcDbLine
 62
7
  6
CONTINUOUS
 10
241.3786583147
 20
236.8934444733
 11
241.4937863687
 21
236.8934444733
  0
LINE
  5
39A
100
AcDbEntity
  8
0
100
AcDbLine
 62
7
  6
CONTINUOUS
 10
241.5801324091
 20
236.8934444733
 11
241.695260463
 21
236.8934444733
  0
LINE
  5
39B
100
AcDbEntity
  8
0
100
AcDbLine
 62
7
  6
CONTINUOUS
 10
241.7816065035
 20
236.8934444733
 11
241.8967345574
 21
236.8934444733
  0
LINE
  5
39C
100
AcDbEntity
  8
0
100
AcDbLine
 62
7
  6
CONTINUOUS
 10
235.6327810342
 20
236.9014726543
 11
235.7479090881
 21
236.9014726543
  0
LINE
  5
39D
100
AcDbEntity
  8
0
100
AcDbLine
 62
7
  6
CONTINUOUS
 10
235.8342551286
 20
236.9014726543
 11
235.9493831825
 21
236.9014726543
  0
LINE
  5
39E
100
AcDbEntity
  8
0
100
AcDbLine
 62
7
  6
CONTINUOUS
 10
236.0357292229
 20
236.9014726543
 11
236.1508572768
 21
236.9014726543
  0
LINE
  5
39F
100
AcDbEntity
  8
0
100
AcDbLine
 62
7
  6
CONTINUOUS
 10
236.2372033173
 20
236.9014726543
 11
236.3523313712
 21
236.9014726543
  0
LINE
  5
3A0
100
AcDbEntity
  8
0
100
AcDbLine
 62
7
  6
CONTINUOUS
 10
236.4386774116
 20
236.9014726543
 11
236.5538054656
 21
236.9014726543
  0
LINE
  5
3A1
100
AcDbEntity
  8
0
100
AcDbLine
 62
7
  6
CONTINUOUS
 10
236.640151506
 20
236.9014726543
 11
236.7552795599
 21
236.9014726543
  0
LINE
  5
3A2
100
AcDbEntity
  8
0
100
AcDbLine
 62
7
  6
CONTINUOUS
 10
236.8416256003
 20
236.9014726543
 11
236.9567536543
 21
236.9014726543
  0
LINE
  5
3A3
100
AcDbEntity
  8
0
100
AcDbLine
 62
7
  6
CONTINUOUS
 10
237.0430996947
 20
236.9014726543
 11
237.1582277486
 21
236.9014726543
  0
LINE
  5
3A4
100
AcDbEntity
  8
0
100
AcDbLine
 62
7
  6
CONTINUOUS
 10
237.2445737891
 20
236.9014726543
 11
237.359701843
 21
236.9014726543
  0
LINE
  5
3A5
100
AcDbEntity
  8
0
100
AcDbLine
 62
7
  6
CONTINUOUS
 10
237.4460478834
 20
236.9014726543
 11
237.5611759373
 21
236.9014726543
  0
LINE
  5
3A6
100
AcDbEntity
  8
0
100
AcDbLine
 62
7
  6
CONTINUOUS
 10
237.6475219778
 20
236.9014726543
 11
237.7626500317
 21
236.9014726543
  0
LINE
  5
3A7
100
AcDbEntity
  8
0
100
AcDbLine
 62
7
  6
CONTINUOUS
 10
237.8489960721
 20
236.9014726543
 11
237.9641241261
 21
236.9014726543
  0
LINE
  5
3A8
100
AcDbEntity
  8
0
100
AcDbLine
 62
7
  6
CONTINUOUS
 10
238.0504701665
 20
236.9014726543
 11
238.1655982204
 21
236.9014726543
  0
LINE
  5
3A9
100
AcDbEntity
  8
0
100
AcDbLine
 62
7
  6
CONTINUOUS
 10
238.2519442609
 20
236.9014726543
 11
238.3670723148
 21
236.9014726543
  0
LINE
  5
3AA
100
AcDbEntity
  8
0
100
AcDbLine
 62
7
  6
CONTINUOUS
 10
239.9413761714
 20
237.1798188563
 11
239.8262481175
 21
237.1798188563
  0
LINE
  5
3AB
100
AcDbEntity
  8
0
100
AcDbLine
 62
7
  6
CONTINUOUS
 10
240.1428502658
 20
237.1798188563
 11
240.0277222119
 21
237.1798188563
  0
LINE
  5
3AC
100
AcDbEntity
  8
0
100
AcDbLine
 62
7
  6
CONTINUOUS
 10
240.3443243601
 20
237.1798188563
 11
240.2291963062
 21
237.1798188563
  0
LINE
  5
3AD
100
AcDbEntity
  8
0
100
AcDbLine
 62
7
  6
CONTINUOUS
 10
239.135479794
 20
237.1798188563
 11
239.0203517401
 21
237.1798188563
  0
LINE
  5
3AE
100
AcDbEntity
  8
0
100
AcDbLine
 62
7
  6
CONTINUOUS
 10
239.3369538884
 20
237.1798188563
 11
239.2218258344
 21
237.1798188563
  0
LINE
  5
3AF
100
AcDbEntity
  8
0
100
AcDbLine
 62
7
  6
CONTINUOUS
 10
239.5384279827
 20
237.1798188563
 11
239.4232999288
 21
237.1798188563
  0
LINE
  5
3B0
100
AcDbEntity
  8
0
100
AcDbLine
 62
7
  6
CONTINUOUS
 10
239.7399020771
 20
237.1798188563
 11
239.6247740231
 21
237.1798188563
  0
LINE
  5
3B1
100
AcDbEntity
  8
0
100
AcDbLine
 62
7
  6
CONTINUOUS
 10
238.1281093222
 20
237.1798188563
 11
238.0129812683
 21
237.1798188563
  0
LINE
  5
3B2
100
AcDbEntity
  8
0
100
AcDbLine
 62
7
  6
CONTINUOUS
 10
238.3295834166
 20
237.1798188563
 11
238.2144553626
 21
237.1798188563
  0
LINE
  5
3B3
100
AcDbEntity
  8
0
100
AcDbLine
 62
7
  6
CONTINUOUS
 10
238.5310575109
 20
237.1798188563
 11
238.415929457
 21
237.1798188563
  0
LINE
  5
3B4
100
AcDbEntity
  8
0
100
AcDbLine
 62
7
  6
CONTINUOUS
 10
238.7325316053
 20
237.1798188563
 11
238.6174035514
 21
237.1798188563
  0
LINE
  5
3B5
100
AcDbEntity
  8
0
100
AcDbLine
 62
7
  6
CONTINUOUS
 10
238.9340056996
 20
237.1798188563
 11
238.8188776457
 21
237.1798188563
  0
LINE
  5
3B6
100
AcDbEntity
  8
0
100
AcDbLine
 62
7
  6
CONTINUOUS
 10
237.7251611335
 20
237.1798188563
 11
237.6100330796
 21
237.1798188563
  0
LINE
  5
3B7
100
AcDbEntity
  8
0
100
AcDbLine
 62
7
  6
CONTINUOUS
 10
237.9266352278
 20
237.1798188563
 11
237.8115071739
 21
237.1798188563
  0
LINE
  5
3B8
100
AcDbEntity
  8
0
100
AcDbLine
 62
7
  6
CONTINUOUS
 10
243.8446959969
 20
237.3805503267
 11
243.9466069763
 21
237.3805503267
  0
LINE
  5
3B9
100
AcDbEntity
  8
0
100
AcDbLine
 62
7
  6
CONTINUOUS
 10
244.0329530167
 20
237.3805503267
 11
244.1480810706
 21
237.3805503267
  0
LINE
  5
3BA
100
AcDbEntity
  8
0
100
AcDbLine
 62
7
  6
CONTINUOUS
 10
244.2344271111
 20
237.3805503267
 11
244.349555165
 21
237.3805503267
  0
LINE
  5
3BB
100
AcDbEntity
  8
0
100
AcDbLine
 62
7
  6
CONTINUOUS
 10
244.4359012054
 20
237.3805503267
 11
244.5510292593
 21
237.3805503267
  0
LINE
  5
3BC
100
AcDbEntity
  8
0
100
AcDbLine
 62
7
  6
CONTINUOUS
 10
244.6373752998
 20
237.3805503267
 11
244.7525033537
 21
237.3805503267
  0
LINE
  5
3BD
100
AcDbEntity
  8
0
100
AcDbLine
 62
7
  6
CONTINUOUS
 10
244.8388493941
 20
237.3805503267
 11
244.9539774481
 21
237.3805503267
  0
LINE
  5
3BE
100
AcDbEntity
  8
0
100
AcDbLine
 62
7
  6
CONTINUOUS
 10
245.0403234885
 20
237.3805503267
 11
245.1554515424
 21
237.3805503267
  0
LINE
  5
3BF
100
AcDbEntity
  8
0
100
AcDbLine
 62
7
  6
CONTINUOUS
 10
245.2417975829
 20
237.3805503267
 11
245.3569256368
 21
237.3805503267
  0
LINE
  5
3C0
100
AcDbEntity
  8
0
100
AcDbLine
 62
7
  6
CONTINUOUS
 10
239.0929721136
 20
237.3885785077
 11
239.2081001675
 21
237.3885785077
  0
LINE
  5
3C1
100
AcDbEntity
  8
0
100
AcDbLine
 62
7
  6
CONTINUOUS
 10
239.2944462079
 20
237.3885785077
 11
239.4095742619
 21
237.3885785077
  0
LINE
  5
3C2
100
AcDbEntity
  8
0
100
AcDbLine
 62
7
  6
CONTINUOUS
 10
239.4959203023
 20
237.3885785077
 11
239.6110483562
 21
237.3885785077
  0
LINE
  5
3C3
100
AcDbEntity
  8
0
100
AcDbLine
 62
7
  6
CONTINUOUS
 10
239.6973943967
 20
237.3885785077
 11
239.8125224506
 21
237.3885785077
  0
LINE
  5
3C4
100
AcDbEntity
  8
0
100
AcDbLine
 62
7
  6
CONTINUOUS
 10
239.898868491
 20
237.3885785077
 11
240.0139965449
 21
237.3885785077
  0
LINE
  5
3C5
100
AcDbEntity
  8
0
100
AcDbLine
 62
7
  6
CONTINUOUS
 10
240.1003425854
 20
237.3885785077
 11
240.2154706393
 21
237.3885785077
  0
LINE
  5
3C6
100
AcDbEntity
  8
0
100
AcDbLine
 62
7
  6
CONTINUOUS
 10
240.3018166797
 20
237.3885785077
 11
240.4169447337
 21
237.3885785077
  0
LINE
  5
3C7
100
AcDbEntity
  8
0
100
AcDbLine
 62
7
  6
CONTINUOUS
 10
240.5032907741
 20
237.3885785077
 11
240.618418828
 21
237.3885785077
  0
LINE
  5
3C8
100
AcDbEntity
  8
0
100
AcDbLine
 62
7
  6
CONTINUOUS
 10
240.7047648685
 20
237.3885785077
 11
240.8198929224
 21
237.3885785077
  0
LINE
  5
3C9
100
AcDbEntity
  8
0
100
AcDbLine
 62
7
  6
CONTINUOUS
 10
240.9062389628
 20
237.3885785077
 11
241.0213670167
 21
237.3885785077
  0
LINE
  5
3CA
100
AcDbEntity
  8
0
100
AcDbLine
 62
7
  6
CONTINUOUS
 10
241.1077130572
 20
237.3885785077
 11
241.2228411111
 21
237.3885785077
  0
LINE
  5
3CB
100
AcDbEntity
  8
0
100
AcDbLine
 62
7
  6
CONTINUOUS
 10
241.3091871515
 20
237.3885785077
 11
241.4243152054
 21
237.3885785077
  0
LINE
  5
3CC
100
AcDbEntity
  8
0
100
AcDbLine
 62
7
  6
CONTINUOUS
 10
241.5106612459
 20
237.3885785077
 11
241.6257892998
 21
237.3885785077
  0
LINE
  5
3CD
100
AcDbEntity
  8
0
100
AcDbLine
 62
7
  6
CONTINUOUS
 10
241.7121353402
 20
237.3885785077
 11
241.8272633942
 21
237.3885785077
  0
LINE
  5
3CE
100
AcDbEntity
  8
0
100
AcDbLine
 62
7
  6
CONTINUOUS
 10
243.2000931565
 20
237.6669247096
 11
243.0849651025
 21
237.6669247096
  0
LINE
  5
3CF
100
AcDbEntity
  8
0
100
AcDbLine
 62
7
  6
CONTINUOUS
 10
243.4015672508
 20
237.6669247096
 11
243.2864391969
 21
237.6669247096
  0
LINE
  5
3D0
100
AcDbEntity
  8
0
100
AcDbLine
 62
7
  6
CONTINUOUS
 10
243.6030413452
 20
237.6669247096
 11
243.4879132913
 21
237.6669247096
  0
LINE
  5
3D1
100
AcDbEntity
  8
0
100
AcDbLine
 62
7
  6
CONTINUOUS
 10
243.8045154395
 20
237.6669247096
 11
243.6893873856
 21
237.6669247096
  0
LINE
  5
3D2
100
AcDbEntity
  8
0
100
AcDbLine
 62
7
  6
CONTINUOUS
 10
242.394196779
 20
237.6669247096
 11
242.2790687251
 21
237.6669247096
  0
LINE
  5
3D3
100
AcDbEntity
  8
0
100
AcDbLine
 62
7
  6
CONTINUOUS
 10
242.5956708734
 20
237.6669247096
 11
242.4805428195
 21
237.6669247096
  0
LINE
  5
3D4
100
AcDbEntity
  8
0
100
AcDbLine
 62
7
  6
CONTINUOUS
 10
242.7971449677
 20
237.6669247096
 11
242.6820169138
 21
237.6669247096
  0
LINE
  5
3D5
100
AcDbEntity
  8
0
100
AcDbLine
 62
7
  6
CONTINUOUS
 10
242.9986190621
 20
237.6669247096
 11
242.8834910082
 21
237.6669247096
  0
LINE
  5
3D6
100
AcDbEntity
  8
0
100
AcDbLine
 62
7
  6
CONTINUOUS
 10
241.5883004016
 20
237.6669247096
 11
241.4731723477
 21
237.6669247096
  0
LINE
  5
3D7
100
AcDbEntity
  8
0
100
AcDbLine
 62
7
  6
CONTINUOUS
 10
241.7897744959
 20
237.6669247096
 11
241.674646442
 21
237.6669247096
  0
LINE
  5
3D8
100
AcDbEntity
  8
0
100
AcDbLine
 62
7
  6
CONTINUOUS
 10
241.9912485903
 20
237.6669247096
 11
241.8761205364
 21
237.6669247096
  0
LINE
  5
3D9
100
AcDbEntity
  8
0
100
AcDbLine
 62
7
  6
CONTINUOUS
 10
242.1927226847
 20
237.6669247096
 11
242.0775946307
 21
237.6669247096
  0
LINE
  5
3DA
100
AcDbEntity
  8
0
100
AcDbLine
 62
7
  6
CONTINUOUS
 10
241.1853522129
 20
237.6669247096
 11
241.070224159
 21
237.6669247096
  0
LINE
  5
3DB
100
AcDbEntity
  8
0
100
AcDbLine
 62
7
  6
CONTINUOUS
 10
241.3868263072
 20
237.6669247096
 11
241.2716982533
 21
237.6669247096
  0
LINE
  5
3DC
100
AcDbEntity
  8
0
100
AcDbLine
 62
7
  6
CONTINUOUS
 10
247.3048870763
 20
237.8676561801
 11
247.4067980557
 21
237.8676561801
  0
LINE
  5
3DD
100
AcDbEntity
  8
0
100
AcDbLine
 62
7
  6
CONTINUOUS
 10
247.4931440961
 20
237.8676561801
 11
247.60827215
 21
237.8676561801
  0
LINE
  5
3DE
100
AcDbEntity
  8
0
100
AcDbLine
 62
7
  6
CONTINUOUS
 10
247.6946181904
 20
237.8676561801
 11
247.8097462444
 21
237.8676561801
  0
LINE
  5
3DF
100
AcDbEntity
  8
0
100
AcDbLine
 62
7
  6
CONTINUOUS
 10
247.8960922848
 20
237.8676561801
 11
248.0112203387
 21
237.8676561801
  0
LINE
  5
3E0
100
AcDbEntity
  8
0
100
AcDbLine
 62
7
  6
CONTINUOUS
 10
248.0975663792
 20
237.8676561801
 11
248.2126944331
 21
237.8676561801
  0
LINE
  5
3E1
100
AcDbEntity
  8
0
100
AcDbLine
 62
7
  6
CONTINUOUS
 10
248.2990404735
 20
237.8676561801
 11
248.4141685274
 21
237.8676561801
  0
LINE
  5
3E2
100
AcDbEntity
  8
0
100
AcDbLine
 62
7
  6
CONTINUOUS
 10
248.5005145679
 20
237.8676561801
 11
248.6156426218
 21
237.8676561801
  0
LINE
  5
3E3
100
AcDbEntity
  8
0
100
AcDbLine
 62
7
  6
CONTINUOUS
 10
248.7019886622
 20
237.8676561801
 11
248.8171167162
 21
237.8676561801
  0
LINE
  5
3E4
100
AcDbEntity
  8
0
100
AcDbLine
 62
7
  6
CONTINUOUS
 10
242.553163193
 20
237.8756843611
 11
242.6682912469
 21
237.8756843611
  0
LINE
  5
3E5
100
AcDbEntity
  8
0
100
AcDbLine
 62
7
  6
CONTINUOUS
 10
242.7546372873
 20
237.8756843611
 11
242.8697653413
 21
237.8756843611
  0
LINE
  5
3E6
100
AcDbEntity
  8
0
100
AcDbLine
 62
7
  6
CONTINUOUS
 10
242.9561113817
 20
237.8756843611
 11
243.0712394356
 21
237.8756843611
  0
LINE
  5
3E7
100
AcDbEntity
  8
0
100
AcDbLine
 62
7
  6
CONTINUOUS
 10
243.1575854761
 20
237.8756843611
 11
243.27271353
 21
237.8756843611
  0
LINE
  5
3E8
100
AcDbEntity
  8
0
100
AcDbLine
 62
7
  6
CONTINUOUS
 10
243.3590595704
 20
237.8756843611
 11
243.4741876243
 21
237.8756843611
  0
LINE
  5
3E9
100
AcDbEntity
  8
0
100
AcDbLine
 62
7
  6
CONTINUOUS
 10
243.5605336648
 20
237.8756843611
 11
243.6756617187
 21
237.8756843611
  0
LINE
  5
3EA
100
AcDbEntity
  8
0
100
AcDbLine
 62
7
  6
CONTINUOUS
 10
243.7620077591
 20
237.8756843611
 11
243.877135813
 21
237.8756843611
  0
LINE
  5
3EB
100
AcDbEntity
  8
0
100
AcDbLine
 62
7
  6
CONTINUOUS
 10
243.9634818535
 20
237.8756843611
 11
244.0786099074
 21
237.8756843611
  0
LINE
  5
3EC
100
AcDbEntity
  8
0
100
AcDbLine
 62
7
  6
CONTINUOUS
 10
244.1649559478
 20
237.8756843611
 11
244.2800840018
 21
237.8756843611
  0
LINE
  5
3ED
100
AcDbEntity
  8
0
100
AcDbLine
 62
7
  6
CONTINUOUS
 10
244.3664300422
 20
237.8756843611
 11
244.4815580961
 21
237.8756843611
  0
LINE
  5
3EE
100
AcDbEntity
  8
0
100
AcDbLine
 62
7
  6
CONTINUOUS
 10
244.5679041366
 20
237.8756843611
 11
244.6830321905
 21
237.8756843611
  0
LINE
  5
3EF
100
AcDbEntity
  8
0
100
AcDbLine
 62
7
  6
CONTINUOUS
 10
244.7693782309
 20
237.8756843611
 11
244.8845062848
 21
237.8756843611
  0
LINE
  5
3F0
100
AcDbEntity
  8
0
100
AcDbLine
 62
7
  6
CONTINUOUS
 10
244.9708523253
 20
237.8756843611
 11
245.0859803792
 21
237.8756843611
  0
LINE
  5
3F1
100
AcDbEntity
  8
0
100
AcDbLine
 62
7
  6
CONTINUOUS
 10
245.1723264196
 20
237.8756843611
 11
245.2874544736
 21
237.8756843611
  0
LINE
  5
3F2
100
AcDbEntity
  8
0
100
AcDbLine
 62
7
  6
CONTINUOUS
 10
247.2647065189
 20
238.154030563
 11
247.149578465
 21
238.154030563
  0
LINE
  5
3F3
100
AcDbEntity
  8
0
100
AcDbLine
 62
7
  6
CONTINUOUS
 10
246.4588101415
 20
238.154030563
 11
246.3436820876
 21
238.154030563
  0
LINE
  5
3F4
100
AcDbEntity
  8
0
100
AcDbLine
 62
7
  6
CONTINUOUS
 10
246.6602842358
 20
238.154030563
 11
246.5451561819
 21
238.154030563
  0
LINE
  5
3F5
100
AcDbEntity
  8
0
100
AcDbLine
 62
7
  6
CONTINUOUS
 10
246.8617583302
 20
238.154030563
 11
246.7466302763
 21
238.154030563
  0
LINE
  5
3F6
100
AcDbEntity
  8
0
100
AcDbLine
 62
7
  6
CONTINUOUS
 10
247.0632324246
 20
238.154030563
 11
246.9481043706
 21
238.154030563
  0
LINE
  5
3F7
100
AcDbEntity
  8
0
100
AcDbLine
 62
7
  6
CONTINUOUS
 10
245.6529137641
 20
238.154030563
 11
245.5377857101
 21
238.154030563
  0
LINE
  5
3F8
100
AcDbEntity
  8
0
100
AcDbLine
 62
7
  6
CONTINUOUS
 10
245.8543878584
 20
238.154030563
 11
245.7392598045
 21
238.154030563
  0
LINE
  5
3F9
100
AcDbEntity
  8
0
100
AcDbLine
 62
7
  6
CONTINUOUS
 10
246.0558619528
 20
238.154030563
 11
245.9407338988
 21
238.154030563
  0
LINE
  5
3FA
100
AcDbEntity
  8
0
100
AcDbLine
 62
7
  6
CONTINUOUS
 10
246.2573360471
 20
238.154030563
 11
246.1422079932
 21
238.154030563
  0
LINE
  5
3FB
100
AcDbEntity
  8
0
100
AcDbLine
 62
7
  6
CONTINUOUS
 10
244.8470173866
 20
238.154030563
 11
244.7318893327
 21
238.154030563
  0
LINE
  5
3FC
100
AcDbEntity
  8
0
100
AcDbLine
 62
7
  6
CONTINUOUS
 10
245.048491481
 20
238.154030563
 11
244.9333634271
 21
238.154030563
  0
LINE
  5
3FD
100
AcDbEntity
  8
0
100
AcDbLine
 62
7
  6
CONTINUOUS
 10
245.2499655753
 20
238.154030563
 11
245.1348375214
 21
238.154030563
  0
LINE
  5
3FE
100
AcDbEntity
  8
0
100
AcDbLine
 62
7
  6
CONTINUOUS
 10
245.4514396697
 20
238.154030563
 11
245.3363116158
 21
238.154030563
  0
LINE
  5
3FF
100
AcDbEntity
  8
0
100
AcDbLine
 62
7
  6
CONTINUOUS
 10
244.6455432923
 20
238.154030563
 11
244.5304152383
 21
238.154030563
  0
LINE
  5
400
100
AcDbEntity
  8
0
100
AcDbLine
 62
7
  6
CONTINUOUS
 10
250.7650781557
 20
238.3547620334
 11
250.866989135
 21
238.3547620334
  0
LINE
  5
401
100
AcDbEntity
  8
0
100
AcDbLine
 62
7
  6
CONTINUOUS
 10
250.9533351755
 20
238.3547620334
 11
251.0684632294
 21
238.3547620334
  0
LINE
  5
402
100
AcDbEntity
  8
0
100
AcDbLine
 62
7
  6
CONTINUOUS
 10
251.1548092698
 20
238.3547620334
 11
251.2699373238
 21
238.3547620334
  0
LINE
  5
403
100
AcDbEntity
  8
0
100
AcDbLine
 62
7
  6
CONTINUOUS
 10
251.3562833642
 20
238.3547620334
 11
251.4714114181
 21
238.3547620334
  0
LINE
  5
404
100
AcDbEntity
  8
0
100
AcDbLine
 62
7
  6
CONTINUOUS
 10
251.5577574586
 20
238.3547620334
 11
251.6728855125
 21
238.3547620334
  0
LINE
  5
405
100
AcDbEntity
  8
0
100
AcDbLine
 62
7
  6
CONTINUOUS
 10
251.7592315529
 20
238.3547620334
 11
251.8743596068
 21
238.3547620334
  0
LINE
  5
406
100
AcDbEntity
  8
0
100
AcDbLine
 62
7
  6
CONTINUOUS
 10
251.9607056473
 20
238.3547620334
 11
252.0758337012
 21
238.3547620334
  0
LINE
  5
407
100
AcDbEntity
  8
0
100
AcDbLine
 62
7
  6
CONTINUOUS
 10
252.1621797416
 20
238.3547620334
 11
252.2773077955
 21
238.3547620334
  0
LINE
  5
408
100
AcDbEntity
  8
0
100
AcDbLine
 62
7
  6
CONTINUOUS
 10
246.0133542724
 20
238.3627902144
 11
246.1284823263
 21
238.3627902144
  0
LINE
  5
409
100
AcDbEntity
  8
0
100
AcDbLine
 62
7
  6
CONTINUOUS
 10
246.2148283667
 20
238.3627902144
 11
246.3299564206
 21
238.3627902144
  0
LINE
  5
40A
100
AcDbEntity
  8
0
100
AcDbLine
 62
7
  6
CONTINUOUS
 10
246.4163024611
 20
238.3627902144
 11
246.531430515
 21
238.3627902144
  0
LINE
  5
40B
100
AcDbEntity
  8
0
100
AcDbLine
 62
7
  6
CONTINUOUS
 10
246.6177765554
 20
238.3627902144
 11
246.7329046094
 21
238.3627902144
  0
LINE
  5
40C
100
AcDbEntity
  8
0
100
AcDbLine
 62
7
  6
CONTINUOUS
 10
246.8192506498
 20
238.3627902144
 11
246.9343787037
 21
238.3627902144
  0
LINE
  5
40D
100
AcDbEntity
  8
0
100
AcDbLine
 62
7
  6
CONTINUOUS
 10
247.0207247442
 20
238.3627902144
 11
247.1358527981
 21
238.3627902144
  0
LINE
  5
40E
100
AcDbEntity
  8
0
100
AcDbLine
 62
7
  6
CONTINUOUS
 10
247.2221988385
 20
238.3627902144
 11
247.3373268924
 21
238.3627902144
  0
LINE
  5
40F
100
AcDbEntity
  8
0
100
AcDbLine
 62
7
  6
CONTINUOUS
 10
247.4236729329
 20
238.3627902144
 11
247.5388009868
 21
238.3627902144
  0
LINE
  5
410
100
AcDbEntity
  8
0
100
AcDbLine
 62
7
  6
CONTINUOUS
 10
247.6251470272
 20
238.3627902144
 11
247.7402750812
 21
238.3627902144
  0
LINE
  5
411
100
AcDbEntity
  8
0
100
AcDbLine
 62
7
  6
CONTINUOUS
 10
247.8266211216
 20
238.3627902144
 11
247.9417491755
 21
238.3627902144
  0
LINE
  5
412
100
AcDbEntity
  8
0
100
AcDbLine
 62
7
  6
CONTINUOUS
 10
248.0280952159
 20
238.3627902144
 11
248.1432232699
 21
238.3627902144
  0
LINE
  5
413
100
AcDbEntity
  8
0
100
AcDbLine
 62
7
  6
CONTINUOUS
 10
248.2295693103
 20
238.3627902144
 11
248.3446973642
 21
238.3627902144
  0
LINE
  5
414
100
AcDbEntity
  8
0
100
AcDbLine
 62
7
  6
CONTINUOUS
 10
248.4310434047
 20
238.3627902144
 11
248.5461714586
 21
238.3627902144
  0
LINE
  5
415
100
AcDbEntity
  8
0
100
AcDbLine
 62
7
  6
CONTINUOUS
 10
248.632517499
 20
238.3627902144
 11
248.7476455529
 21
238.3627902144
  0
LINE
  5
416
100
AcDbEntity
  8
0
100
AcDbLine
 62
7
  6
CONTINUOUS
 10
250.7248975983
 20
238.6411364163
 11
250.6097695444
 21
238.6411364163
  0
LINE
  5
417
100
AcDbEntity
  8
0
100
AcDbLine
 62
7
  6
CONTINUOUS
 10
249.9190012209
 20
238.6411364163
 11
249.803873167
 21
238.6411364163
  0
LINE
  5
418
100
AcDbEntity
  8
0
100
AcDbLine
 62
7
  6
CONTINUOUS
 10
250.1204753152
 20
238.6411364163
 11
250.0053472613
 21
238.6411364163
  0
LINE
  5
419
100
AcDbEntity
  8
0
100
AcDbLine
 62
7
  6
CONTINUOUS
 10
250.3219494096
 20
238.6411364163
 11
250.2068213557
 21
238.6411364163
  0
LINE
  5
41A
100
AcDbEntity
  8
0
100
AcDbLine
 62
7
  6
CONTINUOUS
 10
250.5234235039
 20
238.6411364163
 11
250.40829545
 21
238.6411364163
  0
LINE
  5
41B
100
AcDbEntity
  8
0
100
AcDbLine
 62
7
  6
CONTINUOUS
 10
248.9116307491
 20
238.6411364163
 11
248.7965026952
 21
238.6411364163
  0
LINE
  5
41C
100
AcDbEntity
  8
0
100
AcDbLine
 62
7
  6
CONTINUOUS
 10
249.1131048434
 20
238.6411364163
 11
248.9979767895
 21
238.6411364163
  0
LINE
  5
41D
100
AcDbEntity
  8
0
100
AcDbLine
 62
7
  6
CONTINUOUS
 10
249.3145789378
 20
238.6411364163
 11
249.1994508839
 21
238.6411364163
  0
LINE
  5
41E
100
AcDbEntity
  8
0
100
AcDbLine
 62
7
  6
CONTINUOUS
 10
249.5160530322
 20
238.6411364163
 11
249.4009249782
 21
238.6411364163
  0
LINE
  5
41F
100
AcDbEntity
  8
0
100
AcDbLine
 62
7
  6
CONTINUOUS
 10
249.7175271265
 20
238.6411364163
 11
249.6023990726
 21
238.6411364163
  0
LINE
  5
420
100
AcDbEntity
  8
0
100
AcDbLine
 62
7
  6
CONTINUOUS
 10
248.1057343716
 20
238.6411364163
 11
247.9906063177
 21
238.6411364163
  0
LINE
  5
421
100
AcDbEntity
  8
0
100
AcDbLine
 62
7
  6
CONTINUOUS
 10
248.307208466
 20
238.6411364163
 11
248.1920804121
 21
238.6411364163
  0
LINE
  5
422
100
AcDbEntity
  8
0
100
AcDbLine
 62
7
  6
CONTINUOUS
 10
248.5086825604
 20
238.6411364163
 11
248.3935545064
 21
238.6411364163
  0
LINE
  5
423
100
AcDbEntity
  8
0
100
AcDbLine
 62
7
  6
CONTINUOUS
 10
248.7101566547
 20
238.6411364163
 11
248.5950286008
 21
238.6411364163
  0
LINE
  5
424
100
AcDbEntity
  8
0
100
AcDbLine
 62
7
  6
CONTINUOUS
 10
254.2252692351
 20
238.8418678868
 11
254.3271802144
 21
238.8418678868
  0
LINE
  5
425
100
AcDbEntity
  8
0
100
AcDbLine
 62
7
  6
CONTINUOUS
 10
254.4135262549
 20
238.8418678868
 11
254.5286543088
 21
238.8418678868
  0
LINE
  5
426
100
AcDbEntity
  8
0
100
AcDbLine
 62
7
  6
CONTINUOUS
 10
254.6150003492
 20
238.8418678868
 11
254.7301284031
 21
238.8418678868
  0
LINE
  5
427
100
AcDbEntity
  8
0
100
AcDbLine
 62
7
  6
CONTINUOUS
 10
254.8164744436
 20
238.8418678868
 11
254.9316024975
 21
238.8418678868
  0
LINE
  5
428
100
AcDbEntity
  8
0
100
AcDbLine
 62
7
  6
CONTINUOUS
 10
255.0179485379
 20
238.8418678868
 11
255.1330765919
 21
238.8418678868
  0
LINE
  5
429
100
AcDbEntity
  8
0
100
AcDbLine
 62
7
  6
CONTINUOUS
 10
255.2194226323
 20
238.8418678868
 11
255.3345506862
 21
238.8418678868
  0
LINE
  5
42A
100
AcDbEntity
  8
0
100
AcDbLine
 62
7
  6
CONTINUOUS
 10
255.4208967267
 20
238.8418678868
 11
255.5360247806
 21
238.8418678868
  0
LINE
  5
42B
100
AcDbEntity
  8
0
100
AcDbLine
 62
7
  6
CONTINUOUS
 10
255.622370821
 20
238.8418678868
 11
255.7374988749
 21
238.8418678868
  0
LINE
  5
42C
100
AcDbEntity
  8
0
100
AcDbLine
 62
7
  6
CONTINUOUS
 10
249.4735453518
 20
238.8498960678
 11
249.5886734057
 21
238.8498960678
  0
LINE
  5
42D
100
AcDbEntity
  8
0
100
AcDbLine
 62
7
  6
CONTINUOUS
 10
249.6750194461
 20
238.8498960678
 11
249.7901475
 21
238.8498960678
  0
LINE
  5
42E
100
AcDbEntity
  8
0
100
AcDbLine
 62
7
  6
CONTINUOUS
 10
249.8764935405
 20
238.8498960678
 11
249.9916215944
 21
238.8498960678
  0
LINE
  5
42F
100
AcDbEntity
  8
0
100
AcDbLine
 62
7
  6
CONTINUOUS
 10
250.0779676348
 20
238.8498960678
 11
250.1930956887
 21
238.8498960678
  0
LINE
  5
430
100
AcDbEntity
  8
0
100
AcDbLine
 62
7
  6
CONTINUOUS
 10
250.2794417292
 20
238.8498960678
 11
250.3945697831
 21
238.8498960678
  0
LINE
  5
431
100
AcDbEntity
  8
0
100
AcDbLine
 62
7
  6
CONTINUOUS
 10
250.4809158235
 20
238.8498960678
 11
250.5960438775
 21
238.8498960678
  0
LINE
  5
432
100
AcDbEntity
  8
0
100
AcDbLine
 62
7
  6
CONTINUOUS
 10
250.6823899179
 20
238.8498960678
 11
250.7975179718
 21
238.8498960678
  0
LINE
  5
433
100
AcDbEntity
  8
0
100
AcDbLine
 62
7
  6
CONTINUOUS
 10
250.8838640123
 20
238.8498960678
 11
250.9989920662
 21
238.8498960678
  0
LINE
  5
434
100
AcDbEntity
  8
0
100
AcDbLine
 62
7
  6
CONTINUOUS
 10
251.0853381066
 20
238.8498960678
 11
251.2004661605
 21
238.8498960678
  0
LINE
  5
435
100
AcDbEntity
  8
0
100
AcDbLine
 62
7
  6
CONTINUOUS
 10
252.0927085784
 20
238.8498960678
 11
252.2078366323
 21
238.8498960678
  0
LINE
  5
436
100
AcDbEntity
  8
0
100
AcDbLine
 62
7
  6
CONTINUOUS
 10
251.8912344841
 20
238.8498960678
 11
252.006362538
 21
238.8498960678
  0
LINE
  5
437
100
AcDbEntity
  8
0
100
AcDbLine
 62
7
  6
CONTINUOUS
 10
251.6897603897
 20
238.8498960678
 11
251.8048884436
 21
238.8498960678
  0
LINE
  5
438
100
AcDbEntity
  8
0
100
AcDbLine
 62
7
  6
CONTINUOUS
 10
251.4882862953
 20
238.8498960678
 11
251.6034143493
 21
238.8498960678
  0
LINE
  5
439
100
AcDbEntity
  8
0
100
AcDbLine
 62
7
  6
CONTINUOUS
 10
251.286812201
 20
238.8498960678
 11
251.4019402549
 21
238.8498960678
  0
LINE
  5
43A
100
AcDbEntity
  8
0
100
AcDbLine
 62
7
  6
CONTINUOUS
 10
254.1850886777
 20
239.1282422697
 11
254.0699606238
 21
239.1282422697
  0
LINE
  5
43B
100
AcDbEntity
  8
0
100
AcDbLine
 62
7
  6
CONTINUOUS
 10
253.9836145833
 20
239.1282422697
 11
253.8684865294
 21
239.1282422697
  0
LINE
  5
43C
100
AcDbEntity
  8
0
100
AcDbLine
 62
7
  6
CONTINUOUS
 10
253.782140489
 20
239.1282422697
 11
253.6670124351
 21
239.1282422697
  0
LINE
  5
43D
100
AcDbEntity
  8
0
100
AcDbLine
 62
7
  6
CONTINUOUS
 10
253.5806663946
 20
239.1282422697
 11
253.4655383407
 21
239.1282422697
  0
LINE
  5
43E
100
AcDbEntity
  8
0
100
AcDbLine
 62
7
  6
CONTINUOUS
 10
253.3791923003
 20
239.1282422697
 11
253.2640642463
 21
239.1282422697
  0
LINE
  5
43F
100
AcDbEntity
  8
0
100
AcDbLine
 62
7
  6
CONTINUOUS
 10
253.1777182059
 20
239.1282422697
 11
253.062590152
 21
239.1282422697
  0
LINE
  5
440
100
AcDbEntity
  8
0
100
AcDbLine
 62
7
  6
CONTINUOUS
 10
252.3718218285
 20
239.1282422697
 11
252.2566937745
 21
239.1282422697
  0
LINE
  5
441
100
AcDbEntity
  8
0
100
AcDbLine
 62
7
  6
CONTINUOUS
 10
252.5732959228
 20
239.1282422697
 11
252.4581678689
 21
239.1282422697
  0
LINE
  5
442
100
AcDbEntity
  8
0
100
AcDbLine
 62
7
  6
CONTINUOUS
 10
252.7747700172
 20
239.1282422697
 11
252.6596419633
 21
239.1282422697
  0
LINE
  5
443
100
AcDbEntity
  8
0
100
AcDbLine
 62
7
  6
CONTINUOUS
 10
252.9762441115
 20
239.1282422697
 11
252.8611160576
 21
239.1282422697
  0
LINE
  5
444
100
AcDbEntity
  8
0
100
AcDbLine
 62
7
  6
CONTINUOUS
 10
251.565925451
 20
239.1282422697
 11
251.4507973971
 21
239.1282422697
  0
LINE
  5
445
100
AcDbEntity
  8
0
100
AcDbLine
 62
7
  6
CONTINUOUS
 10
251.7673995454
 20
239.1282422697
 11
251.6522714915
 21
239.1282422697
  0
LINE
  5
446
100
AcDbEntity
  8
0
100
AcDbLine
 62
7
  6
CONTINUOUS
 10
251.9688736398
 20
239.1282422697
 11
251.8537455858
 21
239.1282422697
  0
LINE
  5
447
100
AcDbEntity
  8
0
100
AcDbLine
 62
7
  6
CONTINUOUS
 10
252.1703477341
 20
239.1282422697
 11
252.0552196802
 21
239.1282422697
  0
LINE
  5
448
100
AcDbEntity
  8
0
100
AcDbLine
 62
7
  6
CONTINUOUS
 10
257.6854603145
 20
239.3289737401
 11
257.7873712938
 21
239.3289737401
  0
LINE
  5
449
100
AcDbEntity
  8
0
100
AcDbLine
 62
7
  6
CONTINUOUS
 10
257.8737173343
 20
239.3289737401
 11
257.9888453882
 21
239.3289737401
  0
LINE
  5
44A
100
AcDbEntity
  8
0
100
AcDbLine
 62
7
  6
CONTINUOUS
 10
258.0751914286
 20
239.3289737401
 11
258.1903194825
 21
239.3289737401
  0
LINE
  5
44B
100
AcDbEntity
  8
0
100
AcDbLine
 62
7
  6
CONTINUOUS
 10
258.276665523
 20
239.3289737401
 11
258.3917935769
 21
239.3289737401
  0
LINE
  5
44C
100
AcDbEntity
  8
0
100
AcDbLine
 62
7
  6
CONTINUOUS
 10
258.4781396173
 20
239.3289737401
 11
258.5932676712
 21
239.3289737401
  0
LINE
  5
44D
100
AcDbEntity
  8
0
100
AcDbLine
 62
7
  6
CONTINUOUS
 10
258.6796137117
 20
239.3289737401
 11
258.7947417656
 21
239.3289737401
  0
LINE
  5
44E
100
AcDbEntity
  8
0
100
AcDbLine
 62
7
  6
CONTINUOUS
 10
258.881087806
 20
239.3289737401
 11
258.99621586
 21
239.3289737401
  0
LINE
  5
44F
100
AcDbEntity
  8
0
100
AcDbLine
 62
7
  6
CONTINUOUS
 10
259.0825619004
 20
239.3289737401
 11
259.1976899543
 21
239.3289737401
  0
LINE
  5
450
100
AcDbEntity
  8
0
100
AcDbLine
 62
7
  6
CONTINUOUS
 10
253.5381587142
 20
239.3370019211
 11
253.6532867681
 21
239.3370019211
  0
LINE
  5
451
100
AcDbEntity
  8
0
100
AcDbLine
 62
7
  6
CONTINUOUS
 10
253.3366846199
 20
239.3370019211
 11
253.4518126738
 21
239.3370019211
  0
LINE
  5
452
100
AcDbEntity
  8
0
100
AcDbLine
 62
7
  6
CONTINUOUS
 10
253.1352105255
 20
239.3370019211
 11
253.2503385794
 21
239.3370019211
  0
LINE
  5
453
100
AcDbEntity
  8
0
100
AcDbLine
 62
7
  6
CONTINUOUS
 10
252.9337364311
 20
239.3370019211
 11
253.0488644851
 21
239.3370019211
  0
LINE
  5
454
100
AcDbEntity
  8
0
100
AcDbLine
 62
7
  6
CONTINUOUS
 10
253.7396328086
 20
239.3370019211
 11
253.8547608625
 21
239.3370019211
  0
LINE
  5
455
100
AcDbEntity
  8
0
100
AcDbLine
 62
7
  6
CONTINUOUS
 10
254.545529186
 20
239.3370019211
 11
254.6606572399
 21
239.3370019211
  0
LINE
  5
456
100
AcDbEntity
  8
0
100
AcDbLine
 62
7
  6
CONTINUOUS
 10
254.3440550916
 20
239.3370019211
 11
254.4591831456
 21
239.3370019211
  0
LINE
  5
457
100
AcDbEntity
  8
0
100
AcDbLine
 62
7
  6
CONTINUOUS
 10
254.1425809973
 20
239.3370019211
 11
254.2577090512
 21
239.3370019211
  0
LINE
  5
458
100
AcDbEntity
  8
0
100
AcDbLine
 62
7
  6
CONTINUOUS
 10
253.9411069029
 20
239.3370019211
 11
254.0562349569
 21
239.3370019211
  0
LINE
  5
459
100
AcDbEntity
  8
0
100
AcDbLine
 62
7
  6
CONTINUOUS
 10
255.3514255634
 20
239.3370019211
 11
255.4665536174
 21
239.3370019211
  0
LINE
  5
45A
100
AcDbEntity
  8
0
100
AcDbLine
 62
7
  6
CONTINUOUS
 10
255.1499514691
 20
239.3370019211
 11
255.265079523
 21
239.3370019211
  0
LINE
  5
45B
100
AcDbEntity
  8
0
100
AcDbLine
 62
7
  6
CONTINUOUS
 10
254.9484773747
 20
239.3370019211
 11
255.0636054286
 21
239.3370019211
  0
LINE
  5
45C
100
AcDbEntity
  8
0
100
AcDbLine
 62
7
  6
CONTINUOUS
 10
254.7470032804
 20
239.3370019211
 11
254.8621313343
 21
239.3370019211
  0
LINE
  5
45D
100
AcDbEntity
  8
0
100
AcDbLine
 62
7
  6
CONTINUOUS
 10
255.5528996578
 20
239.3370019211
 11
255.6680277117
 21
239.3370019211
  0
LINE
  5
45E
100
AcDbEntity
  8
0
100
AcDbLine
 62
7
  6
CONTINUOUS
 10
257.6452797571
 20
239.6153481231
 11
257.5301517032
 21
239.6153481231
  0
LINE
  5
45F
100
AcDbEntity
  8
0
100
AcDbLine
 62
7
  6
CONTINUOUS
 10
257.4438056627
 20
239.6153481231
 11
257.3286776088
 21
239.6153481231
  0
LINE
  5
460
100
AcDbEntity
  8
0
100
AcDbLine
 62
7
  6
CONTINUOUS
 10
257.2423315684
 20
239.6153481231
 11
257.1272035144
 21
239.6153481231
  0
LINE
  5
461
100
AcDbEntity
  8
0
100
AcDbLine
 62
7
  6
CONTINUOUS
 10
257.040857474
 20
239.6153481231
 11
256.9257294201
 21
239.6153481231
  0
LINE
  5
462
100
AcDbEntity
  8
0
100
AcDbLine
 62
7
  6
CONTINUOUS
 10
256.8393833796
 20
239.6153481231
 11
256.7242553257
 21
239.6153481231
  0
LINE
  5
463
100
AcDbEntity
  8
0
100
AcDbLine
 62
7
  6
CONTINUOUS
 10
256.6379092853
 20
239.6153481231
 11
256.5227812314
 21
239.6153481231
  0
LINE
  5
464
100
AcDbEntity
  8
0
100
AcDbLine
 62
7
  6
CONTINUOUS
 10
256.4364351909
 20
239.6153481231
 11
256.321307137
 21
239.6153481231
  0
LINE
  5
465
100
AcDbEntity
  8
0
100
AcDbLine
 62
7
  6
CONTINUOUS
 10
256.2349610966
 20
239.6153481231
 11
256.1198330427
 21
239.6153481231
  0
LINE
  5
466
100
AcDbEntity
  8
0
100
AcDbLine
 62
7
  6
CONTINUOUS
 10
256.0334870022
 20
239.6153481231
 11
255.9183589483
 21
239.6153481231
  0
LINE
  5
467
100
AcDbEntity
  8
0
100
AcDbLine
 62
7
  6
CONTINUOUS
 10
255.8320129079
 20
239.6153481231
 11
255.7168848539
 21
239.6153481231
  0
LINE
  5
468
100
AcDbEntity
  8
0
100
AcDbLine
 62
7
  6
CONTINUOUS
 10
255.6305388135
 20
239.6153481231
 11
255.5154107596
 21
239.6153481231
  0
LINE
  5
469
100
AcDbEntity
  8
0
100
AcDbLine
 62
7
  6
CONTINUOUS
 10
255.4290647191
 20
239.6153481231
 11
255.3139366652
 21
239.6153481231
  0
LINE
  5
46A
100
AcDbEntity
  8
0
100
AcDbLine
 62
7
  6
CONTINUOUS
 10
255.2275906248
 20
239.6153481231
 11
255.1124625709
 21
239.6153481231
  0
LINE
  5
46B
100
AcDbEntity
  8
0
100
AcDbLine
 62
7
  6
CONTINUOUS
 10
255.0261165304
 20
239.6153481231
 11
254.9109884765
 21
239.6153481231
  0
LINE
  5
46C
100
AcDbEntity
  8
0
100
AcDbLine
 62
7
  6
CONTINUOUS
 10
256.9983497936
 20
239.8241077745
 11
257.1134778475
 21
239.8241077745
  0
LINE
  5
46D
100
AcDbEntity
  8
0
100
AcDbLine
 62
7
  6
CONTINUOUS
 10
256.7968756992
 20
239.8241077745
 11
256.9120037532
 21
239.8241077745
  0
LINE
  5
46E
100
AcDbEntity
  8
0
100
AcDbLine
 62
7
  6
CONTINUOUS
 10
256.5954016049
 20
239.8241077745
 11
256.7105296588
 21
239.8241077745
  0
LINE
  5
46F
100
AcDbEntity
  8
0
100
AcDbLine
 62
7
  6
CONTINUOUS
 10
256.3939275105
 20
239.8241077745
 11
256.5090555644
 21
239.8241077745
  0
LINE
  5
470
100
AcDbEntity
  8
0
100
AcDbLine
 62
7
  6
CONTINUOUS
 10
257.804246171
 20
239.8241077745
 11
257.919374225
 21
239.8241077745
  0
LINE
  5
471
100
AcDbEntity
  8
0
100
AcDbLine
 62
7
  6
CONTINUOUS
 10
257.6027720767
 20
239.8241077745
 11
257.7179001306
 21
239.8241077745
  0
LINE
  5
472
100
AcDbEntity
  8
0
100
AcDbLine
 62
7
  6
CONTINUOUS
 10
257.4012979823
 20
239.8241077745
 11
257.5164260362
 21
239.8241077745
  0
LINE
  5
473
100
AcDbEntity
  8
0
100
AcDbLine
 62
7
  6
CONTINUOUS
 10
257.199823888
 20
239.8241077745
 11
257.3149519419
 21
239.8241077745
  0
LINE
  5
474
100
AcDbEntity
  8
0
100
AcDbLine
 62
7
  6
CONTINUOUS
 10
258.4086684541
 20
239.8241077745
 11
258.523796508
 21
239.8241077745
  0
LINE
  5
475
100
AcDbEntity
  8
0
100
AcDbLine
 62
7
  6
CONTINUOUS
 10
258.2071943598
 20
239.8241077745
 11
258.3223224137
 21
239.8241077745
  0
LINE
  5
476
100
AcDbEntity
  8
0
100
AcDbLine
 62
7
  6
CONTINUOUS
 10
258.0057202654
 20
239.8241077745
 11
258.1208483193
 21
239.8241077745
  0
LINE
  5
477
100
AcDbEntity
  8
0
100
AcDbLine
 62
7
  6
CONTINUOUS
 10
258.6101425485
 20
239.8241077745
 11
258.7252706024
 21
239.8241077745
  0
LINE
  5
478
100
AcDbEntity
  8
0
100
AcDbLine
 62
7
  6
CONTINUOUS
 10
259.0130907372
 20
239.8241077745
 11
259.1282187911
 21
239.8241077745
  0
LINE
  5
479
100
AcDbEntity
  8
0
100
AcDbLine
 62
7
  6
CONTINUOUS
 10
258.8116166428
 20
239.8241077745
 11
258.9267446967
 21
239.8241077745
  0
LINE
  5
47A
100
AcDbEntity
  8
0
100
AcDbLine
 62
7
  6
CONTINUOUS
 10
261.1054708365
 20
240.1024539764
 11
260.9903427826
 21
240.1024539764
  0
LINE
  5
47B
100
AcDbEntity
  8
0
100
AcDbLine
 62
7
  6
CONTINUOUS
 10
260.9039967421
 20
240.1024539764
 11
260.7888686882
 21
240.1024539764
  0
LINE
  5
47C
100
AcDbEntity
  8
0
100
AcDbLine
 62
7
  6
CONTINUOUS
 10
260.7025226478
 20
240.1024539764
 11
260.5873945938
 21
240.1024539764
  0
LINE
  5
47D
100
AcDbEntity
  8
0
100
AcDbLine
 62
7
  6
CONTINUOUS
 10
260.5010485534
 20
240.1024539764
 11
260.3859204995
 21
240.1024539764
  0
LINE
  5
47E
100
AcDbEntity
  8
0
100
AcDbLine
 62
7
  6
CONTINUOUS
 10
260.299574459
 20
240.1024539764
 11
260.1844464051
 21
240.1024539764
  0
LINE
  5
47F
100
AcDbEntity
  8
0
100
AcDbLine
 62
7
  6
CONTINUOUS
 10
260.0981003647
 20
240.1024539764
 11
259.9829723108
 21
240.1024539764
  0
LINE
  5
480
100
AcDbEntity
  8
0
100
AcDbLine
 62
7
  6
CONTINUOUS
 10
259.8966262703
 20
240.1024539764
 11
259.7814982164
 21
240.1024539764
  0
LINE
  5
481
100
AcDbEntity
  8
0
100
AcDbLine
 62
7
  6
CONTINUOUS
 10
259.695152176
 20
240.1024539764
 11
259.580024122
 21
240.1024539764
  0
LINE
  5
482
100
AcDbEntity
  8
0
100
AcDbLine
 62
7
  6
CONTINUOUS
 10
259.4936780816
 20
240.1024539764
 11
259.3785500277
 21
240.1024539764
  0
LINE
  5
483
100
AcDbEntity
  8
0
100
AcDbLine
 62
7
  6
CONTINUOUS
 10
259.2922039872
 20
240.1024539764
 11
259.1770759333
 21
240.1024539764
  0
LINE
  5
484
100
AcDbEntity
  8
0
100
AcDbLine
 62
7
  6
CONTINUOUS
 10
259.0907298929
 20
240.1024539764
 11
258.975601839
 21
240.1024539764
  0
LINE
  5
485
100
AcDbEntity
  8
0
100
AcDbLine
 62
7
  6
CONTINUOUS
 10
258.8892557985
 20
240.1024539764
 11
258.7741277446
 21
240.1024539764
  0
LINE
  5
486
100
AcDbEntity
  8
0
100
AcDbLine
 62
7
  6
CONTINUOUS
 10
258.6877817042
 20
240.1024539764
 11
258.5726536503
 21
240.1024539764
  0
LINE
  5
487
100
AcDbEntity
  8
0
100
AcDbLine
 62
7
  6
CONTINUOUS
 10
258.4863076098
 20
240.1024539764
 11
258.3711795559
 21
240.1024539764
  0
LINE
  5
488
100
AcDbEntity
  8
0
100
AcDbLine
 62
7
  6
CONTINUOUS
 10
269.4515974676
 20
242.9322639417
 11
269.8647679625
 21
242.9322639417
  0
LINE
  5
489
100
AcDbEntity
  8
0
100
AcDbLine
 62
7
  6
CONTINUOUS
 10
259.898293285
 20
240.0905728493
 11
259.8966262703
 21
240.1024539764
  0
LINE
  5
48A
100
AcDbEntity
  8
0
100
AcDbLine
 62
7
  6
CONTINUOUS
 10
260.0997673794
 20
240.0905728493
 11
260.0981003647
 21
240.1024539764
  0
LINE
  5
48B
100
AcDbEntity
  8
0
100
AcDbLine
 62
7
  6
CONTINUOUS
 10
260.3012414738
 20
240.0905728493
 11
260.299574459
 21
240.1024539764
  0
LINE
  5
48C
100
AcDbEntity
  8
0
100
AcDbLine
 62
7
  6
CONTINUOUS
 10
260.5027155681
 20
240.0905728493
 11
260.5010485534
 21
240.1024539764
  0
LINE
  5
48D
100
AcDbEntity
  8
0
100
AcDbLine
 62
7
  6
CONTINUOUS
 10
260.7041896625
 20
240.0905728493
 11
260.7025226478
 21
240.1024539764
  0
LINE
  5
48E
100
AcDbEntity
  8
0
100
AcDbLine
 62
7
  6
CONTINUOUS
 10
260.9056637568
 20
240.0905728493
 11
260.9039967421
 21
240.1024539764
  0
LINE
  5
48F
100
AcDbEntity
  8
0
100
AcDbLine
 62
7
  6
CONTINUOUS
 10
261.1749419997
 20
239.6073199421
 11
261.1054708365
 21
240.1024539764
  0
LINE
  5
490
100
AcDbEntity
  8
0
100
AcDbLine
 62
3
  6
CONTINUOUS
 10
264.3579674171
 20
453.3822639417
 11
264.3579674171
 21
240.0954528614
  0
LINE
  5
491
100
AcDbEntity
  8
0
100
AcDbLine
 62
3
  6
CONTINUOUS
 10
264.3579674171
 20
230.2822639417
 11
264.3579674171
 21
223.1665281931
  0
LINE
  5
492
100
AcDbEntity
  8
0
100
AcDbLine
 62
3
  6
CONTINUOUS
 10
264.3579674171
 20
218.3323336364
 11
264.3579674171
 21
215.8424501033
  0
LINE
  5
493
100
AcDbEntity
  8
02___PRT_ALL_AXES
100
AcDbLine
 62
3
  6
CONTINUOUS
 10
264.6079674171
 20
481.7021112308
 11
264.6079674171
 21
459.4822639417
  0
LINE
  5
494
100
AcDbEntity
  8
0
100
AcDbLine
 62
7
  6
CONTINUOUS
 10
265.1079674171
 20
456.8822639417
 11
265.1079674171
 21
455.2822639417
  0
LINE
  5
495
100
AcDbEntity
  8
0
100
AcDbLine
 62
3
  6
CONTINUOUS
 10
269.4515974676
 20
240.2269796141
 11
269.4515974676
 21
242.9322639417
  0
LINE
  5
496
100
AcDbEntity
  8
0
100
AcDbLine
 62
7
  6
CONTINUOUS
 10
269.8626223582
 20
210.2822639417
 11
269.8626223582
 21
217.1131910054
  0
LINE
  5
497
100
AcDbEntity
  8
0
100
AcDbLine
 62
7
  6
CONTINUOUS
 10
269.8647679625
 20
240.2851433866
 11
269.8647679625
 21
242.9322639417
  0
LINE
  5
498
100
AcDbEntity
  8
0
100
AcDbLine
 62
7
  6
CONTINUOUS
 10
269.9111896598
 20
210.4822639417
 11
269.9111896598
 21
210.2822639417
  0
LINE
  5
499
100
AcDbEntity
  8
0
100
AcDbLine
 62
7
  6
CONTINUOUS
 10
269.962454807
 20
210.2822639417
 11
269.962454807
 21
210.4822639417
  0
LINE
  5
49A
100
AcDbEntity
  8
0
100
AcDbLine
 62
7
  6
CONTINUOUS
 10
270.4879892851
 20
210.2822639417
 11
270.4879892851
 21
210.4822639417
  0
LINE
  5
49B
100
AcDbEntity
  8
0
100
AcDbLine
 62
3
  6
CONTINUOUS
 10
270.6095118354
 20
225.5322639417
 11
270.6095118354
 21
230.2822639417
  0
LINE
  5
49C
100
AcDbEntity
  8
0
100
AcDbLine
 62
7
  6
CONTINUOUS
 10
271.0267581063
 20
225.5322639417
 11
271.0267581063
 21
230.2822639417
  0
LINE
  5
49D
100
AcDbEntity
  8
0
100
AcDbLine
 62
3
  6
CONTINUOUS
 10
271.1985970021
 20
225.5322639417
 11
271.1985970021
 21
242.9322639417
  0
LINE
  5
49E
100
AcDbEntity
  8
0
100
AcDbLine
 62
7
  6
CONTINUOUS
 10
270.9692441535
 20
457.8822639417
 11
270.9797257093
 21
458.0822639417
  0
LINE
  5
49F
100
AcDbEntity
  8
0
100
AcDbLine
 62
7
  6
CONTINUOUS
 10
239.1312705522
 20
234.3267756756
 11
271.1985970021
 21
238.841029963
  0
LINE
  5
4A0
100
AcDbEntity
  8
0
100
AcDbLine
 62
7
  6
CONTINUOUS
 10
238.8168603868
 20
235.9112045856
 11
271.1985970021
 21
240.4697197327
  0
LINE
  5
4A1
100
AcDbEntity
  8
0
100
AcDbLine
 62
7
  6
CONTINUOUS
 10
238.7938201812
 20
235.9111535731
 11
271.1985970021
 21
240.4728601665
  0
LINE
  5
4A2
100
AcDbEntity
  8
0
100
AcDbLine
 62
7
  6
CONTINUOUS
 10
271.1985970021
 20
240.9390153044
 11
269.8647679625
 21
240.7512465027
  0
LINE
  5
4A3
100
AcDbEntity
  8
0
100
AcDbLine
 62
7
  6
CONTINUOUS
 10
271.1985970021
 20
240.9421557382
 11
269.8647679625
 21
240.7543869366
  0
LINE
  5
4A4
100
AcDbEntity
  8
0
100
AcDbLine
 62
7
  6
CONTINUOUS
 10
238.810340843
 20
236.4411318952
 11
266.4755198519
 21
240.3356771155
  0
LINE
  5
4A5
100
AcDbEntity
  8
0
100
AcDbLine
 62
7
  6
CONTINUOUS
 10
238.436543478
 20
236.40633862
 11
240.4137955234
 21
236.6846848219
  0
LINE
  5
4A6
100
AcDbEntity
  8
0
100
AcDbLine
 62
7
  6
CONTINUOUS
 10
241.8967345574
 20
236.8934444733
 11
243.8739866027
 21
237.1717906753
  0
LINE
  5
4A7
100
AcDbEntity
  8
0
100
AcDbLine
 62
7
  6
CONTINUOUS
 10
245.3569256368
 20
237.3805503267
 11
247.3341776821
 21
237.6588965286
  0
LINE
  5
4A8
100
AcDbEntity
  8
0
100
AcDbLine
 62
7
  6
CONTINUOUS
 10
248.8171167162
 20
237.8676561801
 11
250.7943687615
 21
238.146002382
  0
LINE
  5
4A9
100
AcDbEntity
  8
0
100
AcDbLine
 62
7
  6
CONTINUOUS
 10
252.2773077955
 20
238.3547620334
 11
254.2545598409
 21
238.6331082353
  0
LINE
  5
4AA
100
AcDbEntity
  8
0
100
AcDbLine
 62
7
  6
CONTINUOUS
 10
255.7374988749
 20
238.8418678868
 11
257.7147509203
 21
239.1202140887
  0
LINE
  5
4AB
100
AcDbEntity
  8
0
100
AcDbLine
 62
7
  6
CONTINUOUS
 10
259.1976899543
 20
239.3289737401
 11
261.1749419997
 21
239.6073199421
  0
LINE
  5
4AC
100
AcDbEntity
  8
0
100
AcDbLine
 62
7
  6
CONTINUOUS
 10
238.2350693836
 20
236.40633862
 11
238.3197375223
 21
236.4182577149
  0
LINE
  5
4AD
100
AcDbEntity
  8
0
100
AcDbLine
 62
7
  6
CONTINUOUS
 10
241.695260463
 20
236.8934444733
 11
241.7799286016
 21
236.9053635683
  0
LINE
  5
4AE
100
AcDbEntity
  8
0
100
AcDbLine
 62
7
  6
CONTINUOUS
 10
245.1554515424
 20
237.3805503267
 11
245.240119681
 21
237.3924694216
  0
LINE
  5
4AF
100
AcDbEntity
  8
0
100
AcDbLine
 62
7
  6
CONTINUOUS
 10
248.6156426218
 20
237.8676561801
 11
248.7003107604
 21
237.879575275
  0
LINE
  5
4B0
100
AcDbEntity
  8
0
100
AcDbLine
 62
7
  6
CONTINUOUS
 10
252.0758337012
 20
238.3547620334
 11
252.1605018398
 21
238.3666811283
  0
LINE
  5
4B1
100
AcDbEntity
  8
0
100
AcDbLine
 62
7
  6
CONTINUOUS
 10
255.5360247806
 20
238.8418678868
 11
255.6206929192
 21
238.8537869817
  0
LINE
  5
4B2
100
AcDbEntity
  8
0
100
AcDbLine
 62
7
  6
CONTINUOUS
 10
258.99621586
 20
239.3289737401
 11
259.0808839986
 21
239.3408928351
  0
LINE
  5
4B3
100
AcDbEntity
  8
0
100
AcDbLine
 62
7
  6
CONTINUOUS
 10
238.0335952893
 20
236.40633862
 11
238.1182634279
 21
236.4182577149
  0
LINE
  5
4B4
100
AcDbEntity
  8
0
100
AcDbLine
 62
7
  6
CONTINUOUS
 10
241.4937863687
 20
236.8934444733
 11
241.5784545073
 21
236.9053635683
  0
LINE
  5
4B5
100
AcDbEntity
  8
0
100
AcDbLine
 62
7
  6
CONTINUOUS
 10
244.9539774481
 20
237.3805503267
 11
245.0386455867
 21
237.3924694216
  0
LINE
  5
4B6
100
AcDbEntity
  8
0
100
AcDbLine
 62
7
  6
CONTINUOUS
 10
248.4141685274
 20
237.8676561801
 11
248.4988366661
 21
237.879575275
  0
LINE
  5
4B7
100
AcDbEntity
  8
0
100
AcDbLine
 62
7
  6
CONTINUOUS
 10
251.8743596068
 20
238.3547620334
 11
251.9590277455
 21
238.3666811283
  0
LINE
  5
4B8
100
AcDbEntity
  8
0
100
AcDbLine
 62
7
  6
CONTINUOUS
 10
255.3345506862
 20
238.8418678868
 11
255.4192188248
 21
238.8537869817
  0
LINE
  5
4B9
100
AcDbEntity
  8
0
100
AcDbLine
 62
7
  6
CONTINUOUS
 10
258.7947417656
 20
239.3289737401
 11
258.8794099042
 21
239.3408928351
  0
LINE
  5
4BA
100
AcDbEntity
  8
0
100
AcDbLine
 62
7
  6
CONTINUOUS
 10
237.8321211949
 20
236.40633862
 11
237.9167893335
 21
236.4182577149
  0
LINE
  5
4BB
100
AcDbEntity
  8
0
100
AcDbLine
 62
7
  6
CONTINUOUS
 10
241.2923122743
 20
236.8934444733
 11
241.3769804129
 21
236.9053635683
  0
LINE
  5
4BC
100
AcDbEntity
  8
0
100
AcDbLine
 62
7
  6
CONTINUOUS
 10
244.7525033537
 20
237.3805503267
 11
244.8371714923
 21
237.3924694216
  0
LINE
  5
4BD
100
AcDbEntity
  8
0
100
AcDbLine
 62
7
  6
CONTINUOUS
 10
248.2126944331
 20
237.8676561801
 11
248.2973625717
 21
237.879575275
  0
LINE
  5
4BE
100
AcDbEntity
  8
0
100
AcDbLine
 62
7
  6
CONTINUOUS
 10
251.6728855125
 20
238.3547620334
 11
251.7575536511
 21
238.3666811283
  0
LINE
  5
4BF
100
AcDbEntity
  8
0
100
AcDbLine
 62
7
  6
CONTINUOUS
 10
255.1330765919
 20
238.8418678868
 11
255.2177447305
 21
238.8537869817
  0
LINE
  5
4C0
100
AcDbEntity
  8
0
100
AcDbLine
 62
7
  6
CONTINUOUS
 10
258.5932676712
 20
239.3289737401
 11
258.6779358099
 21
239.3408928351
  0
LINE
  5
4C1
100
AcDbEntity
  8
0
100
AcDbLine
 62
7
  6
CONTINUOUS
 10
237.6306471006
 20
236.40633862
 11
237.7153152392
 21
236.4182577149
  0
LINE
  5
4C2
100
AcDbEntity
  8
0
100
AcDbLine
 62
7
  6
CONTINUOUS
 10
241.09083818
 20
236.8934444733
 11
241.1755063186
 21
236.9053635683
  0
LINE
  5
4C3
100
AcDbEntity
  8
0
100
AcDbLine
 62
7
  6
CONTINUOUS
 10
244.5510292593
 20
237.3805503267
 11
244.635697398
 21
237.3924694216
  0
LINE
  5
4C4
100
AcDbEntity
  8
0
100
AcDbLine
 62
7
  6
CONTINUOUS
 10
248.0112203387
 20
237.8676561801
 11
248.0958884773
 21
237.879575275
  0
LINE
  5
4C5
100
AcDbEntity
  8
0
100
AcDbLine
 62
7
  6
CONTINUOUS
 10
251.4714114181
 20
238.3547620334
 11
251.5560795567
 21
238.3666811283
  0
LINE
  5
4C6
100
AcDbEntity
  8
0
100
AcDbLine
 62
7
  6
CONTINUOUS
 10
254.9316024975
 20
238.8418678868
 11
255.0162706361
 21
238.8537869817
  0
LINE
  5
4C7
100
AcDbEntity
  8
0
100
AcDbLine
 62
7
  6
CONTINUOUS
 10
258.3917935769
 20
239.3289737401
 11
258.4764617155
 21
239.3408928351
  0
LINE
  5
4C8
100
AcDbEntity
  8
0
100
AcDbLine
 62
7
  6
CONTINUOUS
 10
237.4291730062
 20
236.40633862
 11
237.5138411448
 21
236.4182577149
  0
LINE
  5
4C9
100
AcDbEntity
  8
0
100
AcDbLine
 62
7
  6
CONTINUOUS
 10
240.8893640856
 20
236.8934444733
 11
240.9740322242
 21
236.9053635683
  0
LINE
  5
4CA
100
AcDbEntity
  8
0
100
AcDbLine
 62
7
  6
CONTINUOUS
 10
244.349555165
 20
237.3805503267
 11
244.4342233036
 21
237.3924694216
  0
LINE
  5
4CB
100
AcDbEntity
  8
0
100
AcDbLine
 62
7
  6
CONTINUOUS
 10
247.8097462444
 20
237.8676561801
 11
247.894414383
 21
237.879575275
  0
LINE
  5
4CC
100
AcDbEntity
  8
0
100
AcDbLine
 62
7
  6
CONTINUOUS
 10
251.2699373238
 20
238.3547620334
 11
251.3546054624
 21
238.3666811283
  0
LINE
  5
4CD
100
AcDbEntity
  8
0
100
AcDbLine
 62
7
  6
CONTINUOUS
 10
254.7301284031
 20
238.8418678868
 11
254.8147965418
 21
238.8537869817
  0
LINE
  5
4CE
100
AcDbEntity
  8
0
100
AcDbLine
 62
7
  6
CONTINUOUS
 10
258.1903194825
 20
239.3289737401
 11
258.2749876212
 21
239.3408928351
  0
LINE
  5
4CF
100
AcDbEntity
  8
0
100
AcDbLine
 62
7
  6
CONTINUOUS
 10
237.2276989118
 20
236.40633862
 11
237.3123670505
 21
236.4182577149
  0
LINE
  5
4D0
100
AcDbEntity
  8
0
100
AcDbLine
 62
7
  6
CONTINUOUS
 10
240.6878899912
 20
236.8934444733
 11
240.7725581299
 21
236.9053635683
  0
LINE
  5
4D1
100
AcDbEntity
  8
0
100
AcDbLine
 62
7
  6
CONTINUOUS
 10
244.1480810706
 20
237.3805503267
 11
244.2327492092
 21
237.3924694216
  0
LINE
  5
4D2
100
AcDbEntity
  8
0
100
AcDbLine
 62
7
  6
CONTINUOUS
 10
247.60827215
 20
237.8676561801
 11
247.6929402886
 21
237.879575275
  0
LINE
  5
4D3
100
AcDbEntity
  8
0
100
AcDbLine
 62
7
  6
CONTINUOUS
 10
251.0684632294
 20
238.3547620334
 11
251.153131368
 21
238.3666811283
  0
LINE
  5
4D4
100
AcDbEntity
  8
0
100
AcDbLine
 62
7
  6
CONTINUOUS
 10
254.5286543088
 20
238.8418678868
 11
254.6133224474
 21
238.8537869817
  0
LINE
  5
4D5
100
AcDbEntity
  8
0
100
AcDbLine
 62
7
  6
CONTINUOUS
 10
257.9888453882
 20
239.3289737401
 11
258.0735135268
 21
239.3408928351
  0
LINE
  5
4D6
100
AcDbEntity
  8
0
100
AcDbLine
 62
7
  6
CONTINUOUS
 10
237.0262248175
 20
236.40633862
 11
237.1108929561
 21
236.4182577149
  0
LINE
  5
4D7
100
AcDbEntity
  8
0
100
AcDbLine
 62
7
  6
CONTINUOUS
 10
240.4864158969
 20
236.8934444733
 11
240.5710840355
 21
236.9053635683
  0
LINE
  5
4D8
100
AcDbEntity
  8
0
100
AcDbLine
 62
7
  6
CONTINUOUS
 10
243.9466069763
 20
237.3805503267
 11
244.0312751149
 21
237.3924694216
  0
LINE
  5
4D9
100
AcDbEntity
  8
0
100
AcDbLine
 62
7
  6
CONTINUOUS
 10
247.4067980557
 20
237.8676561801
 11
247.4914661943
 21
237.879575275
  0
LINE
  5
4DA
100
AcDbEntity
  8
0
100
AcDbLine
 62
7
  6
CONTINUOUS
 10
250.866989135
 20
238.3547620334
 11
250.9516572737
 21
238.3666811283
  0
LINE
  5
4DB
100
AcDbEntity
  8
0
100
AcDbLine
 62
7
  6
CONTINUOUS
 10
254.3271802144
 20
238.8418678868
 11
254.411848353
 21
238.8537869817
  0
LINE
  5
4DC
100
AcDbEntity
  8
0
100
AcDbLine
 62
7
  6
CONTINUOUS
 10
257.7873712938
 20
239.3289737401
 11
257.8720394324
 21
239.3408928351
  0
LINE
  5
4DD
100
AcDbEntity
  8
0
100
AcDbLine
 62
7
  6
CONTINUOUS
 10
236.8247507231
 20
236.40633862
 11
236.9094188617
 21
236.4182577149
  0
LINE
  5
4DE
100
AcDbEntity
  8
0
100
AcDbLine
 62
7
  6
CONTINUOUS
 10
236.6232766288
 20
236.40633862
 11
236.7079447674
 21
236.4182577149
  0
LINE
  5
4DF
100
AcDbEntity
  8
0
100
AcDbLine
 62
7
  6
CONTINUOUS
 10
236.4218025344
 20
236.40633862
 11
236.506470673
 21
236.4182577149
  0
LINE
  5
4E0
100
AcDbEntity
  8
0
100
AcDbLine
 62
7
  6
CONTINUOUS
 10
236.2203284401
 20
236.40633862
 11
236.3049965787
 21
236.4182577149
  0
LINE
  5
4E1
100
AcDbEntity
  8
0
100
AcDbLine
 62
7
  6
CONTINUOUS
 10
236.0188543457
 20
236.40633862
 11
236.1035224843
 21
236.4182577149
  0
LINE
  5
4E2
100
AcDbEntity
  8
0
100
AcDbLine
 62
7
  6
CONTINUOUS
 10
235.8173802513
 20
236.40633862
 11
235.90204839
 21
236.4182577149
  0
LINE
  5
4E3
100
AcDbEntity
  8
0
100
AcDbLine
 62
7
  6
CONTINUOUS
 10
263.4958856105
 20
240.3368206888
 11
261.1195739974
 21
240.0022711693
  0
LINE
  5
4E4
100
AcDbEntity
  8
0
100
AcDbLine
 62
7
  6
CONTINUOUS
 10
238.3670723148
 20
236.9014726543
 11
240.3443243601
 21
237.1798188563
  0
LINE
  5
4E5
100
AcDbEntity
  8
0
100
AcDbLine
 62
7
  6
CONTINUOUS
 10
241.8272633942
 20
237.3885785077
 11
243.8045154395
 21
237.6669247096
  0
LINE
  5
4E6
100
AcDbEntity
  8
0
100
AcDbLine
 62
7
  6
CONTINUOUS
 10
245.2874544736
 20
237.8756843611
 11
247.2647065189
 21
238.154030563
  0
LINE
  5
4E7
100
AcDbEntity
  8
0
100
AcDbLine
 62
7
  6
CONTINUOUS
 10
248.7476455529
 20
238.3627902144
 11
250.7248975983
 21
238.6411364163
  0
LINE
  5
4E8
100
AcDbEntity
  8
0
100
AcDbLine
 62
7
  6
CONTINUOUS
 10
252.2078366323
 20
238.8498960678
 11
254.1850886777
 21
239.1282422697
  0
LINE
  5
4E9
100
AcDbEntity
  8
0
100
AcDbLine
 62
7
  6
CONTINUOUS
 10
255.6680277117
 20
239.3370019211
 11
257.6452797571
 21
239.6153481231
  0
LINE
  5
4EA
100
AcDbEntity
  8
0
100
AcDbLine
 62
7
  6
CONTINUOUS
 10
259.1282187911
 20
239.8241077745
 11
261.1054708365
 21
240.1024539764
  0
LINE
  5
4EB
100
AcDbEntity
  8
0
100
AcDbLine
 62
7
  6
CONTINUOUS
 10
260.9903427826
 20
240.1024539764
 11
259.0130907372
 21
239.8241077745
  0
LINE
  5
4EC
100
AcDbEntity
  8
0
100
AcDbLine
 62
7
  6
CONTINUOUS
 10
257.5301517032
 20
239.6153481231
 11
255.5528996578
 21
239.3370019211
  0
LINE
  5
4ED
100
AcDbEntity
  8
0
100
AcDbLine
 62
7
  6
CONTINUOUS
 10
254.0699606238
 20
239.1282422697
 11
252.0927085784
 21
238.8498960678
  0
LINE
  5
4EE
100
AcDbEntity
  8
0
100
AcDbLine
 62
7
  6
CONTINUOUS
 10
250.6097695444
 20
238.6411364163
 11
248.632517499
 21
238.3627902144
  0
LINE
  5
4EF
100
AcDbEntity
  8
0
100
AcDbLine
 62
7
  6
CONTINUOUS
 10
247.149578465
 20
238.154030563
 11
245.1723264196
 21
237.8756843611
  0
LINE
  5
4F0
100
AcDbEntity
  8
0
100
AcDbLine
 62
7
  6
CONTINUOUS
 10
243.6893873856
 20
237.6669247096
 11
241.7121353402
 21
237.3885785077
  0
LINE
  5
4F1
100
AcDbEntity
  8
0
100
AcDbLine
 62
7
  6
CONTINUOUS
 10
240.2291963062
 20
237.1798188563
 11
238.2519442609
 21
236.9014726543
  0
LINE
  5
4F2
100
AcDbEntity
  8
0
100
AcDbLine
 62
7
  6
CONTINUOUS
 10
238.1655982204
 20
236.9014726543
 11
240.1428502658
 21
237.1798188563
  0
LINE
  5
4F3
100
AcDbEntity
  8
0
100
AcDbLine
 62
7
  6
CONTINUOUS
 10
241.6257892998
 20
237.3885785077
 11
243.6030413452
 21
237.6669247096
  0
LINE
  5
4F4
100
AcDbEntity
  8
0
100
AcDbLine
 62
7
  6
CONTINUOUS
 10
245.0859803792
 20
237.8756843611
 11
247.0632324246
 21
238.154030563
  0
LINE
  5
4F5
100
AcDbEntity
  8
0
100
AcDbLine
 62
7
  6
CONTINUOUS
 10
248.5461714586
 20
238.3627902144
 11
250.5234235039
 21
238.6411364163
  0
LINE
  5
4F6
100
AcDbEntity
  8
0
100
AcDbLine
 62
7
  6
CONTINUOUS
 10
252.006362538
 20
238.8498960678
 11
253.9836145833
 21
239.1282422697
  0
LINE
  5
4F7
100
AcDbEntity
  8
0
100
AcDbLine
 62
7
  6
CONTINUOUS
 10
255.4665536174
 20
239.3370019211
 11
257.4438056627
 21
239.6153481231
  0
LINE
  5
4F8
100
AcDbEntity
  8
0
100
AcDbLine
 62
7
  6
CONTINUOUS
 10
258.9267446967
 20
239.8241077745
 11
260.9039967421
 21
240.1024539764
  0
LINE
  5
4F9
100
AcDbEntity
  8
0
100
AcDbLine
 62
7
  6
CONTINUOUS
 10
260.7888686882
 20
240.1024539764
 11
258.8116166428
 21
239.8241077745
  0
LINE
  5
4FA
100
AcDbEntity
  8
0
100
AcDbLine
 62
7
  6
CONTINUOUS
 10
257.3286776088
 20
239.6153481231
 11
255.3514255634
 21
239.3370019211
  0
LINE
  5
4FB
100
AcDbEntity
  8
0
100
AcDbLine
 62
7
  6
CONTINUOUS
 10
253.8684865294
 20
239.1282422697
 11
251.8912344841
 21
238.8498960678
  0
LINE
  5
4FC
100
AcDbEntity
  8
0
100
AcDbLine
 62
7
  6
CONTINUOUS
 10
250.40829545
 20
238.6411364163
 11
248.4310434047
 21
238.3627902144
  0
LINE
  5
4FD
100
AcDbEntity
  8
0
100
AcDbLine
 62
7
  6
CONTINUOUS
 10
246.9481043706
 20
238.154030563
 11
244.9708523253
 21
237.8756843611
  0
LINE
  5
4FE
100
AcDbEntity
  8
0
100
AcDbLine
 62
7
  6
CONTINUOUS
 10
243.4879132913
 20
237.6669247096
 11
241.5106612459
 21
237.3885785077
  0
LINE
  5
4FF
100
AcDbEntity
  8
0
100
AcDbLine
 62
7
  6
CONTINUOUS
 10
240.0277222119
 20
237.1798188563
 11
238.0504701665
 21
236.9014726543
  0
LINE
  5
500
100
AcDbEntity
  8
0
100
AcDbLine
 62
7
  6
CONTINUOUS
 10
237.9641241261
 20
236.9014726543
 11
239.9413761714
 21
237.1798188563
  0
LINE
  5
501
100
AcDbEntity
  8
0
100
AcDbLine
 62
7
  6
CONTINUOUS
 10
241.4243152054
 20
237.3885785077
 11
243.4015672508
 21
237.6669247096
  0
LINE
  5
502
100
AcDbEntity
  8
0
100
AcDbLine
 62
7
  6
CONTINUOUS
 10
244.8845062848
 20
237.8756843611
 11
246.8617583302
 21
238.154030563
  0
LINE
  5
503
100
AcDbEntity
  8
0
100
AcDbLine
 62
7
  6
CONTINUOUS
 10
248.3446973642
 20
238.3627902144
 11
250.3219494096
 21
238.6411364163
  0
LINE
  5
504
100
AcDbEntity
  8
0
100
AcDbLine
 62
7
  6
CONTINUOUS
 10
251.8048884436
 20
238.8498960678
 11
253.782140489
 21
239.1282422697
  0
LINE
  5
505
100
AcDbEntity
  8
0
100
AcDbLine
 62
7
  6
CONTINUOUS
 10
255.265079523
 20
239.3370019211
 11
257.2423315684
 21
239.6153481231
  0
LINE
  5
506
100
AcDbEntity
  8
0
100
AcDbLine
 62
7
  6
CONTINUOUS
 10
258.7252706024
 20
239.8241077745
 11
260.7025226478
 21
240.1024539764
  0
LINE
  5
507
100
AcDbEntity
  8
0
100
AcDbLine
 62
7
  6
CONTINUOUS
 10
260.5873945938
 20
240.1024539764
 11
258.6101425485
 21
239.8241077745
  0
LINE
  5
508
100
AcDbEntity
  8
0
100
AcDbLine
 62
7
  6
CONTINUOUS
 10
257.1272035144
 20
239.6153481231
 11
255.1499514691
 21
239.3370019211
  0
LINE
  5
509
100
AcDbEntity
  8
0
100
AcDbLine
 62
7
  6
CONTINUOUS
 10
253.6670124351
 20
239.1282422697
 11
251.6897603897
 21
238.8498960678
  0
LINE
  5
50A
100
AcDbEntity
  8
0
100
AcDbLine
 62
7
  6
CONTINUOUS
 10
250.2068213557
 20
238.6411364163
 11
248.2295693103
 21
238.3627902144
  0
LINE
  5
50B
100
AcDbEntity
  8
0
100
AcDbLine
 62
7
  6
CONTINUOUS
 10
246.7466302763
 20
238.154030563
 11
244.7693782309
 21
237.8756843611
  0
LINE
  5
50C
100
AcDbEntity
  8
0
100
AcDbLine
 62
7
  6
CONTINUOUS
 10
243.2864391969
 20
237.6669247096
 11
241.3091871515
 21
237.3885785077
  0
LINE
  5
50D
100
AcDbEntity
  8
0
100
AcDbLine
 62
7
  6
CONTINUOUS
 10
239.8262481175
 20
237.1798188563
 11
237.8489960721
 21
236.9014726543
  0
LINE
  5
50E
100
AcDbEntity
  8
0
100
AcDbLine
 62
7
  6
CONTINUOUS
 10
237.7626500317
 20
236.9014726543
 11
239.7399020771
 21
237.1798188563
  0
LINE
  5
50F
100
AcDbEntity
  8
0
100
AcDbLine
 62
7
  6
CONTINUOUS
 10
241.2228411111
 20
237.3885785077
 11
243.2000931565
 21
237.6669247096
  0
LINE
  5
510
100
AcDbEntity
  8
0
100
AcDbLine
 62
7
  6
CONTINUOUS
 10
244.6830321905
 20
237.8756843611
 11
246.6602842358
 21
238.154030563
  0
LINE
  5
511
100
AcDbEntity
  8
0
100
AcDbLine
 62
7
  6
CONTINUOUS
 10
248.1432232699
 20
238.3627902144
 11
250.1204753152
 21
238.6411364163
  0
LINE
  5
512
100
AcDbEntity
  8
0
100
AcDbLine
 62
7
  6
CONTINUOUS
 10
251.6034143493
 20
238.8498960678
 11
253.5806663946
 21
239.1282422697
  0
LINE
  5
513
100
AcDbEntity
  8
0
100
AcDbLine
 62
7
  6
CONTINUOUS
 10
255.0636054286
 20
239.3370019211
 11
257.040857474
 21
239.6153481231
  0
LINE
  5
514
100
AcDbEntity
  8
0
100
AcDbLine
 62
7
  6
CONTINUOUS
 10
258.523796508
 20
239.8241077745
 11
260.5010485534
 21
240.1024539764
  0
LINE
  5
515
100
AcDbEntity
  8
0
100
AcDbLine
 62
7
  6
CONTINUOUS
 10
260.3859204995
 20
240.1024539764
 11
258.4086684541
 21
239.8241077745
  0
LINE
  5
516
100
AcDbEntity
  8
0
100
AcDbLine
 62
7
  6
CONTINUOUS
 10
256.9257294201
 20
239.6153481231
 11
254.9484773747
 21
239.3370019211
  0
LINE
  5
517
100
AcDbEntity
  8
0
100
AcDbLine
 62
7
  6
CONTINUOUS
 10
253.4655383407
 20
239.1282422697
 11
251.4882862953
 21
238.8498960678
  0
LINE
  5
518
100
AcDbEntity
  8
0
100
AcDbLine
 62
7
  6
CONTINUOUS
 10
250.0053472613
 20
238.6411364163
 11
248.0280952159
 21
238.3627902144
  0
LINE
  5
519
100
AcDbEntity
  8
0
100
AcDbLine
 62
7
  6
CONTINUOUS
 10
246.5451561819
 20
238.154030563
 11
244.5679041366
 21
237.8756843611
  0
LINE
  5
51A
100
AcDbEntity
  8
0
100
AcDbLine
 62
7
  6
CONTINUOUS
 10
243.0849651025
 20
237.6669247096
 11
241.1077130572
 21
237.3885785077
  0
LINE
  5
51B
100
AcDbEntity
  8
0
100
AcDbLine
 62
7
  6
CONTINUOUS
 10
239.6247740231
 20
237.1798188563
 11
237.6475219778
 21
236.9014726543
  0
LINE
  5
51C
100
AcDbEntity
  8
0
100
AcDbLine
 62
7
  6
CONTINUOUS
 10
237.5611759373
 20
236.9014726543
 11
239.5384279827
 21
237.1798188563
  0
LINE
  5
51D
100
AcDbEntity
  8
0
100
AcDbLine
 62
7
  6
CONTINUOUS
 10
241.0213670167
 20
237.3885785077
 11
242.9986190621
 21
237.6669247096
  0
LINE
  5
51E
100
AcDbEntity
  8
0
100
AcDbLine
 62
7
  6
CONTINUOUS
 10
244.4815580961
 20
237.8756843611
 11
246.4588101415
 21
238.154030563
  0
LINE
  5
51F
100
AcDbEntity
  8
0
100
AcDbLine
 62
7
  6
CONTINUOUS
 10
247.9417491755
 20
238.3627902144
 11
249.9190012209
 21
238.6411364163
  0
LINE
  5
520
100
AcDbEntity
  8
0
100
AcDbLine
 62
7
  6
CONTINUOUS
 10
251.4019402549
 20
238.8498960678
 11
253.3791923003
 21
239.1282422697
  0
LINE
  5
521
100
AcDbEntity
  8
0
100
AcDbLine
 62
7
  6
CONTINUOUS
 10
254.8621313343
 20
239.3370019211
 11
256.8393833796
 21
239.6153481231
  0
LINE
  5
522
100
AcDbEntity
  8
0
100
AcDbLine
 62
7
  6
CONTINUOUS
 10
258.3223224137
 20
239.8241077745
 11
260.299574459
 21
240.1024539764
  0
LINE
  5
523
100
AcDbEntity
  8
0
100
AcDbLine
 62
7
  6
CONTINUOUS
 10
260.1844464051
 20
240.1024539764
 11
258.2071943598
 21
239.8241077745
  0
LINE
  5
524
100
AcDbEntity
  8
0
100
AcDbLine
 62
7
  6
CONTINUOUS
 10
256.7242553257
 20
239.6153481231
 11
254.7470032804
 21
239.3370019211
  0
LINE
  5
525
100
AcDbEntity
  8
0
100
AcDbLine
 62
7
  6
CONTINUOUS
 10
253.2640642463
 20
239.1282422697
 11
251.286812201
 21
238.8498960678
  0
LINE
  5
526
100
AcDbEntity
  8
0
100
AcDbLine
 62
7
  6
CONTINUOUS
 10
249.803873167
 20
238.6411364163
 11
247.8266211216
 21
238.3627902144
  0
LINE
  5
527
100
AcDbEntity
  8
0
100
AcDbLine
 62
7
  6
CONTINUOUS
 10
246.3436820876
 20
238.154030563
 11
244.3664300422
 21
237.8756843611
  0
LINE
  5
528
100
AcDbEntity
  8
0
100
AcDbLine
 62
7
  6
CONTINUOUS
 10
242.8834910082
 20
237.6669247096
 11
240.9062389628
 21
237.3885785077
  0
LINE
  5
529
100
AcDbEntity
  8
0
100
AcDbLine
 62
7
  6
CONTINUOUS
 10
239.4232999288
 20
237.1798188563
 11
237.4460478834
 21
236.9014726543
  0
LINE
  5
52A
100
AcDbEntity
  8
0
100
AcDbLine
 62
7
  6
CONTINUOUS
 10
237.359701843
 20
236.9014726543
 11
239.3369538884
 21
237.1798188563
  0
LINE
  5
52B
100
AcDbEntity
  8
0
100
AcDbLine
 62
7
  6
CONTINUOUS
 10
240.8198929224
 20
237.3885785077
 11
242.7971449677
 21
237.6669247096
  0
LINE
  5
52C
100
AcDbEntity
  8
0
100
AcDbLine
 62
7
  6
CONTINUOUS
 10
244.2800840018
 20
237.8756843611
 11
246.2573360471
 21
238.154030563
  0
LINE
  5
52D
100
AcDbEntity
  8
0
100
AcDbLine
 62
7
  6
CONTINUOUS
 10
247.7402750812
 20
238.3627902144
 11
249.7175271265
 21
238.6411364163
  0
LINE
  5
52E
100
AcDbEntity
  8
0
100
AcDbLine
 62
7
  6
CONTINUOUS
 10
251.2004661605
 20
238.8498960678
 11
253.1777182059
 21
239.1282422697
  0
LINE
  5
52F
100
AcDbEntity
  8
0
100
AcDbLine
 62
7
  6
CONTINUOUS
 10
254.6606572399
 20
239.3370019211
 11
256.6379092853
 21
239.6153481231
  0
LINE
  5
530
100
AcDbEntity
  8
0
100
AcDbLine
 62
7
  6
CONTINUOUS
 10
258.1208483193
 20
239.8241077745
 11
260.0981003647
 21
240.1024539764
  0
LINE
  5
531
100
AcDbEntity
  8
0
100
AcDbLine
 62
7
  6
CONTINUOUS
 10
259.9829723108
 20
240.1024539764
 11
258.0057202654
 21
239.8241077745
  0
LINE
  5
532
100
AcDbEntity
  8
0
100
AcDbLine
 62
7
  6
CONTINUOUS
 10
256.5227812314
 20
239.6153481231
 11
254.545529186
 21
239.3370019211
  0
LINE
  5
533
100
AcDbEntity
  8
0
100
AcDbLine
 62
7
  6
CONTINUOUS
 10
253.062590152
 20
239.1282422697
 11
251.0853381066
 21
238.8498960678
  0
LINE
  5
534
100
AcDbEntity
  8
0
100
AcDbLine
 62
7
  6
CONTINUOUS
 10
249.6023990726
 20
238.6411364163
 11
247.6251470272
 21
238.3627902144
  0
LINE
  5
535
100
AcDbEntity
  8
0
100
AcDbLine
 62
7
  6
CONTINUOUS
 10
246.1422079932
 20
238.154030563
 11
244.1649559478
 21
237.8756843611
  0
LINE
  5
536
100
AcDbEntity
  8
0
100
AcDbLine
 62
7
  6
CONTINUOUS
 10
242.6820169138
 20
237.6669247096
 11
240.7047648685
 21
237.3885785077
  0
LINE
  5
537
100
AcDbEntity
  8
0
100
AcDbLine
 62
7
  6
CONTINUOUS
 10
239.2218258344
 20
237.1798188563
 11
237.2445737891
 21
236.9014726543
  0
LINE
  5
538
100
AcDbEntity
  8
0
100
AcDbLine
 62
7
  6
CONTINUOUS
 10
237.1582277486
 20
236.9014726543
 11
239.135479794
 21
237.1798188563
  0
LINE
  5
539
100
AcDbEntity
  8
0
100
AcDbLine
 62
7
  6
CONTINUOUS
 10
240.618418828
 20
237.3885785077
 11
242.5956708734
 21
237.6669247096
  0
LINE
  5
53A
100
AcDbEntity
  8
0
100
AcDbLine
 62
7
  6
CONTINUOUS
 10
244.0786099074
 20
237.8756843611
 11
246.0558619528
 21
238.154030563
  0
LINE
  5
53B
100
AcDbEntity
  8
0
100
AcDbLine
 62
7
  6
CONTINUOUS
 10
247.5388009868
 20
238.3627902144
 11
249.5160530322
 21
238.6411364163
  0
LINE
  5
53C
100
AcDbEntity
  8
0
100
AcDbLine
 62
7
  6
CONTINUOUS
 10
250.9989920662
 20
238.8498960678
 11
252.9762441115
 21
239.1282422697
  0
LINE
  5
53D
100
AcDbEntity
  8
0
100
AcDbLine
 62
7
  6
CONTINUOUS
 10
254.4591831456
 20
239.3370019211
 11
256.4364351909
 21
239.6153481231
  0
LINE
  5
53E
100
AcDbEntity
  8
0
100
AcDbLine
 62
7
  6
CONTINUOUS
 10
257.919374225
 20
239.8241077745
 11
259.8966262703
 21
240.1024539764
  0
LINE
  5
53F
100
AcDbEntity
  8
0
100
AcDbLine
 62
7
  6
CONTINUOUS
 10
259.7814982164
 20
240.1024539764
 11
257.804246171
 21
239.8241077745
  0
LINE
  5
540
100
AcDbEntity
  8
0
100
AcDbLine
 62
7
  6
CONTINUOUS
 10
256.321307137
 20
239.6153481231
 11
254.3440550916
 21
239.3370019211
  0
LINE
  5
541
100
AcDbEntity
  8
0
100
AcDbLine
 62
7
  6
CONTINUOUS
 10
252.8611160576
 20
239.1282422697
 11
250.8838640123
 21
238.8498960678
  0
LINE
  5
542
100
AcDbEntity
  8
0
100
AcDbLine
 62
7
  6
CONTINUOUS
 10
249.4009249782
 20
238.6411364163
 11
247.4236729329
 21
238.3627902144
  0
LINE
  5
543
100
AcDbEntity
  8
0
100
AcDbLine
 62
7
  6
CONTINUOUS
 10
245.9407338988
 20
238.154030563
 11
243.9634818535
 21
237.8756843611
  0
LINE
  5
544
100
AcDbEntity
  8
0
100
AcDbLine
 62
7
  6
CONTINUOUS
 10
242.4805428195
 20
237.6669247096
 11
240.5032907741
 21
237.3885785077
  0
LINE
  5
545
100
AcDbEntity
  8
0
100
AcDbLine
 62
7
  6
CONTINUOUS
 10
239.0203517401
 20
237.1798188563
 11
237.0430996947
 21
236.9014726543
  0
LINE
  5
546
100
AcDbEntity
  8
0
100
AcDbLine
 62
7
  6
CONTINUOUS
 10
236.9567536543
 20
236.9014726543
 11
238.9340056996
 21
237.1798188563
  0
LINE
  5
547
100
AcDbEntity
  8
0
100
AcDbLine
 62
7
  6
CONTINUOUS
 10
240.4169447337
 20
237.3885785077
 11
242.394196779
 21
237.6669247096
  0
LINE
  5
548
100
AcDbEntity
  8
0
100
AcDbLine
 62
7
  6
CONTINUOUS
 10
243.877135813
 20
237.8756843611
 11
245.8543878584
 21
238.154030563
  0
LINE
  5
549
100
AcDbEntity
  8
0
100
AcDbLine
 62
7
  6
CONTINUOUS
 10
247.3373268924
 20
238.3627902144
 11
249.3145789378
 21
238.6411364163
  0
LINE
  5
54A
100
AcDbEntity
  8
0
100
AcDbLine
 62
7
  6
CONTINUOUS
 10
250.7975179718
 20
238.8498960678
 11
252.7747700172
 21
239.1282422697
  0
LINE
  5
54B
100
AcDbEntity
  8
0
100
AcDbLine
 62
7
  6
CONTINUOUS
 10
254.2577090512
 20
239.3370019211
 11
256.2349610966
 21
239.6153481231
  0
LINE
  5
54C
100
AcDbEntity
  8
0
100
AcDbLine
 62
7
  6
CONTINUOUS
 10
257.7179001306
 20
239.8241077745
 11
259.695152176
 21
240.1024539764
  0
LINE
  5
54D
100
AcDbEntity
  8
0
100
AcDbLine
 62
7
  6
CONTINUOUS
 10
259.580024122
 20
240.1024539764
 11
257.6027720767
 21
239.8241077745
  0
LINE
  5
54E
100
AcDbEntity
  8
0
100
AcDbLine
 62
7
  6
CONTINUOUS
 10
256.1198330427
 20
239.6153481231
 11
254.1425809973
 21
239.3370019211
  0
LINE
  5
54F
100
AcDbEntity
  8
0
100
AcDbLine
 62
7
  6
CONTINUOUS
 10
252.6596419633
 20
239.1282422697
 11
250.6823899179
 21
238.8498960678
  0
LINE
  5
550
100
AcDbEntity
  8
0
100
AcDbLine
 62
7
  6
CONTINUOUS
 10
249.1994508839
 20
238.6411364163
 11
247.2221988385
 21
238.3627902144
  0
LINE
  5
551
100
AcDbEntity
  8
0
100
AcDbLine
 62
7
  6
CONTINUOUS
 10
245.7392598045
 20
238.154030563
 11
243.7620077591
 21
237.8756843611
  0
LINE
  5
552
100
AcDbEntity
  8
0
100
AcDbLine
 62
7
  6
CONTINUOUS
 10
242.2790687251
 20
237.6669247096
 11
240.3018166797
 21
237.3885785077
  0
LINE
  5
553
100
AcDbEntity
  8
0
100
AcDbLine
 62
7
  6
CONTINUOUS
 10
238.8188776457
 20
237.1798188563
 11
236.8416256003
 21
236.9014726543
  0
LINE
  5
554
100
AcDbEntity
  8
0
100
AcDbLine
 62
7
  6
CONTINUOUS
 10
236.7552795599
 20
236.9014726543
 11
238.7325316053
 21
237.1798188563
  0
LINE
  5
555
100
AcDbEntity
  8
0
100
AcDbLine
 62
7
  6
CONTINUOUS
 10
240.2154706393
 20
237.3885785077
 11
242.1927226847
 21
237.6669247096
  0
LINE
  5
556
100
AcDbEntity
  8
0
100
AcDbLine
 62
7
  6
CONTINUOUS
 10
243.6756617187
 20
237.8756843611
 11
245.6529137641
 21
238.154030563
  0
LINE
  5
557
100
AcDbEntity
  8
0
100
AcDbLine
 62
7
  6
CONTINUOUS
 10
247.1358527981
 20
238.3627902144
 11
249.1131048434
 21
238.6411364163
  0
LINE
  5
558
100
AcDbEntity
  8
0
100
AcDbLine
 62
7
  6
CONTINUOUS
 10
250.5960438775
 20
238.8498960678
 11
252.5732959228
 21
239.1282422697
  0
LINE
  5
559
100
AcDbEntity
  8
0
100
AcDbLine
 62
7
  6
CONTINUOUS
 10
254.0562349569
 20
239.3370019211
 11
256.0334870022
 21
239.6153481231
  0
LINE
  5
55A
100
AcDbEntity
  8
0
100
AcDbLine
 62
7
  6
CONTINUOUS
 10
257.5164260362
 20
239.8241077745
 11
259.4936780816
 21
240.1024539764
  0
LINE
  5
55B
100
AcDbEntity
  8
0
100
AcDbLine
 62
7
  6
CONTINUOUS
 10
259.3785500277
 20
240.1024539764
 11
257.4012979823
 21
239.8241077745
  0
LINE
  5
55C
100
AcDbEntity
  8
0
100
AcDbLine
 62
7
  6
CONTINUOUS
 10
255.9183589483
 20
239.6153481231
 11
253.9411069029
 21
239.3370019211
  0
LINE
  5
55D
100
AcDbEntity
  8
0
100
AcDbLine
 62
7
  6
CONTINUOUS
 10
252.4581678689
 20
239.1282422697
 11
250.4809158235
 21
238.8498960678
  0
LINE
  5
55E
100
AcDbEntity
  8
0
100
AcDbLine
 62
7
  6
CONTINUOUS
 10
248.9979767895
 20
238.6411364163
 11
247.0207247442
 21
238.3627902144
  0
LINE
  5
55F
100
AcDbEntity
  8
0
100
AcDbLine
 62
7
  6
CONTINUOUS
 10
245.5377857101
 20
238.154030563
 11
243.5605336648
 21
237.8756843611
  0
LINE
  5
560
100
AcDbEntity
  8
0
100
AcDbLine
 62
7
  6
CONTINUOUS
 10
242.0775946307
 20
237.6669247096
 11
240.1003425854
 21
237.3885785077
  0
LINE
  5
561
100
AcDbEntity
  8
0
100
AcDbLine
 62
7
  6
CONTINUOUS
 10
238.6174035514
 20
237.1798188563
 11
236.640151506
 21
236.9014726543
  0
LINE
  5
562
100
AcDbEntity
  8
0
100
AcDbLine
 62
7
  6
CONTINUOUS
 10
236.5538054656
 20
236.9014726543
 11
238.5310575109
 21
237.1798188563
  0
LINE
  5
563
100
AcDbEntity
  8
0
100
AcDbLine
 62
7
  6
CONTINUOUS
 10
240.0139965449
 20
237.3885785077
 11
241.9912485903
 21
237.6669247096
  0
LINE
  5
564
100
AcDbEntity
  8
0
100
AcDbLine
 62
7
  6
CONTINUOUS
 10
243.4741876243
 20
237.8756843611
 11
245.4514396697
 21
238.154030563
  0
LINE
  5
565
100
AcDbEntity
  8
0
100
AcDbLine
 62
7
  6
CONTINUOUS
 10
246.9343787037
 20
238.3627902144
 11
248.9116307491
 21
238.6411364163
  0
LINE
  5
566
100
AcDbEntity
  8
0
100
AcDbLine
 62
7
  6
CONTINUOUS
 10
250.3945697831
 20
238.8498960678
 11
252.3718218285
 21
239.1282422697
  0
LINE
  5
567
100
AcDbEntity
  8
0
100
AcDbLine
 62
7
  6
CONTINUOUS
 10
253.8547608625
 20
239.3370019211
 11
255.8320129079
 21
239.6153481231
  0
LINE
  5
568
100
AcDbEntity
  8
0
100
AcDbLine
 62
7
  6
CONTINUOUS
 10
257.3149519419
 20
239.8241077745
 11
259.2922039872
 21
240.1024539764
  0
LINE
  5
569
100
AcDbEntity
  8
0
100
AcDbLine
 62
7
  6
CONTINUOUS
 10
259.1770759333
 20
240.1024539764
 11
257.199823888
 21
239.8241077745
  0
LINE
  5
56A
100
AcDbEntity
  8
0
100
AcDbLine
 62
7
  6
CONTINUOUS
 10
255.7168848539
 20
239.6153481231
 11
253.7396328086
 21
239.3370019211
  0
LINE
  5
56B
100
AcDbEntity
  8
0
100
AcDbLine
 62
7
  6
CONTINUOUS
 10
252.2566937745
 20
239.1282422697
 11
250.2794417292
 21
238.8498960678
  0
LINE
  5
56C
100
AcDbEntity
  8
0
100
AcDbLine
 62
7
  6
CONTINUOUS
 10
248.7965026952
 20
238.6411364163
 11
246.8192506498
 21
238.3627902144
  0
LINE
  5
56D
100
AcDbEntity
  8
0
100
AcDbLine
 62
7
  6
CONTINUOUS
 10
245.3363116158
 20
238.154030563
 11
243.3590595704
 21
237.8756843611
  0
LINE
  5
56E
100
AcDbEntity
  8
0
100
AcDbLine
 62
7
  6
CONTINUOUS
 10
241.8761205364
 20
237.6669247096
 11
239.898868491
 21
237.3885785077
  0
LINE
  5
56F
100
AcDbEntity
  8
0
100
AcDbLine
 62
7
  6
CONTINUOUS
 10
238.415929457
 20
237.1798188563
 11
236.4386774116
 21
236.9014726543
  0
LINE
  5
570
100
AcDbEntity
  8
0
100
AcDbLine
 62
7
  6
CONTINUOUS
 10
236.3523313712
 20
236.9014726543
 11
238.3295834166
 21
237.1798188563
  0
LINE
  5
571
100
AcDbEntity
  8
0
100
AcDbLine
 62
7
  6
CONTINUOUS
 10
239.8125224506
 20
237.3885785077
 11
241.7897744959
 21
237.6669247096
  0
LINE
  5
572
100
AcDbEntity
  8
0
100
AcDbLine
 62
7
  6
CONTINUOUS
 10
243.27271353
 20
237.8756843611
 11
245.2499655753
 21
238.154030563
  0
LINE
  5
573
100
AcDbEntity
  8
0
100
AcDbLine
 62
7
  6
CONTINUOUS
 10
246.7329046094
 20
238.3627902144
 11
248.7101566547
 21
238.6411364163
  0
LINE
  5
574
100
AcDbEntity
  8
0
100
AcDbLine
 62
7
  6
CONTINUOUS
 10
250.1930956887
 20
238.8498960678
 11
252.1703477341
 21
239.1282422697
  0
LINE
  5
575
100
AcDbEntity
  8
0
100
AcDbLine
 62
7
  6
CONTINUOUS
 10
253.6532867681
 20
239.3370019211
 11
255.6305388135
 21
239.6153481231
  0
LINE
  5
576
100
AcDbEntity
  8
0
100
AcDbLine
 62
7
  6
CONTINUOUS
 10
257.1134778475
 20
239.8241077745
 11
259.0907298929
 21
240.1024539764
  0
LINE
  5
577
100
AcDbEntity
  8
0
100
AcDbLine
 62
7
  6
CONTINUOUS
 10
258.975601839
 20
240.1024539764
 11
256.9983497936
 21
239.8241077745
  0
LINE
  5
578
100
AcDbEntity
  8
0
100
AcDbLine
 62
7
  6
CONTINUOUS
 10
255.5154107596
 20
239.6153481231
 11
253.5381587142
 21
239.3370019211
  0
LINE
  5
579
100
AcDbEntity
  8
0
100
AcDbLine
 62
7
  6
CONTINUOUS
 10
252.0552196802
 20
239.1282422697
 11
250.0779676348
 21
238.8498960678
  0
LINE
  5
57A
100
AcDbEntity
  8
0
100
AcDbLine
 62
7
  6
CONTINUOUS
 10
248.5950286008
 20
238.6411364163
 11
246.6177765554
 21
238.3627902144
  0
LINE
  5
57B
100
AcDbEntity
  8
0
100
AcDbLine
 62
7
  6
CONTINUOUS
 10
245.1348375214
 20
238.154030563
 11
243.1575854761
 21
237.8756843611
  0
LINE
  5
57C
100
AcDbEntity
  8
0
100
AcDbLine
 62
7
  6
CONTINUOUS
 10
241.674646442
 20
237.6669247096
 11
239.6973943967
 21
237.3885785077
  0
LINE
  5
57D
100
AcDbEntity
  8
0
100
AcDbLine
 62
7
  6
CONTINUOUS
 10
238.2144553626
 20
237.1798188563
 11
236.2372033173
 21
236.9014726543
  0
LINE
  5
57E
100
AcDbEntity
  8
0
100
AcDbLine
 62
7
  6
CONTINUOUS
 10
236.1508572768
 20
236.9014726543
 11
238.1281093222
 21
237.1798188563
  0
LINE
  5
57F
100
AcDbEntity
  8
0
100
AcDbLine
 62
7
  6
CONTINUOUS
 10
239.6110483562
 20
237.3885785077
 11
241.5883004016
 21
237.6669247096
  0
LINE
  5
580
100
AcDbEntity
  8
0
100
AcDbLine
 62
7
  6
CONTINUOUS
 10
243.0712394356
 20
237.8756843611
 11
245.048491481
 21
238.154030563
  0
LINE
  5
581
100
AcDbEntity
  8
0
100
AcDbLine
 62
7
  6
CONTINUOUS
 10
246.531430515
 20
238.3627902144
 11
248.5086825604
 21
238.6411364163
  0
LINE
  5
582
100
AcDbEntity
  8
0
100
AcDbLine
 62
7
  6
CONTINUOUS
 10
249.9916215944
 20
238.8498960678
 11
251.9688736398
 21
239.1282422697
  0
LINE
  5
583
100
AcDbEntity
  8
0
100
AcDbLine
 62
7
  6
CONTINUOUS
 10
253.4518126738
 20
239.3370019211
 11
255.4290647191
 21
239.6153481231
  0
LINE
  5
584
100
AcDbEntity
  8
0
100
AcDbLine
 62
7
  6
CONTINUOUS
 10
256.9120037532
 20
239.8241077745
 11
258.8892557985
 21
240.1024539764
  0
LINE
  5
585
100
AcDbEntity
  8
0
100
AcDbLine
 62
7
  6
CONTINUOUS
 10
258.7741277446
 20
240.1024539764
 11
256.7968756992
 21
239.8241077745
  0
LINE
  5
586
100
AcDbEntity
  8
0
100
AcDbLine
 62
7
  6
CONTINUOUS
 10
255.3139366652
 20
239.6153481231
 11
253.3366846199
 21
239.3370019211
  0
LINE
  5
587
100
AcDbEntity
  8
0
100
AcDbLine
 62
7
  6
CONTINUOUS
 10
251.8537455858
 20
239.1282422697
 11
249.8764935405
 21
238.8498960678
  0
LINE
  5
588
100
AcDbEntity
  8
0
100
AcDbLine
 62
7
  6
CONTINUOUS
 10
248.3935545064
 20
238.6411364163
 11
246.4163024611
 21
238.3627902144
  0
LINE
  5
589
100
AcDbEntity
  8
0
100
AcDbLine
 62
7
  6
CONTINUOUS
 10
244.9333634271
 20
238.154030563
 11
242.9561113817
 21
237.8756843611
  0
LINE
  5
58A
100
AcDbEntity
  8
0
100
AcDbLine
 62
7
  6
CONTINUOUS
 10
241.4731723477
 20
237.6669247096
 11
239.4959203023
 21
237.3885785077
  0
LINE
  5
58B
100
AcDbEntity
  8
0
100
AcDbLine
 62
7
  6
CONTINUOUS
 10
238.0129812683
 20
237.1798188563
 11
236.0357292229
 21
236.9014726543
  0
LINE
  5
58C
100
AcDbEntity
  8
0
100
AcDbLine
 62
7
  6
CONTINUOUS
 10
235.9493831825
 20
236.9014726543
 11
237.9266352278
 21
237.1798188563
  0
LINE
  5
58D
100
AcDbEntity
  8
0
100
AcDbLine
 62
7
  6
CONTINUOUS
 10
239.4095742619
 20
237.3885785077
 11
241.3868263072
 21
237.6669247096
  0
LINE
  5
58E
100
AcDbEntity
  8
0
100
AcDbLine
 62
7
  6
CONTINUOUS
 10
242.8697653413
 20
237.8756843611
 11
244.8470173866
 21
238.154030563
  0
LINE
  5
58F
100
AcDbEntity
  8
0
100
AcDbLine
 62
7
  6
CONTINUOUS
 10
246.3299564206
 20
238.3627902144
 11
248.307208466
 21
238.6411364163
  0
LINE
  5
590
100
AcDbEntity
  8
0
100
AcDbLine
 62
7
  6
CONTINUOUS
 10
249.7901475
 20
238.8498960678
 11
251.7673995454
 21
239.1282422697
  0
LINE
  5
591
100
AcDbEntity
  8
0
100
AcDbLine
 62
7
  6
CONTINUOUS
 10
253.2503385794
 20
239.3370019211
 11
255.2275906248
 21
239.6153481231
  0
LINE
  5
592
100
AcDbEntity
  8
0
100
AcDbLine
 62
7
  6
CONTINUOUS
 10
256.7105296588
 20
239.8241077745
 11
258.6877817042
 21
240.1024539764
  0
LINE
  5
593
100
AcDbEntity
  8
0
100
AcDbLine
 62
7
  6
CONTINUOUS
 10
258.5726536503
 20
240.1024539764
 11
256.5954016049
 21
239.8241077745
  0
LINE
  5
594
100
AcDbEntity
  8
0
100
AcDbLine
 62
7
  6
CONTINUOUS
 10
255.1124625709
 20
239.6153481231
 11
253.1352105255
 21
239.3370019211
  0
LINE
  5
595
100
AcDbEntity
  8
0
100
AcDbLine
 62
7
  6
CONTINUOUS
 10
251.6522714915
 20
239.1282422697
 11
249.6750194461
 21
238.8498960678
  0
LINE
  5
596
100
AcDbEntity
  8
0
100
AcDbLine
 62
7
  6
CONTINUOUS
 10
248.1920804121
 20
238.6411364163
 11
246.2148283667
 21
238.3627902144
  0
LINE
  5
597
100
AcDbEntity
  8
0
100
AcDbLine
 62
7
  6
CONTINUOUS
 10
244.7318893327
 20
238.154030563
 11
242.7546372873
 21
237.8756843611
  0
LINE
  5
598
100
AcDbEntity
  8
0
100
AcDbLine
 62
7
  6
CONTINUOUS
 10
241.2716982533
 20
237.6669247096
 11
239.2944462079
 21
237.3885785077
  0
LINE
  5
599
100
AcDbEntity
  8
0
100
AcDbLine
 62
7
  6
CONTINUOUS
 10
237.8115071739
 20
237.1798188563
 11
235.8342551286
 21
236.9014726543
  0
LINE
  5
59A
100
AcDbEntity
  8
0
100
AcDbLine
 62
7
  6
CONTINUOUS
 10
235.7479090881
 20
236.9014726543
 11
237.7251611335
 21
237.1798188563
  0
LINE
  5
59B
100
AcDbEntity
  8
0
100
AcDbLine
 62
7
  6
CONTINUOUS
 10
239.2081001675
 20
237.3885785077
 11
241.1853522129
 21
237.6669247096
  0
LINE
  5
59C
100
AcDbEntity
  8
0
100
AcDbLine
 62
7
  6
CONTINUOUS
 10
242.6682912469
 20
237.8756843611
 11
244.6455432923
 21
238.154030563
  0
LINE
  5
59D
100
AcDbEntity
  8
0
100
AcDbLine
 62
7
  6
CONTINUOUS
 10
246.1284823263
 20
238.3627902144
 11
248.1057343716
 21
238.6411364163
  0
LINE
  5
59E
100
AcDbEntity
  8
0
100
AcDbLine
 62
7
  6
CONTINUOUS
 10
249.5886734057
 20
238.8498960678
 11
251.565925451
 21
239.1282422697
  0
LINE
  5
59F
100
AcDbEntity
  8
0
100
AcDbLine
 62
7
  6
CONTINUOUS
 10
253.0488644851
 20
239.3370019211
 11
255.0261165304
 21
239.6153481231
  0
LINE
  5
5A0
100
AcDbEntity
  8
0
100
AcDbLine
 62
7
  6
CONTINUOUS
 10
256.5090555644
 20
239.8241077745
 11
258.4863076098
 21
240.1024539764
  0
LINE
  5
5A1
100
AcDbEntity
  8
0
100
AcDbLine
 62
7
  6
CONTINUOUS
 10
258.3711795559
 20
240.1024539764
 11
256.3939275105
 21
239.8241077745
  0
LINE
  5
5A2
100
AcDbEntity
  8
0
100
AcDbLine
 62
7
  6
CONTINUOUS
 10
254.9109884765
 20
239.6153481231
 11
252.9337364311
 21
239.3370019211
  0
LINE
  5
5A3
100
AcDbEntity
  8
0
100
AcDbLine
 62
7
  6
CONTINUOUS
 10
251.4507973971
 20
239.1282422697
 11
249.4735453518
 21
238.8498960678
  0
LINE
  5
5A4
100
AcDbEntity
  8
0
100
AcDbLine
 62
7
  6
CONTINUOUS
 10
247.9906063177
 20
238.6411364163
 11
246.0133542724
 21
238.3627902144
  0
LINE
  5
5A5
100
AcDbEntity
  8
0
100
AcDbLine
 62
7
  6
CONTINUOUS
 10
244.5304152383
 20
238.154030563
 11
242.553163193
 21
237.8756843611
  0
LINE
  5
5A6
100
AcDbEntity
  8
0
100
AcDbLine
 62
7
  6
CONTINUOUS
 10
241.070224159
 20
237.6669247096
 11
239.0929721136
 21
237.3885785077
  0
LINE
  5
5A7
100
AcDbEntity
  8
0
100
AcDbLine
 62
7
  6
CONTINUOUS
 10
237.6100330796
 20
237.1798188563
 11
235.6327810342
 21
236.9014726543
  0
LINE
  5
5A8
100
AcDbEntity
  8
0
100
AcDbLine
 62
7
  6
CONTINUOUS
 10
266.5022328701
 20
240.3390426893
 11
266.4755198519
 21
240.3356771155
  0
LINE
  5
5A9
100
AcDbEntity
  8
0
100
AcDbLine
 62
7
  6
CONTINUOUS
 10
238.7938201812
 20
235.9111535731
 11
238.7945520917
 21
235.9112045856
  0
LINE
  5
5AA
100
AcDbEntity
  8
0
100
AcDbLine
 62
3
  6
CONTINUOUS
 10
269.7127015721
 20
243.7322639417
 11
270.9004742438
 21
243.7322639417
  0
LINE
  5
5AB
100
AcDbEntity
  8
0
100
AcDbLine
 62
7
  6
CONTINUOUS
 10
318.4550794271
 20
210.4822639417
 11
318.4550794271
 21
210.2822639417
  0
LINE
  5
5AC
100
AcDbEntity
  8
0
100
AcDbLine
 62
7
  6
CONTINUOUS
 10
318.5758787295
 20
210.4822639417
 11
318.5758787295
 21
210.2822639417
  0
LINE
  5
5AD
100
AcDbEntity
  8
0
100
AcDbLine
 62
7
  6
CONTINUOUS
 10
318.8308423773
 20
210.4822639417
 11
318.8308423773
 21
210.2822639417
  0
LINE
  5
5AE
100
AcDbEntity
  8
0
100
AcDbLine
 62
7
  6
CONTINUOUS
 10
326.9124173978
 20
210.4822639417
 11
326.9124173978
 21
210.2822639417
  0
LINE
  5
5AF
100
AcDbEntity
  8
0
100
AcDbLine
 62
7
  6
CONTINUOUS
 10
327.5629069186
 20
210.4822639417
 11
327.5629069186
 21
210.2822639417
  0
LINE
  5
5B0
100
AcDbEntity
  8
0
100
AcDbLine
 62
7
  6
CONTINUOUS
 10
327.5859795819
 20
210.2822639417
 11
327.5859795819
 21
210.4822639417
  0
LINE
  5
5B1
100
AcDbEntity
  8
0
100
AcDbLine
 62
7
  6
CONTINUOUS
 10
328.2317693896
 20
210.2822639417
 11
328.2317693896
 21
210.4822639417
  0
LINE
  5
5B2
100
AcDbEntity
  8
0
100
AcDbLine
 62
7
  6
CONTINUOUS
 10
493.1340091912
 20
432.2459098549
 11
493.9633439168
 21
432.6801728691
  0
LINE
  5
5B3
100
AcDbEntity
  8
0
100
AcDbLine
 62
7
  6
CONTINUOUS
 10
493.9633439168
 20
432.6801728691
 11
494.8934447675
 21
433.1662407228
  0
LINE
  5
5B4
100
AcDbEntity
  8
06___PRT_ALL_SURFS
100
AcDbLine
 62
7
  6
CONTINUOUS
 10
487.8963486005
 20
429.1055529967
 11
488.2521951197
 21
429.3297381964
  0
LINE
  5
5B5
100
AcDbEntity
  8
06___PRT_ALL_SURFS
100
AcDbLine
 62
7
  6
CONTINUOUS
 10
488.2521951197
 20
429.3297381964
 11
488.6087910872
 21
429.5538135712
  0
LINE
  5
5B6
100
AcDbEntity
  8
06___PRT_ALL_SURFS
100
AcDbLine
 62
7
  6
CONTINUOUS
 10
488.6087910872
 20
429.5538135712
 11
488.9427947845
 21
429.7630782671
  0
LINE
  5
5B7
100
AcDbEntity
  8
06___PRT_ALL_SURFS
100
AcDbLine
 62
7
  6
CONTINUOUS
 10
488.9427947845
 20
429.7630782671
 11
489.2583864213
 21
429.9601720426
  0
LWPOLYLINE
  5
5B8
100
AcDbEntity
  8
06___PRT_ALL_SURFS
100
AcDbPolyline
 62
7
  6
CONTINUOUS
 90
3
 70
0
 10
489.2583864213
 20
429.9601720426
 10
489.5591889174
 20
430.1473627671
 10
489.6411968398
 20
430.198247581
  0
LINE
  5
5B9
100
AcDbEntity
  8
0
100
AcDbLine
 62
7
  6
CONTINUOUS
 10
365.7117069079
 20
458.0822639417
 11
365.7117069079
 21
457.8822639417
  0
LINE
  5
5BA
100
AcDbEntity
  8
0
100
AcDbLine
 62
7
  6
CONTINUOUS
 10
369.0019204398
 20
457.8822639417
 11
369.0019204398
 21
458.0822639417
  0
LINE
  5
5BB
100
AcDbEntity
  8
0
100
AcDbLine
 62
7
  6
CONTINUOUS
 10
375.5869879308
 20
457.8822639417
 11
375.5869879308
 21
458.0822639417
  0
LINE
  5
5BC
100
AcDbEntity
  8
0
100
AcDbLine
 62
7
  6
CONTINUOUS
 10
364.8883677052
 20
458.0822639417
 11
364.8882413118
 21
457.8822639417
  0
LINE
  5
5BD
100
AcDbEntity
  8
0
100
AcDbLine
 62
7
  6
CONTINUOUS
 10
375.2634971079
 20
458.0718109391
 11
375.2635476414
 21
458.0822639417
  0
LINE
  5
5BE
100
AcDbEntity
  8
0
100
AcDbLine
 62
7
  6
CONTINUOUS
 10
250.8945130481
 20
214.2489306084
 11
250.6945130481
 21
214.0489306084
  0
LINE
  5
5BF
100
AcDbEntity
  8
0
100
AcDbLine
 62
7
  6
CONTINUOUS
 10
379.8334907804
 20
457.8822639417
 11
379.8321605322
 21
458.0822639417
  0
LINE
  5
5C0
100
AcDbEntity
  8
0
100
AcDbLine
 62
7
  6
CONTINUOUS
 10
378.8573930475
 20
458.0822639417
 11
378.8573930475
 21
457.8822639417
  0
LINE
  5
5C1
100
AcDbEntity
  8
0
100
AcDbLine
 62
7
  6
CONTINUOUS
 10
250.1374728898
 20
203.2822639417
 11
252.134156523
 21
205.2822639417
  0
LINE
  5
5C2
100
AcDbEntity
  8
0
100
AcDbLine
 62
7
  6
CONTINUOUS
 10
472.2447187631
 20
205.2822639417
 11
469.3579674171
 21
210.2822639417
  0
LINE
  5
5C3
100
AcDbEntity
  8
0
100
AcDbLine
 62
7
  6
CONTINUOUS
 10
245.2512918965
 20
227.765265721
 11
248.7846118067
 21
230.2822639417
  0
LINE
  5
5C4
100
AcDbEntity
  8
0
100
AcDbLine
 62
7
  6
CONTINUOUS
 10
415.4550146542
 20
210.4822639417
 11
415.4550146542
 21
210.2822639417
  0
LINE
  5
5C5
100
AcDbEntity
  8
0
100
AcDbLine
 62
7
  6
CONTINUOUS
 10
416.1234185784
 20
210.4822639417
 11
416.1234185784
 21
210.2822639417
  0
LINE
  5
5C6
100
AcDbEntity
  8
0
100
AcDbLine
 62
7
  6
CONTINUOUS
 10
416.1516110623
 20
210.4822639417
 11
416.1516110623
 21
210.2822639417
  0
LINE
  5
5C7
100
AcDbEntity
  8
0
100
AcDbLine
 62
7
  6
CONTINUOUS
 10
416.8244457549
 20
210.4822639417
 11
416.8244457549
 21
210.2822639417
  0
LINE
  5
5C8
100
AcDbEntity
  8
0
100
AcDbLine
 62
7
  6
CONTINUOUS
 10
477.6838365544
 20
389.0822639417
 11
468.9010924572
 21
389.0822639417
  0
LINE
  5
5C9
100
AcDbEntity
  8
0
100
AcDbLine
 62
7
  6
CONTINUOUS
 10
477.1767857792
 20
390.3658435389
 11
468.6793763028
 21
390.3658435391
  0
LINE
  5
5CA
100
AcDbEntity
  8
0
100
AcDbLine
 62
7
  6
CONTINUOUS
 10
424.3852877316
 20
210.4822639417
 11
424.3852877316
 21
210.2822639417
  0
LINE
  5
5CB
100
AcDbEntity
  8
0
100
AcDbLine
 62
7
  6
CONTINUOUS
 10
424.5917809953
 20
210.4822639417
 11
424.5917809953
 21
210.2822639417
  0
LINE
  5
5CC
100
AcDbEntity
  8
0
100
AcDbLine
 62
3
  6
CONTINUOUS
 10
468.3109275631
 20
402.6176921952
 11
468.3727906054
 21
402.6176921952
  0
LINE
  5
5CD
100
AcDbEntity
  8
0
100
AcDbLine
 62
7
  6
CONTINUOUS
 10
468.3604906604
 20
403.0822639417
 11
468.2367816918
 21
403.0822639417
  0
LINE
  5
5CE
100
AcDbEntity
  8
0
100
AcDbLine
 62
7
  6
CONTINUOUS
 10
468.0761436909
 20
413.0822639417
 11
467.9909070011
 21
413.0822639417
  0
LINE
  5
5CF
100
AcDbEntity
  8
0
100
AcDbLine
 62
7
  6
CONTINUOUS
 10
480.0171993394
 20
475.4300436521
 11
480.0909802088
 21
475.6526233483
  0
LINE
  5
5D0
100
AcDbEntity
  8
0
100
AcDbLine
 62
7
  6
CONTINUOUS
 10
481.4144337251
 20
474.9592396844
 11
481.4980405743
 21
475.2114620729
  0
LINE
  5
5D1
100
AcDbEntity
  8
0
100
AcDbLine
 62
7
  6
CONTINUOUS
 10
485.3886590346
 20
473.6201078512
 11
485.4774528958
 21
473.8879782466
  0
LINE
  5
5D2
100
AcDbEntity
  8
0
100
AcDbLine
 62
7
  6
CONTINUOUS
 10
486.642890179
 20
473.1974894235
 11
486.7257559068
 21
473.4474760213
  0
LINE
  5
5D3
100
AcDbEntity
  8
0
100
AcDbLine
 62
7
  6
CONTINUOUS
 10
242.9780841405
 20
208.6989306084
 11
250.6984703541
 21
211.4377755662
  0
LINE
  5
5D4
100
AcDbEntity
  8
0
100
AcDbLine
 62
7
  6
CONTINUOUS
 10
258.3066344723
 20
214.1368091841
 11
264.3579674171
 21
216.2835492909
  0
LINE
  5
5D5
100
AcDbEntity
  8
0
100
AcDbLine
 62
7
  6
CONTINUOUS
 10
269.8626223582
 20
217.1131910054
 11
246.1441056233
 21
208.6989306084
  0
LWPOLYLINE
  5
5D6
100
AcDbEntity
  8
0
100
AcDbPolyline
 62
3
  6
CONTINUOUS
 90
11
 70
0
 10
469.3163783805
 20
214.6597546741
 10
469.3166344082
 20
214.6582507833
 10
469.3163498253
 20
214.6602952896
 10
469.3151431537
 20
214.6702978008
 10
469.3136034185
 20
214.6851443123
 10
469.3117904208
 20
214.705022318
 10
469.3098361796
 20
214.7290293414
 10
469.3077643774
 20
214.7572174496
 10
469.3056149011
 20
214.7893433019
 10
469.3034044556
 20
214.8254179198
 10
469.3011533361
 20
214.8653689434
  0
LINE
  5
5D7
100
AcDbEntity
  8
0
100
AcDbLine
 62
7
  6
CONTINUOUS
 10
462.7466906808
 20
457.8822639417
 11
462.7362091249
 21
458.0822639417
  0
LINE
  5
5D8
100
AcDbEntity
  8
0
100
AcDbLine
 62
3
  6
CONTINUOUS
 10
469.3011533361
 20
214.8653689434
 11
469.2965861722
 21
214.9569428313
  0
LINE
  5
5D9
100
AcDbEntity
  8
0
100
AcDbLine
 62
3
  6
CONTINUOUS
 10
469.2965861722
 20
214.9569428313
 11
469.2920298562
 21
215.0641345411
  0
LINE
  5
5DA
100
AcDbEntity
  8
0
100
AcDbLine
 62
3
  6
CONTINUOUS
 10
469.2920298562
 20
215.0641345411
 11
469.2876101484
 21
215.186863464
  0
LINE
  5
5DB
100
AcDbEntity
  8
0
100
AcDbLine
 62
7
  6
CONTINUOUS
 10
468.0637738704
 20
413.4945406328
 11
468.064276352
 21
413.4778268043
  0
LINE
  5
5DC
100
AcDbEntity
  8
0
100
AcDbLine
 62
3
  6
CONTINUOUS
 10
469.2876101484
 20
215.186863464
 11
469.2834448622
 21
215.3244569003
  0
LINE
  5
5DD
100
AcDbEntity
  8
0
100
AcDbLine
 62
3
  6
CONTINUOUS
 10
469.2834448622
 20
215.3244569003
 11
469.2796341425
 21
215.4759257692
  0
LINE
  5
5DE
100
AcDbEntity
  8
0
100
AcDbLine
 62
3
  6
CONTINUOUS
 10
469.2796341425
 20
215.4759257692
 11
469.276280667
 21
215.6401895355
  0
LINE
  5
5DF
100
AcDbEntity
  8
0
100
AcDbLine
 62
3
  6
CONTINUOUS
 10
469.276280667
 20
215.6401895355
 11
469.2734919192
 21
215.8160243834
  0
LINE
  5
5E0
100
AcDbEntity
  8
0
100
AcDbLine
 62
3
  6
CONTINUOUS
 10
469.2734919192
 20
215.8160243834
 11
469.271379734
 21
216.0020318753
  0
LINE
  5
5E1
100
AcDbEntity
  8
0
100
AcDbLine
 62
3
  6
CONTINUOUS
 10
469.271379734
 20
216.0020318753
 11
469.2700589183
 21
216.1966196917
  0
LINE
  5
5E2
100
AcDbEntity
  8
0
100
AcDbLine
 62
3
  6
CONTINUOUS
 10
469.2700589183
 20
216.1966196917
 11
469.2696423174
 21
216.3822639417
  0
LINE
  5
5E3
100
AcDbEntity
  8
02___PRT_ALL_AXES
100
AcDbLine
 62
7
  6
CONTINUOUS
 10
463.8579674171
 20
210.4822639417
 11
463.8579674171
 21
210.2822639417
  0
LINE
  5
5E4
100
AcDbEntity
  8
0
100
AcDbLine
 62
7
  6
CONTINUOUS
 10
464.3291202969
 20
210.4822639417
 11
464.3291202969
 21
210.2822639417
  0
LINE
  5
5E5
100
AcDbEntity
  8
0
100
AcDbLine
 62
7
  6
CONTINUOUS
 10
464.3803854441
 20
210.4822639417
 11
464.3803854441
 21
210.2822639417
  0
LINE
  5
5E6
100
AcDbEntity
  8
0
100
AcDbLine
 62
7
  6
CONTINUOUS
 10
464.8516034306
 20
210.4822639417
 11
464.8516034306
 21
210.2822639417
  0
LINE
  5
5E7
100
AcDbEntity
  8
0
100
AcDbLine
 62
7
  6
CONTINUOUS
 10
466.4079952474
 20
458.5822639417
 11
466.4079952474
 21
477.0822639417
  0
LINE
  5
5E8
100
AcDbEntity
  8
02___PRT_ALL_AXES
100
AcDbLine
 62
3
  6
CONTINUOUS
 10
469.1079674171
 20
481.7021112308
 11
469.1079674171
 21
478.5822639417
  0
LINE
  5
5E9
100
AcDbEntity
  8
0
100
AcDbLine
 62
3
  6
CONTINUOUS
 10
469.2693205438
 20
216.3822639418
 11
469.2693205438
 21
389.0822639417
  0
LINE
  5
5EA
100
AcDbEntity
  8
0
100
AcDbLine
 62
3
  6
CONTINUOUS
 10
469.5126269009
 20
212.3822639417
 11
469.5126269009
 21
389.0822639417
  0
LINE
  5
5EB
100
AcDbEntity
  8
06___PRT_ALL_SURFS
100
AcDbLine
 62
7
  6
CONTINUOUS
 10
479.1498580972
 20
390.2647977235
 11
480.2355884273
 21
395.2772288065
  0
LINE
  5
5EC
100
AcDbEntity
  8
06___PRT_ALL_SURFS
100
AcDbLine
 62
7
  6
CONTINUOUS
 10
480.2355884273
 20
395.2772288065
 11
481.7991379415
 21
402.4900714391
  0
LINE
  5
5ED
100
AcDbEntity
  8
06___PRT_ALL_SURFS
100
AcDbLine
 62
7
  6
CONTINUOUS
 10
481.7991379415
 20
402.4900714391
 11
482.7912467257
 21
407.0625699137
  0
LINE
  5
5EE
100
AcDbEntity
  8
06___PRT_ALL_SURFS
100
AcDbLine
 62
7
  6
CONTINUOUS
 10
482.7912467257
 20
407.0625699137
 11
483.7414050605
 21
411.4378608877
  0
LINE
  5
5EF
100
AcDbEntity
  8
06___PRT_ALL_SURFS
100
AcDbLine
 62
7
  6
CONTINUOUS
 10
483.7414050605
 20
411.4378608877
 11
484.6480932532
 21
415.6086657701
  0
LWPOLYLINE
  5
5F0
100
AcDbEntity
  8
06___PRT_ALL_SURFS
100
AcDbPolyline
 62
7
  6
CONTINUOUS
 90
7
 70
0
 10
484.6480932532
 20
415.6086657701
 10
485.5097756473
 20
419.5676430092
 10
485.9232532612
 20
421.465379296
 10
486.3248908141
 20
423.3073614539
 10
486.7144856531
 20
425.092635211
 10
487.0917311391
 20
426.8197761782
 10
487.4533786014
 20
428.4739192615
  0
LWPOLYLINE
  5
5F1
100
AcDbEntity
  8
0
100
AcDbPolyline
 62
7
  6
CONTINUOUS
 90
21
 70
0
 10
487.4533785938
 20
428.4739192672
 10
487.460993672
 20
428.5061631313
 10
487.4733157918
 20
428.5504312036
 10
487.4878315621
 20
428.5945721171
 10
487.5044447484
 20
428.6381420462
 10
487.5230429066
 20
428.6808274006
 10
487.543464768
 20
428.7223242231
 10
487.5655075224
 20
428.762355474
 10
487.5889286021
 20
428.8006709775
 10
487.6134244962
 20
428.8370150931
 10
487.6387668761
 20
428.8713146244
 10
487.6646467949
 20
428.9034290027
 10
487.6909248769
 20
428.9334558828
 10
487.7174243069
 20
428.9614389415
 10
487.7440038545
 20
428.9874566366
 10
487.7705333102
 20
429.0115902895
 10
487.7968708293
 20
429.0339052347
 10
487.8229015448
 20
429.0544860019
 10
487.8484704425
 20
429.0733828425
 10
487.8734331032
 20
429.0906565622
 10
487.8963486284
 20
429.1055530146
  0
LINE
  5
5F2
100
AcDbEntity
  8
0
100
AcDbLine
 62
3
  6
CONTINUOUS
 10
264.3579674171
 20
453.3822639417
 11
468.7177029553
 21
453.3822639417
  0
LINE
  5
5F3
100
AcDbEntity
  8
0
100
AcDbLine
 62
7
  6
CONTINUOUS
 10
468.1672748216
 20
454.5822639417
 11
467.9320466212
 21
457.5101238075
  0
LINE
  5
5F4
100
AcDbEntity
  8
0
100
AcDbLine
 62
7
  6
CONTINUOUS
 10
467.3226777831
 20
435.6177122639
 11
467.3230935
 21
435.6064765869
  0
LINE
  5
5F5
100
AcDbEntity
  8
0
100
AcDbLine
 62
7
  6
CONTINUOUS
 10
466.5616969249
 20
454.5822639417
 11
468.1672748216
 21
454.5822639417
  0
LINE
  5
5F6
100
AcDbEntity
  8
0
100
AcDbLine
 62
7
  6
CONTINUOUS
 10
265.1079739419
 20
455.2822639417
 11
468.1110358799
 21
455.2822639417
  0
LINE
  5
5F7
100
AcDbEntity
  8
0
100
AcDbLine
 62
7
  6
CONTINUOUS
 10
265.1079674171
 20
456.8822639417
 11
467.9824897275
 21
456.8822639417
  0
LINE
  5
5F8
100
AcDbEntity
  8
0
100
AcDbLine
 62
7
  6
CONTINUOUS
 10
266.1079815545
 20
457.8822639417
 11
467.6079532798
 21
457.8822639417
  0
LINE
  5
5F9
100
AcDbEntity
  8
0
100
AcDbLine
 62
3
  6
CONTINUOUS
 10
467.7021947163
 20
458.0822639417
 11
266.013740118
 21
458.0822639417
  0
LINE
  5
5FA
100
AcDbEntity
  8
0
100
AcDbLine
 62
7
  6
CONTINUOUS
 10
466.4079952474
 20
458.5822639417
 11
495.9028704195
 21
458.5822639417
  0
LINE
  5
5FB
100
AcDbEntity
  8
0
100
AcDbLine
 62
3
  6
CONTINUOUS
 10
466.4079952474
 20
459.4822639417
 11
264.6079674171
 21
459.4822639417
  0
LINE
  5
5FC
100
AcDbEntity
  8
0
100
AcDbLine
 62
7
  6
CONTINUOUS
 10
491.5016945818
 20
458.0822639194
 11
467.7079674171
 21
458.0822639417
  0
LWPOLYLINE
  5
5FD
100
AcDbEntity
  8
0
100
AcDbPolyline
 62
7
  6
CONTINUOUS
 90
16
 70
0
 10
495.8633981204
 20
453.5693549334
 10
495.8627761623
 20
453.6943054937
 10
495.8580681257
 20
453.8344367459
 10
495.8491318953
 20
453.9741607271
 10
495.8359929247
 20
454.1133048591
 10
495.818690308
 20
454.2516860462
 10
495.7972640683
 20
454.3891710914
 10
495.7717737312
 20
454.5255524433
 10
495.7422263159
 20
454.6609081826
 10
495.7086236479
 20
454.7952546152
 10
495.6709699483
 20
454.9285520776
 10
495.6292571625
 20
455.0607750185
 10
495.5834760514
 20
455.1918737034
 10
495.5336076914
 20
455.321804047
 10
495.479636191
 20
455.450494381
 10
495.4215239393
 20
455.5779062221
  0
LINE
  5
5FE
100
AcDbEntity
  8
0
100
AcDbLine
 62
7
  6
CONTINUOUS
 10
489.7424761828
 20
401.4319727314
 11
489.5745498309
 21
449.1279337139
  0
LINE
  5
5FF
100
AcDbEntity
  8
0
100
AcDbLine
 62
7
  6
CONTINUOUS
 10
493.2424544903
 20
401.4442953385
 11
493.0745281385
 21
449.140256321
  0
LINE
  5
600
100
AcDbEntity
  8
0
100
AcDbLine
 62
7
  6
CONTINUOUS
 10
494.1267956771
 20
458.5822639417
 11
494.1267956771
 21
457.1882325436
  0
LINE
  5
601
100
AcDbEntity
  8
0
100
AcDbLine
 62
7
  6
CONTINUOUS
 10
494.4031030065
 20
456.9550613874
 11
494.4031030065
 21
458.5822639417
  0
LINE
  5
602
100
AcDbEntity
  8
0
100
AcDbLine
 62
7
  6
CONTINUOUS
 10
494.8160653515
 20
458.5822639417
 11
494.8160653515
 21
468.9997885329
  0
LINE
  5
603
100
AcDbEntity
  8
0
100
AcDbLine
 62
7
  6
CONTINUOUS
 10
495.624308402
 20
455.6809402976
 11
495.624308402
 21
455.0749462775
  0
LINE
  5
604
100
AcDbEntity
  8
0
100
AcDbLine
 62
7
  6
CONTINUOUS
 10
495.9006157314
 20
456.0766639529
 11
495.9006157314
 21
458.5822639417
  0
LINE
  5
605
100
AcDbEntity
  8
0
100
AcDbLine
 62
7
  6
CONTINUOUS
 10
495.9031030065
 20
458.5822639417
 11
495.9031030065
 21
468.9997885329
  0
LINE
  5
606
100
AcDbEntity
  8
0
100
AcDbLine
 62
7
  6
CONTINUOUS
 10
486.7483789383
 20
425.2478086552
 11
486.6645723209
 21
401.4442953385
  0
LINE
  5
607
100
AcDbEntity
  8
0
100
AcDbLine
 62
7
  6
CONTINUOUS
 10
494.6078954589
 20
434.2795192286
 11
494.7720951351
 21
453.3658435391
  0
LINE
  5
608
100
AcDbEntity
  8
0
100
AcDbLine
 62
7
  6
CONTINUOUS
 10
495.6991984898
 20
434.4830356037
 11
495.8633982332
 21
453.5693677354
  0
LINE
  5
609
100
AcDbEntity
  8
0
100
AcDbLine
 62
7
  6
CONTINUOUS
 10
494.8160653515
 20
468.9997885329
 11
495.9031029982
 21
468.9997885329
  0
LINE
  5
60A
100
AcDbEntity
  8
0
100
AcDbLine
 62
7
  6
CONTINUOUS
 10
479.3566356517
 20
475.6526233483
 11
480.0909802088
 21
475.6526233483
  0
LINE
  5
60B
100
AcDbEntity
  8
0
100
AcDbLine
 62
7
  6
CONTINUOUS
 10
466.4079952474
 20
477.0822639417
 11
470.5902264698
 21
477.0822639417
  0
LINE
  5
60C
100
AcDbEntity
  8
0
100
AcDbLine
 62
7
  6
CONTINUOUS
 10
466.8478499921
 20
478.5822639417
 11
470.1772641246
 21
478.5822639417
  0
LINE
  5
60D
100
AcDbEntity
  8
02___PRT_ALL_AXES
100
AcDbLine
 62
3
  6
CONTINUOUS
 10
264.6079674171
 20
481.7021112308
 11
469.1079674171
 21
481.7021112308
  0
LINE
  5
60E
100
AcDbEntity
  8
02___PRT_ALL_AXES
100
AcDbLine
 62
3
  6
CONTINUOUS
 10
268.1150107529
 20
485.5822639417
 11
465.6009240814
 21
485.5822639417
  0
LINE
  5
60F
100
AcDbEntity
  8
02___PRT_ALL_AXES
100
AcDbLine
 62
3
  6
CONTINUOUS
 10
276.7939288703
 20
486.4222196014
 11
456.9220059639
 21
486.4222196014
  0
LINE
  5
610
100
AcDbEntity
  8
02___PRT_ALL_AXES
100
AcDbLine
 62
3
  6
CONTINUOUS
 10
277.8777015234
 20
487.1162948702
 11
455.8382333109
 21
487.1162948702
  0
LINE
  5
611
100
AcDbEntity
  8
02___PRT_ALL_AXES
100
AcDbLine
 62
3
  6
CONTINUOUS
 10
278.9942350803
 20
489.050187719
 11
454.721699754
 21
489.050187719
  0
LINE
  5
612
100
AcDbEntity
  8
02___PRT_ALL_AXES
100
AcDbLine
 62
3
  6
CONTINUOUS
 10
280.0830848515
 20
489.7447222476
 11
453.6328499828
 21
489.7447222476
  0
LINE
  5
613
100
AcDbEntity
  8
02___PRT_ALL_AXES
100
AcDbLine
 62
3
  6
CONTINUOUS
 10
276.7939288703
 20
486.4222196014
 11
268.1150107529
 21
485.5822639417
  0
LINE
  5
614
100
AcDbEntity
  8
02___PRT_ALL_AXES
100
AcDbLine
 62
3
  6
CONTINUOUS
 10
456.9220059639
 20
486.4222196014
 11
465.6009240814
 21
485.5822639417
  0
LWPOLYLINE
  5
615
100
AcDbEntity
  8
0
100
AcDbPolyline
 62
7
  6
CONTINUOUS
 90
7
 70
0
 10
471.1219877368
 20
478.4273194464
 10
471.0528510668
 20
478.4496728393
 10
470.8530069941
 20
478.5040183616
 10
470.6499316964
 20
478.5442411331
 10
470.4445542441
 20
478.5701567203
 10
470.2378164199
 20
478.5816394794
 10
470.1772806404
 20
478.5822609708
  0
LINE
  5
616
100
AcDbEntity
  8
0
100
AcDbLine
 62
7
  6
CONTINUOUS
 10
481.4980405743
 20
475.2114620729
 11
485.4774528958
 21
473.8879782466
  0
LINE
  5
617
100
AcDbEntity
  8
0
100
AcDbLine
 62
7
  6
CONTINUOUS
 10
494.8160653515
 20
468.9997885329
 11
471.0559937392
 21
477.0058439969
  0
LINE
  5
618
100
AcDbEntity
  8
0
100
AcDbLine
 62
7
  6
CONTINUOUS
 10
494.8820743866
 20
470.4212618591
 11
471.1220027765
 21
478.4273173223
  0
LINE
  5
619
100
AcDbEntity
  8
02___PRT_ALL_AXES
100
AcDbLine
 62
3
  6
CONTINUOUS
 10
454.721699754
 20
489.050187719
 11
455.8382333109
 21
487.1162948702
  0
LWPOLYLINE
  5
61A
100
AcDbEntity
  8
0
100
AcDbPolyline
 62
7
  6
CONTINUOUS
 90
36
 70
0
 10
495.4215239393
 20
455.5779062221
 10
495.3592889902
 20
455.7038693579
 10
495.2929346674
 20
455.8282536938
 10
495.2224820663
 20
455.9509010959
 10
495.1479514677
 20
456.0716634682
 10
495.0693667497
 20
456.1903929816
 10
494.9867458201
 20
456.3069549595
 10
494.9001365088
 20
456.4211777255
 10
494.8095776066
 20
456.5329102473
 10
494.715122229
 20
456.6419902363
 10
494.6168170219
 20
456.7482695278
 10
494.5147251347
 20
456.8515875644
 10
494.4088678444
 20
456.9518289869
 10
494.2994156947
 20
457.0487458575
 10
494.1864915579
 20
457.1421575654
 10
494.0703011967
 20
457.2318365899
 10
493.9510258978
 20
457.3176020593
 10
493.828893854
 20
457.399264244
 10
493.7040879982
 20
457.4766882779
 10
493.5769649018
 20
457.5496603458
 10
493.4478439966
 20
457.6180312682
 10
493.3171020279
 20
457.6816606823
 10
493.1851416089
 20
457.7404392678
 10
493.0522832542
 20
457.794332497
 10
492.9189455051
 20
457.8432995181
 10
492.785318175
 20
457.8874116726
 10
492.6516717264
 20
457.9267242931
 10
492.5182386419
 20
457.961319565
 10
492.3852688812
 20
457.9912882533
 10
492.2530126169
 20
458.0167357636
 10
492.1217323644
 20
458.0377804637
 10
491.991686363
 20
458.0545575415
 10
491.8631453297
 20
458.0672169436
 10
491.7363765321
 20
458.0759260945
 10
491.6117195019
 20
458.0808674157
 10
491.5016731606
 20
458.0822639216
  0
ARC
  5
61B
100
AcDbEntity
  8
02___PRT_ALL_AXES
100
AcDbCircle
 62
3
  6
CONTINUOUS
 10
366.8579674171
 20
-489.4177360583
 40
983.0
100
AcDbArc
 50
84.9355905183
 51
95.0644094817
  0
ARC
  5
61C
100
AcDbEntity
  8
0
100
AcDbCircle
 62
7
  6
CONTINUOUS
 10
233.122973214
 20
249.808977576
 40
14.5332933811
100
AcDbArc
 50
276.4718079565
 51
276.6969780754
  0
ARC
  5
61D
100
AcDbEntity
  8
02___PRT_ALL_AXES
100
AcDbCircle
 62
7
  6
CONTINUOUS
 10
256.5731723019
 20
194.3879560326
 40
12.0
100
AcDbArc
 50
29.2364275815
 51
65.2664170658
  0
ARC
  5
61E
100
AcDbEntity
  8
02___PRT_ALL_AXES
100
AcDbCircle
 62
7
  6
CONTINUOUS
 10
252.5158537942
 20
194.3879560326
 40
12.0
100
AcDbArc
 50
132.1664178271
 51
150.7635724185
  0
ARC
  5
61F
100
AcDbEntity
  8
0
100
AcDbCircle
 62
7
  6
CONTINUOUS
 10
233.6782232625
 20
244.9023450327
 40
9.5953441278
100
AcDbArc
 50
276.2299788961
 51
276.4797858682
  0
ARC
  5
620
100
AcDbEntity
  8
0
100
AcDbCircle
 62
7
  6
CONTINUOUS
 10
272.2963193016
 20
242.9323685101
 40
2.4315513414
100
AcDbArc
 50
176.3960787979
 51
180.0024639951
  0
ARC
  5
621
100
AcDbEntity
  8
0
100
AcDbCircle
 62
3
  6
CONTINUOUS
 10
272.7843344491
 20
225.5321560619
 40
2.1748226164
100
AcDbArc
 50
179.9971579016
 51
184.7112213735
  0
ARC
  5
622
100
AcDbEntity
  8
0
100
AcDbCircle
 62
7
  6
CONTINUOUS
 10
231.9697824216
 20
233.7716430208
 40
1.596706007
100
AcDbArc
 50
90.0049843545
 51
98.0082655625
  0
ARC
  5
623
100
AcDbEntity
  8
0
100
AcDbCircle
 62
7
  6
CONTINUOUS
 10
234.8191433566
 20
233.7728231244
 40
1.5955292794
100
AcDbArc
 50
93.5827406643
 51
98.0120927761
  0
ARC
  5
624
100
AcDbEntity
  8
0
100
AcDbCircle
 62
7
  6
CONTINUOUS
 10
234.8190177118
 20
233.7745493692
 40
1.5937985571
100
AcDbArc
 50
93.2224351545
 51
93.5821096141
  0
ARC
  5
625
100
AcDbEntity
  8
0
100
AcDbCircle
 62
7
  6
CONTINUOUS
 10
263.6745469304
 20
239.0687532357
 40
1.2805916799
100
AcDbArc
 50
92.2123165057
 51
98.0207004893
  0
ARC
  5
626
100
AcDbEntity
  8
0
100
AcDbCircle
 62
7
  6
CONTINUOUS
 10
234.5818967392
 20
235.4473573282
 40
0.8004372086
100
AcDbArc
 50
108.5093852642
 51
185.6751649384
  0
ARC
  5
627
100
AcDbEntity
  8
0
100
AcDbCircle
 62
7
  6
CONTINUOUS
 10
237.4051989712
 20
235.4479679767
 40
0.7992259073
100
AcDbArc
 50
98.043652243
 51
168.2144211268
  0
ARC
  5
628
100
AcDbEntity
  8
0
100
AcDbCircle
 62
7
  6
CONTINUOUS
 10
231.4238200724
 20
538.750840665
 40
300.4665063352
100
AcDbArc
 50
276.4147054403
 51
276.5529219899
  0
ARC
  5
629
100
AcDbEntity
  8
0
100
AcDbCircle
 62
7
  6
CONTINUOUS
 10
241.1331529411
 20
452.2534571668
 40
213.4258785246
100
AcDbArc
 50
276.1975405695
 51
276.3723676648
  0
ARC
  5
62A
100
AcDbEntity
  8
02___PRT_ALL_AXES
100
AcDbCircle
 62
3
  6
CONTINUOUS
 10
268.5079674171
 20
481.7021112308
 40
3.9
100
AcDbArc
 50
95.7828280025
 51
180.0
  0
ARC
  5
62B
100
AcDbEntity
  8
0
100
AcDbCircle
 62
3
  6
CONTINUOUS
 10
266.2579674171
 20
453.3822639417
 40
1.9
100
AcDbArc
 50
90.0
 51
180.0
  0
ARC
  5
62C
100
AcDbEntity
  8
0
100
AcDbCircle
 62
3
  6
CONTINUOUS
 10
266.0079674171
 20
459.4822639417
 40
1.4
100
AcDbArc
 50
180.0
 51
270.0
  0
ARC
  5
62D
100
AcDbEntity
  8
02___PRT_ALL_AXES
100
AcDbCircle
 62
3
  6
CONTINUOUS
 10
280.2066706455
 20
488.350187719
 40
1.4
100
AcDbArc
 50
95.0644094817
 51
150.0
  0
ARC
  5
62E
100
AcDbEntity
  8
02___PRT_ALL_AXES
100
AcDbCircle
 62
3
  6
CONTINUOUS
 10
276.6652659581
 20
487.8162948702
 40
1.4
100
AcDbArc
 50
275.2730418398
 51
330.0
  0
ARC
  5
62F
100
AcDbEntity
  8
0
100
AcDbCircle
 62
7
  6
CONTINUOUS
 10
266.1079674171
 20
456.8822639417
 40
1.0
100
AcDbArc
 50
90.0
 51
180.0
  0
ARC
  5
630
100
AcDbEntity
  8
0
100
AcDbCircle
 62
3
  6
CONTINUOUS
 10
511.9308334854
 20
216.3884088521
 40
42.6615238878
100
AcDbArc
 50
180.3168471639
 51
180.4837894659
  0
ARC
  5
631
100
AcDbEntity
  8
0
100
AcDbCircle
 62
3
  6
CONTINUOUS
 10
511.4910946686
 20
216.3860946267
 40
42.2217789974
100
AcDbArc
 50
180.1803118371
 51
180.3170067016
  0
ARC
  5
632
100
AcDbEntity
  8
0
100
AcDbCircle
 62
3
  6
CONTINUOUS
 10
510.3179367678
 20
216.3827007289
 40
41.0486162263
100
AcDbArc
 50
180.0006096687
 51
180.180727901
  0
ARC
  5
633
100
AcDbEntity
  8
0
100
AcDbCircle
 62
3
  6
CONTINUOUS
 10
510.2663918516
 20
216.3713734478
 40
40.996997856
100
AcDbArc
 50
180.4796234971
 51
180.9420650508
  0
ARC
  5
634
100
AcDbEntity
  8
0
100
AcDbCircle
 62
3
  6
CONTINUOUS
 10
506.3120334664
 20
216.3081160863
 40
37.0421339797
100
AcDbArc
 50
180.9447972111
 51
181.1773372587
  0
ARC
  5
635
100
AcDbEntity
  8
0
100
AcDbCircle
 62
3
  6
CONTINUOUS
 10
504.0578719249
 20
216.2623640098
 40
34.7875082553
100
AcDbArc
 50
181.1782822569
 51
181.2918522085
  0
ARC
  5
636
100
AcDbEntity
  8
0
100
AcDbCircle
 62
3
  6
CONTINUOUS
 10
501.8159238279
 20
216.2113701181
 40
32.5449803416
100
AcDbArc
 50
181.2910849032
 51
181.460272436
  0
ARC
  5
637
100
AcDbEntity
  8
0
100
AcDbCircle
 62
3
  6
CONTINUOUS
 10
467.6080106395
 20
212.3839747356
 40
1.9046170298
100
AcDbArc
 50
348.4305826783
 51
359.9485349118
  0
ARC
  5
638
100
AcDbEntity
  8
0
100
AcDbCircle
 62
3
  6
CONTINUOUS
 10
467.6131798555
 20
212.381277534
 40
1.899012581
100
AcDbArc
 50
269.9939486114
 51
348.4790284884
  0
ARC
  5
639
100
AcDbEntity
  8
0
100
AcDbCircle
 62
7
  6
CONTINUOUS
 10
489.186035942
 20
409.6100362889
 40
8.2647749126
100
AcDbArc
 50
273.71123448
 51
273.8733845066
  0
ARC
  5
63A
100
AcDbEntity
  8
02___PRT_ALL_AXES
100
AcDbCircle
 62
3
  6
CONTINUOUS
 10
465.2079674171
 20
481.7021112308
 40
3.9
100
AcDbArc
 50
0.0
 51
84.2171719975
  0
ARC
  5
63B
100
AcDbEntity
  8
0
100
AcDbCircle
 62
3
  6
CONTINUOUS
 10
470.9479182034
 20
412.9820958787
 40
2.9591518927
100
AcDbArc
 50
178.0060213704
 51
181.5113812424
  0
ARC
  5
63C
100
AcDbEntity
  8
02___PRT_ALL_AXES
100
AcDbCircle
 62
7
  6
CONTINUOUS
 10
490.9199882249
 20
453.3816242326
 40
2.0088048667
100
AcDbArc
 50
0.8328444963
 51
10.1345865949
  0
ARC
  5
63D
100
AcDbEntity
  8
0
100
AcDbCircle
 62
7
  6
CONTINUOUS
 10
490.9400123178
 20
453.3822673671
 40
2.0031645368
100
AcDbArc
 50
356.6681968804
 51
15.5481741326
  0
ARC
  5
63E
100
AcDbEntity
  8
0
100
AcDbCircle
 62
7
  6
CONTINUOUS
 10
471.9857560598
 20
456.5874704927
 40
1.9947934616
100
AcDbArc
 50
48.5405222791
 51
89.99355713
  0
ARC
  5
63F
100
AcDbEntity
  8
0
100
AcDbCircle
 62
7
  6
CONTINUOUS
 10
479.3398512564
 20
456.5874958913
 40
1.9947680616
100
AcDbArc
 50
48.6089218937
 51
89.9939392035
  0
ARC
  5
640
100
AcDbEntity
  8
0
100
AcDbCircle
 62
7
  6
CONTINUOUS
 10
471.8418773727
 20
456.5874898436
 40
1.994758183
100
AcDbArc
 50
48.5408297653
 51
85.8654301356
  0
ARC
  5
641
100
AcDbEntity
  8
0
100
AcDbCircle
 62
7
  6
CONTINUOUS
 10
479.1959700908
 20
456.5875152095
 40
1.9947344591
100
AcDbArc
 50
48.6091778028
 51
85.8651981455
  0
ARC
  5
642
100
AcDbEntity
  8
0
100
AcDbCircle
 62
3
  6
CONTINUOUS
 10
467.611536198
 20
453.3714971397
 40
1.9107663251
100
AcDbArc
 50
74.5756737173
 51
89.9567278395
  0
ARC
  5
643
100
AcDbEntity
  8
0
100
AcDbCircle
 62
7
  6
CONTINUOUS
 10
491.0086676835
 20
454.0609229647
 40
1.7514892299
100
AcDbArc
 50
198.7260092171
 51
204.1840457103
  0
ARC
  5
644
100
AcDbEntity
  8
0
100
AcDbCircle
 62
7
  6
CONTINUOUS
 10
490.998251501
 20
454.0571701972
 40
1.7404198113
100
AcDbArc
 50
196.958911196
 51
198.1843895222
  0
ARC
  5
645
100
AcDbEntity
  8
0
100
AcDbCircle
 62
7
  6
CONTINUOUS
 10
490.9969708606
 20
454.0567616797
 40
1.7390756413
100
AcDbArc
 50
198.1847697977
 51
198.719887058
  0
ARC
  5
646
100
AcDbEntity
  8
0
100
AcDbCircle
 62
7
  6
CONTINUOUS
 10
494.4029885506
 20
468.9997071434
 40
1.5001236886
100
AcDbArc
 50
0.0031090814
 51
71.3755914255
  0
ARC
  5
647
100
AcDbEntity
  8
0
100
AcDbCircle
 62
7
  6
CONTINUOUS
 10
494.1992530308
 20
434.4959401628
 40
1.5000009132
100
AcDbArc
 50
297.5675547732
 51
359.5070646071
  0
ARC
  5
648
100
AcDbEntity
  8
0
100
AcDbCircle
 62
7
  6
CONTINUOUS
 10
477.6838379053
 20
390.5822639417
 40
1.5
100
AcDbArc
 50
270.0
 51
347.7812791071
  0
ARC
  5
649
100
AcDbEntity
  8
0
100
AcDbCircle
 62
7
  6
CONTINUOUS
 10
470.5884303209
 20
475.6137184436
 40
1.4685465965
100
AcDbArc
 50
71.4347067376
 51
89.9299227044
  0
ARC
  5
64A
100
AcDbEntity
  8
0
100
AcDbCircle
 62
3
  6
CONTINUOUS
 10
467.7079674171
 20
459.4822639417
 40
1.4
100
AcDbArc
 50
270.0
 51
319.769862056
  0
ARC
  5
64B
100
AcDbEntity
  8
02___PRT_ALL_AXES
100
AcDbCircle
 62
3
  6
CONTINUOUS
 10
457.0506688762
 20
487.8162948702
 40
1.4
100
AcDbArc
 50
210.0
 51
264.7269581602
  0
ARC
  5
64C
100
AcDbEntity
  8
02___PRT_ALL_AXES
100
AcDbCircle
 62
3
  6
CONTINUOUS
 10
453.5092641887
 20
488.350187719
 40
1.4
100
AcDbArc
 50
30.0
 51
84.9355905183
  0
ARC
  5
64D
100
AcDbEntity
  8
0
100
AcDbCircle
 62
7
  6
CONTINUOUS
 10
467.6079674171
 20
456.8822639417
 40
1.0
100
AcDbArc
 50
69.2841506279
 51
90.0
  0
ARC
  5
64E
100
AcDbEntity
  8
0
100
AcDbCircle
 62
7
  6
CONTINUOUS
 10
487.637741031
 20
428.2214844707
 40
0.9983700247
100
AcDbArc
 50
118.91653863
 51
166.6397070467
  0
ARC
  5
64F
100
AcDbEntity
  8
0
100
AcDbCircle
 62
7
  6
CONTINUOUS
 10
495.4776320251
 20
456.0784688991
 40
0.4257855764
100
AcDbArc
 50
256.4861737517
 51
269.9991269057
  0
ARC
  5
650
100
AcDbEntity
  8
0
100
AcDbCircle
 62
7
  6
CONTINUOUS
 10
495.4769630957
 20
456.0762866808
 40
0.4236293443
100
AcDbArc
 50
270.0896004509
 51
0.0510231452
  0
ARC
  5
651
100
AcDbEntity
  8
0
100
AcDbCircle
 62
7
  6
CONTINUOUS
 10
494.8707829415
 20
433.2096481685
 40
0.0489669513
100
AcDbArc
 50
297.5678102972
 51
298.6390864469
  0
ARC
  5
652
100
AcDbEntity
  8
0
100
AcDbCircle
 62
7
  6
CONTINUOUS
 10
1122.2537200317
 20
-767.3023487574
 40
1355.6326008883
100
AcDbArc
 50
117.8176226322
 51
117.998903494
  0
SPLINE
  5
653
100
AcDbEntity
  8
0
100
AcDbSpline
 62
7
  6
CONTINUOUS
 70
0
 71
3
 72
21
 73
17
 74
0
 42
0.0000001
 43
0.0000001
 44
0.0000000001
 40
0.0
 40
0.0
 40
0.0
 40
0.0
 40
0.0052652638
 40
0.0126550551
 40
0.0224526224
 40
0.0343966512
 40
0.0483283294
 40
0.081779334
 40
0.1223185519
 40
0.1696926467
 40
0.2237521441
 40
0.2843985415
 40
0.4251796427
 40
0.5916027716
 40
0.7833182516
 40
1.0
 40
1.0
 40
1.0
 40
1.0
 10
261.4720220961
 20
239.8386253127
 30
0.0
 10
261.4632186601
 20
239.8392605923
 30
0.0
 10
261.5135913176
 20
239.8374081394
 30
0.0
 10
261.5349308394
 20
239.8386571619
 30
0.0
 10
261.5902772508
 20
239.8395826136
 30
0.0
 10
261.647681623
 20
239.8420518335
 30
0.0
 10
261.748040968
 20
239.8469266242
 30
0.0
 10
261.894512499
 20
239.8562084122
 30
0.0
 10
262.0976585604
 20
239.8712790509
 30
0.0
 10
262.3347515299
 20
239.8909757803
 30
0.0
 10
262.6053944831
 20
239.9152488946
 30
0.0
 10
263.0317437021
 20
239.9557768143
 30
0.0
 10
263.6452276831
 20
240.0182083167
 30
0.0
 10
264.4767762794
 20
240.1077450684
 30
0.0
 10
265.4343683436
 20
240.2151169403
 30
0.0
 10
266.1144515457
 20
240.2937161086
 30
0.0
 10
266.4752262514
 20
240.3358821862
 30
0.0
  0
LINE
  5
654
100
AcDbEntity
  8
0
100
AcDbLine
 62
7
  6
CONTINUOUS
 10
266.4752262514
 20
240.3358821862
 11
266.5021888149
 21
240.3390343631
  0
SPLINE
  5
655
100
AcDbEntity
  8
0
100
AcDbSpline
 62
7
  6
CONTINUOUS
 70
0
 71
3
 72
9
 73
5
 74
0
 42
0.0000001
 43
0.0000001
 44
0.0000000001
 40
0.0
 40
0.0
 40
0.0
 40
0.0
 40
0.309244923
 40
1.0
 40
1.0
 40
1.0
 40
1.0
 10
235.6867089869
 20
236.4219514175
 30
0.0
 10
235.5745669436
 20
236.4060769556
 30
0.0
 10
235.2120111927
 20
236.3542323014
 30
0.0
 10
234.8494727341
 20
236.3021133437
 30
0.0
 10
234.5995567714
 20
236.2628140271
 30
0.0
  0
SPLINE
  5
656
100
AcDbEntity
  8
0
100
AcDbSpline
 62
7
  6
CONTINUOUS
 70
0
 71
3
 72
9
 73
5
 74
0
 42
0.0000001
 43
0.0000001
 44
0.0000000001
 40
0.0
 40
0.0
 40
0.0
 40
0.0
 40
0.238805344
 40
1.0
 40
1.0
 40
1.0
 40
1.0
 10
234.5995567714
 20
236.2628140271
 30
0.0
 10
234.5777231063
 20
236.2593806805
 30
0.0
 10
234.4864183044
 20
236.2448012192
 30
0.0
 10
234.3945604192
 20
236.2288602521
 30
0.0
 10
234.32778487
 20
236.2064044284
 30
0.0
  0
SPLINE
  5
657
100
AcDbEntity
  8
0
100
AcDbSpline
 62
7
  6
CONTINUOUS
 70
0
 71
3
 72
9
 73
5
 74
0
 42
0.0000001
 43
0.0000001
 44
0.0000000001
 40
0.0
 40
0.0
 40
0.0
 40
0.0
 40
0.5146294992
 40
1.0
 40
1.0
 40
1.0
 40
1.0
 10
264.3583392158
 20
240.1210539957
 30
0.0
 10
264.2555157065
 20
240.206734679
 30
0.0
 10
264.0139540259
 20
240.3252278806
 30
0.0
 10
263.7512521722
 20
240.3532522783
 30
0.0
 10
263.6251127449
 20
240.3483904155
 30
0.0
  0
SPLINE
  5
658
100
AcDbEntity
  8
0
100
AcDbSpline
 62
7
  6
CONTINUOUS
 70
0
 71
3
 72
11
 73
7
 74
0
 42
0.0000001
 43
0.0000001
 44
0.0000000001
 40
0.0
 40
0.0
 40
0.0
 40
0.0
 40
0.2649646115
 40
0.5160657011
 40
0.7597702312
 40
1.0
 40
1.0
 40
1.0
 40
1.0
 10
267.5760402233
 20
239.9629221791
 30
0.0
 10
267.5147760102
 20
240.0478512512
 30
0.0
 10
267.3563642814
 20
240.1861357978
 30
0.0
 10
267.0772771024
 20
240.30452078
 30
0.0
 10
266.7890019672
 20
240.354670593
 30
0.0
 10
266.5964894328
 20
240.3500639206
 30
0.0
 10
266.5021881207
 20
240.3390345432
 30
0.0
  0
LINE
  5
659
100
AcDbEntity
  8
0
100
AcDbLine
 62
7
  6
CONTINUOUS
 10
266.4755198519
 20
240.3356771155
 11
266.0586888947
 21
240.2871603031
  0
LINE
  5
65A
100
AcDbEntity
  8
0
100
AcDbLine
 62
7
  6
CONTINUOUS
 10
266.0586888947
 20
240.2871603031
 11
265.7133254549
 21
240.2473210042
  0
LINE
  5
65B
100
AcDbEntity
  8
0
100
AcDbLine
 62
7
  6
CONTINUOUS
 10
264.9931362305
 20
240.1654718976
 11
264.8212164165
 21
240.1462171377
  0
LINE
  5
65C
100
AcDbEntity
  8
0
100
AcDbLine
 62
7
  6
CONTINUOUS
 10
264.1739025364
 20
240.0749250716
 11
264.0855179839
 21
240.0653602682
  0
SPLINE
  5
65D
100
AcDbEntity
  8
0
100
AcDbSpline
 62
7
  6
CONTINUOUS
 70
0
 71
3
 72
11
 73
7
 74
0
 42
0.0000001
 43
0.0000001
 44
0.0000000001
 40
0.0
 40
0.0
 40
0.0
 40
0.0
 40
0.3546726326
 40
0.6398803404
 40
0.8551044215
 40
1.0
 40
1.0
 40
1.0
 40
1.0
 10
264.0855179839
 20
240.0653602682
 30
0.0
 10
263.7756182294
 20
240.0319036453
 30
0.0
 10
263.2163580737
 20
239.9730383416
 30
0.0
 10
262.4683327332
 20
239.9004512772
 30
0.0
 10
261.9031687717
 20
239.8535568805
 30
0.0
 10
261.5871377335
 20
239.8341280376
 30
0.0
 10
261.4598311353
 20
239.8312101575
 30
0.0
  0
SPLINE
  5
65E
100
AcDbEntity
  8
0
100
AcDbSpline
 62
7
  6
CONTINUOUS
 70
0
 71
3
 72
9
 73
5
 74
0
 42
0.0000001
 43
0.0000001
 44
0.0000000001
 40
0.0
 40
0.0
 40
0.0
 40
0.0
 40
0.2666398884
 40
1.0
 40
1.0
 40
1.0
 40
1.0
 10
261.4598311353
 20
239.8312101575
 30
0.0
 10
261.4538236625
 20
239.8310724657
 30
0.0
 10
261.4312922692
 20
239.8306093765
 30
0.0
 10
261.4087557259
 20
239.8303667365
 30
0.0
 10
261.3922285737
 20
239.8303667098
 30
0.0
  0
SPLINE
  5
65F
100
AcDbEntity
  8
0
100
AcDbSpline
 62
7
  6
CONTINUOUS
 70
0
 71
3
 72
18
 73
14
 74
0
 42
0.0000001
 43
0.0000001
 44
0.0000000001
 40
0.0
 40
0.0
 40
0.0
 40
0.0
 40
0.2271129708
 40
0.3973379651
 40
0.5116219427
 40
0.5487596042
 40
0.5741593886
 40
0.5923240477
 40
0.6131522649
 40
0.6440863503
 40
0.6876667023
 40
0.8156932992
 40
1.0
 40
1.0
 40
1.0
 40
1.0
 10
261.3922285737
 20
239.8303667098
 30
0.0
 10
261.3712259119
 20
239.8303666759
 30
0.0
 10
261.3344366404
 20
239.8308013234
 30
0.0
 10
261.2873066465
 20
239.8338088299
 30
0.0
 10
261.2575845503
 20
239.8379114411
 30
0.0
 10
261.2421858737
 20
239.8433042525
 30
0.0
 10
261.2355570563
 20
239.8472118191
 30
0.0
 10
261.2330690908
 20
239.8533088242
 30
0.0
 10
261.2365316485
 20
239.8594224705
 30
0.0
 10
261.243244222
 20
239.8650535588
 30
0.0
 10
261.2593772698
 20
239.874782134
 30
0.0
 10
261.2898504104
 20
239.887393151
 30
0.0
 10
261.317202773
 20
239.8966862261
 30
0.0
 10
261.3334485381
 20
239.9018413915
 30
0.0
  0
SPLINE
  5
660
100
AcDbEntity
  8
0
100
AcDbSpline
 62
7
  6
CONTINUOUS
 70
0
 71
3
 72
9
 73
5
 74
0
 42
0.0000001
 43
0.0000001
 44
0.0000000001
 40
0.0
 40
0.0
 40
0.0
 40
0.0
 40
0.2004718424
 40
1.0
 40
1.0
 40
1.0
 40
1.0
 10
261.3334485381
 20
239.9018413915
 30
0.0
 10
261.3470680432
 20
239.9061631825
 30
0.0
 10
261.4153581564
 20
239.9266063811
 30
0.0
 10
261.4845218658
 20
239.9439834522
 30
0.0
 10
261.5399214159
 20
239.9573399913
 30
0.0
  0
SPLINE
  5
661
100
AcDbEntity
  8
0
100
AcDbSpline
 62
7
  6
CONTINUOUS
 70
0
 71
3
 72
10
 73
6
 74
0
 42
0.0000001
 43
0.0000001
 44
0.0000000001
 40
0.0
 40
0.0
 40
0.0
 40
0.0
 40
0.1647500243
 40
0.3864952699
 40
1.0
 40
1.0
 40
1.0
 40
1.0
 10
261.5399214159
 20
239.9573399913
 30
0.0
 10
261.645874367
 20
239.9828846885
 30
0.0
 10
261.8957160378
 20
240.0374274408
 30
0.0
 10
262.544482634
 20
240.1668203481
 30
0.0
 10
263.0882905517
 20
240.2649967635
 30
0.0
 10
263.4879468527
 20
240.3356771155
 30
0.0
  0
SPLINE
  5
662
100
AcDbEntity
  8
0
100
AcDbSpline
 62
7
  6
CONTINUOUS
 70
0
 71
3
 72
11
 73
7
 74
0
 42
0.0000001
 43
0.0000001
 44
0.0000000001
 40
0.0
 40
0.0
 40
0.0
 40
0.0
 40
0.2498127477
 40
0.499697559
 40
0.7497313013
 40
1.0
 40
1.0
 40
1.0
 40
1.0
 10
234.47272795
 20
236.2393308988
 30
0.0
 10
234.3724831097
 20
236.2252190052
 30
0.0
 10
234.1753652955
 20
236.1576080762
 30
0.0
 10
233.9405892931
 20
235.9535515667
 30
0.0
 10
233.7981042633
 20
235.6768276444
 30
0.0
 10
233.7791689669
 20
235.469092543
 30
0.0
 10
233.7891160047
 20
235.3681634914
 30
0.0
  0
SPLINE
  5
663
100
AcDbEntity
  8
0
100
AcDbSpline
 62
7
  6
CONTINUOUS
 70
0
 71
3
 72
14
 73
10
 74
0
 42
0.0000001
 43
0.0000001
 44
0.0000000001
 40
0.0
 40
0.0
 40
0.0
 40
0.0
 40
0.0231757228
 40
0.0779477813
 40
0.165085586
 40
0.2828514034
 40
0.4288272291
 40
0.5996267029
 40
1.0
 40
1.0
 40
1.0
 40
1.0
 10
238.810340843
 20
236.4411318952
 30
0.0
 10
238.8144026998
 20
236.4411318952
 30
0.0
 10
238.821776634
 20
236.4252798243
 30
0.0
 10
238.8310618619
 20
236.4012103555
 30
0.0
 10
238.8434446126
 20
236.3556266294
 30
0.0
 10
238.8574716539
 20
236.2964828969
 30
0.0
 10
238.8731822835
 20
236.2216847301
 30
0.0
 10
238.8969130922
 20
236.0983718717
 30
0.0
 10
238.9138030555
 20
235.9996374004
 30
0.0
 10
238.9250514158
 20
235.9303740229
 30
0.0
  0
SPLINE
  5
664
100
AcDbEntity
  8
0
100
AcDbSpline
 62
7
  6
CONTINUOUS
 70
0
 71
3
 72
14
 73
10
 74
0
 42
0.0000001
 43
0.0000001
 44
0.0000000001
 40
0.0
 40
0.0
 40
0.0
 40
0.0
 40
0.0287509938
 40
0.0927361842
 40
0.1894859151
 40
0.3153106112
 40
0.4653851291
 40
0.633881636
 40
1.0
 40
1.0
 40
1.0
 40
1.0
 10
237.293365271
 20
236.2393308988
 30
0.0
 10
237.3080321808
 20
236.2393308988
 30
0.0
 10
237.3550751526
 20
236.2458011539
 30
0.0
 10
237.4510501215
 20
236.2561854095
 30
0.0
 10
237.596052458
 20
236.2753126566
 30
0.0
 10
237.7845260976
 20
236.2999124124
 30
0.0
 10
238.0092041531
 20
236.3302198575
 30
0.0
 10
238.3552744622
 20
236.3774645167
 30
0.0
 10
238.6253943645
 20
236.4150961908
 30
0.0
 10
238.810340843
 20
236.4411318952
 30
0.0
  0
LINE
  5
665
100
AcDbEntity
  8
0
100
AcDbLine
 62
7
  6
CONTINUOUS
 10
235.6994150097
 20
236.4237229523
 11
235.6363060263
 21
236.414781956
  0
SPLINE
  5
666
100
AcDbEntity
  8
0
100
AcDbSpline
 62
7
  6
CONTINUOUS
 70
0
 71
3
 72
19
 73
15
 74
0
 42
0.0000001
 43
0.0000001
 44
0.0000000001
 40
0.0
 40
0.0
 40
0.0
 40
0.0
 40
0.41006763
 40
0.5872186793
 40
0.7380349172
 40
0.8575997143
 40
0.9420468468
 40
0.9702270001
 40
0.980679646
 40
0.9886812127
 40
0.9942273335
 40
0.9973198177
 40
0.9980538492
 40
1.0
 40
1.0
 40
1.0
 40
1.0
 10
235.6363060263
 20
236.414781956
 30
0.0
 10
235.4764054565
 20
236.3920980611
 30
0.0
 10
235.2474688284
 20
236.3593102816
 30
0.0
 10
234.9598597716
 20
236.3172636996
 30
0.0
 10
234.785517883
 20
236.2913140914
 30
0.0
 10
234.647374852
 20
236.2703061435
 30
0.0
 10
234.5570337126
 20
236.2559211101
 30
0.0
 10
234.5092554656
 20
236.2479627746
 30
0.0
 10
234.4911684244
 20
236.2445441883
 30
0.0
 10
234.4819197892
 20
236.2429922154
 30
0.0
 10
234.4754461374
 20
236.2410641554
 30
0.0
 10
234.4719790155
 20
236.2410011841
 30
0.0
 10
234.4697149219
 20
236.2390311007
 30
0.0
 10
234.4719614755
 20
236.2393308988
 30
0.0
 10
234.47272795
 20
236.2393308988
 30
0.0
  0
SPLINE
  5
667
100
AcDbEntity
  8
0
100
AcDbSpline
 62
7
  6
CONTINUOUS
 70
0
 71
3
 72
17
 73
13
 74
0
 42
0.0000001
 43
0.0000001
 44
0.0000000001
 40
0.0
 40
0.0
 40
0.0
 40
0.0
 40
0.1570594403
 40
0.30408897
 40
0.4341375315
 40
0.5420959641
 40
0.6273765902
 40
0.708836474
 40
0.7700312954
 40
0.8441467988
 40
0.9216637752
 40
1.0
 40
1.0
 40
1.0
 40
1.0
 10
493.0745281385
 20
449.140256321
 30
0.0
 10
493.0731098998
 20
449.5430772955
 30
0.0
 10
493.0653442996
 20
450.3229820062
 30
0.0
 10
493.0385919136
 20
451.4361980039
 30
0.0
 10
492.9984230389
 20
452.422888999
 30
0.0
 10
492.9453028248
 20
453.2507073411
 30
0.0
 10
492.8753104794
 20
453.9512780849
 30
0.0
 10
492.7629350044
 20
454.5290901942
 30
0.0
 10
492.5210493917
 20
455.0359241157
 30
0.0
 10
492.1503775069
 20
455.4495352794
 30
0.0
 10
491.6269078896
 20
455.7440690829
 30
0.0
 10
491.2238042054
 20
455.8136024227
 30
0.0
 10
491.0228887443
 20
455.8135823399
 30
0.0
  0
SPLINE
  5
668
100
AcDbEntity
  8
0
100
AcDbSpline
 62
7
  6
CONTINUOUS
 70
0
 71
3
 72
10
 73
6
 74
0
 42
0.0000001
 43
0.0000001
 44
0.0000000001
 40
0.0
 40
0.0
 40
0.0
 40
0.0
 40
0.6750915169
 40
0.8947203125
 40
1.0
 40
1.0
 40
1.0
 40
1.0
 10
489.4789257115
 20
452.5995257692
 30
0.0
 10
489.4657432725
 20
452.8062400201
 30
0.0
 10
489.4459828804
 20
453.0801937667
 30
0.0
 10
489.4109921516
 20
453.3850008351
 30
0.0
 10
489.3967187752
 20
453.483732972
 30
0.0
 10
489.3904818134
 20
453.5154274493
 30
0.0
  0
SPLINE
  5
669
100
AcDbEntity
  8
0
100
AcDbSpline
 62
7
  6
CONTINUOUS
 70
0
 71
3
 72
10
 73
6
 74
0
 42
0.0000001
 43
0.0000001
 44
0.0000000001
 40
0.0
 40
0.0
 40
0.0
 40
0.0
 40
0.5670444266
 40
0.80810709
 40
1.0
 40
1.0
 40
1.0
 40
1.0
 10
486.6645723209
 20
401.4442953385
 30
0.0
 10
486.6594617203
 20
399.9927363268
 30
0.0
 10
486.6802903702
 20
397.9236161635
 30
0.0
 10
486.778726614
 20
395.3655735168
 30
0.0
 10
486.8497694721
 20
394.2591912136
 30
0.0
 10
486.8949893655
 20
393.7700534063
 30
0.0
  0
SPLINE
  5
66A
100
AcDbEntity
  8
0
100
AcDbSpline
 62
7
  6
CONTINUOUS
 70
0
 71
3
 72
10
 73
6
 74
0
 42
0.0000001
 43
0.0000001
 44
0.0000000001
 40
0.0
 40
0.0
 40
0.0
 40
0.0
 40
0.1918931099
 40
0.432955772
 40
1.0
 40
1.0
 40
1.0
 40
1.0
 10
493.0120374457
 20
393.7700534063
 30
0.0
 10
493.0572573863
 20
394.2591917231
 30
0.0
 10
493.1283002647
 20
395.365574535
 30
0.0
 10
493.2267364346
 20
397.9236171844
 30
0.0
 10
493.2475650892
 20
399.992736835
 30
0.0
 10
493.2424544903
 20
401.4442953385
 30
0.0
  0
SPLINE
  5
66B
100
AcDbEntity
  8
0
100
AcDbSpline
 62
7
  6
CONTINUOUS
 70
0
 71
3
 72
17
 73
13
 74
0
 42
0.0000001
 43
0.0000001
 44
0.0000000001
 40
0.0
 40
0.0
 40
0.0
 40
0.0
 40
0.1683584379
 40
0.3169056115
 40
0.4455542992
 40
0.5549497772
 40
0.6474055701
 40
0.7301518748
 40
0.7743726745
 40
0.8291794641
 40
0.9045955964
 40
1.0
 40
1.0
 40
1.0
 40
1.0
 10
486.8949893655
 20
393.7700534063
 30
0.0
 10
486.9432926204
 20
393.2475632729
 30
0.0
 10
487.040876781
 20
392.2646588128
 30
0.0
 10
487.2032748887
 20
390.8854297717
 30
0.0
 10
487.3731286014
 20
389.6924647284
 30
0.0
 10
487.5529892504
 20
388.6778244342
 30
0.0
 10
487.7530774066
 20
387.8134281955
 30
0.0
 10
487.9677365424
 20
387.1614734412
 30
0.0
 10
488.2231872605
 20
386.6542414785
 30
0.0
 10
488.547837202
 20
386.2130365097
 30
0.0
 10
489.1161385014
 20
385.7766764649
 30
0.0
 10
489.6575304176
 20
385.6450103015
 30
0.0
 10
489.9548732181
 20
385.645956384
 30
0.0
  0
SPLINE
  5
66C
100
AcDbEntity
  8
0
100
AcDbSpline
 62
7
  6
CONTINUOUS
 70
0
 71
3
 72
11
 73
7
 74
0
 42
0.0000001
 43
0.0000001
 44
0.0000000001
 40
0.0
 40
0.0
 40
0.0
 40
0.0
 40
0.1839243793
 40
0.4253523942
 40
0.7043188783
 40
1.0
 40
1.0
 40
1.0
 40
1.0
 10
489.5268989125
 20
394.092248074
 30
0.0
 10
489.5683513761
 20
394.5406340746
 30
0.0
 10
489.6339790745
 20
395.580270581
 30
0.0
 10
489.7001925474
 20
397.3034065177
 30
0.0
 10
489.7392738866
 20
399.3011262255
 30
0.0
 10
489.7450248839
 20
400.7080676092
 30
0.0
 10
489.7424761828
 20
401.4319727314
 30
0.0
  0
SPLINE
  5
66D
100
AcDbEntity
  8
0
100
AcDbSpline
 62
7
  6
CONTINUOUS
 70
0
 71
3
 72
19
 73
15
 74
0
 42
0.0000001
 43
0.0000001
 44
0.0000000001
 40
0.0
 40
0.0
 40
0.0
 40
0.0
 40
0.0496276172
 40
0.0959388813
 40
0.1368333048
 40
0.1715190405
 40
0.2262499051
 40
0.2704278096
 40
0.3531098656
 40
0.4454953801
 40
0.5548107246
 40
0.6833584667
 40
0.8317853975
 40
1.0
 40
1.0
 40
1.0
 40
1.0
 10
489.9548732181
 20
385.645956384
 30
0.0
 10
490.1096454752
 20
385.6464488369
 30
0.0
 10
490.4103474686
 20
385.6824826175
 30
0.0
 10
490.8123285148
 20
385.8356998858
 30
0.0
 10
491.1354459354
 20
386.0404361762
 30
0.0
 10
491.435111569
 20
386.3173036931
 30
0.0
 10
491.684608667
 20
386.655269233
 30
0.0
 10
491.9395884197
 20
387.1624506179
 30
0.0
 10
492.1542243764
 20
387.8142976171
 30
0.0
 10
492.3541774902
 20
388.6786276412
 30
0.0
 10
492.5340087919
 20
389.6931512449
 30
0.0
 10
492.703817141
 20
390.8859610817
 30
0.0
 10
492.8661797431
 20
392.2649516125
 30
0.0
 10
492.9637442563
 20
393.2476721495
 30
0.0
 10
493.0120374457
 20
393.7700534063
 30
0.0
  0
SPLINE
  5
66E
100
AcDbEntity
  8
0
100
AcDbSpline
 62
7
  6
CONTINUOUS
 70
0
 71
3
 72
25
 73
21
 74
0
 42
0.0000001
 43
0.0000001
 44
0.0000000001
 40
0.0
 40
0.0
 40
0.0
 40
0.0
 40
0.0037157356
 40
0.0038681619
 40
0.0047081476
 40
0.0090660859
 40
0.0166703758
 40
0.0271429484
 40
0.0401708946
 40
0.0555747164
 40
0.0731924161
 40
0.1145159728
 40
0.163412962
 40
0.219352609
 40
0.2819954557
 40
0.3510582165
 40
0.4263382417
 40
0.5948591906
 40
0.786415646
 40
1.0
 40
1.0
 40
1.0
 40
1.0
 10
488.6828475559
 20
388.4803365728
 30
0.0
 10
488.6793008019
 20
388.4741922589
 30
0.0
 10
488.6755102403
 20
388.4690397907
 30
0.0
 10
488.6717617096
 20
388.4592708648
 30
0.0
 10
488.679934141
 20
388.4775226386
 30
0.0
 10
488.6842956652
 20
388.4894623885
 30
0.0
 10
488.7023394193
 20
388.5361519833
 30
0.0
 10
488.7204021646
 20
388.5894325154
 30
0.0
 10
488.7431884947
 20
388.6613679102
 30
0.0
 10
488.7676796326
 20
388.7453996252
 30
0.0
 10
488.8050244361
 20
388.8825292028
 30
0.0
 10
488.8537459355
 20
389.0825127237
 30
0.0
 10
488.912888216
 20
389.3553026217
 30
0.0
 10
488.9738382075
 20
389.6692201436
 30
0.0
 10
489.0359057671
 20
390.0220963502
 30
0.0
 10
489.0984532491
 20
390.4123281761
 30
0.0
 10
489.1853592357
 20
391.0033420921
 30
0.0
 10
489.2920306656
 20
391.8277663045
 30
0.0
 10
489.4139444699
 20
392.916298516
 30
0.0
 10
489.4893586528
 20
393.6861798841
 30
0.0
 10
489.5268989125
 20
394.092248074
 30
0.0
  0
SPLINE
  5
66F
100
AcDbEntity
  8
0
100
AcDbSpline
 62
7
  6
CONTINUOUS
 70
0
 71
3
 72
17
 73
13
 74
0
 42
0.0000001
 43
0.0000001
 44
0.0000000001
 40
0.0
 40
0.0
 40
0.0
 40
0.0
 40
0.1965682528
 40
0.3843975226
 40
0.5561680251
 40
0.7060134868
 40
0.8287729478
 40
0.9200449506
 40
0.9529467681
 40
0.9770073947
 40
0.9923095806
 40
1.0
 40
1.0
 40
1.0
 40
1.0
 10
491.5930144889
 20
401.5449689791
 30
0.0
 10
491.7018077749
 20
401.5449689791
 30
0.0
 10
491.9145587564
 20
401.5437537548
 30
0.0
 10
492.2223417256
 20
401.5383167697
 30
0.0
 10
492.5041580802
 20
401.5294700703
 30
0.0
 10
492.7498754838
 20
401.5175738905
 30
0.0
 10
492.950661967
 20
401.503304862
 30
0.0
 10
493.086863949
 20
401.4886510331
 30
0.0
 10
493.1675344982
 20
401.4755717362
 30
0.0
 10
493.2070288262
 20
401.4658197365
 30
0.0
 10
493.2306251477
 20
401.4581919736
 30
0.0
 10
493.2424050108
 20
401.4485515166
 30
0.0
 10
493.2424378841
 20
401.4442952798
 30
0.0
  0
SPLINE
  5
670
100
AcDbEntity
  8
0
100
AcDbSpline
 62
7
  6
CONTINUOUS
 70
0
 71
3
 72
17
 73
13
 74
0
 42
0.0000001
 43
0.0000001
 44
0.0000000001
 40
0.0
 40
0.0
 40
0.0
 40
0.0
 40
0.1965682528
 40
0.3843975226
 40
0.5561680251
 40
0.7060134868
 40
0.8287729478
 40
0.9200449506
 40
0.9529467681
 40
0.9770073947
 40
0.9923095806
 40
1.0
 40
1.0
 40
1.0
 40
1.0
 10
491.425088137
 20
449.2409299616
 30
0.0
 10
491.533881423
 20
449.2409299616
 30
0.0
 10
491.7466324045
 20
449.2397147373
 30
0.0
 10
492.0544153737
 20
449.2342777522
 30
0.0
 10
492.3362317284
 20
449.2254310528
 30
0.0
 10
492.581949132
 20
449.213534873
 30
0.0
 10
492.7827356151
 20
449.1992658445
 30
0.0
 10
492.9189375971
 20
449.1846120156
 30
0.0
 10
492.9996081463
 20
449.1715327187
 30
0.0
 10
493.0391024743
 20
449.161780719
 30
0.0
 10
493.0626987958
 20
449.1541529561
 30
0.0
 10
493.0744786589
 20
449.1445124991
 30
0.0
 10
493.0745115322
 20
449.1402562623
 30
0.0
  0
SPLINE
  5
671
100
AcDbEntity
  8
0
100
AcDbSpline
 62
7
  6
CONTINUOUS
 70
0
 71
3
 72
17
 73
13
 74
0
 42
0.0000001
 43
0.0000001
 44
0.0000000001
 40
0.0
 40
0.0
 40
0.0
 40
0.0
 40
0.1906424637
 40
0.3759988107
 40
0.5478945469
 40
0.699505303
 40
0.8246721394
 40
0.9182773866
 40
0.9520555496
 40
0.9767617319
 40
0.9924182201
 40
1.0
 40
1.0
 40
1.0
 40
1.0
 10
488.515110627
 20
401.3312990907
 30
0.0
 10
488.3967749198
 20
401.3312990907
 30
0.0
 10
488.1633836399
 20
401.3327447685
 30
0.0
 10
487.8233377062
 20
401.3390581372
 30
0.0
 10
487.5076490405
 20
401.3492600674
 30
0.0
 10
487.2294039833
 20
401.3628852832
 30
0.0
 10
487.0002197944
 20
401.3791042451
 30
0.0
 10
486.8438935301
 20
401.3955788373
 30
0.0
 10
486.7510870193
 20
401.41009387
 30
0.0
 10
486.7053790763
 20
401.4209226744
 30
0.0
 10
486.678590872
 20
401.4290748688
 30
0.0
 10
486.6645525799
 20
401.439589253
 30
0.0
 10
486.6645889272
 20
401.4442952798
 30
0.0
  0
SPLINE
  5
672
100
AcDbEntity
  8
0
100
AcDbSpline
 62
7
  6
CONTINUOUS
 70
0
 71
3
 72
11
 73
7
 74
0
 42
0.0000001
 43
0.0000001
 44
0.0000000001
 40
0.0
 40
0.0
 40
0.0
 40
0.0
 40
0.2683933979
 40
0.5275471676
 40
0.7703127867
 40
1.0
 40
1.0
 40
1.0
 40
1.0
 10
488.6908053571
 20
395.4167061918
 30
0.0
 10
488.448001475
 20
395.4167061918
 30
0.0
 10
487.9664024249
 20
395.3315451064
 30
0.0
 10
487.3531615959
 20
394.9679847827
 30
0.0
 10
486.9478228232
 20
394.4189312174
 30
0.0
 10
486.8758524324
 20
393.9769583644
 30
0.0
 10
486.8950272646
 20
393.7700569162
 30
0.0
  0
SPLINE
  5
673
100
AcDbEntity
  8
0
100
AcDbSpline
 62
7
  6
CONTINUOUS
 70
0
 71
3
 72
17
 73
13
 74
0
 42
0.0000001
 43
0.0000001
 44
0.0000000001
 40
0.0
 40
0.0
 40
0.0
 40
0.0
 40
0.0075817799
 40
0.0232382681
 40
0.0479444504
 40
0.0817226134
 40
0.1753278606
 40
0.300494697
 40
0.4521054531
 40
0.6240011893
 40
0.8093575363
 40
1.0
 40
1.0
 40
1.0
 40
1.0
 10
489.5745664372
 20
449.1279337726
 30
0.0
 10
489.5745300899
 20
449.1326397993
 30
0.0
 10
489.588568382
 20
449.1431541836
 30
0.0
 10
489.6153565863
 20
449.1513063779
 30
0.0
 10
489.6610645293
 20
449.1621351823
 30
0.0
 10
489.7538710401
 20
449.1766502151
 30
0.0
 10
489.9101973043
 20
449.1931248073
 30
0.0
 10
490.1393814933
 20
449.2093437691
 30
0.0
 10
490.4176265505
 20
449.222968985
 30
0.0
 10
490.7333152162
 20
449.2331709152
 30
0.0
 10
491.0733611498
 20
449.2394842838
 30
0.0
 10
491.3067524298
 20
449.2409299616
 30
0.0
 10
491.425088137
 20
449.2409299616
 30
0.0
  0
SPLINE
  5
674
100
AcDbEntity
  8
0
100
AcDbSpline
 62
7
  6
CONTINUOUS
 70
0
 71
3
 72
9
 73
5
 74
0
 42
0.0000001
 43
0.0000001
 44
0.0000000001
 40
0.0
 40
0.0
 40
0.0
 40
0.0
 40
0.4520475648
 40
1.0
 40
1.0
 40
1.0
 40
1.0
 10
489.7209981022
 20
401.3625930583
 30
0.0
 10
489.539591672
 20
401.3508233426
 30
0.0
 10
489.137605466
 20
401.3358846261
 30
0.0
 10
488.7354659567
 20
401.3312990907
 30
0.0
 10
488.515110627
 20
401.3312990907
 30
0.0
  0
SPLINE
  5
675
100
AcDbEntity
  8
0
100
AcDbSpline
 62
7
  6
CONTINUOUS
 70
0
 71
3
 72
17
 73
13
 74
0
 42
0.0000001
 43
0.0000001
 44
0.0000000001
 40
0.0
 40
0.0
 40
0.0
 40
0.0
 40
0.0075817799
 40
0.0232382681
 40
0.0479444504
 40
0.0817226134
 40
0.1753278606
 40
0.300494697
 40
0.4521054531
 40
0.6240011893
 40
0.8093575363
 40
1.0
 40
1.0
 40
1.0
 40
1.0
 10
489.742492789
 20
401.4319727901
 30
0.0
 10
489.7424564417
 20
401.4366788168
 30
0.0
 10
489.7564947339
 20
401.4471932011
 30
0.0
 10
489.7832829382
 20
401.4553453954
 30
0.0
 10
489.8289908812
 20
401.4661741998
 30
0.0
 10
489.921797392
 20
401.4806892325
 30
0.0
 10
490.0781236562
 20
401.4971638248
 30
0.0
 10
490.3073078452
 20
401.5133827866
 30
0.0
 10
490.5855529023
 20
401.5270080025
 30
0.0
 10
490.901241568
 20
401.5372099327
 30
0.0
 10
491.2412875017
 20
401.5435233013
 30
0.0
 10
491.4746787817
 20
401.5449689791
 30
0.0
 10
491.5930144889
 20
401.5449689791
 30
0.0
  0
SPLINE
  5
676
100
AcDbEntity
  8
0
100
AcDbSpline
 62
7
  6
CONTINUOUS
 70
0
 71
3
 72
9
 73
5
 74
0
 42
0.0000001
 43
0.0000001
 44
0.0000000001
 40
0.0
 40
0.0
 40
0.0
 40
0.0
 40
0.2450615358
 40
1.0
 40
1.0
 40
1.0
 40
1.0
 10
489.60866931
 20
395.1909025687
 30
0.0
 10
489.5403797956
 20
395.2278931397
 30
0.0
 10
489.251861903
 20
395.3602769633
 30
0.0
 10
488.9300589307
 20
395.4167061918
 30
0.0
 10
488.6908053571
 20
395.4167061918
 30
0.0
  0
SPLINE
  5
677
100
AcDbEntity
  8
0
100
AcDbSpline
 62
7
  6
CONTINUOUS
 70
0
 71
3
 72
11
 73
7
 74
0
 42
0.0000001
 43
0.0000001
 44
0.0000000001
 40
0.0
 40
0.0
 40
0.0
 40
0.0
 40
0.2686821717
 40
0.525794902
 40
0.7681417256
 40
1.0
 40
1.0
 40
1.0
 40
1.0
 10
491.322714904
 20
392.4455952885
 30
0.0
 10
491.5322988322
 20
392.4455952885
 30
0.0
 10
491.9456616482
 20
392.5086654372
 30
0.0
 10
492.4880106747
 20
392.7893377587
 30
0.0
 10
492.877809074
 20
393.2250758152
 30
0.0
 10
492.9953096872
 20
393.5899689725
 30
0.0
 10
493.0119995467
 20
393.7700569162
 30
0.0
  0
SPLINE
  5
678
100
AcDbEntity
  8
0
100
AcDbSpline
 62
7
  6
CONTINUOUS
 70
0
 71
3
 72
11
 73
7
 74
0
 42
0.0000001
 43
0.0000001
 44
0.0000000001
 40
0.0
 40
0.0
 40
0.0
 40
0.0
 40
0.2296872133
 40
0.4724528324
 40
0.7316066021
 40
1.0
 40
1.0
 40
1.0
 40
1.0
 10
489.5269368115
 20
394.092244564
 30
0.0
 10
489.5077619793
 20
393.8853431158
 30
0.0
 10
489.5797323701
 20
393.4433702629
 30
0.0
 10
489.9850711428
 20
392.8943166976
 30
0.0
 10
490.5983119718
 20
392.5307563739
 30
0.0
 10
491.0799110219
 20
392.4455952885
 30
0.0
 10
491.322714904
 20
392.4455952885
 30
0.0
  0
LINE
  5
679
100
AcDbEntity
  8
0
100
AcDbLine
 62
7
  6
CONTINUOUS
 10
234.7194675313
 20
235.3647836842
 11
234.7546901618
 21
235.3683342556
  0
SPLINE
  5
67A
100
AcDbEntity
  8
0
100
AcDbSpline
 62
7
  6
CONTINUOUS
 70
0
 71
3
 72
14
 73
10
 74
0
 42
0.0000001
 43
0.0000001
 44
0.0000000001
 40
0.0
 40
0.0
 40
0.0
 40
0.0
 40
0.048913197
 40
0.128360167
 40
0.2334855289
 40
0.3604735733
 40
0.5052526957
 40
0.6633504387
 40
1.0
 40
1.0
 40
1.0
 40
1.0
 10
234.7546901618
 20
235.3683342556
 30
0.0
 10
234.8207644035
 20
235.3753789388
 30
0.0
 10
234.9939070624
 20
235.3961659192
 30
0.0
 10
235.3086110541
 20
235.4357832615
 30
0.0
 10
235.7283081402
 20
235.4905743023
 30
0.0
 10
236.2358320545
 20
235.5581986391
 30
0.0
 10
236.8145244742
 20
235.6365566937
 30
0.0
 10
237.6752675844
 20
235.7545928365
 30
0.0
 10
238.340946122
 20
235.8474005607
 30
0.0
 10
238.7938201812
 20
235.9111535731
 30
0.0
  0
SPLINE
  5
67B
100
AcDbEntity
  8
0
100
AcDbSpline
 62
7
  6
CONTINUOUS
 70
0
 71
3
 72
10
 73
6
 74
0
 42
0.0000001
 43
0.0000001
 44
0.0000000001
 40
0.0
 40
0.0
 40
0.0
 40
0.0
 40
0.5844366794
 40
0.8164208836
 40
1.0
 40
1.0
 40
1.0
 40
1.0
 10
233.8156364096
 20
235.6769472318
 30
0.0
 10
233.4118899587
 20
235.6187119083
 30
0.0
 10
232.8479863958
 20
235.5366208445
 30
0.0
 10
232.1577056971
 20
235.433236713
 30
0.0
 10
231.8710139083
 20
235.3891852908
 30
0.0
 10
231.7444429847
 20
235.3692295836
 30
0.0
  0
SPLINE
  5
67C
100
AcDbEntity
  8
0
100
AcDbSpline
 62
7
  6
CONTINUOUS
 70
0
 71
3
 72
9
 73
5
 74
0
 42
0.0000001
 43
0.0000001
 44
0.0000000001
 40
0.0
 40
0.0
 40
0.0
 40
0.0
 40
0.566935429
 40
1.0
 40
1.0
 40
1.0
 40
1.0
 10
231.7444429847
 20
235.3692295836
 30
0.0
 10
231.6738336891
 20
235.3580970233
 30
0.0
 10
231.5493346362
 20
235.3381731809
 30
0.0
 10
231.4250066586
 20
235.3171594103
 30
0.0
 10
231.3712913244
 20
235.3073563788
 30
0.0
  0
LINE
  5
67D
100
AcDbEntity
  8
0
100
AcDbLine
 62
7
  6
CONTINUOUS
 10
231.3712913244
 20
235.3073563788
 11
231.3581252933
 21
235.30493618
  0
SPLINE
  5
67E
100
AcDbEntity
  8
0
100
AcDbSpline
 62
7
  6
CONTINUOUS
 70
0
 71
3
 72
16
 73
12
 74
0
 42
0.0000001
 43
0.0000001
 44
0.0000000001
 40
0.0
 40
0.0
 40
0.0
 40
0.0
 40
0.0423845815
 40
0.0765967665
 40
0.1326048141
 40
0.2731319593
 40
0.4181102151
 40
0.5634987081
 40
0.7089739194
 40
0.8544809065
 40
1.0
 40
1.0
 40
1.0
 40
1.0
 10
231.3581252933
 20
235.30493618
 30
0.0
 10
231.3232412702
 20
235.2984754102
 30
0.0
 10
231.2603096776
 20
235.2861313792
 30
0.0
 10
231.1524266034
 20
235.259859582
 30
0.0
 10
230.9680102893
 20
235.2018679133
 30
0.0
 10
230.7092044612
 20
235.0746352092
 30
0.0
 10
230.4266869551
 20
234.8455064782
 30
0.0
 10
230.2006597932
 20
234.5550890158
 30
0.0
 10
230.0461899072
 20
234.2205403092
 30
0.0
 10
229.9715528286
 20
233.859757931
 30
0.0
 10
229.9777436603
 20
233.6137176435
 30
0.0
 10
229.9946679623
 20
233.4930949629
 30
0.0
  0
SPLINE
  5
67F
100
AcDbEntity
  8
0
100
AcDbSpline
 62
7
  6
CONTINUOUS
 70
0
 71
3
 72
31
 73
27
 74
0
 42
0.0000001
 43
0.0000001
 44
0.0000000001
 40
0.0
 40
0.0
 40
0.0
 40
0.0
 40
0.2268042903
 40
0.3319811037
 40
0.4309652482
 40
0.5232628914
 40
0.6084135977
 40
0.6859926328
 40
0.7556131018
 40
0.8169279114
 40
0.8696315626
 40
0.9134618003
 40
0.94820121
 40
0.9621067156
 40
0.9736793455
 40
0.9829057673
 40
0.9866361104
 40
0.9897769594
 40
0.9923280688
 40
0.9942902405
 40
0.99566672
 40
0.9964689976
 40
0.9967830594
 40
0.9972936435
 40
0.9983561746
 40
1.0
 40
1.0
 40
1.0
 40
1.0
 10
233.8144719992
 20
235.6731912861
 30
0.0
 10
233.6569207743
 20
235.6503865063
 30
0.0
 10
233.4263306673
 20
235.6168473109
 30
0.0
 10
233.127045807
 20
235.5729089795
 30
0.0
 10
232.9211990575
 20
235.542482707
 30
0.0
 10
232.7292890975
 20
235.5138986417
 30
0.0
 10
232.5522734814
 20
235.4872998748
 30
0.0
 10
232.3910353842
 20
235.4628198974
 30
0.0
 10
232.2463791287
 20
235.4405822077
 30
0.0
 10
232.1190262672
 20
235.420699204
 30
0.0
 10
232.0096113117
 20
235.4032747943
 30
0.0
 10
231.918679732
 20
235.388397725
 30
0.0
 10
231.8546878262
 20
235.3775264567
 30
0.0
 10
231.813079354
 20
235.370094752
 30
0.0
 10
231.7891339215
 20
235.3656255605
 30
0.0
 10
231.7722423999
 20
235.3622859172
 30
0.0
 10
231.7611944429
 20
235.3599213486
 30
0.0
 10
231.7547406863
 20
235.3584668721
 30
0.0
 10
231.7495373858
 20
235.3571455285
 30
0.0
 10
231.7455220636
 20
235.3561181064
 30
0.0
 10
231.7428327849
 20
235.3550198086
 30
0.0
 10
231.7411111803
 20
235.3546078925
 30
0.0
 10
231.7404200075
 20
235.3533345374
 30
0.0
 10
231.742252436
 20
235.3530164392
 30
0.0
 10
231.7441523315
 20
235.3528023884
 30
0.0
 10
231.7461820013
 20
235.3527779207
 30
0.0
 10
231.7473357964
 20
235.3527779207
 30
0.0
  0
SPLINE
  5
680
100
AcDbEntity
  8
0
100
AcDbSpline
 62
7
  6
CONTINUOUS
 70
0
 71
3
 72
10
 73
6
 74
0
 42
0.0000001
 43
0.0000001
 44
0.0000000001
 40
0.0
 40
0.0
 40
0.0
 40
0.0
 40
0.1324229722
 40
0.3435329103
 40
1.0
 40
1.0
 40
1.0
 40
1.0
 10
234.5967551309
 20
235.3527779207
 30
0.0
 10
234.6021288011
 20
235.3527779207
 30
0.0
 10
234.6160582515
 20
235.3535884383
 30
0.0
 10
234.6564968427
 20
235.3568785667
 30
0.0
 10
234.6915128934
 20
235.3606196467
 30
0.0
 10
234.7179955147
 20
235.3635033918
 30
0.0
  0
LINE
  5
681
100
AcDbEntity
  8
0
100
AcDbLine
 62
7
  6
CONTINUOUS
 10
234.7179955147
 20
235.3635033918
 11
234.7195053146
 21
235.3636679431
  0
SPLINE
  5
682
100
AcDbEntity
  8
0
100
AcDbSpline
 62
7
  6
CONTINUOUS
 70
0
 71
3
 72
12
 73
8
 74
0
 42
0.0000001
 43
0.0000001
 44
0.0000000001
 40
0.0
 40
0.0
 40
0.0
 40
0.0
 40
0.0655704532
 40
0.1538564763
 40
0.3889078587
 40
0.6809730117
 40
1.0
 40
1.0
 40
1.0
 40
1.0
 10
234.817821975
 20
235.374847738
 30
0.0
 10
234.9049321939
 20
235.385059039
 30
0.0
 10
235.1091832556
 20
235.4102634613
 30
0.0
 10
235.625150801
 20
235.476496291
 30
0.0
 10
236.4410778726
 20
235.5854066202
 30
0.0
 10
237.5624352443
 20
235.7387778182
 30
0.0
 10
238.3719898574
 20
235.851718698
 30
0.0
 10
238.7945520917
 20
235.9112045856
 30
0.0
  0
SPLINE
  5
683
100
AcDbEntity
  8
0
100
AcDbSpline
 62
7
  6
CONTINUOUS
 70
0
 71
3
 72
21
 73
17
 74
0
 42
0.0000001
 43
0.0000001
 44
0.0000000001
 40
0.0
 40
0.0
 40
0.0
 40
0.0
 40
0.003807679
 40
0.0098781997
 40
0.0182005244
 40
0.0287560569
 40
0.0564618844
 40
0.0927315193
 40
0.1372166063
 40
0.1894893561
 40
0.2490466458
 40
0.3153151061
 40
0.4653749526
 40
0.6339030921
 40
0.8144236774
 40
1.0
 40
1.0
 40
1.0
 40
1.0
 10
232.8541302544
 20
233.4917370699
 30
0.0
 10
232.8621679632
 20
233.4917370699
 30
0.0
 10
232.8830035947
 20
233.4929513607
 30
0.0
 10
232.9212902681
 20
233.496053292
 30
0.0
 10
232.9737110407
 20
233.5011677979
 30
0.0
 10
233.0714948219
 20
233.5115447856
 30
0.0
 10
233.2277857433
 20
233.5296249794
 30
0.0
 10
233.4550634641
 20
233.557256138
 30
0.0
 10
233.7336836646
 20
233.5922682564
 30
0.0
 10
234.0609624426
 20
233.6343174769
 30
0.0
 10
234.4337469278
 20
233.6830177023
 30
0.0
 10
235.011084796
 20
233.759431718
 30
0.0
 10
235.8162337734
 20
233.8677495663
 30
0.0
 10
236.8601176789
 20
234.01035219
 30
0.0
 10
237.9780180927
 20
234.1650372011
 30
0.0
 10
238.7433584809
 20
234.2721676392
 30
0.0
 10
239.1312705522
 20
234.3267756756
 30
0.0
  0
SPLINE
  5
684
100
AcDbEntity
  8
0
100
AcDbSpline
 62
7
  6
CONTINUOUS
 70
0
 71
3
 72
20
 73
16
 74
0
 42
0.0000001
 43
0.0000001
 44
0.0000000001
 40
0.0
 40
0.0
 40
0.0
 40
0.0
 40
0.0031777601
 40
0.0079915389
 40
0.0239286066
 40
0.0487888344
 40
0.082538484
 40
0.1249294998
 40
0.1755914072
 40
0.2340580276
 40
0.2997802573
 40
0.4504310865
 40
0.6218105223
 40
0.8073681546
 40
1.0
 40
1.0
 40
1.0
 40
1.0
 10
238.8168603868
 20
235.9112045856
 30
0.0
 10
238.8185781436
 20
235.9112045856
 30
0.0
 10
238.8227197963
 20
235.9090430548
 30
0.0
 10
238.8308644262
 20
235.8989791915
 30
0.0
 10
238.8414957374
 20
235.8764324351
 30
0.0
 10
238.8550923843
 20
235.8385841607
 30
0.0
 10
238.8706194298
 20
235.7861748446
 30
0.0
 10
238.8878894052
 20
235.7198529469
 30
0.0
 10
238.9066744477
 20
235.640119311
 30
0.0
 10
238.9267799324
 20
235.5477645419
 30
0.0
 10
238.9564403443
 20
235.4021848623
 30
0.0
 10
238.9948704479
 20
235.1961228371
 30
0.0
 10
239.0410354568
 20
234.9256469162
 30
0.0
 10
239.0872801065
 20
234.632188547
 30
0.0
 10
239.1168022635
 20
234.4298938879
 30
0.0
 10
239.1312705522
 20
234.3267756756
 30
0.0
  0
SPLINE
  5
685
100
AcDbEntity
  8
0
100
AcDbSpline
 62
7
  6
CONTINUOUS
 70
0
 71
3
 72
15
 73
11
 74
0
 42
0.0000001
 43
0.0000001
 44
0.0000000001
 40
0.0
 40
0.0
 40
0.0
 40
0.0
 40
0.1248892943
 40
0.2498041457
 40
0.3747542375
 40
0.4997445333
 40
0.6247737172
 40
0.7498345575
 40
0.8749151662
 40
1.0
 40
1.0
 40
1.0
 40
1.0
 10
234.2136241684
 20
235.2988429414
 30
0.0
 10
234.110255671
 20
235.2842913172
 30
0.0
 10
233.9057995149
 20
235.2346726017
 30
0.0
 10
233.6199727699
 20
235.1018877125
 30
0.0
 10
233.3653875101
 20
234.9157661477
 30
0.0
 10
233.1519828636
 20
234.6834839127
 30
0.0
 10
232.9879118129
 20
234.4139761446
 30
0.0
 10
232.8794929325
 20
234.1175593416
 30
0.0
 10
232.8308639695
 20
233.8057778051
 30
0.0
 10
232.8396032068
 20
233.5952740676
 30
0.0
 10
232.8541302544
 20
233.4917370699
 30
0.0
  0
SPLINE
  5
686
100
AcDbEntity
  8
0
100
AcDbSpline
 62
7
  6
CONTINUOUS
 70
0
 71
3
 72
15
 73
11
 74
0
 42
0.0000001
 43
0.0000001
 44
0.0000000001
 40
0.0
 40
0.0
 40
0.0
 40
0.0
 40
0.1248892943
 40
0.2498041457
 40
0.3747542375
 40
0.4997445333
 40
0.6247737172
 40
0.7498345575
 40
0.8749151662
 40
1.0
 40
1.0
 40
1.0
 40
1.0
 10
231.3642048339
 20
235.2988429414
 30
0.0
 10
231.2608363365
 20
235.2842913172
 30
0.0
 10
231.0563801804
 20
235.2346726017
 30
0.0
 10
230.7705534354
 20
235.1018877125
 30
0.0
 10
230.5159681756
 20
234.9157661477
 30
0.0
 10
230.3025635291
 20
234.6834839127
 30
0.0
 10
230.1384924784
 20
234.4139761446
 30
0.0
 10
230.030073598
 20
234.1175593416
 30
0.0
 10
229.981444635
 20
233.8057778051
 30
0.0
 10
229.9901838723
 20
233.5952740676
 30
0.0
 10
230.0047109199
 20
233.4917370699
 30
0.0
  0
SPLINE
  5
687
100
AcDbEntity
  8
0
100
AcDbSpline
 62
7
  6
CONTINUOUS
 70
0
 71
3
 72
10
 73
6
 74
0
 42
0.0000001
 43
0.0000001
 44
0.0000000001
 40
0.0
 40
0.0
 40
0.0
 40
0.0
 40
0.0889722661
 40
0.2784086727
 40
1.0
 40
1.0
 40
1.0
 40
1.0
 10
229.9946680222
 20
233.4930949713
 30
0.0
 10
229.9947106595
 20
233.4927920288
 30
0.0
 10
229.9957649704
 20
233.4922740348
 30
0.0
 10
229.9989597203
 20
233.4918218867
 30
0.0
 10
230.0022297512
 20
233.4917370699
 30
0.0
 10
230.0047109199
 20
233.4917370699
 30
0.0
  0
SPLINE
  5
688
100
AcDbEntity
  8
0
100
AcDbSpline
 62
7
  6
CONTINUOUS
 70
0
 71
3
 72
13
 73
9
 74
0
 42
0.0000001
 43
0.0000001
 44
0.0000000001
 40
0.0
 40
0.0
 40
0.0
 40
0.0
 40
0.0393439571
 40
0.1036776759
 40
0.1928506428
 40
0.3066169188
 40
0.6065499314
 40
1.0
 40
1.0
 40
1.0
 40
1.0
 10
234.2136241684
 20
235.2988429414
 30
0.0
 10
234.2203112558
 20
235.2988429414
 30
0.0
 10
234.2379159107
 20
235.2999521175
 30
0.0
 10
234.2705701601
 20
235.3026977
 30
0.0
 10
234.3157745846
 20
235.3072451398
 30
0.0
 10
234.4007435145
 20
235.3164741188
 30
0.0
 10
234.5369930587
 20
235.3325167992
 30
0.0
 10
234.6539582802
 20
235.346932337
 30
0.0
 10
234.7203144804
 20
235.3552273442
 30
0.0
  0
SPLINE
  5
689
100
AcDbEntity
  8
0
100
AcDbSpline
 62
7
  6
CONTINUOUS
 70
0
 71
3
 72
11
 73
7
 74
0
 42
0.0000001
 43
0.0000001
 44
0.0000000001
 40
0.0
 40
0.0
 40
0.0
 40
0.0
 40
0.1783093505
 40
0.4176890251
 40
0.6990611241
 40
1.0
 40
1.0
 40
1.0
 40
1.0
 10
234.7203144804
 20
235.3552273442
 30
0.0
 10
234.9627896719
 20
235.3855385052
 30
0.0
 10
235.5304091635
 20
235.4595439888
 30
0.0
 10
236.4799034362
 20
235.5870839354
 30
0.0
 10
237.595522191
 20
235.7402221616
 30
0.0
 10
238.3858819825
 20
235.8505517801
 30
0.0
 10
238.7942765071
 20
235.9080258372
 30
0.0
  0
LINE
  5
68A
100
AcDbEntity
  8
0
100
AcDbLine
 62
7
  6
CONTINUOUS
 10
238.7942765071
 20
235.9080258372
 11
238.8168603868
 21
235.9112045856
  0
SPLINE
  5
68B
100
AcDbEntity
  8
0
100
AcDbSpline
 62
7
  6
CONTINUOUS
 70
0
 71
3
 72
32
 73
28
 74
0
 42
0.0000001
 43
0.0000001
 44
0.0000000001
 40
0.0
 40
0.0
 40
0.0
 40
0.0
 40
0.2246896438
 40
0.3292765317
 40
0.4279261207
 40
0.5201038786
 40
0.6053103658
 40
0.6830839508
 40
0.7530033281
 40
0.8146898392
 40
0.8678096099
 40
0.9120754485
 40
0.9308117064
 40
0.9472487219
 40
0.9613648738
 40
0.9731412933
 40
0.9825632454
 40
0.9863876641
 40
0.9896199135
 40
0.9922595679
 40
0.9943069973
 40
0.9957646987
 40
0.996641456
 40
0.9969952017
 40
0.9974373696
 40
0.9984268888
 40
1.0
 40
1.0
 40
1.0
 40
1.0
 10
233.8157189512
 20
235.6768952228
 30
0.0
 10
233.6307134684
 20
235.6502076589
 30
0.0
 10
233.3596197691
 20
235.6109115012
 30
0.0
 10
233.0073750358
 20
235.5593815664
 30
0.0
 10
232.7642407505
 20
235.5235759145
 30
0.0
 10
232.5370933757
 20
235.4898736792
 30
0.0
 10
232.3271638669
 20
235.4584579945
 30
0.0
 10
232.1355897944
 20
235.4295001044
 30
0.0
 10
231.9634092308
 20
235.4031580901
 30
0.0
 10
231.8115547743
 20
235.3795775221
 30
0.0
 10
231.680849054
 20
235.3588878723
 30
0.0
 10
231.5854949663
 20
235.3434052788
 30
0.0
 10
231.5203147061
 20
235.332502025
 30
0.0
 10
231.4798994331
 20
235.3255767976
 30
0.0
 10
231.445222021
 20
235.3194513587
 30
0.0
 10
231.4163285245
 20
235.3141317717
 30
0.0
 10
231.3958954542
 20
235.3101572054
 30
0.0
 10
231.3824755635
 20
235.3073464249
 30
0.0
 10
231.374602754
 20
235.30561173
 30
0.0
 10
231.3681887616
 20
235.3040425159
 30
0.0
 10
231.3632680156
 20
235.3028037607
 30
0.0
 10
231.3597496671
 20
235.3015158064
 30
0.0
 10
231.3577537092
 20
235.3009915669
 30
0.0
 10
231.3564943113
 20
235.2996284991
 30
0.0
 10
231.3585037726
 20
235.2990363476
 30
0.0
 10
231.3606217099
 20
235.2989215355
 30
0.0
 10
231.3628961547
 20
235.2988429414
 30
0.0
 10
231.3642048339
 20
235.2988429414
 30
0.0
  0
SPLINE
  5
68C
100
AcDbEntity
  8
0
100
AcDbSpline
 62
7
  6
CONTINUOUS
 70
0
 71
3
 72
13
 73
9
 74
0
 42
0.0000001
 43
0.0000001
 44
0.0000000001
 40
0.0
 40
0.0
 40
0.0
 40
0.0
 40
0.3768983778
 40
0.5414435084
 40
0.6822867845
 40
0.7973404779
 40
0.8867070327
 40
1.0
 40
1.0
 40
1.0
 40
1.0
 10
466.4079952474
 20
477.0822639417
 30
0.0
 10
466.4079952474
 20
477.2869162899
 30
0.0
 10
466.4254409683
 20
477.581510135
 30
0.0
 10
466.4877797741
 20
477.9472218234
 30
0.0
 10
466.5441205269
 20
478.1682145113
 30
0.0
 10
466.6113523867
 20
478.345532299
 30
0.0
 10
466.6905014742
 20
478.4935780274
 30
0.0
 10
466.7863329542
 20
478.5822639417
 30
0.0
 10
466.8478499921
 20
478.5822639417
 30
0.0
  0
SPLINE
  5
68D
100
AcDbEntity
  8
0
100
AcDbSpline
 62
7
  6
CONTINUOUS
 70
0
 71
3
 72
16
 73
12
 74
0
 42
0.0000001
 43
0.0000001
 44
0.0000000001
 40
0.0
 40
0.0
 40
0.0
 40
0.0
 40
0.0097987721
 40
0.0285603268
 40
0.0561307125
 40
0.0923013114
 40
0.1888832826
 40
0.3146580815
 40
0.4646988014
 40
0.6333201103
 40
1.0
 40
1.0
 40
1.0
 40
1.0
 10
480.0909802088
 20
475.6526233483
 30
0.0
 10
480.0957978567
 20
475.6526233483
 30
0.0
 10
480.1096473451
 20
475.6495265668
 30
0.0
 10
480.136428993
 20
475.6433090714
 30
0.0
 10
480.1756007757
 20
475.6325558849
 30
0.0
 10
480.2513836554
 20
475.610979447
 30
0.0
 10
480.3731077136
 20
475.5742881078
 30
0.0
 10
480.54796637
 20
475.5200312572
 30
0.0
 10
480.7562521738
 20
475.453953518
 30
0.0
 10
481.0769564358
 20
475.3505792252
 30
0.0
 10
481.3269723057
 20
475.2683564252
 30
0.0
 10
481.4980405743
 20
475.2114620729
 30
0.0
  0
SPLINE
  5
68E
100
AcDbEntity
  8
0
100
AcDbSpline
 62
7
  6
CONTINUOUS
 70
0
 71
3
 72
19
 73
15
 74
0
 42
0.0000001
 43
0.0000001
 44
0.0000000001
 40
0.0
 40
0.0
 40
0.0
 40
0.0
 40
0.1974359769
 40
0.3861597159
 40
0.5587746669
 40
0.7093339148
 40
0.7746791398
 40
0.8325848112
 40
0.8824874883
 40
0.9239896596
 40
0.9567318128
 40
0.9803770761
 40
0.9947733797
 40
1.0
 40
1.0
 40
1.0
 40
1.0
 10
485.4774528958
 20
473.8879782466
 30
0.0
 10
485.5601579305
 20
473.8604719801
 30
0.0
 10
485.7218266944
 20
473.8063976143
 30
0.0
 10
485.9554845032
 20
473.7273220263
 30
0.0
 10
486.1692365975
 20
473.6540029439
 30
0.0
 10
486.3312041479
 20
473.5975477412
 30
0.0
 10
486.4451061955
 20
473.5571344674
 30
0.0
 10
486.5170774995
 20
473.5312655271
 30
0.0
 10
486.5788417389
 20
473.5085859092
 30
0.0
 10
486.6305240182
 20
473.4893709667
 30
0.0
 10
486.6698445251
 20
473.4736313791
 30
0.0
 10
486.7009648721
 20
473.461972187
 30
0.0
 10
486.714379829
 20
473.4536684085
 30
0.0
 10
486.7262420246
 20
473.4497686058
 30
0.0
 10
486.7257411332
 20
473.4475163117
 30
0.0
  0
SPLINE
  5
68F
100
AcDbEntity
  8
0
100
AcDbSpline
 62
7
  6
CONTINUOUS
 70
0
 71
3
 72
13
 73
9
 74
0
 42
0.0000001
 43
0.0000001
 44
0.0000000001
 40
0.0
 40
0.0
 40
0.0
 40
0.0
 40
0.1205385739
 40
0.2169146106
 40
0.3385438278
 40
0.4826086705
 40
0.644605996
 40
1.0
 40
1.0
 40
1.0
 40
1.0
 10
470.1772806393
 20
478.5822639405
 30
0.0
 10
470.2422779931
 20
478.582254391
 30
0.0
 10
470.3398375198
 20
478.4793681842
 30
0.0
 10
470.4143453338
 20
478.3195005608
 30
0.0
 10
470.4762654526
 20
478.1316609069
 30
0.0
 10
470.5252108325
 20
477.9067238367
 30
0.0
 10
470.5762587352
 20
477.553244329
 30
0.0
 10
470.5902264726
 20
477.2739011025
 30
0.0
 10
470.5902264698
 20
477.0822639417
 30
0.0
  0
SPLINE
  5
690
100
AcDbEntity
  8
0
100
AcDbSpline
 62
7
  6
CONTINUOUS
 70
0
 71
3
 72
12
 73
8
 74
0
 42
0.0000001
 43
0.0000001
 44
0.0000000001
 40
0.0
 40
0.0
 40
0.0
 40
0.0
 40
0.1185333004
 40
0.2133864128
 40
0.3335351831
 40
0.6385808539
 40
1.0
 40
1.0
 40
1.0
 40
1.0
 10
471.1220020113
 20
478.4273150507
 30
0.0
 10
471.177290504
 20
478.40864841
 30
0.0
 10
471.231306234
 20
478.2936922067
 30
0.0
 10
471.2501221773
 20
478.1360402355
 30
0.0
 10
471.2503189478
 20
477.8770080754
 30
0.0
 10
471.1916513105
 20
477.4941045625
 30
0.0
 10
471.1088974639
 20
477.1757257605
 30
0.0
 10
471.0559937392
 20
477.0058439969
 30
0.0
  0
SPLINE
  5
691
100
AcDbEntity
  8
0
100
AcDbSpline
 62
7
  6
CONTINUOUS
 70
0
 71
3
 72
12
 73
8
 74
0
 42
0.0000001
 43
0.0000001
 44
0.0000000001
 40
0.0
 40
0.0
 40
0.0
 40
0.0
 40
0.3614014264
 40
0.6664744883
 40
0.7866261028
 40
0.8814865599
 40
1.0
 40
1.0
 40
1.0
 40
1.0
 10
494.8160653515
 20
468.9997885329
 30
0.0
 10
494.8689665947
 20
469.169662386
 30
0.0
 10
494.9517268809
 20
469.4880474322
 30
0.0
 10
495.0103819665
 20
469.8709544802
 30
0.0
 10
495.0102050472
 20
470.1300115539
 30
0.0
 10
494.9913673405
 20
470.2876461898
 30
0.0
 10
494.9373624236
 20
470.4026224823
 30
0.0
 10
494.8820746492
 20
470.4212611104
 30
0.0
  0
SPLINE
  5
692
100
AcDbEntity
  8
0
100
AcDbSpline
 62
7
  6
CONTINUOUS
 70
0
 71
3
 72
21
 73
17
 74
0
 42
0.0000001
 43
0.0000001
 44
0.0000000001
 40
0.0
 40
0.0
 40
0.0
 40
0.0
 40
0.0142495477
 40
0.022855177
 40
0.0328624731
 40
0.0577517002
 40
0.0897701551
 40
0.129208932
 40
0.1761371677
 40
0.292123106
 40
0.3608199666
 40
0.4362517647
 40
0.5180092645
 40
0.6055826399
 40
0.7955856591
 40
1.0
 40
1.0
 40
1.0
 40
1.0
 10
468.9010924572
 20
389.0822639417
 30
0.0
 10
468.8947850422
 20
389.0822639417
 30
0.0
 10
468.8846471832
 20
389.085882911
 30
0.0
 10
468.8732451981
 20
389.0949184107
 30
0.0
 10
468.8601485305
 20
389.1091507851
 30
0.0
 10
468.8444195885
 20
389.1344687335
 30
0.0
 10
468.8267847433
 20
389.1733523361
 30
0.0
 10
468.8093716221
 20
389.2228352253
 30
0.0
 10
468.7848819618
 20
389.3090272445
 30
0.0
 10
468.7639585758
 20
389.4095131206
 30
0.0
 10
468.7450216242
 20
389.5230796145
 30
0.0
 10
468.7311233177
 20
389.6221088408
 30
0.0
 10
468.7184331951
 20
389.7297114502
 30
0.0
 10
468.7029563645
 20
389.8880214875
 30
0.0
 10
468.6881015893
 20
390.1008961526
 30
0.0
 10
468.6814777303
 20
390.2753860496
 30
0.0
 10
468.6793763028
 20
390.3658435391
 30
0.0
  0
SPLINE
  5
693
100
AcDbEntity
  8
0
100
AcDbSpline
 62
7
  6
CONTINUOUS
 70
0
 71
3
 72
11
 73
7
 74
0
 42
0.0000001
 43
0.0000001
 44
0.0000000001
 40
0.0
 40
0.0
 40
0.0
 40
0.0
 40
0.2129037873
 40
0.4413549022
 40
0.6997046648
 40
1.0
 40
1.0
 40
1.0
 40
1.0
 10
464.8959699396
 20
458.0822639417
 30
0.0
 10
464.8707258562
 20
458.0822639417
 30
0.0
 10
464.8180570244
 20
458.0735514417
 30
0.0
 10
464.7433549553
 20
458.0348655585
 30
0.0
 10
464.6746278955
 20
457.9702379617
 30
0.0
 10
464.6382926133
 20
457.9140571935
 30
0.0
 10
464.6220120386
 20
457.8823911301
 30
0.0
  0
SPLINE
  5
694
100
AcDbEntity
  8
0
100
AcDbSpline
 62
7
  6
CONTINUOUS
 70
0
 71
3
 72
15
 73
11
 74
0
 42
0.0000001
 43
0.0000001
 44
0.0000000001
 40
0.0
 40
0.0
 40
0.0
 40
0.0
 40
0.1772830198
 40
0.3486007386
 40
0.5028003804
 40
0.635629774
 40
0.7478432776
 40
0.8426724877
 40
0.9247605069
 40
1.0
 40
1.0
 40
1.0
 40
1.0
 10
467.9320466212
 20
457.5101238075
 30
0.0
 10
467.928766986
 20
457.550945071
 30
0.0
 10
467.9278227918
 20
457.6317573685
 30
0.0
 10
467.9419531878
 20
457.7473861937
 30
0.0
 10
467.9693211144
 20
457.8500549012
 30
0.0
 10
468.0064946222
 20
457.9349000773
 30
0.0
 10
468.0503873144
 20
458.0005746093
 30
0.0
 10
468.098910878
 20
458.0473891759
 30
0.0
 10
468.1507052434
 20
458.0757674564
 30
0.0
 10
468.1872913961
 20
458.0822639417
 30
0.0
 10
468.2046718969
 20
458.0822639417
 30
0.0
  0
LINE
  5
695
100
AcDbEntity
  8
0
100
AcDbLine
 62
7
  6
CONTINUOUS
 10
487.8963485909
 20
429.1055529901
 11
487.1550132357
 21
429.0953488179
  0
LINE
  5
696
100
AcDbEntity
  8
0
100
AcDbLine
 62
7
  6
CONTINUOUS
 10
487.4533786023
 20
428.4739192751
 11
486.6663545004
 21
428.4521901064
  0
SPLINE
  5
697
100
AcDbEntity
  8
0
100
AcDbSpline
 62
7
  6
CONTINUOUS
 70
0
 71
3
 72
28
 73
24
 74
0
 42
0.0000001
 43
0.0000001
 44
0.0000000001
 40
0.0
 40
0.0
 40
0.0
 40
0.0
 40
0.0078104418
 40
0.015622967
 40
0.0234354863
 40
0.0312480021
 40
0.0468730343
 40
0.0624980665
 40
0.0781230988
 40
0.093748131
 40
0.1249981954
 40
0.1562482599
 40
0.1874983243
 40
0.2187483888
 40
0.2499984532
 40
0.3124985821
 40
0.374998711
 40
0.4374988399
 40
0.4999989688
 40
0.6249992266
 40
0.7499994844
 40
0.8749997422
 40
1.0
 40
1.0
 40
1.0
 40
1.0
 10
491.6377454796
 20
457.5089543001
 30
0.0
 10
491.5760413861
 20
457.5102327707
 30
0.0
 10
491.4525763445
 20
457.5100875715
 30
0.0
 10
491.2673970426
 20
457.5101368921
 30
0.0
 10
491.082194276
 20
457.5101199969
 30
0.0
 10
490.8352598292
 20
457.5101260034
 30
0.0
 10
490.5265909537
 20
457.5101230604
 30
0.0
 10
490.1561886634
 20
457.5101240077
 30
0.0
 10
489.7857862758
 20
457.5101237551
 30
0.0
 10
489.2919164597
 20
457.5101238377
 30
0.0
 10
488.674579178
 20
457.5101237972
 30
0.0
 10
487.9337744448
 20
457.5101238102
 30
0.0
 10
487.1929697103
 20
457.5101238068
 30
0.0
 10
486.4521649762
 20
457.5101238077
 30
0.0
 10
485.4644253306
 20
457.5101238074
 30
0.0
 10
484.2297507736
 20
457.5101238075
 30
0.0
 10
482.7481413052
 20
457.5101238075
 30
0.0
 10
481.2665318368
 20
457.5101238075
 30
0.0
 10
479.2910525456
 20
457.5101238075
 30
0.0
 10
476.8217034316
 20
457.5101238075
 30
0.0
 10
473.8584844948
 20
457.5101238075
 30
0.0
 10
470.895265558
 20
457.5101238075
 30
0.0
 10
468.9197862668
 20
457.5101238075
 30
0.0
 10
467.9320466212
 20
457.5101238075
 30
0.0
  0
SPLINE
  5
698
100
AcDbEntity
  8
0
100
AcDbSpline
 62
7
  6
CONTINUOUS
 70
0
 71
3
 72
19
 73
15
 74
0
 42
0.0000001
 43
0.0000001
 44
0.0000000001
 40
0.0
 40
0.0
 40
0.0
 40
0.0
 40
0.0320312898
 40
0.0640176203
 40
0.1278348023
 40
0.2547274758
 40
0.3806449584
 40
0.5055609463
 40
0.6295552013
 40
0.7528578975
 40
0.8144911473
 40
0.8761571386
 40
0.9379556437
 40
1.0
 40
1.0
 40
1.0
 40
1.0
 10
494.7720951351
 20
453.3658435391
 30
0.0
 10
494.7726208117
 20
453.427039276
 30
0.0
 10
494.7713859614
 20
453.5493700651
 30
0.0
 10
494.761486375
 20
453.7934428609
 30
0.0
 10
494.7230480374
 20
454.2174546584
 30
0.0
 10
494.6053973389
 20
454.8131936731
 30
0.0
 10
494.3585880094
 20
455.4945103199
 30
0.0
 10
494.0055821687
 20
456.1217337622
 30
0.0
 10
493.5481543276
 20
456.671653993
 30
0.0
 10
493.0827022595
 20
457.042979809
 30
0.0
 10
492.6680962265
 20
457.2688761925
 30
0.0
 10
492.338007137
 20
457.3985933527
 30
0.0
 10
491.9927910133
 20
457.4834277938
 30
0.0
 10
491.7562602881
 20
457.5065089199
 30
0.0
 10
491.6377454796
 20
457.5089543001
 30
0.0
  0
LINE
  5
699
100
AcDbEntity
  8
0
100
AcDbLine
 62
7
  6
CONTINUOUS
 10
494.6078954589
 20
434.2795192286
 11
493.1295397068
 21
433.5064760803
  0
SPLINE
  5
69A
100
AcDbEntity
  8
0
100
AcDbSpline
 62
7
  6
CONTINUOUS
 70
0
 71
3
 72
19
 73
15
 74
0
 42
0.0000001
 43
0.0000001
 44
0.0000000001
 40
0.0
 40
0.0
 40
0.0
 40
0.0
 40
0.0193176079
 40
0.0420851374
 40
0.0703531456
 40
0.1051066891
 40
0.1467432122
 40
0.1953474689
 40
0.2508208042
 40
0.3129433165
 40
0.455813515
 40
0.6207410168
 40
0.8036796852
 40
1.0
 40
1.0
 40
1.0
 40
1.0
 10
494.8942523457
 20
433.1666720194
 30
0.0
 10
494.9009305699
 20
433.1703190123
 30
0.0
 10
494.9135663968
 20
433.1819629215
 30
0.0
 10
494.9255968171
 20
433.2073735149
 30
0.0
 10
494.9325363578
 20
433.240638287
 30
0.0
 10
494.9346229877
 20
433.2819197207
 30
0.0
 10
494.9319147177
 20
433.3311423606
 30
0.0
 10
494.9243970721
 20
433.3880858484
 30
0.0
 10
494.9121007062
 20
433.4524149304
 30
0.0
 10
494.8882610211
 20
433.5522317955
 30
0.0
 10
494.8463811367
 20
433.6919081024
 30
0.0
 10
494.781401545
 20
433.874018912
 30
0.0
 10
494.7011165937
 20
434.0728249304
 30
0.0
 10
494.6403950105
 20
434.2093500276
 30
0.0
 10
494.6078954587
 20
434.2795192258
 30
0.0
  0
SPLINE
  5
69B
100
AcDbEntity
  8
0
100
AcDbSpline
 62
7
  6
CONTINUOUS
 70
0
 71
3
 72
8
 73
4
 74
0
 42
0.0000001
 43
0.0000001
 44
0.0000000001
 40
0.0
 40
0.0
 40
0.0
 40
0.0
 40
1.0
 40
1.0
 40
1.0
 40
1.0
 10
489.6404183146
 20
430.409145969
 30
0.0
 10
488.8115473549
 20
429.9719760618
 30
0.0
 10
487.9830802224
 20
429.5340396671
 30
0.0
 10
487.1550132357
 20
429.0953488179
 30
0.0
  0
SPLINE
  5
69C
100
AcDbEntity
  8
0
100
AcDbSpline
 62
7
  6
CONTINUOUS
 70
0
 71
3
 72
9
 73
5
 74
0
 42
0.0000001
 43
0.0000001
 44
0.0000000001
 40
0.0
 40
0.0
 40
0.0
 40
0.0
 40
0.454104705
 40
1.0
 40
1.0
 40
1.0
 40
1.0
 10
486.6663545004
 20
428.4521901064
 30
0.0
 10
486.6609949779
 20
428.452098173
 30
0.0
 10
486.6488961035
 20
428.4557547546
 30
0.0
 10
486.6411245281
 20
428.4652896037
 30
0.0
 10
486.6376760996
 20
428.4707330533
 30
0.0
  0
LINE
  5
69D
100
AcDbEntity
  8
0
100
AcDbLine
 62
7
  6
CONTINUOUS
 10
479.14985796
 20
390.2647976897
 11
478.2137965865
 21
390.2562527036
  0
SPLINE
  5
69E
100
AcDbEntity
  8
0
100
AcDbSpline
 62
7
  6
CONTINUOUS
 70
0
 71
3
 72
19
 73
15
 74
0
 42
0.0000001
 43
0.0000001
 44
0.0000000001
 40
0.0
 40
0.0
 40
0.0
 40
0.0
 40
0.0163315554
 40
0.0366260771
 40
0.0630528247
 40
0.0965007185
 40
0.1372691571
 40
0.1853743571
 40
0.2406724875
 40
0.3029137927
 40
0.4468346614
 40
0.6138154906
 40
0.7997589503
 40
1.0
 40
1.0
 40
1.0
 40
1.0
 10
495.6991984886
 20
434.4830352952
 30
0.0
 10
495.6991452689
 20
434.4768569416
 30
0.0
 10
495.6946760751
 20
434.4629996488
 30
0.0
 10
495.6781957045
 20
434.4452286483
 30
0.0
 10
495.6529341099
 20
434.4281996579
 30
0.0
 10
495.6185361101
 20
434.4116645728
 30
0.0
 10
495.5750904246
 20
434.3956041636
 30
0.0
 10
495.5227542665
 20
434.3801374473
 30
0.0
 10
495.4618324621
 20
434.3653697872
 30
0.0
 10
495.3648502354
 20
434.345808822
 30
0.0
 10
495.2252150977
 20
434.3245602391
 30
0.0
 10
495.038309811
 20
434.3042571728
 30
0.0
 10
494.8295776847
 20
434.2887320307
 30
0.0
 10
494.683608862
 20
434.2820457753
 30
0.0
 10
494.6078954589
 20
434.2795192258
 30
0.0
  0
SPLINE
  5
69F
100
AcDbEntity
  8
0
100
AcDbSpline
 62
7
  6
CONTINUOUS
 70
0
 71
3
 72
9
 73
5
 74
0
 42
0.0000001
 43
0.0000001
 44
0.0000000001
 40
0.0
 40
0.0
 40
0.0
 40
0.0
 40
0.499901173
 40
1.0
 40
1.0
 40
1.0
 40
1.0
 10
478.2137965865
 20
390.2562527036
 30
0.0
 10
479.5592627289
 20
396.6367285136
 30
0.0
 10
482.2892014261
 20
409.3921504203
 30
0.0
 10
485.1541617595
 20
422.1182873201
 30
0.0
 10
486.6376760996
 20
428.4707330533
 30
0.0
  0
SPLINE
  5
6A0
100
AcDbEntity
  8
0
100
AcDbSpline
 62
7
  6
CONTINUOUS
 70
0
 71
3
 72
16
 73
12
 74
0
 42
0.0000001
 43
0.0000001
 44
0.0000000001
 40
0.0
 40
0.0
 40
0.0
 40
0.0
 40
0.0264115201
 40
0.0597865029
 40
0.1455854778
 40
0.253293306
 40
0.3789127751
 40
0.519026314
 40
0.6707886025
 40
0.8318047441
 40
1.0
 40
1.0
 40
1.0
 40
1.0
 10
486.637675822
 20
428.4707318653
 30
0.0
 10
486.6348594066
 20
428.4830507034
 30
0.0
 10
486.6259622023
 20
428.5103367197
 30
0.0
 10
486.5986407185
 20
428.5744404166
 30
0.0
 10
486.547422121
 20
428.6703393052
 30
0.0
 10
486.468421058
 20
428.801009784
 30
0.0
 10
486.3704412328
 20
428.9504712887
 30
0.0
 10
486.2566649189
 20
429.1146687529
 30
0.0
 10
486.1296484304
 20
429.2902428465
 30
0.0
 10
485.991652775
 20
429.4744119005
 30
0.0
 10
485.8952910467
 20
429.5990173035
 30
0.0
 10
485.8456712936
 20
429.6623725652
 30
0.0
  0
SPLINE
  5
6A1
100
AcDbEntity
  8
0
100
AcDbSpline
 62
7
  6
CONTINUOUS
 70
0
 71
3
 72
15
 73
11
 74
0
 42
0.0000001
 43
0.0000001
 44
0.0000000001
 40
0.0
 40
0.0
 40
0.0
 40
0.0
 40
0.020829899
 40
0.0479156267
 40
0.1209873573
 40
0.2185788831
 40
0.3390797177
 40
0.4803005302
 40
0.6395956844
 40
1.0
 40
1.0
 40
1.0
 40
1.0
 10
478.2137965868
 20
390.2562527057
 30
0.0
 10
478.2068724523
 20
390.2540555904
 30
0.0
 10
478.1904390113
 20
390.2506556135
 30
0.0
 10
478.1484556246
 20
390.2462427912
 30
0.0
 10
478.0793576811
 20
390.2458826142
 30
0.0
 10
477.9779559149
 20
390.2512733675
 30
0.0
 10
477.8531513998
 20
390.2628909176
 30
0.0
 10
477.707372585
 20
390.2804932523
 30
0.0
 10
477.4791685282
 20
390.3129998933
 30
0.0
 10
477.3004398956
 20
390.3433134747
 30
0.0
 10
477.1767857791
 20
390.3658435389
 30
0.0
  0
SPLINE
  5
6A2
100
AcDbEntity
  8
0
100
AcDbSpline
 62
7
  6
CONTINUOUS
 70
0
 71
3
 72
14
 73
10
 74
0
 42
0.0000001
 43
0.0000001
 44
0.0000000001
 40
0.0
 40
0.0
 40
0.0
 40
0.0
 40
0.0539810088
 40
0.1366372163
 40
0.2429867258
 40
0.3686478046
 40
0.5099629581
 40
0.6639173547
 40
1.0
 40
1.0
 40
1.0
 40
1.0
 10
487.1143263624
 20
429.0937607334
 30
0.0
 10
487.0909136977
 20
429.1025766298
 30
0.0
 10
487.0324249506
 20
429.1268973062
 30
0.0
 10
486.9289749927
 20
429.1713692753
 30
0.0
 10
486.795540838
 20
429.2302237989
 30
0.0
 10
486.6375817407
 20
429.3008185538
 30
0.0
 10
486.4597862042
 20
429.3811009342
 30
0.0
 10
486.1934534777
 20
429.5022681737
 30
0.0
 10
485.9871095858
 20
429.5971382283
 30
0.0
 10
485.8456712944
 20
429.6623725648
 30
0.0
  0
SPLINE
  5
6A3
100
AcDbEntity
  8
0
100
AcDbSpline
 62
7
  6
CONTINUOUS
 70
0
 71
3
 72
9
 73
5
 74
0
 42
0.0000001
 43
0.0000001
 44
0.0000000001
 40
0.0
 40
0.0
 40
0.0
 40
0.0
 40
0.2854947123
 40
1.0
 40
1.0
 40
1.0
 40
1.0
 10
487.1550137747
 20
429.0953490968
 30
0.0
 10
487.1512910834
 20
429.0941484014
 30
0.0
 10
487.1381453074
 20
429.0905722767
 30
0.0
 10
487.1234886
 20
429.0903132611
 30
0.0
 10
487.1143263624
 20
429.0937607334
 30
0.0
  0
SPLINE
  5
6A4
100
AcDbEntity
  8
0
100
AcDbSpline
 62
7
  6
CONTINUOUS
 70
0
 71
3
 72
17
 73
13
 74
0
 42
0.0000001
 43
0.0000001
 44
0.0000000001
 40
0.0
 40
0.0
 40
0.0
 40
0.0
 40
0.1734326434
 40
0.3443338122
 40
0.5056030663
 40
0.650723167
 40
0.7742552798
 40
0.8725396421
 40
0.9119904911
 40
0.9454566314
 40
0.9740974906
 40
1.0
 40
1.0
 40
1.0
 40
1.0
 10
491.6377454796
 20
457.5089543001
 30
0.0
 10
491.6398744612
 20
457.5446212746
 30
0.0
 10
491.6418325524
 20
457.6155884962
 30
0.0
 10
491.6382061056
 20
457.719758944
 30
0.0
 10
491.6282207549
 20
457.8176587456
 30
0.0
 10
491.6123893491
 20
457.904939938
 30
0.0
 10
491.5914822627
 20
457.9776963404
 30
0.0
 10
491.5693279562
 20
458.0272038019
 30
0.0
 10
491.5488129253
 20
458.0560500158
 30
0.0
 10
491.5337677347
 20
458.0708044309
 30
0.0
 10
491.5179043211
 20
458.0800809023
 30
0.0
 10
491.5065896395
 20
458.0822639417
 30
0.0
 10
491.5012532248
 20
458.0822639417
 30
0.0
  0
SPLINE
  5
6A5
100
AcDbEntity
  8
0
100
AcDbSpline
 62
7
  6
CONTINUOUS
 70
0
 71
3
 72
19
 73
15
 74
0
 42
0.0000001
 43
0.0000001
 44
0.0000000001
 40
0.0
 40
0.0
 40
0.0
 40
0.0
 40
0.2002394325
 40
0.386182103
 40
0.5531637514
 40
0.6970869531
 40
0.7593299016
 40
0.8146299028
 40
0.8627370597
 40
0.9035073129
 40
0.9369564727
 40
0.9633832216
 40
0.9836749869
 40
1.0
 40
1.0
 40
1.0
 40
1.0
 10
494.7720951351
 20
453.3658435391
 30
0.0
 10
494.8478053529
 20
453.3683774404
 30
0.0
 10
494.9937681563
 20
453.3750765785
 30
0.0
 10
495.2024921166
 20
453.3906161496
 30
0.0
 10
495.3893915135
 20
453.4109278006
 30
0.0
 10
495.5290236409
 20
453.4321786991
 30
0.0
 10
495.6260053277
 20
453.451738034
 30
0.0
 10
495.6869278806
 20
453.4665030899
 30
0.0
 10
495.7392656955
 20
453.4819656928
 30
0.0
 10
495.7827138286
 20
453.4980206348
 30
0.0
 10
495.8171151831
 20
453.5145484954
 30
0.0
 10
495.8423803843
 20
453.5315690515
 30
0.0
 10
495.8588663266
 20
453.5493281002
 30
0.0
 10
495.8633424728
 20
453.5631792686
 30
0.0
 10
495.8633977422
 20
453.5693549393
 30
0.0
  0
SPLINE
  5
6A6
100
AcDbEntity
  8
0
100
AcDbSpline
 62
7
  6
CONTINUOUS
 70
0
 71
3
 72
15
 73
11
 74
0
 42
0.0000001
 43
0.0000001
 44
0.0000000001
 40
0.0
 40
0.0
 40
0.0
 40
0.0
 40
0.1243401927
 40
0.248769572
 40
0.3733670629
 40
0.4981923046
 40
0.6232789295
 40
0.748630891
 40
0.874222197
 40
1.0
 40
1.0
 40
1.0
 40
1.0
 10
476.7681443156
 20
389.0822639417
 30
0.0
 10
476.8514674887
 20
389.0822639417
 30
0.0
 10
477.0185243993
 20
389.0965844158
 30
0.0
 10
477.2616528015
 20
389.1604032228
 30
0.0
 10
477.4907742547
 20
389.2647335201
 30
0.0
 10
477.6992636442
 20
389.4065905062
 30
0.0
 10
477.8812111846
 20
389.5819123395
 30
0.0
 10
478.0314424693
 20
389.7857185516
 30
0.0
 10
478.1456799111
 20
390.0121090998
 30
0.0
 10
478.1956934694
 20
390.1739332101
 30
0.0
 10
478.2137965868
 20
390.2562527057
 30
0.0
  0
SPLINE
  5
6A7
100
AcDbEntity
  8
0
100
AcDbSpline
 62
7
  6
CONTINUOUS
 70
0
 71
3
 72
18
 73
14
 74
0
 42
0.0000001
 43
0.0000001
 44
0.0000000001
 40
0.0
 40
0.0
 40
0.0
 40
0.0
 40
0.0264239748
 40
0.0552233114
 40
0.0882026146
 40
0.1264740024
 40
0.1706177375
 40
0.2208591554
 40
0.3393774207
 40
0.4803345967
 40
0.6404016601
 40
0.8152754366
 40
1.0
 40
1.0
 40
1.0
 40
1.0
 10
476.7681443156
 20
389.0822639417
 30
0.0
 10
476.7805563248
 20
389.0822639417
 30
0.0
 10
476.8066452847
 20
389.0866953099
 30
0.0
 10
476.8439768901
 20
389.1057219484
 30
0.0
 10
476.8800511157
 20
389.1363277746
 30
0.0
 10
476.9149077509
 20
389.1780855218
 30
0.0
 10
476.9485131613
 20
389.2307093738
 30
0.0
 10
476.9939182731
 20
389.3199471646
 30
0.0
 10
477.0443353515
 20
389.4568856511
 30
0.0
 10
477.0939096402
 20
389.6478107946
 30
0.0
 10
477.1337075167
 20
389.8679678577
 30
0.0
 10
477.1624116469
 20
390.1104946222
 30
0.0
 10
477.1733055075
 20
390.2791435637
 30
0.0
 10
477.1767857791
 20
390.3658435389
 30
0.0
  0
SPLINE
  5
6A8
100
AcDbEntity
  8
0
100
AcDbSpline
 62
7
  6
CONTINUOUS
 70
0
 71
3
 72
11
 73
7
 74
0
 42
0.0000001
 43
0.0000001
 44
0.0000000001
 40
0.0
 40
0.0
 40
0.0
 40
0.0
 40
0.2504777354
 40
0.5007791084
 40
0.7506748541
 40
1.0
 40
1.0
 40
1.0
 40
1.0
 10
487.1143263189
 20
429.0937608101
 30
0.0
 10
487.0560073568
 20
429.0604513646
 30
0.0
 10
486.9457445772
 20
428.9819995587
 30
0.0
 10
486.8072374765
 20
428.8341771906
 30
0.0
 10
486.7009241767
 20
428.6621010982
 30
0.0
 10
486.6543317196
 20
428.5354777446
 30
0.0
 10
486.6376753853
 20
428.4707338592
 30
0.0
  0
SPLINE
  5
6A9
100
AcDbEntity
  8
0
100
AcDbSpline
 62
7
  6
CONTINUOUS
 70
0
 71
3
 72
10
 73
6
 74
0
 42
0.0000001
 43
0.0000001
 44
0.0000000001
 40
0.0
 40
0.0
 40
0.0
 40
0.0
 40
0.5000717271
 40
0.7500501076
 40
1.0
 40
1.0
 40
1.0
 40
1.0
 10
485.845671293
 20
429.6623725656
 30
0.0
 10
484.316627973
 20
423.1310020265
 30
0.0
 10
482.1046063256
 20
413.3155760039
 30
0.0
 10
479.2622041614
 20
400.206183828
 30
0.0
 10
477.8685680105
 20
393.646528922
 30
0.0
 10
477.1767857792
 20
390.3658435389
 30
0.0
  0
SPLINE
  5
6AA
100
AcDbEntity
  8
0
100
AcDbSpline
 62
7
  6
CONTINUOUS
 70
0
 71
3
 72
12
 73
8
 74
0
 42
0.0000001
 43
0.0000001
 44
0.0000000001
 40
0.0
 40
0.0
 40
0.0
 40
0.0
 40
0.2651339815
 40
0.5313354745
 40
0.7762764296
 40
0.8900496816
 40
1.0
 40
1.0
 40
1.0
 40
1.0
 10
241.8139899933
 20
229.7779160308
 30
0.0
 10
241.8775795854
 20
229.372248599
 30
0.0
 10
242.2056802233
 20
228.583432844
 30
0.0
 10
243.0954430977
 20
227.7275124701
 30
0.0
 10
244.0631747612
 20
227.4161439818
 30
0.0
 10
244.7932665127
 20
227.511795698
 30
0.0
 10
245.1118349162
 20
227.6659769588
 30
0.0
 10
245.2505426199
 20
227.7647525523
 30
0.0
  0
SPLINE
  5
6AB
100
AcDbEntity
  8
0
100
AcDbSpline
 62
7
  6
CONTINUOUS
 70
0
 71
3
 72
11
 73
7
 74
0
 42
0.0000001
 43
0.0000001
 44
0.0000000001
 40
0.0
 40
0.0
 40
0.0
 40
0.0
 40
0.2205015613
 40
0.4684413911
 40
0.7367108013
 40
1.0
 40
1.0
 40
1.0
 40
1.0
 10
257.8269728669
 20
221.1077360088
 30
0.0
 10
258.3120163468
 20
220.6049057876
 30
0.0
 10
259.5569733892
 20
219.7474596351
 30
0.0
 10
261.7294099473
 20
218.8722855763
 30
0.0
 10
264.1416028657
 20
218.3031573192
 30
0.0
 10
265.8271612814
 20
218.1522639417
 30
0.0
 10
266.6613766447
 20
218.1522639417
 30
0.0
  0
SPLINE
  5
6AC
100
AcDbEntity
  8
0
100
AcDbSpline
 62
7
  6
CONTINUOUS
 70
0
 71
3
 72
13
 73
9
 74
0
 42
0.0000001
 43
0.0000001
 44
0.0000000001
 40
0.0
 40
0.0
 40
0.0
 40
0.0
 40
0.0419953622
 40
0.1317789229
 40
0.2530193942
 40
0.3944081882
 40
0.7039270305
 40
1.0
 40
1.0
 40
1.0
 40
1.0
 10
261.2528478805
 20
224.4124266738
 30
0.0
 10
261.3081775819
 20
224.3550680098
 30
0.0
 10
261.5106699007
 20
224.2051437592
 30
0.0
 10
261.9245720649
 20
223.9616216229
 30
0.0
 10
262.5367054598
 20
223.6882980326
 30
0.0
 10
263.5625757352
 20
223.3301931693
 30
0.0
 10
264.9500370714
 20
223.0170092382
 30
0.0
 10
266.0995117557
 20
222.9122639417
 30
0.0
 10
266.6613766447
 20
222.9122639417
 30
0.0
  0
SPLINE
  5
6AD
100
AcDbEntity
  8
0
100
AcDbSpline
 62
7
  6
CONTINUOUS
 70
0
 71
3
 72
8
 73
4
 74
0
 42
0.0000001
 43
0.0000001
 44
0.0000000001
 40
0.0
 40
0.0
 40
0.0
 40
0.0
 40
1.0
 40
1.0
 40
1.0
 40
1.0
 10
241.7883887763
 20
230.2841683579
 30
0.0
 10
241.7785631284
 20
230.115487874
 30
0.0
 10
241.7878235227
 20
229.9448440537
 30
0.0
 10
241.8139899933
 20
229.7779160308
 30
0.0
  0
SPLINE
  5
6AE
100
AcDbEntity
  8
0
100
AcDbSpline
 62
7
  6
CONTINUOUS
 70
0
 71
3
 72
9
 73
5
 74
0
 42
0.0000001
 43
0.0000001
 44
0.0000000001
 40
0.0
 40
0.0
 40
0.0
 40
0.0
 40
0.5179926666
 40
1.0
 40
1.0
 40
1.0
 40
1.0
 10
257.4047518318
 20
222.8398895196
 30
0.0
 10
257.3348410117
 20
222.5300330996
 30
0.0
 10
257.3184530609
 20
221.8920680098
 30
0.0
 10
257.6219040766
 20
221.3206052193
 30
0.0
 10
257.8270618896
 20
221.1078218542
 30
0.0
  0
SPLINE
  5
6AF
100
AcDbEntity
  8
0
100
AcDbSpline
 62
7
  6
CONTINUOUS
 70
0
 71
3
 72
11
 73
7
 74
0
 42
0.0000001
 43
0.0000001
 44
0.0000000001
 40
0.0
 40
0.0
 40
0.0
 40
0.0
 40
0.334025417
 40
0.6145484297
 40
0.831806243
 40
1.0
 40
1.0
 40
1.0
 40
1.0
 10
267.6057974345
 20
219.6486833799
 30
0.0
 10
267.5705550517
 20
219.4424299159
 30
0.0
 10
267.4809298201
 20
219.065959981
 30
0.0
 10
267.2700364719
 20
218.5862121123
 30
0.0
 10
267.0069425617
 20
218.2517541911
 30
0.0
 10
266.7667378452
 20
218.152300114
 30
0.0
 10
266.6613766499
 20
218.1523395088
 30
0.0
  0
SPLINE
  5
6B0
100
AcDbEntity
  8
0
100
AcDbSpline
 62
7
  6
CONTINUOUS
 70
0
 71
3
 72
14
 73
10
 74
0
 42
0.0000001
 43
0.0000001
 44
0.0000000001
 40
0.0
 40
0.0
 40
0.0
 40
0.0
 40
0.0698987006
 40
0.1548038301
 40
0.261150639
 40
0.3885574528
 40
0.5328948128
 40
0.6878719607
 40
1.0
 40
1.0
 40
1.0
 40
1.0
 10
266.6613766396
 20
222.9121883746
 30
0.0
 10
266.7465414221
 20
222.9121565312
 30
0.0
 10
266.9360825258
 20
222.8509514332
 30
0.0
 10
267.1671228829
 20
222.6229932801
 30
0.0
 10
267.3637576107
 20
222.2851325018
 30
0.0
 10
267.5200534582
 20
221.8497663366
 30
0.0
 10
267.6285625022
 20
221.3399183605
 30
0.0
 10
267.7005552019
 20
220.5975941024
 30
0.0
 10
267.6698503137
 20
220.0235481633
 30
0.0
 10
267.6057974345
 20
219.6486833799
 30
0.0
  0
SPLINE
  5
6B1
100
AcDbEntity
  8
0
100
AcDbSpline
 62
7
  6
CONTINUOUS
 70
0
 71
3
 72
12
 73
8
 74
0
 42
0.0000001
 43
0.0000001
 44
0.0000000001
 40
0.0
 40
0.0
 40
0.0
 40
0.0
 40
0.1117588069
 40
0.2272294001
 40
0.4743077298
 40
0.739636131
 40
1.0
 40
1.0
 40
1.0
 40
1.0
 10
261.2527588579
 20
224.4123408284
 30
0.0
 10
261.1250118664
 20
224.5448360736
 30
0.0
 10
260.8160687909
 20
224.7707135447
 30
0.0
 10
260.0584918244
 20
225.0056621627
 30
0.0
 10
258.9811931748
 20
224.8361633505
 30
0.0
 10
257.9247225188
 20
224.0579207493
 30
0.0
 10
257.4991222786
 20
223.2581550866
 30
0.0
 10
257.4047518318
 20
222.8398895196
 30
0.0
  0
SPLINE
  5
6B2
100
AcDbEntity
  8
0
100
AcDbSpline
 62
7
  6
CONTINUOUS
 70
0
 71
3
 72
8
 73
4
 74
0
 42
0.0000001
 43
0.0000001
 44
0.0000000001
 40
0.0
 40
0.0
 40
0.0
 40
0.0
 40
1.0
 40
1.0
 40
1.0
 40
1.0
 10
266.8741477839
 20
205.2822639417
 30
0.0
 10
267.8695497034
 20
206.9493823954
 30
0.0
 10
268.8656856109
 20
208.6160628607
 30
0.0
 10
269.8626223582
 20
210.2822639417
 30
0.0
  0
SPLINE
  5
6B3
100
AcDbEntity
  8
0
100
AcDbSpline
 62
7
  6
CONTINUOUS
 70
0
 71
3
 72
9
 73
5
 74
0
 42
0.0000001
 43
0.0000001
 44
0.0000000001
 40
0.0
 40
0.0
 40
0.0
 40
0.0
 40
0.2943213276
 40
1.0
 40
1.0
 40
1.0
 40
1.0
 10
375.2450482399
 20
457.8822639417
 30
0.0
 10
375.2474113368
 20
457.8822639417
 30
0.0
 10
375.2511181033
 20
457.8923081736
 30
0.0
 10
375.2524866885
 20
457.8987871865
 30
0.0
 10
375.2534894599
 20
457.9043636153
 30
0.0
  0
SPLINE
  5
6B4
100
AcDbEntity
  8
0
100
AcDbSpline
 62
7
  6
CONTINUOUS
 70
0
 71
3
 72
9
 73
5
 74
0
 42
0.0000001
 43
0.0000001
 44
0.0000000001
 40
0.0
 40
0.0
 40
0.0
 40
0.0
 40
0.4147459414
 40
1.0
 40
1.0
 40
1.0
 40
1.0
 10
375.2534894599
 20
457.9043636153
 30
0.0
 10
375.2575964189
 20
457.9272024842
 30
0.0
 10
375.2616639614
 20
457.9831793101
 30
0.0
 10
375.2633388078
 20
458.0390661329
 30
0.0
 10
375.2634971079
 20
458.0718109391
 30
0.0
  0
LINE
  5
6B5
100
AcDbEntity
  8
0
100
AcDbLine
 62
7
  6
CONTINUOUS
 10
365.7047471284
 20
458.0822639417
 11
365.7046199853
 21
457.8822639417
  0
LINE
  5
6B6
100
AcDbEntity
  8
0
100
AcDbLine
 62
7
  6
CONTINUOUS
 10
378.9315812437
 20
457.8822639417
 11
378.9302502691
 21
458.0822639417
  0
SPLINE
  5
6B7
100
AcDbEntity
  8
0
100
AcDbSpline
 62
7
  6
CONTINUOUS
 70
0
 71
3
 72
9
 73
5
 74
0
 42
0.0000001
 43
0.0000001
 44
0.0000000001
 40
0.0
 40
0.0
 40
0.0
 40
0.0
 40
0.2729779124
 40
1.0
 40
1.0
 40
1.0
 40
1.0
 10
271.0267581063
 20
225.5322639417
 30
0.0
 10
271.0267581063
 20
225.4805637014
 30
0.0
 10
271.0338220525
 20
225.2915272715
 30
0.0
 10
271.0635227129
 20
225.1012046118
 30
0.0
 10
271.1097788795
 20
224.9715134445
 30
0.0
  0
SPLINE
  5
6B8
100
AcDbEntity
  8
02___PRT_ALL_AXES
100
AcDbSpline
 62
7
  6
CONTINUOUS
 70
0
 71
3
 72
9
 73
5
 74
0
 42
0.0000001
 43
0.0000001
 44
0.0000000001
 40
0.0
 40
0.0
 40
0.0
 40
0.0
 40
0.4143298158
 40
1.0
 40
1.0
 40
1.0
 40
1.0
 10
268.9016399925
 20
224.393043757
 30
0.0
 10
268.8179682344
 20
224.317656749
 30
0.0
 10
268.6734081563
 20
224.0779852102
 30
0.0
 10
268.5873926381
 20
223.8205873368
 30
0.0
 10
268.5453956601
 20
223.6670285996
 30
0.0
  0
SPLINE
  5
6B9
100
AcDbEntity
  8
02___PRT_ALL_AXES
100
AcDbSpline
 62
7
  6
CONTINUOUS
 70
0
 71
3
 72
9
 73
5
 74
0
 42
0.0000001
 43
0.0000001
 44
0.0000000001
 40
0.0
 40
0.0
 40
0.0
 40
0.0
 40
0.2289803966
 40
1.0
 40
1.0
 40
1.0
 40
1.0
 10
268.5453956601
 20
223.6670285996
 30
0.0
 10
268.5299559341
 20
223.6105744226
 30
0.0
 10
268.4681391582
 20
223.3624956971
 30
0.0
 10
268.4259645886
 20
223.109808708
 30
0.0
 10
268.4007702451
 20
222.9143530774
 30
0.0
  0
SPLINE
  5
6BA
100
AcDbEntity
  8
0
100
AcDbSpline
 62
7
  6
CONTINUOUS
 70
0
 71
3
 72
9
 73
5
 74
0
 42
0.0000001
 43
0.0000001
 44
0.0000000001
 40
0.0
 40
0.0
 40
0.0
 40
0.0
 40
0.3566313853
 40
1.0
 40
1.0
 40
1.0
 40
1.0
 10
468.3570448553
 20
402.6176921952
 30
0.0
 10
468.3600454876
 20
402.6176921952
 30
0.0
 10
468.3672148773
 20
402.6243542194
 30
0.0
 10
468.3701089637
 20
402.6319492541
 30
0.0
 10
468.3720345482
 20
402.6370083771
 30
0.0
  0
SPLINE
  5
6BB
100
AcDbEntity
  8
0
100
AcDbSpline
 62
7
  6
CONTINUOUS
 70
0
 71
3
 72
9
 73
5
 74
0
 42
0.0000001
 43
0.0000001
 44
0.0000000001
 40
0.0
 40
0.0
 40
0.0
 40
0.0
 40
0.3383954982
 40
1.0
 40
1.0
 40
1.0
 40
1.0
 10
270.1267760718
 20
243.7322639417
 30
0.0
 10
270.0454511631
 20
243.7322639417
 30
0.0
 10
269.8989338001
 20
243.4576991686
 30
0.0
 10
269.8795803852
 20
243.2438980662
 30
0.0
 10
269.8695765261
 20
243.0852129636
 30
0.0
  0
SPLINE
  5
6BC
100
AcDbEntity
  8
0
100
AcDbSpline
 62
3
  6
CONTINUOUS
 70
0
 71
3
 72
14
 73
10
 74
0
 42
0.0000001
 43
0.0000001
 44
0.0000000001
 40
0.0
 40
0.0
 40
0.0
 40
0.0
 40
0.3806831854
 40
0.5529415946
 40
0.7038159657
 40
0.8277219852
 40
0.9202271563
 40
0.9778835792
 40
1.0
 40
1.0
 40
1.0
 40
1.0
 10
372.7438891737
 20
459.4822639417
 30
0.0
 10
372.7438891737
 20
459.3037038423
 30
0.0
 10
372.7411882195
 20
459.0441392991
 30
0.0
 10
372.7312617285
 20
458.7146079064
 30
0.0
 10
372.7217553471
 20
458.5040515501
 30
0.0
 10
372.7099601235
 20
458.335149421
 30
0.0
 10
372.6977567145
 20
458.19998198
 30
0.0
 10
372.6838366942
 20
458.1335447618
 30
0.0
 10
372.6736729434
 20
458.0824389463
 30
0.0
 10
372.6632995336
 20
458.0823555612
 30
0.0
  0
SPLINE
  5
6BD
100
AcDbEntity
  8
02___PRT_ALL_AXES
100
AcDbSpline
 62
3
  6
CONTINUOUS
 70
0
 71
3
 72
9
 73
5
 74
0
 42
0.0000001
 43
0.0000001
 44
0.0000000001
 40
0.0
 40
0.0
 40
0.0
 40
0.0
 40
0.2739907415
 40
1.0
 40
1.0
 40
1.0
 40
1.0
 10
269.5487003633
 20
221.7322639417
 30
0.0
 10
269.5487003633
 20
221.5541513299
 30
0.0
 10
269.5271637594
 20
220.9049962163
 30
0.0
 10
269.4353382346
 20
220.2528140122
 30
0.0
 10
269.2947274495
 20
219.8022915486
 30
0.0
  0
SPLINE
  5
6BE
100
AcDbEntity
  8
0
100
AcDbSpline
 62
3
  6
CONTINUOUS
 70
0
 71
3
 72
9
 73
5
 74
0
 42
0.0000001
 43
0.0000001
 44
0.0000000001
 40
0.0
 40
0.0
 40
0.0
 40
0.0
 40
0.2728808448
 40
1.0
 40
1.0
 40
1.0
 40
1.0
 10
271.1985970021
 20
225.5322639417
 30
0.0
 10
271.1985970021
 20
225.4805554025
 30
0.0
 10
271.1911990253
 20
225.2914276439
 30
0.0
 10
271.160011056
 20
225.1010967644
 30
0.0
 10
271.1124606045
 20
224.971779183
 30
0.0
  0
SPLINE
  5
6BF
100
AcDbEntity
  8
0
100
AcDbSpline
 62
3
  6
CONTINUOUS
 70
0
 71
3
 72
8
 73
4
 74
0
 42
0.0000001
 43
0.0000001
 44
0.0000000001
 40
0.0
 40
0.0
 40
0.0
 40
0.0
 40
1.0
 40
1.0
 40
1.0
 40
1.0
 10
271.1124606045
 20
224.971779183
 30
0.0
 10
271.1048220879
 20
224.9510055738
 30
0.0
 10
271.0964591953
 20
224.9304738185
 30
0.0
 10
271.0871741009
 20
224.9103821088
 30
0.0
  0
SPLINE
  5
6C0
100
AcDbEntity
  8
0
100
AcDbSpline
 62
3
  6
CONTINUOUS
 70
0
 71
3
 72
9
 73
5
 74
0
 42
0.0000001
 43
0.0000001
 44
0.0000000001
 40
0.0
 40
0.0
 40
0.0
 40
0.0
 40
0.3003452281
 40
1.0
 40
1.0
 40
1.0
 40
1.0
 10
271.0871741009
 20
224.9103821088
 30
0.0
 10
271.0787953693
 20
224.8922516479
 30
0.0
 10
271.0485013444
 20
224.8335435457
 30
0.0
 10
271.0063908383
 20
224.7774307438
 30
0.0
 10
270.9669307323
 20
224.7527801187
 30
0.0
  0
SPLINE
  5
6C1
100
AcDbEntity
  8
0
100
AcDbSpline
 62
3
  6
CONTINUOUS
 70
0
 71
3
 72
8
 73
4
 74
0
 42
0.0000001
 43
0.0000001
 44
0.0000000001
 40
0.0
 40
0.0
 40
0.0
 40
0.0
 40
1.0
 40
1.0
 40
1.0
 40
1.0
 10
270.9669307323
 20
224.7527801187
 30
0.0
 10
270.9472618333
 20
224.7404930088
 30
0.0
 10
270.9236322565
 20
224.7322866381
 30
0.0
 10
270.9004409091
 20
224.7322947253
 30
0.0
  0
SPLINE
  5
6C2
100
AcDbEntity
  8
02___PRT_ALL_AXES
100
AcDbSpline
 62
3
  6
CONTINUOUS
 70
0
 71
3
 72
9
 73
5
 74
0
 42
0.0000001
 43
0.0000001
 44
0.0000000001
 40
0.0
 40
0.0
 40
0.0
 40
0.0
 40
0.7172859942
 40
1.0
 40
1.0
 40
1.0
 40
1.0
 10
268.6947074747
 20
224.4822639599
 30
0.0
 10
268.7494663763
 20
224.4822678385
 30
0.0
 10
268.8261854898
 20
224.4534711613
 30
0.0
 10
268.8864883225
 20
224.407106633
 30
0.0
 10
268.9028488151
 20
224.3930298561
 30
0.0
  0
SPLINE
  5
6C3
100
AcDbEntity
  8
02___PRT_ALL_AXES
100
AcDbSpline
 62
3
  6
CONTINUOUS
 70
0
 71
3
 72
9
 73
5
 74
0
 42
0.0000001
 43
0.0000001
 44
0.0000000001
 40
0.0
 40
0.0
 40
0.0
 40
0.0
 40
0.4167946402
 40
1.0
 40
1.0
 40
1.0
 40
1.0
 10
268.9028488151
 20
224.3930298561
 30
0.0
 10
268.9903988367
 20
224.3177006982
 30
0.0
 10
269.1466139987
 20
224.0797505004
 30
0.0
 10
269.2450054912
 20
223.8208615626
 30
0.0
 10
269.2933462138
 20
223.6666504891
 30
0.0
  0
SPLINE
  5
6C4
100
AcDbEntity
  8
02___PRT_ALL_AXES
100
AcDbSpline
 62
3
  6
CONTINUOUS
 70
0
 71
3
 72
9
 73
5
 74
0
 42
0.0000001
 43
0.0000001
 44
0.0000000001
 40
0.0
 40
0.0
 40
0.0
 40
0.0
 40
0.217745756
 40
1.0
 40
1.0
 40
1.0
 40
1.0
 10
269.2933462138
 20
223.6666504891
 30
0.0
 10
269.3357959962
 20
223.5312320232
 30
0.0
 10
269.4954500178
 20
222.8984700531
 30
0.0
 10
269.5487003633
 20
222.242098799
 30
0.0
 10
269.5487003633
 20
221.7322639417
 30
0.0
  0
SPLINE
  5
6C5
100
AcDbEntity
  8
0
100
AcDbSpline
 62
3
  6
CONTINUOUS
 70
0
 71
3
 72
9
 73
5
 74
0
 42
0.0000001
 43
0.0000001
 44
0.0000000001
 40
0.0
 40
0.0
 40
0.0
 40
0.0
 40
0.6296903503
 40
1.0
 40
1.0
 40
1.0
 40
1.0
 10
466.9559898603
 20
445.9040467092
 30
0.0
 10
466.95169876
 20
446.025219422
 30
0.0
 10
466.9670327893
 20
446.2087654837
 30
0.0
 10
466.9912457326
 20
446.4199176343
 30
0.0
 10
467.0415346443
 20
446.4704677189
 30
0.0
  0
SPLINE
  5
6C6
100
AcDbEntity
  8
0
100
AcDbSpline
 62
3
  6
CONTINUOUS
 70
0
 71
3
 72
9
 73
5
 74
0
 42
0.0000001
 43
0.0000001
 44
0.0000000001
 40
0.0
 40
0.0
 40
0.0
 40
0.0
 40
0.2243800291
 40
1.0
 40
1.0
 40
1.0
 40
1.0
 10
467.3154278425
 20
435.7931078103
 30
0.0
 10
467.3122347309
 20
435.8113482637
 30
0.0
 10
467.3000466009
 20
435.8929939086
 30
0.0
 10
467.2941470942
 20
435.9754981714
 30
0.0
 10
467.2920532537
 20
436.0394749626
 30
0.0
  0
SPLINE
  5
6C7
100
AcDbEntity
  8
0
100
AcDbSpline
 62
3
  6
CONTINUOUS
 70
0
 71
3
 72
10
 73
6
 74
0
 42
0.0000001
 43
0.0000001
 44
0.0000000001
 40
0.0
 40
0.0
 40
0.0
 40
0.0
 40
0.0908131394
 40
0.2995432136
 40
1.0
 40
1.0
 40
1.0
 40
1.0
 10
468.3109275631
 20
402.6176921952
 30
0.0
 10
468.2977690101
 20
402.6176921952
 30
0.0
 10
468.2759443988
 20
402.6701003359
 30
0.0
 10
468.2497264233
 20
402.7972848808
 30
0.0
 10
468.2402364861
 20
402.9380097263
 30
0.0
 10
468.2378161634
 20
403.0394749626
 30
0.0
  0
SPLINE
  5
6C8
100
AcDbEntity
  8
0
100
AcDbSpline
 62
3
  6
CONTINUOUS
 70
0
 71
3
 72
9
 73
5
 74
0
 42
0.0000001
 43
0.0000001
 44
0.0000000001
 40
0.0
 40
0.0
 40
0.0
 40
0.0
 40
0.6405600451
 40
1.0
 40
1.0
 40
1.0
 40
1.0
 10
467.9905581092
 20
413.085057994
 30
0.0
 10
467.993470771
 20
413.1688061186
 30
0.0
 10
468.0074096953
 20
413.2954446614
 30
0.0
 10
468.0255403093
 20
413.4328089705
 30
0.0
 10
468.0535608723
 20
413.4705706842
 30
0.0
  0
SPLINE
  5
6C9
100
AcDbEntity
  8
0
100
AcDbSpline
 62
3
  6
CONTINUOUS
 70
0
 71
3
 72
9
 73
5
 74
0
 42
0.0000001
 43
0.0000001
 44
0.0000000001
 40
0.0
 40
0.0
 40
0.0
 40
0.0
 40
0.5728210628
 40
1.0
 40
1.0
 40
1.0
 40
1.0
 10
468.0535608723
 20
413.4705706842
 30
0.0
 10
468.0560088531
 20
413.4738696883
 30
0.0
 10
468.0607766237
 20
413.4793834668
 30
0.0
 10
468.0678815908
 20
413.4822639417
 30
0.0
 10
468.0709451487
 20
413.4822639417
 30
0.0
  0
SPLINE
  5
6CA
100
AcDbEntity
  8
0
100
AcDbSpline
 62
3
  6
CONTINUOUS
 70
0
 71
3
 72
9
 73
5
 74
0
 42
0.0000001
 43
0.0000001
 44
0.0000000001
 40
0.0
 40
0.0
 40
0.0
 40
0.0
 40
0.347075702
 40
1.0
 40
1.0
 40
1.0
 40
1.0
 10
270.9004742438
 20
243.7322639417
 30
0.0
 10
271.0031538279
 20
243.7322639417
 30
0.0
 10
271.1825506368
 20
243.391294432
 30
0.0
 10
271.1985970021
 20
243.1254263987
 30
0.0
 10
271.1985970021
 20
242.9322639417
 30
0.0
  0
SPLINE
  5
6CB
100
AcDbEntity
  8
0
100
AcDbSpline
 62
3
  6
CONTINUOUS
 70
0
 71
3
 72
9
 73
5
 74
0
 42
0.0000001
 43
0.0000001
 44
0.0000000001
 40
0.0
 40
0.0
 40
0.0
 40
0.0
 40
0.3481933124
 40
1.0
 40
1.0
 40
1.0
 40
1.0
 10
270.9004409091
 20
224.7322947253
 30
0.0
 10
270.8179600938
 20
224.7323234877
 30
0.0
 10
270.6533690844
 20
224.9814178997
 30
0.0
 10
270.629554418
 20
225.1996511374
 30
0.0
 10
270.6168598623
 20
225.353529837
 30
0.0
  0
SPLINE
  5
6CC
100
AcDbEntity
  8
0
100
AcDbSpline
 62
3
  6
CONTINUOUS
 70
0
 71
3
 72
9
 73
5
 74
0
 42
0.0000001
 43
0.0000001
 44
0.0000000001
 40
0.0
 40
0.0
 40
0.0
 40
0.0
 40
0.2888403363
 40
1.0
 40
1.0
 40
1.0
 40
1.0
 10
269.4515974676
 20
242.9322639417
 30
0.0
 10
269.4515974676
 20
242.9972486022
 30
0.0
 10
269.4615138932
 20
243.2210800434
 30
0.0
 10
269.4961826743
 20
243.4510290526
 30
0.0
 10
269.5656849583
 20
243.5951451506
 30
0.0
  0
SPLINE
  5
6CD
100
AcDbEntity
  8
0
100
AcDbSpline
 62
3
  6
CONTINUOUS
 70
0
 71
3
 72
9
 73
5
 74
0
 42
0.0000001
 43
0.0000001
 44
0.0000000001
 40
0.0
 40
0.0
 40
0.0
 40
0.0
 40
0.3012282025
 40
1.0
 40
1.0
 40
1.0
 40
1.0
 10
269.5656849583
 20
243.5951451506
 30
0.0
 10
269.5724509785
 20
243.6091747963
 30
0.0
 10
269.5966178671
 20
243.6545047984
 30
0.0
 10
269.6299039303
 20
243.6976733277
 30
0.0
 10
269.6607385936
 20
243.7165083333
 30
0.0
  0
SPLINE
  5
6CE
100
AcDbEntity
  8
0
100
AcDbSpline
 62
3
  6
CONTINUOUS
 70
0
 71
3
 72
9
 73
5
 74
0
 42
0.0000001
 43
0.0000001
 44
0.0000000001
 40
0.0
 40
0.0
 40
0.0
 40
0.0
 40
0.5187699231
 40
1.0
 40
1.0
 40
1.0
 40
1.0
 10
269.6607385936
 20
243.7165083333
 30
0.0
 10
269.668829046
 20
243.7214502947
 30
0.0
 10
269.6855472763
 20
243.7293562685
 30
0.0
 10
269.7039071836
 20
243.7322639417
 30
0.0
 10
269.7127015721
 20
243.7322639417
 30
0.0
  0
SPLINE
  5
6CF
100
AcDbEntity
  8
02___PRT_ALL_AXES
100
AcDbSpline
 62
3
  6
CONTINUOUS
 70
0
 71
3
 72
9
 73
5
 74
0
 42
0.0000001
 43
0.0000001
 44
0.0000000001
 40
0.0
 40
0.0
 40
0.0
 40
0.0
 40
0.2833330246
 40
1.0
 40
1.0
 40
1.0
 40
1.0
 10
267.9924708573
 20
222.9143545752
 30
0.0
 10
268.0052553463
 20
223.0138550352
 30
0.0
 10
268.057695801
 20
223.3637228608
 30
0.0
 10
268.1371076057
 20
223.7118915441
 30
0.0
 10
268.2271792889
 20
223.9491142582
 30
0.0
  0
SPLINE
  5
6D0
100
AcDbEntity
  8
02___PRT_ALL_AXES
100
AcDbSpline
 62
3
  6
CONTINUOUS
 70
0
 71
3
 72
9
 73
5
 74
0
 42
0.0000001
 43
0.0000001
 44
0.0000000001
 40
0.0
 40
0.0
 40
0.0
 40
0.0
 40
0.3478068725
 40
1.0
 40
1.0
 40
1.0
 40
1.0
 10
268.2271792889
 20
223.9491142582
 30
0.0
 10
268.257038705
 20
224.0277553081
 30
0.0
 10
268.3466371328
 20
224.239670886
 30
0.0
 10
268.5369710643
 20
224.4822527874
 30
0.0
 10
268.6947074747
 20
224.4822639599
 30
0.0
  0
SPLINE
  5
6D1
100
AcDbEntity
  8
0
100
AcDbSpline
 62
3
  6
CONTINUOUS
 70
0
 71
3
 72
13
 73
9
 74
0
 42
0.0000001
 43
0.0000001
 44
0.0000000001
 40
0.0
 40
0.0
 40
0.0
 40
0.0
 40
0.0187370129
 40
0.0705649307
 40
0.1545318105
 40
0.2691624566
 40
0.5838936342
 40
1.0
 40
1.0
 40
1.0
 40
1.0
 10
469.3286852665
 20
214.5739735648
 30
0.0
 10
469.3236233509
 20
214.5739735652
 30
0.0
 10
469.3231875762
 20
214.6024042178
 30
0.0
 10
469.3146609304
 20
214.6349080429
 30
0.0
 10
469.3106444941
 20
214.7071872853
 30
0.0
 10
469.3003873458
 20
214.8427387823
 30
0.0
 10
469.2907257347
 20
215.0729783146
 30
0.0
 10
469.2843800797
 20
215.2696232105
 30
0.0
 10
469.2815129516
 20
215.3820002544
 30
0.0
  0
ELLIPSE
  5
6D2
100
AcDbEntity
  8
0
100
AcDbEllipse
 62
7
  6
CONTINUOUS
 10
375.6752928059
 20
124.7769919337
 30
0.0
 11
26.3963330184
 21
644.6823207794
 31
0.0
 40
0.1399413296
 41
-1.1404605279
 42
-1.1187048207
  0
ELLIPSE
  5
6D3
100
AcDbEntity
  8
0
100
AcDbEllipse
 62
7
  6
CONTINUOUS
 10
375.6752928059
 20
124.7769919337
 30
0.0
 11
26.3963330184
 21
644.6823207794
 31
0.0
 40
0.1399413296
 41
-1.0619557762
 42
-1.0611330936
  0
ELLIPSE
  5
6D4
100
AcDbEntity
  8
0
100
AcDbEllipse
 62
7
  6
CONTINUOUS
 10
375.6752928059
 20
124.7769919337
 30
0.0
 11
26.3963330184
 21
644.6823207794
 31
0.0
 40
0.1399413296
 41
-1.1007214446
 42
-1.061975669
  0
ELLIPSE
  5
6D5
100
AcDbEntity
  8
0
100
AcDbEllipse
 62
7
  6
CONTINUOUS
 10
375.6752928059
 20
124.7769919337
 30
0.0
 11
26.3963330184
 21
644.6823207794
 31
0.0
 40
0.1399413296
 41
-1.1014365413
 42
-1.1007504398
  0
ELLIPSE
  5
6D6
100
AcDbEntity
  8
0
100
AcDbEllipse
 62
7
  6
CONTINUOUS
 10
491.2979258773
 20
453.3822639417
 30
0.0
 11
0.530721196
 21
1.930749628
 31
0.0
 40
0.9830651791
 41
-1.8294612125
 42
2.2379890385
  0
ELLIPSE
  5
6D7
100
AcDbEntity
  8
0
100
AcDbEllipse
 62
7
  6
CONTINUOUS
 10
436.8684407413
 20
106.5146600538
 30
0.0
 11
-141.1992355377
 21
155.8345801203
 31
0.0
 40
0.3239802009
 41
0.6315533659
 42
0.6431367642
  0
ELLIPSE
  5
6D8
100
AcDbEntity
  8
0
100
AcDbEllipse
 62
7
  6
CONTINUOUS
 10
304.4809110277
 20
106.5146600538
 30
0.0
 11
133.9461842468
 21
153.9543324324
 31
0.0
 40
0.3861393483
 41
-0.6045595641
 42
-0.5929761658
  0
ELLIPSE
  5
6D9
100
AcDbEntity
  8
0
100
AcDbEllipse
 62
7
  6
CONTINUOUS
 10
296.847494093
 20
106.5146600538
 30
0.0
 11
141.1992355377
 21
155.8345801203
 31
0.0
 40
0.3239802009
 41
-0.6431367642
 42
-0.6326977208
  0
ELLIPSE
  5
6DA
100
AcDbEntity
  8
0
100
AcDbEllipse
 62
7
  6
CONTINUOUS
 10
429.2350238066
 20
106.5146600538
 30
0.0
 11
-133.9461842468
 21
153.9543324324
 31
0.0
 40
0.3861393483
 41
0.5929761658
 42
0.6045595641
  0
ELLIPSE
  5
6DB
100
AcDbEntity
  8
0
100
AcDbEllipse
 62
7
  6
CONTINUOUS
 10
427.9045630973
 20
108.5146600538
 30
0.0
 11
-131.0892021188
 21
150.6705899446
 31
0.0
 40
0.3861393483
 41
-1.2521912605
 42
-1.2403489869
  0
ELLIPSE
  5
6DC
100
AcDbEntity
  8
0
100
AcDbEllipse
 62
7
  6
CONTINUOUS
 10
298.3407704576
 20
108.5146600538
 30
0.0
 11
138.1875506981
 21
152.5107332125
 31
0.0
 40
0.3239802009
 41
1.2017717868
 42
1.2136140604
  0
ELLIPSE
  5
6DD
100
AcDbEntity
  8
0
100
AcDbEllipse
 62
7
  6
CONTINUOUS
 10
305.811371737
 20
108.5146600538
 30
0.0
 11
131.0892021188
 21
150.6705899446
 31
0.0
 40
0.3861393483
 41
1.2415188295
 42
1.2521912605
  0
ELLIPSE
  5
6DE
100
AcDbEntity
  8
0
100
AcDbEllipse
 62
7
  6
CONTINUOUS
 10
435.3751643767
 20
108.5146600538
 30
0.0
 11
-138.1875506981
 21
152.5107332125
 31
0.0
 40
0.3239802009
 41
-1.2136140604
 42
-1.2017717868
  0
ELLIPSE
  5
6DF
100
AcDbEntity
  8
0
100
AcDbEllipse
 62
7
  6
CONTINUOUS
 10
366.8579674171
 20
252.084347275
 30
0.0
 11
102.497894583
 21
36.2545371529
 31
0.0
 40
0.0181209681
 41
3.1351907441
 42
3.4643993369
  0
ELLIPSE
  5
6E0
100
AcDbEntity
  8
0
100
AcDbEllipse
 62
7
  6
CONTINUOUS
 10
243.2083402484
 20
208.6989306084
 30
0.0
 11
3.9999178374
 21
1.414811206
 31
0.0
 40
0.0181209681
 41
1.621982711
 42
3.1345305256
  0
ELLIPSE
  5
6E1
100
AcDbEntity
  8
0
100
AcDbEllipse
 62
7
  6
CONTINUOUS
 10
245.9138495155
 20
208.6989306084
 30
0.0
 11
3.9999178374
 21
1.414811206
 31
0.0
 40
0.0181209681
 41
-3.0904062693
 42
-1.5196099425
  0
ELLIPSE
  5
6E2
100
AcDbEntity
  8
0
100
AcDbEllipse
 62
7
  6
CONTINUOUS
 10
296.847494093
 20
106.5146600538
 30
0.0
 11
141.1992355377
 21
155.8345801203
 31
0.0
 40
0.3239802009
 41
1.2026172778
 42
1.2142006762
  0
ELLIPSE
  5
6E3
100
AcDbEntity
  8
0
100
AcDbEllipse
 62
7
  6
CONTINUOUS
 10
429.2350238066
 20
106.5146600538
 30
0.0
 11
-133.9461842468
 21
153.9543324324
 31
0.0
 40
0.3861393483
 41
-1.2527778763
 42
-1.241194478
  0
ELLIPSE
  5
6E4
100
AcDbEntity
  8
0
100
AcDbEllipse
 62
7
  6
CONTINUOUS
 10
427.9045630973
 20
108.5146600538
 30
0.0
 11
-131.0892021188
 21
150.6705899446
 31
0.0
 40
0.3861393483
 41
0.5921306747
 42
0.6039729483
  0
ELLIPSE
  5
6E5
100
AcDbEntity
  8
0
100
AcDbEllipse
 62
7
  6
CONTINUOUS
 10
298.3407704576
 20
108.5146600538
 30
0.0
 11
138.1875506981
 21
152.5107332125
 31
0.0
 40
0.3239802009
 41
-0.6425501484
 42
-0.6307078748
  0
ELLIPSE
  5
6E6
100
AcDbEntity
  8
0
100
AcDbEllipse
 62
7
  6
CONTINUOUS
 10
254.5445130481
 20
212.240597275
 30
0.0
 11
5.4998870264
 21
1.9453654082
 31
0.0
 40
0.0181209681
 41
4.2294471118
 42
7.0699738404
  0
ELLIPSE
  5
6E7
100
AcDbEntity
  8
0
100
AcDbEllipse
 62
3
  6
CONTINUOUS
 10
366.8579674171
 20
270.9375030092
 30
0.0
 11
6.0515985498
 21
647.1588229461
 31
0.0
 40
0.1581083303
 41
-1.3637472075
 42
-1.3481504924
  0
ELLIPSE
  5
6E8
100
AcDbEntity
  8
0
100
AcDbEllipse
 62
3
  6
CONTINUOUS
 10
366.8579674171
 20
270.4746199814
 30
0.0
 11
6.0515985498
 21
647.1588229461
 31
0.0
 40
0.1581083303
 41
-1.3106084268
 42
-1.2948071264
  0
ENDSEC
  0
SECTION
  2
OBJECTS
  0
DICTIONARY
  5
C
100
AcDbDictionary
280
0
281
1
  3
ACAD_GROUP
350
D
  3
ACAD_MLINESTYLE
350
17
  3
ACAD_LAYOUT
350
1A
  3
ACAD_PLOTSETTINGS
350
19
  3
ACAD_PLOTSTYLENAME
350
E
  0
DICTIONARY
  5
D
102
{ACAD_REACTORS
330
C
102
}
100
AcDbDictionary
280
0
281
1
  0
ACDBDICTIONARYWDFLT
  5
E
102
{ACAD_REACTORS
330
C
102
}
100
AcDbDictionary
281
1
  3
Normal
350
F
100
AcDbDictionaryWithDefault
340
F
  0
DICTIONARY
  5
17
102
{ACAD_REACTORS
330
C
102
}
100
AcDbDictionary
280
0
281
1
  3
Standard
350
18
  0
DICTIONARY
  5
19
102
{ACAD_REACTORS
330
C
102
}
100
AcDbDictionary
281
1
  0
DICTIONARY
  5
1A
102
{ACAD_REACTORS
330
C
102
}
100
AcDbDictionary
281
1
  3
Model
350
6E9
  3
Layout1
350
6EA
  0
ACDBPLACEHOLDER
  5
F
102
{ACAD_REACTORS
330
E
102
}
  0
MLINESTYLE
  5
18
102
{ACAD_REACTORS
330
17
102
}
100
AcDbMlineStyle
  2
STANDARD
 70
0
  3

 62
256
 51
90.0
 52
90.0
 71
2
 49
0.5
 62
256
  6
BYLAYER
 49
-0.5
 62
256
  6
BYLAYER
  0
LAYOUT
  5
6E9
102
{ACAD_REACTORS
330
1A
102
}
100
AcDbPlotSettings
  1

  2
none_device
  4

  6

 40
0.0
 41
0.0
 42
0.0
 43
0.0
 44
700.0
 45
700.0
 46
0.0
 47
0.0
 48
0.0
 49
0.0
140
0.0
141
0.0
142
1.0
143
1.0
 70
1024
 72
1
 73
0
 74
0
  7

 75
0
147
1.0
148
0.0
149
0.0
100
AcDbLayout
  1
Model
 70
0
 71
0
 10
0.0
 20
0.0
 11
700.0
 21
700.0
 12
0.0
 22
0.0
 32
0.0
 14
0.0
 24
0.0
 34
0.0
 15
0.0
 25
0.0
 35
0.0
146
0.0
 13
0.0
 23
0.0
 33
0.0
 16
1.0
 26
0.0
 36
0.0
 17
0.0
 27
1.0
 37
0.0
 76
0
330
218
345
0
346
0
  0
LAYOUT
  5
6EA
102
{ACAD_REACTORS
330
1A
102
}
100
AcDbPlotSettings
  1

  2
none_device
  4

  6

 40
0.0
 41
0.0
 42
0.0
 43
0.0
 44
700.0
 45
700.0
 46
0.0
 47
0.0
 48
0.0
 49
0.0
140
0.0
141
0.0
142
1.0
143
1.0
 70
0
 72
1
 73
0
 74
0
  7

 75
0
147
1.0
148
0.0
149
0.0
100
AcDbLayout
  1
Layout1
 70
0
 71
1
 10
0.0
 20
0.0
 11
700.0
 21
700.0
 12
0.0
 22
0.0
 32
0.0
 14
0.0
 24
0.0
 34
0.0
 15
0.0
 25
0.0
 35
0.0
146
0.0
 13
0.0
 23
0.0
 33
0.0
 16
1.0
 26
0.0
 36
0.0
 17
0.0
 27
1.0
 37
0.0
 76
0
330
219
345
0
346
0
  0
ENDSEC
  0
EOF
