999
DXF file: S:\Engenharia\Wildfire\Engenharia\Produtos\Lixeiras\94538103\94538103.dxf
999
Pro/ENGINEER 2013150 by Parametric Technology Corporation
  0
SECTION
  2
HEADER
  9
$ACADVER
  1
AC1021
  9
$DWGCODEPAGE
  3
ANSI_1252
  9
$EXTMAX
 10
558.8
 20
431.8
 30
0.0
  9
$EXTMIN
 10
0.0
 20
0.0
 30
0.0
  9
$LIMMIN
 10
0.0
 20
0.0
  9
$LIMMAX
 10
558.8
 20
431.8
  9
$VIEWCTR
 10
279.4
 20
215.9
  9
$VIEWSIZE
 40
431.8
  9
$CLAYER
  8
0
  9
$LTSCALE
 40
30.734
  9
$CELTYPE
  6
BYLAYER
  9
$DIMSCALE
 40
1.0
  9
$DIMASZ
 40
3.0
  9
$DIMEXO
 40
0.5
  9
$DIMDLI
 40
21.2344
  9
$DIMEXE
 40
0.5
  9
$DIMCEN
 40
5.0292
  9
$DIMLFAC
 40
1.0
  9
$DIMBLK
  1
_FILLED
  9
$DIMTXT
 40
1.8
  9
$DIMTOL
 70
1
  9
$DIMLIM
 70
0
  9
$DIMTFAC
 40
1.0
  9
$DIMTP
 40
0.001
  9
$DIMTM
 40
0.001
  9
$DIMGAP
 40
0.625
  9
$DIMDSEP
 70
46
  9
$PDMODE
 70
3
  9
$PDSIZE
 40
1.0
  9
$HANDSEED
  5
556
  9
$TILEMODE
 70
1
  9
$MEASUREMENT
 70
1
  9
$INSUNITS
 70
4
  0
ENDSEC
  0
SECTION
  2
CLASSES
  0
CLASS
  1
ACDBDICTIONARYWDFLT
  2
AcDbDictionaryWithDefault
  3
AutoCAD 2000
 90
0
 91
1
280
0
281
0
  0
CLASS
  1
ACDBPLACEHOLDER
  2
AcDbPlaceHolder
  3
AutoCAD 2000
 90
0
 91
1
280
0
281
0
  0
CLASS
  1
LAYOUT
  2
AcDbLayout
  3
AutoCAD 2000
 90
0
 91
0
280
0
281
0
  0
ENDSEC
  0
SECTION
  2
TABLES
  0
TABLE
  2
VPORT
  5
8
100
AcDbSymbolTable
 70
2
  0
VPORT
  5
1F4
100
AcDbSymbolTableRecord
100
AcDbViewportTableRecord
  2
*ACTIVE
 70
0
 10
0.0
 20
0.0
 11
1.0
 21
1.0
 12
279.4
 22
215.9
 13
0.0
 23
0.0
 14
1.0
 24
1.0
 15
0.0
 25
0.0
 16
0.0
 26
0.0
 36
1.0
 17
0.0
 27
0.0
 37
0.0
 40
431.8
 41
1.2941176471
 42
50.0
 43
0.0
 44
0.0
 50
0.0
 51
0.0
 71
0
 72
100
 73
1
 74
1
 75
0
 76
0
 77
0
 78
0
  0
ENDTAB
  0
TABLE
  2
LTYPE
  5
5
100
AcDbSymbolTable
 70
6
  0
LTYPE
  5
14
100
AcDbSymbolTableRecord
100
AcDbLinetypeTableRecord
  2
BYBLOCK
 70
0
  3

 72
65
 73
0
 40
0.0
  0
LTYPE
  5
15
100
AcDbSymbolTableRecord
100
AcDbLinetypeTableRecord
  2
BYLAYER
 70
0
  3

 72
65
 73
0
 40
0.0
  0
LTYPE
  5
16
100
AcDbSymbolTableRecord
100
AcDbLinetypeTableRecord
  2
CONTINUOUS
 70
64
  3
Solid line
 72
65
 73
0
 40
0.0
  0
LTYPE
  5
1F5
100
AcDbSymbolTableRecord
100
AcDbLinetypeTableRecord
  2
CENTER
 70
64
  3
____ _ ____ _ ____ _ ____ _ ____ _ ____ _ ____
 72
65
 73
4
 40
0.6
 49
0.375
 74
0
 49
-0.075
 74
0
 49
0.075
 74
0
 49
-0.075
 74
0
  0
LTYPE
  5
1F6
100
AcDbSymbolTableRecord
100
AcDbLinetypeTableRecord
  2
HIDDEN
 70
64
  3
- - - - - - - - - - - - - - - - - - - -
 72
65
 73
2
 40
0.2
 49
0.1
 74
0
 49
-0.1
 74
0
  0
LTYPE
  5
1F7
100
AcDbSymbolTableRecord
100
AcDbLinetypeTableRecord
  2
PHANTOM
 70
64
  3
_____ _ _ _____ _ _ _____ _ _ _____
 72
65
 73
6
 40
0.8
 49
0.45
 74
0
 49
-0.05
 74
0
 49
0.1
 74
0
 49
-0.05
 74
0
 49
0.1
 74
0
 49
-0.05
 74
0
  0
LTYPE
  5
1F8
100
AcDbSymbolTableRecord
100
AcDbLinetypeTableRecord
  2
DOT
 70
64
  3
. . . . . . . . . . . . . . . . . . . .
 72
65
 73
2
 40
0.2
 49
0.1
 74
0
 49
-0.1
 74
0
  0
LTYPE
  5
1F9
100
AcDbSymbolTableRecord
100
AcDbLinetypeTableRecord
  2
DASHED
 70
64
  3
- - - - - - - - - - - - - - - - - - - -
 72
65
 73
2
 40
0.2
 49
0.1
 74
0
 49
-0.1
 74
0
  0
ENDTAB
  0
TABLE
  2
LAYER
  5
2
100
AcDbSymbolTable
 70
36
  0
LAYER
  5
10
100
AcDbSymbolTableRecord
100
AcDbLayerTableRecord
  2
0
 70
0
 62
7
  6
CONTINUOUS
370
-3
390
F
  0
LAYER
  5
1FA
100
AcDbSymbolTableRecord
100
AcDbLayerTableRecord
  2
DEFAULT_1
 70
0
 62
7
  6
CENTER
370
-3
390
F
  0
LAYER
  5
1FB
100
AcDbSymbolTableRecord
100
AcDbLayerTableRecord
  2
DEFAULT_2
 70
0
 62
8
  6
HIDDEN
370
-3
390
F
  0
LAYER
  5
1FC
100
AcDbSymbolTableRecord
100
AcDbLayerTableRecord
  2
DEFAULT_3
 70
0
 62
7
  6
PHANTOM
370
-3
390
F
  0
LAYER
  5
1FD
100
AcDbSymbolTableRecord
100
AcDbLayerTableRecord
  2
01_ALL_DTM_PLN
 70
0
 62
7
  6
CONTINUOUS
370
-3
390
F
  0
LAYER
  5
1FE
100
AcDbSymbolTableRecord
100
AcDbLayerTableRecord
  2
01__ASM_ALL_DTM_PLN
 70
0
 62
7
  6
CONTINUOUS
370
-3
390
F
  0
LAYER
  5
1FF
100
AcDbSymbolTableRecord
100
AcDbLayerTableRecord
  2
01__ASM_DEF_DTM_PLN
 70
0
 62
7
  6
CONTINUOUS
370
-3
390
F
  0
LAYER
  5
200
100
AcDbSymbolTableRecord
100
AcDbLayerTableRecord
  2
01___PRT_ALL_DTM_PLN
 70
0
 62
7
  6
CONTINUOUS
370
-3
390
F
  0
LAYER
  5
201
100
AcDbSymbolTableRecord
100
AcDbLayerTableRecord
  2
01___PRT_DEF_DTM_PLN
 70
0
 62
7
  6
CONTINUOUS
370
-3
390
F
  0
LAYER
  5
202
100
AcDbSymbolTableRecord
100
AcDbLayerTableRecord
  2
02_ALL_AXES
 70
0
 62
7
  6
CONTINUOUS
370
-3
390
F
  0
LAYER
  5
203
100
AcDbSymbolTableRecord
100
AcDbLayerTableRecord
  2
02__ASM_ALL_AXES
 70
0
 62
7
  6
CONTINUOUS
370
-3
390
F
  0
LAYER
  5
204
100
AcDbSymbolTableRecord
100
AcDbLayerTableRecord
  2
02___PRT_ALL_AXES
 70
0
 62
7
  6
CONTINUOUS
370
-3
390
F
  0
LAYER
  5
205
100
AcDbSymbolTableRecord
100
AcDbLayerTableRecord
  2
03_ALL_CURVES
 70
0
 62
7
  6
CONTINUOUS
370
-3
390
F
  0
LAYER
  5
206
100
AcDbSymbolTableRecord
100
AcDbLayerTableRecord
  2
03__ASM_ALL_CURVES
 70
0
 62
7
  6
CONTINUOUS
370
-3
390
F
  0
LAYER
  5
207
100
AcDbSymbolTableRecord
100
AcDbLayerTableRecord
  2
03___PRT_ALL_CURVES
 70
0
 62
7
  6
CONTINUOUS
370
-3
390
F
  0
LAYER
  5
208
100
AcDbSymbolTableRecord
100
AcDbLayerTableRecord
  2
04_ALL_DTM_PNT
 70
0
 62
7
  6
CONTINUOUS
370
-3
390
F
  0
LAYER
  5
209
100
AcDbSymbolTableRecord
100
AcDbLayerTableRecord
  2
04__ASM_ALL_DTM_PNT
 70
0
 62
7
  6
CONTINUOUS
370
-3
390
F
  0
LAYER
  5
20A
100
AcDbSymbolTableRecord
100
AcDbLayerTableRecord
  2
04___PRT_ALL_DTM_PNT
 70
0
 62
7
  6
CONTINUOUS
370
-3
390
F
  0
LAYER
  5
20B
100
AcDbSymbolTableRecord
100
AcDbLayerTableRecord
  2
05_ALL_DTM_CSYS
 70
0
 62
7
  6
CONTINUOUS
370
-3
390
F
  0
LAYER
  5
20C
100
AcDbSymbolTableRecord
100
AcDbLayerTableRecord
  2
05__ASM_ALL_DTM_CSYS
 70
0
 62
7
  6
CONTINUOUS
370
-3
390
F
  0
LAYER
  5
20D
100
AcDbSymbolTableRecord
100
AcDbLayerTableRecord
  2
05__ASM_DEF_DTM_CSYS
 70
0
 62
7
  6
CONTINUOUS
370
-3
390
F
  0
LAYER
  5
20E
100
AcDbSymbolTableRecord
100
AcDbLayerTableRecord
  2
05___PRT_ALL_DTM_CSYS
 70
0
 62
7
  6
CONTINUOUS
370
-3
390
F
  0
LAYER
  5
20F
100
AcDbSymbolTableRecord
100
AcDbLayerTableRecord
  2
05___PRT_DEF_DTM_CSYS
 70
0
 62
7
  6
CONTINUOUS
370
-3
390
F
  0
LAYER
  5
210
100
AcDbSymbolTableRecord
100
AcDbLayerTableRecord
  2
06_ALL_SURFS
 70
0
 62
7
  6
CONTINUOUS
370
-3
390
F
  0
LAYER
  5
211
100
AcDbSymbolTableRecord
100
AcDbLayerTableRecord
  2
06__ASM_ALL_SURFS
 70
0
 62
7
  6
CONTINUOUS
370
-3
390
F
  0
LAYER
  5
212
100
AcDbSymbolTableRecord
100
AcDbLayerTableRecord
  2
06___PRT_ALL_SURFS
 70
0
 62
7
  6
CONTINUOUS
370
-3
390
F
  0
LAYER
  5
213
100
AcDbSymbolTableRecord
100
AcDbLayerTableRecord
  2
07__ASM_ALL_SKELETONS
 70
0
 62
7
  6
CONTINUOUS
370
-3
390
F
  0
LAYER
  5
214
100
AcDbSymbolTableRecord
100
AcDbLayerTableRecord
  2
ABERTO
 70
0
 62
7
  6
CONTINUOUS
370
-3
390
F
  0
ENDTAB
  0
TABLE
  2
STYLE
  5
3
100
AcDbSymbolTable
 70
1
  0
STYLE
  5
11
100
AcDbSymbolTableRecord
100
AcDbTextStyleTableRecord
  2
STANDARD
 70
0
 40
0.0
 41
0.8
 50
0.0
 71
0
 42
0.2
  3
txt
  4

  0
STYLE
  5
215
100
AcDbSymbolTableRecord
100
AcDbTextStyleTableRecord
  2
TEXTSTYLE_1
 70
0
 40
0.0
 41
0.8
 50
0.0
 71
0
 42
0.2
  3
gdt
  4

  0
ENDTAB
  0
TABLE
  2
VIEW
  5
6
100
AcDbSymbolTable
 70
0
  0
ENDTAB
  0
TABLE
  2
UCS
  5
7
100
AcDbSymbolTable
 70
0
  0
ENDTAB
  0
TABLE
  2
APPID
  5
9
100
AcDbSymbolTable
 70
1
  0
APPID
  5
216
100
AcDbSymbolTableRecord
100
AcDbRegAppTableRecord
  2
ACAD
 70
0
  0
ENDTAB
  0
TABLE
  2
BLOCK_RECORD
  5
1
100
AcDbSymbolTable
 70
0
  0
BLOCK_RECORD
  5
217
100
AcDbSymbolTableRecord
100
AcDbBlockTableRecord
  2
*Model_Space
  0
BLOCK_RECORD
  5
218
100
AcDbSymbolTableRecord
100
AcDbBlockTableRecord
  2
*Paper_Space
  0
BLOCK_RECORD
  5
219
100
AcDbSymbolTableRecord
100
AcDbBlockTableRecord
  2
_FILLED
  0
BLOCK_RECORD
  5
21A
100
AcDbSymbolTableRecord
100
AcDbBlockTableRecord
  2
*D0
  0
BLOCK_RECORD
  5
21B
100
AcDbSymbolTableRecord
100
AcDbBlockTableRecord
  2
*D1
  0
ENDTAB
  0
TABLE
  2
DIMSTYLE
  5
A
100
AcDbSymbolTable
 70
1
100
AcDbDimStyleTable
 71
0
  0
DIMSTYLE
105
21C
100
AcDbSymbolTableRecord
100
AcDbDimStyleTableRecord
  2
STANDARD
 70
0
  3

  4

 40
1.0
 41
3.0
 42
0.5
 43
0.38
 44
0.5
 45
0.0
 46
0.0
 47
0.001
 48
0.001
140
1.8
141
0.09
142
0.0
143
25.4
144
1.0
145
0.0
146
1.0
147
0.625
 71
1.0
 72
0.0
 73
0
 74
0
 75
0
 76
0
 77
1
 78
8
170
0
171
2
172
0
173
0
174
0
175
0
176
0
177
0
178
0
270
2
271
3
272
3
273
2
274
2
275
0
280
0
281
0
282
0
283
1
284
8
285
0
286
0
287
3
288
0
340
11
278
46
341
219
342
219
343
219
344
219
  0
DIMSTYLE
105
21D
100
AcDbSymbolTableRecord
100
AcDbDimStyleTableRecord
  2
DIMSTYLE_1
 70
0
  3

  4

 40
1.0
 41
3.0
 42
0.5
 43
0.38
 44
0.5
 45
0.0
 46
0.0
 47
0.001
 48
0.001
140
1.8
141
0.09
142
0.0
143
25.4
144
1.0
145
0.0
146
1.0
147
0.45
 71
0.0
 72
0.0
 73
0
 74
0
 75
0
 76
0
 77
1
 78
8
170
0
171
2
172
0
173
0
174
0
175
0
176
0
177
0
178
0
270
2
271
3
272
3
273
2
274
2
275
0
280
0
281
0
282
0
283
1
284
8
285
0
286
0
287
3
288
0
340
11
278
46
341
219
342
219
343
219
344
219
  0
ENDTAB
  0
ENDSEC
  0
SECTION
  2
BLOCKS
  0
BLOCK
  5
20
100
AcDbEntity
  8
0
100
AcDbBlockBegin
  2
*Model_Space
 70
0
 10
0.0
 20
0.0
 30
0.0
  3
*Model_Space
  1

  0
ENDBLK
  5
21
100
AcDbEntity
  8
0
100
AcDbBlockEnd
  0
BLOCK
  5
1C
100
AcDbEntity
  8
0
100
AcDbBlockBegin
  2
*Paper_Space
 70
0
 10
0.0
 20
0.0
 30
0.0
  3
*Paper_Space
  1

  0
ENDBLK
  5
1D
100
AcDbEntity
  8
0
100
AcDbBlockEnd
  0
BLOCK
  5
21E
100
AcDbEntity
  8
0
100
AcDbBlockBegin
  2
_FILLED
 70
64
 10
0.0
 20
0.0
  3
_FILLED
  1

  0
SOLID
  5
21F
100
AcDbEntity
  8
0
  6
BYBLOCK
 62
0
100
AcDbTrace
 10
0.0
 20
0.0
 11
-1.0
 21
0.1666666667
 12
-1.0
 22
-0.1666666667
 13
-1.0
 23
-0.1666666667
  0
ENDBLK
  5
220
100
AcDbEntity
  8
0
  6
BYBLOCK
 62
0
100
AcDbBlockEnd
  0
BLOCK
  5
221
100
AcDbEntity
  8
0
100
AcDbBlockBegin
 62
2
  6
CONTINUOUS
  2
*D0
 70
65
 10
0.0
 20
0.0
  3
*D0
  1

  0
MTEXT
  5
222
100
AcDbEntity
  8
0
100
AcDbMText
 62
2
  6
CONTINUOUS
  7
TEXTSTYLE_1
 71
2
 72
1
 10
275.536927402
 20
370.7727460084
 30
0.0
 11
1.0
 21
0.0
 31
0.0
 44
0.9
  1
{\Fgdt;n}\Ftxt;170
 40
1.8
 41
11.9314285714
  0
LINE
  5
223
100
AcDbEntity
  8
0
100
AcDbLine
 62
2
  6
CONTINUOUS
 10
190.536927402
 20
336.0691378257
 11
190.536927402
 21
368.701317437
  0
LINE
  5
224
100
AcDbEntity
  8
0
100
AcDbLine
 62
2
  6
CONTINUOUS
 10
360.536927402
 20
336.0691378257
 11
360.536927402
 21
368.701317437
  0
LINE
  5
225
100
AcDbEntity
  8
0
100
AcDbLine
 62
2
  6
CONTINUOUS
 10
190.536927402
 20
368.201317437
 11
275.536927402
 21
368.201317437
  0
LINE
  5
226
100
AcDbEntity
  8
0
100
AcDbLine
 62
2
  6
CONTINUOUS
 10
360.536927402
 20
368.201317437
 11
275.536927402
 21
368.201317437
  0
INSERT
  5
227
100
AcDbEntity
  8
0
100
AcDbBlockReference
 62
2
  6
CONTINUOUS
  2
_FILLED
 10
190.536927402
 20
368.201317437
 41
3.0
 42
3.0
 43
3.0
 50
180.0
  0
INSERT
  5
228
100
AcDbEntity
  8
0
100
AcDbBlockReference
 62
2
  6
CONTINUOUS
  2
_FILLED
 10
360.536927402
 20
368.201317437
 41
3.0
 42
3.0
 43
3.0
  0
ENDBLK
  5
229
100
AcDbEntity
  8
0
  6
BYBLOCK
 62
0
100
AcDbBlockEnd
  0
BLOCK
  5
22A
100
AcDbEntity
  8
0
100
AcDbBlockBegin
 62
2
  6
CONTINUOUS
  2
*D1
 70
65
 10
0.0
 20
0.0
  3
*D1
  1

  0
MTEXT
  5
22B
100
AcDbEntity
  8
0
100
AcDbMText
 62
2
  6
CONTINUOUS
  7
STANDARD
 71
2
 72
1
 10
401.7071830219
 20
210.9511808206
 30
0.0
 11
0.0
 21
1.0
 31
0.0
 44
0.9
  1
270
 40
1.8
 41
8.3314285714
  0
LINE
  5
22C
100
AcDbEntity
  8
0
100
AcDbLine
 62
2
  6
CONTINUOUS
 10
276.036927402
 20
346.4511808206
 11
404.7786115933
 21
346.4511808206
  0
LINE
  5
22D
100
AcDbEntity
  8
0
100
AcDbLine
 62
2
  6
CONTINUOUS
 10
345.2766839112
 20
75.4511808206
 11
404.7786115933
 21
75.4511808206
  0
LINE
  5
22E
100
AcDbEntity
  8
0
100
AcDbLine
 62
2
  6
CONTINUOUS
 10
404.2786115933
 20
346.4511808206
 11
404.2786115933
 21
210.9511808206
  0
LINE
  5
22F
100
AcDbEntity
  8
0
100
AcDbLine
 62
2
  6
CONTINUOUS
 10
404.2786115933
 20
75.4511808206
 11
404.2786115933
 21
210.9511808206
  0
INSERT
  5
230
100
AcDbEntity
  8
0
100
AcDbBlockReference
 62
2
  6
CONTINUOUS
  2
_FILLED
 10
404.2786115933
 20
346.4511808206
 41
3.0
 42
3.0
 43
3.0
 50
90.0
  0
INSERT
  5
231
100
AcDbEntity
  8
0
100
AcDbBlockReference
 62
2
  6
CONTINUOUS
  2
_FILLED
 10
404.2786115933
 20
75.4511808206
 41
3.0
 42
3.0
 43
3.0
 50
270.0
  0
ENDBLK
  5
232
100
AcDbEntity
  8
0
  6
BYBLOCK
 62
0
100
AcDbBlockEnd
  0
ENDSEC
  0
SECTION
  2
ENTITIES
  0
DIMENSION
  5
233
100
AcDbEntity
  8
0
100
AcDbDimension
 62
2
  6
CONTINUOUS
  2
*D0
 10
360.536927402
 20
368.201317437
 11
275.536927402
 21
368.201317437
 70
160
 71
2
 42
170.0
  1
%%c<>
  3
DIMSTYLE_1
100
AcDbAlignedDimension
 13
190.536927402
 23
335.5691378257
 14
360.536927402
 24
335.5691378257
100
AcDbRotatedDimension
  0
DIMENSION
  5
234
100
AcDbEntity
  8
0
100
AcDbDimension
 62
2
  6
CONTINUOUS
  2
*D1
 10
404.2786115933
 20
75.4511808206
 11
404.2786115933
 21
210.9511808206
 70
160
 71
2
 42
271.0
  3
DIMSTYLE_1
100
AcDbAlignedDimension
 13
275.536927402
 23
346.4511808206
 14
344.7766839112
 24
75.4511808206
 50
270.0
100
AcDbRotatedDimension
  0
LINE
  5
235
100
AcDbEntity
  8
0
100
AcDbLine
 62
7
  6
CONTINUOUS
 10
165.1631687907
 20
78.9511808206
 11
165.1535538755
 21
78.9547480166
  0
LINE
  5
236
100
AcDbEntity
  8
0
100
AcDbLine
 62
7
  6
CONTINUOUS
 10
344.7636006613
 20
75.4511808206
 11
338.4268672093
 21
75.4511808206
  0
LINE
  5
237
100
AcDbEntity
  8
0
100
AcDbLine
 62
7
  6
CONTINUOUS
 10
206.3102541426
 20
75.4511808206
 11
212.6469875947
 21
75.4511808206
  0
LINE
  5
238
100
AcDbEntity
  8
0
100
AcDbLine
 62
7
  6
CONTINUOUS
 10
214.7136768496
 20
75.4511808206
 11
221.5129583702
 21
75.4511808206
  0
LINE
  5
239
100
AcDbEntity
  8
0
100
AcDbLine
 62
7
  6
CONTINUOUS
 10
329.5608964337
 20
75.4511808206
 11
336.3601779543
 21
75.4511808206
  0
LINE
  5
23A
100
AcDbEntity
  8
0
100
AcDbLine
 62
7
  6
CONTINUOUS
 10
177.6988254039
 20
75.9511808206
 11
165.1545749481
 21
75.9511808206
  0
LINE
  5
23B
100
AcDbEntity
  8
0
100
AcDbLine
 62
7
  6
CONTINUOUS
 10
363.4237317039
 20
76.9511808206
 11
345.038767561
 21
76.9511808206
  0
LINE
  5
23C
100
AcDbEntity
  8
0
100
AcDbLine
 62
7
  6
CONTINUOUS
 10
338.4781772711
 20
76.9511808206
 11
221.7449644646
 21
76.9511808206
  0
LINE
  5
23D
100
AcDbEntity
  8
0
100
AcDbLine
 62
7
  6
CONTINUOUS
 10
165.5817076331
 20
76.9511808206
 11
168.0231842142
 21
76.9511808206
  0
LINE
  5
23E
100
AcDbEntity
  8
0
100
AcDbLine
 62
7
  6
CONTINUOUS
 10
178.6963894542
 20
76.9511808206
 11
214.1978686624
 21
76.9511808206
  0
LINE
  5
23F
100
AcDbEntity
  8
0
100
AcDbLine
 62
7
  6
CONTINUOUS
 10
165.1631687907
 20
78.9511808206
 11
168.4417230566
 21
78.9511808206
  0
LINE
  5
240
100
AcDbEntity
  8
0
100
AcDbLine
 62
7
  6
CONTINUOUS
 10
197.2226105996
 20
81.9511808206
 11
360.5361500863
 21
81.9511808206
  0
LINE
  5
241
100
AcDbEntity
  8
0
100
AcDbLine
 62
7
  6
CONTINUOUS
 10
174.1696598895
 20
107.2173205468
 11
184.3413922403
 21
92.9198459839
  0
LINE
  5
242
100
AcDbEntity
  8
0
100
AcDbLine
 62
7
  6
CONTINUOUS
 10
180.662103082
 20
106.3026390431
 11
188.2199851004
 21
95.6792150107
  0
LINE
  5
243
100
AcDbEntity
  8
02___PRT_ALL_AXES
100
AcDbLine
 62
3
  6
CONTINUOUS
 10
201.5185351686
 20
340.7346262658
 11
202.6713738017
 21
342.7314013513
  0
LINE
  5
244
100
AcDbEntity
  8
0
100
AcDbLine
 62
3
  6
CONTINUOUS
 10
358.6367533624
 20
82.1511808206
 11
197.2226105996
 21
82.1511808206
  0
LINE
  5
245
100
AcDbEntity
  8
0
100
AcDbLine
 62
7
  6
CONTINUOUS
 10
177.6449417098
 20
82.9178474873
 11
178.3053848633
 21
82.9178474873
  0
LINE
  5
246
100
AcDbEntity
  8
0
100
AcDbLine
 62
3
  6
CONTINUOUS
 10
360.736927402
 20
84.0511808206
 11
360.6798465347
 21
84.0511808206
  0
LINE
  5
247
100
AcDbEntity
  8
0
100
AcDbLine
 62
7
  6
CONTINUOUS
 10
360.6798465347
 20
84.0511808206
 11
360.2801148349
 21
84.0511808206
  0
LINE
  5
248
100
AcDbEntity
  8
0
100
AcDbLine
 62
3
  6
CONTINUOUS
 10
360.2801148349
 20
84.0511808206
 11
197.2226105996
 21
84.0511808206
  0
LINE
  5
249
100
AcDbEntity
  8
0
100
AcDbLine
 62
3
  6
CONTINUOUS
 10
360.6798465347
 20
87.1511808206
 11
360.4643188967
 21
87.1511808206
  0
LINE
  5
24A
100
AcDbEntity
  8
0
100
AcDbLine
 62
7
  6
CONTINUOUS
 10
360.6842793093
 20
87.6666508744
 11
361.1369266635
 21
87.6666508744
  0
LINE
  5
24B
100
AcDbEntity
  8
0
100
AcDbLine
 62
3
  6
CONTINUOUS
 10
360.4331589168
 20
88.5511808206
 11
360.4336386008
 21
88.5511808206
  0
LINE
  5
24C
100
AcDbEntity
  8
0
100
AcDbLine
 62
7
  6
CONTINUOUS
 10
168.0231842142
 20
76.9511808206
 11
168.0929406879
 21
75.9511808206
  0
LINE
  5
24D
100
AcDbEntity
  8
06___PRT_ALL_SURFS
100
AcDbLine
 62
7
  6
CONTINUOUS
 10
156.1801203687
 20
109.2079059558
 11
156.1801203687
 21
112.4511808206
  0
LINE
  5
24E
100
AcDbEntity
  8
0
100
AcDbLine
 62
7
  6
CONTINUOUS
 10
156.1947360671
 20
112.4511808206
 11
156.1947360671
 21
109.2101663625
  0
LINE
  5
24F
100
AcDbEntity
  8
0
100
AcDbLine
 62
7
  6
CONTINUOUS
 10
159.6476815175
 20
112.4511808206
 11
159.6476815175
 21
109.2101663625
  0
LINE
  5
250
100
AcDbEntity
  8
0
100
AcDbLine
 62
7
  6
CONTINUOUS
 10
161.8034354105
 20
108.9411456916
 11
161.8034354105
 21
108.3669213543
  0
LINE
  5
251
100
AcDbEntity
  8
0
100
AcDbLine
 62
7
  6
CONTINUOUS
 10
162.2498768424
 20
114.5511808206
 11
162.2498768424
 21
115.0511808206
  0
LINE
  5
252
100
AcDbEntity
  8
0
100
AcDbLine
 62
7
  6
CONTINUOUS
 10
162.3893897899
 20
114.5511808206
 11
162.3893897899
 21
115.0511808206
  0
LINE
  5
253
100
AcDbEntity
  8
0
100
AcDbLine
 62
7
  6
CONTINUOUS
 10
162.4940245005
 20
114.5511808206
 11
162.4940245005
 21
115.0511808206
  0
LINE
  5
254
100
AcDbEntity
  8
0
100
AcDbLine
 62
7
  6
CONTINUOUS
 10
162.633537448
 20
114.5511808206
 11
162.633537448
 21
115.0511808206
  0
LINE
  5
255
100
AcDbEntity
  8
0
100
AcDbLine
 62
7
  6
CONTINUOUS
 10
162.7381721587
 20
114.5511808206
 11
162.7381721587
 21
115.0511808206
  0
LINE
  5
256
100
AcDbEntity
  8
0
100
AcDbLine
 62
7
  6
CONTINUOUS
 10
162.8776851061
 20
114.5511808206
 11
162.8776851061
 21
115.0511808206
  0
LINE
  5
257
100
AcDbEntity
  8
0
100
AcDbLine
 62
7
  6
CONTINUOUS
 10
162.9823198168
 20
114.5511808206
 11
162.9823198168
 21
115.0511808206
  0
LINE
  5
258
100
AcDbEntity
  8
0
100
AcDbLine
 62
7
  6
CONTINUOUS
 10
163.1218327642
 20
114.5511808206
 11
163.1218327642
 21
115.0511808206
  0
LINE
  5
259
100
AcDbEntity
  8
0
100
AcDbLine
 62
7
  6
CONTINUOUS
 10
163.2264674749
 20
114.5511808206
 11
163.2264674749
 21
115.0511808206
  0
LINE
  5
25A
100
AcDbEntity
  8
0
100
AcDbLine
 62
7
  6
CONTINUOUS
 10
163.3659804223
 20
114.5511808206
 11
163.3659804223
 21
115.0511808206
  0
LINE
  5
25B
100
AcDbEntity
  8
0
100
AcDbLine
 62
7
  6
CONTINUOUS
 10
163.470615133
 20
114.5511808206
 11
163.470615133
 21
115.0511808206
  0
LINE
  5
25C
100
AcDbEntity
  8
0
100
AcDbLine
 62
7
  6
CONTINUOUS
 10
163.6101280805
 20
114.5511808206
 11
163.6101280805
 21
115.0511808206
  0
LINE
  5
25D
100
AcDbEntity
  8
0
100
AcDbLine
 62
7
  6
CONTINUOUS
 10
163.7147627911
 20
114.5511808206
 11
163.7147627911
 21
115.0511808206
  0
LINE
  5
25E
100
AcDbEntity
  8
0
100
AcDbLine
 62
7
  6
CONTINUOUS
 10
163.8542757386
 20
114.5511808206
 11
163.8542757386
 21
115.0511808206
  0
LINE
  5
25F
100
AcDbEntity
  8
0
100
AcDbLine
 62
7
  6
CONTINUOUS
 10
163.9589104492
 20
114.5511808206
 11
163.9589104492
 21
115.0511808206
  0
LINE
  5
260
100
AcDbEntity
  8
0
100
AcDbLine
 62
7
  6
CONTINUOUS
 10
164.0984233967
 20
114.5511808206
 11
164.0984233967
 21
115.0511808206
  0
LINE
  5
261
100
AcDbEntity
  8
0
100
AcDbLine
 62
7
  6
CONTINUOUS
 10
164.2030581073
 20
114.5511808206
 11
164.2030581073
 21
115.0511808206
  0
LINE
  5
262
100
AcDbEntity
  8
0
100
AcDbLine
 62
7
  6
CONTINUOUS
 10
164.3425710548
 20
114.5511808206
 11
164.3425710548
 21
115.0511808206
  0
LINE
  5
263
100
AcDbEntity
  8
0
100
AcDbLine
 62
7
  6
CONTINUOUS
 10
164.4472057654
 20
114.5511808206
 11
164.4472057654
 21
115.0511808206
  0
LINE
  5
264
100
AcDbEntity
  8
0
100
AcDbLine
 62
7
  6
CONTINUOUS
 10
164.5867187129
 20
114.5511808206
 11
164.5867187129
 21
115.0511808206
  0
LINE
  5
265
100
AcDbEntity
  8
0
100
AcDbLine
 62
7
  6
CONTINUOUS
 10
164.6913534235
 20
114.5511808206
 11
164.6913534235
 21
115.0511808206
  0
LINE
  5
266
100
AcDbEntity
  8
0
100
AcDbLine
 62
7
  6
CONTINUOUS
 10
164.830866371
 20
114.5511808206
 11
164.830866371
 21
115.0511808206
  0
LINE
  5
267
100
AcDbEntity
  8
0
100
AcDbLine
 62
7
  6
CONTINUOUS
 10
164.9355010816
 20
114.5511808206
 11
164.9355010816
 21
115.0511808206
  0
LINE
  5
268
100
AcDbEntity
  8
0
100
AcDbLine
 62
7
  6
CONTINUOUS
 10
165.0750140291
 20
114.5511808206
 11
165.0750140291
 21
115.0511808206
  0
LINE
  5
269
100
AcDbEntity
  8
0
100
AcDbLine
 62
7
  6
CONTINUOUS
 10
165.1534249917
 20
78.9636305172
 11
165.1534249917
 21
75.9511808206
  0
LINE
  5
26A
100
AcDbEntity
  8
0
100
AcDbLine
 62
7
  6
CONTINUOUS
 10
165.1631687907
 20
78.9511808206
 11
165.1631687907
 21
75.9511808206
  0
LINE
  5
26B
100
AcDbEntity
  8
0
100
AcDbLine
 62
7
  6
CONTINUOUS
 10
165.1796487397
 20
114.5511808206
 11
165.1796487397
 21
115.0511808206
  0
LINE
  5
26C
100
AcDbEntity
  8
0
100
AcDbLine
 62
7
  6
CONTINUOUS
 10
165.3191616872
 20
114.5511808206
 11
165.3191616872
 21
115.0511808206
  0
LINE
  5
26D
100
AcDbEntity
  8
0
100
AcDbLine
 62
7
  6
CONTINUOUS
 10
165.4237963978
 20
114.5511808206
 11
165.4237963978
 21
115.0511808206
  0
LINE
  5
26E
100
AcDbEntity
  8
0
100
AcDbLine
 62
7
  6
CONTINUOUS
 10
165.5633093453
 20
114.5511808206
 11
165.5633093453
 21
115.0511808206
  0
LINE
  5
26F
100
AcDbEntity
  8
0
100
AcDbLine
 62
7
  6
CONTINUOUS
 10
166.0516046615
 20
112.4511808206
 11
166.0516046615
 21
108.3669213543
  0
LINE
  5
270
100
AcDbEntity
  8
0
100
AcDbLine
 62
7
  6
CONTINUOUS
 10
191.3687055105
 20
94.5811808206
 11
196.8043814333
 21
94.5811808206
  0
LINE
  5
271
100
AcDbEntity
  8
0
100
AcDbLine
 62
7
  6
CONTINUOUS
 10
198.5641492562
 20
97.7011808206
 11
198.1382408928
 21
97.7011808206
  0
LINE
  5
272
100
AcDbEntity
  8
0
100
AcDbLine
 62
7
  6
CONTINUOUS
 10
161.7615815262
 20
108.3669213543
 11
167.8662980633
 21
107.5068643409
  0
LINE
  5
273
100
AcDbEntity
  8
0
100
AcDbLine
 62
7
  6
CONTINUOUS
 10
174.4508304957
 20
106.5792089348
 11
174.6428847892
 21
106.5521515537
  0
LINE
  5
274
100
AcDbEntity
  8
0
100
AcDbLine
 62
7
  6
CONTINUOUS
 10
181.1353279817
 20
105.63747005
 11
190.536927402
 21
104.3129349189
  0
LINE
  5
275
100
AcDbEntity
  8
0
100
AcDbLine
 62
7
  6
CONTINUOUS
 10
198.5641492562
 20
103.1820276258
 11
198.8623130999
 21
103.1400211046
  0
LINE
  5
276
100
AcDbEntity
  8
0
100
AcDbLine
 62
7
  6
CONTINUOUS
 10
161.8034354105
 20
108.3669213543
 11
167.8704135659
 21
107.5121810759
  0
LINE
  5
277
100
AcDbEntity
  8
0
100
AcDbLine
 62
7
  6
CONTINUOUS
 10
174.4575068481
 20
106.5841648869
 11
174.6382224749
 21
106.5587049428
  0
LINE
  5
278
100
AcDbEntity
  8
0
100
AcDbLine
 62
7
  6
CONTINUOUS
 10
181.1306656674
 20
105.6440234391
 11
190.536927402
 21
104.3188314624
  0
LINE
  5
279
100
AcDbEntity
  8
0
100
AcDbLine
 62
7
  6
CONTINUOUS
 10
198.5641492562
 20
103.1879241693
 11
198.8623130999
 21
103.1459176481
  0
LINE
  5
27A
100
AcDbEntity
  8
0
100
AcDbLine
 62
7
  6
CONTINUOUS
 10
166.0097507772
 20
108.3669213543
 11
198.8623130999
 21
103.738520271
  0
LINE
  5
27B
100
AcDbEntity
  8
0
100
AcDbLine
 62
7
  6
CONTINUOUS
 10
166.0516046615
 20
108.3669213543
 11
198.8623130999
 21
103.7444168145
  0
LINE
  5
27C
100
AcDbEntity
  8
0
100
AcDbLine
 62
7
  6
CONTINUOUS
 10
167.5584374458
 20
114.5511808206
 11
167.5584374458
 21
115.0511808206
  0
LINE
  5
27D
100
AcDbEntity
  8
0
100
AcDbLine
 62
7
  6
CONTINUOUS
 10
167.5898975726
 20
114.5511808206
 11
167.5898975726
 21
115.0511808206
  0
LINE
  5
27E
100
AcDbEntity
  8
0
100
AcDbLine
 62
7
  6
CONTINUOUS
 10
167.6945322832
 20
114.5511808206
 11
167.6945322832
 21
115.0511808206
  0
LINE
  5
27F
100
AcDbEntity
  8
0
100
AcDbLine
 62
7
  6
CONTINUOUS
 10
167.8340452307
 20
114.5511808206
 11
167.8340452307
 21
115.0511808206
  0
LINE
  5
280
100
AcDbEntity
  8
0
100
AcDbLine
 62
7
  6
CONTINUOUS
 10
167.9386799413
 20
114.5511808206
 11
167.9386799413
 21
115.0511808206
  0
LINE
  5
281
100
AcDbEntity
  8
0
100
AcDbLine
 62
7
  6
CONTINUOUS
 10
168.0781928888
 20
114.5511808206
 11
168.0781928888
 21
115.0511808206
  0
LINE
  5
282
100
AcDbEntity
  8
0
100
AcDbLine
 62
7
  6
CONTINUOUS
 10
168.1828275994
 20
114.5511808206
 11
168.1828275994
 21
115.0511808206
  0
LINE
  5
283
100
AcDbEntity
  8
0
100
AcDbLine
 62
7
  6
CONTINUOUS
 10
168.3223405469
 20
114.5511808206
 11
168.3223405469
 21
115.0511808206
  0
LINE
  5
284
100
AcDbEntity
  8
0
100
AcDbLine
 62
7
  6
CONTINUOUS
 10
168.4269752575
 20
114.5511808206
 11
168.4269752575
 21
115.0511808206
  0
LINE
  5
285
100
AcDbEntity
  8
0
100
AcDbLine
 62
7
  6
CONTINUOUS
 10
168.4417230566
 20
78.9511808206
 11
168.4417230566
 21
75.9511808206
  0
LINE
  5
286
100
AcDbEntity
  8
0
100
AcDbLine
 62
7
  6
CONTINUOUS
 10
168.566488205
 20
114.5511808206
 11
168.566488205
 21
115.0511808206
  0
LINE
  5
287
100
AcDbEntity
  8
0
100
AcDbLine
 62
7
  6
CONTINUOUS
 10
168.6711229156
 20
114.5511808206
 11
168.6711229156
 21
115.0511808206
  0
LINE
  5
288
100
AcDbEntity
  8
0
100
AcDbLine
 62
7
  6
CONTINUOUS
 10
168.8106358631
 20
114.5511808206
 11
168.8106358631
 21
115.0511808206
  0
LINE
  5
289
100
AcDbEntity
  8
0
100
AcDbLine
 62
7
  6
CONTINUOUS
 10
168.9152705737
 20
114.5511808206
 11
168.9152705737
 21
115.0511808206
  0
LINE
  5
28A
100
AcDbEntity
  8
0
100
AcDbLine
 62
7
  6
CONTINUOUS
 10
169.0547835212
 20
114.5511808206
 11
169.0547835212
 21
115.0511808206
  0
LINE
  5
28B
100
AcDbEntity
  8
0
100
AcDbLine
 62
7
  6
CONTINUOUS
 10
171.0499116217
 20
114.5511808206
 11
171.0499116217
 21
115.0511808206
  0
LINE
  5
28C
100
AcDbEntity
  8
0
100
AcDbLine
 62
7
  6
CONTINUOUS
 10
171.0813717485
 20
114.5511808206
 11
171.0813717485
 21
115.0511808206
  0
LINE
  5
28D
100
AcDbEntity
  8
0
100
AcDbLine
 62
7
  6
CONTINUOUS
 10
171.1860064591
 20
114.5511808206
 11
171.1860064591
 21
115.0511808206
  0
LINE
  5
28E
100
AcDbEntity
  8
0
100
AcDbLine
 62
7
  6
CONTINUOUS
 10
171.3255194066
 20
114.5511808206
 11
171.3255194066
 21
115.0511808206
  0
LINE
  5
28F
100
AcDbEntity
  8
0
100
AcDbLine
 62
7
  6
CONTINUOUS
 10
171.4301541172
 20
114.5511808206
 11
171.4301541172
 21
115.0511808206
  0
LINE
  5
290
100
AcDbEntity
  8
0
100
AcDbLine
 62
7
  6
CONTINUOUS
 10
171.5696670647
 20
114.5511808206
 11
171.5696670647
 21
115.0511808206
  0
LINE
  5
291
100
AcDbEntity
  8
0
100
AcDbLine
 62
7
  6
CONTINUOUS
 10
171.6743017753
 20
114.5511808206
 11
171.6743017753
 21
115.0511808206
  0
LINE
  5
292
100
AcDbEntity
  8
0
100
AcDbLine
 62
7
  6
CONTINUOUS
 10
171.8138147228
 20
114.5511808206
 11
171.8138147228
 21
115.0511808206
  0
LINE
  5
293
100
AcDbEntity
  8
0
100
AcDbLine
 62
7
  6
CONTINUOUS
 10
171.9184494334
 20
114.5511808206
 11
171.9184494334
 21
115.0511808206
  0
LINE
  5
294
100
AcDbEntity
  8
0
100
AcDbLine
 62
7
  6
CONTINUOUS
 10
172.0579623809
 20
114.5511808206
 11
172.0579623809
 21
115.0511808206
  0
LINE
  5
295
100
AcDbEntity
  8
0
100
AcDbLine
 62
7
  6
CONTINUOUS
 10
172.1625970915
 20
114.5511808206
 11
172.1625970915
 21
115.0511808206
  0
LINE
  5
296
100
AcDbEntity
  8
0
100
AcDbLine
 62
7
  6
CONTINUOUS
 10
172.302110039
 20
114.5511808206
 11
172.302110039
 21
115.0511808206
  0
LINE
  5
297
100
AcDbEntity
  8
0
100
AcDbLine
 62
7
  6
CONTINUOUS
 10
172.4067447496
 20
114.5511808206
 11
172.4067447496
 21
115.0511808206
  0
LINE
  5
298
100
AcDbEntity
  8
0
100
AcDbLine
 62
7
  6
CONTINUOUS
 10
172.5462576971
 20
114.5511808206
 11
172.5462576971
 21
115.0511808206
  0
LINE
  5
299
100
AcDbEntity
  8
0
100
AcDbLine
 62
7
  6
CONTINUOUS
 10
172.7110051526
 20
80.3678474873
 11
172.7110051526
 21
75.9511808206
  0
LINE
  5
29A
100
AcDbEntity
  8
0
100
AcDbLine
 62
7
  6
CONTINUOUS
 10
174.5413857976
 20
114.5511808206
 11
174.5413857976
 21
115.0511808206
  0
LINE
  5
29B
100
AcDbEntity
  8
0
100
AcDbLine
 62
7
  6
CONTINUOUS
 10
174.5728459244
 20
114.5511808206
 11
174.5728459244
 21
115.0511808206
  0
LINE
  5
29C
100
AcDbEntity
  8
0
100
AcDbLine
 62
7
  6
CONTINUOUS
 10
174.677480635
 20
114.5511808206
 11
174.677480635
 21
115.0511808206
  0
LINE
  5
29D
100
AcDbEntity
  8
0
100
AcDbLine
 62
7
  6
CONTINUOUS
 10
174.8169935825
 20
114.5511808206
 11
174.8169935825
 21
115.0511808206
  0
LINE
  5
29E
100
AcDbEntity
  8
0
100
AcDbLine
 62
7
  6
CONTINUOUS
 10
174.9216282931
 20
114.5511808206
 11
174.9216282931
 21
115.0511808206
  0
LINE
  5
29F
100
AcDbEntity
  8
0
100
AcDbLine
 62
7
  6
CONTINUOUS
 10
175.0611412406
 20
114.5511808206
 11
175.0611412406
 21
115.0511808206
  0
LINE
  5
2A0
100
AcDbEntity
  8
0
100
AcDbLine
 62
7
  6
CONTINUOUS
 10
175.1657759512
 20
114.5511808206
 11
175.1657759512
 21
115.0511808206
  0
LINE
  5
2A1
100
AcDbEntity
  8
0
100
AcDbLine
 62
7
  6
CONTINUOUS
 10
175.3052888987
 20
114.5511808206
 11
175.3052888987
 21
115.0511808206
  0
LINE
  5
2A2
100
AcDbEntity
  8
0
100
AcDbLine
 62
7
  6
CONTINUOUS
 10
175.4099236093
 20
114.5511808206
 11
175.4099236093
 21
115.0511808206
  0
LINE
  5
2A3
100
AcDbEntity
  8
0
100
AcDbLine
 62
7
  6
CONTINUOUS
 10
175.5494365568
 20
114.5511808206
 11
175.5494365568
 21
115.0511808206
  0
LINE
  5
2A4
100
AcDbEntity
  8
0
100
AcDbLine
 62
7
  6
CONTINUOUS
 10
175.6540712674
 20
114.5511808206
 11
175.6540712674
 21
115.0511808206
  0
LINE
  5
2A5
100
AcDbEntity
  8
0
100
AcDbLine
 62
7
  6
CONTINUOUS
 10
175.7935842149
 20
114.5511808206
 11
175.7935842149
 21
115.0511808206
  0
LINE
  5
2A6
100
AcDbEntity
  8
0
100
AcDbLine
 62
7
  6
CONTINUOUS
 10
175.8982189255
 20
114.5511808206
 11
175.8982189255
 21
115.0511808206
  0
LINE
  5
2A7
100
AcDbEntity
  8
0
100
AcDbLine
 62
7
  6
CONTINUOUS
 10
176.037731873
 20
114.5511808206
 11
176.037731873
 21
115.0511808206
  0
LINE
  5
2A8
100
AcDbEntity
  8
0
100
AcDbLine
 62
7
  6
CONTINUOUS
 10
178.0328599735
 20
114.5511808206
 11
178.0328599735
 21
115.0511808206
  0
LINE
  5
2A9
100
AcDbEntity
  8
0
100
AcDbLine
 62
7
  6
CONTINUOUS
 10
178.0643201003
 20
114.5511808206
 11
178.0643201003
 21
115.0511808206
  0
LINE
  5
2AA
100
AcDbEntity
  8
0
100
AcDbLine
 62
7
  6
CONTINUOUS
 10
178.1689548109
 20
114.5511808206
 11
178.1689548109
 21
115.0511808206
  0
LINE
  5
2AB
100
AcDbEntity
  8
0
100
AcDbLine
 62
7
  6
CONTINUOUS
 10
165.5119511594
 20
75.9511808206
 11
165.5817076331
 21
76.9511808206
  0
LINE
  5
2AC
100
AcDbEntity
  8
0
100
AcDbLine
 62
7
  6
CONTINUOUS
 10
167.5768357336
 20
76.9511808206
 11
167.5070792599
 21
75.9511808206
  0
LINE
  5
2AD
100
AcDbEntity
  8
0
100
AcDbLine
 62
7
  6
CONTINUOUS
 10
156.7932744973
 20
109.1258418617
 11
160.2462199476
 21
109.1258418617
  0
LINE
  5
2AE
100
AcDbEntity
  8
0
100
AcDbLine
 62
7
  6
CONTINUOUS
 10
156.1947360671
 20
109.2101663625
 11
159.6476815175
 21
109.2101663625
  0
LINE
  5
2AF
100
AcDbEntity
  8
0
100
AcDbLine
 62
7
  6
CONTINUOUS
 10
156.1801203687
 20
112.4511808206
 11
198.8623130999
 21
112.4511808206
  0
LINE
  5
2B0
100
AcDbEntity
  8
0
100
AcDbLine
 62
7
  6
CONTINUOUS
 10
157.780120942
 20
114.0511808206
 11
198.8623130999
 21
114.0511808206
  0
LINE
  5
2B1
100
AcDbEntity
  8
0
100
AcDbLine
 62
7
  6
CONTINUOUS
 10
160.9970027922
 20
114.5511808206
 11
193.8814605666
 21
114.5511808206
  0
LINE
  5
2B2
100
AcDbEntity
  8
0
100
AcDbLine
 62
7
  6
CONTINUOUS
 10
162.2498768424
 20
115.0511808206
 11
188.5072825013
 21
115.0511808206
  0
LINE
  5
2B3
100
AcDbEntity
  8
0
100
AcDbLine
 62
7
  6
CONTINUOUS
 10
196.7198243631
 20
115.1011808206
 11
197.1394616242
 21
115.1011808206
  0
LINE
  5
2B4
100
AcDbEntity
  8
0
100
AcDbLine
 62
3
  6
CONTINUOUS
 10
197.0391316603
 20
115.9011808206
 11
198.4956620704
 21
115.9011808206
  0
LINE
  5
2B5
100
AcDbEntity
  8
0
100
AcDbLine
 62
7
  6
CONTINUOUS
 10
178.3084677584
 20
114.5511808206
 11
178.3084677584
 21
115.0511808206
  0
LINE
  5
2B6
100
AcDbEntity
  8
0
100
AcDbLine
 62
7
  6
CONTINUOUS
 10
178.413102469
 20
114.5511808206
 11
178.413102469
 21
115.0511808206
  0
LINE
  5
2B7
100
AcDbEntity
  8
0
100
AcDbLine
 62
7
  6
CONTINUOUS
 10
178.5526154165
 20
114.5511808206
 11
178.5526154165
 21
115.0511808206
  0
LINE
  5
2B8
100
AcDbEntity
  8
0
100
AcDbLine
 62
7
  6
CONTINUOUS
 10
178.6572501271
 20
114.5511808206
 11
178.6572501271
 21
115.0511808206
  0
LINE
  5
2B9
100
AcDbEntity
  8
0
100
AcDbLine
 62
7
  6
CONTINUOUS
 10
178.7967630746
 20
114.5511808206
 11
178.7967630746
 21
115.0511808206
  0
LINE
  5
2BA
100
AcDbEntity
  8
0
100
AcDbLine
 62
7
  6
CONTINUOUS
 10
178.9013977852
 20
114.5511808206
 11
178.9013977852
 21
115.0511808206
  0
LINE
  5
2BB
100
AcDbEntity
  8
0
100
AcDbLine
 62
7
  6
CONTINUOUS
 10
179.0409107327
 20
114.5511808206
 11
179.0409107327
 21
115.0511808206
  0
LINE
  5
2BC
100
AcDbEntity
  8
0
100
AcDbLine
 62
7
  6
CONTINUOUS
 10
179.1455454433
 20
114.5511808206
 11
179.1455454433
 21
115.0511808206
  0
LINE
  5
2BD
100
AcDbEntity
  8
0
100
AcDbLine
 62
7
  6
CONTINUOUS
 10
179.2850583908
 20
114.5511808206
 11
179.2850583908
 21
115.0511808206
  0
LINE
  5
2BE
100
AcDbEntity
  8
0
100
AcDbLine
 62
7
  6
CONTINUOUS
 10
179.3896931014
 20
114.5511808206
 11
179.3896931014
 21
115.0511808206
  0
LINE
  5
2BF
100
AcDbEntity
  8
0
100
AcDbLine
 62
7
  6
CONTINUOUS
 10
179.5292060489
 20
114.5511808206
 11
179.5292060489
 21
115.0511808206
  0
LINE
  5
2C0
100
AcDbEntity
  8
0
100
AcDbLine
 62
7
  6
CONTINUOUS
 10
181.5243341494
 20
114.5511808206
 11
181.5243341494
 21
115.0511808206
  0
LINE
  5
2C1
100
AcDbEntity
  8
0
100
AcDbLine
 62
7
  6
CONTINUOUS
 10
181.5557942762
 20
114.5511808206
 11
181.5557942762
 21
115.0511808206
  0
LINE
  5
2C2
100
AcDbEntity
  8
0
100
AcDbLine
 62
7
  6
CONTINUOUS
 10
181.6604289868
 20
114.5511808206
 11
181.6604289868
 21
115.0511808206
  0
LINE
  5
2C3
100
AcDbEntity
  8
0
100
AcDbLine
 62
7
  6
CONTINUOUS
 10
181.7999419343
 20
114.5511808206
 11
181.7999419343
 21
115.0511808206
  0
LINE
  5
2C4
100
AcDbEntity
  8
0
100
AcDbLine
 62
7
  6
CONTINUOUS
 10
181.9045766449
 20
114.5511808206
 11
181.9045766449
 21
115.0511808206
  0
LINE
  5
2C5
100
AcDbEntity
  8
0
100
AcDbLine
 62
7
  6
CONTINUOUS
 10
182.0440895924
 20
114.5511808206
 11
182.0440895924
 21
115.0511808206
  0
LINE
  5
2C6
100
AcDbEntity
  8
0
100
AcDbLine
 62
7
  6
CONTINUOUS
 10
182.148724303
 20
114.5511808206
 11
182.148724303
 21
115.0511808206
  0
LINE
  5
2C7
100
AcDbEntity
  8
0
100
AcDbLine
 62
7
  6
CONTINUOUS
 10
182.2882372505
 20
114.5511808206
 11
182.2882372505
 21
115.0511808206
  0
LINE
  5
2C8
100
AcDbEntity
  8
0
100
AcDbLine
 62
7
  6
CONTINUOUS
 10
182.3928719611
 20
114.5511808206
 11
182.3928719611
 21
115.0511808206
  0
LINE
  5
2C9
100
AcDbEntity
  8
0
100
AcDbLine
 62
7
  6
CONTINUOUS
 10
182.5323849086
 20
114.5511808206
 11
182.5323849086
 21
115.0511808206
  0
LINE
  5
2CA
100
AcDbEntity
  8
0
100
AcDbLine
 62
7
  6
CONTINUOUS
 10
182.6370196192
 20
114.5511808206
 11
182.6370196192
 21
115.0511808206
  0
LINE
  5
2CB
100
AcDbEntity
  8
0
100
AcDbLine
 62
7
  6
CONTINUOUS
 10
182.7765325667
 20
114.5511808206
 11
182.7765325667
 21
115.0511808206
  0
LINE
  5
2CC
100
AcDbEntity
  8
0
100
AcDbLine
 62
7
  6
CONTINUOUS
 10
182.8811672773
 20
114.5511808206
 11
182.8811672773
 21
115.0511808206
  0
LINE
  5
2CD
100
AcDbEntity
  8
0
100
AcDbLine
 62
7
  6
CONTINUOUS
 10
183.0206802248
 20
114.5511808206
 11
183.0206802248
 21
115.0511808206
  0
LINE
  5
2CE
100
AcDbEntity
  8
0
100
AcDbLine
 62
7
  6
CONTINUOUS
 10
185.0158083254
 20
114.5511808206
 11
185.0158083254
 21
115.0511808206
  0
LINE
  5
2CF
100
AcDbEntity
  8
0
100
AcDbLine
 62
7
  6
CONTINUOUS
 10
185.0472684521
 20
114.5511808206
 11
185.0472684521
 21
115.0511808206
  0
LINE
  5
2D0
100
AcDbEntity
  8
0
100
AcDbLine
 62
7
  6
CONTINUOUS
 10
185.1519031627
 20
114.5511808206
 11
185.1519031627
 21
115.0511808206
  0
LINE
  5
2D1
100
AcDbEntity
  8
0
100
AcDbLine
 62
7
  6
CONTINUOUS
 10
185.2914161102
 20
114.5511808206
 11
185.2914161102
 21
115.0511808206
  0
LINE
  5
2D2
100
AcDbEntity
  8
0
100
AcDbLine
 62
7
  6
CONTINUOUS
 10
185.3960508208
 20
114.5511808206
 11
185.3960508208
 21
115.0511808206
  0
LINE
  5
2D3
100
AcDbEntity
  8
0
100
AcDbLine
 62
7
  6
CONTINUOUS
 10
185.5355637683
 20
114.5511808206
 11
185.5355637683
 21
115.0511808206
  0
LINE
  5
2D4
100
AcDbEntity
  8
0
100
AcDbLine
 62
7
  6
CONTINUOUS
 10
185.6401984789
 20
114.5511808206
 11
185.6401984789
 21
115.0511808206
  0
LINE
  5
2D5
100
AcDbEntity
  8
0
100
AcDbLine
 62
7
  6
CONTINUOUS
 10
185.7797114264
 20
114.5511808206
 11
185.7797114264
 21
115.0511808206
  0
LINE
  5
2D6
100
AcDbEntity
  8
0
100
AcDbLine
 62
7
  6
CONTINUOUS
 10
185.884346137
 20
114.5511808206
 11
185.884346137
 21
115.0511808206
  0
LINE
  5
2D7
100
AcDbEntity
  8
0
100
AcDbLine
 62
7
  6
CONTINUOUS
 10
186.0238590845
 20
114.5511808206
 11
186.0238590845
 21
115.0511808206
  0
LINE
  5
2D8
100
AcDbEntity
  8
0
100
AcDbLine
 62
7
  6
CONTINUOUS
 10
186.1284937952
 20
114.5511808206
 11
186.1284937952
 21
115.0511808206
  0
LINE
  5
2D9
100
AcDbEntity
  8
0
100
AcDbLine
 62
7
  6
CONTINUOUS
 10
186.2680067426
 20
114.5511808206
 11
186.2680067426
 21
115.0511808206
  0
LINE
  5
2DA
100
AcDbEntity
  8
0
100
AcDbLine
 62
7
  6
CONTINUOUS
 10
186.3726414533
 20
114.5511808206
 11
186.3726414533
 21
115.0511808206
  0
LINE
  5
2DB
100
AcDbEntity
  8
0
100
AcDbLine
 62
7
  6
CONTINUOUS
 10
186.5121544007
 20
114.5511808206
 11
186.5121544007
 21
115.0511808206
  0
LINE
  5
2DC
100
AcDbEntity
  8
0
100
AcDbLine
 62
7
  6
CONTINUOUS
 10
188.5072825013
 20
114.5511808206
 11
188.5072825013
 21
115.0511808206
  0
LINE
  5
2DD
100
AcDbEntity
  8
03___PRT_ALL_CURVES
100
AcDbLine
 62
2
  6
CONTINUOUS
 10
190.6579253521
 20
282.0635919525
 11
190.6564261921
 21
281.9315035635
  0
LINE
  5
2DE
100
AcDbEntity
  8
03___PRT_ALL_CURVES
100
AcDbLine
 62
2
  6
CONTINUOUS
 10
190.8014790366
 20
281.5276770297
 11
190.8025681625
 21
281.6167791052
  0
LINE
  5
2DF
100
AcDbEntity
  8
03___PRT_ALL_CURVES
100
AcDbLine
 62
2
  6
CONTINUOUS
 10
190.7998658552
 20
281.4400134178
 11
190.8014790366
 21
281.5276770297
  0
LINE
  5
2E0
100
AcDbEntity
  8
03___PRT_ALL_CURVES
100
AcDbLine
 62
2
  6
CONTINUOUS
 10
190.8014940155
 20
281.9755612917
 11
190.7998801387
 21
282.0631581069
  0
LINE
  5
2E1
100
AcDbEntity
  8
03___PRT_ALL_CURVES
100
AcDbLine
 62
2
  6
CONTINUOUS
 10
190.8025790326
 20
281.8866220084
 11
190.8014940155
 21
281.9755612917
  0
LINE
  5
2E2
100
AcDbEntity
  8
03___PRT_ALL_CURVES
100
AcDbLine
 62
2
  6
CONTINUOUS
 10
190.6564151305
 20
281.5723195296
 11
190.6579127137
 21
281.440367534
  0
LINE
  5
2E3
100
AcDbEntity
  8
03___PRT_ALL_CURVES
100
AcDbLine
 62
2
  6
CONTINUOUS
 10
190.8627840915
 20
282.0443684855
 11
190.8642789227
 21
281.8985166311
  0
LINE
  5
2E4
100
AcDbEntity
  8
03___PRT_ALL_CURVES
100
AcDbLine
 62
2
  6
CONTINUOUS
 10
190.8031241392
 20
281.7968388993
 11
190.8025790326
 21
281.8866220084
  0
LINE
  5
2E5
100
AcDbEntity
  8
03___PRT_ALL_CURVES
100
AcDbLine
 62
2
  6
CONTINUOUS
 10
190.6212665878
 20
281.4592343516
 11
190.6205081455
 21
281.6050711401
  0
LINE
  5
2E6
100
AcDbEntity
  8
03___PRT_ALL_CURVES
100
AcDbLine
 62
2
  6
CONTINUOUS
 10
190.6557337423
 20
281.7067288728
 11
190.6564151305
 21
281.5723195296
  0
LINE
  5
2E7
100
AcDbEntity
  8
03___PRT_ALL_CURVES
100
AcDbLine
 62
2
  6
CONTINUOUS
 10
190.8642789227
 20
281.8985166311
 11
190.8647776047
 21
281.7517866859
  0
LINE
  5
2E8
100
AcDbEntity
  8
03___PRT_ALL_CURVES
100
AcDbLine
 62
2
  6
CONTINUOUS
 10
190.6205081455
 20
281.6050711401
 11
190.6202560855
 21
281.7517866859
  0
LINE
  5
2E9
100
AcDbEntity
  8
0
100
AcDbLine
 62
7
  6
CONTINUOUS
 10
190.536927402
 20
313.5511808206
 11
190.536927402
 21
310.9511808206
  0
LINE
  5
2EA
100
AcDbEntity
  8
0
100
AcDbLine
 62
3
  6
CONTINUOUS
 10
190.536927402
 20
87.524496293
 11
190.536927402
 21
89.8642414101
  0
LINE
  5
2EB
100
AcDbEntity
  8
0
100
AcDbLine
 62
3
  6
CONTINUOUS
 10
190.536927402
 20
94.660035633
 11
190.536927402
 21
104.9114340853
  0
LINE
  5
2EC
100
AcDbEntity
  8
0
100
AcDbLine
 62
3
  6
CONTINUOUS
 10
190.536927402
 20
114.5511808206
 11
190.536927402
 21
309.0511808206
  0
LINE
  5
2ED
100
AcDbEntity
  8
02___PRT_ALL_AXES
100
AcDbLine
 62
3
  6
CONTINUOUS
 10
190.536927402
 20
314.8511808206
 11
190.536927402
 21
335.5691378257
  0
LINE
  5
2EE
100
AcDbEntity
  8
03___PRT_ALL_CURVES
100
AcDbLine
 62
2
  6
CONTINUOUS
 10
190.8914406799
 20
279.9523972191
 11
190.8914406799
 21
283.5515549344
  0
LINE
  5
2EF
100
AcDbEntity
  8
03___PRT_ALL_CURVES
100
AcDbLine
 62
2
  6
CONTINUOUS
 10
190.9668838176
 20
282.3433151762
 11
190.9668838176
 21
279.9523972191
  0
LINE
  5
2F0
100
AcDbEntity
  8
03___PRT_ALL_CURVES
100
AcDbLine
 62
2
  6
CONTINUOUS
 10
191.1431388211
 20
281.1622904971
 11
191.1431388211
 21
283.5515549344
  0
LINE
  5
2F1
100
AcDbEntity
  8
03___PRT_ALL_CURVES
100
AcDbLine
 62
2
  6
CONTINUOUS
 10
191.2406485161
 20
283.5515549344
 11
191.2406485161
 21
279.9523972191
  0
LINE
  5
2F2
100
AcDbEntity
  8
03___PRT_ALL_CURVES
100
AcDbLine
 62
2
  6
CONTINUOUS
 10
191.3065337961
 20
282.9002568117
 11
191.3065337961
 21
283.5518649194
  0
LINE
  5
2F3
100
AcDbEntity
  8
03___PRT_ALL_CURVES
100
AcDbLine
 62
2
  6
CONTINUOUS
 10
191.4242954216
 20
279.9526728057
 11
191.4242954216
 21
282.9002568117
  0
LINE
  5
2F4
100
AcDbEntity
  8
03___PRT_ALL_CURVES
100
AcDbLine
 62
2
  6
CONTINUOUS
 10
191.541463201
 20
282.9002568117
 11
191.541463201
 21
279.9526728057
  0
LINE
  5
2F5
100
AcDbEntity
  8
03___PRT_ALL_CURVES
100
AcDbLine
 62
2
  6
CONTINUOUS
 10
191.6755243646
 20
283.5518649194
 11
191.6755243646
 21
282.9002568117
  0
LINE
  5
2F6
100
AcDbEntity
  8
03___PRT_ALL_CURVES
100
AcDbLine
 62
2
  6
CONTINUOUS
 10
191.7591661754
 20
279.9526728057
 11
191.7591661754
 21
283.5518649194
  0
LINE
  5
2F7
100
AcDbEntity
  8
03___PRT_ALL_CURVES
100
AcDbLine
 62
2
  6
CONTINUOUS
 10
191.8963773478
 20
283.5518649194
 11
191.8963773478
 21
279.9526728057
  0
LINE
  5
2F8
100
AcDbEntity
  8
03___PRT_ALL_CURVES
100
AcDbLine
 62
2
  6
CONTINUOUS
 10
192.0060320749
 20
279.9529483923
 11
192.0060320749
 21
283.552140506
  0
LINE
  5
2F9
100
AcDbEntity
  8
03___PRT_ALL_CURVES
100
AcDbLine
 62
2
  6
CONTINUOUS
 10
192.1563900865
 20
282.3439010144
 11
192.1563900865
 21
279.9529483923
  0
LINE
  5
2FA
100
AcDbEntity
  8
03___PRT_ALL_CURVES
100
AcDbLine
 62
2
  6
CONTINUOUS
 10
192.4858390674
 20
281.1628760686
 11
192.4858390674
 21
283.552140506
  0
LINE
  5
2FB
100
AcDbEntity
  8
03___PRT_ALL_CURVES
100
AcDbLine
 62
2
  6
CONTINUOUS
 10
192.658785892
 20
283.552140506
 11
192.658785892
 21
279.9529483923
  0
LINE
  5
2FC
100
AcDbEntity
  8
03___PRT_ALL_CURVES
100
AcDbLine
 62
2
  6
CONTINUOUS
 10
194.5198943274
 20
284.3516217209
 11
194.5198943274
 21
279.5515977209
  0
LINE
  5
2FD
100
AcDbEntity
  8
0
100
AcDbLine
 62
3
  6
CONTINUOUS
 10
196.7198243631
 20
114.0511808206
 11
196.7198243631
 21
115.1011808206
  0
LINE
  5
2FE
100
AcDbEntity
  8
0
100
AcDbLine
 62
7
  6
CONTINUOUS
 10
197.1394616242
 20
114.0511808206
 11
197.1394616242
 21
115.1011808206
  0
LINE
  5
2FF
100
AcDbEntity
  8
0
100
AcDbLine
 62
7
  6
CONTINUOUS
 10
197.2226105996
 20
81.9511808206
 11
197.2226105996
 21
89.0702396731
  0
LINE
  5
300
100
AcDbEntity
  8
0
100
AcDbLine
 62
3
  6
CONTINUOUS
 10
198.1382408928
 20
97.7011808206
 11
198.1382408928
 21
103.8405304751
  0
LINE
  5
301
100
AcDbEntity
  8
0
100
AcDbLine
 62
7
  6
CONTINUOUS
 10
198.5641492562
 20
97.7011808206
 11
198.5641492562
 21
103.7805267922
  0
LINE
  5
302
100
AcDbEntity
  8
0
100
AcDbLine
 62
3
  6
CONTINUOUS
 10
198.8623130999
 20
97.7011808206
 11
198.8623130999
 21
115.1011808206
  0
LINE
  5
303
100
AcDbEntity
  8
03___PRT_ALL_CURVES
100
AcDbLine
 62
2
  6
CONTINUOUS
 10
190.8031202169
 20
281.7067059406
 11
190.8031241392
 21
281.7968388993
  0
LINE
  5
304
100
AcDbEntity
  8
03___PRT_ALL_CURVES
100
AcDbLine
 62
2
  6
CONTINUOUS
 10
190.8647776047
 20
281.7517866859
 11
190.8646197225
 21
281.6702106452
  0
LINE
  5
305
100
AcDbEntity
  8
03___PRT_ALL_CURVES
100
AcDbLine
 62
2
  6
CONTINUOUS
 10
190.6202560855
 20
281.7517866859
 11
190.620571492
 21
281.9148121069
  0
LINE
  5
306
100
AcDbEntity
  8
03___PRT_ALL_CURVES
100
AcDbLine
 62
2
  6
CONTINUOUS
 10
190.6558759812
 20
281.8419043121
 11
190.6557337423
 21
281.7067288728
  0
LINE
  5
307
100
AcDbEntity
  8
03___PRT_ALL_CURVES
100
AcDbLine
 62
2
  6
CONTINUOUS
 10
190.620571492
 20
281.9148121069
 11
190.6209632677
 21
281.995960835
  0
LINE
  5
308
100
AcDbEntity
  8
03___PRT_ALL_CURVES
100
AcDbLine
 62
2
  6
CONTINUOUS
 10
190.8646197225
 20
281.6702106452
 11
190.8641526632
 21
281.5887764643
  0
LINE
  5
309
100
AcDbEntity
  8
03___PRT_ALL_CURVES
100
AcDbLine
 62
2
  6
CONTINUOUS
 10
190.6564261921
 20
281.9315035635
 11
190.6558759812
 21
281.8419043121
  0
LINE
  5
30A
100
AcDbEntity
  8
03___PRT_ALL_CURVES
100
AcDbLine
 62
2
  6
CONTINUOUS
 10
190.8025681625
 20
281.6167791052
 11
190.8031202169
 21
281.7067059406
  0
LINE
  5
30B
100
AcDbEntity
  8
03___PRT_ALL_CURVES
100
AcDbLine
 62
2
  6
CONTINUOUS
 10
190.8641526632
 20
281.5887764643
 11
190.8633793649
 21
281.5076356025
  0
LINE
  5
30C
100
AcDbEntity
  8
0
100
AcDbLine
 62
7
  6
CONTINUOUS
 10
235.8564091231
 20
82.1511808206
 11
235.8564091231
 21
81.9511808206
  0
LINE
  5
30D
100
AcDbEntity
  8
0
100
AcDbLine
 62
7
  6
CONTINUOUS
 10
235.8903748397
 20
82.1511808206
 11
235.8903748397
 21
81.9511808206
  0
LINE
  5
30E
100
AcDbEntity
  8
0
100
AcDbLine
 62
7
  6
CONTINUOUS
 10
236.1463190257
 20
82.1511808206
 11
236.1463190257
 21
81.9511808206
  0
LINE
  5
30F
100
AcDbEntity
  8
0
100
AcDbLine
 62
7
  6
CONTINUOUS
 10
244.2858965298
 20
82.1511808206
 11
244.2858965298
 21
81.9511808206
  0
LINE
  5
310
100
AcDbEntity
  8
0
100
AcDbLine
 62
7
  6
CONTINUOUS
 10
244.9289182796
 20
82.1511808206
 11
244.9289182796
 21
81.9511808206
  0
LINE
  5
311
100
AcDbEntity
  8
0
100
AcDbLine
 62
7
  6
CONTINUOUS
 10
245.0441836012
 20
81.9511808206
 11
245.0441836012
 21
82.1511808206
  0
LINE
  5
312
100
AcDbEntity
  8
0
100
AcDbLine
 62
7
  6
CONTINUOUS
 10
245.6813515418
 20
81.9511808206
 11
245.6813515418
 21
82.1511808206
  0
LWPOLYLINE
  5
313
100
AcDbEntity
  8
0
100
AcDbPolyline
 62
7
  6
CONTINUOUS
 90
4
 70
0
 10
384.0637339121
 20
287.65587881
 10
384.6149943296
 20
287.9453144635
 10
385.1851524149
 20
288.2443019135
 10
385.7419072341
 20
288.5359020353
  0
LINE
  5
314
100
AcDbEntity
  8
06___PRT_ALL_SURFS
100
AcDbLine
 62
7
  6
CONTINUOUS
 10
378.6143232395
 20
284.4739229346
 11
378.9497823111
 21
284.6831845254
  0
LINE
  5
315
100
AcDbEntity
  8
06___PRT_ALL_SURFS
100
AcDbLine
 62
7
  6
CONTINUOUS
 10
378.9497823111
 20
284.6831845254
 11
379.2909170943
 21
284.8952418621
  0
LINE
  5
316
100
AcDbEntity
  8
06___PRT_ALL_SURFS
100
AcDbLine
 62
7
  6
CONTINUOUS
 10
379.2909170943
 20
284.8952418621
 11
379.6157164715
 21
285.0963430453
  0
LINE
  5
317
100
AcDbEntity
  8
06___PRT_ALL_SURFS
100
AcDbLine
 62
7
  6
CONTINUOUS
 10
379.6157164715
 20
285.0963430453
 11
379.9286178559
 21
285.2892262925
  0
LINE
  5
318
100
AcDbEntity
  8
06___PRT_ALL_SURFS
100
AcDbLine
 62
7
  6
CONTINUOUS
 10
379.9286178559
 20
285.2892262925
 11
380.2328305922
 21
285.475831819
  0
LWPOLYLINE
  5
319
100
AcDbEntity
  8
06___PRT_ALL_SURFS
100
AcDbPolyline
 62
7
  6
CONTINUOUS
 90
3
 70
0
 10
380.2328305922
 20
285.475831819
 10
380.5285945368
 20
285.6562513086
 10
380.5721206841
 20
285.6826808071
  0
LINE
  5
31A
100
AcDbEntity
  8
0
100
AcDbLine
 62
7
  6
CONTINUOUS
 10
363.4236787479
 20
76.9511808206
 11
360.536927402
 21
81.9511808206
  0
LINE
  5
31B
100
AcDbEntity
  8
0
100
AcDbLine
 62
7
  6
CONTINUOUS
 10
168.2109710409
 20
107.8753937763
 11
168.4163731607
 21
108.0278667157
  0
LINE
  5
31C
100
AcDbEntity
  8
0
100
AcDbLine
 62
7
  6
CONTINUOUS
 10
177.6988254039
 20
75.9511808206
 11
178.6963894542
 21
76.9511808206
  0
LINE
  5
31D
100
AcDbEntity
  8
0
100
AcDbLine
 62
7
  6
CONTINUOUS
 10
171.0481362368
 20
104.0533401855
 11
174.5639145275
 21
106.6631528334
  0
LINE
  5
31E
100
AcDbEntity
  8
0
100
AcDbLine
 62
7
  6
CONTINUOUS
 10
368.3767982802
 20
244.4511808206
 11
359.7571598012
 21
244.4511808206
  0
LINE
  5
31F
100
AcDbEntity
  8
0
100
AcDbLine
 62
7
  6
CONTINUOUS
 10
368.0221445027
 20
245.7347604178
 11
359.5550985877
 21
245.734760418
  0
LINE
  5
320
100
AcDbEntity
  8
0
100
AcDbLine
 62
7
  6
CONTINUOUS
 10
315.3563686628
 20
82.1511808206
 11
315.3563686628
 21
81.9511808206
  0
LINE
  5
321
100
AcDbEntity
  8
0
100
AcDbLine
 62
7
  6
CONTINUOUS
 10
316.0213241865
 20
82.1511808206
 11
316.0213241865
 21
81.9511808206
  0
LINE
  5
322
100
AcDbEntity
  8
0
100
AcDbLine
 62
7
  6
CONTINUOUS
 10
316.1683583843
 20
82.1511808206
 11
316.1683583843
 21
81.9511808206
  0
LINE
  5
323
100
AcDbEntity
  8
0
100
AcDbLine
 62
7
  6
CONTINUOUS
 10
316.838774613
 20
82.1511808206
 11
316.838774613
 21
81.9511808206
  0
LINE
  5
324
100
AcDbEntity
  8
0
100
AcDbLine
 62
3
  6
CONTINUOUS
 10
359.2695069739
 20
257.9866090741
 11
359.2723100296
 21
257.9866090741
  0
LINE
  5
325
100
AcDbEntity
  8
0
100
AcDbLine
 62
7
  6
CONTINUOUS
 10
359.2609148473
 20
258.4511808206
 11
359.1791554758
 21
258.4511808206
  0
LINE
  5
326
100
AcDbEntity
  8
0
100
AcDbLine
 62
7
  6
CONTINUOUS
 10
324.3466298368
 20
82.1511808206
 11
324.3466298368
 21
81.9511808206
  0
LINE
  5
327
100
AcDbEntity
  8
0
100
AcDbLine
 62
7
  6
CONTINUOUS
 10
324.5442153236
 20
82.1511808206
 11
324.5442153236
 21
81.9511808206
  0
LINE
  5
328
100
AcDbEntity
  8
0
100
AcDbLine
 62
7
  6
CONTINUOUS
 10
370.8601167982
 20
330.8329176368
 11
370.9225928326
 21
331.0215402272
  0
LINE
  5
329
100
AcDbEntity
  8
0
100
AcDbLine
 62
7
  6
CONTINUOUS
 10
372.2712759661
 20
330.3557164857
 11
372.3456892159
 21
330.5803789518
  0
LINE
  5
32A
100
AcDbEntity
  8
0
100
AcDbLine
 62
7
  6
CONTINUOUS
 10
358.9961130696
 20
268.4511808206
 11
358.878583151
 21
268.4511808206
  0
LINE
  5
32B
100
AcDbEntity
  8
0
100
AcDbLine
 62
3
  6
CONTINUOUS
 10
358.9768517456
 20
268.8511808206
 11
358.984683427
 21
268.8511808206
  0
LINE
  5
32C
100
AcDbEntity
  8
0
100
AcDbLine
 62
7
  6
CONTINUOUS
 10
376.2412865869
 20
329.0132076594
 11
376.3220013437
 21
329.2568951255
  0
LINE
  5
32D
100
AcDbEntity
  8
0
100
AcDbLine
 62
7
  6
CONTINUOUS
 10
377.4797120962
 20
328.5944185588
 11
377.5533374053
 21
328.8167021379
  0
LINE
  5
32E
100
AcDbEntity
  8
03___PRT_ALL_CURVES
100
AcDbLine
 62
2
  6
CONTINUOUS
 10
194.0381567566
 20
277.9515897209
 11
190.536927402
 21
277.9515897209
  0
LINE
  5
32F
100
AcDbEntity
  8
03___PRT_ALL_CURVES
100
AcDbLine
 62
2
  6
CONTINUOUS
 10
191.2406485161
 20
279.9523972191
 11
191.1431964025
 21
279.9523972191
  0
LINE
  5
330
100
AcDbEntity
  8
03___PRT_ALL_CURVES
100
AcDbLine
 62
2
  6
CONTINUOUS
 10
190.9668838176
 20
279.9523972191
 11
190.8914406772
 21
279.9523972191
  0
LINE
  5
331
100
AcDbEntity
  8
03___PRT_ALL_CURVES
100
AcDbLine
 62
2
  6
CONTINUOUS
 10
193.6420203659
 20
279.9526384074
 11
193.4358478492
 21
279.9526384074
  0
LINE
  5
332
100
AcDbEntity
  8
03___PRT_ALL_CURVES
100
AcDbLine
 62
2
  6
CONTINUOUS
 10
192.9291293926
 20
279.9526384074
 11
192.7492600122
 21
279.9526384074
  0
LINE
  5
333
100
AcDbEntity
  8
03___PRT_ALL_CURVES
100
AcDbLine
 62
2
  6
CONTINUOUS
 10
191.8963773478
 20
279.9526728057
 11
191.7591661821
 21
279.9526728057
  0
LINE
  5
334
100
AcDbEntity
  8
03___PRT_ALL_CURVES
100
AcDbLine
 62
2
  6
CONTINUOUS
 10
191.541463201
 20
279.9526728057
 11
191.4242954233
 21
279.9526728057
  0
LINE
  5
335
100
AcDbEntity
  8
03___PRT_ALL_CURVES
100
AcDbLine
 62
2
  6
CONTINUOUS
 10
192.658785892
 20
279.9529483923
 11
192.4859428
 21
279.9529483923
  0
LINE
  5
336
100
AcDbEntity
  8
03___PRT_ALL_CURVES
100
AcDbLine
 62
2
  6
CONTINUOUS
 10
192.1563900865
 20
279.9529483923
 11
192.0060320696
 21
279.9529483923
  0
LINE
  5
337
100
AcDbEntity
  8
03___PRT_ALL_CURVES
100
AcDbLine
 62
2
  6
CONTINUOUS
 10
190.6158060742
 20
279.9535686289
 11
190.5861118598
 21
279.9535686289
  0
LINE
  5
338
100
AcDbEntity
  8
03___PRT_ALL_CURVES
100
AcDbLine
 62
2
  6
CONTINUOUS
 10
190.5544096826
 20
279.9535686289
 11
190.5463269838
 21
279.9535686289
  0
LINE
  5
339
100
AcDbEntity
  8
03___PRT_ALL_CURVES
100
AcDbLine
 62
2
  6
CONTINUOUS
 10
193.3617553719
 20
280.6725938644
 11
192.9972479467
 21
280.6725938644
  0
LINE
  5
33A
100
AcDbEntity
  8
03___PRT_ALL_CURVES
100
AcDbLine
 62
2
  6
CONTINUOUS
 10
193.0592392615
 20
281.3202748293
 11
193.2959469369
 21
281.3202748293
  0
LINE
  5
33B
100
AcDbEntity
  8
03___PRT_ALL_CURVES
100
AcDbLine
 62
2
  6
CONTINUOUS
 10
191.4242954216
 20
282.9002568117
 11
191.3065337981
 21
282.9002568117
  0
LINE
  5
33C
100
AcDbEntity
  8
03___PRT_ALL_CURVES
100
AcDbLine
 62
2
  6
CONTINUOUS
 10
191.6755243646
 20
282.9002568117
 11
191.5414632051
 21
282.9002568117
  0
LINE
  5
33D
100
AcDbEntity
  8
03___PRT_ALL_CURVES
100
AcDbLine
 62
2
  6
CONTINUOUS
 10
190.8914406799
 20
283.5515549344
 11
190.9668838205
 21
283.5515549344
  0
LINE
  5
33E
100
AcDbEntity
  8
03___PRT_ALL_CURVES
100
AcDbLine
 62
2
  6
CONTINUOUS
 10
191.1431388211
 20
283.5515549344
 11
191.2406485147
 21
283.5515549344
  0
LINE
  5
33F
100
AcDbEntity
  8
03___PRT_ALL_CURVES
100
AcDbLine
 62
2
  6
CONTINUOUS
 10
191.3065337961
 20
283.5518649194
 11
191.6755243558
 21
283.5518649194
  0
LINE
  5
340
100
AcDbEntity
  8
03___PRT_ALL_CURVES
100
AcDbLine
 62
2
  6
CONTINUOUS
 10
191.7591661754
 20
283.5518649194
 11
191.8963773408
 21
283.5518649194
  0
LINE
  5
341
100
AcDbEntity
  8
03___PRT_ALL_CURVES
100
AcDbLine
 62
2
  6
CONTINUOUS
 10
193.0856913102
 20
283.5518649194
 11
193.2684078312
 21
283.5518649194
  0
LINE
  5
342
100
AcDbEntity
  8
03___PRT_ALL_CURVES
100
AcDbLine
 62
2
  6
CONTINUOUS
 10
192.0060320749
 20
283.552140506
 11
192.1563900921
 21
283.552140506
  0
LINE
  5
343
100
AcDbEntity
  8
03___PRT_ALL_CURVES
100
AcDbLine
 62
2
  6
CONTINUOUS
 10
192.4858390674
 20
283.552140506
 11
192.6587858833
 21
283.552140506
  0
LINE
  5
344
100
AcDbEntity
  8
03___PRT_ALL_CURVES
100
AcDbLine
 62
2
  6
CONTINUOUS
 10
190.536927402
 20
283.5527951409
 11
190.5398274159
 21
283.5527951409
  0
LINE
  5
345
100
AcDbEntity
  8
03___PRT_ALL_CURVES
100
AcDbLine
 62
2
  6
CONTINUOUS
 10
190.5676533757
 20
283.5527951409
 11
190.5924598048
 21
283.5527951409
  0
LWPOLYLINE
  5
346
100
AcDbEntity
  8
0
100
AcDbPolyline
 62
3
  6
CONTINUOUS
 90
11
 70
0
 10
360.4879170964
 20
86.8407436129
 10
360.4879028848
 20
86.8408276587
 10
360.4877630649
 20
86.8416915383
 10
360.48749894
 20
86.8434219003
 10
360.4871362305
 20
86.8459382625
 10
360.4866892772
 20
86.8492134584
 10
360.4861731964
 20
86.8531979538
 10
360.4855971792
 20
86.8578726439
 10
360.484970832
 20
86.8632043745
 10
360.4843003108
 20
86.8691795651
 10
360.4835923673
 20
86.8757720551
  0
LINE
  5
347
100
AcDbEntity
  8
0
100
AcDbLine
 62
3
  6
CONTINUOUS
 10
360.4835923673
 20
86.8757720551
 11
360.4820782412
 21
86.8907963149
  0
LINE
  5
348
100
AcDbEntity
  8
0
100
AcDbLine
 62
3
  6
CONTINUOUS
 10
360.4820782412
 20
86.8907963149
 11
360.4804535092
 21
86.9082498686
  0
LINE
  5
349
100
AcDbEntity
  8
0
100
AcDbLine
 62
3
  6
CONTINUOUS
 10
360.4804535092
 20
86.9082498686
 11
360.4787347703
 21
86.9281545223
  0
LINE
  5
34A
100
AcDbEntity
  8
0
100
AcDbLine
 62
3
  6
CONTINUOUS
 10
360.4787347703
 20
86.9281545223
 11
360.4769339061
 21
86.9505510512
  0
LINE
  5
34B
100
AcDbEntity
  8
0
100
AcDbLine
 62
3
  6
CONTINUOUS
 10
360.4769339061
 20
86.9505510512
 11
360.475061101
 21
86.9754783476
  0
LINE
  5
34C
100
AcDbEntity
  8
0
100
AcDbLine
 62
3
  6
CONTINUOUS
 10
360.475061101
 20
86.9754783476
 11
360.4731249226
 21
87.0029878963
  0
LINE
  5
34D
100
AcDbEntity
  8
0
100
AcDbLine
 62
3
  6
CONTINUOUS
 10
360.4731249226
 20
87.0029878963
 11
360.470117674
 21
87.0492430806
  0
LINE
  5
34E
100
AcDbEntity
  8
0
100
AcDbLine
 62
3
  6
CONTINUOUS
 10
360.470117674
 20
87.0492430806
 11
360.4670100986
 21
87.1016782693
  0
LINE
  5
34F
100
AcDbEntity
  8
0
100
AcDbLine
 62
3
  6
CONTINUOUS
 10
360.4670100986
 20
87.1016782693
 11
360.4638333344
 21
87.1604384299
  0
LINE
  5
350
100
AcDbEntity
  8
0
100
AcDbLine
 62
3
  6
CONTINUOUS
 10
360.4638333344
 20
87.1604384299
 11
360.4606206598
 21
87.2256453483
  0
LINE
  5
351
100
AcDbEntity
  8
0
100
AcDbLine
 62
3
  6
CONTINUOUS
 10
360.4606206598
 20
87.2256453483
 11
360.456343454
 21
87.3227872341
  0
LWPOLYLINE
  5
352
100
AcDbEntity
  8
0
100
AcDbPolyline
 62
3
  6
CONTINUOUS
 90
3
 70
0
 10
360.456343454
 20
87.3227872341
 10
360.452153382
 20
87.4316993011
 10
360.451129594
 20
87.4607642007
  0
LINE
  5
353
100
AcDbEntity
  8
02___PRT_ALL_AXES
100
AcDbLine
 62
7
  6
CONTINUOUS
 10
355.036927402
 20
82.1511808206
 11
355.036927402
 21
81.9511808206
  0
LINE
  5
354
100
AcDbEntity
  8
0
100
AcDbLine
 62
7
  6
CONTINUOUS
 10
355.5020084502
 20
82.1511808206
 11
355.5020084502
 21
81.9511808206
  0
LINE
  5
355
100
AcDbEntity
  8
0
100
AcDbLine
 62
7
  6
CONTINUOUS
 10
355.7643079697
 20
82.1511808206
 11
355.7643079697
 21
81.9511808206
  0
LINE
  5
356
100
AcDbEntity
  8
03___PRT_ALL_CURVES
100
AcDbLine
 62
2
  6
CONTINUOUS
 10
190.536927402
 20
285.9516297209
 11
194.0381567175
 21
285.9516297209
  0
LINE
  5
357
100
AcDbEntity
  8
0
100
AcDbLine
 62
3
  6
CONTINUOUS
 10
358.1467956923
 20
290.9866090741
 11
358.2868502485
 21
290.9866090741
  0
LINE
  5
358
100
AcDbEntity
  8
0
100
AcDbLine
 62
7
  6
CONTINUOUS
 10
358.2707940433
 20
291.4511808206
 11
358.0213964964
 21
291.4511808206
  0
LINE
  5
359
100
AcDbEntity
  8
0
100
AcDbLine
 62
7
  6
CONTINUOUS
 10
359.1638145053
 20
309.9511808206
 11
358.9348519127
 21
312.8790406864
  0
LINE
  5
35A
100
AcDbEntity
  8
0
100
AcDbLine
 62
3
  6
CONTINUOUS
 10
358.0214082709
 20
291.4511814119
 11
358.0231284874
 21
291.4083918415
  0
LINE
  5
35B
100
AcDbEntity
  8
0
100
AcDbLine
 62
3
  6
CONTINUOUS
 10
360.451129594
 20
87.4607642007
 11
360.4471731767
 21
87.5843152565
  0
LINE
  5
35C
100
AcDbEntity
  8
0
100
AcDbLine
 62
3
  6
CONTINUOUS
 10
359.1791665986
 20
258.4511812581
 11
359.1804111221
 21
258.4083918415
  0
LINE
  5
35D
100
AcDbEntity
  8
0
100
AcDbLine
 62
3
  6
CONTINUOUS
 10
360.4471731767
 20
87.5843152565
 11
360.4435153246
 21
87.7193677285
  0
LINE
  5
35E
100
AcDbEntity
  8
0
100
AcDbLine
 62
3
  6
CONTINUOUS
 10
360.4435153246
 20
87.7193677285
 11
360.4402671723
 21
87.8655862541
  0
LINE
  5
35F
100
AcDbEntity
  8
0
100
AcDbLine
 62
3
  6
CONTINUOUS
 10
360.4402671723
 20
87.8655862541
 11
360.4381713759
 21
87.9822666951
  0
LINE
  5
360
100
AcDbEntity
  8
0
100
AcDbLine
 62
3
  6
CONTINUOUS
 10
360.4381713759
 20
87.9822666951
 11
360.4364192138
 21
88.1045469132
  0
LINE
  5
361
100
AcDbEntity
  8
0
100
AcDbLine
 62
3
  6
CONTINUOUS
 10
360.4364192138
 20
88.1045469132
 11
360.4350557332
 21
88.2319622144
  0
LINE
  5
362
100
AcDbEntity
  8
0
100
AcDbLine
 62
3
  6
CONTINUOUS
 10
360.4350557332
 20
88.2319622144
 11
360.4341261745
 21
88.3639679561
  0
LINE
  5
363
100
AcDbEntity
  8
0
100
AcDbLine
 62
3
  6
CONTINUOUS
 10
360.4341261745
 20
88.3639679561
 11
360.4336754085
 21
88.4999302552
  0
LINE
  5
364
100
AcDbEntity
  8
0
100
AcDbLine
 62
7
  6
CONTINUOUS
 10
356.2294297328
 20
82.1511808206
 11
356.2294297328
 21
81.9511808206
  0
LINE
  5
365
100
AcDbEntity
  8
0
100
AcDbLine
 62
7
  6
CONTINUOUS
 10
357.4173065166
 20
313.9511808206
 11
357.4173065166
 21
332.4511808206
  0
LINE
  5
366
100
AcDbEntity
  8
0
100
AcDbLine
 62
3
  6
CONTINUOUS
 10
360.4336754085
 20
88.4999302552
 11
360.4336387873
 21
88.5511808206
  0
LINE
  5
367
100
AcDbEntity
  8
0
100
AcDbLine
 62
3
  6
CONTINUOUS
 10
360.4331589168
 20
88.551180821
 11
360.4331589168
 21
244.4511808206
  0
LINE
  5
368
100
AcDbEntity
  8
0
100
AcDbLine
 62
3
  6
CONTINUOUS
 10
360.4336386008
 20
88.5511808206
 11
360.4336386008
 21
244.4511808206
  0
LINE
  5
369
100
AcDbEntity
  8
0
100
AcDbLine
 62
7
  6
CONTINUOUS
 10
360.536927402
 20
313.5511808206
 11
360.536927402
 21
313.4511808206
  0
LINE
  5
36A
100
AcDbEntity
  8
02___PRT_ALL_AXES
100
AcDbLine
 62
3
  6
CONTINUOUS
 10
360.536927402
 20
333.9511808206
 11
360.536927402
 21
335.5691378257
  0
LINE
  5
36B
100
AcDbEntity
  8
0
100
AcDbLine
 62
3
  6
CONTINUOUS
 10
360.6798465347
 20
84.0511808206
 11
360.6798465347
 21
244.4511808206
  0
LINE
  5
36C
100
AcDbEntity
  8
0
100
AcDbLine
 62
3
  6
CONTINUOUS
 10
360.6842793093
 20
244.4511808206
 11
360.6842793093
 21
87.6666508744
  0
LINE
  5
36D
100
AcDbEntity
  8
0
100
AcDbLine
 62
3
  6
CONTINUOUS
 10
360.736927402
 20
87.6666508744
 11
360.736927402
 21
84.0511808206
  0
LINE
  5
36E
100
AcDbEntity
  8
0
100
AcDbLine
 62
7
  6
CONTINUOUS
 10
361.0840321351
 20
244.4511808206
 11
361.0840321351
 21
87.6666508744
  0
LINE
  5
36F
100
AcDbEntity
  8
0
100
AcDbLine
 62
7
  6
CONTINUOUS
 10
361.136927402
 20
87.6666508744
 11
361.136927402
 21
244.4511808206
  0
LINE
  5
370
100
AcDbEntity
  8
06___PRT_ALL_SURFS
100
AcDbLine
 62
7
  6
CONTINUOUS
 10
369.8427519804
 20
245.6334065353
 11
371.4556939075
 21
253.0697525911
  0
LWPOLYLINE
  5
371
100
AcDbEntity
  8
06___PRT_ALL_SURFS
100
AcDbPolyline
 62
7
  6
CONTINUOUS
 90
15
 70
0
 10
371.4556939075
 20
253.0697525911
 10
372.488329432
 20
257.8251570384
 10
372.990229777
 20
260.1345975205
 10
373.4822141664
 20
262.3970607881
 10
373.9640495651
 20
264.6114221692
 10
374.4355070147
 20
266.7765757032
 10
374.8963464186
 20
268.8913648133
 10
375.3463303284
 20
270.9546463678
 10
375.7852201458
 20
272.9652740718
 10
376.2127796021
 20
274.9221154246
 10
376.6287601045
 20
276.8239859118
 10
377.0329166893
 20
278.6697235823
 10
377.4249943276
 20
280.4581282459
 10
377.8046071462
 20
282.187413957
 10
378.1681993544
 20
283.8414011361
  0
LWPOLYLINE
  5
372
100
AcDbEntity
  8
0
100
AcDbPolyline
 62
7
  6
CONTINUOUS
 90
21
 70
0
 10
378.1681992782
 20
283.8414011917
 10
378.1761088438
 20
283.8746377107
 10
378.1887702525
 20
283.9196633424
 10
378.2036196602
 20
283.964313027
 10
378.2205521016
 20
284.008209179
 10
378.2394495395
 20
284.051084555
 10
378.260150611
 20
284.092675613
 10
378.2824604401
 20
284.1327456953
 10
378.3061498383
 20
284.1710799148
 10
378.3309425343
 20
284.207466204
 10
378.3566131432
 20
284.2418280912
 10
378.3828819611
 20
284.2740544324
 10
378.4095654931
 20
284.3041812524
 10
378.4364543906
 20
284.3322202999
 10
378.4633673604
 20
284.3582201269
 10
378.490128683
 20
284.3822364341
 10
378.5165557318
 20
284.4043211463
 10
378.5424801299
 20
284.42454081
 10
378.5677277335
 20
284.4429588797
 10
378.5921185415
 20
284.4596371039
 10
378.614323273
 20
284.473922927
  0
LINE
  5
373
100
AcDbEntity
  8
0
100
AcDbLine
 62
7
  6
CONTINUOUS
 10
190.536927402
 20
88.0587275259
 11
168.8743990967
 21
80.3678474873
  0
LINE
  5
374
100
AcDbEntity
  8
0
100
AcDbLine
 62
7
  6
CONTINUOUS
 10
172.7110051526
 20
80.3678474873
 11
197.2226105996
 21
89.0702396731
  0
LINE
  5
375
100
AcDbEntity
  8
0
100
AcDbLine
 62
7
  6
CONTINUOUS
 10
357.9028400819
 20
301.4511808206
 11
357.6110030147
 21
301.4511808206
  0
LINE
  5
376
100
AcDbEntity
  8
0
100
AcDbLine
 62
3
  6
CONTINUOUS
 10
357.7441356424
 20
301.8511808206
 11
357.8873209045
 21
301.8511808206
  0
LINE
  5
377
100
AcDbEntity
  8
0
100
AcDbLine
 62
7
  6
CONTINUOUS
 10
377.0592836737
 20
278.7899927159
 11
376.9655255556
 21
256.8145172011
  0
LINE
  5
378
100
AcDbEntity
  8
0
100
AcDbLine
 62
3
  6
CONTINUOUS
 10
190.536927402
 20
309.0511808206
 11
357.6008251008
 21
309.0511808206
  0
LINE
  5
379
100
AcDbEntity
  8
0
100
AcDbLine
 62
7
  6
CONTINUOUS
 10
357.5639737763
 20
309.9511808206
 11
359.1638145053
 21
309.9511808206
  0
LINE
  5
37A
100
AcDbEntity
  8
0
100
AcDbLine
 62
7
  6
CONTINUOUS
 10
190.5369328375
 20
310.9511808206
 11
359.0856131559
 21
310.9511808206
  0
LINE
  5
37B
100
AcDbEntity
  8
0
100
AcDbLine
 62
7
  6
CONTINUOUS
 10
382.4135582646
 20
313.4511808206
 11
359.2002154611
 21
313.4511808206
  0
LINE
  5
37C
100
AcDbEntity
  8
0
100
AcDbLine
 62
7
  6
CONTINUOUS
 10
382.4139017269
 20
313.4511808053
 11
382.4135582837
 21
313.4511808206
  0
LINE
  5
37D
100
AcDbEntity
  8
0
100
AcDbLine
 62
7
  6
CONTINUOUS
 10
190.5369328375
 20
313.5511808206
 11
360.5369219665
 21
313.5511808206
  0
LINE
  5
37E
100
AcDbEntity
  8
0
100
AcDbLine
 62
7
  6
CONTINUOUS
 10
357.4173065166
 20
313.9511808206
 11
386.793073781
 21
313.9511808206
  0
LINE
  5
37F
100
AcDbEntity
  8
0
100
AcDbLine
 62
3
  6
CONTINUOUS
 10
357.4173065166
 20
314.8511808206
 11
190.536927402
 21
314.8511808206
  0
LINE
  5
380
100
AcDbEntity
  8
0
100
AcDbLine
 62
7
  6
CONTINUOUS
 10
380.6953500878
 20
256.7995846265
 11
380.4918558089
 21
304.4955456091
  0
LINE
  5
381
100
AcDbEntity
  8
0
100
AcDbLine
 62
7
  6
CONTINUOUS
 10
384.1953182331
 20
256.8145172011
 11
383.9918239542
 21
304.5104781836
  0
LWPOLYLINE
  5
382
100
AcDbEntity
  8
0
100
AcDbPolyline
 62
7
  6
CONTINUOUS
 90
16
 70
0
 10
386.7451891057
 20
308.9355402742
 10
386.744799124
 20
309.0607796302
 10
386.7403616904
 20
309.2011684634
 10
386.7317021085
 20
309.3412167916
 10
386.7188438838
 20
309.480709305
 10
386.7018275461
 20
309.6194316667
 10
386.6806963305
 20
309.7572322225
 10
386.6555185513
 20
309.8938671873
 10
386.6263003737
 20
310.029442963
 10
386.5930426254
 20
310.1639910493
 10
386.5557508249
 20
310.2974723432
 10
386.5144167642
 20
310.4298663698
 10
386.46903205
 20
310.5611237645
 10
386.419577795
 20
310.6912028491
 10
386.3660395724
 20
310.8200301597
 10
386.3083805805
 20
310.9475676634
  0
LINE
  5
383
100
AcDbEntity
  8
0
100
AcDbLine
 62
7
  6
CONTINUOUS
 10
384.9584869088
 20
313.9511808206
 11
384.9584869088
 21
312.6078614471
  0
LINE
  5
384
100
AcDbEntity
  8
0
100
AcDbLine
 62
7
  6
CONTINUOUS
 10
385.2933179828
 20
312.3239782663
 11
385.2933179828
 21
313.9511808206
  0
LINE
  5
385
100
AcDbEntity
  8
0
100
AcDbLine
 62
7
  6
CONTINUOUS
 10
385.723866839
 20
313.9511808206
 11
385.723866839
 21
324.3687054118
  0
LINE
  5
386
100
AcDbEntity
  8
0
100
AcDbLine
 62
7
  6
CONTINUOUS
 10
386.4548329842
 20
311.0327661493
 11
386.4548329842
 21
310.5984714403
  0
LINE
  5
387
100
AcDbEntity
  8
0
100
AcDbLine
 62
7
  6
CONTINUOUS
 10
386.7896640582
 20
311.4455808318
 11
386.7896640582
 21
313.9511808206
  0
LINE
  5
388
100
AcDbEntity
  8
0
100
AcDbLine
 62
7
  6
CONTINUOUS
 10
386.7933179828
 20
313.9511808206
 11
386.7933179828
 21
324.3687054118
  0
LINE
  5
389
100
AcDbEntity
  8
0
100
AcDbLine
 62
7
  6
CONTINUOUS
 10
380.5804218943
 20
283.7370035088
 11
380.4654937009
 21
256.7995846265
  0
LINE
  5
38A
100
AcDbEntity
  8
0
100
AcDbLine
 62
7
  6
CONTINUOUS
 10
385.4723363493
 20
289.6484361075
 11
385.6713146176
 21
308.734760418
  0
LINE
  5
38B
100
AcDbEntity
  8
0
100
AcDbLine
 62
7
  6
CONTINUOUS
 10
386.546210878
 20
289.8492195947
 11
386.7451892451
 21
308.9355533848
  0
LINE
  5
38C
100
AcDbEntity
  8
0
100
AcDbLine
 62
7
  6
CONTINUOUS
 10
385.723866839
 20
324.3687054118
 11
386.7933179693
 21
324.3687054118
  0
LINE
  5
38D
100
AcDbEntity
  8
0
100
AcDbLine
 62
7
  6
CONTINUOUS
 10
370.3023300095
 20
331.0215402272
 11
370.9225928326
 21
331.0215402272
  0
LINE
  5
38E
100
AcDbEntity
  8
0
100
AcDbLine
 62
7
  6
CONTINUOUS
 10
357.4173065166
 20
332.4511808206
 11
361.5845934863
 21
332.4511808206
  0
LINE
  5
38F
100
AcDbEntity
  8
0
100
AcDbLine
 62
7
  6
CONTINUOUS
 10
357.8365274021
 20
333.9511808206
 11
361.1540446299
 21
333.9511808206
  0
LINE
  5
390
100
AcDbEntity
  8
02___PRT_ALL_AXES
100
AcDbLine
 62
3
  6
CONTINUOUS
 10
190.536927402
 20
335.5691378257
 11
360.536927402
 21
335.5691378257
  0
LINE
  5
391
100
AcDbEntity
  8
02___PRT_ALL_AXES
100
AcDbLine
 62
3
  6
CONTINUOUS
 10
194.0631063406
 20
339.4511808206
 11
357.0107484633
 21
339.4511808206
  0
LINE
  5
392
100
AcDbEntity
  8
02___PRT_ALL_AXES
100
AcDbLine
 62
3
  6
CONTINUOUS
 10
200.4298054512
 20
340.0401023818
 11
350.6440493527
 21
340.0401023818
  0
LINE
  5
393
100
AcDbEntity
  8
02___PRT_ALL_AXES
100
AcDbLine
 62
3
  6
CONTINUOUS
 10
201.5185351686
 20
340.7346262658
 11
349.5553196353
 21
340.7346262658
  0
LINE
  5
394
100
AcDbEntity
  8
02___PRT_ALL_AXES
100
AcDbLine
 62
3
  6
CONTINUOUS
 10
202.6713738017
 20
342.7314013513
 11
348.4024810022
 21
342.7314013513
  0
LINE
  5
395
100
AcDbEntity
  8
02___PRT_ALL_AXES
100
AcDbLine
 62
3
  6
CONTINUOUS
 10
194.0631063406
 20
339.4511808206
 11
200.4298054512
 21
340.0401023818
  0
LINE
  5
396
100
AcDbEntity
  8
02___PRT_ALL_AXES
100
AcDbLine
 62
3
  6
CONTINUOUS
 10
203.7660141988
 20
343.4264369416
 11
347.3078406051
 21
343.4264369416
  0
LINE
  5
397
100
AcDbEntity
  8
02___PRT_ALL_AXES
100
AcDbLine
 62
3
  6
CONTINUOUS
 10
357.0107484633
 20
339.4511808206
 11
350.6440493527
 21
340.0401023818
  0
LINE
  5
398
100
AcDbEntity
  8
02___PRT_ALL_AXES
100
AcDbLine
 62
3
  6
CONTINUOUS
 10
349.5553196353
 20
340.7346262658
 11
348.4024810022
 21
342.7314013513
  0
LWPOLYLINE
  5
399
100
AcDbEntity
  8
0
100
AcDbPolyline
 62
7
  6
CONTINUOUS
 90
7
 70
0
 10
362.0986440802
 20
333.7957164537
 10
362.0294812779
 20
333.8181576492
 10
361.8296699398
 20
333.872683145
 10
361.626620203
 20
333.9130379625
 10
361.4212657688
 20
333.9390370911
 10
361.2145535364
 20
333.9505550631
 10
361.1540629394
 20
333.9511778496
  0
LINE
  5
39A
100
AcDbEntity
  8
0
100
AcDbLine
 62
7
  6
CONTINUOUS
 10
372.3456892159
 20
330.5803789518
 11
376.3220013437
 21
329.2568951255
  0
LINE
  5
39B
100
AcDbEntity
  8
0
100
AcDbLine
 62
7
  6
CONTINUOUS
 10
385.723866839
 20
324.3687054118
 11
362.0486964423
 21
332.3747608758
  0
LINE
  5
39C
100
AcDbEntity
  8
0
100
AcDbLine
 62
7
  6
CONTINUOUS
 10
385.7738310167
 20
325.78965834
 11
362.0986606226
 21
333.7957138031
  0
LWPOLYLINE
  5
39D
100
AcDbEntity
  8
0
100
AcDbPolyline
 62
7
  6
CONTINUOUS
 90
36
 70
0
 10
386.3083805805
 20
310.9475676634
 10
386.2466212696
 20
311.0736413063
 10
386.180767744
 20
311.1981178149
 10
386.1108433143
 20
311.3208374918
 10
386.0368709849
 20
311.4416504301
 10
385.958877616
 20
311.5604072294
 10
385.876885387
 20
311.676970515
 10
385.7909427105
 20
311.7911713392
 10
385.7010906752
 20
311.9028590852
 10
385.6073820287
 20
312.0118749874
 10
385.509863607
 20
312.118073405
 10
385.4085989551
 20
312.2212957248
 10
385.3036116127
 20
312.3214269837
 10
385.1950670225
 20
312.4182254336
 10
385.0830864337
 20
312.5115130204
 10
384.9678655609
 20
312.6010704312
 10
384.8495765848
 20
312.6867226457
 10
384.728439638
 20
312.7682834499
 10
384.6046276249
 20
312.8456218724
 10
384.478490488
 20
312.91852416
 10
384.3503395799
 20
312.9868417535
 10
384.2205424482
 20
313.0504346782
 10
384.0894905047
 20
313.109194146
 10
383.9574983872
 20
313.1630834273
 10
383.8249723342
 20
313.2120614196
 10
383.6921076468
 20
313.2561931465
 10
383.5591749291
 20
313.2955304158
 10
383.426410168
 20
313.3301517168
 10
383.2940661125
 20
313.3601451767
 10
383.1623963933
 20
313.3856142119
 10
383.0316672419
 20
313.4066759343
 10
382.9021410033
 20
313.4234649769
 10
382.7740928983
 20
313.4361314036
 10
382.6477953333
 20
313.4448434077
 10
382.5235965303
 20
313.4497847559
 10
382.4138803449
 20
313.451180807
  0
ARC
  5
39E
100
AcDbEntity
  8
02___PRT_ALL_AXES
100
AcDbCircle
 62
3
  6
CONTINUOUS
 10
275.536927402
 20
-506.5488191794
 40
853.0
100
AcDbArc
 50
85.173460823
 51
94.826539177
  0
ARC
  5
39F
100
AcDbEntity
  8
02___PRT_ALL_AXES
100
AcDbCircle
 62
3
  6
CONTINUOUS
 10
203.1498137189
 20
93.9028232495
 40
8.2961835354
100
AcDbArc
 50
175.3089714933
 51
180.0113430765
  0
ARC
  5
3A0
100
AcDbEntity
  8
02___PRT_ALL_AXES
100
AcDbCircle
 62
3
  6
CONTINUOUS
 10
194.436927402
 20
335.5691378257
 40
3.9
100
AcDbArc
 50
95.5003339487
 51
180.0
  0
ARC
  5
3A1
100
AcDbEntity
  8
02___PRT_ALL_AXES
100
AcDbCircle
 62
3
  6
CONTINUOUS
 10
356.636927402
 20
335.5691378257
 40
3.9
100
AcDbArc
 50
0.0
 51
84.4996660513
  0
ARC
  5
3A2
100
AcDbEntity
  8
0
100
AcDbCircle
 62
7
  6
CONTINUOUS
 10
174.6011622427
 20
109.2051746202
 40
2.1268015398
100
AcDbArc
 50
257.4840863254
 51
260.291422258
  0
ARC
  5
3A3
100
AcDbEntity
  8
0
100
AcDbCircle
 62
7
  6
CONTINUOUS
 10
370.0085430401
 20
311.9587532114
 40
1.9924177617
100
AcDbArc
 50
48.5838237824
 51
83.2865136525
  0
ARC
  5
3A4
100
AcDbEntity
  8
0
100
AcDbCircle
 62
7
  6
CONTINUOUS
 10
362.6418567787
 20
311.9588349388
 40
1.9923459086
100
AcDbArc
 50
48.5138900322
 51
89.9906119103
  0
ARC
  5
3A5
100
AcDbEntity
  8
0
100
AcDbCircle
 62
7
  6
CONTINUOUS
 10
370.1829605502
 20
311.9588623242
 40
1.992318521
100
AcDbArc
 50
48.5823157427
 51
89.9910080812
  0
ARC
  5
3A6
100
AcDbEntity
  8
0
100
AcDbCircle
 62
7
  6
CONTINUOUS
 10
362.4675459604
 20
311.9590430703
 40
1.9921140382
100
AcDbArc
 50
50.5474072872
 51
83.015713868
  0
ARC
  5
3A7
100
AcDbEntity
  8
0
100
AcDbCircle
 62
7
  6
CONTINUOUS
 10
362.4694562982
 20
311.960297973
 40
1.9899312755
100
AcDbArc
 50
48.5289227374
 51
50.5669188651
  0
ARC
  5
3A8
100
AcDbEntity
  8
0
100
AcDbCircle
 62
3
  6
CONTINUOUS
 10
358.836927402
 20
309.0511808206
 40
1.9
100
AcDbArc
 50
82.4364856089
 51
90.0
  0
ARC
  5
3A9
100
AcDbEntity
  8
0
100
AcDbCircle
 62
3
  6
CONTINUOUS
 10
192.436927402
 20
309.0511808206
 40
1.9
100
AcDbArc
 50
90.0
 51
180.0
  0
ARC
  5
3AA
100
AcDbEntity
  8
0
100
AcDbCircle
 62
3
  6
CONTINUOUS
 10
358.836927402
 20
84.0511808206
 40
1.9
100
AcDbArc
 50
270.0
 51
360.0
  0
ARC
  5
3AB
100
AcDbEntity
  8
0
100
AcDbCircle
 62
3
  6
CONTINUOUS
 10
358.7804395979
 20
84.0504995856
 40
1.8993627081
100
AcDbArc
 50
270.0208785279
 51
0.0205495145
  0
ARC
  5
3AC
100
AcDbEntity
  8
0
100
AcDbCircle
 62
3
  6
CONTINUOUS
 10
358.7811437733
 20
84.0494641729
 40
1.898282816
100
AcDbArc
 50
265.8255029838
 51
269.9996358243
  0
ARC
  5
3AD
100
AcDbEntity
  8
0
100
AcDbCircle
 62
7
  6
CONTINUOUS
 10
381.8703328032
 20
309.4351004501
 40
1.7631230224
100
AcDbArc
 50
207.1798841898
 51
207.6405579219
  0
ARC
  5
3AE
100
AcDbEntity
  8
0
100
AcDbCircle
 62
7
  6
CONTINUOUS
 10
381.8688948808
 20
309.4343799672
 40
1.7615147738
100
AcDbArc
 50
202.4962099979
 51
207.1804012762
  0
ARC
  5
3AF
100
AcDbEntity
  8
0
100
AcDbCircle
 62
7
  6
CONTINUOUS
 10
157.7801203687
 20
112.4511808206
 40
1.6
100
AcDbArc
 50
90.0
 51
180.0
  0
ARC
  5
3B0
100
AcDbEntity
  8
0
100
AcDbCircle
 62
7
  6
CONTINUOUS
 10
157.7908398693
 20
112.4602087693
 40
1.5909720532
100
AcDbArc
 50
90.1798067303
 51
90.3859035502
  0
ARC
  5
3B1
100
AcDbEntity
  8
0
100
AcDbCircle
 62
7
  6
CONTINUOUS
 10
157.7908386459
 20
112.4605908015
 40
1.5905900191
100
AcDbArc
 50
90.000003543
 51
90.1798058501
  0
ARC
  5
3B2
100
AcDbEntity
  8
0
100
AcDbCircle
 62
7
  6
CONTINUOUS
 10
385.2932035159
 20
324.3686245352
 40
1.5001233498
100
AcDbArc
 50
0.0030897712
 51
71.3135100903
  0
ARC
  5
3B3
100
AcDbEntity
  8
0
100
AcDbCircle
 62
7
  6
CONTINUOUS
 10
385.0462915066
 20
289.8648569653
 40
1.5000008011
100
AcDbArc
 50
297.6289284271
 51
359.4026674404
  0
ARC
  5
3B4
100
AcDbEntity
  8
0
100
AcDbCircle
 62
7
  6
CONTINUOUS
 10
368.3767984114
 20
245.9511808206
 40
1.5
100
AcDbArc
 50
270.0
 51
347.7692400544
  0
ARC
  5
3B5
100
AcDbEntity
  8
0
100
AcDbCircle
 62
7
  6
CONTINUOUS
 10
361.5827491662
 20
330.9925074925
 40
1.4586744941
100
AcDbArc
 50
71.3714233082
 51
89.9275562925
  0
ARC
  5
3B6
100
AcDbEntity
  8
0
100
AcDbCircle
 62
3
  6
CONTINUOUS
 10
359.136927402
 20
314.8511808206
 40
1.4
100
AcDbArc
 50
291.2281785478
 51
319.9051012968
  0
ARC
  5
3B7
100
AcDbEntity
  8
0
100
AcDbCircle
 62
3
  6
CONTINUOUS
 10
191.936927402
 20
314.8511808206
 40
1.4
100
AcDbArc
 50
180.0
 51
248.7718214522
  0
ARC
  5
3B8
100
AcDbEntity
  8
02___PRT_ALL_AXES
100
AcDbCircle
 62
3
  6
CONTINUOUS
 10
200.3060996033
 20
341.4346262658
 40
1.4
100
AcDbArc
 50
275.0693420264
 51
330.0
  0
ARC
  5
3B9
100
AcDbEntity
  8
02___PRT_ALL_AXES
100
AcDbCircle
 62
3
  6
CONTINUOUS
 10
203.883809367
 20
342.0314013513
 40
1.4
100
AcDbArc
 50
94.826539177
 51
150.0
  0
ARC
  5
3BA
100
AcDbEntity
  8
02___PRT_ALL_AXES
100
AcDbCircle
 62
3
  6
CONTINUOUS
 10
347.1900454369
 20
342.0314013513
 40
1.4
100
AcDbArc
 50
30.0
 51
85.173460823
  0
ARC
  5
3BB
100
AcDbEntity
  8
02___PRT_ALL_AXES
100
AcDbCircle
 62
3
  6
CONTINUOUS
 10
350.7677552006
 20
341.4346262658
 40
1.4
100
AcDbArc
 50
210.0
 51
264.9306579736
  0
ARC
  5
3BC
100
AcDbEntity
  8
0
100
AcDbCircle
 62
7
  6
CONTINUOUS
 10
378.5052416037
 20
283.5897697911
 40
0.9986135645
100
AcDbArc
 50
118.8676345498
 51
166.6056853352
  0
ARC
  5
3BD
100
AcDbEntity
  8
0
100
AcDbCircle
 62
7
  6
CONTINUOUS
 10
160.9969504997
 20
113.7511808206
 40
0.8
100
AcDbArc
 50
90.0
 51
157.9037546265
  0
ARC
  5
3BE
100
AcDbEntity
  8
0
100
AcDbCircle
 62
7
  6
CONTINUOUS
 10
164.419087151
 20
113.75314964
 40
0.7980544227
100
AcDbArc
 50
90.0385769805
 51
158.0012839518
  0
ARC
  5
3BF
100
AcDbEntity
  8
0
100
AcDbCircle
 62
7
  6
CONTINUOUS
 10
161.0010199376
 20
113.7531496398
 40
0.7980544228
100
AcDbArc
 50
90.0385769829
 51
158.001283961
  0
ARC
  5
3C0
100
AcDbEntity
  8
0
100
AcDbCircle
 62
7
  6
CONTINUOUS
 10
386.3670142329
 20
311.4467248377
 40
0.4251246362
100
AcDbArc
 50
256.1968133372
 51
269.9985396747
  0
ARC
  5
3C1
100
AcDbEntity
  8
0
100
AcDbCircle
 62
7
  6
CONTINUOUS
 10
359.2002400712
 20
313.3065894825
 40
0.1445913402
100
AcDbArc
 50
90.0097520018
 51
96.4628817202
  0
ARC
  5
3C2
100
AcDbEntity
  8
0
100
AcDbCircle
 62
7
  6
CONTINUOUS
 10
1010.2732595041
 20
-903.4377972733
 40
1346.7858772805
100
AcDbArc
 50
117.8762135056
 51
118.0608582813
  0
SPLINE
  5
3C3
100
AcDbEntity
  8
0
100
AcDbSpline
 62
7
  6
CONTINUOUS
 70
0
 71
3
 72
11
 73
7
 74
0
 42
0.0000001
 43
0.0000001
 44
0.0000000001
 40
0.0
 40
0.0
 40
0.0
 40
0.0
 40
0.2635152594
 40
0.5143227247
 40
0.7585942968
 40
1.0
 40
1.0
 40
1.0
 40
1.0
 10
194.9187900399
 20
114.0517604094
 30
0.0
 10
194.8665771263
 20
114.1431863759
 30
0.0
 10
194.7230643928
 20
114.2988175009
 30
0.0
 10
194.4566368484
 20
114.4491486971
 30
0.0
 10
194.1724439446
 20
114.5331481445
 30
0.0
 10
193.9779117504
 20
114.5511808206
 30
0.0
 10
193.8814605666
 20
114.5511808206
 30
0.0
  0
SPLINE
  5
3C4
100
AcDbEntity
  8
0
100
AcDbSpline
 62
7
  6
CONTINUOUS
 70
0
 71
3
 72
14
 73
10
 74
0
 42
0.0000001
 43
0.0000001
 44
0.0000000001
 40
0.0
 40
0.0
 40
0.0
 40
0.0
 40
0.0238283215
 40
0.0778284058
 40
0.1639935663
 40
0.2809224939
 40
0.4263964918
 40
0.5972466237
 40
1.0
 40
1.0
 40
1.0
 40
1.0
 10
165.9661646001
 20
114.5511808206
 30
0.0
 10
165.9701603063
 20
114.5511808206
 30
0.0
 10
165.9777659351
 20
114.5364011775
 30
0.0
 10
165.983713036
 20
114.512240788
 30
0.0
 10
165.9914346225
 20
114.4683831324
 30
0.0
 10
165.9980235447
 20
114.410875626
 30
0.0
 10
166.0043765401
 20
114.3382815375
 30
0.0
 10
166.0121226845
 20
114.218039073
 30
0.0
 10
166.0158788027
 20
114.1218681808
 30
0.0
 10
166.0178075987
 20
114.054359115
 30
0.0
  0
SPLINE
  5
3C5
100
AcDbEntity
  8
0
100
AcDbSpline
 62
7
  6
CONTINUOUS
 70
0
 71
3
 72
17
 73
13
 74
0
 42
0.0000001
 43
0.0000001
 44
0.0000000001
 40
0.0
 40
0.0
 40
0.0
 40
0.0
 40
0.1561473923
 40
0.3026054662
 40
0.4326815711
 40
0.5416216313
 40
0.6293554855
 40
0.7140705128
 40
0.7740662951
 40
0.8463703372
 40
0.9226765685
 40
1.0
 40
1.0
 40
1.0
 40
1.0
 10
383.9918239542
 20
304.5104781836
 30
0.0
 10
383.9901126799
 20
304.911574821
 30
0.0
 10
383.980779399
 20
305.688863575
 30
0.0
 10
383.9486748181
 20
306.7999264378
 30
0.0
 10
383.9003070147
 20
307.788924827
 30
0.0
 10
383.8360703175
 20
308.6261944772
 30
0.0
 10
383.7504837443
 20
309.3435316785
 30
0.0
 10
383.6175377047
 20
309.9302714184
 30
0.0
 10
383.3605008846
 20
310.4307270741
 30
0.0
 10
382.9902093427
 20
310.8299775694
 30
0.0
 10
382.4728758637
 20
311.1149529755
 30
0.0
 10
382.0750414048
 20
311.1824529595
 30
0.0
 10
381.8764184894
 20
311.1824830907
 30
0.0
  0
SPLINE
  5
3C6
100
AcDbEntity
  8
0
100
AcDbSpline
 62
7
  6
CONTINUOUS
 70
0
 71
3
 72
9
 73
5
 74
0
 42
0.0000001
 43
0.0000001
 44
0.0000000001
 40
0.0
 40
0.0
 40
0.0
 40
0.0
 40
0.629376468
 40
1.0
 40
1.0
 40
1.0
 40
1.0
 10
380.369834888
 20
308.0336056866
 30
0.0
 10
380.3568779785
 20
308.1921017385
 30
0.0
 10
380.3329347515
 20
308.4435958573
 30
0.0
 10
380.3004210517
 20
308.6944303095
 30
0.0
 10
380.2828434438
 20
308.786411408
 30
0.0
  0
SPLINE
  5
3C7
100
AcDbEntity
  8
0
100
AcDbSpline
 62
7
  6
CONTINUOUS
 70
0
 71
3
 72
11
 73
7
 74
0
 42
0.0000001
 43
0.0000001
 44
0.0000000001
 40
0.0
 40
0.0
 40
0.0
 40
0.0
 40
0.2908981173
 40
0.5661674515
 40
0.8072057734
 40
1.0
 40
1.0
 40
1.0
 40
1.0
 10
376.9655255556
 20
256.8145172011
 30
0.0
 10
376.9623328184
 20
256.0661882149
 30
0.0
 10
376.9696119181
 20
254.6096508688
 30
0.0
 10
377.0193239554
 20
252.5335292309
 30
0.0
 10
377.104672194
 20
250.7112762935
 30
0.0
 10
377.1914015074
 20
249.5981152356
 30
0.0
 10
377.2466185226
 20
249.1052351467
 30
0.0
  0
SPLINE
  5
3C8
100
AcDbEntity
  8
0
100
AcDbSpline
 62
7
  6
CONTINUOUS
 70
0
 71
3
 72
11
 73
7
 74
0
 42
0.0000001
 43
0.0000001
 44
0.0000000001
 40
0.0
 40
0.0
 40
0.0
 40
0.0
 40
0.1927944733
 40
0.4338327851
 40
0.7091020647
 40
1.0
 40
1.0
 40
1.0
 40
1.0
 10
383.914225266
 20
249.1052351467
 30
0.0
 10
383.9694423519
 20
249.5981158662
 30
0.0
 10
384.056171697
 20
250.7112775335
 30
0.0
 10
384.1415198715
 20
252.5335309423
 30
0.0
 10
384.1912318837
 20
254.6096519456
 30
0.0
 10
384.1985109683
 20
256.0661886831
 30
0.0
 10
384.1953182331
 20
256.8145172011
 30
0.0
  0
SPLINE
  5
3C9
100
AcDbEntity
  8
0
100
AcDbSpline
 62
7
  6
CONTINUOUS
 70
0
 71
3
 72
9
 73
5
 74
0
 42
0.0000001
 43
0.0000001
 44
0.0000000001
 40
0.0
 40
0.0
 40
0.0
 40
0.0
 40
0.5284265816
 40
1.0
 40
1.0
 40
1.0
 40
1.0
 10
380.4654937009
 20
256.7995846265
 30
0.0
 10
380.461424836
 20
255.8459046553
 30
0.0
 10
380.4755395554
 20
254.0410239361
 30
0.0
 10
380.5348860456
 20
252.2368746895
 30
0.0
 10
380.580197834
 20
251.3870000054
 30
0.0
  0
SPLINE
  5
3CA
100
AcDbEntity
  8
0
100
AcDbSpline
 62
7
  6
CONTINUOUS
 70
0
 71
3
 72
19
 73
15
 74
0
 42
0.0000001
 43
0.0000001
 44
0.0000000001
 40
0.0
 40
0.0
 40
0.0
 40
0.0
 40
0.1678656774
 40
0.3164074578
 40
0.4456491095
 40
0.5564640642
 40
0.6515172184
 40
0.7385275163
 40
0.7852692887
 40
0.8117084445
 40
0.8414640421
 40
0.913380386
 40
0.955484334
 40
1.0
 40
1.0
 40
1.0
 40
1.0
 10
377.2466185226
 20
249.1052351467
 30
0.0
 10
377.3052567338
 20
248.5818166574
 30
0.0
 10
377.423842625
 20
247.5960995767
 30
0.0
 10
377.6213030017
 20
246.2116999128
 30
0.0
 10
377.8284344711
 20
245.0099581424
 30
0.0
 10
378.0492108307
 20
243.981458675
 30
0.0
 10
378.2968111217
 20
243.0959029921
 30
0.0
 10
378.5642546599
 20
242.4263534023
 30
0.0
 10
378.8240822012
 20
241.9939758983
 30
0.0
 10
379.0251676366
 20
241.7406038552
 30
0.0
 10
379.3051356514
 20
241.4513845112
 30
0.0
 10
379.690953435
 20
241.1999737131
 30
0.0
 10
380.1660891223
 20
241.0438651413
 30
0.0
 10
380.4389730514
 20
241.0156973516
 30
0.0
 10
380.5786439516
 20
241.0152276521
 30
0.0
  0
SPLINE
  5
3CB
100
AcDbEntity
  8
0
100
AcDbSpline
 62
7
  6
CONTINUOUS
 70
0
 71
3
 72
11
 73
7
 74
0
 42
0.0000001
 43
0.0000001
 44
0.0000000001
 40
0.0
 40
0.0
 40
0.0
 40
0.0
 40
0.1831863527
 40
0.4246651159
 40
0.7039371815
 40
1.0
 40
1.0
 40
1.0
 40
1.0
 10
380.4359841543
 20
249.4949000914
 30
0.0
 10
380.4856935271
 20
249.9386176659
 30
0.0
 10
380.5645670987
 20
250.9711490084
 30
0.0
 10
380.6443371651
 20
252.6851068768
 30
0.0
 10
380.6914883407
 20
254.6756059634
 30
0.0
 10
380.6984288234
 20
256.0779758749
 30
0.0
 10
380.6953500878
 20
256.7995846265
 30
0.0
  0
SPLINE
  5
3CC
100
AcDbEntity
  8
0
100
AcDbSpline
 62
7
  6
CONTINUOUS
 70
0
 71
3
 72
19
 73
15
 74
0
 42
0.0000001
 43
0.0000001
 44
0.0000000001
 40
0.0
 40
0.0
 40
0.0
 40
0.0
 40
0.0443944819
 40
0.0866468301
 40
0.1249439577
 40
0.1587959015
 40
0.214943147
 40
0.2617181578
 40
0.3486962686
 40
0.443712797
 40
0.5544831203
 40
0.6836787934
 40
0.8321782876
 40
1.0
 40
1.0
 40
1.0
 40
1.0
 10
380.5786439516
 20
241.0152276521
 30
0.0
 10
380.7180083577
 20
241.0147589833
 30
0.0
 10
380.991143823
 20
241.0433099359
 30
0.0
 10
381.3660810372
 20
241.166271779
 30
0.0
 10
381.6837818146
 20
241.3378056319
 30
0.0
 10
382.0015279702
 20
241.5875642927
 30
0.0
 10
382.287653133
 20
241.9125486439
 30
0.0
 10
382.5959944921
 20
242.4248014591
 30
0.0
 10
382.8636145919
 20
243.0947959282
 30
0.0
 10
383.111394616
 20
243.9803572933
 30
0.0
 10
383.3322304763
 20
245.0090333035
 30
0.0
 10
383.5394358991
 20
246.2109844473
 30
0.0
 10
383.7369515583
 20
247.5957080229
 30
0.0
 10
383.8555713824
 20
248.5816767609
 30
0.0
 10
383.914225266
 20
249.1052351467
 30
0.0
  0
SPLINE
  5
3CD
100
AcDbEntity
  8
0
100
AcDbSpline
 62
7
  6
CONTINUOUS
 70
0
 71
3
 72
23
 73
19
 74
0
 42
0.0000001
 43
0.0000001
 44
0.0000000001
 40
0.0
 40
0.0
 40
0.0
 40
0.0
 40
0.0012579393
 40
0.0037798456
 40
0.0095455462
 40
0.0182263824
 40
0.0295769529
 40
0.0433551034
 40
0.0774713485
 40
0.119616061
 40
0.1690493624
 40
0.2253317899
 40
0.2880969374
 40
0.3570875666
 40
0.4320986579
 40
0.5994815019
 40
0.7891104427
 40
1.0
 40
1.0
 40
1.0
 40
1.0
 10
379.430119577
 20
243.9574626495
 30
0.0
 10
379.4288449793
 20
243.9554631823
 30
0.0
 10
379.4230246008
 20
243.9458372835
 30
0.0
 10
379.4396847244
 20
243.9757089298
 30
0.0
 10
379.4472705841
 20
243.9950691352
 30
0.0
 10
379.4691570434
 20
244.0446686186
 30
0.0
 10
379.4913494858
 20
244.1020479923
 30
0.0
 10
379.5301583107
 20
244.2078805384
 30
0.0
 10
379.5819388579
 20
244.3688818619
 30
0.0
 10
379.6472852215
 20
244.5969349064
 30
0.0
 10
379.7160216373
 20
244.8669801134
 30
0.0
 10
379.7872183607
 20
245.1765314962
 30
0.0
 10
379.8596761633
 20
245.5235040688
 30
0.0
 10
379.93283905
 20
245.9063435534
 30
0.0
 10
380.0344962874
 20
246.4844397823
 30
0.0
 10
380.1595504759
 20
247.2892126499
 30
0.0
 10
380.3028440403
 20
248.3501039213
 30
0.0
 10
380.3917271309
 20
249.0998514723
 30
0.0
 10
380.4359841543
 20
249.4949000914
 30
0.0
  0
SPLINE
  5
3CE
100
AcDbEntity
  8
0
100
AcDbSpline
 62
7
  6
CONTINUOUS
 70
0
 71
3
 72
17
 73
13
 74
0
 42
0.0000001
 43
0.0000001
 44
0.0000000001
 40
0.0
 40
0.0
 40
0.0
 40
0.0
 40
0.1971635881
 40
0.3852391658
 40
0.5569954023
 40
0.7066635264
 40
0.8291798881
 40
0.9202208355
 40
0.9530326554
 40
0.9770335588
 40
0.9923012318
 40
1.0
 40
1.0
 40
1.0
 40
1.0
 10
382.5671802972
 20
256.913885858
 30
0.0
 10
382.6748975305
 20
256.913885858
 30
0.0
 10
382.8853680178
 20
256.9126933341
 30
0.0
 10
383.1896389458
 20
256.9073454613
 30
0.0
 10
383.4678563505
 20
256.8986370186
 30
0.0
 10
383.7101714236
 20
256.8869201576
 30
0.0
 10
383.9080190338
 20
256.8728521914
 30
0.0
 10
384.0421514754
 20
256.8583938623
 30
0.0
 10
384.1215794018
 20
256.8454666997
 30
0.0
 10
384.1604428436
 20
256.835831266
 30
0.0
 10
384.1837085902
 20
256.8282703425
 30
0.0
 10
384.1952601684
 20
256.8187230542
 30
0.0
 10
384.1952960728
 20
256.8145171062
 30
0.0
  0
SPLINE
  5
3CF
100
AcDbEntity
  8
0
100
AcDbSpline
 62
7
  6
CONTINUOUS
 70
0
 71
3
 72
17
 73
13
 74
0
 42
0.0000001
 43
0.0000001
 44
0.0000000001
 40
0.0
 40
0.0
 40
0.0
 40
0.0
 40
0.1971635881
 40
0.3852391658
 40
0.5569954023
 40
0.7066635264
 40
0.8291798881
 40
0.9202208355
 40
0.9530326554
 40
0.9770335588
 40
0.9923012318
 40
1.0
 40
1.0
 40
1.0
 40
1.0
 10
382.3636860183
 20
304.6098468405
 30
0.0
 10
382.4714032516
 20
304.6098468405
 30
0.0
 10
382.6818737389
 20
304.6086543166
 30
0.0
 10
382.9861446669
 20
304.6033064439
 30
0.0
 10
383.2643620716
 20
304.5945980011
 30
0.0
 10
383.5066771447
 20
304.5828811401
 30
0.0
 10
383.7045247549
 20
304.5688131739
 30
0.0
 10
383.8386571966
 20
304.5543548448
 30
0.0
 10
383.9180851229
 20
304.5414276822
 30
0.0
 10
383.9569485647
 20
304.5317922485
 30
0.0
 10
383.9802143113
 20
304.524231325
 30
0.0
 10
383.9917658895
 20
304.5146840367
 30
0.0
 10
383.9918017939
 20
304.5104780887
 30
0.0
  0
SPLINE
  5
3D0
100
AcDbEntity
  8
0
100
AcDbSpline
 62
7
  6
CONTINUOUS
 70
0
 71
3
 72
17
 73
13
 74
0
 42
0.0000001
 43
0.0000001
 44
0.0000000001
 40
0.0
 40
0.0
 40
0.0
 40
0.0
 40
0.1899800245
 40
0.3750575688
 40
0.5469652898
 40
0.6987730521
 40
0.8242092537
 40
0.9180767587
 40
0.9519537686
 40
0.976736441
 40
0.9924313604
 40
1.0
 40
1.0
 40
1.0
 40
1.0
 10
378.837355765
 20
256.7002159696
 30
0.0
 10
378.7180793083
 20
256.7002159696
 30
0.0
 10
378.4826032911
 20
256.701687926
 30
0.0
 10
378.1392427987
 20
256.7080980949
 30
0.0
 10
377.8199801803
 20
256.718449068
 30
0.0
 10
377.5382450518
 20
256.7322618682
 30
0.0
 10
377.3059799957
 20
256.7486919251
 30
0.0
 10
377.1474569874
 20
256.7653580655
 30
0.0
 10
377.0533172518
 20
256.780024296
 30
0.0
 10
377.0069255214
 20
256.7909618744
 30
0.0
 10
376.9797860415
 20
256.7991636608
 30
0.0
 10
376.9655071527
 20
256.8097654086
 30
0.0
 10
376.9655477159
 20
256.8145171062
 30
0.0
  0
SPLINE
  5
3D1
100
AcDbEntity
  8
0
100
AcDbSpline
 62
7
  6
CONTINUOUS
 70
0
 71
3
 72
12
 73
8
 74
0
 42
0.0000001
 43
0.0000001
 44
0.0000000001
 40
0.0
 40
0.0
 40
0.0
 40
0.0
 40
0.2678719216
 40
0.5268345835
 40
0.7692390989
 40
0.8855930551
 40
1.0
 40
1.0
 40
1.0
 40
1.0
 10
379.0502638167
 20
250.7856230707
 30
0.0
 10
378.8040776769
 20
250.7856230707
 30
0.0
 10
378.3154531525
 20
250.6975820755
 30
0.0
 10
377.6952262056
 20
250.3261079396
 30
0.0
 10
377.3521050677
 20
249.8480526024
 30
0.0
 10
377.2382003429
 20
249.4244583268
 30
0.0
 10
377.2349426287
 20
249.209729906
 30
0.0
 10
377.2466624363
 20
249.1052400705
 30
0.0
  0
SPLINE
  5
3D2
100
AcDbEntity
  8
0
100
AcDbSpline
 62
7
  6
CONTINUOUS
 70
0
 71
3
 72
17
 73
13
 74
0
 42
0.0000001
 43
0.0000001
 44
0.0000000001
 40
0.0
 40
0.0
 40
0.0
 40
0.0
 40
0.0075686396
 40
0.023263559
 40
0.0480462314
 40
0.0819232413
 40
0.1757907463
 40
0.3012269479
 40
0.4530347102
 40
0.6249424312
 40
0.8100199755
 40
1.0
 40
1.0
 40
1.0
 40
1.0
 10
380.4918779692
 20
304.495545704
 30
0.0
 10
380.4918374061
 20
304.5002974015
 30
0.0
 10
380.5061162948
 20
304.5108991494
 30
0.0
 10
380.5332557747
 20
304.5191009358
 30
0.0
 10
380.5796475052
 20
304.5300385142
 30
0.0
 10
380.6737872407
 20
304.5447047446
 30
0.0
 10
380.832310249
 20
304.5613708851
 30
0.0
 10
381.0645753051
 20
304.5778009419
 30
0.0
 10
381.3463104336
 20
304.5916137422
 30
0.0
 10
381.665573052
 20
304.6019647153
 30
0.0
 10
382.0089335444
 20
304.6083748842
 30
0.0
 10
382.2444095617
 20
304.6098468405
 30
0.0
 10
382.3636860183
 20
304.6098468405
 30
0.0
  0
SPLINE
  5
3D3
100
AcDbEntity
  8
0
100
AcDbSpline
 62
7
  6
CONTINUOUS
 70
0
 71
3
 72
17
 73
13
 74
0
 42
0.0000001
 43
0.0000001
 44
0.0000000001
 40
0.0
 40
0.0
 40
0.0
 40
0.0
 40
0.0076987682
 40
0.0229664412
 40
0.0469673446
 40
0.0797791645
 40
0.1708201119
 40
0.2933364736
 40
0.4430045977
 40
0.6147608342
 40
0.8028364119
 40
1.0
 40
1.0
 40
1.0
 40
1.0
 10
380.4654715405
 20
256.7995847214
 30
0.0
 10
380.4654356362
 20
256.7953787735
 30
0.0
 10
380.4538840579
 20
256.7858314851
 30
0.0
 10
380.4306183113
 20
256.7782705617
 30
0.0
 10
380.3917548696
 20
256.7686351279
 30
0.0
 10
380.3123269432
 20
256.7557079654
 30
0.0
 10
380.1781945016
 20
256.7412496362
 30
0.0
 10
379.9803468914
 20
256.7271816701
 30
0.0
 10
379.7380318183
 20
256.7154648091
 30
0.0
 10
379.4598144136
 20
256.7067563663
 30
0.0
 10
379.1555434855
 20
256.7014084936
 30
0.0
 10
378.9450729983
 20
256.7002159696
 30
0.0
 10
378.837355765
 20
256.7002159696
 30
0.0
  0
SPLINE
  5
3D4
100
AcDbEntity
  8
0
100
AcDbSpline
 62
7
  6
CONTINUOUS
 70
0
 71
3
 72
17
 73
13
 74
0
 42
0.0000001
 43
0.0000001
 44
0.0000000001
 40
0.0
 40
0.0
 40
0.0
 40
0.0
 40
0.0075686396
 40
0.023263559
 40
0.0480462314
 40
0.0819232413
 40
0.1757907463
 40
0.3012269479
 40
0.4530347102
 40
0.6249424312
 40
0.8100199755
 40
1.0
 40
1.0
 40
1.0
 40
1.0
 10
380.6953722481
 20
256.7995847214
 30
0.0
 10
380.6953316849
 20
256.804336419
 30
0.0
 10
380.7096105737
 20
256.8149381669
 30
0.0
 10
380.7367500536
 20
256.8231399533
 30
0.0
 10
380.783141784
 20
256.8340775317
 30
0.0
 10
380.8772815196
 20
256.8487437621
 30
0.0
 10
381.0358045279
 20
256.8654099026
 30
0.0
 10
381.268069584
 20
256.8818399594
 30
0.0
 10
381.5498047125
 20
256.8956527597
 30
0.0
 10
381.8690673309
 20
256.9060037328
 30
0.0
 10
382.2124278233
 20
256.9124139017
 30
0.0
 10
382.4479038405
 20
256.913885858
 30
0.0
 10
382.5671802972
 20
256.913885858
 30
0.0
  0
SPLINE
  5
3D5
100
AcDbEntity
  8
0
100
AcDbSpline
 62
7
  6
CONTINUOUS
 70
0
 71
3
 72
10
 73
6
 74
0
 42
0.0000001
 43
0.0000001
 44
0.0000000001
 40
0.0
 40
0.0
 40
0.0
 40
0.0
 40
0.2368807242
 40
0.483756117
 40
1.0
 40
1.0
 40
1.0
 40
1.0
 10
380.4973255127
 20
250.0916996533
 30
0.0
 10
380.4225210175
 20
250.1991398669
 30
0.0
 10
380.237289359
 20
250.3974340384
 30
0.0
 10
379.7667626251
 20
250.6950525452
 30
0.0
 10
379.3355753679
 20
250.7856230707
 30
0.0
 10
379.0502638167
 20
250.7856230707
 30
0.0
  0
SPLINE
  5
3D6
100
AcDbEntity
  8
0
100
AcDbSpline
 62
7
  6
CONTINUOUS
 70
0
 71
3
 72
11
 73
7
 74
0
 42
0.0000001
 43
0.0000001
 44
0.0000000001
 40
0.0
 40
0.0
 40
0.0
 40
0.0
 40
0.2686961905
 40
0.5256359084
 40
0.7679544627
 40
1.0
 40
1.0
 40
1.0
 40
1.0
 10
382.2396294484
 20
247.8145121674
 30
0.0
 10
382.4456201138
 20
247.8145121674
 30
0.0
 10
382.851690196
 20
247.8755024889
 30
0.0
 10
383.3860362994
 20
248.1479195575
 30
0.0
 10
383.7732131855
 20
248.5719763481
 30
0.0
 10
383.8943528031
 20
248.9284554408
 30
0.0
 10
383.9141813523
 20
249.1052400705
 30
0.0
  0
SPLINE
  5
3D7
100
AcDbEntity
  8
0
100
AcDbSpline
 62
7
  6
CONTINUOUS
 70
0
 71
3
 72
12
 73
8
 74
0
 42
0.0000001
 43
0.0000001
 44
0.0000000001
 40
0.0
 40
0.0
 40
0.0
 40
0.0
 40
0.1144069449
 40
0.2307609011
 40
0.4731654165
 40
0.7321280784
 40
1.0
 40
1.0
 40
1.0
 40
1.0
 10
380.436028068
 20
249.4948951676
 30
0.0
 10
380.4243082604
 20
249.3904053321
 30
0.0
 10
380.4275659745
 20
249.1756769113
 30
0.0
 10
380.5414706994
 20
248.7520826357
 30
0.0
 10
380.8845918373
 20
248.2740272985
 30
0.0
 10
381.5048187842
 20
247.9025531626
 30
0.0
 10
381.9934433086
 20
247.8145121674
 30
0.0
 10
382.2396294484
 20
247.8145121674
 30
0.0
  0
SPLINE
  5
3D8
100
AcDbEntity
  8
0
100
AcDbSpline
 62
7
  6
CONTINUOUS
 70
0
 71
3
 72
21
 73
17
 74
0
 42
0.0000001
 43
0.0000001
 44
0.0000000001
 40
0.0
 40
0.0
 40
0.0
 40
0.0
 40
0.0082940473
 40
0.0151398375
 40
0.0241093912
 40
0.0352776082
 40
0.0486670549
 40
0.0642732879
 40
0.0820766893
 40
0.1241398964
 40
0.1745142486
 40
0.2982988327
 40
0.4488347774
 40
0.6204185018
 40
0.8065103145
 40
1.0
 40
1.0
 40
1.0
 40
1.0
 10
165.9399943035
 20
114.0511808206
 30
0.0
 10
165.9444544868
 20
114.0511808206
 30
0.0
 10
165.951235231
 20
114.0441272662
 30
0.0
 10
165.9569937778
 20
114.033021029
 30
0.0
 10
165.962386889
 20
114.0193503784
 30
0.0
 10
165.9675850112
 20
114.0021364036
 30
0.0
 10
165.9728060605
 20
113.9811509186
 30
0.0
 10
165.97794495
 20
113.9565168805
 30
0.0
 10
165.9851040915
 20
113.9165602901
 30
0.0
 10
165.9935385959
 20
113.8578664411
 30
0.0
 10
166.0067418732
 20
113.7423334917
 30
0.0
 10
166.0208307527
 20
113.5682556207
 30
0.0
 10
166.0341499072
 20
113.3288250158
 30
0.0
 10
166.0440834325
 20
113.055695778
 30
0.0
 10
166.0502293264
 20
112.7593570419
 30
0.0
 10
166.0516046615
 20
112.5552312826
 30
0.0
 10
166.0516046615
 20
112.4511808206
 30
0.0
  0
SPLINE
  5
3D9
100
AcDbEntity
  8
0
100
AcDbSpline
 62
7
  6
CONTINUOUS
 70
0
 71
3
 72
15
 73
11
 74
0
 42
0.0000001
 43
0.0000001
 44
0.0000000001
 40
0.0
 40
0.0
 40
0.0
 40
0.0
 40
0.1248502735
 40
0.2497236839
 40
0.3746390214
 40
0.4996093286
 40
0.6246391118
 40
0.7497238232
 40
0.87485072
 40
1.0
 40
1.0
 40
1.0
 40
1.0
 10
161.2437839979
 20
114.0511808206
 30
0.0
 10
161.139484773
 20
114.0511808206
 30
0.0
 10
160.9302863172
 20
114.0305481475
 30
0.0
 10
160.6290158237
 20
113.9388970621
 30
0.0
 10
160.3512567256
 20
113.7900697557
 30
0.0
 10
160.1078420396
 20
113.5897893405
 30
0.0
 10
159.9080796423
 20
113.3457703525
 30
0.0
 10
159.7596524916
 20
113.0673505618
 30
0.0
 10
159.6682549831
 20
112.7653858612
 30
0.0
 10
159.6476815175
 20
112.5557298339
 30
0.0
 10
159.6476815175
 20
112.4511808206
 30
0.0
  0
SPLINE
  5
3DA
100
AcDbEntity
  8
0
100
AcDbSpline
 62
7
  6
CONTINUOUS
 70
0
 71
3
 72
15
 73
11
 74
0
 42
0.0000001
 43
0.0000001
 44
0.0000000001
 40
0.0
 40
0.0
 40
0.0
 40
0.0
 40
0.1248509248
 40
0.2497244765
 40
0.3746401976
 40
0.4996108453
 40
0.6246407157
 40
0.7497251683
 40
0.8748514866
 40
1.0
 40
1.0
 40
1.0
 40
1.0
 10
157.780124296
 20
114.0511447362
 30
0.0
 10
157.6762706377
 20
114.0504452489
 30
0.0
 10
157.4681088754
 20
114.0285883981
 30
0.0
 10
157.1686382869
 20
113.9356933778
 30
0.0
 10
156.8927637834
 20
113.7862302556
 30
0.0
 10
156.6511526441
 20
113.5858982851
 30
0.0
 10
156.4529651503
 20
113.3423478196
 30
0.0
 10
156.3057589675
 20
113.0648195333
 30
0.0
 10
156.215133491
 20
112.7640424036
 30
0.0
 10
156.1947360671
 20
112.5552843807
 30
0.0
 10
156.1947360671
 20
112.4511808206
 30
0.0
  0
SPLINE
  5
3DB
100
AcDbEntity
  8
0
100
AcDbSpline
 62
7
  6
CONTINUOUS
 70
0
 71
3
 72
11
 73
7
 74
0
 42
0.0000001
 43
0.0000001
 44
0.0000000001
 40
0.0
 40
0.0
 40
0.0
 40
0.0
 40
0.2497174597
 40
0.4996066085
 40
0.7496965406
 40
1.0
 40
1.0
 40
1.0
 40
1.0
 10
386.3670033975
 20
311.0216002017
 30
0.0
 10
386.4219938201
 20
311.0216132021
 30
0.0
 10
386.5332093809
 20
311.0437755233
 30
0.0
 10
386.6736713757
 20
311.1381928582
 30
0.0
 10
386.7677017814
 20
311.2790641934
 30
0.0
 10
386.7896640582
 20
311.3904613643
 30
0.0
 10
386.7896640582
 20
311.4455808318
 30
0.0
  0
SPLINE
  5
3DC
100
AcDbEntity
  8
0
100
AcDbSpline
 62
7
  6
CONTINUOUS
 70
0
 71
3
 72
15
 73
11
 74
0
 42
0.0000001
 43
0.0000001
 44
0.0000000001
 40
0.0
 40
0.0
 40
0.0
 40
0.0
 40
0.1949592868
 40
0.3792678866
 40
0.5445773748
 40
0.6858446991
 40
0.8008980919
 40
0.8485637397
 40
0.8898424312
 40
1.0
 40
1.0
 40
1.0
 40
1.0
 10
357.4173065166
 20
332.4511808206
 30
0.0
 10
357.4173065166
 20
332.55641434
 30
0.0
 10
357.4235289322
 20
332.7611903932
 30
0.0
 10
357.4508248895
 20
333.0540746129
 30
0.0
 10
357.4932645589
 20
333.3158260338
 30
0.0
 10
357.5476532046
 20
333.5372251526
 30
0.0
 10
357.6023343569
 20
333.6920188282
 30
0.0
 10
357.6515358531
 20
333.7914473192
 30
0.0
 10
357.7061956505
 20
333.8811053004
 30
0.0
 10
357.7770674562
 20
333.9511808206
 30
0.0
 10
357.8365274021
 20
333.9511808206
 30
0.0
  0
SPLINE
  5
3DD
100
AcDbEntity
  8
0
100
AcDbSpline
 62
7
  6
CONTINUOUS
 70
0
 71
3
 72
16
 73
12
 74
0
 42
0.0000001
 43
0.0000001
 44
0.0000000001
 40
0.0
 40
0.0
 40
0.0
 40
0.0
 40
0.0108030481
 40
0.0304447705
 40
0.0587697208
 40
0.095563281
 40
0.1929817642
 40
0.3190295233
 40
0.468774444
 40
0.636542404
 40
1.0
 40
1.0
 40
1.0
 40
1.0
 10
370.9225928326
 20
331.0215402272
 30
0.0
 10
370.92795984
 20
331.0215402272
 30
0.0
 10
370.9429288323
 20
331.0185929938
 30
0.0
 10
370.9713478893
 20
331.0122718466
 30
0.0
 10
371.0121172793
 20
331.0015451386
 30
0.0
 10
371.0899163348
 20
330.9800021833
 30
0.0
 10
371.2139375692
 20
330.9433565355
 30
0.0
 10
371.3912180764
 20
330.8890693383
 30
0.0
 10
371.6014423338
 20
330.8229804761
 30
0.0
 10
371.9236108978
 20
330.7197304745
 30
0.0
 10
372.1743625886
 20
330.6374036554
 30
0.0
 10
372.3456892159
 20
330.5803789518
 30
0.0
  0
SPLINE
  5
3DE
100
AcDbEntity
  8
0
100
AcDbSpline
 62
7
  6
CONTINUOUS
 70
0
 71
3
 72
20
 73
16
 74
0
 42
0.0000001
 43
0.0000001
 44
0.0000000001
 40
0.0
 40
0.0
 40
0.0
 40
0.0
 40
0.1979105296
 40
0.3867827262
 40
0.5593107122
 40
0.7096460419
 40
0.7748576756
 40
0.8326352252
 40
0.8824207646
 40
0.9238217057
 40
0.9564936118
 40
0.9801104028
 40
0.994524501
 40
0.9983117045
 40
1.0
 40
1.0
 40
1.0
 40
1.0
 10
376.3220013437
 20
329.2568951255
 30
0.0
 10
376.4039172923
 20
329.2296300544
 30
0.0
 10
376.5638992311
 20
329.1760168872
 30
0.0
 10
376.7949076924
 20
329.0974976076
 30
0.0
 10
377.005907864
 20
329.0246074205
 30
0.0
 10
377.1655809376
 20
328.9683633569
 30
0.0
 10
377.2777770184
 20
328.9280002058
 30
0.0
 10
377.3485518846
 20
328.9021092478
 30
0.0
 10
377.4094434701
 20
328.8793480375
 30
0.0
 10
377.4598099635
 20
328.8599712304
 30
0.0
 10
377.4995267221
 20
328.8440444708
 30
0.0
 10
377.527509637
 20
328.8320457663
 30
0.0
 10
377.5445890961
 20
328.8238381617
 30
0.0
 10
377.5513301706
 20
328.8195179476
 30
0.0
 10
377.5534838135
 20
328.8174748915
 30
0.0
 10
377.5533179423
 20
328.8167573303
 30
0.0
  0
SPLINE
  5
3DF
100
AcDbEntity
  8
0
100
AcDbSpline
 62
7
  6
CONTINUOUS
 70
0
 71
3
 72
16
 73
12
 74
0
 42
0.0000001
 43
0.0000001
 44
0.0000000001
 40
0.0
 40
0.0
 40
0.0
 40
0.0
 40
0.0543739273
 40
0.0877038484
 40
0.1266498945
 40
0.2229991961
 40
0.3440300614
 40
0.4870605555
 40
0.6477040558
 40
0.8207687437
 40
1.0
 40
1.0
 40
1.0
 40
1.0
 10
361.1540629383
 20
333.9511808192
 30
0.0
 10
361.1836569989
 20
333.9511763847
 30
0.0
 10
361.2313601294
 20
333.9319072057
 30
0.0
 10
361.2822992794
 20
333.8854982582
 30
0.0
 10
361.3392387325
 20
333.8129205907
 30
0.0
 10
361.4024091006
 20
333.6874189897
 30
0.0
 10
361.4652562933
 20
333.501279527
 30
0.0
 10
361.5169217695
 20
333.2756320616
 30
0.0
 10
361.5554977902
 20
333.0188500551
 30
0.0
 10
361.5792516395
 20
332.7405187225
 30
0.0
 10
361.5845934878
 20
332.5487308965
 30
0.0
 10
361.5845934863
 20
332.4511808206
 30
0.0
  0
SPLINE
  5
3E0
100
AcDbEntity
  8
0
100
AcDbSpline
 62
7
  6
CONTINUOUS
 70
0
 71
3
 72
15
 73
11
 74
0
 42
0.0000001
 43
0.0000001
 44
0.0000000001
 40
0.0
 40
0.0
 40
0.0
 40
0.0
 40
0.0535557977
 40
0.1243205039
 40
0.2191367315
 40
0.3386652618
 40
0.4807238857
 40
0.6415220588
 40
0.8164917103
 40
1.0
 40
1.0
 40
1.0
 40
1.0
 10
362.0986595247
 20
333.7957105555
 30
0.0
 10
362.1237589899
 20
333.7872042813
 30
0.0
 10
362.1737215256
 20
333.7442574407
 30
0.0
 10
362.2140990552
 20
333.6417056452
 30
0.0
 10
362.2358692925
 20
333.5017621674
 30
0.0
 10
362.2373467105
 20
333.3249378309
 30
0.0
 10
362.2189229834
 20
333.1165302716
 30
0.0
 10
362.1807371992
 20
332.8829981257
 30
0.0
 10
362.1239624044
 20
332.6322590257
 30
0.0
 10
362.0756084121
 20
332.4614891352
 30
0.0
 10
362.0486964423
 20
332.3747608758
 30
0.0
  0
SPLINE
  5
3E1
100
AcDbEntity
  8
0
100
AcDbSpline
 62
7
  6
CONTINUOUS
 70
0
 71
3
 72
15
 73
11
 74
0
 42
0.0000001
 43
0.0000001
 44
0.0000000001
 40
0.0
 40
0.0
 40
0.0
 40
0.0
 40
0.1835751553
 40
0.3584605337
 40
0.5192950481
 40
0.6613448293
 40
0.7808757625
 40
0.8756988191
 40
0.9464450713
 40
1.0
 40
1.0
 40
1.0
 40
1.0
 10
385.723866839
 20
324.3687054118
 30
0.0
 10
385.7507887654
 20
324.4554657875
 30
0.0
 10
385.7991528374
 20
324.6262254049
 30
0.0
 10
385.8559078841
 20
324.8769796881
 30
0.0
 10
385.8941043377
 20
325.110483617
 30
0.0
 10
385.9125109376
 20
325.318907791
 30
0.0
 10
385.9110533846
 20
325.4957347982
 30
0.0
 10
385.8892564417
 20
325.6356705546
 30
0.0
 10
385.8488974571
 20
325.7382190095
 30
0.0
 10
385.7989348276
 20
325.7811638891
 30
0.0
 10
385.7738313048
 20
325.7896573278
 30
0.0
  0
SPLINE
  5
3E2
100
AcDbEntity
  8
0
100
AcDbSpline
 62
7
  6
CONTINUOUS
 70
0
 71
3
 72
21
 73
17
 74
0
 42
0.0000001
 43
0.0000001
 44
0.0000000001
 40
0.0
 40
0.0
 40
0.0
 40
0.0
 40
0.006273629
 40
0.0132414272
 40
0.0213879495
 40
0.0310181339
 40
0.055357097
 40
0.0870264853
 40
0.1262654284
 40
0.1731120764
 40
0.2274901365
 40
0.2892374194
 40
0.433778655
 40
0.6037649344
 40
0.7946152869
 40
1.0
 40
1.0
 40
1.0
 40
1.0
 10
359.7571598012
 20
244.4511808206
 30
0.0
 10
359.7543962925
 20
244.4511808206
 30
0.0
 10
359.748531141
 20
244.4522402965
 30
0.0
 10
359.7401200763
 20
244.4567145808
 30
0.0
 10
359.7318405042
 20
244.4639048037
 30
0.0
 10
359.7199505756
 20
244.4782181596
 30
0.0
 10
359.705674651
 20
244.503566783
 30
0.0
 10
359.6896842027
 20
244.5423928435
 30
0.0
 10
359.67385719
 20
244.5918413611
 30
0.0
 10
359.6583345291
 20
244.6517562504
 30
0.0
 10
359.6432735928
 20
244.7219654523
 30
0.0
 10
359.6229439035
 20
244.8349900743
 30
0.0
 10
359.6004934175
 20
244.9992804492
 30
0.0
 10
359.5790110614
 20
245.2208990017
 30
0.0
 10
359.5630935216
 20
245.4698485547
 30
0.0
 10
359.5570247505
 20
245.6443097732
 30
0.0
 10
359.5550985877
 20
245.734760418
 30
0.0
  0
SPLINE
  5
3E3
100
AcDbEntity
  8
0
100
AcDbSpline
 62
7
  6
CONTINUOUS
 70
0
 71
3
 72
15
 73
11
 74
0
 42
0.0000001
 43
0.0000001
 44
0.0000000001
 40
0.0
 40
0.0
 40
0.0
 40
0.0
 40
0.1754208223
 40
0.3456385627
 40
0.4999820587
 40
0.633903954
 40
0.7475816441
 40
0.843640411
 40
0.9260596582
 40
1.0
 40
1.0
 40
1.0
 40
1.0
 10
358.9348519127
 20
312.8790406864
 30
0.0
 10
358.9317878379
 20
312.9182225529
 30
0.0
 10
358.9307004723
 20
312.9958958994
 30
0.0
 10
358.9430947358
 20
313.1075128016
 30
0.0
 10
358.9675893811
 20
313.2075920921
 30
0.0
 10
359.0012223485
 20
313.2914912483
 30
0.0
 10
359.0412266864
 20
313.3577386348
 30
0.0
 10
359.0856525877
 20
313.4065111401
 30
0.0
 10
359.1332134462
 20
313.4383032512
 30
0.0
 10
359.1675043814
 20
313.4483986467
 30
0.0
 10
359.1839649396
 20
313.4502619425
 30
0.0
  0
LINE
  5
3E4
100
AcDbEntity
  8
0
100
AcDbLine
 62
7
  6
CONTINUOUS
 10
369.8427519691
 20
245.6334065355
 11
369.0444787944
 21
245.6251695825
  0
LINE
  5
3E5
100
AcDbEntity
  8
0
100
AcDbLine
 62
7
  6
CONTINUOUS
 10
385.4723363493
 20
289.6484361075
 11
384.0583603052
 21
288.9071756349
  0
SPLINE
  5
3E6
100
AcDbEntity
  8
0
100
AcDbSpline
 62
7
  6
CONTINUOUS
 70
0
 71
3
 72
19
 73
15
 74
0
 42
0.0000001
 43
0.0000001
 44
0.0000000001
 40
0.0
 40
0.0
 40
0.0
 40
0.0
 40
0.0203007628
 40
0.0437596372
 40
0.0724481979
 40
0.1074194018
 40
0.149126734
 40
0.1976942236
 40
0.2530508715
 40
0.3149972021
 40
0.4573953582
 40
0.6217737973
 40
0.8041632679
 40
1.0
 40
1.0
 40
1.0
 40
1.0
 10
385.7419072184
 20
288.5359020575
 30
0.0
 10
385.7489846029
 20
288.5396065693
 30
0.0
 10
385.7624694891
 20
288.5512202297
 30
0.0
 10
385.7759456178
 20
288.576815647
 30
0.0
 10
385.7842296225
 20
288.6102949428
 30
0.0
 10
385.7876148005
 20
288.6517377323
 30
0.0
 10
385.7861680971
 20
288.7010702432
 30
0.0
 10
385.7798803766
 20
288.758075846
 30
0.0
 10
385.7687761545
 20
288.822425774
 30
0.0
 10
385.7465455365
 20
288.9222015207
 30
0.0
 10
385.7064691431
 20
289.0617758617
 30
0.0
 10
385.6432987898
 20
289.2436677439
 30
0.0
 10
385.5644997068
 20
289.4421703303
 30
0.0
 10
385.5045205272
 20
289.5784175127
 30
0.0
 10
385.4723363491
 20
289.6484361047
 30
0.0
  0
SPLINE
  5
3E7
100
AcDbEntity
  8
0
100
AcDbSpline
 62
7
  6
CONTINUOUS
 70
0
 71
3
 72
9
 73
5
 74
0
 42
0.0000001
 43
0.0000001
 44
0.0000000001
 40
0.0
 40
0.0
 40
0.0
 40
0.0
 40
0.2499787213
 40
1.0
 40
1.0
 40
1.0
 40
1.0
 10
380.5715223778
 20
285.8150022181
 30
0.0
 10
380.359068848
 20
285.7026511447
 30
0.0
 10
379.5092890816
 20
285.2530068743
 30
0.0
 10
378.6599348235
 20
284.8025584504
 30
0.0
 10
378.0231386144
 20
284.4642656968
 30
0.0
  0
SPLINE
  5
3E8
100
AcDbEntity
  8
0
100
AcDbSpline
 62
7
  6
CONTINUOUS
 70
0
 71
3
 72
11
 73
7
 74
0
 42
0.0000001
 43
0.0000001
 44
0.0000000001
 40
0.0
 40
0.0
 40
0.0
 40
0.0
 40
0.2189915539
 40
0.4445313728
 40
0.699227647
 40
1.0
 40
1.0
 40
1.0
 40
1.0
 10
377.5337621124
 20
283.8211069854
 30
0.0
 10
377.531353002
 20
283.8210609739
 30
0.0
 10
377.5263984602
 20
283.8217488344
 30
0.0
 10
377.5194871694
 20
283.8254258268
 30
0.0
 10
377.5133436918
 20
283.8315653683
 30
0.0
 10
377.5100285023
 20
283.8367448516
 30
0.0
 10
377.5084434178
 20
283.8396499323
 30
0.0
  0
SPLINE
  5
3E9
100
AcDbEntity
  8
0
100
AcDbSpline
 62
7
  6
CONTINUOUS
 70
0
 71
3
 72
10
 73
6
 74
0
 42
0.0000001
 43
0.0000001
 44
0.0000000001
 40
0.0
 40
0.0
 40
0.0
 40
0.0
 40
0.500072208
 40
0.7500504621
 40
1.0
 40
1.0
 40
1.0
 40
1.0
 10
376.732866823
 20
285.0312894445
 30
0.0
 10
375.197186249
 20
278.4999236969
 30
0.0
 10
372.9748830468
 20
268.6845045156
 30
0.0
 10
370.1183453787
 20
255.5751051472
 30
0.0
 10
368.7175339231
 20
249.0154471545
 30
0.0
 10
368.0221445027
 20
245.7347604178
 30
0.0
  0
SPLINE
  5
3EA
100
AcDbEntity
  8
0
100
AcDbSpline
 62
7
  6
CONTINUOUS
 70
0
 71
3
 72
10
 73
6
 74
0
 42
0.0000001
 43
0.0000001
 44
0.0000000001
 40
0.0
 40
0.0
 40
0.0
 40
0.0
 40
0.2499306912
 40
0.4999021875
 40
1.0
 40
1.0
 40
1.0
 40
1.0
 10
369.0444787944
 20
245.6251695825
 30
0.0
 10
369.7206634053
 20
248.815151961
 30
0.0
 10
371.0828105371
 20
255.1936041862
 30
0.0
 10
373.8599098361
 20
267.9416827126
 30
0.0
 10
376.0186809761
 20
277.4871932775
 30
0.0
 10
377.5084434178
 20
283.8396499323
 30
0.0
  0
SPLINE
  5
3EB
100
AcDbEntity
  8
0
100
AcDbSpline
 62
7
  6
CONTINUOUS
 70
0
 71
3
 72
19
 73
15
 74
0
 42
0.0000001
 43
0.0000001
 44
0.0000000001
 40
0.0
 40
0.0
 40
0.0
 40
0.0
 40
0.0164116841
 40
0.0367476113
 40
0.0631723608
 40
0.0965820713
 40
0.137284367
 40
0.1853035155
 40
0.2405038613
 40
0.3026442183
 40
0.4463905141
 40
0.6133001893
 40
0.7993618724
 40
1.0
 40
1.0
 40
1.0
 40
1.0
 10
386.5462108733
 20
289.8492191095
 30
0.0
 10
386.5461470794
 20
289.8431082278
 30
0.0
 10
386.5417530957
 20
289.8294276202
 30
0.0
 10
386.5255575017
 20
289.8118513064
 30
0.0
 10
386.5007331984
 20
289.7950271754
 30
0.0
 10
386.4669435405
 20
289.7787032404
 30
0.0
 10
386.4242698596
 20
289.762858994
 30
0.0
 10
386.3728620841
 20
289.7476080785
 30
0.0
 10
386.3130126005
 20
289.7330523861
 30
0.0
 10
386.2177026412
 20
289.7137752111
 30
0.0
 10
386.0803972928
 20
289.6928411203
 30
0.0
 10
385.8964820147
 20
289.6728401696
 30
0.0
 10
385.6908695894
 20
289.6575358558
 30
0.0
 10
385.5470060622
 20
289.6509366068
 30
0.0
 10
385.4723363493
 20
289.6484361047
 30
0.0
  0
SPLINE
  5
3EC
100
AcDbEntity
  8
0
100
AcDbSpline
 62
7
  6
CONTINUOUS
 70
0
 71
3
 72
30
 73
26
 74
0
 42
0.0000001
 43
0.0000001
 44
0.0000000001
 40
0.0
 40
0.0
 40
0.0
 40
0.0
 40
0.0078103512
 40
0.0156228776
 40
0.0234353979
 40
0.0312479143
 40
0.0390604311
 40
0.046872948
 40
0.0624979816
 40
0.0781230152
 40
0.0937480489
 40
0.1249981162
 40
0.1562481834
 40
0.1874982507
 40
0.218748318
 40
0.2499983853
 40
0.3124985198
 40
0.3749986544
 40
0.437498789
 40
0.4999989235
 40
0.5624990581
 40
0.6249991926
 40
0.7499994618
 40
0.8749997309
 40
1.0
 40
1.0
 40
1.0
 40
1.0
 10
382.5558416772
 20
312.877871179
 30
0.0
 10
382.4943588833
 20
312.879149682
 30
0.0
 10
382.3713356293
 20
312.8790044277
 30
0.0
 10
382.1868187799
 20
312.8790538001
 30
0.0
 10
382.0022777678
 20
312.8790367825
 30
0.0
 10
381.8177387374
 20
312.879041725
 30
0.0
 10
381.6331992238
 20
312.8790404213
 30
0.0
 10
381.3871467133
 20
312.8790408384
 30
0.0
 10
381.079581014
 20
312.8790406352
 30
0.0
 10
380.7105022011
 20
312.8790406998
 30
0.0
 10
380.218397108
 20
312.8790406786
 30
0.0
 10
379.6032657449
 20
312.8790406891
 30
0.0
 10
378.8651081077
 20
312.8790406857
 30
0.0
 10
378.126950471
 20
312.8790406866
 30
0.0
 10
377.3887928341
 20
312.8790406864
 30
0.0
 10
376.4045826516
 20
312.8790406864
 30
0.0
 10
375.1743199235
 20
312.8790406864
 30
0.0
 10
373.6980046498
 20
312.8790406864
 30
0.0
 10
372.2216893761
 20
312.8790406864
 30
0.0
 10
370.7453741024
 20
312.8790406864
 30
0.0
 10
369.2690588287
 20
312.8790406864
 30
0.0
 10
367.3006384637
 20
312.8790406864
 30
0.0
 10
364.8401130076
 20
312.8790406864
 30
0.0
 10
361.8874824601
 20
312.8790406864
 30
0.0
 10
359.9190620952
 20
312.8790406864
 30
0.0
 10
358.9348519127
 20
312.8790406864
 30
0.0
  0
SPLINE
  5
3ED
100
AcDbEntity
  8
0
100
AcDbSpline
 62
7
  6
CONTINUOUS
 70
0
 71
3
 72
17
 73
13
 74
0
 42
0.0000001
 43
0.0000001
 44
0.0000000001
 40
0.0
 40
0.0
 40
0.0
 40
0.0
 40
0.0262738214
 40
0.0594613412
 40
0.0991727552
 40
0.1449056541
 40
0.2523396549
 40
0.3778306697
 40
0.5179741495
 40
0.6699274532
 40
0.8312948435
 40
1.0
 40
1.0
 40
1.0
 40
1.0
 10
377.508443139
 20
283.8396487442
 30
0.0
 10
377.5062130119
 20
283.8519476288
 30
0.0
 10
377.4983949386
 20
283.8792517171
 30
0.0
 10
377.4811163436
 20
283.9231761897
 30
0.0
 10
377.4571875298
 20
283.9743264849
 30
0.0
 10
377.4146862527
 20
284.0556686668
 30
0.0
 10
377.3474935566
 20
284.1700282453
 30
0.0
 10
377.25173341
 20
284.3194863208
 30
0.0
 10
377.1398480368
 20
284.4836737169
 30
0.0
 10
377.0144663814
 20
284.6592426806
 30
0.0
 10
376.8778100738
 20
284.843408051
 30
0.0
 10
376.782171642
 20
284.9679601436
 30
0.0
 10
376.7328668237
 20
285.0312894441
 30
0.0
  0
SPLINE
  5
3EE
100
AcDbEntity
  8
0
100
AcDbSpline
 62
7
  6
CONTINUOUS
 70
0
 71
3
 72
17
 73
13
 74
0
 42
0.0000001
 43
0.0000001
 44
0.0000000001
 40
0.0
 40
0.0
 40
0.0
 40
0.0
 40
0.0199445944
 40
0.0462278395
 40
0.0789427108
 40
0.1180448321
 40
0.2148506627
 40
0.3350782603
 40
0.4765446127
 40
0.6365988388
 40
0.8122010683
 40
1.0
 40
1.0
 40
1.0
 40
1.0
 10
369.0444787947
 20
245.6251695846
 30
0.0
 10
369.0379878148
 20
245.6229530598
 30
0.0
 10
369.02237495
 20
245.6195544136
 30
0.0
 10
368.9953791756
 20
245.6165782711
 30
0.0
 10
368.9616492698
 20
245.6151421139
 30
0.0
 10
368.9036489196
 20
245.615350418
 30
0.0
 10
368.8156494938
 20
245.6202489742
 30
0.0
 10
368.6928923271
 20
245.6318252138
 30
0.0
 10
368.548909945
 20
245.6494465223
 30
0.0
 10
368.3864863235
 20
245.6727887407
 30
0.0
 10
368.2087562005
 20
245.7014420669
 30
0.0
 10
368.0856749253
 20
245.7231395811
 30
0.0
 10
368.0221445026
 20
245.7347604178
 30
0.0
  0
SPLINE
  5
3EF
100
AcDbEntity
  8
0
100
AcDbSpline
 62
7
  6
CONTINUOUS
 70
0
 71
3
 72
14
 73
10
 74
0
 42
0.0000001
 43
0.0000001
 44
0.0000000001
 40
0.0
 40
0.0
 40
0.0
 40
0.0
 40
0.0525782331
 40
0.1342986391
 40
0.2401451771
 40
0.3657006084
 40
0.5072739829
 40
0.6618212298
 40
1.0
 40
1.0
 40
1.0
 40
1.0
 10
377.9845449762
 20
284.4626776124
 30
0.0
 10
377.9621845467
 20
284.4716550494
 30
0.0
 10
377.9056637223
 20
284.4960384829
 30
0.0
 10
377.8049779188
 20
284.5404560235
 30
0.0
 10
377.6740816836
 20
284.5992621644
 30
0.0
 10
377.5184069097
 20
284.6698356053
 30
0.0
 10
377.3426213887
 20
284.7501021882
 30
0.0
 10
377.078436125
 20
284.8713586862
 30
0.0
 10
376.8734884408
 20
284.9661432925
 30
0.0
 10
376.7328668245
 20
285.0312894437
 30
0.0
  0
SPLINE
  5
3F0
100
AcDbEntity
  8
0
100
AcDbSpline
 62
7
  6
CONTINUOUS
 70
0
 71
3
 72
9
 73
5
 74
0
 42
0.0000001
 43
0.0000001
 44
0.0000000001
 40
0.0
 40
0.0
 40
0.0
 40
0.0
 40
0.5441474924
 40
1.0
 40
1.0
 40
1.0
 40
1.0
 10
378.0231391518
 20
284.4642659757
 30
0.0
 10
378.0163967073
 20
284.4619907756
 30
0.0
 10
378.0035389757
 20
284.4588614909
 30
0.0
 10
377.990077649
 20
284.4604579696
 30
0.0
 10
377.9845449762
 20
284.4626776124
 30
0.0
  0
SPLINE
  5
3F1
100
AcDbEntity
  8
0
100
AcDbSpline
 62
7
  6
CONTINUOUS
 70
0
 71
3
 72
18
 73
14
 74
0
 42
0.0000001
 43
0.0000001
 44
0.0000000001
 40
0.0
 40
0.0
 40
0.0
 40
0.0
 40
0.1726063244
 40
0.3427049213
 40
0.5032870378
 40
0.6479312703
 40
0.7713055603
 40
0.823864483
 40
0.8700087657
 40
0.9098329295
 40
0.9438523264
 40
0.9732305207
 40
1.0
 40
1.0
 40
1.0
 40
1.0
 10
382.5558416772
 20
312.877871179
 30
0.0
 10
382.5580289461
 20
312.9135350048
 30
0.0
 10
382.5600140781
 20
312.9845101897
 30
0.0
 10
382.5561660588
 20
313.0886939144
 30
0.0
 10
382.5457154321
 20
313.1866321412
 30
0.0
 10
382.5291675719
 20
313.2738971063
 30
0.0
 10
382.5101328895
 20
313.3376917852
 30
0.0
 10
382.4917977146
 20
313.3799100553
 30
0.0
 10
382.4777992183
 20
313.4050062699
 30
0.0
 10
382.4629418563
 20
313.4250250043
 30
0.0
 10
382.4472739072
 20
313.4397778941
 30
0.0
 10
382.4307786024
 20
313.4490196087
 30
0.0
 10
382.4190782191
 20
313.4511808206
 30
0.0
 10
382.4135367312
 20
313.4511808206
 30
0.0
  0
SPLINE
  5
3F2
100
AcDbEntity
  8
0
100
AcDbSpline
 62
7
  6
CONTINUOUS
 70
0
 71
3
 72
19
 73
15
 74
0
 42
0.0000001
 43
0.0000001
 44
0.0000000001
 40
0.0
 40
0.0
 40
0.0
 40
0.0
 40
0.2006365996
 40
0.3866974799
 40
0.5536079923
 40
0.6973566396
 40
0.7594986487
 40
0.8147008755
 40
0.8627219913
 40
0.9034261093
 40
0.9368370917
 40
0.9632618393
 40
0.9835950748
 40
1.0
 40
1.0
 40
1.0
 40
1.0
 10
385.6713146176
 20
308.734760418
 30
0.0
 10
385.7459812458
 20
308.7372681974
 30
0.0
 10
385.8898389125
 20
308.7438802161
 30
0.0
 10
386.0954433825
 20
308.7591989167
 30
0.0
 10
386.2793529104
 20
308.7792085202
 30
0.0
 10
386.4166553324
 20
308.8001450854
 30
0.0
 10
386.511964777
 20
308.8194208242
 30
0.0
 10
386.5718150068
 20
308.8339740743
 30
0.0
 10
386.6232244064
 20
308.8492210696
 30
0.0
 10
386.665900507
 20
308.8650600439
 30
0.0
 10
386.6996933916
 20
308.8813770245
 30
0.0
 10
386.7245213629
 20
308.8981929033
 30
0.0
 10
386.7407220498
 20
308.9157576605
 30
0.0
 10
386.7451232012
 20
308.9294321188
 30
0.0
 10
386.7451889046
 20
308.9355402776
 30
0.0
  0
SPLINE
  5
3F3
100
AcDbEntity
  8
0
100
AcDbSpline
 62
7
  6
CONTINUOUS
 70
0
 71
3
 72
21
 73
17
 74
0
 42
0.0000001
 43
0.0000001
 44
0.0000000001
 40
0.0
 40
0.0
 40
0.0
 40
0.0
 40
0.0160523782
 40
0.0320933478
 40
0.0641385729
 40
0.1280659058
 40
0.1917676354
 40
0.2552246483
 40
0.381256316
 40
0.506204673
 40
0.6301410392
 40
0.7532978218
 40
0.8148312281
 40
0.8763854582
 40
0.9380674897
 40
1.0
 40
1.0
 40
1.0
 40
1.0
 10
385.6713146176
 20
308.734760418
 30
0.0
 10
385.6716333248
 20
308.7653691251
 30
0.0
 10
385.6716082781
 20
308.8265718256
 30
0.0
 10
385.6698209575
 20
308.948868705
 30
0.0
 10
385.6615016727
 20
309.1623392717
 30
0.0
 10
385.6346795289
 20
309.4658848432
 30
0.0
 10
385.5773378067
 20
309.8260572708
 30
0.0
 10
385.4667946237
 20
310.2963994823
 30
0.0
 10
385.2633197286
 20
310.8632702251
 30
0.0
 10
384.9127946227
 20
311.4904186623
 30
0.0
 10
384.4580579967
 20
312.0403928422
 30
0.0
 10
383.9948761497
 20
312.4118342435
 30
0.0
 10
383.5820971774
 20
312.6377789649
 30
0.0
 10
383.253409297
 20
312.7675068765
 30
0.0
 10
382.9095576466
 20
312.852348081
 30
0.0
 10
382.6739157994
 20
312.8754260611
 30
0.0
 10
382.5558416772
 20
312.877871179
 30
0.0
  0
SPLINE
  5
3F4
100
AcDbEntity
  8
0
100
AcDbSpline
 62
7
  6
CONTINUOUS
 70
0
 71
3
 72
15
 73
11
 74
0
 42
0.0000001
 43
0.0000001
 44
0.0000000001
 40
0.0
 40
0.0
 40
0.0
 40
0.0
 40
0.1244382426
 40
0.2489523751
 40
0.3736095774
 40
0.4984606511
 40
0.6235342903
 40
0.7488339318
 40
0.8743374974
 40
1.0
 40
1.0
 40
1.0
 40
1.0
 10
367.5961005379
 20
244.4511808206
 30
0.0
 10
367.6795796826
 20
244.4511808206
 30
0.0
 10
367.8469390654
 20
244.4654994679
 30
0.0
 10
368.0905153716
 20
244.529311902
 30
0.0
 10
368.3200627754
 20
244.6336336842
 30
0.0
 10
368.5289448374
 20
244.7754825456
 30
0.0
 10
368.7112399051
 20
244.9507990982
 30
0.0
 10
368.8617622312
 20
245.1546047449
 30
0.0
 10
368.9762233472
 20
245.3809998453
 30
0.0
 10
369.0263405094
 20
245.5428436088
 30
0.0
 10
369.0444787947
 20
245.6251695846
 30
0.0
  0
SPLINE
  5
3F5
100
AcDbEntity
  8
0
100
AcDbSpline
 62
7
  6
CONTINUOUS
 70
0
 71
3
 72
19
 73
15
 74
0
 42
0.0000001
 43
0.0000001
 44
0.0000000001
 40
0.0
 40
0.0
 40
0.0
 40
0.0
 40
0.0273528642
 40
0.0569641835
 40
0.0905811013
 40
0.12930976
 40
0.1737459025
 40
0.2241347085
 40
0.280485461
 40
0.3426427633
 40
0.4831411392
 40
0.6424574584
 40
0.816370296
 40
1.0
 40
1.0
 40
1.0
 40
1.0
 10
367.5961005379
 20
244.4511808206
 30
0.0
 10
367.6090278843
 20
244.4511808206
 30
0.0
 10
367.636097206
 20
244.4555725699
 30
0.0
 10
367.6749955745
 20
244.4745283779
 30
0.0
 10
367.7126412044
 20
244.5051126489
 30
0.0
 10
367.7490237991
 20
244.5468783856
 30
0.0
 10
367.784085108
 20
244.5995230216
 30
0.0
 10
367.8176412752
 20
244.6627030049
 30
0.0
 10
367.8494717383
 20
244.7359771868
 30
0.0
 10
367.8909835582
 20
244.8512033326
 30
0.0
 10
367.9356927379
 20
245.0166156692
 30
0.0
 10
367.9772229323
 20
245.236782484
 30
0.0
 10
368.007152128
 20
245.4793606449
 30
0.0
 10
368.0185155972
 20
245.6480503539
 30
0.0
 10
368.0221445026
 20
245.7347604178
 30
0.0
  0
SPLINE
  5
3F6
100
AcDbEntity
  8
0
100
AcDbSpline
 62
7
  6
CONTINUOUS
 70
0
 71
3
 72
11
 73
7
 74
0
 42
0.0000001
 43
0.0000001
 44
0.0000000001
 40
0.0
 40
0.0
 40
0.0
 40
0.0
 40
0.250533943
 40
0.5008307508
 40
0.7506949986
 40
1.0
 40
1.0
 40
1.0
 40
1.0
 10
377.9845449324
 20
284.462677689
 30
0.0
 10
377.9262314227
 20
284.4293735904
 30
0.0
 10
377.8159958186
 20
284.3509331699
 30
0.0
 10
377.6775810498
 20
284.2031032191
 30
0.0
 10
377.5714362026
 20
284.0310142934
 30
0.0
 10
377.5250074865
 20
283.9043894867
 30
0.0
 10
377.5084427872
 20
283.8396507381
 30
0.0
  0
LINE
  5
3F7
100
AcDbEntity
  8
0
100
AcDbLine
 62
7
  6
CONTINUOUS
 10
378.614323386
 20
284.4739230278
 11
378.0231386144
 21
284.4642656968
  0
LINE
  5
3F8
100
AcDbEntity
  8
0
100
AcDbLine
 62
7
  6
CONTINUOUS
 10
378.1681992722
 20
283.8414011474
 11
377.5337621124
 21
283.8211069854
  0
SPLINE
  5
3F9
100
AcDbEntity
  8
0
100
AcDbSpline
 62
7
  6
CONTINUOUS
 70
0
 71
3
 72
9
 73
5
 74
0
 42
0.0000001
 43
0.0000001
 44
0.0000000001
 40
0.0
 40
0.0
 40
0.0
 40
0.0
 40
0.5101596271
 40
1.0
 40
1.0
 40
1.0
 40
1.0
 10
170.0081761441
 20
103.7466165425
 30
0.0
 10
170.1952582797
 20
103.7395740299
 30
0.0
 10
170.5672449638
 20
103.7806929276
 30
0.0
 10
170.9044921733
 20
103.9466138768
 30
0.0
 10
171.0487782514
 20
104.0538261784
 30
0.0
  0
SPLINE
  5
3FA
100
AcDbEntity
  8
0
100
AcDbSpline
 62
7
  6
CONTINUOUS
 70
0
 71
3
 72
15
 73
11
 74
0
 42
0.0000001
 43
0.0000001
 44
0.0000000001
 40
0.0
 40
0.0
 40
0.0
 40
0.0
 40
0.1089334543
 40
0.2236606563
 40
0.3470565162
 40
0.478355143
 40
0.61399003
 40
0.7490133951
 40
0.8787165112
 40
1.0
 40
1.0
 40
1.0
 40
1.0
 10
168.2103290263
 20
107.8749077834
 30
0.0
 10
168.0469842658
 20
107.7535338577
 30
0.0
 10
167.7612264987
 20
107.4306753313
 30
0.0
 10
167.5431228354
 20
106.8057325493
 30
0.0
 10
167.5408318572
 20
106.1045421278
 30
0.0
 10
167.747147841
 20
105.3958652048
 30
0.0
 10
168.1389810412
 20
104.7458668995
 30
0.0
 10
168.6785167287
 20
104.2159160701
 30
0.0
 10
169.3143341665
 20
103.8576958127
 30
0.0
 10
169.7817628126
 20
103.7551396371
 30
0.0
 10
170.0081761441
 20
103.7466165425
 30
0.0
  0
SPLINE
  5
3FB
100
AcDbEntity
  8
0
100
AcDbSpline
 62
7
  6
CONTINUOUS
 70
0
 71
3
 72
19
 73
15
 74
0
 42
0.0000001
 43
0.0000001
 44
0.0000000001
 40
0.0
 40
0.0
 40
0.0
 40
0.0
 40
0.0046193922
 40
0.0245465643
 40
0.0591491481
 40
0.106169439
 40
0.1632626487
 40
0.2284437453
 40
0.2998542319
 40
0.3759749077
 40
0.5367860423
 40
0.7009000429
 40
0.8587928847
 40
1.0
 40
1.0
 40
1.0
 40
1.0
 10
188.2199851004
 20
95.6792150107
 30
0.0
 10
188.2169482866
 20
95.6834835824
 30
0.0
 10
188.2544891471
 20
95.6364923556
 30
0.0
 10
188.2792495334
 20
95.6185214492
 30
0.0
 10
188.3800498117
 20
95.5252844483
 30
0.0
 10
188.4999087224
 20
95.4381151788
 30
0.0
 10
188.6630470659
 20
95.3305681486
 30
0.0
 10
188.8530478606
 20
95.2222550248
 30
0.0
 10
189.0690628278
 20
95.1139149101
 30
0.0
 10
189.3892388104
 20
94.973326331
 30
0.0
 10
189.8186901957
 20
94.8212209863
 30
0.0
 10
190.3498710619
 20
94.6854479249
 30
0.0
 10
190.869260883
 20
94.6022027703
 30
0.0
 10
191.2085702114
 20
94.5811808206
 30
0.0
 10
191.3687055105
 20
94.5811808206
 30
0.0
  0
SPLINE
  5
3FC
100
AcDbEntity
  8
0
100
AcDbSpline
 62
7
  6
CONTINUOUS
 70
0
 71
3
 72
11
 73
7
 74
0
 42
0.0000001
 43
0.0000001
 44
0.0000000001
 40
0.0
 40
0.0
 40
0.0
 40
0.0
 40
0.2319237654
 40
0.4813909524
 40
0.7434143349
 40
1.0
 40
1.0
 40
1.0
 40
1.0
 10
184.3413922403
 20
92.9198459839
 30
0.0
 10
184.696232605
 20
92.4210793125
 30
0.0
 10
185.6390000565
 20
91.5307277597
 30
0.0
 10
187.375103196
 20
90.5889025377
 30
0.0
 10
189.3205210865
 20
89.9803269946
 30
0.0
 10
190.6915049316
 20
89.8211808206
 30
0.0
 10
191.3687055105
 20
89.8211808206
 30
0.0
  0
SPLINE
  5
3FD
100
AcDbEntity
  8
0
100
AcDbSpline
 62
7
  6
CONTINUOUS
 70
0
 71
3
 72
13
 73
9
 74
0
 42
0.0000001
 43
0.0000001
 44
0.0000000001
 40
0.0
 40
0.0
 40
0.0
 40
0.0
 40
0.2591099366
 40
0.5308757802
 40
0.6608470879
 40
0.7819002864
 40
0.8938709927
 40
1.0
 40
1.0
 40
1.0
 40
1.0
 10
186.9224509478
 20
96.3237605367
 30
0.0
 10
186.4830949544
 20
96.3424714381
 30
0.0
 10
185.5677143466
 20
96.1106124226
 30
0.0
 10
184.6721044551
 20
95.374206028
 30
0.0
 10
184.2163952112
 20
94.6031359362
 30
0.0
 10
184.0524575303
 20
94.0000768875
 30
0.0
 10
184.0813086762
 20
93.4142820029
 30
0.0
 10
184.2371256864
 20
93.0667181487
 30
0.0
 10
184.3414551642
 20
92.9198907179
 30
0.0
  0
SPLINE
  5
3FE
100
AcDbEntity
  8
0
100
AcDbSpline
 62
7
  6
CONTINUOUS
 70
0
 71
3
 72
17
 73
13
 74
0
 42
0.0000001
 43
0.0000001
 44
0.0000000001
 40
0.0
 40
0.0
 40
0.0
 40
0.0
 40
0.111705768
 40
0.2491688764
 40
0.4026473433
 40
0.5592506375
 40
0.7054962221
 40
0.8298408822
 40
0.8816435259
 40
0.9263218248
 40
0.9649720306
 40
1.0
 40
1.0
 40
1.0
 40
1.0
 10
191.876037724
 20
94.2808511798
 30
0.0
 10
191.9904367063
 20
94.1356279221
 30
0.0
 10
192.1798430071
 20
93.7615182176
 30
0.0
 10
192.3512877982
 20
93.11527836
 30
0.0
 10
192.4272131328
 20
92.3755387166
 30
0.0
 10
192.3987288666
 20
91.6182817149
 30
0.0
 10
192.2690327575
 20
90.9209057521
 30
0.0
 10
192.0780711714
 20
90.4168665082
 30
0.0
 10
191.8766800667
 20
90.1100046642
 30
0.0
 10
191.7194734277
 20
89.9484607199
 30
0.0
 10
191.5495081409
 20
89.8455446035
 30
0.0
 10
191.4266758473
 20
89.8211971996
 30
0.0
 10
191.3687055103
 20
89.8211848042
 30
0.0
  0
SPLINE
  5
3FF
100
AcDbEntity
  8
0
100
AcDbSpline
 62
7
  6
CONTINUOUS
 70
0
 71
3
 72
9
 73
5
 74
0
 42
0.0000001
 43
0.0000001
 44
0.0000000001
 40
0.0
 40
0.0
 40
0.0
 40
0.0
 40
0.2544331059
 40
1.0
 40
1.0
 40
1.0
 40
1.0
 10
173.692640649
 20
107.278682422
 30
0.0
 10
173.7291708844
 20
107.2622133767
 30
0.0
 10
173.8743063976
 20
107.2010236241
 30
0.0
 10
174.0256277158
 20
107.1543441214
 30
0.0
 10
174.1402614478
 20
107.1289147022
 30
0.0
  0
SPLINE
  5
400
100
AcDbEntity
  8
0
100
AcDbSpline
 62
7
  6
CONTINUOUS
 70
0
 71
3
 72
9
 73
5
 74
0
 42
0.0000001
 43
0.0000001
 44
0.0000000001
 40
0.0
 40
0.0
 40
0.0
 40
0.0
 40
0.4515023311
 40
1.0
 40
1.0
 40
1.0
 40
1.0
 10
191.3687055106
 20
94.581176837
 30
0.0
 10
191.4597676329
 20
94.5811963083
 30
0.0
 10
191.6622172776
 20
94.5144255986
 30
0.0
 10
191.8075822384
 20
94.3677516787
 30
0.0
 10
191.876037724
 20
94.2808511798
 30
0.0
  0
SPLINE
  5
401
100
AcDbEntity
  8
0
100
AcDbSpline
 62
7
  6
CONTINUOUS
 70
0
 71
3
 72
9
 73
5
 74
0
 42
0.0000001
 43
0.0000001
 44
0.0000000001
 40
0.0
 40
0.0
 40
0.0
 40
0.0
 40
0.4789054005
 40
1.0
 40
1.0
 40
1.0
 40
1.0
 10
188.2199221765
 20
95.6791702768
 30
0.0
 10
188.0823501192
 20
95.8727814415
 30
0.0
 10
187.6812089318
 20
96.2032897348
 30
0.0
 10
187.1806511779
 20
96.3127645354
 30
0.0
 10
186.9224509478
 20
96.3237605367
 30
0.0
  0
SPLINE
  5
402
100
AcDbEntity
  8
0
100
AcDbSpline
 62
7
  6
CONTINUOUS
 70
0
 71
3
 72
8
 73
4
 74
0
 42
0.0000001
 43
0.0000001
 44
0.0000000001
 40
0.0
 40
0.0
 40
0.0
 40
0.0
 40
1.0
 40
1.0
 40
1.0
 40
1.0
 10
194.1850326657
 20
76.9511808206
 30
0.0
 10
195.1961920242
 20
78.6186769632
 30
0.0
 10
196.2086684189
 20
80.2853753434
 30
0.0
 10
197.2226105996
 20
81.9511808206
 30
0.0
  0
SPLINE
  5
403
100
AcDbEntity
  8
0
100
AcDbSpline
 62
7
  6
CONTINUOUS
 70
0
 71
3
 72
10
 73
6
 74
0
 42
0.0000001
 43
0.0000001
 44
0.0000000001
 40
0.0
 40
0.0
 40
0.0
 40
0.0
 40
0.5510511999
 40
0.7927810268
 40
1.0
 40
1.0
 40
1.0
 40
1.0
 10
198.5641492562
 20
97.7011808206
 30
0.0
 10
198.5641492562
 20
97.5782852869
 30
0.0
 10
198.5813074939
 20
97.4002518351
 30
0.0
 10
198.6436857533
 20
97.1856656936
 30
0.0
 10
198.6862887675
 20
97.0942878754
 30
0.0
 10
198.7104632095
 20
97.0549009336
 30
0.0
  0
SPLINE
  5
404
100
AcDbEntity
  8
02___PRT_ALL_AXES
100
AcDbSpline
 62
7
  6
CONTINUOUS
 70
0
 71
3
 72
13
 73
9
 74
0
 42
0.0000001
 43
0.0000001
 44
0.0000000001
 40
0.0
 40
0.0
 40
0.0
 40
0.0
 40
0.0748397417
 40
0.1633606035
 40
0.2673887036
 40
0.3872652503
 40
0.6707817989
 40
1.0
 40
1.0
 40
1.0
 40
1.0
 10
196.0055759107
 20
96.590397018
 30
0.0
 10
195.9588681053
 20
96.5622293765
 30
0.0
 10
195.8667933463
 20
96.4842329538
 30
0.0
 10
195.7481415103
 20
96.3285173173
 30
0.0
 10
195.6391340833
 20
96.1278101857
 30
0.0
 10
195.501078806
 20
95.7840996189
 30
0.0
 10
195.3710393789
 20
95.263989512
 30
0.0
 10
195.3134143072
 20
94.8204111027
 30
0.0
 10
195.2934491864
 20
94.5813059814
 30
0.0
  0
SPLINE
  5
405
100
AcDbEntity
  8
0
100
AcDbSpline
 62
7
  6
CONTINUOUS
 70
0
 71
3
 72
14
 73
10
 74
0
 42
0.0000001
 43
0.0000001
 44
0.0000000001
 40
0.0
 40
0.0
 40
0.0
 40
0.0
 40
0.0688597412
 40
0.1488128259
 40
0.2467562441
 40
0.3651143851
 40
0.5032797991
 40
0.6584499206
 40
1.0
 40
1.0
 40
1.0
 40
1.0
 10
197.4601517285
 20
115.9011808206
 30
0.0
 10
197.4390361861
 20
115.9011808206
 30
0.0
 10
197.3930445213
 20
115.8893300065
 30
0.0
 10
197.3325404523
 20
115.8416385666
 30
0.0
 10
197.2782492258
 20
115.7679365365
 30
0.0
 10
197.2307468065
 20
115.6696849791
 30
0.0
 10
197.1914179556
 20
115.5494091774
 30
0.0
 10
197.1508282982
 20
115.358758354
 30
0.0
 10
197.1394616242
 20
115.2059156783
 30
0.0
 10
197.1394616242
 20
115.1011808206
 30
0.0
  0
SPLINE
  5
406
100
AcDbEntity
  8
03___PRT_ALL_CURVES
100
AcDbSpline
 62
2
  6
CONTINUOUS
 70
0
 71
3
 72
21
 73
17
 74
0
 42
0.0000001
 43
0.0000001
 44
0.0000000001
 40
0.0
 40
0.0
 40
0.0
 40
0.0
 40
0.0714285714
 40
0.1428571429
 40
0.2142857143
 40
0.2857142857
 40
0.3571428571
 40
0.4285714286
 40
0.5
 40
0.5714285714
 40
0.6428571429
 40
0.7142857143
 40
0.7857142857
 40
0.8571428571
 40
0.9285714286
 40
1.0
 40
1.0
 40
1.0
 40
1.0
 10
194.5198943274
 20
279.5515977209
 30
0.0
 10
194.5198943274
 20
279.4925831663
 30
0.0
 10
194.5178752748
 20
279.3753065944
 30
0.0
 10
194.5088166151
 20
279.2007068517
 30
0.0
 10
194.4938285379
 20
279.0302496635
 30
0.0
 10
194.4730776558
 20
278.8656882519
 30
0.0
 10
194.4468006197
 20
278.7090526825
 30
0.0
 10
194.4153114846
 20
278.5622984352
 30
0.0
 10
194.3790047305
 20
278.4273632927
 30
0.0
 10
194.3383528238
 20
278.3060958892
 30
0.0
 10
194.2939052662
 20
278.200230058
 30
0.0
 10
194.246281418
 20
278.111327335
 30
0.0
 10
194.1961534861
 20
278.0407351085
 30
0.0
 10
194.1442606474
 20
277.9895354156
 30
0.0
 10
194.0912737572
 20
277.9585134113
 30
0.0
 10
194.055905553
 20
277.9515897209
 30
0.0
 10
194.0381567566
 20
277.9515897209
 30
0.0
  0
SPLINE
  5
407
100
AcDbEntity
  8
03___PRT_ALL_CURVES
100
AcDbSpline
 62
2
  6
CONTINUOUS
 70
0
 71
3
 72
21
 73
17
 74
0
 42
0.0000001
 43
0.0000001
 44
0.0000000001
 40
0.0
 40
0.0
 40
0.0
 40
0.0
 40
0.0714285714
 40
0.1428571429
 40
0.2142857143
 40
0.2857142857
 40
0.3571428571
 40
0.4285714286
 40
0.5
 40
0.5714285714
 40
0.6428571429
 40
0.7142857143
 40
0.7857142857
 40
0.8571428571
 40
0.9285714286
 40
1.0
 40
1.0
 40
1.0
 40
1.0
 10
194.0381567566
 20
285.9516297209
 30
0.0
 10
194.0559055532
 20
285.9516297209
 30
0.0
 10
194.0912737578
 20
285.9447060287
 30
0.0
 10
194.1442606351
 20
285.9136840364
 30
0.0
 10
194.1961534867
 20
285.8624843323
 30
0.0
 10
194.2462814048
 20
285.7918921284
 30
0.0
 10
194.2939052662
 20
285.7029893836
 30
0.0
 10
194.3383528111
 20
285.5971235865
 30
0.0
 10
194.3790047301
 20
285.47585615
 30
0.0
 10
194.4153114735
 20
285.3409210528
 30
0.0
 10
194.4468006191
 20
285.1941667618
 30
0.0
 10
194.4730776462
 20
285.0375312551
 30
0.0
 10
194.4938285373
 20
284.8729697842
 30
0.0
 10
194.5088166104
 20
284.7025126558
 30
0.0
 10
194.5178752754
 20
284.5279128505
 30
0.0
 10
194.5198943274
 20
284.4106362767
 30
0.0
 10
194.5198943274
 20
284.3516217209
 30
0.0
  0
SPLINE
  5
408
100
AcDbEntity
  8
0
100
AcDbSpline
 62
3
  6
CONTINUOUS
 70
0
 71
3
 72
10
 73
6
 74
0
 42
0.0000001
 43
0.0000001
 44
0.0000000001
 40
0.0
 40
0.0
 40
0.0
 40
0.0
 40
0.6037540908
 40
0.8385062153
 40
1.0
 40
1.0
 40
1.0
 40
1.0
 10
281.4662276702
 20
314.8511808206
 30
0.0
 10
281.4662276702
 20
314.5887058227
 30
0.0
 10
281.46036602
 20
314.2239468525
 30
0.0
 10
281.4339096393
 20
313.7901098753
 30
0.0
 10
281.4166817077
 20
313.6184263567
 30
0.0
 10
281.4044828454
 20
313.5492867558
 30
0.0
  0
SPLINE
  5
409
100
AcDbEntity
  8
02___PRT_ALL_AXES
100
AcDbSpline
 62
3
  6
CONTINUOUS
 70
0
 71
3
 72
17
 73
13
 74
0
 42
0.0000001
 43
0.0000001
 44
0.0000000001
 40
0.0
 40
0.0
 40
0.0
 40
0.0
 40
0.1758680761
 40
0.3451324352
 40
0.5018868457
 40
0.6414394776
 40
0.7606331644
 40
0.8581967772
 40
0.8992921547
 40
0.935895569
 40
0.968985772
 40
1.0
 40
1.0
 40
1.0
 40
1.0
 10
196.8385370158
 20
93.9011808206
 30
0.0
 10
196.8385370158
 20
93.7182266228
 30
0.0
 10
196.8243768955
 20
93.3590172308
 30
0.0
 10
196.7616683232
 20
92.840094044
 30
0.0
 10
196.6616450256
 20
92.3655135635
 30
0.0
 10
196.5301290032
 20
91.9527486144
 30
0.0
 10
196.3740506565
 20
91.6154647655
 30
0.0
 10
196.2207955424
 20
91.3923723312
 30
0.0
 10
196.088727767
 20
91.2657357215
 30
0.0
 10
195.9928694934
 20
91.2005343468
 30
0.0
 10
195.8951312171
 20
91.160445602
 30
0.0
 10
195.8281697874
 20
91.1511808446
 30
0.0
 10
195.7959059261
 20
91.1511808217
 30
0.0
  0
SPLINE
  5
40A
100
AcDbEntity
  8
0
100
AcDbSpline
 62
3
  6
CONTINUOUS
 70
0
 71
3
 72
13
 73
9
 74
0
 42
0.0000001
 43
0.0000001
 44
0.0000000001
 40
0.0
 40
0.0
 40
0.0
 40
0.0
 40
0.3354212795
 40
0.6239812669
 40
0.7421605884
 40
0.8419313491
 40
0.9258482908
 40
1.0
 40
1.0
 40
1.0
 40
1.0
 10
198.8623130999
 20
97.7011808206
 30
0.0
 10
198.8623130999
 20
97.595514604
 30
0.0
 10
198.8446228161
 20
97.3986175034
 30
0.0
 10
198.7780642598
 20
97.171763244
 30
0.0
 10
198.6995471095
 20
97.0320317651
 30
0.0
 10
198.6373388583
 20
96.9590618499
 30
0.0
 10
198.5691873223
 20
96.9125098265
 30
0.0
 10
198.5190226727
 20
96.9011809008
 30
0.0
 10
198.4956630023
 20
96.901180821
 30
0.0
  0
SPLINE
  5
40B
100
AcDbEntity
  8
0
100
AcDbSpline
 62
3
  6
CONTINUOUS
 70
0
 71
3
 72
13
 73
9
 74
0
 42
0.0000001
 43
0.0000001
 44
0.0000000001
 40
0.0
 40
0.0
 40
0.0
 40
0.0
 40
0.0741534787
 40
0.1580675317
 40
0.257837603
 40
0.3760166898
 40
0.6645782095
 40
1.0
 40
1.0
 40
1.0
 40
1.0
 10
198.4956620704
 20
115.9011808206
 30
0.0
 10
198.5190223254
 20
115.9011808206
 30
0.0
 10
198.5691870637
 20
115.8898530946
 30
0.0
 10
198.6373375424
 20
115.8433002138
 30
0.0
 10
198.6995457613
 20
115.7703319527
 30
0.0
 10
198.7780636708
 20
115.6306003038
 30
0.0
 10
198.8446226478
 20
115.4037453012
 30
0.0
 10
198.8623130999
 20
115.2068473207
 30
0.0
 10
198.8623130999
 20
115.1011808206
 30
0.0
  0
SPLINE
  5
40C
100
AcDbEntity
  8
0
100
AcDbSpline
 62
3
  6
CONTINUOUS
 70
0
 71
3
 72
13
 73
9
 74
0
 42
0.0000001
 43
0.0000001
 44
0.0000000001
 40
0.0
 40
0.0
 40
0.0
 40
0.0
 40
0.3716936481
 40
0.5331302854
 40
0.6730193637
 40
0.7890834134
 40
0.8806580309
 40
1.0
 40
1.0
 40
1.0
 40
1.0
 10
357.6109662527
 20
301.45121344
 30
0.0
 10
357.6140171553
 20
301.5055032203
 30
0.0
 10
357.6218825743
 20
301.5832972479
 30
0.0
 10
357.6411902634
 20
301.6799624571
 30
0.0
 10
357.6575500931
 20
301.7387324421
 30
0.0
 10
357.6766164162
 20
301.7864336947
 30
0.0
 10
357.6993029296
 20
301.8272475566
 30
0.0
 10
357.7266769856
 20
301.8511808206
 30
0.0
 10
357.7441356424
 20
301.8511808206
 30
0.0
  0
SPLINE
  5
40D
100
AcDbEntity
  8
0
100
AcDbSpline
 62
3
  6
CONTINUOUS
 70
0
 71
3
 72
13
 73
9
 74
0
 42
0.0000001
 43
0.0000001
 44
0.0000000001
 40
0.0
 40
0.0
 40
0.0
 40
0.0
 40
0.3815514421
 40
0.5472410889
 40
0.6902655891
 40
0.8075669276
 40
0.8974706833
 40
1.0
 40
1.0
 40
1.0
 40
1.0
 10
358.8785654261
 20
268.451202114
 30
0.0
 10
358.8808024084
 20
268.5049584063
 30
0.0
 10
358.8865249147
 20
268.5819809918
 30
0.0
 10
358.9006788199
 20
268.6784388687
 30
0.0
 10
358.9126145798
 20
268.7370680776
 30
0.0
 10
358.9267183762
 20
268.7853167767
 30
0.0
 10
358.9423248482
 20
268.8236793742
 30
0.0
 10
358.9623940202
 20
268.8511808206
 30
0.0
 10
358.9768517456
 20
268.8511808206
 30
0.0
  0
SPLINE
  5
40E
100
AcDbEntity
  8
0
100
AcDbSpline
 62
3
  6
CONTINUOUS
 70
0
 71
3
 72
14
 73
10
 74
0
 42
0.0000001
 43
0.0000001
 44
0.0000000001
 40
0.0
 40
0.0
 40
0.0
 40
0.0
 40
0.0389012758
 40
0.1003331793
 40
0.1901060957
 40
0.3081630021
 40
0.4523015712
 40
0.6189520549
 40
1.0
 40
1.0
 40
1.0
 40
1.0
 10
359.2695069739
 20
257.9866090741
 30
0.0
 10
359.2637729459
 20
257.9866090741
 30
0.0
 10
359.2499616294
 20
257.9956355348
 30
0.0
 10
359.2365076444
 20
258.0202318887
 30
0.0
 10
359.2226179478
 20
258.0575866834
 30
0.0
 10
359.2102929611
 20
258.1080347117
 30
0.0
 10
359.1993000689
 20
258.170318163
 30
0.0
 10
359.1868509697
 20
258.2715631801
 30
0.0
 10
359.1820436308
 20
258.3522493004
 30
0.0
 10
359.1804111221
 20
258.4083918415
 30
0.0
  0
SPLINE
  5
40F
100
AcDbEntity
  8
02___PRT_ALL_AXES
100
AcDbSpline
 62
3
  6
CONTINUOUS
 70
0
 71
3
 72
17
 73
13
 74
0
 42
0.0000001
 43
0.0000001
 44
0.0000000001
 40
0.0
 40
0.0
 40
0.0
 40
0.0
 40
0.0310142282
 40
0.0641044304
 40
0.1007078426
 40
0.1418032229
 40
0.2393668374
 40
0.3585605245
 40
0.4981131539
 40
0.6548675578
 40
0.8241319178
 40
1.0
 40
1.0
 40
1.0
 40
1.0
 10
195.7959058826
 20
96.6511808195
 30
0.0
 10
195.8281697445
 20
96.6511807995
 30
0.0
 10
195.8951311758
 20
96.6419160517
 30
0.0
 10
195.9928694545
 20
96.6018273153
 30
0.0
 10
196.0887277349
 20
96.5366259478
 30
0.0
 10
196.2207955183
 20
96.4099893387
 30
0.0
 10
196.3740506423
 20
96.1868969006
 30
0.0
 10
196.5301289938
 20
95.8496130486
 30
0.0
 10
196.6616450187
 20
95.4368481036
 30
0.0
 10
196.7616683202
 20
94.9622676258
 30
0.0
 10
196.8243768956
 20
94.4433444316
 30
0.0
 10
196.8385370158
 20
94.0841350273
 30
0.0
 10
196.8385370158
 20
93.9011808206
 30
0.0
  0
SPLINE
  5
410
100
AcDbEntity
  8
0
100
AcDbSpline
 62
3
  6
CONTINUOUS
 70
0
 71
3
 72
12
 73
8
 74
0
 42
0.0000001
 43
0.0000001
 44
0.0000000001
 40
0.0
 40
0.0
 40
0.0
 40
0.0
 40
0.1133496494
 40
0.2047260452
 40
0.3218244499
 40
0.6265107876
 40
1.0
 40
1.0
 40
1.0
 40
1.0
 10
358.1467956923
 20
290.9866090741
 30
0.0
 10
358.1295881422
 20
290.9866090741
 30
0.0
 10
358.1034762033
 20
291.0134447451
 30
0.0
 10
358.082647566
 20
291.0558682751
 30
0.0
 10
358.0565149092
 20
291.1302210383
 30
0.0
 10
358.0342056581
 20
291.2489016029
 30
0.0
 10
358.0254056418
 20
291.3517383884
 30
0.0
 10
358.0231284874
 20
291.4083918415
 30
0.0
  0
SPLINE
  5
411
100
AcDbEntity
  8
02___PRT_ALL_AXES
100
AcDbSpline
 62
3
  6
CONTINUOUS
 70
0
 71
3
 72
17
 73
13
 74
0
 42
0.0000001
 43
0.0000001
 44
0.0000000001
 40
0.0
 40
0.0
 40
0.0
 40
0.0
 40
0.0309966898
 40
0.0636109502
 40
0.0994559796
 40
0.1397000967
 40
0.2358314003
 40
0.354447519
 40
0.4943400308
 40
0.6520943496
 40
0.8226915555
 40
1.0
 40
1.0
 40
1.0
 40
1.0
 10
195.7959059261
 20
91.1511808217
 30
0.0
 10
195.7640583104
 20
91.1511807992
 30
0.0
 10
195.6983891249
 20
91.1601614376
 30
0.0
 10
195.6032843197
 20
91.200081826
 30
0.0
 10
195.5117199187
 20
91.2653397781
 30
0.0
 10
195.3876978487
 20
91.3925595686
 30
0.0
 10
195.2481574868
 20
91.617351186
 30
0.0
 10
195.1111887946
 20
91.9559557705
 30
0.0
 10
194.9992039815
 20
92.3696090307
 30
0.0
 10
194.9161692512
 20
92.8439986935
 30
0.0
 10
194.8650584475
 20
93.3614356697
 30
0.0
 10
194.8536303461
 20
93.7190048776
 30
0.0
 10
194.8536303461
 20
93.9011808206
 30
0.0
  0
SPLINE
  5
412
100
AcDbEntity
  8
0
100
AcDbSpline
 62
3
  6
CONTINUOUS
 70
0
 71
3
 72
13
 73
9
 74
0
 42
0.0000001
 43
0.0000001
 44
0.0000000001
 40
0.0
 40
0.0
 40
0.0
 40
0.0
 40
0.074050714
 40
0.1574955976
 40
0.2567943634
 40
0.3747438076
 40
0.6636904425
 40
1.0
 40
1.0
 40
1.0
 40
1.0
 10
198.4956630023
 20
96.901180821
 30
0.0
 10
198.4724351646
 20
96.9011807416
 30
0.0
 10
198.4226294463
 20
96.9123900588
 30
0.0
 10
198.3552918535
 20
96.9590321231
 30
0.0
 10
198.2944731225
 20
97.0321814134
 30
0.0
 10
198.2183424333
 20
97.1723384337
 30
0.0
 10
198.1549461246
 20
97.3992962088
 30
0.0
 10
198.1382408928
 20
97.5956890112
 30
0.0
 10
198.1382408928
 20
97.7011808206
 30
0.0
  0
SPLINE
  5
413
100
AcDbEntity
  8
0
100
AcDbSpline
 62
3
  6
CONTINUOUS
 70
0
 71
3
 72
14
 73
10
 74
0
 42
0.0000001
 43
0.0000001
 44
0.0000000001
 40
0.0
 40
0.0
 40
0.0
 40
0.0
 40
0.3417584659
 40
0.4970191282
 40
0.6352501695
 40
0.7536289064
 40
0.8515249046
 40
0.9313451082
 40
1.0
 40
1.0
 40
1.0
 40
1.0
 10
196.7198243631
 20
115.1011808206
 30
0.0
 10
196.7198243631
 20
115.205888838
 30
0.0
 10
196.7311350419
 20
115.3586864933
 30
0.0
 10
196.7715342389
 20
115.5493176016
 30
0.0
 10
196.8106814446
 20
115.6695919068
 30
0.0
 10
196.8579670815
 20
115.7678538976
 30
0.0
 10
196.9120123576
 20
115.8415723779
 30
0.0
 10
196.9722513424
 20
115.8893022482
 30
0.0
 10
197.0180971628
 20
115.9011808206
 30
0.0
 10
197.0391316603
 20
115.9011808206
 30
0.0
  0
SPLINE
  5
414
100
AcDbEntity
  8
02___PRT_ALL_AXES
100
AcDbSpline
 62
3
  6
CONTINUOUS
 70
0
 71
3
 72
16
 73
12
 74
0
 42
0.0000001
 43
0.0000001
 44
0.0000000001
 40
0.0
 40
0.0
 40
0.0
 40
0.0
 40
0.1829632276
 40
0.3536834612
 40
0.5082952307
 40
0.5786491155
 40
0.6440113735
 40
0.759208583
 40
0.8542345198
 40
0.9321205922
 40
1.0
 40
1.0
 40
1.0
 40
1.0
 10
194.8814207001
 20
94.5813054817
 30
0.0
 10
194.8935553098
 20
94.7272072721
 30
0.0
 10
194.9249831405
 20
95.0086829152
 30
0.0
 10
194.9961591686
 20
95.4094358825
 30
0.0
 10
195.0752086281
 20
95.7164904244
 30
0.0
 10
195.1497852955
 20
95.9366376036
 30
0.0
 10
195.2248547427
 20
96.1229180372
 30
0.0
 10
195.3261060773
 20
96.3197905203
 30
0.0
 10
195.4675937067
 20
96.5039709415
 30
0.0
 10
195.6239418742
 20
96.6224142285
 30
0.0
 10
195.7415893882
 20
96.6511808533
 30
0.0
 10
195.7959058826
 20
96.6511808195
 30
0.0
  0
SPLINE
  5
415
100
AcDbEntity
  8
0
100
AcDbSpline
 62
3
  6
CONTINUOUS
 70
0
 71
3
 72
9
 73
5
 74
0
 42
0.0000001
 43
0.0000001
 44
0.0000000001
 40
0.0
 40
0.0
 40
0.0
 40
0.0
 40
0.2101265543
 40
1.0
 40
1.0
 40
1.0
 40
1.0
 10
360.4792245078
 20
86.9027866905
 30
0.0
 10
360.4778048516
 20
86.9201229184
 30
0.0
 10
360.4715526035
 20
87.0026678344
 30
0.0
 10
360.4668179145
 20
87.0853209301
 30
0.0
 10
360.4634804467
 20
87.1506213545
 30
0.0
  0
SPLINE
  5
416
100
AcDbEntity
  8
0
100
AcDbSpline
 62
3
  6
CONTINUOUS
 70
0
 71
3
 72
9
 73
5
 74
0
 42
0.0000001
 43
0.0000001
 44
0.0000000001
 40
0.0
 40
0.0
 40
0.0
 40
0.0
 40
0.4464366889
 40
1.0
 40
1.0
 40
1.0
 40
1.0
 10
360.4634804467
 20
87.1506213545
 30
0.0
 10
360.4528388345
 20
87.3588336343
 30
0.0
 10
360.4381145273
 20
87.8256703586
 30
0.0
 10
360.4331589168
 20
88.2926690956
 30
0.0
 10
360.4331589168
 20
88.551180821
 30
0.0
  0
ELLIPSE
  5
417
100
AcDbEntity
  8
0
100
AcDbEllipse
 62
7
  6
CONTINUOUS
 10
165.633065819
 20
108.3669213543
 30
0.0
 11
5.3999950932
 21
-0.7571424943
 31
0.0
 40
0.0096146337
 41
1.50233124
 42
3.0731275668
  0
ELLIPSE
  5
418
100
AcDbEntity
  8
0
100
AcDbEllipse
 62
7
  6
CONTINUOUS
 10
165.633065819
 20
108.3669213543
 30
0.0
 11
5.999994548
 21
-0.8412694381
 31
0.0
 40
0.0096146337
 41
1.50233124
 42
3.0731275668
  0
ELLIPSE
  5
419
100
AcDbEntity
  8
0
100
AcDbEllipse
 62
7
  6
CONTINUOUS
 10
162.1801203687
 20
108.3669213543
 30
0.0
 11
5.999994548
 21
-0.8412694381
 31
0.0
 40
0.0096146337
 41
3.0731275668
 42
4.6439238936
  0
ELLIPSE
  5
41A
100
AcDbEntity
  8
0
100
AcDbEllipse
 62
7
  6
CONTINUOUS
 10
162.1801203687
 20
108.3669213543
 30
0.0
 11
5.3999950932
 21
-0.7571424943
 31
0.0
 40
0.0096146337
 41
3.0731275668
 42
4.6439238936
  0
ELLIPSE
  5
41B
100
AcDbEntity
  8
0
100
AcDbEllipse
 62
7
  6
CONTINUOUS
 10
266.3912306766
 20
-19.8540911874
 30
0.0
 11
27.5164125274
 21
644.6814888864
 31
0.0
 40
0.1394214171
 41
-1.1402395829
 42
-1.1184838756
  0
ELLIPSE
  5
41C
100
AcDbEntity
  8
0
100
AcDbEllipse
 62
7
  6
CONTINUOUS
 10
266.3912306766
 20
-19.8540911874
 30
0.0
 11
27.5164125274
 21
644.6814888864
 31
0.0
 40
0.1394214171
 41
-1.1012155962
 42
-1.0609121485
  0
ELLIPSE
  5
41D
100
AcDbEntity
  8
0
100
AcDbEllipse
 62
7
  6
CONTINUOUS
 10
266.3912306766
 20
-19.8540911874
 30
0.0
 11
27.5164125274
 21
644.6814888864
 31
0.0
 40
0.1394214171
 41
-1.0431106521
 42
-1.027835095
  0
ELLIPSE
  5
41E
100
AcDbEntity
  8
0
100
AcDbEllipse
 62
7
  6
CONTINUOUS
 10
382.2095899396
 20
308.7511808206
 30
0.0
 11
0.5217365603
 21
1.9336604057
 31
0.0
 40
0.9791146912
 41
-1.8373880031
 42
1.8490003116
  0
ELLIPSE
  5
41F
100
AcDbEntity
  8
0
100
AcDbEllipse
 62
7
  6
CONTINUOUS
 10
169.1534249917
 20
80.3678474873
 30
0.0
 11
3.999879457
 21
1.413940343
 31
0.0
 40
0.0219624908
 41
1.6328460059
 42
3.1331131035
  0
ELLIPSE
  5
420
100
AcDbEntity
  8
0
100
AcDbEllipse
 62
7
  6
CONTINUOUS
 10
275.536927402
 20
117.5553474873
 30
0.0
 11
84.9974384617
 21
30.0462322888
 31
0.0
 40
0.0219624908
 41
3.1338426477
 42
3.5330994724
  0
ELLIPSE
  5
421
100
AcDbEntity
  8
0
100
AcDbEllipse
 62
7
  6
CONTINUOUS
 10
334.866277164
 20
-6.6609785011
 30
0.0
 11
-118.9671281738
 21
130.8112238507
 31
0.0
 40
0.317645699
 41
0.6283584871
 42
0.6422420451
  0
ELLIPSE
  5
422
100
AcDbEntity
  8
0
100
AcDbEllipse
 62
7
  6
CONTINUOUS
 10
223.9627104905
 20
-6.6609785011
 30
0.0
 11
111.5939730102
 21
128.9037246785
 31
0.0
 40
0.3930059223
 41
-0.5955247335
 42
-0.5816411754
  0
ELLIPSE
  5
423
100
AcDbEntity
  8
0
100
AcDbEllipse
 62
7
  6
CONTINUOUS
 10
216.2075776399
 20
-6.6609785011
 30
0.0
 11
118.9671281738
 21
130.8112238507
 31
0.0
 40
0.317645699
 41
-0.6422420451
 42
-0.6292648273
  0
ELLIPSE
  5
424
100
AcDbEntity
  8
0
100
AcDbEllipse
 62
7
  6
CONTINUOUS
 10
327.1111443134
 20
-6.6609785011
 30
0.0
 11
-111.5939730102
 21
128.9037246785
 31
0.0
 40
0.3930059223
 41
0.5816411754
 42
0.5955247335
  0
ELLIPSE
  5
425
100
AcDbEntity
  8
0
100
AcDbEllipse
 62
7
  6
CONTINUOUS
 10
225.2748285485
 20
-4.6609785011
 30
0.0
 11
108.7548709178
 21
125.6242390165
 31
0.0
 40
0.3930059223
 41
1.2372484586
 42
1.2505750381
  0
ELLIPSE
  5
426
100
AcDbEntity
  8
0
100
AcDbEllipse
 62
7
  6
CONTINUOUS
 10
217.7169968003
 20
-4.6609785011
 30
0.0
 11
115.9404430096
 21
127.4832088215
 31
0.0
 40
0.317645699
 41
1.1896004726
 42
1.2038577265
  0
ELLIPSE
  5
427
100
AcDbEntity
  8
0
100
AcDbEllipse
 62
7
  6
CONTINUOUS
 10
325.7990262554
 20
-4.6609785011
 30
0.0
 11
-108.7548709178
 21
125.6242390165
 31
0.0
 40
0.3930059223
 41
-1.2505750381
 42
-1.2363177842
  0
ELLIPSE
  5
428
100
AcDbEntity
  8
0
100
AcDbEllipse
 62
7
  6
CONTINUOUS
 10
333.3568580036
 20
-4.6609785011
 30
0.0
 11
-115.9404430096
 21
127.4832088215
 31
0.0
 40
0.317645699
 41
-1.2038577265
 42
-1.1896004726
  0
ELLIPSE
  5
429
100
AcDbEntity
  8
0
100
AcDbEllipse
 62
7
  6
CONTINUOUS
 10
325.7990262554
 20
-4.6609785011
 30
0.0
 11
-108.7548709178
 21
125.6242390165
 31
0.0
 40
0.3930059223
 41
0.5804259896
 42
0.5946832435
  0
ELLIPSE
  5
42A
100
AcDbEntity
  8
0
100
AcDbEllipse
 62
7
  6
CONTINUOUS
 10
217.7169968003
 20
-4.6609785011
 30
0.0
 11
115.9404430096
 21
127.4832088215
 31
0.0
 40
0.317645699
 41
-0.6414005551
 42
-0.6271433013
  0
ELLIPSE
  5
42B
100
AcDbEntity
  8
0
100
AcDbEllipse
 62
7
  6
CONTINUOUS
 10
216.2075776399
 20
-6.6609785011
 30
0.0
 11
118.9671281738
 21
130.8112238507
 31
0.0
 40
0.317645699
 41
1.1908156584
 42
1.2046992164
  0
ELLIPSE
  5
42C
100
AcDbEntity
  8
0
100
AcDbEllipse
 62
7
  6
CONTINUOUS
 10
327.1111443134
 20
-6.6609785011
 30
0.0
 11
-111.5939730102
 21
128.9037246785
 31
0.0
 40
0.3930059223
 41
-1.251416528
 42
-1.23753297
  0
ELLIPSE
  5
42D
100
AcDbEntity
  8
0
100
AcDbEllipse
 62
7
  6
CONTINUOUS
 10
172.4319792577
 20
80.3678474873
 30
0.0
 11
3.999879457
 21
1.413940343
 31
0.0
 40
0.0219624908
 41
-3.0795429744
 42
-1.5087466476
  0
ELLIPSE
  5
42E
100
AcDbEntity
  8
0
100
AcDbEllipse
 62
7
  6
CONTINUOUS
 10
180.7683426273
 20
83.9095141539
 30
0.0
 11
5.4998342534
 21
1.9441679716
 31
0.0
 40
0.0219624908
 41
4.2403104067
 42
8.450159566
  0
ELLIPSE
  5
42F
100
AcDbEntity
  8
03___PRT_ALL_CURVES
100
AcDbEllipse
 62
2
  6
CONTINUOUS
 10
275.536927402
 20
283.8555382459
 30
0.0
 11
-7.2390428057
 21
199.1605194492
 31
0.0
 40
0.4252408155
 41
1.5634916347
 42
1.5636981399
  0
ELLIPSE
  5
430
100
AcDbEntity
  8
03___PRT_ALL_CURVES
100
AcDbEllipse
 62
2
  6
CONTINUOUS
 10
275.536927402
 20
284.0520187319
 30
0.0
 11
-6.9332050006
 21
222.6794479072
 31
0.0
 40
0.3804426863
 41
1.5673088025
 42
1.5674975515
  0
ELLIPSE
  5
431
100
AcDbEntity
  8
03___PRT_ALL_CURVES
100
AcDbEllipse
 62
2
  6
CONTINUOUS
 10
275.536927402
 20
284.2980952134
 30
0.0
 11
-6.6889770794
 21
251.4800329965
 31
0.0
 40
0.3369508091
 41
1.5703800913
 42
1.5705495545
  0
ELLIPSE
  5
432
100
AcDbEntity
  8
03___PRT_ALL_CURVES
100
AcDbEllipse
 62
2
  6
CONTINUOUS
 10
275.536927402
 20
284.6122500408
 30
0.0
 11
-6.4936073796
 21
287.5303521872
 31
0.0
 40
0.2947570425
 41
-4.7103303432
 42
-4.7101803071
  0
ELLIPSE
  5
433
100
AcDbEntity
  8
03___PRT_ALL_CURVES
100
AcDbEllipse
 62
2
  6
CONTINUOUS
 10
275.536927402
 20
278.8868078539
 30
0.0
 11
6.491323005
 21
288.0638786028
 31
0.0
 40
0.294211727
 41
1.5685628378
 42
1.5687124614
  0
ELLIPSE
  5
434
100
AcDbEntity
  8
03___PRT_ALL_CURVES
100
AcDbEllipse
 62
2
  6
CONTINUOUS
 10
275.536927402
 20
279.2019650199
 30
0.0
 11
6.6861847588
 21
251.8914070309
 31
0.0
 40
0.336401396
 41
-4.7121734356
 42
-4.7120046705
  0
ELLIPSE
  5
435
100
AcDbEntity
  8
03___PRT_ALL_CURVES
100
AcDbEllipse
 62
2
  6
CONTINUOUS
 10
275.536927402
 20
279.4496629491
 30
0.0
 11
6.9309132008
 21
222.8975986969
 31
0.0
 40
0.3800711868
 41
-4.7091162301
 42
-4.7089285086
  0
ELLIPSE
  5
436
100
AcDbEntity
  8
03___PRT_ALL_CURVES
100
AcDbEllipse
 62
2
  6
CONTINUOUS
 10
275.536927402
 20
279.6479692387
 30
0.0
 11
7.2390488957
 21
199.16013923
 31
0.0
 40
0.4252416247
 41
-4.7052907216
 42
-4.7050852736
  0
ELLIPSE
  5
437
100
AcDbEntity
  8
03___PRT_ALL_CURVES
100
AcDbEllipse
 62
2
  6
CONTINUOUS
 10
275.536927402
 20
279.8077544052
 30
0.0
 11
7.6258577544
 21
179.5462438391
 31
0.0
 40
0.4715065402
 41
-4.7005170797
 42
-4.70029271
  0
ELLIPSE
  5
438
100
AcDbEntity
  8
03___PRT_ALL_CURVES
100
AcDbEllipse
 62
2
  6
CONTINUOUS
 10
275.536927402
 20
279.9389234719
 30
0.0
 11
8.1196449455
 21
162.9811195314
 31
0.0
 40
0.5191478374
 41
-4.6944583614
 42
-4.6942155109
  0
ELLIPSE
  5
439
100
AcDbEntity
  8
03___PRT_ALL_CURVES
100
AcDbEllipse
 62
2
  6
CONTINUOUS
 10
275.536927402
 20
280.0482404091
 30
0.0
 11
8.7651985193
 21
148.7263474359
 31
0.0
 40
0.5684726347
 41
-4.6865830034
 42
-4.6863221082
  0
ELLIPSE
  5
43A
100
AcDbEntity
  8
03___PRT_ALL_CURVES
100
AcDbEllipse
 62
2
  6
CONTINUOUS
 10
275.536927402
 20
280.1404617327
 30
0.0
 11
9.6371679553
 21
136.2560592386
 31
0.0
 40
0.6198029638
 41
-4.6760029596
 42
-4.6757244591
  0
ELLIPSE
  5
43B
100
AcDbEntity
  8
03___PRT_ALL_CURVES
100
AcDbEllipse
 62
2
  6
CONTINUOUS
 10
275.536927402
 20
280.2190332738
 30
0.0
 11
10.8692793675
 21
125.1763798686
 31
0.0
 40
0.6734672091
 41
-4.6611222711
 42
-4.6608266061
  0
ELLIPSE
  5
43C
100
AcDbEntity
  8
03___PRT_ALL_CURVES
100
AcDbEllipse
 62
2
  6
CONTINUOUS
 10
275.536927402
 20
280.2865242543
 30
0.0
 11
12.7257941883
 21
115.1627666931
 31
0.0
 40
0.7297669289
 41
-4.6387713177
 42
-4.6384589227
  0
ELLIPSE
  5
43D
100
AcDbEntity
  8
03___PRT_ALL_CURVES
100
AcDbEllipse
 62
2
  6
CONTINUOUS
 10
275.536927402
 20
280.3448466713
 30
0.0
 11
15.8012214011
 21
105.883654889
 31
0.0
 40
0.7887750918
 41
-4.6017547549
 42
-4.6014260739
  0
ELLIPSE
  5
43E
100
AcDbEntity
  8
03___PRT_ALL_CURVES
100
AcDbEllipse
 62
2
  6
CONTINUOUS
 10
275.536927402
 20
280.3955011943
 30
0.0
 11
21.7176881733
 21
96.7105194829
 31
0.0
 40
0.8497392056
 41
-4.5300433649
 42
-4.5296988326
  0
ELLIPSE
  5
43F
100
AcDbEntity
  8
03___PRT_ALL_CURVES
100
AcDbEllipse
 62
2
  6
CONTINUOUS
 10
275.536927402
 20
280.4396291939
 30
0.0
 11
35.9770736108
 21
84.8673643927
 31
0.0
 40
0.9074243701
 41
-4.3510257883
 42
-4.3506658439
  0
ELLIPSE
  5
440
100
AcDbEntity
  8
03___PRT_ALL_CURVES
100
AcDbEllipse
 62
2
  6
CONTINUOUS
 10
275.536927402
 20
280.4778316351
 30
0.0
 11
66.8484143911
 21
56.3571566415
 31
0.0
 40
0.9315653815
 41
-3.882662656
 42
-3.8822918436
  0
ELLIPSE
  5
441
100
AcDbEntity
  8
03___PRT_ALL_CURVES
100
AcDbEllipse
 62
2
  6
CONTINUOUS
 10
275.536927402
 20
280.5105857501
 30
0.0
 11
81.3676034211
 21
27.5725372143
 31
0.0
 40
0.8915676001
 41
-3.5099394894
 42
-3.5095546437
  0
ELLIPSE
  5
442
100
AcDbEntity
  8
03___PRT_ALL_CURVES
100
AcDbEllipse
 62
2
  6
CONTINUOUS
 10
275.536927402
 20
280.5387241669
 30
0.0
 11
83.8942103143
 21
16.4319347022
 31
0.0
 40
0.8316774917
 41
2.9055531361
 42
2.9059513907
  0
ELLIPSE
  5
443
100
AcDbEntity
  8
03___PRT_ALL_CURVES
100
AcDbEllipse
 62
2
  6
CONTINUOUS
 10
275.536927402
 20
280.5628344718
 30
0.0
 11
84.5433900522
 21
11.4184050522
 31
0.0
 40
0.7705621468
 41
2.9637309515
 42
2.9641419924
  0
ELLIPSE
  5
444
100
AcDbEntity
  8
03___PRT_ALL_CURVES
100
AcDbEllipse
 62
2
  6
CONTINUOUS
 10
275.536927402
 20
280.5833890513
 30
0.0
 11
84.7782670411
 21
8.625275619
 31
0.0
 40
0.7113497654
 41
2.9955943586
 42
2.9960175646
  0
ELLIPSE
  5
445
100
AcDbEntity
  8
03___PRT_ALL_CURVES
100
AcDbEllipse
 62
2
  6
CONTINUOUS
 10
275.536927402
 20
280.6007693681
 30
0.0
 11
84.8819884739
 21
6.8408324119
 31
0.0
 40
0.6545260411
 41
3.0155628852
 42
3.0159976304
  0
ELLIPSE
  5
446
100
AcDbEntity
  8
03___PRT_ALL_CURVES
100
AcDbEllipse
 62
2
  6
CONTINUOUS
 10
275.536927402
 20
280.6152852909
 30
0.0
 11
84.9337572774
 21
5.5919443466
 31
0.0
 40
0.5999928517
 41
3.0292161923
 42
3.0296618572
  0
ELLIPSE
  5
447
100
AcDbEntity
  8
03___PRT_ALL_CURVES
100
AcDbEllipse
 62
2
  6
CONTINUOUS
 10
275.536927402
 20
280.6271834574
 30
0.0
 11
84.9617088523
 21
4.6593840659
 31
0.0
 40
0.5475152579
 41
3.0391269334
 42
3.0395828953
  0
ELLIPSE
  5
448
100
AcDbEntity
  8
03___PRT_ALL_CURVES
100
AcDbEllipse
 62
2
  6
CONTINUOUS
 10
275.536927402
 20
280.6366618797
 30
0.0
 11
84.9775925123
 21
3.928156756
 31
0.0
 40
0.4968251935
 41
3.0466380513
 42
3.0471036845
  0
ELLIPSE
  5
449
100
AcDbEntity
  8
03___PRT_ALL_CURVES
100
AcDbEllipse
 62
2
  6
CONTINUOUS
 10
275.536927402
 20
280.6438782045
 30
0.0
 11
84.9869103345
 21
3.3321878495
 31
0.0
 40
0.4476540706
 41
3.0525158577
 42
3.0529905411
  0
ELLIPSE
  5
44A
100
AcDbEntity
  8
03___PRT_ALL_CURVES
100
AcDbEllipse
 62
2
  6
CONTINUOUS
 10
275.536927402
 20
280.6489225449
 30
0.0
 11
84.9924399546
 21
2.8337563857
 31
0.0
 40
0.4000502025
 41
3.0572030776
 42
3.057682551
  0
ELLIPSE
  5
44B
100
AcDbEntity
  8
03___PRT_ALL_CURVES
100
AcDbEllipse
 62
2
  6
CONTINUOUS
 10
275.536927402
 20
280.6518935696
 30
0.0
 11
84.9957129943
 21
2.4097076093
 31
0.0
 40
0.3542677871
 41
3.0609764604
 42
3.0614634062
  0
ELLIPSE
  5
44C
100
AcDbEntity
  8
03___PRT_ALL_CURVES
100
AcDbEllipse
 62
2
  6
CONTINUOUS
 10
275.536927402
 20
280.6529248934
 30
0.0
 11
84.9976499529
 21
2.0392151222
 31
0.0
 40
0.309953609
 41
3.0640707971
 42
3.0645643825
  0
ELLIPSE
  5
44D
100
AcDbEntity
  8
03___PRT_ALL_CURVES
100
AcDbEllipse
 62
2
  6
CONTINUOUS
 10
275.536927402
 20
280.6521119676
 30
0.0
 11
84.9987776261
 21
1.7083172417
 31
0.0
 40
0.2668433681
 41
3.0666374719
 42
3.0671368674
  0
ELLIPSE
  5
44E
100
AcDbEntity
  8
03___PRT_ALL_CURVES
100
AcDbEllipse
 62
2
  6
CONTINUOUS
 10
275.536927402
 20
285.3709639473
 30
0.0
 11
7.2347931437
 21
199.4265291756
 31
0.0
 40
0.424675419
 41
-4.6812450632
 42
-4.6810398694
  0
ELLIPSE
  5
44F
100
AcDbEntity
  8
03___PRT_ALL_CURVES
100
AcDbEllipse
 62
2
  6
CONTINUOUS
 10
275.536927402
 20
285.0618427096
 30
0.0
 11
7.6203854732
 21
179.7728174426
 31
0.0
 40
0.470915026
 41
-4.6769153779
 42
-4.6766912594
  0
ELLIPSE
  5
450
100
AcDbEntity
  8
03___PRT_ALL_CURVES
100
AcDbEllipse
 62
2
  6
CONTINUOUS
 10
275.536927402
 20
280.6495216977
 30
0.0
 11
84.9994122259
 21
1.4068655932
 31
0.0
 40
0.2246861706
 41
3.0687810008
 42
3.069285375
  0
ELLIPSE
  5
451
100
AcDbEntity
  8
03___PRT_ALL_CURVES
100
AcDbEllipse
 62
2
  6
CONTINUOUS
 10
275.536927402
 20
280.6451948412
 30
0.0
 11
84.9997489888
 21
1.1272534749
 31
0.0
 40
0.1832521732
 41
3.0705739881
 42
3.0710825083
  0
ELLIPSE
  5
452
100
AcDbEntity
  8
03___PRT_ALL_CURVES
100
AcDbEllipse
 62
2
  6
CONTINUOUS
 10
275.536927402
 20
284.8046030182
 30
0.0
 11
8.1126283878
 21
163.1733079784
 31
0.0
 40
0.5185405004
 41
-4.6713419224
 42
-4.6710993156
  0
ELLIPSE
  5
453
100
AcDbEntity
  8
03___PRT_ALL_CURVES
100
AcDbEllipse
 62
2
  6
CONTINUOUS
 10
275.536927402
 20
284.5868851169
 30
0.0
 11
8.7561868449
 21
148.887986754
 31
0.0
 40
0.5678617476
 41
-4.663993736
 42
-4.6637330756
  0
ELLIPSE
  5
454
100
AcDbEntity
  8
03___PRT_ALL_CURVES
100
AcDbEllipse
 62
2
  6
CONTINUOUS
 10
275.536927402
 20
280.6391472236
 30
0.0
 11
84.9999111599
 21
0.8634983204
 31
0.0
 40
0.1423205059
 41
3.0720669588
 42
3.072578797
  0
ELLIPSE
  5
455
100
AcDbEntity
  8
03___PRT_ALL_CURVES
100
AcDbEllipse
 62
2
  6
CONTINUOUS
 10
275.536927402
 20
280.6313735211
 30
0.0
 11
84.9999773052
 21
0.6107927185
 31
0.0
 40
0.1016937346
 41
3.073293853
 42
3.0738081748
  0
ELLIPSE
  5
456
100
AcDbEntity
  8
03___PRT_ALL_CURVES
100
AcDbEllipse
 62
2
  6
CONTINUOUS
 10
275.536927402
 20
280.6218435251
 30
0.0
 11
84.9999970691
 21
0.3649303483
 31
0.0
 40
0.0611661947
 41
3.0742763206
 42
3.0747922948
  0
ELLIPSE
  5
457
100
AcDbEntity
  8
03___PRT_ALL_CURVES
100
AcDbEllipse
 62
2
  6
CONTINUOUS
 10
275.536927402
 20
280.6105066502
 30
0.0
 11
84.9999999629
 21
0.1221749486
 31
0.0
 40
0.0205463762
 41
3.0750253671
 42
3.0755421641
  0
ELLIPSE
  5
458
100
AcDbEntity
  8
03___PRT_ALL_CURVES
100
AcDbEllipse
 62
2
  6
CONTINUOUS
 10
275.536927402
 20
284.3999825243
 30
0.0
 11
9.6255433482
 21
136.3896306783
 31
0.0
 40
0.6192056878
 41
-4.6539839258
 42
-4.6537056466
  0
ELLIPSE
  5
459
100
AcDbEntity
  8
03___PRT_ALL_CURVES
100
AcDbEllipse
 62
2
  6
CONTINUOUS
 10
275.536927402
 20
280.5973263878
 30
0.0
 11
84.9999999651
 21
-0.1203730035
 31
0.0
 40
0.0202435913
 41
-3.0760600586
 42
-3.0755430284
  0
ELLIPSE
  5
45A
100
AcDbEntity
  8
03___PRT_ALL_CURVES
100
AcDbEllipse
 62
2
  6
CONTINUOUS
 10
275.536927402
 20
284.2376069778
 30
0.0
 11
10.8538914952
 21
125.2855611645
 31
0.0
 40
0.6728961341
 41
-4.6397220817
 42
-4.6394266215
  0
ELLIPSE
  5
45B
100
AcDbEntity
  8
03___PRT_ALL_CURVES
100
AcDbEllipse
 62
2
  6
CONTINUOUS
 10
275.536927402
 20
280.5824008264
 30
0.0
 11
84.9999971216
 21
-0.363281019
 31
0.0
 40
0.0608918066
 41
-3.0763446767
 42
-3.0758284815
  0
ELLIPSE
  5
45C
100
AcDbEntity
  8
03___PRT_ALL_CURVES
100
AcDbEllipse
 62
2
  6
CONTINUOUS
 10
275.536927402
 20
280.5657224126
 30
0.0
 11
84.9999775226
 21
-0.6093093573
 31
0.0
 40
0.1014518254
 41
-3.0763922155
 42
-3.0758776801
  0
ELLIPSE
  5
45D
100
AcDbEntity
  8
03___PRT_ALL_CURVES
100
AcDbEllipse
 62
2
  6
CONTINUOUS
 10
275.536927402
 20
284.0950048007
 30
0.0
 11
12.7049734614
 21
115.2489889277
 31
0.0
 40
0.7292482948
 41
-4.6180442101
 42
-4.6177320005
  0
ELLIPSE
  5
45E
100
AcDbEntity
  8
03___PRT_ALL_CURVES
100
AcDbEllipse
 62
2
  6
CONTINUOUS
 10
275.536927402
 20
283.9686406488
 30
0.0
 11
15.7726611873
 21
105.9474710014
 31
0.0
 40
0.7883509365
 41
-4.5817627798
 42
-4.581434257
  0
ELLIPSE
  5
45F
100
AcDbEntity
  8
03___PRT_ALL_CURVES
100
AcDbEllipse
 62
2
  6
CONTINUOUS
 10
275.536927402
 20
280.5472101665
 30
0.0
 11
84.9999116481
 21
-0.8622853906
 31
0.0
 40
0.1421285533
 41
-3.076189681
 42
-3.0756776288
  0
ELLIPSE
  5
460
100
AcDbEntity
  8
03___PRT_ALL_CURVES
100
AcDbEllipse
 62
2
  6
CONTINUOUS
 10
275.536927402
 20
283.8557965614
 30
0.0
 11
21.6742210275
 21
96.7594974607
 31
0.0
 40
0.8494276747
 41
-4.510911414
 42
-4.510567016
  0
ELLIPSE
  5
461
100
AcDbEntity
  8
03___PRT_ALL_CURVES
100
AcDbEllipse
 62
2
  6
CONTINUOUS
 10
275.536927402
 20
280.5267697426
 30
0.0
 11
84.9997498242
 21
-1.1262827095
 31
0.0
 40
0.1831046534
 41
-3.0757140424
 42
-3.0752052999
  0
ELLIPSE
  5
462
100
AcDbEntity
  8
03___PRT_ALL_CURVES
100
AcDbEllipse
 62
2
  6
CONTINUOUS
 10
275.536927402
 20
280.5042675798
 30
0.0
 11
84.9994132231
 21
-1.4062381986
 31
0.0
 40
0.2245956436
 41
-3.0749291471
 42
-3.0744245378
  0
ELLIPSE
  5
463
100
AcDbEntity
  8
03___PRT_ALL_CURVES
100
AcDbEllipse
 62
2
  6
CONTINUOUS
 10
275.536927402
 20
283.7542729447
 30
0.0
 11
35.9195253303
 21
84.9089328358
 31
0.0
 40
0.9072964496
 41
-4.33281646
 42
-4.3324566183
  0
ELLIPSE
  5
464
100
AcDbEntity
  8
03___PRT_ALL_CURVES
100
AcDbEllipse
 62
2
  6
CONTINUOUS
 10
275.536927402
 20
280.4795497322
 30
0.0
 11
84.998778318
 21
-1.7080581552
 31
0.0
 40
0.2668083038
 41
-3.0737830251
 42
-3.0732833755
  0
ELLIPSE
  5
465
100
AcDbEntity
  8
03___PRT_ALL_CURVES
100
AcDbEllipse
 62
2
  6
CONTINUOUS
 10
275.536927402
 20
283.6631314205
 30
0.0
 11
66.8569984585
 21
56.3456461919
 31
0.0
 40
0.9315616697
 41
-3.8642735081
 42
-3.8639026042
  0
ELLIPSE
  5
466
100
AcDbEntity
  8
03___PRT_ALL_CURVES
100
AcDbEllipse
 62
2
  6
CONTINUOUS
 10
275.536927402
 20
280.4524206438
 30
0.0
 11
84.9976491604
 21
-2.0394036372
 31
0.0
 40
0.3099772143
 41
-3.0722010287
 42
-3.0717071639
  0
ELLIPSE
  5
467
100
AcDbEntity
  8
03___PRT_ALL_CURVES
100
AcDbEllipse
 62
2
  6
CONTINUOUS
 10
275.536927402
 20
280.4226486899
 30
0.0
 11
84.9957084585
 21
-2.4104251686
 31
0.0
 40
0.3543496287
 41
-3.070076835
 42
-3.0695895799
  0
ELLIPSE
  5
468
100
AcDbEntity
  8
03___PRT_ALL_CURVES
100
AcDbEllipse
 62
2
  6
CONTINUOUS
 10
275.536927402
 20
283.5817417985
 30
0.0
 11
81.3832677914
 21
27.5196016612
 31
0.0
 40
0.8913963642
 41
-3.4918317695
 42
-3.4914467932
  0
ELLIPSE
  5
469
100
AcDbEntity
  8
03___PRT_ALL_CURVES
100
AcDbEllipse
 62
2
  6
CONTINUOUS
 10
275.536927402
 20
280.3899614474
 30
0.0
 11
84.9924274371
 21
-2.8351174074
 31
0.0
 40
0.4001890351
 41
-3.0672570205
 42
-3.0667772002
  0
ELLIPSE
  5
46A
100
AcDbEntity
  8
03___PRT_ALL_CURVES
100
AcDbEllipse
 62
2
  6
CONTINUOUS
 10
275.536927402
 20
283.5084931119
 30
0.0
 11
83.9000488239
 21
16.3951769628
 31
0.0
 40
0.8313530284
 41
2.9226674984
 42
2.9230659163
  0
ELLIPSE
  5
46B
100
AcDbEntity
  8
03___PRT_ALL_CURVES
100
AcDbEllipse
 62
2
  6
CONTINUOUS
 10
275.536927402
 20
280.3539991388
 30
0.0
 11
84.9868841792
 21
-3.3341866088
 31
0.0
 40
0.4478324302
 41
-3.0635129726
 42
-3.0630379957
  0
ELLIPSE
  5
46C
100
AcDbEntity
  8
03___PRT_ALL_CURVES
100
AcDbEllipse
 62
2
  6
CONTINUOUS
 10
275.536927402
 20
280.3148339852
 30
0.0
 11
84.9775498159
 21
-3.93049121
 31
0.0
 40
0.4970028815
 41
-3.0585624124
 42
-3.0580964577
  0
ELLIPSE
  5
46D
100
AcDbEntity
  8
03___PRT_ALL_CURVES
100
AcDbEllipse
 62
2
  6
CONTINUOUS
 10
275.536927402
 20
280.2723900741
 30
0.0
 11
84.9616540073
 21
-4.6615547429
 31
0.0
 40
0.5476520005
 41
-3.0519639234
 42
-3.0515076325
  0
ELLIPSE
  5
46E
100
AcDbEntity
  8
03___PRT_ALL_CURVES
100
AcDbEllipse
 62
2
  6
CONTINUOUS
 10
275.536927402
 20
280.2263080044
 30
0.0
 11
84.9337211707
 21
-5.5929822018
 31
0.0
 40
0.6000449166
 41
-3.0429555619
 42
-3.042509578
  0
ELLIPSE
  5
46F
100
AcDbEntity
  8
03___PRT_ALL_CURVES
100
AcDbEllipse
 62
2
  6
CONTINUOUS
 10
275.536927402
 20
283.4422443898
 30
0.0
 11
84.5458500832
 21
11.3938111862
 31
0.0
 40
0.7701479848
 41
2.9798880109
 42
2.9802992412
  0
ELLIPSE
  5
470
100
AcDbEntity
  8
03___PRT_ALL_CURVES
100
AcDbEllipse
 62
2
  6
CONTINUOUS
 10
275.536927402
 20
280.1761476568
 30
0.0
 11
84.8820691602
 21
-6.8391586882
 31
0.0
 40
0.6544625286
 41
-3.0302008188
 42
-3.0297657836
  0
ELLIPSE
  5
471
100
AcDbEntity
  8
03___PRT_ALL_CURVES
100
AcDbEllipse
 62
2
  6
CONTINUOUS
 10
275.536927402
 20
280.1213899539
 30
0.0
 11
84.7787857609
 21
-8.6176578968
 31
0.0
 40
0.7111463759
 41
-3.0111455104
 42
-3.010722067
  0
ELLIPSE
  5
472
100
AcDbEntity
  8
03___PRT_ALL_CURVES
100
AcDbEllipse
 62
2
  6
CONTINUOUS
 10
275.536927402
 20
283.38205278
 30
0.0
 11
84.7794421622
 21
8.6080043824
 31
0.0
 40
0.7108882231
 41
3.0108287743
 42
3.0112521863
  0
ELLIPSE
  5
473
100
AcDbEntity
  8
03___PRT_ALL_CURVES
100
AcDbEllipse
 62
2
  6
CONTINUOUS
 10
275.536927402
 20
280.0613993627
 30
0.0
 11
84.5455240528
 21
-11.3970746674
 31
0.0
 40
0.7702030298
 41
-2.980262584
 42
-2.9798513741
  0
ELLIPSE
  5
474
100
AcDbEntity
  8
03___PRT_ALL_CURVES
100
AcDbEllipse
 62
2
  6
CONTINUOUS
 10
275.536927402
 20
279.9954155049
 30
0.0
 11
83.9034185839
 21
-16.3739156424
 31
0.0
 40
0.8311647418
 41
-2.9233137404
 42
-2.9229154056
  0
ELLIPSE
  5
475
100
AcDbEntity
  8
03___PRT_ALL_CURVES
100
AcDbEllipse
 62
2
  6
CONTINUOUS
 10
275.536927402
 20
279.9225078499
 30
0.0
 11
-81.420795179
 21
27.3922858492
 31
0.0
 40
0.8909817269
 41
0.3483201869
 42
0.3487050032
  0
ELLIPSE
  5
476
100
AcDbEntity
  8
03___PRT_ALL_CURVES
100
AcDbEllipse
 62
2
  6
CONTINUOUS
 10
275.536927402
 20
279.8415322149
 30
0.0
 11
-67.1936451623
 21
55.8914149771
 31
0.0
 40
0.9314095073
 41
0.715869885
 42
0.7162405411
  0
ELLIPSE
  5
477
100
AcDbEntity
  8
03___PRT_ALL_CURVES
100
AcDbEllipse
 62
2
  6
CONTINUOUS
 10
275.536927402
 20
279.7508143838
 30
0.0
 11
-36.2666998049
 21
84.6581739358
 31
0.0
 40
0.9080605198
 41
1.1863529895
 42
1.1867124861
  0
ELLIPSE
  5
478
100
AcDbEntity
  8
03___PRT_ALL_CURVES
100
AcDbEllipse
 62
2
  6
CONTINUOUS
 10
275.536927402
 20
279.6495716494
 30
0.0
 11
-21.8176707671
 21
96.5984931835
 31
0.0
 40
0.8504504513
 41
1.3672293597
 42
1.3675733639
  0
ELLIPSE
  5
479
100
AcDbEntity
  8
03___PRT_ALL_CURVES
100
AcDbEllipse
 62
2
  6
CONTINUOUS
 10
275.536927402
 20
279.5367641794
 30
0.0
 11
-15.836337537
 21
105.8055945069
 31
0.0
 40
0.7892941632
 41
1.4390803073
 42
1.4394084363
  0
ELLIPSE
  5
47A
100
AcDbEntity
  8
03___PRT_ALL_CURVES
100
AcDbEllipse
 62
2
  6
CONTINUOUS
 10
275.536927402
 20
279.4102618747
 30
0.0
 11
-12.7353746671
 21
115.123241366
 31
0.0
 40
0.7300048741
 41
1.4757790837
 42
1.4760909544
  0
ELLIPSE
  5
47B
100
AcDbEntity
  8
03___PRT_ALL_CURVES
100
AcDbEllipse
 62
2
  6
CONTINUOUS
 10
275.536927402
 20
279.267345466
 30
0.0
 11
-10.8681344761
 21
125.1844834304
 31
0.0
 40
0.6734247927
 41
1.497666719
 42
1.4979619502
  0
ELLIPSE
  5
47C
100
AcDbEntity
  8
03___PRT_ALL_CURVES
100
AcDbEllipse
 62
2
  6
CONTINUOUS
 10
275.536927402
 20
279.1045046747
 30
0.0
 11
-9.6314108466
 21
136.3221231308
 31
0.0
 40
0.6195074151
 41
1.5120452891
 42
1.5123234962
  0
ELLIPSE
  5
47D
100
AcDbEntity
  8
03___PRT_ALL_CURVES
100
AcDbEllipse
 62
2
  6
CONTINUOUS
 10
275.536927402
 20
278.9171724276
 30
0.0
 11
-8.7582544799
 21
148.8508252001
 31
0.0
 40
0.5680020791
 41
1.5221175967
 42
1.5223783998
  0
ELLIPSE
  5
47E
100
AcDbEntity
  8
03___PRT_ALL_CURVES
100
AcDbEllipse
 62
2
  6
CONTINUOUS
 10
275.536927402
 20
278.6991739693
 30
0.0
 11
-8.1132545235
 21
163.1561168438
 31
0.0
 40
0.5185947691
 41
1.529500484
 42
1.5297434986
  0
ELLIPSE
  5
47F
100
AcDbEntity
  8
03___PRT_ALL_CURVES
100
AcDbEllipse
 62
2
  6
CONTINUOUS
 10
275.536927402
 20
278.442132721
 30
0.0
 11
-7.6210764836
 21
179.7441419822
 31
0.0
 40
0.4709898073
 41
1.5350909407
 42
1.5353157839
  0
ELLIPSE
  5
480
100
AcDbEntity
  8
03___PRT_ALL_CURVES
100
AcDbEllipse
 62
2
  6
CONTINUOUS
 10
275.536927402
 20
278.1343355867
 30
0.0
 11
-7.2365832367
 21
199.3143100481
 31
0.0
 40
0.424913755
 41
1.5394254783
 42
1.5396317703
  0
ELLIPSE
  5
481
100
AcDbEntity
  8
03___PRT_ALL_CURVES
100
AcDbEllipse
 62
2
  6
CONTINUOUS
 10
275.536927402
 20
277.7581394246
 30
0.0
 11
-6.9307047541
 21
222.9174791216
 31
0.0
 40
0.3800373674
 41
1.5428480168
 42
1.5430366123
  0
ELLIPSE
  5
482
100
AcDbEntity
  8
03___PRT_ALL_CURVES
100
AcDbEllipse
 62
2
  6
CONTINUOUS
 10
275.536927402
 20
277.2917689096
 30
0.0
 11
-6.6865882114
 21
251.8318232324
 31
0.0
 40
0.3364808627
 41
1.5455599649
 42
1.5457292354
  0
ELLIPSE
  5
483
100
AcDbEntity
  8
03___PRT_ALL_CURVES
100
AcDbEllipse
 62
2
  6
CONTINUOUS
 10
275.536927402
 20
276.7016579174
 30
0.0
 11
-6.4914467893
 21
288.0348825096
 31
0.0
 40
0.294241312
 41
1.5477128621
 42
1.5478626757
  0
ELLIPSE
  5
484
100
AcDbEntity
  8
03___PRT_ALL_CURVES
100
AcDbEllipse
 62
2
  6
CONTINUOUS
 10
275.536927402
 20
283.3271553665
 30
0.0
 11
84.8825863123
 21
6.8284159266
 31
0.0
 40
0.654054337
 41
3.0298810406
 42
3.0303160053
  0
ELLIPSE
  5
485
100
AcDbEntity
  8
03___PRT_ALL_CURVES
100
AcDbEllipse
 62
2
  6
CONTINUOUS
 10
275.536927402
 20
283.2769141881
 30
0.0
 11
84.9340673196
 21
5.5830190551
 31
0.0
 40
0.5995445811
 41
3.0426125413
 42
3.0430584295
  0
ELLIPSE
  5
486
100
AcDbEntity
  8
03___PRT_ALL_CURVES
100
AcDbEllipse
 62
2
  6
CONTINUOUS
 10
275.536927402
 20
283.2308051363
 30
0.0
 11
84.9618678828
 21
4.6530794348
 31
0.0
 40
0.5471176693
 41
3.0515913213
 42
3.0520475039
  0
ELLIPSE
  5
487
100
AcDbEntity
  8
03___PRT_ALL_CURVES
100
AcDbEllipse
 62
2
  6
CONTINUOUS
 10
275.536927402
 20
286.8096686371
 30
0.0
 11
6.4893320534
 21
288.531610423
 31
0.0
 40
0.2937353158
 41
-4.6894826754
 42
-4.6893332555
  0
ELLIPSE
  5
488
100
AcDbEntity
  8
03___PRT_ALL_CURVES
100
AcDbEllipse
 62
2
  6
CONTINUOUS
 10
275.536927402
 20
283.1883895118
 30
0.0
 11
84.9776704362
 21
3.92388917
 31
0.0
 40
0.4965000812
 41
3.0581581905
 42
3.0586240369
  0
ELLIPSE
  5
489
100
AcDbEntity
  8
03___PRT_ALL_CURVES
100
AcDbEllipse
 62
2
  6
CONTINUOUS
 10
275.536927402
 20
286.2188346602
 30
0.0
 11
6.6835690863
 21
252.2789039593
 31
0.0
 40
0.335885506
 41
-4.687359197
 42
-4.6871906419
  0
ELLIPSE
  5
48A
100
AcDbEntity
  8
03___PRT_ALL_CURVES
100
AcDbEllipse
 62
2
  6
CONTINUOUS
 10
275.536927402
 20
285.7500945988
 30
0.0
 11
6.9275968101
 21
223.2146695793
 31
0.0
 40
0.3795325204
 41
-4.6846665529
 42
-4.6844790351
  0
ELLIPSE
  5
48B
100
AcDbEntity
  8
03___PRT_ALL_CURVES
100
AcDbEllipse
 62
2
  6
CONTINUOUS
 10
275.536927402
 20
243.7537904363
 30
0.0
 11
7.0020418046
 21
216.4717960374
 31
0.0
 40
0.3913262935
 41
1.4034171772
 42
1.4090447537
  0
ELLIPSE
  5
48C
100
AcDbEntity
  8
03___PRT_ALL_CURVES
100
AcDbEllipse
 62
2
  6
CONTINUOUS
 10
275.536927402
 20
321.2736766696
 30
0.0
 11
-7.0027948352
 21
216.4073682726
 31
0.0
 40
0.3914425097
 41
-4.5450187201
 42
-4.5393836961
  0
ELLIPSE
  5
48D
100
AcDbEntity
  8
03___PRT_ALL_CURVES
100
AcDbEllipse
 62
2
  6
CONTINUOUS
 10
275.536927402
 20
283.1492935921
 30
0.0
 11
84.9869452736
 21
3.3295138887
 31
0.0
 40
0.4474153096
 41
3.0630789597
 42
3.0635538393
  0
ELLIPSE
  5
48E
100
AcDbEntity
  8
03___PRT_ALL_CURVES
100
AcDbEllipse
 62
2
  6
CONTINUOUS
 10
275.536927402
 20
278.8473146474
 30
0.0
 11
-72.3403296467
 21
48.1417367284
 31
0.0
 40
0.9270634795
 41
0.6034549947
 42
0.6040675302
  0
ELLIPSE
  5
48F
100
AcDbEntity
  8
03___PRT_ALL_CURVES
100
AcDbEllipse
 62
2
  6
CONTINUOUS
 10
275.536927402
 20
283.113434515
 30
0.0
 11
84.9924527326
 21
2.8323655267
 31
0.0
 40
0.3999082743
 41
3.0667995593
 42
3.0672793341
  0
ELLIPSE
  5
490
100
AcDbEntity
  8
03___PRT_ALL_CURVES
100
AcDbEllipse
 62
2
  6
CONTINUOUS
 10
275.536927402
 20
283.080836235
 30
0.0
 11
84.9957170975
 21
2.4090580495
 31
0.0
 40
0.3541936882
 41
3.0695997683
 42
3.0700869999
  0
ELLIPSE
  5
491
100
AcDbEntity
  8
03___PRT_ALL_CURVES
100
AcDbEllipse
 62
2
  6
CONTINUOUS
 10
275.536927402
 20
278.964126526
 30
0.0
 11
-82.3151608393
 21
24.1181426973
 31
0.0
 40
0.8787855844
 41
0.3032852351
 42
0.3039220942
  0
ELLIPSE
  5
492
100
AcDbEntity
  8
03___PRT_ALL_CURVES
100
AcDbEllipse
 62
2
  6
CONTINUOUS
 10
275.536927402
 20
279.0683916074
 30
0.0
 11
84.1081216837
 21
-15.0118175285
 31
0.0
 40
0.8180912709
 41
-2.9446884032
 42
-2.9440284809
  0
ELLIPSE
  5
493
100
AcDbEntity
  8
03___PRT_ALL_CURVES
100
AcDbEllipse
 62
2
  6
CONTINUOUS
 10
275.536927402
 20
279.1620094484
 30
0.0
 11
84.6129312144
 21
-10.6938441546
 31
0.0
 40
0.75768677
 41
-2.9935492565
 42
-2.9928675264
  0
ELLIPSE
  5
494
100
AcDbEntity
  8
03___PRT_ALL_CURVES
100
AcDbEllipse
 62
2
  6
CONTINUOUS
 10
275.536927402
 20
279.2464592968
 30
0.0
 11
84.8060821629
 21
-8.2022131332
 31
0.0
 40
0.6996074894
 41
-3.0207758584
 42
-3.0200735854
  0
ELLIPSE
  5
495
100
AcDbEntity
  8
03___PRT_ALL_CURVES
100
AcDbEllipse
 62
2
  6
CONTINUOUS
 10
275.536927402
 20
283.0511394973
 30
0.0
 11
84.9976506212
 21
2.039056135
 31
0.0
 40
0.3099337003
 41
3.0717095503
 42
3.0722034089
  0
ELLIPSE
  5
496
100
AcDbEntity
  8
03___PRT_ALL_CURVES
100
AcDbEllipse
 62
2
  6
CONTINUOUS
 10
275.536927402
 20
283.0240707571
 30
0.0
 11
84.9987772729
 21
1.7084494492
 31
0.0
 40
0.26686126
 41
3.0732811519
 42
3.0737808077
  0
ELLIPSE
  5
497
100
AcDbEntity
  8
03___PRT_ALL_CURVES
100
AcDbEllipse
 62
2
  6
CONTINUOUS
 10
275.536927402
 20
282.9993941552
 30
0.0
 11
84.9994118584
 21
1.407096564
 31
0.0
 40
0.2247194946
 41
3.0744202743
 42
3.0749248977
  0
ELLIPSE
  5
498
100
AcDbEntity
  8
03___PRT_ALL_CURVES
100
AcDbEllipse
 62
2
  6
CONTINUOUS
 10
275.536927402
 20
279.3229798958
 30
0.0
 11
84.8945444517
 21
-6.5722402275
 31
0.0
 40
0.6440372759
 41
-3.0378168616
 42
-3.037095301
  0
ELLIPSE
  5
499
100
AcDbEntity
  8
03___PRT_ALL_CURVES
100
AcDbEllipse
 62
2
  6
CONTINUOUS
 10
275.536927402
 20
279.3925543012
 30
0.0
 11
84.9398437281
 21
-5.412101871
 31
0.0
 40
0.5907749902
 41
-3.0492885964
 42
-3.0485490113
  0
ELLIPSE
  5
49A
100
AcDbEntity
  8
03___PRT_ALL_CURVES
100
AcDbEllipse
 62
2
  6
CONTINUOUS
 10
275.536927402
 20
279.4560117354
 30
0.0
 11
84.9647916638
 21
-4.5342654765
 31
0.0
 40
0.5395047723
 41
-3.0573901082
 42
-3.0566337553
  0
ELLIPSE
  5
49B
100
AcDbEntity
  8
03___PRT_ALL_CURVES
100
AcDbEllipse
 62
2
  6
CONTINUOUS
 10
275.536927402
 20
279.5140126972
 30
0.0
 11
84.9791943229
 21
-3.8385246675
 31
0.0
 40
0.4899192165
 41
-3.0632911109
 42
-3.06251925
  0
ELLIPSE
  5
49C
100
AcDbEntity
  8
03___PRT_ALL_CURVES
100
AcDbEllipse
 62
2
  6
CONTINUOUS
 10
275.536927402
 20
279.5671193202
 30
0.0
 11
84.9877556903
 21
-3.2661750497
 31
0.0
 40
0.4417092719
 41
-3.067671619
 42
-3.0668855097
  0
ELLIPSE
  5
49D
100
AcDbEntity
  8
03___PRT_ALL_CURVES
100
AcDbEllipse
 62
2
  6
CONTINUOUS
 10
275.536927402
 20
279.6155598045
 30
0.0
 11
84.9928991356
 21
-2.7827789477
 31
0.0
 40
0.394813769
 41
-3.0709332632
 42
-3.0701363612
  0
ELLIPSE
  5
49E
100
AcDbEntity
  8
03___PRT_ALL_CURVES
100
AcDbEllipse
 62
2
  6
CONTINUOUS
 10
275.536927402
 20
279.6592079457
 30
0.0
 11
84.9959687383
 21
-2.3683978553
 31
0.0
 40
0.3495305564
 41
-3.0733230616
 42
-3.0725145243
  0
ELLIPSE
  5
49F
100
AcDbEntity
  8
03___PRT_ALL_CURVES
100
AcDbEllipse
 62
2
  6
CONTINUOUS
 10
275.536927402
 20
279.6984251098
 30
0.0
 11
84.997790105
 21
-2.0051687549
 31
0.0
 40
0.3056726113
 41
-3.0750428776
 42
-3.074223988
  0
ELLIPSE
  5
4A0
100
AcDbEntity
  8
03___PRT_ALL_CURVES
100
AcDbEllipse
 62
2
  6
CONTINUOUS
 10
275.536927402
 20
279.7335893077
 30
0.0
 11
84.9988518195
 21
-1.6799272401
 31
0.0
 40
0.2629890145
 41
-3.076237236
 42
-3.0754092784
  0
ELLIPSE
  5
4A1
100
AcDbEntity
  8
03___PRT_ALL_CURVES
100
AcDbEllipse
 62
2
  6
CONTINUOUS
 10
275.536927402
 20
279.7650141149
 30
0.0
 11
84.9994491598
 21
-1.3831023477
 31
0.0
 40
0.2212494737
 41
-3.077006844
 42
-3.0761710997
  0
ELLIPSE
  5
4A2
100
AcDbEntity
  8
03___PRT_ALL_CURVES
100
AcDbEllipse
 62
2
  6
CONTINUOUS
 10
275.536927402
 20
279.7929533374
 30
0.0
 11
84.999765593
 21
-1.1075013933
 31
0.0
 40
0.1802458242
 41
-3.0774227308
 42
-3.076580484
  0
ELLIPSE
  5
4A3
100
AcDbEntity
  8
03___PRT_ALL_CURVES
100
AcDbEllipse
 62
2
  6
CONTINUOUS
 10
275.536927402
 20
279.8176180065
 30
0.0
 11
84.9999174715
 21
-0.8474230092
 31
0.0
 40
0.1397739293
 41
-3.077535484
 42
-3.0766880173
  0
ELLIPSE
  5
4A4
100
AcDbEntity
  8
03___PRT_ALL_CURVES
100
AcDbEllipse
 62
2
  6
CONTINUOUS
 10
275.536927402
 20
279.8391726519
 30
0.0
 11
84.9999790996
 21
-0.5982185399
 31
0.0
 40
0.0996419822
 41
-3.0773802525
 42
-3.0765288501
  0
ELLIPSE
  5
4A5
100
AcDbEntity
  8
03___PRT_ALL_CURVES
100
AcDbEllipse
 62
2
  6
CONTINUOUS
 10
275.536927402
 20
279.8577371113
 30
0.0
 11
84.9999973459
 21
-0.3559598967
 31
0.0
 40
0.0596735073
 41
-3.0769802185
 42
-3.0761261613
  0
ELLIPSE
  5
4A6
100
AcDbEntity
  8
03___PRT_ALL_CURVES
100
AcDbEllipse
 62
2
  6
CONTINUOUS
 10
275.536927402
 20
279.8734006225
 30
0.0
 11
84.9999999688
 21
-0.1170313726
 31
0.0
 40
0.0196820599
 41
-3.0763489608
 42
-3.0754935313
  0
ELLIPSE
  5
4A7
100
AcDbEntity
  8
03___PRT_ALL_CURVES
100
AcDbEllipse
 62
2
  6
CONTINUOUS
 10
275.536927402
 20
282.9769226299
 30
0.0
 11
84.9997488003
 21
1.1274721267
 31
0.0
 40
0.1832853967
 41
3.0752003763
 42
3.0757091376
  0
ELLIPSE
  5
4A8
100
AcDbEntity
  8
03___PRT_ALL_CURVES
100
AcDbEllipse
 62
2
  6
CONTINUOUS
 10
275.536927402
 20
282.9565005327
 30
0.0
 11
84.999911094
 21
0.8636615178
 31
0.0
 40
0.1423463304
 41
3.0756731323
 42
3.0761852033
  0
ELLIPSE
  5
4A9
100
AcDbEntity
  8
03___PRT_ALL_CURVES
100
AcDbEllipse
 62
2
  6
CONTINUOUS
 10
275.536927402
 20
282.9379997768
 30
0.0
 11
84.999977304
 21
0.6108005784
 31
0.0
 40
0.1016950163
 41
3.0758741542
 42
3.0763887053
  0
ELLIPSE
  5
4AA
100
AcDbEntity
  8
03___PRT_ALL_CURVES
100
AcDbEllipse
 62
2
  6
CONTINUOUS
 10
275.536927402
 20
282.9213181854
 30
0.0
 11
84.9999970766
 21
0.3646965864
 31
0.0
 40
0.061127307
 41
3.0758264507
 42
3.0763426538
  0
ELLIPSE
  5
4AB
100
AcDbEntity
  8
03___PRT_ALL_CURVES
100
AcDbEllipse
 62
2
  6
CONTINUOUS
 10
275.536927402
 20
279.8861777721
 30
0.0
 11
84.999999964
 21
0.1213044894
 31
0.0
 40
0.0204001124
 41
3.0746362096
 42
3.0754915171
  0
ELLIPSE
  5
4AC
100
AcDbEntity
  8
03___PRT_ALL_CURVES
100
AcDbEllipse
 62
2
  6
CONTINUOUS
 10
275.536927402
 20
279.8959967202
 30
0.0
 11
84.9999972266
 21
0.3599078272
 31
0.0
 40
0.0603305449
 41
3.0735558122
 42
3.0744098706
  0
ELLIPSE
  5
4AD
100
AcDbEntity
  8
03___PRT_ALL_CURVES
100
AcDbEllipse
 62
2
  6
CONTINUOUS
 10
275.536927402
 20
279.9028993968
 30
0.0
 11
84.9999786241
 21
0.601625625
 31
0.0
 40
0.1001981756
 41
3.0722505949
 42
3.0731020668
  0
ELLIPSE
  5
4AE
100
AcDbEntity
  8
03___PRT_ALL_CURVES
100
AcDbEllipse
 62
2
  6
CONTINUOUS
 10
275.536927402
 20
279.9069222574
 30
0.0
 11
84.9999164656
 21
0.8500440162
 31
0.0
 40
0.1401895155
 41
3.0707102777
 42
3.0715578242
  0
ELLIPSE
  5
4AF
100
AcDbEntity
  8
03___PRT_ALL_CURVES
100
AcDbEllipse
 62
2
  6
CONTINUOUS
 10
275.536927402
 20
282.9063862702
 30
0.0
 11
84.9999999635
 21
0.1216712487
 31
0.0
 40
0.0204617395
 41
3.075542407
 42
3.0760594309
  0
ELLIPSE
  5
4B0
100
AcDbEntity
  8
03___PRT_ALL_CURVES
100
AcDbEllipse
 62
2
  6
CONTINUOUS
 10
275.536927402
 20
282.8931929811
 30
0.0
 11
84.9999999642
 21
-0.1211166117
 31
0.0
 40
0.0203685428
 41
-3.0755426733
 42
-3.0750258967
  0
ELLIPSE
  5
4B1
100
AcDbEntity
  8
03___PRT_ALL_CURVES
100
AcDbEllipse
 62
2
  6
CONTINUOUS
 10
275.536927402
 20
279.9080655047
 30
0.0
 11
84.9997642543
 21
1.1091308196
 31
0.0
 40
0.1804942086
 41
3.0689147619
 42
3.0697570474
  0
ELLIPSE
  5
4B2
100
AcDbEntity
  8
03___PRT_ALL_CURVES
100
AcDbEllipse
 62
2
  6
CONTINUOUS
 10
275.536927402
 20
279.9062925218
 30
0.0
 11
84.9994485675
 21
1.3834923271
 31
0.0
 40
0.221306004
 41
3.0668322067
 42
3.067667892
  0
ELLIPSE
  5
4B3
100
AcDbEntity
  8
03___PRT_ALL_CURVES
100
AcDbEllipse
 62
2
  6
CONTINUOUS
 10
275.536927402
 20
279.9015273847
 30
0.0
 11
84.9988546328
 21
1.6788257123
 31
0.0
 40
0.2628389742
 41
3.0644152002
 42
3.065242948
  0
ELLIPSE
  5
4B4
100
AcDbEntity
  8
03___PRT_ALL_CURVES
100
AcDbEllipse
 62
2
  6
CONTINUOUS
 10
275.536927402
 20
279.8936537677
 30
0.0
 11
84.9978017833
 21
2.0022655567
 31
0.0
 40
0.305305922
 41
3.0615961863
 42
3.0624146591
  0
ELLIPSE
  5
4B5
100
AcDbEntity
  8
03___PRT_ALL_CURVES
100
AcDbEllipse
 62
2
  6
CONTINUOUS
 10
275.536927402
 20
282.881842608
 30
0.0
 11
84.999997094
 21
-0.3641506147
 31
0.0
 40
0.061036479
 41
-3.074793432
 42
-3.0742774892
  0
ELLIPSE
  5
4B6
100
AcDbEntity
  8
03___PRT_ALL_CURVES
100
AcDbEllipse
 62
2
  6
CONTINUOUS
 10
275.536927402
 20
279.8825084756
 30
0.0
 11
84.9959992714
 21
2.3633495608
 31
0.0
 40
0.3489481767
 41
3.0582778476
 42
3.0590857079
  0
ELLIPSE
  5
4B7
100
AcDbEntity
  8
03___PRT_ALL_CURVES
100
AcDbEllipse
 62
2
  6
CONTINUOUS
 10
275.536927402
 20
282.8723002851
 30
0.0
 11
84.9999773755
 21
-0.6103141307
 31
0.0
 40
0.1016156896
 41
-3.0738093595
 42
-3.0732950738
  0
ELLIPSE
  5
4B8
100
AcDbEntity
  8
03___PRT_ALL_CURVES
100
AcDbEllipse
 62
2
  6
CONTINUOUS
 10
275.536927402
 20
279.8678775178
 30
0.0
 11
84.9929661087
 21
2.7751654335
 31
0.0
 40
0.3940255876
 41
3.0543193871
 42
3.0551152959
  0
ELLIPSE
  5
4B9
100
AcDbEntity
  8
03___PRT_ALL_CURVES
100
AcDbEllipse
 62
2
  6
CONTINUOUS
 10
275.536927402
 20
282.8645146066
 30
0.0
 11
84.9999112033
 21
-0.8633906308
 31
0.0
 40
0.1423034648
 41
-3.0725792382
 42
-3.0720674377
  0
ELLIPSE
  5
4BA
100
AcDbEntity
  8
03___PRT_ALL_CURVES
100
AcDbEllipse
 62
2
  6
CONTINUOUS
 10
275.536927402
 20
279.8495126972
 30
0.0
 11
84.9878856375
 21
3.2557737124
 31
0.0
 40
0.4407629239
 41
3.0495158166
 42
3.0503008439
  0
ELLIPSE
  5
4BB
100
AcDbEntity
  8
03___PRT_ALL_CURVES
100
AcDbEllipse
 62
2
  6
CONTINUOUS
 10
275.536927402
 20
279.8273190443
 30
0.0
 11
84.9794121399
 21
3.82601232
 31
0.0
 40
0.4889420642
 41
3.0436186965
 42
3.0443892649
  0
ELLIPSE
  5
4BC
100
AcDbEntity
  8
03___PRT_ALL_CURVES
100
AcDbEllipse
 62
2
  6
CONTINUOUS
 10
275.536927402
 20
282.8584579853
 30
0.0
 11
84.9997487566
 21
-1.1275228293
 31
0.0
 40
0.1832931007
 41
-3.0710815102
 42
-3.0705730183
  0
ELLIPSE
  5
4BD
100
AcDbEntity
  8
03___PRT_ALL_CURVES
100
AcDbEllipse
 62
2
  6
CONTINUOUS
 10
275.536927402
 20
279.8011106767
 30
0.0
 11
84.965116392
 21
4.5207117767
 31
0.0
 40
0.5386216152
 41
3.0362232439
 42
3.0369782634
  0
ELLIPSE
  5
4BE
100
AcDbEntity
  8
03___PRT_ALL_CURVES
100
AcDbEllipse
 62
2
  6
CONTINUOUS
 10
275.536927402
 20
279.7705568259
 30
0.0
 11
84.94028104
 21
5.3987837068
 31
0.0
 40
0.5900765496
 41
3.0266477374
 42
3.027386118
  0
ELLIPSE
  5
4BF
100
AcDbEntity
  8
03___PRT_ALL_CURVES
100
AcDbEllipse
 62
2
  6
CONTINUOUS
 10
275.536927402
 20
279.7352465802
 30
0.0
 11
84.8950428864
 21
6.5612181366
 31
0.0
 40
0.6435937475
 41
3.013714661
 42
3.0144353143
  0
ELLIPSE
  5
4C0
100
AcDbEntity
  8
03___PRT_ALL_CURVES
100
AcDbEllipse
 62
2
  6
CONTINUOUS
 10
275.536927402
 20
279.6946719519
 30
0.0
 11
84.8064369022
 21
8.1966117027
 31
0.0
 40
0.6994456841
 41
2.9952135026
 42
2.9959153367
  0
ELLIPSE
  5
4C1
100
AcDbEntity
  8
03___PRT_ALL_CURVES
100
AcDbEllipse
 62
2
  6
CONTINUOUS
 10
275.536927402
 20
282.854124343
 30
0.0
 11
84.9994111152
 21
-1.4075634447
 31
0.0
 40
0.2247868505
 41
-3.0692820168
 42
-3.0687776598
  0
ELLIPSE
  5
4C2
100
AcDbEntity
  8
03___PRT_ALL_CURVES
100
AcDbEllipse
 62
2
  6
CONTINUOUS
 10
275.536927402
 20
279.6482150267
 30
0.0
 11
84.6124205108
 21
10.6994059238
 31
0.0
 40
0.7577911945
 41
2.966498389
 42
2.967180314
  0
ELLIPSE
  5
4C3
100
AcDbEntity
  8
03___PRT_ALL_CURVES
100
AcDbEllipse
 62
2
  6
CONTINUOUS
 10
275.536927402
 20
279.59511095
 30
0.0
 11
84.104244805
 21
15.0390459506
 31
0.0
 40
0.8183736474
 41
2.9160643542
 42
2.9167252828
  0
ELLIPSE
  5
4C4
100
AcDbEntity
  8
03___PRT_ALL_CURVES
100
AcDbEllipse
 62
2
  6
CONTINUOUS
 10
275.536927402
 20
279.5344104828
 30
0.0
 11
82.2966704903
 21
24.1912221012
 31
0.0
 40
0.8790940341
 41
-3.4753332284
 42
-3.4746943897
  0
ELLIPSE
  5
4C5
100
AcDbEntity
  8
03___PRT_ALL_CURVES
100
AcDbEllipse
 62
2
  6
CONTINUOUS
 10
275.536927402
 20
279.4649552963
 30
0.0
 11
72.287080638
 21
48.2310785632
 31
0.0
 40
0.9271333386
 41
-3.777052211
 42
-3.7764365494
  0
ELLIPSE
  5
4C6
100
AcDbEntity
  8
03___PRT_ALL_CURVES
100
AcDbEllipse
 62
2
  6
CONTINUOUS
 10
275.536927402
 20
279.385319234
 30
0.0
 11
41.3479557453
 21
80.9513329598
 31
0.0
 40
0.9174077379
 41
-4.2864420551
 42
-4.2858481529
  0
ELLIPSE
  5
4C7
100
AcDbEntity
  8
03___PRT_ALL_CURVES
100
AcDbEllipse
 62
2
  6
CONTINUOUS
 10
275.536927402
 20
279.2946424592
 30
0.0
 11
23.7277365127
 21
94.6062816672
 31
0.0
 40
0.8627444256
 41
-4.5121201789
 42
-4.5115514464
  0
ELLIPSE
  5
4C8
100
AcDbEntity
  8
03___PRT_ALL_CURVES
100
AcDbEllipse
 62
2
  6
CONTINUOUS
 10
275.536927402
 20
282.8515295005
 30
0.0
 11
84.9987743655
 21
-1.7095368186
 31
0.0
 40
0.2670083959
 41
-3.0671298905
 42
-3.0666304935
  0
ELLIPSE
  5
4C9
100
AcDbEntity
  8
03___PRT_ALL_CURVES
100
AcDbEllipse
 62
2
  6
CONTINUOUS
 10
275.536927402
 20
279.1915257016
 30
0.0
 11
16.720444313
 21
103.9750040627
 31
0.0
 40
0.8015313648
 41
-4.5975693337
 42
-4.5970264664
  0
ELLIPSE
  5
4CA
100
AcDbEntity
  8
03___PRT_ALL_CURVES
100
AcDbEllipse
 62
2
  6
CONTINUOUS
 10
275.536927402
 20
279.0737176565
 30
0.0
 11
13.2241823694
 21
113.2231933026
 31
0.0
 40
0.7415883285
 41
-4.6398748181
 42
-4.6393585128
  0
ELLIPSE
  5
4CB
100
AcDbEntity
  8
03___PRT_ALL_CURVES
100
AcDbEllipse
 62
2
  6
CONTINUOUS
 10
275.536927402
 20
282.8507147625
 30
0.0
 11
84.9976422906
 21
-2.0410358364
 31
0.0
 40
0.3101815478
 41
-3.064552439
 42
-3.0640588285
  0
ELLIPSE
  5
4CC
100
AcDbEntity
  8
03___PRT_ALL_CURVES
100
AcDbEllipse
 62
2
  6
CONTINUOUS
 10
275.536927402
 20
278.9383879318
 30
0.0
 11
11.1693018526
 21
123.1564380512
 31
0.0
 40
0.6841945328
 41
-4.6647923655
 42
-4.6643033176
  0
ELLIPSE
  5
4CD
100
AcDbEntity
  8
03___PRT_ALL_CURVES
100
AcDbEllipse
 62
2
  6
CONTINUOUS
 10
275.536927402
 20
278.7818179001
 30
0.0
 11
9.8295265629
 21
134.1430020636
 31
0.0
 40
0.6294009767
 41
-4.6811373354
 42
-4.6806762435
  0
ELLIPSE
  5
4CE
100
AcDbEntity
  8
03___PRT_ALL_CURVES
100
AcDbEllipse
 62
2
  6
CONTINUOUS
 10
275.536927402
 20
278.5991879592
 30
0.0
 11
8.8939451779
 21
146.5061276018
 31
0.0
 40
0.5769957431
 41
-4.6926440498
 42
-4.6922116061
  0
ELLIPSE
  5
4CF
100
AcDbEntity
  8
03___PRT_ALL_CURVES
100
AcDbEllipse
 62
2
  6
CONTINUOUS
 10
275.536927402
 20
278.3839510599
 30
0.0
 11
8.2083400705
 21
160.6352239605
 31
0.0
 40
0.5266761248
 41
-4.701154241
 42
-4.7007511441
  0
ELLIPSE
  5
4D0
100
AcDbEntity
  8
03___PRT_ALL_CURVES
100
AcDbEllipse
 62
2
  6
CONTINUOUS
 10
275.536927402
 20
278.1271897134
 30
0.0
 11
7.6883436782
 21
177.0398382442
 31
0.0
 40
0.4781498738
 41
-4.7076718318
 42
-4.7072987787
  0
ELLIPSE
  5
4D1
100
AcDbEntity
  8
03___PRT_ALL_CURVES
100
AcDbEllipse
 62
2
  6
CONTINUOUS
 10
275.536927402
 20
277.8164032139
 30
0.0
 11
7.2840687053
 21
196.423919581
 31
0.0
 40
0.431145663
 41
1.570396423
 42
1.5707387401
  0
ELLIPSE
  5
4D2
100
AcDbEntity
  8
03___PRT_ALL_CURVES
100
AcDbEllipse
 62
2
  6
CONTINUOUS
 10
275.536927402
 20
277.4102857433
 30
0.0
 11
6.9487817695
 21
221.2171957485
 31
0.0
 40
0.3829516544
 41
1.5660935149
 42
1.5664379705
  0
ELLIPSE
  5
4D3
100
AcDbEntity
  8
03___PRT_ALL_CURVES
100
AcDbEllipse
 62
2
  6
CONTINUOUS
 10
275.536927402
 20
276.8671293652
 30
0.0
 11
6.6741728949
 21
253.6883149456
 31
0.0
 40
0.3340223531
 41
1.5625472738
 42
1.5628523974
  0
ELLIPSE
  5
4D4
100
AcDbEntity
  8
03___PRT_ALL_CURVES
100
AcDbEllipse
 62
2
  6
CONTINUOUS
 10
275.536927402
 20
276.1543150052
 30
0.0
 11
6.4607768761
 21
295.5348171284
 31
0.0
 40
0.2867821332
 41
1.5597637193
 42
1.5600292043
  0
ELLIPSE
  5
4D5
100
AcDbEntity
  8
03___PRT_ALL_CURVES
100
AcDbEllipse
 62
2
  6
CONTINUOUS
 10
275.536927402
 20
275.1795645226
 30
0.0
 11
6.294644828
 21
351.8777538444
 31
0.0
 40
0.2408978823
 41
1.5575781622
 42
1.5578036992
  0
ELLIPSE
  5
4D6
100
AcDbEntity
  8
03___PRT_ALL_CURVES
100
AcDbEllipse
 62
2
  6
CONTINUOUS
 10
275.536927402
 20
273.7687444391
 30
0.0
 11
6.166381581
 21
432.3752824212
 31
0.0
 40
0.1960704884
 41
1.5558798316
 42
1.5560651125
  0
ELLIPSE
  5
4D7
100
AcDbEntity
  8
03___PRT_ALL_CURVES
100
AcDbEllipse
 62
2
  6
CONTINUOUS
 10
275.536927402
 20
282.8517468457
 30
0.0
 11
84.9956972433
 21
-2.4121972379
 31
0.0
 40
0.3545516778
 41
-3.0614451167
 42
-3.060958116
  0
ELLIPSE
  5
4D8
100
AcDbEntity
  8
03___PRT_ALL_CURVES
100
AcDbEllipse
 62
2
  6
CONTINUOUS
 10
275.536927402
 20
271.5488741979
 30
0.0
 11
6.0695772684
 21
557.7087060689
 31
0.0
 40
0.1520202529
 41
1.5545932818
 42
1.5547379957
  0
ELLIPSE
  5
4D9
100
AcDbEntity
  8
03___PRT_ALL_CURVES
100
AcDbEllipse
 62
2
  6
CONTINUOUS
 10
275.536927402
 20
282.8547210913
 30
0.0
 11
84.9924093889
 21
-2.8370771937
 31
0.0
 40
0.4003888567
 41
-3.0576557054
 42
-3.0571761425
  0
ELLIPSE
  5
4DA
100
AcDbEntity
  8
03___PRT_ALL_CURVES
100
AcDbEllipse
 62
2
  6
CONTINUOUS
 10
275.536927402
 20
290.6097262829
 30
0.0
 11
-6.1187452531
 21
481.8339155593
 31
0.0
 40
0.1759516745
 41
-4.6969960363
 42
-4.6968458945
  0
ELLIPSE
  5
4DB
100
AcDbEntity
  8
03___PRT_ALL_CURVES
100
AcDbEllipse
 62
2
  6
CONTINUOUS
 10
275.536927402
 20
289.0313261253
 30
0.0
 11
-6.2197892423
 21
392.2853841243
 31
0.0
 40
0.2160981127
 41
-4.6983709778
 42
-4.6981879326
  0
ELLIPSE
  5
4DC
100
AcDbEntity
  8
03___PRT_ALL_CURVES
100
AcDbEllipse
 62
2
  6
CONTINUOUS
 10
275.536927402
 20
287.941844307
 30
0.0
 11
-6.3486705809
 21
329.8255315205
 31
0.0
 40
0.2569921623
 41
-4.7001071483
 42
-4.6998913899
  0
ELLIPSE
  5
4DD
100
AcDbEntity
  8
03___PRT_ALL_CURVES
100
AcDbEllipse
 62
2
  6
CONTINUOUS
 10
275.536927402
 20
287.1455937459
 30
0.0
 11
-6.5108701742
 21
283.6036138816
 31
0.0
 40
0.2988335397
 41
-4.7022691422
 42
-4.7020208622
  0
ELLIPSE
  5
4DE
100
AcDbEntity
  8
03___PRT_ALL_CURVES
100
AcDbEllipse
 62
2
  6
CONTINUOUS
 10
275.536927402
 20
286.539115556
 30
0.0
 11
-6.714103918
 21
247.8812518681
 31
0.0
 40
0.3418347
 41
-4.7049480025
 42
-4.704667396
  0
ELLIPSE
  5
4DF
100
AcDbEntity
  8
03___PRT_ALL_CURVES
100
AcDbEllipse
 62
2
  6
CONTINUOUS
 10
275.536927402
 20
286.0624607762
 30
0.0
 11
-6.9694402243
 21
219.3312099851
 31
0.0
 40
0.3862368427
 41
-4.7082744834
 42
-4.7079617389
  0
ELLIPSE
  5
4E0
100
AcDbEntity
  8
03___PRT_ALL_CURVES
100
AcDbEllipse
 62
2
  6
CONTINUOUS
 10
275.536927402
 20
285.6801721093
 30
0.0
 11
-7.2913924369
 21
195.9924338018
 31
0.0
 40
0.432091633
 41
1.570766213
 42
1.5711097506
  0
ELLIPSE
  5
4E1
100
AcDbEntity
  8
03___PRT_ALL_CURVES
100
AcDbEllipse
 62
2
  6
CONTINUOUS
 10
275.536927402
 20
285.3704857449
 30
0.0
 11
-7.6977389551
 21
176.6753413637
 31
0.0
 40
0.4791315065
 41
1.5655925297
 42
1.5659669696
  0
ELLIPSE
  5
4E2
100
AcDbEntity
  8
03___PRT_ALL_CURVES
100
AcDbEllipse
 62
2
  6
CONTINUOUS
 10
275.536927402
 20
285.1152099929
 30
0.0
 11
-8.2190230098
 21
160.3626984188
 31
0.0
 40
0.5275647076
 41
1.5590282255
 42
1.5594327076
  0
ELLIPSE
  5
4E3
100
AcDbEntity
  8
03___PRT_ALL_CURVES
100
AcDbEllipse
 62
2
  6
CONTINUOUS
 10
275.536927402
 20
284.9014377607
 30
0.0
 11
-8.9048271013
 21
146.3257687657
 31
0.0
 40
0.5776991098
 41
1.5504850095
 42
1.5509186737
  0
ELLIPSE
  5
4E4
100
AcDbEntity
  8
03___PRT_ALL_CURVES
100
AcDbEllipse
 62
2
  6
CONTINUOUS
 10
275.536927402
 20
284.7200761392
 30
0.0
 11
-9.8389660241
 21
134.0438026601
 31
0.0
 40
0.6298585637
 41
1.5389656765
 42
1.5394276657
  0
ELLIPSE
  5
4E5
100
AcDbEntity
  8
03___PRT_ALL_CURVES
100
AcDbEllipse
 62
2
  6
CONTINUOUS
 10
275.536927402
 20
284.5645259391
 30
0.0
 11
-11.1744052307
 21
123.12377143
 31
0.0
 40
0.6843705646
 41
1.5226435809
 42
1.5231330366
  0
ELLIPSE
  5
4E6
100
AcDbEntity
  8
03___PRT_ALL_CURVES
100
AcDbEllipse
 62
2
  6
CONTINUOUS
 10
275.536927402
 20
284.4298996678
 30
0.0
 11
-13.2203004307
 21
113.2374378867
 31
0.0
 40
0.7415004395
 41
1.4978058187
 42
1.4983218792
  0
ELLIPSE
  5
4E7
100
AcDbEntity
  8
03___PRT_ALL_CURVES
100
AcDbEllipse
 62
2
  6
CONTINUOUS
 10
275.536927402
 20
284.3124766275
 30
0.0
 11
-16.6989615602
 21
104.016658468
 31
0.0
 40
0.8012517934
 41
1.4556863667
 42
1.456228175
  0
ELLIPSE
  5
4E8
100
AcDbEntity
  8
03___PRT_ALL_CURVES
100
AcDbEllipse
 62
2
  6
CONTINUOUS
 10
275.536927402
 20
284.2094211601
 30
0.0
 11
-23.6741240274
 21
94.6588354867
 31
0.0
 40
0.8624298842
 41
1.3706123984
 42
1.3711790947
  0
ELLIPSE
  5
4E9
100
AcDbEntity
  8
03___PRT_ALL_CURVES
100
AcDbEllipse
 62
2
  6
CONTINUOUS
 10
275.536927402
 20
284.1185092382
 30
0.0
 11
-41.2742734206
 21
81.0060599925
 31
0.0
 40
0.917293777
 41
1.1452473746
 42
1.1458380988
  0
ELLIPSE
  5
4EA
100
AcDbEntity
  8
03___PRT_ALL_CURVES
100
AcDbEllipse
 62
2
  6
CONTINUOUS
 10
275.536927402
 20
282.8597700113
 30
0.0
 11
84.9868543388
 21
-3.3364639113
 31
0.0
 40
0.448035529
 41
-3.0529530421
 42
-3.0524782584
  0
ELLIPSE
  5
4EB
100
AcDbEntity
  8
03___PRT_ALL_CURVES
100
AcDbEllipse
 62
2
  6
CONTINUOUS
 10
275.536927402
 20
284.0384288431
 30
0.0
 11
-72.3502423264
 21
48.1250800695
 31
0.0
 40
0.9270504007
 41
0.6334329243
 42
0.6340454533
  0
ELLIPSE
  5
4EC
100
AcDbEntity
  8
03___PRT_ALL_CURVES
100
AcDbEllipse
 62
2
  6
CONTINUOUS
 10
275.536927402
 20
283.9687916824
 30
0.0
 11
-82.3163457725
 21
24.1134504877
 31
0.0
 40
0.8787657162
 41
0.3321800073
 42
0.3328168617
  0
ELLIPSE
  5
4ED
100
AcDbEntity
  8
03___PRT_ALL_CURVES
100
AcDbEllipse
 62
2
  6
CONTINUOUS
 10
275.536927402
 20
283.9081256135
 30
0.0
 11
84.1083869258
 21
-15.0099524072
 31
0.0
 40
0.8180718944
 41
-2.9170560962
 42
-2.9163961762
  0
ELLIPSE
  5
4EE
100
AcDbEntity
  8
03___PRT_ALL_CURVES
100
AcDbEllipse
 62
2
  6
CONTINUOUS
 10
275.536927402
 20
283.8551559378
 30
0.0
 11
84.6129997433
 21
-10.6930975512
 31
0.0
 40
0.7576727453
 41
-2.9672454579
 42
-2.9665637306
  0
ELLIPSE
  5
4EF
100
AcDbEntity
  8
03___PRT_ALL_CURVES
100
AcDbEllipse
 62
2
  6
CONTINUOUS
 10
275.536927402
 20
283.8088777853
 30
0.0
 11
84.8061156184
 21
-8.2016850993
 31
0.0
 40
0.6995922438
 41
-2.9958534389
 42
-2.9951511624
  0
ELLIPSE
  5
4F0
100
AcDbEntity
  8
03___PRT_ALL_CURVES
100
AcDbEllipse
 62
2
  6
CONTINUOUS
 10
275.536927402
 20
282.8669867872
 30
0.0
 11
84.977500857
 21
-3.9331647202
 31
0.0
 40
0.4972062424
 41
-3.0470566681
 42
-3.0465909094
  0
ELLIPSE
  5
4F1
100
AcDbEntity
  8
03___PRT_ALL_CURVES
100
AcDbEllipse
 62
2
  6
CONTINUOUS
 10
275.536927402
 20
283.7684767366
 30
0.0
 11
84.8945633546
 21
-6.5718227525
 31
0.0
 40
0.6440204961
 41
-3.0143169154
 42
-3.0135953508
  0
ELLIPSE
  5
4F2
100
AcDbEntity
  8
03___PRT_ALL_CURVES
100
AcDbEllipse
 62
2
  6
CONTINUOUS
 10
275.536927402
 20
283.7333064119
 30
0.0
 11
84.9398578275
 21
-5.4116733513
 31
0.0
 40
0.590752552
 41
-3.0272497495
 42
-3.0265101548
  0
ELLIPSE
  5
4F3
100
AcDbEntity
  8
03___PRT_ALL_CURVES
100
AcDbEllipse
 62
2
  6
CONTINUOUS
 10
275.536927402
 20
283.702841984
 30
0.0
 11
84.9648014013
 21
-4.5338601319
 31
0.0
 40
0.5394784044
 41
-3.036846781
 42
-3.0360904172
  0
ELLIPSE
  5
4F4
100
AcDbEntity
  8
03___PRT_ALL_CURVES
100
AcDbEllipse
 62
2
  6
CONTINUOUS
 10
275.536927402
 20
282.8764579564
 30
0.0
 11
84.9615738664
 21
-4.6647232805
 31
0.0
 40
0.5478514691
 41
-3.0395298029
 42
-3.0390737092
  0
ELLIPSE
  5
4F5
100
AcDbEntity
  8
03___PRT_ALL_CURVES
100
AcDbEllipse
 62
2
  6
CONTINUOUS
 10
275.536927402
 20
283.6766655283
 30
0.0
 11
84.9792029615
 21
-3.8380299709
 31
0.0
 40
0.4898806447
 41
-3.0442766264
 42
-3.0435047498
  0
ELLIPSE
  5
4F6
100
AcDbEntity
  8
03___PRT_ALL_CURVES
100
AcDbEllipse
 62
2
  6
CONTINUOUS
 10
275.536927402
 20
283.6544489124
 30
0.0
 11
84.9877620865
 21
-3.2656647288
 31
0.0
 40
0.4416629029
 41
-3.0502149655
 42
-3.0494288354
  0
ELLIPSE
  5
4F7
100
AcDbEntity
  8
03___PRT_ALL_CURVES
100
AcDbEllipse
 62
2
  6
CONTINUOUS
 10
275.536927402
 20
283.6360192886
 30
0.0
 11
84.9929035904
 21
-2.7822739835
 31
0.0
 40
0.3947615425
 41
-3.0550590035
 42
-3.0542623402
  0
ELLIPSE
  5
4F8
100
AcDbEntity
  8
03___PRT_ALL_CURVES
100
AcDbEllipse
 62
2
  6
CONTINUOUS
 10
275.536927402
 20
283.6213260799
 30
0.0
 11
84.9959711933
 21
-2.3679928943
 31
0.0
 40
0.3494838673
 41
-3.0590529126
 42
-3.0582446146
  0
ELLIPSE
  5
4F9
100
AcDbEntity
  8
03___PRT_ALL_CURVES
100
AcDbEllipse
 62
2
  6
CONTINUOUS
 10
275.536927402
 20
283.6101314194
 30
0.0
 11
84.9977914299
 21
-2.0048399148
 31
0.0
 40
0.30563109
 41
-3.0623991118
 42
-3.0615804617
  0
ELLIPSE
  5
4FA
100
AcDbEntity
  8
03___PRT_ALL_CURVES
100
AcDbEllipse
 62
2
  6
CONTINUOUS
 10
275.536927402
 20
282.8883391261
 30
0.0
 11
84.9335815186
 21
-5.5969933188
 31
0.0
 40
0.6002460181
 41
-3.0296091491
 42
-3.0291633619
  0
ELLIPSE
  5
4FB
100
AcDbEntity
  8
03___PRT_ALL_CURVES
100
AcDbEllipse
 62
2
  6
CONTINUOUS
 10
275.536927402
 20
283.6022248889
 30
0.0
 11
84.998852367
 21
-1.6797130157
 31
0.0
 40
0.2629598376
 41
-3.0652391553
 42
-3.0644114373
  0
ELLIPSE
  5
4FC
100
AcDbEntity
  8
03___PRT_ALL_CURVES
100
AcDbEllipse
 62
2
  6
CONTINUOUS
 10
275.536927402
 20
283.5974420793
 30
0.0
 11
84.9994493502
 21
-1.3829769201
 31
0.0
 40
0.2212312912
 41
-3.0676716118
 42
-3.0668361037
  0
ELLIPSE
  5
4FD
100
AcDbEntity
  8
03___PRT_ALL_CURVES
100
AcDbEllipse
 62
2
  6
CONTINUOUS
 10
275.536927402
 20
283.5956654571
 30
0.0
 11
84.9997656126
 21
-1.1074774561
 31
0.0
 40
0.1802421748
 41
-3.0697647329
 42
-3.0689227189
  0
ELLIPSE
  5
4FE
100
AcDbEntity
  8
03___PRT_ALL_CURVES
100
AcDbEllipse
 62
2
  6
CONTINUOUS
 10
275.536927402
 20
283.5968160664
 30
0.0
 11
84.9999174419
 21
-0.8475002806
 31
0.0
 40
0.1397861835
 41
-3.0715666246
 42
-3.0707193854
  0
ELLIPSE
  5
4FF
100
AcDbEntity
  8
03___PRT_ALL_CURVES
100
AcDbEllipse
 62
2
  6
CONTINUOUS
 10
275.536927402
 20
282.9028229793
 30
0.0
 11
84.8818317252
 21
-6.8440821214
 31
0.0
 40
0.6546492929
 41
-3.015962154
 42
-3.0155273131
  0
ELLIPSE
  5
500
100
AcDbEntity
  8
03___PRT_ALL_CURVES
100
AcDbEllipse
 62
2
  6
CONTINUOUS
 10
275.536927402
 20
283.6008527628
 30
0.0
 11
84.9999790698
 21
-0.5984333959
 31
0.0
 40
0.0996770622
 41
-3.0731097936
 42
-3.0722586102
  0
ELLIPSE
  5
501
100
AcDbEntity
  8
03___PRT_ALL_CURVES
100
AcDbEllipse
 62
2
  6
CONTINUOUS
 10
275.536927402
 20
283.6077702032
 30
0.0
 11
84.9999973358
 21
-0.3562987348
 31
0.0
 40
0.0597299048
 41
-3.0744150316
 42
-3.0735611865
  0
ELLIPSE
  5
502
100
AcDbEntity
  8
03___PRT_ALL_CURVES
100
AcDbEllipse
 62
2
  6
CONTINUOUS
 10
275.536927402
 20
283.6175978117
 30
0.0
 11
84.9999999683
 21
-0.1175270338
 31
0.0
 40
0.0197653538
 41
-3.0754933014
 42
-3.0746380754
  0
ELLIPSE
  5
503
100
AcDbEntity
  8
03___PRT_ALL_CURVES
100
AcDbEllipse
 62
2
  6
CONTINUOUS
 10
275.536927402
 20
282.9201591759
 30
0.0
 11
84.7783452465
 21
-8.6241277422
 31
0.0
 40
0.7113191358
 41
-2.9960297362
 42
-2.9956064832
  0
ELLIPSE
  5
504
100
AcDbEntity
  8
03___PRT_ALL_CURVES
100
AcDbEllipse
 62
2
  6
CONTINUOUS
 10
275.536927402
 20
283.6303684673
 30
0.0
 11
84.9999999647
 21
0.1206875547
 31
0.0
 40
0.0202964468
 41
3.0754918124
 42
3.0763473281
  0
ELLIPSE
  5
505
100
AcDbEntity
  8
03___PRT_ALL_CURVES
100
AcDbEllipse
 62
2
  6
CONTINUOUS
 10
275.536927402
 20
282.940654435
 30
0.0
 11
84.5446305333
 21
-11.4060122479
 31
0.0
 40
0.7703536419
 41
-2.9642824516
 42
-2.9638714265
  0
ELLIPSE
  5
506
100
AcDbEntity
  8
03___PRT_ALL_CURVES
100
AcDbEllipse
 62
2
  6
CONTINUOUS
 10
275.536927402
 20
282.9646892462
 30
0.0
 11
83.9013001299
 21
-16.3872858737
 31
0.0
 40
0.8312831986
 41
-2.9064704021
 42
-2.9060722432
  0
ELLIPSE
  5
507
100
AcDbEntity
  8
03___PRT_ALL_CURVES
100
AcDbEllipse
 62
2
  6
CONTINUOUS
 10
275.536927402
 20
282.9927399686
 30
0.0
 11
-81.4139422299
 21
27.415587935
 31
0.0
 40
0.8910579131
 41
0.366071572
 42
0.36645622
  0
ELLIPSE
  5
508
100
AcDbEntity
  8
03___PRT_ALL_CURVES
100
AcDbEllipse
 62
2
  6
CONTINUOUS
 10
275.536927402
 20
283.0253938514
 30
0.0
 11
-67.1752383516
 21
55.9163942471
 31
0.0
 40
0.9314181631
 41
0.7344494198
 42
0.7348199184
  0
ELLIPSE
  5
509
100
AcDbEntity
  8
03___PRT_ALL_CURVES
100
AcDbEllipse
 62
2
  6
CONTINUOUS
 10
275.536927402
 20
283.6460044358
 30
0.0
 11
84.9999972476
 21
0.359224284
 31
0.0
 40
0.0602167968
 41
3.0761216598
 42
3.0769759366
  0
ELLIPSE
  5
50A
100
AcDbEntity
  8
03___PRT_ALL_CURVES
100
AcDbEllipse
 62
2
  6
CONTINUOUS
 10
275.536927402
 20
283.6645226572
 30
0.0
 11
84.9999787229
 21
0.6009226907
 31
0.0
 40
0.1000834396
 41
3.0765228651
 42
3.0773745608
  0
ELLIPSE
  5
50B
100
AcDbEntity
  8
03___PRT_ALL_CURVES
100
AcDbEllipse
 62
2
  6
CONTINUOUS
 10
275.536927402
 20
283.0635147824
 30
0.0
 11
-36.2621297791
 21
84.661474727
 31
0.0
 40
0.9080505801
 41
1.2053684628
 42
1.2057280731
  0
ELLIPSE
  5
50C
100
AcDbEntity
  8
03___PRT_ALL_CURVES
100
AcDbEllipse
 62
2
  6
CONTINUOUS
 10
275.536927402
 20
283.1076380918
 30
0.0
 11
-21.8173990952
 21
96.598796398
 31
0.0
 40
0.8504485287
 41
1.3868923076
 42
1.3872364195
  0
ELLIPSE
  5
50D
100
AcDbEntity
  8
03___PRT_ALL_CURVES
100
AcDbEllipse
 62
2
  6
CONTINUOUS
 10
275.536927402
 20
283.1583822027
 30
0.0
 11
-15.8373696595
 21
105.8033068889
 31
0.0
 40
0.7893093789
 41
1.4593998302
 42
1.4597280656
  0
ELLIPSE
  5
50E
100
AcDbEntity
  8
03___PRT_ALL_CURVES
100
AcDbEllipse
 62
2
  6
CONTINUOUS
 10
275.536927402
 20
283.6860019391
 30
0.0
 11
84.9999167529
 21
0.849297819
 31
0.0
 40
0.1400712136
 41
3.0766825632
 42
3.077530342
  0
ELLIPSE
  5
50F
100
AcDbEntity
  8
03___PRT_ALL_CURVES
100
AcDbEllipse
 62
2
  6
CONTINUOUS
 10
275.536927402
 20
283.2168934133
 30
0.0
 11
-12.7369531726
 21
115.1167380451
 31
0.0
 40
0.7300440364
 41
1.4967322891
 42
1.49704427
  0
ELLIPSE
  5
510
100
AcDbEntity
  8
03___PRT_ALL_CURVES
100
AcDbEllipse
 62
2
  6
CONTINUOUS
 10
275.536927402
 20
283.7105684114
 30
0.0
 11
84.9997648878
 21
1.1083605374
 31
0.0
 40
0.1803767978
 41
3.0765778656
 42
3.0774203854
  0
ELLIPSE
  5
511
100
AcDbEntity
  8
03___PRT_ALL_CURVES
100
AcDbEllipse
 62
2
  6
CONTINUOUS
 10
275.536927402
 20
283.7383880202
 30
0.0
 11
84.9994496899
 21
1.3827530915
 31
0.0
 40
0.2211988429
 41
3.0761740167
 42
3.0770099383
  0
ELLIPSE
  5
512
100
AcDbEntity
  8
03___PRT_ALL_CURVES
100
AcDbEllipse
 62
2
  6
CONTINUOUS
 10
275.536927402
 20
283.7696670641
 30
0.0
 11
84.998856515
 21
1.6780876735
 31
0.0
 40
0.2627384246
 41
3.0754212789
 42
3.0762492647
  0
ELLIPSE
  5
513
100
AcDbEntity
  8
03___PRT_ALL_CURVES
100
AcDbEllipse
 62
2
  6
CONTINUOUS
 10
275.536927402
 20
283.8046704295
 30
0.0
 11
84.9978044854
 21
2.0015923004
 31
0.0
 40
0.3052208494
 41
3.074248878
 42
3.0750675872
  0
ELLIPSE
  5
514
100
AcDbEntity
  8
03___PRT_ALL_CURVES
100
AcDbEllipse
 62
2
  6
CONTINUOUS
 10
275.536927402
 20
283.8437173754
 30
0.0
 11
84.9960026382
 21
2.3627913239
 31
0.0
 40
0.3488837311
 41
3.0725567706
 42
3.0733648639
  0
ELLIPSE
  5
515
100
AcDbEntity
  8
03___PRT_ALL_CURVES
100
AcDbEllipse
 62
2
  6
CONTINUOUS
 10
275.536927402
 20
283.2846436519
 30
0.0
 11
-10.8699589234
 21
125.1715714578
 31
0.0
 40
0.6734923801
 41
1.5192242774
 42
1.5195196241
  0
ELLIPSE
  5
516
100
AcDbEntity
  8
03___PRT_ALL_CURVES
100
AcDbEllipse
 62
2
  6
CONTINUOUS
 10
275.536927402
 20
283.3635204084
 30
0.0
 11
-9.6335792648
 21
136.2972199826
 31
0.0
 40
0.619618792
 41
1.5341723668
 42
1.5344507026
  0
ELLIPSE
  5
517
100
AcDbEntity
  8
03___PRT_ALL_CURVES
100
AcDbEllipse
 62
2
  6
CONTINUOUS
 10
275.536927402
 20
283.8871948713
 30
0.0
 11
84.9929693358
 21
2.774797384
 31
0.0
 40
0.3939874452
 41
3.0702011804
 42
3.0709973169
  0
ELLIPSE
  5
518
100
AcDbEntity
  8
03___PRT_ALL_CURVES
100
AcDbEllipse
 62
2
  6
CONTINUOUS
 10
275.536927402
 20
283.4560269587
 30
0.0
 11
-8.7605587151
 21
148.8094639994
 31
0.0
 40
0.5681583496
 41
1.5447822357
 42
1.5450431827
  0
ELLIPSE
  5
519
100
AcDbEntity
  8
03___PRT_ALL_CURVES
100
AcDbEllipse
 62
2
  6
CONTINUOUS
 10
275.536927402
 20
283.5655206173
 30
0.0
 11
-8.1156301906
 21
163.0909636007
 31
0.0
 40
0.5188005457
 41
1.5526682611
 42
1.5529114379
  0
ELLIPSE
  5
51A
100
AcDbEntity
  8
03___PRT_ALL_CURVES
100
AcDbEllipse
 62
2
  6
CONTINUOUS
 10
275.536927402
 20
283.9354984259
 30
0.0
 11
84.9878872179
 21
3.2556467826
 31
0.0
 40
0.4407513591
 41
3.0669769235
 42
3.0677619661
  0
ELLIPSE
  5
51B
100
AcDbEntity
  8
03___PRT_ALL_CURVES
100
AcDbEllipse
 62
2
  6
CONTINUOUS
 10
275.536927402
 20
283.9885829314
 30
0.0
 11
84.979411122
 21
3.8260709813
 31
0.0
 40
0.4889466529
 41
3.0626337691
 42
3.063404353
  0
ELLIPSE
  5
51C
100
AcDbEntity
  8
03___PRT_ALL_CURVES
100
AcDbEllipse
 62
2
  6
CONTINUOUS
 10
275.536927402
 20
284.0467004776
 30
0.0
 11
84.9651088125
 21
4.5210289896
 31
0.0
 40
0.5386423197
 41
3.0567613514
 42
3.0575163881
  0
ELLIPSE
  5
51D
100
AcDbEntity
  8
03___PRT_ALL_CURVES
100
AcDbEllipse
 62
2
  6
CONTINUOUS
 10
275.536927402
 20
283.696540609
 30
0.0
 11
-7.6235709718
 21
179.6407824432
 31
0.0
 40
0.4712595495
 41
1.5587253495
 42
1.5589503811
  0
ELLIPSE
  5
51E
100
AcDbEntity
  8
03___PRT_ALL_CURVES
100
AcDbEllipse
 62
2
  6
CONTINUOUS
 10
275.536927402
 20
284.1103875538
 30
0.0
 11
84.9402580072
 21
5.3994865658
 31
0.0
 40
0.590113465
 41
3.0486751454
 42
3.0494135429
  0
ELLIPSE
  5
51F
100
AcDbEntity
  8
03___PRT_ALL_CURVES
100
AcDbEllipse
 62
2
  6
CONTINUOUS
 10
275.536927402
 20
284.180282917
 30
0.0
 11
84.8949898353
 21
6.5623926691
 31
0.0
 40
0.6436410612
 41
3.0371957876
 42
3.0379164603
  0
ELLIPSE
  5
520
100
AcDbEntity
  8
03___PRT_ALL_CURVES
100
AcDbEllipse
 62
2
  6
CONTINUOUS
 10
275.536927402
 20
284.2571730102
 30
0.0
 11
84.8063141404
 21
8.1985507771
 31
0.0
 40
0.6995017165
 41
3.0201082881
 42
3.0208101438
  0
ELLIPSE
  5
521
100
AcDbEntity
  8
03___PRT_ALL_CURVES
100
AcDbEllipse
 62
2
  6
CONTINUOUS
 10
275.536927402
 20
284.3419867334
 30
0.0
 11
84.6121216172
 21
10.7026591957
 31
0.0
 40
0.7578522337
 41
2.9927615073
 42
2.993443457
  0
ELLIPSE
  5
522
100
AcDbEntity
  8
03___PRT_ALL_CURVES
100
AcDbEllipse
 62
2
  6
CONTINUOUS
 10
275.536927402
 20
284.4358650049
 30
0.0
 11
84.1033854109
 21
15.045073405
 31
0.0
 40
0.8184360311
 41
2.9436373983
 42
2.9442983529
  0
ELLIPSE
  5
523
100
AcDbEntity
  8
03___PRT_ALL_CURVES
100
AcDbEllipse
 62
2
  6
CONTINUOUS
 10
275.536927402
 20
284.5402037457
 30
0.0
 11
82.2934346098
 21
24.2039842512
 31
0.0
 40
0.8791477098
 41
-3.446542696
 42
-3.4459038258
  0
ELLIPSE
  5
524
100
AcDbEntity
  8
03___PRT_ALL_CURVES
100
AcDbEllipse
 62
2
  6
CONTINUOUS
 10
275.536927402
 20
284.656698397
 30
0.0
 11
72.2703792574
 21
48.2590537511
 31
0.0
 40
0.9271551122
 41
-3.7472284129
 42
-3.7466127178
  0
ELLIPSE
  5
525
100
AcDbEntity
  8
03___PRT_ALL_CURVES
100
AcDbEllipse
 62
2
  6
CONTINUOUS
 10
275.536927402
 20
284.7874145762
 30
0.0
 11
41.3317645511
 21
80.963362361
 31
0.0
 40
0.9173827442
 41
-4.2552532835
 42
-4.2546593569
  0
ELLIPSE
  5
526
100
AcDbEntity
  8
03___PRT_ALL_CURVES
100
AcDbEllipse
 62
2
  6
CONTINUOUS
 10
275.536927402
 20
284.9334307306
 30
0.0
 11
23.7237240309
 21
94.6102090089
 31
0.0
 40
0.8627209404
 41
-4.4795999029
 42
-4.4790311435
  0
ELLIPSE
  5
527
100
AcDbEntity
  8
03___PRT_ALL_CURVES
100
AcDbEllipse
 62
2
  6
CONTINUOUS
 10
275.536927402
 20
285.0967016911
 30
0.0
 11
16.7190948557
 21
103.9776168003
 31
0.0
 40
0.8015138277
 41
-4.5639044638
 42
-4.5633615673
  0
ELLIPSE
  5
528
100
AcDbEntity
  8
03___PRT_ALL_CURVES
100
AcDbEllipse
 62
2
  6
CONTINUOUS
 10
275.536927402
 20
285.2804368803
 30
0.0
 11
13.223765624
 21
113.2247219208
 31
0.0
 40
0.7415788961
 41
-4.6051395174
 42
-4.6046231811
  0
ELLIPSE
  5
529
100
AcDbEntity
  8
03___PRT_ALL_CURVES
100
AcDbEllipse
 62
2
  6
CONTINUOUS
 10
275.536927402
 20
285.4887184575
 30
0.0
 11
11.1689640095
 21
123.1586024738
 31
0.0
 40
0.6841828722
 41
-4.6290507268
 42
-4.6285616511
  0
ELLIPSE
  5
52A
100
AcDbEntity
  8
03___PRT_ALL_CURVES
100
AcDbEllipse
 62
2
  6
CONTINUOUS
 10
275.536927402
 20
285.7267927233
 30
0.0
 11
9.8293675379
 21
134.1446767032
 31
0.0
 40
0.6293932573
 41
-4.6444434033
 42
-4.6439822826
  0
ELLIPSE
  5
52B
100
AcDbEntity
  8
03___PRT_ALL_CURVES
100
AcDbEllipse
 62
2
  6
CONTINUOUS
 10
275.536927402
 20
286.0015837956
 30
0.0
 11
8.8937518398
 21
146.5093419178
 31
0.0
 40
0.5769832231
 41
-4.6550569569
 42
-4.65462449
  0
ELLIPSE
  5
52C
100
AcDbEntity
  8
03___PRT_ALL_CURVES
100
AcDbEllipse
 62
2
  6
CONTINUOUS
 10
275.536927402
 20
286.3223841577
 30
0.0
 11
8.2081051834
 21
160.6412394251
 31
0.0
 40
0.5266565445
 41
-4.6627320735
 42
-4.6623289594
  0
ELLIPSE
  5
52D
100
AcDbEntity
  8
03___PRT_ALL_CURVES
100
AcDbEllipse
 62
2
  6
CONTINUOUS
 10
275.536927402
 20
286.7018228002
 30
0.0
 11
7.6881210236
 21
177.048514313
 31
0.0
 40
0.4781265568
 41
-4.668473351
 42
-4.6681002855
  0
ELLIPSE
  5
52E
100
AcDbEntity
  8
03___PRT_ALL_CURVES
100
AcDbEllipse
 62
2
  6
CONTINUOUS
 10
275.536927402
 20
287.1577538005
 30
0.0
 11
7.2837923503
 21
196.440273958
 31
0.0
 40
0.4311098895
 41
-4.6728756538
 42
-4.6725333358
  0
ELLIPSE
  5
52F
100
AcDbEntity
  8
03___PRT_ALL_CURVES
100
AcDbEllipse
 62
2
  6
CONTINUOUS
 10
275.536927402
 20
287.7496021489
 30
0.0
 11
6.948488655
 21
221.2443870099
 31
0.0
 40
0.3829046978
 41
-4.6764919852
 42
-4.6761474882
  0
ELLIPSE
  5
530
100
AcDbEntity
  8
03___PRT_ALL_CURVES
100
AcDbEllipse
 62
2
  6
CONTINUOUS
 10
275.536927402
 20
288.5361592837
 30
0.0
 11
6.6738707232
 21
253.7340986993
 31
0.0
 40
0.333962176
 41
-4.6793887116
 42
-4.6790835676
  0
ELLIPSE
  5
531
100
AcDbEntity
  8
03___PRT_ALL_CURVES
100
AcDbEllipse
 62
2
  6
CONTINUOUS
 10
275.536927402
 20
289.562793332
 30
0.0
 11
6.4604870135
 21
295.608869056
 31
0.0
 40
0.2867103671
 41
-4.6816014912
 42
-4.6813360053
  0
ELLIPSE
  5
532
100
AcDbEntity
  8
03___PRT_ALL_CURVES
100
AcDbEllipse
 62
2
  6
CONTINUOUS
 10
275.536927402
 20
290.9601481293
 30
0.0
 11
6.2943941593
 21
351.991580768
 31
0.0
 40
0.2408200337
 41
-4.6832955625
 42
-4.68307004
  0
ELLIPSE
  5
533
100
AcDbEntity
  8
03___PRT_ALL_CURVES
100
AcDbEllipse
 62
2
  6
CONTINUOUS
 10
275.536927402
 20
292.9748794576
 30
0.0
 11
6.1661821481
 21
432.5503156742
 31
0.0
 40
0.1959911812
 41
-4.684582485
 42
-4.6843972309
  0
ELLIPSE
  5
534
100
AcDbEntity
  8
03___PRT_ALL_CURVES
100
AcDbEllipse
 62
2
  6
CONTINUOUS
 10
275.536927402
 20
296.1352732489
 30
0.0
 11
6.0694336831
 21
557.9878072256
 31
0.0
 40
0.151944232
 41
-4.6855384079
 42
-4.6853937287
  0
ELLIPSE
  5
535
100
AcDbEntity
  8
03___PRT_ALL_CURVES
100
AcDbEllipse
 62
2
  6
CONTINUOUS
 10
275.536927402
 20
287.4535857524
 30
0.0
 11
-10.6927431246
 21
126.464561897
 31
0.0
 40
0.6667856932
 41
1.5452890401
 42
1.5641674154
  0
ELLIPSE
  5
536
100
AcDbEntity
  8
03___PRT_ALL_CURVES
100
AcDbEllipse
 62
2
  6
CONTINUOUS
 10
275.536927402
 20
286.2468720276
 30
0.0
 11
-10.6861034016
 21
126.5145817623
 31
0.0
 40
0.66652872
 41
1.5453677796
 42
1.564251837
  0
ELLIPSE
  5
537
100
AcDbEntity
  8
03___PRT_ALL_CURVES
100
AcDbEllipse
 62
2
  6
CONTINUOUS
 10
275.536927402
 20
245.6927765561
 30
0.0
 11
7.0007765832
 21
216.5802063118
 31
0.0
 40
0.3911308961
 41
1.4077461155
 42
1.424598631
  0
ELLIPSE
  5
538
100
AcDbEntity
  8
03___PRT_ALL_CURVES
100
AcDbEllipse
 62
2
  6
CONTINUOUS
 10
275.536927402
 20
323.2703266525
 30
0.0
 11
-7.0003452697
 21
216.6172094178
 31
0.0
 40
0.3910642466
 41
-4.5406399809
 42
-4.5237116838
  0
ELLIPSE
  5
539
100
AcDbEntity
  8
03___PRT_ALL_CURVES
100
AcDbEllipse
 62
2
  6
CONTINUOUS
 10
275.536927402
 20
321.2736664192
 30
0.0
 11
-7.0027954827
 21
216.4073129073
 31
0.0
 40
0.3914426096
 41
-4.5363378533
 42
-4.5329500352
  0
ELLIPSE
  5
53A
100
AcDbEntity
  8
03___PRT_ALL_CURVES
100
AcDbEllipse
 62
2
  6
CONTINUOUS
 10
275.536927402
 20
243.800175418
 30
0.0
 11
7.0052626522
 21
216.1967247688
 31
0.0
 40
0.3918229538
 41
1.4121174074
 42
1.4154957547
  0
ELLIPSE
  5
53B
100
AcDbEntity
  8
03___PRT_ALL_CURVES
100
AcDbEllipse
 62
2
  6
CONTINUOUS
 10
275.536927402
 20
299.4324748886
 30
0.0
 11
-10.6927445381
 21
126.4645512612
 31
0.0
 40
0.6667857478
 41
-4.6430038509
 42
-4.6239669809
  0
ELLIPSE
  5
53C
100
AcDbEntity
  8
03___PRT_ALL_CURVES
100
AcDbEllipse
 62
2
  6
CONTINUOUS
 10
275.536927402
 20
298.2306789636
 30
0.0
 11
-10.6858560478
 21
126.5164474578
 31
0.0
 40
0.6665191387
 41
-4.6429221613
 42
-4.6238795595
  0
ELLIPSE
  5
53D
100
AcDbEntity
  8
03___PRT_ALL_CURVES
100
AcDbEllipse
 62
2
  6
CONTINUOUS
 10
275.536927402
 20
268.0609524482
 30
0.0
 11
-6.6865780952
 21
251.8333166304
 31
0.0
 40
0.3364788705
 41
1.5003098501
 42
1.509623017
  0
ELLIPSE
  5
53E
100
AcDbEntity
  8
03___PRT_ALL_CURVES
100
AcDbEllipse
 62
2
  6
CONTINUOUS
 10
275.536927402
 20
294.3521600834
 30
0.0
 11
6.6877688886
 21
251.6577385421
 31
0.0
 40
0.3367132537
 41
-4.6605167435
 42
-4.6512016177
  0
ELLIPSE
  5
53F
100
AcDbEntity
  8
03___PRT_ALL_CURVES
100
AcDbEllipse
 62
2
  6
CONTINUOUS
 10
275.536927402
 20
266.0762801797
 30
0.0
 11
-6.0917131762
 21
519.2478883666
 31
0.0
 40
0.1632773726
 41
1.5352171318
 42
1.5421519094
  0
ELLIPSE
  5
540
100
AcDbEntity
  8
03___PRT_ALL_CURVES
100
AcDbEllipse
 62
2
  6
CONTINUOUS
 10
275.536927402
 20
261.2840963163
 30
0.0
 11
-6.0901423231
 21
521.7105736974
 31
0.0
 40
0.1625068535
 41
1.5286412005
 42
1.5331066282
  0
ELLIPSE
  5
541
100
AcDbEntity
  8
03___PRT_ALL_CURVES
100
AcDbEllipse
 62
2
  6
CONTINUOUS
 10
275.536927402
 20
292.395820518
 30
0.0
 11
6.6902495042
 21
251.2933544278
 31
0.0
 40
0.3372007204
 41
-4.6631537184
 42
-4.6538807255
  0
ELLIPSE
  5
542
100
AcDbEntity
  8
03___PRT_ALL_CURVES
100
AcDbEllipse
 62
2
  6
CONTINUOUS
 10
275.536927402
 20
266.1702540802
 30
0.0
 11
-6.692329225
 21
250.989280091
 31
0.0
 40
0.3376085858
 41
1.497571134
 42
1.5068532798
  0
ELLIPSE
  5
543
100
AcDbEntity
  8
03___PRT_ALL_CURVES
100
AcDbEllipse
 62
2
  6
CONTINUOUS
 10
275.536927402
 20
315.7656576904
 30
0.0
 11
6.0901097276
 21
521.7620600919
 31
0.0
 40
0.1624908222
 41
-4.6462688513
 42
-4.6418016545
  0
ELLIPSE
  5
544
100
AcDbEntity
  8
03___PRT_ALL_CURVES
100
AcDbEllipse
 62
2
  6
CONTINUOUS
 10
275.536927402
 20
278.7158276032
 30
0.0
 11
-41.2572699299
 21
81.0186834345
 31
0.0
 40
0.9172673982
 41
1.1140727728
 42
1.1146635853
  0
ELLIPSE
  5
545
100
AcDbEntity
  8
03___PRT_ALL_CURVES
100
AcDbEllipse
 62
2
  6
CONTINUOUS
 10
275.536927402
 20
278.5693430986
 30
0.0
 11
-23.6646474013
 21
94.6681427958
 31
0.0
 40
0.8623741174
 41
1.3381675639
 42
1.3387343386
  0
ELLIPSE
  5
546
100
AcDbEntity
  8
03___PRT_ALL_CURVES
100
AcDbEllipse
 62
2
  6
CONTINUOUS
 10
275.536927402
 20
278.4060797303
 30
0.0
 11
-16.6935154077
 21
104.0272390549
 31
0.0
 40
0.8011807861
 41
1.4220822219
 42
1.4226241001
  0
ELLIPSE
  5
547
100
AcDbEntity
  8
03___PRT_ALL_CURVES
100
AcDbEllipse
 62
2
  6
CONTINUOUS
 10
275.536927402
 20
278.2228412112
 30
0.0
 11
-13.2168247009
 21
113.2502026914
 31
0.0
 40
0.7414216941
 41
1.4631197918
 42
1.4636359147
  0
ELLIPSE
  5
548
100
AcDbEntity
  8
03___PRT_ALL_CURVES
100
AcDbEllipse
 62
2
  6
CONTINUOUS
 10
275.536927402
 20
278.0155584283
 30
0.0
 11
-11.1719648203
 21
123.139385749
 31
0.0
 40
0.6842864129
 41
1.4869395525
 42
1.4874290611
  0
ELLIPSE
  5
549
100
AcDbEntity
  8
03___PRT_ALL_CURVES
100
AcDbEllipse
 62
2
  6
CONTINUOUS
 10
275.536927402
 20
277.7789118672
 30
0.0
 11
-9.8371410443
 21
134.0629500907
 31
0.0
 40
0.6297701909
 41
1.5023028122
 42
1.502764846
  0
ELLIPSE
  5
54A
100
AcDbEntity
  8
03___PRT_ALL_CURVES
100
AcDbEllipse
 62
2
  6
CONTINUOUS
 10
275.536927402
 20
277.5059428471
 30
0.0
 11
-8.9034307046
 21
146.3488518248
 31
0.0
 40
0.5776089965
 41
1.5129213579
 42
1.5133550595
  0
ELLIPSE
  5
54B
100
AcDbEntity
  8
03___PRT_ALL_CURVES
100
AcDbEllipse
 62
2
  6
CONTINUOUS
 10
275.536927402
 20
277.1872713332
 30
0.0
 11
-8.2179596959
 21
160.3897308926
 31
0.0
 40
0.5274764346
 41
1.5206224487
 42
1.5210269591
  0
ELLIPSE
  5
54C
100
AcDbEntity
  8
03___PRT_ALL_CURVES
100
AcDbEllipse
 62
2
  6
CONTINUOUS
 10
275.536927402
 20
276.809912357
 30
0.0
 11
-7.6968643397
 21
176.7091410019
 31
0.0
 40
0.4790403118
 41
1.5264055756
 42
1.5267800344
  0
ELLIPSE
  5
54D
100
AcDbEntity
  8
03___PRT_ALL_CURVES
100
AcDbEllipse
 62
2
  6
CONTINUOUS
 10
275.536927402
 20
276.3556094997
 30
0.0
 11
-7.2907044439
 21
196.0328105093
 31
0.0
 40
0.4320029377
 41
1.530859063
 42
1.5312026111
  0
ELLIPSE
  5
54E
100
AcDbEntity
  8
03___PRT_ALL_CURVES
100
AcDbEllipse
 62
2
  6
CONTINUOUS
 10
275.536927402
 20
275.7985881404
 30
0.0
 11
-6.9689245329
 21
219.3775711731
 31
0.0
 40
0.3861554124
 41
1.5343453987
 42
1.5346580997
  0
ELLIPSE
  5
54F
100
AcDbEntity
  8
03___PRT_ALL_CURVES
100
AcDbEllipse
 62
2
  6
CONTINUOUS
 10
275.536927402
 20
275.1081758868
 30
0.0
 11
-6.7137276368
 21
247.933817838
 31
0.0
 40
0.3417623458
 41
1.5370769217
 42
1.5373574884
  0
ELLIPSE
  5
550
100
AcDbEntity
  8
03___PRT_ALL_CURVES
100
AcDbEllipse
 62
2
  6
CONTINUOUS
 10
275.536927402
 20
274.2342303229
 30
0.0
 11
-6.5106015451
 21
283.6633367095
 31
0.0
 40
0.2987706956
 41
1.5392256611
 42
1.5394739045
  0
ELLIPSE
  5
551
100
AcDbEntity
  8
03___PRT_ALL_CURVES
100
AcDbEllipse
 62
2
  6
CONTINUOUS
 10
275.536927402
 20
273.0918900257
 30
0.0
 11
-6.3484839432
 21
329.8941417489
 31
0.0
 40
0.2569387564
 41
1.5409226806
 42
1.5411384072
  0
ELLIPSE
  5
552
100
AcDbEntity
  8
03___PRT_ALL_CURVES
100
AcDbEllipse
 62
2
  6
CONTINUOUS
 10
275.536927402
 20
271.5349476975
 30
0.0
 11
-6.2196780335
 21
392.3570166715
 31
0.0
 40
0.2160586805
 41
1.5422591802
 42
1.5424422027
  0
ELLIPSE
  5
553
100
AcDbEntity
  8
03___PRT_ALL_CURVES
100
AcDbEllipse
 62
2
  6
CONTINUOUS
 10
275.536927402
 20
269.286190731
 30
0.0
 11
-6.1186786866
 21
481.9159897277
 31
0.0
 40
0.1759217185
 41
1.5433004248
 42
1.5434505499
  0
ENDSEC
  0
SECTION
  2
OBJECTS
  0
DICTIONARY
  5
C
100
AcDbDictionary
280
0
281
1
  3
ACAD_GROUP
350
D
  3
ACAD_MLINESTYLE
350
17
  3
ACAD_LAYOUT
350
1A
  3
ACAD_PLOTSETTINGS
350
19
  3
ACAD_PLOTSTYLENAME
350
E
  0
DICTIONARY
  5
D
102
{ACAD_REACTORS
330
C
102
}
100
AcDbDictionary
280
0
281
1
  0
ACDBDICTIONARYWDFLT
  5
E
102
{ACAD_REACTORS
330
C
102
}
100
AcDbDictionary
281
1
  3
Normal
350
F
100
AcDbDictionaryWithDefault
340
F
  0
DICTIONARY
  5
17
102
{ACAD_REACTORS
330
C
102
}
100
AcDbDictionary
280
0
281
1
  3
Standard
350
18
  0
DICTIONARY
  5
19
102
{ACAD_REACTORS
330
C
102
}
100
AcDbDictionary
281
1
  0
DICTIONARY
  5
1A
102
{ACAD_REACTORS
330
C
102
}
100
AcDbDictionary
281
1
  3
Model
350
554
  3
Layout1
350
555
  0
ACDBPLACEHOLDER
  5
F
102
{ACAD_REACTORS
330
E
102
}
  0
MLINESTYLE
  5
18
102
{ACAD_REACTORS
330
17
102
}
100
AcDbMlineStyle
  2
STANDARD
 70
0
  3

 62
256
 51
90.0
 52
90.0
 71
2
 49
0.5
 62
256
  6
BYLAYER
 49
-0.5
 62
256
  6
BYLAYER
  0
LAYOUT
  5
554
102
{ACAD_REACTORS
330
1A
102
}
100
AcDbPlotSettings
  1

  2
none_device
  4
ANSI_C_(22.00_x_17.00_Inches)
  6

 40
0.0
 41
0.0
 42
0.0
 43
0.0
 44
558.8
 45
431.8
 46
0.0
 47
0.0
 48
0.0
 49
0.0
140
0.0
141
0.0
142
1.0
143
1.0
 70
1024
 72
1
 73
0
 74
0
  7

 75
0
147
1.0
148
0.0
149
0.0
100
AcDbLayout
  1
Model
 70
0
 71
0
 10
0.0
 20
0.0
 11
558.8
 21
431.8
 12
0.0
 22
0.0
 32
0.0
 14
0.0
 24
0.0
 34
0.0
 15
0.0
 25
0.0
 35
0.0
146
0.0
 13
0.0
 23
0.0
 33
0.0
 16
1.0
 26
0.0
 36
0.0
 17
0.0
 27
1.0
 37
0.0
 76
0
330
217
345
0
346
0
  0
LAYOUT
  5
555
102
{ACAD_REACTORS
330
1A
102
}
100
AcDbPlotSettings
  1

  2
none_device
  4
ANSI_C_(22.00_x_17.00_Inches)
  6

 40
0.0
 41
0.0
 42
0.0
 43
0.0
 44
558.8
 45
431.8
 46
0.0
 47
0.0
 48
0.0
 49
0.0
140
0.0
141
0.0
142
1.0
143
1.0
 70
0
 72
1
 73
0
 74
0
  7

 75
0
147
1.0
148
0.0
149
0.0
100
AcDbLayout
  1
Layout1
 70
0
 71
1
 10
0.0
 20
0.0
 11
558.8
 21
431.8
 12
0.0
 22
0.0
 32
0.0
 14
0.0
 24
0.0
 34
0.0
 15
0.0
 25
0.0
 35
0.0
146
0.0
 13
0.0
 23
0.0
 33
0.0
 16
1.0
 26
0.0
 36
0.0
 17
0.0
 27
1.0
 37
0.0
 76
0
330
218
345
0
346
0
  0
ENDSEC
  0
EOF
