  0
SECTION
  2
HEADER
  9
$ACADVER
  1
AC1018
  9
$ACADMAINTVER
 70
     0
  9
$DWGCODEPAGE
  3
ANSI_1252
  9
$LASTSAVEDBY
  1
eduardo.guerra
  9
$INSBASE
 10
0.0
 20
0.0
 30
0.0
  9
$EXTMIN
 10
-0.5
 20
-0.5
 30
-0.5
  9
$EXTMAX
 10
5.0
 20
5.0
 30
5.0
  9
$LIMMIN
 10
-0.5
 20
-0.5
  9
$LIMMAX
 10
5.0
 20
5.0
  9
$ORTHOMODE
 70
     0
  9
$REGENMODE
 70
     1
  9
$FILLMODE
 70
     1
  9
$QTEXTMODE
 70
     0
  9
$MIRRTEXT
 70
     1
  9
$LTSCALE
 40
1.0
  9
$ATTMODE
 70
     1
  9
$TEXTSIZE
 40
0.2
  9
$TRACEWID
 40
0.05
  9
$TEXTSTYLE
  7
Standard
  9
$CLAYER
  8
0
  9
$CELTYPE
  6
ByLayer
  9
$CECOLOR
 62
   256
  9
$CELTSCALE
 40
1.0
  9
$DISPSILH
 70
     0
  9
$DIMSCALE
 40
1.0
  9
$DIMASZ
 40
0.18
  9
$DIMEXO
 40
0.0625
  9
$DIMDLI
 40
0.38
  9
$DIMRND
 40
0.0
  9
$DIMDLE
 40
0.0
  9
$DIMEXE
 40
0.18
  9
$DIMTP
 40
0.0
  9
$DIMTM
 40
0.0
  9
$DIMTXT
 40
0.18
  9
$DIMCEN
 40
0.09
  9
$DIMTSZ
 40
0.0
  9
$DIMTOL
 70
     0
  9
$DIMLIM
 70
     0
  9
$DIMTIH
 70
     1
  9
$DIMTOH
 70
     1
  9
$DIMSE1
 70
     0
  9
$DIMSE2
 70
     0
  9
$DIMTAD
 70
     0
  9
$DIMZIN
 70
     0
  9
$DIMBLK
  1

  9
$DIMASO
 70
     1
  9
$DIMSHO
 70
     1
  9
$DIMPOST
  1

  9
$DIMAPOST
  1

  9
$DIMALT
 70
     0
  9
$DIMALTD
 70
     2
  9
$DIMALTF
 40
25.4
  9
$DIMLFAC
 40
1.0
  9
$DIMTOFL
 70
     0
  9
$DIMTVP
 40
0.0
  9
$DIMTIX
 70
     0
  9
$DIMSOXD
 70
     0
  9
$DIMSAH
 70
     0
  9
$DIMBLK1
  1

  9
$DIMBLK2
  1

  9
$DIMSTYLE
  2
Standard
  9
$DIMCLRD
 70
     0
  9
$DIMCLRE
 70
     0
  9
$DIMCLRT
 70
     0
  9
$DIMTFAC
 40
1.0
  9
$DIMGAP
 40
0.09
  9
$DIMJUST
 70
     0
  9
$DIMSD1
 70
     0
  9
$DIMSD2
 70
     0
  9
$DIMTOLJ
 70
     1
  9
$DIMTZIN
 70
     0
  9
$DIMALTZ
 70
     0
  9
$DIMALTTZ
 70
     0
  9
$DIMUPT
 70
     0
  9
$DIMDEC
 70
     4
  9
$DIMTDEC
 70
     4
  9
$DIMALTU
 70
     2
  9
$DIMALTTD
 70
     2
  9
$DIMTXSTY
  7
Standard
  9
$DIMAUNIT
 70
     0
  9
$DIMADEC
 70
     0
  9
$DIMALTRND
 40
0.0
  9
$DIMAZIN
 70
     0
  9
$DIMDSEP
 70
    46
  9
$DIMATFIT
 70
     3
  9
$DIMFRAC
 70
     0
  9
$DIMLDRBLK
  1

  9
$DIMLUNIT
 70
     2
  9
$DIMLWD
 70
    -2
  9
$DIMLWE
 70
    -2
  9
$DIMTMOVE
 70
     0
  9
$LUNITS
 70
     2
  9
$LUPREC
 70
     4
  9
$SKETCHINC
 40
0.1
  9
$FILLETRAD
 40
0.5
  9
$AUNITS
 70
     0
  9
$AUPREC
 70
     0
  9
$MENU
  1
.
  9
$ELEVATION
 40
0.0
  9
$PELEVATION
 40
0.0
  9
$THICKNESS
 40
0.0
  9
$LIMCHECK
 70
     0
  9
$CHAMFERA
 40
0.0
  9
$CHAMFERB
 40
0.0
  9
$CHAMFERC
 40
0.0
  9
$CHAMFERD
 40
0.0
  9
$SKPOLY
 70
     0
  9
$TDCREATE
 40
2459149.447117801
  9
$TDUCREATE
 40
2459149.572117801
  9
$TDUPDATE
 40
2459149.447119942
  9
$TDUUPDATE
 40
2459149.572119942
  9
$TDINDWG
 40
0.0000000116
  9
$TDUSRTIMER
 40
0.0000000116
  9
$USRTIMER
 70
     1
  9
$ANGBASE
 50
0.0
  9
$ANGDIR
 70
     0
  9
$PDMODE
 70
     0
  9
$PDSIZE
 40
0.0
  9
$PLINEWID
 40
0.0
  9
$SPLFRAME
 70
     0
  9
$SPLINETYPE
 70
     6
  9
$SPLINESEGS
 70
     8
  9
$HANDSEED
  5
3C5
  9
$SURFTAB1
 70
     6
  9
$SURFTAB2
 70
     6
  9
$SURFTYPE
 70
     6
  9
$SURFU
 70
     6
  9
$SURFV
 70
     6
  9
$UCSBASE
  2

  9
$UCSNAME
  2

  9
$UCSORG
 10
0.0
 20
0.0
 30
0.0
  9
$UCSXDIR
 10
1.0
 20
0.0
 30
0.0
  9
$UCSYDIR
 10
0.0
 20
1.0
 30
0.0
  9
$UCSORTHOREF
  2

  9
$UCSORTHOVIEW
 70
     0
  9
$UCSORGTOP
 10
0.0
 20
0.0
 30
0.0
  9
$UCSORGBOTTOM
 10
0.0
 20
0.0
 30
0.0
  9
$UCSORGLEFT
 10
0.0
 20
0.0
 30
0.0
  9
$UCSORGRIGHT
 10
0.0
 20
0.0
 30
0.0
  9
$UCSORGFRONT
 10
0.0
 20
0.0
 30
0.0
  9
$UCSORGBACK
 10
0.0
 20
0.0
 30
0.0
  9
$PUCSBASE
  2

  9
$PUCSNAME
  2

  9
$PUCSORG
 10
0.0
 20
0.0
 30
0.0
  9
$PUCSXDIR
 10
1.0
 20
0.0
 30
0.0
  9
$PUCSYDIR
 10
0.0
 20
1.0
 30
0.0
  9
$PUCSORTHOREF
  2

  9
$PUCSORTHOVIEW
 70
     0
  9
$PUCSORGTOP
 10
0.0
 20
0.0
 30
0.0
  9
$PUCSORGBOTTOM
 10
0.0
 20
0.0
 30
0.0
  9
$PUCSORGLEFT
 10
0.0
 20
0.0
 30
0.0
  9
$PUCSORGRIGHT
 10
0.0
 20
0.0
 30
0.0
  9
$PUCSORGFRONT
 10
0.0
 20
0.0
 30
0.0
  9
$PUCSORGBACK
 10
0.0
 20
0.0
 30
0.0
  9
$USERI1
 70
     0
  9
$USERI2
 70
     0
  9
$USERI3
 70
     0
  9
$USERI4
 70
     0
  9
$USERI5
 70
     0
  9
$USERR1
 40
0.0
  9
$USERR2
 40
0.0
  9
$USERR3
 40
0.0
  9
$USERR4
 40
0.0
  9
$USERR5
 40
0.0
  9
$WORLDVIEW
 70
     1
  9
$SHADEDGE
 70
     3
  9
$SHADEDIF
 70
    70
  9
$TILEMODE
 70
     0
  9
$MAXACTVP
 70
    64
  9
$PINSBASE
 10
0.0
 20
0.0
 30
0.0
  9
$PLIMCHECK
 70
     0
  9
$PEXTMIN
 10
0.0
 20
0.0
 30
0.0
  9
$PEXTMAX
 10
1800.0
 20
1200.0
 30
0.0
  9
$PLIMMIN
 10
0.0
 20
0.0
  9
$PLIMMAX
 10
1800.0
 20
1200.0
  9
$UNITMODE
 70
     0
  9
$VISRETAIN
 70
     1
  9
$PLINEGEN
 70
     0
  9
$PSLTSCALE
 70
     1
  9
$TREEDEPTH
 70
  3020
  9
$CMLSTYLE
  2
Standard
  9
$CMLJUST
 70
     0
  9
$CMLSCALE
 40
1.0
  9
$PROXYGRAPHICS
 70
     1
  9
$MEASUREMENT
 70
     1
  9
$CELWEIGHT
370
    70
  9
$ENDCAPS
280
     0
  9
$JOINSTYLE
280
     0
  9
$LWDISPLAY
290
     1
  9
$INSUNITS
 70
     4
  9
$HYPERLINKBASE
  1

  9
$STYLESHEET
  1

  9
$XEDIT
290
     1
  9
$CEPSNTYPE
380
     0
  9
$PSTYLEMODE
290
     1
  9
$FINGERPRINTGUID
  2
{dad64787-9679-4b09-9c4f-3d71ba9f6e7a}
  9
$VERSIONGUID
  2
{FAEB1C32-E019-11D5-929B-00C0DF256EC4}
  9
$EXTNAMES
290
     1
  9
$PSVPSCALE
 40
0.0
  9
$OLESTARTUP
290
     0
  9
$SORTENTS
280
   127
  9
$INDEXCTL
280
     0
  9
$HIDETEXT
280
     1
  9
$XCLIPFRAME
290
     0
  9
$HALOGAP
280
     0
  9
$OBSCOLOR
 70
   257
  9
$OBSLTYPE
280
     0
  9
$INTERSECTIONDISPLAY
280
     0
  9
$INTERSECTIONCOLOR
 70
   257
  9
$DIMASSOC
280
     2
  9
$PROJECTNAME
  1

  0
ENDSEC
  0
SECTION
  2
CLASSES
  0
CLASS
  1
ACDBDICTIONARYWDFLT
  2
AcDbDictionaryWithDefault
  3
ObjectDBX Classes
 90
        0
 91
        3
280
     0
281
     0
  0
CLASS
  1
VISUALSTYLE
  2
AcDbVisualStyle
  3
ObjectDBX Classes
 90
     4095
 91
        3
280
     0
281
     0
  0
CLASS
  1
MATERIAL
  2
AcDbMaterial
  3
ObjectDBX Classes
 90
     1153
 91
        3
280
     0
281
     0
  0
CLASS
  1
SCALE
  2
AcDbScale
  3
ObjectDBX Classes
 90
     1153
 91
        3
280
     0
281
     0
  0
CLASS
  1
TABLESTYLE
  2
AcDbTableStyle
  3
ObjectDBX Classes
 90
     4095
 91
        3
280
     0
281
     0
  0
CLASS
  1
MLEADERSTYLE
  2
AcDbMLeaderStyle
  3
ACDB_MLEADERSTYLE_CLASS
 90
     4095
 91
        3
280
     0
281
     0
  0
CLASS
  1
SUN
  2
AcDbSun
  3
SCENEOE
 90
     1153
 91
        3
280
     0
281
     0
  0
CLASS
  1
DIMASSOC
  2
AcDbDimAssoc
  3
"AcDbDimAssoc|Product Desc:     AcDim ARX App For Dimension|Company:          Autodesk, Inc.|WEB Address:      www.autodesk.com"
 90
        0
 91
        3
280
     0
281
     0
  0
CLASS
  1
DICTIONARYVAR
  2
AcDbDictionaryVar
  3
ObjectDBX Classes
 90
        0
 91
        3
280
     0
281
     0
  0
CLASS
  1
CELLSTYLEMAP
  2
AcDbCellStyleMap
  3
ObjectDBX Classes
 90
     1152
 91
        3
280
     0
281
     0
  0
ENDSEC
  0
SECTION
  2
TABLES
  0
TABLE
  2
VPORT
  5
8
102
{ACAD_XDICTIONARY
360
37E
102
}
330
0
100
AcDbSymbolTable
 70
    16
  0
VPORT
  5
29
330
8
100
AcDbSymbolTableRecord
100
AcDbViewportTableRecord
  2
*Active
 70
     0
 10
0.0
 20
0.0
 11
1.0
 21
1.0
 12
0.0
 22
0.0
 13
0.0
 23
0.0
 14
0.5
 24
0.5
 15
0.5
 25
0.5
 16
0.0
 26
0.0
 36
1.0
 17
0.0
 27
0.0
 37
0.0
 40
254.0
 41
0.069908
 42
50.0
 43
659.911358
 44
-659.911358
 50
0.0
 51
0.0
 71
     0
 72
   100
 73
     1
 74
     3
 75
     0
 76
     0
 77
     0
 78
     0
281
     0
 65
     1
110
0.0
120
0.0
130
0.0
111
1.0
121
0.0
131
0.0
112
0.0
122
1.0
132
0.0
 79
     0
146
0.0
  0
VPORT
  5
364
330
8
100
AcDbSymbolTableRecord
100
AcDbViewportTableRecord
  2
L1
 70
     0
 10
0.0
 20
0.0
 11
1.0
 21
1.0
 12
0.0
 22
0.0
 13
0.0
 23
0.0
 14
0.5
 24
0.5
 15
0.5
 25
0.5
 16
0.0
 26
0.0
 36
1.0
 17
0.0
 27
0.0
 37
0.0
 40
254.0
 41
0.069908
 42
50.0
 43
659.911358
 44
-659.911358
 50
0.0
 51
0.0
 71
     0
 72
   100
 73
     1
 74
     3
 75
     0
 76
     0
 77
     0
 78
     0
281
     0
 65
     1
110
0.0
120
0.0
130
0.0
111
1.0
121
0.0
131
0.0
112
0.0
122
1.0
132
0.0
 79
     0
146
0.0
  0
VPORT
  5
365
330
8
100
AcDbSymbolTableRecord
100
AcDbViewportTableRecord
  2
L2
 70
     0
 10
0.0
 20
0.0
 11
0.5
 21
1.0
 12
0.0
 22
0.0
 13
0.0
 23
0.0
 14
0.5
 24
0.5
 15
0.5
 25
0.5
 16
0.0
 26
-1.0
 36
0.0
 17
0.0
 27
0.0
 37
0.0
 40
1319.822715
 41
0.013454
 42
50.0
 43
672.020833
 44
-672.020833
 50
0.0
 51
0.0
 71
     0
 72
   100
 73
     1
 74
     3
 75
     0
 76
     0
 77
     0
 78
     0
281
     0
 65
     1
110
0.0
120
0.0
130
0.0
111
1.0
121
0.0
131
0.0
112
0.0
122
1.0
132
0.0
 79
     0
146
0.0
  0
VPORT
  5
366
330
8
100
AcDbSymbolTableRecord
100
AcDbViewportTableRecord
  2
L2
 70
     0
 10
0.5
 20
0.0
 11
1.0
 21
1.0
 12
0.0
 22
0.0
 13
0.0
 23
0.0
 14
0.5
 24
0.5
 15
0.5
 25
0.5
 16
1.0
 26
0.0
 36
0.0
 17
0.0
 27
0.0
 37
0.0
 40
1319.822715
 41
0.013454
 42
50.0
 43
672.020833
 44
-672.020833
 50
0.0
 51
0.0
 71
     0
 72
   100
 73
     1
 74
     3
 75
     0
 76
     0
 77
     0
 78
     0
281
     0
 65
     1
110
0.0
120
0.0
130
0.0
111
1.0
121
0.0
131
0.0
112
0.0
122
1.0
132
0.0
 79
     0
146
0.0
  0
VPORT
  5
367
330
8
100
AcDbSymbolTableRecord
100
AcDbViewportTableRecord
  2
L3
 70
     0
 10
0.0
 20
0.5
 11
1.0
 21
1.0
 12
0.0
 22
0.0
 13
0.0
 23
0.0
 14
0.5
 24
0.5
 15
0.5
 25
0.5
 16
0.0
 26
0.0
 36
1.0
 17
0.0
 27
0.0
 37
0.0
 40
254.0
 41
0.069908
 42
50.0
 43
659.911358
 44
-659.911358
 50
0.0
 51
0.0
 71
     0
 72
   100
 73
     1
 74
     3
 75
     0
 76
     0
 77
     0
 78
     0
281
     0
 65
     1
110
0.0
120
0.0
130
0.0
111
1.0
121
0.0
131
0.0
112
0.0
122
1.0
132
0.0
 79
     0
146
0.0
  0
VPORT
  5
368
330
8
100
AcDbSymbolTableRecord
100
AcDbViewportTableRecord
  2
L3
 70
     0
 10
0.0
 20
0.0
 11
1.0
 21
0.5
 12
0.0
 22
0.0
 13
0.0
 23
0.0
 14
0.5
 24
0.5
 15
0.5
 25
0.5
 16
0.0
 26
-1.0
 36
0.0
 17
0.0
 27
0.0
 37
0.0
 40
1319.822715
 41
0.013454
 42
50.0
 43
672.020833
 44
-672.020833
 50
0.0
 51
0.0
 71
     0
 72
   100
 73
     1
 74
     3
 75
     0
 76
     0
 77
     0
 78
     0
281
     0
 65
     1
110
0.0
120
0.0
130
0.0
111
1.0
121
0.0
131
0.0
112
0.0
122
1.0
132
0.0
 79
     0
146
0.0
  0
VPORT
  5
369
330
8
100
AcDbSymbolTableRecord
100
AcDbViewportTableRecord
  2
L4
 70
     0
 10
0.0
 20
0.5
 11
0.5
 21
1.0
 12
0.0
 22
0.0
 13
0.0
 23
0.0
 14
0.5
 24
0.5
 15
0.5
 25
0.5
 16
0.0
 26
0.0
 36
1.0
 17
0.0
 27
0.0
 37
0.0
 40
254.0
 41
0.069908
 42
50.0
 43
659.911358
 44
-659.911358
 50
0.0
 51
0.0
 71
     0
 72
   100
 73
     1
 74
     3
 75
     0
 76
     0
 77
     0
 78
     0
281
     0
 65
     1
110
0.0
120
0.0
130
0.0
111
1.0
121
0.0
131
0.0
112
0.0
122
1.0
132
0.0
 79
     0
146
0.0
  0
VPORT
  5
36A
330
8
100
AcDbSymbolTableRecord
100
AcDbViewportTableRecord
  2
L4
 70
     0
 10
0.0
 20
0.0
 11
0.5
 21
0.5
 12
0.0
 22
0.0
 13
0.0
 23
0.0
 14
0.5
 24
0.5
 15
0.5
 25
0.5
 16
0.0
 26
-1.0
 36
0.0
 17
0.0
 27
0.0
 37
0.0
 40
1319.822715
 41
0.013454
 42
50.0
 43
672.020833
 44
-672.020833
 50
0.0
 51
0.0
 71
     0
 72
   100
 73
     1
 74
     3
 75
     0
 76
     0
 77
     0
 78
     0
281
     0
 65
     1
110
0.0
120
0.0
130
0.0
111
1.0
121
0.0
131
0.0
112
0.0
122
1.0
132
0.0
 79
     0
146
0.0
  0
VPORT
  5
36B
330
8
100
AcDbSymbolTableRecord
100
AcDbViewportTableRecord
  2
L4
 70
     0
 10
0.5
 20
0.0
 11
1.0
 21
0.5
 12
0.0
 22
0.0
 13
0.0
 23
0.0
 14
0.5
 24
0.5
 15
0.5
 25
0.5
 16
1.0
 26
0.0
 36
0.0
 17
0.0
 27
0.0
 37
0.0
 40
1319.822715
 41
0.013454
 42
50.0
 43
672.020833
 44
-672.020833
 50
0.0
 51
0.0
 71
     0
 72
   100
 73
     1
 74
     3
 75
     0
 76
     0
 77
     0
 78
     0
281
     0
 65
     1
110
0.0
120
0.0
130
0.0
111
1.0
121
0.0
131
0.0
112
0.0
122
1.0
132
0.0
 79
     0
146
0.0
  0
VPORT
  5
36C
330
8
100
AcDbSymbolTableRecord
100
AcDbViewportTableRecord
  2
L4
 70
     0
 10
0.5
 20
0.5
 11
1.0
 21
1.0
 12
0.0
 22
0.0
 13
0.0
 23
0.0
 14
0.5
 24
0.5
 15
0.5
 25
0.5
 16
0.5773502691896258
 26
-0.5773502691896258
 36
0.5773502691896258
 17
0.0
 27
0.0
 37
0.0
 40
1285.020866
 41
0.013818
 42
50.0
 43
667.141407
 44
-667.141407
 50
0.0
 51
0.0
 71
     0
 72
   100
 73
     1
 74
     3
 75
     0
 76
     0
 77
     0
 78
     0
281
     0
 65
     1
110
0.0
120
0.0
130
0.0
111
1.0
121
0.0
131
0.0
112
0.0
122
1.0
132
0.0
 79
     0
146
0.0
  0
VPORT
  5
36D
330
8
100
AcDbSymbolTableRecord
100
AcDbViewportTableRecord
  2
L6
 70
     0
 10
0.0
 20
0.5
 11
0.333333
 21
1.0
 12
0.0
 22
0.0
 13
0.0
 23
0.0
 14
0.5
 24
0.5
 15
0.5
 25
0.5
 16
0.7188730927569433
 26
-0.5850486126764433
 36
0.3754192287502549
 17
0.0
 27
0.0
 37
0.0
 40
1357.434192
 41
0.013081
 42
50.0
 43
701.839477
 44
-701.839477
 50
0.0
 51
0.0
 71
     0
 72
   100
 73
     1
 74
     3
 75
     0
 76
     0
 77
     0
 78
     0
281
     0
 65
     1
110
0.0
120
0.0
130
0.0
111
1.0
121
0.0
131
0.0
112
0.0
122
1.0
132
0.0
 79
     0
146
0.0
  0
VPORT
  5
36E
330
8
100
AcDbSymbolTableRecord
100
AcDbViewportTableRecord
  2
L6
 70
     0
 10
0.0
 20
0.0
 11
0.333333
 21
0.5
 12
0.0
 22
0.0
 13
0.0
 23
0.0
 14
0.5
 24
0.5
 15
0.5
 25
0.5
 16
-1.0
 26
0.0
 36
0.0
 17
0.0
 27
0.0
 37
0.0
 40
1319.822715
 41
0.013454
 42
50.0
 43
672.020833
 44
-672.020833
 50
0.0
 51
0.0
 71
     0
 72
   100
 73
     1
 74
     3
 75
     0
 76
     0
 77
     0
 78
     0
281
     0
 65
     1
110
0.0
120
0.0
130
0.0
111
1.0
121
0.0
131
0.0
112
0.0
122
1.0
132
0.0
 79
     0
146
0.0
  0
VPORT
  5
36F
330
8
100
AcDbSymbolTableRecord
100
AcDbViewportTableRecord
  2
L6
 70
     0
 10
0.333333
 20
0.5
 11
0.666667
 21
1.0
 12
0.0
 22
0.0
 13
0.0
 23
0.0
 14
0.5
 24
0.5
 15
0.5
 25
0.5
 16
0.0
 26
0.0
 36
1.0
 17
0.0
 27
0.0
 37
0.0
 40
254.0
 41
0.069908
 42
50.0
 43
659.911358
 44
-659.911358
 50
0.0
 51
0.0
 71
     0
 72
   100
 73
     1
 74
     3
 75
     0
 76
     0
 77
     0
 78
     0
281
     0
 65
     1
110
0.0
120
0.0
130
0.0
111
1.0
121
0.0
131
0.0
112
0.0
122
1.0
132
0.0
 79
     0
146
0.0
  0
VPORT
  5
370
330
8
100
AcDbSymbolTableRecord
100
AcDbViewportTableRecord
  2
L6
 70
     0
 10
0.333333
 20
0.0
 11
0.666667
 21
0.5
 12
0.0
 22
0.0
 13
0.0
 23
0.0
 14
0.5
 24
0.5
 15
0.5
 25
0.5
 16
0.0
 26
-1.0
 36
0.0
 17
0.0
 27
0.0
 37
0.0
 40
1319.822715
 41
0.013454
 42
50.0
 43
672.020833
 44
-672.020833
 50
0.0
 51
0.0
 71
     0
 72
   100
 73
     1
 74
     3
 75
     0
 76
     0
 77
     0
 78
     0
281
     0
 65
     1
110
0.0
120
0.0
130
0.0
111
1.0
121
0.0
131
0.0
112
0.0
122
1.0
132
0.0
 79
     0
146
0.0
  0
VPORT
  5
371
330
8
100
AcDbSymbolTableRecord
100
AcDbViewportTableRecord
  2
L6
 70
     0
 10
0.666667
 20
0.5
 11
1.0
 21
1.0
 12
0.0
 22
0.0
 13
0.0
 23
0.0
 14
0.5
 24
0.5
 15
0.5
 25
0.5
 16
0.5773502691896258
 26
-0.5773502691896258
 36
0.5773502691896258
 17
0.0
 27
0.0
 37
0.0
 40
1285.020866
 41
0.013818
 42
50.0
 43
667.141407
 44
-667.141407
 50
0.0
 51
0.0
 71
     0
 72
   100
 73
     1
 74
     3
 75
     0
 76
     0
 77
     0
 78
     0
281
     0
 65
     1
110
0.0
120
0.0
130
0.0
111
1.0
121
0.0
131
0.0
112
0.0
122
1.0
132
0.0
 79
     0
146
0.0
  0
VPORT
  5
372
330
8
100
AcDbSymbolTableRecord
100
AcDbViewportTableRecord
  2
L6
 70
     0
 10
0.666667
 20
0.0
 11
1.0
 21
0.5
 12
0.0
 22
0.0
 13
0.0
 23
0.0
 14
0.5
 24
0.5
 15
0.5
 25
0.5
 16
1.0
 26
0.0
 36
0.0
 17
0.0
 27
0.0
 37
0.0
 40
1319.822715
 41
0.013454
 42
50.0
 43
672.020833
 44
-672.020833
 50
0.0
 51
0.0
 71
     0
 72
   100
 73
     1
 74
     3
 75
     0
 76
     0
 77
     0
 78
     0
281
     0
 65
     1
110
0.0
120
0.0
130
0.0
111
1.0
121
0.0
131
0.0
112
0.0
122
1.0
132
0.0
 79
     0
146
0.0
  0
ENDTAB
  0
TABLE
  2
LTYPE
  5
5
330
0
100
AcDbSymbolTable
 70
    10
  0
LTYPE
  5
14
330
5
100
AcDbSymbolTableRecord
100
AcDbLinetypeTableRecord
  2
ByBlock
 70
     0
  3

 72
    65
 73
     0
 40
0.0
  0
LTYPE
  5
15
330
5
100
AcDbSymbolTableRecord
100
AcDbLinetypeTableRecord
  2
ByLayer
 70
     0
  3

 72
    65
 73
     0
 40
0.0
  0
LTYPE
  5
16
330
5
100
AcDbSymbolTableRecord
100
AcDbLinetypeTableRecord
  2
Continuous
 70
     0
  3
Solid line
 72
    65
 73
     0
 40
0.0
  0
LTYPE
  5
70
330
5
100
AcDbSymbolTableRecord
100
AcDbLinetypeTableRecord
  2
ACAD_ISO04W100
 70
     0
  3
ISO long-dash dot ____ . ____ . ____ . ____ . _
 72
    65
 73
     4
 40
30.0
 49
24.0
 74
     4
 75
     0
340
0
 46
0.0
 50
0.0
 44
0.0
 45
0.0
 49
-3.0
 74
     4
 75
     0
340
0
 46
0.0
 50
0.0
 44
0.0
 45
0.0
 49
0.0
 74
     4
 75
     0
340
0
 46
0.0
 50
0.0
 44
0.0
 45
0.0
 49
-3.0
 74
     4
 75
     0
340
0
 46
0.0
 50
0.0
 44
0.0
 45
0.0
  0
LTYPE
  5
71
330
5
100
AcDbSymbolTableRecord
100
AcDbLinetypeTableRecord
  2
ACAD_ISO05W100
 70
     0
  3
ISO long-dash double-dot ____ .. ____ .. ____ . 
 72
    65
 73
     6
 40
33.0
 49
24.0
 74
     4
 75
     0
340
0
 46
0.0
 50
0.0
 44
0.0
 45
0.0
 49
-3.0
 74
     4
 75
     0
340
0
 46
0.0
 50
0.0
 44
0.0
 45
0.0
 49
0.0
 74
     4
 75
     0
340
0
 46
0.0
 50
0.0
 44
0.0
 45
0.0
 49
-3.0
 74
     4
 75
     0
340
0
 46
0.0
 50
0.0
 44
0.0
 45
0.0
 49
0.0
 74
     4
 75
     0
340
0
 46
0.0
 50
0.0
 44
0.0
 45
0.0
 49
-3.0
 74
     4
 75
     0
340
0
 46
0.0
 50
0.0
 44
0.0
 45
0.0
  0
LTYPE
  5
72
330
5
100
AcDbSymbolTableRecord
100
AcDbLinetypeTableRecord
  2
ACAD_ISO06W100
 70
     0
  3
ISO long-dash triple-dot ____ ... ____ ... ____
 72
    65
 73
     8
 40
36.0
 49
24.0
 74
     4
 75
     0
340
0
 46
0.0
 50
0.0
 44
0.0
 45
0.0
 49
-3.0
 74
     4
 75
     0
340
0
 46
0.0
 50
0.0
 44
0.0
 45
0.0
 49
0.0
 74
     4
 75
     0
340
0
 46
0.0
 50
0.0
 44
0.0
 45
0.0
 49
-3.0
 74
     4
 75
     0
340
0
 46
0.0
 50
0.0
 44
0.0
 45
0.0
 49
0.0
 74
     4
 75
     0
340
0
 46
0.0
 50
0.0
 44
0.0
 45
0.0
 49
-3.0
 74
     4
 75
     0
340
0
 46
0.0
 50
0.0
 44
0.0
 45
0.0
 49
0.0
 74
     4
 75
     0
340
0
 46
0.0
 50
0.0
 44
0.0
 45
0.0
 49
-3.0
 74
     4
 75
     0
340
0
 46
0.0
 50
0.0
 44
0.0
 45
0.0
  0
LTYPE
  5
73
330
5
100
AcDbSymbolTableRecord
100
AcDbLinetypeTableRecord
  2
ACAD_ISO09W100
 70
     0
  3
ISO long-dash double-short-dash ____ __ __ ____
 72
    65
 73
     6
 40
45.0
 49
24.0
 74
     4
 75
     0
340
0
 46
0.0
 50
0.0
 44
0.0
 45
0.0
 49
-3.0
 74
     4
 75
     0
340
0
 46
0.0
 50
0.0
 44
0.0
 45
0.0
 49
6.0
 74
     4
 75
     0
340
0
 46
0.0
 50
0.0
 44
0.0
 45
0.0
 49
-3.0
 74
     4
 75
     0
340
0
 46
0.0
 50
0.0
 44
0.0
 45
0.0
 49
6.0
 74
     4
 75
     0
340
0
 46
0.0
 50
0.0
 44
0.0
 45
0.0
 49
-3.0
 74
     4
 75
     0
340
0
 46
0.0
 50
0.0
 44
0.0
 45
0.0
  0
LTYPE
  5
74
330
5
100
AcDbSymbolTableRecord
100
AcDbLinetypeTableRecord
  2
CENTER
 70
     0
  3
____ _ ____ _ ____ _ ____
 72
    65
 73
     4
 40
47.4
 49
22.0
 74
     4
 75
     0
340
0
 46
0.0
 50
0.0
 44
0.0
 45
0.0
 49
-8.5
 74
     4
 75
     0
340
0
 46
0.0
 50
0.0
 44
0.0
 45
0.0
 49
8.5
 74
     4
 75
     0
340
0
 46
0.0
 50
0.0
 44
0.0
 45
0.0
 49
-8.5
 74
     4
 75
     0
340
0
 46
0.0
 50
0.0
 44
0.0
 45
0.0
  0
LTYPE
  5
75
330
5
100
AcDbSymbolTableRecord
100
AcDbLinetypeTableRecord
  2
DASHDOT
 70
     0
  3
_._._._._._._._._._._._._._._._.
 72
    65
 73
     4
 40
70.0
 49
31.0
 74
     4
 75
     0
340
0
 46
0.0
 50
0.0
 44
0.0
 45
0.0
 49
-13.0
 74
     4
 75
     0
340
0
 46
0.0
 50
0.0
 44
0.0
 45
0.0
 49
13.0
 74
     4
 75
     0
340
0
 46
0.0
 50
0.0
 44
0.0
 45
0.0
 49
-13.0
 74
     4
 75
     0
340
0
 46
0.0
 50
0.0
 44
0.0
 45
0.0
  0
LTYPE
  5
76
330
5
100
AcDbSymbolTableRecord
100
AcDbLinetypeTableRecord
  2
DASHED
 70
     0
  3
__ __ __ __ __ __ __ __ __
 72
    65
 73
     2
 40
25.72
 49
12.86
 74
     4
 75
     0
340
0
 46
0.0
 50
0.0
 44
0.0
 45
0.0
 49
-12.86
 74
     4
 75
     0
340
0
 46
0.0
 50
0.0
 44
0.0
 45
0.0
  0
LTYPE
  5
77
330
5
100
AcDbSymbolTableRecord
100
AcDbLinetypeTableRecord
  2
DOT
 70
     0
  3
.........................
 72
    65
 73
     2
 40
10.0
 49
0.0
 74
     4
 75
     0
340
0
 46
0.0
 50
0.0
 44
0.0
 45
0.0
 49
-10.0
 74
     4
 75
     0
340
0
 46
0.0
 50
0.0
 44
0.0
 45
0.0
  0
LTYPE
  5
78
330
5
100
AcDbSymbolTableRecord
100
AcDbLinetypeTableRecord
  2
PHANTOM
 70
     0
  3
____ _ _ ____ _ _ _____ _ _ ____
 72
    65
 73
     6
 40
50.5
 49
18.0
 74
     4
 75
     0
340
0
 46
0.0
 50
0.0
 44
0.0
 45
0.0
 49
-6.5
 74
     4
 75
     0
340
0
 46
0.0
 50
0.0
 44
0.0
 45
0.0
 49
6.5
 74
     4
 75
     0
340
0
 46
0.0
 50
0.0
 44
0.0
 45
0.0
 49
-6.5
 74
     4
 75
     0
340
0
 46
0.0
 50
0.0
 44
0.0
 45
0.0
 49
6.5
 74
     4
 75
     0
340
0
 46
0.0
 50
0.0
 44
0.0
 45
0.0
 49
-6.5
 74
     4
 75
     0
340
0
 46
0.0
 50
0.0
 44
0.0
 45
0.0
  0
ENDTAB
  0
TABLE
  2
LAYER
  5
2
330
0
100
AcDbSymbolTable
 70
     6
  0
LAYER
  5
10
330
2
100
AcDbSymbolTableRecord
100
AcDbLayerTableRecord
  2
0
 70
     0
 62
     7
  6
Continuous
370
    -3
390
F
  0
LAYER
  5
79
330
2
100
AcDbSymbolTableRecord
100
AcDbLayerTableRecord
  2
Front$5
 70
     0
 62
     7
420
 16777215
  6
Continuous
370
    -3
390
F
  0
LAYER
  5
7A
330
2
100
AcDbSymbolTableRecord
100
AcDbLayerTableRecord
  2
ORTHO$6
 70
     0
 62
     7
420
 16777215
  6
Continuous
370
    -3
390
F
  0
LAYER
  5
7B
330
2
100
AcDbSymbolTableRecord
100
AcDbLayerTableRecord
  2
Isometric$7
 70
     0
 62
     7
420
 16777215
  6
Continuous
370
    -3
390
F
  0
LAYER
  5
31B
330
2
100
AcDbSymbolTableRecord
100
AcDbLayerTableRecord
  2
Defpoints
 70
     0
 62
     7
  6
Continuous
290
     0
370
    -3
390
F
  0
LAYER
  5
328
330
2
100
AcDbSymbolTableRecord
100
AcDbLayerTableRecord
  2
1
 70
     0
 62
     7
420
 16777215
  6
Continuous
370
    -3
390
F
  0
ENDTAB
  0
TABLE
  2
STYLE
  5
3
330
0
100
AcDbSymbolTable
 70
     2
  0
STYLE
  5
11
330
3
100
AcDbSymbolTableRecord
100
AcDbTextStyleTableRecord
  2
Standard
 70
     0
 40
0.0
 41
1.0
 50
0.0
 71
     0
 42
0.2
  3
txt
  4

  0
STYLE
  5
318
330
3
100
AcDbSymbolTableRecord
100
AcDbTextStyleTableRecord
  2
Arial Unicode MS
 70
     0
 40
0.0
 41
1.0
 50
0.0
 71
     0
 42
0.2
  3
ARIALUNI.TTF
  4

1001
ACAD
1000
Arial Unicode MS
1071
        0
  0
ENDTAB
  0
TABLE
  2
VIEW
  5
6
330
0
100
AcDbSymbolTable
 70
     0
  0
ENDTAB
  0
TABLE
  2
UCS
  5
7
330
0
100
AcDbSymbolTable
 70
     0
  0
ENDTAB
  0
TABLE
  2
APPID
  5
9
330
0
100
AcDbSymbolTable
 70
     6
  0
APPID
  5
12
330
9
100
AcDbSymbolTableRecord
100
AcDbRegAppTableRecord
  2
ACAD
 70
     0
  0
APPID
  5
316
330
9
100
AcDbSymbolTableRecord
100
AcDbRegAppTableRecord
  2
ACAD_DSTYLE_DIMBREAK
 70
     0
  0
APPID
  5
37B
330
9
100
AcDbSymbolTableRecord
100
AcDbRegAppTableRecord
  2
ACAD_DSTYLE_DIM_LINETYPE
 70
     0
  0
APPID
  5
37C
330
9
100
AcDbSymbolTableRecord
100
AcDbRegAppTableRecord
  2
ACAD_DSTYLE_DIM_EXT1_LINETYPE
 70
     0
  0
APPID
  5
37D
330
9
100
AcDbSymbolTableRecord
100
AcDbRegAppTableRecord
  2
ACAD_DSTYLE_DIM_EXT2_LINETYPE
 70
     0
  0
APPID
  5
3BD
330
9
100
AcDbSymbolTableRecord
100
AcDbRegAppTableRecord
  2
ACAD_MLEADERVER
 70
     0
  0
ENDTAB
  0
TABLE
  2
DIMSTYLE
  5
A
330
0
100
AcDbSymbolTable
 70
     1
100
AcDbDimStyleTable
  0
DIMSTYLE
105
27
102
{ACAD_REACTORS
330
317
330
332
330
34A
102
}
330
A
100
AcDbSymbolTableRecord
100
AcDbDimStyleTableRecord
  2
Standard
 70
     0
178
     0
340
11
1001
ACAD_DSTYLE_DIMBREAK
1070
   391
1040
6.35
  0
ENDTAB
  0
TABLE
  2
BLOCK_RECORD
  5
1
330
0
100
AcDbSymbolTable
 70
     6
  0
BLOCK_RECORD
  5
1F
330
1
100
AcDbSymbolTableRecord
100
AcDbBlockTableRecord
  2
*Model_Space
340
22
  0
BLOCK_RECORD
  5
30F
330
1
100
AcDbSymbolTableRecord
100
AcDbBlockTableRecord
  2
*PAPER_SPACE
340
362
  0
BLOCK_RECORD
  5
31C
330
1
100
AcDbSymbolTableRecord
100
AcDbBlockTableRecord
  2
*D2
340
0
  0
BLOCK_RECORD
  5
329
330
1
100
AcDbSymbolTableRecord
100
AcDbBlockTableRecord
  2
_U0
340
0
  0
BLOCK_RECORD
  5
335
330
1
100
AcDbSymbolTableRecord
100
AcDbBlockTableRecord
  2
*D4
340
0
  0
BLOCK_RECORD
  5
341
330
1
100
AcDbSymbolTableRecord
100
AcDbBlockTableRecord
  2
_U1
340
0
  0
BLOCK_RECORD
  5
34D
330
1
100
AcDbSymbolTableRecord
100
AcDbBlockTableRecord
  2
*D6
340
0
  0
BLOCK_RECORD
  5
359
330
1
100
AcDbSymbolTableRecord
100
AcDbBlockTableRecord
  2
_U2
340
0
  0
ENDTAB
  0
ENDSEC
  0
SECTION
  2
BLOCKS
  0
BLOCK
  5
20
330
1F
100
AcDbEntity
  8
0
100
AcDbBlockBegin
  2
*Model_Space
 70
     0
 10
0.0
 20
0.0
 30
0.0
  3
*Model_Space
  1

  0
ENDBLK
  5
21
330
1F
100
AcDbEntity
  8
0
100
AcDbBlockEnd
  0
BLOCK
  5
310
330
30F
100
AcDbEntity
 67
     1
  8
0
100
AcDbBlockBegin
  2
*PAPER_SPACE
 70
     0
 10
0.0
 20
0.0
 30
0.0
  3
*PAPER_SPACE
  1

  0
ENDBLK
  5
311
330
30F
100
AcDbEntity
 67
     1
  8
0
100
AcDbBlockEnd
  0
BLOCK
  5
31D
330
31C
100
AcDbEntity
  8
0
100
AcDbBlockBegin
  2
*D2
 70
     1
 10
0.0
 20
0.0
 30
0.0
  3
*D2
  1

  0
LINE
  5
31F
330
31C
100
AcDbEntity
  8
0
 62
    18
370
    -2
100
AcDbLine
 10
669.944148
 20
152.555628
 30
0.0
 11
669.944148
 21
116.384278
 31
0.0
  0
LINE
  5
320
330
31C
100
AcDbEntity
  8
0
 62
    18
370
    -2
100
AcDbLine
 10
999.944148
 20
147.955628
 30
0.0
 11
999.944148
 21
116.384278
 31
0.0
  0
LINE
  5
321
330
31C
100
AcDbEntity
  8
0
 62
    18
370
    -2
100
AcDbLine
 10
673.444148
 20
118.384278
 30
0.0
 11
996.444148
 21
118.384278
 31
0.0
  0
SOLID
  5
322
330
31C
100
AcDbEntity
  8
0
 62
    18
100
AcDbTrace
 10
673.444148
 20
118.967611
 30
0.0
 11
673.444148
 21
117.800944
 31
0.0
 12
669.944148
 22
118.384278
 32
0.0
 13
669.944148
 23
118.384278
 33
0.0
  0
SOLID
  5
323
330
31C
100
AcDbEntity
  8
0
 62
    18
100
AcDbTrace
 10
996.444148
 20
117.800944
 30
0.0
 11
996.444148
 21
118.967611
 31
0.0
 12
999.944148
 22
118.384278
 32
0.0
 13
999.944148
 23
118.384278
 33
0.0
  0
MTEXT
  5
324
330
31C
100
AcDbEntity
  8
0
 62
    18
370
    70
100
AcDbMText
 10
834.944148
 20
124.417043
 30
0.0
 40
3.0
 41
0.0
 71
     5
 72
     1
  1
\A1;330
  7
Arial Unicode MS
 73
     1
 44
1.0
  0
POINT
  5
325
330
31C
100
AcDbEntity
  8
Defpoints
 62
     0
100
AcDbPoint
 10
669.944148
 20
152.555628
 30
0.0
  0
POINT
  5
326
330
31C
100
AcDbEntity
  8
Defpoints
 62
     0
100
AcDbPoint
 10
999.944148
 20
147.955628
 30
0.0
  0
POINT
  5
327
330
31C
100
AcDbEntity
  8
Defpoints
 62
     0
100
AcDbPoint
 10
999.944148
 20
118.384278
 30
0.0
  0
ENDBLK
  5
31E
330
31C
100
AcDbEntity
  8
0
100
AcDbBlockEnd
  0
BLOCK
  5
330
330
329
100
AcDbEntity
  8
0
100
AcDbBlockBegin
  2
_U0
 70
     0
 10
0.0
 20
0.0
 30
0.0
  3
_U0
  1

  0
MTEXT
  5
32A
330
329
100
AcDbEntity
  8
1
  6
Continuous
 62
    18
370
    13
100
AcDbMText
 10
831.756899
 20
118.883588
 30
0.0
 40
3.0
 41
0.0
 71
     7
 72
     5
  1
\fArial Unicode MS|b0|i0;\W1.0000;330
  7
Arial Unicode MS
 73
     2
 44
1.069626
  0
LINE
  5
32B
330
329
100
AcDbEntity
  8
1
 62
    18
370
    18
100
AcDbLine
 10
669.944148
 20
143.355628
 30
0.0
 11
669.944148
 21
116.384278
 31
0.0
  0
LINE
  5
32C
330
329
100
AcDbEntity
  8
1
 62
    18
370
    18
100
AcDbLine
 10
999.944148
 20
143.355628
 30
0.0
 11
999.944148
 21
116.384278
 31
0.0
  0
LINE
  5
32D
330
329
100
AcDbEntity
  8
1
 62
    18
370
    18
100
AcDbLine
 10
669.944148
 20
118.384278
 30
0.0
 11
999.944148
 21
118.384278
 31
0.0
  0
SOLID
  5
32E
330
329
100
AcDbEntity
  8
1
 62
    18
370
    70
100
AcDbTrace
 10
669.944148
 20
118.384278
 30
0.0
 11
673.444144
 21
119.3221
 31
0.0
 12
673.444151
 22
117.446455
 32
0.0
 13
673.444151
 23
117.446455
 33
0.0
  0
SOLID
  5
32F
330
329
100
AcDbEntity
  8
1
 62
    18
370
    70
100
AcDbTrace
 10
999.944148
 20
118.384278
 30
0.0
 11
996.444151
 21
117.446455
 31
0.0
 12
996.444144
 22
119.3221
 32
0.0
 13
996.444144
 23
119.3221
 33
0.0
  0
ENDBLK
  5
331
330
329
100
AcDbEntity
  8
0
100
AcDbBlockEnd
  0
BLOCK
  5
336
330
335
100
AcDbEntity
  8
0
100
AcDbBlockBegin
  2
*D4
 70
     1
 10
0.0
 20
0.0
 30
0.0
  3
*D4
  1

  0
LINE
  5
338
330
335
100
AcDbEntity
  8
0
 62
    18
370
    -2
100
AcDbLine
 10
300.055142
 20
143.355628
 30
0.0
 11
300.055142
 21
116.384278
 31
0.0
  0
LINE
  5
339
330
335
100
AcDbEntity
  8
0
 62
    18
370
    -2
100
AcDbLine
 10
484.055142
 20
143.355628
 30
0.0
 11
484.055142
 21
116.384278
 31
0.0
  0
LINE
  5
33A
330
335
100
AcDbEntity
  8
0
 62
    18
370
    -2
100
AcDbLine
 10
303.555142
 20
118.384278
 30
0.0
 11
480.555142
 21
118.384278
 31
0.0
  0
SOLID
  5
33B
330
335
100
AcDbEntity
  8
0
 62
    18
100
AcDbTrace
 10
303.555142
 20
118.967611
 30
0.0
 11
303.555142
 21
117.800944
 31
0.0
 12
300.055142
 22
118.384278
 32
0.0
 13
300.055142
 23
118.384278
 33
0.0
  0
SOLID
  5
33C
330
335
100
AcDbEntity
  8
0
 62
    18
100
AcDbTrace
 10
480.555142
 20
117.800944
 30
0.0
 11
480.555142
 21
118.967611
 31
0.0
 12
484.055142
 22
118.384278
 32
0.0
 13
484.055142
 23
118.384278
 33
0.0
  0
MTEXT
  5
33D
330
335
100
AcDbEntity
  8
0
 62
    18
370
    70
100
AcDbMText
 10
392.055142
 20
124.417043
 30
0.0
 40
3.0
 41
0.0
 71
     5
 72
     1
  1
\A1;184
  7
Arial Unicode MS
 73
     1
 44
1.0
  0
POINT
  5
33E
330
335
100
AcDbEntity
  8
Defpoints
 62
     0
100
AcDbPoint
 10
300.055142
 20
143.355628
 30
0.0
  0
POINT
  5
33F
330
335
100
AcDbEntity
  8
Defpoints
 62
     0
100
AcDbPoint
 10
484.055142
 20
143.355628
 30
0.0
  0
POINT
  5
340
330
335
100
AcDbEntity
  8
Defpoints
 62
     0
100
AcDbPoint
 10
484.055142
 20
118.384278
 30
0.0
  0
ENDBLK
  5
337
330
335
100
AcDbEntity
  8
0
100
AcDbBlockEnd
  0
BLOCK
  5
348
330
341
100
AcDbEntity
  8
0
100
AcDbBlockBegin
  2
_U1
 70
     0
 10
0.0
 20
0.0
 30
0.0
  3
_U1
  1

  0
MTEXT
  5
342
330
341
100
AcDbEntity
  8
1
  6
Continuous
 62
    18
370
    13
100
AcDbMText
 10
388.867894
 20
118.883588
 30
0.0
 40
3.0
 41
0.0
 71
     7
 72
     5
  1
\fArial Unicode MS|b0|i0;\W1.0000;184
  7
Arial Unicode MS
 73
     2
 44
1.069626
  0
LINE
  5
343
330
341
100
AcDbEntity
  8
1
 62
    18
370
    18
100
AcDbLine
 10
300.055142
 20
143.355628
 30
0.0
 11
300.055142
 21
116.384278
 31
0.0
  0
LINE
  5
344
330
341
100
AcDbEntity
  8
1
 62
    18
370
    18
100
AcDbLine
 10
484.055142
 20
143.355628
 30
0.0
 11
484.055142
 21
116.384278
 31
0.0
  0
LINE
  5
345
330
341
100
AcDbEntity
  8
1
 62
    18
370
    18
100
AcDbLine
 10
300.055142
 20
118.384278
 30
0.0
 11
484.055142
 21
118.384278
 31
0.0
  0
SOLID
  5
346
330
341
100
AcDbEntity
  8
1
 62
    18
370
    70
100
AcDbTrace
 10
300.055142
 20
118.384278
 30
0.0
 11
303.555139
 21
119.3221
 31
0.0
 12
303.555145
 22
117.446455
 32
0.0
 13
303.555145
 23
117.446455
 33
0.0
  0
SOLID
  5
347
330
341
100
AcDbEntity
  8
1
 62
    18
370
    70
100
AcDbTrace
 10
484.055142
 20
118.384278
 30
0.0
 11
480.555145
 21
117.446455
 31
0.0
 12
480.555139
 22
119.3221
 32
0.0
 13
480.555139
 23
119.3221
 33
0.0
  0
ENDBLK
  5
349
330
341
100
AcDbEntity
  8
0
100
AcDbBlockEnd
  0
BLOCK
  5
34E
330
34D
100
AcDbEntity
  8
0
100
AcDbBlockBegin
  2
*D6
 70
     1
 10
0.0
 20
0.0
 30
0.0
  3
*D6
  1

  0
LINE
  5
350
330
34D
100
AcDbEntity
  8
0
 62
    18
370
    -2
100
AcDbLine
 10
480.655142
 20
1105.355628
 30
0.0
 11
509.026493
 21
1105.355628
 31
0.0
  0
LINE
  5
351
330
34D
100
AcDbEntity
  8
0
 62
    18
370
    -2
100
AcDbLine
 10
484.055142
 20
141.355628
 30
0.0
 11
509.026493
 21
141.355628
 31
0.0
  0
LINE
  5
352
330
34D
100
AcDbEntity
  8
0
 62
    18
370
    -2
100
AcDbLine
 10
507.026493
 20
1101.855628
 30
0.0
 11
507.026493
 21
144.855628
 31
0.0
  0
SOLID
  5
353
330
34D
100
AcDbEntity
  8
0
 62
    18
100
AcDbTrace
 10
507.609826
 20
1101.855628
 30
0.0
 11
506.443159
 21
1101.855628
 31
0.0
 12
507.026493
 22
1105.355628
 32
0.0
 13
507.026493
 23
1105.355628
 33
0.0
  0
SOLID
  5
354
330
34D
100
AcDbEntity
  8
0
 62
    18
100
AcDbTrace
 10
506.443159
 20
144.855628
 30
0.0
 11
507.609826
 21
144.855628
 31
0.0
 12
507.026493
 22
141.355628
 32
0.0
 13
507.026493
 23
141.355628
 33
0.0
  0
MTEXT
  5
355
330
34D
100
AcDbEntity
  8
0
 62
    18
370
    70
100
AcDbMText
 10
500.993727
 20
623.355628
 30
0.0
 40
3.0
 41
0.0
 71
     5
 72
     1
  1
\A1;964
  7
Arial Unicode MS
 11
5.896620213776761E-17
 21
1.0
 31
0.0
 73
     1
 44
1.0
  0
POINT
  5
356
330
34D
100
AcDbEntity
  8
Defpoints
 62
     0
100
AcDbPoint
 10
480.655142
 20
1105.355628
 30
0.0
  0
POINT
  5
357
330
34D
100
AcDbEntity
  8
Defpoints
 62
     0
100
AcDbPoint
 10
484.055142
 20
141.355628
 30
0.0
  0
POINT
  5
358
330
34D
100
AcDbEntity
  8
Defpoints
 62
     0
100
AcDbPoint
 10
507.026493
 20
141.355628
 30
0.0
  0
ENDBLK
  5
34F
330
34D
100
AcDbEntity
  8
0
100
AcDbBlockEnd
  0
BLOCK
  5
360
330
359
100
AcDbEntity
  8
0
100
AcDbBlockBegin
  2
_U2
 70
     0
 10
0.0
 20
0.0
 30
0.0
  3
_U2
  1

  0
MTEXT
  5
35A
330
359
100
AcDbEntity
  8
1
  6
Continuous
 62
    18
370
    13
100
AcDbMText
 10
506.821182
 20
620.14438
 30
0.0
 40
3.0
 41
0.0
 71
     7
 72
     5
  1
\fArial Unicode MS|b0|i0;\W1.0000;964
  7
Arial Unicode MS
 11
6.123233995736766E-17
 21
1.0
 31
0.0
 73
     2
 44
1.069626
  0
LINE
  5
35B
330
359
100
AcDbEntity
  8
1
 62
    18
370
    18
100
AcDbLine
 10
480.655142
 20
1105.355628
 30
0.0
 11
509.026493
 21
1105.355628
 31
0.0
  0
LINE
  5
35C
330
359
100
AcDbEntity
  8
1
 62
    18
370
    18
100
AcDbLine
 10
484.055142
 20
141.355628
 30
0.0
 11
509.026493
 21
141.355628
 31
0.0
  0
LINE
  5
35D
330
359
100
AcDbEntity
  8
1
 62
    18
370
    18
100
AcDbLine
 10
507.026493
 20
1105.355628
 30
0.0
 11
507.026493
 21
141.355628
 31
0.0
  0
SOLID
  5
35E
330
359
100
AcDbEntity
  8
1
 62
    18
370
    70
100
AcDbTrace
 10
507.026493
 20
1105.355628
 30
0.0
 11
507.964315
 21
1101.855632
 31
0.0
 12
506.08867
 22
1101.855625
 32
0.0
 13
506.08867
 23
1101.855625
 33
0.0
  0
SOLID
  5
35F
330
359
100
AcDbEntity
  8
1
 62
    18
370
    70
100
AcDbTrace
 10
507.026493
 20
141.355628
 30
0.0
 11
506.08867
 21
144.855625
 31
0.0
 12
507.964315
 22
144.855632
 32
0.0
 13
507.964315
 23
144.855632
 33
0.0
  0
ENDBLK
  5
361
330
359
100
AcDbEntity
  8
0
100
AcDbBlockEnd
  0
ENDSEC
  0
SECTION
  2
ENTITIES
  0
POINT
  5
7C
102
{ACAD_REACTORS
330
334
102
}
330
1F
100
AcDbEntity
  8
Front$5
  6
Continuous
 62
   163
 60
     1
370
    70
100
AcDbPoint
 10
-92.2
 20
0.0
 30
-487.0
  0
POINT
  5
7D
102
{ACAD_REACTORS
330
334
102
}
330
1F
100
AcDbEntity
  8
Front$5
  6
Continuous
 62
   163
 60
     1
370
    70
100
AcDbPoint
 10
91.8
 20
0.0
 30
-487.0
  0
POINT
  5
7E
102
{ACAD_REACTORS
330
34C
102
}
330
1F
100
AcDbEntity
  8
Front$5
  6
Continuous
 62
   163
 60
     1
370
    70
100
AcDbPoint
 10
88.4
 20
0.0
 30
475.0
  0
LINE
  5
7F
330
1F
100
AcDbEntity
  8
Front$5
  6
Continuous
 62
    18
370
    35
100
AcDbLine
 10
-3.0
 20
0.0
 30
435.167239
 11
-3.0
 21
0.0
 31
430.178176
  0
LINE
  5
80
330
1F
100
AcDbEntity
  8
Front$5
  6
Continuous
 62
    18
370
    35
100
AcDbLine
 10
3.0
 20
0.0
 30
430.082755
 11
3.0
 21
0.0
 31
435.167239
  0
LINE
  5
81
330
1F
100
AcDbEntity
  8
Front$5
  6
Continuous
 62
    18
370
    35
100
AcDbLine
 10
61.7
 20
0.0
 30
-470.77236
 11
62.5
 21
0.0
 31
-470.77236
  0
LINE
  5
82
330
1F
100
AcDbEntity
  8
Front$5
  6
Continuous
 62
    18
370
    35
100
AcDbLine
 10
-62.5
 20
0.0
 30
-470.77236
 11
-61.7
 21
0.0
 31
-470.77236
  0
LINE
  5
83
330
1F
100
AcDbEntity
  8
Front$5
  6
Continuous
 62
    18
370
    35
100
AcDbLine
 10
3.999509
 20
0.0
 30
404.1
 11
-3.999509
 21
0.0
 31
404.1
  0
LINE
  5
84
330
1F
100
AcDbEntity
  8
Front$5
  6
Continuous
 62
   155
370
    35
100
AcDbLine
 10
3.817168
 20
0.0
 30
440.2
 11
0.0
 21
0.0
 31
440.2
  0
LINE
  5
85
330
1F
100
AcDbEntity
  8
Front$5
  6
Continuous
 62
   155
370
    35
100
AcDbLine
 10
0.0
 20
0.0
 30
440.2
 11
-3.817168
 21
0.0
 31
440.2
  0
LINE
  5
86
330
1F
100
AcDbEntity
  8
Front$5
  6
Continuous
 62
    18
370
    35
100
AcDbLine
 10
3.621871
 20
0.0
 30
440.7
 11
0.0
 21
0.0
 31
440.7
  0
LINE
  5
87
330
1F
100
AcDbEntity
  8
Front$5
  6
Continuous
 62
    18
370
    35
100
AcDbLine
 10
0.0
 20
0.0
 30
440.7
 11
-3.621871
 21
0.0
 31
440.7
  0
LINE
  5
88
330
1F
100
AcDbEntity
  8
Front$5
  6
Continuous
 62
    18
370
    35
100
AcDbLine
 10
88.4
 20
0.0
 30
-475.0
 11
90.0
 21
0.0
 31
-475.0
  0
LINE
  5
89
330
1F
100
AcDbEntity
  8
Front$5
  6
Continuous
 62
    18
370
    35
100
AcDbLine
 10
62.7
 20
0.0
 30
-434.0
 11
62.7
 21
0.0
 31
-420.000093
  0
LINE
  5
8A
330
1F
100
AcDbEntity
  8
Front$5
  6
Continuous
 62
    18
370
    35
100
AcDbLine
 10
63.5
 20
0.0
 30
-420.063947
 11
63.5
 21
0.0
 31
-434.0
  0
LINE
  5
8B
330
1F
100
AcDbEntity
  8
Front$5
  6
Continuous
 62
    18
370
    35
100
AcDbLine
 10
63.5
 20
0.0
 30
-434.0
 11
62.7
 21
0.0
 31
-434.0
  0
LINE
  5
8C
330
1F
100
AcDbEntity
  8
Front$5
  6
Continuous
 62
    18
370
    35
100
AcDbLine
 10
-3.462969
 20
0.0
 30
441.0
 11
3.462969
 21
0.0
 31
441.0
  0
LINE
  5
8D
330
1F
100
AcDbEntity
  8
Front$5
  6
Continuous
 62
    18
370
    35
100
AcDbLine
 10
-2.856481
 20
0.0
 30
441.8
 11
2.856481
 21
0.0
 31
441.8
  0
LINE
  5
8E
330
1F
100
AcDbEntity
  8
Front$5
  6
Continuous
 62
    18
370
    35
100
AcDbLine
 10
-63.5
 20
0.0
 30
-434.0
 11
-63.5
 21
0.0
 31
-420.063947
  0
LINE
  5
8F
330
1F
100
AcDbEntity
  8
Front$5
  6
Continuous
 62
    18
370
    35
100
AcDbLine
 10
-62.7
 20
0.0
 30
-434.0
 11
-63.5
 21
0.0
 31
-434.0
  0
LINE
  5
90
330
1F
100
AcDbEntity
  8
Front$5
  6
Continuous
 62
    18
370
    35
100
AcDbLine
 10
-62.7
 20
0.0
 30
-434.0
 11
-62.7
 21
0.0
 31
-420.000093
  0
LINE
  5
91
330
1F
100
AcDbEntity
  8
Front$5
  6
Continuous
 62
    18
370
    35
100
AcDbLine
 10
63.8
 20
0.0
 30
-458.2
 11
63.8
 21
0.0
 31
-467.2
  0
LINE
  5
92
330
1F
100
AcDbEntity
  8
Front$5
  6
Continuous
 62
    18
370
    35
100
AcDbLine
 10
63.0
 20
0.0
 30
-467.2
 11
63.0
 21
0.0
 31
-458.2
  0
LINE
  5
93
330
1F
100
AcDbEntity
  8
Front$5
  6
Continuous
 62
    18
370
    35
100
AcDbLine
 10
63.0
 20
0.0
 30
-458.2
 11
63.8
 21
0.0
 31
-458.2
  0
LINE
  5
94
330
1F
100
AcDbEntity
  8
Front$5
  6
Continuous
 62
    18
370
    35
100
AcDbLine
 10
78.0
 20
0.0
 30
-474.4
 11
80.0
 21
0.0
 31
-474.4
  0
LINE
  5
95
330
1F
100
AcDbEntity
  8
Front$5
  6
Continuous
 62
    18
370
    35
100
AcDbLine
 10
80.0
 20
0.0
 30
-474.4
 11
80.0
 21
0.0
 31
-475.2
  0
LINE
  5
96
330
1F
100
AcDbEntity
  8
Front$5
  6
Continuous
 62
   155
370
    35
100
AcDbLine
 10
78.0
 20
0.0
 30
-475.2
 11
78.0
 21
0.0
 31
-474.4
  0
LINE
  5
97
330
1F
100
AcDbEntity
  8
Front$5
  6
Continuous
 62
    18
370
    35
100
AcDbLine
 10
64.6
 20
0.0
 30
-474.4
 11
78.0
 21
0.0
 31
-474.4
  0
LINE
  5
98
330
1F
100
AcDbEntity
  8
Front$5
  6
Continuous
 62
    18
370
    35
100
AcDbLine
 10
63.8
 20
0.0
 30
-473.6
 11
63.8
 21
0.0
 31
-467.2
  0
LINE
  5
99
330
1F
100
AcDbEntity
  8
Front$5
  6
Continuous
 62
   155
370
    35
100
AcDbLine
 10
63.8
 20
0.0
 30
-467.2
 11
63.0
 21
0.0
 31
-467.2
  0
LINE
  5
9A
330
1F
100
AcDbEntity
  8
Front$5
  6
Continuous
 62
    18
370
    35
100
AcDbLine
 10
63.0
 20
0.0
 30
-473.6
 11
63.0
 21
0.0
 31
-467.2
  0
LINE
  5
9B
330
1F
100
AcDbEntity
  8
Front$5
  6
Continuous
 62
    18
370
    35
100
AcDbLine
 10
-88.4
 20
0.0
 30
475.0
 11
-90.0
 21
0.0
 31
475.0
  0
LINE
  5
9C
330
1F
100
AcDbEntity
  8
Front$5
  6
Continuous
 62
    18
370
    35
100
AcDbLine
 10
-90.0
 20
0.0
 30
-475.0
 11
-90.0
 21
0.0
 31
475.0
  0
LINE
  5
9D
330
1F
100
AcDbEntity
  8
Front$5
  6
Continuous
 62
    18
370
    35
100
AcDbLine
 10
-88.4
 20
0.0
 30
-475.0
 11
-90.0
 21
0.0
 31
-475.0
  0
LINE
  5
9E
330
1F
100
AcDbEntity
  8
Front$5
  6
Continuous
 62
    18
370
    35
100
AcDbLine
 10
4.0
 20
0.0
 30
399.0
 11
4.0
 21
0.0
 31
439.0
  0
LINE
  5
9F
330
1F
100
AcDbEntity
  8
Front$5
  6
Continuous
 62
    18
370
    35
100
AcDbLine
 10
-4.0
 20
0.0
 30
439.0
 11
-4.0
 21
0.0
 31
399.0
  0
LINE
  5
A0
330
1F
100
AcDbEntity
  8
Front$5
  6
Continuous
 62
    18
370
    35
100
AcDbLine
 10
-88.4
 20
0.0
 30
-475.0
 11
-80.399744
 21
0.0
 31
-475.0
  0
LINE
  5
A1
330
1F
100
AcDbEntity
  8
Front$5
  6
Continuous
 62
    18
370
    35
100
AcDbLine
 10
-65.0
 20
0.0
 30
-422.0
 11
-65.0
 21
0.0
 31
-473.0
  0
LINE
  5
A2
330
1F
100
AcDbEntity
  8
Front$5
  6
Continuous
 62
    18
370
    35
100
AcDbLine
 10
63.0
 20
0.0
 30
-420.0
 11
54.999
 21
0.0
 31
-420.0
  0
LINE
  5
A3
330
1F
100
AcDbEntity
  8
Front$5
  6
Continuous
 62
    18
370
    35
100
AcDbLine
 10
-54.999
 20
0.0
 30
-420.0
 11
-63.0
 21
0.0
 31
-420.0
  0
LINE
  5
A4
330
1F
100
AcDbEntity
  8
Front$5
  6
Continuous
 62
    18
370
    35
100
AcDbLine
 10
65.0
 20
0.0
 30
-473.0
 11
65.0
 21
0.0
 31
-422.0
  0
LINE
  5
A5
330
1F
100
AcDbEntity
  8
Front$5
  6
Continuous
 62
    18
370
    35
100
AcDbLine
 10
79.999831
 20
0.0
 30
-475.0
 11
88.4
 21
0.0
 31
-475.0
  0
LINE
  5
A6
330
1F
100
AcDbEntity
  8
Front$5
  6
Continuous
 62
   155
370
    35
100
AcDbLine
 10
88.4
 20
0.0
 30
-475.0
 11
88.4
 21
0.0
 31
475.0
  0
LINE
  5
A7
330
1F
100
AcDbEntity
  8
Front$5
  6
Continuous
 62
    18
370
    35
100
AcDbLine
 10
88.4
 20
0.0
 30
475.0
 11
-88.4
 21
0.0
 31
475.0
  0
LINE
  5
A8
330
1F
100
AcDbEntity
  8
Front$5
  6
Continuous
 62
   155
370
    35
100
AcDbLine
 10
-88.4
 20
0.0
 30
475.0
 11
-88.4
 21
0.0
 31
-475.0
  0
LINE
  5
A9
330
1F
100
AcDbEntity
  8
Front$5
  6
Continuous
 62
    18
370
    35
100
AcDbLine
 10
90.0
 20
0.0
 30
475.0
 11
90.0
 21
0.0
 31
-475.0
  0
LINE
  5
AA
330
1F
100
AcDbEntity
  8
Front$5
  6
Continuous
 62
    18
370
    35
100
AcDbLine
 10
-55.0
 20
0.0
 30
-424.716635
 11
-55.0
 21
0.0
 31
-423.844452
  0
LINE
  5
AB
330
1F
100
AcDbEntity
  8
Front$5
  6
Continuous
 62
    18
370
    35
100
AcDbLine
 10
55.0
 20
0.0
 30
-424.716635
 11
55.0
 21
0.0
 31
-423.844452
  0
LINE
  5
AC
330
1F
100
AcDbEntity
  8
Front$5
  6
Continuous
 62
    18
370
    35
100
AcDbLine
 10
52.0
 20
0.0
 30
-389.738478
 11
-52.0
 21
0.0
 31
-389.738478
  0
LINE
  5
AD
330
1F
100
AcDbEntity
  8
Front$5
  6
Continuous
 62
    18
370
    35
100
AcDbLine
 10
55.0
 20
0.0
 30
-392.709282
 11
55.0
 21
0.0
 31
-392.82062
  0
LINE
  5
AE
330
1F
100
AcDbEntity
  8
Front$5
  6
Continuous
 62
   155
370
    35
100
AcDbLine
 10
52.0
 20
0.0
 30
-389.849816
 11
52.0
 21
0.0
 31
-389.738478
  0
LINE
  5
AF
330
1F
100
AcDbEntity
  8
Front$5
  6
Continuous
 62
    18
370
    35
100
AcDbLine
 10
-55.0
 20
0.0
 30
-392.82062
 11
-55.0
 21
0.0
 31
-392.709282
  0
LINE
  5
B0
330
1F
100
AcDbEntity
  8
Front$5
  6
Continuous
 62
   155
370
    35
100
AcDbLine
 10
-52.0
 20
0.0
 30
-389.738478
 11
-52.0
 21
0.0
 31
-389.849816
  0
LINE
  5
B1
330
1F
100
AcDbEntity
  8
Front$5
  6
Continuous
 62
    18
370
    35
100
AcDbLine
 10
55.0
 20
0.0
 30
-423.844452
 11
55.0
 21
0.0
 31
-392.82062
  0
LINE
  5
B2
330
1F
100
AcDbEntity
  8
Front$5
  6
Continuous
 62
    18
370
    35
100
AcDbLine
 10
52.0
 20
0.0
 30
-389.849816
 11
-52.0
 21
0.0
 31
-389.849816
  0
LINE
  5
B3
330
1F
100
AcDbEntity
  8
Front$5
  6
Continuous
 62
    18
370
    35
100
AcDbLine
 10
-55.0
 20
0.0
 30
-423.844452
 11
-55.0
 21
0.0
 31
-392.82062
  0
LINE
  5
B4
330
1F
100
AcDbEntity
  8
Front$5
  6
Continuous
 62
   155
370
    35
100
AcDbLine
 10
55.0
 20
0.0
 30
-423.844452
 11
-55.0
 21
0.0
 31
-423.844452
  0
LINE
  5
B5
330
1F
100
AcDbEntity
  8
Front$5
  6
Continuous
 62
    18
370
    35
100
AcDbLine
 10
62.5
 20
0.0
 30
-468.699411
 11
62.5
 21
0.0
 31
-470.77236
  0
LINE
  5
B6
330
1F
100
AcDbEntity
  8
Front$5
  6
Continuous
 62
    18
370
    35
100
AcDbLine
 10
61.7
 20
0.0
 30
-470.77236
 11
61.7
 21
0.0
 31
-468.699411
  0
LINE
  5
B7
330
1F
100
AcDbEntity
  8
Front$5
  6
Continuous
 62
    18
370
    35
100
AcDbLine
 10
-62.5
 20
0.0
 30
-470.77236
 11
-62.5
 21
0.0
 31
-468.699411
  0
LINE
  5
B8
330
1F
100
AcDbEntity
  8
Front$5
  6
Continuous
 62
    18
370
    35
100
AcDbLine
 10
-61.7
 20
0.0
 30
-468.699411
 11
-61.7
 21
0.0
 31
-470.77236
  0
LINE
  5
B9
330
1F
100
AcDbEntity
  8
Front$5
  6
Continuous
 62
    18
370
    35
100
AcDbLine
 10
62.5
 20
0.0
 30
-420.000914
 11
62.5
 21
0.0
 31
-467.337586
  0
LINE
  5
BA
330
1F
100
AcDbEntity
  8
Front$5
  6
Continuous
 62
    18
370
    35
100
AcDbLine
 10
-56.0
 20
0.0
 30
-419.999974
 11
-56.0
 21
0.0
 31
-424.716635
  0
LINE
  5
BB
330
1F
100
AcDbEntity
  8
Front$5
  6
Continuous
 62
    18
370
    35
100
AcDbLine
 10
56.0
 20
0.0
 30
-424.716635
 11
56.0
 21
0.0
 31
-419.999974
  0
LINE
  5
BC
330
1F
100
AcDbEntity
  8
Front$5
  6
Continuous
 62
    18
370
    35
100
AcDbLine
 10
55.0
 20
0.0
 30
-424.716635
 11
56.0
 21
0.0
 31
-424.716635
  0
LINE
  5
BD
330
1F
100
AcDbEntity
  8
Front$5
  6
Continuous
 62
   155
370
    35
100
AcDbLine
 10
-55.0
 20
0.0
 30
-424.716635
 11
55.0
 21
0.0
 31
-424.716635
  0
LINE
  5
BE
330
1F
100
AcDbEntity
  8
Front$5
  6
Continuous
 62
    18
370
    35
100
AcDbLine
 10
-56.0
 20
0.0
 30
-424.716635
 11
-55.0
 21
0.0
 31
-424.716635
  0
LINE
  5
BF
330
1F
100
AcDbEntity
  8
Front$5
  6
Continuous
 62
   155
370
    35
100
AcDbLine
 10
60.9
 20
0.0
 30
-465.815896
 11
60.9
 21
0.0
 31
-420.000746
  0
LINE
  5
C0
330
1F
100
AcDbEntity
  8
Front$5
  6
Continuous
 62
    18
370
    35
100
AcDbLine
 10
61.7
 20
0.0
 30
-467.337586
 11
61.7
 21
0.0
 31
-468.699411
  0
LINE
  5
C1
330
1F
100
AcDbEntity
  8
Front$5
  6
Continuous
 62
   155
370
    35
100
AcDbLine
 10
61.7
 20
0.0
 30
-468.699411
 11
62.5
 21
0.0
 31
-468.699411
  0
LINE
  5
C2
330
1F
100
AcDbEntity
  8
Front$5
  6
Continuous
 62
    18
370
    35
100
AcDbLine
 10
62.5
 20
0.0
 30
-467.337586
 11
62.5
 21
0.0
 31
-468.699411
  0
LINE
  5
C3
330
1F
100
AcDbEntity
  8
Front$5
  6
Continuous
 62
    18
370
    35
100
AcDbLine
 10
-60.9
 20
0.0
 30
-465.815896
 11
60.9
 21
0.0
 31
-465.815896
  0
LINE
  5
C4
330
1F
100
AcDbEntity
  8
Front$5
  6
Continuous
 62
    18
370
    35
100
AcDbLine
 10
-62.5
 20
0.0
 30
-467.337586
 11
-62.5
 21
0.0
 31
-468.699411
  0
LINE
  5
C5
330
1F
100
AcDbEntity
  8
Front$5
  6
Continuous
 62
   155
370
    35
100
AcDbLine
 10
-62.5
 20
0.0
 30
-468.699411
 11
-61.7
 21
0.0
 31
-468.699411
  0
LINE
  5
C6
330
1F
100
AcDbEntity
  8
Front$5
  6
Continuous
 62
    18
370
    35
100
AcDbLine
 10
-61.7
 20
0.0
 30
-467.337586
 11
-61.7
 21
0.0
 31
-468.699411
  0
LINE
  5
C7
330
1F
100
AcDbEntity
  8
Front$5
  6
Continuous
 62
    18
370
    35
100
AcDbLine
 10
-60.9
 20
0.0
 30
-466.576741
 11
60.9
 21
0.0
 31
-466.576741
  0
LINE
  5
C8
330
1F
100
AcDbEntity
  8
Front$5
  6
Continuous
 62
   155
370
    35
100
AcDbLine
 10
-60.9
 20
0.0
 30
-420.000746
 11
-60.9
 21
0.0
 31
-465.815896
  0
LINE
  5
C9
330
1F
100
AcDbEntity
  8
Front$5
  6
Continuous
 62
    18
370
    35
100
AcDbLine
 10
-62.5
 20
0.0
 30
-467.337586
 11
-62.5
 21
0.0
 31
-420.000914
  0
LINE
  5
CA
330
1F
100
AcDbEntity
  8
Front$5
  6
Continuous
 62
    18
370
    35
100
AcDbLine
 10
-64.2
 20
0.0
 30
-467.2
 11
-64.2
 21
0.0
 31
-458.2
  0
LINE
  5
CB
330
1F
100
AcDbEntity
  8
Front$5
  6
Continuous
 62
    18
370
    35
100
AcDbLine
 10
-63.4
 20
0.0
 30
-458.2
 11
-63.4
 21
0.0
 31
-467.2
  0
LINE
  5
CC
330
1F
100
AcDbEntity
  8
Front$5
  6
Continuous
 62
    18
370
    35
100
AcDbLine
 10
-64.2
 20
0.0
 30
-458.2
 11
-63.4
 21
0.0
 31
-458.2
  0
LINE
  5
CD
330
1F
100
AcDbEntity
  8
Front$5
  6
Continuous
 62
    18
370
    35
100
AcDbLine
 10
-80.4
 20
0.0
 30
-474.4
 11
-78.4
 21
0.0
 31
-474.4
  0
LINE
  5
CE
330
1F
100
AcDbEntity
  8
Front$5
  6
Continuous
 62
    18
370
    35
100
AcDbLine
 10
-80.4
 20
0.0
 30
-475.2
 11
-80.4
 21
0.0
 31
-474.4
  0
LINE
  5
CF
330
1F
100
AcDbEntity
  8
Front$5
  6
Continuous
 62
    18
370
    35
100
AcDbLine
 10
-78.4
 20
0.0
 30
-474.4
 11
-65.0
 21
0.0
 31
-474.4
  0
LINE
  5
D0
330
1F
100
AcDbEntity
  8
Front$5
  6
Continuous
 62
   155
370
    35
100
AcDbLine
 10
-78.4
 20
0.0
 30
-474.4
 11
-78.4
 21
0.0
 31
-475.2
  0
LINE
  5
D1
330
1F
100
AcDbEntity
  8
Front$5
  6
Continuous
 62
    18
370
    35
100
AcDbLine
 10
-63.4
 20
0.0
 30
-473.6
 11
-63.4
 21
0.0
 31
-467.2
  0
LINE
  5
D2
330
1F
100
AcDbEntity
  8
Front$5
  6
Continuous
 62
   155
370
    35
100
AcDbLine
 10
-63.4
 20
0.0
 30
-467.2
 11
-64.2
 21
0.0
 31
-467.2
  0
LINE
  5
D3
330
1F
100
AcDbEntity
  8
Front$5
  6
Continuous
 62
    18
370
    35
100
AcDbLine
 10
-64.2
 20
0.0
 30
-473.6
 11
-64.2
 21
0.0
 31
-467.2
  0
LINE
  5
D4
330
1F
100
AcDbEntity
  8
Front$5
  6
Continuous
 62
    18
370
    35
100
AcDbLine
 10
-91.4
 20
0.0
 30
-489.0
 11
-91.4
 21
0.0
 31
-487.0
  0
LINE
  5
D5
330
1F
100
AcDbEntity
  8
Front$5
  6
Continuous
 62
    18
370
    35
100
AcDbLine
 10
-91.4
 20
0.0
 30
-489.0
 11
-92.2
 21
0.0
 31
-489.0
  0
LINE
  5
D6
330
1F
100
AcDbEntity
  8
Front$5
  6
Continuous
 62
    18
370
    35
100
AcDbLine
 10
-92.2
 20
0.0
 30
-477.8
 11
-92.2
 21
0.0
 31
-487.0
  0
LINE
  5
D7
330
1F
100
AcDbEntity
  8
Front$5
  6
Continuous
 62
    18
370
    35
100
AcDbLine
 10
-91.4
 20
0.0
 30
-477.8
 11
-91.4
 21
0.0
 31
-487.0
  0
LINE
  5
D8
330
1F
100
AcDbEntity
  8
Front$5
  6
Continuous
 62
   155
370
    35
100
AcDbLine
 10
-92.2
 20
0.0
 30
-487.0
 11
-91.4
 21
0.0
 31
-487.0
  0
LINE
  5
D9
330
1F
100
AcDbEntity
  8
Front$5
  6
Continuous
 62
    18
370
    35
100
AcDbLine
 10
91.0
 20
0.0
 30
-476.8
 11
91.0
 21
0.0
 31
-477.8
  0
LINE
  5
DA
330
1F
100
AcDbEntity
  8
Front$5
  6
Continuous
 62
    18
370
    35
100
AcDbLine
 10
91.8
 20
0.0
 30
-476.8
 11
91.8
 21
0.0
 31
-477.8
  0
LINE
  5
DB
330
1F
100
AcDbEntity
  8
Front$5
  6
Continuous
 62
    18
370
    35
100
AcDbLine
 10
91.0
 20
0.0
 30
-476.8
 11
91.8
 21
0.0
 31
-476.8
  0
LINE
  5
DC
330
1F
100
AcDbEntity
  8
Front$5
  6
Continuous
 62
    18
370
    35
100
AcDbLine
 10
91.0
 20
0.0
 30
-489.0
 11
91.0
 21
0.0
 31
-487.0
  0
LINE
  5
DD
330
1F
100
AcDbEntity
  8
Front$5
  6
Continuous
 62
    18
370
    35
100
AcDbLine
 10
91.8
 20
0.0
 30
-489.0
 11
91.0
 21
0.0
 31
-489.0
  0
LINE
  5
DE
330
1F
100
AcDbEntity
  8
Front$5
  6
Continuous
 62
    18
370
    35
100
AcDbLine
 10
-92.2
 20
0.0
 30
-477.8
 11
-92.2
 21
0.0
 31
-476.8
  0
LINE
  5
DF
330
1F
100
AcDbEntity
  8
Front$5
  6
Continuous
 62
   155
370
    35
100
AcDbLine
 10
-91.4
 20
0.0
 30
-477.8
 11
-92.2
 21
0.0
 31
-477.8
  0
LINE
  5
E0
330
1F
100
AcDbEntity
  8
Front$5
  6
Continuous
 62
    18
370
    35
100
AcDbLine
 10
-91.4
 20
0.0
 30
-476.8
 11
-91.4
 21
0.0
 31
-477.8
  0
LINE
  5
E1
330
1F
100
AcDbEntity
  8
Front$5
  6
Continuous
 62
    18
370
    35
100
AcDbLine
 10
-92.2
 20
0.0
 30
-476.8
 11
-91.4
 21
0.0
 31
-476.8
  0
LINE
  5
E2
330
1F
100
AcDbEntity
  8
Front$5
  6
Continuous
 62
    18
370
    35
100
AcDbLine
 10
90.2
 20
0.0
 30
-475.2
 11
90.2
 21
0.0
 31
-476.8
  0
LINE
  5
E3
330
1F
100
AcDbEntity
  8
Front$5
  6
Continuous
 62
    18
370
    35
100
AcDbLine
 10
-90.6
 20
0.0
 30
-475.2
 11
-90.6
 21
0.0
 31
-476.8
  0
LINE
  5
E4
330
1F
100
AcDbEntity
  8
Front$5
  6
Continuous
 62
    18
370
    35
100
AcDbLine
 10
-90.6
 20
0.0
 30
-475.2
 11
90.2
 21
0.0
 31
-475.2
  0
LINE
  5
E5
330
1F
100
AcDbEntity
  8
Front$5
  6
Continuous
 62
    18
370
    35
100
AcDbLine
 10
91.8
 20
0.0
 30
-477.8
 11
91.8
 21
0.0
 31
-487.0
  0
LINE
  5
E6
330
1F
100
AcDbEntity
  8
Front$5
  6
Continuous
 62
   155
370
    35
100
AcDbLine
 10
91.8
 20
0.0
 30
-477.8
 11
91.0
 21
0.0
 31
-477.8
  0
LINE
  5
E7
330
1F
100
AcDbEntity
  8
Front$5
  6
Continuous
 62
    18
370
    35
100
AcDbLine
 10
91.0
 20
0.0
 30
-477.8
 11
91.0
 21
0.0
 31
-487.0
  0
LINE
  5
E8
330
1F
100
AcDbEntity
  8
Front$5
  6
Continuous
 62
   155
370
    35
100
AcDbLine
 10
91.0
 20
0.0
 30
-487.0
 11
91.8
 21
0.0
 31
-487.0
  0
LINE
  5
E9
330
1F
100
AcDbEntity
  8
Front$5
  6
Continuous
 62
    18
370
    35
100
AcDbLine
 10
90.2
 20
0.0
 30
-476.8
 11
90.2
 21
0.0
 31
-487.0
  0
LINE
  5
EA
330
1F
100
AcDbEntity
  8
Front$5
  6
Continuous
 62
    18
370
    35
100
AcDbLine
 10
88.2
 20
0.0
 30
-489.0
 11
-88.6
 21
0.0
 31
-489.0
  0
LINE
  5
EB
330
1F
100
AcDbEntity
  8
Front$5
  6
Continuous
 62
   155
370
    35
100
AcDbLine
 10
90.2
 20
0.0
 30
-476.8
 11
-90.6
 21
0.0
 31
-476.8
  0
LINE
  5
EC
330
1F
100
AcDbEntity
  8
Front$5
  6
Continuous
 62
    18
370
    35
100
AcDbLine
 10
-90.6
 20
0.0
 30
-476.8
 11
-90.6
 21
0.0
 31
-487.0
  0
LINE
  5
ED
330
1F
100
AcDbEntity
  8
Front$5
  6
Continuous
 62
    18
370
    35
100
AcDbLine
 10
-65.0079
 20
0.0
 30
-473.2
 11
-64.1979
 21
0.0
 31
-473.2
  0
LINE
  5
EE
330
1F
100
AcDbEntity
  8
Front$5
  6
Continuous
 62
    18
370
    35
100
AcDbLine
 10
-63.3987
 20
0.0
 30
-473.2
 11
62.9991
 21
0.0
 31
-473.2
  0
LINE
  5
EF
330
1F
100
AcDbEntity
  8
Front$5
  6
Continuous
 62
    18
370
    35
100
AcDbLine
 10
63.7983
 20
0.0
 30
-473.2
 11
65.0079
 21
0.0
 31
-473.2
  0
LINE
  5
F0
330
1F
100
AcDbEntity
  8
Front$5
  6
Continuous
 62
    18
370
    35
100
AcDbLine
 10
88.4
 20
0.0
 30
475.0
 11
90.0
 21
0.0
 31
475.0
  0
LINE
  5
F1
102
{ACAD_REACTORS
330
34C
102
}
330
1F
100
AcDbEntity
  8
Front$5
  6
Continuous
 62
    18
370
    35
100
AcDbLine
 10
91.8
 20
0.0
 30
-487.0
 11
91.8
 21
0.0
 31
-489.0
  0
LINE
  5
F2
330
1F
100
AcDbEntity
  8
Front$5
  6
Continuous
 62
    18
370
    35
100
AcDbLine
 10
-92.2
 20
0.0
 30
-489.0
 11
-92.2
 21
0.0
 31
-487.0
  0
LINE
  5
F3
330
1F
100
AcDbEntity
  8
ORTHO$6
  6
Continuous
 62
    18
370
    35
100
AcDbLine
 10
0.0
 20
-37.240731
 30
438.159931
 11
0.0
 21
-0.799189
 31
435.61169
  0
LINE
  5
F4
330
1F
100
AcDbEntity
  8
ORTHO$6
  6
Continuous
 62
    18
370
    35
100
AcDbLine
 10
0.0
 20
-0.799922
 30
429.59709
 11
0.0
 21
-28.986349
 31
431.568077
  0
LINE
  5
F5
330
1F
100
AcDbEntity
  8
ORTHO$6
  6
Continuous
 62
    18
370
    35
100
AcDbLine
 10
0.0
 20
-31.413682
 30
431.737813
 11
0.0
 21
-37.659269
 31
432.174547
  0
LINE
  5
F6
330
1F
100
AcDbEntity
  8
ORTHO$6
  6
Continuous
 62
    18
370
    35
100
AcDbLine
 10
0.0
 20
-0.8
 30
475.0
 11
0.0
 21
0.8
 31
475.0
  0
LINE
  5
F7
330
1F
100
AcDbEntity
  8
ORTHO$6
  6
Continuous
 62
    18
370
    35
100
AcDbLine
 10
0.0
 20
-0.8
 30
-475.0
 11
0.0
 21
0.8
 31
-475.0
  0
LINE
  5
F8
330
1F
100
AcDbEntity
  8
ORTHO$6
  6
Continuous
 62
    18
370
    35
100
AcDbLine
 10
0.0
 20
-0.8
 30
475.0
 11
0.0
 21
-0.8
 31
-475.0
  0
LINE
  5
F9
330
1F
100
AcDbEntity
  8
ORTHO$6
  6
Continuous
 62
    18
370
    35
100
AcDbLine
 10
0.0
 20
179.2
 30
-470.0
 11
0.0
 21
179.2
 31
470.0
  0
LINE
  5
FA
330
1F
100
AcDbEntity
  8
ORTHO$6
  6
Continuous
 62
    18
370
    35
100
AcDbLine
 10
0.0
 20
0.8
 30
-475.0
 11
0.0
 21
174.2
 31
-475.0
  0
LINE
  5
FB
330
1F
100
AcDbEntity
  8
ORTHO$6
  6
Continuous
 62
    18
370
    35
100
AcDbLine
 10
0.0
 20
0.8
 30
475.0
 11
0.0
 21
174.2
 31
475.0
  0
LINE
  5
FC
330
1F
100
AcDbEntity
  8
ORTHO$6
  6
Continuous
 62
    18
370
    35
100
AcDbLine
 10
0.0
 20
178.4
 30
474.2
 11
0.0
 21
176.911841
 31
474.2
  0
LINE
  5
FD
330
1F
100
AcDbEntity
  8
ORTHO$6
  6
Continuous
 62
    18
370
    35
100
AcDbLine
 10
0.0
 20
178.4
 30
475.0
 11
0.0
 21
174.198622
 31
475.0
  0
LINE
  5
FE
330
1F
100
AcDbEntity
  8
ORTHO$6
  6
Continuous
 62
    18
370
    35
100
AcDbLine
 10
0.0
 20
178.4
 30
474.2
 11
0.0
 21
178.4
 31
475.0
  0
LINE
  5
FF
330
1F
100
AcDbEntity
  8
ORTHO$6
  6
Continuous
 62
    18
370
    35
100
AcDbLine
 10
0.0
 20
178.4
 30
473.4
 11
0.0
 21
177.865742
 31
473.4
  0
LINE
  5
100
330
1F
100
AcDbEntity
  8
ORTHO$6
  6
Continuous
 62
    18
370
    35
100
AcDbLine
 10
0.0
 20
178.041847
 30
-473.2
 11
0.0
 21
178.4
 31
-473.2
  0
LINE
  5
101
330
1F
100
AcDbEntity
  8
ORTHO$6
  6
Continuous
 62
    18
370
    35
100
AcDbLine
 10
0.0
 20
180.0
 30
473.4
 11
0.0
 21
180.0
 31
-473.2
  0
LINE
  5
102
330
1F
100
AcDbEntity
  8
ORTHO$6
  6
Continuous
 62
    18
370
    35
100
AcDbLine
 10
0.0
 20
180.0
 30
-473.2
 11
0.0
 21
178.4
 31
-473.2
  0
LINE
  5
103
330
1F
100
AcDbEntity
  8
ORTHO$6
  6
Continuous
 62
   155
370
    35
100
AcDbLine
 10
0.0
 20
178.4
 30
473.4
 11
0.0
 21
178.4
 31
472.704841
  0
LINE
  5
104
330
1F
100
AcDbEntity
  8
ORTHO$6
  6
Continuous
 62
   155
370
    35
100
AcDbLine
 10
0.0
 20
178.4
 30
-472.711909
 11
0.0
 21
178.4
 31
-473.2
  0
LINE
  5
105
330
1F
100
AcDbEntity
  8
ORTHO$6
  6
Continuous
 62
    18
370
    35
100
AcDbLine
 10
0.0
 20
178.4
 30
473.4
 11
0.0
 21
180.0
 31
473.4
  0
LINE
  5
106
330
1F
100
AcDbEntity
  8
ORTHO$6
  6
Continuous
 62
    18
370
    35
100
AcDbLine
 10
0.0
 20
-37.659269
 30
432.174547
 11
0.0
 21
-37.45
 31
435.167239
  0
LINE
  5
107
330
1F
100
AcDbEntity
  8
ORTHO$6
  6
Continuous
 62
    18
370
    35
100
AcDbLine
 10
0.0
 20
-37.45
 30
435.167239
 11
0.0
 21
-37.240731
 31
438.159931
  0
LINE
  5
108
330
1F
100
AcDbEntity
  8
ORTHO$6
  6
Continuous
 62
    18
370
    35
100
AcDbLine
 10
0.0
 20
-10.110233
 30
-423.844452
 11
0.0
 21
-14.470348
 31
-392.82062
  0
LINE
  5
109
330
1F
100
AcDbEntity
  8
ORTHO$6
  6
Continuous
 62
    18
370
    35
100
AcDbLine
 10
0.0
 20
-9.318018
 30
-423.733113
 11
0.0
 21
-13.678133
 31
-392.709282
  0
LINE
  5
10A
330
1F
100
AcDbEntity
  8
ORTHO$6
  6
Continuous
 62
    18
370
    35
100
AcDbLine
 10
0.0
 20
-13.678133
 30
-392.709282
 11
0.0
 21
-14.095653
 31
-389.738478
  0
LINE
  5
10B
330
1F
100
AcDbEntity
  8
ORTHO$6
  6
Continuous
 62
   155
370
    35
100
AcDbLine
 10
0.0
 20
-14.470348
 30
-392.82062
 11
0.0
 21
-13.678133
 31
-392.709282
  0
LINE
  5
10C
330
1F
100
AcDbEntity
  8
ORTHO$6
  6
Continuous
 62
    18
370
    35
100
AcDbLine
 10
0.0
 20
-14.887867
 30
-389.849816
 11
0.0
 21
-14.470348
 31
-392.82062
  0
LINE
  5
10D
330
1F
100
AcDbEntity
  8
ORTHO$6
  6
Continuous
 62
    18
370
    35
100
AcDbLine
 10
0.0
 20
-14.095653
 30
-389.738478
 11
0.0
 21
-14.887867
 31
-389.849816
  0
LINE
  5
10E
330
1F
100
AcDbEntity
  8
ORTHO$6
  6
Continuous
 62
    18
370
    35
100
AcDbLine
 10
0.0
 20
-115.802094
 30
-470.106083
 11
0.0
 21
-133.24151
 31
-470.770187
  0
LINE
  5
10F
330
1F
100
AcDbEntity
  8
ORTHO$6
  6
Continuous
 62
    18
370
    35
100
AcDbLine
 10
0.0
 20
-136.651323
 30
-467.337586
 11
0.0
 21
-136.208839
 31
-468.699411
  0
LINE
  5
110
330
1F
100
AcDbEntity
  8
ORTHO$6
  6
Continuous
 62
    18
370
    35
100
AcDbLine
 10
0.0
 20
-95.806964
 30
-466.894288
 11
0.0
 21
-0.801345
 31
-436.025091
  0
LINE
  5
111
330
1F
100
AcDbEntity
  8
ORTHO$6
  6
Continuous
 62
    18
370
    35
100
AcDbLine
 10
0.0
 20
-0.800802
 30
-421.514736
 11
0.0
 21
-137.14575
 31
-465.815896
  0
LINE
  5
112
330
1F
100
AcDbEntity
  8
ORTHO$6
  6
Continuous
 62
   155
370
    35
100
AcDbLine
 10
0.0
 20
-136.651323
 30
-467.337586
 11
0.0
 21
-0.80189
 31
-423.197429
  0
LINE
  5
113
330
1F
100
AcDbEntity
  8
ORTHO$6
  6
Continuous
 62
    18
370
    35
100
AcDbLine
 10
0.0
 20
-137.14575
 30
-465.815896
 11
0.0
 21
-136.651323
 31
-467.337586
  0
LINE
  5
114
330
1F
100
AcDbEntity
  8
ORTHO$6
  6
Continuous
 62
    18
370
    35
100
AcDbLine
 10
0.0
 20
-95.802
 30
-473.6
 11
0.0
 21
-95.802
 31
-467.2
  0
LINE
  5
115
330
1F
100
AcDbEntity
  8
ORTHO$6
  6
Continuous
 62
    18
370
    35
100
AcDbLine
 10
0.0
 20
-115.802
 30
-473.6
 11
0.0
 21
-115.802
 31
-467.2
  0
LINE
  5
116
330
1F
100
AcDbEntity
  8
ORTHO$6
  6
Continuous
 62
    18
370
    35
100
AcDbLine
 10
0.0
 20
-106.802
 30
-458.2
 11
0.0
 21
-104.802
 31
-458.2
  0
LINE
  5
117
330
1F
100
AcDbEntity
  8
ORTHO$6
  6
Continuous
 62
    18
370
    35
100
AcDbLine
 10
0.0
 20
-95.802
 30
-474.4
 11
0.0
 21
-95.802
 31
-473.6
  0
LINE
  5
118
330
1F
100
AcDbEntity
  8
ORTHO$6
  6
Continuous
 62
    18
370
    35
100
AcDbLine
 10
0.0
 20
-115.802
 30
-474.4
 11
0.0
 21
-115.802
 31
-473.6
  0
LINE
  5
119
330
1F
100
AcDbEntity
  8
ORTHO$6
  6
Continuous
 62
   155
370
    35
100
AcDbLine
 10
0.0
 20
-115.802
 30
-473.6
 11
0.0
 21
-95.802
 31
-473.6
  0
LINE
  5
11A
330
1F
100
AcDbEntity
  8
ORTHO$6
  6
Continuous
 62
    18
370
    35
100
AcDbLine
 10
0.0
 20
-115.802
 30
-474.4
 11
0.0
 21
-113.802
 31
-474.4
  0
LINE
  5
11B
330
1F
100
AcDbEntity
  8
ORTHO$6
  6
Continuous
 62
    18
370
    35
100
AcDbLine
 10
0.0
 20
-115.802
 30
-474.4
 11
0.0
 21
-115.802
 31
-475.2
  0
LINE
  5
11C
330
1F
100
AcDbEntity
  8
ORTHO$6
  6
Continuous
 62
    18
370
    35
100
AcDbLine
 10
0.0
 20
-97.802
 30
-474.4
 11
0.0
 21
-113.802
 31
-474.4
  0
LINE
  5
11D
330
1F
100
AcDbEntity
  8
ORTHO$6
  6
Continuous
 62
   155
370
    35
100
AcDbLine
 10
0.0
 20
-113.802
 30
-475.2
 11
0.0
 21
-113.802
 31
-474.4
  0
LINE
  5
11E
330
1F
100
AcDbEntity
  8
ORTHO$6
  6
Continuous
 62
    18
370
    35
100
AcDbLine
 10
0.0
 20
-95.802
 30
-474.4
 11
0.0
 21
-97.802
 31
-474.4
  0
LINE
  5
11F
330
1F
100
AcDbEntity
  8
ORTHO$6
  6
Continuous
 62
    18
370
    35
100
AcDbLine
 10
0.0
 20
-95.802
 30
-475.2
 11
0.0
 21
-95.802
 31
-474.4
  0
LINE
  5
120
330
1F
100
AcDbEntity
  8
ORTHO$6
  6
Continuous
 62
   155
370
    35
100
AcDbLine
 10
0.0
 20
-97.802
 30
-474.4
 11
0.0
 21
-97.802
 31
-475.2
  0
LINE
  5
121
330
1F
100
AcDbEntity
  8
ORTHO$6
  6
Continuous
 62
    18
370
    35
100
AcDbLine
 10
0.0
 20
26.198
 30
-475.2
 11
0.0
 21
29.2
 31
-475.2
  0
LINE
  5
122
330
1F
100
AcDbEntity
  8
ORTHO$6
  6
Continuous
 62
    18
370
    35
100
AcDbLine
 10
0.0
 20
26.198
 30
-476.0
 11
0.0
 21
29.2
 31
-476.0
  0
LINE
  5
123
330
1F
100
AcDbEntity
  8
ORTHO$6
  6
Continuous
 62
    18
370
    35
100
AcDbLine
 10
0.0
 20
152.202
 30
-475.2
 11
0.0
 21
149.2
 31
-475.2
  0
LINE
  5
124
330
1F
100
AcDbEntity
  8
ORTHO$6
  6
Continuous
 62
    18
370
    35
100
AcDbLine
 10
0.0
 20
152.202
 30
-476.0
 11
0.0
 21
149.2
 31
-476.0
  0
LINE
  5
125
330
1F
100
AcDbEntity
  8
ORTHO$6
  6
Continuous
 62
    18
370
    35
100
AcDbLine
 10
0.0
 20
149.2
 30
-476.0
 11
0.0
 21
29.2
 31
-476.0
  0
LINE
  5
126
330
1F
100
AcDbEntity
  8
ORTHO$6
  6
Continuous
 62
    18
370
    35
100
AcDbLine
 10
0.0
 20
149.2
 30
-476.0
 11
0.0
 21
149.2
 31
-475.00001
  0
LINE
  5
127
330
1F
100
AcDbEntity
  8
ORTHO$6
  6
Continuous
 62
    18
370
    35
100
AcDbLine
 10
0.0
 20
29.2
 30
-476.0
 11
0.0
 21
29.2
 31
-475.00001
  0
LINE
  5
128
330
1F
100
AcDbEntity
  8
ORTHO$6
  6
Continuous
 62
    18
370
    35
100
AcDbLine
 10
0.0
 20
-150.8
 30
-476.8
 11
0.0
 21
-150.8
 31
-477.800078
  0
LINE
  5
129
330
1F
100
AcDbEntity
  8
ORTHO$6
  6
Continuous
 62
    18
370
    35
100
AcDbLine
 10
0.0
 20
-150.0
 30
-476.8
 11
0.0
 21
-150.0
 31
-476.820241
  0
LINE
  5
12A
330
1F
100
AcDbEntity
  8
ORTHO$6
  6
Continuous
 62
    18
370
    35
100
AcDbLine
 10
0.0
 20
-150.8
 30
-489.0
 11
0.0
 21
-150.8
 31
-487.0
  0
LINE
  5
12B
330
1F
100
AcDbEntity
  8
ORTHO$6
  6
Continuous
 62
    18
370
    35
100
AcDbLine
 10
0.0
 20
-150.0
 30
-489.0
 11
0.0
 21
-150.0
 31
-488.599988
  0
LINE
  5
12C
330
1F
100
AcDbEntity
  8
ORTHO$6
  6
Continuous
 62
    18
370
    35
100
AcDbLine
 10
0.0
 20
-150.8
 30
-489.0
 11
0.0
 21
-150.0
 31
-489.0
  0
LINE
  5
12D
330
1F
100
AcDbEntity
  8
ORTHO$6
  6
Continuous
 62
    18
370
    35
100
AcDbLine
 10
0.0
 20
179.2
 30
-476.8
 11
0.0
 21
179.2
 31
-477.800078
  0
LINE
  5
12E
330
1F
100
AcDbEntity
  8
ORTHO$6
  6
Continuous
 62
    18
370
    35
100
AcDbLine
 10
0.0
 20
178.4
 30
-476.8
 11
0.0
 21
178.4
 31
-476.820241
  0
LINE
  5
12F
330
1F
100
AcDbEntity
  8
ORTHO$6
  6
Continuous
 62
    18
370
    35
100
AcDbLine
 10
0.0
 20
179.2
 30
-489.0
 11
0.0
 21
179.2
 31
-487.0
  0
LINE
  5
130
330
1F
100
AcDbEntity
  8
ORTHO$6
  6
Continuous
 62
    18
370
    35
100
AcDbLine
 10
0.0
 20
178.4
 30
-488.599988
 11
0.0
 21
178.4
 31
-489.0
  0
LINE
  5
131
330
1F
100
AcDbEntity
  8
ORTHO$6
  6
Continuous
 62
    18
370
    35
100
AcDbLine
 10
0.0
 20
178.4
 30
-489.0
 11
0.0
 21
179.2
 31
-489.0
  0
LINE
  5
132
330
1F
100
AcDbEntity
  8
ORTHO$6
  6
Continuous
 62
    18
370
    35
100
AcDbLine
 10
0.0
 20
26.198
 30
-475.2
 11
0.0
 21
26.198
 31
-476.8
  0
LINE
  5
133
330
1F
100
AcDbEntity
  8
ORTHO$6
  6
Continuous
 62
    18
370
    35
100
AcDbLine
 10
0.0
 20
-149.2
 30
-475.2
 11
0.0
 21
-149.2
 31
-476.8
  0
LINE
  5
134
330
1F
100
AcDbEntity
  8
ORTHO$6
  6
Continuous
 62
    18
370
    35
100
AcDbLine
 10
0.0
 20
26.198
 30
-475.2
 11
0.0
 21
-149.2
 31
-475.2
  0
LINE
  5
135
330
1F
100
AcDbEntity
  8
ORTHO$6
  6
Continuous
 62
    18
370
    35
100
AcDbLine
 10
0.0
 20
152.202
 30
-475.2
 11
0.0
 21
152.202
 31
-476.8
  0
LINE
  5
136
330
1F
100
AcDbEntity
  8
ORTHO$6
  6
Continuous
 62
    18
370
    35
100
AcDbLine
 10
0.0
 20
177.6
 30
-475.2
 11
0.0
 21
177.6
 31
-476.8
  0
LINE
  5
137
330
1F
100
AcDbEntity
  8
ORTHO$6
  6
Continuous
 62
    18
370
    35
100
AcDbLine
 10
0.0
 20
177.6
 30
-475.2
 11
0.0
 21
152.202
 31
-475.2
  0
LINE
  5
138
330
1F
100
AcDbEntity
  8
ORTHO$6
  6
Continuous
 62
    18
370
    35
100
AcDbLine
 10
0.0
 20
-148.8
 30
-489.0
 11
0.0
 21
24.198
 31
-489.0
  0
LINE
  5
139
330
1F
100
AcDbEntity
  8
ORTHO$6
  6
Continuous
 62
    18
370
    35
100
AcDbLine
 10
0.0
 20
-149.8
 30
-476.8
 11
0.0
 21
-149.2
 31
-476.8
  0
LINE
  5
13A
330
1F
100
AcDbEntity
  8
ORTHO$6
  6
Continuous
 62
   155
370
    35
100
AcDbLine
 10
0.0
 20
-149.2
 30
-476.8
 11
0.0
 21
26.198
 31
-476.8
  0
LINE
  5
13B
330
1F
100
AcDbEntity
  8
ORTHO$6
  6
Continuous
 62
    18
370
    35
100
AcDbLine
 10
0.0
 20
26.198
 30
-476.8
 11
0.0
 21
26.198
 31
-487.0
  0
LINE
  5
13C
330
1F
100
AcDbEntity
  8
ORTHO$6
  6
Continuous
 62
    18
370
    35
100
AcDbLine
 10
0.0
 20
154.202
 30
-489.0
 11
0.0
 21
177.2
 31
-489.0
  0
LINE
  5
13D
330
1F
100
AcDbEntity
  8
ORTHO$6
  6
Continuous
 62
    18
370
    35
100
AcDbLine
 10
0.0
 20
177.6
 30
-476.8
 11
0.0
 21
178.2
 31
-476.8
  0
LINE
  5
13E
330
1F
100
AcDbEntity
  8
ORTHO$6
  6
Continuous
 62
    18
370
    35
100
AcDbLine
 10
0.0
 20
152.202
 30
-476.8
 11
0.0
 21
152.202
 31
-487.0
  0
LINE
  5
13F
330
1F
100
AcDbEntity
  8
ORTHO$6
  6
Continuous
 62
   155
370
    35
100
AcDbLine
 10
0.0
 20
152.202
 30
-476.8
 11
0.0
 21
177.6
 31
-476.8
  0
LINE
  5
140
330
1F
100
AcDbEntity
  8
ORTHO$6
  6
Continuous
 62
    18
370
    35
100
AcDbLine
 10
0.0
 20
152.466844
 30
-488.0
 11
0.0
 21
25.927078
 31
-488.0
  0
LINE
  5
141
330
1F
100
AcDbEntity
  8
ORTHO$6
  6
Continuous
 62
   155
370
    35
100
AcDbLine
 10
0.0
 20
152.199828
 30
-477.6
 11
0.0
 21
26.195125
 31
-477.6
  0
LINE
  5
142
330
1F
100
AcDbEntity
  8
ORTHO$6
  6
Continuous
 62
    18
370
    35
100
AcDbLine
 10
0.0
 20
152.198109
 30
-476.8
 11
0.0
 21
26.195812
 31
-476.8
  0
LINE
  5
143
102
{ACAD_REACTORS
330
31A
102
}
330
1F
100
AcDbEntity
  8
ORTHO$6
  6
Continuous
 62
    18
370
    35
100
AcDbLine
 10
0.0
 20
-150.8
 30
-477.8
 11
0.0
 21
-150.8
 31
-487.0
  0
LINE
  5
144
102
{ACAD_REACTORS
330
31A
102
}
330
1F
100
AcDbEntity
  8
ORTHO$6
  6
Continuous
 62
    18
370
    35
100
AcDbLine
 10
0.0
 20
179.2
 30
-477.8
 11
0.0
 21
179.2
 31
-487.0
  0
LINE
  5
145
330
1F
100
AcDbEntity
  8
ORTHO$6
  6
Continuous
 62
   155
370
    35
100
AcDbLine
 10
0.0
 20
0.8
 30
-475.0
 11
0.0
 21
0.8
 31
475.0
  0
LINE
  5
146
330
1F
100
AcDbEntity
  8
Isometric$7
  6
Continuous
 62
    18
370
    35
100
AcDbLine
 10
-40.733333
 20
306.664704
 30
347.398038
 11
-155.933333
 21
249.064704
 31
404.998038
  0
LINE
  5
147
330
1F
100
AcDbEntity
  8
Isometric$7
  6
Continuous
 62
    18
370
    35
100
AcDbLine
 10
-39.044849
 20
306.107591
 30
345.15244
 11
-39.601962
 21
306.664704
 31
346.266667
  0
LINE
  5
148
330
1F
100
AcDbEntity
  8
Isometric$7
  6
Continuous
 62
    18
370
    35
100
AcDbLine
 10
-216.08088
 20
130.252453
 30
346.333333
 11
-215.814214
 21
129.985786
 31
345.8
  0
LINE
  5
149
330
1F
100
AcDbEntity
  8
Isometric$7
  6
Continuous
 62
    18
370
    35
100
AcDbLine
 10
-155.498629
 20
119.93567
 30
275.434299
 11
-141.674527
 21
144.873383
 31
286.54791
  0
LINE
  5
14A
330
1F
100
AcDbEntity
  8
Isometric$7
  6
Continuous
 62
    18
370
    35
100
AcDbLine
 10
-144.479996
 20
147.480995
 30
291.960991
 11
-159.579531
 21
120.242489
 31
279.82202
  0
LINE
  5
14B
330
1F
100
AcDbEntity
  8
Isometric$7
  6
Continuous
 62
    18
370
    35
100
AcDbLine
 10
89.430927
 20
-157.631957
 30
-247.062884
 11
89.203969
 21
-158.197212
 31
-247.401181
  0
LINE
  5
14C
330
1F
100
AcDbEntity
  8
Isometric$7
  6
Continuous
 62
    18
370
    35
100
AcDbLine
 10
69.805563
 20
-267.782553
 30
-337.588117
 11
70.338897
 21
-267.515887
 31
-337.854784
  0
LINE
  5
14D
330
1F
100
AcDbEntity
  8
Isometric$7
  6
Continuous
 62
    18
370
    35
100
AcDbLine
 10
98.282718
 20
-164.489367
 30
-262.772085
 11
68.375464
 21
-267.487431
 31
-335.862895
  0
LINE
  5
14E
330
1F
100
AcDbEntity
  8
Isometric$7
  6
Continuous
 62
    18
370
    35
100
AcDbLine
 10
152.605563
 20
-226.382553
 30
-378.988117
 11
153.138897
 21
-226.115887
 31
-379.254784
  0
LINE
  5
14F
330
1F
100
AcDbEntity
  8
Isometric$7
  6
Continuous
 62
    18
370
    35
100
AcDbLine
 10
66.518453
 20
-261.54888
 30
-328.067333
 11
66.78512
 21
-261.815547
 31
-328.600667
  0
LINE
  5
150
330
1F
100
AcDbEntity
  8
Isometric$7
  6
Continuous
 62
    18
370
    35
100
AcDbLine
 10
279.866667
 20
-9.15956
 30
-289.026227
 11
279.333333
 21
-9.426227
 31
-288.75956
  0
LINE
  5
151
330
1F
100
AcDbEntity
  8
Isometric$7
  6
Continuous
 62
    18
370
    35
100
AcDbLine
 10
278.266667
 20
-9.335296
 30
-287.601962
 11
277.05945
 21
-9.938904
 31
-286.998354
  0
LINE
  5
152
330
1F
100
AcDbEntity
  8
Isometric$7
  6
Continuous
 62
    18
370
    35
100
AcDbLine
 10
274.400667
 20
-30.61288
 30
-305.013547
 11
274.934
 21
-30.346214
 31
-305.280214
  0
LINE
  5
153
330
1F
100
AcDbEntity
  8
Isometric$7
  6
Continuous
 62
    18
370
    35
100
AcDbLine
 10
51.266667
 20
-293.68088
 30
-344.947547
 11
51.8
 21
-293.414214
 31
-345.214214
  0
LINE
  5
154
330
1F
100
AcDbEntity
  8
Isometric$7
  6
Continuous
 62
    18
370
    35
100
AcDbLine
 10
82.434888
 20
-219.067482
 30
-301.50237
 11
47.668629
 21
-288.6
 31
-336.268629
  0
LINE
  5
155
330
1F
100
AcDbEntity
  8
Isometric$7
  6
Continuous
 62
    18
370
    35
100
AcDbLine
 10
172.28088
 20
-233.466667
 30
-405.747547
 11
172.547547
 21
-232.933333
 31
-405.48088
  0
LINE
  5
156
330
1F
100
AcDbEntity
  8
Isometric$7
  6
Continuous
 62
    18
370
    35
100
AcDbLine
 10
173.4
 20
-232.614214
 30
-406.014214
 11
173.933333
 21
-232.347547
 31
-406.28088
  0
LINE
  5
157
330
1F
100
AcDbEntity
  8
Isometric$7
  6
Continuous
 62
    18
370
    35
100
AcDbLine
 10
-177.841834
 20
148.679073
 30
326.520907
 11
-177.908522
 21
148.545698
 31
326.45422
  0
LINE
  5
158
330
1F
100
AcDbEntity
  8
Isometric$7
  6
Continuous
 62
    18
370
    35
100
AcDbLine
 10
179.213547
 20
-196.18712
 30
-375.400667
 11
178.94688
 21
-195.920453
 31
-374.867333
  0
LINE
  5
159
330
1F
100
AcDbEntity
  8
Isometric$7
  6
Continuous
 62
    18
370
    35
100
AcDbLine
 10
163.332667
 20
-197.970706
 30
-361.303372
 11
162.799333
 21
-198.237372
 31
-361.036706
  0
LINE
  5
15A
330
1F
100
AcDbEntity
  8
Isometric$7
  6
Continuous
 62
    18
370
    35
100
AcDbLine
 10
-158.242983
 20
246.514042
 30
404.757026
 11
-158.6
 21
246.335534
 31
404.935534
  0
LINE
  5
15B
330
1F
100
AcDbEntity
  8
Isometric$7
  6
Continuous
 62
    18
370
    35
100
AcDbLine
 10
-218.131371
 20
128.268629
 30
346.4
 11
92.958994
 21
-182.821735
 31
-275.780729
  0
LINE
  5
15C
330
1F
100
AcDbEntity
  8
Isometric$7
  6
Continuous
 62
    18
370
    35
100
AcDbLine
 10
-38.6
 20
306.335534
 30
344.935534
 11
-39.133333
 21
306.068867
 31
345.202201
  0
LINE
  5
15D
330
1F
100
AcDbEntity
  8
Isometric$7
  6
Continuous
 62
    18
370
    35
100
AcDbLine
 10
135.313974
 20
114.086026
 30
-21.227948
 11
136.419482
 21
112.980518
 31
-23.438964
  0
LINE
  5
15E
330
1F
100
AcDbEntity
  8
Isometric$7
  6
Continuous
 62
    18
 60
     1
370
    35
100
AcDbLine
 10
-198.201
 20
164.9995
 30
363.2005
 11
-197.701667
 21
165.998166
 31
363.699833
  0
LINE
  5
15F
330
1F
100
AcDbEntity
  8
Isometric$7
  6
Continuous
 62
    18
 60
     1
370
    35
100
AcDbLine
 10
-193.867666
 20
172.666167
 30
366.533833
 11
-191.733333
 21
173.733333
 31
365.466667
  0
LINE
  5
160
330
1F
100
AcDbEntity
  8
Isometric$7
  6
Continuous
 62
    18
370
    35
100
AcDbLine
 10
-31.352693
 20
280.752693
 30
312.105385
 11
-30.247185
 21
279.647185
 31
309.89437
  0
LINE
  5
161
330
1F
100
AcDbEntity
  8
Isometric$7
  6
Continuous
 62
    18
 60
     1
370
    35
100
AcDbLine
 10
-83.732834
 20
221.333583
 30
305.066417
 11
-85.866667
 21
220.266667
 31
306.133333
  0
LINE
  5
162
330
1F
100
AcDbEntity
  8
Isometric$7
  6
Continuous
 62
   155
 60
     1
370
    35
100
AcDbLine
 10
-86.133333
 20
220.533333
 30
306.666667
 11
-85.866667
 21
220.266667
 31
306.133333
  0
LINE
  5
163
330
1F
100
AcDbEntity
  8
Isometric$7
  6
Continuous
 62
    18
 60
     1
370
    35
100
AcDbLine
 10
-83.999
 20
221.6005
 30
305.5995
 11
-86.133333
 21
220.533333
 31
306.666667
  0
LINE
  5
164
330
1F
100
AcDbEntity
  8
Isometric$7
  6
Continuous
 62
    18
 60
     1
370
    35
100
AcDbLine
 10
-79.999
 20
229.6005
 30
309.5995
 11
-82.133333
 21
228.533333
 31
310.666667
  0
LINE
  5
165
330
1F
100
AcDbEntity
  8
Isometric$7
  6
Continuous
 62
    18
 60
     1
370
    35
100
AcDbLine
 10
-87.133333
 20
223.533333
 30
310.666667
 11
-87.8
 21
222.2
 31
310.0
  0
LINE
  5
166
330
1F
100
AcDbEntity
  8
Isometric$7
  6
Continuous
 62
   155
 60
     1
370
    35
100
AcDbLine
 10
-83.732834
 20
221.333583
 30
305.066417
 11
-83.999
 21
221.6005
 31
305.5995
  0
LINE
  5
167
330
1F
100
AcDbEntity
  8
Isometric$7
  6
Continuous
 62
    18
370
    35
100
AcDbLine
 10
-81.434
 20
223.332
 30
304.766
 11
-81.167333
 21
223.465333
 31
304.632667
  0
LINE
  5
168
330
1F
100
AcDbEntity
  8
Isometric$7
  6
Continuous
 62
   155
370
    35
100
AcDbLine
 10
-88.933333
 20
208.333333
 30
297.266667
 11
-88.666667
 21
208.466667
 31
297.133333
  0
LINE
  5
169
330
1F
100
AcDbEntity
  8
Isometric$7
  6
Continuous
 62
   155
370
    35
100
AcDbLine
 10
-39.464528
 20
305.864528
 30
345.329056
 11
-39.666667
 21
306.066667
 31
345.733333
  0
LINE
  5
16A
330
1F
100
AcDbEntity
  8
Isometric$7
  6
Continuous
 62
    18
370
    35
100
AcDbLine
 10
-39.666667
 20
306.066667
 30
345.733333
 11
-40.013722
 21
305.372557
 31
345.386278
  0
LINE
  5
16B
330
1F
100
AcDbEntity
  8
Isometric$7
  6
Continuous
 62
    18
370
    35
100
AcDbLine
 10
-100.4
 20
187.4
 30
287.8
 11
-215.066667
 21
130.066667
 31
345.133333
  0
LINE
  5
16C
330
1F
100
AcDbEntity
  8
Isometric$7
  6
Continuous
 62
   155
370
    35
100
AcDbLine
 10
-215.333333
 20
130.333333
 30
345.666667
 11
-215.066667
 21
130.066667
 31
345.133333
  0
LINE
  5
16D
330
1F
100
AcDbEntity
  8
Isometric$7
  6
Continuous
 62
    18
370
    35
100
AcDbLine
 10
-39.933333
 20
306.333333
 30
346.266667
 11
-98.4
 21
189.4
 31
287.8
  0
LINE
  5
16E
330
1F
100
AcDbEntity
  8
Isometric$7
  6
Continuous
 62
    18
370
    35
100
AcDbLine
 10
-40.2
 20
306.6
 30
346.8
 11
-39.933333
 21
306.333333
 31
346.266667
  0
LINE
  5
16F
330
1F
100
AcDbEntity
  8
Isometric$7
  6
Continuous
 62
   155
370
    35
100
AcDbLine
 10
-100.4
 20
187.4
 30
287.8
 11
-100.666667
 21
187.666667
 31
288.333333
  0
LINE
  5
170
330
1F
100
AcDbEntity
  8
Isometric$7
  6
Continuous
 62
   155
370
    35
100
AcDbLine
 10
-98.666667
 20
189.666667
 30
288.333333
 11
-98.4
 21
189.4
 31
287.8
  0
LINE
  5
171
330
1F
100
AcDbEntity
  8
Isometric$7
  6
Continuous
 62
    18
370
    35
100
AcDbLine
 10
-100.666667
 20
187.666667
 30
288.333333
 11
-215.333333
 21
130.333333
 31
345.666667
  0
LINE
  5
172
330
1F
100
AcDbEntity
  8
Isometric$7
  6
Continuous
 62
    18
370
    35
100
AcDbLine
 10
-40.2
 20
306.6
 30
346.8
 11
-98.666667
 21
189.666667
 31
288.333333
  0
LINE
  5
173
330
1F
100
AcDbEntity
  8
Isometric$7
  6
Continuous
 62
    18
370
    35
100
AcDbLine
 10
-40.2
 20
306.6
 30
346.8
 11
-41.266667
 21
306.066667
 31
347.333333
  0
LINE
  5
174
330
1F
100
AcDbEntity
  8
Isometric$7
  6
Continuous
 62
   155
370
    35
100
AcDbLine
 10
-41.266667
 20
306.066667
 30
347.333333
 11
-156.466667
 21
248.466667
 31
404.933333
  0
LINE
  5
175
330
1F
100
AcDbEntity
  8
Isometric$7
  6
Continuous
 62
    18
370
    35
100
AcDbLine
 10
-156.466667
 20
248.466667
 30
404.933333
 11
-157.533333
 21
247.933333
 31
405.466667
  0
LINE
  5
176
330
1F
100
AcDbEntity
  8
Isometric$7
  6
Continuous
 62
    18
370
    35
100
AcDbLine
 10
-157.533333
 20
247.933333
 30
405.466667
 11
-216.0
 21
131.0
 31
347.0
  0
LINE
  5
177
330
1F
100
AcDbEntity
  8
Isometric$7
  6
Continuous
 62
    18
370
    35
100
AcDbLine
 10
101.315562
 20
-166.424142
 30
-267.739704
 11
101.110431
 21
-167.130598
 31
-268.241029
  0
LINE
  5
178
330
1F
100
AcDbEntity
  8
Isometric$7
  6
Continuous
 62
    18
370
    35
100
AcDbLine
 10
71.541936
 20
-265.966635
 30
-337.508571
 11
71.376226
 21
-266.317736
 31
-337.693962
  0
LINE
  5
179
330
1F
100
AcDbEntity
  8
Isometric$7
  6
Continuous
 62
   155
370
    35
100
AcDbLine
 10
69.095421
 20
-267.446744
 30
-336.542165
 11
69.180842
 21
-267.15256
 31
-336.333402
  0
LINE
  5
17A
330
1F
100
AcDbEntity
  8
Isometric$7
  6
Continuous
 62
    18
370
    35
100
AcDbLine
 10
159.880942
 20
-121.976594
 30
-281.857536
 11
90.547608
 21
-156.643261
 31
-247.190869
  0
LINE
  5
17B
330
1F
100
AcDbEntity
  8
Isometric$7
  6
Continuous
 62
   155
370
    35
100
AcDbLine
 10
90.547608
 20
-156.643261
 30
-247.190869
 11
90.32065
 21
-157.208517
 31
-247.529166
  0
LINE
  5
17C
330
1F
100
AcDbEntity
  8
Isometric$7
  6
Continuous
 62
   155
370
    35
100
AcDbLine
 10
159.653983
 20
-122.54185
 30
-282.195833
 11
159.880942
 21
-121.976594
 31
-281.857536
  0
LINE
  5
17D
330
1F
100
AcDbEntity
  8
Isometric$7
  6
Continuous
 62
    18
370
    35
100
AcDbLine
 10
174.805032
 20
-129.12305
 30
-303.928081
 11
163.010383
 21
-121.688516
 31
-284.698899
  0
LINE
  5
17E
330
1F
100
AcDbEntity
  8
Isometric$7
  6
Continuous
 62
   155
370
    35
100
AcDbLine
 10
163.010383
 20
-121.688516
 30
-284.698899
 11
162.783424
 21
-122.253772
 31
-285.037196
  0
LINE
  5
17F
330
1F
100
AcDbEntity
  8
Isometric$7
  6
Continuous
 62
    18
370
    35
100
AcDbLine
 10
174.578073
 20
-129.688306
 30
-304.266379
 11
162.783424
 21
-122.253772
 31
-285.037196
  0
LINE
  5
180
330
1F
100
AcDbEntity
  8
Isometric$7
  6
Continuous
 62
    18
370
    35
100
AcDbLine
 10
159.653983
 20
-122.54185
 30
-282.195833
 11
90.32065
 21
-157.208517
 31
-247.529166
  0
LINE
  5
181
330
1F
100
AcDbEntity
  8
Isometric$7
  6
Continuous
 62
    18
370
    35
100
AcDbLine
 10
101.24474
 20
-166.354972
 30
-267.599712
 11
89.450091
 21
-158.920439
 31
-248.370529
  0
LINE
  5
182
330
1F
100
AcDbEntity
  8
Isometric$7
  6
Continuous
 62
   155
370
    35
100
AcDbLine
 10
174.578073
 20
-129.688306
 30
-304.266379
 11
101.24474
 21
-166.354972
 31
-267.599712
  0
LINE
  5
183
330
1F
100
AcDbEntity
  8
Isometric$7
  6
Continuous
 62
    18
370
    35
100
AcDbLine
 10
154.176226
 20
-224.917736
 30
-379.093962
 11
159.928338
 21
-212.730363
 31
-372.658702
  0
LINE
  5
184
330
1F
100
AcDbEntity
  8
Isometric$7
  6
Continuous
 62
    18
370
    35
100
AcDbLine
 10
187.303986
 20
-123.104575
 30
-310.408561
 11
165.607931
 21
-197.823961
 31
-363.431892
  0
LINE
  5
185
330
1F
100
AcDbEntity
  8
Isometric$7
  6
Continuous
 62
    18
370
    35
100
AcDbLine
 10
101.015778
 20
-166.210545
 30
-267.226323
 11
100.687134
 21
-167.342367
 31
-268.029501
  0
LINE
  5
186
330
1F
100
AcDbEntity
  8
Isometric$7
  6
Continuous
 62
    18
370
    35
100
AcDbLine
 10
175.353801
 20
-130.009034
 30
-305.362835
 11
177.828743
 21
-121.485542
 31
-299.314285
  0
LINE
  5
187
330
1F
100
AcDbEntity
  8
Isometric$7
  6
Continuous
 62
    18
370
    35
100
AcDbLine
 10
174.687134
 20
-130.342367
 30
-305.029501
 11
175.353801
 21
-130.009034
 31
-305.362835
  0
LINE
  5
188
330
1F
100
AcDbEntity
  8
Isometric$7
  6
Continuous
 62
   155
370
    35
100
AcDbLine
 10
101.353801
 20
-167.009034
 30
-268.362835
 11
174.687134
 21
-130.342367
 31
-305.029501
  0
LINE
  5
189
330
1F
100
AcDbEntity
  8
Isometric$7
  6
Continuous
 62
    18
370
    35
100
AcDbLine
 10
100.687134
 20
-167.342367
 30
-268.029501
 11
101.353801
 21
-167.009034
 31
-268.362835
  0
LINE
  5
18A
330
1F
100
AcDbEntity
  8
Isometric$7
  6
Continuous
 62
   155
370
    35
100
AcDbLine
 10
98.655307
 20
-164.723018
 30
-263.378325
 11
68.956715
 21
-267.002465
 31
-335.95918
  0
LINE
  5
18B
330
1F
100
AcDbEntity
  8
Isometric$7
  6
Continuous
 62
   155
370
    35
100
AcDbLine
 10
182.903372
 20
-119.257974
 30
-302.161345
 11
151.895421
 21
-226.046744
 31
-377.942165
  0
LINE
  5
18C
330
1F
100
AcDbEntity
  8
Isometric$7
  6
Continuous
 62
   155
370
    35
100
AcDbLine
 10
150.156715
 20
-226.402465
 30
-376.55918
 11
181.094894
 21
-119.853983
 31
-300.948877
  0
LINE
  5
18D
330
1F
100
AcDbEntity
  8
Isometric$7
  6
Continuous
 62
    18
370
    35
100
AcDbLine
 10
151.362088
 20
-226.313411
 30
-377.675498
 11
151.963524
 21
-226.472363
 31
-378.435887
  0
LINE
  5
18E
330
1F
100
AcDbEntity
  8
Isometric$7
  6
Continuous
 62
   155
370
    35
100
AcDbLine
 10
151.963524
 20
-226.472363
 30
-378.435887
 11
152.496857
 21
-226.205696
 31
-378.702554
  0
LINE
  5
18F
330
1F
100
AcDbEntity
  8
Isometric$7
  6
Continuous
 62
    18
370
    35
100
AcDbLine
 10
151.895421
 20
-226.046744
 30
-377.942165
 11
152.496857
 21
-226.205696
 31
-378.702554
  0
LINE
  5
190
330
1F
100
AcDbEntity
  8
Isometric$7
  6
Continuous
 62
    18
370
    35
100
AcDbLine
 10
68.956715
 20
-267.002465
 30
-335.95918
 11
150.156715
 21
-226.402465
 31
-376.55918
  0
LINE
  5
191
330
1F
100
AcDbEntity
  8
Isometric$7
  6
Continuous
 62
    18
370
    35
100
AcDbLine
 10
68.562088
 20
-267.713411
 30
-336.275498
 11
69.163524
 21
-267.872363
 31
-337.035887
  0
LINE
  5
192
330
1F
100
AcDbEntity
  8
Isometric$7
  6
Continuous
 62
   155
370
    35
100
AcDbLine
 10
69.163524
 20
-267.872363
 30
-337.035887
 11
69.696857
 21
-267.605696
 31
-337.302554
  0
LINE
  5
193
330
1F
100
AcDbEntity
  8
Isometric$7
  6
Continuous
 62
    18
370
    35
100
AcDbLine
 10
69.095421
 20
-267.446744
 30
-336.542165
 11
69.696857
 21
-267.605696
 31
-337.302554
  0
LINE
  5
194
330
1F
100
AcDbEntity
  8
Isometric$7
  6
Continuous
 62
    18
370
    35
100
AcDbLine
 10
69.292735
 20
-267.091271
 30
-336.384006
 11
150.492735
 21
-226.491271
 31
-376.984006
  0
LINE
  5
195
330
1F
100
AcDbEntity
  8
Isometric$7
  6
Continuous
 62
    18
370
    35
100
AcDbLine
 10
71.932667
 20
-250.134667
 30
-322.067333
 11
66.599333
 21
-260.801333
 31
-327.400667
  0
LINE
  5
196
330
1F
100
AcDbEntity
  8
Isometric$7
  6
Continuous
 62
    18
370
    35
100
AcDbLine
 10
67.266
 20
-261.468
 30
-328.734
 11
70.608602
 21
-259.796699
 31
-330.405301
  0
LINE
  5
197
330
1F
100
AcDbEntity
  8
Isometric$7
  6
Continuous
 62
   155
370
    35
100
AcDbLine
 10
67.266
 20
-261.468
 30
-328.734
 11
67.532667
 21
-261.734667
 31
-329.267333
  0
LINE
  5
198
330
1F
100
AcDbEntity
  8
Isometric$7
  6
Continuous
 62
    18
370
    35
100
AcDbLine
 10
67.532667
 20
-261.734667
 30
-329.267333
 11
70.47285
 21
-260.264575
 31
-330.737425
  0
LINE
  5
199
330
1F
100
AcDbEntity
  8
Isometric$7
  6
Continuous
 62
    18
370
    35
100
AcDbLine
 10
74.332667
 20
-245.334667
 30
-319.667333
 11
74.999333
 21
-244.001333
 31
-319.000667
  0
LINE
  5
19A
330
1F
100
AcDbEntity
  8
Isometric$7
  6
Continuous
 62
   155
370
    35
100
AcDbLine
 10
75.2283
 20
-243.88685
 30
-319.11515
 11
74.999333
 21
-244.001333
 31
-319.000667
  0
LINE
  5
19B
330
1F
100
AcDbEntity
  8
Isometric$7
  6
Continuous
 62
   155
370
    35
100
AcDbLine
 10
74.332667
 20
-245.334667
 30
-319.667333
 11
74.866
 21
-245.068
 31
-319.934
  0
LINE
  5
19C
330
1F
100
AcDbEntity
  8
Isometric$7
  6
Continuous
 62
    18
370
    35
100
AcDbLine
 10
74.866
 20
-245.068
 30
-319.934
 11
74.912115
 21
-244.975771
 31
-319.887885
  0
LINE
  5
19D
330
1F
100
AcDbEntity
  8
Isometric$7
  6
Continuous
 62
    18
370
    35
100
AcDbLine
 10
278.8
 20
-9.4
 30
-288.2
 11
279.073434
 21
-9.673434
 31
-288.746869
  0
LINE
  5
19E
330
1F
100
AcDbEntity
  8
Isometric$7
  6
Continuous
 62
   155
370
    35
100
AcDbLine
 10
279.533333
 20
-9.533333
 30
-289.066667
 11
279.0555
 21
-9.77225
 31
-288.82775
  0
LINE
  5
19F
330
1F
100
AcDbEntity
  8
Isometric$7
  6
Continuous
 62
    18
370
    35
100
AcDbLine
 10
280.2
 20
-9.2
 30
-289.4
 11
283.266667
 21
-12.266667
 31
-295.533333
  0
LINE
  5
1A0
330
1F
100
AcDbEntity
  8
Isometric$7
  6
Continuous
 62
    18
370
    35
100
AcDbLine
 10
279.533333
 20
-9.533333
 30
-289.066667
 11
279.333333
 21
-9.933333
 31
-289.266667
  0
LINE
  5
1A1
330
1F
100
AcDbEntity
  8
Isometric$7
  6
Continuous
 62
    18
370
    35
100
AcDbLine
 10
283.266667
 20
-14.266667
 30
-297.533333
 11
275.600667
 21
-29.598667
 31
-305.199333
  0
LINE
  5
1A2
330
1F
100
AcDbEntity
  8
Isometric$7
  6
Continuous
 62
   155
370
    35
100
AcDbLine
 10
279.333333
 20
-9.933333
 30
-289.266667
 11
270.867333
 21
-26.865333
 31
-297.732667
  0
LINE
  5
1A3
330
1F
100
AcDbEntity
  8
Isometric$7
  6
Continuous
 62
    18
370
    35
100
AcDbLine
 10
269.534
 20
-27.132
 30
-296.666
 11
268.734
 21
-27.532
 31
-296.266
  0
LINE
  5
1A4
330
1F
100
AcDbEntity
  8
Isometric$7
  6
Continuous
 62
    18
370
    35
100
AcDbLine
 10
270.334
 20
-27.132
 30
-297.466
 11
273.734
 21
-30.532
 31
-304.266
  0
LINE
  5
1A5
330
1F
100
AcDbEntity
  8
Isometric$7
  6
Continuous
 62
   155
370
    35
100
AcDbLine
 10
273.734
 20
-30.532
 30
-304.266
 11
274.267333
 21
-30.265333
 31
-304.532667
  0
LINE
  5
1A6
330
1F
100
AcDbEntity
  8
Isometric$7
  6
Continuous
 62
    18
370
    35
100
AcDbLine
 10
270.867333
 20
-26.865333
 30
-297.732667
 11
274.267333
 21
-30.265333
 31
-304.532667
  0
LINE
  5
1A7
330
1F
100
AcDbEntity
  8
Isometric$7
  6
Continuous
 62
    18
370
    35
100
AcDbLine
 10
47.533333
 20
-289.533333
 30
-337.066667
 11
47.733333
 21
-289.133333
 31
-336.866667
  0
LINE
  5
1A8
330
1F
100
AcDbEntity
  8
Isometric$7
  6
Continuous
 62
    18
370
    35
100
AcDbLine
 10
47.533333
 20
-290.533333
 30
-338.066667
 11
50.6
 21
-293.6
 31
-344.2
  0
LINE
  5
1A9
330
1F
100
AcDbEntity
  8
Isometric$7
  6
Continuous
 62
   155
370
    35
100
AcDbLine
 10
50.6
 20
-293.6
 30
-344.2
 11
51.133333
 21
-293.333333
 31
-344.466667
  0
LINE
  5
1AA
330
1F
100
AcDbEntity
  8
Isometric$7
  6
Continuous
 62
   155
370
    35
100
AcDbLine
 10
48.066667
 20
-290.266667
 30
-338.333333
 11
47.533333
 21
-290.533333
 31
-338.066667
  0
LINE
  5
1AB
330
1F
100
AcDbEntity
  8
Isometric$7
  6
Continuous
 62
   155
370
    35
100
AcDbLine
 10
47.533333
 20
-289.533333
 30
-337.066667
 11
48.066667
 21
-289.266667
 31
-337.333333
  0
LINE
  5
1AC
330
1F
100
AcDbEntity
  8
Isometric$7
  6
Continuous
 62
    18
370
    35
100
AcDbLine
 10
48.066667
 20
-289.266667
 30
-337.333333
 11
48.071454
 21
-289.257092
 31
-337.328546
  0
LINE
  5
1AD
330
1F
100
AcDbEntity
  8
Isometric$7
  6
Continuous
 62
    18
370
    35
100
AcDbLine
 10
48.066667
 20
-290.266667
 30
-338.333333
 11
51.133333
 21
-293.333333
 31
-344.466667
  0
LINE
  5
1AE
330
1F
100
AcDbEntity
  8
Isometric$7
  6
Continuous
 62
    18
370
    35
100
AcDbLine
 10
47.733333
 20
-289.133333
 30
-336.866667
 11
48.04575
 21
-288.977125
 31
-337.022875
  0
LINE
  5
1AF
330
1F
100
AcDbEntity
  8
Isometric$7
  6
Continuous
 62
    18
370
    35
100
AcDbLine
 10
173.6
 20
-185.6
 30
-359.2
 11
168.402313
 21
-188.198844
 31
-356.601156
  0
LINE
  5
1B0
330
1F
100
AcDbEntity
  8
Isometric$7
  6
Continuous
 62
   155
370
    35
100
AcDbLine
 10
173.6
 20
-185.6
 30
-359.2
 11
173.333333
 21
-185.333333
 31
-358.666667
  0
LINE
  5
1B1
330
1F
100
AcDbEntity
  8
Isometric$7
  6
Continuous
 62
    18
370
    35
100
AcDbLine
 10
171.533333
 20
-234.133333
 30
-405.666667
 11
53.666667
 21
-293.066667
 31
-346.733333
  0
LINE
  5
1B2
330
1F
100
AcDbEntity
  8
Isometric$7
  6
Continuous
 62
    18
370
    35
100
AcDbLine
 10
48.266667
 20
-289.666667
 30
-337.933333
 11
51.666667
 21
-293.066667
 31
-344.733333
  0
LINE
  5
1B3
330
1F
100
AcDbEntity
  8
Isometric$7
  6
Continuous
 62
    18
370
    35
100
AcDbLine
 10
184.333229
 20
-133.333385
 30
-317.666615
 11
193.133229
 21
-128.933385
 31
-322.066615
  0
LINE
  5
1B4
330
1F
100
AcDbEntity
  8
Isometric$7
  6
Continuous
 62
    18
370
    35
100
AcDbLine
 10
77.0
 20
-264.0
 30
-341.0
 11
152.027438
 21
-226.486281
 31
-378.513719
  0
LINE
  5
1B5
330
1F
100
AcDbEntity
  8
Isometric$7
  6
Continuous
 62
    18
370
    35
100
AcDbLine
 10
173.333333
 20
-185.333333
 30
-358.666667
 11
168.538208
 21
-187.730896
 31
-356.269104
  0
LINE
  5
1B6
330
1F
100
AcDbEntity
  8
Isometric$7
  6
Continuous
 62
    18
370
    35
100
AcDbLine
 10
158.0
 20
-221.0
 30
-379.0
 11
161.413016
 21
-214.173969
 31
-375.586984
  0
LINE
  5
1B7
330
1F
100
AcDbEntity
  8
Isometric$7
  6
Continuous
 62
    18
370
    35
100
AcDbLine
 10
168.332547
 20
-200.334906
 30
-368.667453
 11
175.0
 21
-187.0
 31
-362.0
  0
LINE
  5
1B8
330
1F
100
AcDbEntity
  8
Isometric$7
  6
Continuous
 62
   155
370
    35
100
AcDbLine
 10
81.97597
 20
-220.64806
 30
-302.62403
 11
48.266667
 21
-288.066667
 31
-336.333333
  0
LINE
  5
1B9
330
1F
100
AcDbEntity
  8
Isometric$7
  6
Continuous
 62
    18
370
    35
100
AcDbLine
 10
227.266
 20
-110.868
 30
-338.134
 11
226.999313
 21
-111.001344
 31
-338.000656
  0
LINE
  5
1BA
330
1F
100
AcDbEntity
  8
Isometric$7
  6
Continuous
 62
    18
370
    35
100
AcDbLine
 10
269.267333
 20
-26.865333
 30
-296.132667
 11
269.000646
 21
-26.998677
 31
-295.999323
  0
LINE
  5
1BB
330
1F
100
AcDbEntity
  8
Isometric$7
  6
Continuous
 62
   155
370
    35
100
AcDbLine
 10
269.267333
 20
-26.865333
 30
-296.132667
 11
277.733333
 21
-9.933333
 31
-287.666667
  0
LINE
  5
1BC
330
1F
100
AcDbEntity
  8
Isometric$7
  6
Continuous
 62
   155
370
    35
100
AcDbLine
 10
277.733333
 20
-9.933333
 30
-287.666667
 11
277.012017
 21
-10.293992
 31
-287.306008
  0
LINE
  5
1BD
330
1F
100
AcDbEntity
  8
Isometric$7
  6
Continuous
 62
    18
370
    35
100
AcDbLine
 10
169.666667
 20
-228.466667
 30
-398.133333
 11
169.866667
 21
-228.066667
 31
-397.933333
  0
LINE
  5
1BE
330
1F
100
AcDbEntity
  8
Isometric$7
  6
Continuous
 62
    18
370
    35
100
AcDbLine
 10
169.666667
 20
-229.466667
 30
-399.133333
 11
172.733333
 21
-232.533333
 31
-405.266667
  0
LINE
  5
1BF
330
1F
100
AcDbEntity
  8
Isometric$7
  6
Continuous
 62
   155
370
    35
100
AcDbLine
 10
172.733333
 20
-232.533333
 30
-405.266667
 11
173.266667
 21
-232.266667
 31
-405.533333
  0
LINE
  5
1C0
330
1F
100
AcDbEntity
  8
Isometric$7
  6
Continuous
 62
   155
370
    35
100
AcDbLine
 10
170.2
 20
-229.2
 30
-399.4
 11
169.666667
 21
-229.466667
 31
-399.133333
  0
LINE
  5
1C1
330
1F
100
AcDbEntity
  8
Isometric$7
  6
Continuous
 62
   155
370
    35
100
AcDbLine
 10
169.666667
 20
-228.466667
 30
-398.133333
 11
170.2
 21
-228.2
 31
-398.4
  0
LINE
  5
1C2
330
1F
100
AcDbEntity
  8
Isometric$7
  6
Continuous
 62
   155
370
    35
100
AcDbLine
 10
168.8
 20
-229.4
 30
-398.2
 11
48.266667
 21
-289.666667
 31
-337.933333
  0
LINE
  5
1C3
330
1F
100
AcDbEntity
  8
Isometric$7
  6
Continuous
 62
   155
370
    35
100
AcDbLine
 10
48.266667
 20
-288.066667
 30
-336.333333
 11
168.8
 21
-227.8
 31
-396.6
  0
LINE
  5
1C4
330
1F
100
AcDbEntity
  8
Isometric$7
  6
Continuous
 62
   155
370
    35
100
AcDbLine
 10
168.8
 20
-227.8
 30
-396.6
 11
227.266
 21
-110.868
 31
-338.134
  0
LINE
  5
1C5
330
1F
100
AcDbEntity
  8
Isometric$7
  6
Continuous
 62
    18
370
    35
100
AcDbLine
 10
170.4
 20
-227.8
 30
-398.2
 11
169.866667
 21
-228.066667
 31
-397.933333
  0
LINE
  5
1C6
330
1F
100
AcDbEntity
  8
Isometric$7
  6
Continuous
 62
    18
370
    35
100
AcDbLine
 10
168.8
 20
-229.4
 30
-398.2
 11
172.2
 21
-232.8
 31
-405.0
  0
LINE
  5
1C7
330
1F
100
AcDbEntity
  8
Isometric$7
  6
Continuous
 62
   155
370
    35
100
AcDbLine
 10
172.2
 20
-232.8
 30
-405.0
 11
172.466667
 21
-232.266667
 31
-404.733333
  0
LINE
  5
1C8
330
1F
100
AcDbEntity
  8
Isometric$7
  6
Continuous
 62
    18
370
    35
100
AcDbLine
 10
169.066667
 20
-228.866667
 30
-397.933333
 11
169.666714
 21
-229.466714
 31
-399.133427
  0
LINE
  5
1C9
330
1F
100
AcDbEntity
  8
Isometric$7
  6
Continuous
 62
    18
370
    35
100
AcDbLine
 10
168.8
 20
-227.8
 30
-396.6
 11
169.066667
 21
-228.066667
 31
-397.133333
  0
LINE
  5
1CA
330
1F
100
AcDbEntity
  8
Isometric$7
  6
Continuous
 62
    18
370
    35
100
AcDbLine
 10
170.4
 20
-227.8
 30
-398.2
 11
170.2
 21
-228.2
 31
-398.4
  0
LINE
  5
1CB
330
1F
100
AcDbEntity
  8
Isometric$7
  6
Continuous
 62
    18
370
    35
100
AcDbLine
 10
170.2
 20
-229.2
 30
-399.4
 11
173.266667
 21
-232.266667
 31
-405.533333
  0
LINE
  5
1CC
330
1F
100
AcDbEntity
  8
Isometric$7
  6
Continuous
 62
    18
370
    35
100
AcDbLine
 10
232.266
 20
-116.268
 30
-348.534
 11
174.6
 21
-231.6
 31
-406.2
  0
LINE
  5
1CD
330
1F
100
AcDbEntity
  8
Isometric$7
  6
Continuous
 62
    18
370
    35
100
AcDbLine
 10
228.866
 20
-110.868
 30
-339.734
 11
232.266
 21
-114.268
 31
-346.534
  0
LINE
  5
1CE
330
1F
100
AcDbEntity
  8
Isometric$7
  6
Continuous
 62
   155
370
    35
100
AcDbLine
 10
228.866
 20
-110.868
 30
-339.734
 11
170.4
 21
-227.8
 31
-398.2
  0
LINE
  5
1CF
330
1F
100
AcDbEntity
  8
Isometric$7
  6
Continuous
 62
    18
370
    35
100
AcDbLine
 10
271.066
 20
-28.868
 30
-299.934
 11
229.665266
 21
-111.669469
 31
-341.334734
  0
LINE
  5
1D0
330
1F
100
AcDbEntity
  8
Isometric$7
  6
Continuous
 62
    18
370
    35
100
AcDbLine
 10
-145.066667
 20
146.566667
 30
291.633333
 11
-145.4
 21
146.4
 31
291.8
  0
LINE
  5
1D1
330
1F
100
AcDbEntity
  8
Isometric$7
  6
Continuous
 62
   155
370
    35
100
AcDbLine
 10
-145.666667
 20
146.666667
 30
292.333333
 11
-145.4
 21
146.4
 31
291.8
  0
LINE
  5
1D2
330
1F
100
AcDbEntity
  8
Isometric$7
  6
Continuous
 62
   155
370
    35
100
AcDbLine
 10
-145.066667
 20
146.566667
 30
291.633333
 11
-145.333333
 21
146.833333
 31
292.166667
  0
LINE
  5
1D3
330
1F
100
AcDbEntity
  8
Isometric$7
  6
Continuous
 62
   155
370
    35
100
AcDbLine
 10
-89.148333
 20
207.725833
 30
296.874167
 11
-89.265833
 21
207.667083
 31
296.932917
  0
LINE
  5
1D4
330
1F
100
AcDbEntity
  8
Isometric$7
  6
Continuous
 62
    18
370
    35
100
AcDbLine
 10
-145.333333
 20
146.833333
 30
292.166667
 11
-145.666667
 21
146.666667
 31
292.333333
  0
LINE
  5
1D5
330
1F
100
AcDbEntity
  8
Isometric$7
  6
Continuous
 62
    18
370
    35
100
AcDbLine
 10
-147.516383
 20
147.316383
 30
294.832767
 11
-145.618902
 21
145.418902
 31
291.037804
  0
LINE
  5
1D6
330
1F
100
AcDbEntity
  8
Isometric$7
  6
Continuous
 62
    18
370
    35
100
AcDbLine
 10
-89.180525
 20
207.559738
 30
296.740263
 11
-89.367713
 21
207.466144
 31
296.833856
  0
LINE
  5
1D7
330
1F
100
AcDbEntity
  8
Isometric$7
  6
Continuous
 62
   155
370
    35
100
AcDbLine
 10
-177.399896
 20
148.900208
 30
326.300104
 11
-177.466542
 21
148.766917
 31
326.233458
  0
LINE
  5
1D8
330
1F
100
AcDbEntity
  8
Isometric$7
  6
Continuous
 62
    18
370
    35
100
AcDbLine
 10
159.799333
 20
-201.601333
 30
-361.400667
 11
159.132667
 21
-202.934667
 31
-362.067333
  0
LINE
  5
1D9
330
1F
100
AcDbEntity
  8
Isometric$7
  6
Continuous
 62
   155
370
    35
100
AcDbLine
 10
160.332667
 20
-201.334667
 30
-361.667333
 11
159.799333
 21
-201.601333
 31
-361.400667
  0
LINE
  5
1DA
330
1F
100
AcDbEntity
  8
Isometric$7
  6
Continuous
 62
    18
370
    35
100
AcDbLine
 10
173.799333
 20
-207.601333
 30
-381.400667
 11
179.132667
 21
-196.934667
 31
-376.067333
  0
LINE
  5
1DB
330
1F
100
AcDbEntity
  8
Isometric$7
  6
Continuous
 62
   155
370
    35
100
AcDbLine
 10
179.132667
 20
-196.934667
 30
-376.067333
 11
178.866
 21
-196.668
 31
-375.534
  0
LINE
  5
1DC
330
1F
100
AcDbEntity
  8
Isometric$7
  6
Continuous
 62
   155
370
    35
100
AcDbLine
 10
173.532667
 20
-207.334667
 30
-380.867333
 11
173.799333
 21
-207.601333
 31
-381.400667
  0
LINE
  5
1DD
330
1F
100
AcDbEntity
  8
Isometric$7
  6
Continuous
 62
   155
370
    35
100
AcDbLine
 10
159.132667
 20
-202.934667
 30
-362.067333
 11
159.666
 21
-202.668
 31
-362.334
  0
LINE
  5
1DE
330
1F
100
AcDbEntity
  8
Isometric$7
  6
Continuous
 62
    18
370
    35
100
AcDbLine
 10
173.532667
 20
-207.334667
 30
-380.867333
 11
178.866
 21
-196.668
 31
-375.534
  0
LINE
  5
1DF
330
1F
100
AcDbEntity
  8
Isometric$7
  6
Continuous
 62
    18
370
    35
100
AcDbLine
 10
178.199333
 20
-196.001333
 30
-374.200667
 11
169.266
 21
-200.468
 31
-369.734
  0
LINE
  5
1E0
330
1F
100
AcDbEntity
  8
Isometric$7
  6
Continuous
 62
   155
370
    35
100
AcDbLine
 10
169.266
 20
-200.468
 30
-369.734
 11
162.599333
 21
-213.801333
 31
-376.400667
  0
LINE
  5
1E1
330
1F
100
AcDbEntity
  8
Isometric$7
  6
Continuous
 62
    18
370
    35
100
AcDbLine
 10
168.466
 20
-200.468
 30
-368.934
 11
166.332667
 21
-198.334667
 31
-364.667333
  0
LINE
  5
1E2
330
1F
100
AcDbEntity
  8
Isometric$7
  6
Continuous
 62
    18
370
    35
100
AcDbLine
 10
160.332667
 20
-201.334667
 30
-361.667333
 11
159.666
 21
-202.668
 31
-362.334
  0
LINE
  5
1E3
330
1F
100
AcDbEntity
  8
Isometric$7
  6
Continuous
 62
   155
370
    35
100
AcDbLine
 10
168.466
 20
-200.468
 30
-368.934
 11
161.799333
 21
-213.801333
 31
-375.600667
  0
LINE
  5
1E4
330
1F
100
AcDbEntity
  8
Isometric$7
  6
Continuous
 62
    18
370
    35
100
AcDbLine
 10
162.866
 20
-214.068
 30
-376.934
 11
171.799333
 21
-209.601333
 31
-381.400667
  0
LINE
  5
1E5
330
1F
100
AcDbEntity
  8
Isometric$7
  6
Continuous
 62
   155
370
    35
100
AcDbLine
 10
171.799333
 20
-209.601333
 30
-381.400667
 11
171.532667
 21
-209.334667
 31
-380.867333
  0
LINE
  5
1E6
330
1F
100
AcDbEntity
  8
Isometric$7
  6
Continuous
 62
    18
370
    35
100
AcDbLine
 10
162.599333
 20
-213.801333
 30
-376.400667
 11
171.532667
 21
-209.334667
 31
-380.867333
  0
LINE
  5
1E7
330
1F
100
AcDbEntity
  8
Isometric$7
  6
Continuous
 62
    18
370
    35
100
AcDbLine
 10
161.799333
 20
-213.801333
 30
-375.600667
 11
159.666
 21
-211.668
 31
-371.334
  0
LINE
  5
1E8
330
1F
100
AcDbEntity
  8
Isometric$7
  6
Continuous
 62
   155
370
    35
100
AcDbLine
 10
159.666
 20
-211.668
 30
-371.334
 11
159.132667
 21
-211.934667
 31
-371.067333
  0
LINE
  5
1E9
330
1F
100
AcDbEntity
  8
Isometric$7
  6
Continuous
 62
    18
370
    35
100
AcDbLine
 10
161.266
 20
-214.068
 30
-375.334
 11
159.132667
 21
-211.934667
 31
-371.067333
  0
LINE
  5
1EA
330
1F
100
AcDbEntity
  8
Isometric$7
  6
Continuous
 62
   155
370
    35
100
AcDbLine
 10
-217.266146
 20
128.866146
 30
346.132292
 11
-217.533333
 21
129.133333
 31
346.666667
  0
LINE
  5
1EB
330
1F
100
AcDbEntity
  8
Isometric$7
  6
Continuous
 62
    18
370
    35
100
AcDbLine
 10
-149.0
 20
145.0
 30
294.0
 11
-146.976667
 21
142.976667
 31
289.953333
  0
LINE
  5
1EC
330
1F
100
AcDbEntity
  8
Isometric$7
  6
Continuous
 62
    18
370
    35
100
AcDbLine
 10
-144.241875
 20
140.241875
 30
284.48375
 11
-135.666667
 21
131.666667
 31
267.333333
  0
LINE
  5
1ED
330
1F
100
AcDbEntity
  8
Isometric$7
  6
Continuous
 62
   155
370
    35
100
AcDbLine
 10
-135.933333
 20
131.133333
 30
267.066667
 11
-135.666667
 21
131.666667
 31
267.333333
  0
LINE
  5
1EE
330
1F
100
AcDbEntity
  8
Isometric$7
  6
Continuous
 62
   155
370
    35
100
AcDbLine
 10
-149.0
 20
145.0
 30
294.0
 11
-149.266667
 21
144.466667
 31
293.733333
  0
LINE
  5
1EF
330
1F
100
AcDbEntity
  8
Isometric$7
  6
Continuous
 62
    18
370
    35
100
AcDbLine
 10
-130.6
 20
133.8
 30
264.4
 11
-143.933333
 21
147.133333
 31
291.066667
  0
LINE
  5
1F0
330
1F
100
AcDbEntity
  8
Isometric$7
  6
Continuous
 62
    18
370
    35
100
AcDbLine
 10
-149.266667
 20
144.466667
 30
293.733333
 11
-147.262083
 21
142.462083
 31
289.724167
  0
LINE
  5
1F1
330
1F
100
AcDbEntity
  8
Isometric$7
  6
Continuous
 62
    18
370
    35
100
AcDbLine
 10
-144.527083
 20
139.727083
 30
284.254167
 11
-135.933333
 21
131.133333
 31
267.066667
  0
LINE
  5
1F2
330
1F
100
AcDbEntity
  8
Isometric$7
  6
Continuous
 62
    18
370
    35
100
AcDbLine
 10
181.733333
 20
-119.533333
 30
-301.266667
 11
169.385333
 21
-125.707333
 31
-295.092667
  0
LINE
  5
1F3
330
1F
100
AcDbEntity
  8
Isometric$7
  6
Continuous
 62
    18
370
    35
100
AcDbLine
 10
200.733333
 20
-136.533333
 30
-337.266667
 11
183.733333
 21
-119.533333
 31
-303.266667
  0
LINE
  5
1F4
330
1F
100
AcDbEntity
  8
Isometric$7
  6
Continuous
 62
    18
370
    35
100
AcDbLine
 10
202.733333
 20
-136.533333
 30
-339.266667
 11
217.0
 21
-129.4
 31
-346.4
  0
LINE
  5
1F5
330
1F
100
AcDbEntity
  8
Isometric$7
  6
Continuous
 62
   155
370
    35
100
AcDbLine
 10
-217.533333
 20
128.333333
 30
345.866667
 11
93.106771
 21
-182.306771
 31
-275.413542
  0
LINE
  5
1F6
330
1F
100
AcDbEntity
  8
Isometric$7
  6
Continuous
 62
    18
370
    35
100
AcDbLine
 10
-36.933333
 20
306.133333
 30
343.066667
 11
276.4
 21
-7.2
 31
-283.6
  0
LINE
  5
1F7
330
1F
100
AcDbEntity
  8
Isometric$7
  6
Continuous
 62
    18
370
    35
100
AcDbLine
 10
218.6
 20
-127.8
 30
-346.4
 11
276.4
 21
-12.2
 31
-288.6
  0
LINE
  5
1F8
330
1F
100
AcDbEntity
  8
Isometric$7
  6
Continuous
 62
   155
370
    35
100
AcDbLine
 10
-98.066667
 20
188.866667
 30
286.933333
 11
218.6
 21
-127.8
 31
-346.4
  0
LINE
  5
1F9
330
1F
100
AcDbEntity
  8
Isometric$7
  6
Continuous
 62
   155
370
    35
100
AcDbLine
 10
217.0
 20
-129.4
 30
-346.4
 11
-99.666667
 21
187.266667
 31
286.933333
  0
LINE
  5
1FA
330
1F
100
AcDbEntity
  8
Isometric$7
  6
Continuous
 62
    18
370
    35
100
AcDbLine
 10
-217.533333
 20
129.133333
 30
346.666667
 11
-159.733333
 21
244.733333
 31
404.466667
  0
LINE
  5
1FB
330
1F
100
AcDbEntity
  8
Isometric$7
  6
Continuous
 62
   155
370
    35
100
AcDbLine
 10
-159.733333
 20
244.733333
 30
404.466667
 11
-160.266667
 21
244.466667
 31
404.733333
  0
LINE
  5
1FC
330
1F
100
AcDbEntity
  8
Isometric$7
  6
Continuous
 62
    18
370
    35
100
AcDbLine
 10
-218.066667
 20
128.866667
 30
346.933333
 11
-160.266667
 21
244.466667
 31
404.733333
  0
LINE
  5
1FD
330
1F
100
AcDbEntity
  8
Isometric$7
  6
Continuous
 62
    18
370
    35
100
AcDbLine
 10
-99.666667
 20
187.266667
 30
286.933333
 11
-217.533333
 21
128.333333
 31
345.866667
  0
LINE
  5
1FE
330
1F
100
AcDbEntity
  8
Isometric$7
  6
Continuous
 62
    18
370
    35
100
AcDbLine
 10
-98.066667
 20
188.866667
 30
286.933333
 11
-40.266667
 21
304.466667
 31
344.733333
  0
LINE
  5
1FF
330
1F
100
AcDbEntity
  8
Isometric$7
  6
Continuous
 62
   155
370
    35
100
AcDbLine
 10
-40.266667
 20
304.466667
 30
344.733333
 11
-40.8
 21
304.2
 31
345.0
  0
LINE
  5
200
330
1F
100
AcDbEntity
  8
Isometric$7
  6
Continuous
 62
    18
370
    35
100
AcDbLine
 10
-98.6
 20
188.6
 30
287.2
 11
-40.8
 21
304.2
 31
345.0
  0
LINE
  5
201
330
1F
100
AcDbEntity
  8
Isometric$7
  6
Continuous
 62
    18
370
    35
100
AcDbLine
 10
-99.4
 20
187.8
 30
287.2
 11
-217.266667
 21
128.866667
 31
346.133333
  0
ARC
  5
202
330
1F
100
AcDbEntity
  8
Front$5
  6
Continuous
 62
    18
370
    35
100
AcDbCircle
 10
-64.6
 20
-473.6
 30
0.0
 40
0.8
210
0.0
220
1.0
230
0.0
100
AcDbArc
 50
270.0
 51
360.0
  0
ARC
  5
203
330
1F
100
AcDbEntity
  8
Front$5
  6
Continuous
 62
    18
370
    35
100
AcDbCircle
 10
-64.6
 20
-473.6
 30
0.0
 40
1.6
210
0.0
220
1.0
230
0.0
100
AcDbArc
 50
270.0
 51
360.0
  0
ARC
  5
204
330
1F
100
AcDbEntity
  8
Front$5
  6
Continuous
 62
    18
370
    35
100
AcDbCircle
 10
0.0
 20
439.0
 30
0.0
 40
4.0
210
0.0
220
1.0
230
0.0
100
AcDbArc
 50
0.0
 51
180.0
  0
ARC
  5
205
330
1F
100
AcDbEntity
  8
Front$5
  6
Continuous
 62
    18
370
    35
100
AcDbCircle
 10
0.0
 20
399.0
 30
0.0
 40
4.0
210
0.0
220
1.0
230
0.0
100
AcDbArc
 50
180.0
 51
0.0
  0
ARC
  5
206
330
1F
100
AcDbEntity
  8
Front$5
  6
Continuous
 62
    18
370
    35
100
AcDbCircle
 10
-67.0
 20
-473.0
 30
0.0
 40
2.0
210
0.0
220
-1.0
230
0.0
100
AcDbArc
 50
315.572344
 51
0.0
  0
ARC
  5
207
330
1F
100
AcDbEntity
  8
Front$5
  6
Continuous
 62
    18
370
    35
100
AcDbCircle
 10
63.0
 20
-422.0
 30
0.0
 40
2.0
210
0.0
220
1.0
230
0.0
100
AcDbArc
 50
0.0
 51
90.0
  0
ARC
  5
208
330
1F
100
AcDbEntity
  8
Front$5
  6
Continuous
 62
    18
370
    35
100
AcDbCircle
 10
-63.0
 20
-422.0
 30
0.0
 40
2.0
210
0.0
220
1.0
230
0.0
100
AcDbArc
 50
90.0
 51
180.0
  0
ARC
  5
209
330
1F
100
AcDbEntity
  8
Front$5
  6
Continuous
 62
    18
370
    35
100
AcDbCircle
 10
67.0
 20
-473.0
 30
0.0
 40
2.0
210
0.0
220
-1.0
230
0.0
100
AcDbArc
 50
180.0
 51
224.427656
  0
ARC
  5
20A
330
1F
100
AcDbEntity
  8
Front$5
  6
Continuous
 62
    18
370
    35
100
AcDbCircle
 10
-87.6
 20
-474.4
 30
0.0
 40
0.8000000000000002
210
0.0
220
-1.0
230
0.0
100
AcDbArc
 50
228.590156
 51
270.0
  0
ARC
  5
20B
330
1F
100
AcDbEntity
  8
Front$5
  6
Continuous
 62
    18
370
    35
100
AcDbCircle
 10
-87.6
 20
-474.4
 30
0.0
 40
1.6
210
0.0
220
-1.0
230
0.0
100
AcDbArc
 50
202.024687
 51
210.000937
  0
ARC
  5
20C
330
1F
100
AcDbEntity
  8
Front$5
  6
Continuous
 62
    18
370
    35
100
AcDbCircle
 10
87.2
 20
-474.4
 30
0.0
 40
1.6
210
0.0
220
-1.0
230
0.0
100
AcDbArc
 50
329.999062
 51
337.975313
  0
ARC
  5
20D
330
1F
100
AcDbEntity
  8
Front$5
  6
Continuous
 62
    18
370
    35
100
AcDbCircle
 10
87.2
 20
-474.4
 30
0.0
 40
0.8000000000000002
210
0.0
220
-1.0
230
0.0
100
AcDbArc
 50
270.0
 51
311.409844
  0
ARC
  5
20E
330
1F
100
AcDbEntity
  8
Front$5
  6
Continuous
 62
    18
370
    35
100
AcDbCircle
 10
-90.6
 20
-476.8
 30
0.0
 40
0.7999999999999956
210
0.0
220
-1.0
230
0.0
100
AcDbArc
 50
90.0
 51
180.0
  0
ARC
  5
20F
330
1F
100
AcDbEntity
  8
Front$5
  6
Continuous
 62
    18
370
    35
100
AcDbCircle
 10
-90.6
 20
-476.8
 30
0.0
 40
1.599999999999995
210
0.0
220
-1.0
230
0.0
100
AcDbArc
 50
90.0
 51
180.0
  0
ARC
  5
210
330
1F
100
AcDbEntity
  8
Front$5
  6
Continuous
 62
    18
370
    35
100
AcDbCircle
 10
-90.2
 20
-476.8
 30
0.0
 40
0.7999999999999956
210
0.0
220
1.0
230
0.0
100
AcDbArc
 50
90.0
 51
180.0
  0
ARC
  5
211
330
1F
100
AcDbEntity
  8
Front$5
  6
Continuous
 62
    18
370
    35
100
AcDbCircle
 10
-65.0
 20
-473.6
 30
0.0
 40
1.6
210
0.0
220
-1.0
230
0.0
100
AcDbArc
 50
270.0
 51
360.0
  0
ARC
  5
212
330
1F
100
AcDbEntity
  8
Front$5
  6
Continuous
 62
    18
370
    35
100
AcDbCircle
 10
-65.0
 20
-473.6
 30
0.0
 40
0.8
210
0.0
220
-1.0
230
0.0
100
AcDbArc
 50
270.0
 51
360.0
  0
ARC
  5
213
330
1F
100
AcDbEntity
  8
Front$5
  6
Continuous
 62
    18
370
    35
100
AcDbCircle
 10
88.2
 20
-487.0
 30
0.0
 40
2.0
210
0.0
220
-1.0
230
0.0
100
AcDbArc
 50
270.0
 51
0.0
  0
ARC
  5
214
330
1F
100
AcDbEntity
  8
Front$5
  6
Continuous
 62
    18
370
    35
100
AcDbCircle
 10
-88.6
 20
-487.0
 30
0.0
 40
2.0
210
0.0
220
-1.0
230
0.0
100
AcDbArc
 50
180.0
 51
270.0
  0
ARC
  5
215
330
1F
100
AcDbEntity
  8
Front$5
  6
Continuous
 62
    18
370
    35
100
AcDbCircle
 10
-90.2
 20
-476.8
 30
0.0
 40
1.599999999999995
210
0.0
220
1.0
230
0.0
100
AcDbArc
 50
90.0
 51
180.0
  0
CIRCLE
  5
216
330
1F
100
AcDbEntity
  8
ORTHO$6
  6
Continuous
 62
    18
370
    35
100
AcDbCircle
 10
13.0
 20
383.0
 30
0.0
 40
1.75
210
1.0
220
0.0
230
0.0
  0
CIRCLE
  5
217
330
1F
100
AcDbEntity
  8
ORTHO$6
  6
Continuous
 62
    18
370
    35
100
AcDbCircle
 10
93.0
 20
383.0
 30
0.0
 40
1.75
210
1.0
220
0.0
230
0.0
  0
ARC
  5
218
330
1F
100
AcDbEntity
  8
ORTHO$6
  6
Continuous
 62
    18
370
    35
100
AcDbCircle
 10
-174.2
 20
470.0
 30
0.0
 40
5.0
210
-1.0
220
0.0
230
0.0
100
AcDbArc
 50
90.0
 51
180.0
  0
ARC
  5
219
330
1F
100
AcDbEntity
  8
ORTHO$6
  6
Continuous
 62
    18
370
    35
100
AcDbCircle
 10
-174.2
 20
-470.0
 30
0.0
 40
5.0
210
-1.0
220
0.0
230
0.0
100
AcDbArc
 50
180.0
 51
270.0
  0
CIRCLE
  5
21A
330
1F
100
AcDbEntity
  8
ORTHO$6
  6
Continuous
 62
    18
370
    35
100
AcDbCircle
 10
13.0
 20
-70.0
 30
0.0
 40
1.75
210
1.0
220
0.0
230
0.0
  0
CIRCLE
  5
21B
330
1F
100
AcDbEntity
  8
ORTHO$6
  6
Continuous
 62
    18
370
    35
100
AcDbCircle
 10
93.0
 20
-70.0
 30
0.0
 40
1.75
210
1.0
220
0.0
230
0.0
  0
ARC
  5
21C
330
1F
100
AcDbEntity
  8
ORTHO$6
  6
Continuous
 62
    18
370
    35
100
AcDbCircle
 10
-178.4
 20
473.4
 30
0.0
 40
1.600000000000007
210
-1.0
220
0.0
230
0.0
100
AcDbArc
 50
90.0
 51
180.0
  0
ARC
  5
21D
330
1F
100
AcDbEntity
  8
ORTHO$6
  6
Continuous
 62
    18
370
    35
100
AcDbCircle
 10
-178.4
 20
473.4
 30
0.0
 40
0.8000000000000071
210
-1.0
220
0.0
230
0.0
100
AcDbArc
 50
90.0
 51
180.0
  0
ARC
  5
21E
330
1F
100
AcDbEntity
  8
ORTHO$6
  6
Continuous
 62
    18
370
    35
100
AcDbCircle
 10
-10.902447
 20
-423.95579
 30
0.0
 40
1.600000000000002
210
1.0
220
0.0
230
0.0
100
AcDbArc
 50
347.99875
 51
8.0
  0
ARC
  5
21F
330
1F
100
AcDbEntity
  8
ORTHO$6
  6
Continuous
 62
    18
370
    35
100
AcDbCircle
 10
-10.902447
 20
-423.95579
 30
0.0
 40
0.8000000000000016
210
1.0
220
0.0
230
0.0
100
AcDbArc
 50
288.0
 51
8.0
  0
ARC
  5
220
330
1F
100
AcDbEntity
  8
ORTHO$6
  6
Continuous
 62
    18
370
    35
100
AcDbCircle
 10
133.35567
 20
-467.77236
 30
0.0
 40
3.0
210
-1.0
220
0.0
230
0.0
100
AcDbArc
 50
267.819194
 51
342.0
  0
ARC
  5
221
330
1F
100
AcDbEntity
  8
ORTHO$6
  6
Continuous
 62
    18
370
    35
100
AcDbCircle
 10
106.802
 20
-467.2
 30
0.0
 40
9.000000000000002
210
-1.0
220
0.0
230
0.0
100
AcDbArc
 50
0.0
 51
90.0
  0
ARC
  5
222
330
1F
100
AcDbEntity
  8
ORTHO$6
  6
Continuous
 62
    18
370
    35
100
AcDbCircle
 10
104.802
 20
-467.2
 30
0.0
 40
9.000000000000002
210
-1.0
220
0.0
230
0.0
100
AcDbArc
 50
90.0
 51
180.0
  0
CIRCLE
  5
223
330
1F
100
AcDbEntity
  8
ORTHO$6
  6
Continuous
 62
    18
370
    35
100
AcDbCircle
 10
-144.2
 20
-461.0
 30
0.0
 40
1.75
210
-1.0
220
0.0
230
0.0
  0
CIRCLE
  5
224
330
1F
100
AcDbEntity
  8
ORTHO$6
  6
Continuous
 62
    18
370
    35
100
AcDbCircle
 10
-89.2
 20
-461.0
 30
0.0
 40
1.75
210
-1.0
220
0.0
230
0.0
  0
CIRCLE
  5
225
330
1F
100
AcDbEntity
  8
ORTHO$6
  6
Continuous
 62
    18
370
    35
100
AcDbCircle
 10
-34.2
 20
-461.0
 30
0.0
 40
1.75
210
-1.0
220
0.0
230
0.0
  0
ARC
  5
226
330
1F
100
AcDbEntity
  8
ORTHO$6
  6
Continuous
 62
    18
370
    35
100
AcDbCircle
 10
-149.2
 20
-476.8
 30
0.0
 40
1.599999999999995
210
1.0
220
0.0
230
0.0
100
AcDbArc
 50
90.0
 51
180.0
  0
ARC
  5
227
330
1F
100
AcDbEntity
  8
ORTHO$6
  6
Continuous
 62
    18
370
    35
100
AcDbCircle
 10
-149.2
 20
-476.8
 30
0.0
 40
0.7999999999999956
210
1.0
220
0.0
230
0.0
100
AcDbArc
 50
90.0
 51
180.0
  0
ARC
  5
228
330
1F
100
AcDbEntity
  8
ORTHO$6
  6
Continuous
 62
    18
370
    35
100
AcDbCircle
 10
-177.6
 20
-476.8
 30
0.0
 40
0.7999999999999956
210
-1.0
220
0.0
230
0.0
100
AcDbArc
 50
90.0
 51
180.0
  0
ARC
  5
229
330
1F
100
AcDbEntity
  8
ORTHO$6
  6
Continuous
 62
    18
370
    35
100
AcDbCircle
 10
-177.6
 20
-476.8
 30
0.0
 40
1.599999999999995
210
-1.0
220
0.0
230
0.0
100
AcDbArc
 50
90.0
 51
180.0
  0
ARC
  5
22A
330
1F
100
AcDbEntity
  8
ORTHO$6
  6
Continuous
 62
    18
370
    35
100
AcDbCircle
 10
149.8
 20
-477.8
 30
0.0
 40
1.0
210
-1.0
220
0.0
230
0.0
100
AcDbArc
 50
0.0
 51
90.0
  0
ARC
  5
22B
330
1F
100
AcDbEntity
  8
ORTHO$6
  6
Continuous
 62
    18
370
    35
100
AcDbCircle
 10
-24.198
 20
-487.0
 30
0.0
 40
2.0
210
-1.0
220
0.0
230
0.0
100
AcDbArc
 50
180.0
 51
270.0
  0
ARC
  5
22C
330
1F
100
AcDbEntity
  8
ORTHO$6
  6
Continuous
 62
    18
370
    35
100
AcDbCircle
 10
148.8
 20
-487.0
 30
0.0
 40
2.0
210
-1.0
220
0.0
230
0.0
100
AcDbArc
 50
270.0
 51
0.0
  0
ARC
  5
22D
330
1F
100
AcDbEntity
  8
ORTHO$6
  6
Continuous
 62
    18
370
    35
100
AcDbCircle
 10
-154.202
 20
-487.0
 30
0.0
 40
2.0
210
-1.0
220
0.0
230
0.0
100
AcDbArc
 50
270.0
 51
0.0
  0
ARC
  5
22E
330
1F
100
AcDbEntity
  8
ORTHO$6
  6
Continuous
 62
    18
370
    35
100
AcDbCircle
 10
-178.2
 20
-477.8
 30
0.0
 40
1.0
210
-1.0
220
0.0
230
0.0
100
AcDbArc
 50
90.0
 51
180.0
  0
ARC
  5
22F
330
1F
100
AcDbEntity
  8
ORTHO$6
  6
Continuous
 62
    18
370
    35
100
AcDbCircle
 10
-177.2
 20
-487.0
 30
0.0
 40
2.0
210
-1.0
220
0.0
230
0.0
100
AcDbArc
 50
180.0
 51
270.0
  0
CIRCLE
  5
230
330
1F
100
AcDbEntity
  8
ORTHO$6
  6
Continuous
 62
    18
370
    35
100
AcDbCircle
 10
13.0
 20
-70.0
 30
0.0
 40
2.0
210
1.0
220
0.0
230
0.0
  0
CIRCLE
  5
231
330
1F
100
AcDbEntity
  8
ORTHO$6
  6
Continuous
 62
    18
370
    35
100
AcDbCircle
 10
13.0
 20
383.0
 30
0.0
 40
2.0
210
1.0
220
0.0
230
0.0
  0
CIRCLE
  5
232
330
1F
100
AcDbEntity
  8
ORTHO$6
  6
Continuous
 62
    18
370
    35
100
AcDbCircle
 10
93.0
 20
-70.0
 30
0.0
 40
2.0
210
1.0
220
0.0
230
0.0
  0
CIRCLE
  5
233
330
1F
100
AcDbEntity
  8
ORTHO$6
  6
Continuous
 62
    18
370
    35
100
AcDbCircle
 10
157.7
 20
431.0
 30
0.0
 40
3.0
210
1.0
220
0.0
230
0.0
  0
CIRCLE
  5
234
330
1F
100
AcDbEntity
  8
ORTHO$6
  6
Continuous
 62
    18
370
    35
100
AcDbCircle
 10
105.802
 20
-465.2
 30
0.0
 40
3.0
210
-1.0
220
0.0
230
0.0
  0
CIRCLE
  5
235
330
1F
100
AcDbEntity
  8
ORTHO$6
  6
Continuous
 62
    18
370
    35
100
AcDbCircle
 10
89.2
 20
-461.0
 30
0.0
 40
2.0
210
1.0
220
0.0
230
0.0
  0
CIRCLE
  5
236
330
1F
100
AcDbEntity
  8
ORTHO$6
  6
Continuous
 62
    18
370
    35
100
AcDbCircle
 10
157.7
 20
-69.0
 30
0.0
 40
3.0
210
1.0
220
0.0
230
0.0
  0
CIRCLE
  5
237
330
1F
100
AcDbEntity
  8
ORTHO$6
  6
Continuous
 62
    18
370
    35
100
AcDbCircle
 10
144.2
 20
-461.0
 30
0.0
 40
2.0
210
1.0
220
0.0
230
0.0
  0
CIRCLE
  5
238
330
1F
100
AcDbEntity
  8
ORTHO$6
  6
Continuous
 62
    18
370
    35
100
AcDbCircle
 10
34.2
 20
-461.0
 30
0.0
 40
2.0
210
1.0
220
0.0
230
0.0
  0
CIRCLE
  5
239
330
1F
100
AcDbEntity
  8
ORTHO$6
  6
Continuous
 62
    18
370
    35
100
AcDbCircle
 10
93.0
 20
383.0
 30
0.0
 40
2.0
210
1.0
220
0.0
230
0.0
  0
ELLIPSE
  5
23A
330
1F
100
AcDbEntity
  8
Front$5
  6
Continuous
 62
    18
370
    35
100
AcDbEllipse
 10
52.0
 20
0.0
 30
-392.709282
 11
-3.0
 21
0.0
 31
0.0
210
0.0
220
-1.0
230
0.0
 40
0.990268
 41
3.141592653589793
 42
4.71238898038469
  0
ELLIPSE
  5
23B
330
1F
100
AcDbEntity
  8
Front$5
  6
Continuous
 62
    18
370
    35
100
AcDbEllipse
 10
-52.0
 20
0.0
 30
-392.709282
 11
-3.0
 21
0.0
 31
0.0
210
0.0
220
-1.0
230
0.0
 40
0.990268
 41
4.712388980384708
 42
6.283185307179586
  0
ELLIPSE
  5
23C
330
1F
100
AcDbEntity
  8
Front$5
  6
Continuous
 62
    18
370
    35
100
AcDbEllipse
 10
52.0
 20
0.0
 30
-392.82062
 11
3.0
 21
0.0
 31
0.0
210
0.0
220
-1.0
230
0.0
 40
0.990268
 41
0.0
 42
1.570796326794897
  0
ELLIPSE
  5
23D
330
1F
100
AcDbEntity
  8
Front$5
  6
Continuous
 62
    18
370
    35
100
AcDbEllipse
 10
-52.0
 20
0.0
 30
-392.82062
 11
3.0
 21
0.0
 31
0.0
210
0.0
220
-1.0
230
0.0
 40
0.990268
 41
1.570796326794897
 42
3.141592653589793
  0
ELLIPSE
  5
23E
330
1F
100
AcDbEntity
  8
Front$5
  6
Continuous
 62
    18
370
    35
100
AcDbEllipse
 10
60.9
 20
0.0
 30
-467.337586
 11
-1.599999999999999
 21
0.0
 31
0.0
210
0.0
220
-1.0
230
0.0
 40
0.951057
 41
3.141592653589793
 42
4.712388980384685
  0
ELLIPSE
  5
23F
330
1F
100
AcDbEntity
  8
Front$5
  6
Continuous
 62
    18
370
    35
100
AcDbEllipse
 10
-60.9
 20
0.0
 30
-467.337586
 11
0.799999999999999
 21
0.0
 31
0.0
210
0.0
220
-1.0
230
0.0
 40
0.951057
 41
1.570796326794897
 42
3.141592653589793
  0
ELLIPSE
  5
240
330
1F
100
AcDbEntity
  8
Front$5
  6
Continuous
 62
    18
370
    35
100
AcDbEllipse
 10
60.9
 20
0.0
 30
-467.337586
 11
-0.799999999999999
 21
0.0
 31
0.0
210
0.0
220
-1.0
230
0.0
 40
0.951057
 41
3.141592653589793
 42
4.71238898038469
  0
ELLIPSE
  5
241
330
1F
100
AcDbEntity
  8
Front$5
  6
Continuous
 62
    18
370
    35
100
AcDbEllipse
 10
-60.9
 20
0.0
 30
-467.337586
 11
1.599999999999999
 21
0.0
 31
0.0
210
0.0
220
-1.0
230
0.0
 40
0.951057
 41
1.570796326794901
 42
3.141592653589793
  0
ELLIPSE
  5
242
330
1F
100
AcDbEntity
  8
Front$5
  6
Continuous
 62
    18
370
    35
100
AcDbEllipse
 10
0.0
 20
0.0
 30
435.167239
 11
-3.0
 21
0.0
 31
0.0
210
0.0
220
-1.0
230
0.0
 40
0.997564
 41
0.0
 42
6.283185307179586
  0
ELLIPSE
  5
243
330
1F
100
AcDbEntity
  8
Isometric$7
  6
Continuous
 62
    18
 60
     1
370
    35
100
AcDbEllipse
 10
-197.167333
 20
165.465333
 30
362.632667
 11
1.131370849898458
 21
0.0
 31
-1.131370849898458
210
0.5773502691896258
220
-0.5773502691896258
230
0.5773502691896258
 40
0.57735
 41
2.357132104271357
 42
3.141595408823991
  0
ELLIPSE
  5
244
330
1F
100
AcDbEntity
  8
Isometric$7
  6
Continuous
 62
    18
370
    35
100
AcDbEllipse
 10
-193.466667
 20
169.466667
 30
362.933333
 11
-1.237436867076458
 21
-1.237436867076458
 31
0.0
210
0.5773502691896258
220
-0.5773502691896258
230
0.5773502691896258
 40
0.57735
 41
3.926990817330161
 42
4.330783647743944
  0
ELLIPSE
  5
245
330
1F
100
AcDbEntity
  8
Isometric$7
  6
Continuous
 62
    18
370
    35
100
AcDbEllipse
 10
-193.466667
 20
169.466667
 30
362.933333
 11
-1.237436867076458
 21
-1.237436867076458
 31
0.0
210
0.5773502691896258
220
-0.5773502691896258
230
0.5773502691896258
 40
0.57735
 41
3.470674484068981
 42
3.926990817330161
  0
ELLIPSE
  5
246
330
1F
100
AcDbEntity
  8
Isometric$7
  6
Continuous
 62
    18
370
    35
100
AcDbEllipse
 10
-193.133333
 20
169.633333
 30
362.766667
 11
1.414213562373095
 21
1.414213562373095
 31
0.0
210
0.5773502691896258
220
-0.5773502691896258
230
0.5773502691896258
 40
0.57735
 41
1.421177976667686
 42
2.810743677239357
  0
ELLIPSE
  5
247
330
1F
100
AcDbEntity
  8
Isometric$7
  6
Continuous
 62
    18
370
    35
100
AcDbEllipse
 10
-193.733333
 20
169.733333
 30
363.466667
 11
-1.237436867076458
 21
-1.237436867076458
 31
0.0
210
0.5773502691896258
220
-0.5773502691896258
230
0.5773502691896258
 40
0.57735
 41
0.0
 42
6.283185307179586
  0
ELLIPSE
  5
248
330
1F
100
AcDbEntity
  8
Isometric$7
  6
Continuous
 62
    18
 60
     1
370
    35
100
AcDbEllipse
 10
-194.201
 20
171.9995
 30
366.2005
 11
-0.7071070920026531
 21
-0.7071067811867399
 31
3.108159132200939E-7
210
0.5773502691896257
220
-0.5773502691896258
230
0.5773502691896257
 40
0.57735
 41
3.926991256547337
 42
5.443005149153452
  0
ELLIPSE
  5
249
330
1F
100
AcDbEntity
  8
Isometric$7
  6
Continuous
 62
    18
 60
     1
370
    35
100
AcDbEllipse
 10
-197.534333
 20
165.332833
 30
362.867167
 11
-0.7071070920029061
 21
-0.707106781186934
 31
3.108159719609711E-7
210
0.5773502691896256
220
-0.5773502691896258
230
0.5773502691896256
 40
0.57735
 41
5.552570017532688
 42
6.283667720699316
  0
ELLIPSE
  5
24A
330
1F
100
AcDbEntity
  8
Isometric$7
  6
Continuous
 62
    18
 60
     1
370
    35
100
AcDbEllipse
 10
-193.4
 20
170.4
 30
363.8
 11
-3.535533905932738
 21
-3.535533905932738
 31
0.0
210
0.5773502691896258
220
-0.5773502691896258
230
0.5773502691896258
 40
0.57735
 41
3.141592653589752
 42
3.926990816987235
  0
ELLIPSE
  5
24B
330
1F
100
AcDbEntity
  8
Isometric$7
  6
Continuous
 62
    18
370
    35
100
AcDbEllipse
 10
-155.933333
 20
247.933333
 30
403.866667
 11
0.0
 21
-1.131370849898481
 31
-1.131370849898481
210
0.5773502691896258
220
-0.5773502691896258
230
0.5773502691896258
 40
0.57735
 41
3.141592653589781
 42
3.926990816987213
  0
ELLIPSE
  5
24C
330
1F
100
AcDbEntity
  8
Isometric$7
  6
Continuous
 62
    18
370
    35
100
AcDbEllipse
 10
-40.733333
 20
305.533333
 30
346.266667
 11
0.0
 21
-1.131370849898481
 31
-1.131370849898481
210
0.5773502691896258
220
-0.5773502691896258
230
0.5773502691896258
 40
0.57735
 41
2.356194490192363
 42
3.926990816987271
  0
ELLIPSE
  5
24D
330
1F
100
AcDbEntity
  8
Isometric$7
  6
Continuous
 62
    18
370
    35
100
AcDbEllipse
 10
-214.4
 20
131.4
 30
345.8
 11
1.414213562373095
 21
1.414213562373095
 31
0.0
210
0.5773502691896258
220
-0.5773502691896258
230
0.5773502691896258
 40
0.57735
 41
3.141592653589833
 42
3.926990816987273
  0
ELLIPSE
  5
24E
330
1F
100
AcDbEntity
  8
Isometric$7
  6
Continuous
 62
    18
370
    35
100
AcDbEllipse
 10
-40.733333
 20
305.533333
 30
346.266667
 11
1.131370849898476
 21
1.131370849898476
 31
0.0
210
0.5773502691896258
220
-0.5773502691896258
230
0.5773502691896258
 40
0.57735
 41
5.497787143782086
 42
7.068583470576944
  0
ELLIPSE
  5
24F
330
1F
100
AcDbEntity
  8
Isometric$7
  6
Continuous
 62
    18
370
    35
100
AcDbEllipse
 10
-83.866667
 20
224.266667
 30
308.133333
 11
1.237436867076458
 21
1.237436867076458
 31
0.0
210
0.5773502691896258
220
-0.5773502691896258
230
0.5773502691896258
 40
0.57735
 41
0.4973533870901375
 42
2.356194489849423
  0
ELLIPSE
  5
250
330
1F
100
AcDbEntity
  8
Isometric$7
  6
Continuous
 62
    18
370
    35
100
AcDbEllipse
 10
-83.866667
 20
224.266667
 30
308.133333
 11
1.237436867076458
 21
1.237436867076458
 31
0.0
210
0.5773502691896258
220
-0.5773502691896258
230
0.5773502691896258
 40
0.57735
 41
2.356194489849423
 42
2.812510823110597
  0
ELLIPSE
  5
251
330
1F
100
AcDbEntity
  8
Isometric$7
  6
Continuous
 62
    18
 60
     1
370
    35
100
AcDbEllipse
 10
-84.2
 20
223.6
 30
307.8
 11
3.535533905932738
 21
3.535533905932738
 31
0.0
210
0.5773502691896258
220
-0.5773502691896258
230
0.5773502691896258
 40
0.57735
 41
3.141592653589824
 42
3.926990816987251
  0
ELLIPSE
  5
252
330
1F
100
AcDbEntity
  8
Isometric$7
  6
Continuous
 62
    18
370
    35
100
AcDbEllipse
 10
-84.133333
 20
224.533333
 30
308.666667
 11
1.237436867076458
 21
1.237436867076458
 31
0.0
210
0.5773502691896258
220
-0.5773502691896258
230
0.5773502691896258
 40
0.57735
 41
0.0
 42
6.283185307179586
  0
ELLIPSE
  5
253
330
1F
100
AcDbEntity
  8
Isometric$7
  6
Continuous
 62
    18
 60
     1
370
    35
100
AcDbEllipse
 10
-80.332334
 20
228.933833
 30
309.266167
 11
-0.7071070920018767
 21
-0.7071067811858305
 31
3.108160462929696E-7
210
0.5773502691896258
220
-0.5773502691896257
230
0.5773502691896257
 40
0.57735
 41
2.410977363948759
 42
3.9269912565478
  0
ELLIPSE
  5
254
330
1F
100
AcDbEntity
  8
Isometric$7
  6
Continuous
 62
    18
 60
     1
370
    35
100
AcDbEllipse
 10
-83.8
 20
225.2
 30
309.0
 11
-3.535533905932738
 21
-3.535533905932738
 31
0.0
210
0.5773502691896258
220
-0.5773502691896258
230
0.5773502691896258
 40
0.57735
 41
3.926990816987237
 42
5.497787143782141
  0
ELLIPSE
  5
255
330
1F
100
AcDbEntity
  8
Isometric$7
  6
Continuous
 62
    18
 60
     1
370
    35
100
AcDbEllipse
 10
-84.466667
 20
223.866667
 30
308.333333
 11
-3.535533905932738
 21
-3.535533905932738
 31
0.0
210
0.5773502691896258
220
-0.5773502691896258
230
0.5773502691896258
 40
0.57735
 41
5.49778714378213
 42
7.068583470577048
  0
ELLIPSE
  5
256
330
1F
100
AcDbEntity
  8
Isometric$7
  6
Continuous
 62
    18
 60
     1
370
    35
100
AcDbEllipse
 10
-83.665667
 20
222.267167
 30
305.932833
 11
-0.7071070920014997
 21
-0.707106781185427
 31
3.108160727624083E-7
210
0.5773502691896258
220
-0.5773502691896257
230
0.5773502691896258
 40
0.57735
 41
0.7853986029561523
 42
2.301412495557628
  0
ELLIPSE
  5
257
330
1F
100
AcDbEntity
  8
Isometric$7
  6
Continuous
 62
    18
 60
     1
370
    35
100
AcDbEllipse
 10
-83.3995
 20
222.00025
 30
305.39975
 11
-0.7071070920034394
 21
-0.70710678118745
 31
3.108159893658769E-7
210
0.5773502691896257
220
-0.5773502691896258
230
0.5773502691896257
 40
0.57735
 41
0.7853986029587546
 42
2.317460321325025
  0
ELLIPSE
  5
258
330
1F
100
AcDbEntity
  8
Isometric$7
  6
Continuous
 62
    18
370
    35
100
AcDbEllipse
 10
-81.967333
 20
223.065333
 30
305.032667
 11
-1.131370849898473
 21
0.0
 31
1.131370849898473
210
0.5773502691896258
220
-0.5773502691896258
230
0.5773502691896258
 40
0.57735
 41
4.153418407266342
 42
4.351024372717626
  0
ELLIPSE
  5
259
330
1F
100
AcDbEntity
  8
Isometric$7
  6
Continuous
 62
    18
370
    35
100
AcDbEllipse
 10
-79.632667
 20
227.734667
 30
307.367333
 11
1.131370849898473
 21
0.0
 31
-1.131370849898473
210
0.5773502691896258
220
-0.5773502691896258
230
0.5773502691896258
 40
0.57735
 41
1.011825753676592
 42
1.209431719127823
  0
ELLIPSE
  5
25A
330
1F
100
AcDbEntity
  8
Isometric$7
  6
Continuous
 62
    18
370
    35
100
AcDbEllipse
 10
-88.266667
 20
207.666667
 30
295.933333
 11
0.0
 21
-1.414213562373095
 31
-1.414213562373095
210
0.5773502691896258
220
-0.5773502691896258
230
0.5773502691896258
 40
0.57735
 41
3.926990816987242
 42
4.57050189342844
  0
ELLIPSE
  5
25B
330
1F
100
AcDbEntity
  8
Isometric$7
  6
Continuous
 62
    18
370
    35
100
AcDbEllipse
 10
-99.733333
 20
188.733333
 30
288.466667
 11
1.414213562373095
 21
1.414213562373095
 31
0.0
210
0.5773502691896258
220
-0.5773502691896258
230
0.5773502691896258
 40
0.57735
 41
3.926990816987238
 42
5.497787143782146
  0
ELLIPSE
  5
25C
330
1F
100
AcDbEntity
  8
Isometric$7
  6
Continuous
 62
    18
370
    35
100
AcDbEllipse
 10
-100.0
 20
189.0
 30
289.0
 11
-1.414213562373095
 21
-1.414213562373095
 31
0.0
210
0.5773502691896258
220
-0.5773502691896258
230
0.5773502691896258
 40
0.57735
 41
0.7853981633974748
 42
2.356194490192278
  0
ELLIPSE
  5
25D
330
1F
100
AcDbEntity
  8
Isometric$7
  6
Continuous
 62
    18
370
    35
100
AcDbEllipse
 10
-214.666667
 20
131.666667
 30
346.333333
 11
-1.414213562373095
 21
-1.414213562373095
 31
0.0
210
0.5773502691896258
220
-0.5773502691896258
230
0.5773502691896258
 40
0.57735
 41
5.497787143782136
 42
7.068583470577036
  0
ELLIPSE
  5
25E
330
1F
100
AcDbEntity
  8
Isometric$7
  6
Continuous
 62
    18
 60
     1
370
    35
100
AcDbEllipse
 10
-84.466667
 20
224.366667
 30
308.833333
 11
-1.414213562373095
 21
-1.414213562373095
 31
0.0
210
0.5773502691896258
220
-0.5773502691896258
230
0.5773502691896258
 40
0.57735
 41
0.0
 42
6.283185307179586
  0
ELLIPSE
  5
25F
330
1F
100
AcDbEntity
  8
Isometric$7
  6
Continuous
 62
    18
 60
     1
370
    35
100
AcDbEllipse
 10
-193.4
 20
169.9
 30
363.3
 11
1.414213562373095
 21
1.414213562373095
 31
0.0
210
0.5773502691896258
220
-0.5773502691896258
230
0.5773502691896258
 40
0.57735
 41
0.0
 42
6.283185307179586
  0
ELLIPSE
  5
260
330
1F
100
AcDbEntity
  8
Isometric$7
  6
Continuous
 62
    18
370
    35
100
AcDbEllipse
 10
-157.53908
 20
120.08908
 30
277.628159
 11
2.040451055236844
 21
-0.1534096875941833
 31
-2.193860742831027
210
0.5773502691896257
220
-0.5773502691896258
230
0.5773502691896256
 40
0.616218
 41
0.0
 42
6.283185307179586
  0
ELLIPSE
  5
261
330
1F
100
AcDbEntity
  8
Isometric$7
  6
Continuous
 62
    18
370
    35
100
AcDbEllipse
 10
91.677049
 20
-157.355183
 30
-249.032232
 11
-2.246122001269668
 21
-0.2767738350939303
 31
1.969348166175738
210
0.5773502691896257
220
-0.5773502691896257
230
0.5773502691896258
 40
0.49138
 41
5.43707539648883
 42
6.283170111701259
  0
ELLIPSE
  5
262
330
1F
100
AcDbEntity
  8
Isometric$7
  6
Continuous
 62
    18
370
    35
100
AcDbEllipse
 10
69.805563
 20
-265.661233
 30
-335.466797
 11
0.0
 21
-2.121320343559643
 31
-2.121320343559643
210
0.5773502691896258
220
-0.5773502691896258
230
0.5773502691896258
 40
0.57735
 41
5.811946409141126
 42
6.283196726554781
  0
ELLIPSE
  5
263
330
1F
100
AcDbEntity
  8
Isometric$7
  6
Continuous
 62
    18
370
    35
100
AcDbEllipse
 10
70.338897
 20
-265.394566
 30
-335.733463
 11
0.0
 21
2.121320343559643
 31
2.121320343559643
210
0.5773502691896258
220
-0.5773502691896258
230
0.5773502691896258
 40
0.57735
 41
2.670353755551294
 42
3.965053062950754
  0
ELLIPSE
  5
264
330
1F
100
AcDbEntity
  8
Isometric$7
  6
Continuous
 62
    18
370
    35
100
AcDbEllipse
 10
101.017781
 20
-166.920228
 30
-267.938009
 11
0.0
 21
0.5656854249492392
 31
0.5656854249492392
210
0.5773502691896258
220
-0.5773502691896258
230
0.5773502691896258
 40
0.57735
 41
4.241150082346191
 42
5.637413483941688
  0
ELLIPSE
  5
265
330
1F
100
AcDbEntity
  8
Isometric$7
  6
Continuous
 62
    18
370
    35
100
AcDbEllipse
 10
161.010383
 20
-122.688516
 30
-283.698899
 11
-2.246122001269668
 21
-0.2767738350939303
 31
1.969348166175738
210
0.5773502691896257
220
-0.5773502691896257
230
0.5773502691896258
 40
0.49138
 41
3.866279069693933
 42
5.437075396488822
  0
ELLIPSE
  5
266
330
1F
100
AcDbEntity
  8
Isometric$7
  6
Continuous
 62
    18
370
    35
100
AcDbEllipse
 10
174.351114
 20
-130.253561
 30
-304.604676
 11
0.0
 21
0.5656854249492392
 31
0.5656854249492392
210
0.5773502691896258
220
-0.5773502691896258
230
0.5773502691896258
 40
0.57735
 41
4.241150082346177
 42
5.637413483941682
  0
ELLIPSE
  5
267
330
1F
100
AcDbEntity
  8
Isometric$7
  6
Continuous
 62
    18
370
    35
100
AcDbEllipse
 10
174.351114
 20
-130.253561
 30
-304.604676
 11
0.0
 21
1.131370849898477
 31
1.131370849898477
210
0.5773502691896258
220
-0.5773502691896258
230
0.5773502691896258
 40
0.57735
 41
4.483401782523176
 42
5.637413483941685
  0
ELLIPSE
  5
268
330
1F
100
AcDbEntity
  8
Isometric$7
  6
Continuous
 62
    18
370
    35
100
AcDbEllipse
 10
160.783424
 20
-123.253772
 30
-284.037196
 11
2.246122001269668
 21
0.2767738350939303
 31
-1.969348166175738
210
0.5773502691896257
220
-0.5773502691896257
230
0.5773502691896258
 40
0.49138
 41
0.7246864161041523
 42
2.295482742899045
  0
ELLIPSE
  5
269
330
1F
100
AcDbEntity
  8
Isometric$7
  6
Continuous
 62
    18
370
    35
100
AcDbEllipse
 10
91.450091
 20
-157.920439
 30
-249.370529
 11
2.246122001269668
 21
0.2767738350939303
 31
-1.969348166175738
210
0.5773502691896257
220
-0.5773502691896257
230
0.5773502691896258
 40
0.49138
 41
2.295482742899043
 42
3.866279069693931
  0
ELLIPSE
  5
26A
330
1F
100
AcDbEntity
  8
Isometric$7
  6
Continuous
 62
    18
370
    35
100
AcDbEllipse
 10
160.932667
 20
-205.034667
 30
-365.967333
 11
0.0
 21
-2.121320343559643
 31
-2.121320343559643
210
0.5773502691896258
220
-0.5773502691896258
230
0.5773502691896258
 40
0.57735
 41
0.5178719143236904
 42
2.62372073924902
  0
ELLIPSE
  5
26B
330
1F
100
AcDbEntity
  8
Isometric$7
  6
Continuous
 62
    18
370
    35
100
AcDbEllipse
 10
152.605563
 20
-224.261233
 30
-376.866797
 11
0.0
 21
-2.121320343559643
 31
-2.121320343559643
210
0.5773502691896258
220
-0.5773502691896258
230
0.5773502691896258
 40
0.57735
 41
5.811946409141116
 42
6.283196726554793
  0
ELLIPSE
  5
26C
330
1F
100
AcDbEntity
  8
Isometric$7
  6
Continuous
 62
    18
370
    35
100
AcDbEllipse
 10
153.138897
 20
-223.994566
 30
-377.133463
 11
0.0
 21
2.121320343559643
 31
2.121320343559643
210
0.5773502691896258
220
-0.5773502691896258
230
0.5773502691896258
 40
0.57735
 41
2.670353755551323
 42
3.965053062950771
  0
ELLIPSE
  5
26D
330
1F
100
AcDbEntity
  8
Isometric$7
  6
Continuous
 62
    18
370
    35
100
AcDbEllipse
 10
161.466
 20
-204.768
 30
-366.234
 11
0.0
 21
-2.121320343559643
 31
-2.121320343559643
210
0.5773502691896258
220
-0.5773502691896258
230
0.5773502691896258
 40
0.57735
 41
0.3115085468728345
 42
2.830084107031691
  0
ELLIPSE
  5
26E
330
1F
100
AcDbEntity
  8
Isometric$7
  6
Continuous
 62
    18
370
    35
100
AcDbEllipse
 10
150.828754
 20
-226.580077
 30
-377.408832
 11
-1.253290500272756
 21
-0.3073535473870779
 31
0.945936952885678
210
0.5773502691896258
220
-0.5773502691896258
230
0.5773502691896258
 40
0.370682
 41
3.812421712384551
 42
5.38321803917943
  0
ELLIPSE
  5
26F
330
1F
100
AcDbEntity
  8
Isometric$7
  6
Continuous
 62
    18
370
    35
100
AcDbEllipse
 10
69.628754
 20
-267.180077
 30
-336.808832
 11
1.253290500272756
 21
0.3073535473870779
 31
-0.945936952885678
210
0.5773502691896258
220
-0.5773502691896258
230
0.5773502691896258
 40
0.370682
 41
2.241625385589724
 42
3.812421712384464
  0
ELLIPSE
  5
270
330
1F
100
AcDbEntity
  8
Isometric$7
  6
Continuous
 62
    18
370
    35
100
AcDbEllipse
 10
69.628754
 20
-267.180077
 30
-336.808832
 11
0.6266452501363774
 21
0.1536767736935389
 31
-0.4729684764428387
210
0.5773502691896258
220
-0.5773502691896258
230
0.5773502691896257
 40
0.370682
 41
2.241625385589724
 42
3.812421712384475
  0
ELLIPSE
  5
271
330
1F
100
AcDbEntity
  8
Isometric$7
  6
Continuous
 62
    18
370
    35
100
AcDbEllipse
 10
150.828754
 20
-226.580077
 30
-377.408832
 11
-0.6266452501363774
 21
-0.1536767736935389
 31
0.4729684764428387
210
0.5773502691896258
220
-0.5773502691896258
230
0.5773502691896257
 40
0.370682
 41
3.812421712384515
 42
5.383218039179376
  0
ELLIPSE
  5
272
330
1F
100
AcDbEntity
  8
Isometric$7
  6
Continuous
 62
    18
370
    35
100
AcDbEllipse
 10
74.199333
 20
-250.401333
 30
-324.600667
 11
-1.414213562373095
 21
-1.414213562373095
 31
0.0
210
0.5773502691896258
220
-0.5773502691896258
230
0.5773502691896258
 40
0.57735
 41
5.227021126950862
 42
5.996416802478311
  0
ELLIPSE
  5
273
330
1F
100
AcDbEntity
  8
Isometric$7
  6
Continuous
 62
    18
370
    35
100
AcDbEllipse
 10
68.199333
 20
-260.401333
 30
-328.600667
 11
1.414213562373095
 21
1.414213562373095
 31
0.0
210
0.5773502691896258
220
-0.5773502691896258
230
0.5773502691896258
 40
0.57735
 41
3.141592653589833
 42
3.926990816987268
  0
ELLIPSE
  5
274
330
1F
100
AcDbEntity
  8
Isometric$7
  6
Continuous
 62
    18
370
    35
100
AcDbEllipse
 10
70.199333
 20
-258.401333
 30
-328.600667
 11
-1.414213562373095
 21
-1.414213562373095
 31
0.0
210
0.5773502691896258
220
-0.5773502691896258
230
0.5773502691896258
 40
0.57735
 41
3.428361158000311
 42
5.996416802478345
  0
ELLIPSE
  5
275
330
1F
100
AcDbEntity
  8
Isometric$7
  6
Continuous
 62
    18
370
    35
100
AcDbEllipse
 10
69.932667
 20
-258.134667
 30
-328.067333
 11
-1.414213562373095
 21
-1.414213562373095
 31
0.0
210
0.5773502691896258
220
-0.5773502691896258
230
0.5773502691896258
 40
0.57735
 41
0.7853981634100415
 42
2.436697801464011
  0
ELLIPSE
  5
276
330
1F
100
AcDbEntity
  8
Isometric$7
  6
Continuous
 62
    18
370
    35
100
AcDbEllipse
 10
69.932667
 20
-258.134667
 30
-328.067333
 11
-1.414213562373095
 21
-1.414213562373095
 31
0.0
210
0.5773502691896258
220
-0.5773502691896258
230
0.5773502691896258
 40
0.57735
 41
2.756747553063439
 42
6.283185307179586
  0
ELLIPSE
  5
277
330
1F
100
AcDbEntity
  8
Isometric$7
  6
Continuous
 62
    18
370
    35
100
AcDbEllipse
 10
69.932667
 20
-258.134667
 30
-328.067333
 11
-1.414213562373095
 21
-1.414213562373095
 31
0.0
210
0.5773502691896258
220
-0.5773502691896258
230
0.5773502691896258
 40
0.57735
 41
0.0
 42
0.7853981634100415
  0
ELLIPSE
  5
278
330
1F
100
AcDbEntity
  8
Isometric$7
  6
Continuous
 62
    18
370
    35
100
AcDbEllipse
 10
73.932667
 20
-250.134667
 30
-324.067333
 11
-1.414213562373095
 21
-1.414213562373095
 31
0.0
210
0.5773502691896258
220
-0.5773502691896258
230
0.5773502691896258
 40
0.57735
 41
4.984823968313119
 42
6.283185307179586
  0
ELLIPSE
  5
279
330
1F
100
AcDbEntity
  8
Isometric$7
  6
Continuous
 62
    18
370
    35
100
AcDbEllipse
 10
73.932667
 20
-250.134667
 30
-324.067333
 11
-1.414213562373095
 21
-1.414213562373095
 31
0.0
210
0.5773502691896258
220
-0.5773502691896258
230
0.5773502691896258
 40
0.57735
 41
0.0
 42
0.5681373974300928
  0
ELLIPSE
  5
27A
330
1F
100
AcDbEntity
  8
Isometric$7
  6
Continuous
 62
    18
370
    35
100
AcDbEllipse
 10
73.266
 20
-249.468
 30
-322.734
 11
-1.414213562373095
 21
-1.414213562373095
 31
0.0
210
0.5773502691896258
220
-0.5773502691896258
230
0.5773502691896258
 40
0.57735
 41
4.393370063889797
 42
5.497787143782146
  0
ELLIPSE
  5
27B
330
1F
100
AcDbEntity
  8
Isometric$7
  6
Continuous
 62
    18
370
    35
100
AcDbEllipse
 10
67.932667
 20
-260.134667
 30
-328.067333
 11
-1.414213562373095
 21
-1.414213562373095
 31
0.0
210
0.5773502691896258
220
-0.5773502691896258
230
0.5773502691896258
 40
0.57735
 41
5.497787143782111
 42
7.068583470577027
  0
ELLIPSE
  5
27C
330
1F
100
AcDbEntity
  8
Isometric$7
  6
Continuous
 62
    18
370
    35
100
AcDbEllipse
 10
77.999333
 20
-247.001333
 30
-325.000667
 11
0.0
 21
-6.363961030678929
 31
-6.363961030678929
210
0.5773502691896258
220
-0.5773502691896258
230
0.5773502691896258
 40
0.57735
 41
3.796982877252359
 42
3.926990816987241
  0
ELLIPSE
  5
27D
330
1F
100
AcDbEntity
  8
Isometric$7
  6
Continuous
 62
    18
370
    35
100
AcDbEllipse
 10
77.332667
 20
-248.334667
 30
-325.667333
 11
0.0
 21
-6.363961030678929
 31
-6.363961030678929
210
0.5773502691896258
220
-0.5773502691896258
230
0.5773502691896258
 40
0.57735
 41
3.926990816987237
 42
4.825069073139614
  0
ELLIPSE
  5
27E
330
1F
100
AcDbEntity
  8
Isometric$7
  6
Continuous
 62
    18
370
    35
100
AcDbEllipse
 10
77.866
 20
-248.068
 30
-325.934
 11
0.0
 21
6.363961030678929
 31
6.363961030678929
210
0.5773502691896258
220
-0.5773502691896258
230
0.5773502691896258
 40
0.57735
 41
0.7853981633974528
 42
1.428761977682993
  0
ELLIPSE
  5
27F
330
1F
100
AcDbEntity
  8
Isometric$7
  6
Continuous
 62
    18
370
    35
100
AcDbEllipse
 10
279.333333
 20
-10.133333
 30
-289.466667
 11
0.0
 21
-0.7071067811865476
 31
-0.7071067811865476
210
0.5773502691896258
220
-0.5773502691896258
230
0.5773502691896258
 40
0.57735
 41
3.141592653590005
 42
3.868110498443239
  0
ELLIPSE
  5
280
330
1F
100
AcDbEntity
  8
Isometric$7
  6
Continuous
 62
    18
370
    35
100
AcDbEllipse
 10
278.266667
 20
-10.466667
 30
-288.733333
 11
0.0
 21
-1.131370849898473
 31
-1.131370849898473
210
0.5773502691896258
220
-0.5773502691896258
230
0.5773502691896258
 40
0.57735
 41
2.356194490192392
 42
3.926990816987201
  0
ELLIPSE
  5
281
330
1F
100
AcDbEntity
  8
Isometric$7
  6
Continuous
 62
    18
370
    35
100
AcDbEllipse
 10
274.400667
 20
-29.198667
 30
-303.599333
 11
0.0
 21
-1.414213562373095
 31
-1.414213562373095
210
0.5773502691896258
220
-0.5773502691896258
230
0.5773502691896258
 40
0.57735
 41
5.497787143782136
 42
6.283185307179568
  0
ELLIPSE
  5
282
330
1F
100
AcDbEntity
  8
Isometric$7
  6
Continuous
 62
    18
370
    35
100
AcDbEllipse
 10
279.866667
 20
-9.866667
 30
-289.733333
 11
0.0
 21
0.7071067811865476
 31
0.7071067811865476
210
0.5773502691896258
220
-0.5773502691896258
230
0.5773502691896258
 40
0.57735
 41
5.497787143782146
 42
7.068583470577046
  0
ELLIPSE
  5
283
330
1F
100
AcDbEntity
  8
Isometric$7
  6
Continuous
 62
    18
370
    35
100
AcDbEllipse
 10
274.934
 20
-28.932
 30
-303.866
 11
0.0
 21
1.414213562373095
 31
1.414213562373095
210
0.5773502691896258
220
-0.5773502691896258
230
0.5773502691896258
 40
0.57735
 41
2.356194490192353
 42
3.926990816987258
  0
ELLIPSE
  5
284
330
1F
100
AcDbEntity
  8
Isometric$7
  6
Continuous
 62
    18
370
    35
100
AcDbEllipse
 10
282.6
 20
-13.6
 30
-296.2
 11
0.0
 21
1.414213562373095
 31
1.414213562373095
210
0.5773502691896258
220
-0.5773502691896258
230
0.5773502691896258
 40
0.57735
 41
3.926990816987253
 42
5.497787143782111
  0
ELLIPSE
  5
285
330
1F
100
AcDbEntity
  8
Isometric$7
  6
Continuous
 62
    18
370
    35
100
AcDbEllipse
 10
278.266667
 20
-10.466667
 30
-288.733333
 11
-1.131370849898478
 21
0.0
 31
1.131370849898478
210
0.5773502691896258
220
-0.5773502691896258
230
0.5773502691896258
 40
0.57735
 41
3.926990816987205
 42
5.497787143782177
  0
ELLIPSE
  5
286
330
1F
100
AcDbEntity
  8
Isometric$7
  6
Continuous
 62
    18
370
    35
100
AcDbEllipse
 10
269.800667
 20
-27.398667
 30
-297.199333
 11
-1.131370849898478
 21
0.0
 31
1.131370849898478
210
0.5773502691896258
220
-0.5773502691896258
230
0.5773502691896258
 40
0.57735
 41
3.926990816987271
 42
5.497787143782123
  0
ELLIPSE
  5
287
330
1F
100
AcDbEntity
  8
Isometric$7
  6
Continuous
 62
    18
370
    35
100
AcDbEllipse
 10
269.800667
 20
-27.398667
 30
-297.199333
 11
-0.5656854249492399
 21
0.0
 31
0.5656854249492399
210
0.5773502691896258
220
-0.5773502691896258
230
0.5773502691896258
 40
0.57735
 41
3.926990816987235
 42
5.497787143782094
  0
ELLIPSE
  5
288
330
1F
100
AcDbEntity
  8
Isometric$7
  6
Continuous
 62
    18
370
    35
100
AcDbEllipse
 10
260.4
 20
-28.2
 30
-288.6
 11
0.0
 21
-1.237436867076458
 31
-1.237436867076458
210
0.5773502691896258
220
-0.5773502691896258
230
0.5773502691896258
 40
0.57735
 41
0.7943320675306631
 42
2.347162411032319
  0
ELLIPSE
  5
289
330
1F
100
AcDbEntity
  8
Isometric$7
  6
Continuous
 62
    18
370
    35
100
AcDbEllipse
 10
242.066667
 20
-64.866667
 30
-306.933333
 11
0.0
 21
-1.237436867076458
 31
-1.237436867076458
210
0.5773502691896258
220
-0.5773502691896258
230
0.5773502691896258
 40
0.57735
 41
0.7943320675306819
 42
2.347162411032355
  0
ELLIPSE
  5
28A
330
1F
100
AcDbEntity
  8
Isometric$7
  6
Continuous
 62
    18
370
    35
100
AcDbEllipse
 10
70.466
 20
-258.668
 30
-329.134
 11
-1.237436867076458
 21
-1.237436867076458
 31
0.0
210
0.5773502691896258
220
-0.5773502691896258
230
0.5773502691896258
 40
0.57735
 41
3.926990817330132
 42
5.726828882319646
  0
ELLIPSE
  5
28B
330
1F
100
AcDbEntity
  8
Isometric$7
  6
Continuous
 62
    18
370
    35
100
AcDbEllipse
 10
70.466
 20
-258.668
 30
-329.134
 11
-1.237436867076458
 21
-1.237436867076458
 31
0.0
210
0.5773502691896258
220
-0.5773502691896258
230
0.5773502691896258
 40
0.57735
 41
3.691665892351256
 42
3.926990817330132
  0
ELLIPSE
  5
28C
330
1F
100
AcDbEntity
  8
Isometric$7
  6
Continuous
 62
    18
370
    35
100
AcDbEllipse
 10
51.266667
 20
-292.266667
 30
-343.533333
 11
0.0
 21
-1.414213562373095
 31
-1.414213562373095
210
0.5773502691896258
220
-0.5773502691896258
230
0.5773502691896258
 40
0.57735
 41
5.497787143782126
 42
6.2831853071796
  0
ELLIPSE
  5
28D
330
1F
100
AcDbEntity
  8
Isometric$7
  6
Continuous
 62
    18
370
    35
100
AcDbEllipse
 10
47.866667
 20
-289.866667
 30
-337.733333
 11
0.0
 21
-0.7071067811865476
 31
-0.7071067811865476
210
0.5773502691896258
220
-0.5773502691896258
230
0.5773502691896258
 40
0.57735
 41
3.92699081698721
 42
5.497787143782146
  0
ELLIPSE
  5
28E
330
1F
100
AcDbEntity
  8
Isometric$7
  6
Continuous
 62
    18
370
    35
100
AcDbEllipse
 10
48.4
 20
-289.6
 30
-338.0
 11
0.0
 21
0.7071067811865476
 31
0.7071067811865476
210
0.5773502691896258
220
-0.5773502691896258
230
0.5773502691896258
 40
0.57735
 41
0.7853981633973998
 42
2.356194490192388
  0
ELLIPSE
  5
28F
330
1F
100
AcDbEntity
  8
Isometric$7
  6
Continuous
 62
    18
370
    35
100
AcDbEllipse
 10
51.8
 20
-292.0
 30
-343.8
 11
0.0
 21
1.414213562373095
 31
1.414213562373095
210
0.5773502691896258
220
-0.5773502691896258
230
0.5773502691896258
 40
0.57735
 41
2.356194490192316
 42
3.372646975823664
  0
ELLIPSE
  5
290
330
1F
100
AcDbEntity
  8
Isometric$7
  6
Continuous
 62
    18
370
    35
100
AcDbEllipse
 10
48.8
 20
-288.6
 30
-337.4
 11
1.131370849898473
 21
0.0
 31
-1.131370849898473
210
0.5773502691896258
220
-0.5773502691896258
230
0.5773502691896258
 40
0.57735
 41
2.356194490192373
 42
3.926990816987238
  0
ELLIPSE
  5
291
330
1F
100
AcDbEntity
  8
Isometric$7
  6
Continuous
 62
    18
370
    35
100
AcDbEllipse
 10
223.733333
 20
-101.533333
 30
-325.266667
 11
0.0
 21
-1.237436867076458
 31
-1.237436867076458
210
0.5773502691896258
220
-0.5773502691896258
230
0.5773502691896258
 40
0.57735
 41
0.7943320675306556
 42
2.347162411032305
  0
ELLIPSE
  5
292
330
1F
100
AcDbEntity
  8
Isometric$7
  6
Continuous
 62
    18
370
    35
100
AcDbEllipse
 10
78.933333
 20
-260.933333
 30
-339.866667
 11
-3.535533905932738
 21
-3.535533905932738
 31
0.0
210
0.5773502691896258
220
-0.5773502691896258
230
0.5773502691896258
 40
0.57735
 41
6.062365704771413
 42
6.169817991031636
  0
ELLIPSE
  5
293
330
1F
100
AcDbEntity
  8
Isometric$7
  6
Continuous
 62
    18
370
    35
100
AcDbEllipse
 10
260.933333
 20
-27.933333
 30
-288.866667
 11
0.0
 21
-1.237436867076458
 31
-1.237436867076458
210
0.5773502691896258
220
-0.5773502691896258
230
0.5773502691896258
 40
0.57735
 41
0.3332051710963675
 42
2.80838748274337
  0
ELLIPSE
  5
294
330
1F
100
AcDbEntity
  8
Isometric$7
  6
Continuous
 62
    18
370
    35
100
AcDbEllipse
 10
242.6
 20
-64.6
 30
-307.2
 11
0.0
 21
-1.237436867076458
 31
-1.237436867076458
210
0.5773502691896258
220
-0.5773502691896258
230
0.5773502691896258
 40
0.57735
 41
0.3332051710963982
 42
2.808387482743405
  0
ELLIPSE
  5
295
330
1F
100
AcDbEntity
  8
Isometric$7
  6
Continuous
 62
    18
370
    35
100
AcDbEllipse
 10
224.266667
 20
-101.266667
 30
-325.533333
 11
0.0
 21
-1.237436867076458
 31
-1.237436867076458
210
0.5773502691896258
220
-0.5773502691896258
230
0.5773502691896258
 40
0.57735
 41
0.3332051710964807
 42
2.808387482743385
  0
ELLIPSE
  5
296
330
1F
100
AcDbEntity
  8
Isometric$7
  6
Continuous
 62
    18
370
    35
100
AcDbEllipse
 10
171.933333
 20
-188.933333
 30
-360.866667
 11
-3.535533905932738
 21
-3.535533905932738
 31
0.0
210
0.5773502691896258
220
-0.5773502691896258
230
0.5773502691896258
 40
0.57735
 41
3.254959969743044
 42
3.926990816987235
  0
ELLIPSE
  5
297
330
1F
100
AcDbEntity
  8
Isometric$7
  6
Continuous
 62
    18
370
    35
100
AcDbEllipse
 10
176.066
 20
-199.868
 30
-375.934
 11
1.237436867076458
 21
1.237436867076458
 31
0.0
210
0.5773502691896258
220
-0.5773502691896258
230
0.5773502691896258
 40
0.57735
 41
0.5563564248599203
 42
0.7853981634101246
  0
ELLIPSE
  5
298
330
1F
100
AcDbEntity
  8
Isometric$7
  6
Continuous
 62
    18
370
    35
100
AcDbEllipse
 10
176.066
 20
-199.868
 30
-375.934
 11
1.237436867076458
 21
1.237436867076458
 31
0.0
210
0.5773502691896258
220
-0.5773502691896258
230
0.5773502691896258
 40
0.57735
 41
0.7853981634101246
 42
2.585236229548472
  0
ELLIPSE
  5
299
330
1F
100
AcDbEntity
  8
Isometric$7
  6
Continuous
 62
    18
370
    35
100
AcDbEllipse
 10
172.066
 20
-207.868
 30
-379.934
 11
1.237436867076458
 21
1.237436867076458
 31
0.0
210
0.5773502691896258
220
-0.5773502691896258
230
0.5773502691896258
 40
0.57735
 41
0.5563564248598796
 42
0.7853981634100794
  0
ELLIPSE
  5
29A
330
1F
100
AcDbEntity
  8
Isometric$7
  6
Continuous
 62
    18
370
    35
100
AcDbEllipse
 10
172.066
 20
-207.868
 30
-379.934
 11
1.237436867076458
 21
1.237436867076458
 31
0.0
210
0.5773502691896258
220
-0.5773502691896258
230
0.5773502691896258
 40
0.57735
 41
0.7853981634100794
 42
2.585236229548469
  0
ELLIPSE
  5
29B
330
1F
100
AcDbEntity
  8
Isometric$7
  6
Continuous
 62
    18
370
    35
100
AcDbEllipse
 10
171.133333
 20
-232.933333
 30
-404.066667
 11
-1.414213562373095
 21
0.0
 31
1.414213562373095
210
0.5773502691896258
220
-0.5773502691896258
230
0.5773502691896258
 40
0.57735
 41
3.141592653589776
 42
3.926990816987218
  0
ELLIPSE
  5
29C
330
1F
100
AcDbEntity
  8
Isometric$7
  6
Continuous
 62
    18
370
    35
100
AcDbEllipse
 10
173.4
 20
-231.2
 30
-404.6
 11
0.0
 21
-1.414213562373095
 31
-1.414213562373095
210
0.5773502691896258
220
-0.5773502691896258
230
0.5773502691896258
 40
0.57735
 41
5.497787143782143
 42
6.283185307179561
  0
ELLIPSE
  5
29D
330
1F
100
AcDbEntity
  8
Isometric$7
  6
Continuous
 62
    18
370
    35
100
AcDbEllipse
 10
170.866667
 20
-233.466667
 30
-404.333333
 11
1.414213562373095
 21
0.0
 31
-1.414213562373095
210
0.5773502691896258
220
-0.5773502691896258
230
0.5773502691896258
 40
0.57735
 41
5.497787143782146
 42
7.068583470577027
  0
ELLIPSE
  5
29E
330
1F
100
AcDbEntity
  8
Isometric$7
  6
Continuous
 62
    18
370
    35
100
AcDbEllipse
 10
53.0
 20
-292.4
 30
-345.4
 11
1.414213562373095
 21
0.0
 31
-1.414213562373095
210
0.5773502691896258
220
-0.5773502691896258
230
0.5773502691896258
 40
0.57735
 41
3.926990816987233
 42
5.497787143782126
  0
ELLIPSE
  5
29F
330
1F
100
AcDbEntity
  8
Isometric$7
  6
Continuous
 62
    18
370
    35
100
AcDbEllipse
 10
260.8
 20
-29.6
 30
-290.4
 11
-1.414213562373095
 21
-1.414213562373095
 31
0.0
210
0.5773502691896258
220
-0.5773502691896258
230
0.5773502691896258
 40
0.57735
 41
4.181754346273709
 42
4.319984422997261
  0
ELLIPSE
  5
2A0
330
1F
100
AcDbEntity
  8
Isometric$7
  6
Continuous
 62
    18
370
    35
100
AcDbEllipse
 10
78.666667
 20
-260.666667
 30
-339.333333
 11
3.535533905932738
 21
3.535533905932738
 31
0.0
210
0.5773502691896258
220
-0.5773502691896258
230
0.5773502691896258
 40
0.57735
 41
3.141592653589763
 42
3.926990816987245
  0
ELLIPSE
  5
2A1
330
1F
100
AcDbEntity
  8
Isometric$7
  6
Continuous
 62
    18
370
    35
100
AcDbEllipse
 10
171.666667
 20
-188.666667
 30
-360.333333
 11
3.535533905932738
 21
3.535533905932738
 31
0.0
210
0.5773502691896258
220
-0.5773502691896258
230
0.5773502691896258
 40
0.57735
 41
5.497787143782128
 42
7.068583470577028
  0
ELLIPSE
  5
2A2
330
1F
100
AcDbEntity
  8
Isometric$7
  6
Continuous
 62
    18
370
    35
100
AcDbEllipse
 10
154.666667
 20
-222.666667
 30
-377.333333
 11
3.535533905932738
 21
3.535533905932738
 31
0.0
210
0.5773502691896258
220
-0.5773502691896258
230
0.5773502691896258
 40
0.57735
 41
4.157897877040134
 42
5.497787143782126
  0
ELLIPSE
  5
2A3
330
1F
100
AcDbEntity
  8
Isometric$7
  6
Continuous
 62
    18
370
    35
100
AcDbEllipse
 10
171.799333
 20
-207.601333
 30
-379.400667
 11
1.237436867076458
 21
1.237436867076458
 31
0.0
210
0.5773502691896258
220
-0.5773502691896258
230
0.5773502691896258
 40
0.57735
 41
0.0865901475146458
 42
2.356194489849391
  0
ELLIPSE
  5
2A4
330
1F
100
AcDbEntity
  8
Isometric$7
  6
Continuous
 62
    18
370
    35
100
AcDbEllipse
 10
171.799333
 20
-207.601333
 30
-379.400667
 11
1.237436867076458
 21
1.237436867076458
 31
0.0
210
0.5773502691896258
220
-0.5773502691896258
230
0.5773502691896258
 40
0.57735
 41
2.35619448984939
 42
3.055002506074174
  0
ELLIPSE
  5
2A5
330
1F
100
AcDbEntity
  8
Isometric$7
  6
Continuous
 62
    18
370
    35
100
AcDbEllipse
 10
175.799333
 20
-199.601333
 30
-375.400667
 11
1.237436867076458
 21
1.237436867076458
 31
0.0
210
0.5773502691896258
220
-0.5773502691896258
230
0.5773502691896258
 40
0.57735
 41
0.086590147514657
 42
2.356194489849383
  0
ELLIPSE
  5
2A6
330
1F
100
AcDbEntity
  8
Isometric$7
  6
Continuous
 62
    18
370
    35
100
AcDbEllipse
 10
175.799333
 20
-199.601333
 30
-375.400667
 11
1.237436867076458
 21
1.237436867076458
 31
0.0
210
0.5773502691896258
220
-0.5773502691896258
230
0.5773502691896258
 40
0.57735
 41
2.356194489849383
 42
3.055002506074197
  0
ELLIPSE
  5
2A7
330
1F
100
AcDbEntity
  8
Isometric$7
  6
Continuous
 62
    18
370
    35
100
AcDbEllipse
 10
74.199333
 20
-250.401333
 30
-324.600667
 11
-1.237436867076458
 21
-1.237436867076458
 31
0.0
210
0.5773502691896258
220
-0.5773502691896258
230
0.5773502691896258
 40
0.57735
 41
5.394801809427968
 42
6.196496984894597
  0
ELLIPSE
  5
2A8
330
1F
100
AcDbEntity
  8
Isometric$7
  6
Continuous
 62
    18
370
    35
100
AcDbEllipse
 10
70.199333
 20
-258.401333
 30
-328.600667
 11
-1.237436867076458
 21
-1.237436867076458
 31
0.0
210
0.5773502691896258
220
-0.5773502691896258
230
0.5773502691896258
 40
0.57735
 41
3.251548396468337
 42
6.196496984894518
  0
ELLIPSE
  5
2A9
330
1F
100
AcDbEntity
  8
Isometric$7
  6
Continuous
 62
    18
370
    35
100
AcDbEllipse
 10
170.0
 20
-228.8
 30
-398.8
 11
0.0
 21
-0.7071067811865476
 31
-0.7071067811865476
210
0.5773502691896258
220
-0.5773502691896258
230
0.5773502691896258
 40
0.57735
 41
3.926990816987268
 42
5.497787143782157
  0
ELLIPSE
  5
2AA
330
1F
100
AcDbEntity
  8
Isometric$7
  6
Continuous
 62
    18
370
    35
100
AcDbEllipse
 10
48.8
 20
-288.6
 30
-337.4
 11
0.0
 21
1.131370849898473
 31
1.131370849898473
210
0.5773502691896258
220
-0.5773502691896258
230
0.5773502691896258
 40
0.57735
 41
0.7853981633974667
 42
2.356194490192323
  0
ELLIPSE
  5
2AB
330
1F
100
AcDbEntity
  8
Isometric$7
  6
Continuous
 62
    18
370
    35
100
AcDbEllipse
 10
227.799333
 20
-111.401333
 30
-339.200667
 11
-1.131370849898473
 21
0.0
 31
1.131370849898473
210
0.5773502691896258
220
-0.5773502691896258
230
0.5773502691896258
 40
0.57735
 41
3.926990816987281
 42
5.497787143782123
  0
ELLIPSE
  5
2AC
330
1F
100
AcDbEntity
  8
Isometric$7
  6
Continuous
 62
    18
370
    35
100
AcDbEllipse
 10
169.333333
 20
-228.333333
 30
-397.666667
 11
-0.5656854249492349
 21
0.0
 31
0.5656854249492349
210
0.5773502691896258
220
-0.5773502691896258
230
0.5773502691896258
 40
0.57735
 41
3.926990816987213
 42
5.497787143782079
  0
ELLIPSE
  5
2AD
330
1F
100
AcDbEntity
  8
Isometric$7
  6
Continuous
 62
    18
370
    35
100
AcDbEllipse
 10
169.333333
 20
-228.333333
 30
-397.666667
 11
-1.131370849898473
 21
0.0
 31
1.131370849898473
210
0.5773502691896258
220
-0.5773502691896258
230
0.5773502691896258
 40
0.57735
 41
3.926990816987238
 42
5.497787143782123
  0
ELLIPSE
  5
2AE
330
1F
100
AcDbEntity
  8
Isometric$7
  6
Continuous
 62
    18
370
    35
100
AcDbEllipse
 10
169.333333
 20
-228.333333
 30
-397.666667
 11
0.0
 21
0.5656854249492349
 31
0.5656854249492349
210
0.5773502691896258
220
-0.5773502691896258
230
0.5773502691896258
 40
0.57735
 41
0.78539816339742
 42
2.356194490192373
  0
ELLIPSE
  5
2AF
330
1F
100
AcDbEntity
  8
Isometric$7
  6
Continuous
 62
    18
370
    35
100
AcDbEllipse
 10
169.333333
 20
-228.333333
 30
-397.666667
 11
0.0
 21
1.131370849898473
 31
1.131370849898473
210
0.5773502691896258
220
-0.5773502691896258
230
0.5773502691896258
 40
0.57735
 41
0.7853981633974667
 42
2.356194490192301
  0
ELLIPSE
  5
2B0
330
1F
100
AcDbEntity
  8
Isometric$7
  6
Continuous
 62
    18
370
    35
100
AcDbEllipse
 10
170.533333
 20
-228.533333
 30
-399.066667
 11
0.0
 21
0.7071067811865476
 31
0.7071067811865476
210
0.5773502691896258
220
-0.5773502691896258
230
0.5773502691896258
 40
0.57735
 41
0.78539816339744
 42
2.356194490192319
  0
ELLIPSE
  5
2B1
330
1F
100
AcDbEntity
  8
Isometric$7
  6
Continuous
 62
    18
370
    35
100
AcDbEllipse
 10
173.933333
 20
-230.933333
 30
-404.866667
 11
0.0
 21
1.414213562373095
 31
1.414213562373095
210
0.5773502691896258
220
-0.5773502691896258
230
0.5773502691896258
 40
0.57735
 41
2.356194490192333
 42
3.926990816987256
  0
ELLIPSE
  5
2B2
330
1F
100
AcDbEntity
  8
Isometric$7
  6
Continuous
 62
    18
370
    35
100
AcDbEllipse
 10
231.599333
 20
-115.601333
 30
-347.200667
 11
0.0
 21
1.414213562373095
 31
1.414213562373095
210
0.5773502691896258
220
-0.5773502691896258
230
0.5773502691896258
 40
0.57735
 41
3.926990816987233
 42
5.497787143782181
  0
ELLIPSE
  5
2B3
330
1F
100
AcDbEntity
  8
Isometric$7
  6
Continuous
 62
    18
370
    35
100
AcDbEllipse
 10
267.532667
 20
-30.134667
 30
-297.667333
 11
0.0
 21
-1.237436867076458
 31
-1.237436867076458
210
0.5773502691896258
220
-0.5773502691896258
230
0.5773502691896258
 40
0.57735
 41
0.3290818307502757
 42
0.785398163410073
  0
ELLIPSE
  5
2B4
330
1F
100
AcDbEntity
  8
Isometric$7
  6
Continuous
 62
    18
370
    35
100
AcDbEllipse
 10
267.532667
 20
-30.134667
 30
-297.667333
 11
0.0
 21
-1.237436867076458
 31
-1.237436867076458
210
0.5773502691896258
220
-0.5773502691896258
230
0.5773502691896258
 40
0.57735
 41
0.785398163410073
 42
2.470764447050878
  0
ELLIPSE
  5
2B5
330
1F
100
AcDbEntity
  8
Isometric$7
  6
Continuous
 62
    18
370
    35
100
AcDbEllipse
 10
176.332667
 20
-200.134667
 30
-376.467333
 11
-1.237436867076458
 21
-1.237436867076458
 31
0.0
210
0.5773502691896258
220
-0.5773502691896258
230
0.5773502691896258
 40
0.57735
 41
4.240757383276153
 42
5.183922402733324
  0
ELLIPSE
  5
2B6
330
1F
100
AcDbEntity
  8
Isometric$7
  6
Continuous
 62
    18
370
    35
100
AcDbEllipse
 10
172.332667
 20
-208.134667
 30
-380.467333
 11
-1.237436867076458
 21
-1.237436867076458
 31
0.0
210
0.5773502691896258
220
-0.5773502691896258
230
0.5773502691896258
 40
0.57735
 41
4.240659208505801
 42
5.184020577503735
  0
ELLIPSE
  5
2B7
330
1F
100
AcDbEntity
  8
Isometric$7
  6
Continuous
 62
    18
370
    35
100
AcDbEllipse
 10
172.066
 20
-207.868
 30
-379.934
 11
1.237436867076458
 21
1.237436867076458
 31
0.0
210
0.5773502691896258
220
-0.5773502691896258
230
0.5773502691896258
 40
0.57735
 41
0.5564545996314505
 42
2.585138054778403
  0
ELLIPSE
  5
2B8
330
1F
100
AcDbEntity
  8
Isometric$7
  6
Continuous
 62
    18
370
    35
100
AcDbEllipse
 10
176.066
 20
-199.868
 30
-375.934
 11
1.237436867076458
 21
1.237436867076458
 31
0.0
210
0.5773502691896258
220
-0.5773502691896258
230
0.5773502691896258
 40
0.57735
 41
0.5564545996314663
 42
2.585138054778418
  0
ELLIPSE
  5
2B9
330
1F
100
AcDbEntity
  8
Isometric$7
  6
Continuous
 62
    18
370
    35
100
AcDbEllipse
 10
268.066
 20
-29.868
 30
-297.934
 11
0.0
 21
1.237436867076458
 31
1.237436867076458
210
0.5773502691896258
220
-0.5773502691896258
230
0.5773502691896258
 40
0.57735
 41
3.926990817330161
 42
6.106078021331748
  0
ELLIPSE
  5
2BA
330
1F
100
AcDbEntity
  8
Isometric$7
  6
Continuous
 62
    18
370
    35
100
AcDbEllipse
 10
268.066
 20
-29.868
 30
-297.934
 11
0.0
 21
1.237436867076458
 31
1.237436867076458
210
0.5773502691896258
220
-0.5773502691896258
230
0.5773502691896258
 40
0.57735
 41
1.747903612640999
 42
3.926990817330161
  0
ELLIPSE
  5
2BB
330
1F
100
AcDbEntity
  8
Isometric$7
  6
Continuous
 62
    18
370
    35
100
AcDbEllipse
 10
-145.733333
 20
145.733333
 30
291.466667
 11
-0.7071067811865476
 21
-0.7071067811865476
 31
0.0
210
0.5773502691896258
220
-0.5773502691896258
230
0.5773502691896258
 40
0.57735
 41
3.926990816987323
 42
4.854276067340989
  0
ELLIPSE
  5
2BC
330
1F
100
AcDbEntity
  8
Isometric$7
  6
Continuous
 62
    18
370
    35
100
AcDbEllipse
 10
-145.4
 20
145.9
 30
291.3
 11
-0.7071067811865476
 21
-0.7071067811865476
 31
0.0
210
0.5773502691896258
220
-0.5773502691896258
230
0.5773502691896258
 40
0.57735
 41
3.761615416206954
 42
3.926990816987303
  0
ELLIPSE
  5
2BD
330
1F
100
AcDbEntity
  8
Isometric$7
  6
Continuous
 62
    18
370
    35
100
AcDbEllipse
 10
-37.866667
 20
219.066667
 30
256.933333
 11
0.0
 21
-1.237436867076458
 31
-1.237436867076458
210
0.5773502691896258
220
-0.5773502691896258
230
0.5773502691896258
 40
0.57735
 41
0.6713190804312372
 42
0.7853981634100748
  0
ELLIPSE
  5
2BE
330
1F
100
AcDbEntity
  8
Isometric$7
  6
Continuous
 62
    18
370
    35
100
AcDbEllipse
 10
-37.866667
 20
219.066667
 30
256.933333
 11
0.0
 21
-1.237436867076458
 31
-1.237436867076458
210
0.5773502691896258
220
-0.5773502691896258
230
0.5773502691896258
 40
0.57735
 41
0.7853981634100748
 42
2.470273573195021
  0
ELLIPSE
  5
2BF
330
1F
100
AcDbEntity
  8
Isometric$7
  6
Continuous
 62
    18
370
    35
100
AcDbEllipse
 10
-145.666667
 20
146.166667
 30
291.833333
 11
0.7071067811865476
 21
0.7071067811865476
 31
0.0
210
0.5773502691896258
220
-0.5773502691896258
230
0.5773502691896258
 40
0.57735
 41
5.746905623364541
 42
7.068583470577126
  0
ELLIPSE
  5
2C0
330
1F
100
AcDbEntity
  8
Isometric$7
  6
Continuous
 62
    18
370
    35
100
AcDbEllipse
 10
-146.0
 20
146.0
 30
292.0
 11
0.7071067811865476
 21
0.7071067811865476
 31
0.0
210
0.5773502691896258
220
-0.5773502691896258
230
0.5773502691896258
 40
0.57735
 41
0.7853981633974996
 42
1.712683413751182
  0
ELLIPSE
  5
2C1
330
1F
100
AcDbEntity
  8
Isometric$7
  6
Continuous
 62
    18
370
    35
100
AcDbEllipse
 10
-64.533333
 20
165.733333
 30
230.266667
 11
0.0
 21
-1.237436867076458
 31
-1.237436867076458
210
0.5773502691896258
220
-0.5773502691896258
230
0.5773502691896258
 40
0.57735
 41
0.6713190804312545
 42
0.7853981634100631
  0
ELLIPSE
  5
2C2
330
1F
100
AcDbEntity
  8
Isometric$7
  6
Continuous
 62
    18
370
    35
100
AcDbEllipse
 10
-64.533333
 20
165.733333
 30
230.266667
 11
0.0
 21
-1.237436867076458
 31
-1.237436867076458
210
0.5773502691896258
220
-0.5773502691896258
230
0.5773502691896258
 40
0.57735
 41
0.7853981634100631
 42
2.470273573194984
  0
ELLIPSE
  5
2C3
330
1F
100
AcDbEntity
  8
Isometric$7
  6
Continuous
 62
    18
370
    35
100
AcDbEllipse
 10
-64.0
 20
166.0
 30
230.0
 11
0.0
 21
-1.237436867076458
 31
-1.237436867076458
210
0.5773502691896258
220
-0.5773502691896258
230
0.5773502691896258
 40
0.57735
 41
0.2162790192911392
 42
0.7853981634100501
  0
ELLIPSE
  5
2C4
330
1F
100
AcDbEntity
  8
Isometric$7
  6
Continuous
 62
    18
370
    35
100
AcDbEllipse
 10
-64.0
 20
166.0
 30
230.0
 11
0.0
 21
-1.237436867076458
 31
-1.237436867076458
210
0.5773502691896258
220
-0.5773502691896258
230
0.5773502691896258
 40
0.57735
 41
0.7853981634100501
 42
2.925313634338584
  0
ELLIPSE
  5
2C5
330
1F
100
AcDbEntity
  8
Isometric$7
  6
Continuous
 62
    18
370
    35
100
AcDbEllipse
 10
-37.333333
 20
219.333333
 30
256.666667
 11
0.0
 21
-1.237436867076458
 31
-1.237436867076458
210
0.5773502691896258
220
-0.5773502691896258
230
0.5773502691896258
 40
0.57735
 41
0.2162790192911417
 42
0.7853981634100562
  0
ELLIPSE
  5
2C6
330
1F
100
AcDbEntity
  8
Isometric$7
  6
Continuous
 62
    18
370
    35
100
AcDbEllipse
 10
-37.333333
 20
219.333333
 30
256.666667
 11
0.0
 21
-1.237436867076458
 31
-1.237436867076458
210
0.5773502691896258
220
-0.5773502691896258
230
0.5773502691896258
 40
0.57735
 41
0.7853981634100562
 42
2.925313634338591
  0
ELLIPSE
  5
2C7
330
1F
100
AcDbEntity
  8
Isometric$7
  6
Continuous
 62
    18
370
    35
100
AcDbEllipse
 10
177.799333
 20
-197.601333
 30
-375.400667
 11
1.414213562373095
 21
1.414213562373095
 31
0.0
210
0.5773502691896258
220
-0.5773502691896258
230
0.5773502691896258
 40
0.57735
 41
5.497787143782146
 42
6.283185307179699
  0
ELLIPSE
  5
2C8
330
1F
100
AcDbEntity
  8
Isometric$7
  6
Continuous
 62
    18
370
    35
100
AcDbEllipse
 10
175.799333
 20
-199.601333
 30
-375.400667
 11
-1.414213562373095
 21
-1.414213562373095
 31
0.0
210
0.5773502691896258
220
-0.5773502691896258
230
0.5773502691896258
 40
0.57735
 41
3.926990817330188
 42
5.996514977248947
  0
ELLIPSE
  5
2C9
330
1F
100
AcDbEntity
  8
Isometric$7
  6
Continuous
 62
    18
370
    35
100
AcDbEllipse
 10
175.799333
 20
-199.601333
 30
-375.400667
 11
-1.414213562373095
 21
-1.414213562373095
 31
0.0
210
0.5773502691896258
220
-0.5773502691896258
230
0.5773502691896258
 40
0.57735
 41
3.428262983229942
 42
3.926990817330188
  0
ELLIPSE
  5
2CA
330
1F
100
AcDbEntity
  8
Isometric$7
  6
Continuous
 62
    18
370
    35
100
AcDbEllipse
 10
168.999333
 20
-200.201333
 30
-369.200667
 11
-0.5656854249492381
 21
0.0
 31
0.5656854249492381
210
0.5773502691896258
220
-0.5773502691896258
230
0.5773502691896258
 40
0.57735
 41
0.7853981633974703
 42
2.356194490192373
  0
ELLIPSE
  5
2CB
330
1F
100
AcDbEntity
  8
Isometric$7
  6
Continuous
 62
    18
370
    35
100
AcDbEllipse
 10
162.799333
 20
-204.601333
 30
-367.400667
 11
0.0
 21
-6.363961030678929
 31
-6.363961030678929
210
0.5773502691896258
220
-0.5773502691896258
230
0.5773502691896258
 40
0.57735
 41
3.141592653589793
 42
3.926990816987237
  0
ELLIPSE
  5
2CC
330
1F
100
AcDbEntity
  8
Isometric$7
  6
Continuous
 62
    18
370
    35
100
AcDbEllipse
 10
161.799333
 20
-204.601333
 30
-366.400667
 11
0.0
 21
2.121320343559643
 31
2.121320343559643
210
0.5773502691896258
220
-0.5773502691896258
230
0.5773502691896258
 40
0.57735
 41
3.926990817330177
 42
6.093511650711933
  0
ELLIPSE
  5
2CD
330
1F
100
AcDbEntity
  8
Isometric$7
  6
Continuous
 62
    18
370
    35
100
AcDbEllipse
 10
161.799333
 20
-204.601333
 30
-366.400667
 11
0.0
 21
2.121320343559643
 31
2.121320343559643
210
0.5773502691896258
220
-0.5773502691896258
230
0.5773502691896258
 40
0.57735
 41
3.331266310058723
 42
3.926990817330177
  0
ELLIPSE
  5
2CE
330
1F
100
AcDbEntity
  8
Isometric$7
  6
Continuous
 62
    18
370
    35
100
AcDbEllipse
 10
171.799333
 20
-207.601333
 30
-379.400667
 11
-1.414213562373095
 21
-1.414213562373095
 31
0.0
210
0.5773502691896258
220
-0.5773502691896258
230
0.5773502691896258
 40
0.57735
 41
3.926990817330193
 42
5.996514977249014
  0
ELLIPSE
  5
2CF
330
1F
100
AcDbEntity
  8
Isometric$7
  6
Continuous
 62
    18
370
    35
100
AcDbEllipse
 10
171.799333
 20
-207.601333
 30
-379.400667
 11
-1.414213562373095
 21
-1.414213562373095
 31
0.0
210
0.5773502691896258
220
-0.5773502691896258
230
0.5773502691896258
 40
0.57735
 41
3.428262983229887
 42
3.926990817330193
  0
ELLIPSE
  5
2D0
330
1F
100
AcDbEntity
  8
Isometric$7
  6
Continuous
 62
    18
370
    35
100
AcDbEllipse
 10
172.466
 20
-208.268
 30
-380.734
 11
1.414213562373095
 21
1.414213562373095
 31
0.0
210
0.5773502691896258
220
-0.5773502691896258
230
0.5773502691896258
 40
0.57735
 41
3.926990816987233
 42
5.497787143782142
  0
ELLIPSE
  5
2D1
330
1F
100
AcDbEntity
  8
Isometric$7
  6
Continuous
 62
    18
370
    35
100
AcDbEllipse
 10
162.132667
 20
-205.934667
 30
-368.067333
 11
0.0
 21
-6.363961030678929
 31
-6.363961030678929
210
0.5773502691896258
220
-0.5773502691896258
230
0.5773502691896258
 40
0.57735
 41
3.926990816987241
 42
5.497787143782134
  0
ELLIPSE
  5
2D2
330
1F
100
AcDbEntity
  8
Isometric$7
  6
Continuous
 62
    18
370
    35
100
AcDbEllipse
 10
175.532667
 20
-199.334667
 30
-374.867333
 11
-1.414213562373095
 21
-1.414213562373095
 31
0.0
210
0.5773502691896258
220
-0.5773502691896258
230
0.5773502691896258
 40
0.57735
 41
0.0
 42
6.283185307179586
  0
ELLIPSE
  5
2D3
330
1F
100
AcDbEntity
  8
Isometric$7
  6
Continuous
 62
    18
370
    35
100
AcDbEllipse
 10
171.532667
 20
-207.334667
 30
-378.867333
 11
-1.414213562373095
 21
-1.414213562373095
 31
0.0
210
0.5773502691896258
220
-0.5773502691896258
230
0.5773502691896258
 40
0.57735
 41
0.0
 42
6.283185307179586
  0
ELLIPSE
  5
2D4
330
1F
100
AcDbEntity
  8
Isometric$7
  6
Continuous
 62
    18
370
    35
100
AcDbEllipse
 10
172.199333
 20
-208.001333
 30
-380.200667
 11
-1.414213562373095
 21
-1.414213562373095
 31
0.0
210
0.5773502691896258
220
-0.5773502691896258
230
0.5773502691896258
 40
0.57735
 41
0.7853981633974102
 42
2.356194490192388
  0
ELLIPSE
  5
2D5
330
1F
100
AcDbEntity
  8
Isometric$7
  6
Continuous
 62
    18
370
    35
100
AcDbEllipse
 10
177.532667
 20
-197.334667
 30
-374.867333
 11
-1.414213562373095
 21
-1.414213562373095
 31
0.0
210
0.5773502691896258
220
-0.5773502691896258
230
0.5773502691896258
 40
0.57735
 41
2.356194490192313
 42
3.926990816987198
  0
ELLIPSE
  5
2D6
330
1F
100
AcDbEntity
  8
Isometric$7
  6
Continuous
 62
    18
370
    35
100
AcDbEllipse
 10
162.332667
 20
-204.334667
 30
-366.667333
 11
0.0
 21
2.121320343559643
 31
2.121320343559643
210
0.5773502691896258
220
-0.5773502691896258
230
0.5773502691896258
 40
0.57735
 41
0.0
 42
6.283185307179586
  0
ELLIPSE
  5
2D7
330
1F
100
AcDbEntity
  8
Isometric$7
  6
Continuous
 62
    18
370
    35
100
AcDbEllipse
 10
163.332667
 20
-204.334667
 30
-367.667333
 11
0.0
 21
6.363961030678929
 31
6.363961030678929
210
0.5773502691896258
220
-0.5773502691896258
230
0.5773502691896258
 40
0.57735
 41
5.497787143782137
 42
7.068583470577043
  0
ELLIPSE
  5
2D8
330
1F
100
AcDbEntity
  8
Isometric$7
  6
Continuous
 62
    18
370
    35
100
AcDbEllipse
 10
162.666
 20
-205.668
 30
-368.334
 11
0.0
 21
6.363961030678929
 31
6.363961030678929
210
0.5773502691896258
220
-0.5773502691896258
230
0.5773502691896258
 40
0.57735
 41
0.7853981633974405
 42
2.356194490192353
  0
ELLIPSE
  5
2D9
330
1F
100
AcDbEntity
  8
Isometric$7
  6
Continuous
 62
    18
370
    35
100
AcDbEllipse
 10
162.332667
 20
-213.534667
 30
-375.867333
 11
-0.5656854249492381
 21
0.0
 31
0.5656854249492381
210
0.5773502691896258
220
-0.5773502691896258
230
0.5773502691896258
 40
0.57735
 41
0.78539816339742
 42
2.356194490192373
  0
ELLIPSE
  5
2DA
330
1F
100
AcDbEntity
  8
Isometric$7
  6
Continuous
 62
    18
370
    35
100
AcDbEllipse
 10
162.332667
 20
-213.534667
 30
-375.867333
 11
-1.131370849898476
 21
0.0
 31
1.131370849898476
210
0.5773502691896258
220
-0.5773502691896258
230
0.5773502691896258
 40
0.57735
 41
0.7853981633974451
 42
2.356194490192305
  0
ELLIPSE
  5
2DB
330
1F
100
AcDbEntity
  8
Isometric$7
  6
Continuous
 62
    18
370
    35
100
AcDbEllipse
 10
261.2
 20
-27.8
 30
-289.0
 11
0.0
 21
-1.414213562373095
 31
-1.414213562373095
210
0.5773502691896258
220
-0.5773502691896258
230
0.5773502691896258
 40
0.57735
 41
0.2867685047012765
 42
2.854824149179338
  0
ELLIPSE
  5
2DC
330
1F
100
AcDbEntity
  8
Isometric$7
  6
Continuous
 62
    18
370
    35
100
AcDbEllipse
 10
242.866667
 20
-64.466667
 30
-307.333333
 11
0.0
 21
-1.414213562373095
 31
-1.414213562373095
210
0.5773502691896258
220
-0.5773502691896258
230
0.5773502691896258
 40
0.57735
 41
0.2867685047012407
 42
2.854824149179283
  0
ELLIPSE
  5
2DD
330
1F
100
AcDbEntity
  8
Isometric$7
  6
Continuous
 62
    18
370
    35
100
AcDbEllipse
 10
224.533333
 20
-101.133333
 30
-325.666667
 11
0.0
 21
-1.414213562373095
 31
-1.414213562373095
210
0.5773502691896258
220
-0.5773502691896258
230
0.5773502691896258
 40
0.57735
 41
0.2867685047012407
 42
2.854824149179338
  0
ELLIPSE
  5
2DE
330
1F
100
AcDbEntity
  8
Isometric$7
  6
Continuous
 62
    18
370
    35
100
AcDbEllipse
 10
135.033333
 20
111.866667
 30
-23.166667
 11
0.0
 21
-2.121320343559643
 31
-2.121320343559643
210
0.5773502691896258
220
-0.5773502691896258
230
0.5773502691896258
 40
0.57735
 41
0.18977183123812
 42
2.941806995767962
  0
ELLIPSE
  5
2DF
330
1F
100
AcDbEntity
  8
Isometric$7
  6
Continuous
 62
    18
370
    35
100
AcDbEllipse
 10
113.8
 20
68.4
 30
-45.4
 11
0.0
 21
-1.414213562373095
 31
-1.414213562373095
210
0.5773502691896258
220
-0.5773502691896258
230
0.5773502691896258
 40
0.57735
 41
0.2867685047012443
 42
2.854824149179299
  0
ELLIPSE
  5
2E0
330
1F
100
AcDbEntity
  8
Isometric$7
  6
Continuous
 62
    18
370
    35
100
AcDbEllipse
 10
87.133333
 20
15.066667
 30
-72.066667
 11
0.0
 21
-1.414213562373095
 31
-1.414213562373095
210
0.5773502691896258
220
-0.5773502691896258
230
0.5773502691896258
 40
0.57735
 41
0.2867685047012699
 42
2.854824149179283
  0
ELLIPSE
  5
2E1
330
1F
100
AcDbEntity
  8
Isometric$7
  6
Continuous
 62
    18
370
    35
100
AcDbEllipse
 10
-158.6
 20
242.8
 30
401.4
 11
0.0
 21
-3.535533905932738
 31
-3.535533905932738
210
0.5773502691896258
220
-0.5773502691896258
230
0.5773502691896258
 40
0.57735
 41
3.14159265358979
 42
3.926990816987255
  0
ELLIPSE
  5
2E2
330
1F
100
AcDbEntity
  8
Isometric$7
  6
Continuous
 62
    18
370
    35
100
AcDbEllipse
 10
-31.633333
 20
278.533333
 30
310.166667
 11
0.0
 21
-2.121320343559643
 31
-2.121320343559643
210
0.5773502691896258
220
-0.5773502691896258
230
0.5773502691896258
 40
0.57735
 41
0.1897718312381684
 42
2.941806995767923
  0
ELLIPSE
  5
2E3
330
1F
100
AcDbEntity
  8
Isometric$7
  6
Continuous
 62
    18
370
    35
100
AcDbEllipse
 10
-37.2
 20
219.4
 30
256.6
 11
0.0
 21
-1.414213562373095
 31
-1.414213562373095
210
0.5773502691896258
220
-0.5773502691896258
230
0.5773502691896258
 40
0.57735
 41
0.2867685047012641
 42
2.854824149179272
  0
ELLIPSE
  5
2E4
330
1F
100
AcDbEntity
  8
Isometric$7
  6
Continuous
 62
    18
370
    35
100
AcDbEllipse
 10
-158.066667
 20
243.066667
 30
401.133333
 11
0.0
 21
3.535533905932738
 31
3.535533905932738
210
0.5773502691896258
220
-0.5773502691896258
230
0.5773502691896258
 40
0.57735
 41
0.0779016803319577
 42
0.7853981633974403
  0
ELLIPSE
  5
2E5
330
1F
100
AcDbEntity
  8
Isometric$7
  6
Continuous
 62
    18
370
    35
100
AcDbEllipse
 10
-39.133333
 20
302.533333
 30
341.666667
 11
0.0
 21
-3.535533905932738
 31
-3.535533905932738
210
0.5773502691896258
220
-0.5773502691896258
230
0.5773502691896258
 40
0.57735
 41
3.141592653589793
 42
3.926990816987233
  0
ELLIPSE
  5
2E6
330
1F
100
AcDbEntity
  8
Isometric$7
  6
Continuous
 62
    18
370
    35
100
AcDbEllipse
 10
-133.0
 20
133.0
 30
266.0
 11
2.82842712474619
 21
0.0
 31
-2.82842712474619
210
0.5773502691896258
220
-0.5773502691896258
230
0.5773502691896258
 40
0.57735
 41
3.926990816987252
 42
6.141273676519
  0
ELLIPSE
  5
2E7
330
1F
100
AcDbEntity
  8
Isometric$7
  6
Continuous
 62
    18
370
    35
100
AcDbEllipse
 10
-146.333333
 20
146.333333
 30
292.666667
 11
2.82842712474619
 21
0.0
 31
-2.82842712474619
210
0.5773502691896258
220
-0.5773502691896258
230
0.5773502691896258
 40
0.57735
 41
3.283455196859226
 42
3.926990816987243
  0
ELLIPSE
  5
2E8
330
1F
100
AcDbEntity
  8
Isometric$7
  6
Continuous
 62
    18
370
    35
100
AcDbEllipse
 10
-63.866667
 20
166.066667
 30
229.933333
 11
0.0
 21
-1.414213562373095
 31
-1.414213562373095
210
0.5773502691896258
220
-0.5773502691896258
230
0.5773502691896258
 40
0.57735
 41
0.2867685047012682
 42
2.854824149179285
  0
ELLIPSE
  5
2E9
330
1F
100
AcDbEntity
  8
Isometric$7
  6
Continuous
 62
    18
370
    35
100
AcDbEllipse
 10
-146.6
 20
145.8
 30
292.4
 11
-2.82842712474619
 21
0.0
 31
2.82842712474619
210
0.5773502691896258
220
-0.5773502691896258
230
0.5773502691896258
 40
0.57735
 41
3.926990816987243
 42
7.068583470577035
  0
ELLIPSE
  5
2EA
330
1F
100
AcDbEntity
  8
Isometric$7
  6
Continuous
 62
    18
370
    35
100
AcDbEllipse
 10
-133.266667
 20
132.466667
 30
265.733333
 11
-2.82842712474619
 21
0.0
 31
2.82842712474619
210
0.5773502691896258
220
-0.5773502691896258
230
0.5773502691896258
 40
0.57735
 41
0.78539816339744
 42
3.926990816987252
  0
ELLIPSE
  5
2EB
330
1F
100
AcDbEntity
  8
Isometric$7
  6
Continuous
 62
    18
370
    35
100
AcDbEllipse
 10
182.4
 20
-120.2
 30
-302.6
 11
-1.414213562373095
 21
0.0
 31
1.414213562373095
210
0.5773502691896258
220
-0.5773502691896258
230
0.5773502691896258
 40
0.57735
 41
3.92699081698725
 42
5.497787143782111
  0
ELLIPSE
  5
2EC
330
1F
100
AcDbEntity
  8
Isometric$7
  6
Continuous
 62
    18
370
    35
100
AcDbEllipse
 10
202.066667
 20
-135.866667
 30
-337.933333
 11
1.414213562373095
 21
0.0
 31
-1.414213562373095
210
0.5773502691896258
220
-0.5773502691896258
230
0.5773502691896258
 40
0.57735
 41
3.926990816987213
 42
5.497787143782106
  0
ELLIPSE
  5
2ED
330
1F
100
AcDbEntity
  8
Isometric$7
  6
Continuous
 62
    18
370
    35
100
AcDbEllipse
 10
114.333333
 20
68.666667
 30
-45.666667
 11
0.0
 21
-1.414213562373095
 31
-1.414213562373095
210
0.5773502691896258
220
-0.5773502691896258
230
0.5773502691896258
 40
0.57735
 41
0.0
 42
6.283185307179586
  0
ELLIPSE
  5
2EE
330
1F
100
AcDbEntity
  8
Isometric$7
  6
Continuous
 62
    18
370
    35
100
AcDbEllipse
 10
-63.333333
 20
166.333333
 30
229.666667
 11
0.0
 21
-1.414213562373095
 31
-1.414213562373095
210
0.5773502691896258
220
-0.5773502691896258
230
0.5773502691896258
 40
0.57735
 41
0.0
 42
6.283185307179586
  0
ELLIPSE
  5
2EF
330
1F
100
AcDbEntity
  8
Isometric$7
  6
Continuous
 62
    18
370
    35
100
AcDbEllipse
 10
87.666667
 20
15.333333
 30
-72.333333
 11
0.0
 21
-1.414213562373095
 31
-1.414213562373095
210
0.5773502691896258
220
-0.5773502691896258
230
0.5773502691896258
 40
0.57735
 41
0.0
 42
6.283185307179586
  0
ELLIPSE
  5
2F0
330
1F
100
AcDbEntity
  8
Isometric$7
  6
Continuous
 62
    18
370
    35
100
AcDbEllipse
 10
-36.666667
 20
219.666667
 30
256.333333
 11
0.0
 21
-1.414213562373095
 31
-1.414213562373095
210
0.5773502691896258
220
-0.5773502691896258
230
0.5773502691896258
 40
0.57735
 41
0.0
 42
6.283185307179586
  0
ELLIPSE
  5
2F1
330
1F
100
AcDbEntity
  8
Isometric$7
  6
Continuous
 62
    18
370
    35
100
AcDbEllipse
 10
261.733333
 20
-27.533333
 30
-289.266667
 11
0.0
 21
-1.414213562373095
 31
-1.414213562373095
210
0.5773502691896258
220
-0.5773502691896258
230
0.5773502691896258
 40
0.57735
 41
0.0
 42
6.283185307179586
  0
ELLIPSE
  5
2F2
330
1F
100
AcDbEntity
  8
Isometric$7
  6
Continuous
 62
    18
370
    35
100
AcDbEllipse
 10
243.4
 20
-64.2
 30
-307.6
 11
0.0
 21
-1.414213562373095
 31
-1.414213562373095
210
0.5773502691896258
220
-0.5773502691896258
230
0.5773502691896258
 40
0.57735
 41
0.0
 42
6.283185307179586
  0
ELLIPSE
  5
2F3
330
1F
100
AcDbEntity
  8
Isometric$7
  6
Continuous
 62
    18
370
    35
100
AcDbEllipse
 10
225.066667
 20
-100.866667
 30
-325.933333
 11
0.0
 21
-1.414213562373095
 31
-1.414213562373095
210
0.5773502691896258
220
-0.5773502691896258
230
0.5773502691896258
 40
0.57735
 41
0.0
 42
6.283185307179586
  0
ELLIPSE
  5
2F4
330
1F
100
AcDbEntity
  8
Isometric$7
  6
Continuous
 62
    18
370
    35
100
AcDbEllipse
 10
135.566667
 20
112.133333
 30
-23.433333
 11
0.0
 21
-2.121320343559643
 31
-2.121320343559643
210
0.5773502691896258
220
-0.5773502691896258
230
0.5773502691896258
 40
0.57735
 41
0.0
 42
6.283185307179586
  0
ELLIPSE
  5
2F5
330
1F
100
AcDbEntity
  8
Isometric$7
  6
Continuous
 62
    18
370
    35
100
AcDbEllipse
 10
-31.1
 20
278.8
 30
309.9
 11
0.0
 21
-2.121320343559643
 31
-2.121320343559643
210
0.5773502691896258
220
-0.5773502691896258
230
0.5773502691896258
 40
0.57735
 41
0.0
 42
6.283185307179586
  0
ELLIPSE
  5
2F6
330
1F
100
AcDbEntity
  8
Isometric$7
  6
Continuous
 62
    18
370
    35
100
AcDbEllipse
 10
-38.6
 20
302.8
 30
341.4
 11
0.0
 21
3.535533905932738
 31
3.535533905932738
210
0.5773502691896258
220
-0.5773502691896258
230
0.5773502691896258
 40
0.57735
 41
5.497787143782128
 42
7.068583470577034
  0
ELLIPSE
  5
2F7
330
1F
100
AcDbEntity
  8
Isometric$7
  6
Continuous
 62
    18
370
    35
100
AcDbEllipse
 10
274.733333
 20
-10.533333
 30
-285.266667
 11
0.0
 21
3.535533905932738
 31
3.535533905932738
210
0.5773502691896258
220
-0.5773502691896258
230
0.5773502691896258
 40
0.57735
 41
3.926990816987247
 42
5.497787143782142
  0
ELLIPSE
  5
2F8
330
1F
100
AcDbEntity
  8
Isometric$7
  6
Continuous
 62
    18
370
    35
100
AcDbEllipse
 10
217.533333
 20
-128.333333
 30
-345.866667
 11
-1.131370849898473
 21
-1.131370849898473
 31
0.0
210
0.5773502691896258
220
-0.5773502691896258
230
0.5773502691896258
 40
0.57735
 41
0.7853981633974513
 42
2.356194490192355
  0
ELLIPSE
  5
2F9
330
1F
100
AcDbEntity
  8
Isometric$7
  6
Continuous
 62
    18
370
    35
100
AcDbEllipse
 10
-217.0
 20
129.4
 30
346.4
 11
1.131370849898473
 21
1.131370849898473
 31
0.0
210
0.5773502691896258
220
-0.5773502691896258
230
0.5773502691896258
 40
0.57735
 41
2.356194490192336
 42
3.926990816987245
  0
ELLIPSE
  5
2FA
330
1F
100
AcDbEntity
  8
Isometric$7
  6
Continuous
 62
    18
370
    35
100
AcDbEllipse
 10
-99.133333
 20
188.333333
 30
287.466667
 11
-1.131370849898473
 21
-1.131370849898473
 31
0.0
210
0.5773502691896258
220
-0.5773502691896258
230
0.5773502691896258
 40
0.57735
 41
0.7853981633974948
 42
2.356194490192311
  0
ELLIPSE
  5
2FB
330
1F
100
AcDbEntity
  8
Isometric$7
  6
Continuous
 62
    18
370
    35
100
AcDbEllipse
 10
-99.133333
 20
188.333333
 30
287.466667
 11
-0.5656854249492349
 21
-0.5656854249492349
 31
0.0
210
0.5773502691896258
220
-0.5773502691896258
230
0.5773502691896258
 40
0.57735
 41
0.7853981633975571
 42
2.356194490192261
  0
ELLIPSE
  5
2FC
330
1F
100
AcDbEntity
  8
Isometric$7
  6
Continuous
 62
    18
370
    35
100
AcDbEllipse
 10
-217.0
 20
129.4
 30
346.4
 11
0.5656854249492349
 21
0.5656854249492349
 31
0.0
210
0.5773502691896258
220
-0.5773502691896258
230
0.5773502691896258
 40
0.57735
 41
2.356194490192348
 42
3.926990816987164
  0
ELLIPSE
  5
2FD
330
1F
100
AcDbEntity
  8
Isometric$7
  6
Continuous
 62
    18
370
    35
100
AcDbEllipse
 10
86.199363
 20
14.599681
 30
-71.599681
 11
0.0
 21
-1.237436867076458
 31
-1.237436867076458
210
0.5773502691896258
220
-0.5773502691896258
230
0.5773502691896258
 40
0.57735
 41
0.9327584939097947
 42
2.208932334552822
  0
ELLIPSE
  5
2FE
330
1F
100
AcDbEntity
  8
Isometric$7
  6
Continuous
 62
    18
370
    35
100
AcDbEllipse
 10
86.732696
 20
14.866348
 30
-71.866348
 11
0.0
 21
-1.237436867076458
 31
-1.237436867076458
210
0.5773502691896258
220
-0.5773502691896258
230
0.5773502691896258
 40
0.57735
 41
0.4454189334167731
 42
0.7853981634100577
  0
ELLIPSE
  5
2FF
330
1F
100
AcDbEntity
  8
Isometric$7
  6
Continuous
 62
    18
370
    35
100
AcDbEllipse
 10
86.732696
 20
14.866348
 30
-71.866348
 11
0.0
 21
-1.237436867076458
 31
-1.237436867076458
210
0.5773502691896258
220
-0.5773502691896258
230
0.5773502691896258
 40
0.57735
 41
0.7853981634100577
 42
2.696173719142085
  0
ELLIPSE
  5
300
330
1F
100
AcDbEntity
  8
Isometric$7
  6
Continuous
 62
    18
370
    35
100
AcDbEllipse
 10
113.399363
 20
68.199681
 30
-45.199681
 11
0.0
 21
-1.237436867076458
 31
-1.237436867076458
210
0.5773502691896258
220
-0.5773502691896258
230
0.5773502691896258
 40
0.57735
 41
0.4454189334167972
 42
0.7853981634100741
  0
ELLIPSE
  5
301
330
1F
100
AcDbEntity
  8
Isometric$7
  6
Continuous
 62
    18
370
    35
100
AcDbEllipse
 10
113.399363
 20
68.199681
 30
-45.199681
 11
0.0
 21
-1.237436867076458
 31
-1.237436867076458
210
0.5773502691896258
220
-0.5773502691896258
230
0.5773502691896258
 40
0.57735
 41
0.7853981634100741
 42
2.696173719142074
  0
ELLIPSE
  5
302
330
1F
100
AcDbEntity
  8
Isometric$7
  6
Continuous
 62
    18
370
    35
100
AcDbEllipse
 10
112.86603
 20
67.933015
 30
-44.933015
 11
0.0
 21
-1.237436867076458
 31
-1.237436867076458
210
0.5773502691896258
220
-0.5773502691896258
230
0.5773502691896258
 40
0.57735
 41
0.9327584939097963
 42
2.208932334552823
  0
ELLIPSE
  5
303
330
1F
100
AcDbEntity
  8
Isometric$7
  6
Continuous
 62
    18
370
    35
100
AcDbEllipse
 10
270.399333
 20
-28.201333
 30
-298.600667
 11
0.0
 21
1.414213562373095
 31
1.414213562373095
210
0.5773502691896258
220
-0.5773502691896258
230
0.5773502691896258
 40
0.57735
 41
3.926990816987258
 42
4.452913062152273
  0
SPLINE
  5
304
330
1F
100
AcDbEntity
  8
Front$5
  6
Continuous
 62
    18
370
    35
100
AcDbSpline
210
0.0
220
-1.0
230
0.0
 70
     8
 71
     3
 72
    16
 73
    12
 74
     0
 42
0.000000001
 43
0.0000000001
 40
0.0
 40
0.0
 40
0.0
 40
0.0
 40
0.0153330138970186
 40
0.494489698132998
 40
0.494489698132998
 40
0.6142788691919928
 40
0.6142788691919928
 40
0.7340680402509877
 40
0.9736463823689467
 40
0.9736463823689467
 40
1.0
 40
1.0
 40
1.0
 40
1.0
 10
-3.099998334284538
 20
0.0
 30
430.0522927941042
 10
-3.099995224890284
 20
0.0
 30
430.055541791695
 10
-3.099731357179902
 20
0.0
 30
430.1603320638754
 10
-3.094191649749877
 20
0.0
 30
430.2654480680169
 10
-3.081103588743615
 20
0.0
 30
430.3931623184534
 10
-3.078169841504412
 20
0.0
 30
430.4186827490558
 10
-3.071697397874354
 20
0.0
 30
430.4694912246566
 10
-3.061071990971185
 20
0.0
 30
430.5454399269425
 10
-3.047730765739221
 20
0.0
 30
430.6206068324349
 10
-3.036541097997737
 20
0.0
 30
430.6758516121319
 10
-3.035417879464307
 20
0.0
 30
430.6813221986624
 10
-3.034280337628337
 20
0.0
 30
430.686788667194
  0
SPLINE
  5
305
330
1F
100
AcDbEntity
  8
Front$5
  6
Continuous
 62
    18
370
    35
100
AcDbSpline
210
0.0
220
1.0
230
0.0
 70
     8
 71
     3
 72
    14
 73
    10
 74
     0
 42
0.000000001
 43
0.0000000001
 40
0.0
 40
0.0
 40
0.0
 40
0.0
 40
0.0910518053387965
 40
0.0910518053387965
 40
0.1891679748835142
 40
0.5816326530623962
 40
0.9740973312412783
 40
0.9740973312412783
 40
1.0
 40
1.0
 40
1.0
 40
1.0
 10
3.004381994150576
 20
0.0
 30
430.8166005082937
 10
3.010210004383874
 20
0.0
 30
430.7935407836438
 10
3.015788962394119
 20
0.0
 30
430.7703629222943
 10
3.026799581917518
 20
0.0
 30
430.7222261057613
 10
3.053769139922692
 20
0.0
 30
430.5972751398003
 10
3.088271333074486
 20
0.0
 30
430.3713450592289
 10
3.099350729357508
 20
0.0
 30
430.1690949601138
 10
3.099985651437002
 20
0.0
 30
430.0609124285526
 10
3.100003430108393
 20
0.0
 30
430.0542128825194
 10
3.099999620786712
 20
0.0
 30
430.0475117668
  0
SPLINE
  5
306
330
1F
100
AcDbEntity
  8
Front$5
  6
Continuous
 62
    18
370
    35
100
AcDbSpline
210
0.0
220
1.0
230
0.0
 70
     8
 71
     3
 72
    52
 73
    48
 74
     0
 42
0.000000001
 43
0.0000000001
 40
0.0
 40
0.0
 40
0.0
 40
0.0
 40
0.0553801849697797
 40
0.0553801849697797
 40
0.1107603699395595
 40
0.1661405549093393
 40
0.1661405549093393
 40
0.1799856011517849
 40
0.1799856011517849
 40
0.1938306473942304
 40
0.1938306473942304
 40
0.2215207398791217
 40
0.2215207398791217
 40
0.2769009248489055
 40
0.3322811098186895
 40
0.3322811098186895
 40
0.3599712023035828
 40
0.3738162485460306
 40
0.3738162485460306
 40
0.3876612947884784
 40
0.3876612947884784
 40
0.4430414797582671
 40
0.4984216647280559
 40
0.5538018496978445
 40
0.5538018496978445
 40
0.5814919421827388
 40
0.5814919421827388
 40
0.6091820346676331
 40
0.6091820346676331
 40
0.6645622196374191
 40
0.7199424046072052
 40
0.7199424046072052
 40
0.7476324970921
 40
0.7476324970921
 40
0.7614775433345472
 40
0.7614775433345472
 40
0.7753225895769944
 40
0.8307027745467949
 40
0.8860829595165954
 40
0.9414631444863959
 40
0.9414631444863959
 40
0.955308190728848
 40
0.955308190728848
 40
0.9691532369712998
 40
0.996843329456204
 40
0.996843329456204
 40
1.0
 40
1.0
 40
1.0
 40
1.0
 10
0.0000000000000643
 20
0.0
 30
426.999755809826
 10
0.1027865065434443
 20
0.0
 30
426.999755809826
 10
0.2046937949727353
 20
0.0
 30
427.0047943585441
 10
0.406813076001981
 20
0.0
 30
427.0245921657789
 10
0.6072364608348336
 20
0.0
 30
427.0541143310206
 10
0.8042948791837919
 20
0.0
 30
427.102963275151
 10
0.9263828334726117
 20
0.0
 30
427.1396767272505
 10
0.9507466241048822
 20
0.0
 30
427.1473292920372
 10
0.9993655501446651
 20
0.0
 30
427.1632607693434
 10
1.023654480031667
 20
0.0
 30
427.1715520525486
 10
1.096033942125765
 20
0.0
 30
427.1972605382261
 10
1.143660421019802
 20
0.0
 30
427.2155147231041
 10
1.284700433364315
 20
0.0
 30
427.2735579484806
 10
1.467858070944164
 20
0.0
 30
427.3596806355002
 10
1.641425981214496
 20
0.0
 30
427.4629846112003
 10
1.767976249479456
 20
0.0
 30
427.5469926614772
 10
1.830343490214828
 20
0.0
 30
427.5906319170746
 10
1.891327470473766
 20
0.0
 30
427.6367696627441
 10
1.931672767940612
 20
0.0
 30
427.6680901532383
 10
1.951678394561169
 20
0.0
 30
427.6840236742487
 10
2.050377753445788
 20
0.0
 30
427.7646554996665
 10
2.200698133399149
 20
0.0
 30
427.900490986024
 10
2.404064234547303
 20
0.0
 30
428.1242261825723
 10
2.524922630881566
 20
0.0
 30
428.2867632463563
 10
2.609887845255205
 20
0.0
 30
428.4138586080106
 10
2.637311944966838
 20
0.0
 30
428.4571862277026
 10
2.689665622261952
 20
0.0
 30
428.5446654420766
 10
2.714662026777238
 20
0.0
 30
428.588907427088
 10
2.786171759645702
 20
0.0
 30
428.7231180987869
 10
2.872255637190438
 20
0.0
 30
428.9060183364064
 10
2.940055533782911
 20
0.0
 30
429.0967581644128
 10
2.983938420017125
 20
0.0
 30
429.24281200188
 10
2.997402795154378
 20
0.0
 30
429.2919973112751
 10
3.015820807194262
 20
0.0
 30
429.3665420274377
 10
3.021671320981946
 20
0.0
 30
429.3915544086025
 10
3.032728079523866
 20
0.0
 30
429.4416320502839
 10
3.058749633266962
 20
0.0
 30
429.5669248274726
 10
3.091270511188782
 20
0.0
 30
429.7933245179092
 10
3.104927290817653
 20
0.0
 30
430.0970044298498
 10
3.094226366602986
 20
0.0
 30
430.3006676517952
 10
3.081163465481313
 20
0.0
 30
430.4283463563825
 10
3.078233864628034
 20
0.0
 30
430.4538687240907
 10
3.071770139280842
 20
0.0
 30
430.5046755366491
 10
3.061157725235014
 20
0.0
 30
430.5806215521327
 10
3.047829222440368
 20
0.0
 30
430.6557851732267
 10
3.036608618548384
 20
0.0
 30
430.7112262880039
 10
3.035444973722181
 20
0.0
 30
430.7168953647859
 10
3.034265942937138
 20
0.0
 30
430.7225600148064
  0
SPLINE
  5
307
330
1F
100
AcDbEntity
  8
Front$5
  6
Continuous
 62
    18
370
    35
100
AcDbSpline
210
0.0
220
-1.0
230
0.0
 70
     8
 71
     3
 72
    51
 73
    47
 74
     0
 42
0.000000001
 43
0.0000000001
 40
0.0
 40
0.0
 40
0.0
 40
0.0
 40
0.0124993236292932
 40
0.0124993236292932
 40
0.0260267301549164
 40
0.0801363562574197
 40
0.134245982359923
 40
0.134245982359923
 40
0.1883556084624266
 40
0.1883556084624266
 40
0.2018830149880545
 40
0.2018830149880545
 40
0.2154104215136823
 40
0.2424652345649334
 40
0.2424652345649334
 40
0.2965748606674367
 40
0.3506844867699395
 40
0.3506844867699395
 40
0.3777392998211894
 40
0.3777392998211894
 40
0.4047941128724393
 40
0.4047941128724393
 40
0.4589037389749422
 40
0.5130133650774451
 40
0.5130133650774451
 40
0.5400681781286966
 40
0.5535955846543209
 40
0.5535955846543209
 40
0.5671229911799454
 40
0.5671229911799454
 40
0.6212326172824513
 40
0.6753422433849576
 40
0.7294518694874637
 40
0.7294518694874637
 40
0.7565066825387173
 40
0.7565066825387173
 40
0.7835614955899708
 40
0.7835614955899708
 40
0.8376711216924783
 40
0.8917807477949854
 40
0.8917807477949854
 40
0.9188355608462391
 40
0.9188355608462391
 40
0.9458903738974929
 40
0.9458903738974929
 40
1.0
 40
1.0
 40
1.0
 40
1.0
 10
-3.004603065450379
 20
0.0
 30
430.8514121542803
 10
-3.010399120990526
 20
0.0
 30
430.8284539801687
 10
-3.015948749620232
 20
0.0
 30
430.8053767492792
 10
-3.026928502505442
 20
0.0
 30
430.7573383759189
 10
-3.053876388338918
 20
0.0
 30
430.6323852222914
 10
-3.088333820100373
 20
0.0
 30
430.4064648366352
 10
-3.099372603676938
 20
0.0
 30
430.204243117644
 10
-3.100526637324485
 20
0.0
 30
430.0013126900797
 10
-3.096162350207929
 20
0.0
 30
429.8994931965563
 10
-3.084288348033064
 20
0.0
 30
429.7717588775121
 10
-3.081590220733185
 20
0.0
 30
429.7461854477576
 10
-3.07558143340178
 20
0.0
 30
429.695290618781
 10
-3.065639177478606
 20
0.0
 30
429.6192142863548
 10
-3.052940869271992
 20
0.0
 30
429.5439264808259
 10
-3.023922942817798
 20
0.0
 30
429.3943859104497
 10
-2.9755907047553
 20
0.0
 30
429.1977543465644
 10
-2.908118427046078
 20
0.0
 30
429.0065779612332
 10
-2.850179810549
 20
0.0
 30
428.8652779470819
 10
-2.829623845173654
 20
0.0
 30
428.8184863507089
 10
-2.786085544073313
 20
0.0
 30
428.7257761380057
 10
-2.763252828049976
 20
0.0
 30
428.6801708339033
 10
-2.691630840245174
 20
0.0
 30
428.5455517843304
 10
-2.587821068482893
 20
0.0
 30
428.3719063025462
 10
-2.467707056948475
 20
0.0
 30
428.209664897677
 10
-2.371447895566801
 20
0.0
 30
428.0922767044262
 10
-2.321772362807502
 20
0.0
 30
428.034657572191
 10
-2.269739501973474
 20
0.0
 30
427.9786726161669
 10
-2.234521240973955
 20
0.0
 30
427.9417159476702
 10
-2.21664572078302
 20
0.0
 30
427.9234210338335
 10
-2.126438351525437
 20
0.0
 30
427.8333687601631
 10
-1.97603757221314
 20
0.0
 30
427.6975285622541
 10
-1.732730154628022
 20
0.0
 30
427.5176741736785
 10
-1.558711273122128
 20
0.0
 30
427.4136306446122
 10
-1.423629208658728
 20
0.0
 30
427.3416978272055
 10
-1.377746244735332
 20
0.0
 30
427.3187014314505
 10
-1.285418084058529
 20
0.0
 30
427.2752433274205
 10
-1.238872801940505
 20
0.0
 30
427.2547227747848
 10
-1.098111545818959
 20
0.0
 30
427.196721220296
 10
-0.9074338540843935
 20
0.0
 30
427.1288625167825
 10
-0.7108249587286253
 20
0.0
 30
427.0796958265689
 10
-0.5611026189019135
 20
0.0
 30
427.0499413871906
 10
-0.510816894327501
 20
0.0
 30
427.0412121693432
 10
-0.4094734793482996
 20
0.0
 30
427.026177642767
 10
-0.3584039278833004
 20
0.0
 30
427.0198775278935
 10
-0.2052403780948197
 20
0.0
 30
427.0047955770781
 10
-0.1027865065434309
 20
0.0
 30
426.999755809826
 10
0.0000000000000641
 20
0.0
 30
426.999755809826
  0
SPLINE
  5
308
330
1F
100
AcDbEntity
  8
Front$5
  6
Continuous
 62
    18
370
    35
100
AcDbSpline
210
0.0
220
1.0
230
0.0
 70
     8
 71
     3
 72
    87
 73
    83
 74
     0
 42
0.000000001
 43
0.0000000001
 40
0.0
 40
0.0
 40
0.0
 40
0.0
 40
0.0059529404393943
 40
0.0059529404393943
 40
0.0137857568068509
 40
0.0137857568068509
 40
0.0451170222766747
 40
0.0764482877464987
 40
0.1077795532163225
 40
0.1077795532163225
 40
0.1156123695837789
 40
0.1156123695837789
 40
0.1234451859512352
 40
0.1234451859512352
 40
0.1391108186861454
 40
0.1391108186861454
 40
0.1704420841559639
 40
0.2017733496257825
 40
0.2017733496257825
 40
0.2174389823606914
 40
0.2174389823606914
 40
0.2252717987281462
 40
0.2252717987281462
 40
0.2331046150956009
 40
0.2644358805654201
 40
0.2957671460352394
 40
0.3270984115050585
 40
0.3270984115050585
 40
0.3349312278725129
 40
0.3349312278725129
 40
0.3427640442399673
 40
0.3584296769748754
 40
0.3584296769748754
 40
0.3897609424446913
 40
0.4210922079145072
 40
0.4210922079145072
 40
0.4367578406494149
 40
0.4367578406494149
 40
0.4524234733843225
 40
0.4524234733843225
 40
0.4837547388541374
 40
0.4837547388541374
 40
0.4994203715890448
 40
0.4994203715890448
 40
0.5150860043239525
 40
0.5150860043239525
 40
0.5464172697937675
 40
0.5777485352635825
 40
0.5777485352635825
 40
0.5934141679984906
 40
0.6012469843659439
 40
0.6012469843659439
 40
0.6090798007333973
 40
0.6090798007333973
 40
0.64041106620321
 40
0.6717423316730226
 40
0.7030735971428353
 40
0.7030735971428353
 40
0.7109064135102882
 40
0.7109064135102882
 40
0.7187392298777411
 40
0.7187392298777411
 40
0.7344048626126454
 40
0.7344048626126454
 40
0.7657361280824546
 40
0.7970673935522636
 40
0.7970673935522636
 40
0.8127330262871683
 40
0.8127330262871683
 40
0.8283986590220728
 40
0.8283986590220728
 40
0.8597299244918813
 40
0.89106118996169
 40
0.9223924554314985
 40
0.9223924554314985
 40
0.9302252717989506
 40
0.9302252717989506
 40
0.9380580881664029
 40
0.953723720901307
 40
0.953723720901307
 40
0.9850549863711155
 40
1.0
 40
1.0
 40
1.0
 40
1.0
 10
2.99999927898008
 20
0.0
 30
430.2231578178811
 10
2.999985954106335
 20
0.0
 30
430.2043667555128
 10
2.999796719651164
 20
0.0
 30
430.1855513065312
 10
2.998947360691119
 20
0.0
 30
430.1419216931463
 10
2.998155450839367
 20
0.0
 30
430.1170534950527
 10
2.992666095626079
 20
0.0
 30
429.9930748904717
 10
2.974154219836713
 20
0.0
 30
429.7968108422101
 10
2.918079834603865
 20
0.0
 30
429.508520645572
 10
2.86186460369447
 20
0.0
 30
429.3203773855111
 10
2.820684072696404
 20
0.0
 30
429.2040825251631
 10
2.812144957594701
 20
0.0
 30
429.1808884313632
 10
2.794453746999234
 20
0.0
 30
429.134631323771
 10
2.785312629526959
 20
0.0
 30
429.111599428904
 10
2.757122714459402
 20
0.0
 30
429.0430777699928
 10
2.737265248533841
 20
0.0
 30
428.9980490190811
 10
2.67455947700991
 20
0.0
 30
428.8648785871022
 10
2.58261132718996
 20
0.0
 30
428.6924174822053
 10
2.47422956890221
 20
0.0
 30
428.5299460834864
 10
2.386690701970436
 20
0.0
 30
428.4118688588844
 10
2.356467099278729
 20
0.0
 30
428.3731402925159
 10
2.309536525270049
 20
0.0
 30
428.3160075880274
 10
2.293604571534046
 20
0.0
 30
428.2970980310782
 10
2.261348090056247
 20
0.0
 30
428.2597680443002
 10
2.17970078659845
 20
0.0
 30
428.1676403302077
 10
2.023835497267709
 20
0.0
 30
428.0123820887266
 10
1.797456824309581
 20
0.0
 30
427.8272674318041
 10
1.634092671209676
 20
0.0
 30
427.7184460114399
 10
1.527958348726905
 20
0.0
 30
427.6551298809553
 10
1.506550502086373
 20
0.0
 30
427.6427157467469
 10
1.46356431977392
 20
0.0
 30
427.618491886043
 10
1.398748604548332
 20
0.0
 30
427.5830150962922
 10
1.33293406035187
 20
0.0
 30
427.5500849409283
 10
1.199990510649812
 20
0.0
 30
427.4875674242804
 10
1.019232585141985
 20
0.0
 30
427.413110357596
 10
0.8315055787577003
 20
0.0
 30
427.3562953007536
 10
0.6880319490182917
 20
0.0
 30
427.3204403046227
 10
0.6397546339523497
 20
0.0
 30
427.309615660076
 10
0.5423069501634268
 20
0.0
 30
427.2902772386928
 10
0.4934576975232616
 20
0.0
 30
427.2818269672583
 10
0.3465374697130169
 20
0.0
 30
427.2600925042311
 10
0.2480949035584577
 20
0.0
 30
427.2504157732951
 10
0.0996863313484839
 20
0.0
 30
427.2431217359634
 10
0.0500924672166033
 20
0.0
 30
427.2418961221607
 10
-0.0493468231427261
 20
0.0
 30
427.2418839215013
 10
-0.0988563280102438
 20
0.0
 30
427.2430974025133
 10
-0.2467530907990002
 20
0.0
 30
427.2503176904724
 10
-0.4422808864747939
 20
0.0
 30
427.2694718471663
 10
-0.6345457021138775
 20
0.0
 30
427.3072868697514
 10
-0.7775132418389765
 20
0.0
 30
427.3427054563931
 10
-0.8486887562318917
 20
0.0
 30
427.3621819846545
 10
-0.9193952879172788
 20
0.0
 30
427.3843515870633
 10
-0.9664277257217561
 20
0.0
 30
427.3997362596355
 10
-0.9899239194484902
 20
0.0
 30
427.4077429890349
 10
-1.106613617166974
 20
0.0
 30
427.4491190335201
 10
-1.288477961737508
 20
0.0
 30
427.5239155065932
 10
-1.547263291931156
 20
0.0
 30
427.6611087890268
 10
-1.710511879304302
 20
0.0
 30
427.7692078369936
 10
-1.809578181693274
 20
0.0
 30
427.8421186914413
 10
-1.829242889618365
 20
0.0
 30
427.8569689564362
 10
-1.868272115153065
 20
0.0
 30
427.8872121012636
 10
-1.887622124526336
 20
0.0
 30
427.9025949820735
 10
-1.944904562525541
 20
0.0
 30
427.9493037228563
 10
-1.982173764809589
 20
0.0
 30
427.9812689333568
 10
-2.091277029371066
 20
0.0
 30
428.079603191653
 10
-2.229549668013051
 20
0.0
 30
428.2172070667919
 10
-2.35365722984663
 20
0.0
 30
428.3676712124315
 10
-2.441354667767871
 20
0.0
 30
428.4854395393526
 10
-2.469688305776194
 20
0.0
 30
428.525517173537
 10
-2.524525280657365
 20
0.0
 30
428.6073507229115
 10
-2.551076100744657
 20
0.0
 30
428.649196456549
 10
-2.627112451386821
 20
0.0
 30
428.7759295499384
 10
-2.719398011072129
 20
0.0
 30
428.9488009297099
 10
-2.831266356698855
 20
0.0
 30
429.2195454634769
 10
-2.888107769693698
 20
0.0
 30
429.4077190769304
 10
-2.91791497031101
 20
0.0
 30
429.5278127440449
 10
-2.92359729636139
 20
0.0
 30
429.5519909397049
 10
-2.934339398283169
 20
0.0
 30
429.600405276157
 10
-2.94951516818332
 20
0.0
 30
429.6730861192788
 10
-2.961914734994574
 20
0.0
 30
429.7459429113796
 10
-2.983077294744521
 20
0.0
 30
429.8918873952917
 10
-2.996766333088114
 20
0.0
 30
430.0360480418445
 10
-3.00003876628
 20
0.0
 30
430.1808715579294
 10
-3.000001211379468
 20
0.0
 30
430.2277122335839
  0
SPLINE
  5
309
330
1F
100
AcDbEntity
  8
Front$5
  6
Continuous
 62
    18
370
    35
100
AcDbSpline
210
0.0
220
1.0
230
0.0
 70
    11
 71
     3
 72
   126
 73
   122
 74
     0
 42
0.000000001
 43
0.0000000001
 40
0.0
 40
0.0
 40
0.0
 40
0.0
 40
0.0312499999999934
 40
0.0312499999999934
 40
0.0468749999999899
 40
0.0468749999999899
 40
0.0546874999999883
 40
0.0546874999999883
 40
0.0624999999999867
 40
0.0624999999999867
 40
0.0937499999999816
 40
0.0937499999999816
 40
0.1015624999999803
 40
0.1015624999999803
 40
0.109374999999979
 40
0.1249999999999771
 40
0.1406249999999752
 40
0.1406249999999752
 40
0.1484374999999751
 40
0.1484374999999751
 40
0.1562499999999749
 40
0.1562499999999749
 40
0.187499999999973
 40
0.187499999999973
 40
0.2031249999999719
 40
0.2031249999999719
 40
0.2109374999999713
 40
0.2109374999999713
 40
0.2187499999999707
 40
0.2187499999999707
 40
0.2499999999999699
 40
0.2499999999999699
 40
0.257812499999969
 40
0.257812499999969
 40
0.2656249999999681
 40
0.2656249999999681
 40
0.2812499999999679
 40
0.2968749999999676
 40
0.2968749999999676
 40
0.3046874999999675
 40
0.3046874999999675
 40
0.3124999999999674
 40
0.3124999999999674
 40
0.3437499999999697
 40
0.3437499999999697
 40
0.3593749999999707
 40
0.3593749999999707
 40
0.3749999999999716
 40
0.3749999999999716
 40
0.406249999999974
 40
0.406249999999974
 40
0.4140624999999747
 40
0.4140624999999747
 40
0.4218749999999754
 40
0.4218749999999754
 40
0.4374999999999767
 40
0.4531249999999781
 40
0.4531249999999781
 40
0.4687499999999794
 40
0.4687499999999794
 40
0.4999999999999821
 40
0.4999999999999821
 40
0.5312499999999848
 40
0.5312499999999848
 40
0.5468749999999862
 40
0.5468749999999862
 40
0.5546874999999869
 40
0.5546874999999869
 40
0.5624999999999876
 40
0.5624999999999876
 40
0.5937499999999881
 40
0.5937499999999881
 40
0.6015624999999886
 40
0.6015624999999886
 40
0.609374999999989
 40
0.62499999999999
 40
0.6406249999999911
 40
0.6406249999999911
 40
0.6484374999999921
 40
0.6484374999999921
 40
0.6562499999999931
 40
0.6562499999999931
 40
0.6874999999999957
 40
0.6874999999999957
 40
0.7031249999999964
 40
0.7031249999999964
 40
0.710937499999997
 40
0.710937499999997
 40
0.7187499999999974
 40
0.7187499999999974
 40
0.749999999999999
 40
0.749999999999999
 40
0.7578124999999991
 40
0.7578124999999991
 40
0.7656249999999992
 40
0.7656249999999992
 40
0.7812499999999993
 40
0.7968749999999996
 40
0.7968749999999996
 40
0.8046874999999996
 40
0.8046874999999996
 40
0.8124999999999996
 40
0.8124999999999996
 40
0.84375
 40
0.84375
 40
0.8593750000000002
 40
0.8593750000000002
 40
0.8750000000000004
 40
0.8750000000000004
 40
0.9062500000000001
 40
0.9062500000000001
 40
0.9140625000000003
 40
0.9140625000000003
 40
0.9218750000000006
 40
0.9218750000000006
 40
0.9375000000000004
 40
0.9531250000000003
 40
0.9531250000000003
 40
0.9687500000000003
 40
0.9687500000000003
 40
1.0
 40
1.0
 40
1.0
 40
1.0
 10
0.087195592158149
 20
0.0
 30
431.5656545911872
 10
0.0038727404874407
 20
0.0
 30
431.5628312381347
 10
-0.0785720364153
 20
0.0
 30
431.5640771719897
 10
-0.2009825894503507
 20
0.0
 30
431.5717097361351
 10
-0.2415752510218303
 20
0.0
 30
431.5752169928783
 10
-0.3021429227962674
 20
0.0
 30
431.581899010275
 10
-0.3223044403901492
 20
0.0
 30
431.5843682518745
 10
-0.3620546930889669
 20
0.0
 30
431.589710017889
 10
-0.3817003612130552
 20
0.0
 30
431.5925880682426
 10
-0.4788128377033392
 20
0.0
 30
431.6079537004883
 10
-0.5529634568231866
 20
0.0
 30
431.6233582602819
 10
-0.641399823218696
 20
0.0
 30
431.6456613989579
 10
-0.6589077121982845
 20
0.0
 30
431.650284641061
 10
-0.6933256811761603
 20
0.0
 30
431.6597706424088
 10
-0.7438968985045151
 20
0.0
 30
431.6743143297625
 10
-0.8230865208153824
 20
0.0
 30
431.6998929248458
 10
-0.8811943653604423
 20
0.0
 30
431.721331799363
 10
-0.9228172414541662
 20
0.0
 30
431.7376080213984
 10
-0.9363645507264565
 20
0.0
 30
431.7430662535742
 10
-0.9627985313762
 20
0.0
 30
431.7540193667511
 10
-0.9757058394472562
 20
0.0
 30
431.7595239509877
 10
-1.037943181386492
 20
0.0
 30
431.7867865846824
 10
-1.080927570909555
 20
0.0
 30
431.8079561229732
 10
-1.13543709945849
 20
0.0
 30
431.8373557762113
 10
-1.151932272150698
 20
0.0
 30
431.8467629859974
 10
-1.174064917052585
 20
0.0
 30
431.8600972346396
 10
-1.181022893202631
 20
0.0
 30
431.8644234461236
 10
-1.193901020453673
 20
0.0
 30
431.8726929183199
 10
-1.19983655182026
 20
0.0
 30
431.8766446810491
 10
-1.227033238301657
 20
0.0
 30
431.8954476950925
 10
-1.240926047568525
 20
0.0
 30
431.9074275694584
 10
-1.2482882984978
 20
0.0
 30
431.9179648336862
 10
-1.249255867071522
 20
0.0
 30
431.9198506353661
 10
-1.250157328120056
 20
0.0
 30
431.9231644670834
 10
-1.25008701942353
 20
0.0
 30
431.9245936912772
 10
-1.248316702500866
 20
0.0
 30
431.9281359804679
 10
-1.241834436302315
 20
0.0
 30
431.9309166119776
 10
-1.227376262180154
 20
0.0
 30
431.9300422174998
 10
-1.213550161557472
 20
0.0
 30
431.9281046982965
 10
-1.208443454444546
 20
0.0
 30
431.9272452720049
 10
-1.197224064652339
 20
0.0
 30
431.9251145558421
 10
-1.191094454754638
 20
0.0
 30
431.9238394374545
 10
-1.158095818812555
 20
0.0
 30
431.9165205642256
 10
-1.124543500080466
 20
0.0
 30
431.9077368633986
 10
-1.063963635671417
 20
0.0
 30
431.8916781537078
 10
-1.042047104000112
 20
0.0
 30
431.8858415853038
 10
-0.9946725861418426
 20
0.0
 30
431.8734293196995
 10
-0.9695354207235982
 20
0.0
 30
431.8669392863758
 10
-0.8900582162792973
 20
0.0
 30
431.847058129246
 10
-0.8316211161437758
 20
0.0
 30
431.8332393666519
 10
-0.7514380137818292
 20
0.0
 30
431.8164229047746
 10
-0.7350073971983117
 20
0.0
 30
431.8130755789913
 10
-0.7015569492636264
 20
0.0
 30
431.8064851091638
 10
-0.6845998296648755
 20
0.0
 30
431.8032539389937
 10
-0.6330386955736467
 20
0.0
 30
431.7937877205231
 10
-0.5624539281424358
 20
0.0
 30
431.7817751057501
 10
-0.4881768093003017
 20
0.0
 30
431.7713332864525
 10
-0.411989335118781
 20
0.0
 30
431.7618515447288
 10
-0.3729134969376304
 20
0.0
 30
431.7575877981762
 10
-0.2528006378933426
 20
0.0
 30
431.7465249274221
 10
-0.1711170267346906
 20
0.0
 30
431.7416593628724
 10
-0.0044383786542304
 20
0.0
 30
431.7376107569393
 10
0.0780459352960435
 20
0.0
 30
431.7384896725002
 10
0.2004972866411749
 20
0.0
 30
431.7439005344672
 10
0.2411034272286164
 20
0.0
 30
431.7463864906178
 10
0.3016911661156734
 20
0.0
 30
431.7511059691472
 10
0.3218613258768647
 20
0.0
 30
431.7528478125657
 10
0.3616298355499103
 20
0.0
 30
431.756608153428
 10
0.3812844461214227
 20
0.0
 30
431.7586304886241
 10
0.4784407976970702
 20
0.0
 30
431.7693996276449
 10
0.5526238815353427
 20
0.0
 30
431.7801196123527
 10
0.6410984913646564
 20
0.0
 30
431.7953181409825
 10
0.6586132136604478
 20
0.0
 30
431.7984540657765
 10
0.6930489727116721
 20
0.0
 30
431.8048529915412
 10
0.7436462631397439
 20
0.0
 30
431.8146098464642
 10
0.8228751467764732
 20
0.0
 30
431.8314534204735
 10
0.8810112709316814
 20
0.0
 30
431.8451039709608
 10
0.9226542669761753
 20
0.0
 30
431.8552325431502
 10
0.9362081005392433
 20
0.0
 30
431.8585903855916
 10
0.9626547812927168
 20
0.0
 30
431.8652379470826
 10
0.9755687157580956
 20
0.0
 30
431.8685332753063
 10
1.03783920436002
 20
0.0
 30
431.8845953961008
 10
1.080845657917655
 20
0.0
 30
431.8962430210331
 10
1.13538279595261
 20
0.0
 30
431.9104929587489
 10
1.151886240327519
 20
0.0
 30
431.9147047078208
 10
1.174029903942408
 20
0.0
 30
431.92001372512
 10
1.18099140859875
 20
0.0
 30
431.9216183299278
 10
1.19387622098122
 20
0.0
 30
431.9244253238537
 10
1.199814788308311
 20
0.0
 30
431.9256317573747
 10
1.227025180013107
 20
0.0
 30
431.9306380815862
 10
1.240924321754574
 20
0.0
 30
431.9313582023642
 10
1.248288722412712
 20
0.0
 30
431.9275316159119
 10
1.249256427208526
 20
0.0
 30
431.9265300798233
 10
1.250157551115297
 20
0.0
 30
431.9240393618469
 10
1.250086762727287
 20
0.0
 30
431.9225451259894
 10
1.248314129747056
 20
0.0
 30
431.917382431378
 10
1.241826439749254
 20
0.0
 30
431.9086657716571
 10
1.227358292985936
 20
0.0
 30
431.8965047973427
 10
1.213522948959117
 20
0.0
 30
431.8861803751412
 10
1.208412865657125
 20
0.0
 30
431.882538340117
 10
1.19718610989294
 20
0.0
 30
431.8748685415029
 10
1.191052397901027
 20
0.0
 30
431.8708300496386
 10
1.158033631001282
 20
0.0
 30
431.8498463413488
 10
1.124461556025718
 20
0.0
 30
431.8307080001066
 10
1.063845952447035
 20
0.0
 30
431.799909421664
 10
1.041916476340979
 20
0.0
 30
431.7892926853362
 10
0.9945136973746792
 20
0.0
 30
431.7675868432393
 10
0.9693645183410994
 20
0.0
 30
431.7566483773284
 10
0.8898449261286869
 20
0.0
 30
431.7240138393543
 10
0.8313765563929256
 20
0.0
 30
431.7024633869098
 10
0.7511491142206409
 20
0.0
 30
431.676942067793
 10
0.7347084540082714
 20
0.0
 30
431.6718987576795
 10
0.7012425963555362
 20
0.0
 30
431.6620318861056
 10
0.6842776542867769
 20
0.0
 30
431.6572253103392
 10
0.6326925900849766
 20
0.0
 30
431.6432182013602
 10
0.5620750918823174
 20
0.0
 30
431.6256423266494
 10
0.4877627615118424
 20
0.0
 30
431.6106096919529
 10
0.411538616354938
 20
0.0
 30
431.5970326609495
 10
0.3724390728103681
 20
0.0
 30
431.5909673025092
 10
0.2522813319256361
 20
0.0
 30
431.5752924939081
 10
0.170518443828874
 20
0.0
 30
431.5684779442399
 10
0.0871955921581489
 20
0.0
 30
431.5656545911872
  0
SPLINE
  5
30A
330
1F
100
AcDbEntity
  8
ORTHO$6
  6
Continuous
 62
    18
370
    35
100
AcDbSpline
210
1.0
220
0.0
230
0.0
 70
     8
 71
     3
 72
    68
 73
    64
 74
     0
 42
0.000000001
 43
0.0000000001
 40
0.0
 40
0.0
 40
0.0
 40
0.0
 40
0.0611564688254771
 40
0.0611564688254771
 40
0.0917347032382153
 40
0.0917347032382153
 40
0.1070238204445847
 40
0.1070238204445847
 40
0.1223129376509541
 40
0.1223129376509541
 40
0.1834694064764339
 40
0.1834694064764339
 40
0.1987585236828039
 40
0.1987585236828039
 40
0.2140476408891739
 40
0.2446258753019152
 40
0.2752041097146566
 40
0.2752041097146566
 40
0.2904932269210287
 40
0.2904932269210287
 40
0.305782344127401
 40
0.305782344127401
 40
0.3669388129528873
 40
0.3669388129528873
 40
0.39751704736563
 40
0.39751704736563
 40
0.4128061645720014
 40
0.4128061645720014
 40
0.4280952817783727
 40
0.4280952817783727
 40
0.4892517506038612
 40
0.4892517506038612
 40
0.504540867810232
 40
0.504540867810232
 40
0.5198299850166027
 40
0.5198299850166027
 40
0.5504082194293473
 40
0.5809864538420918
 40
0.5809864538420918
 40
0.5962755710484641
 40
0.5962755710484641
 40
0.6115646882548363
 40
0.6115646882548363
 40
0.6727211570803308
 40
0.6727211570803308
 40
0.7032993914930777
 40
0.7032993914930777
 40
0.7338776259058246
 40
0.7338776259058246
 40
0.7950340947313193
 40
0.7950340947313193
 40
0.8103232119376931
 40
0.8103232119376931
 40
0.8256123291440669
 40
0.8256123291440669
 40
0.8561905635568146
 40
0.8867687979695622
 40
0.8867687979695622
 40
0.9173470323823099
 40
0.9173470323823099
 40
0.9785035012078052
 40
0.9785035012078052
 40
1.0
 40
1.0
 40
1.0
 40
1.0
 10
0.0
 20
-28.93353308873664
 30
431.5656545911872
 10
0.0
 20
-28.92788978771268
 30
431.5628312381347
 10
0.0
 20
-28.93035152905431
 30
431.5640771719897
 10
0.0
 20
-28.94567291375821
 30
431.5717097361351
 10
0.0
 20
-28.95273332738136
 30
431.5752169928783
 10
0.0
 20
-28.96632353990098
 30
431.581899010275
 10
0.0
 20
-28.97136478482771
 30
431.5843682518745
 10
0.0
 20
-28.98233240429301
 30
431.589710017889
 10
0.0
 20
-28.98826995159332
 30
431.5925880682426
 10
0.0
 20
-29.02017919424501
 30
431.6079537004883
 10
0.0
 20
-29.05274436091187
 30
431.6233582602819
 10
0.0
 20
-29.10222777988731
 30
431.6456613989579
 10
0.0
 20
-29.11259001740778
 30
431.650284641061
 10
0.0
 20
-29.13411322293728
 30
431.6597706424088
 10
0.0
 20
-29.16749563357489
 30
431.6743143297625
 10
0.0
 20
-29.22850261093578
 30
431.6998929248458
 10
0.0
 20
-29.2829944807416
 30
431.721331799363
 10
0.0
 20
-29.32605344135476
 30
431.7376080213984
 10
0.0
 20
-29.34077219682198
 30
431.7430662535742
 10
0.0
 20
-29.37096056015903
 30
431.7540193667511
 10
0.0
 20
-29.38645972580563
 30
431.7595239509877
 10
0.0
 20
-29.46508489704199
 30
431.7867865846824
 10
0.0
 20
-29.53206502860056
 30
431.8079561229732
 10
0.0
 20
-29.63892127805667
 30
431.8373557762113
 10
0.0
 20
-29.67561215899617
 30
431.8467629859974
 10
0.0
 20
-29.73236718999117
 30
431.8600972346396
 10
0.0
 20
-29.75162782970208
 30
431.8644234461236
 10
0.0
 20
-29.79031321195724
 30
431.8726929183199
 10
0.0
 20
-29.8097692009475
 30
431.8766446810491
 10
0.0
 20
-29.90761531327984
 30
431.8954476950925
 10
0.0
 20
-29.98769170417667
 30
431.9074275694584
 10
0.0
 20
-30.09015541588325
 30
431.9179648336862
 10
0.0
 20
-30.11076734280651
 30
431.9198506353661
 10
0.0
 20
-30.15223579139143
 30
431.9231644670834
 10
0.0
 20
-30.17313714322779
 30
431.9245936912772
 10
0.0
 20
-30.23542080551606
 30
431.9281359804679
 10
0.0
 20
-30.31780833691122
 30
431.9309166119776
 10
0.0
 20
-30.39892397298788
 30
431.9300422174998
 10
0.0
 20
-30.45928517817396
 30
431.9281046982965
 10
0.0
 20
-30.47932617863621
 30
431.9272452720049
 10
0.0
 20
-30.51924780812189
 30
431.9251145558421
 10
0.0
 20
-30.53917779821699
 30
431.9238394374545
 10
0.0
 20
-30.63780692738136
 30
431.9165205642256
 10
0.0
 20
-30.71276191821821
 30
431.9077368633986
 10
0.0
 20
-30.81970441404461
 30
431.8916781537078
 10
0.0
 20
-30.85442917977262
 30
431.8858415853038
 10
0.0
 20
-30.92201503188995
 30
431.8734293196995
 10
0.0
 20
-30.95441342691718
 30
431.8669392863758
 10
0.0
 20
-31.04737739558487
 30
431.847058129246
 10
0.0
 20
-31.10386465441641
 30
431.8332393666519
 10
0.0
 20
-31.16756388868492
 30
431.8164229047746
 10
0.0
 20
-31.17997845507971
 30
431.8130755789913
 10
0.0
 20
-31.20398285549087
 30
431.8064851091638
 10
0.0
 20
-31.21553037405344
 30
431.8032539389937
 10
0.0
 20
-31.24883146667651
 30
431.7937877205231
 10
0.0
 20
-31.28966230203795
 30
431.7817751057501
 10
0.0
 20
-31.3234182743428
 30
431.7713332864525
 10
0.0
 20
-31.35355794044881
 30
431.7618515447288
 10
0.0
 20
-31.36682797848104
 30
431.7575877981762
 10
0.0
 20
-31.40086703104733
 30
431.7465249274221
 10
0.0
 20
-31.41530361843605
 30
431.7416593628724
 10
0.0
 20
-31.42344320204266
 30
431.7389235174131
 10
0.0
 20
-31.42449787869092
 30
431.7385706741017
 10
0.0
 20
-31.4245068073615
 30
431.7385689346203
  0
SPLINE
  5
30B
330
1F
100
AcDbEntity
  8
ORTHO$6
  6
Continuous
 62
    18
370
    35
100
AcDbSpline
210
1.0
220
0.0
230
0.0
 70
     8
 71
     3
 72
     8
 73
     4
 74
     0
 42
0.000000001
 43
0.0000000001
 40
0.0
 40
0.0
 40
0.0
 40
0.0
 40
1.0
 40
1.0
 40
1.0
 40
1.0
 10
0.0
 20
-28.9662609255626
 30
431.5818662595626
 10
0.0
 20
-28.94938174778853
 30
431.5735944589091
 10
0.0
 20
-28.938445582278
 30
431.5681123200196
 10
0.0
 20
-28.93353308873664
 30
431.5656545911873
  0
SPLINE
  5
30C
330
1F
100
AcDbEntity
  8
Isometric$7
  6
Continuous
 62
    18
370
    35
100
AcDbSpline
210
0.577350269233318
220
-0.5773502691881295
230
0.5773502691474297
 70
     8
 71
     3
 72
     8
 73
     4
 74
     0
 42
0.000000001
 43
0.0000000001
 40
0.0
 40
0.0
 40
0.0
 40
0.0
 40
1.0
 40
1.0
 40
1.0
 40
1.0
 10
-198.2009998871052
 20
164.9994997047994
 30
363.2004995919045
 10
-198.2070883469954
 20
164.987322785019
 30
363.1944111320144
 10
-198.2128391008655
 20
164.9753219202451
 30
363.1881610211106
 10
-198.2182516789673
 20
164.9634966420647
 30
363.1817483210319
  0
SPLINE
  5
30D
330
1F
100
AcDbEntity
  8
Isometric$7
  6
Continuous
 62
   155
 60
     1
370
    35
100
AcDbSpline
210
0.0
220
0.0
230
1.0
 70
    24
 71
     1
 72
     4
 73
     2
 74
     0
 42
0.000000001
 43
0.0000000001
 40
0.0
 40
0.0
 40
1.0
 40
1.0
 10
-194.8484149948983
 20
171.7031700102028
 30
366.5515850051011
 10
-198.2182516789674
 20
164.9634966420647
 30
363.181748321032
  0
SPLINE
  5
30E
330
1F
100
AcDbEntity
  8
Isometric$7
  6
Continuous
 62
   155
 60
     1
370
    35
100
AcDbSpline
210
0.0
220
0.0
230
1.0
 70
    24
 71
     3
 72
     8
 73
     4
 74
     0
 42
0.000000001
 43
0.0000000001
 40
0.0
 40
0.0
 40
0.0
 40
0.0
 40
1.0
 40
1.0
 40
1.0
 40
1.0
 10
-79.6484149876973
 20
229.3031700246063
 30
308.9515850123034
 10
-80.77169388238839
 20
227.0566122352241
 30
307.8283061176124
 10
-81.8949727770795
 20
224.8100544458419
 30
306.7050272229213
 10
-83.01825167177066
 20
222.5634966564597
 30
305.5817483282302
  0
VIEWPORT
  5
312
102
{ACAD_XDICTIONARY
360
373
102
}
330
30F
100
AcDbEntity
 67
     1
  8
0
370
    70
100
AcDbViewport
 10
900.0
 20
600.0
 30
0.0
 40
1800.0
 41
1200.0
 68
     1
 69
     1
 12
900.0
 22
600.0
 13
0.0
 23
0.0
 14
1.0
 24
1.0
 15
1.0
 25
1.0
 16
0.0
 26
0.0
 36
1.0
 17
0.0
 27
0.0
 37
0.0
 42
6.883469
 43
0.0
 44
0.0
 45
1200.0
 50
0.0
 51
0.0
 72
   100
331
79
331
7A
331
7B
 90
   557152
  1

281
     0
 71
     1
 74
     0
110
0.0
120
0.0
130
0.0
111
1.0
121
0.0
131
0.0
112
0.0
122
1.0
132
0.0
 79
     0
146
0.0
170
     0
  0
VIEWPORT
  5
313
102
{ACAD_XDICTIONARY
360
375
102
}
330
30F
100
AcDbEntity
 67
     1
  8
0
370
    70
100
AcDbViewport
 10
392.055142
 20
623.356875
 30
0.0
 40
196.7
 41
976.702493
 68
     2
 69
     2
 12
-0.2
 22
-6.998753
 13
0.0
 23
0.0
 14
1.0
 24
1.0
 15
1.0
 25
1.0
 16
0.0
 26
-1.0
 36
0.0
 17
0.0
 27
0.0
 37
0.0
 42
6.883469
 43
0.0
 44
0.0
 45
976.702493
 50
0.0
 51
0.0
 72
   100
331
7A
331
7B
 90
   557152
  1

281
     0
 71
     1
 74
     0
110
0.0
120
0.0
130
0.0
111
1.0
121
0.0
131
0.0
112
0.0
122
1.0
132
0.0
 79
     0
146
0.0
170
     0
  0
VIEWPORT
  5
314
102
{ACAD_XDICTIONARY
360
377
102
}
330
30F
100
AcDbEntity
 67
     1
  8
0
370
    70
100
AcDbViewport
 10
834.544148
 20
623.356875
 30
0.0
 40
343.5
 41
976.702493
 68
     3
 69
     3
 12
-14.6
 22
-6.998753
 13
0.0
 23
0.0
 14
1.0
 24
1.0
 15
1.0
 25
1.0
 16
-1.0
 26
0.0
 36
0.0
 17
0.0
 27
0.0
 37
0.0
 42
6.883469
 43
0.0
 44
0.0
 45
976.702493
 50
0.0
 51
0.0
 72
   100
331
79
331
7B
 90
   557152
  1

281
     0
 71
     1
 74
     0
110
0.0
120
0.0
130
0.0
111
1.0
121
0.0
131
0.0
112
0.0
122
1.0
132
0.0
 79
     0
146
0.0
170
     0
  0
VIEWPORT
  5
315
102
{ACAD_XDICTIONARY
360
379
102
}
330
30F
100
AcDbEntity
 67
     1
  8
0
370
    70
100
AcDbViewport
 10
1375.752599
 20
632.436151
 30
0.0
 40
376.152886
 41
1006.998487
 68
     4
 69
     4
 12
9.899495
 22
-0.556023
 13
0.0
 23
0.0
 14
1.0
 24
1.0
 15
1.0
 25
1.0
 16
0.5773502691896258
 26
-0.5773502691896258
 36
0.5773502691896258
 17
0.0
 27
0.0
 37
0.0
 42
6.883469
 43
0.0
 44
0.0
 45
1006.998487
 50
0.0
 51
0.0
 72
   100
331
79
331
7A
 90
   557152
  1

281
     0
 71
     1
 74
     0
110
0.0
120
0.0
130
0.0
111
1.0
121
0.0
131
0.0
112
0.0
122
1.0
132
0.0
 79
     0
146
0.0
170
     0
  0
DIMENSION
  5
317
102
{ACAD_REACTORS
330
31A
102
}
102
{ACAD_XDICTIONARY
360
319
102
}
330
30F
100
AcDbEntity
 67
     1
  8
1
  6
Continuous
 62
    18
370
    13
100
AcDbDimension
  2
_U0
 10
999.944148
 20
118.384278
 30
0.0
 11
834.944148
 21
118.384278
 31
0.0
 70
   160
 71
     1
 42
330.0
 52
90.0
  3
Standard
100
AcDbAlignedDimension
 13
669.944148
 23
152.555628
 33
0.0
 14
999.944148
 24
147.955628
 34
0.0
100
AcDbRotatedDimension
1001
ACAD
1000
DSTYLE
1002
{
1070
   371
1070
    18
1070
   372
1070
    18
1070
   170
1070
     0
1070
   277
1070
     2
1070
   284
1070
     8
1070
   278
1070
    44
1070
   146
1040
0.5
1070
   345
1005
16
1070
   347
1005
16
1070
   346
1005
16
1070
   344
1005
0
1070
   343
1005
0
1070
   172
1070
     1
1070
    76
1070
     0
1070
    75
1070
     0
1070
   282
1070
     0
1070
   281
1070
     0
1070
    71
1070
     0
1070
   144
1040
1.0
1070
    74
1070
     0
1070
   279
1070
     0
1070
   173
1070
     1
1070
   340
1005
318
1070
   271
1070
     1
1070
   272
1070
     2
1070
    77
1070
     1
1070
    73
1070
     1
1070
   171
1070
     3
1070
   274
1070
     4
1070
   177
1070
    18
1070
   176
1070
    18
1070
   178
1070
    18
1070
    78
1070
     8
1070
    48
1040
-0.1
1070
    41
1040
3.5
1070
   147
1040
1.5
1070
    42
1040
0.0
1070
    44
1040
2.0
1070
   140
1040
3.0
1002
}
1001
ACAD_DSTYLE_DIM_LINETYPE
1070
   380
1005
16
1001
ACAD_DSTYLE_DIM_EXT1_LINETYPE
1070
   381
1005
16
1001
ACAD_DSTYLE_DIM_EXT2_LINETYPE
1070
   382
1005
16
  0
DIMENSION
  5
332
102
{ACAD_REACTORS
330
334
102
}
102
{ACAD_XDICTIONARY
360
333
102
}
330
30F
100
AcDbEntity
 67
     1
  8
1
  6
Continuous
 62
    18
370
    13
100
AcDbDimension
  2
_U1
 10
484.055142
 20
118.384278
 30
0.0
 11
392.055142
 21
118.384278
 31
0.0
 70
   160
 71
     1
 42
184.0
 52
90.0
  3
Standard
100
AcDbAlignedDimension
 13
300.055142
 23
143.355628
 33
0.0
 14
484.055142
 24
143.355628
 34
0.0
100
AcDbRotatedDimension
1001
ACAD
1000
DSTYLE
1002
{
1070
   371
1070
    18
1070
   372
1070
    18
1070
   170
1070
     0
1070
   277
1070
     2
1070
   284
1070
     8
1070
   278
1070
    44
1070
   146
1040
0.5
1070
   345
1005
16
1070
   347
1005
16
1070
   346
1005
16
1070
   344
1005
0
1070
   343
1005
0
1070
   172
1070
     1
1070
    76
1070
     0
1070
    75
1070
     0
1070
   282
1070
     0
1070
   281
1070
     0
1070
    71
1070
     0
1070
   144
1040
1.0
1070
    74
1070
     0
1070
   279
1070
     0
1070
   173
1070
     1
1070
   340
1005
318
1070
   271
1070
     1
1070
   272
1070
     2
1070
    77
1070
     1
1070
    73
1070
     1
1070
   171
1070
     3
1070
   274
1070
     4
1070
   177
1070
    18
1070
   176
1070
    18
1070
   178
1070
    18
1070
    78
1070
     8
1070
    48
1040
-0.1
1070
    41
1040
3.5
1070
   147
1040
1.5
1070
    42
1040
0.0
1070
    44
1040
2.0
1070
   140
1040
3.0
1002
}
1001
ACAD_DSTYLE_DIM_LINETYPE
1070
   380
1005
16
1001
ACAD_DSTYLE_DIM_EXT1_LINETYPE
1070
   381
1005
16
1001
ACAD_DSTYLE_DIM_EXT2_LINETYPE
1070
   382
1005
16
  0
DIMENSION
  5
34A
102
{ACAD_REACTORS
330
34C
102
}
102
{ACAD_XDICTIONARY
360
34B
102
}
330
30F
100
AcDbEntity
 67
     1
  8
1
  6
Continuous
 62
    18
370
    13
100
AcDbDimension
  2
_U2
 10
507.026493
 20
141.355628
 30
0.0
 11
507.026493
 21
623.355628
 31
0.0
 70
   160
 71
     1
 42
964.0
 52
90.0
  3
Standard
100
AcDbAlignedDimension
 13
480.655142
 23
1105.355628
 33
0.0
 14
484.055142
 24
141.355628
 34
0.0
 50
90.0
100
AcDbRotatedDimension
1001
ACAD
1000
DSTYLE
1002
{
1070
   371
1070
    18
1070
   372
1070
    18
1070
   170
1070
     0
1070
   277
1070
     2
1070
   284
1070
     8
1070
   278
1070
    44
1070
   146
1040
0.5
1070
   345
1005
16
1070
   347
1005
16
1070
   346
1005
16
1070
   344
1005
0
1070
   343
1005
0
1070
   172
1070
     1
1070
    76
1070
     0
1070
    75
1070
     0
1070
   282
1070
     0
1070
   281
1070
     0
1070
    71
1070
     0
1070
   144
1040
1.0
1070
    74
1070
     0
1070
   279
1070
     0
1070
   173
1070
     1
1070
   340
1005
318
1070
   271
1070
     1
1070
   272
1070
     2
1070
    77
1070
     1
1070
    73
1070
     0
1070
   171
1070
     3
1070
   274
1070
     4
1070
   177
1070
    18
1070
   176
1070
    18
1070
   178
1070
    18
1070
    78
1070
     8
1070
    48
1040
-0.1
1070
    41
1040
3.5
1070
   147
1040
1.5
1070
    42
1040
0.0
1070
    44
1040
2.0
1070
   140
1040
3.0
1002
}
1001
ACAD_DSTYLE_DIM_LINETYPE
1070
   380
1005
16
1001
ACAD_DSTYLE_DIM_EXT1_LINETYPE
1070
   381
1005
16
1001
ACAD_DSTYLE_DIM_EXT2_LINETYPE
1070
   382
1005
16
  0
ENDSEC
  0
SECTION
  2
OBJECTS
  0
DICTIONARY
  5
C
330
0
100
AcDbDictionary
281
     1
  3
ACAD_DETAILVIEWSTYLE
350
3C3
  3
ACAD_GROUP
350
D
  3
ACAD_LAYOUT
350
1A
  3
ACAD_MATERIAL
350
43
  3
ACAD_MLEADERSTYLE
350
6B
  3
ACAD_MLINESTYLE
350
17
  3
ACAD_PLOTSETTINGS
350
19
  3
ACAD_PLOTSTYLENAME
350
E
  3
ACAD_SCALELIST
350
47
  3
ACAD_SECTIONVIEWSTYLE
350
3C4
  3
ACAD_TABLESTYLE
350
69
  3
ACAD_VISUALSTYLE
350
2A
  3
ACDB_RECOMPOSE_DATA
350
3C0
  3
AcDbVariableDictionary
350
380
  0
DICTIONARY
  5
37E
330
8
100
AcDbDictionary
280
     1
281
     1
  3
ACAD_XREC_ROUNDTRIP
360
37F
  0
DICTIONARY
  5
373
330
312
100
AcDbDictionary
280
     1
281
     1
  3
ACAD_XREC_ROUNDTRIP
360
374
  0
DICTIONARY
  5
375
330
313
100
AcDbDictionary
280
     1
281
     1
  3
ACAD_XREC_ROUNDTRIP
360
376
  0
DICTIONARY
  5
377
330
314
100
AcDbDictionary
280
     1
281
     1
  3
ACAD_XREC_ROUNDTRIP
360
378
  0
DICTIONARY
  5
379
330
315
100
AcDbDictionary
280
     1
281
     1
  3
ACAD_XREC_ROUNDTRIP
360
37A
  0
DICTIONARY
  5
319
330
317
100
AcDbDictionary
280
     1
281
     1
  3
ACAD_DIMASSOC
360
31A
  0
DICTIONARY
  5
333
330
332
100
AcDbDictionary
280
     1
281
     1
  3
ACAD_DIMASSOC
360
334
  0
DICTIONARY
  5
34B
330
34A
100
AcDbDictionary
280
     1
281
     1
  3
ACAD_DIMASSOC
360
34C
  0
DICTIONARY
  5
3C3
102
{ACAD_REACTORS
330
C
102
}
330
C
100
AcDbDictionary
281
     1
  0
DICTIONARY
  5
D
102
{ACAD_REACTORS
330
C
102
}
330
C
100
AcDbDictionary
281
     1
  0
DICTIONARY
  5
1A
102
{ACAD_REACTORS
330
C
102
}
330
C
100
AcDbDictionary
281
     1
  3
Model
350
22
  3
Sheet 2
350
362
  0
DICTIONARY
  5
43
102
{ACAD_REACTORS
330
C
102
}
330
C
100
AcDbDictionary
281
     1
  3
ByBlock
350
45
  3
ByLayer
350
44
  3
Global
350
46
  0
DICTIONARY
  5
6B
102
{ACAD_REACTORS
330
C
102
}
330
C
100
AcDbDictionary
281
     1
  3
Standard
350
6C
  0
DICTIONARY
  5
17
102
{ACAD_REACTORS
330
C
102
}
330
C
100
AcDbDictionary
281
     1
  3
Standard
350
18
  0
DICTIONARY
  5
19
102
{ACAD_REACTORS
330
C
102
}
330
C
100
AcDbDictionary
281
     1
  0
ACDBDICTIONARYWDFLT
  5
E
102
{ACAD_REACTORS
330
C
102
}
330
C
100
AcDbDictionary
281
     1
  3
Normal
350
F
100
AcDbDictionaryWithDefault
340
F
  0
DICTIONARY
  5
47
102
{ACAD_REACTORS
330
C
102
}
330
C
100
AcDbDictionary
281
     1
  3
A0
350
48
  3
A1
350
49
  3
A2
350
4A
  3
A3
350
4B
  3
A4
350
4C
  3
A5
350
4D
  3
A6
350
4E
  3
A7
350
4F
  3
A8
350
50
  3
A9
350
51
  3
B0
350
52
  3
B1
350
53
  3
B2
350
54
  3
B3
350
55
  3
B4
350
56
  3
B5
350
57
  3
B6
350
58
  3
B7
350
59
  3
B8
350
5A
  3
B9
350
5B
  3
C0
350
5C
  3
C1
350
5D
  3
C2
350
5E
  3
C3
350
5F
  3
C4
350
60
  3
C5
350
61
  3
C6
350
62
  3
C7
350
63
  3
C8
350
64
  3
C9
350
65
  3
D0
350
66
  3
D1
350
67
  3
D2
350
68
  0
DICTIONARY
  5
3C4
102
{ACAD_REACTORS
330
C
102
}
330
C
100
AcDbDictionary
281
     1
  0
DICTIONARY
  5
69
102
{ACAD_REACTORS
330
C
102
}
330
C
100
AcDbDictionary
281
     1
  3
Standard
350
6A
  0
DICTIONARY
  5
2A
102
{ACAD_REACTORS
330
C
102
}
330
C
100
AcDbDictionary
281
     1
  3
2dWireframe
350
2F
  3
Basic
350
32
  3
Brighten
350
36
  3
ColorChange
350
3A
  3
Conceptual
350
34
  3
Dim
350
35
  3
EdgeColorOff
350
3D
  3
Facepattern
350
39
  3
Flat
350
2B
  3
FlatWithEdges
350
2C
  3
Gouraud
350
2D
  3
GouraudWithEdges
350
2E
  3
Hidden
350
31
  3
JitterOff
350
3B
  3
Linepattern
350
38
  3
OverhangOff
350
3C
  3
Realistic
350
33
  3
Shaded
350
42
  3
Shaded with edges
350
41
  3
Shades of Gray
350
3E
  3
Sketchy
350
3F
  3
Thicken
350
37
  3
Wireframe
350
30
  3
X-Ray
350
40
  0
XRECORD
  5
3C0
102
{ACAD_REACTORS
330
C
102
}
330
C
100
AcDbXrecord
280
     1
 90
        1
330
6A
  0
DICTIONARY
  5
380
102
{ACAD_REACTORS
330
C
102
}
330
C
100
AcDbDictionary
281
     1
  3
CANNOSCALE
350
381
  3
CMLEADERSTYLE
350
3C2
  3
CTABLESTYLE
350
3C1
  3
MSLTSCALE
350
382
  3
XCLIPFRAME
350
383
  0
XRECORD
  5
37F
102
{ACAD_REACTORS
330
37E
102
}
330
37E
100
AcDbXrecord
280
     1
102
VTR_0.000_0.000_1.000_1.000_VISUALSTYLE
340
2F
102
VTR_0.000_0.000_1.000_1.000_GRIDDISPLAY
 70
     3
102
VTR_0.000_0.000_1.000_1.000_GRIDMAJOR
 70
     5
102
VTR_0.000_0.000_1.000_1.000_DEFAULTLIGHTING
280
     1
102
VTR_0.000_0.000_1.000_1.000_DEFAULTLIGHTINGTYPE
 70
     1
102
VTR_0.000_0.000_1.000_1.000_BRIGHTNESS
141
0.0
102
VTR_0.000_0.000_1.000_1.000_CONTRAST
142
0.0
102
VTR_0.000_0.000_0.500_1.000_VISUALSTYLE
340
2F
102
VTR_0.000_0.000_0.500_1.000_GRIDDISPLAY
 70
     3
102
VTR_0.000_0.000_0.500_1.000_GRIDMAJOR
 70
     5
102
VTR_0.000_0.000_0.500_1.000_DEFAULTLIGHTING
280
     1
102
VTR_0.000_0.000_0.500_1.000_DEFAULTLIGHTINGTYPE
 70
     1
102
VTR_0.000_0.000_0.500_1.000_BRIGHTNESS
141
0.0
102
VTR_0.000_0.000_0.500_1.000_CONTRAST
142
0.0
102
VTR_0.500_0.000_1.000_1.000_VISUALSTYLE
340
2F
102
VTR_0.500_0.000_1.000_1.000_GRIDDISPLAY
 70
     3
102
VTR_0.500_0.000_1.000_1.000_GRIDMAJOR
 70
     5
102
VTR_0.500_0.000_1.000_1.000_DEFAULTLIGHTING
280
     1
102
VTR_0.500_0.000_1.000_1.000_DEFAULTLIGHTINGTYPE
 70
     1
102
VTR_0.500_0.000_1.000_1.000_BRIGHTNESS
141
0.0
102
VTR_0.500_0.000_1.000_1.000_CONTRAST
142
0.0
102
VTR_0.000_0.500_1.000_1.000_VISUALSTYLE
340
2F
102
VTR_0.000_0.500_1.000_1.000_GRIDDISPLAY
 70
     3
102
VTR_0.000_0.500_1.000_1.000_GRIDMAJOR
 70
     5
102
VTR_0.000_0.500_1.000_1.000_DEFAULTLIGHTING
280
     1
102
VTR_0.000_0.500_1.000_1.000_DEFAULTLIGHTINGTYPE
 70
     1
102
VTR_0.000_0.500_1.000_1.000_BRIGHTNESS
141
0.0
102
VTR_0.000_0.500_1.000_1.000_CONTRAST
142
0.0
102
VTR_0.000_0.000_1.000_0.500_VISUALSTYLE
340
2F
102
VTR_0.000_0.000_1.000_0.500_GRIDDISPLAY
 70
     3
102
VTR_0.000_0.000_1.000_0.500_GRIDMAJOR
 70
     5
102
VTR_0.000_0.000_1.000_0.500_DEFAULTLIGHTING
280
     1
102
VTR_0.000_0.000_1.000_0.500_DEFAULTLIGHTINGTYPE
 70
     1
102
VTR_0.000_0.000_1.000_0.500_BRIGHTNESS
141
0.0
102
VTR_0.000_0.000_1.000_0.500_CONTRAST
142
0.0
102
VTR_0.000_0.500_0.500_1.000_VISUALSTYLE
340
2F
102
VTR_0.000_0.500_0.500_1.000_GRIDDISPLAY
 70
     3
102
VTR_0.000_0.500_0.500_1.000_GRIDMAJOR
 70
     5
102
VTR_0.000_0.500_0.500_1.000_DEFAULTLIGHTING
280
     1
102
VTR_0.000_0.500_0.500_1.000_DEFAULTLIGHTINGTYPE
 70
     1
102
VTR_0.000_0.500_0.500_1.000_BRIGHTNESS
141
0.0
102
VTR_0.000_0.500_0.500_1.000_CONTRAST
142
0.0
102
VTR_0.000_0.000_0.500_0.500_VISUALSTYLE
340
2F
102
VTR_0.000_0.000_0.500_0.500_GRIDDISPLAY
 70
     3
102
VTR_0.000_0.000_0.500_0.500_GRIDMAJOR
 70
     5
102
VTR_0.000_0.000_0.500_0.500_DEFAULTLIGHTING
280
     1
102
VTR_0.000_0.000_0.500_0.500_DEFAULTLIGHTINGTYPE
 70
     1
102
VTR_0.000_0.000_0.500_0.500_BRIGHTNESS
141
0.0
102
VTR_0.000_0.000_0.500_0.500_CONTRAST
142
0.0
102
VTR_0.500_0.000_1.000_0.500_VISUALSTYLE
340
2F
102
VTR_0.500_0.000_1.000_0.500_GRIDDISPLAY
 70
     3
102
VTR_0.500_0.000_1.000_0.500_GRIDMAJOR
 70
     5
102
VTR_0.500_0.000_1.000_0.500_DEFAULTLIGHTING
280
     1
102
VTR_0.500_0.000_1.000_0.500_DEFAULTLIGHTINGTYPE
 70
     1
102
VTR_0.500_0.000_1.000_0.500_BRIGHTNESS
141
0.0
102
VTR_0.500_0.000_1.000_0.500_CONTRAST
142
0.0
102
VTR_0.500_0.500_1.000_1.000_VISUALSTYLE
340
2F
102
VTR_0.500_0.500_1.000_1.000_GRIDDISPLAY
 70
     3
102
VTR_0.500_0.500_1.000_1.000_GRIDMAJOR
 70
     5
102
VTR_0.500_0.500_1.000_1.000_DEFAULTLIGHTING
280
     1
102
VTR_0.500_0.500_1.000_1.000_DEFAULTLIGHTINGTYPE
 70
     1
102
VTR_0.500_0.500_1.000_1.000_BRIGHTNESS
141
0.0
102
VTR_0.500_0.500_1.000_1.000_CONTRAST
142
0.0
102
VTR_0.000_0.500_0.333_1.000_VISUALSTYLE
340
2F
102
VTR_0.000_0.500_0.333_1.000_GRIDDISPLAY
 70
     3
102
VTR_0.000_0.500_0.333_1.000_GRIDMAJOR
 70
     5
102
VTR_0.000_0.500_0.333_1.000_DEFAULTLIGHTING
280
     1
102
VTR_0.000_0.500_0.333_1.000_DEFAULTLIGHTINGTYPE
 70
     1
102
VTR_0.000_0.500_0.333_1.000_BRIGHTNESS
141
0.0
102
VTR_0.000_0.500_0.333_1.000_CONTRAST
142
0.0
102
VTR_0.000_0.000_0.333_0.500_VISUALSTYLE
340
2F
102
VTR_0.000_0.000_0.333_0.500_GRIDDISPLAY
 70
     3
102
VTR_0.000_0.000_0.333_0.500_GRIDMAJOR
 70
     5
102
VTR_0.000_0.000_0.333_0.500_DEFAULTLIGHTING
280
     1
102
VTR_0.000_0.000_0.333_0.500_DEFAULTLIGHTINGTYPE
 70
     1
102
VTR_0.000_0.000_0.333_0.500_BRIGHTNESS
141
0.0
102
VTR_0.000_0.000_0.333_0.500_CONTRAST
142
0.0
102
VTR_0.333_0.500_0.667_1.000_VISUALSTYLE
340
2F
102
VTR_0.333_0.500_0.667_1.000_GRIDDISPLAY
 70
     3
102
VTR_0.333_0.500_0.667_1.000_GRIDMAJOR
 70
     5
102
VTR_0.333_0.500_0.667_1.000_DEFAULTLIGHTING
280
     1
102
VTR_0.333_0.500_0.667_1.000_DEFAULTLIGHTINGTYPE
 70
     1
102
VTR_0.333_0.500_0.667_1.000_BRIGHTNESS
141
0.0
102
VTR_0.333_0.500_0.667_1.000_CONTRAST
142
0.0
102
VTR_0.333_0.000_0.667_0.500_VISUALSTYLE
340
2F
102
VTR_0.333_0.000_0.667_0.500_GRIDDISPLAY
 70
     3
102
VTR_0.333_0.000_0.667_0.500_GRIDMAJOR
 70
     5
102
VTR_0.333_0.000_0.667_0.500_DEFAULTLIGHTING
280
     1
102
VTR_0.333_0.000_0.667_0.500_DEFAULTLIGHTINGTYPE
 70
     1
102
VTR_0.333_0.000_0.667_0.500_BRIGHTNESS
141
0.0
102
VTR_0.333_0.000_0.667_0.500_CONTRAST
142
0.0
102
VTR_0.667_0.500_1.000_1.000_VISUALSTYLE
340
2F
102
VTR_0.667_0.500_1.000_1.000_GRIDDISPLAY
 70
     3
102
VTR_0.667_0.500_1.000_1.000_GRIDMAJOR
 70
     5
102
VTR_0.667_0.500_1.000_1.000_DEFAULTLIGHTING
280
     1
102
VTR_0.667_0.500_1.000_1.000_DEFAULTLIGHTINGTYPE
 70
     1
102
VTR_0.667_0.500_1.000_1.000_BRIGHTNESS
141
0.0
102
VTR_0.667_0.500_1.000_1.000_CONTRAST
142
0.0
102
VTR_0.667_0.000_1.000_0.500_VISUALSTYLE
340
2F
102
VTR_0.667_0.000_1.000_0.500_GRIDDISPLAY
 70
     3
102
VTR_0.667_0.000_1.000_0.500_GRIDMAJOR
 70
     5
102
VTR_0.667_0.000_1.000_0.500_DEFAULTLIGHTING
280
     1
102
VTR_0.667_0.000_1.000_0.500_DEFAULTLIGHTINGTYPE
 70
     1
102
VTR_0.667_0.000_1.000_0.500_BRIGHTNESS
141
0.0
102
VTR_0.667_0.000_1.000_0.500_CONTRAST
142
0.0
  0
XRECORD
  5
374
102
{ACAD_REACTORS
330
373
102
}
330
373
100
AcDbXrecord
280
     1
102
VISUALSTYLE
340
2F
102
GRIDDISPLAY
 70
     2
102
GRIDMAJOR
 70
     5
102
DEFAULTLIGHTING
280
     1
102
DEFAULTLIGHTINGTYPE
 70
     1
102
BRIGHTNESS
141
0.0
102
CONTRAST
142
0.0
  0
XRECORD
  5
376
102
{ACAD_REACTORS
330
375
102
}
330
375
100
AcDbXrecord
280
     1
102
VISUALSTYLE
340
2F
102
GRIDDISPLAY
 70
     2
102
GRIDMAJOR
 70
     5
102
DEFAULTLIGHTING
280
     1
102
DEFAULTLIGHTINGTYPE
 70
     1
102
BRIGHTNESS
141
0.0
102
CONTRAST
142
0.0
  0
XRECORD
  5
378
102
{ACAD_REACTORS
330
377
102
}
330
377
100
AcDbXrecord
280
     1
102
VISUALSTYLE
340
2F
102
GRIDDISPLAY
 70
     2
102
GRIDMAJOR
 70
     5
102
DEFAULTLIGHTING
280
     1
102
DEFAULTLIGHTINGTYPE
 70
     1
102
BRIGHTNESS
141
0.0
102
CONTRAST
142
0.0
  0
XRECORD
  5
37A
102
{ACAD_REACTORS
330
379
102
}
330
379
100
AcDbXrecord
280
     1
102
VISUALSTYLE
340
2F
102
GRIDDISPLAY
 70
     2
102
GRIDMAJOR
 70
     5
102
DEFAULTLIGHTING
280
     1
102
DEFAULTLIGHTINGTYPE
 70
     1
102
BRIGHTNESS
141
0.0
102
CONTRAST
142
0.0
  0
DIMASSOC
  5
31A
102
{ACAD_REACTORS
330
319
102
}
330
319
100
AcDbDimAssoc
330
317
 90
        3
 70
     0
 71
     1
  1
AcDbOsnapPointRef
 72
    13
331
314
331
144
 73
     2
 91
        1
 40
0.0
 10
0.0
 20
179.2
 30
-477.8
 75
     0
  1
AcDbOsnapPointRef
 72
     2
331
314
331
143
 73
     2
 91
        2
 40
4.6
 10
0.0
 20
-150.8
 30
-482.4
 75
     0
  0
DIMASSOC
  5
334
102
{ACAD_REACTORS
330
333
102
}
330
333
100
AcDbDimAssoc
330
332
 90
        3
 70
     0
 71
     1
  1
AcDbOsnapPointRef
 72
     4
331
313
331
7C
 73
     3
 91
        1
 40
0.0
 10
-92.2
 20
0.0
 30
-487.0
 75
     0
  1
AcDbOsnapPointRef
 72
     4
331
313
331
7D
 73
     3
 91
        2
 40
0.0
 10
91.8
 20
0.0
 30
-487.0
 75
     0
  0
DIMASSOC
  5
34C
102
{ACAD_REACTORS
330
34B
102
}
330
34B
100
AcDbDimAssoc
330
34A
 90
        3
 70
     0
 71
     1
  1
AcDbOsnapPointRef
 72
     4
331
313
331
7E
 73
     3
 91
        1
 40
0.0
 10
88.4
 20
0.0
 30
475.0
 75
     0
  1
AcDbOsnapPointRef
 72
     1
331
313
331
F1
 73
     2
 91
        2
 40
1.0
 10
91.8
 20
0.0
 30
-489.0
 75
     0
  0
LAYOUT
  5
22
102
{ACAD_REACTORS
330
1A
102
}
330
1A
100
AcDbPlotSettings
  1

  2
none_device
  4
Letter_(8.50_x_11.00_Inches)
  6

 40
6.35
 41
6.35
 42
6.350005
 43
6.350005
 44
215.9
 45
279.4
 46
0.0
 47
0.0
 48
0.0
 49
0.0
140
0.0
141
0.0
142
1.0
143
1.0
 70
  1712
 72
     0
 73
     0
 74
     0
  7

 75
     0
 76
     0
 77
     2
 78
   300
147
1.0
148
0.0
149
0.0
100
AcDbLayout
  1
Model
 70
     1
 71
     0
 10
-0.5
 20
-0.5
 11
5.0
 21
5.0
 12
0.0
 22
0.0
 32
0.0
 14
-0.5
 24
-0.5
 34
-0.5
 15
5.0
 25
5.0
 35
5.0
146
0.0
 13
0.0
 23
0.0
 33
0.0
 16
1.0
 26
0.0
 36
0.0
 17
0.0
 27
1.0
 37
0.0
 76
     0
330
1F
331
29
  0
LAYOUT
  5
362
102
{ACAD_REACTORS
330
1A
102
}
330
1A
100
AcDbPlotSettings
  1

  2
none_device
  4
ARCH_E_(48.00_x_36.00_Inches)
  6

 40
6.35
 41
19.05
 42
6.349975
 43
19.049987
 44
1219.2
 45
914.4
 46
0.0
 47
35.92749
 48
0.0
 49
0.0
140
1840.0
141
1240.0
142
1.0
143
1.492333
 70
   692
 72
     1
 73
     0
 74
     1
  7

 75
     0
 76
     0
 77
     2
 78
   300
147
0.670092
148
0.5
149
0.5
100
AcDbLayout
  1
Sheet 2
 70
     1
 71
     1
 10
0.0
 20
0.0
 11
1800.0
 21
1200.0
 12
0.0
 22
0.0
 32
0.0
 14
0.0
 24
0.0
 34
0.0
 15
1800.0
 25
1200.0
 35
0.0
146
0.0
 13
0.0
 23
0.0
 33
0.0
 16
1.0
 26
0.0
 36
0.0
 17
0.0
 27
1.0
 37
0.0
 76
     0
330
30F
331
312
  0
MATERIAL
  5
45
102
{ACAD_REACTORS
330
43
102
}
102
{ACAD_XDICTIONARY
360
3B6
102
}
330
43
100
AcDbMaterial
  1
ByBlock
  0
MATERIAL
  5
44
102
{ACAD_REACTORS
330
43
102
}
102
{ACAD_XDICTIONARY
360
3B4
102
}
330
43
100
AcDbMaterial
  1
ByLayer
  0
MATERIAL
  5
46
102
{ACAD_REACTORS
330
43
102
}
102
{ACAD_XDICTIONARY
360
3B8
102
}
330
43
100
AcDbMaterial
  1
Global
  0
MLEADERSTYLE
  5
6C
102
{ACAD_REACTORS
330
6B
102
}
102
{ACAD_XDICTIONARY
360
3BE
102
}
330
6B
100
AcDbMLeaderStyle
170
     2
171
     1
172
     0
 90
        2
 40
0.0
 41
0.0
173
     1
 91
-1056964608
340
14
 92
       -2
290
     1
 42
0.09
291
     1
 43
0.36
  3
Standard
341
0
 44
0.18
300

342
11
174
     1
178
     6
175
     1
176
     0
 93
-1056964608
 45
0.18
292
     0
297
     0
 46
0.18
343
0
 94
-1056964608
 47
1.0
 49
1.0
140
1.0
293
     1
141
0.0
294
     1
177
     0
142
1.0
295
     0
296
     0
143
0.125
1001
ACAD_MLEADERVER
1070
     2
  0
MLINESTYLE
  5
18
102
{ACAD_REACTORS
330
17
102
}
330
17
100
AcDbMlineStyle
  2
Standard
 70
     0
  3

 62
   256
 51
90.0
 52
90.0
 71
     2
 49
0.5
 62
   256
  6
BYLAYER
 49
-0.5
 62
   256
  6
BYLAYER
  0
ACDBPLACEHOLDER
  5
F
102
{ACAD_REACTORS
330
E
102
}
330
E
  0
SCALE
  5
48
102
{ACAD_REACTORS
330
47
102
}
330
47
100
AcDbScale
 70
     0
300
1:1
140
1.0
141
1.0
290
     1
  0
SCALE
  5
49
102
{ACAD_REACTORS
330
47
102
}
330
47
100
AcDbScale
 70
     0
300
1:2
140
1.0
141
2.0
290
     0
  0
SCALE
  5
4A
102
{ACAD_REACTORS
330
47
102
}
330
47
100
AcDbScale
 70
     0
300
1:4
140
1.0
141
4.0
290
     0
  0
SCALE
  5
4B
102
{ACAD_REACTORS
330
47
102
}
330
47
100
AcDbScale
 70
     0
300
1:5
140
1.0
141
5.0
290
     0
  0
SCALE
  5
4C
102
{ACAD_REACTORS
330
47
102
}
330
47
100
AcDbScale
 70
     0
300
1:8
140
1.0
141
8.0
290
     0
  0
SCALE
  5
4D
102
{ACAD_REACTORS
330
47
102
}
330
47
100
AcDbScale
 70
     0
300
1:10
140
1.0
141
10.0
290
     0
  0
SCALE
  5
4E
102
{ACAD_REACTORS
330
47
102
}
330
47
100
AcDbScale
 70
     0
300
1:16
140
1.0
141
16.0
290
     0
  0
SCALE
  5
4F
102
{ACAD_REACTORS
330
47
102
}
330
47
100
AcDbScale
 70
     0
300
1:20
140
1.0
141
20.0
290
     0
  0
SCALE
  5
50
102
{ACAD_REACTORS
330
47
102
}
330
47
100
AcDbScale
 70
     0
300
1:30
140
1.0
141
30.0
290
     0
  0
SCALE
  5
51
102
{ACAD_REACTORS
330
47
102
}
330
47
100
AcDbScale
 70
     0
300
1:40
140
1.0
141
40.0
290
     0
  0
SCALE
  5
52
102
{ACAD_REACTORS
330
47
102
}
330
47
100
AcDbScale
 70
     0
300
1:50
140
1.0
141
50.0
290
     0
  0
SCALE
  5
53
102
{ACAD_REACTORS
330
47
102
}
330
47
100
AcDbScale
 70
     0
300
1:100
140
1.0
141
100.0
290
     0
  0
SCALE
  5
54
102
{ACAD_REACTORS
330
47
102
}
330
47
100
AcDbScale
 70
     0
300
2:1
140
2.0
141
1.0
290
     0
  0
SCALE
  5
55
102
{ACAD_REACTORS
330
47
102
}
330
47
100
AcDbScale
 70
     0
300
4:1
140
4.0
141
1.0
290
     0
  0
SCALE
  5
56
102
{ACAD_REACTORS
330
47
102
}
330
47
100
AcDbScale
 70
     0
300
8:1
140
8.0
141
1.0
290
     0
  0
SCALE
  5
57
102
{ACAD_REACTORS
330
47
102
}
330
47
100
AcDbScale
 70
     0
300
10:1
140
10.0
141
1.0
290
     0
  0
SCALE
  5
58
102
{ACAD_REACTORS
330
47
102
}
330
47
100
AcDbScale
 70
     0
300
100:1
140
100.0
141
1.0
290
     0
  0
SCALE
  5
59
102
{ACAD_REACTORS
330
47
102
}
330
47
100
AcDbScale
 70
     0
300
1/128" = 1'-0"
140
0.007812
141
12.0
290
     0
  0
SCALE
  5
5A
102
{ACAD_REACTORS
330
47
102
}
330
47
100
AcDbScale
 70
     0
300
1/64" = 1'-0"
140
0.015625
141
12.0
290
     0
  0
SCALE
  5
5B
102
{ACAD_REACTORS
330
47
102
}
330
47
100
AcDbScale
 70
     0
300
1/32" = 1'-0"
140
0.03125
141
12.0
290
     0
  0
SCALE
  5
5C
102
{ACAD_REACTORS
330
47
102
}
330
47
100
AcDbScale
 70
     0
300
1/16" = 1'-0"
140
0.0625
141
12.0
290
     0
  0
SCALE
  5
5D
102
{ACAD_REACTORS
330
47
102
}
330
47
100
AcDbScale
 70
     0
300
3/32" = 1'-0"
140
0.09375
141
12.0
290
     0
  0
SCALE
  5
5E
102
{ACAD_REACTORS
330
47
102
}
330
47
100
AcDbScale
 70
     0
300
1/8" = 1'-0"
140
0.125
141
12.0
290
     0
  0
SCALE
  5
5F
102
{ACAD_REACTORS
330
47
102
}
330
47
100
AcDbScale
 70
     0
300
3/16" = 1'-0"
140
0.1875
141
12.0
290
     0
  0
SCALE
  5
60
102
{ACAD_REACTORS
330
47
102
}
330
47
100
AcDbScale
 70
     0
300
1/4" = 1'-0"
140
0.25
141
12.0
290
     0
  0
SCALE
  5
61
102
{ACAD_REACTORS
330
47
102
}
330
47
100
AcDbScale
 70
     0
300
3/8" = 1'-0"
140
0.375
141
12.0
290
     0
  0
SCALE
  5
62
102
{ACAD_REACTORS
330
47
102
}
330
47
100
AcDbScale
 70
     0
300
1/2" = 1'-0"
140
0.5
141
12.0
290
     0
  0
SCALE
  5
63
102
{ACAD_REACTORS
330
47
102
}
330
47
100
AcDbScale
 70
     0
300
3/4" = 1'-0"
140
0.75
141
12.0
290
     0
  0
SCALE
  5
64
102
{ACAD_REACTORS
330
47
102
}
330
47
100
AcDbScale
 70
     0
300
1" = 1'-0"
140
1.0
141
12.0
290
     0
  0
SCALE
  5
65
102
{ACAD_REACTORS
330
47
102
}
330
47
100
AcDbScale
 70
     0
300
1-1/2" = 1'-0"
140
1.5
141
12.0
290
     0
  0
SCALE
  5
66
102
{ACAD_REACTORS
330
47
102
}
330
47
100
AcDbScale
 70
     0
300
3" = 1'-0"
140
3.0
141
12.0
290
     0
  0
SCALE
  5
67
102
{ACAD_REACTORS
330
47
102
}
330
47
100
AcDbScale
 70
     0
300
6" = 1'-0"
140
6.0
141
12.0
290
     0
  0
SCALE
  5
68
102
{ACAD_REACTORS
330
47
102
}
330
47
100
AcDbScale
 70
     0
300
1'-0" = 1'-0"
140
12.0
141
12.0
290
     0
  0
TABLESTYLE
  5
6A
102
{ACAD_REACTORS
330
69
102
}
102
{ACAD_XDICTIONARY
360
3BA
102
}
330
69
100
AcDbTableStyle
  3
Standard
 70
     0
 71
     0
 40
0.06
 41
0.06
280
     0
281
     0
  7
Standard
140
0.18
170
     2
 62
     0
 63
   257
283
     0
274
    -2
284
     1
 64
     0
275
    -2
285
     1
 65
     0
276
    -2
286
     1
 66
     0
277
    -2
287
     1
 67
     0
278
    -2
288
     1
 68
     0
279
    -2
289
     1
 69
     0
  7
Standard
140
0.25
170
     5
 62
     0
 63
   257
283
     0
274
    -2
284
     1
 64
     0
275
    -2
285
     1
 65
     0
276
    -2
286
     1
 66
     0
277
    -2
287
     1
 67
     0
278
    -2
288
     1
 68
     0
279
    -2
289
     1
 69
     0
  7
Standard
140
0.18
170
     5
 62
     0
 63
   257
283
     0
274
    -2
284
     1
 64
     0
275
    -2
285
     1
 65
     0
276
    -2
286
     1
 66
     0
277
    -2
287
     1
 67
     0
278
    -2
288
     1
 68
     0
279
    -2
289
     1
 69
     0
  0
VISUALSTYLE
  5
2F
102
{ACAD_REACTORS
330
2A
102
}
102
{ACAD_XDICTIONARY
360
38C
102
}
330
2A
100
AcDbVisualStyle
  2
2dWireframe
 70
     4
 71
     0
 72
     2
 73
     0
 90
        0
 40
0.6
 41
30.0
 62
     5
 63
     7
421
 16777215
 74
     1
 91
        4
 64
     7
 65
   257
 75
     1
175
     1
 42
1.0
 92
        0
 66
   257
 43
1.0
 76
     1
 77
     6
 78
     2
 67
     7
 79
     5
170
     0
171
     0
290
     0
174
     0
 93
        1
 44
0.0
173
     0
291
     0
 45
0.0
1001
ACAD
1000
AcDbSavedByObjectVersion
1070
     0
  0
VISUALSTYLE
  5
32
102
{ACAD_REACTORS
330
2A
102
}
102
{ACAD_XDICTIONARY
360
392
102
}
330
2A
100
AcDbVisualStyle
  2
Basic
 70
     7
 71
     1
 72
     0
 73
     1
 90
        0
 40
0.6
 41
30.0
 62
     5
 63
     7
421
 16777215
 74
     0
 91
        4
 64
     7
 65
   257
 75
     1
175
     1
 42
1.0
 92
        8
 66
     7
 43
1.0
 76
     1
 77
     6
 78
     2
 67
     7
 79
     5
170
     0
171
     0
290
     0
174
     0
 93
        1
 44
0.0
173
     0
291
     1
 45
0.0
1001
ACAD
1000
AcDbSavedByObjectVersion
1070
     0
  0
VISUALSTYLE
  5
36
102
{ACAD_REACTORS
330
2A
102
}
102
{ACAD_XDICTIONARY
360
39A
102
}
330
2A
100
AcDbVisualStyle
  2
Brighten
 70
    12
 71
     2
 72
     2
 73
     0
 90
        0
 40
0.6
 41
30.0
 62
     5
 63
     7
421
 16777215
 74
     1
 91
        4
 64
     7
 65
   257
 75
     1
175
     1
 42
1.0
 92
        8
 66
     7
 43
1.0
 76
     1
 77
     6
 78
     2
 67
     7
 79
     5
170
     0
171
     0
290
     0
174
     0
 93
        1
 44
50.0
173
     0
291
     1
 45
0.0
1001
ACAD
1000
AcDbSavedByObjectVersion
1070
     0
  0
VISUALSTYLE
  5
3A
102
{ACAD_REACTORS
330
2A
102
}
102
{ACAD_XDICTIONARY
360
3A2
102
}
330
2A
100
AcDbVisualStyle
  2
ColorChange
 70
    16
 71
     2
 72
     2
 73
     3
 90
        0
 40
0.6
 41
30.0
 62
     5
 63
     8
421
  8421504
 74
     1
 91
        4
 64
     7
 65
   257
 75
     1
175
     1
 42
1.0
 92
        8
 66
     8
424
  8421504
 43
1.0
 76
     1
 77
     6
 78
     2
 67
     7
 79
     5
170
     0
171
     0
290
     0
174
     0
 93
        1
 44
0.0
173
     0
291
     1
 45
0.0
1001
ACAD
1000
AcDbSavedByObjectVersion
1070
     0
  0
VISUALSTYLE
  5
34
102
{ACAD_REACTORS
330
2A
102
}
102
{ACAD_XDICTIONARY
360
396
102
}
330
2A
100
AcDbVisualStyle
  2
Conceptual
 70
     9
 71
     3
 72
     2
 73
     0
 90
        0
 40
0.6
 41
30.0
 62
     5
 63
     7
421
 16777215
 74
     2
 91
        2
 64
     7
 65
   257
 75
     1
175
     1
 42
179.0
 92
        8
 66
     7
 43
1.0
 76
     1
 77
     6
 78
     2
 67
     7
 79
     3
170
     0
171
     0
290
     0
174
     0
 93
        1
 44
0.0
173
     0
291
     0
 45
0.0
1001
ACAD
1000
AcDbSavedByObjectVersion
1070
     0
  0
VISUALSTYLE
  5
35
102
{ACAD_REACTORS
330
2A
102
}
102
{ACAD_XDICTIONARY
360
398
102
}
330
2A
100
AcDbVisualStyle
  2
Dim
 70
    11
 71
     2
 72
     2
 73
     0
 90
        0
 40
0.6
 41
30.0
 62
     5
 63
     7
421
 16777215
 74
     1
 91
        4
 64
     7
 65
   257
 75
     1
175
     1
 42
1.0
 92
        8
 66
     7
 43
1.0
 76
     1
 77
     6
 78
     2
 67
     7
 79
     5
170
     0
171
     0
290
     0
174
     0
 93
        1
 44
-50.0
173
     0
291
     1
 45
0.0
1001
ACAD
1000
AcDbSavedByObjectVersion
1070
     0
  0
VISUALSTYLE
  5
3D
102
{ACAD_REACTORS
330
2A
102
}
102
{ACAD_XDICTIONARY
360
3A8
102
}
330
2A
100
AcDbVisualStyle
  2
EdgeColorOff
 70
    22
 71
     2
 72
     2
 73
     0
 90
        0
 40
0.6
 41
30.0
 62
     5
 63
     7
421
 16777215
 74
     1
 91
        4
 64
     7
 65
   257
 75
     1
175
     1
 42
1.0
 92
        8
 66
     7
 43
1.0
 76
     1
 77
     6
 78
     2
 67
     7
 79
     5
170
     0
171
     0
290
     0
174
     0
 93
        1
 44
0.0
173
     0
291
     1
 45
0.0
1001
ACAD
1000
AcDbSavedByObjectVersion
1070
     0
  0
VISUALSTYLE
  5
39
102
{ACAD_REACTORS
330
2A
102
}
102
{ACAD_XDICTIONARY
360
3A0
102
}
330
2A
100
AcDbVisualStyle
  2
Facepattern
 70
    15
 71
     2
 72
     2
 73
     0
 90
        0
 40
0.6
 41
30.0
 62
     5
 63
     7
421
 16777215
 74
     1
 91
        4
 64
     7
 65
   257
 75
     1
175
     1
 42
1.0
 92
        8
 66
     7
 43
1.0
 76
     1
 77
     6
 78
     2
 67
     7
 79
     5
170
     0
171
     0
290
     0
174
     0
 93
        1
 44
0.0
173
     0
291
     1
 45
0.0
1001
ACAD
1000
AcDbSavedByObjectVersion
1070
     0
  0
VISUALSTYLE
  5
2B
102
{ACAD_REACTORS
330
2A
102
}
102
{ACAD_XDICTIONARY
360
384
102
}
330
2A
100
AcDbVisualStyle
  2
Flat
 70
     0
 71
     2
 72
     1
 73
     1
 90
        2
 40
0.6
 41
30.0
 62
     5
 63
     7
421
 16777215
 74
     0
 91
        0
 64
     7
 65
   257
 75
     1
175
     1
 42
1.0
 92
        8
 66
     7
 43
1.0
 76
     1
 77
     6
 78
     2
 67
     7
 79
     5
170
     0
171
     0
290
     0
174
     0
 93
       13
 44
0.0
173
     0
291
     1
 45
0.0
1001
ACAD
1000
AcDbSavedByObjectVersion
1070
     0
  0
VISUALSTYLE
  5
2C
102
{ACAD_REACTORS
330
2A
102
}
102
{ACAD_XDICTIONARY
360
386
102
}
330
2A
100
AcDbVisualStyle
  2
FlatWithEdges
 70
     1
 71
     2
 72
     1
 73
     1
 90
        2
 40
0.6
 41
30.0
 62
     5
 63
     7
421
 16777215
 74
     1
 91
        0
 64
     7
 65
   257
 75
     1
175
     1
 42
1.0
 92
        0
 66
   257
 43
1.0
 76
     1
 77
     6
 78
     2
 67
     7
 79
     5
170
     0
171
     0
290
     0
174
     0
 93
       13
 44
0.0
173
     0
291
     1
 45
0.0
1001
ACAD
1000
AcDbSavedByObjectVersion
1070
     0
  0
VISUALSTYLE
  5
2D
102
{ACAD_REACTORS
330
2A
102
}
102
{ACAD_XDICTIONARY
360
388
102
}
330
2A
100
AcDbVisualStyle
  2
Gouraud
 70
     2
 71
     2
 72
     2
 73
     1
 90
        2
 40
0.6
 41
30.0
 62
     5
 63
     7
421
 16777215
 74
     0
 91
        0
 64
     7
 65
   257
 75
     1
175
     1
 42
1.0
 92
        0
 66
     7
 43
1.0
 76
     1
 77
     6
 78
     2
 67
     7
 79
     5
170
     0
171
     0
290
     0
174
     0
 93
       13
 44
0.0
173
     0
291
     1
 45
0.0
1001
ACAD
1000
AcDbSavedByObjectVersion
1070
     0
  0
VISUALSTYLE
  5
2E
102
{ACAD_REACTORS
330
2A
102
}
102
{ACAD_XDICTIONARY
360
38A
102
}
330
2A
100
AcDbVisualStyle
  2
GouraudWithEdges
 70
     3
 71
     2
 72
     2
 73
     1
 90
        2
 40
0.6
 41
30.0
 62
     5
 63
     7
421
 16777215
 74
     1
 91
        0
 64
     7
 65
   257
 75
     1
175
     1
 42
1.0
 92
        0
 66
   257
 43
1.0
 76
     1
 77
     6
 78
     2
 67
     7
 79
     5
170
     0
171
     0
290
     0
174
     0
 93
       13
 44
0.0
173
     0
291
     1
 45
0.0
1001
ACAD
1000
AcDbSavedByObjectVersion
1070
     0
  0
VISUALSTYLE
  5
31
102
{ACAD_REACTORS
330
2A
102
}
102
{ACAD_XDICTIONARY
360
390
102
}
330
2A
100
AcDbVisualStyle
  2
Hidden
 70
     6
 71
     1
 72
     2
 73
     2
 90
        0
 40
0.6
 41
30.0
 62
     5
 63
     7
421
 16777215
 74
     2
 91
        2
 64
     7
 65
   257
 75
     2
175
     1
 42
40.0
 92
        0
 66
   257
 43
1.0
 76
     1
 77
     6
 78
     2
 67
     7
 79
     3
170
     0
171
     0
290
     0
174
     0
 93
        1
 44
0.0
173
     0
291
     0
 45
0.0
1001
ACAD
1000
AcDbSavedByObjectVersion
1070
     0
  0
VISUALSTYLE
  5
3B
102
{ACAD_REACTORS
330
2A
102
}
102
{ACAD_XDICTIONARY
360
3A4
102
}
330
2A
100
AcDbVisualStyle
  2
JitterOff
 70
    20
 71
     2
 72
     2
 73
     0
 90
        0
 40
0.6
 41
30.0
 62
     5
 63
     7
421
 16777215
 74
     1
 91
        4
 64
     7
 65
   257
 75
     1
175
     1
 42
1.0
 92
       10
 66
     7
 43
1.0
 76
     1
 77
     6
 78
     2
 67
     7
 79
     5
170
     0
171
     0
290
     0
174
     0
 93
        1
 44
0.0
173
     0
291
     1
 45
0.0
1001
ACAD
1000
AcDbSavedByObjectVersion
1070
     0
  0
VISUALSTYLE
  5
38
102
{ACAD_REACTORS
330
2A
102
}
102
{ACAD_XDICTIONARY
360
39E
102
}
330
2A
100
AcDbVisualStyle
  2
Linepattern
 70
    14
 71
     2
 72
     2
 73
     0
 90
        0
 40
0.6
 41
30.0
 62
     5
 63
     7
421
 16777215
 74
     1
 91
        4
 64
     7
 65
   257
 75
     7
175
     7
 42
1.0
 92
        8
 66
     7
 43
1.0
 76
     1
 77
     6
 78
     2
 67
     7
 79
     5
170
     0
171
     0
290
     0
174
     0
 93
        1
 44
0.0
173
     0
291
     1
 45
0.0
1001
ACAD
1000
AcDbSavedByObjectVersion
1070
     0
  0
VISUALSTYLE
  5
3C
102
{ACAD_REACTORS
330
2A
102
}
102
{ACAD_XDICTIONARY
360
3A6
102
}
330
2A
100
AcDbVisualStyle
  2
OverhangOff
 70
    21
 71
     2
 72
     2
 73
     0
 90
        0
 40
0.6
 41
30.0
 62
     5
 63
     7
421
 16777215
 74
     1
 91
        4
 64
     7
 65
   257
 75
     1
175
     1
 42
1.0
 92
        9
 66
     7
 43
1.0
 76
     1
 77
     6
 78
     2
 67
     7
 79
     5
170
     0
171
     0
290
     0
174
     0
 93
        1
 44
0.0
173
     0
291
     1
 45
0.0
1001
ACAD
1000
AcDbSavedByObjectVersion
1070
     0
  0
VISUALSTYLE
  5
33
102
{ACAD_REACTORS
330
2A
102
}
102
{ACAD_XDICTIONARY
360
394
102
}
330
2A
100
AcDbVisualStyle
  2
Realistic
 70
     8
 71
     2
 72
     3
 73
     0
 90
        2
 40
0.6
 41
30.0
 62
     5
 63
     7
421
 16777215
 74
     0
 91
        0
 64
     7
 65
   257
 75
     1
175
     1
 42
1.0
 92
        8
 66
   257
 43
1.0
 76
     1
 77
     6
 78
     2
 67
     7
 79
     3
170
     0
171
     0
290
     0
174
     0
 93
       13
 44
0.0
173
     0
291
     0
 45
0.0
1001
ACAD
1000
AcDbSavedByObjectVersion
1070
     0
  0
VISUALSTYLE
  5
42
102
{ACAD_REACTORS
330
2A
102
}
102
{ACAD_XDICTIONARY
360
3B2
102
}
330
2A
100
AcDbVisualStyle
  2
Shaded
 70
    27
 71
     2
 72
     2
 73
     1
 90
        2
 40
0.6
 41
30.0
 62
     5
 63
     7
421
 16777215
 74
     0
 91
        4
 64
     7
 65
   257
 75
     1
175
     1
 42
1.0
 92
        8
 66
   257
 43
1.0
 76
     1
 77
     6
 78
     2
 67
     8
425
  7895160
 79
     3
170
     0
171
     0
290
     0
174
     0
 93
        5
 44
0.0
173
     0
291
     0
 45
0.0
1001
ACAD
1000
AcDbSavedByObjectVersion
1070
     0
  0
VISUALSTYLE
  5
41
102
{ACAD_REACTORS
330
2A
102
}
102
{ACAD_XDICTIONARY
360
3B0
102
}
330
2A
100
AcDbVisualStyle
  2
Shaded with edges
 70
    26
 71
     2
 72
     2
 73
     1
 90
        2
 40
0.6
 41
30.0
 62
     5
 63
     7
421
 16777215
 74
     1
 91
       10
 64
     7
 65
   257
 75
     2
175
     1
 42
1.0
 92
        8
 66
   257
 43
1.0
 76
     1
 77
     6
 78
     2
 67
     7
 79
     3
170
     0
171
     0
290
     0
174
     0
 93
        5
 44
0.0
173
     0
291
     0
 45
0.0
1001
ACAD
1000
AcDbSavedByObjectVersion
1070
     0
  0
VISUALSTYLE
  5
3E
102
{ACAD_REACTORS
330
2A
102
}
102
{ACAD_XDICTIONARY
360
3AA
102
}
330
2A
100
AcDbVisualStyle
  2
Shades of Gray
 70
    23
 71
     2
 72
     2
 73
     3
 90
        0
 40
0.6
 41
30.0
 62
     5
 63
     7
421
 16777215
 74
     2
 91
        2
 64
     7
 65
     7
 75
     1
175
     1
 42
40.0
 92
        8
 66
     7
 43
1.0
 76
     1
 77
     6
 78
     2
 67
     7
 79
     3
170
     0
171
     0
290
     0
174
     0
 93
        1
 44
0.0
173
     0
291
     0
 45
0.0
1001
ACAD
1000
AcDbSavedByObjectVersion
1070
     0
  0
VISUALSTYLE
  5
3F
102
{ACAD_REACTORS
330
2A
102
}
102
{ACAD_XDICTIONARY
360
3AC
102
}
330
2A
100
AcDbVisualStyle
  2
Sketchy
 70
    24
 71
     1
 72
     2
 73
     2
 90
        0
 40
0.6
 41
30.0
 62
     5
 63
     7
421
 16777215
 74
     2
 91
        2
 64
     7
 65
     7
 75
     1
175
     1
 42
40.0
 92
       11
 66
     7
 43
1.0
 76
     1
 77
     6
 78
     2
 67
     7
 79
     6
170
     0
171
     0
290
     0
174
     0
 93
        1
 44
0.0
173
     0
291
     0
 45
0.0
1001
ACAD
1000
AcDbSavedByObjectVersion
1070
     0
  0
VISUALSTYLE
  5
37
102
{ACAD_REACTORS
330
2A
102
}
102
{ACAD_XDICTIONARY
360
39C
102
}
330
2A
100
AcDbVisualStyle
  2
Thicken
 70
    13
 71
     2
 72
     2
 73
     0
 90
        0
 40
0.6
 41
30.0
 62
     5
 63
     7
421
 16777215
 74
     1
 91
        4
 64
     7
 65
   257
 75
     1
175
     1
 42
1.0
 92
       12
 66
     7
 43
1.0
 76
     1
 77
     6
 78
     2
 67
     7
 79
     5
170
     0
171
     0
290
     0
174
     0
 93
        1
 44
0.0
173
     0
291
     1
 45
0.0
1001
ACAD
1000
AcDbSavedByObjectVersion
1070
     0
  0
VISUALSTYLE
  5
30
102
{ACAD_REACTORS
330
2A
102
}
102
{ACAD_XDICTIONARY
360
38E
102
}
330
2A
100
AcDbVisualStyle
  2
Wireframe
 70
     5
 71
     0
 72
     2
 73
     0
 90
        0
 40
0.6
 41
30.0
 62
     5
 63
     7
421
 16777215
 74
     1
 91
        4
 64
     7
 65
   257
 75
     1
175
     1
 42
1.0
 92
        0
 66
   257
 43
1.0
 76
     1
 77
     6
 78
     2
 67
     7
 79
     3
170
     0
171
     0
290
     0
174
     0
 93
        1
 44
0.0
173
     0
291
     0
 45
0.0
1001
ACAD
1000
AcDbSavedByObjectVersion
1070
     0
  0
VISUALSTYLE
  5
40
102
{ACAD_REACTORS
330
2A
102
}
102
{ACAD_XDICTIONARY
360
3AE
102
}
330
2A
100
AcDbVisualStyle
  2
X-Ray
 70
    25
 71
     2
 72
     2
 73
     1
 90
        1
 40
0.5
 41
30.0
 62
     5
 63
     7
421
 16777215
 74
     1
 91
        0
 64
     7
 65
   257
 75
     1
175
     1
 42
1.0
 92
        8
 66
     7
 43
1.0
 76
     1
 77
     6
 78
     2
 67
     7
 79
     3
170
     0
171
     0
290
     0
174
     0
 93
       13
 44
0.0
173
     0
291
     0
 45
0.0
1001
ACAD
1000
AcDbSavedByObjectVersion
1070
     0
  0
DICTIONARYVAR
  5
381
102
{ACAD_REACTORS
330
380
102
}
330
380
100
DictionaryVariables
280
     0
  1
1:1
  0
DICTIONARYVAR
  5
3C2
102
{ACAD_REACTORS
330
380
102
}
330
380
100
DictionaryVariables
280
     0
  1
Standard
  0
DICTIONARYVAR
  5
3C1
102
{ACAD_REACTORS
330
380
102
}
330
380
100
DictionaryVariables
280
     0
  1
Standard
  0
DICTIONARYVAR
  5
382
102
{ACAD_REACTORS
330
380
102
}
330
380
100
DictionaryVariables
280
     0
  1
1
  0
DICTIONARYVAR
  5
383
102
{ACAD_REACTORS
330
380
102
}
330
380
100
DictionaryVariables
280
     0
  1
2
  0
DICTIONARY
  5
3B6
330
45
100
AcDbDictionary
280
     1
281
     1
  3
ACAD_XREC_ROUNDTRIP
360
3B7
  0
DICTIONARY
  5
3B4
330
44
100
AcDbDictionary
280
     1
281
     1
  3
ACAD_XREC_ROUNDTRIP
360
3B5
  0
DICTIONARY
  5
3B8
330
46
100
AcDbDictionary
280
     1
281
     1
  3
ACAD_XREC_ROUNDTRIP
360
3B9
  0
DICTIONARY
  5
3BE
330
6C
100
AcDbDictionary
280
     1
281
     1
  3
ACAD_XREC_ROUNDTRIP
360
3BF
  0
DICTIONARY
  5
3BA
330
6A
100
AcDbDictionary
280
     1
281
     1
  3
ACAD_ROUNDTRIP_2008_TABLESTYLE_CELLSTYLEMAP
360
3BC
  3
ACAD_XREC_ROUNDTRIP
360
3BB
  0
DICTIONARY
  5
38C
330
2F
100
AcDbDictionary
280
     1
281
     1
  3
ACAD_XREC_ROUNDTRIP
360
38D
  0
DICTIONARY
  5
392
330
32
100
AcDbDictionary
280
     1
281
     1
  3
ACAD_XREC_ROUNDTRIP
360
393
  0
DICTIONARY
  5
39A
330
36
100
AcDbDictionary
280
     1
281
     1
  3
ACAD_XREC_ROUNDTRIP
360
39B
  0
DICTIONARY
  5
3A2
330
3A
100
AcDbDictionary
280
     1
281
     1
  3
ACAD_XREC_ROUNDTRIP
360
3A3
  0
DICTIONARY
  5
396
330
34
100
AcDbDictionary
280
     1
281
     1
  3
ACAD_XREC_ROUNDTRIP
360
397
  0
DICTIONARY
  5
398
330
35
100
AcDbDictionary
280
     1
281
     1
  3
ACAD_XREC_ROUNDTRIP
360
399
  0
DICTIONARY
  5
3A8
330
3D
100
AcDbDictionary
280
     1
281
     1
  3
ACAD_XREC_ROUNDTRIP
360
3A9
  0
DICTIONARY
  5
3A0
330
39
100
AcDbDictionary
280
     1
281
     1
  3
ACAD_XREC_ROUNDTRIP
360
3A1
  0
DICTIONARY
  5
384
330
2B
100
AcDbDictionary
280
     1
281
     1
  3
ACAD_XREC_ROUNDTRIP
360
385
  0
DICTIONARY
  5
386
330
2C
100
AcDbDictionary
280
     1
281
     1
  3
ACAD_XREC_ROUNDTRIP
360
387
  0
DICTIONARY
  5
388
330
2D
100
AcDbDictionary
280
     1
281
     1
  3
ACAD_XREC_ROUNDTRIP
360
389
  0
DICTIONARY
  5
38A
330
2E
100
AcDbDictionary
280
     1
281
     1
  3
ACAD_XREC_ROUNDTRIP
360
38B
  0
DICTIONARY
  5
390
330
31
100
AcDbDictionary
280
     1
281
     1
  3
ACAD_XREC_ROUNDTRIP
360
391
  0
DICTIONARY
  5
3A4
330
3B
100
AcDbDictionary
280
     1
281
     1
  3
ACAD_XREC_ROUNDTRIP
360
3A5
  0
DICTIONARY
  5
39E
330
38
100
AcDbDictionary
280
     1
281
     1
  3
ACAD_XREC_ROUNDTRIP
360
39F
  0
DICTIONARY
  5
3A6
330
3C
100
AcDbDictionary
280
     1
281
     1
  3
ACAD_XREC_ROUNDTRIP
360
3A7
  0
DICTIONARY
  5
394
330
33
100
AcDbDictionary
280
     1
281
     1
  3
ACAD_XREC_ROUNDTRIP
360
395
  0
DICTIONARY
  5
3B2
330
42
100
AcDbDictionary
280
     1
281
     1
  3
ACAD_XREC_ROUNDTRIP
360
3B3
  0
DICTIONARY
  5
3B0
330
41
100
AcDbDictionary
280
     1
281
     1
  3
ACAD_XREC_ROUNDTRIP
360
3B1
  0
DICTIONARY
  5
3AA
330
3E
100
AcDbDictionary
280
     1
281
     1
  3
ACAD_XREC_ROUNDTRIP
360
3AB
  0
DICTIONARY
  5
3AC
330
3F
100
AcDbDictionary
280
     1
281
     1
  3
ACAD_XREC_ROUNDTRIP
360
3AD
  0
DICTIONARY
  5
39C
330
37
100
AcDbDictionary
280
     1
281
     1
  3
ACAD_XREC_ROUNDTRIP
360
39D
  0
DICTIONARY
  5
38E
330
30
100
AcDbDictionary
280
     1
281
     1
  3
ACAD_XREC_ROUNDTRIP
360
38F
  0
DICTIONARY
  5
3AE
330
40
100
AcDbDictionary
280
     1
281
     1
  3
ACAD_XREC_ROUNDTRIP
360
3AF
  0
XRECORD
  5
3B7
102
{ACAD_REACTORS
330
3B6
102
}
330
3B6
100
AcDbXrecord
280
     1
102
MATERIAL
148
0.0
149
0.0
149
0.0
 93
        0
 94
      127
282
     0
 72
     1
 77
     1
171
     1
175
     1
179
     1
273
     0
  0
XRECORD
  5
3B5
102
{ACAD_REACTORS
330
3B4
102
}
330
3B4
100
AcDbXrecord
280
     1
102
MATERIAL
148
0.0
149
0.0
149
0.0
 93
        0
 94
      127
282
     0
 72
     1
 77
     1
171
     1
175
     1
179
     1
273
     0
  0
XRECORD
  5
3B9
102
{ACAD_REACTORS
330
3B8
102
}
330
3B8
100
AcDbXrecord
280
     1
102
MATERIAL
148
0.0
149
0.0
149
0.0
 93
        0
 94
      127
282
     0
 72
     1
 77
     1
171
     1
175
     1
179
     1
273
     0
  0
XRECORD
  5
3BF
102
{ACAD_REACTORS
330
3BE
102
}
330
3BE
100
AcDbXrecord
280
     1
102
ACAD_ROUNDTRIP_2010_MLEADER_STYLE
  0
CELLSTYLEMAP
  5
3BC
102
{ACAD_REACTORS
330
3BA
102
}
330
3BA
100
AcDbCellStyleMap
 90
        3
300
CELLSTYLE
  1
TABLEFORMAT_BEGIN
 90
        5
170
     1
 91
        0
 92
    32768
 62
   257
 93
        1
300
CONTENTFORMAT
  1
CONTENTFORMAT_BEGIN
 90
        0
 91
        0
 92
        4
 93
        0
300

 40
0.0
140
1.0
 94
        5
 62
     0
340
11
144
0.25
309
CONTENTFORMAT_END
171
     1
301
MARGIN
  1
CELLMARGIN_BEGIN
 40
0.06
 40
0.06
 40
0.06
 40
0.06
 40
0.06
 40
0.06
309
CELLMARGIN_END
 94
        6
 95
        1
302
GRIDFORMAT
  1
GRIDFORMAT_BEGIN
 90
        0
 91
        1
 62
     0
 92
       -2
340
14
 93
        0
 40
0.045
309
GRIDFORMAT_END
 95
        2
302
GRIDFORMAT
  1
GRIDFORMAT_BEGIN
 90
        0
 91
        1
 62
     0
 92
       -2
340
14
 93
        0
 40
0.045
309
GRIDFORMAT_END
 95
        4
302
GRIDFORMAT
  1
GRIDFORMAT_BEGIN
 90
        0
 91
        1
 62
     0
 92
       -2
340
14
 93
        0
 40
0.045
309
GRIDFORMAT_END
 95
        8
302
GRIDFORMAT
  1
GRIDFORMAT_BEGIN
 90
        0
 91
        1
 62
     0
 92
       -2
340
14
 93
        0
 40
0.045
309
GRIDFORMAT_END
 95
       16
302
GRIDFORMAT
  1
GRIDFORMAT_BEGIN
 90
        0
 91
        1
 62
     0
 92
       -2
340
14
 93
        0
 40
0.045
309
GRIDFORMAT_END
 95
       32
302
GRIDFORMAT
  1
GRIDFORMAT_BEGIN
 90
        0
 91
        1
 62
     0
 92
       -2
340
14
 93
        0
 40
0.045
309
GRIDFORMAT_END
309
TABLEFORMAT_END
  1
CELLSTYLE_BEGIN
 90
        1
 91
        1
300
_TITLE
309
CELLSTYLE_END
300
CELLSTYLE
  1
TABLEFORMAT_BEGIN
 90
        5
170
     1
 91
        0
 92
        0
 62
   257
 93
        1
300
CONTENTFORMAT
  1
CONTENTFORMAT_BEGIN
 90
        0
 91
        0
 92
        4
 93
        0
300

 40
0.0
140
1.0
 94
        5
 62
     0
340
11
144
0.18
309
CONTENTFORMAT_END
171
     1
301
MARGIN
  1
CELLMARGIN_BEGIN
 40
0.06
 40
0.06
 40
0.06
 40
0.06
 40
0.06
 40
0.06
309
CELLMARGIN_END
 94
        6
 95
        1
302
GRIDFORMAT
  1
GRIDFORMAT_BEGIN
 90
        0
 91
        1
 62
     0
 92
       -2
340
14
 93
        0
 40
0.045
309
GRIDFORMAT_END
 95
        2
302
GRIDFORMAT
  1
GRIDFORMAT_BEGIN
 90
        0
 91
        1
 62
     0
 92
       -2
340
14
 93
        0
 40
0.045
309
GRIDFORMAT_END
 95
        4
302
GRIDFORMAT
  1
GRIDFORMAT_BEGIN
 90
        0
 91
        1
 62
     0
 92
       -2
340
14
 93
        0
 40
0.045
309
GRIDFORMAT_END
 95
        8
302
GRIDFORMAT
  1
GRIDFORMAT_BEGIN
 90
        0
 91
        1
 62
     0
 92
       -2
340
14
 93
        0
 40
0.045
309
GRIDFORMAT_END
 95
       16
302
GRIDFORMAT
  1
GRIDFORMAT_BEGIN
 90
        0
 91
        1
 62
     0
 92
       -2
340
14
 93
        0
 40
0.045
309
GRIDFORMAT_END
 95
       32
302
GRIDFORMAT
  1
GRIDFORMAT_BEGIN
 90
        0
 91
        1
 62
     0
 92
       -2
340
14
 93
        0
 40
0.045
309
GRIDFORMAT_END
309
TABLEFORMAT_END
  1
CELLSTYLE_BEGIN
 90
        2
 91
        1
300
_HEADER
309
CELLSTYLE_END
300
CELLSTYLE
  1
TABLEFORMAT_BEGIN
 90
        5
170
     1
 91
        0
 92
        0
 62
   257
 93
        1
300
CONTENTFORMAT
  1
CONTENTFORMAT_BEGIN
 90
        0
 91
        0
 92
        4
 93
        0
300

 40
0.0
140
1.0
 94
        2
 62
     0
340
11
144
0.18
309
CONTENTFORMAT_END
171
     1
301
MARGIN
  1
CELLMARGIN_BEGIN
 40
0.06
 40
0.06
 40
0.06
 40
0.06
 40
0.06
 40
0.06
309
CELLMARGIN_END
 94
        6
 95
        1
302
GRIDFORMAT
  1
GRIDFORMAT_BEGIN
 90
        0
 91
        1
 62
     0
 92
       -2
340
14
 93
        0
 40
0.045
309
GRIDFORMAT_END
 95
        2
302
GRIDFORMAT
  1
GRIDFORMAT_BEGIN
 90
        0
 91
        1
 62
     0
 92
       -2
340
14
 93
        0
 40
0.045
309
GRIDFORMAT_END
 95
        4
302
GRIDFORMAT
  1
GRIDFORMAT_BEGIN
 90
        0
 91
        1
 62
     0
 92
       -2
340
14
 93
        0
 40
0.045
309
GRIDFORMAT_END
 95
        8
302
GRIDFORMAT
  1
GRIDFORMAT_BEGIN
 90
        0
 91
        1
 62
     0
 92
       -2
340
14
 93
        0
 40
0.045
309
GRIDFORMAT_END
 95
       16
302
GRIDFORMAT
  1
GRIDFORMAT_BEGIN
 90
        0
 91
        1
 62
     0
 92
       -2
340
14
 93
        0
 40
0.045
309
GRIDFORMAT_END
 95
       32
302
GRIDFORMAT
  1
GRIDFORMAT_BEGIN
 90
        0
 91
        1
 62
     0
 92
       -2
340
14
 93
        0
 40
0.045
309
GRIDFORMAT_END
309
TABLEFORMAT_END
  1
CELLSTYLE_BEGIN
 90
        3
 91
        2
300
_DATA
309
CELLSTYLE_END
  0
XRECORD
  5
3BB
102
{ACAD_REACTORS
330
3BA
102
}
330
3BA
100
AcDbXrecord
280
     1
102
ACAD_ROUNDTRIP_PRE2007_TABLESTYLE
 90
        4
 91
        0
  1

 92
        4
 93
        0
  2

 94
        4
 95
        0
  3

  0
XRECORD
  5
38D
102
{ACAD_REACTORS
330
38C
102
}
330
38C
100
AcDbXrecord
280
     1
102
RTVSPropertyOp0
 70
     1
102
RTVSPropertyOp1
 70
     1
102
RTVSPropertyOp2
 70
     1
102
RTVSPropertyOp3
 70
     1
102
RTVSPropertyOp4
 70
     1
102
RTVSPropertyOp5
 70
     1
102
RTVSPropertyOp6
 70
     1
102
RTVSPropertyOp7
 70
     1
102
RTVSPropertyOp8
 70
     1
102
RTVSPropertyOp9
 70
     1
102
RTVSPropertyOp10
 70
     1
102
RTVSPropertyOp11
 70
     1
102
RTVSPropertyOp12
 70
     1
102
RTVSPropertyOp13
 70
     1
102
RTVSPropertyOp14
 70
     1
102
RTVSPropertyOp15
 70
     1
102
RTVSPropertyOp16
 70
     1
102
RTVSPropertyOp17
 70
     1
102
RTVSPropertyOp18
 70
     1
102
RTVSPropertyOp19
 70
     1
102
RTVSPropertyOp20
 70
     1
102
RTVSPropertyOp21
 70
     1
102
RTVSPropertyOp22
 70
     1
102
RTVSPropertyOp23
 70
     1
102
RTVSPropertyOp24
 70
     1
102
RTVSPropertyOp25
 70
     1
102
RTVSPropertyOp26
 70
     1
102
RTVSPropertyOp27
 70
     1
102
RTVSPropertyOp28
 70
     1
102
RTVSPropertyOp29
 70
     1
102
RTVSPropertyOp30
 70
     1
102
RTVSPropertyOp31
 70
     1
102
RTVSPropertyOp32
 70
     1
102
RTVSPropertyOp33
 70
     1
102
RTVSPropertyOp34
 70
     1
102
RTVSPropertyOp35
 70
     1
102
RTVSPropertyOp36
 70
     1
102
RTVSPropertyOp37
 70
     1
102
RTVSPropertyOp38
 70
     1
102
RTVSPropertyOp39
 70
     1
102
RTVSPropertyOp40
 70
     1
102
RTVSPropertyOp41
 70
     1
102
RTVSPropertyOp42
 70
     1
102
RTVSPropertyOp43
 70
     1
102
RTVSPropertyOp44
 70
     1
102
RTVSPropertyOp45
 70
     1
102
RTVSPropertyOp46
 70
     1
102
RTVSPropertyOp47
 70
     1
102
RTVSPropertyOp48
 70
     1
102
RTVSPropertyOp49
 70
     1
102
RTVSPropertyOp50
 70
     1
102
RTVSPropertyOp51
 70
     0
102
RTVSPropertyOp52
 70
     0
102
RTVSPropertyOp53
 70
     1
102
RTVSPropertyOp54
 70
     1
102
RTVSPropertyOp55
 70
     1
102
RTVSPropertyOp56
 70
     1
102
RTVSPropertyOp57
 70
     1
102
RTVSPost2010Prop28
280
     1
102
RTVSPost2010PropOp28
 70
     1
102
RTVSPost2010Prop29
280
     1
102
RTVSPost2010PropOp29
 70
     1
102
RTVSPost2010Prop30
280
     0
102
RTVSPost2010PropOp30
 70
     1
102
RTVSPost2010Prop31
280
     0
102
RTVSPost2010PropOp31
 70
     1
102
RTVSPost2010Prop32
280
     0
102
RTVSPost2010PropOp32
 70
     1
102
RTVSPost2010Prop33
280
     0
102
RTVSPost2010PropOp33
 70
     1
102
RTVSPost2010Prop34
280
     0
102
RTVSPost2010PropOp34
 70
     1
102
RTVSPost2010Prop35
280
     0
102
RTVSPost2010PropOp35
 70
     1
102
RTVSPost2010Prop36
280
     0
102
RTVSPost2010PropOp36
 70
     1
102
RTVSPost2010Prop37
 90
       50
102
RTVSPost2010PropOp37
 70
     1
102
RTVSPost2010Prop38
140
0.0
102
RTVSPost2010PropOp38
 70
     1
102
RTVSPost2010Prop39
140
1.0
102
RTVSPost2010PropOp39
 70
     1
102
RTVSPost2010Prop40
 90
        0
102
RTVSPost2010PropOp40
 70
     1
102
RTVSPost2010Prop41ColorIndex
 90
       18
102
RTVSPost2010Prop41ColorRGB
 90
        0
102
RTVSPost2010PropOp41
 70
     1
102
RTVSPost2010Prop42
 90
       50
102
RTVSPost2010PropOp42
 70
     1
102
RTVSPost2010Prop43
 90
        3
102
RTVSPost2010PropOp43
 70
     1
102
RTVSPost2010Prop44ColorIndex
 90
        5
102
RTVSPost2010Prop44ColorRGB
 90
      255
102
RTVSPost2010PropOp44
 70
     1
102
RTVSPost2010Prop45
280
     0
102
RTVSPost2010PropOp45
 70
     1
102
RTVSPost2010Prop46
 90
       50
102
RTVSPost2010PropOp46
 70
     1
102
RTVSPost2010Prop47
 90
       50
102
RTVSPost2010PropOp47
 70
     1
102
RTVSPost2010Prop48
 90
       50
102
RTVSPost2010PropOp48
 70
     1
102
RTVSPost2010Prop49
280
     0
102
RTVSPost2010PropOp49
 70
     1
102
RTVSPost2010Prop50
 90
       50
102
RTVSPost2010PropOp50
 70
     1
102
RTVSPost2010Prop51ColorIndex
 90
      256
102
RTVSPost2010Prop51ColorRGB
 90
-16777216
102
RTVSPost2010PropOp51
 70
     0
102
RTVSPost2010Prop52
140
1.0
102
RTVSPost2010PropOp52
 70
     0
102
RTVSPost2010Prop53
 90
        2
102
RTVSPost2010PropOp53
 70
     1
102
RTVSPost2010Prop54
  1
strokes_ogs.tif
102
RTVSPost2010PropOp54
 70
     1
102
RTVSPost2010Prop55
280
     0
102
RTVSPost2010PropOp55
 70
     1
102
RTVSPost2010Prop56
140
1.0
102
RTVSPost2010PropOp56
 70
     1
102
RTVSPost2010Prop57
140
1.0
102
RTVSPost2010PropOp57
 70
     1
  0
XRECORD
  5
393
102
{ACAD_REACTORS
330
392
102
}
330
392
100
AcDbXrecord
280
     1
102
RTVSPropertyOp0
 70
     1
102
RTVSPropertyOp1
 70
     1
102
RTVSPropertyOp2
 70
     1
102
RTVSPropertyOp3
 70
     1
102
RTVSPropertyOp4
 70
     1
102
RTVSPropertyOp5
 70
     1
102
RTVSPropertyOp6
 70
     1
102
RTVSPropertyOp7
 70
     1
102
RTVSPropertyOp8
 70
     1
102
RTVSPropertyOp9
 70
     1
102
RTVSPropertyOp10
 70
     1
102
RTVSPropertyOp11
 70
     1
102
RTVSPropertyOp12
 70
     1
102
RTVSPropertyOp13
 70
     1
102
RTVSPropertyOp14
 70
     1
102
RTVSPropertyOp15
 70
     1
102
RTVSPropertyOp16
 70
     1
102
RTVSPropertyOp17
 70
     1
102
RTVSPropertyOp18
 70
     1
102
RTVSPropertyOp19
 70
     1
102
RTVSPropertyOp20
 70
     1
102
RTVSPropertyOp21
 70
     1
102
RTVSPropertyOp22
 70
     1
102
RTVSPropertyOp23
 70
     1
102
RTVSPropertyOp24
 70
     1
102
RTVSPropertyOp25
 70
     1
102
RTVSPropertyOp26
 70
     1
102
RTVSPropertyOp27
 70
     1
102
RTVSPropertyOp28
 70
     1
102
RTVSPropertyOp29
 70
     1
102
RTVSPropertyOp30
 70
     1
102
RTVSPropertyOp31
 70
     1
102
RTVSPropertyOp32
 70
     1
102
RTVSPropertyOp33
 70
     1
102
RTVSPropertyOp34
 70
     1
102
RTVSPropertyOp35
 70
     1
102
RTVSPropertyOp36
 70
     1
102
RTVSPropertyOp37
 70
     1
102
RTVSPropertyOp38
 70
     1
102
RTVSPropertyOp39
 70
     1
102
RTVSPropertyOp40
 70
     1
102
RTVSPropertyOp41
 70
     1
102
RTVSPropertyOp42
 70
     1
102
RTVSPropertyOp43
 70
     1
102
RTVSPropertyOp44
 70
     1
102
RTVSPropertyOp45
 70
     1
102
RTVSPropertyOp46
 70
     1
102
RTVSPropertyOp47
 70
     1
102
RTVSPropertyOp48
 70
     1
102
RTVSPropertyOp49
 70
     1
102
RTVSPropertyOp50
 70
     1
102
RTVSPropertyOp51
 70
     0
102
RTVSPropertyOp52
 70
     0
102
RTVSPropertyOp53
 70
     1
102
RTVSPropertyOp54
 70
     1
102
RTVSPropertyOp55
 70
     1
102
RTVSPropertyOp56
 70
     1
102
RTVSPropertyOp57
 70
     1
102
RTVSPost2010Prop28
280
     0
102
RTVSPost2010PropOp28
 70
     1
102
RTVSPost2010Prop29
280
     1
102
RTVSPost2010PropOp29
 70
     1
102
RTVSPost2010Prop30
280
     1
102
RTVSPost2010PropOp30
 70
     1
102
RTVSPost2010Prop31
280
     0
102
RTVSPost2010PropOp31
 70
     1
102
RTVSPost2010Prop32
280
     0
102
RTVSPost2010PropOp32
 70
     1
102
RTVSPost2010Prop33
280
     0
102
RTVSPost2010PropOp33
 70
     1
102
RTVSPost2010Prop34
280
     0
102
RTVSPost2010PropOp34
 70
     1
102
RTVSPost2010Prop35
280
     0
102
RTVSPost2010PropOp35
 70
     1
102
RTVSPost2010Prop36
280
     0
102
RTVSPost2010PropOp36
 70
     1
102
RTVSPost2010Prop37
 90
       50
102
RTVSPost2010PropOp37
 70
     1
102
RTVSPost2010Prop38
140
0.0
102
RTVSPost2010PropOp38
 70
     1
102
RTVSPost2010Prop39
140
1.0
102
RTVSPost2010PropOp39
 70
     1
102
RTVSPost2010Prop40
 90
        0
102
RTVSPost2010PropOp40
 70
     1
102
RTVSPost2010Prop41ColorIndex
 90
       18
102
RTVSPost2010Prop41ColorRGB
 90
        0
102
RTVSPost2010PropOp41
 70
     1
102
RTVSPost2010Prop42
 90
       50
102
RTVSPost2010PropOp42
 70
     1
102
RTVSPost2010Prop43
 90
        3
102
RTVSPost2010PropOp43
 70
     1
102
RTVSPost2010Prop44ColorIndex
 90
        5
102
RTVSPost2010Prop44ColorRGB
 90
      255
102
RTVSPost2010PropOp44
 70
     1
102
RTVSPost2010Prop45
280
     0
102
RTVSPost2010PropOp45
 70
     1
102
RTVSPost2010Prop46
 90
       50
102
RTVSPost2010PropOp46
 70
     1
102
RTVSPost2010Prop47
 90
       50
102
RTVSPost2010PropOp47
 70
     1
102
RTVSPost2010Prop48
 90
       50
102
RTVSPost2010PropOp48
 70
     1
102
RTVSPost2010Prop49
280
     0
102
RTVSPost2010PropOp49
 70
     1
102
RTVSPost2010Prop50
 90
       50
102
RTVSPost2010PropOp50
 70
     1
102
RTVSPost2010Prop51ColorIndex
 90
      256
102
RTVSPost2010Prop51ColorRGB
 90
-16777216
102
RTVSPost2010PropOp51
 70
     0
102
RTVSPost2010Prop52
140
1.0
102
RTVSPost2010PropOp52
 70
     0
102
RTVSPost2010Prop53
 90
        2
102
RTVSPost2010PropOp53
 70
     1
102
RTVSPost2010Prop54
  1
strokes_ogs.tif
102
RTVSPost2010PropOp54
 70
     1
102
RTVSPost2010Prop55
280
     0
102
RTVSPost2010PropOp55
 70
     1
102
RTVSPost2010Prop56
140
1.0
102
RTVSPost2010PropOp56
 70
     1
102
RTVSPost2010Prop57
140
1.0
102
RTVSPost2010PropOp57
 70
     1
  0
XRECORD
  5
39B
102
{ACAD_REACTORS
330
39A
102
}
330
39A
100
AcDbXrecord
280
     1
102
RTVSPropertyOp0
 70
     1
102
RTVSPropertyOp1
 70
     1
102
RTVSPropertyOp2
 70
     1
102
RTVSPropertyOp3
 70
     1
102
RTVSPropertyOp4
 70
     1
102
RTVSPropertyOp5
 70
     1
102
RTVSPropertyOp6
 70
     1
102
RTVSPropertyOp7
 70
     1
102
RTVSPropertyOp8
 70
     1
102
RTVSPropertyOp9
 70
     1
102
RTVSPropertyOp10
 70
     1
102
RTVSPropertyOp11
 70
     1
102
RTVSPropertyOp12
 70
     1
102
RTVSPropertyOp13
 70
     1
102
RTVSPropertyOp14
 70
     1
102
RTVSPropertyOp15
 70
     1
102
RTVSPropertyOp16
 70
     1
102
RTVSPropertyOp17
 70
     1
102
RTVSPropertyOp18
 70
     1
102
RTVSPropertyOp19
 70
     1
102
RTVSPropertyOp20
 70
     1
102
RTVSPropertyOp21
 70
     1
102
RTVSPropertyOp22
 70
     1
102
RTVSPropertyOp23
 70
     1
102
RTVSPropertyOp24
 70
     1
102
RTVSPropertyOp25
 70
     1
102
RTVSPropertyOp26
 70
     1
102
RTVSPropertyOp27
 70
     1
102
RTVSPropertyOp28
 70
     1
102
RTVSPropertyOp29
 70
     1
102
RTVSPropertyOp30
 70
     1
102
RTVSPropertyOp31
 70
     1
102
RTVSPropertyOp32
 70
     1
102
RTVSPropertyOp33
 70
     1
102
RTVSPropertyOp34
 70
     1
102
RTVSPropertyOp35
 70
     1
102
RTVSPropertyOp36
 70
     1
102
RTVSPropertyOp37
 70
     1
102
RTVSPropertyOp38
 70
     1
102
RTVSPropertyOp39
 70
     1
102
RTVSPropertyOp40
 70
     1
102
RTVSPropertyOp41
 70
     1
102
RTVSPropertyOp42
 70
     1
102
RTVSPropertyOp43
 70
     1
102
RTVSPropertyOp44
 70
     1
102
RTVSPropertyOp45
 70
     1
102
RTVSPropertyOp46
 70
     1
102
RTVSPropertyOp47
 70
     1
102
RTVSPropertyOp48
 70
     1
102
RTVSPropertyOp49
 70
     1
102
RTVSPropertyOp50
 70
     1
102
RTVSPropertyOp51
 70
     0
102
RTVSPropertyOp52
 70
     0
102
RTVSPropertyOp53
 70
     1
102
RTVSPropertyOp54
 70
     1
102
RTVSPropertyOp55
 70
     1
102
RTVSPropertyOp56
 70
     1
102
RTVSPropertyOp57
 70
     1
102
RTVSPost2010Prop28
280
     0
102
RTVSPost2010PropOp28
 70
     1
102
RTVSPost2010Prop29
280
     1
102
RTVSPost2010PropOp29
 70
     1
102
RTVSPost2010Prop30
280
     1
102
RTVSPost2010PropOp30
 70
     1
102
RTVSPost2010Prop31
280
     0
102
RTVSPost2010PropOp31
 70
     1
102
RTVSPost2010Prop32
280
     0
102
RTVSPost2010PropOp32
 70
     1
102
RTVSPost2010Prop33
280
     0
102
RTVSPost2010PropOp33
 70
     1
102
RTVSPost2010Prop34
280
     0
102
RTVSPost2010PropOp34
 70
     1
102
RTVSPost2010Prop35
280
     0
102
RTVSPost2010PropOp35
 70
     1
102
RTVSPost2010Prop36
280
     0
102
RTVSPost2010PropOp36
 70
     1
102
RTVSPost2010Prop37
 90
       50
102
RTVSPost2010PropOp37
 70
     1
102
RTVSPost2010Prop38
140
0.0
102
RTVSPost2010PropOp38
 70
     1
102
RTVSPost2010Prop39
140
1.0
102
RTVSPost2010PropOp39
 70
     1
102
RTVSPost2010Prop40
 90
        0
102
RTVSPost2010PropOp40
 70
     1
102
RTVSPost2010Prop41ColorIndex
 90
       18
102
RTVSPost2010Prop41ColorRGB
 90
        0
102
RTVSPost2010PropOp41
 70
     1
102
RTVSPost2010Prop42
 90
       50
102
RTVSPost2010PropOp42
 70
     1
102
RTVSPost2010Prop43
 90
        3
102
RTVSPost2010PropOp43
 70
     1
102
RTVSPost2010Prop44ColorIndex
 90
        5
102
RTVSPost2010Prop44ColorRGB
 90
      255
102
RTVSPost2010PropOp44
 70
     1
102
RTVSPost2010Prop45
280
     0
102
RTVSPost2010PropOp45
 70
     1
102
RTVSPost2010Prop46
 90
       50
102
RTVSPost2010PropOp46
 70
     1
102
RTVSPost2010Prop47
 90
       50
102
RTVSPost2010PropOp47
 70
     1
102
RTVSPost2010Prop48
 90
       50
102
RTVSPost2010PropOp48
 70
     1
102
RTVSPost2010Prop49
280
     0
102
RTVSPost2010PropOp49
 70
     1
102
RTVSPost2010Prop50
 90
       50
102
RTVSPost2010PropOp50
 70
     1
102
RTVSPost2010Prop51ColorIndex
 90
      256
102
RTVSPost2010Prop51ColorRGB
 90
-16777216
102
RTVSPost2010PropOp51
 70
     0
102
RTVSPost2010Prop52
140
1.0
102
RTVSPost2010PropOp52
 70
     0
102
RTVSPost2010Prop53
 90
        2
102
RTVSPost2010PropOp53
 70
     1
102
RTVSPost2010Prop54
  1
strokes_ogs.tif
102
RTVSPost2010PropOp54
 70
     1
102
RTVSPost2010Prop55
280
     0
102
RTVSPost2010PropOp55
 70
     1
102
RTVSPost2010Prop56
140
1.0
102
RTVSPost2010PropOp56
 70
     1
102
RTVSPost2010Prop57
140
1.0
102
RTVSPost2010PropOp57
 70
     1
  0
XRECORD
  5
3A3
102
{ACAD_REACTORS
330
3A2
102
}
330
3A2
100
AcDbXrecord
280
     1
102
RTVSPropertyOp0
 70
     1
102
RTVSPropertyOp1
 70
     1
102
RTVSPropertyOp2
 70
     1
102
RTVSPropertyOp3
 70
     1
102
RTVSPropertyOp4
 70
     1
102
RTVSPropertyOp5
 70
     1
102
RTVSPropertyOp6
 70
     1
102
RTVSPropertyOp7
 70
     1
102
RTVSPropertyOp8
 70
     1
102
RTVSPropertyOp9
 70
     1
102
RTVSPropertyOp10
 70
     1
102
RTVSPropertyOp11
 70
     1
102
RTVSPropertyOp12
 70
     1
102
RTVSPropertyOp13
 70
     1
102
RTVSPropertyOp14
 70
     1
102
RTVSPropertyOp15
 70
     1
102
RTVSPropertyOp16
 70
     1
102
RTVSPropertyOp17
 70
     1
102
RTVSPropertyOp18
 70
     1
102
RTVSPropertyOp19
 70
     1
102
RTVSPropertyOp20
 70
     1
102
RTVSPropertyOp21
 70
     1
102
RTVSPropertyOp22
 70
     1
102
RTVSPropertyOp23
 70
     1
102
RTVSPropertyOp24
 70
     1
102
RTVSPropertyOp25
 70
     1
102
RTVSPropertyOp26
 70
     1
102
RTVSPropertyOp27
 70
     1
102
RTVSPropertyOp28
 70
     1
102
RTVSPropertyOp29
 70
     1
102
RTVSPropertyOp30
 70
     1
102
RTVSPropertyOp31
 70
     1
102
RTVSPropertyOp32
 70
     1
102
RTVSPropertyOp33
 70
     1
102
RTVSPropertyOp34
 70
     1
102
RTVSPropertyOp35
 70
     1
102
RTVSPropertyOp36
 70
     1
102
RTVSPropertyOp37
 70
     1
102
RTVSPropertyOp38
 70
     1
102
RTVSPropertyOp39
 70
     1
102
RTVSPropertyOp40
 70
     1
102
RTVSPropertyOp41
 70
     1
102
RTVSPropertyOp42
 70
     1
102
RTVSPropertyOp43
 70
     1
102
RTVSPropertyOp44
 70
     1
102
RTVSPropertyOp45
 70
     1
102
RTVSPropertyOp46
 70
     1
102
RTVSPropertyOp47
 70
     1
102
RTVSPropertyOp48
 70
     1
102
RTVSPropertyOp49
 70
     1
102
RTVSPropertyOp50
 70
     1
102
RTVSPropertyOp51
 70
     0
102
RTVSPropertyOp52
 70
     0
102
RTVSPropertyOp53
 70
     1
102
RTVSPropertyOp54
 70
     1
102
RTVSPropertyOp55
 70
     1
102
RTVSPropertyOp56
 70
     1
102
RTVSPropertyOp57
 70
     1
102
RTVSPost2010Prop28
280
     0
102
RTVSPost2010PropOp28
 70
     1
102
RTVSPost2010Prop29
280
     1
102
RTVSPost2010PropOp29
 70
     1
102
RTVSPost2010Prop30
280
     1
102
RTVSPost2010PropOp30
 70
     1
102
RTVSPost2010Prop31
280
     0
102
RTVSPost2010PropOp31
 70
     1
102
RTVSPost2010Prop32
280
     0
102
RTVSPost2010PropOp32
 70
     1
102
RTVSPost2010Prop33
280
     0
102
RTVSPost2010PropOp33
 70
     1
102
RTVSPost2010Prop34
280
     0
102
RTVSPost2010PropOp34
 70
     1
102
RTVSPost2010Prop35
280
     0
102
RTVSPost2010PropOp35
 70
     1
102
RTVSPost2010Prop36
280
     0
102
RTVSPost2010PropOp36
 70
     1
102
RTVSPost2010Prop37
 90
       50
102
RTVSPost2010PropOp37
 70
     1
102
RTVSPost2010Prop38
140
0.0
102
RTVSPost2010PropOp38
 70
     1
102
RTVSPost2010Prop39
140
1.0
102
RTVSPost2010PropOp39
 70
     1
102
RTVSPost2010Prop40
 90
        0
102
RTVSPost2010PropOp40
 70
     1
102
RTVSPost2010Prop41ColorIndex
 90
       18
102
RTVSPost2010Prop41ColorRGB
 90
        0
102
RTVSPost2010PropOp41
 70
     1
102
RTVSPost2010Prop42
 90
       50
102
RTVSPost2010PropOp42
 70
     1
102
RTVSPost2010Prop43
 90
        3
102
RTVSPost2010PropOp43
 70
     1
102
RTVSPost2010Prop44ColorIndex
 90
        5
102
RTVSPost2010Prop44ColorRGB
 90
      255
102
RTVSPost2010PropOp44
 70
     1
102
RTVSPost2010Prop45
280
     0
102
RTVSPost2010PropOp45
 70
     1
102
RTVSPost2010Prop46
 90
       50
102
RTVSPost2010PropOp46
 70
     1
102
RTVSPost2010Prop47
 90
       50
102
RTVSPost2010PropOp47
 70
     1
102
RTVSPost2010Prop48
 90
       50
102
RTVSPost2010PropOp48
 70
     1
102
RTVSPost2010Prop49
280
     0
102
RTVSPost2010PropOp49
 70
     1
102
RTVSPost2010Prop50
 90
       50
102
RTVSPost2010PropOp50
 70
     1
102
RTVSPost2010Prop51ColorIndex
 90
      256
102
RTVSPost2010Prop51ColorRGB
 90
-16777216
102
RTVSPost2010PropOp51
 70
     0
102
RTVSPost2010Prop52
140
1.0
102
RTVSPost2010PropOp52
 70
     0
102
RTVSPost2010Prop53
 90
        2
102
RTVSPost2010PropOp53
 70
     1
102
RTVSPost2010Prop54
  1
strokes_ogs.tif
102
RTVSPost2010PropOp54
 70
     1
102
RTVSPost2010Prop55
280
     0
102
RTVSPost2010PropOp55
 70
     1
102
RTVSPost2010Prop56
140
1.0
102
RTVSPost2010PropOp56
 70
     1
102
RTVSPost2010Prop57
140
1.0
102
RTVSPost2010PropOp57
 70
     1
  0
XRECORD
  5
397
102
{ACAD_REACTORS
330
396
102
}
330
396
100
AcDbXrecord
280
     1
102
RTVSPropertyOp0
 70
     1
102
RTVSPropertyOp1
 70
     1
102
RTVSPropertyOp2
 70
     1
102
RTVSPropertyOp3
 70
     1
102
RTVSPropertyOp4
 70
     1
102
RTVSPropertyOp5
 70
     1
102
RTVSPropertyOp6
 70
     1
102
RTVSPropertyOp7
 70
     1
102
RTVSPropertyOp8
 70
     1
102
RTVSPropertyOp9
 70
     1
102
RTVSPropertyOp10
 70
     1
102
RTVSPropertyOp11
 70
     1
102
RTVSPropertyOp12
 70
     1
102
RTVSPropertyOp13
 70
     1
102
RTVSPropertyOp14
 70
     1
102
RTVSPropertyOp15
 70
     1
102
RTVSPropertyOp16
 70
     1
102
RTVSPropertyOp17
 70
     1
102
RTVSPropertyOp18
 70
     1
102
RTVSPropertyOp19
 70
     1
102
RTVSPropertyOp20
 70
     1
102
RTVSPropertyOp21
 70
     1
102
RTVSPropertyOp22
 70
     1
102
RTVSPropertyOp23
 70
     1
102
RTVSPropertyOp24
 70
     1
102
RTVSPropertyOp25
 70
     1
102
RTVSPropertyOp26
 70
     1
102
RTVSPropertyOp27
 70
     1
102
RTVSPropertyOp28
 70
     1
102
RTVSPropertyOp29
 70
     1
102
RTVSPropertyOp30
 70
     1
102
RTVSPropertyOp31
 70
     1
102
RTVSPropertyOp32
 70
     1
102
RTVSPropertyOp33
 70
     1
102
RTVSPropertyOp34
 70
     1
102
RTVSPropertyOp35
 70
     1
102
RTVSPropertyOp36
 70
     1
102
RTVSPropertyOp37
 70
     1
102
RTVSPropertyOp38
 70
     1
102
RTVSPropertyOp39
 70
     1
102
RTVSPropertyOp40
 70
     1
102
RTVSPropertyOp41
 70
     1
102
RTVSPropertyOp42
 70
     1
102
RTVSPropertyOp43
 70
     1
102
RTVSPropertyOp44
 70
     1
102
RTVSPropertyOp45
 70
     1
102
RTVSPropertyOp46
 70
     1
102
RTVSPropertyOp47
 70
     1
102
RTVSPropertyOp48
 70
     1
102
RTVSPropertyOp49
 70
     1
102
RTVSPropertyOp50
 70
     1
102
RTVSPropertyOp51
 70
     0
102
RTVSPropertyOp52
 70
     0
102
RTVSPropertyOp53
 70
     1
102
RTVSPropertyOp54
 70
     1
102
RTVSPropertyOp55
 70
     1
102
RTVSPropertyOp56
 70
     1
102
RTVSPropertyOp57
 70
     1
102
RTVSPost2010Prop28
280
     0
102
RTVSPost2010PropOp28
 70
     1
102
RTVSPost2010Prop29
280
     1
102
RTVSPost2010PropOp29
 70
     1
102
RTVSPost2010Prop30
280
     1
102
RTVSPost2010PropOp30
 70
     1
102
RTVSPost2010Prop31
280
     0
102
RTVSPost2010PropOp31
 70
     1
102
RTVSPost2010Prop32
280
     0
102
RTVSPost2010PropOp32
 70
     1
102
RTVSPost2010Prop33
280
     0
102
RTVSPost2010PropOp33
 70
     1
102
RTVSPost2010Prop34
280
     0
102
RTVSPost2010PropOp34
 70
     1
102
RTVSPost2010Prop35
280
     0
102
RTVSPost2010PropOp35
 70
     1
102
RTVSPost2010Prop36
280
     0
102
RTVSPost2010PropOp36
 70
     1
102
RTVSPost2010Prop37
 90
       50
102
RTVSPost2010PropOp37
 70
     1
102
RTVSPost2010Prop38
140
0.0
102
RTVSPost2010PropOp38
 70
     1
102
RTVSPost2010Prop39
140
1.0
102
RTVSPost2010PropOp39
 70
     1
102
RTVSPost2010Prop40
 90
        0
102
RTVSPost2010PropOp40
 70
     1
102
RTVSPost2010Prop41ColorIndex
 90
       18
102
RTVSPost2010Prop41ColorRGB
 90
        0
102
RTVSPost2010PropOp41
 70
     1
102
RTVSPost2010Prop42
 90
       50
102
RTVSPost2010PropOp42
 70
     1
102
RTVSPost2010Prop43
 90
        3
102
RTVSPost2010PropOp43
 70
     1
102
RTVSPost2010Prop44ColorIndex
 90
        5
102
RTVSPost2010Prop44ColorRGB
 90
      255
102
RTVSPost2010PropOp44
 70
     1
102
RTVSPost2010Prop45
280
     0
102
RTVSPost2010PropOp45
 70
     1
102
RTVSPost2010Prop46
 90
       50
102
RTVSPost2010PropOp46
 70
     1
102
RTVSPost2010Prop47
 90
       50
102
RTVSPost2010PropOp47
 70
     1
102
RTVSPost2010Prop48
 90
       50
102
RTVSPost2010PropOp48
 70
     1
102
RTVSPost2010Prop49
280
     0
102
RTVSPost2010PropOp49
 70
     1
102
RTVSPost2010Prop50
 90
       50
102
RTVSPost2010PropOp50
 70
     1
102
RTVSPost2010Prop51ColorIndex
 90
      256
102
RTVSPost2010Prop51ColorRGB
 90
-16777216
102
RTVSPost2010PropOp51
 70
     0
102
RTVSPost2010Prop52
140
1.0
102
RTVSPost2010PropOp52
 70
     0
102
RTVSPost2010Prop53
 90
        2
102
RTVSPost2010PropOp53
 70
     1
102
RTVSPost2010Prop54
  1
strokes_ogs.tif
102
RTVSPost2010PropOp54
 70
     1
102
RTVSPost2010Prop55
280
     0
102
RTVSPost2010PropOp55
 70
     1
102
RTVSPost2010Prop56
140
1.0
102
RTVSPost2010PropOp56
 70
     1
102
RTVSPost2010Prop57
140
1.0
102
RTVSPost2010PropOp57
 70
     1
  0
XRECORD
  5
399
102
{ACAD_REACTORS
330
398
102
}
330
398
100
AcDbXrecord
280
     1
102
RTVSPropertyOp0
 70
     1
102
RTVSPropertyOp1
 70
     1
102
RTVSPropertyOp2
 70
     1
102
RTVSPropertyOp3
 70
     1
102
RTVSPropertyOp4
 70
     1
102
RTVSPropertyOp5
 70
     1
102
RTVSPropertyOp6
 70
     1
102
RTVSPropertyOp7
 70
     1
102
RTVSPropertyOp8
 70
     1
102
RTVSPropertyOp9
 70
     1
102
RTVSPropertyOp10
 70
     1
102
RTVSPropertyOp11
 70
     1
102
RTVSPropertyOp12
 70
     1
102
RTVSPropertyOp13
 70
     1
102
RTVSPropertyOp14
 70
     1
102
RTVSPropertyOp15
 70
     1
102
RTVSPropertyOp16
 70
     1
102
RTVSPropertyOp17
 70
     1
102
RTVSPropertyOp18
 70
     1
102
RTVSPropertyOp19
 70
     1
102
RTVSPropertyOp20
 70
     1
102
RTVSPropertyOp21
 70
     1
102
RTVSPropertyOp22
 70
     1
102
RTVSPropertyOp23
 70
     1
102
RTVSPropertyOp24
 70
     1
102
RTVSPropertyOp25
 70
     1
102
RTVSPropertyOp26
 70
     1
102
RTVSPropertyOp27
 70
     1
102
RTVSPropertyOp28
 70
     1
102
RTVSPropertyOp29
 70
     1
102
RTVSPropertyOp30
 70
     1
102
RTVSPropertyOp31
 70
     1
102
RTVSPropertyOp32
 70
     1
102
RTVSPropertyOp33
 70
     1
102
RTVSPropertyOp34
 70
     1
102
RTVSPropertyOp35
 70
     1
102
RTVSPropertyOp36
 70
     1
102
RTVSPropertyOp37
 70
     1
102
RTVSPropertyOp38
 70
     1
102
RTVSPropertyOp39
 70
     1
102
RTVSPropertyOp40
 70
     1
102
RTVSPropertyOp41
 70
     1
102
RTVSPropertyOp42
 70
     1
102
RTVSPropertyOp43
 70
     1
102
RTVSPropertyOp44
 70
     1
102
RTVSPropertyOp45
 70
     1
102
RTVSPropertyOp46
 70
     1
102
RTVSPropertyOp47
 70
     1
102
RTVSPropertyOp48
 70
     1
102
RTVSPropertyOp49
 70
     1
102
RTVSPropertyOp50
 70
     1
102
RTVSPropertyOp51
 70
     0
102
RTVSPropertyOp52
 70
     0
102
RTVSPropertyOp53
 70
     1
102
RTVSPropertyOp54
 70
     1
102
RTVSPropertyOp55
 70
     1
102
RTVSPropertyOp56
 70
     1
102
RTVSPropertyOp57
 70
     1
102
RTVSPost2010Prop28
280
     0
102
RTVSPost2010PropOp28
 70
     1
102
RTVSPost2010Prop29
280
     1
102
RTVSPost2010PropOp29
 70
     1
102
RTVSPost2010Prop30
280
     1
102
RTVSPost2010PropOp30
 70
     1
102
RTVSPost2010Prop31
280
     0
102
RTVSPost2010PropOp31
 70
     1
102
RTVSPost2010Prop32
280
     0
102
RTVSPost2010PropOp32
 70
     1
102
RTVSPost2010Prop33
280
     0
102
RTVSPost2010PropOp33
 70
     1
102
RTVSPost2010Prop34
280
     0
102
RTVSPost2010PropOp34
 70
     1
102
RTVSPost2010Prop35
280
     0
102
RTVSPost2010PropOp35
 70
     1
102
RTVSPost2010Prop36
280
     0
102
RTVSPost2010PropOp36
 70
     1
102
RTVSPost2010Prop37
 90
       50
102
RTVSPost2010PropOp37
 70
     1
102
RTVSPost2010Prop38
140
0.0
102
RTVSPost2010PropOp38
 70
     1
102
RTVSPost2010Prop39
140
1.0
102
RTVSPost2010PropOp39
 70
     1
102
RTVSPost2010Prop40
 90
        0
102
RTVSPost2010PropOp40
 70
     1
102
RTVSPost2010Prop41ColorIndex
 90
       18
102
RTVSPost2010Prop41ColorRGB
 90
        0
102
RTVSPost2010PropOp41
 70
     1
102
RTVSPost2010Prop42
 90
       50
102
RTVSPost2010PropOp42
 70
     1
102
RTVSPost2010Prop43
 90
        3
102
RTVSPost2010PropOp43
 70
     1
102
RTVSPost2010Prop44ColorIndex
 90
        5
102
RTVSPost2010Prop44ColorRGB
 90
      255
102
RTVSPost2010PropOp44
 70
     1
102
RTVSPost2010Prop45
280
     0
102
RTVSPost2010PropOp45
 70
     1
102
RTVSPost2010Prop46
 90
       50
102
RTVSPost2010PropOp46
 70
     1
102
RTVSPost2010Prop47
 90
       50
102
RTVSPost2010PropOp47
 70
     1
102
RTVSPost2010Prop48
 90
       50
102
RTVSPost2010PropOp48
 70
     1
102
RTVSPost2010Prop49
280
     0
102
RTVSPost2010PropOp49
 70
     1
102
RTVSPost2010Prop50
 90
       50
102
RTVSPost2010PropOp50
 70
     1
102
RTVSPost2010Prop51ColorIndex
 90
      256
102
RTVSPost2010Prop51ColorRGB
 90
-16777216
102
RTVSPost2010PropOp51
 70
     0
102
RTVSPost2010Prop52
140
1.0
102
RTVSPost2010PropOp52
 70
     0
102
RTVSPost2010Prop53
 90
        2
102
RTVSPost2010PropOp53
 70
     1
102
RTVSPost2010Prop54
  1
strokes_ogs.tif
102
RTVSPost2010PropOp54
 70
     1
102
RTVSPost2010Prop55
280
     0
102
RTVSPost2010PropOp55
 70
     1
102
RTVSPost2010Prop56
140
1.0
102
RTVSPost2010PropOp56
 70
     1
102
RTVSPost2010Prop57
140
1.0
102
RTVSPost2010PropOp57
 70
     1
  0
XRECORD
  5
3A9
102
{ACAD_REACTORS
330
3A8
102
}
330
3A8
100
AcDbXrecord
280
     1
102
RTVSPropertyOp0
 70
     0
102
RTVSPropertyOp1
 70
     0
102
RTVSPropertyOp2
 70
     0
102
RTVSPropertyOp3
 70
     0
102
RTVSPropertyOp4
 70
     0
102
RTVSPropertyOp5
 70
     0
102
RTVSPropertyOp6
 70
     0
102
RTVSPropertyOp7
 70
     0
102
RTVSPropertyOp8
 70
     0
102
RTVSPropertyOp9
 70
     0
102
RTVSPropertyOp10
 70
     0
102
RTVSPropertyOp11
 70
     0
102
RTVSPropertyOp12
 70
     0
102
RTVSPropertyOp13
 70
     0
102
RTVSPropertyOp14
 70
     2
102
RTVSPropertyOp15
 70
     0
102
RTVSPropertyOp16
 70
     0
102
RTVSPropertyOp17
 70
     0
102
RTVSPropertyOp18
 70
     0
102
RTVSPropertyOp19
 70
     0
102
RTVSPropertyOp20
 70
     0
102
RTVSPropertyOp21
 70
     0
102
RTVSPropertyOp22
 70
     0
102
RTVSPropertyOp23
 70
     0
102
RTVSPropertyOp24
 70
     0
102
RTVSPropertyOp25
 70
     0
102
RTVSPropertyOp26
 70
     0
102
RTVSPropertyOp27
 70
     0
102
RTVSPropertyOp28
 70
     0
102
RTVSPropertyOp29
 70
     0
102
RTVSPropertyOp30
 70
     0
102
RTVSPropertyOp31
 70
     0
102
RTVSPropertyOp32
 70
     0
102
RTVSPropertyOp33
 70
     0
102
RTVSPropertyOp34
 70
     0
102
RTVSPropertyOp35
 70
     0
102
RTVSPropertyOp36
 70
     0
102
RTVSPropertyOp37
 70
     0
102
RTVSPropertyOp38
 70
     0
102
RTVSPropertyOp39
 70
     0
102
RTVSPropertyOp40
 70
     0
102
RTVSPropertyOp41
 70
     0
102
RTVSPropertyOp42
 70
     0
102
RTVSPropertyOp43
 70
     0
102
RTVSPropertyOp44
 70
     0
102
RTVSPropertyOp45
 70
     0
102
RTVSPropertyOp46
 70
     0
102
RTVSPropertyOp47
 70
     0
102
RTVSPropertyOp48
 70
     0
102
RTVSPropertyOp49
 70
     0
102
RTVSPropertyOp50
 70
     0
102
RTVSPropertyOp51
 70
     0
102
RTVSPropertyOp52
 70
     0
102
RTVSPropertyOp53
 70
     0
102
RTVSPropertyOp54
 70
     0
102
RTVSPropertyOp55
 70
     0
102
RTVSPropertyOp56
 70
     0
102
RTVSPropertyOp57
 70
     0
102
RTVSPost2010Prop28
280
     0
102
RTVSPost2010PropOp28
 70
     0
102
RTVSPost2010Prop29
280
     1
102
RTVSPost2010PropOp29
 70
     0
102
RTVSPost2010Prop30
280
     1
102
RTVSPost2010PropOp30
 70
     0
102
RTVSPost2010Prop31
280
     0
102
RTVSPost2010PropOp31
 70
     0
102
RTVSPost2010Prop32
280
     0
102
RTVSPost2010PropOp32
 70
     0
102
RTVSPost2010Prop33
280
     0
102
RTVSPost2010PropOp33
 70
     0
102
RTVSPost2010Prop34
280
     0
102
RTVSPost2010PropOp34
 70
     0
102
RTVSPost2010Prop35
280
     0
102
RTVSPost2010PropOp35
 70
     0
102
RTVSPost2010Prop36
280
     0
102
RTVSPost2010PropOp36
 70
     0
102
RTVSPost2010Prop37
 90
       50
102
RTVSPost2010PropOp37
 70
     0
102
RTVSPost2010Prop38
140
0.0
102
RTVSPost2010PropOp38
 70
     0
102
RTVSPost2010Prop39
140
1.0
102
RTVSPost2010PropOp39
 70
     0
102
RTVSPost2010Prop40
 90
        0
102
RTVSPost2010PropOp40
 70
     0
102
RTVSPost2010Prop41ColorIndex
 90
       18
102
RTVSPost2010Prop41ColorRGB
 90
        0
102
RTVSPost2010PropOp41
 70
     0
102
RTVSPost2010Prop42
 90
       50
102
RTVSPost2010PropOp42
 70
     0
102
RTVSPost2010Prop43
 90
        3
102
RTVSPost2010PropOp43
 70
     0
102
RTVSPost2010Prop44ColorIndex
 90
        5
102
RTVSPost2010Prop44ColorRGB
 90
      255
102
RTVSPost2010PropOp44
 70
     0
102
RTVSPost2010Prop45
280
     0
102
RTVSPost2010PropOp45
 70
     0
102
RTVSPost2010Prop46
 90
       50
102
RTVSPost2010PropOp46
 70
     0
102
RTVSPost2010Prop47
 90
       50
102
RTVSPost2010PropOp47
 70
     0
102
RTVSPost2010Prop48
 90
       50
102
RTVSPost2010PropOp48
 70
     0
102
RTVSPost2010Prop49
280
     0
102
RTVSPost2010PropOp49
 70
     0
102
RTVSPost2010Prop50
 90
       50
102
RTVSPost2010PropOp50
 70
     0
102
RTVSPost2010Prop51ColorIndex
 90
      256
102
RTVSPost2010Prop51ColorRGB
 90
-16777216
102
RTVSPost2010PropOp51
 70
     0
102
RTVSPost2010Prop52
140
1.0
102
RTVSPost2010PropOp52
 70
     0
102
RTVSPost2010Prop53
 90
        2
102
RTVSPost2010PropOp53
 70
     0
102
RTVSPost2010Prop54
  1
strokes_ogs.tif
102
RTVSPost2010PropOp54
 70
     0
102
RTVSPost2010Prop55
280
     0
102
RTVSPost2010PropOp55
 70
     0
102
RTVSPost2010Prop56
140
1.0
102
RTVSPost2010PropOp56
 70
     0
102
RTVSPost2010Prop57
140
1.0
102
RTVSPost2010PropOp57
 70
     0
  0
XRECORD
  5
3A1
102
{ACAD_REACTORS
330
3A0
102
}
330
3A0
100
AcDbXrecord
280
     1
102
RTVSPropertyOp0
 70
     1
102
RTVSPropertyOp1
 70
     1
102
RTVSPropertyOp2
 70
     1
102
RTVSPropertyOp3
 70
     1
102
RTVSPropertyOp4
 70
     1
102
RTVSPropertyOp5
 70
     1
102
RTVSPropertyOp6
 70
     1
102
RTVSPropertyOp7
 70
     1
102
RTVSPropertyOp8
 70
     1
102
RTVSPropertyOp9
 70
     1
102
RTVSPropertyOp10
 70
     1
102
RTVSPropertyOp11
 70
     1
102
RTVSPropertyOp12
 70
     1
102
RTVSPropertyOp13
 70
     1
102
RTVSPropertyOp14
 70
     1
102
RTVSPropertyOp15
 70
     1
102
RTVSPropertyOp16
 70
     1
102
RTVSPropertyOp17
 70
     1
102
RTVSPropertyOp18
 70
     1
102
RTVSPropertyOp19
 70
     1
102
RTVSPropertyOp20
 70
     1
102
RTVSPropertyOp21
 70
     1
102
RTVSPropertyOp22
 70
     1
102
RTVSPropertyOp23
 70
     1
102
RTVSPropertyOp24
 70
     1
102
RTVSPropertyOp25
 70
     1
102
RTVSPropertyOp26
 70
     1
102
RTVSPropertyOp27
 70
     1
102
RTVSPropertyOp28
 70
     1
102
RTVSPropertyOp29
 70
     1
102
RTVSPropertyOp30
 70
     1
102
RTVSPropertyOp31
 70
     1
102
RTVSPropertyOp32
 70
     1
102
RTVSPropertyOp33
 70
     1
102
RTVSPropertyOp34
 70
     1
102
RTVSPropertyOp35
 70
     1
102
RTVSPropertyOp36
 70
     1
102
RTVSPropertyOp37
 70
     1
102
RTVSPropertyOp38
 70
     1
102
RTVSPropertyOp39
 70
     1
102
RTVSPropertyOp40
 70
     1
102
RTVSPropertyOp41
 70
     1
102
RTVSPropertyOp42
 70
     1
102
RTVSPropertyOp43
 70
     1
102
RTVSPropertyOp44
 70
     1
102
RTVSPropertyOp45
 70
     1
102
RTVSPropertyOp46
 70
     1
102
RTVSPropertyOp47
 70
     1
102
RTVSPropertyOp48
 70
     1
102
RTVSPropertyOp49
 70
     1
102
RTVSPropertyOp50
 70
     1
102
RTVSPropertyOp51
 70
     0
102
RTVSPropertyOp52
 70
     0
102
RTVSPropertyOp53
 70
     1
102
RTVSPropertyOp54
 70
     1
102
RTVSPropertyOp55
 70
     1
102
RTVSPropertyOp56
 70
     1
102
RTVSPropertyOp57
 70
     1
102
RTVSPost2010Prop28
280
     0
102
RTVSPost2010PropOp28
 70
     1
102
RTVSPost2010Prop29
280
     1
102
RTVSPost2010PropOp29
 70
     1
102
RTVSPost2010Prop30
280
     1
102
RTVSPost2010PropOp30
 70
     1
102
RTVSPost2010Prop31
280
     0
102
RTVSPost2010PropOp31
 70
     1
102
RTVSPost2010Prop32
280
     0
102
RTVSPost2010PropOp32
 70
     1
102
RTVSPost2010Prop33
280
     0
102
RTVSPost2010PropOp33
 70
     1
102
RTVSPost2010Prop34
280
     0
102
RTVSPost2010PropOp34
 70
     1
102
RTVSPost2010Prop35
280
     0
102
RTVSPost2010PropOp35
 70
     1
102
RTVSPost2010Prop36
280
     0
102
RTVSPost2010PropOp36
 70
     1
102
RTVSPost2010Prop37
 90
       50
102
RTVSPost2010PropOp37
 70
     1
102
RTVSPost2010Prop38
140
0.0
102
RTVSPost2010PropOp38
 70
     1
102
RTVSPost2010Prop39
140
1.0
102
RTVSPost2010PropOp39
 70
     1
102
RTVSPost2010Prop40
 90
        0
102
RTVSPost2010PropOp40
 70
     1
102
RTVSPost2010Prop41ColorIndex
 90
       18
102
RTVSPost2010Prop41ColorRGB
 90
        0
102
RTVSPost2010PropOp41
 70
     1
102
RTVSPost2010Prop42
 90
       50
102
RTVSPost2010PropOp42
 70
     1
102
RTVSPost2010Prop43
 90
        3
102
RTVSPost2010PropOp43
 70
     1
102
RTVSPost2010Prop44ColorIndex
 90
        5
102
RTVSPost2010Prop44ColorRGB
 90
      255
102
RTVSPost2010PropOp44
 70
     1
102
RTVSPost2010Prop45
280
     0
102
RTVSPost2010PropOp45
 70
     1
102
RTVSPost2010Prop46
 90
       50
102
RTVSPost2010PropOp46
 70
     1
102
RTVSPost2010Prop47
 90
       50
102
RTVSPost2010PropOp47
 70
     1
102
RTVSPost2010Prop48
 90
       50
102
RTVSPost2010PropOp48
 70
     1
102
RTVSPost2010Prop49
280
     0
102
RTVSPost2010PropOp49
 70
     1
102
RTVSPost2010Prop50
 90
       50
102
RTVSPost2010PropOp50
 70
     1
102
RTVSPost2010Prop51ColorIndex
 90
      256
102
RTVSPost2010Prop51ColorRGB
 90
-16777216
102
RTVSPost2010PropOp51
 70
     0
102
RTVSPost2010Prop52
140
1.0
102
RTVSPost2010PropOp52
 70
     0
102
RTVSPost2010Prop53
 90
        2
102
RTVSPost2010PropOp53
 70
     1
102
RTVSPost2010Prop54
  1
strokes_ogs.tif
102
RTVSPost2010PropOp54
 70
     1
102
RTVSPost2010Prop55
280
     0
102
RTVSPost2010PropOp55
 70
     1
102
RTVSPost2010Prop56
140
1.0
102
RTVSPost2010PropOp56
 70
     1
102
RTVSPost2010Prop57
140
1.0
102
RTVSPost2010PropOp57
 70
     1
  0
XRECORD
  5
385
102
{ACAD_REACTORS
330
384
102
}
330
384
100
AcDbXrecord
280
     1
102
RTVSPropertyOp0
 70
     1
102
RTVSPropertyOp1
 70
     1
102
RTVSPropertyOp2
 70
     1
102
RTVSPropertyOp3
 70
     1
102
RTVSPropertyOp4
 70
     1
102
RTVSPropertyOp5
 70
     1
102
RTVSPropertyOp6
 70
     1
102
RTVSPropertyOp7
 70
     1
102
RTVSPropertyOp8
 70
     1
102
RTVSPropertyOp9
 70
     1
102
RTVSPropertyOp10
 70
     1
102
RTVSPropertyOp11
 70
     1
102
RTVSPropertyOp12
 70
     1
102
RTVSPropertyOp13
 70
     1
102
RTVSPropertyOp14
 70
     1
102
RTVSPropertyOp15
 70
     1
102
RTVSPropertyOp16
 70
     1
102
RTVSPropertyOp17
 70
     1
102
RTVSPropertyOp18
 70
     1
102
RTVSPropertyOp19
 70
     1
102
RTVSPropertyOp20
 70
     1
102
RTVSPropertyOp21
 70
     1
102
RTVSPropertyOp22
 70
     1
102
RTVSPropertyOp23
 70
     1
102
RTVSPropertyOp24
 70
     1
102
RTVSPropertyOp25
 70
     1
102
RTVSPropertyOp26
 70
     1
102
RTVSPropertyOp27
 70
     1
102
RTVSPropertyOp28
 70
     1
102
RTVSPropertyOp29
 70
     1
102
RTVSPropertyOp30
 70
     1
102
RTVSPropertyOp31
 70
     1
102
RTVSPropertyOp32
 70
     1
102
RTVSPropertyOp33
 70
     1
102
RTVSPropertyOp34
 70
     1
102
RTVSPropertyOp35
 70
     1
102
RTVSPropertyOp36
 70
     1
102
RTVSPropertyOp37
 70
     1
102
RTVSPropertyOp38
 70
     1
102
RTVSPropertyOp39
 70
     1
102
RTVSPropertyOp40
 70
     1
102
RTVSPropertyOp41
 70
     1
102
RTVSPropertyOp42
 70
     1
102
RTVSPropertyOp43
 70
     1
102
RTVSPropertyOp44
 70
     1
102
RTVSPropertyOp45
 70
     1
102
RTVSPropertyOp46
 70
     1
102
RTVSPropertyOp47
 70
     1
102
RTVSPropertyOp48
 70
     1
102
RTVSPropertyOp49
 70
     1
102
RTVSPropertyOp50
 70
     1
102
RTVSPropertyOp51
 70
     0
102
RTVSPropertyOp52
 70
     0
102
RTVSPropertyOp53
 70
     1
102
RTVSPropertyOp54
 70
     1
102
RTVSPropertyOp55
 70
     1
102
RTVSPropertyOp56
 70
     1
102
RTVSPropertyOp57
 70
     1
102
RTVSPost2010Prop28
280
     0
102
RTVSPost2010PropOp28
 70
     1
102
RTVSPost2010Prop29
280
     1
102
RTVSPost2010PropOp29
 70
     1
102
RTVSPost2010Prop30
280
     1
102
RTVSPost2010PropOp30
 70
     1
102
RTVSPost2010Prop31
280
     0
102
RTVSPost2010PropOp31
 70
     1
102
RTVSPost2010Prop32
280
     0
102
RTVSPost2010PropOp32
 70
     1
102
RTVSPost2010Prop33
280
     0
102
RTVSPost2010PropOp33
 70
     1
102
RTVSPost2010Prop34
280
     0
102
RTVSPost2010PropOp34
 70
     1
102
RTVSPost2010Prop35
280
     0
102
RTVSPost2010PropOp35
 70
     1
102
RTVSPost2010Prop36
280
     0
102
RTVSPost2010PropOp36
 70
     1
102
RTVSPost2010Prop37
 90
       50
102
RTVSPost2010PropOp37
 70
     1
102
RTVSPost2010Prop38
140
0.0
102
RTVSPost2010PropOp38
 70
     1
102
RTVSPost2010Prop39
140
1.0
102
RTVSPost2010PropOp39
 70
     1
102
RTVSPost2010Prop40
 90
        0
102
RTVSPost2010PropOp40
 70
     1
102
RTVSPost2010Prop41ColorIndex
 90
       18
102
RTVSPost2010Prop41ColorRGB
 90
        0
102
RTVSPost2010PropOp41
 70
     1
102
RTVSPost2010Prop42
 90
       50
102
RTVSPost2010PropOp42
 70
     1
102
RTVSPost2010Prop43
 90
        3
102
RTVSPost2010PropOp43
 70
     1
102
RTVSPost2010Prop44ColorIndex
 90
        5
102
RTVSPost2010Prop44ColorRGB
 90
      255
102
RTVSPost2010PropOp44
 70
     1
102
RTVSPost2010Prop45
280
     0
102
RTVSPost2010PropOp45
 70
     1
102
RTVSPost2010Prop46
 90
       50
102
RTVSPost2010PropOp46
 70
     1
102
RTVSPost2010Prop47
 90
       50
102
RTVSPost2010PropOp47
 70
     1
102
RTVSPost2010Prop48
 90
       50
102
RTVSPost2010PropOp48
 70
     1
102
RTVSPost2010Prop49
280
     0
102
RTVSPost2010PropOp49
 70
     1
102
RTVSPost2010Prop50
 90
       50
102
RTVSPost2010PropOp50
 70
     1
102
RTVSPost2010Prop51ColorIndex
 90
      256
102
RTVSPost2010Prop51ColorRGB
 90
-16777216
102
RTVSPost2010PropOp51
 70
     0
102
RTVSPost2010Prop52
140
1.0
102
RTVSPost2010PropOp52
 70
     0
102
RTVSPost2010Prop53
 90
        2
102
RTVSPost2010PropOp53
 70
     1
102
RTVSPost2010Prop54
  1
strokes_ogs.tif
102
RTVSPost2010PropOp54
 70
     1
102
RTVSPost2010Prop55
280
     0
102
RTVSPost2010PropOp55
 70
     1
102
RTVSPost2010Prop56
140
1.0
102
RTVSPost2010PropOp56
 70
     1
102
RTVSPost2010Prop57
140
1.0
102
RTVSPost2010PropOp57
 70
     1
  0
XRECORD
  5
387
102
{ACAD_REACTORS
330
386
102
}
330
386
100
AcDbXrecord
280
     1
102
RTVSPropertyOp0
 70
     1
102
RTVSPropertyOp1
 70
     1
102
RTVSPropertyOp2
 70
     1
102
RTVSPropertyOp3
 70
     1
102
RTVSPropertyOp4
 70
     1
102
RTVSPropertyOp5
 70
     1
102
RTVSPropertyOp6
 70
     1
102
RTVSPropertyOp7
 70
     1
102
RTVSPropertyOp8
 70
     1
102
RTVSPropertyOp9
 70
     1
102
RTVSPropertyOp10
 70
     1
102
RTVSPropertyOp11
 70
     1
102
RTVSPropertyOp12
 70
     1
102
RTVSPropertyOp13
 70
     1
102
RTVSPropertyOp14
 70
     1
102
RTVSPropertyOp15
 70
     1
102
RTVSPropertyOp16
 70
     1
102
RTVSPropertyOp17
 70
     1
102
RTVSPropertyOp18
 70
     1
102
RTVSPropertyOp19
 70
     1
102
RTVSPropertyOp20
 70
     1
102
RTVSPropertyOp21
 70
     1
102
RTVSPropertyOp22
 70
     1
102
RTVSPropertyOp23
 70
     1
102
RTVSPropertyOp24
 70
     1
102
RTVSPropertyOp25
 70
     1
102
RTVSPropertyOp26
 70
     1
102
RTVSPropertyOp27
 70
     1
102
RTVSPropertyOp28
 70
     1
102
RTVSPropertyOp29
 70
     1
102
RTVSPropertyOp30
 70
     1
102
RTVSPropertyOp31
 70
     1
102
RTVSPropertyOp32
 70
     1
102
RTVSPropertyOp33
 70
     1
102
RTVSPropertyOp34
 70
     1
102
RTVSPropertyOp35
 70
     1
102
RTVSPropertyOp36
 70
     1
102
RTVSPropertyOp37
 70
     1
102
RTVSPropertyOp38
 70
     1
102
RTVSPropertyOp39
 70
     1
102
RTVSPropertyOp40
 70
     1
102
RTVSPropertyOp41
 70
     1
102
RTVSPropertyOp42
 70
     1
102
RTVSPropertyOp43
 70
     1
102
RTVSPropertyOp44
 70
     1
102
RTVSPropertyOp45
 70
     1
102
RTVSPropertyOp46
 70
     1
102
RTVSPropertyOp47
 70
     1
102
RTVSPropertyOp48
 70
     1
102
RTVSPropertyOp49
 70
     1
102
RTVSPropertyOp50
 70
     1
102
RTVSPropertyOp51
 70
     0
102
RTVSPropertyOp52
 70
     0
102
RTVSPropertyOp53
 70
     1
102
RTVSPropertyOp54
 70
     1
102
RTVSPropertyOp55
 70
     1
102
RTVSPropertyOp56
 70
     1
102
RTVSPropertyOp57
 70
     1
102
RTVSPost2010Prop28
280
     0
102
RTVSPost2010PropOp28
 70
     1
102
RTVSPost2010Prop29
280
     1
102
RTVSPost2010PropOp29
 70
     1
102
RTVSPost2010Prop30
280
     1
102
RTVSPost2010PropOp30
 70
     1
102
RTVSPost2010Prop31
280
     0
102
RTVSPost2010PropOp31
 70
     1
102
RTVSPost2010Prop32
280
     0
102
RTVSPost2010PropOp32
 70
     1
102
RTVSPost2010Prop33
280
     0
102
RTVSPost2010PropOp33
 70
     1
102
RTVSPost2010Prop34
280
     0
102
RTVSPost2010PropOp34
 70
     1
102
RTVSPost2010Prop35
280
     0
102
RTVSPost2010PropOp35
 70
     1
102
RTVSPost2010Prop36
280
     0
102
RTVSPost2010PropOp36
 70
     1
102
RTVSPost2010Prop37
 90
       50
102
RTVSPost2010PropOp37
 70
     1
102
RTVSPost2010Prop38
140
0.0
102
RTVSPost2010PropOp38
 70
     1
102
RTVSPost2010Prop39
140
1.0
102
RTVSPost2010PropOp39
 70
     1
102
RTVSPost2010Prop40
 90
        0
102
RTVSPost2010PropOp40
 70
     1
102
RTVSPost2010Prop41ColorIndex
 90
       18
102
RTVSPost2010Prop41ColorRGB
 90
        0
102
RTVSPost2010PropOp41
 70
     1
102
RTVSPost2010Prop42
 90
       50
102
RTVSPost2010PropOp42
 70
     1
102
RTVSPost2010Prop43
 90
        3
102
RTVSPost2010PropOp43
 70
     1
102
RTVSPost2010Prop44ColorIndex
 90
        5
102
RTVSPost2010Prop44ColorRGB
 90
      255
102
RTVSPost2010PropOp44
 70
     1
102
RTVSPost2010Prop45
280
     0
102
RTVSPost2010PropOp45
 70
     1
102
RTVSPost2010Prop46
 90
       50
102
RTVSPost2010PropOp46
 70
     1
102
RTVSPost2010Prop47
 90
       50
102
RTVSPost2010PropOp47
 70
     1
102
RTVSPost2010Prop48
 90
       50
102
RTVSPost2010PropOp48
 70
     1
102
RTVSPost2010Prop49
280
     0
102
RTVSPost2010PropOp49
 70
     1
102
RTVSPost2010Prop50
 90
       50
102
RTVSPost2010PropOp50
 70
     1
102
RTVSPost2010Prop51ColorIndex
 90
      256
102
RTVSPost2010Prop51ColorRGB
 90
-16777216
102
RTVSPost2010PropOp51
 70
     0
102
RTVSPost2010Prop52
140
1.0
102
RTVSPost2010PropOp52
 70
     0
102
RTVSPost2010Prop53
 90
        2
102
RTVSPost2010PropOp53
 70
     1
102
RTVSPost2010Prop54
  1
strokes_ogs.tif
102
RTVSPost2010PropOp54
 70
     1
102
RTVSPost2010Prop55
280
     0
102
RTVSPost2010PropOp55
 70
     1
102
RTVSPost2010Prop56
140
1.0
102
RTVSPost2010PropOp56
 70
     1
102
RTVSPost2010Prop57
140
1.0
102
RTVSPost2010PropOp57
 70
     1
  0
XRECORD
  5
389
102
{ACAD_REACTORS
330
388
102
}
330
388
100
AcDbXrecord
280
     1
102
RTVSPropertyOp0
 70
     1
102
RTVSPropertyOp1
 70
     1
102
RTVSPropertyOp2
 70
     1
102
RTVSPropertyOp3
 70
     1
102
RTVSPropertyOp4
 70
     1
102
RTVSPropertyOp5
 70
     1
102
RTVSPropertyOp6
 70
     1
102
RTVSPropertyOp7
 70
     1
102
RTVSPropertyOp8
 70
     1
102
RTVSPropertyOp9
 70
     1
102
RTVSPropertyOp10
 70
     1
102
RTVSPropertyOp11
 70
     1
102
RTVSPropertyOp12
 70
     1
102
RTVSPropertyOp13
 70
     1
102
RTVSPropertyOp14
 70
     1
102
RTVSPropertyOp15
 70
     1
102
RTVSPropertyOp16
 70
     1
102
RTVSPropertyOp17
 70
     1
102
RTVSPropertyOp18
 70
     1
102
RTVSPropertyOp19
 70
     1
102
RTVSPropertyOp20
 70
     1
102
RTVSPropertyOp21
 70
     1
102
RTVSPropertyOp22
 70
     1
102
RTVSPropertyOp23
 70
     1
102
RTVSPropertyOp24
 70
     1
102
RTVSPropertyOp25
 70
     1
102
RTVSPropertyOp26
 70
     1
102
RTVSPropertyOp27
 70
     1
102
RTVSPropertyOp28
 70
     1
102
RTVSPropertyOp29
 70
     1
102
RTVSPropertyOp30
 70
     1
102
RTVSPropertyOp31
 70
     1
102
RTVSPropertyOp32
 70
     1
102
RTVSPropertyOp33
 70
     1
102
RTVSPropertyOp34
 70
     1
102
RTVSPropertyOp35
 70
     1
102
RTVSPropertyOp36
 70
     1
102
RTVSPropertyOp37
 70
     1
102
RTVSPropertyOp38
 70
     1
102
RTVSPropertyOp39
 70
     1
102
RTVSPropertyOp40
 70
     1
102
RTVSPropertyOp41
 70
     1
102
RTVSPropertyOp42
 70
     1
102
RTVSPropertyOp43
 70
     1
102
RTVSPropertyOp44
 70
     1
102
RTVSPropertyOp45
 70
     1
102
RTVSPropertyOp46
 70
     1
102
RTVSPropertyOp47
 70
     1
102
RTVSPropertyOp48
 70
     1
102
RTVSPropertyOp49
 70
     1
102
RTVSPropertyOp50
 70
     1
102
RTVSPropertyOp51
 70
     0
102
RTVSPropertyOp52
 70
     0
102
RTVSPropertyOp53
 70
     1
102
RTVSPropertyOp54
 70
     1
102
RTVSPropertyOp55
 70
     1
102
RTVSPropertyOp56
 70
     1
102
RTVSPropertyOp57
 70
     1
102
RTVSPost2010Prop28
280
     0
102
RTVSPost2010PropOp28
 70
     1
102
RTVSPost2010Prop29
280
     1
102
RTVSPost2010PropOp29
 70
     1
102
RTVSPost2010Prop30
280
     1
102
RTVSPost2010PropOp30
 70
     1
102
RTVSPost2010Prop31
280
     0
102
RTVSPost2010PropOp31
 70
     1
102
RTVSPost2010Prop32
280
     0
102
RTVSPost2010PropOp32
 70
     1
102
RTVSPost2010Prop33
280
     0
102
RTVSPost2010PropOp33
 70
     1
102
RTVSPost2010Prop34
280
     0
102
RTVSPost2010PropOp34
 70
     1
102
RTVSPost2010Prop35
280
     0
102
RTVSPost2010PropOp35
 70
     1
102
RTVSPost2010Prop36
280
     0
102
RTVSPost2010PropOp36
 70
     1
102
RTVSPost2010Prop37
 90
       50
102
RTVSPost2010PropOp37
 70
     1
102
RTVSPost2010Prop38
140
0.0
102
RTVSPost2010PropOp38
 70
     1
102
RTVSPost2010Prop39
140
1.0
102
RTVSPost2010PropOp39
 70
     1
102
RTVSPost2010Prop40
 90
        0
102
RTVSPost2010PropOp40
 70
     1
102
RTVSPost2010Prop41ColorIndex
 90
       18
102
RTVSPost2010Prop41ColorRGB
 90
        0
102
RTVSPost2010PropOp41
 70
     1
102
RTVSPost2010Prop42
 90
       50
102
RTVSPost2010PropOp42
 70
     1
102
RTVSPost2010Prop43
 90
        3
102
RTVSPost2010PropOp43
 70
     1
102
RTVSPost2010Prop44ColorIndex
 90
        5
102
RTVSPost2010Prop44ColorRGB
 90
      255
102
RTVSPost2010PropOp44
 70
     1
102
RTVSPost2010Prop45
280
     0
102
RTVSPost2010PropOp45
 70
     1
102
RTVSPost2010Prop46
 90
       50
102
RTVSPost2010PropOp46
 70
     1
102
RTVSPost2010Prop47
 90
       50
102
RTVSPost2010PropOp47
 70
     1
102
RTVSPost2010Prop48
 90
       50
102
RTVSPost2010PropOp48
 70
     1
102
RTVSPost2010Prop49
280
     0
102
RTVSPost2010PropOp49
 70
     1
102
RTVSPost2010Prop50
 90
       50
102
RTVSPost2010PropOp50
 70
     1
102
RTVSPost2010Prop51ColorIndex
 90
      256
102
RTVSPost2010Prop51ColorRGB
 90
-16777216
102
RTVSPost2010PropOp51
 70
     0
102
RTVSPost2010Prop52
140
1.0
102
RTVSPost2010PropOp52
 70
     0
102
RTVSPost2010Prop53
 90
        2
102
RTVSPost2010PropOp53
 70
     1
102
RTVSPost2010Prop54
  1
strokes_ogs.tif
102
RTVSPost2010PropOp54
 70
     1
102
RTVSPost2010Prop55
280
     0
102
RTVSPost2010PropOp55
 70
     1
102
RTVSPost2010Prop56
140
1.0
102
RTVSPost2010PropOp56
 70
     1
102
RTVSPost2010Prop57
140
1.0
102
RTVSPost2010PropOp57
 70
     1
  0
XRECORD
  5
38B
102
{ACAD_REACTORS
330
38A
102
}
330
38A
100
AcDbXrecord
280
     1
102
RTVSPropertyOp0
 70
     1
102
RTVSPropertyOp1
 70
     1
102
RTVSPropertyOp2
 70
     1
102
RTVSPropertyOp3
 70
     1
102
RTVSPropertyOp4
 70
     1
102
RTVSPropertyOp5
 70
     1
102
RTVSPropertyOp6
 70
     1
102
RTVSPropertyOp7
 70
     1
102
RTVSPropertyOp8
 70
     1
102
RTVSPropertyOp9
 70
     1
102
RTVSPropertyOp10
 70
     1
102
RTVSPropertyOp11
 70
     1
102
RTVSPropertyOp12
 70
     1
102
RTVSPropertyOp13
 70
     1
102
RTVSPropertyOp14
 70
     1
102
RTVSPropertyOp15
 70
     1
102
RTVSPropertyOp16
 70
     1
102
RTVSPropertyOp17
 70
     1
102
RTVSPropertyOp18
 70
     1
102
RTVSPropertyOp19
 70
     1
102
RTVSPropertyOp20
 70
     1
102
RTVSPropertyOp21
 70
     1
102
RTVSPropertyOp22
 70
     1
102
RTVSPropertyOp23
 70
     1
102
RTVSPropertyOp24
 70
     1
102
RTVSPropertyOp25
 70
     1
102
RTVSPropertyOp26
 70
     1
102
RTVSPropertyOp27
 70
     1
102
RTVSPropertyOp28
 70
     1
102
RTVSPropertyOp29
 70
     1
102
RTVSPropertyOp30
 70
     1
102
RTVSPropertyOp31
 70
     1
102
RTVSPropertyOp32
 70
     1
102
RTVSPropertyOp33
 70
     1
102
RTVSPropertyOp34
 70
     1
102
RTVSPropertyOp35
 70
     1
102
RTVSPropertyOp36
 70
     1
102
RTVSPropertyOp37
 70
     1
102
RTVSPropertyOp38
 70
     1
102
RTVSPropertyOp39
 70
     1
102
RTVSPropertyOp40
 70
     1
102
RTVSPropertyOp41
 70
     1
102
RTVSPropertyOp42
 70
     1
102
RTVSPropertyOp43
 70
     1
102
RTVSPropertyOp44
 70
     1
102
RTVSPropertyOp45
 70
     1
102
RTVSPropertyOp46
 70
     1
102
RTVSPropertyOp47
 70
     1
102
RTVSPropertyOp48
 70
     1
102
RTVSPropertyOp49
 70
     1
102
RTVSPropertyOp50
 70
     1
102
RTVSPropertyOp51
 70
     0
102
RTVSPropertyOp52
 70
     0
102
RTVSPropertyOp53
 70
     1
102
RTVSPropertyOp54
 70
     1
102
RTVSPropertyOp55
 70
     1
102
RTVSPropertyOp56
 70
     1
102
RTVSPropertyOp57
 70
     1
102
RTVSPost2010Prop28
280
     0
102
RTVSPost2010PropOp28
 70
     1
102
RTVSPost2010Prop29
280
     1
102
RTVSPost2010PropOp29
 70
     1
102
RTVSPost2010Prop30
280
     1
102
RTVSPost2010PropOp30
 70
     1
102
RTVSPost2010Prop31
280
     0
102
RTVSPost2010PropOp31
 70
     1
102
RTVSPost2010Prop32
280
     0
102
RTVSPost2010PropOp32
 70
     1
102
RTVSPost2010Prop33
280
     0
102
RTVSPost2010PropOp33
 70
     1
102
RTVSPost2010Prop34
280
     0
102
RTVSPost2010PropOp34
 70
     1
102
RTVSPost2010Prop35
280
     0
102
RTVSPost2010PropOp35
 70
     1
102
RTVSPost2010Prop36
280
     0
102
RTVSPost2010PropOp36
 70
     1
102
RTVSPost2010Prop37
 90
       50
102
RTVSPost2010PropOp37
 70
     1
102
RTVSPost2010Prop38
140
0.0
102
RTVSPost2010PropOp38
 70
     1
102
RTVSPost2010Prop39
140
1.0
102
RTVSPost2010PropOp39
 70
     1
102
RTVSPost2010Prop40
 90
        0
102
RTVSPost2010PropOp40
 70
     1
102
RTVSPost2010Prop41ColorIndex
 90
       18
102
RTVSPost2010Prop41ColorRGB
 90
        0
102
RTVSPost2010PropOp41
 70
     1
102
RTVSPost2010Prop42
 90
       50
102
RTVSPost2010PropOp42
 70
     1
102
RTVSPost2010Prop43
 90
        3
102
RTVSPost2010PropOp43
 70
     1
102
RTVSPost2010Prop44ColorIndex
 90
        5
102
RTVSPost2010Prop44ColorRGB
 90
      255
102
RTVSPost2010PropOp44
 70
     1
102
RTVSPost2010Prop45
280
     0
102
RTVSPost2010PropOp45
 70
     1
102
RTVSPost2010Prop46
 90
       50
102
RTVSPost2010PropOp46
 70
     1
102
RTVSPost2010Prop47
 90
       50
102
RTVSPost2010PropOp47
 70
     1
102
RTVSPost2010Prop48
 90
       50
102
RTVSPost2010PropOp48
 70
     1
102
RTVSPost2010Prop49
280
     0
102
RTVSPost2010PropOp49
 70
     1
102
RTVSPost2010Prop50
 90
       50
102
RTVSPost2010PropOp50
 70
     1
102
RTVSPost2010Prop51ColorIndex
 90
      256
102
RTVSPost2010Prop51ColorRGB
 90
-16777216
102
RTVSPost2010PropOp51
 70
     0
102
RTVSPost2010Prop52
140
1.0
102
RTVSPost2010PropOp52
 70
     0
102
RTVSPost2010Prop53
 90
        2
102
RTVSPost2010PropOp53
 70
     1
102
RTVSPost2010Prop54
  1
strokes_ogs.tif
102
RTVSPost2010PropOp54
 70
     1
102
RTVSPost2010Prop55
280
     0
102
RTVSPost2010PropOp55
 70
     1
102
RTVSPost2010Prop56
140
1.0
102
RTVSPost2010PropOp56
 70
     1
102
RTVSPost2010Prop57
140
1.0
102
RTVSPost2010PropOp57
 70
     1
  0
XRECORD
  5
391
102
{ACAD_REACTORS
330
390
102
}
330
390
100
AcDbXrecord
280
     1
102
RTVSPropertyOp0
 70
     1
102
RTVSPropertyOp1
 70
     1
102
RTVSPropertyOp2
 70
     1
102
RTVSPropertyOp3
 70
     1
102
RTVSPropertyOp4
 70
     1
102
RTVSPropertyOp5
 70
     1
102
RTVSPropertyOp6
 70
     1
102
RTVSPropertyOp7
 70
     1
102
RTVSPropertyOp8
 70
     1
102
RTVSPropertyOp9
 70
     1
102
RTVSPropertyOp10
 70
     1
102
RTVSPropertyOp11
 70
     1
102
RTVSPropertyOp12
 70
     1
102
RTVSPropertyOp13
 70
     1
102
RTVSPropertyOp14
 70
     1
102
RTVSPropertyOp15
 70
     1
102
RTVSPropertyOp16
 70
     1
102
RTVSPropertyOp17
 70
     1
102
RTVSPropertyOp18
 70
     1
102
RTVSPropertyOp19
 70
     1
102
RTVSPropertyOp20
 70
     1
102
RTVSPropertyOp21
 70
     1
102
RTVSPropertyOp22
 70
     1
102
RTVSPropertyOp23
 70
     1
102
RTVSPropertyOp24
 70
     1
102
RTVSPropertyOp25
 70
     1
102
RTVSPropertyOp26
 70
     1
102
RTVSPropertyOp27
 70
     1
102
RTVSPropertyOp28
 70
     1
102
RTVSPropertyOp29
 70
     1
102
RTVSPropertyOp30
 70
     1
102
RTVSPropertyOp31
 70
     1
102
RTVSPropertyOp32
 70
     1
102
RTVSPropertyOp33
 70
     1
102
RTVSPropertyOp34
 70
     1
102
RTVSPropertyOp35
 70
     1
102
RTVSPropertyOp36
 70
     1
102
RTVSPropertyOp37
 70
     1
102
RTVSPropertyOp38
 70
     1
102
RTVSPropertyOp39
 70
     1
102
RTVSPropertyOp40
 70
     1
102
RTVSPropertyOp41
 70
     1
102
RTVSPropertyOp42
 70
     1
102
RTVSPropertyOp43
 70
     1
102
RTVSPropertyOp44
 70
     1
102
RTVSPropertyOp45
 70
     1
102
RTVSPropertyOp46
 70
     1
102
RTVSPropertyOp47
 70
     1
102
RTVSPropertyOp48
 70
     1
102
RTVSPropertyOp49
 70
     1
102
RTVSPropertyOp50
 70
     1
102
RTVSPropertyOp51
 70
     0
102
RTVSPropertyOp52
 70
     0
102
RTVSPropertyOp53
 70
     1
102
RTVSPropertyOp54
 70
     1
102
RTVSPropertyOp55
 70
     1
102
RTVSPropertyOp56
 70
     1
102
RTVSPropertyOp57
 70
     1
102
RTVSPost2010Prop28
280
     0
102
RTVSPost2010PropOp28
 70
     1
102
RTVSPost2010Prop29
280
     1
102
RTVSPost2010PropOp29
 70
     1
102
RTVSPost2010Prop30
280
     1
102
RTVSPost2010PropOp30
 70
     1
102
RTVSPost2010Prop31
280
     0
102
RTVSPost2010PropOp31
 70
     1
102
RTVSPost2010Prop32
280
     0
102
RTVSPost2010PropOp32
 70
     1
102
RTVSPost2010Prop33
280
     0
102
RTVSPost2010PropOp33
 70
     1
102
RTVSPost2010Prop34
280
     0
102
RTVSPost2010PropOp34
 70
     1
102
RTVSPost2010Prop35
280
     0
102
RTVSPost2010PropOp35
 70
     1
102
RTVSPost2010Prop36
280
     0
102
RTVSPost2010PropOp36
 70
     1
102
RTVSPost2010Prop37
 90
       50
102
RTVSPost2010PropOp37
 70
     1
102
RTVSPost2010Prop38
140
0.0
102
RTVSPost2010PropOp38
 70
     1
102
RTVSPost2010Prop39
140
1.0
102
RTVSPost2010PropOp39
 70
     1
102
RTVSPost2010Prop40
 90
        0
102
RTVSPost2010PropOp40
 70
     1
102
RTVSPost2010Prop41ColorIndex
 90
       18
102
RTVSPost2010Prop41ColorRGB
 90
        0
102
RTVSPost2010PropOp41
 70
     1
102
RTVSPost2010Prop42
 90
       50
102
RTVSPost2010PropOp42
 70
     1
102
RTVSPost2010Prop43
 90
        3
102
RTVSPost2010PropOp43
 70
     1
102
RTVSPost2010Prop44ColorIndex
 90
        5
102
RTVSPost2010Prop44ColorRGB
 90
      255
102
RTVSPost2010PropOp44
 70
     1
102
RTVSPost2010Prop45
280
     0
102
RTVSPost2010PropOp45
 70
     1
102
RTVSPost2010Prop46
 90
       50
102
RTVSPost2010PropOp46
 70
     1
102
RTVSPost2010Prop47
 90
       50
102
RTVSPost2010PropOp47
 70
     1
102
RTVSPost2010Prop48
 90
       50
102
RTVSPost2010PropOp48
 70
     1
102
RTVSPost2010Prop49
280
     0
102
RTVSPost2010PropOp49
 70
     1
102
RTVSPost2010Prop50
 90
       50
102
RTVSPost2010PropOp50
 70
     1
102
RTVSPost2010Prop51ColorIndex
 90
      256
102
RTVSPost2010Prop51ColorRGB
 90
-16777216
102
RTVSPost2010PropOp51
 70
     0
102
RTVSPost2010Prop52
140
1.0
102
RTVSPost2010PropOp52
 70
     0
102
RTVSPost2010Prop53
 90
        2
102
RTVSPost2010PropOp53
 70
     1
102
RTVSPost2010Prop54
  1
strokes_ogs.tif
102
RTVSPost2010PropOp54
 70
     1
102
RTVSPost2010Prop55
280
     0
102
RTVSPost2010PropOp55
 70
     1
102
RTVSPost2010Prop56
140
1.0
102
RTVSPost2010PropOp56
 70
     1
102
RTVSPost2010Prop57
140
1.0
102
RTVSPost2010PropOp57
 70
     1
  0
XRECORD
  5
3A5
102
{ACAD_REACTORS
330
3A4
102
}
330
3A4
100
AcDbXrecord
280
     1
102
RTVSPropertyOp0
 70
     0
102
RTVSPropertyOp1
 70
     0
102
RTVSPropertyOp2
 70
     0
102
RTVSPropertyOp3
 70
     0
102
RTVSPropertyOp4
 70
     0
102
RTVSPropertyOp5
 70
     0
102
RTVSPropertyOp6
 70
     0
102
RTVSPropertyOp7
 70
     0
102
RTVSPropertyOp8
 70
     0
102
RTVSPropertyOp9
 70
     0
102
RTVSPropertyOp10
 70
     0
102
RTVSPropertyOp11
 70
     0
102
RTVSPropertyOp12
 70
     0
102
RTVSPropertyOp13
 70
     0
102
RTVSPropertyOp14
 70
     2
102
RTVSPropertyOp15
 70
     0
102
RTVSPropertyOp16
 70
     0
102
RTVSPropertyOp17
 70
     0
102
RTVSPropertyOp18
 70
     0
102
RTVSPropertyOp19
 70
     0
102
RTVSPropertyOp20
 70
     0
102
RTVSPropertyOp21
 70
     0
102
RTVSPropertyOp22
 70
     0
102
RTVSPropertyOp23
 70
     0
102
RTVSPropertyOp24
 70
     0
102
RTVSPropertyOp25
 70
     0
102
RTVSPropertyOp26
 70
     0
102
RTVSPropertyOp27
 70
     0
102
RTVSPropertyOp28
 70
     0
102
RTVSPropertyOp29
 70
     0
102
RTVSPropertyOp30
 70
     0
102
RTVSPropertyOp31
 70
     0
102
RTVSPropertyOp32
 70
     0
102
RTVSPropertyOp33
 70
     0
102
RTVSPropertyOp34
 70
     0
102
RTVSPropertyOp35
 70
     0
102
RTVSPropertyOp36
 70
     0
102
RTVSPropertyOp37
 70
     0
102
RTVSPropertyOp38
 70
     0
102
RTVSPropertyOp39
 70
     0
102
RTVSPropertyOp40
 70
     0
102
RTVSPropertyOp41
 70
     0
102
RTVSPropertyOp42
 70
     0
102
RTVSPropertyOp43
 70
     0
102
RTVSPropertyOp44
 70
     0
102
RTVSPropertyOp45
 70
     0
102
RTVSPropertyOp46
 70
     0
102
RTVSPropertyOp47
 70
     0
102
RTVSPropertyOp48
 70
     0
102
RTVSPropertyOp49
 70
     0
102
RTVSPropertyOp50
 70
     0
102
RTVSPropertyOp51
 70
     0
102
RTVSPropertyOp52
 70
     0
102
RTVSPropertyOp53
 70
     0
102
RTVSPropertyOp54
 70
     0
102
RTVSPropertyOp55
 70
     0
102
RTVSPropertyOp56
 70
     0
102
RTVSPropertyOp57
 70
     0
102
RTVSPost2010Prop28
280
     0
102
RTVSPost2010PropOp28
 70
     0
102
RTVSPost2010Prop29
280
     1
102
RTVSPost2010PropOp29
 70
     0
102
RTVSPost2010Prop30
280
     1
102
RTVSPost2010PropOp30
 70
     0
102
RTVSPost2010Prop31
280
     0
102
RTVSPost2010PropOp31
 70
     0
102
RTVSPost2010Prop32
280
     0
102
RTVSPost2010PropOp32
 70
     0
102
RTVSPost2010Prop33
280
     0
102
RTVSPost2010PropOp33
 70
     0
102
RTVSPost2010Prop34
280
     0
102
RTVSPost2010PropOp34
 70
     0
102
RTVSPost2010Prop35
280
     0
102
RTVSPost2010PropOp35
 70
     0
102
RTVSPost2010Prop36
280
     0
102
RTVSPost2010PropOp36
 70
     0
102
RTVSPost2010Prop37
 90
       50
102
RTVSPost2010PropOp37
 70
     0
102
RTVSPost2010Prop38
140
0.0
102
RTVSPost2010PropOp38
 70
     0
102
RTVSPost2010Prop39
140
1.0
102
RTVSPost2010PropOp39
 70
     0
102
RTVSPost2010Prop40
 90
        0
102
RTVSPost2010PropOp40
 70
     0
102
RTVSPost2010Prop41ColorIndex
 90
       18
102
RTVSPost2010Prop41ColorRGB
 90
        0
102
RTVSPost2010PropOp41
 70
     0
102
RTVSPost2010Prop42
 90
       50
102
RTVSPost2010PropOp42
 70
     0
102
RTVSPost2010Prop43
 90
        3
102
RTVSPost2010PropOp43
 70
     0
102
RTVSPost2010Prop44ColorIndex
 90
        5
102
RTVSPost2010Prop44ColorRGB
 90
      255
102
RTVSPost2010PropOp44
 70
     0
102
RTVSPost2010Prop45
280
     0
102
RTVSPost2010PropOp45
 70
     0
102
RTVSPost2010Prop46
 90
       50
102
RTVSPost2010PropOp46
 70
     0
102
RTVSPost2010Prop47
 90
       50
102
RTVSPost2010PropOp47
 70
     0
102
RTVSPost2010Prop48
 90
       50
102
RTVSPost2010PropOp48
 70
     0
102
RTVSPost2010Prop49
280
     0
102
RTVSPost2010PropOp49
 70
     0
102
RTVSPost2010Prop50
 90
       50
102
RTVSPost2010PropOp50
 70
     0
102
RTVSPost2010Prop51ColorIndex
 90
      256
102
RTVSPost2010Prop51ColorRGB
 90
-16777216
102
RTVSPost2010PropOp51
 70
     0
102
RTVSPost2010Prop52
140
1.0
102
RTVSPost2010PropOp52
 70
     0
102
RTVSPost2010Prop53
 90
        2
102
RTVSPost2010PropOp53
 70
     0
102
RTVSPost2010Prop54
  1
strokes_ogs.tif
102
RTVSPost2010PropOp54
 70
     0
102
RTVSPost2010Prop55
280
     0
102
RTVSPost2010PropOp55
 70
     0
102
RTVSPost2010Prop56
140
1.0
102
RTVSPost2010PropOp56
 70
     0
102
RTVSPost2010Prop57
140
1.0
102
RTVSPost2010PropOp57
 70
     0
  0
XRECORD
  5
39F
102
{ACAD_REACTORS
330
39E
102
}
330
39E
100
AcDbXrecord
280
     1
102
RTVSPropertyOp0
 70
     1
102
RTVSPropertyOp1
 70
     1
102
RTVSPropertyOp2
 70
     1
102
RTVSPropertyOp3
 70
     1
102
RTVSPropertyOp4
 70
     1
102
RTVSPropertyOp5
 70
     1
102
RTVSPropertyOp6
 70
     1
102
RTVSPropertyOp7
 70
     1
102
RTVSPropertyOp8
 70
     1
102
RTVSPropertyOp9
 70
     1
102
RTVSPropertyOp10
 70
     1
102
RTVSPropertyOp11
 70
     1
102
RTVSPropertyOp12
 70
     1
102
RTVSPropertyOp13
 70
     1
102
RTVSPropertyOp14
 70
     1
102
RTVSPropertyOp15
 70
     1
102
RTVSPropertyOp16
 70
     1
102
RTVSPropertyOp17
 70
     1
102
RTVSPropertyOp18
 70
     1
102
RTVSPropertyOp19
 70
     1
102
RTVSPropertyOp20
 70
     1
102
RTVSPropertyOp21
 70
     1
102
RTVSPropertyOp22
 70
     1
102
RTVSPropertyOp23
 70
     1
102
RTVSPropertyOp24
 70
     1
102
RTVSPropertyOp25
 70
     1
102
RTVSPropertyOp26
 70
     1
102
RTVSPropertyOp27
 70
     1
102
RTVSPropertyOp28
 70
     1
102
RTVSPropertyOp29
 70
     1
102
RTVSPropertyOp30
 70
     1
102
RTVSPropertyOp31
 70
     1
102
RTVSPropertyOp32
 70
     1
102
RTVSPropertyOp33
 70
     1
102
RTVSPropertyOp34
 70
     1
102
RTVSPropertyOp35
 70
     1
102
RTVSPropertyOp36
 70
     1
102
RTVSPropertyOp37
 70
     1
102
RTVSPropertyOp38
 70
     1
102
RTVSPropertyOp39
 70
     1
102
RTVSPropertyOp40
 70
     1
102
RTVSPropertyOp41
 70
     1
102
RTVSPropertyOp42
 70
     1
102
RTVSPropertyOp43
 70
     1
102
RTVSPropertyOp44
 70
     1
102
RTVSPropertyOp45
 70
     1
102
RTVSPropertyOp46
 70
     1
102
RTVSPropertyOp47
 70
     1
102
RTVSPropertyOp48
 70
     1
102
RTVSPropertyOp49
 70
     1
102
RTVSPropertyOp50
 70
     1
102
RTVSPropertyOp51
 70
     0
102
RTVSPropertyOp52
 70
     0
102
RTVSPropertyOp53
 70
     1
102
RTVSPropertyOp54
 70
     1
102
RTVSPropertyOp55
 70
     1
102
RTVSPropertyOp56
 70
     1
102
RTVSPropertyOp57
 70
     1
102
RTVSPost2010Prop28
280
     0
102
RTVSPost2010PropOp28
 70
     1
102
RTVSPost2010Prop29
280
     1
102
RTVSPost2010PropOp29
 70
     1
102
RTVSPost2010Prop30
280
     1
102
RTVSPost2010PropOp30
 70
     1
102
RTVSPost2010Prop31
280
     0
102
RTVSPost2010PropOp31
 70
     1
102
RTVSPost2010Prop32
280
     0
102
RTVSPost2010PropOp32
 70
     1
102
RTVSPost2010Prop33
280
     0
102
RTVSPost2010PropOp33
 70
     1
102
RTVSPost2010Prop34
280
     0
102
RTVSPost2010PropOp34
 70
     1
102
RTVSPost2010Prop35
280
     0
102
RTVSPost2010PropOp35
 70
     1
102
RTVSPost2010Prop36
280
     0
102
RTVSPost2010PropOp36
 70
     1
102
RTVSPost2010Prop37
 90
       50
102
RTVSPost2010PropOp37
 70
     1
102
RTVSPost2010Prop38
140
0.0
102
RTVSPost2010PropOp38
 70
     1
102
RTVSPost2010Prop39
140
1.0
102
RTVSPost2010PropOp39
 70
     1
102
RTVSPost2010Prop40
 90
        0
102
RTVSPost2010PropOp40
 70
     1
102
RTVSPost2010Prop41ColorIndex
 90
       18
102
RTVSPost2010Prop41ColorRGB
 90
        0
102
RTVSPost2010PropOp41
 70
     1
102
RTVSPost2010Prop42
 90
       50
102
RTVSPost2010PropOp42
 70
     1
102
RTVSPost2010Prop43
 90
        3
102
RTVSPost2010PropOp43
 70
     1
102
RTVSPost2010Prop44ColorIndex
 90
        5
102
RTVSPost2010Prop44ColorRGB
 90
      255
102
RTVSPost2010PropOp44
 70
     1
102
RTVSPost2010Prop45
280
     0
102
RTVSPost2010PropOp45
 70
     1
102
RTVSPost2010Prop46
 90
       50
102
RTVSPost2010PropOp46
 70
     1
102
RTVSPost2010Prop47
 90
       50
102
RTVSPost2010PropOp47
 70
     1
102
RTVSPost2010Prop48
 90
       50
102
RTVSPost2010PropOp48
 70
     1
102
RTVSPost2010Prop49
280
     0
102
RTVSPost2010PropOp49
 70
     1
102
RTVSPost2010Prop50
 90
       50
102
RTVSPost2010PropOp50
 70
     1
102
RTVSPost2010Prop51ColorIndex
 90
      256
102
RTVSPost2010Prop51ColorRGB
 90
-16777216
102
RTVSPost2010PropOp51
 70
     0
102
RTVSPost2010Prop52
140
1.0
102
RTVSPost2010PropOp52
 70
     0
102
RTVSPost2010Prop53
 90
        2
102
RTVSPost2010PropOp53
 70
     1
102
RTVSPost2010Prop54
  1
strokes_ogs.tif
102
RTVSPost2010PropOp54
 70
     1
102
RTVSPost2010Prop55
280
     0
102
RTVSPost2010PropOp55
 70
     1
102
RTVSPost2010Prop56
140
1.0
102
RTVSPost2010PropOp56
 70
     1
102
RTVSPost2010Prop57
140
1.0
102
RTVSPost2010PropOp57
 70
     1
  0
XRECORD
  5
3A7
102
{ACAD_REACTORS
330
3A6
102
}
330
3A6
100
AcDbXrecord
280
     1
102
RTVSPropertyOp0
 70
     0
102
RTVSPropertyOp1
 70
     0
102
RTVSPropertyOp2
 70
     0
102
RTVSPropertyOp3
 70
     0
102
RTVSPropertyOp4
 70
     0
102
RTVSPropertyOp5
 70
     0
102
RTVSPropertyOp6
 70
     0
102
RTVSPropertyOp7
 70
     0
102
RTVSPropertyOp8
 70
     0
102
RTVSPropertyOp9
 70
     0
102
RTVSPropertyOp10
 70
     0
102
RTVSPropertyOp11
 70
     0
102
RTVSPropertyOp12
 70
     0
102
RTVSPropertyOp13
 70
     0
102
RTVSPropertyOp14
 70
     2
102
RTVSPropertyOp15
 70
     0
102
RTVSPropertyOp16
 70
     0
102
RTVSPropertyOp17
 70
     0
102
RTVSPropertyOp18
 70
     0
102
RTVSPropertyOp19
 70
     0
102
RTVSPropertyOp20
 70
     0
102
RTVSPropertyOp21
 70
     0
102
RTVSPropertyOp22
 70
     0
102
RTVSPropertyOp23
 70
     0
102
RTVSPropertyOp24
 70
     0
102
RTVSPropertyOp25
 70
     0
102
RTVSPropertyOp26
 70
     0
102
RTVSPropertyOp27
 70
     0
102
RTVSPropertyOp28
 70
     0
102
RTVSPropertyOp29
 70
     0
102
RTVSPropertyOp30
 70
     0
102
RTVSPropertyOp31
 70
     0
102
RTVSPropertyOp32
 70
     0
102
RTVSPropertyOp33
 70
     0
102
RTVSPropertyOp34
 70
     0
102
RTVSPropertyOp35
 70
     0
102
RTVSPropertyOp36
 70
     0
102
RTVSPropertyOp37
 70
     0
102
RTVSPropertyOp38
 70
     0
102
RTVSPropertyOp39
 70
     0
102
RTVSPropertyOp40
 70
     0
102
RTVSPropertyOp41
 70
     0
102
RTVSPropertyOp42
 70
     0
102
RTVSPropertyOp43
 70
     0
102
RTVSPropertyOp44
 70
     0
102
RTVSPropertyOp45
 70
     0
102
RTVSPropertyOp46
 70
     0
102
RTVSPropertyOp47
 70
     0
102
RTVSPropertyOp48
 70
     0
102
RTVSPropertyOp49
 70
     0
102
RTVSPropertyOp50
 70
     0
102
RTVSPropertyOp51
 70
     0
102
RTVSPropertyOp52
 70
     0
102
RTVSPropertyOp53
 70
     0
102
RTVSPropertyOp54
 70
     0
102
RTVSPropertyOp55
 70
     0
102
RTVSPropertyOp56
 70
     0
102
RTVSPropertyOp57
 70
     0
102
RTVSPost2010Prop28
280
     0
102
RTVSPost2010PropOp28
 70
     0
102
RTVSPost2010Prop29
280
     1
102
RTVSPost2010PropOp29
 70
     0
102
RTVSPost2010Prop30
280
     1
102
RTVSPost2010PropOp30
 70
     0
102
RTVSPost2010Prop31
280
     0
102
RTVSPost2010PropOp31
 70
     0
102
RTVSPost2010Prop32
280
     0
102
RTVSPost2010PropOp32
 70
     0
102
RTVSPost2010Prop33
280
     0
102
RTVSPost2010PropOp33
 70
     0
102
RTVSPost2010Prop34
280
     0
102
RTVSPost2010PropOp34
 70
     0
102
RTVSPost2010Prop35
280
     0
102
RTVSPost2010PropOp35
 70
     0
102
RTVSPost2010Prop36
280
     0
102
RTVSPost2010PropOp36
 70
     0
102
RTVSPost2010Prop37
 90
       50
102
RTVSPost2010PropOp37
 70
     0
102
RTVSPost2010Prop38
140
0.0
102
RTVSPost2010PropOp38
 70
     0
102
RTVSPost2010Prop39
140
1.0
102
RTVSPost2010PropOp39
 70
     0
102
RTVSPost2010Prop40
 90
        0
102
RTVSPost2010PropOp40
 70
     0
102
RTVSPost2010Prop41ColorIndex
 90
       18
102
RTVSPost2010Prop41ColorRGB
 90
        0
102
RTVSPost2010PropOp41
 70
     0
102
RTVSPost2010Prop42
 90
       50
102
RTVSPost2010PropOp42
 70
     0
102
RTVSPost2010Prop43
 90
        3
102
RTVSPost2010PropOp43
 70
     0
102
RTVSPost2010Prop44ColorIndex
 90
        5
102
RTVSPost2010Prop44ColorRGB
 90
      255
102
RTVSPost2010PropOp44
 70
     0
102
RTVSPost2010Prop45
280
     0
102
RTVSPost2010PropOp45
 70
     0
102
RTVSPost2010Prop46
 90
       50
102
RTVSPost2010PropOp46
 70
     0
102
RTVSPost2010Prop47
 90
       50
102
RTVSPost2010PropOp47
 70
     0
102
RTVSPost2010Prop48
 90
       50
102
RTVSPost2010PropOp48
 70
     0
102
RTVSPost2010Prop49
280
     0
102
RTVSPost2010PropOp49
 70
     0
102
RTVSPost2010Prop50
 90
       50
102
RTVSPost2010PropOp50
 70
     0
102
RTVSPost2010Prop51ColorIndex
 90
      256
102
RTVSPost2010Prop51ColorRGB
 90
-16777216
102
RTVSPost2010PropOp51
 70
     0
102
RTVSPost2010Prop52
140
1.0
102
RTVSPost2010PropOp52
 70
     0
102
RTVSPost2010Prop53
 90
        2
102
RTVSPost2010PropOp53
 70
     0
102
RTVSPost2010Prop54
  1
strokes_ogs.tif
102
RTVSPost2010PropOp54
 70
     0
102
RTVSPost2010Prop55
280
     0
102
RTVSPost2010PropOp55
 70
     0
102
RTVSPost2010Prop56
140
1.0
102
RTVSPost2010PropOp56
 70
     0
102
RTVSPost2010Prop57
140
1.0
102
RTVSPost2010PropOp57
 70
     0
  0
XRECORD
  5
395
102
{ACAD_REACTORS
330
394
102
}
330
394
100
AcDbXrecord
280
     1
102
RTVSPropertyOp0
 70
     1
102
RTVSPropertyOp1
 70
     1
102
RTVSPropertyOp2
 70
     1
102
RTVSPropertyOp3
 70
     1
102
RTVSPropertyOp4
 70
     1
102
RTVSPropertyOp5
 70
     1
102
RTVSPropertyOp6
 70
     1
102
RTVSPropertyOp7
 70
     1
102
RTVSPropertyOp8
 70
     1
102
RTVSPropertyOp9
 70
     1
102
RTVSPropertyOp10
 70
     1
102
RTVSPropertyOp11
 70
     1
102
RTVSPropertyOp12
 70
     1
102
RTVSPropertyOp13
 70
     1
102
RTVSPropertyOp14
 70
     1
102
RTVSPropertyOp15
 70
     1
102
RTVSPropertyOp16
 70
     1
102
RTVSPropertyOp17
 70
     1
102
RTVSPropertyOp18
 70
     1
102
RTVSPropertyOp19
 70
     1
102
RTVSPropertyOp20
 70
     1
102
RTVSPropertyOp21
 70
     1
102
RTVSPropertyOp22
 70
     1
102
RTVSPropertyOp23
 70
     1
102
RTVSPropertyOp24
 70
     1
102
RTVSPropertyOp25
 70
     1
102
RTVSPropertyOp26
 70
     1
102
RTVSPropertyOp27
 70
     1
102
RTVSPropertyOp28
 70
     1
102
RTVSPropertyOp29
 70
     1
102
RTVSPropertyOp30
 70
     1
102
RTVSPropertyOp31
 70
     1
102
RTVSPropertyOp32
 70
     1
102
RTVSPropertyOp33
 70
     1
102
RTVSPropertyOp34
 70
     1
102
RTVSPropertyOp35
 70
     1
102
RTVSPropertyOp36
 70
     1
102
RTVSPropertyOp37
 70
     1
102
RTVSPropertyOp38
 70
     1
102
RTVSPropertyOp39
 70
     1
102
RTVSPropertyOp40
 70
     1
102
RTVSPropertyOp41
 70
     1
102
RTVSPropertyOp42
 70
     1
102
RTVSPropertyOp43
 70
     1
102
RTVSPropertyOp44
 70
     1
102
RTVSPropertyOp45
 70
     1
102
RTVSPropertyOp46
 70
     1
102
RTVSPropertyOp47
 70
     1
102
RTVSPropertyOp48
 70
     1
102
RTVSPropertyOp49
 70
     1
102
RTVSPropertyOp50
 70
     1
102
RTVSPropertyOp51
 70
     0
102
RTVSPropertyOp52
 70
     0
102
RTVSPropertyOp53
 70
     1
102
RTVSPropertyOp54
 70
     1
102
RTVSPropertyOp55
 70
     1
102
RTVSPropertyOp56
 70
     1
102
RTVSPropertyOp57
 70
     1
102
RTVSPost2010Prop28
280
     0
102
RTVSPost2010PropOp28
 70
     1
102
RTVSPost2010Prop29
280
     1
102
RTVSPost2010PropOp29
 70
     1
102
RTVSPost2010Prop30
280
     1
102
RTVSPost2010PropOp30
 70
     1
102
RTVSPost2010Prop31
280
     0
102
RTVSPost2010PropOp31
 70
     1
102
RTVSPost2010Prop32
280
     0
102
RTVSPost2010PropOp32
 70
     1
102
RTVSPost2010Prop33
280
     0
102
RTVSPost2010PropOp33
 70
     1
102
RTVSPost2010Prop34
280
     0
102
RTVSPost2010PropOp34
 70
     1
102
RTVSPost2010Prop35
280
     0
102
RTVSPost2010PropOp35
 70
     1
102
RTVSPost2010Prop36
280
     0
102
RTVSPost2010PropOp36
 70
     1
102
RTVSPost2010Prop37
 90
       50
102
RTVSPost2010PropOp37
 70
     1
102
RTVSPost2010Prop38
140
0.0
102
RTVSPost2010PropOp38
 70
     1
102
RTVSPost2010Prop39
140
1.0
102
RTVSPost2010PropOp39
 70
     1
102
RTVSPost2010Prop40
 90
        0
102
RTVSPost2010PropOp40
 70
     1
102
RTVSPost2010Prop41ColorIndex
 90
       18
102
RTVSPost2010Prop41ColorRGB
 90
        0
102
RTVSPost2010PropOp41
 70
     1
102
RTVSPost2010Prop42
 90
       50
102
RTVSPost2010PropOp42
 70
     1
102
RTVSPost2010Prop43
 90
        3
102
RTVSPost2010PropOp43
 70
     1
102
RTVSPost2010Prop44ColorIndex
 90
        5
102
RTVSPost2010Prop44ColorRGB
 90
      255
102
RTVSPost2010PropOp44
 70
     1
102
RTVSPost2010Prop45
280
     0
102
RTVSPost2010PropOp45
 70
     1
102
RTVSPost2010Prop46
 90
       50
102
RTVSPost2010PropOp46
 70
     1
102
RTVSPost2010Prop47
 90
       50
102
RTVSPost2010PropOp47
 70
     1
102
RTVSPost2010Prop48
 90
       50
102
RTVSPost2010PropOp48
 70
     1
102
RTVSPost2010Prop49
280
     0
102
RTVSPost2010PropOp49
 70
     1
102
RTVSPost2010Prop50
 90
       50
102
RTVSPost2010PropOp50
 70
     1
102
RTVSPost2010Prop51ColorIndex
 90
      256
102
RTVSPost2010Prop51ColorRGB
 90
-16777216
102
RTVSPost2010PropOp51
 70
     0
102
RTVSPost2010Prop52
140
1.0
102
RTVSPost2010PropOp52
 70
     0
102
RTVSPost2010Prop53
 90
        2
102
RTVSPost2010PropOp53
 70
     1
102
RTVSPost2010Prop54
  1
strokes_ogs.tif
102
RTVSPost2010PropOp54
 70
     1
102
RTVSPost2010Prop55
280
     0
102
RTVSPost2010PropOp55
 70
     1
102
RTVSPost2010Prop56
140
1.0
102
RTVSPost2010PropOp56
 70
     1
102
RTVSPost2010Prop57
140
1.0
102
RTVSPost2010PropOp57
 70
     1
  0
XRECORD
  5
3B3
102
{ACAD_REACTORS
330
3B2
102
}
330
3B2
100
AcDbXrecord
280
     1
102
RTVSPropertyOp0
 70
     1
102
RTVSPropertyOp1
 70
     1
102
RTVSPropertyOp2
 70
     1
102
RTVSPropertyOp3
 70
     1
102
RTVSPropertyOp4
 70
     1
102
RTVSPropertyOp5
 70
     1
102
RTVSPropertyOp6
 70
     1
102
RTVSPropertyOp7
 70
     1
102
RTVSPropertyOp8
 70
     1
102
RTVSPropertyOp9
 70
     1
102
RTVSPropertyOp10
 70
     1
102
RTVSPropertyOp11
 70
     1
102
RTVSPropertyOp12
 70
     1
102
RTVSPropertyOp13
 70
     1
102
RTVSPropertyOp14
 70
     1
102
RTVSPropertyOp15
 70
     1
102
RTVSPropertyOp16
 70
     1
102
RTVSPropertyOp17
 70
     1
102
RTVSPropertyOp18
 70
     1
102
RTVSPropertyOp19
 70
     1
102
RTVSPropertyOp20
 70
     1
102
RTVSPropertyOp21
 70
     1
102
RTVSPropertyOp22
 70
     1
102
RTVSPropertyOp23
 70
     1
102
RTVSPropertyOp24
 70
     1
102
RTVSPropertyOp25
 70
     1
102
RTVSPropertyOp26
 70
     1
102
RTVSPropertyOp27
 70
     1
102
RTVSPropertyOp28
 70
     1
102
RTVSPropertyOp29
 70
     1
102
RTVSPropertyOp30
 70
     1
102
RTVSPropertyOp31
 70
     1
102
RTVSPropertyOp32
 70
     1
102
RTVSPropertyOp33
 70
     1
102
RTVSPropertyOp34
 70
     1
102
RTVSPropertyOp35
 70
     1
102
RTVSPropertyOp36
 70
     1
102
RTVSPropertyOp37
 70
     1
102
RTVSPropertyOp38
 70
     1
102
RTVSPropertyOp39
 70
     1
102
RTVSPropertyOp40
 70
     1
102
RTVSPropertyOp41
 70
     1
102
RTVSPropertyOp42
 70
     1
102
RTVSPropertyOp43
 70
     1
102
RTVSPropertyOp44
 70
     1
102
RTVSPropertyOp45
 70
     1
102
RTVSPropertyOp46
 70
     1
102
RTVSPropertyOp47
 70
     1
102
RTVSPropertyOp48
 70
     1
102
RTVSPropertyOp49
 70
     1
102
RTVSPropertyOp50
 70
     1
102
RTVSPropertyOp51
 70
     0
102
RTVSPropertyOp52
 70
     0
102
RTVSPropertyOp53
 70
     1
102
RTVSPropertyOp54
 70
     1
102
RTVSPropertyOp55
 70
     1
102
RTVSPropertyOp56
 70
     1
102
RTVSPropertyOp57
 70
     1
102
RTVSPost2010Prop28
280
     0
102
RTVSPost2010PropOp28
 70
     1
102
RTVSPost2010Prop29
280
     1
102
RTVSPost2010PropOp29
 70
     1
102
RTVSPost2010Prop30
280
     1
102
RTVSPost2010PropOp30
 70
     1
102
RTVSPost2010Prop31
280
     0
102
RTVSPost2010PropOp31
 70
     1
102
RTVSPost2010Prop32
280
     0
102
RTVSPost2010PropOp32
 70
     1
102
RTVSPost2010Prop33
280
     0
102
RTVSPost2010PropOp33
 70
     1
102
RTVSPost2010Prop34
280
     0
102
RTVSPost2010PropOp34
 70
     1
102
RTVSPost2010Prop35
280
     0
102
RTVSPost2010PropOp35
 70
     1
102
RTVSPost2010Prop36
280
     0
102
RTVSPost2010PropOp36
 70
     1
102
RTVSPost2010Prop37
 90
       50
102
RTVSPost2010PropOp37
 70
     1
102
RTVSPost2010Prop38
140
0.0
102
RTVSPost2010PropOp38
 70
     1
102
RTVSPost2010Prop39
140
1.0
102
RTVSPost2010PropOp39
 70
     1
102
RTVSPost2010Prop40
 90
        0
102
RTVSPost2010PropOp40
 70
     1
102
RTVSPost2010Prop41ColorIndex
 90
       18
102
RTVSPost2010Prop41ColorRGB
 90
        0
102
RTVSPost2010PropOp41
 70
     1
102
RTVSPost2010Prop42
 90
       50
102
RTVSPost2010PropOp42
 70
     1
102
RTVSPost2010Prop43
 90
        3
102
RTVSPost2010PropOp43
 70
     1
102
RTVSPost2010Prop44ColorIndex
 90
        5
102
RTVSPost2010Prop44ColorRGB
 90
      255
102
RTVSPost2010PropOp44
 70
     1
102
RTVSPost2010Prop45
280
     0
102
RTVSPost2010PropOp45
 70
     1
102
RTVSPost2010Prop46
 90
       50
102
RTVSPost2010PropOp46
 70
     1
102
RTVSPost2010Prop47
 90
       50
102
RTVSPost2010PropOp47
 70
     1
102
RTVSPost2010Prop48
 90
       50
102
RTVSPost2010PropOp48
 70
     1
102
RTVSPost2010Prop49
280
     0
102
RTVSPost2010PropOp49
 70
     1
102
RTVSPost2010Prop50
 90
       50
102
RTVSPost2010PropOp50
 70
     1
102
RTVSPost2010Prop51ColorIndex
 90
      256
102
RTVSPost2010Prop51ColorRGB
 90
-16777216
102
RTVSPost2010PropOp51
 70
     0
102
RTVSPost2010Prop52
140
1.0
102
RTVSPost2010PropOp52
 70
     0
102
RTVSPost2010Prop53
 90
        2
102
RTVSPost2010PropOp53
 70
     1
102
RTVSPost2010Prop54
  1
strokes_ogs.tif
102
RTVSPost2010PropOp54
 70
     1
102
RTVSPost2010Prop55
280
     0
102
RTVSPost2010PropOp55
 70
     1
102
RTVSPost2010Prop56
140
1.0
102
RTVSPost2010PropOp56
 70
     1
102
RTVSPost2010Prop57
140
1.0
102
RTVSPost2010PropOp57
 70
     1
  0
XRECORD
  5
3B1
102
{ACAD_REACTORS
330
3B0
102
}
330
3B0
100
AcDbXrecord
280
     1
102
RTVSPropertyOp0
 70
     1
102
RTVSPropertyOp1
 70
     1
102
RTVSPropertyOp2
 70
     1
102
RTVSPropertyOp3
 70
     1
102
RTVSPropertyOp4
 70
     1
102
RTVSPropertyOp5
 70
     1
102
RTVSPropertyOp6
 70
     1
102
RTVSPropertyOp7
 70
     1
102
RTVSPropertyOp8
 70
     1
102
RTVSPropertyOp9
 70
     1
102
RTVSPropertyOp10
 70
     1
102
RTVSPropertyOp11
 70
     1
102
RTVSPropertyOp12
 70
     1
102
RTVSPropertyOp13
 70
     1
102
RTVSPropertyOp14
 70
     1
102
RTVSPropertyOp15
 70
     1
102
RTVSPropertyOp16
 70
     1
102
RTVSPropertyOp17
 70
     1
102
RTVSPropertyOp18
 70
     1
102
RTVSPropertyOp19
 70
     1
102
RTVSPropertyOp20
 70
     1
102
RTVSPropertyOp21
 70
     1
102
RTVSPropertyOp22
 70
     1
102
RTVSPropertyOp23
 70
     1
102
RTVSPropertyOp24
 70
     1
102
RTVSPropertyOp25
 70
     1
102
RTVSPropertyOp26
 70
     1
102
RTVSPropertyOp27
 70
     1
102
RTVSPropertyOp28
 70
     1
102
RTVSPropertyOp29
 70
     1
102
RTVSPropertyOp30
 70
     1
102
RTVSPropertyOp31
 70
     1
102
RTVSPropertyOp32
 70
     1
102
RTVSPropertyOp33
 70
     1
102
RTVSPropertyOp34
 70
     1
102
RTVSPropertyOp35
 70
     1
102
RTVSPropertyOp36
 70
     1
102
RTVSPropertyOp37
 70
     1
102
RTVSPropertyOp38
 70
     1
102
RTVSPropertyOp39
 70
     1
102
RTVSPropertyOp40
 70
     1
102
RTVSPropertyOp41
 70
     1
102
RTVSPropertyOp42
 70
     1
102
RTVSPropertyOp43
 70
     1
102
RTVSPropertyOp44
 70
     1
102
RTVSPropertyOp45
 70
     1
102
RTVSPropertyOp46
 70
     1
102
RTVSPropertyOp47
 70
     1
102
RTVSPropertyOp48
 70
     1
102
RTVSPropertyOp49
 70
     1
102
RTVSPropertyOp50
 70
     1
102
RTVSPropertyOp51
 70
     0
102
RTVSPropertyOp52
 70
     0
102
RTVSPropertyOp53
 70
     1
102
RTVSPropertyOp54
 70
     1
102
RTVSPropertyOp55
 70
     1
102
RTVSPropertyOp56
 70
     1
102
RTVSPropertyOp57
 70
     1
102
RTVSPost2010Prop28
280
     0
102
RTVSPost2010PropOp28
 70
     1
102
RTVSPost2010Prop29
280
     1
102
RTVSPost2010PropOp29
 70
     1
102
RTVSPost2010Prop30
280
     1
102
RTVSPost2010PropOp30
 70
     1
102
RTVSPost2010Prop31
280
     0
102
RTVSPost2010PropOp31
 70
     1
102
RTVSPost2010Prop32
280
     0
102
RTVSPost2010PropOp32
 70
     1
102
RTVSPost2010Prop33
280
     0
102
RTVSPost2010PropOp33
 70
     1
102
RTVSPost2010Prop34
280
     0
102
RTVSPost2010PropOp34
 70
     1
102
RTVSPost2010Prop35
280
     0
102
RTVSPost2010PropOp35
 70
     1
102
RTVSPost2010Prop36
280
     0
102
RTVSPost2010PropOp36
 70
     1
102
RTVSPost2010Prop37
 90
       50
102
RTVSPost2010PropOp37
 70
     1
102
RTVSPost2010Prop38
140
0.0
102
RTVSPost2010PropOp38
 70
     1
102
RTVSPost2010Prop39
140
1.0
102
RTVSPost2010PropOp39
 70
     1
102
RTVSPost2010Prop40
 90
        0
102
RTVSPost2010PropOp40
 70
     1
102
RTVSPost2010Prop41ColorIndex
 90
       18
102
RTVSPost2010Prop41ColorRGB
 90
        0
102
RTVSPost2010PropOp41
 70
     1
102
RTVSPost2010Prop42
 90
       50
102
RTVSPost2010PropOp42
 70
     1
102
RTVSPost2010Prop43
 90
        3
102
RTVSPost2010PropOp43
 70
     1
102
RTVSPost2010Prop44ColorIndex
 90
        5
102
RTVSPost2010Prop44ColorRGB
 90
      255
102
RTVSPost2010PropOp44
 70
     1
102
RTVSPost2010Prop45
280
     0
102
RTVSPost2010PropOp45
 70
     1
102
RTVSPost2010Prop46
 90
       50
102
RTVSPost2010PropOp46
 70
     1
102
RTVSPost2010Prop47
 90
       50
102
RTVSPost2010PropOp47
 70
     1
102
RTVSPost2010Prop48
 90
       50
102
RTVSPost2010PropOp48
 70
     1
102
RTVSPost2010Prop49
280
     0
102
RTVSPost2010PropOp49
 70
     1
102
RTVSPost2010Prop50
 90
       50
102
RTVSPost2010PropOp50
 70
     1
102
RTVSPost2010Prop51ColorIndex
 90
      256
102
RTVSPost2010Prop51ColorRGB
 90
-16777216
102
RTVSPost2010PropOp51
 70
     0
102
RTVSPost2010Prop52
140
1.0
102
RTVSPost2010PropOp52
 70
     0
102
RTVSPost2010Prop53
 90
        2
102
RTVSPost2010PropOp53
 70
     1
102
RTVSPost2010Prop54
  1
strokes_ogs.tif
102
RTVSPost2010PropOp54
 70
     1
102
RTVSPost2010Prop55
280
     0
102
RTVSPost2010PropOp55
 70
     1
102
RTVSPost2010Prop56
140
1.0
102
RTVSPost2010PropOp56
 70
     1
102
RTVSPost2010Prop57
140
1.0
102
RTVSPost2010PropOp57
 70
     1
  0
XRECORD
  5
3AB
102
{ACAD_REACTORS
330
3AA
102
}
330
3AA
100
AcDbXrecord
280
     1
102
RTVSPropertyOp0
 70
     1
102
RTVSPropertyOp1
 70
     1
102
RTVSPropertyOp2
 70
     1
102
RTVSPropertyOp3
 70
     1
102
RTVSPropertyOp4
 70
     1
102
RTVSPropertyOp5
 70
     1
102
RTVSPropertyOp6
 70
     1
102
RTVSPropertyOp7
 70
     1
102
RTVSPropertyOp8
 70
     1
102
RTVSPropertyOp9
 70
     1
102
RTVSPropertyOp10
 70
     1
102
RTVSPropertyOp11
 70
     1
102
RTVSPropertyOp12
 70
     1
102
RTVSPropertyOp13
 70
     1
102
RTVSPropertyOp14
 70
     1
102
RTVSPropertyOp15
 70
     1
102
RTVSPropertyOp16
 70
     1
102
RTVSPropertyOp17
 70
     1
102
RTVSPropertyOp18
 70
     1
102
RTVSPropertyOp19
 70
     1
102
RTVSPropertyOp20
 70
     1
102
RTVSPropertyOp21
 70
     1
102
RTVSPropertyOp22
 70
     1
102
RTVSPropertyOp23
 70
     1
102
RTVSPropertyOp24
 70
     1
102
RTVSPropertyOp25
 70
     1
102
RTVSPropertyOp26
 70
     1
102
RTVSPropertyOp27
 70
     1
102
RTVSPropertyOp28
 70
     1
102
RTVSPropertyOp29
 70
     1
102
RTVSPropertyOp30
 70
     1
102
RTVSPropertyOp31
 70
     1
102
RTVSPropertyOp32
 70
     1
102
RTVSPropertyOp33
 70
     1
102
RTVSPropertyOp34
 70
     1
102
RTVSPropertyOp35
 70
     1
102
RTVSPropertyOp36
 70
     1
102
RTVSPropertyOp37
 70
     1
102
RTVSPropertyOp38
 70
     1
102
RTVSPropertyOp39
 70
     1
102
RTVSPropertyOp40
 70
     1
102
RTVSPropertyOp41
 70
     1
102
RTVSPropertyOp42
 70
     1
102
RTVSPropertyOp43
 70
     1
102
RTVSPropertyOp44
 70
     1
102
RTVSPropertyOp45
 70
     1
102
RTVSPropertyOp46
 70
     1
102
RTVSPropertyOp47
 70
     1
102
RTVSPropertyOp48
 70
     1
102
RTVSPropertyOp49
 70
     1
102
RTVSPropertyOp50
 70
     1
102
RTVSPropertyOp51
 70
     0
102
RTVSPropertyOp52
 70
     0
102
RTVSPropertyOp53
 70
     1
102
RTVSPropertyOp54
 70
     1
102
RTVSPropertyOp55
 70
     1
102
RTVSPropertyOp56
 70
     1
102
RTVSPropertyOp57
 70
     1
102
RTVSPost2010Prop28
280
     0
102
RTVSPost2010PropOp28
 70
     1
102
RTVSPost2010Prop29
280
     1
102
RTVSPost2010PropOp29
 70
     1
102
RTVSPost2010Prop30
280
     1
102
RTVSPost2010PropOp30
 70
     1
102
RTVSPost2010Prop31
280
     0
102
RTVSPost2010PropOp31
 70
     1
102
RTVSPost2010Prop32
280
     0
102
RTVSPost2010PropOp32
 70
     1
102
RTVSPost2010Prop33
280
     0
102
RTVSPost2010PropOp33
 70
     1
102
RTVSPost2010Prop34
280
     0
102
RTVSPost2010PropOp34
 70
     1
102
RTVSPost2010Prop35
280
     0
102
RTVSPost2010PropOp35
 70
     1
102
RTVSPost2010Prop36
280
     0
102
RTVSPost2010PropOp36
 70
     1
102
RTVSPost2010Prop37
 90
       50
102
RTVSPost2010PropOp37
 70
     1
102
RTVSPost2010Prop38
140
0.0
102
RTVSPost2010PropOp38
 70
     1
102
RTVSPost2010Prop39
140
1.0
102
RTVSPost2010PropOp39
 70
     1
102
RTVSPost2010Prop40
 90
        0
102
RTVSPost2010PropOp40
 70
     1
102
RTVSPost2010Prop41ColorIndex
 90
       18
102
RTVSPost2010Prop41ColorRGB
 90
        0
102
RTVSPost2010PropOp41
 70
     1
102
RTVSPost2010Prop42
 90
       50
102
RTVSPost2010PropOp42
 70
     1
102
RTVSPost2010Prop43
 90
        3
102
RTVSPost2010PropOp43
 70
     1
102
RTVSPost2010Prop44ColorIndex
 90
        5
102
RTVSPost2010Prop44ColorRGB
 90
      255
102
RTVSPost2010PropOp44
 70
     1
102
RTVSPost2010Prop45
280
     0
102
RTVSPost2010PropOp45
 70
     1
102
RTVSPost2010Prop46
 90
       50
102
RTVSPost2010PropOp46
 70
     1
102
RTVSPost2010Prop47
 90
       50
102
RTVSPost2010PropOp47
 70
     1
102
RTVSPost2010Prop48
 90
       50
102
RTVSPost2010PropOp48
 70
     1
102
RTVSPost2010Prop49
280
     0
102
RTVSPost2010PropOp49
 70
     1
102
RTVSPost2010Prop50
 90
       50
102
RTVSPost2010PropOp50
 70
     1
102
RTVSPost2010Prop51ColorIndex
 90
      256
102
RTVSPost2010Prop51ColorRGB
 90
-16777216
102
RTVSPost2010PropOp51
 70
     0
102
RTVSPost2010Prop52
140
1.0
102
RTVSPost2010PropOp52
 70
     0
102
RTVSPost2010Prop53
 90
        2
102
RTVSPost2010PropOp53
 70
     1
102
RTVSPost2010Prop54
  1
strokes_ogs.tif
102
RTVSPost2010PropOp54
 70
     1
102
RTVSPost2010Prop55
280
     0
102
RTVSPost2010PropOp55
 70
     1
102
RTVSPost2010Prop56
140
1.0
102
RTVSPost2010PropOp56
 70
     1
102
RTVSPost2010Prop57
140
1.0
102
RTVSPost2010PropOp57
 70
     1
  0
XRECORD
  5
3AD
102
{ACAD_REACTORS
330
3AC
102
}
330
3AC
100
AcDbXrecord
280
     1
102
RTVSPropertyOp0
 70
     1
102
RTVSPropertyOp1
 70
     1
102
RTVSPropertyOp2
 70
     1
102
RTVSPropertyOp3
 70
     1
102
RTVSPropertyOp4
 70
     1
102
RTVSPropertyOp5
 70
     1
102
RTVSPropertyOp6
 70
     1
102
RTVSPropertyOp7
 70
     1
102
RTVSPropertyOp8
 70
     1
102
RTVSPropertyOp9
 70
     1
102
RTVSPropertyOp10
 70
     1
102
RTVSPropertyOp11
 70
     1
102
RTVSPropertyOp12
 70
     1
102
RTVSPropertyOp13
 70
     1
102
RTVSPropertyOp14
 70
     1
102
RTVSPropertyOp15
 70
     1
102
RTVSPropertyOp16
 70
     1
102
RTVSPropertyOp17
 70
     1
102
RTVSPropertyOp18
 70
     1
102
RTVSPropertyOp19
 70
     1
102
RTVSPropertyOp20
 70
     1
102
RTVSPropertyOp21
 70
     1
102
RTVSPropertyOp22
 70
     1
102
RTVSPropertyOp23
 70
     1
102
RTVSPropertyOp24
 70
     1
102
RTVSPropertyOp25
 70
     1
102
RTVSPropertyOp26
 70
     1
102
RTVSPropertyOp27
 70
     1
102
RTVSPropertyOp28
 70
     1
102
RTVSPropertyOp29
 70
     1
102
RTVSPropertyOp30
 70
     1
102
RTVSPropertyOp31
 70
     1
102
RTVSPropertyOp32
 70
     1
102
RTVSPropertyOp33
 70
     1
102
RTVSPropertyOp34
 70
     1
102
RTVSPropertyOp35
 70
     1
102
RTVSPropertyOp36
 70
     1
102
RTVSPropertyOp37
 70
     1
102
RTVSPropertyOp38
 70
     1
102
RTVSPropertyOp39
 70
     1
102
RTVSPropertyOp40
 70
     1
102
RTVSPropertyOp41
 70
     1
102
RTVSPropertyOp42
 70
     1
102
RTVSPropertyOp43
 70
     1
102
RTVSPropertyOp44
 70
     1
102
RTVSPropertyOp45
 70
     1
102
RTVSPropertyOp46
 70
     1
102
RTVSPropertyOp47
 70
     1
102
RTVSPropertyOp48
 70
     1
102
RTVSPropertyOp49
 70
     1
102
RTVSPropertyOp50
 70
     1
102
RTVSPropertyOp51
 70
     0
102
RTVSPropertyOp52
 70
     0
102
RTVSPropertyOp53
 70
     1
102
RTVSPropertyOp54
 70
     1
102
RTVSPropertyOp55
 70
     1
102
RTVSPropertyOp56
 70
     1
102
RTVSPropertyOp57
 70
     1
102
RTVSPost2010Prop28
280
     0
102
RTVSPost2010PropOp28
 70
     1
102
RTVSPost2010Prop29
280
     1
102
RTVSPost2010PropOp29
 70
     1
102
RTVSPost2010Prop30
280
     1
102
RTVSPost2010PropOp30
 70
     1
102
RTVSPost2010Prop31
280
     0
102
RTVSPost2010PropOp31
 70
     1
102
RTVSPost2010Prop32
280
     0
102
RTVSPost2010PropOp32
 70
     1
102
RTVSPost2010Prop33
280
     0
102
RTVSPost2010PropOp33
 70
     1
102
RTVSPost2010Prop34
280
     0
102
RTVSPost2010PropOp34
 70
     1
102
RTVSPost2010Prop35
280
     0
102
RTVSPost2010PropOp35
 70
     1
102
RTVSPost2010Prop36
280
     0
102
RTVSPost2010PropOp36
 70
     1
102
RTVSPost2010Prop37
 90
       50
102
RTVSPost2010PropOp37
 70
     1
102
RTVSPost2010Prop38
140
0.0
102
RTVSPost2010PropOp38
 70
     1
102
RTVSPost2010Prop39
140
1.0
102
RTVSPost2010PropOp39
 70
     1
102
RTVSPost2010Prop40
 90
        0
102
RTVSPost2010PropOp40
 70
     1
102
RTVSPost2010Prop41ColorIndex
 90
       18
102
RTVSPost2010Prop41ColorRGB
 90
        0
102
RTVSPost2010PropOp41
 70
     1
102
RTVSPost2010Prop42
 90
       50
102
RTVSPost2010PropOp42
 70
     1
102
RTVSPost2010Prop43
 90
        3
102
RTVSPost2010PropOp43
 70
     1
102
RTVSPost2010Prop44ColorIndex
 90
        5
102
RTVSPost2010Prop44ColorRGB
 90
      255
102
RTVSPost2010PropOp44
 70
     1
102
RTVSPost2010Prop45
280
     0
102
RTVSPost2010PropOp45
 70
     1
102
RTVSPost2010Prop46
 90
       50
102
RTVSPost2010PropOp46
 70
     1
102
RTVSPost2010Prop47
 90
       50
102
RTVSPost2010PropOp47
 70
     1
102
RTVSPost2010Prop48
 90
       50
102
RTVSPost2010PropOp48
 70
     1
102
RTVSPost2010Prop49
280
     0
102
RTVSPost2010PropOp49
 70
     1
102
RTVSPost2010Prop50
 90
       50
102
RTVSPost2010PropOp50
 70
     1
102
RTVSPost2010Prop51ColorIndex
 90
      256
102
RTVSPost2010Prop51ColorRGB
 90
-16777216
102
RTVSPost2010PropOp51
 70
     0
102
RTVSPost2010Prop52
140
1.0
102
RTVSPost2010PropOp52
 70
     0
102
RTVSPost2010Prop53
 90
        2
102
RTVSPost2010PropOp53
 70
     1
102
RTVSPost2010Prop54
  1
strokes_ogs.tif
102
RTVSPost2010PropOp54
 70
     1
102
RTVSPost2010Prop55
280
     0
102
RTVSPost2010PropOp55
 70
     1
102
RTVSPost2010Prop56
140
1.0
102
RTVSPost2010PropOp56
 70
     1
102
RTVSPost2010Prop57
140
1.0
102
RTVSPost2010PropOp57
 70
     1
  0
XRECORD
  5
39D
102
{ACAD_REACTORS
330
39C
102
}
330
39C
100
AcDbXrecord
280
     1
102
RTVSPropertyOp0
 70
     1
102
RTVSPropertyOp1
 70
     1
102
RTVSPropertyOp2
 70
     1
102
RTVSPropertyOp3
 70
     1
102
RTVSPropertyOp4
 70
     1
102
RTVSPropertyOp5
 70
     1
102
RTVSPropertyOp6
 70
     1
102
RTVSPropertyOp7
 70
     1
102
RTVSPropertyOp8
 70
     1
102
RTVSPropertyOp9
 70
     1
102
RTVSPropertyOp10
 70
     1
102
RTVSPropertyOp11
 70
     1
102
RTVSPropertyOp12
 70
     1
102
RTVSPropertyOp13
 70
     1
102
RTVSPropertyOp14
 70
     1
102
RTVSPropertyOp15
 70
     1
102
RTVSPropertyOp16
 70
     1
102
RTVSPropertyOp17
 70
     1
102
RTVSPropertyOp18
 70
     1
102
RTVSPropertyOp19
 70
     1
102
RTVSPropertyOp20
 70
     1
102
RTVSPropertyOp21
 70
     1
102
RTVSPropertyOp22
 70
     1
102
RTVSPropertyOp23
 70
     1
102
RTVSPropertyOp24
 70
     1
102
RTVSPropertyOp25
 70
     1
102
RTVSPropertyOp26
 70
     1
102
RTVSPropertyOp27
 70
     1
102
RTVSPropertyOp28
 70
     1
102
RTVSPropertyOp29
 70
     1
102
RTVSPropertyOp30
 70
     1
102
RTVSPropertyOp31
 70
     1
102
RTVSPropertyOp32
 70
     1
102
RTVSPropertyOp33
 70
     1
102
RTVSPropertyOp34
 70
     1
102
RTVSPropertyOp35
 70
     1
102
RTVSPropertyOp36
 70
     1
102
RTVSPropertyOp37
 70
     1
102
RTVSPropertyOp38
 70
     1
102
RTVSPropertyOp39
 70
     1
102
RTVSPropertyOp40
 70
     1
102
RTVSPropertyOp41
 70
     1
102
RTVSPropertyOp42
 70
     1
102
RTVSPropertyOp43
 70
     1
102
RTVSPropertyOp44
 70
     1
102
RTVSPropertyOp45
 70
     1
102
RTVSPropertyOp46
 70
     1
102
RTVSPropertyOp47
 70
     1
102
RTVSPropertyOp48
 70
     1
102
RTVSPropertyOp49
 70
     1
102
RTVSPropertyOp50
 70
     1
102
RTVSPropertyOp51
 70
     0
102
RTVSPropertyOp52
 70
     0
102
RTVSPropertyOp53
 70
     1
102
RTVSPropertyOp54
 70
     1
102
RTVSPropertyOp55
 70
     1
102
RTVSPropertyOp56
 70
     1
102
RTVSPropertyOp57
 70
     1
102
RTVSPost2010Prop28
280
     0
102
RTVSPost2010PropOp28
 70
     1
102
RTVSPost2010Prop29
280
     1
102
RTVSPost2010PropOp29
 70
     1
102
RTVSPost2010Prop30
280
     1
102
RTVSPost2010PropOp30
 70
     1
102
RTVSPost2010Prop31
280
     0
102
RTVSPost2010PropOp31
 70
     1
102
RTVSPost2010Prop32
280
     0
102
RTVSPost2010PropOp32
 70
     1
102
RTVSPost2010Prop33
280
     0
102
RTVSPost2010PropOp33
 70
     1
102
RTVSPost2010Prop34
280
     0
102
RTVSPost2010PropOp34
 70
     1
102
RTVSPost2010Prop35
280
     0
102
RTVSPost2010PropOp35
 70
     1
102
RTVSPost2010Prop36
280
     0
102
RTVSPost2010PropOp36
 70
     1
102
RTVSPost2010Prop37
 90
       50
102
RTVSPost2010PropOp37
 70
     1
102
RTVSPost2010Prop38
140
0.0
102
RTVSPost2010PropOp38
 70
     1
102
RTVSPost2010Prop39
140
1.0
102
RTVSPost2010PropOp39
 70
     1
102
RTVSPost2010Prop40
 90
        0
102
RTVSPost2010PropOp40
 70
     1
102
RTVSPost2010Prop41ColorIndex
 90
       18
102
RTVSPost2010Prop41ColorRGB
 90
        0
102
RTVSPost2010PropOp41
 70
     1
102
RTVSPost2010Prop42
 90
       50
102
RTVSPost2010PropOp42
 70
     1
102
RTVSPost2010Prop43
 90
        3
102
RTVSPost2010PropOp43
 70
     1
102
RTVSPost2010Prop44ColorIndex
 90
        5
102
RTVSPost2010Prop44ColorRGB
 90
      255
102
RTVSPost2010PropOp44
 70
     1
102
RTVSPost2010Prop45
280
     0
102
RTVSPost2010PropOp45
 70
     1
102
RTVSPost2010Prop46
 90
       50
102
RTVSPost2010PropOp46
 70
     1
102
RTVSPost2010Prop47
 90
       50
102
RTVSPost2010PropOp47
 70
     1
102
RTVSPost2010Prop48
 90
       50
102
RTVSPost2010PropOp48
 70
     1
102
RTVSPost2010Prop49
280
     0
102
RTVSPost2010PropOp49
 70
     1
102
RTVSPost2010Prop50
 90
       50
102
RTVSPost2010PropOp50
 70
     1
102
RTVSPost2010Prop51ColorIndex
 90
      256
102
RTVSPost2010Prop51ColorRGB
 90
-16777216
102
RTVSPost2010PropOp51
 70
     0
102
RTVSPost2010Prop52
140
1.0
102
RTVSPost2010PropOp52
 70
     0
102
RTVSPost2010Prop53
 90
        2
102
RTVSPost2010PropOp53
 70
     1
102
RTVSPost2010Prop54
  1
strokes_ogs.tif
102
RTVSPost2010PropOp54
 70
     1
102
RTVSPost2010Prop55
280
     0
102
RTVSPost2010PropOp55
 70
     1
102
RTVSPost2010Prop56
140
1.0
102
RTVSPost2010PropOp56
 70
     1
102
RTVSPost2010Prop57
140
1.0
102
RTVSPost2010PropOp57
 70
     1
  0
XRECORD
  5
38F
102
{ACAD_REACTORS
330
38E
102
}
330
38E
100
AcDbXrecord
280
     1
102
RTVSPropertyOp0
 70
     1
102
RTVSPropertyOp1
 70
     1
102
RTVSPropertyOp2
 70
     1
102
RTVSPropertyOp3
 70
     1
102
RTVSPropertyOp4
 70
     1
102
RTVSPropertyOp5
 70
     1
102
RTVSPropertyOp6
 70
     1
102
RTVSPropertyOp7
 70
     1
102
RTVSPropertyOp8
 70
     1
102
RTVSPropertyOp9
 70
     1
102
RTVSPropertyOp10
 70
     1
102
RTVSPropertyOp11
 70
     1
102
RTVSPropertyOp12
 70
     1
102
RTVSPropertyOp13
 70
     1
102
RTVSPropertyOp14
 70
     1
102
RTVSPropertyOp15
 70
     1
102
RTVSPropertyOp16
 70
     1
102
RTVSPropertyOp17
 70
     1
102
RTVSPropertyOp18
 70
     1
102
RTVSPropertyOp19
 70
     1
102
RTVSPropertyOp20
 70
     1
102
RTVSPropertyOp21
 70
     1
102
RTVSPropertyOp22
 70
     1
102
RTVSPropertyOp23
 70
     1
102
RTVSPropertyOp24
 70
     1
102
RTVSPropertyOp25
 70
     1
102
RTVSPropertyOp26
 70
     1
102
RTVSPropertyOp27
 70
     1
102
RTVSPropertyOp28
 70
     1
102
RTVSPropertyOp29
 70
     1
102
RTVSPropertyOp30
 70
     1
102
RTVSPropertyOp31
 70
     1
102
RTVSPropertyOp32
 70
     1
102
RTVSPropertyOp33
 70
     1
102
RTVSPropertyOp34
 70
     1
102
RTVSPropertyOp35
 70
     1
102
RTVSPropertyOp36
 70
     1
102
RTVSPropertyOp37
 70
     1
102
RTVSPropertyOp38
 70
     1
102
RTVSPropertyOp39
 70
     1
102
RTVSPropertyOp40
 70
     1
102
RTVSPropertyOp41
 70
     1
102
RTVSPropertyOp42
 70
     1
102
RTVSPropertyOp43
 70
     1
102
RTVSPropertyOp44
 70
     1
102
RTVSPropertyOp45
 70
     1
102
RTVSPropertyOp46
 70
     1
102
RTVSPropertyOp47
 70
     1
102
RTVSPropertyOp48
 70
     1
102
RTVSPropertyOp49
 70
     1
102
RTVSPropertyOp50
 70
     1
102
RTVSPropertyOp51
 70
     0
102
RTVSPropertyOp52
 70
     0
102
RTVSPropertyOp53
 70
     1
102
RTVSPropertyOp54
 70
     1
102
RTVSPropertyOp55
 70
     1
102
RTVSPropertyOp56
 70
     1
102
RTVSPropertyOp57
 70
     1
102
RTVSPost2010Prop28
280
     0
102
RTVSPost2010PropOp28
 70
     1
102
RTVSPost2010Prop29
280
     1
102
RTVSPost2010PropOp29
 70
     1
102
RTVSPost2010Prop30
280
     1
102
RTVSPost2010PropOp30
 70
     1
102
RTVSPost2010Prop31
280
     0
102
RTVSPost2010PropOp31
 70
     1
102
RTVSPost2010Prop32
280
     0
102
RTVSPost2010PropOp32
 70
     1
102
RTVSPost2010Prop33
280
     0
102
RTVSPost2010PropOp33
 70
     1
102
RTVSPost2010Prop34
280
     0
102
RTVSPost2010PropOp34
 70
     1
102
RTVSPost2010Prop35
280
     0
102
RTVSPost2010PropOp35
 70
     1
102
RTVSPost2010Prop36
280
     0
102
RTVSPost2010PropOp36
 70
     1
102
RTVSPost2010Prop37
 90
       50
102
RTVSPost2010PropOp37
 70
     1
102
RTVSPost2010Prop38
140
0.0
102
RTVSPost2010PropOp38
 70
     1
102
RTVSPost2010Prop39
140
1.0
102
RTVSPost2010PropOp39
 70
     1
102
RTVSPost2010Prop40
 90
        0
102
RTVSPost2010PropOp40
 70
     1
102
RTVSPost2010Prop41ColorIndex
 90
       18
102
RTVSPost2010Prop41ColorRGB
 90
        0
102
RTVSPost2010PropOp41
 70
     1
102
RTVSPost2010Prop42
 90
       50
102
RTVSPost2010PropOp42
 70
     1
102
RTVSPost2010Prop43
 90
        3
102
RTVSPost2010PropOp43
 70
     1
102
RTVSPost2010Prop44ColorIndex
 90
        5
102
RTVSPost2010Prop44ColorRGB
 90
      255
102
RTVSPost2010PropOp44
 70
     1
102
RTVSPost2010Prop45
280
     0
102
RTVSPost2010PropOp45
 70
     1
102
RTVSPost2010Prop46
 90
       50
102
RTVSPost2010PropOp46
 70
     1
102
RTVSPost2010Prop47
 90
       50
102
RTVSPost2010PropOp47
 70
     1
102
RTVSPost2010Prop48
 90
       50
102
RTVSPost2010PropOp48
 70
     1
102
RTVSPost2010Prop49
280
     0
102
RTVSPost2010PropOp49
 70
     1
102
RTVSPost2010Prop50
 90
       50
102
RTVSPost2010PropOp50
 70
     1
102
RTVSPost2010Prop51ColorIndex
 90
      256
102
RTVSPost2010Prop51ColorRGB
 90
-16777216
102
RTVSPost2010PropOp51
 70
     0
102
RTVSPost2010Prop52
140
1.0
102
RTVSPost2010PropOp52
 70
     0
102
RTVSPost2010Prop53
 90
        2
102
RTVSPost2010PropOp53
 70
     1
102
RTVSPost2010Prop54
  1
strokes_ogs.tif
102
RTVSPost2010PropOp54
 70
     1
102
RTVSPost2010Prop55
280
     0
102
RTVSPost2010PropOp55
 70
     1
102
RTVSPost2010Prop56
140
1.0
102
RTVSPost2010PropOp56
 70
     1
102
RTVSPost2010Prop57
140
1.0
102
RTVSPost2010PropOp57
 70
     1
  0
XRECORD
  5
3AF
102
{ACAD_REACTORS
330
3AE
102
}
330
3AE
100
AcDbXrecord
280
     1
102
RTVSPropertyOp0
 70
     1
102
RTVSPropertyOp1
 70
     1
102
RTVSPropertyOp2
 70
     1
102
RTVSPropertyOp3
 70
     1
102
RTVSPropertyOp4
 70
     1
102
RTVSPropertyOp5
 70
     1
102
RTVSPropertyOp6
 70
     1
102
RTVSPropertyOp7
 70
     1
102
RTVSPropertyOp8
 70
     1
102
RTVSPropertyOp9
 70
     1
102
RTVSPropertyOp10
 70
     1
102
RTVSPropertyOp11
 70
     1
102
RTVSPropertyOp12
 70
     1
102
RTVSPropertyOp13
 70
     1
102
RTVSPropertyOp14
 70
     1
102
RTVSPropertyOp15
 70
     1
102
RTVSPropertyOp16
 70
     1
102
RTVSPropertyOp17
 70
     1
102
RTVSPropertyOp18
 70
     1
102
RTVSPropertyOp19
 70
     1
102
RTVSPropertyOp20
 70
     1
102
RTVSPropertyOp21
 70
     1
102
RTVSPropertyOp22
 70
     1
102
RTVSPropertyOp23
 70
     1
102
RTVSPropertyOp24
 70
     1
102
RTVSPropertyOp25
 70
     1
102
RTVSPropertyOp26
 70
     1
102
RTVSPropertyOp27
 70
     1
102
RTVSPropertyOp28
 70
     1
102
RTVSPropertyOp29
 70
     1
102
RTVSPropertyOp30
 70
     1
102
RTVSPropertyOp31
 70
     1
102
RTVSPropertyOp32
 70
     1
102
RTVSPropertyOp33
 70
     1
102
RTVSPropertyOp34
 70
     1
102
RTVSPropertyOp35
 70
     1
102
RTVSPropertyOp36
 70
     1
102
RTVSPropertyOp37
 70
     1
102
RTVSPropertyOp38
 70
     1
102
RTVSPropertyOp39
 70
     1
102
RTVSPropertyOp40
 70
     1
102
RTVSPropertyOp41
 70
     1
102
RTVSPropertyOp42
 70
     1
102
RTVSPropertyOp43
 70
     1
102
RTVSPropertyOp44
 70
     1
102
RTVSPropertyOp45
 70
     1
102
RTVSPropertyOp46
 70
     1
102
RTVSPropertyOp47
 70
     1
102
RTVSPropertyOp48
 70
     1
102
RTVSPropertyOp49
 70
     1
102
RTVSPropertyOp50
 70
     1
102
RTVSPropertyOp51
 70
     0
102
RTVSPropertyOp52
 70
     0
102
RTVSPropertyOp53
 70
     1
102
RTVSPropertyOp54
 70
     1
102
RTVSPropertyOp55
 70
     1
102
RTVSPropertyOp56
 70
     1
102
RTVSPropertyOp57
 70
     1
102
RTVSPost2010Prop28
280
     0
102
RTVSPost2010PropOp28
 70
     1
102
RTVSPost2010Prop29
280
     1
102
RTVSPost2010PropOp29
 70
     1
102
RTVSPost2010Prop30
280
     1
102
RTVSPost2010PropOp30
 70
     1
102
RTVSPost2010Prop31
280
     0
102
RTVSPost2010PropOp31
 70
     1
102
RTVSPost2010Prop32
280
     0
102
RTVSPost2010PropOp32
 70
     1
102
RTVSPost2010Prop33
280
     0
102
RTVSPost2010PropOp33
 70
     1
102
RTVSPost2010Prop34
280
     0
102
RTVSPost2010PropOp34
 70
     1
102
RTVSPost2010Prop35
280
     0
102
RTVSPost2010PropOp35
 70
     1
102
RTVSPost2010Prop36
280
     0
102
RTVSPost2010PropOp36
 70
     1
102
RTVSPost2010Prop37
 90
       50
102
RTVSPost2010PropOp37
 70
     1
102
RTVSPost2010Prop38
140
0.0
102
RTVSPost2010PropOp38
 70
     1
102
RTVSPost2010Prop39
140
1.0
102
RTVSPost2010PropOp39
 70
     1
102
RTVSPost2010Prop40
 90
        0
102
RTVSPost2010PropOp40
 70
     1
102
RTVSPost2010Prop41ColorIndex
 90
       18
102
RTVSPost2010Prop41ColorRGB
 90
        0
102
RTVSPost2010PropOp41
 70
     1
102
RTVSPost2010Prop42
 90
       50
102
RTVSPost2010PropOp42
 70
     1
102
RTVSPost2010Prop43
 90
        3
102
RTVSPost2010PropOp43
 70
     1
102
RTVSPost2010Prop44ColorIndex
 90
        5
102
RTVSPost2010Prop44ColorRGB
 90
      255
102
RTVSPost2010PropOp44
 70
     1
102
RTVSPost2010Prop45
280
     0
102
RTVSPost2010PropOp45
 70
     1
102
RTVSPost2010Prop46
 90
       50
102
RTVSPost2010PropOp46
 70
     1
102
RTVSPost2010Prop47
 90
       50
102
RTVSPost2010PropOp47
 70
     1
102
RTVSPost2010Prop48
 90
       50
102
RTVSPost2010PropOp48
 70
     1
102
RTVSPost2010Prop49
280
     0
102
RTVSPost2010PropOp49
 70
     1
102
RTVSPost2010Prop50
 90
       50
102
RTVSPost2010PropOp50
 70
     1
102
RTVSPost2010Prop51ColorIndex
 90
      256
102
RTVSPost2010Prop51ColorRGB
 90
-16777216
102
RTVSPost2010PropOp51
 70
     0
102
RTVSPost2010Prop52
140
1.0
102
RTVSPost2010PropOp52
 70
     0
102
RTVSPost2010Prop53
 90
        2
102
RTVSPost2010PropOp53
 70
     1
102
RTVSPost2010Prop54
  1
strokes_ogs.tif
102
RTVSPost2010PropOp54
 70
     1
102
RTVSPost2010Prop55
280
     0
102
RTVSPost2010PropOp55
 70
     1
102
RTVSPost2010Prop56
140
1.0
102
RTVSPost2010PropOp56
 70
     1
102
RTVSPost2010Prop57
140
1.0
102
RTVSPost2010PropOp57
 70
     1
  0
ENDSEC
  0
EOF
