999
DXF file: S:\Engenharia\Wildfire\Engenharia\Produtos\Misturadores\94520.022\94520022.dxf
999
Pro/ENGINEER 2013150 by Parametric Technology Corporation
  0
SECTION
  2
HEADER
  9
$ACADVER
  1
AC1021
  9
$DWGCODEPAGE
  3
ANSI_1252
  9
$EXTMAX
 10
841.0
 20
594.0
 30
0.0
  9
$EXTMIN
 10
0.0
 20
0.0
 30
0.0
  9
$LIMMIN
 10
0.0
 20
0.0
  9
$LIMMAX
 10
841.0
 20
594.0
  9
$VIEWCTR
 10
420.5
 20
297.0
  9
$VIEWSIZE
 40
594.0
  9
$CLAYER
  8
0
  9
$LTSCALE
 40
46.255
  9
$CELTYPE
  6
BYLAYER
  9
$DIMSCALE
 40
1.0
  9
$DIMASZ
 40
3.0
  9
$DIMEXO
 40
0.5
  9
$DIMDLI
 40
31.958
  9
$DIMEXE
 40
0.5
  9
$DIMCEN
 40
7.569
  9
$DIMLFAC
 40
1.0
  9
$DIMBLK
  1
_FILLED
  9
$DIMTXT
 40
1.8
  9
$DIMTOL
 70
1
  9
$DIMLIM
 70
0
  9
$DIMTFAC
 40
1.0
  9
$DIMTP
 40
0.001
  9
$DIMTM
 40
0.001
  9
$DIMGAP
 40
0.625
  9
$DIMDSEP
 70
46
  9
$PDMODE
 70
3
  9
$PDSIZE
 40
1.0
  9
$HANDSEED
  5
467
  9
$TILEMODE
 70
1
  9
$MEASUREMENT
 70
1
  9
$INSUNITS
 70
4
  0
ENDSEC
  0
SECTION
  2
CLASSES
  0
CLASS
  1
ACDBDICTIONARYWDFLT
  2
AcDbDictionaryWithDefault
  3
AutoCAD 2000
 90
0
 91
1
280
0
281
0
  0
CLASS
  1
ACDBPLACEHOLDER
  2
AcDbPlaceHolder
  3
AutoCAD 2000
 90
0
 91
1
280
0
281
0
  0
CLASS
  1
LAYOUT
  2
AcDbLayout
  3
AutoCAD 2000
 90
0
 91
0
280
0
281
0
  0
ENDSEC
  0
SECTION
  2
TABLES
  0
TABLE
  2
VPORT
  5
8
100
AcDbSymbolTable
 70
2
  0
VPORT
  5
1F4
100
AcDbSymbolTableRecord
100
AcDbViewportTableRecord
  2
*ACTIVE
 70
0
 10
0.0
 20
0.0
 11
1.0
 21
1.0
 12
420.5
 22
297.0
 13
0.0
 23
0.0
 14
1.0
 24
1.0
 15
0.0
 25
0.0
 16
0.0
 26
0.0
 36
1.0
 17
0.0
 27
0.0
 37
0.0
 40
594.0
 41
1.4158249158
 42
50.0
 43
0.0
 44
0.0
 50
0.0
 51
0.0
 71
0
 72
100
 73
1
 74
1
 75
0
 76
0
 77
0
 78
0
  0
ENDTAB
  0
TABLE
  2
LTYPE
  5
5
100
AcDbSymbolTable
 70
6
  0
LTYPE
  5
14
100
AcDbSymbolTableRecord
100
AcDbLinetypeTableRecord
  2
BYBLOCK
 70
0
  3

 72
65
 73
0
 40
0.0
  0
LTYPE
  5
15
100
AcDbSymbolTableRecord
100
AcDbLinetypeTableRecord
  2
BYLAYER
 70
0
  3

 72
65
 73
0
 40
0.0
  0
LTYPE
  5
16
100
AcDbSymbolTableRecord
100
AcDbLinetypeTableRecord
  2
CONTINUOUS
 70
64
  3
Solid line
 72
65
 73
0
 40
0.0
  0
LTYPE
  5
1F5
100
AcDbSymbolTableRecord
100
AcDbLinetypeTableRecord
  2
CENTER
 70
64
  3
____ _ ____ _ ____ _ ____ _ ____ _ ____ _ ____
 72
65
 73
4
 40
0.6
 49
0.375
 74
0
 49
-0.075
 74
0
 49
0.075
 74
0
 49
-0.075
 74
0
  0
LTYPE
  5
1F6
100
AcDbSymbolTableRecord
100
AcDbLinetypeTableRecord
  2
HIDDEN
 70
64
  3
- - - - - - - - - - - - - - - - - - - -
 72
65
 73
2
 40
0.2
 49
0.1
 74
0
 49
-0.1
 74
0
  0
LTYPE
  5
1F7
100
AcDbSymbolTableRecord
100
AcDbLinetypeTableRecord
  2
PHANTOM
 70
64
  3
_____ _ _ _____ _ _ _____ _ _ _____
 72
65
 73
6
 40
0.8
 49
0.45
 74
0
 49
-0.05
 74
0
 49
0.1
 74
0
 49
-0.05
 74
0
 49
0.1
 74
0
 49
-0.05
 74
0
  0
LTYPE
  5
1F8
100
AcDbSymbolTableRecord
100
AcDbLinetypeTableRecord
  2
DOT
 70
64
  3
. . . . . . . . . . . . . . . . . . . .
 72
65
 73
2
 40
0.2
 49
0.1
 74
0
 49
-0.1
 74
0
  0
LTYPE
  5
1F9
100
AcDbSymbolTableRecord
100
AcDbLinetypeTableRecord
  2
DASHED
 70
64
  3
- - - - - - - - - - - - - - - - - - - -
 72
65
 73
2
 40
0.2
 49
0.1
 74
0
 49
-0.1
 74
0
  0
ENDTAB
  0
TABLE
  2
LAYER
  5
2
100
AcDbSymbolTable
 70
36
  0
LAYER
  5
10
100
AcDbSymbolTableRecord
100
AcDbLayerTableRecord
  2
0
 70
0
 62
7
  6
CONTINUOUS
370
-3
390
F
  0
LAYER
  5
1FA
100
AcDbSymbolTableRecord
100
AcDbLayerTableRecord
  2
DEFAULT_1
 70
0
 62
7
  6
CENTER
370
-3
390
F
  0
LAYER
  5
1FB
100
AcDbSymbolTableRecord
100
AcDbLayerTableRecord
  2
DEFAULT_2
 70
0
 62
8
  6
HIDDEN
370
-3
390
F
  0
LAYER
  5
1FC
100
AcDbSymbolTableRecord
100
AcDbLayerTableRecord
  2
DEFAULT_3
 70
0
 62
7
  6
PHANTOM
370
-3
390
F
  0
LAYER
  5
1FD
100
AcDbSymbolTableRecord
100
AcDbLayerTableRecord
  2
01_ALL_DTM_PLN
 70
0
 62
7
  6
CONTINUOUS
370
-3
390
F
  0
LAYER
  5
1FE
100
AcDbSymbolTableRecord
100
AcDbLayerTableRecord
  2
01__ASM_ALL_DTM_PLN
 70
0
 62
7
  6
CONTINUOUS
370
-3
390
F
  0
LAYER
  5
1FF
100
AcDbSymbolTableRecord
100
AcDbLayerTableRecord
  2
01__ASM_DEF_DTM_PLN
 70
0
 62
7
  6
CONTINUOUS
370
-3
390
F
  0
LAYER
  5
200
100
AcDbSymbolTableRecord
100
AcDbLayerTableRecord
  2
01___PRT_ALL_DTM_PLN
 70
0
 62
7
  6
CONTINUOUS
370
-3
390
F
  0
LAYER
  5
201
100
AcDbSymbolTableRecord
100
AcDbLayerTableRecord
  2
01___PRT_DEF_DTM_PLN
 70
0
 62
7
  6
CONTINUOUS
370
-3
390
F
  0
LAYER
  5
202
100
AcDbSymbolTableRecord
100
AcDbLayerTableRecord
  2
02_ALL_AXES
 70
0
 62
7
  6
CONTINUOUS
370
-3
390
F
  0
LAYER
  5
203
100
AcDbSymbolTableRecord
100
AcDbLayerTableRecord
  2
02__ASM_ALL_AXES
 70
0
 62
7
  6
CONTINUOUS
370
-3
390
F
  0
LAYER
  5
204
100
AcDbSymbolTableRecord
100
AcDbLayerTableRecord
  2
02___PRT_ALL_AXES
 70
0
 62
7
  6
CONTINUOUS
370
-3
390
F
  0
LAYER
  5
205
100
AcDbSymbolTableRecord
100
AcDbLayerTableRecord
  2
03_ALL_CURVES
 70
0
 62
7
  6
CONTINUOUS
370
-3
390
F
  0
LAYER
  5
206
100
AcDbSymbolTableRecord
100
AcDbLayerTableRecord
  2
03__ASM_ALL_CURVES
 70
0
 62
7
  6
CONTINUOUS
370
-3
390
F
  0
LAYER
  5
207
100
AcDbSymbolTableRecord
100
AcDbLayerTableRecord
  2
03___PRT_ALL_CURVES
 70
0
 62
7
  6
CONTINUOUS
370
-3
390
F
  0
LAYER
  5
208
100
AcDbSymbolTableRecord
100
AcDbLayerTableRecord
  2
04_ALL_DTM_PNT
 70
0
 62
7
  6
CONTINUOUS
370
-3
390
F
  0
LAYER
  5
209
100
AcDbSymbolTableRecord
100
AcDbLayerTableRecord
  2
04__ASM_ALL_DTM_PNT
 70
0
 62
7
  6
CONTINUOUS
370
-3
390
F
  0
LAYER
  5
20A
100
AcDbSymbolTableRecord
100
AcDbLayerTableRecord
  2
04___PRT_ALL_DTM_PNT
 70
0
 62
7
  6
CONTINUOUS
370
-3
390
F
  0
LAYER
  5
20B
100
AcDbSymbolTableRecord
100
AcDbLayerTableRecord
  2
05_ALL_DTM_CSYS
 70
0
 62
7
  6
CONTINUOUS
370
-3
390
F
  0
LAYER
  5
20C
100
AcDbSymbolTableRecord
100
AcDbLayerTableRecord
  2
05__ASM_ALL_DTM_CSYS
 70
0
 62
7
  6
CONTINUOUS
370
-3
390
F
  0
LAYER
  5
20D
100
AcDbSymbolTableRecord
100
AcDbLayerTableRecord
  2
05__ASM_DEF_DTM_CSYS
 70
0
 62
7
  6
CONTINUOUS
370
-3
390
F
  0
LAYER
  5
20E
100
AcDbSymbolTableRecord
100
AcDbLayerTableRecord
  2
05___PRT_ALL_DTM_CSYS
 70
0
 62
7
  6
CONTINUOUS
370
-3
390
F
  0
LAYER
  5
20F
100
AcDbSymbolTableRecord
100
AcDbLayerTableRecord
  2
05___PRT_DEF_DTM_CSYS
 70
0
 62
7
  6
CONTINUOUS
370
-3
390
F
  0
LAYER
  5
210
100
AcDbSymbolTableRecord
100
AcDbLayerTableRecord
  2
06_ALL_SURFS
 70
0
 62
7
  6
CONTINUOUS
370
-3
390
F
  0
LAYER
  5
211
100
AcDbSymbolTableRecord
100
AcDbLayerTableRecord
  2
06__ASM_ALL_SURFS
 70
0
 62
7
  6
CONTINUOUS
370
-3
390
F
  0
LAYER
  5
212
100
AcDbSymbolTableRecord
100
AcDbLayerTableRecord
  2
06___PRT_ALL_SURFS
 70
0
 62
7
  6
CONTINUOUS
370
-3
390
F
  0
LAYER
  5
213
100
AcDbSymbolTableRecord
100
AcDbLayerTableRecord
  2
07__ASM_ALL_SKELETONS
 70
0
 62
7
  6
CONTINUOUS
370
-3
390
F
  0
LAYER
  5
214
100
AcDbSymbolTableRecord
100
AcDbLayerTableRecord
  2
103014_9
 70
0
 62
7
  6
CONTINUOUS
370
-3
390
F
  0
LAYER
  5
215
100
AcDbSymbolTableRecord
100
AcDbLayerTableRecord
  2
103022_8
 70
0
 62
7
  6
CONTINUOUS
370
-3
390
F
  0
LAYER
  5
216
100
AcDbSymbolTableRecord
100
AcDbLayerTableRecord
  2
103058_13
 70
0
 62
7
  6
CONTINUOUS
370
-3
390
F
  0
LAYER
  5
217
100
AcDbSymbolTableRecord
100
AcDbLayerTableRecord
  2
103062-1_AF0_1
 70
0
 62
7
  6
CONTINUOUS
370
-3
390
F
  0
LAYER
  5
218
100
AcDbSymbolTableRecord
100
AcDbLayerTableRecord
  2
123005_4
 70
0
 62
7
  6
CONTINUOUS
370
-3
390
F
  0
LAYER
  5
219
100
AcDbSymbolTableRecord
100
AcDbLayerTableRecord
  2
123007_8
 70
0
 62
7
  6
CONTINUOUS
370
-3
390
F
  0
LAYER
  5
21A
100
AcDbSymbolTableRecord
100
AcDbLayerTableRecord
  2
123009_2
 70
0
 62
7
  6
CONTINUOUS
370
-3
390
F
  0
LAYER
  5
21B
100
AcDbSymbolTableRecord
100
AcDbLayerTableRecord
  2
123013_2
 70
0
 62
7
  6
CONTINUOUS
370
-3
390
F
  0
LAYER
  5
21C
100
AcDbSymbolTableRecord
100
AcDbLayerTableRecord
  2
123026_AF0_14
 70
0
 62
7
  6
CONTINUOUS
370
-3
390
F
  0
LAYER
  5
21D
100
AcDbSymbolTableRecord
100
AcDbLayerTableRecord
  2
123027_AF0_1
 70
0
 62
7
  6
CONTINUOUS
370
-3
390
F
  0
LAYER
  5
21E
100
AcDbSymbolTableRecord
100
AcDbLayerTableRecord
  2
123028_13
 70
0
 62
7
  6
CONTINUOUS
370
-3
390
F
  0
LAYER
  5
21F
100
AcDbSymbolTableRecord
100
AcDbLayerTableRecord
  2
125049_4
 70
0
 62
7
  6
CONTINUOUS
370
-3
390
F
  0
LAYER
  5
220
100
AcDbSymbolTableRecord
100
AcDbLayerTableRecord
  2
128021_7
 70
0
 62
7
  6
CONTINUOUS
370
-3
390
F
  0
LAYER
  5
221
100
AcDbSymbolTableRecord
100
AcDbLayerTableRecord
  2
133056_12
 70
0
 62
7
  6
CONTINUOUS
370
-3
390
F
  0
LAYER
  5
222
100
AcDbSymbolTableRecord
100
AcDbLayerTableRecord
  2
143007_50
 70
0
 62
7
  6
CONTINUOUS
370
-3
390
F
  0
LAYER
  5
223
100
AcDbSymbolTableRecord
100
AcDbLayerTableRecord
  2
178033_3
 70
0
 62
7
  6
CONTINUOUS
370
-3
390
F
  0
LAYER
  5
224
100
AcDbSymbolTableRecord
100
AcDbLayerTableRecord
  2
195024_3
 70
0
 62
7
  6
CONTINUOUS
370
-3
390
F
  0
LAYER
  5
225
100
AcDbSymbolTableRecord
100
AcDbLayerTableRecord
  2
195046_32
 70
0
 62
7
  6
CONTINUOUS
370
-3
390
F
  0
LAYER
  5
226
100
AcDbSymbolTableRecord
100
AcDbLayerTableRecord
  2
196007_5
 70
0
 62
7
  6
CONTINUOUS
370
-3
390
F
  0
LAYER
  5
227
100
AcDbSymbolTableRecord
100
AcDbLayerTableRecord
  2
196034_4
 70
0
 62
7
  6
CONTINUOUS
370
-3
390
F
  0
LAYER
  5
228
100
AcDbSymbolTableRecord
100
AcDbLayerTableRecord
  2
196035_2
 70
0
 62
7
  6
CONTINUOUS
370
-3
390
F
  0
LAYER
  5
229
100
AcDbSymbolTableRecord
100
AcDbLayerTableRecord
  2
196063_2
 70
0
 62
7
  6
CONTINUOUS
370
-3
390
F
  0
LAYER
  5
22A
100
AcDbSymbolTableRecord
100
AcDbLayerTableRecord
  2
199006_9
 70
0
 62
7
  6
CONTINUOUS
370
-3
390
F
  0
LAYER
  5
22B
100
AcDbSymbolTableRecord
100
AcDbLayerTableRecord
  2
199009_7
 70
0
 62
7
  6
CONTINUOUS
370
-3
390
F
  0
LAYER
  5
22C
100
AcDbSymbolTableRecord
100
AcDbLayerTableRecord
  2
203006_7
 70
0
 62
7
  6
CONTINUOUS
370
-3
390
F
  0
LAYER
  5
22D
100
AcDbSymbolTableRecord
100
AcDbLayerTableRecord
  2
203014_3
 70
0
 62
7
  6
CONTINUOUS
370
-3
390
F
  0
LAYER
  5
22E
100
AcDbSymbolTableRecord
100
AcDbLayerTableRecord
  2
218043_3
 70
0
 62
7
  6
CONTINUOUS
370
-3
390
F
  0
LAYER
  5
22F
100
AcDbSymbolTableRecord
100
AcDbLayerTableRecord
  2
228009_16
 70
0
 62
7
  6
CONTINUOUS
370
-3
390
F
  0
LAYER
  5
230
100
AcDbSymbolTableRecord
100
AcDbLayerTableRecord
  2
253013_ASM_13
 70
0
 62
7
  6
CONTINUOUS
370
-3
390
F
  0
LAYER
  5
231
100
AcDbSymbolTableRecord
100
AcDbLayerTableRecord
  2
BW7001C_ASM_5
 70
0
 62
7
  6
CONTINUOUS
370
-3
390
F
  0
LAYER
  5
232
100
AcDbSymbolTableRecord
100
AcDbLayerTableRecord
  2
MANIFOLD_SOLID_BREP_139991
 70
0
 62
7
  6
CONTINUOUS
370
-3
390
F
  0
LAYER
  5
233
100
AcDbSymbolTableRecord
100
AcDbLayerTableRecord
  2
MANIFOLD_SOLID_BREP_172397
 70
0
 62
7
  6
CONTINUOUS
370
-3
390
F
  0
LAYER
  5
234
100
AcDbSymbolTableRecord
100
AcDbLayerTableRecord
  2
MANIFOLD_SOLID_BREP_179958
 70
0
 62
7
  6
CONTINUOUS
370
-3
390
F
  0
LAYER
  5
235
100
AcDbSymbolTableRecord
100
AcDbLayerTableRecord
  2
MANIFOLD_SOLID_BREP_180062
 70
0
 62
7
  6
CONTINUOUS
370
-3
390
F
  0
LAYER
  5
236
100
AcDbSymbolTableRecord
100
AcDbLayerTableRecord
  2
MANIFOLD_SOLID_BREP_180166
 70
0
 62
7
  6
CONTINUOUS
370
-3
390
F
  0
ENDTAB
  0
TABLE
  2
STYLE
  5
3
100
AcDbSymbolTable
 70
1
  0
STYLE
  5
11
100
AcDbSymbolTableRecord
100
AcDbTextStyleTableRecord
  2
STANDARD
 70
0
 40
0.0
 41
0.8
 50
0.0
 71
0
 42
0.2
  3
txt
  4

  0
STYLE
  5
237
100
AcDbSymbolTableRecord
100
AcDbTextStyleTableRecord
  2
TEXTSTYLE_1
 70
0
 40
0.0
 41
0.8
 50
0.0
 71
0
 42
0.2
  3
gdt
  4

  0
ENDTAB
  0
TABLE
  2
VIEW
  5
6
100
AcDbSymbolTable
 70
0
  0
ENDTAB
  0
TABLE
  2
UCS
  5
7
100
AcDbSymbolTable
 70
0
  0
ENDTAB
  0
TABLE
  2
APPID
  5
9
100
AcDbSymbolTable
 70
1
  0
APPID
  5
238
100
AcDbSymbolTableRecord
100
AcDbRegAppTableRecord
  2
ACAD
 70
0
  0
ENDTAB
  0
TABLE
  2
BLOCK_RECORD
  5
1
100
AcDbSymbolTable
 70
0
  0
BLOCK_RECORD
  5
239
100
AcDbSymbolTableRecord
100
AcDbBlockTableRecord
  2
*Model_Space
  0
BLOCK_RECORD
  5
23A
100
AcDbSymbolTableRecord
100
AcDbBlockTableRecord
  2
*Paper_Space
  0
BLOCK_RECORD
  5
23B
100
AcDbSymbolTableRecord
100
AcDbBlockTableRecord
  2
_FILLED
  0
BLOCK_RECORD
  5
23C
100
AcDbSymbolTableRecord
100
AcDbBlockTableRecord
  2
*D0
  0
BLOCK_RECORD
  5
23D
100
AcDbSymbolTableRecord
100
AcDbBlockTableRecord
  2
*D1
  0
BLOCK_RECORD
  5
23E
100
AcDbSymbolTableRecord
100
AcDbBlockTableRecord
  2
*D2
  0
BLOCK_RECORD
  5
23F
100
AcDbSymbolTableRecord
100
AcDbBlockTableRecord
  2
*D3
  0
ENDTAB
  0
TABLE
  2
DIMSTYLE
  5
A
100
AcDbSymbolTable
 70
1
100
AcDbDimStyleTable
 71
0
  0
DIMSTYLE
105
240
100
AcDbSymbolTableRecord
100
AcDbDimStyleTableRecord
  2
STANDARD
 70
0
  3

  4

 40
1.0
 41
3.0
 42
0.5
 43
0.38
 44
0.5
 45
0.0
 46
0.0
 47
0.001
 48
0.001
140
1.8
141
0.09
142
0.0
143
25.4
144
1.0
145
0.0
146
1.0
147
0.625
 71
1.0
 72
0.0
 73
0
 74
0
 75
0
 76
0
 77
1
 78
8
170
0
171
2
172
0
173
0
174
0
175
0
176
0
177
0
178
0
270
2
271
3
272
3
273
2
274
2
275
0
280
0
281
0
282
0
283
1
284
8
285
0
286
0
287
3
288
0
340
11
278
46
341
23B
342
23B
343
23B
344
23B
  0
DIMSTYLE
105
241
100
AcDbSymbolTableRecord
100
AcDbDimStyleTableRecord
  2
DIMSTYLE_1
 70
0
  3

  4

 40
1.0
 41
3.0
 42
0.5
 43
0.38
 44
0.5
 45
0.0
 46
0.0
 47
0.001
 48
0.001
140
5.0
141
0.09
142
0.0
143
25.4
144
1.0
145
0.0
146
1.0
147
1.25
 71
0.0
 72
0.0
 73
0
 74
0
 75
0
 76
0
 77
1
 78
8
170
0
171
2
172
0
173
0
174
0
175
0
176
0
177
0
178
0
270
2
271
3
272
3
273
2
274
2
275
0
280
0
281
0
282
0
283
1
284
8
285
0
286
0
287
3
288
0
340
11
278
46
341
23B
342
23B
343
23B
344
23B
  0
ENDTAB
  0
ENDSEC
  0
SECTION
  2
BLOCKS
  0
BLOCK
  5
20
100
AcDbEntity
  8
0
100
AcDbBlockBegin
  2
*Model_Space
 70
0
 10
0.0
 20
0.0
 30
0.0
  3
*Model_Space
  1

  0
ENDBLK
  5
21
100
AcDbEntity
  8
0
100
AcDbBlockEnd
  0
BLOCK
  5
1C
100
AcDbEntity
  8
0
100
AcDbBlockBegin
  2
*Paper_Space
 70
0
 10
0.0
 20
0.0
 30
0.0
  3
*Paper_Space
  1

  0
ENDBLK
  5
1D
100
AcDbEntity
  8
0
100
AcDbBlockEnd
  0
BLOCK
  5
242
100
AcDbEntity
  8
0
100
AcDbBlockBegin
  2
_FILLED
 70
64
 10
0.0
 20
0.0
  3
_FILLED
  1

  0
SOLID
  5
243
100
AcDbEntity
  8
0
  6
BYBLOCK
 62
0
100
AcDbTrace
 10
0.0
 20
0.0
 11
-1.0
 21
0.1666666667
 12
-1.0
 22
-0.1666666667
 13
-1.0
 23
-0.1666666667
  0
ENDBLK
  5
244
100
AcDbEntity
  8
0
  6
BYBLOCK
 62
0
100
AcDbBlockEnd
  0
BLOCK
  5
245
100
AcDbEntity
  8
0
100
AcDbBlockBegin
 62
2
  6
CONTINUOUS
  2
*D0
 70
65
 10
0.0
 20
0.0
  3
*D0
  1

  0
MTEXT
  5
246
100
AcDbEntity
  8
0
100
AcDbMText
 62
2
  6
CONTINUOUS
  7
STANDARD
 71
2
 72
1
 10
101.3344292598
 20
368.2955335311
 30
0.0
 11
0.0
 21
1.0
 31
0.0
 44
0.9
  1
340
 40
5.0
 41
23.1428571429
  0
LINE
  5
247
100
AcDbEntity
  8
0
100
AcDbLine
 62
2
  6
CONTINUOUS
 10
212.4436661349
 20
537.8455335311
 11
107.9772864026
 21
537.8455335311
  0
LINE
  5
248
100
AcDbEntity
  8
0
100
AcDbLine
 62
2
  6
CONTINUOUS
 10
367.4436661349
 20
198.7455335311
 11
107.9772864026
 21
198.7455335311
  0
LINE
  5
249
100
AcDbEntity
  8
0
100
AcDbLine
 62
2
  6
CONTINUOUS
 10
108.4772864026
 20
537.8455335311
 11
108.4772864026
 21
368.2955335311
  0
LINE
  5
24A
100
AcDbEntity
  8
0
100
AcDbLine
 62
2
  6
CONTINUOUS
 10
108.4772864026
 20
198.7455335311
 11
108.4772864026
 21
368.2955335311
  0
INSERT
  5
24B
100
AcDbEntity
  8
0
100
AcDbBlockReference
 62
2
  6
CONTINUOUS
  2
_FILLED
 10
108.4772864026
 20
537.8455335311
 41
3.0
 42
3.0
 43
3.0
 50
90.0
  0
INSERT
  5
24C
100
AcDbEntity
  8
0
100
AcDbBlockReference
 62
2
  6
CONTINUOUS
  2
_FILLED
 10
108.4772864026
 20
198.7455335311
 41
3.0
 42
3.0
 43
3.0
 50
270.0
  0
ENDBLK
  5
24D
100
AcDbEntity
  8
0
  6
BYBLOCK
 62
0
100
AcDbBlockEnd
  0
BLOCK
  5
24E
100
AcDbEntity
  8
0
100
AcDbBlockBegin
 62
2
  6
CONTINUOUS
  2
*D1
 70
65
 10
0.0
 20
0.0
  3
*D1
  1

  0
MTEXT
  5
24F
100
AcDbEntity
  8
0
100
AcDbMText
 62
2
  6
CONTINUOUS
  7
STANDARD
 71
2
 72
1
 10
288.1936661349
 20
570.0884372836
 30
0.0
 11
1.0
 21
0.0
 31
0.0
 44
0.9
  1
254.5
 40
5.0
 41
38.5714285714
  0
LINE
  5
250
100
AcDbEntity
  8
0
100
AcDbLine
 62
2
  6
CONTINUOUS
 10
160.9436661349
 20
476.6455335311
 11
160.9436661349
 21
563.4455801408
  0
LINE
  5
251
100
AcDbEntity
  8
0
100
AcDbLine
 62
2
  6
CONTINUOUS
 10
415.4436661349
 20
303.2455335311
 11
415.4436661349
 21
563.4455801408
  0
LINE
  5
252
100
AcDbEntity
  8
0
100
AcDbLine
 62
2
  6
CONTINUOUS
 10
160.9436661349
 20
562.9455801408
 11
288.1936661349
 21
562.9455801408
  0
LINE
  5
253
100
AcDbEntity
  8
0
100
AcDbLine
 62
2
  6
CONTINUOUS
 10
415.4436661349
 20
562.9455801408
 11
288.1936661349
 21
562.9455801408
  0
INSERT
  5
254
100
AcDbEntity
  8
0
100
AcDbBlockReference
 62
2
  6
CONTINUOUS
  2
_FILLED
 10
160.9436661349
 20
562.9455801408
 41
3.0
 42
3.0
 43
3.0
 50
180.0
  0
INSERT
  5
255
100
AcDbEntity
  8
0
100
AcDbBlockReference
 62
2
  6
CONTINUOUS
  2
_FILLED
 10
415.4436661349
 20
562.9455801408
 41
3.0
 42
3.0
 43
3.0
  0
ENDBLK
  5
256
100
AcDbEntity
  8
0
  6
BYBLOCK
 62
0
100
AcDbBlockEnd
  0
BLOCK
  5
257
100
AcDbEntity
  8
0
100
AcDbBlockBegin
 62
2
  6
CONTINUOUS
  2
*D2
 70
65
 10
0.0
 20
0.0
  3
*D2
  1

  0
MTEXT
  5
258
100
AcDbEntity
  8
0
100
AcDbMText
 62
2
  6
CONTINUOUS
  7
TEXTSTYLE_1
 71
1
 72
1
 10
600.873818847
 20
411.9549184085
 30
0.0
 11
1.0
 21
0.0
 31
0.0
 44
0.9
  1
{\Fgdt;n}\Ftxt;24
 40
5.0
 41
25.4285714286
  0
LINE
  5
259
100
AcDbEntity
  8
0
100
AcDbLine
 62
2
  6
CONTINUOUS
 10
566.5297493738
 20
404.8120612656
 11
578.5297493738
 21
404.8120612656
  0
LINE
  5
25A
100
AcDbEntity
  8
0
100
AcDbLine
 62
2
  6
CONTINUOUS
 10
590.5297493738
 20
404.8120612656
 11
578.5297493738
 21
404.8120612656
  0
LINE
  5
25B
100
AcDbEntity
  8
0
100
AcDbLine
 62
2
  6
CONTINUOUS
 10
578.5297493738
 20
404.8120612656
 11
617.8261997994
 21
404.8120612656
  0
INSERT
  5
25C
100
AcDbEntity
  8
0
100
AcDbBlockReference
 62
2
  6
CONTINUOUS
  2
_FILLED
 10
566.5297493738
 20
404.8120612656
 41
3.0
 42
3.0
 43
3.0
 50
180.0
  0
INSERT
  5
25D
100
AcDbEntity
  8
0
100
AcDbBlockReference
 62
2
  6
CONTINUOUS
  2
_FILLED
 10
590.5297493738
 20
404.8120612656
 41
3.0
 42
3.0
 43
3.0
  0
ENDBLK
  5
25E
100
AcDbEntity
  8
0
  6
BYBLOCK
 62
0
100
AcDbBlockEnd
  0
BLOCK
  5
25F
100
AcDbEntity
  8
0
100
AcDbBlockBegin
 62
2
  6
CONTINUOUS
  2
*D3
 70
65
 10
0.0
 20
0.0
  3
*D3
  1

  0
MTEXT
  5
260
100
AcDbEntity
  8
0
100
AcDbMText
 62
2
  6
CONTINUOUS
  7
STANDARD
 71
2
 72
1
 10
604.0297493738
 20
571.9873792734
 30
0.0
 11
1.0
 21
0.0
 31
0.0
 44
0.9
  1
96
 40
5.0
 41
15.4285714286
  0
LINE
  5
261
100
AcDbEntity
  8
0
100
AcDbLine
 62
2
  6
CONTINUOUS
 10
556.0297493738
 20
300.2455335311
 11
556.0297493738
 21
565.3445221305
  0
LINE
  5
262
100
AcDbEntity
  8
0
100
AcDbLine
 62
2
  6
CONTINUOUS
 10
652.0297493738
 20
280.2455335311
 11
652.0297493738
 21
565.3445221305
  0
LINE
  5
263
100
AcDbEntity
  8
0
100
AcDbLine
 62
2
  6
CONTINUOUS
 10
556.0297493738
 20
564.8445221305
 11
604.0297493738
 21
564.8445221305
  0
LINE
  5
264
100
AcDbEntity
  8
0
100
AcDbLine
 62
2
  6
CONTINUOUS
 10
652.0297493738
 20
564.8445221305
 11
604.0297493738
 21
564.8445221305
  0
INSERT
  5
265
100
AcDbEntity
  8
0
100
AcDbBlockReference
 62
2
  6
CONTINUOUS
  2
_FILLED
 10
556.0297493738
 20
564.8445221305
 41
3.0
 42
3.0
 43
3.0
 50
180.0
  0
INSERT
  5
266
100
AcDbEntity
  8
0
100
AcDbBlockReference
 62
2
  6
CONTINUOUS
  2
_FILLED
 10
652.0297493738
 20
564.8445221305
 41
3.0
 42
3.0
 43
3.0
  0
ENDBLK
  5
267
100
AcDbEntity
  8
0
  6
BYBLOCK
 62
0
100
AcDbBlockEnd
  0
ENDSEC
  0
SECTION
  2
ENTITIES
  0
DIMENSION
  5
268
100
AcDbEntity
  8
0
100
AcDbDimension
 62
2
  6
CONTINUOUS
  2
*D0
 10
108.4772864026
 20
198.7455335311
 11
108.4772864026
 21
368.2955335311
 70
160
 71
2
 42
339.1
  3
DIMSTYLE_1
100
AcDbAlignedDimension
 13
212.9436661349
 23
537.8455335311
 14
367.9436661349
 24
198.7455335311
 50
270.0
100
AcDbRotatedDimension
  0
DIMENSION
  5
269
100
AcDbEntity
  8
0
100
AcDbDimension
 62
2
  6
CONTINUOUS
  2
*D1
 10
415.4436661349
 20
562.9455801408
 11
288.1936661349
 21
562.9455801408
 70
160
 71
2
 42
254.5
  3
DIMSTYLE_1
100
AcDbAlignedDimension
 13
160.9436661349
 23
476.1455335311
 14
415.4436661349
 24
302.7455335311
100
AcDbRotatedDimension
  0
DIMENSION
  5
26A
100
AcDbEntity
  8
0
100
AcDbDimension
 62
2
  6
CONTINUOUS
  2
*D2
 10
590.5297493738
 20
404.8120612656
 11
609.3500093232
 21
404.8120612656
 70
160
 71
1
 42
24.0
  1
%%c<>
  3
DIMSTYLE_1
100
AcDbAlignedDimension
 13
566.5297493738
 23
485.8455335311
 14
590.5297493738
 24
485.8455335311
100
AcDbRotatedDimension
  0
DIMENSION
  5
26B
100
AcDbEntity
  8
0
100
AcDbDimension
 62
2
  6
CONTINUOUS
  2
*D3
 10
652.0297493738
 20
564.8445221305
 11
604.0297493738
 21
564.8445221305
 70
160
 71
2
 42
96.0
  3
DIMSTYLE_1
100
AcDbAlignedDimension
 13
556.0297493738
 23
299.7455335311
 14
652.0297493738
 24
279.7455335311
100
AcDbRotatedDimension
  0
LINE
  5
26C
100
AcDbEntity
  8
MANIFOLD_SOLID_BREP_179958
100
AcDbLine
 62
7
  6
CONTINUOUS
 10
567.2802792599
 20
15.9455335311
 11
589.7792194877
 21
15.9455335311
  0
LINE
  5
26D
100
AcDbEntity
  8
MANIFOLD_SOLID_BREP_179958
100
AcDbLine
 62
7
  6
CONTINUOUS
 10
589.7792194877
 20
28.2455335311
 11
567.2802792599
 21
28.2455335311
  0
LINE
  5
26E
100
AcDbEntity
  8
MANIFOLD_SOLID_BREP_179958
100
AcDbLine
 62
7
  6
CONTINUOUS
 10
584.8297493738
 20
45.7455335311
 11
572.2297493738
 21
45.7455335311
  0
LINE
  5
26F
100
AcDbEntity
  8
MANIFOLD_SOLID_BREP_179958
100
AcDbLine
 62
7
  6
CONTINUOUS
 10
567.2797493738
 20
15.9455335311
 11
565.539368317
 21
17.6859145879
  0
LINE
  5
270
100
AcDbEntity
  8
MANIFOLD_SOLID_BREP_179958
100
AcDbLine
 62
7
  6
CONTINUOUS
 10
589.7797493738
 20
28.2455335311
 11
591.5201304306
 21
26.5051524744
  0
LINE
  5
271
100
AcDbEntity
  8
128021_7
100
AcDbLine
 62
7
  6
CONTINUOUS
 10
559.0878445084
 20
131.6455335311
 11
597.9716544224
 21
131.6455335311
  0
LINE
  5
272
100
AcDbEntity
  8
128021_7
100
AcDbLine
 62
7
  6
CONTINUOUS
 10
597.771658902
 20
158.8455335311
 11
592.8619691574
 21
158.8455335311
  0
LINE
  5
273
100
AcDbEntity
  8
128021_7
100
AcDbLine
 62
7
  6
CONTINUOUS
 10
582.0336023242
 20
158.8455335311
 11
575.0258964234
 21
158.8455335311
  0
LINE
  5
274
100
AcDbEntity
  8
128021_7
100
AcDbLine
 62
7
  6
CONTINUOUS
 10
564.1975295902
 20
158.8455335311
 11
559.287839676
 21
158.8455335311
  0
LINE
  5
275
100
AcDbEntity
  8
125049_4
100
AcDbLine
 62
7
  6
CONTINUOUS
 10
629.1018486291
 20
188.7439083517
 11
602.6690339148
 21
181.7560538228
  0
LINE
  5
276
100
AcDbEntity
  8
125049_4
100
AcDbLine
 62
7
  6
CONTINUOUS
 10
602.6518475687
 20
181.7539469884
 11
602.6680671108
 21
181.7562214541
  0
LINE
  5
277
100
AcDbEntity
  8
128021_7
100
AcDbLine
 62
7
  6
CONTINUOUS
 10
597.4297493738
 20
172.8455335311
 11
559.6297493738
 21
172.8455335311
  0
LINE
  5
278
100
AcDbEntity
  8
128021_7
100
AcDbLine
 62
7
  6
CONTINUOUS
 10
554.7297493738
 20
177.1455335311
 11
602.3297493738
 21
177.1455335311
  0
LINE
  5
279
100
AcDbEntity
  8
123005_4
100
AcDbLine
 62
7
  6
CONTINUOUS
 10
553.5297493738
 20
180.6455335311
 11
603.5297493738
 21
180.6455335311
  0
LINE
  5
27A
100
AcDbEntity
  8
125049_4
100
AcDbLine
 62
7
  6
CONTINUOUS
 10
553.0297493738
 20
181.7455335311
 11
554.3904778748
 21
181.7455335311
  0
LINE
  5
27B
100
AcDbEntity
  8
125049_4
100
AcDbLine
 62
7
  6
CONTINUOUS
 10
554.4076511789
 20
181.7455335311
 11
555.5457110223
 21
181.7455335311
  0
LINE
  5
27C
100
AcDbEntity
  8
125049_4
100
AcDbLine
 62
7
  6
CONTINUOUS
 10
555.7672130761
 20
181.7455335311
 11
601.2922856716
 21
181.7455335311
  0
LINE
  5
27D
100
AcDbEntity
  8
125049_4
100
AcDbLine
 62
7
  6
CONTINUOUS
 10
601.5137877253
 20
181.7455335311
 11
602.6518475687
 21
181.7455335311
  0
LINE
  5
27E
100
AcDbEntity
  8
125049_4
100
AcDbLine
 62
7
  6
CONTINUOUS
 10
602.6690339148
 20
181.7455335311
 11
604.0297493738
 21
181.7455335311
  0
LINE
  5
27F
100
AcDbEntity
  8
125049_4
100
AcDbLine
 62
7
  6
CONTINUOUS
 10
524.0299914873
 20
188.7455335311
 11
573.5048115632
 21
188.7455335311
  0
LINE
  5
280
100
AcDbEntity
  8
125049_4
100
AcDbLine
 62
7
  6
CONTINUOUS
 10
583.5546871844
 20
188.7455335311
 11
633.0295072604
 21
188.7455335311
  0
LINE
  5
281
100
AcDbEntity
  8
125049_4
100
AcDbLine
 62
7
  6
CONTINUOUS
 10
554.39148292
 20
181.7560765687
 11
554.4076511789
 21
181.7539469884
  0
LINE
  5
282
100
AcDbEntity
  8
125049_4
100
AcDbLine
 62
7
  6
CONTINUOUS
 10
554.3904778748
 20
181.756050375
 11
527.9562814293
 21
188.7442701823
  0
LINE
  5
283
100
AcDbEntity
  8
128021_7
100
AcDbLine
 62
7
  6
CONTINUOUS
 10
559.6297493738
 20
172.8455335311
 11
554.7297493738
 21
177.1455335311
  0
LINE
  5
284
100
AcDbEntity
  8
103058_13
100
AcDbLine
 62
7
  6
CONTINUOUS
 10
590.0297493738
 20
457.6455335311
 11
590.5297493738
 21
458.6455335311
  0
LINE
  5
285
100
AcDbEntity
  8
125049_4
100
AcDbLine
 62
7
  6
CONTINUOUS
 10
524.0299914873
 20
193.7455335311
 11
633.0295072604
 21
193.7455335311
  0
LINE
  5
286
100
AcDbEntity
  8
196034_4
100
AcDbLine
 62
7
  6
CONTINUOUS
 10
603.0297493738
 20
193.9455335311
 11
554.0297493738
 21
193.9455335311
  0
LINE
  5
287
100
AcDbEntity
  8
196035_2
100
AcDbLine
 62
7
  6
CONTINUOUS
 10
556.0297493738
 20
198.2455335311
 11
601.0297493738
 21
198.2455335311
  0
LINE
  5
288
100
AcDbEntity
  8
103014_9
100
AcDbLine
 62
7
  6
CONTINUOUS
 10
553.5297493738
 20
198.7455335311
 11
603.5297493738
 21
198.7455335311
  0
LINE
  5
289
100
AcDbEntity
  8
103014_9
100
AcDbLine
 62
7
  6
CONTINUOUS
 10
603.0295965288
 20
203.7455335311
 11
554.0297855008
 21
203.7455335311
  0
LINE
  5
28A
100
AcDbEntity
  8
123007_8
100
AcDbLine
 62
7
  6
CONTINUOUS
 10
562.5349059036
 20
195.3547116887
 11
563.3854117572
 21
194.8634915904
  0
LINE
  5
28B
100
AcDbEntity
  8
123007_8
100
AcDbLine
 62
7
  6
CONTINUOUS
 10
562.5351881458
 20
196.8547731453
 11
563.3860470656
 21
196.363328563
  0
LINE
  5
28C
100
AcDbEntity
  8
123007_8
100
AcDbLine
 62
7
  6
CONTINUOUS
 10
562.7243940143
 20
198.2455335311
 11
563.3860501151
 21
197.8633683385
  0
LINE
  5
28D
100
AcDbEntity
  8
125049_4
100
AcDbLine
 62
7
  6
CONTINUOUS
 10
523.5297493738
 20
193.2455335311
 11
523.5297493738
 21
189.2455335311
  0
LINE
  5
28E
100
AcDbEntity
  8
123007_8
100
AcDbLine
 62
7
  6
CONTINUOUS
 10
594.5245928441
 20
194.6363553736
 11
593.6740869904
 21
195.1275754719
  0
LINE
  5
28F
100
AcDbEntity
  8
123007_8
100
AcDbLine
 62
7
  6
CONTINUOUS
 10
594.5245721096
 20
196.1362507924
 11
593.673874388
 21
196.6275885759
  0
LINE
  5
290
100
AcDbEntity
  8
123007_8
100
AcDbLine
 62
7
  6
CONTINUOUS
 10
594.5242837857
 20
197.636724226
 11
593.6741136874
 21
198.1277496103
  0
LINE
  5
291
100
AcDbEntity
  8
125049_4
100
AcDbLine
 62
7
  6
CONTINUOUS
 10
553.0297493738
 20
182.1157764549
 11
553.0297493738
 21
181.7455335311
  0
LINE
  5
292
100
AcDbEntity
  8
103014_9
100
AcDbLine
 62
7
  6
CONTINUOUS
 10
553.5297493738
 20
203.2455335311
 11
553.5297493738
 21
198.7455335311
  0
LINE
  5
293
100
AcDbEntity
  8
123005_4
100
AcDbLine
 62
7
  6
CONTINUOUS
 10
553.5297493738
 20
181.7455335311
 11
553.5297493738
 21
180.6455335311
  0
LINE
  5
294
100
AcDbEntity
  8
196034_4
100
AcDbLine
 62
7
  6
CONTINUOUS
 10
554.0297493738
 20
193.9455335311
 11
554.0297493738
 21
193.7455335311
  0
LINE
  5
295
100
AcDbEntity
  8
143007_50
100
AcDbLine
 62
7
  6
CONTINUOUS
 10
635.0216716823
 20
235.2455335311
 11
637.6797493738
 21
235.2455335311
  0
LINE
  5
296
100
AcDbEntity
  8
199009_7
100
AcDbLine
 62
7
  6
CONTINUOUS
 10
637.6797493738
 20
235.2455335311
 11
644.3797493738
 21
235.2455335311
  0
LINE
  5
297
100
AcDbEntity
  8
143007_50
100
AcDbLine
 62
7
  6
CONTINUOUS
 10
644.3797493738
 20
235.2455335311
 11
651.5297493738
 21
235.2455335311
  0
LINE
  5
298
100
AcDbEntity
  8
123026_AF0_14
100
AcDbLine
 62
7
  6
CONTINUOUS
 10
602.0297493738
 20
235.7455335311
 11
603.0297493738
 21
235.7455335311
  0
LINE
  5
299
100
AcDbEntity
  8
123027_AF0_1
100
AcDbLine
 62
7
  6
CONTINUOUS
 10
603.0297493738
 20
235.7455335311
 11
623.0297493738
 21
235.7455335311
  0
LINE
  5
29A
100
AcDbEntity
  8
128021_7
100
AcDbLine
 62
7
  6
CONTINUOUS
 10
554.7297493738
 20
180.6455335311
 11
554.7297493738
 21
177.1455335311
  0
LINE
  5
29B
100
AcDbEntity
  8
125049_4
100
AcDbLine
 62
7
  6
CONTINUOUS
 10
555.7672130761
 20
182.2602738191
 11
555.7672130761
 21
188.7455335311
  0
LINE
  5
29C
100
AcDbEntity
  8
123026_AF0_14
100
AcDbLine
 62
7
  6
CONTINUOUS
 10
556.0297493738
 20
299.7455335311
 11
556.0297493738
 21
203.7455335311
  0
LINE
  5
29D
100
AcDbEntity
  8
103062-1_AF0_1
100
AcDbLine
 62
7
  6
CONTINUOUS
 10
556.0297493738
 20
299.7455335311
 11
556.0297493738
 21
302.7455335311
  0
LINE
  5
29E
100
AcDbEntity
  8
128021_7
100
AcDbLine
 62
7
  6
CONTINUOUS
 10
558.7877815608
 20
158.3455335311
 11
558.7877815608
 21
131.9455335311
  0
LINE
  5
29F
100
AcDbEntity
  8
128021_7
100
AcDbLine
 62
7
  6
CONTINUOUS
 10
559.6297493738
 20
172.8455335311
 11
559.6297493738
 21
158.8455335311
  0
LINE
  5
2A0
100
AcDbEntity
  8
123007_8
100
AcDbLine
 62
7
  6
CONTINUOUS
 10
562.5297493738
 20
196.8805335311
 11
562.5297493738
 21
196.8605335311
  0
LINE
  5
2A1
100
AcDbEntity
  8
123007_8
100
AcDbLine
 62
7
  6
CONTINUOUS
 10
562.5297493738
 20
195.3805335311
 11
562.5297493738
 21
195.3605335311
  0
LINE
  5
2A2
100
AcDbEntity
  8
123007_8
100
AcDbLine
 62
7
  6
CONTINUOUS
 10
563.3797749451
 20
194.8699990613
 11
563.3797749451
 21
194.3712652743
  0
LINE
  5
2A3
100
AcDbEntity
  8
123007_8
100
AcDbLine
 62
7
  6
CONTINUOUS
 10
563.3803768468
 20
197.8699216349
 11
563.3803768468
 21
197.3711878479
  0
LINE
  5
2A4
100
AcDbEntity
  8
123007_8
100
AcDbLine
 62
7
  6
CONTINUOUS
 10
563.3803768497
 20
196.3698792142
 11
563.3803768497
 21
195.8711454272
  0
LINE
  5
2A5
100
AcDbEntity
  8
128021_7
100
AcDbLine
 62
7
  6
CONTINUOUS
 10
564.6711310126
 20
132.1455335311
 11
564.6711310126
 21
158.3455335311
  0
LINE
  5
2A6
100
AcDbEntity
  8
MANIFOLD_SOLID_BREP_179958
100
AcDbLine
 62
7
  6
CONTINUOUS
 10
565.539368317
 20
26.5051524744
 11
565.539368317
 21
17.6859145879
  0
LINE
  5
2A7
100
AcDbEntity
  8
103058_13
100
AcDbLine
 62
7
  6
CONTINUOUS
 10
566.5297493738
 20
476.1455335311
 11
566.5297493738
 21
458.6455335311
  0
LINE
  5
2A8
100
AcDbEntity
  8
133056_12
100
AcDbLine
 62
7
  6
CONTINUOUS
 10
566.5297493738
 20
458.6455335311
 11
566.5297493738
 21
302.8455335311
  0
LINE
  5
2A9
100
AcDbEntity
  8
133056_12
100
AcDbLine
 62
7
  6
CONTINUOUS
 10
566.5297493738
 20
476.1455335311
 11
566.5297493738
 21
525.8455335311
  0
LINE
  5
2AA
100
AcDbEntity
  8
195024_3
100
AcDbLine
 62
7
  6
CONTINUOUS
 10
567.5297493738
 20
302.8455335311
 11
567.5297493738
 21
302.7455335311
  0
LINE
  5
2AB
100
AcDbEntity
  8
MANIFOLD_SOLID_BREP_179958
100
AcDbLine
 62
7
  6
CONTINUOUS
 10
571.7297493738
 20
29.2455335311
 11
571.7297493738
 21
31.7455335311
  0
LINE
  5
2AC
100
AcDbEntity
  8
MANIFOLD_SOLID_BREP_179958
100
AcDbLine
 62
7
  6
CONTINUOUS
 10
572.0345588454
 20
26.5051524744
 11
572.0345588454
 21
17.6859145879
  0
LINE
  5
2AD
100
AcDbEntity
  8
MANIFOLD_SOLID_BREP_179958
100
AcDbLine
 62
7
  6
CONTINUOUS
 10
572.2297493738
 20
40.9455335311
 11
572.2297493738
 21
45.7455335311
  0
LINE
  5
2AE
100
AcDbEntity
  8
MANIFOLD_SOLID_BREP_179958
100
AcDbLine
 62
7
  6
CONTINUOUS
 10
572.5297493738
 20
45.7455335311
 11
572.5297493738
 21
131.6455335311
  0
LINE
  5
2AF
100
AcDbEntity
  8
MANIFOLD_SOLID_BREP_179958
100
AcDbLine
 62
7
  6
CONTINUOUS
 10
573.2297493738
 20
33.6820252042
 11
573.2297493738
 21
39.2134827236
  0
LINE
  5
2B0
100
AcDbEntity
  8
128021_7
100
AcDbLine
 62
7
  6
CONTINUOUS
 10
574.3297493738
 20
158.3455335311
 11
574.3297493738
 21
132.1455335311
  0
LINE
  5
2B1
100
AcDbEntity
  8
128021_7
100
AcDbLine
 62
7
  6
CONTINUOUS
 10
582.7297493738
 20
132.1455335311
 11
582.7297493738
 21
158.3455335311
  0
LINE
  5
2B2
100
AcDbEntity
  8
MANIFOLD_SOLID_BREP_179958
100
AcDbLine
 62
7
  6
CONTINUOUS
 10
583.8297493738
 20
33.6820252042
 11
583.8297493738
 21
39.2134827236
  0
LINE
  5
2B3
100
AcDbEntity
  8
MANIFOLD_SOLID_BREP_179958
100
AcDbLine
 62
7
  6
CONTINUOUS
 10
584.5297493738
 20
45.7455335311
 11
584.5297493738
 21
131.6455335311
  0
LINE
  5
2B4
100
AcDbEntity
  8
MANIFOLD_SOLID_BREP_179958
100
AcDbLine
 62
7
  6
CONTINUOUS
 10
584.8297493738
 20
40.9455335311
 11
584.8297493738
 21
45.7455335311
  0
LINE
  5
2B5
100
AcDbEntity
  8
MANIFOLD_SOLID_BREP_179958
100
AcDbLine
 62
7
  6
CONTINUOUS
 10
585.0249399022
 20
26.5051524744
 11
585.0249399022
 21
17.6859145879
  0
LINE
  5
2B6
100
AcDbEntity
  8
MANIFOLD_SOLID_BREP_179958
100
AcDbLine
 62
7
  6
CONTINUOUS
 10
585.3297493738
 20
29.2455335311
 11
585.3297493738
 21
31.7455335311
  0
LINE
  5
2B7
100
AcDbEntity
  8
195024_3
100
AcDbLine
 62
7
  6
CONTINUOUS
 10
589.5297493738
 20
302.8455335311
 11
589.5297493738
 21
302.7455335311
  0
LINE
  5
2B8
100
AcDbEntity
  8
103058_13
100
AcDbLine
 62
7
  6
CONTINUOUS
 10
590.5297493738
 20
476.1455335311
 11
590.5297493738
 21
458.6455335311
  0
LINE
  5
2B9
100
AcDbEntity
  8
133056_12
100
AcDbLine
 62
7
  6
CONTINUOUS
 10
590.5297493738
 20
458.6455335311
 11
590.5297493738
 21
302.8455335311
  0
LINE
  5
2BA
100
AcDbEntity
  8
133056_12
100
AcDbLine
 62
7
  6
CONTINUOUS
 10
590.5297493738
 20
476.1455335311
 11
590.5297493738
 21
525.8455335311
  0
LINE
  5
2BB
100
AcDbEntity
  8
MANIFOLD_SOLID_BREP_179958
100
AcDbLine
 62
7
  6
CONTINUOUS
 10
591.5201304306
 20
26.5051524744
 11
591.5201304306
 21
17.6859145879
  0
LINE
  5
2BC
100
AcDbEntity
  8
128021_7
100
AcDbLine
 62
7
  6
CONTINUOUS
 10
592.3883677351
 20
158.3455335311
 11
592.3883677351
 21
132.1455335311
  0
LINE
  5
2BD
100
AcDbEntity
  8
123007_8
100
AcDbLine
 62
7
  6
CONTINUOUS
 10
593.6791219007
 20
193.9455335311
 11
593.6791219007
 21
194.1199216349
  0
LINE
  5
2BE
100
AcDbEntity
  8
123007_8
100
AcDbLine
 62
7
  6
CONTINUOUS
 10
593.679527551
 20
196.621061293
 11
593.679527551
 21
197.11979508
  0
LINE
  5
2BF
100
AcDbEntity
  8
123007_8
100
AcDbLine
 62
7
  6
CONTINUOUS
 10
593.6797238025
 20
195.121068001
 11
593.6797238025
 21
195.619801788
  0
LINE
  5
2C0
100
AcDbEntity
  8
123007_8
100
AcDbLine
 62
7
  6
CONTINUOUS
 10
593.6797238025
 20
198.1212652743
 11
593.6797238025
 21
198.2455335311
  0
LINE
  5
2C1
100
AcDbEntity
  8
123007_8
100
AcDbLine
 62
7
  6
CONTINUOUS
 10
594.5297493738
 20
197.6305335311
 11
594.5297493738
 21
197.6098023736
  0
LINE
  5
2C2
100
AcDbEntity
  8
123007_8
100
AcDbLine
 62
7
  6
CONTINUOUS
 10
594.5297493738
 20
196.1305335311
 11
594.5297493738
 21
196.1105335311
  0
LINE
  5
2C3
100
AcDbEntity
  8
123007_8
100
AcDbLine
 62
7
  6
CONTINUOUS
 10
594.5297493738
 20
194.6305335311
 11
594.5297493738
 21
194.6105335311
  0
LINE
  5
2C4
100
AcDbEntity
  8
128021_7
100
AcDbLine
 62
7
  6
CONTINUOUS
 10
597.4297493738
 20
172.8455335311
 11
597.4297493738
 21
158.8455335311
  0
LINE
  5
2C5
100
AcDbEntity
  8
128021_7
100
AcDbLine
 62
7
  6
CONTINUOUS
 10
598.2717171869
 20
158.3455335311
 11
598.2717171869
 21
131.9455335311
  0
LINE
  5
2C6
100
AcDbEntity
  8
123026_AF0_14
100
AcDbLine
 62
7
  6
CONTINUOUS
 10
601.0297493738
 20
299.7455335311
 11
601.0297493738
 21
280.7455335311
  0
LINE
  5
2C7
100
AcDbEntity
  8
123026_AF0_14
100
AcDbLine
 62
7
  6
CONTINUOUS
 10
601.0297493738
 20
234.7455335311
 11
601.0297493738
 21
203.7455335311
  0
LINE
  5
2C8
100
AcDbEntity
  8
103062-1_AF0_1
100
AcDbLine
 62
7
  6
CONTINUOUS
 10
601.0297493738
 20
299.7455335311
 11
601.0297493738
 21
302.7455335311
  0
LINE
  5
2C9
100
AcDbEntity
  8
125049_4
100
AcDbLine
 62
7
  6
CONTINUOUS
 10
601.2922856715
 20
188.7455335311
 11
601.2922856715
 21
182.2602738191
  0
LINE
  5
2CA
100
AcDbEntity
  8
128021_7
100
AcDbLine
 62
7
  6
CONTINUOUS
 10
602.3297493738
 20
180.6455335311
 11
602.3297493738
 21
177.1455335311
  0
LINE
  5
2CB
100
AcDbEntity
  8
123027_AF0_1
100
AcDbLine
 62
7
  6
CONTINUOUS
 10
603.0297493738
 20
279.7455335311
 11
603.0297493738
 21
235.7455335311
  0
LINE
  5
2CC
100
AcDbEntity
  8
196034_4
100
AcDbLine
 62
7
  6
CONTINUOUS
 10
603.0297493738
 20
193.9455335311
 11
603.0297493738
 21
193.7455335311
  0
LINE
  5
2CD
100
AcDbEntity
  8
123026_AF0_14
100
AcDbLine
 62
7
  6
CONTINUOUS
 10
603.0297493738
 20
235.7455570535
 11
603.0297493738
 21
279.7455100088
  0
LINE
  5
2CE
100
AcDbEntity
  8
103014_9
100
AcDbLine
 62
7
  6
CONTINUOUS
 10
603.5297493738
 20
203.2455335311
 11
603.5297493738
 21
198.7455335311
  0
LINE
  5
2CF
100
AcDbEntity
  8
123005_4
100
AcDbLine
 62
7
  6
CONTINUOUS
 10
603.5297493738
 20
181.7455335311
 11
603.5297493738
 21
180.6455335311
  0
LINE
  5
2D0
100
AcDbEntity
  8
125049_4
100
AcDbLine
 62
7
  6
CONTINUOUS
 10
604.0297493738
 20
182.1157764549
 11
604.0297493738
 21
181.7455335311
  0
LINE
  5
2D1
100
AcDbEntity
  8
123026_AF0_14
100
AcDbLine
 62
7
  6
CONTINUOUS
 10
602.0297493738
 20
279.7455335311
 11
603.0297493738
 21
279.7455335311
  0
LINE
  5
2D2
100
AcDbEntity
  8
123027_AF0_1
100
AcDbLine
 62
7
  6
CONTINUOUS
 10
603.0297493738
 20
279.7455335311
 11
623.0297493738
 21
279.7455335311
  0
LINE
  5
2D3
100
AcDbEntity
  8
143007_50
100
AcDbLine
 62
7
  6
CONTINUOUS
 10
624.5297493738
 20
280.2455335311
 11
637.5297493738
 21
280.2455335311
  0
LINE
  5
2D4
100
AcDbEntity
  8
143007_50
100
AcDbLine
 62
7
  6
CONTINUOUS
 10
647.5297493738
 20
280.2455335311
 11
651.5297493738
 21
280.2455335311
  0
LINE
  5
2D5
100
AcDbEntity
  8
123027_AF0_1
100
AcDbLine
 62
7
  6
CONTINUOUS
 10
623.0297493738
 20
235.7455335311
 11
623.0297493738
 21
279.7455335311
  0
LINE
  5
2D6
100
AcDbEntity
  8
143007_50
100
AcDbLine
 62
7
  6
CONTINUOUS
 10
624.5297493738
 20
280.2455335311
 11
624.5297493738
 21
257.7455335313
  0
LINE
  5
2D7
100
AcDbEntity
  8
123007_8
100
AcDbLine
 62
7
  6
CONTINUOUS
 10
562.5297493738
 20
195.3805335311
 11
562.5351170261
 21
195.3867175508
  0
LINE
  5
2D8
100
AcDbEntity
  8
123007_8
100
AcDbLine
 62
7
  6
CONTINUOUS
 10
562.5297493738
 20
196.8805335311
 11
562.5351879645
 21
196.8867582762
  0
LINE
  5
2D9
100
AcDbEntity
  8
123026_AF0_14
100
AcDbLine
 62
7
  6
CONTINUOUS
 10
601.0297493738
 20
299.7455335311
 11
556.0297493738
 21
299.7455335311
  0
LINE
  5
2DA
100
AcDbEntity
  8
103062-1_AF0_1
100
AcDbLine
 62
7
  6
CONTINUOUS
 10
556.0297618303
 20
299.7455335311
 11
601.0297369173
 21
299.7455335311
  0
LINE
  5
2DB
100
AcDbEntity
  8
103062-1_AF0_1
100
AcDbLine
 62
7
  6
CONTINUOUS
 10
601.0297369173
 20
302.7455335311
 11
556.0297618303
 21
302.7455335311
  0
LINE
  5
2DC
100
AcDbEntity
  8
133056_12
100
AcDbLine
 62
7
  6
CONTINUOUS
 10
566.5305199729
 20
302.8455335311
 11
590.5289787747
 21
302.8455335311
  0
LINE
  5
2DD
100
AcDbEntity
  8
143007_50
100
AcDbLine
 62
7
  6
CONTINUOUS
 10
635.0216716823
 20
235.2455335311
 11
624.5297461267
 21
257.7455404946
  0
LINE
  5
2DE
100
AcDbEntity
  8
125049_4
100
AcDbLine
 62
7
  6
CONTINUOUS
 10
633.5297493738
 20
193.2455335311
 11
633.5297493738
 21
189.2455335311
  0
LINE
  5
2DF
100
AcDbEntity
  8
103022_8
100
AcDbLine
 62
7
  6
CONTINUOUS
 10
637.5297493738
 20
342.7455335311
 11
637.5297493738
 21
280.2455335311
  0
LINE
  5
2E0
100
AcDbEntity
  8
103022_8
100
AcDbLine
 62
7
  6
CONTINUOUS
 10
647.5297493738
 20
342.7455335311
 11
647.5297493738
 21
280.2455335311
  0
LINE
  5
2E1
100
AcDbEntity
  8
143007_50
100
AcDbLine
 62
7
  6
CONTINUOUS
 10
652.0297493738
 20
279.7455335311
 11
652.0297493738
 21
235.7455335311
  0
LINE
  5
2E2
100
AcDbEntity
  8
123007_8
100
AcDbLine
 62
7
  6
CONTINUOUS
 10
594.5297493738
 20
194.6105335311
 11
594.5243817211
 21
194.6043495057
  0
LINE
  5
2E3
100
AcDbEntity
  8
123007_8
100
AcDbLine
 62
7
  6
CONTINUOUS
 10
594.5297493738
 20
196.1105335311
 11
594.524283805
 21
196.104293372
  0
LINE
  5
2E4
100
AcDbEntity
  8
123007_8
100
AcDbLine
 62
7
  6
CONTINUOUS
 10
594.5297493738
 20
197.6098023736
 11
594.5242304868
 21
197.6037886758
  0
LINE
  5
2E5
100
AcDbEntity
  8
123007_8
100
AcDbLine
 62
7
  6
CONTINUOUS
 10
563.3860470627
 20
197.3777384991
 11
562.5351881451
 21
196.8862939181
  0
LINE
  5
2E6
100
AcDbEntity
  8
123007_8
100
AcDbLine
 62
7
  6
CONTINUOUS
 10
563.386050118
 20
195.8776987236
 11
562.5351172217
 21
195.386211323
  0
LINE
  5
2E7
100
AcDbEntity
  8
123007_8
100
AcDbLine
 62
7
  6
CONTINUOUS
 10
563.3853850602
 20
194.3777496103
 11
562.6370400256
 21
193.9455335311
  0
LINE
  5
2E8
100
AcDbEntity
  8
123007_8
100
AcDbLine
 62
7
  6
CONTINUOUS
 10
593.6738953773
 20
197.1132859862
 11
594.5242302512
 21
197.604413576
  0
LINE
  5
2E9
100
AcDbEntity
  8
123007_8
100
AcDbLine
 62
7
  6
CONTINUOUS
 10
593.6741136875
 20
195.613317452
 11
594.5242837857
 21
196.1043428363
  0
LINE
  5
2EA
100
AcDbEntity
  8
103022_8
100
AcDbLine
 62
7
  6
CONTINUOUS
 10
647.0297493738
 20
343.2455335311
 11
638.0297493738
 21
343.2455335311
  0
LINE
  5
2EB
100
AcDbEntity
  8
103058_13
100
AcDbLine
 62
7
  6
CONTINUOUS
 10
567.0297493738
 20
457.6455335311
 11
566.5297493738
 21
458.6455335311
  0
LINE
  5
2EC
100
AcDbEntity
  8
128021_7
100
AcDbLine
 62
7
  6
CONTINUOUS
 10
602.3297493738
 20
177.1455335311
 11
597.4297493738
 21
172.8455335311
  0
LINE
  5
2ED
100
AcDbEntity
  8
123007_8
100
AcDbLine
 62
7
  6
CONTINUOUS
 10
593.6734486325
 20
194.1133683385
 11
594.5243815254
 21
194.6048557371
  0
LINE
  5
2EE
100
AcDbEntity
  8
MANIFOLD_SOLID_BREP_179958
100
AcDbLine
 62
7
  6
CONTINUOUS
 10
567.2797493738
 20
28.2455335311
 11
565.539368317
 21
26.5051524744
  0
LINE
  5
2EF
100
AcDbEntity
  8
MANIFOLD_SOLID_BREP_139991
100
AcDbLine
 62
7
  6
CONTINUOUS
 10
569.5297712536
 20
457.4455335311
 11
587.5296568054
 21
457.4455335311
  0
LINE
  5
2F0
100
AcDbEntity
  8
103058_13
100
AcDbLine
 62
7
  6
CONTINUOUS
 10
567.0297493738
 20
457.6455335311
 11
590.0297493738
 21
457.6455335311
  0
LINE
  5
2F1
100
AcDbEntity
  8
MANIFOLD_SOLID_BREP_179958
100
AcDbLine
 62
7
  6
CONTINUOUS
 10
589.7797493738
 20
15.9455335311
 11
591.5201304306
 21
17.6859145879
  0
LINE
  5
2F2
100
AcDbEntity
  8
103058_13
100
AcDbLine
 62
7
  6
CONTINUOUS
 10
566.5297493738
 20
458.6455335311
 11
590.5297493738
 21
458.6455335311
  0
LINE
  5
2F3
100
AcDbEntity
  8
103058_13
100
AcDbLine
 62
7
  6
CONTINUOUS
 10
590.5297493738
 20
476.1455335311
 11
566.5297493738
 21
476.1455335311
  0
LINE
  5
2F4
100
AcDbEntity
  8
133056_12
100
AcDbLine
 62
7
  6
CONTINUOUS
 10
566.5305199729
 20
476.1455335311
 11
590.5289787747
 21
476.1455335311
  0
LINE
  5
2F5
100
AcDbEntity
  8
MANIFOLD_SOLID_BREP_179958
100
AcDbLine
 62
7
  6
CONTINUOUS
 10
373.6936661349
 20
15.9455335311
 11
412.1936661349
 21
15.9455335311
  0
LINE
  5
2F6
100
AcDbEntity
  8
MANIFOLD_SOLID_BREP_179958
100
AcDbLine
 62
7
  6
CONTINUOUS
 10
412.1936661349
 20
28.2455335311
 11
373.6936661349
 21
28.2455335311
  0
LINE
  5
2F7
100
AcDbEntity
  8
MANIFOLD_SOLID_BREP_179958
100
AcDbLine
 62
7
  6
CONTINUOUS
 10
407.2436300443
 20
45.7455335311
 11
394.6437022255
 21
45.7455335311
  0
LINE
  5
2F8
100
AcDbEntity
  8
MANIFOLD_SOLID_BREP_179958
100
AcDbLine
 62
7
  6
CONTINUOUS
 10
391.2436300443
 20
45.7455335311
 11
378.6437022255
 21
45.7455335311
  0
LINE
  5
2F9
100
AcDbEntity
  8
103058_13
100
AcDbLine
 62
7
  6
CONTINUOUS
 10
184.4436661349
 20
457.6455335311
 11
184.9436661349
 21
458.6455335311
  0
LINE
  5
2FA
100
AcDbEntity
  8
128021_7
100
AcDbLine
 62
7
  6
CONTINUOUS
 10
370.9117068876
 20
131.6455335311
 11
414.7756148229
 21
131.6455335311
  0
LINE
  5
2FB
100
AcDbEntity
  8
133056_12
100
AcDbLine
 62
7
  6
CONTINUOUS
 10
160.9436661349
 20
485.8455335311
 11
160.9436661349
 21
476.1455335311
  0
LINE
  5
2FC
100
AcDbEntity
  8
103058_13
100
AcDbLine
 62
7
  6
CONTINUOUS
 10
160.9436661349
 20
458.6455335311
 11
160.9436661349
 21
476.1455335311
  0
LINE
  5
2FD
100
AcDbEntity
  8
128021_7
100
AcDbLine
 62
7
  6
CONTINUOUS
 10
414.7756148229
 20
158.8455335311
 11
411.5160384794
 21
158.8455335311
  0
LINE
  5
2FE
100
AcDbEntity
  8
128021_7
100
AcDbLine
 62
7
  6
CONTINUOUS
 10
405.2642779733
 20
158.8455335311
 11
399.1954266409
 21
158.8455335311
  0
LINE
  5
2FF
100
AcDbEntity
  8
128021_7
100
AcDbLine
 62
7
  6
CONTINUOUS
 10
386.6919056289
 20
158.8455335311
 11
380.6230542965
 21
158.8455335311
  0
LINE
  5
300
100
AcDbEntity
  8
128021_7
100
AcDbLine
 62
7
  6
CONTINUOUS
 10
374.3712937904
 20
158.8455335311
 11
371.1117174469
 21
158.8455335311
  0
LINE
  5
301
100
AcDbEntity
  8
133056_12
100
AcDbLine
 62
7
  6
CONTINUOUS
 10
184.9436661349
 20
485.8455335311
 11
184.9436661349
 21
476.1455335311
  0
LINE
  5
302
100
AcDbEntity
  8
103058_13
100
AcDbLine
 62
7
  6
CONTINUOUS
 10
184.9436661349
 20
458.6455335311
 11
184.9436661349
 21
476.1455335311
  0
LINE
  5
303
100
AcDbEntity
  8
128021_7
100
AcDbLine
 62
7
  6
CONTINUOUS
 10
411.8436661349
 20
172.8455335311
 11
374.0436661349
 21
172.8455335311
  0
LINE
  5
304
100
AcDbEntity
  8
128021_7
100
AcDbLine
 62
7
  6
CONTINUOUS
 10
369.1436661349
 20
177.1455335311
 11
416.7436661349
 21
177.1455335311
  0
LINE
  5
305
100
AcDbEntity
  8
123005_4
100
AcDbLine
 62
7
  6
CONTINUOUS
 10
367.9438726018
 20
180.6455335311
 11
417.943459668
 21
180.6455335311
  0
LINE
  5
306
100
AcDbEntity
  8
125049_4
100
AcDbLine
 62
7
  6
CONTINUOUS
 10
367.4439409347
 20
181.7455335311
 11
418.4436415029
 21
181.7455335311
  0
LINE
  5
307
100
AcDbEntity
  8
125049_4
100
AcDbLine
 62
7
  6
CONTINUOUS
 10
367.9436661349
 20
188.7455335311
 11
407.2207408677
 21
188.7455335311
  0
LINE
  5
308
100
AcDbEntity
  8
125049_4
100
AcDbLine
 62
7
  6
CONTINUOUS
 10
417.9436484644
 20
193.7455335311
 11
367.9436661349
 21
193.7455335311
  0
LINE
  5
309
100
AcDbEntity
  8
196034_4
100
AcDbLine
 62
7
  6
CONTINUOUS
 10
417.4434637689
 20
193.9455335311
 11
368.4438685009
 21
193.9455335311
  0
LINE
  5
30A
100
AcDbEntity
  8
196035_2
100
AcDbLine
 62
7
  6
CONTINUOUS
 10
370.4436661349
 20
198.2455335311
 11
415.4436661349
 21
198.2455335311
  0
LINE
  5
30B
100
AcDbEntity
  8
103014_9
100
AcDbLine
 62
7
  6
CONTINUOUS
 10
367.9438729497
 20
198.7455335311
 11
417.9434593201
 21
198.7455335311
  0
LINE
  5
30C
100
AcDbEntity
  8
103014_9
100
AcDbLine
 62
7
  6
CONTINUOUS
 10
368.4438688465
 20
203.7455335311
 11
417.4434634233
 21
203.7455335311
  0
LINE
  5
30D
100
AcDbEntity
  8
199009_7
100
AcDbLine
 62
7
  6
CONTINUOUS
 10
389.5936952577
 20
235.2455335311
 11
396.2936370121
 21
235.2455335311
  0
LINE
  5
30E
100
AcDbEntity
  8
123007_8
100
AcDbLine
 62
7
  6
CONTINUOUS
 10
376.9491610776
 20
194.2296575353
 11
377.4410836932
 21
193.9455335311
  0
LINE
  5
30F
100
AcDbEntity
  8
123007_8
100
AcDbLine
 62
7
  6
CONTINUOUS
 10
376.9489036461
 20
195.7294564494
 11
377.7356169391
 21
195.2750892228
  0
LINE
  5
310
100
AcDbEntity
  8
123007_8
100
AcDbLine
 62
7
  6
CONTINUOUS
 10
377.7356169391
 20
195.2750892228
 11
377.799058359
 21
195.2384478369
  0
LINE
  5
311
100
AcDbEntity
  8
123007_8
100
AcDbLine
 62
7
  6
CONTINUOUS
 10
376.9489596237
 20
197.2298937919
 11
377.7364366315
 21
196.7750606548
  0
LINE
  5
312
100
AcDbEntity
  8
123007_8
100
AcDbLine
 62
7
  6
CONTINUOUS
 10
377.7364366315
 20
196.7750606548
 11
377.7998895033
 21
196.7384106441
  0
LINE
  5
313
100
AcDbEntity
  8
123007_8
100
AcDbLine
 62
7
  6
CONTINUOUS
 10
377.7874721434
 20
198.2455335311
 11
377.7997370787
 21
198.2384494469
  0
LINE
  5
314
100
AcDbEntity
  8
125049_4
100
AcDbLine
 62
7
  6
CONTINUOUS
 10
381.6724089286
 20
181.8198832364
 11
370.9316347904
 21
188.745399781
  0
LINE
  5
315
100
AcDbEntity
  8
128021_7
100
AcDbLine
 62
7
  6
CONTINUOUS
 10
374.0436661349
 20
172.8455335311
 11
369.1436661349
 21
177.1455335311
  0
LINE
  5
316
100
AcDbEntity
  8
103058_13
100
AcDbLine
 62
7
  6
CONTINUOUS
 10
161.4436661349
 20
457.6455335311
 11
160.9436661349
 21
458.6455335311
  0
LINE
  5
317
100
AcDbEntity
  8
123007_8
100
AcDbLine
 62
7
  6
CONTINUOUS
 10
408.1867331407
 20
193.9455335311
 11
408.0876103216
 21
194.0027855597
  0
LINE
  5
318
100
AcDbEntity
  8
123007_8
100
AcDbLine
 62
7
  6
CONTINUOUS
 10
408.9384397254
 20
195.0111886976
 11
408.8649343735
 21
195.0536430237
  0
LINE
  5
319
100
AcDbEntity
  8
123007_8
100
AcDbLine
 62
7
  6
CONTINUOUS
 10
408.8649343735
 20
195.0536430237
 11
408.1599924174
 21
195.4608018273
  0
LINE
  5
31A
100
AcDbEntity
  8
123007_8
100
AcDbLine
 62
7
  6
CONTINUOUS
 10
408.1599924174
 20
195.4608018273
 11
408.0875951911
 21
195.5026176153
  0
LINE
  5
31B
100
AcDbEntity
  8
123007_8
100
AcDbLine
 62
7
  6
CONTINUOUS
 10
408.9383727319
 20
196.5111744516
 11
408.8647894328
 21
196.5536742177
  0
LINE
  5
31C
100
AcDbEntity
  8
123007_8
100
AcDbLine
 62
7
  6
CONTINUOUS
 10
408.8647894328
 20
196.5536742177
 11
408.159846235
 21
196.9608377718
  0
LINE
  5
31D
100
AcDbEntity
  8
123007_8
100
AcDbLine
 62
7
  6
CONTINUOUS
 10
408.159846235
 20
196.9608377718
 11
408.0874448861
 21
197.002656356
  0
LINE
  5
31E
100
AcDbEntity
  8
123007_8
100
AcDbLine
 62
7
  6
CONTINUOUS
 10
408.9384286238
 20
198.0116106129
 11
408.5333998499
 21
198.2455335311
  0
LINE
  5
31F
100
AcDbEntity
  8
123007_8
100
AcDbLine
 62
7
  6
CONTINUOUS
 10
376.943666135
 20
194.2355328064
 11
376.9491609286
 21
194.2292765891
  0
LINE
  5
320
100
AcDbEntity
  8
123007_8
100
AcDbLine
 62
7
  6
CONTINUOUS
 10
376.9436661449
 20
197.2355420123
 11
376.9489594313
 21
197.2293925328
  0
LINE
  5
321
100
AcDbEntity
  8
123007_8
100
AcDbLine
 62
7
  6
CONTINUOUS
 10
376.9436661349
 20
195.7355335423
 11
376.948903634
 21
195.7294249369
  0
LINE
  5
322
100
AcDbEntity
  8
123026_AF0_14
100
AcDbLine
 62
7
  6
CONTINUOUS
 10
415.4436419035
 20
299.7455335311
 11
397.9436661349
 21
299.7455335311
  0
LINE
  5
323
100
AcDbEntity
  8
123026_AF0_14
100
AcDbLine
 62
7
  6
CONTINUOUS
 10
387.9436661349
 20
299.7455335311
 11
370.4436903663
 21
299.7455335311
  0
LINE
  5
324
100
AcDbEntity
  8
103062-1_AF0_1
100
AcDbLine
 62
7
  6
CONTINUOUS
 10
370.4436661349
 20
299.7455335311
 11
387.9436661349
 21
299.7455335311
  0
LINE
  5
325
100
AcDbEntity
  8
103062-1_AF0_1
100
AcDbLine
 62
7
  6
CONTINUOUS
 10
397.9436661349
 20
299.7455335311
 11
415.4436661349
 21
299.7455335311
  0
LINE
  5
326
100
AcDbEntity
  8
103062-1_AF0_1
100
AcDbLine
 62
7
  6
CONTINUOUS
 10
415.4436661349
 20
302.7455335311
 11
397.9436661349
 21
302.7455335311
  0
LINE
  5
327
100
AcDbEntity
  8
103062-1_AF0_1
100
AcDbLine
 62
7
  6
CONTINUOUS
 10
387.9436661349
 20
302.7455335311
 11
370.4436661349
 21
302.7455335311
  0
LINE
  5
328
100
AcDbEntity
  8
133056_12
100
AcDbLine
 62
7
  6
CONTINUOUS
 10
380.9436661349
 20
302.8455335311
 11
387.9436661349
 21
302.8455335311
  0
LINE
  5
329
100
AcDbEntity
  8
133056_12
100
AcDbLine
 62
7
  6
CONTINUOUS
 10
397.9436661349
 20
302.8455335311
 11
404.9436661349
 21
302.8455335311
  0
LINE
  5
32A
100
AcDbEntity
  8
123007_8
100
AcDbLine
 62
7
  6
CONTINUOUS
 10
408.9436661342
 20
196.5055312506
 11
408.9383729238
 21
196.5116744747
  0
LINE
  5
32B
100
AcDbEntity
  8
123007_8
100
AcDbLine
 62
7
  6
CONTINUOUS
 10
408.9436661349
 20
198.0055335193
 11
408.9384286358
 21
198.0116421317
  0
LINE
  5
32C
100
AcDbEntity
  8
123007_8
100
AcDbLine
 62
7
  6
CONTINUOUS
 10
408.9436661349
 20
195.0055339308
 11
408.9384398958
 21
195.0116356912
  0
LINE
  5
32D
100
AcDbEntity
  8
125049_4
100
AcDbLine
 62
7
  6
CONTINUOUS
 10
367.4436661349
 20
193.2455335311
 11
367.4436661349
 21
181.7455335311
  0
LINE
  5
32E
100
AcDbEntity
  8
123005_4
100
AcDbLine
 62
7
  6
CONTINUOUS
 10
367.9436661349
 20
180.6455335311
 11
367.9436661349
 21
181.7455335311
  0
LINE
  5
32F
100
AcDbEntity
  8
103014_9
100
AcDbLine
 62
7
  6
CONTINUOUS
 10
367.9436661349
 20
198.7455335311
 11
367.9436661349
 21
203.2455335311
  0
LINE
  5
330
100
AcDbEntity
  8
196034_4
100
AcDbLine
 62
7
  6
CONTINUOUS
 10
368.4436661349
 20
193.9455335311
 11
368.4436661349
 21
193.7455335311
  0
LINE
  5
331
100
AcDbEntity
  8
128021_7
100
AcDbLine
 62
7
  6
CONTINUOUS
 10
369.1436661349
 20
177.1455335311
 11
369.1436661349
 21
180.6455335311
  0
LINE
  5
332
100
AcDbEntity
  8
103022_8
100
AcDbLine
 62
7
  6
CONTINUOUS
 10
397.443504278
 20
343.2455335311
 11
388.4438279918
 21
343.2455335311
  0
LINE
  5
333
100
AcDbEntity
  8
123026_AF0_14
100
AcDbLine
 62
7
  6
CONTINUOUS
 10
370.4436661349
 20
203.7455335311
 11
370.4436661349
 21
299.7455335311
  0
LINE
  5
334
100
AcDbEntity
  8
103062-1_AF0_1
100
AcDbLine
 62
7
  6
CONTINUOUS
 10
370.4436661349
 20
299.7455335311
 11
370.4436661349
 21
302.7455335311
  0
LINE
  5
335
100
AcDbEntity
  8
128021_7
100
AcDbLine
 62
7
  6
CONTINUOUS
 10
370.6117068876
 20
158.3455335311
 11
370.6117068876
 21
131.9455335311
  0
LINE
  5
336
100
AcDbEntity
  8
MANIFOLD_SOLID_BREP_179958
100
AcDbLine
 62
7
  6
CONTINUOUS
 10
373.6936661349
 20
15.9455335311
 11
373.6936661349
 21
28.2455335311
  0
LINE
  5
337
100
AcDbEntity
  8
128021_7
100
AcDbLine
 62
7
  6
CONTINUOUS
 10
374.0436661349
 20
158.8455335311
 11
374.0436661349
 21
172.8455335311
  0
LINE
  5
338
100
AcDbEntity
  8
128021_7
100
AcDbLine
 62
7
  6
CONTINUOUS
 10
374.5162409214
 20
132.1455335311
 11
374.5162409214
 21
158.3455335311
  0
LINE
  5
339
100
AcDbEntity
  8
123007_8
100
AcDbLine
 62
7
  6
CONTINUOUS
 10
376.9436661349
 20
194.2355334156
 11
376.9436661349
 21
194.2555335489
  0
LINE
  5
33A
100
AcDbEntity
  8
123007_8
100
AcDbLine
 62
7
  6
CONTINUOUS
 10
376.9436661349
 20
195.7355335436
 11
376.9436661349
 21
195.7555335644
  0
LINE
  5
33B
100
AcDbEntity
  8
123007_8
100
AcDbLine
 62
7
  6
CONTINUOUS
 10
376.9436661349
 20
197.2355335636
 11
376.9436661349
 21
197.2555334748
  0
LINE
  5
33C
100
AcDbEntity
  8
123007_8
100
AcDbLine
 62
7
  6
CONTINUOUS
 10
377.7934676032
 20
195.2449004246
 11
377.7934676032
 21
194.7461666376
  0
LINE
  5
33D
100
AcDbEntity
  8
123007_8
100
AcDbLine
 62
7
  6
CONTINUOUS
 10
377.7940724146
 20
198.2449909529
 11
377.7940724146
 21
197.7462571659
  0
LINE
  5
33E
100
AcDbEntity
  8
123007_8
100
AcDbLine
 62
7
  6
CONTINUOUS
 10
377.7942180437
 20
196.7449609391
 11
377.7942180437
 21
196.2462271521
  0
LINE
  5
33F
100
AcDbEntity
  8
MANIFOLD_SOLID_BREP_179958
100
AcDbLine
 62
7
  6
CONTINUOUS
 10
378.1436661349
 20
29.2455335311
 11
378.1436661349
 21
31.7455335311
  0
LINE
  5
340
100
AcDbEntity
  8
MANIFOLD_SOLID_BREP_179958
100
AcDbLine
 62
7
  6
CONTINUOUS
 10
378.6436661349
 20
40.9455335311
 11
378.6436661349
 21
45.7455335311
  0
LINE
  5
341
100
AcDbEntity
  8
MANIFOLD_SOLID_BREP_179958
100
AcDbLine
 62
7
  6
CONTINUOUS
 10
378.9436661349
 20
45.7455335311
 11
378.9436661349
 21
131.6455335311
  0
LINE
  5
342
100
AcDbEntity
  8
MANIFOLD_SOLID_BREP_179958
100
AcDbLine
 62
7
  6
CONTINUOUS
 10
379.6436661349
 20
33.6820252042
 11
379.6436661349
 21
39.2134827236
  0
LINE
  5
343
100
AcDbEntity
  8
128021_7
100
AcDbLine
 62
7
  6
CONTINUOUS
 10
380.0926468322
 20
158.3455335311
 11
380.0926468322
 21
132.1455335311
  0
LINE
  5
344
100
AcDbEntity
  8
133056_12
100
AcDbLine
 62
7
  6
CONTINUOUS
 10
380.9436661349
 20
485.8455335311
 11
380.9436661349
 21
302.8455335311
  0
LINE
  5
345
100
AcDbEntity
  8
195024_3
100
AcDbLine
 62
7
  6
CONTINUOUS
 10
381.9436661349
 20
302.7455335311
 11
381.9436661349
 21
302.8455335311
  0
LINE
  5
346
100
AcDbEntity
  8
MANIFOLD_SOLID_BREP_179958
100
AcDbLine
 62
7
  6
CONTINUOUS
 10
384.9436661349
 20
26.5051524744
 11
384.9436661349
 21
17.6859145879
  0
LINE
  5
347
100
AcDbEntity
  8
125049_4
100
AcDbLine
 62
7
  6
CONTINUOUS
 10
385.1504603727
 20
182.2602738191
 11
385.1504603727
 21
188.7455335311
  0
LINE
  5
348
100
AcDbEntity
  8
128021_7
100
AcDbLine
 62
7
  6
CONTINUOUS
 10
387.367260224
 20
132.1455335311
 11
387.367260224
 21
158.3455335311
  0
LINE
  5
349
100
AcDbEntity
  8
103022_8
100
AcDbLine
 62
7
  6
CONTINUOUS
 10
387.9436661349
 20
279.6829444996
 11
387.9436661349
 21
342.7455335311
  0
LINE
  5
34A
100
AcDbEntity
  8
199009_7
100
AcDbLine
 62
7
  6
CONTINUOUS
 10
389.5936661349
 20
235.5044542992
 11
389.5936661349
 21
235.2455335311
  0
LINE
  5
34B
100
AcDbEntity
  8
MANIFOLD_SOLID_BREP_179958
100
AcDbLine
 62
7
  6
CONTINUOUS
 10
390.2436661349
 20
33.6820252042
 11
390.2436661349
 21
39.2134827236
  0
LINE
  5
34C
100
AcDbEntity
  8
MANIFOLD_SOLID_BREP_179958
100
AcDbLine
 62
7
  6
CONTINUOUS
 10
390.9436661349
 20
45.7455335311
 11
390.9436661349
 21
131.6455335311
  0
LINE
  5
34D
100
AcDbEntity
  8
MANIFOLD_SOLID_BREP_179958
100
AcDbLine
 62
7
  6
CONTINUOUS
 10
391.2436661349
 20
40.9455335311
 11
391.2436661349
 21
45.7455335311
  0
LINE
  5
34E
100
AcDbEntity
  8
MANIFOLD_SOLID_BREP_179958
100
AcDbLine
 62
7
  6
CONTINUOUS
 10
391.7436661349
 20
29.2455335311
 11
391.7436661349
 21
31.7455335311
  0
LINE
  5
34F
100
AcDbEntity
  8
MANIFOLD_SOLID_BREP_179958
100
AcDbLine
 62
7
  6
CONTINUOUS
 10
394.1436661349
 20
29.2455335311
 11
394.1436661349
 21
31.7455335311
  0
LINE
  5
350
100
AcDbEntity
  8
MANIFOLD_SOLID_BREP_179958
100
AcDbLine
 62
7
  6
CONTINUOUS
 10
394.6436661349
 20
40.9455335311
 11
394.6436661349
 21
45.7455335311
  0
LINE
  5
351
100
AcDbEntity
  8
MANIFOLD_SOLID_BREP_179958
100
AcDbLine
 62
7
  6
CONTINUOUS
 10
394.9436661349
 20
45.7455335311
 11
394.9436661349
 21
131.6455335311
  0
LINE
  5
352
100
AcDbEntity
  8
MANIFOLD_SOLID_BREP_179958
100
AcDbLine
 62
7
  6
CONTINUOUS
 10
395.6436661349
 20
33.6820252042
 11
395.6436661349
 21
39.2134827236
  0
LINE
  5
353
100
AcDbEntity
  8
199009_7
100
AcDbLine
 62
7
  6
CONTINUOUS
 10
396.2936661349
 20
235.5020683773
 11
396.2936661349
 21
235.2455335311
  0
LINE
  5
354
100
AcDbEntity
  8
103022_8
100
AcDbLine
 62
7
  6
CONTINUOUS
 10
397.9436661349
 20
279.6829444996
 11
397.9436661349
 21
342.7455335311
  0
LINE
  5
355
100
AcDbEntity
  8
128021_7
100
AcDbLine
 62
7
  6
CONTINUOUS
 10
398.5200720458
 20
158.3455335311
 11
398.5200720458
 21
132.1455335311
  0
LINE
  5
356
100
AcDbEntity
  8
MANIFOLD_SOLID_BREP_179958
100
AcDbLine
 62
7
  6
CONTINUOUS
 10
400.9436661349
 20
26.5051524744
 11
400.9436661349
 21
17.6859145879
  0
LINE
  5
357
100
AcDbEntity
  8
195024_3
100
AcDbLine
 62
7
  6
CONTINUOUS
 10
403.9436661349
 20
302.7455335311
 11
403.9436661349
 21
302.8455335311
  0
LINE
  5
358
100
AcDbEntity
  8
133056_12
100
AcDbLine
 62
7
  6
CONTINUOUS
 10
404.9436661349
 20
485.8455335311
 11
404.9436661349
 21
302.8455335311
  0
LINE
  5
359
100
AcDbEntity
  8
128021_7
100
AcDbLine
 62
7
  6
CONTINUOUS
 10
405.7946854376
 20
132.1455335311
 11
405.7946854376
 21
158.3455335311
  0
LINE
  5
35A
100
AcDbEntity
  8
MANIFOLD_SOLID_BREP_179958
100
AcDbLine
 62
7
  6
CONTINUOUS
 10
406.2436661349
 20
33.6820252042
 11
406.2436661349
 21
39.2134827236
  0
LINE
  5
35B
100
AcDbEntity
  8
MANIFOLD_SOLID_BREP_179958
100
AcDbLine
 62
7
  6
CONTINUOUS
 10
406.9436661349
 20
45.7455335311
 11
406.9436661349
 21
131.6455335311
  0
LINE
  5
35C
100
AcDbEntity
  8
MANIFOLD_SOLID_BREP_179958
100
AcDbLine
 62
7
  6
CONTINUOUS
 10
407.2436661349
 20
40.9455335311
 11
407.2436661349
 21
45.7455335311
  0
LINE
  5
35D
100
AcDbEntity
  8
MANIFOLD_SOLID_BREP_179958
100
AcDbLine
 62
7
  6
CONTINUOUS
 10
407.7436661349
 20
29.2455335311
 11
407.7436661349
 21
31.7455335311
  0
LINE
  5
35E
100
AcDbEntity
  8
123007_8
100
AcDbLine
 62
7
  6
CONTINUOUS
 10
408.0931162971
 20
196.9961061199
 11
408.0931162971
 21
197.4948399069
  0
LINE
  5
35F
100
AcDbEntity
  8
123007_8
100
AcDbLine
 62
7
  6
CONTINUOUS
 10
408.0932598552
 20
193.9962571659
 11
408.0932598552
 21
194.4949909529
  0
LINE
  5
360
100
AcDbEntity
  8
123007_8
100
AcDbLine
 62
7
  6
CONTINUOUS
 10
408.0932598552
 20
195.4960761094
 11
408.0932598552
 21
195.9948098964
  0
LINE
  5
361
100
AcDbEntity
  8
123007_8
100
AcDbLine
 62
7
  6
CONTINUOUS
 10
376.943666135
 20
197.2555326212
 11
376.9491911962
 21
197.2618075331
  0
LINE
  5
362
100
AcDbEntity
  8
123007_8
100
AcDbLine
 62
7
  6
CONTINUOUS
 10
377.7997219482
 20
197.7527855597
 11
376.9491913017
 21
197.2615383856
  0
LINE
  5
363
100
AcDbEntity
  8
123007_8
100
AcDbLine
 62
7
  6
CONTINUOUS
 10
377.7998803859
 20
196.252769546
 11
376.9491612059
 21
195.7614083652
  0
LINE
  5
364
100
AcDbEntity
  8
123007_8
100
AcDbLine
 62
7
  6
CONTINUOUS
 10
377.799058359
 20
194.7526192254
 11
376.948903646
 21
194.2616106129
  0
LINE
  5
365
100
AcDbEntity
  8
123007_8
100
AcDbLine
 62
7
  6
CONTINUOUS
 10
408.9436661349
 20
194.9855334338
 11
408.9436661349
 21
195.0055336768
  0
LINE
  5
366
100
AcDbEntity
  8
123007_8
100
AcDbLine
 62
7
  6
CONTINUOUS
 10
408.9436661349
 20
196.4855335882
 11
408.9436661349
 21
196.5055334819
  0
LINE
  5
367
100
AcDbEntity
  8
123007_8
100
AcDbLine
 62
7
  6
CONTINUOUS
 10
408.9436661349
 20
197.9855334579
 11
408.9436661349
 21
198.0055335206
  0
LINE
  5
368
100
AcDbEntity
  8
128021_7
100
AcDbLine
 62
7
  6
CONTINUOUS
 10
411.3710913484
 20
158.3455335311
 11
411.3710913484
 21
132.1455335311
  0
LINE
  5
369
100
AcDbEntity
  8
128021_7
100
AcDbLine
 62
7
  6
CONTINUOUS
 10
411.8436661349
 20
158.8455335311
 11
411.8436661349
 21
172.8455335311
  0
LINE
  5
36A
100
AcDbEntity
  8
MANIFOLD_SOLID_BREP_179958
100
AcDbLine
 62
7
  6
CONTINUOUS
 10
412.1936661349
 20
15.9455335311
 11
412.1936661349
 21
28.2455335311
  0
LINE
  5
36B
100
AcDbEntity
  8
128021_7
100
AcDbLine
 62
7
  6
CONTINUOUS
 10
415.2756253822
 20
158.3455335311
 11
415.2756253822
 21
132.1455335311
  0
LINE
  5
36C
100
AcDbEntity
  8
123026_AF0_14
100
AcDbLine
 62
7
  6
CONTINUOUS
 10
415.4436661349
 20
203.7455335311
 11
415.4436661349
 21
292.9955335311
  0
LINE
  5
36D
100
AcDbEntity
  8
123026_AF0_14
100
AcDbLine
 62
7
  6
CONTINUOUS
 10
415.4436661349
 20
297.4955335311
 11
415.4436661349
 21
299.7455335311
  0
LINE
  5
36E
100
AcDbEntity
  8
103062-1_AF0_1
100
AcDbLine
 62
7
  6
CONTINUOUS
 10
415.4436661349
 20
299.7455335311
 11
415.4436661349
 21
302.7455335311
  0
LINE
  5
36F
100
AcDbEntity
  8
128021_7
100
AcDbLine
 62
7
  6
CONTINUOUS
 10
416.7436661349
 20
177.1455335311
 11
416.7436661349
 21
180.6455335311
  0
LINE
  5
370
100
AcDbEntity
  8
196034_4
100
AcDbLine
 62
7
  6
CONTINUOUS
 10
417.4436661349
 20
193.9455335311
 11
417.4436661349
 21
193.7455335311
  0
LINE
  5
371
100
AcDbEntity
  8
123005_4
100
AcDbLine
 62
7
  6
CONTINUOUS
 10
417.9436661349
 20
180.6455335311
 11
417.9436661349
 21
181.7455335311
  0
LINE
  5
372
100
AcDbEntity
  8
103014_9
100
AcDbLine
 62
7
  6
CONTINUOUS
 10
417.9436661349
 20
198.7455335311
 11
417.9436661349
 21
203.2455335311
  0
LINE
  5
373
100
AcDbEntity
  8
125049_4
100
AcDbLine
 62
7
  6
CONTINUOUS
 10
418.4436661349
 20
193.2455335311
 11
418.4436661349
 21
181.7455335311
  0
LINE
  5
374
100
AcDbEntity
  8
123007_8
100
AcDbLine
 62
7
  6
CONTINUOUS
 10
376.9436661349
 20
194.2555335427
 11
376.948903634
 21
194.261642155
  0
LINE
  5
375
100
AcDbEntity
  8
123007_8
100
AcDbLine
 62
7
  6
CONTINUOUS
 10
376.9436661451
 20
195.7555421024
 11
376.9491610564
 21
195.7617904772
  0
LINE
  5
376
100
AcDbEntity
  8
123007_8
100
AcDbLine
 62
7
  6
CONTINUOUS
 10
408.0874540169
 20
197.4882975837
 11
408.9381711923
 21
197.9796575376
  0
LINE
  5
377
100
AcDbEntity
  8
123007_8
100
AcDbLine
 62
7
  6
CONTINUOUS
 10
408.0876103217
 20
195.9882815025
 11
408.9381409681
 21
196.4795286766
  0
LINE
  5
378
100
AcDbEntity
  8
123007_8
100
AcDbLine
 62
7
  6
CONTINUOUS
 10
408.0875951911
 20
194.4884494469
 11
408.9384397254
 21
194.9798783647
  0
LINE
  5
379
100
AcDbEntity
  8
123007_8
100
AcDbLine
 62
7
  6
CONTINUOUS
 10
408.9436661349
 20
194.985533314
 11
408.9384398958
 21
194.979431408
  0
LINE
  5
37A
100
AcDbEntity
  8
123007_8
100
AcDbLine
 62
7
  6
CONTINUOUS
 10
408.9436661345
 20
197.9855316956
 11
408.9381713412
 21
197.9792766303
  0
LINE
  5
37B
100
AcDbEntity
  8
123007_8
100
AcDbLine
 62
7
  6
CONTINUOUS
 10
408.9436661348
 20
196.4855345399
 11
408.9381410736
 21
196.4792595305
  0
LINE
  5
37C
100
AcDbEntity
  8
128021_7
100
AcDbLine
 62
7
  6
CONTINUOUS
 10
411.8436661349
 20
172.8455335311
 11
416.7436661349
 21
177.1455335311
  0
LINE
  5
37D
100
AcDbEntity
  8
MANIFOLD_SOLID_BREP_139991
100
AcDbLine
 62
7
  6
CONTINUOUS
 10
163.9436711052
 20
457.4455335311
 11
181.9436661349
 21
457.4455335311
  0
LINE
  5
37E
100
AcDbEntity
  8
103058_13
100
AcDbLine
 62
7
  6
CONTINUOUS
 10
161.4436661349
 20
457.6455335311
 11
184.4436661349
 21
457.6455335311
  0
LINE
  5
37F
100
AcDbEntity
  8
103058_13
100
AcDbLine
 62
7
  6
CONTINUOUS
 10
160.9436661349
 20
458.6455335311
 11
184.9436661349
 21
458.6455335311
  0
LINE
  5
380
100
AcDbEntity
  8
103058_13
100
AcDbLine
 62
7
  6
CONTINUOUS
 10
184.9435631958
 20
476.1455335311
 11
160.943769074
 21
476.1455335311
  0
LINE
  5
381
100
AcDbEntity
  8
133056_12
100
AcDbLine
 62
7
  6
CONTINUOUS
 10
160.9436661349
 20
476.1455335311
 11
184.9436661349
 21
476.1455335311
  0
LINE
  5
382
100
AcDbEntity
  8
133056_12
100
AcDbLine
 62
7
  6
CONTINUOUS
 10
352.9436661349
 20
513.8455335311
 11
212.9436661349
 21
513.8455335311
  0
LINE
  5
383
100
AcDbEntity
  8
133056_12
100
AcDbLine
 62
7
  6
CONTINUOUS
 10
352.9436661349
 20
537.8455335311
 11
212.9436661349
 21
537.8455335311
  0
ARC
  5
384
100
AcDbEntity
  8
103014_9
100
AcDbCircle
 62
7
  6
CONTINUOUS
 10
554.0297493738
 20
203.2455335311
 40
0.5
100
AcDbArc
 50
90.0
 51
180.0
  0
ARC
  5
385
100
AcDbEntity
  8
125049_4
100
AcDbCircle
 62
7
  6
CONTINUOUS
 10
524.0297493738
 20
189.2455335311
 40
0.5
100
AcDbArc
 50
180.0
 51
270.0
  0
ARC
  5
386
100
AcDbEntity
  8
125049_4
100
AcDbCircle
 62
7
  6
CONTINUOUS
 10
524.0297493738
 20
193.2455335311
 40
0.5
100
AcDbArc
 50
90.0
 51
180.0
  0
ARC
  5
387
100
AcDbEntity
  8
MANIFOLD_SOLID_BREP_179958
100
AcDbCircle
 62
7
  6
CONTINUOUS
 10
583.8297493738
 20
40.9455335311
 40
1.0
100
AcDbArc
 50
300.0000000001
 51
360.0
  0
ARC
  5
388
100
AcDbEntity
  8
MANIFOLD_SOLID_BREP_179958
100
AcDbCircle
 62
7
  6
CONTINUOUS
 10
573.2297493738
 20
40.9455335311
 40
1.0
100
AcDbArc
 50
180.0
 51
239.9999999999
  0
ARC
  5
389
100
AcDbEntity
  8
MANIFOLD_SOLID_BREP_179958
100
AcDbCircle
 62
7
  6
CONTINUOUS
 10
584.8297493738
 20
39.2134827236
 40
1.0
100
AcDbArc
 50
119.9999999998
 51
180.0
  0
ARC
  5
38A
100
AcDbEntity
  8
MANIFOLD_SOLID_BREP_179958
100
AcDbCircle
 62
7
  6
CONTINUOUS
 10
584.8297493738
 20
33.6820252042
 40
1.0
100
AcDbArc
 50
180.0
 51
255.522487814
  0
ARC
  5
38B
100
AcDbEntity
  8
MANIFOLD_SOLID_BREP_179958
100
AcDbCircle
 62
7
  6
CONTINUOUS
 10
572.7297493738
 20
31.7455335311
 40
1.0
100
AcDbArc
 50
104.477512186
 51
180.0
  0
ARC
  5
38C
100
AcDbEntity
  8
MANIFOLD_SOLID_BREP_179958
100
AcDbCircle
 62
7
  6
CONTINUOUS
 10
584.3297493738
 20
31.7455335311
 40
1.0
100
AcDbArc
 50
0.0
 51
75.522487814
  0
ARC
  5
38D
100
AcDbEntity
  8
MANIFOLD_SOLID_BREP_179958
100
AcDbCircle
 62
7
  6
CONTINUOUS
 10
572.2297493738
 20
33.6820252042
 40
1.0
100
AcDbArc
 50
284.477512186
 51
360.0
  0
ARC
  5
38E
100
AcDbEntity
  8
MANIFOLD_SOLID_BREP_179958
100
AcDbCircle
 62
7
  6
CONTINUOUS
 10
572.2297493738
 20
39.2134827236
 40
1.0
100
AcDbArc
 50
0.0
 51
60.0000000002
  0
ARC
  5
38F
100
AcDbEntity
  8
MANIFOLD_SOLID_BREP_179958
100
AcDbCircle
 62
7
  6
CONTINUOUS
 10
572.7297493738
 20
29.2455335311
 40
1.0
100
AcDbArc
 50
180.0
 51
270.0
  0
ARC
  5
390
100
AcDbEntity
  8
MANIFOLD_SOLID_BREP_179958
100
AcDbCircle
 62
7
  6
CONTINUOUS
 10
584.3297493738
 20
29.2455335311
 40
1.0
100
AcDbArc
 50
270.0
 51
360.0
  0
ARC
  5
391
100
AcDbEntity
  8
196035_2
100
AcDbCircle
 62
7
  6
CONTINUOUS
 10
556.0297493738
 20
199.7455335311
 40
1.5
100
AcDbArc
 50
221.915961434
 51
270.0
  0
ARC
  5
392
100
AcDbEntity
  8
128021_7
100
AcDbCircle
 62
7
  6
CONTINUOUS
 10
559.2877815608
 20
158.3455335311
 40
0.5
100
AcDbArc
 50
90.0
 51
180.0
  0
ARC
  5
393
100
AcDbEntity
  8
128021_7
100
AcDbCircle
 62
7
  6
CONTINUOUS
 10
559.0877815608
 20
131.9455335311
 40
0.3
100
AcDbArc
 50
180.0
 51
270.0
  0
ARC
  5
394
100
AcDbEntity
  8
133056_12
100
AcDbCircle
 62
7
  6
CONTINUOUS
 10
578.5297493738
 20
525.8455335311
 40
12.0
100
AcDbArc
 50
0.0
 51
180.0
  0
ARC
  5
395
100
AcDbEntity
  8
MANIFOLD_SOLID_BREP_139991
100
AcDbCircle
 62
7
  6
CONTINUOUS
 10
587.5297493738
 20
457.6455335311
 40
0.2
100
AcDbArc
 50
270.0
 51
360.0
  0
ARC
  5
396
100
AcDbEntity
  8
MANIFOLD_SOLID_BREP_139991
100
AcDbCircle
 62
7
  6
CONTINUOUS
 10
569.5297493738
 20
457.6455335311
 40
0.2
100
AcDbArc
 50
180.0
 51
270.0
  0
ARC
  5
397
100
AcDbEntity
  8
123013_2
100
AcDbCircle
 62
7
  6
CONTINUOUS
 10
620.149358794
 20
241.5567695729
 40
36.7984396009
100
AcDbArc
 50
83.4479539654
 51
84.6563996365
  0
ARC
  5
398
100
AcDbEntity
  8
123013_2
100
AcDbCircle
 62
7
  6
CONTINUOUS
 10
620.2077650023
 20
242.0778964528
 40
36.2740519485
100
AcDbArc
 50
83.1567990152
 51
83.4456813227
  0
ARC
  5
399
100
AcDbEntity
  8
196035_2
100
AcDbCircle
 62
7
  6
CONTINUOUS
 10
601.0297493738
 20
199.7455335311
 40
1.5
100
AcDbArc
 50
270.0
 51
318.084038566
  0
ARC
  5
39A
100
AcDbEntity
  8
123026_AF0_14
100
AcDbCircle
 62
7
  6
CONTINUOUS
 10
602.0297493738
 20
234.7455335311
 40
1.0
100
AcDbArc
 50
89.9993855612
 51
180.0000000055
  0
ARC
  5
39B
100
AcDbEntity
  8
103014_9
100
AcDbCircle
 62
7
  6
CONTINUOUS
 10
603.0297493738
 20
203.2455335311
 40
0.5
100
AcDbArc
 50
0.0
 51
90.0
  0
ARC
  5
39C
100
AcDbEntity
  8
123013_2
100
AcDbCircle
 62
7
  6
CONTINUOUS
 10
623.5297493738
 20
237.7936046761
 40
0.5
100
AcDbArc
 50
180.0
 51
275.3459670633
  0
ARC
  5
39D
100
AcDbEntity
  8
143007_50
100
AcDbCircle
 62
7
  6
CONTINUOUS
 10
651.5297493738
 20
235.7455335311
 40
0.5
100
AcDbArc
 50
270.0
 51
360.0
  0
ARC
  5
39E
100
AcDbEntity
  8
125049_4
100
AcDbCircle
 62
7
  6
CONTINUOUS
 10
633.0297493738
 20
189.2455335311
 40
0.5
100
AcDbArc
 50
270.0
 51
360.0
  0
ARC
  5
39F
100
AcDbEntity
  8
125049_4
100
AcDbCircle
 62
7
  6
CONTINUOUS
 10
633.0297493738
 20
193.2455335311
 40
0.5
100
AcDbArc
 50
0.0
 51
90.0
  0
ARC
  5
3A0
100
AcDbEntity
  8
128021_7
100
AcDbCircle
 62
7
  6
CONTINUOUS
 10
597.7717171869
 20
158.3455335311
 40
0.5
100
AcDbArc
 50
0.0
 51
90.0
  0
ARC
  5
3A1
100
AcDbEntity
  8
128021_7
100
AcDbCircle
 62
7
  6
CONTINUOUS
 10
597.9717171869
 20
131.9455335311
 40
0.3
100
AcDbArc
 50
270.0
 51
360.0
  0
ARC
  5
3A2
100
AcDbEntity
  8
123026_AF0_14
100
AcDbCircle
 62
7
  6
CONTINUOUS
 10
602.0297493738
 20
280.7455335311
 40
1.0
100
AcDbArc
 50
179.9999999948
 51
270.0004083824
  0
ARC
  5
3A3
100
AcDbEntity
  8
123013_2
100
AcDbCircle
 62
7
  6
CONTINUOUS
 10
623.5297493738
 20
277.6974623861
 40
0.5
100
AcDbArc
 50
84.6540329367
 51
180.0
  0
ARC
  5
3A4
100
AcDbEntity
  8
103022_8
100
AcDbCircle
 62
7
  6
CONTINUOUS
 10
647.0297493738
 20
342.7455335311
 40
0.5
100
AcDbArc
 50
0.0
 51
90.0
  0
ARC
  5
3A5
100
AcDbEntity
  8
103022_8
100
AcDbCircle
 62
7
  6
CONTINUOUS
 10
638.0297493738
 20
342.7455335311
 40
0.5
100
AcDbArc
 50
90.0
 51
180.0
  0
ARC
  5
3A6
100
AcDbEntity
  8
143007_50
100
AcDbCircle
 62
7
  6
CONTINUOUS
 10
651.5297493738
 20
279.7455335311
 40
0.5
100
AcDbArc
 50
0.0
 51
90.0
  0
ARC
  5
3A7
100
AcDbEntity
  8
133056_12
100
AcDbCircle
 62
7
  6
CONTINUOUS
 10
212.9436661349
 20
485.8455335311
 40
52.0
100
AcDbArc
 50
90.0
 51
180.0
  0
ARC
  5
3A8
100
AcDbEntity
  8
133056_12
100
AcDbCircle
 62
7
  6
CONTINUOUS
 10
212.9436661349
 20
485.8455335311
 40
28.0
100
AcDbArc
 50
90.0
 51
180.0
  0
ARC
  5
3A9
100
AcDbEntity
  8
MANIFOLD_SOLID_BREP_139991
100
AcDbCircle
 62
7
  6
CONTINUOUS
 10
181.9436661349
 20
457.6455335311
 40
0.2
100
AcDbArc
 50
270.0
 51
360.0
  0
ARC
  5
3AA
100
AcDbEntity
  8
MANIFOLD_SOLID_BREP_139991
100
AcDbCircle
 62
7
  6
CONTINUOUS
 10
163.9436661349
 20
457.6455335311
 40
0.2
100
AcDbArc
 50
180.0
 51
270.0
  0
ARC
  5
3AB
100
AcDbEntity
  8
123007_8
100
AcDbCircle
 62
7
  6
CONTINUOUS
 10
422.3499037699
 20
-1930.3588953496
 40
2126.6927417832
100
AcDbArc
 50
90.7922663052
 51
91.0881179832
  0
ARC
  5
3AC
100
AcDbEntity
  8
MANIFOLD_SOLID_BREP_179958
100
AcDbCircle
 62
7
  6
CONTINUOUS
 10
395.313672596
 20
19.7262160018
 40
8.5193189928
100
AcDbArc
 50
83.9851385254
 51
89.9664164802
  0
ARC
  5
3AD
100
AcDbEntity
  8
MANIFOLD_SOLID_BREP_179958
100
AcDbCircle
 62
7
  6
CONTINUOUS
 10
390.5734029634
 20
24.4640816786
 40
8.5185494645
100
AcDbArc
 50
264.0879972749
 51
269.9681400808
  0
ARC
  5
3AE
100
AcDbEntity
  8
MANIFOLD_SOLID_BREP_179958
100
AcDbCircle
 62
7
  6
CONTINUOUS
 10
395.3182704093
 20
24.3988266136
 40
8.4532930917
100
AcDbArc
 50
270.0026821979
 51
272.5985537123
  0
ARC
  5
3AF
100
AcDbEntity
  8
MANIFOLD_SOLID_BREP_179958
100
AcDbCircle
 62
7
  6
CONTINUOUS
 10
390.5690618556
 20
19.7922405879
 40
8.4532929525
100
AcDbArc
 50
90.0026821652
 51
92.598542867
  0
ARC
  5
3B0
100
AcDbEntity
  8
128021_7
100
AcDbCircle
 62
7
  6
CONTINUOUS
 10
375.0757885368
 20
132.1398165377
 40
5.0168615528
100
AcDbArc
 50
357.7806083705
 51
0.065291749
  0
ARC
  5
3B1
100
AcDbEntity
  8
196035_2
100
AcDbCircle
 62
7
  6
CONTINUOUS
 10
370.4436661349
 20
199.7455335311
 40
1.5
100
AcDbArc
 50
221.915961434
 51
270.0
  0
ARC
  5
3B2
100
AcDbEntity
  8
MANIFOLD_SOLID_BREP_179958
100
AcDbCircle
 62
7
  6
CONTINUOUS
 10
394.6436661349
 20
39.2134827236
 40
1.0
100
AcDbArc
 50
0.0
 51
60.0000000002
  0
ARC
  5
3B3
100
AcDbEntity
  8
MANIFOLD_SOLID_BREP_179958
100
AcDbCircle
 62
7
  6
CONTINUOUS
 10
394.6436661349
 20
33.6820252042
 40
1.0
100
AcDbArc
 50
284.477512186
 51
360.0
  0
ARC
  5
3B4
100
AcDbEntity
  8
MANIFOLD_SOLID_BREP_179958
100
AcDbCircle
 62
7
  6
CONTINUOUS
 10
395.1436661349
 20
31.7455335311
 40
1.0
100
AcDbArc
 50
104.477512186
 51
180.0
  0
ARC
  5
3B5
100
AcDbEntity
  8
MANIFOLD_SOLID_BREP_179958
100
AcDbCircle
 62
7
  6
CONTINUOUS
 10
395.1436661349
 20
29.2455335311
 40
1.0
100
AcDbArc
 50
180.0
 51
258.75
  0
ARC
  5
3B6
100
AcDbEntity
  8
MANIFOLD_SOLID_BREP_179958
100
AcDbCircle
 62
7
  6
CONTINUOUS
 10
378.6436661349
 20
39.2134827236
 40
1.0
100
AcDbArc
 50
0.0
 51
60.0000000002
  0
ARC
  5
3B7
100
AcDbEntity
  8
MANIFOLD_SOLID_BREP_179958
100
AcDbCircle
 62
7
  6
CONTINUOUS
 10
378.6436661349
 20
33.6820252042
 40
1.0
100
AcDbArc
 50
284.477512186
 51
360.0
  0
ARC
  5
3B8
100
AcDbEntity
  8
MANIFOLD_SOLID_BREP_179958
100
AcDbCircle
 62
7
  6
CONTINUOUS
 10
379.1436661349
 20
31.7455335311
 40
1.0
100
AcDbArc
 50
104.477512186
 51
180.0
  0
ARC
  5
3B9
100
AcDbEntity
  8
MANIFOLD_SOLID_BREP_179958
100
AcDbCircle
 62
7
  6
CONTINUOUS
 10
390.7436661349
 20
31.7455335311
 40
1.0
100
AcDbArc
 50
0.0
 51
75.522487814
  0
ARC
  5
3BA
100
AcDbEntity
  8
MANIFOLD_SOLID_BREP_179958
100
AcDbCircle
 62
7
  6
CONTINUOUS
 10
391.2436661349
 20
33.6820252042
 40
1.0
100
AcDbArc
 50
180.0
 51
255.522487814
  0
ARC
  5
3BB
100
AcDbEntity
  8
MANIFOLD_SOLID_BREP_179958
100
AcDbCircle
 62
7
  6
CONTINUOUS
 10
391.2436661349
 20
39.2134827236
 40
1.0
100
AcDbArc
 50
119.9999999998
 51
180.0
  0
ARC
  5
3BC
100
AcDbEntity
  8
MANIFOLD_SOLID_BREP_179958
100
AcDbCircle
 62
7
  6
CONTINUOUS
 10
390.2436661349
 20
40.9455335311
 40
1.0
100
AcDbArc
 50
300.0000000001
 51
360.0
  0
ARC
  5
3BD
100
AcDbEntity
  8
MANIFOLD_SOLID_BREP_179958
100
AcDbCircle
 62
7
  6
CONTINUOUS
 10
379.6436661349
 20
40.9455335311
 40
1.0
100
AcDbArc
 50
180.0
 51
239.9999999999
  0
ARC
  5
3BE
100
AcDbEntity
  8
MANIFOLD_SOLID_BREP_179958
100
AcDbCircle
 62
7
  6
CONTINUOUS
 10
379.1436661349
 20
29.2455335311
 40
1.0
100
AcDbArc
 50
180.0
 51
258.75
  0
ARC
  5
3BF
100
AcDbEntity
  8
MANIFOLD_SOLID_BREP_179958
100
AcDbCircle
 62
7
  6
CONTINUOUS
 10
390.7436661349
 20
29.2455335311
 40
1.0
100
AcDbArc
 50
281.25
 51
360.0
  0
ARC
  5
3C0
100
AcDbEntity
  8
103014_9
100
AcDbCircle
 62
7
  6
CONTINUOUS
 10
368.4436661349
 20
203.2455335311
 40
0.5
100
AcDbArc
 50
90.0
 51
180.0
  0
ARC
  5
3C1
100
AcDbEntity
  8
125049_4
100
AcDbCircle
 62
7
  6
CONTINUOUS
 10
367.9436661349
 20
193.2455335311
 40
0.5
100
AcDbArc
 50
90.0
 51
180.0
  0
ARC
  5
3C2
100
AcDbEntity
  8
125049_4
100
AcDbCircle
 62
7
  6
CONTINUOUS
 10
367.9436661349
 20
189.2455335311
 40
0.5
100
AcDbArc
 50
180.0
 51
270.0
  0
ARC
  5
3C3
100
AcDbEntity
  8
128021_7
100
AcDbCircle
 62
7
  6
CONTINUOUS
 10
371.1117068876
 20
158.3455335311
 40
0.5
100
AcDbArc
 50
90.0
 51
180.0
  0
ARC
  5
3C4
100
AcDbEntity
  8
128021_7
100
AcDbCircle
 62
7
  6
CONTINUOUS
 10
370.9117068876
 20
131.9455335311
 40
0.3
100
AcDbArc
 50
180.0
 51
270.0
  0
ARC
  5
3C5
100
AcDbEntity
  8
133056_12
100
AcDbCircle
 62
7
  6
CONTINUOUS
 10
352.9436661349
 20
485.8455335311
 40
52.0
100
AcDbArc
 50
0.0
 51
90.0
  0
ARC
  5
3C6
100
AcDbEntity
  8
133056_12
100
AcDbCircle
 62
7
  6
CONTINUOUS
 10
352.9436661349
 20
485.8455335311
 40
28.0
100
AcDbArc
 50
0.0
 51
90.0
  0
CIRCLE
  5
3C7
100
AcDbEntity
  8
143007_50
100
AcDbCircle
 62
7
  6
CONTINUOUS
 10
392.9436661349
 20
257.7455335311
 40
22.5
  0
ARC
  5
3C8
100
AcDbEntity
  8
103022_8
100
AcDbCircle
 62
7
  6
CONTINUOUS
 10
388.4436661349
 20
342.7455335311
 40
0.5
100
AcDbArc
 50
90.0
 51
180.0
  0
ARC
  5
3C9
100
AcDbEntity
  8
196035_2
100
AcDbCircle
 62
7
  6
CONTINUOUS
 10
415.4436661349
 20
199.7455335311
 40
1.5
100
AcDbArc
 50
270.0
 51
318.084038566
  0
ARC
  5
3CA
100
AcDbEntity
  8
MANIFOLD_SOLID_BREP_179958
100
AcDbCircle
 62
7
  6
CONTINUOUS
 10
406.7436661349
 20
31.7455335311
 40
1.0
100
AcDbArc
 50
0.0
 51
75.522487814
  0
ARC
  5
3CB
100
AcDbEntity
  8
MANIFOLD_SOLID_BREP_179958
100
AcDbCircle
 62
7
  6
CONTINUOUS
 10
407.2436661349
 20
33.6820252042
 40
1.0
100
AcDbArc
 50
180.0
 51
255.522487814
  0
ARC
  5
3CC
100
AcDbEntity
  8
MANIFOLD_SOLID_BREP_179958
100
AcDbCircle
 62
7
  6
CONTINUOUS
 10
407.2436661349
 20
39.2134827236
 40
1.0
100
AcDbArc
 50
119.9999999998
 51
180.0
  0
ARC
  5
3CD
100
AcDbEntity
  8
MANIFOLD_SOLID_BREP_179958
100
AcDbCircle
 62
7
  6
CONTINUOUS
 10
406.2436661349
 20
40.9455335311
 40
1.0
100
AcDbArc
 50
300.0000000001
 51
360.0
  0
ARC
  5
3CE
100
AcDbEntity
  8
MANIFOLD_SOLID_BREP_179958
100
AcDbCircle
 62
7
  6
CONTINUOUS
 10
395.6436661349
 20
40.9455335311
 40
1.0
100
AcDbArc
 50
180.0
 51
239.9999999999
  0
ARC
  5
3CF
100
AcDbEntity
  8
MANIFOLD_SOLID_BREP_179958
100
AcDbCircle
 62
7
  6
CONTINUOUS
 10
406.7436661349
 20
29.2455335311
 40
1.0
100
AcDbArc
 50
281.25
 51
360.0
  0
ARC
  5
3D0
100
AcDbEntity
  8
103014_9
100
AcDbCircle
 62
7
  6
CONTINUOUS
 10
417.4436661349
 20
203.2455335311
 40
0.5
100
AcDbArc
 50
0.0
 51
90.0
  0
ARC
  5
3D1
100
AcDbEntity
  8
125049_4
100
AcDbCircle
 62
7
  6
CONTINUOUS
 10
417.9436661349
 20
193.2455335311
 40
0.5
100
AcDbArc
 50
0.0
 51
90.0
  0
ARC
  5
3D2
100
AcDbEntity
  8
128021_7
100
AcDbCircle
 62
7
  6
CONTINUOUS
 10
414.7756253822
 20
158.3455335311
 40
0.5
100
AcDbArc
 50
0.0
 51
90.0
  0
ARC
  5
3D3
100
AcDbEntity
  8
128021_7
100
AcDbCircle
 62
7
  6
CONTINUOUS
 10
414.7756253822
 20
132.1455335311
 40
0.5
100
AcDbArc
 50
270.0
 51
360.0
  0
ARC
  5
3D4
100
AcDbEntity
  8
123026_AF0_14
100
AcDbCircle
 62
7
  6
CONTINUOUS
 10
437.8284602328
 20
295.2455344031
 40
22.4975738782
100
AcDbArc
 50
174.3671660623
 51
185.6328964055
  0
ARC
  5
3D5
100
AcDbEntity
  8
103022_8
100
AcDbCircle
 62
7
  6
CONTINUOUS
 10
397.4436661349
 20
342.7455335311
 40
0.5
100
AcDbArc
 50
0.0
 51
90.0
  0
SPLINE
  5
3D6
100
AcDbEntity
  8
123013_2
100
AcDbSpline
 62
7
  6
CONTINUOUS
 70
0
 71
3
 72
14
 73
10
 74
0
 42
0.0000001
 43
0.0000001
 44
0.0000000001
 40
0.0
 40
0.0
 40
0.0
 40
0.0
 40
0.1247972033
 40
0.2500078773
 40
0.3754107843
 40
0.5005784557
 40
0.6255392165
 40
0.7503896472
 40
1.0
 40
1.0
 40
1.0
 40
1.0
 10
632.9473363021
 20
239.6940341072
 30
0.0
 10
632.589657516
 20
239.5049694129
 30
0.0
 10
631.85358065
 20
239.1624969715
 30
0.0
 10
630.7118123098
 20
238.7387119052
 30
0.0
 10
629.5464574319
 20
238.3820879792
 30
0.0
 10
628.3685851221
 20
238.0731894624
 30
0.0
 10
627.181041676
 20
237.8118528714
 30
0.0
 10
625.587608422
 20
237.5235308006
 30
0.0
 10
624.3820126207
 20
237.3711720677
 30
0.0
 10
623.5763340759
 20
237.2957795406
 30
0.0
  0
SPLINE
  5
3D7
100
AcDbEntity
  8
143007_50
100
AcDbSpline
 62
7
  6
CONTINUOUS
 70
0
 71
3
 72
9
 73
5
 74
0
 42
0.0000001
 43
0.0000001
 44
0.0000000001
 40
0.0
 40
0.0
 40
0.0
 40
0.0
 40
0.2959318538
 40
1.0
 40
1.0
 40
1.0
 40
1.0
 10
637.5297493738
 20
280.2455335311
 30
0.0
 10
638.0142653364
 20
280.1373344358
 30
0.0
 10
639.6652037513
 20
279.8216229525
 30
0.0
 10
641.3474416298
 20
279.6829444996
 30
0.0
 10
642.5297493738
 20
279.6829444996
 30
0.0
  0
SPLINE
  5
3D8
100
AcDbEntity
  8
143007_50
100
AcDbSpline
 62
7
  6
CONTINUOUS
 70
0
 71
3
 72
9
 73
5
 74
0
 42
0.0000001
 43
0.0000001
 44
0.0000000001
 40
0.0
 40
0.0
 40
0.0
 40
0.0
 40
0.7040677528
 40
1.0
 40
1.0
 40
1.0
 40
1.0
 10
642.5297493738
 20
279.6829444996
 30
0.0
 10
643.7120564712
 20
279.6829444996
 30
0.0
 10
645.3942944593
 20
279.821622076
 30
0.0
 10
647.0452328172
 20
280.1373339561
 30
0.0
 10
647.5297493738
 20
280.2455335311
 30
0.0
  0
SPLINE
  5
3D9
100
AcDbEntity
  8
125049_4
100
AcDbSpline
 62
7
  6
CONTINUOUS
 70
0
 71
3
 72
10
 73
6
 74
0
 42
0.0000001
 43
0.0000001
 44
0.0000000001
 40
0.0
 40
0.0
 40
0.0
 40
0.0
 40
0.5024372009
 40
0.7521702209
 40
1.0
 40
1.0
 40
1.0
 40
1.0
 10
578.5297493738
 20
189.2455335311
 30
0.0
 10
579.3678737887
 20
189.1281726385
 30
0.0
 10
580.6227798072
 20
188.9514927764
 30
0.0
 10
582.2991954368
 20
188.7855746362
 30
0.0
 10
583.1372445735
 20
188.7455335311
 30
0.0
 10
583.5546871844
 20
188.7455335311
 30
0.0
  0
SPLINE
  5
3DA
100
AcDbEntity
  8
125049_4
100
AcDbSpline
 62
7
  6
CONTINUOUS
 70
0
 71
3
 72
9
 73
5
 74
0
 42
0.0000001
 43
0.0000001
 44
0.0000000001
 40
0.0
 40
0.0
 40
0.0
 40
0.0
 40
0.5514704634
 40
1.0
 40
1.0
 40
1.0
 40
1.0
 10
601.2922856715
 20
182.2602738191
 30
0.0
 10
601.2922856715
 20
182.1783640348
 30
0.0
 10
601.307300224
 20
182.0300296864
 30
0.0
 10
601.3575519891
 20
181.885979909
 30
0.0
 10
601.3953834251
 20
181.8311437373
 30
0.0
  0
SPLINE
  5
3DB
100
AcDbEntity
  8
125049_4
100
AcDbSpline
 62
7
  6
CONTINUOUS
 70
0
 71
3
 72
9
 73
5
 74
0
 42
0.0000001
 43
0.0000001
 44
0.0000000001
 40
0.0
 40
0.0
 40
0.0
 40
0.0
 40
0.2850083387
 40
1.0
 40
1.0
 40
1.0
 40
1.0
 10
601.3953834251
 20
181.8311437373
 30
0.0
 10
601.4009303573
 20
181.8231035316
 30
0.0
 10
601.4215543501
 20
181.795879985
 30
0.0
 10
601.4486232599
 20
181.7723499663
 30
0.0
 10
601.4710864587
 20
181.7625580705
 30
0.0
  0
SPLINE
  5
3DC
100
AcDbEntity
  8
125049_4
100
AcDbSpline
 62
7
  6
CONTINUOUS
 70
0
 71
3
 72
8
 73
4
 74
0
 42
0.0000001
 43
0.0000001
 44
0.0000000001
 40
0.0
 40
0.0
 40
0.0
 40
0.0
 40
1.0
 40
1.0
 40
1.0
 40
1.0
 10
601.4710864587
 20
181.7625580705
 30
0.0
 10
601.484397095
 20
181.756755853
 30
0.0
 10
601.4992754427
 20
181.7534648897
 30
0.0
 10
601.5137877253
 20
181.7539469884
 30
0.0
  0
SPLINE
  5
3DD
100
AcDbEntity
  8
125049_4
100
AcDbSpline
 62
7
  6
CONTINUOUS
 70
0
 71
3
 72
9
 73
5
 74
0
 42
0.0000001
 43
0.0000001
 44
0.0000000001
 40
0.0
 40
0.0
 40
0.0
 40
0.0
 40
0.2129229957
 40
1.0
 40
1.0
 40
1.0
 40
1.0
 10
555.5457110223
 20
181.7539469884
 30
0.0
 10
555.5563385856
 20
181.7535939402
 30
0.0
 10
555.6068838667
 20
181.7613170825
 30
0.0
 10
555.6449927095
 20
181.8024584844
 30
0.0
 10
555.6668292727
 20
181.8351416649
 30
0.0
  0
SPLINE
  5
3DE
100
AcDbEntity
  8
125049_4
100
AcDbSpline
 62
7
  6
CONTINUOUS
 70
0
 71
3
 72
9
 73
5
 74
0
 42
0.0000001
 43
0.0000001
 44
0.0000000001
 40
0.0
 40
0.0
 40
0.0
 40
0.0
 40
0.4500677584
 40
1.0
 40
1.0
 40
1.0
 40
1.0
 10
555.6668292727
 20
181.8351416649
 30
0.0
 10
555.7035714705
 20
181.8901343789
 30
0.0
 10
555.7525406137
 20
182.0326528757
 30
0.0
 10
555.7672130761
 20
182.1794610502
 30
0.0
 10
555.7672130761
 20
182.2602738191
 30
0.0
  0
SPLINE
  5
3DF
100
AcDbEntity
  8
125049_4
100
AcDbSpline
 62
7
  6
CONTINUOUS
 70
0
 71
3
 72
10
 73
6
 74
0
 42
0.0000001
 43
0.0000001
 44
0.0000000001
 40
0.0
 40
0.0
 40
0.0
 40
0.0
 40
0.2478297295
 40
0.4975610286
 40
1.0
 40
1.0
 40
1.0
 40
1.0
 10
573.5048115632
 20
188.7455335311
 30
0.0
 10
573.9222539603
 20
188.7455335311
 30
0.0
 10
574.7602992309
 20
188.7855943985
 30
0.0
 10
576.4367130717
 20
188.9515171156
 30
0.0
 10
577.6916222673
 20
189.1281722616
 30
0.0
 10
578.5297493738
 20
189.2455335311
 30
0.0
  0
SPLINE
  5
3E0
100
AcDbEntity
  8
123007_8
100
AcDbSpline
 62
7
  6
CONTINUOUS
 70
0
 71
3
 72
27
 73
23
 74
0
 42
0.0000001
 43
0.0000001
 44
0.0000000001
 40
0.0
 40
0.0
 40
0.0
 40
0.0
 40
0.0009985559
 40
0.0027585928
 40
0.0052919541
 40
0.0086004523
 40
0.0175282543
 40
0.0294992819
 40
0.0444525429
 40
0.0623061082
 40
0.0829653627
 40
0.106316984
 40
0.1605807725
 40
0.2239215089
 40
0.2949648547
 40
0.372169121
 40
0.4538590786
 40
0.5382637784
 40
0.62355036
 40
0.7078678323
 40
0.8663394453
 40
1.0
 40
1.0
 40
1.0
 40
1.0
 10
562.5351308421
 20
195.3867017375
 30
0.0
 10
562.5431105688
 20
195.3912816412
 30
0.0
 10
562.5682806583
 20
195.3974076975
 30
0.0
 10
562.6160040619
 20
195.4059255248
 30
0.0
 10
562.6857231464
 20
195.4142069619
 30
0.0
 10
562.8211282255
 20
195.4270394366
 30
0.0
 10
563.0437642994
 20
195.441927523
 30
0.0
 10
563.3736319992
 20
195.459048388
 30
0.0
 10
563.7858710311
 20
195.4762493108
 30
0.0
 10
564.278195913
 20
195.4936015194
 30
0.0
 10
564.8479482458
 20
195.5110008347
 30
0.0
 10
565.7531134898
 20
195.535506238
 30
0.0
 10
567.0515351698
 20
195.565385914
 30
0.0
 10
568.7893819853
 20
195.5999298537
 30
0.0
 10
570.7386360274
 20
195.634587965
 30
0.0
 10
572.8569809768
 20
195.6693318683
 30
0.0
 10
575.0984513143
 20
195.7041217699
 30
0.0
 10
577.4143997391
 20
195.7389374227
 30
0.0
 10
579.7545603307
 20
195.7737622462
 30
0.0
 10
582.7770861341
 20
195.8192399293
 30
0.0
 10
586.2452330523
 20
195.874028197
 30
0.0
 10
588.936485888
 20
195.9231043378
 30
0.0
 10
590.167724088
 20
195.9503437466
 30
0.0
  0
SPLINE
  5
3E1
100
AcDbEntity
  8
123007_8
100
AcDbSpline
 62
7
  6
CONTINUOUS
 70
0
 71
3
 72
25
 73
21
 74
0
 42
0.0000001
 43
0.0000001
 44
0.0000000001
 40
0.0
 40
0.0
 40
0.0
 40
0.0
 40
0.0312879749
 40
0.0765290182
 40
0.134356703
 40
0.2030181233
 40
0.3642371286
 40
0.4519052092
 40
0.5407719771
 40
0.6281372329
 40
0.7113504646
 40
0.7878896219
 40
0.8554302365
 40
0.9119215682
 40
0.9354742008
 40
0.9556526853
 40
0.9723046486
 40
0.9853037636
 40
0.9945564373
 40
1.0
 40
1.0
 40
1.0
 40
1.0
 10
563.1191432005
 20
193.9455186376
 30
0.0
 10
563.4458166097
 20
193.9636729034
 30
0.0
 10
564.2455788045
 20
193.9939802024
 30
0.0
 10
565.6499599397
 20
194.0338018614
 30
0.0
 10
567.4453073779
 20
194.0739052206
 30
0.0
 10
570.4533140443
 20
194.1312321604
 30
0.0
 10
573.7734974612
 20
194.1840761514
 30
0.0
 10
577.3049769133
 20
194.2373441346
 30
0.0
 10
580.0642684223
 20
194.2783481895
 30
0.0
 10
582.7769703532
 20
194.3193489592
 30
0.0
 10
585.3607484151
 20
194.3602859726
 30
0.0
 10
587.7371967029
 20
194.401086157
 30
0.0
 10
589.8341693581
 20
194.4417115143
 30
0.0
 10
591.377066003
 20
194.4769649883
 30
0.0
 10
592.4246780365
 20
194.5061776689
 30
0.0
 10
593.0557899331
 20
194.526587935
 30
0.0
 10
593.576419825
 20
194.5470377088
 30
0.0
 10
593.9828749874
 20
194.5666123979
 30
0.0
 10
594.2715997633
 20
194.5867531097
 30
0.0
 10
594.424936076
 20
194.6012563248
 30
0.0
 10
594.4808420744
 20
194.6119692988
 30
0.0
  0
SPLINE
  5
3E2
100
AcDbEntity
  8
123007_8
100
AcDbSpline
 62
7
  6
CONTINUOUS
 70
0
 71
3
 72
9
 73
5
 74
0
 42
0.0000001
 43
0.0000001
 44
0.0000000001
 40
0.0
 40
0.0
 40
0.0
 40
0.0
 40
0.711629563
 40
1.0
 40
1.0
 40
1.0
 40
1.0
 10
594.4808420744
 20
194.6119692988
 30
0.0
 10
594.4932288161
 20
194.6143429053
 30
0.0
 10
594.5073281125
 20
194.6176197865
 30
0.0
 10
594.5297493738
 20
194.6254227818
 30
0.0
 10
594.5297493738
 20
194.6305335311
 30
0.0
  0
SPLINE
  5
3E3
100
AcDbEntity
  8
123007_8
100
AcDbSpline
 62
7
  6
CONTINUOUS
 70
0
 71
3
 72
11
 73
7
 74
0
 42
0.0000001
 43
0.0000001
 44
0.0000000001
 40
0.0
 40
0.0
 40
0.0
 40
0.0
 40
0.3639284264
 40
0.6560295894
 40
0.86965872
 40
1.0
 40
1.0
 40
1.0
 40
1.0
 10
590.167724088
 20
195.9503437466
 30
0.0
 10
590.6749561637
 20
195.9611793859
 30
0.0
 10
591.5892673523
 20
195.981967193
 30
0.0
 10
592.8012273822
 20
196.0164763094
 30
0.0
 10
593.6871607308
 20
196.0517370928
 30
0.0
 10
594.1662047486
 20
196.0777954753
 30
0.0
 10
594.3470547636
 20
196.095422865
 30
0.0
  0
SPLINE
  5
3E4
100
AcDbEntity
  8
123007_8
100
AcDbSpline
 62
7
  6
CONTINUOUS
 70
0
 71
3
 72
11
 73
7
 74
0
 42
0.0000001
 43
0.0000001
 44
0.0000000001
 40
0.0
 40
0.0
 40
0.0
 40
0.0
 40
0.3845120473
 40
0.6788431294
 40
0.8833894391
 40
1.0
 40
1.0
 40
1.0
 40
1.0
 10
594.3470547636
 20
196.095422865
 30
0.0
 10
594.370239171
 20
196.0976826413
 30
0.0
 10
594.4110923332
 20
196.1020370995
 30
0.0
 10
594.4643019669
 20
196.1090612875
 30
0.0
 10
594.5006337072
 20
196.1162151512
 30
0.0
 10
594.519835027
 20
196.1214720234
 30
0.0
 10
594.5257572897
 20
196.1253233848
 30
0.0
  0
SPLINE
  5
3E5
100
AcDbEntity
  8
123007_8
100
AcDbSpline
 62
7
  6
CONTINUOUS
 70
0
 71
3
 72
9
 73
5
 74
0
 42
0.0000001
 43
0.0000001
 44
0.0000000001
 40
0.0
 40
0.0
 40
0.0
 40
0.0
 40
0.5476871962
 40
1.0
 40
1.0
 40
1.0
 40
1.0
 10
594.5257572897
 20
196.1253233848
 30
0.0
 10
594.526373807
 20
196.1257243178
 30
0.0
 10
594.527463761
 20
196.1265145845
 30
0.0
 10
594.5284152933
 20
196.1274781026
 30
0.0
 10
594.5287811704
 20
196.1279628822
 30
0.0
  0
LINE
  5
3E6
100
AcDbEntity
  8
123007_8
100
AcDbLine
 62
7
  6
CONTINUOUS
 10
594.5287811704
 20
196.1279628822
 11
594.5296118675
 21
196.1295635548
  0
LINE
  5
3E7
100
AcDbEntity
  8
123007_8
100
AcDbLine
 62
7
  6
CONTINUOUS
 10
594.5296118675
 20
196.1295635548
 11
594.5297493738
 21
196.1305335311
  0
SPLINE
  5
3E8
100
AcDbEntity
  8
123007_8
100
AcDbSpline
 62
7
  6
CONTINUOUS
 70
0
 71
3
 72
18
 73
14
 74
0
 42
0.0000001
 43
0.0000001
 44
0.0000000001
 40
0.0
 40
0.0
 40
0.0
 40
0.0
 40
0.0085685859
 40
0.0245739296
 40
0.0481058412
 40
0.0791508452
 40
0.1176437414
 40
0.1635110787
 40
0.2770016317
 40
0.4186617193
 40
0.5873487938
 40
0.7817265703
 40
1.0
 40
1.0
 40
1.0
 40
1.0
 10
594.5242154998
 20
197.6035135716
 30
0.0
 10
594.5133501783
 20
197.5974161536
 30
0.0
 10
594.4773733616
 20
197.5906996057
 30
0.0
 10
594.4087827989
 20
197.5803137178
 30
0.0
 10
594.3062894377
 20
197.5706184769
 30
0.0
 10
594.1715113472
 20
197.559856271
 30
0.0
 10
594.0040006217
 20
197.5490585542
 30
0.0
 10
593.7167668489
 20
197.5332360716
 30
0.0
 10
593.2794501221
 20
197.5143224443
 30
0.0
 10
592.6635517719
 20
197.4925335645
 30
0.0
 10
591.9299665909
 20
197.4707160873
 30
0.0
 10
591.0849122968
 20
197.4501153496
 30
0.0
 10
590.485033838
 20
197.4369980152
 30
0.0
 10
590.1677276917
 20
197.4299779767
 30
0.0
  0
SPLINE
  5
3E9
100
AcDbEntity
  8
123007_8
100
AcDbSpline
 62
7
  6
CONTINUOUS
 70
0
 71
3
 72
18
 73
14
 74
0
 42
0.0000001
 43
0.0000001
 44
0.0000000001
 40
0.0
 40
0.0
 40
0.0
 40
0.0
 40
0.0087768654
 40
0.0249832281
 40
0.0487360352
 40
0.0799808092
 40
0.1186219718
 40
0.1645577039
 40
0.2779553806
 40
0.4194923109
 40
0.5880837933
 40
0.7822113562
 40
1.0
 40
1.0
 40
1.0
 40
1.0
 10
593.6740784282
 20
197.1134738542
 30
0.0
 10
593.6636064119
 20
197.1074424207
 30
0.0
 10
593.6291533006
 20
197.1002533988
 30
0.0
 10
593.5634266688
 20
197.0895558798
 30
0.0
 10
593.4656061506
 20
197.079533051
 30
0.0
 10
593.3372302319
 20
197.0688255011
 30
0.0
 10
593.1780636655
 20
197.0582057151
 30
0.0
 10
592.9059285914
 20
197.0427735179
 30
0.0
 10
592.4920573985
 20
197.0241850685
 30
0.0
 10
591.909301105
 20
197.0028940669
 30
0.0
 10
591.2153216824
 20
196.9815131831
 30
0.0
 10
590.4163160961
 20
196.9600321694
 30
0.0
 10
589.849316287
 20
196.9464219109
 30
0.0
 10
589.549524946
 20
196.9395345976
 30
0.0
  0
SPLINE
  5
3EA
100
AcDbEntity
  8
123007_8
100
AcDbSpline
 62
7
  6
CONTINUOUS
 70
0
 71
3
 72
29
 73
25
 74
0
 42
0.0000001
 43
0.0000001
 44
0.0000000001
 40
0.0
 40
0.0
 40
0.0
 40
0.0
 40
0.1352488144
 40
0.2957131629
 40
0.3810236603
 40
0.4672235237
 40
0.5523974133
 40
0.6346477371
 40
0.7121693664
 40
0.7832277769
 40
0.8462418532
 40
0.8743084093
 40
0.8998509054
 40
0.9227235848
 40
0.9428108949
 40
0.9600076588
 40
0.9742228179
 40
0.9853730676
 40
0.9897774843
 40
0.9933908848
 40
0.9962083156
 40
0.9982331573
 40
0.9994768849
 40
1.0
 40
1.0
 40
1.0
 40
1.0
 10
589.5495246087
 20
196.9395304175
 30
0.0
 10
588.3694787879
 20
196.9124464203
 30
0.0
 10
585.7891697683
 20
196.8626634643
 30
0.0
 10
582.4643239175
 20
196.8073882768
 30
0.0
 10
579.5674468185
 20
196.7613892111
 30
0.0
 10
577.3275636423
 20
196.7261952114
 30
0.0
 10
575.1143906292
 20
196.6910063196
 30
0.0
 10
572.9769646306
 20
196.6558369838
 30
0.0
 10
570.9627447198
 20
196.620736768
 30
0.0
 10
569.1164312888
 20
196.5857117733
 30
0.0
 10
567.7017141089
 20
196.5555850685
 30
0.0
 10
566.6842039125
 20
196.531063837
 30
0.0
 10
566.0169584753
 20
196.5134074914
 30
0.0
 10
565.4193738917
 20
196.4957779649
 30
0.0
 10
564.8946662541
 20
196.4781991723
 30
0.0
 10
564.4455379415
 20
196.4607041424
 30
0.0
 10
564.0745333898
 20
196.4433287454
 30
0.0
 10
563.8150527174
 20
196.4280874461
 30
0.0
 10
563.6484001338
 20
196.4154449311
 30
0.0
 10
563.5539043273
 20
196.4066512582
 30
0.0
 10
563.4814480638
 20
196.3983384746
 30
0.0
 10
563.4270257064
 20
196.3893847957
 30
0.0
 10
563.3983837761
 20
196.3826760799
 30
0.0
 10
563.3800280954
 20
196.3746323564
 30
0.0
 10
563.3800456769
 20
196.3700670091
 30
0.0
  0
SPLINE
  5
3EB
100
AcDbEntity
  8
123007_8
100
AcDbSpline
 62
7
  6
CONTINUOUS
 70
0
 71
3
 72
18
 73
14
 74
0
 42
0.0000001
 43
0.0000001
 44
0.0000000001
 40
0.0
 40
0.0
 40
0.0
 40
0.0
 40
0.1267603622
 40
0.2765684861
 40
0.4377997603
 40
0.5979429891
 40
0.7445691259
 40
0.8091920918
 40
0.866301385
 40
0.9147841925
 40
0.953697209
 40
0.9822855147
 40
1.0
 40
1.0
 40
1.0
 40
1.0
 10
590.1677276917
 20
197.4299779767
 30
0.0
 10
589.0074323018
 20
197.4051914807
 30
0.0
 10
586.4757336061
 20
197.3577504357
 30
0.0
 10
582.4679409883
 20
197.294222686
 30
0.0
 10
578.1544853587
 20
197.229992862
 30
0.0
 10
573.8701659652
 20
197.1658527186
 30
0.0
 10
570.470308352
 20
197.1107511231
 30
0.0
 10
568.0137692437
 20
197.0649745882
 30
0.0
 10
566.4556908114
 20
197.032295519
 30
0.0
 10
565.1330875688
 20
196.9996588114
 30
0.0
 10
564.0715984547
 20
196.9679901855
 30
0.0
 10
563.2921584424
 20
196.9359561915
 30
0.0
 10
562.8686745095
 20
196.9123288342
 30
0.0
 10
562.7072995536
 20
196.8961318401
 30
0.0
  0
SPLINE
  5
3EC
100
AcDbEntity
  8
123007_8
100
AcDbSpline
 62
7
  6
CONTINUOUS
 70
0
 71
3
 72
11
 73
7
 74
0
 42
0.0000001
 43
0.0000001
 44
0.0000000001
 40
0.0
 40
0.0
 40
0.0
 40
0.0
 40
0.3822472973
 40
0.6758046729
 40
0.8810998098
 40
1.0
 40
1.0
 40
1.0
 40
1.0
 10
562.7072995536
 20
196.8961318401
 30
0.0
 10
562.684930623
 20
196.8938866997
 30
0.0
 10
562.6454570738
 20
196.8895385915
 30
0.0
 10
562.5939882965
 20
196.8824330992
 30
0.0
 10
562.5586037901
 20
196.8752262159
 30
0.0
 10
562.5398850013
 20
196.8698499727
 30
0.0
 10
562.5340134529
 20
196.8660517947
 30
0.0
  0
SPLINE
  5
3ED
100
AcDbEntity
  8
123007_8
100
AcDbSpline
 62
7
  6
CONTINUOUS
 70
0
 71
3
 72
9
 73
5
 74
0
 42
0.0000001
 43
0.0000001
 44
0.0000000001
 40
0.0
 40
0.0
 40
0.0
 40
0.0
 40
0.5471581509
 40
1.0
 40
1.0
 40
1.0
 40
1.0
 10
562.5340134529
 20
196.8660517947
 30
0.0
 10
562.5333671324
 20
196.8656337039
 30
0.0
 10
562.5322223352
 20
196.8648100145
 30
0.0
 10
562.5312169179
 20
196.8638101371
 30
0.0
 10
562.5308261558
 20
196.8633069807
 30
0.0
  0
LINE
  5
3EE
100
AcDbEntity
  8
123007_8
100
AcDbLine
 62
7
  6
CONTINUOUS
 10
562.5308261558
 20
196.8633069807
 11
562.5298947196
 21
196.8615526034
  0
LINE
  5
3EF
100
AcDbEntity
  8
123007_8
100
AcDbLine
 62
7
  6
CONTINUOUS
 10
562.5298947196
 20
196.8615526034
 11
562.5297493738
 21
196.8605335311
  0
SPLINE
  5
3F0
100
AcDbEntity
  8
123007_8
100
AcDbSpline
 62
7
  6
CONTINUOUS
 70
0
 71
3
 72
20
 73
16
 74
0
 42
0.0000001
 43
0.0000001
 44
0.0000000001
 40
0.0
 40
0.0
 40
0.0
 40
0.0
 40
0.0017085908
 40
0.0050684463
 40
0.0176403234
 40
0.038282201
 40
0.067010966
 40
0.1037305561
 40
0.1483293519
 40
0.2006981648
 40
0.2607443738
 40
0.4034957855
 40
0.5754642381
 40
0.77498624
 40
1.0
 40
1.0
 40
1.0
 40
1.0
 10
593.679430837
 20
196.621061307
 30
0.0
 10
593.6794102595
 20
196.6187039157
 30
0.0
 10
593.6731232065
 20
196.6132905653
 30
0.0
 10
593.6509736313
 20
196.6057118966
 30
0.0
 10
593.6003745255
 20
196.5958244505
 30
0.0
 10
593.5160870087
 20
196.5855535377
 30
0.0
 10
593.3975462171
 20
196.5745776094
 30
0.0
 10
593.2461930182
 20
196.5636107612
 30
0.0
 10
593.0620314144
 20
196.5524973357
 30
0.0
 10
592.8456832458
 20
196.541352325
 30
0.0
 10
592.4939591296
 20
196.5255141061
 30
0.0
 10
591.9772198796
 20
196.5062394236
 30
0.0
 10
591.2680216613
 20
196.48407646
 30
0.0
 10
590.445275915
 20
196.4618218039
 30
0.0
 10
589.8596780027
 20
196.4477418327
 30
0.0
 10
589.5492901913
 20
196.4406110821
 30
0.0
  0
SPLINE
  5
3F1
100
AcDbEntity
  8
123007_8
100
AcDbSpline
 62
7
  6
CONTINUOUS
 70
0
 71
3
 72
26
 73
22
 74
0
 42
0.0000001
 43
0.0000001
 44
0.0000000001
 40
0.0
 40
0.0
 40
0.0
 40
0.0
 40
0.1335666866
 40
0.2919329386
 40
0.4614309937
 40
0.5457943771
 40
0.6274483801
 40
0.7046366689
 40
0.7756830635
 40
0.8390258139
 40
0.8933449639
 40
0.9167179905
 40
0.937400482
 40
0.9552863664
 40
0.970285159
 40
0.9823126372
 40
0.9912992252
 40
0.9946332831
 40
0.9971895374
 40
0.9989731669
 40
1.0
 40
1.0
 40
1.0
 40
1.0
 10
589.5492904596
 20
196.4406110821
 30
0.0
 10
588.384320748
 20
196.4138730966
 30
0.0
 10
585.8378725224
 20
196.3646376162
 30
0.0
 10
581.812767659
 20
196.2975811538
 30
0.0
 10
578.2168060988
 20
196.2413686489
 30
0.0
 10
575.2900359119
 20
196.1949052873
 30
0.0
 10
573.1685202051
 20
196.1601301183
 30
0.0
 10
571.1632014004
 20
196.1254094429
 30
0.0
 10
569.3176589609
 20
196.0907811902
 30
0.0
 10
567.6716716302
 20
196.0562311588
 30
0.0
 10
566.4415965702
 20
196.0263983555
 30
0.0
 10
565.5836948776
 20
196.0018996808
 30
0.0
 10
565.0435762122
 20
195.9845048618
 30
0.0
 10
564.5765635958
 20
195.9671626011
 30
0.0
 10
564.1850970714
 20
195.9499708768
 30
0.0
 10
563.8713999776
 20
195.9328559581
 30
0.0
 10
563.6594195914
 20
195.9179648511
 30
0.0
 10
563.5303262323
 20
195.9051709409
 30
0.0
 10
563.4637426989
 20
195.8968708418
 30
0.0
 10
563.4179463372
 20
195.8884047842
 30
0.0
 10
563.3937634982
 20
195.8821898966
 30
0.0
 10
563.3860123149
 20
195.8776985518
 30
0.0
  0
SPLINE
  5
3F2
100
AcDbEntity
  8
123007_8
100
AcDbSpline
 62
7
  6
CONTINUOUS
 70
0
 71
3
 72
9
 73
5
 74
0
 42
0.0000001
 43
0.0000001
 44
0.0000000001
 40
0.0
 40
0.0
 40
0.0
 40
0.0
 40
0.1652306528
 40
1.0
 40
1.0
 40
1.0
 40
1.0
 10
562.5352036538
 20
196.8867737246
 30
0.0
 10
562.5373590999
 20
196.8880064274
 30
0.0
 10
562.55124991
 20
196.8939101037
 30
0.0
 10
562.566122672
 20
196.8968152904
 30
0.0
 10
562.5784438076
 20
196.89917305
 30
0.0
  0
SPLINE
  5
3F3
100
AcDbEntity
  8
123007_8
100
AcDbSpline
 62
7
  6
CONTINUOUS
 70
0
 71
3
 72
29
 73
25
 74
0
 42
0.0000001
 43
0.0000001
 44
0.0000000001
 40
0.0
 40
0.0
 40
0.0
 40
0.0
 40
0.0058542809
 40
0.0159883507
 40
0.0303231239
 40
0.0487375495
 40
0.0710736885
 40
0.0971366461
 40
0.1595144846
 40
0.2337090177
 40
0.3171430552
 40
0.4069208033
 40
0.4999304866
 40
0.5929431424
 40
0.6827283161
 40
0.7661724919
 40
0.8403817112
 40
0.9027809915
 40
0.9288562518
 40
0.951205363
 40
0.9696333222
 40
0.9839823352
 40
0.9941310415
 40
1.0
 40
1.0
 40
1.0
 40
1.0
 10
562.5784438076
 20
196.89917305
 30
0.0
 10
562.6396109119
 20
196.910877923
 30
0.0
 10
562.8094388639
 20
196.9259444401
 30
0.0
 10
563.1310415607
 20
196.947678402
 30
0.0
 10
563.5868910644
 20
196.9685104181
 30
0.0
 10
564.1724255086
 20
196.9903924208
 30
0.0
 10
564.8828653324
 20
197.0121863246
 30
0.0
 10
566.0608740193
 20
197.043406398
 30
0.0
 10
567.7905674286
 20
197.0810310677
 30
0.0
 10
570.1305589735
 20
197.1244302263
 30
0.0
 10
572.7620710106
 20
197.1680095623
 30
0.0
 10
575.5937570817
 20
197.2117290347
 30
0.0
 10
578.5273501447
 20
197.2554978247
 30
0.0
 10
581.4610222051
 20
197.2992668573
 30
0.0
 10
584.2929267673
 20
197.3429861775
 30
0.0
 10
586.9247819418
 20
197.3865641693
 30
0.0
 10
589.2652657412
 20
197.4299638503
 30
0.0
 10
590.9954745176
 20
197.4675846341
 30
0.0
 10
592.1739803232
 20
197.4988074732
 30
0.0
 10
592.8848330624
 20
197.5206006151
 30
0.0
 10
593.4708019081
 20
197.5424726868
 30
0.0
 10
593.9271018714
 20
197.5633166602
 30
0.0
 10
594.2491673246
 20
197.585101647
 30
0.0
 10
594.4193115131
 20
197.6000794413
 30
0.0
 10
594.4806460551
 20
197.611739833
 30
0.0
  0
SPLINE
  5
3F4
100
AcDbEntity
  8
123007_8
100
AcDbSpline
 62
7
  6
CONTINUOUS
 70
0
 71
3
 72
9
 73
5
 74
0
 42
0.0000001
 43
0.0000001
 44
0.0000000001
 40
0.0
 40
0.0
 40
0.0
 40
0.0
 40
0.7102621966
 40
1.0
 40
1.0
 40
1.0
 40
1.0
 10
594.4806460551
 20
197.611739833
 30
0.0
 10
594.4930848751
 20
197.6141045937
 30
0.0
 10
594.5073709591
 20
197.6172815691
 30
0.0
 10
594.5297493738
 20
197.6253684714
 30
0.0
 10
594.5297493738
 20
197.6305335311
 30
0.0
  0
SPLINE
  5
3F5
100
AcDbEntity
  8
123007_8
100
AcDbSpline
 62
7
  6
CONTINUOUS
 70
0
 71
3
 72
37
 73
33
 74
0
 42
0.0000001
 43
0.0000001
 44
0.0000000001
 40
0.0
 40
0.0
 40
0.0
 40
0.0
 40
0.0002341141
 40
0.0006989329
 40
0.0024436056
 40
0.0053028828
 40
0.009277229
 40
0.0143611199
 40
0.0205475412
 40
0.0278288541
 40
0.0361949657
 40
0.056083162
 40
0.0799926348
 40
0.1077200321
 40
0.1390439906
 40
0.1736591326
 40
0.2112405131
 40
0.2514550257
 40
0.2939424683
 40
0.3841727558
 40
0.4786342767
 40
0.5739188221
 40
0.6665544676
 40
0.7531868839
 40
0.8306796999
 40
0.896205614
 40
0.9237377834
 40
0.9474024774
 40
0.9670157857
 40
0.9824154004
 40
0.9934420281
 40
1.0
 40
1.0
 40
1.0
 40
1.0
 10
593.6796258974
 20
198.1212653492
 30
0.0
 10
593.6796714287
 20
198.1189046586
 30
0.0
 10
593.6733252254
 20
198.1133622586
 30
0.0
 10
593.6508982893
 20
198.1058194448
 30
0.0
 10
593.5996191236
 20
198.095764735
 30
0.0
 10
593.514303073
 20
198.0854383745
 30
0.0
 10
593.3943538902
 20
198.0743235407
 30
0.0
 10
593.2410988761
 20
198.0632527874
 30
0.0
 10
593.0542969759
 20
198.0520248714
 30
0.0
 10
592.8343919253
 20
198.0407733877
 30
0.0
 10
592.4763509431
 20
198.0247965262
 30
0.0
 10
591.9506152501
 20
198.0053578015
 30
0.0
 10
591.2296022529
 20
197.9829574544
 30
0.0
 10
590.3932111542
 20
197.9604742252
 30
0.0
 10
589.4488163875
 20
197.9379436476
 30
0.0
 10
588.4050163127
 20
197.9153661715
 30
0.0
 10
587.2715331407
 20
197.8927569355
 30
0.0
 10
586.0586406504
 20
197.8701237397
 30
0.0
 10
584.3148249531
 20
197.8393084023
 30
0.0
 10
582.0239484118
 20
197.801404584
 30
0.0
 10
579.2006342802
 20
197.7566732358
 30
0.0
 10
576.3530578439
 20
197.7119566842
 30
0.0
 10
573.5844506727
 20
197.6672626129
 30
0.0
 10
570.9953007525
 20
197.622709791
 30
0.0
 10
568.6796063424
 20
197.5783444274
 30
0.0
 10
566.9599547784
 20
197.5398706669
 30
0.0
 10
565.7831950481
 20
197.508035713
 30
0.0
 10
565.069380096
 20
197.485700553
 30
0.0
 10
564.478048755
 20
197.4633392277
 30
0.0
 10
564.0141136185
 20
197.4418763367
 30
0.0
 10
563.6823576691
 20
197.419838697
 30
0.0
 10
563.50538972
 20
197.404012899
 30
0.0
 10
563.4402644833
 20
197.3924735278
 30
0.0
  0
SPLINE
  5
3F6
100
AcDbEntity
  8
123007_8
100
AcDbSpline
 62
7
  6
CONTINUOUS
 70
0
 71
3
 72
9
 73
5
 74
0
 42
0.0000001
 43
0.0000001
 44
0.0000000001
 40
0.0
 40
0.0
 40
0.0
 40
0.0
 40
0.6229126352
 40
1.0
 40
1.0
 40
1.0
 40
1.0
 10
563.4402644833
 20
197.3924735278
 30
0.0
 10
563.4287263174
 20
197.3904291102
 30
0.0
 10
563.410395248
 20
197.3866511908
 30
0.0
 10
563.3920708007
 20
197.3812839346
 30
0.0
 10
563.3859269007
 20
197.377738363
 30
0.0
  0
SPLINE
  5
3F7
100
AcDbEntity
  8
123007_8
100
AcDbSpline
 62
7
  6
CONTINUOUS
 70
0
 71
3
 72
9
 73
5
 74
0
 42
0.0000001
 43
0.0000001
 44
0.0000000001
 40
0.0
 40
0.0
 40
0.0
 40
0.0
 40
0.165417673
 40
1.0
 40
1.0
 40
1.0
 40
1.0
 10
594.5242680432
 20
196.1042191055
 30
0.0
 10
594.5221088013
 20
196.1029796431
 30
0.0
 10
594.5082012569
 20
196.0970534588
 30
0.0
 10
594.4933016193
 20
196.0941534669
 30
0.0
 10
594.4809627669
 20
196.0918000805
 30
0.0
  0
SPLINE
  5
3F8
100
AcDbEntity
  8
123007_8
100
AcDbSpline
 62
7
  6
CONTINUOUS
 70
0
 71
3
 72
29
 73
25
 74
0
 42
0.0000001
 43
0.0000001
 44
0.0000000001
 40
0.0
 40
0.0
 40
0.0
 40
0.0
 40
0.0058571083
 40
0.0159939893
 40
0.0303310959
 40
0.0487473628
 40
0.0710851365
 40
0.0971493739
 40
0.1595281874
 40
0.2337214876
 40
0.3171526249
 40
0.4069274701
 40
0.4999347191
 40
0.5929444238
 40
0.6827264318
 40
0.7661690277
 40
0.8403780605
 40
0.9027765905
 40
0.9288517879
 40
0.9512011013
 40
0.9696294144
 40
0.9839790117
 40
0.9941289047
 40
1.0
 40
1.0
 40
1.0
 40
1.0
 10
594.4809627669
 20
196.0918000805
 30
0.0
 10
594.4197592549
 20
196.0801267492
 30
0.0
 10
594.2498637862
 20
196.0651627791
 30
0.0
 10
593.9281818461
 20
196.0433727475
 30
0.0
 10
593.4722592302
 20
196.0225338801
 30
0.0
 10
592.8866650611
 20
196.0006614298
 30
0.0
 10
592.1761771535
 20
195.9788702577
 30
0.0
 10
590.9981316446
 20
195.9476471801
 30
0.0
 10
589.2684337653
 20
195.9100271384
 30
0.0
 10
586.9284846663
 20
195.8666285969
 30
0.0
 10
584.2970573775
 20
195.8230517711
 30
0.0
 10
581.4654696154
 20
195.7793340325
 30
0.0
 10
578.5319757895
 20
195.7355666137
 30
0.0
 10
575.5984057656
 20
195.6917989571
 30
0.0
 10
572.766593746
 20
195.6480815684
 30
0.0
 10
570.1348010124
 20
195.6045033418
 30
0.0
 10
567.7943526823
 20
195.5611082142
 30
0.0
 10
566.0641613695
 20
195.5234803872
 30
0.0
 10
564.8856660336
 20
195.4922694351
 30
0.0
 10
564.1748112254
 20
195.4704721504
 30
0.0
 10
563.5888320249
 20
195.4485805692
 30
0.0
 10
563.1325136834
 20
195.4277504232
 30
0.0
 10
562.8103935105
 20
195.4061149966
 30
0.0
 10
562.6402384835
 20
195.390869714
 30
0.0
 10
562.578893728
 20
195.3791427763
 30
0.0
  0
SPLINE
  5
3F9
100
AcDbEntity
  8
123007_8
100
AcDbSpline
 62
7
  6
CONTINUOUS
 70
0
 71
3
 72
9
 73
5
 74
0
 42
0.0000001
 43
0.0000001
 44
0.0000000001
 40
0.0
 40
0.0
 40
0.0
 40
0.0
 40
0.7117780779
 40
1.0
 40
1.0
 40
1.0
 40
1.0
 10
562.578893728
 20
195.3791427763
 30
0.0
 10
562.5664477312
 20
195.376763544
 30
0.0
 10
562.5522938816
 20
195.3734734511
 30
0.0
 10
562.5297493738
 20
195.3656645773
 30
0.0
 10
562.5297493738
 20
195.3605335311
 30
0.0
  0
SPLINE
  5
3FA
100
AcDbEntity
  8
123007_8
100
AcDbSpline
 62
7
  6
CONTINUOUS
 70
0
 71
3
 72
9
 73
5
 74
0
 42
0.0000001
 43
0.0000001
 44
0.0000000001
 40
0.0
 40
0.0
 40
0.0
 40
0.0
 40
0.1925818444
 40
1.0
 40
1.0
 40
1.0
 40
1.0
 10
593.6744368616
 20
195.6135053862
 30
0.0
 10
593.673307802
 20
195.6128529297
 30
0.0
 10
593.6672270114
 20
195.6098463528
 30
0.0
 10
593.6607044623
 20
195.6078671901
 30
0.0
 10
593.6554333712
 20
195.6064158693
 30
0.0
  0
SPLINE
  5
3FB
100
AcDbEntity
  8
123007_8
100
AcDbSpline
 62
7
  6
CONTINUOUS
 70
0
 71
3
 72
40
 73
36
 74
0
 42
0.0000001
 43
0.0000001
 44
0.0000000001
 40
0.0
 40
0.0
 40
0.0
 40
0.0
 40
0.002000347
 40
0.0051469743
 40
0.0094324617
 40
0.0148449483
 40
0.0290064659
 40
0.0475387681
 40
0.0702734012
 40
0.0969866419
 40
0.127423212
 40
0.161308645
 40
0.2381782531
 40
0.3246986004
 40
0.4177108089
 40
0.513742355
 40
0.6092469491
 40
0.7006979229
 40
0.7438196456
 40
0.7846855649
 40
0.8229155703
 40
0.8581301479
 40
0.8900139855
 40
0.9182850009
 40
0.9426799169
 40
0.9629614051
 40
0.9714931962
 40
0.9789285704
 40
0.9852567808
 40
0.9904673243
 40
0.9945486832
 40
0.9974893443
 40
0.999283775
 40
0.9997608125
 40
1.0
 40
1.0
 40
1.0
 40
1.0
 10
593.6554333712
 20
195.6064158693
 30
0.0
 10
593.6359588912
 20
195.6010538453
 30
0.0
 10
593.5844953119
 20
195.5926986242
 30
0.0
 10
593.4899530822
 20
195.581660841
 30
0.0
 10
593.3606734221
 20
195.5706232582
 30
0.0
 10
593.1203271503
 20
195.5540554136
 30
0.0
 10
592.7359986081
 20
195.5344751951
 30
0.0
 10
592.1767431802
 20
195.5120843335
 30
0.0
 10
591.4906523265
 20
195.4895640113
 30
0.0
 10
590.6843103847
 20
195.4668923565
 30
0.0
 10
589.7653312538
 20
195.4441443041
 30
0.0
 10
588.3399543166
 20
195.4123914365
 30
0.0
 10
586.348272105
 20
195.3737094153
 30
0.0
 10
583.7595560418
 20
195.3286912328
 30
0.0
 10
580.9773200316
 20
195.2835969145
 30
0.0
 10
578.1043527245
 20
195.2384233366
 30
0.0
 10
575.2471522453
 20
195.1932622511
 30
0.0
 10
572.9241842012
 20
195.154996536
 30
0.0
 10
571.1529069926
 20
195.123878967
 30
0.0
 10
569.9189847681
 20
195.1010190792
 30
0.0
 10
568.764921454
 20
195.0781908626
 30
0.0
 10
567.7015764719
 20
195.0553758104
 30
0.0
 10
566.7388199412
 20
195.0326002357
 30
0.0
 10
565.8853505071
 20
195.0099033239
 30
0.0
 10
565.1490833306
 20
194.9872886623
 30
0.0
 10
564.6121518752
 20
194.9676427429
 30
0.0
 10
564.246468099
 20
194.9514935009
 30
0.0
 10
564.0216310076
 20
194.9401260009
 30
0.0
 10
563.8303282427
 20
194.9287852093
 30
0.0
 10
563.6730969434
 20
194.9175976763
 30
0.0
 10
563.5497961259
 20
194.9063817198
 30
0.0
 10
563.4620060084
 20
194.8959306773
 30
0.0
 10
563.4091318916
 20
194.885821969
 30
0.0
 10
563.3860625677
 20
194.8781610241
 30
0.0
 10
563.3794557289
 20
194.8726019939
 30
0.0
 10
563.3794591866
 20
194.8701867205
 30
0.0
  0
SPLINE
  5
3FC
100
AcDbEntity
  8
123007_8
100
AcDbSpline
 62
7
  6
CONTINUOUS
 70
0
 71
3
 72
9
 73
5
 74
0
 42
0.0000001
 43
0.0000001
 44
0.0000000001
 40
0.0
 40
0.0
 40
0.0
 40
0.0
 40
0.1649877094
 40
1.0
 40
1.0
 40
1.0
 40
1.0
 10
594.5243662176
 20
194.6043655859
 30
0.0
 10
594.5222247122
 20
194.6031369295
 30
0.0
 10
594.5083974218
 20
194.5972455975
 30
0.0
 10
594.4935891772
 20
194.5943429307
 30
0.0
 10
594.4813181637
 20
194.5919854205
 30
0.0
  0
SPLINE
  5
3FD
100
AcDbEntity
  8
123007_8
100
AcDbSpline
 62
7
  6
CONTINUOUS
 70
0
 71
3
 72
24
 73
20
 74
0
 42
0.0000001
 43
0.0000001
 44
0.0000000001
 40
0.0
 40
0.0
 40
0.0
 40
0.0
 40
0.0052786426
 40
0.0141917537
 40
0.0266829132
 40
0.0426684186
 40
0.0620330299
 40
0.0846403766
 40
0.1389163231
 40
0.203947689
 40
0.2778768789
 40
0.358592535
 40
0.4437890123
 40
0.5310334242
 40
0.6178318365
 40
0.7802619856
 40
0.9126565346
 40
0.9627130157
 40
1.0
 40
1.0
 40
1.0
 40
1.0
 10
594.4813181637
 20
194.5919854205
 30
0.0
 10
594.4278264689
 20
194.5817085828
 30
0.0
 10
594.28173804
 20
194.5676489185
 30
0.0
 10
594.0072626711
 20
194.5481013751
 30
0.0
 10
593.6218069916
 20
194.5290588921
 30
0.0
 10
593.1285664885
 20
194.5092314417
 30
0.0
 10
592.5308189689
 20
194.4894261817
 30
0.0
 10
591.5380520279
 20
194.4610692303
 30
0.0
 10
590.0740332439
 20
194.4268430055
 30
0.0
 10
588.0804292202
 20
194.3874115388
 30
0.0
 10
585.8139496283
 20
194.3478103041
 30
0.0
 10
583.3393626562
 20
194.3080721611
 30
0.0
 10
580.7273608666
 20
194.2682741096
 30
0.0
 10
578.0525854965
 20
194.2284426544
 30
0.0
 10
574.5809314606
 20
194.1765126455
 30
0.0
 10
570.643484257
 20
194.114554932
 30
0.0
 10
567.085253088
 20
194.0487797733
 30
0.0
 10
564.81851825
 20
193.9914560202
 30
0.0
 10
563.917677113
 20
193.9619990982
 30
0.0
 10
563.5332674857
 20
193.9455410047
 30
0.0
  0
SPLINE
  5
3FE
100
AcDbEntity
  8
123007_8
100
AcDbSpline
 62
7
  6
CONTINUOUS
 70
0
 71
3
 72
9
 73
5
 74
0
 42
0.0000001
 43
0.0000001
 44
0.0000000001
 40
0.0
 40
0.0
 40
0.0
 40
0.0
 40
0.1817393243
 40
1.0
 40
1.0
 40
1.0
 40
1.0
 10
593.6738265397
 20
194.113556355
 30
0.0
 10
593.6723268248
 20
194.1126872029
 30
0.0
 10
593.6636796855
 20
194.1086026386
 30
0.0
 10
593.6543755652
 20
194.1061872356
 30
0.0
 10
593.6467877882
 20
194.1043616581
 30
0.0
  0
SPLINE
  5
3FF
100
AcDbEntity
  8
123007_8
100
AcDbSpline
 62
7
  6
CONTINUOUS
 70
0
 71
3
 72
14
 73
10
 74
0
 42
0.0000001
 43
0.0000001
 44
0.0000000001
 40
0.0
 40
0.0
 40
0.0
 40
0.0
 40
0.0354158848
 40
0.0977314816
 40
0.1865338926
 40
0.301177795
 40
0.4408294512
 40
0.604572132
 40
1.0
 40
1.0
 40
1.0
 40
1.0
 10
593.6467877882
 20
194.1043616581
 30
0.0
 10
593.6026664739
 20
194.0937463119
 30
0.0
 10
593.4776421491
 20
194.0804324121
 30
0.0
 10
593.2397146254
 20
194.0610093599
 30
0.0
 10
592.8995086573
 20
194.0425078559
 30
0.0
 10
592.4603710167
 20
194.0229862653
 30
0.0
 10
591.9250403375
 20
194.0035598122
 30
0.0
 10
591.0300450156
 20
193.9756127598
 30
0.0
 10
590.3137672775
 20
193.9574832129
 30
0.0
 10
589.8072244139
 20
193.9455344649
 30
0.0
  0
SPLINE
  5
400
100
AcDbEntity
  8
123007_8
100
AcDbSpline
 62
7
  6
CONTINUOUS
 70
0
 71
3
 72
42
 73
38
 74
0
 42
0.0000001
 43
0.0000001
 44
0.0000000001
 40
0.0
 40
0.0
 40
0.0
 40
0.0
 40
0.0002422035
 40
0.0007274361
 40
0.0025545873
 40
0.0055494138
 40
0.0097059598
 40
0.0150123099
 40
0.0214566542
 40
0.029028146
 40
0.037715652
 40
0.0583626164
 40
0.083189332
 40
0.1119501725
 40
0.1443734422
 40
0.1801658316
 40
0.2189977149
 40
0.2604774847
 40
0.3042146176
 40
0.3968424628
 40
0.4933584356
 40
0.5901307936
 40
0.6835168891
 40
0.7699630655
 40
0.8095738325
 40
0.8462508948
 40
0.8796433036
 40
0.9094534438
 40
0.9354045779
 40
0.9572412511
 40
0.9747416827
 40
0.9818166493
 40
0.9877596075
 40
0.9925595978
 40
0.9962042708
 40
0.9986832685
 40
1.0
 40
1.0
 40
1.0
 40
1.0
 10
593.6797137284
 20
195.1210681694
 30
0.0
 10
593.6797171677
 20
195.1186208614
 30
0.0
 10
593.6729536651
 20
195.1130061898
 30
0.0
 10
593.6494708439
 20
195.1052862919
 30
0.0
 10
593.5955553366
 20
195.0950714439
 30
0.0
 10
593.5060971137
 20
195.0845263388
 30
0.0
 10
593.380429749
 20
195.0731999662
 30
0.0
 10
593.2201999881
 20
195.0619057142
 30
0.0
 10
593.0252550427
 20
195.050455446
 30
0.0
 10
592.7961509516
 20
195.0389786335
 30
0.0
 10
592.4235889331
 20
195.0226759973
 30
0.0
 10
591.8766814527
 20
195.0028423635
 30
0.0
 10
591.1269334311
 20
194.9800110483
 30
0.0
 10
590.258149955
 20
194.9570949631
 30
0.0
 10
589.278533473
 20
194.9341002264
 30
0.0
 10
588.1971314233
 20
194.9110670119
 30
0.0
 10
587.0242006212
 20
194.8880196608
 30
0.0
 10
585.7709795473
 20
194.8649395897
 30
0.0
 10
583.9742467024
 20
194.8335388819
 30
0.0
 10
581.6214504296
 20
194.7949314947
 30
0.0
 10
578.7328107157
 20
194.7493466123
 30
0.0
 10
575.8365083345
 20
194.7037610745
 30
0.0
 10
573.0419665398
 20
194.6582469842
 30
0.0
 10
570.8249750375
 20
194.6193688014
 30
0.0
 10
569.1809569315
 20
194.5876966162
 30
0.0
 10
568.0729475438
 20
194.5646591219
 30
0.0
 10
567.0639892649
 20
194.5416517979
 30
0.0
 10
566.1634404347
 20
194.5187049059
 30
0.0
 10
565.3796902221
 20
194.4958657135
 30
0.0
 10
564.7203905677
 20
194.4731321199
 30
0.0
 10
564.2518181993
 20
194.4533049061
 30
0.0
 10
563.943913374
 20
194.4368006215
 30
0.0
 10
563.764173327
 20
194.4254657614
 30
0.0
 10
563.6193879472
 20
194.4139911562
 30
0.0
 10
563.5091560503
 20
194.4033739177
 30
0.0
 10
563.4355265814
 20
194.3918146058
 30
0.0
 10
563.3969062569
 20
194.3844064854
 30
0.0
 10
563.3853866905
 20
194.377749508
 30
0.0
  0
SPLINE
  5
401
100
AcDbEntity
  8
123007_8
100
AcDbSpline
 62
7
  6
CONTINUOUS
 70
0
 71
3
 72
26
 73
22
 74
0
 42
0.0000001
 43
0.0000001
 44
0.0000000001
 40
0.0
 40
0.0
 40
0.0
 40
0.0
 40
0.194873215
 40
0.3822976105
 40
0.4709507691
 40
0.5550935725
 40
0.6338930413
 40
0.7065609508
 40
0.7724570359
 40
0.8309487035
 40
0.8813941185
 40
0.9233474289
 40
0.9410297457
 40
0.9564560785
 40
0.9695816359
 40
0.9803674935
 40
0.9887939447
 40
0.9948484858
 40
0.9985329025
 40
0.9995116829
 40
1.0
 40
1.0
 40
1.0
 40
1.0
 10
578.5581301765
 20
198.2455339474
 30
0.0
 10
577.5715990529
 20
198.2299889023
 30
0.0
 10
575.6362457397
 20
198.1995049244
 30
0.0
 10
573.2521149641
 20
198.1605142463
 30
0.0
 10
571.4285750093
 20
198.1288252434
 30
0.0
 10
570.1549468476
 20
198.1055149844
 30
0.0
 10
568.9622667148
 20
198.08222834
 30
0.0
 10
567.8619892358
 20
198.0589575702
 30
0.0
 10
566.8645550632
 20
198.0357352529
 30
0.0
 10
565.9796660699
 20
198.0126063014
 30
0.0
 10
565.2160448491
 20
197.9895332434
 30
0.0
 10
564.6590566771
 20
197.9694799935
 30
0.0
 10
564.279362759
 20
197.9530241939
 30
0.0
 10
564.0455751051
 20
197.9414392247
 30
0.0
 10
563.846697584
 20
197.9298824778
 30
0.0
 10
563.6834752241
 20
197.9184780895
 30
0.0
 10
563.5557529469
 20
197.9070311606
 30
0.0
 10
563.4650611186
 20
197.8963878758
 30
0.0
 10
563.4104955993
 20
197.8860452841
 30
0.0
 10
563.3867752827
 20
197.8782535442
 30
0.0
 10
563.3799292924
 20
197.8725816981
 30
0.0
 10
563.3799368195
 20
197.8701093335
 30
0.0
  0
SPLINE
  5
402
100
AcDbEntity
  8
128021_7
100
AcDbSpline
 62
7
  6
CONTINUOUS
 70
0
 71
3
 72
11
 73
7
 74
0
 42
0.0000001
 43
0.0000001
 44
0.0000000001
 40
0.0
 40
0.0
 40
0.0
 40
0.0
 40
0.3020522416
 40
0.5635922543
 40
0.7910829569
 40
1.0
 40
1.0
 40
1.0
 40
1.0
 10
564.6711310126
 20
158.3455335311
 30
0.0
 10
564.6711310126
 20
158.4217949145
 30
0.0
 10
564.6377561531
 20
158.566194196
 30
0.0
 10
564.5141460345
 20
158.7291795662
 30
0.0
 10
564.3613042762
 20
158.8239661604
 30
0.0
 10
564.250276435
 20
158.8455335311
 30
0.0
 10
564.1975295902
 20
158.8455335311
 30
0.0
  0
SPLINE
  5
403
100
AcDbEntity
  8
128021_7
100
AcDbSpline
 62
7
  6
CONTINUOUS
 70
0
 71
3
 72
11
 73
7
 74
0
 42
0.0000001
 43
0.0000001
 44
0.0000000001
 40
0.0
 40
0.0
 40
0.0
 40
0.0
 40
0.2061434884
 40
0.4382998235
 40
0.7065280062
 40
1.0
 40
1.0
 40
1.0
 40
1.0
 10
591.9602241167
 20
131.6455335311
 30
0.0
 10
591.9941308864
 20
131.6455335311
 30
0.0
 10
592.0667454993
 20
131.6623703297
 30
0.0
 10
592.1637526225
 20
131.729462911
 30
0.0
 10
592.2508606244
 20
131.8276956662
 30
0.0
 10
592.3020620281
 20
131.9047503041
 30
0.0
 10
592.3278842545
 20
131.9455335311
 30
0.0
  0
SPLINE
  5
404
100
AcDbEntity
  8
128021_7
100
AcDbSpline
 62
7
  6
CONTINUOUS
 70
0
 71
3
 72
8
 73
4
 74
0
 42
0.0000001
 43
0.0000001
 44
0.0000000001
 40
0.0
 40
0.0
 40
0.0
 40
0.0
 40
1.0
 40
1.0
 40
1.0
 40
1.0
 10
564.6711310126
 20
132.1455335311
 30
0.0
 10
564.6711310126
 20
132.0758850076
 30
0.0
 10
564.6943562697
 20
132.0043785956
 30
0.0
 10
564.7316144931
 20
131.9455335311
 30
0.0
  0
SPLINE
  5
405
100
AcDbEntity
  8
128021_7
100
AcDbSpline
 62
7
  6
CONTINUOUS
 70
0
 71
3
 72
8
 73
4
 74
0
 42
0.0000001
 43
0.0000001
 44
0.0000000001
 40
0.0
 40
0.0
 40
0.0
 40
0.0
 40
1.0
 40
1.0
 40
1.0
 40
1.0
 10
592.3278842545
 20
131.9455335311
 30
0.0
 10
592.3651424779
 20
132.0043785956
 30
0.0
 10
592.3883677351
 20
132.0758850076
 30
0.0
 10
592.3883677351
 20
132.1455335311
 30
0.0
  0
SPLINE
  5
406
100
AcDbEntity
  8
128021_7
100
AcDbSpline
 62
7
  6
CONTINUOUS
 70
0
 71
3
 72
11
 73
7
 74
0
 42
0.0000001
 43
0.0000001
 44
0.0000000001
 40
0.0
 40
0.0
 40
0.0
 40
0.0
 40
0.206125314
 40
0.4382476129
 40
0.7064963235
 40
1.0
 40
1.0
 40
1.0
 40
1.0
 10
565.0992746309
 20
131.6455335311
 30
0.0
 10
565.065370072
 20
131.6455335311
 30
0.0
 10
564.9927571896
 20
131.6623554127
 30
0.0
 10
564.8957674339
 20
131.7294605594
 30
0.0
 10
564.8085737336
 20
131.8276269748
 30
0.0
 10
564.7574401004
 20
131.9047449645
 30
0.0
 10
564.7316144931
 20
131.9455335311
 30
0.0
  0
SPLINE
  5
407
100
AcDbEntity
  8
128021_7
100
AcDbSpline
 62
7
  6
CONTINUOUS
 70
0
 71
3
 72
9
 73
5
 74
0
 42
0.0000001
 43
0.0000001
 44
0.0000000001
 40
0.0
 40
0.0
 40
0.0
 40
0.0
 40
0.2383248918
 40
1.0
 40
1.0
 40
1.0
 40
1.0
 10
574.2962513291
 20
131.9455335311
 30
0.0
 10
574.3015961123
 20
131.9607752977
 30
0.0
 10
574.3212921636
 20
132.0256588695
 30
0.0
 10
574.3297493738
 20
132.0939133868
 30
0.0
 10
574.3297493738
 20
132.1455335311
 30
0.0
  0
SPLINE
  5
408
100
AcDbEntity
  8
128021_7
100
AcDbSpline
 62
7
  6
CONTINUOUS
 70
0
 71
3
 72
11
 73
7
 74
0
 42
0.0000001
 43
0.0000001
 44
0.0000000001
 40
0.0
 40
0.0
 40
0.0
 40
0.0
 40
0.2089173174
 40
0.4364079316
 40
0.6979479619
 40
1.0
 40
1.0
 40
1.0
 40
1.0
 10
592.8619691574
 20
158.8455335311
 30
0.0
 10
592.8092222427
 20
158.8455335311
 30
0.0
 10
592.6981943431
 20
158.8239661451
 30
0.0
 10
592.545352598
 20
158.7291794351
 30
0.0
 10
592.4217425417
 20
158.5661941049
 30
0.0
 10
592.3883677351
 20
158.4217948641
 30
0.0
 10
592.3883677351
 20
158.3455335311
 30
0.0
  0
SPLINE
  5
409
100
AcDbEntity
  8
128021_7
100
AcDbSpline
 62
7
  6
CONTINUOUS
 70
0
 71
3
 72
9
 73
5
 74
0
 42
0.0000001
 43
0.0000001
 44
0.0000000001
 40
0.0
 40
0.0
 40
0.0
 40
0.0
 40
0.2596528066
 40
1.0
 40
1.0
 40
1.0
 40
1.0
 10
582.7297493738
 20
132.1455335311
 30
0.0
 10
582.7297493738
 20
132.1279352251
 30
0.0
 10
582.7326091583
 20
132.060194387
 30
0.0
 10
582.746642968
 20
131.9928845934
 30
0.0
 10
582.7632474185
 20
131.9455335311
 30
0.0
  0
SPLINE
  5
40A
100
AcDbEntity
  8
128021_7
100
AcDbSpline
 62
7
  6
CONTINUOUS
 70
0
 71
3
 72
11
 73
7
 74
0
 42
0.0000001
 43
0.0000001
 44
0.0000000001
 40
0.0
 40
0.0
 40
0.0
 40
0.0
 40
0.250433949
 40
0.500548924
 40
0.7502087809
 40
1.0
 40
1.0
 40
1.0
 40
1.0
 10
582.7297493738
 20
158.3455335311
 30
0.0
 10
582.7297493738
 20
158.4238279333
 30
0.0
 10
582.6719369527
 20
158.5819915083
 30
0.0
 10
582.4884917817
 20
158.7373600578
 30
0.0
 10
582.268602086
 20
158.8262345342
 30
0.0
 10
582.1116957866
 20
158.8455335311
 30
0.0
 10
582.0336023242
 20
158.8455335311
 30
0.0
  0
SPLINE
  5
40B
100
AcDbEntity
  8
128021_7
100
AcDbSpline
 62
7
  6
CONTINUOUS
 70
0
 71
3
 72
11
 73
7
 74
0
 42
0.0000001
 43
0.0000001
 44
0.0000000001
 40
0.0
 40
0.0
 40
0.0
 40
0.0
 40
0.3344662923
 40
0.4724904147
 40
0.6311536651
 40
1.0
 40
1.0
 40
1.0
 40
1.0
 10
574.3529363811
 20
131.6455335311
 30
0.0
 10
574.3161675814
 20
131.6455335311
 30
0.0
 10
574.2816845466
 20
131.7100346874
 30
0.0
 10
574.2719589492
 20
131.7756311292
 30
0.0
 10
574.2705038879
 20
131.8498689491
 30
0.0
 10
574.2828334524
 20
131.90726965
 30
0.0
 10
574.2962513291
 20
131.9455335311
 30
0.0
  0
SPLINE
  5
40C
100
AcDbEntity
  8
128021_7
100
AcDbSpline
 62
7
  6
CONTINUOUS
 70
0
 71
3
 72
11
 73
7
 74
0
 42
0.0000001
 43
0.0000001
 44
0.0000000001
 40
0.0
 40
0.0
 40
0.0
 40
0.0
 40
0.2497915396
 40
0.4994512644
 40
0.7495662309
 40
1.0
 40
1.0
 40
1.0
 40
1.0
 10
575.0258964234
 20
158.8455335311
 30
0.0
 10
574.9478028597
 20
158.8455335311
 30
0.0
 10
574.7908964893
 20
158.8262345278
 30
0.0
 10
574.5710067854
 20
158.7373599266
 30
0.0
 10
574.3875617073
 20
158.5819914082
 30
0.0
 10
574.3297493738
 20
158.4238278782
 30
0.0
 10
574.3297493738
 20
158.3455335311
 30
0.0
  0
SPLINE
  5
40D
100
AcDbEntity
  8
128021_7
100
AcDbSpline
 62
7
  6
CONTINUOUS
 70
0
 71
3
 72
11
 73
7
 74
0
 42
0.0000001
 43
0.0000001
 44
0.0000000001
 40
0.0
 40
0.0
 40
0.0
 40
0.0
 40
0.3344071351
 40
0.4723798936
 40
0.6310295945
 40
1.0
 40
1.0
 40
1.0
 40
1.0
 10
582.7065623665
 20
131.6455335311
 30
0.0
 10
582.7433233179
 20
131.6455335311
 30
0.0
 10
582.7778071186
 20
131.7100124723
 30
0.0
 10
582.7875171616
 20
131.7755984568
 30
0.0
 10
582.788946414
 20
131.8498375802
 30
0.0
 10
582.7766693176
 20
131.9072581795
 30
0.0
 10
582.7632474185
 20
131.9455335311
 30
0.0
  0
SPLINE
  5
40E
100
AcDbEntity
  8
MANIFOLD_SOLID_BREP_179958
100
AcDbSpline
 62
7
  6
CONTINUOUS
 70
0
 71
3
 72
11
 73
7
 74
0
 42
0.0000001
 43
0.0000001
 44
0.0000000001
 40
0.0
 40
0.0
 40
0.0
 40
0.0
 40
0.2264289774
 40
0.4658222178
 40
0.7238820996
 40
1.0
 40
1.0
 40
1.0
 40
1.0
 10
568.7869635812
 20
28.2455335311
 30
0.0
 10
568.5020829466
 20
28.2455335311
 30
0.0
 10
567.9132589525
 20
28.1525294442
 30
0.0
 10
567.0775523449
 20
27.7719483349
 30
0.0
 10
566.2805150699
 20
27.2068170373
 30
0.0
 10
565.7850147644
 20
26.7507989217
 30
0.0
 10
565.539368317
 20
26.5051524744
 30
0.0
  0
SPLINE
  5
40F
100
AcDbEntity
  8
MANIFOLD_SOLID_BREP_179958
100
AcDbSpline
 62
7
  6
CONTINUOUS
 70
0
 71
3
 72
9
 73
5
 74
0
 42
0.0000001
 43
0.0000001
 44
0.0000000001
 40
0.0
 40
0.0
 40
0.0
 40
0.0
 40
0.4995671391
 40
1.0
 40
1.0
 40
1.0
 40
1.0
 10
578.5297493738
 20
28.2455335311
 30
0.0
 10
577.4022780947
 20
28.2455335311
 30
0.0
 10
575.1379775998
 20
27.8873776225
 30
0.0
 10
573.0447473862
 20
27.0102467447
 30
0.0
 10
572.0345588454
 20
26.5051524744
 30
0.0
  0
SPLINE
  5
410
100
AcDbEntity
  8
MANIFOLD_SOLID_BREP_179958
100
AcDbSpline
 62
7
  6
CONTINUOUS
 70
0
 71
3
 72
11
 73
7
 74
0
 42
0.0000001
 43
0.0000001
 44
0.0000000001
 40
0.0
 40
0.0
 40
0.0
 40
0.0
 40
0.2760479831
 40
0.5340970265
 40
0.7735198389
 40
1.0
 40
1.0
 40
1.0
 40
1.0
 10
572.0345588454
 20
26.5051524744
 30
0.0
 10
571.7889757481
 20
26.7507355716
 30
0.0
 10
571.2936772636
 20
27.2068137574
 30
0.0
 10
570.4966207952
 20
27.7718475101
 30
0.0
 10
569.6607913266
 20
28.1522719364
 30
0.0
 10
569.0719072798
 20
28.2455335311
 30
0.0
 10
568.7869635812
 20
28.2455335311
 30
0.0
  0
SPLINE
  5
411
100
AcDbEntity
  8
MANIFOLD_SOLID_BREP_179958
100
AcDbSpline
 62
7
  6
CONTINUOUS
 70
0
 71
3
 72
11
 73
7
 74
0
 42
0.0000001
 43
0.0000001
 44
0.0000000001
 40
0.0
 40
0.0
 40
0.0
 40
0.0
 40
0.2264289774
 40
0.4658222178
 40
0.7238820996
 40
1.0
 40
1.0
 40
1.0
 40
1.0
 10
588.2725351664
 20
28.2455335311
 30
0.0
 10
587.9876545317
 20
28.2455335311
 30
0.0
 10
587.3988305377
 20
28.1525294442
 30
0.0
 10
586.5631239301
 20
27.7719483349
 30
0.0
 10
585.766086655
 20
27.2068170373
 30
0.0
 10
585.2705863495
 20
26.7507989217
 30
0.0
 10
585.0249399022
 20
26.5051524744
 30
0.0
  0
SPLINE
  5
412
100
AcDbEntity
  8
MANIFOLD_SOLID_BREP_179958
100
AcDbSpline
 62
7
  6
CONTINUOUS
 70
0
 71
3
 72
9
 73
5
 74
0
 42
0.0000001
 43
0.0000001
 44
0.0000000001
 40
0.0
 40
0.0
 40
0.0
 40
0.0
 40
0.500341527
 40
1.0
 40
1.0
 40
1.0
 40
1.0
 10
585.0249399022
 20
26.5051524744
 30
0.0
 10
584.0149357288
 20
27.0101545611
 30
0.0
 10
581.9217328185
 20
27.8873271285
 30
0.0
 10
579.6574267862
 20
28.2455335311
 30
0.0
 10
578.5297493738
 20
28.2455335311
 30
0.0
  0
SPLINE
  5
413
100
AcDbEntity
  8
MANIFOLD_SOLID_BREP_179958
100
AcDbSpline
 62
7
  6
CONTINUOUS
 70
0
 71
3
 72
11
 73
7
 74
0
 42
0.0000001
 43
0.0000001
 44
0.0000000001
 40
0.0
 40
0.0
 40
0.0
 40
0.0
 40
0.226473782
 40
0.4658946982
 40
0.7239481496
 40
1.0
 40
1.0
 40
1.0
 40
1.0
 10
568.7869635812
 20
15.9455335311
 30
0.0
 10
568.5020264965
 20
15.9455335311
 30
0.0
 10
567.9131360842
 20
16.0387128133
 30
0.0
 10
567.0773253729
 20
16.4191999026
 30
0.0
 10
566.2802522755
 20
16.9842228485
 30
0.0
 10
565.7849560718
 20
17.4403268332
 30
0.0
 10
565.539368317
 20
17.6859145879
 30
0.0
  0
SPLINE
  5
414
100
AcDbEntity
  8
MANIFOLD_SOLID_BREP_179958
100
AcDbSpline
 62
7
  6
CONTINUOUS
 70
0
 71
3
 72
11
 73
7
 74
0
 42
0.0000001
 43
0.0000001
 44
0.0000000001
 40
0.0
 40
0.0
 40
0.0
 40
0.0
 40
0.2264289778
 40
0.4658222175
 40
0.7238820985
 40
1.0
 40
1.0
 40
1.0
 40
1.0
 10
568.7869635812
 20
15.9455335311
 30
0.0
 10
569.0718442163
 20
15.9455335311
 30
0.0
 10
569.6606682099
 20
16.0385376184
 30
0.0
 10
570.4963748165
 20
16.4191187267
 30
0.0
 10
571.2934120912
 20
16.984250024
 30
0.0
 10
571.7889123972
 20
17.4402681397
 30
0.0
 10
572.0345588454
 20
17.6859145879
 30
0.0
  0
SPLINE
  5
415
100
AcDbEntity
  8
MANIFOLD_SOLID_BREP_179958
100
AcDbSpline
 62
7
  6
CONTINUOUS
 70
0
 71
3
 72
11
 73
7
 74
0
 42
0.0000001
 43
0.0000001
 44
0.0000000001
 40
0.0
 40
0.0
 40
0.0
 40
0.0
 40
0.2760479831
 40
0.5340970265
 40
0.7735198389
 40
1.0
 40
1.0
 40
1.0
 40
1.0
 10
591.5201304306
 20
26.5051524744
 30
0.0
 10
591.2745473333
 20
26.7507355716
 30
0.0
 10
590.7792488488
 20
27.2068137574
 30
0.0
 10
589.9821923803
 20
27.7718475101
 30
0.0
 10
589.1463629117
 20
28.1522719364
 30
0.0
 10
588.5574788649
 20
28.2455335311
 30
0.0
 10
588.2725351664
 20
28.2455335311
 30
0.0
  0
SPLINE
  5
416
100
AcDbEntity
  8
MANIFOLD_SOLID_BREP_179958
100
AcDbSpline
 62
7
  6
CONTINUOUS
 70
0
 71
3
 72
9
 73
5
 74
0
 42
0.0000001
 43
0.0000001
 44
0.0000000001
 40
0.0
 40
0.0
 40
0.0
 40
0.0
 40
0.4996479859
 40
1.0
 40
1.0
 40
1.0
 40
1.0
 10
578.5297493738
 20
15.9455335311
 30
0.0
 10
577.4020943788
 20
15.9455335311
 30
0.0
 10
575.1377736714
 20
16.3036723148
 30
0.0
 10
573.0445853087
 20
17.1809013563
 30
0.0
 10
572.0345588454
 20
17.6859145879
 30
0.0
  0
SPLINE
  5
417
100
AcDbEntity
  8
MANIFOLD_SOLID_BREP_179958
100
AcDbSpline
 62
7
  6
CONTINUOUS
 70
0
 71
3
 72
9
 73
5
 74
0
 42
0.0000001
 43
0.0000001
 44
0.0000000001
 40
0.0
 40
0.0
 40
0.0
 40
0.0
 40
0.499624974
 40
1.0
 40
1.0
 40
1.0
 40
1.0
 10
578.5297493738
 20
15.9455335311
 30
0.0
 10
579.6573522513
 20
15.9455335311
 30
0.0
 10
581.9216693418
 20
16.3036685605
 30
0.0
 10
584.0148671494
 20
17.1808782115
 30
0.0
 10
585.0249399022
 20
17.6859145879
 30
0.0
  0
SPLINE
  5
418
100
AcDbEntity
  8
MANIFOLD_SOLID_BREP_179958
100
AcDbSpline
 62
7
  6
CONTINUOUS
 70
0
 71
3
 72
11
 73
7
 74
0
 42
0.0000001
 43
0.0000001
 44
0.0000000001
 40
0.0
 40
0.0
 40
0.0
 40
0.0
 40
0.226473782
 40
0.4658946982
 40
0.7239481496
 40
1.0
 40
1.0
 40
1.0
 40
1.0
 10
588.2725351664
 20
15.9455335311
 30
0.0
 10
587.9875980817
 20
15.9455335311
 30
0.0
 10
587.3987076694
 20
16.0387128133
 30
0.0
 10
586.5628969581
 20
16.4191999026
 30
0.0
 10
585.7658238607
 20
16.9842228485
 30
0.0
 10
585.2705276569
 20
17.4403268332
 30
0.0
 10
585.0249399022
 20
17.6859145879
 30
0.0
  0
SPLINE
  5
419
100
AcDbEntity
  8
MANIFOLD_SOLID_BREP_179958
100
AcDbSpline
 62
7
  6
CONTINUOUS
 70
0
 71
3
 72
9
 73
5
 74
0
 42
0.0000001
 43
0.0000001
 44
0.0000000001
 40
0.0
 40
0.0
 40
0.0
 40
0.0
 40
0.4844504504
 40
1.0
 40
1.0
 40
1.0
 40
1.0
 10
588.2725351664
 20
15.9455335311
 30
0.0
 10
588.5780399914
 20
15.9455335311
 30
0.0
 10
589.211580565
 20
16.0533198523
 30
0.0
 10
589.7841043383
 20
16.3325953139
 30
0.0
 10
590.062109537
 20
16.5011595506
 30
0.0
  0
SPLINE
  5
41A
100
AcDbEntity
  8
MANIFOLD_SOLID_BREP_179958
100
AcDbSpline
 62
7
  6
CONTINUOUS
 70
0
 71
3
 72
9
 73
5
 74
0
 42
0.0000001
 43
0.0000001
 44
0.0000000001
 40
0.0
 40
0.0
 40
0.0
 40
0.0
 40
0.2384018847
 40
1.0
 40
1.0
 40
1.0
 40
1.0
 10
590.062109537
 20
16.5011595506
 30
0.0
 10
590.18995853
 20
16.5786788489
 30
0.0
 10
590.7121752843
 20
16.9271309429
 30
0.0
 10
591.1823887233
 20
17.3481728807
 30
0.0
 10
591.5201304306
 20
17.6859145879
 30
0.0
  0
SPLINE
  5
41B
100
AcDbEntity
  8
125049_4
100
AcDbSpline
 62
7
  6
CONTINUOUS
 70
0
 71
3
 72
9
 73
5
 74
0
 42
0.0000001
 43
0.0000001
 44
0.0000000001
 40
0.0
 40
0.0
 40
0.0
 40
0.0
 40
0.2543653778
 40
1.0
 40
1.0
 40
1.0
 40
1.0
 10
381.6735062716
 20
181.8192118422
 30
0.0
 10
381.6903797841
 20
181.8083459887
 30
0.0
 10
381.7595861724
 20
181.7702456059
 30
0.0
 10
381.8402071901
 20
181.7530079719
 30
0.0
 10
381.8990302851
 20
181.7539469884
 30
0.0
  0
SPLINE
  5
41C
100
AcDbEntity
  8
125049_4
100
AcDbSpline
 62
7
  6
CONTINUOUS
 70
0
 71
3
 72
9
 73
5
 74
0
 42
0.0000001
 43
0.0000001
 44
0.0000000001
 40
0.0
 40
0.0
 40
0.0
 40
0.0
 40
0.519108728
 40
1.0
 40
1.0
 40
1.0
 40
1.0
 10
407.2207408677
 20
188.7455335311
 30
0.0
 10
407.8990115493
 20
188.7455335311
 30
0.0
 10
409.2044232148
 20
188.8820060284
 30
0.0
 10
410.4881154272
 20
189.1226198857
 30
0.0
 10
411.1043116276
 20
189.2455335311
 30
0.0
  0
SPLINE
  5
41D
100
AcDbEntity
  8
125049_4
100
AcDbSpline
 62
7
  6
CONTINUOUS
 70
0
 71
3
 72
9
 73
5
 74
0
 42
0.0000001
 43
0.0000001
 44
0.0000000001
 40
0.0
 40
0.0
 40
0.0
 40
0.0
 40
0.746243135
 40
1.0
 40
1.0
 40
1.0
 40
1.0
 10
384.6747860007
 20
181.7539469884
 30
0.0
 10
384.7436534298
 20
181.752899497
 30
0.0
 10
384.8381853004
 20
181.7745042336
 30
0.0
 10
384.917645106
 20
181.821734215
 30
0.0
 10
384.9368485882
 20
181.8351416649
 30
0.0
  0
SPLINE
  5
41E
100
AcDbEntity
  8
125049_4
100
AcDbSpline
 62
7
  6
CONTINUOUS
 70
0
 71
3
 72
9
 73
5
 74
0
 42
0.0000001
 43
0.0000001
 44
0.0000000001
 40
0.0
 40
0.0
 40
0.0
 40
0.0
 40
0.4947819848
 40
1.0
 40
1.0
 40
1.0
 40
1.0
 10
384.9368485882
 20
181.8351416649
 30
0.0
 10
385.0030769604
 20
181.8813808611
 30
0.0
 10
385.1134817667
 20
182.0120809712
 30
0.0
 10
385.1504603727
 20
182.1777972478
 30
0.0
 10
385.1504603727
 20
182.2602738191
 30
0.0
  0
SPLINE
  5
41F
100
AcDbEntity
  8
123007_8
100
AcDbSpline
 62
7
  6
CONTINUOUS
 70
0
 71
3
 72
18
 73
14
 74
0
 42
0.0000001
 43
0.0000001
 44
0.0000000001
 40
0.0
 40
0.0
 40
0.0
 40
0.0
 40
0.1860371398
 40
0.3656060927
 40
0.5324954296
 40
0.6809029138
 40
0.8056823179
 40
0.8578197639
 40
0.9025023387
 40
0.9393390639
 40
0.9680148124
 40
0.9882878613
 40
1.0
 40
1.0
 40
1.0
 40
1.0
 10
392.9436661349
 20
194.6105335311
 30
0.0
 10
391.9542466374
 20
194.5958230739
 30
0.0
 10
390.0098107058
 20
194.5667284998
 30
0.0
 10
387.177812132
 20
194.5230493519
 30
0.0
 10
384.5459873174
 20
194.4794535377
 30
0.0
 10
382.2056314446
 20
194.4360550711
 30
0.0
 10
380.4756326055
 20
194.3984262461
 30
0.0
 10
379.2973679906
 20
194.3672033253
 30
0.0
 10
378.5867620358
 20
194.3454064877
 30
0.0
 10
378.0010911151
 20
194.3235209261
 30
0.0
 10
377.5451356167
 20
194.3026877852
 30
0.0
 10
377.2234497881
 20
194.2809633906
 30
0.0
 10
377.0535767397
 20
194.2658745438
 30
0.0
 10
376.9923905737
 20
194.2541642311
 30
0.0
  0
SPLINE
  5
420
100
AcDbEntity
  8
123007_8
100
AcDbSpline
 62
7
  6
CONTINUOUS
 70
0
 71
3
 72
9
 73
5
 74
0
 42
0.0000001
 43
0.0000001
 44
0.0000000001
 40
0.0
 40
0.0
 40
0.0
 40
0.0
 40
0.7107180923
 40
1.0
 40
1.0
 40
1.0
 40
1.0
 10
376.9923905737
 20
194.2541642311
 30
0.0
 10
376.9800479579
 20
194.2518019995
 30
0.0
 10
376.965915813
 20
194.2485935894
 30
0.0
 10
376.9436662997
 20
194.2406477746
 30
0.0
 10
376.9436661608
 20
194.2355328071
 30
0.0
  0
SPLINE
  5
421
100
AcDbEntity
  8
123007_8
100
AcDbSpline
 62
7
  6
CONTINUOUS
 70
0
 71
3
 72
18
 73
14
 74
0
 42
0.0000001
 43
0.0000001
 44
0.0000000001
 40
0.0
 40
0.0
 40
0.0
 40
0.0
 40
0.1858639743
 40
0.3652789093
 40
0.532052591
 40
0.6803998543
 40
0.8051873397
 40
0.8573569252
 40
0.9020914176
 40
0.939000663
 40
0.9677694787
 40
0.9881557441
 40
1.0
 40
1.0
 40
1.0
 40
1.0
 10
392.9436661349
 20
194.6305335311
 30
0.0
 10
393.9320400708
 20
194.645041976
 30
0.0
 10
395.8744811006
 20
194.6744118519
 30
0.0
 10
398.7037623795
 20
194.7178882812
 30
0.0
 10
401.3334932133
 20
194.7614899393
 30
0.0
 10
403.6726561089
 20
194.8048307851
 30
0.0
 10
405.4023259215
 20
194.8424242015
 30
0.0
 10
406.5809304517
 20
194.8736070399
 30
0.0
 10
407.2922770462
 20
194.8953870785
 30
0.0
 10
407.8790346328
 20
194.9172418918
 30
0.0
 10
408.3364060699
 20
194.9380897302
 30
0.0
 10
408.6598746722
 20
194.9597519382
 30
0.0
 10
408.8310067723
 20
194.974908672
 30
0.0
 10
408.8929187416
 20
194.9865195746
 30
0.0
  0
SPLINE
  5
422
100
AcDbEntity
  8
123007_8
100
AcDbSpline
 62
7
  6
CONTINUOUS
 70
0
 71
3
 72
9
 73
5
 74
0
 42
0.0000001
 43
0.0000001
 44
0.0000000001
 40
0.0
 40
0.0
 40
0.0
 40
0.0
 40
0.7119879166
 40
1.0
 40
1.0
 40
1.0
 40
1.0
 10
408.8929187416
 20
194.9865195746
 30
0.0
 10
408.9057672175
 20
194.9889291636
 30
0.0
 10
408.9203648941
 20
194.9922473348
 30
0.0
 10
408.9436667188
 20
195.0002458796
 30
0.0
 10
408.9436661349
 20
195.0055339315
 30
0.0
  0
SPLINE
  5
423
100
AcDbEntity
  8
123007_8
100
AcDbSpline
 62
7
  6
CONTINUOUS
 70
0
 71
3
 72
18
 73
14
 74
0
 42
0.0000001
 43
0.0000001
 44
0.0000000001
 40
0.0
 40
0.0
 40
0.0
 40
0.0
 40
0.1859840215
 40
0.3655056106
 40
0.5323570644
 40
0.680743793
 40
0.8055257994
 40
0.8576739682
 40
0.9023731552
 40
0.939232242
 40
0.9679370006
 40
0.9882459283
 40
1.0
 40
1.0
 40
1.0
 40
1.0
 10
392.9436661349
 20
196.1105335311
 30
0.0
 10
391.9545736127
 20
196.0955350857
 30
0.0
 10
390.0107436374
 20
196.0669287858
 30
0.0
 10
387.1795993898
 20
196.0230160785
 30
0.0
 10
384.5484436685
 20
195.979513149
 30
0.0
 10
382.2084807843
 20
195.9361071479
 30
0.0
 10
380.4785913934
 20
195.8984952284
 30
0.0
 10
379.3002147621
 20
195.8672840134
 30
0.0
 10
378.589373447
 20
195.8454927409
 30
0.0
 10
378.0033629281
 20
195.8236170161
 30
0.0
 10
377.5469644931
 20
195.8027790362
 30
0.0
 10
377.2247155757
 20
195.7810750917
 30
0.0
 10
377.0544433126
 20
195.7659642103
 30
0.0
 10
376.9930265959
 20
195.7542856953
 30
0.0
  0
SPLINE
  5
424
100
AcDbEntity
  8
123007_8
100
AcDbSpline
 62
7
  6
CONTINUOUS
 70
0
 71
3
 72
9
 73
5
 74
0
 42
0.0000001
 43
0.0000001
 44
0.0000000001
 40
0.0
 40
0.0
 40
0.0
 40
0.0
 40
0.7111162158
 40
1.0
 40
1.0
 40
1.0
 40
1.0
 10
376.9930265959
 20
195.7542856953
 30
0.0
 10
376.98052519
 20
195.7519085272
 30
0.0
 10
376.9662459663
 20
195.7486654084
 30
0.0
 10
376.9436668
 20
195.7407031133
 30
0.0
 10
376.9436661485
 20
195.7355335437
 30
0.0
  0
SPLINE
  5
425
100
AcDbEntity
  8
123007_8
100
AcDbSpline
 62
7
  6
CONTINUOUS
 70
0
 71
3
 72
15
 73
11
 74
0
 42
0.0000001
 43
0.0000001
 44
0.0000000001
 40
0.0
 40
0.0
 40
0.0
 40
0.0
 40
0.3515189291
 40
0.5134332739
 40
0.6592133225
 40
0.784289564
 40
0.8847313674
 40
0.9573869486
 40
0.9825503532
 40
1.0
 40
1.0
 40
1.0
 40
1.0
 10
392.9436661349
 20
196.1305335311
 30
0.0
 10
394.7975001442
 20
196.1577154935
 30
0.0
 10
397.5052182036
 20
196.1985686526
 30
0.0
 10
400.9816757662
 20
196.2554620952
 30
0.0
 10
403.263880446
 20
196.2969138114
 30
0.0
 10
405.2218228849
 20
196.3378590486
 30
0.0
 10
406.7939474917
 20
196.3786288523
 30
0.0
 10
407.839128494
 20
196.4137636132
 30
0.0
 10
408.446287542
 20
196.444835794
 30
0.0
 10
408.6705625823
 20
196.4604411057
 30
0.0
 10
408.7621473406
 20
196.4695388071
 30
0.0
  0
SPLINE
  5
426
100
AcDbEntity
  8
123007_8
100
AcDbSpline
 62
7
  6
CONTINUOUS
 70
0
 71
3
 72
10
 73
6
 74
0
 42
0.0000001
 43
0.0000001
 44
0.0000000001
 40
0.0
 40
0.0
 40
0.0
 40
0.0
 40
0.6741187962
 40
0.8798979887
 40
1.0
 40
1.0
 40
1.0
 40
1.0
 10
408.7621473406
 20
196.4695388071
 30
0.0
 10
408.8023844321
 20
196.4735358154
 30
0.0
 10
408.8551544605
 20
196.4789548688
 30
0.0
 10
408.9137038333
 20
196.4905696192
 30
0.0
 10
408.9328749134
 20
196.4959885362
 30
0.0
 10
408.9390033024
 20
196.4997753841
 30
0.0
  0
SPLINE
  5
427
100
AcDbEntity
  8
123007_8
100
AcDbSpline
 62
7
  6
CONTINUOUS
 70
0
 71
3
 72
9
 73
5
 74
0
 42
0.0000001
 43
0.0000001
 44
0.0000000001
 40
0.0
 40
0.0
 40
0.0
 40
0.0
 40
0.5488565147
 40
1.0
 40
1.0
 40
1.0
 40
1.0
 10
408.9390033024
 20
196.4997753841
 30
0.0
 10
408.9397059567
 20
196.5002095676
 30
0.0
 10
408.9409495011
 20
196.501063269
 30
0.0
 10
408.9420511291
 20
196.5021057709
 30
0.0
 10
408.9424804305
 20
196.5026317405
 30
0.0
  0
SPLINE
  5
428
100
AcDbEntity
  8
123007_8
100
AcDbSpline
 62
7
  6
CONTINUOUS
 70
0
 71
3
 72
9
 73
5
 74
0
 42
0.0000001
 43
0.0000001
 44
0.0000000001
 40
0.0
 40
0.0
 40
0.0
 40
0.0
 40
0.5346201564
 40
1.0
 40
1.0
 40
1.0
 40
1.0
 10
408.9424804305
 20
196.5026317405
 30
0.0
 10
408.9428387684
 20
196.5030707673
 30
0.0
 10
408.94342859
 20
196.5039720282
 30
0.0
 10
408.9436651094
 20
196.5050379385
 30
0.0
 10
408.9436657312
 20
196.5055312443
 30
0.0
  0
SPLINE
  5
429
100
AcDbEntity
  8
123007_8
100
AcDbSpline
 62
7
  6
CONTINUOUS
 70
0
 71
3
 72
20
 73
16
 74
0
 42
0.0000001
 43
0.0000001
 44
0.0000000001
 40
0.0
 40
0.0
 40
0.0
 40
0.0
 40
0.2237465269
 40
0.4228197406
 40
0.5948776687
 40
0.7380327406
 40
0.7983728855
 40
0.8510553977
 40
0.8959405278
 40
0.932878051
 40
0.9617246289
 40
0.9824192987
 40
0.9950137151
 40
0.9983559955
 40
1.0
 40
1.0
 40
1.0
 40
1.0
 10
382.5470405626
 20
196.9395304175
 30
0.0
 10
382.1919253363
 20
196.9318338606
 30
0.0
 10
381.5208682756
 20
196.9166409245
 30
0.0
 10
380.5768000937
 20
196.8926779414
 30
0.0
 10
379.7607135847
 20
196.8688125349
 30
0.0
 10
379.1648805467
 20
196.8480532083
 30
0.0
 10
378.7585461136
 20
196.8310061078
 30
0.0
 10
378.5081683085
 20
196.8190058215
 30
0.0
 10
378.2949256832
 20
196.8070363175
 30
0.0
 10
378.1197622832
 20
196.795238465
 30
0.0
 10
377.9826303097
 20
196.7833959094
 30
0.0
 10
377.8853842733
 20
196.7723634757
 30
0.0
 10
377.8267356601
 20
196.7616519153
 30
0.0
 10
377.8013854559
 20
196.753598875
 30
0.0
 10
377.7938764618
 20
196.747758551
 30
0.0
 10
377.7938531518
 20
196.7451487905
 30
0.0
  0
SPLINE
  5
42A
100
AcDbEntity
  8
123007_8
100
AcDbSpline
 62
7
  6
CONTINUOUS
 70
0
 71
3
 72
12
 73
8
 74
0
 42
0.0000001
 43
0.0000001
 44
0.0000000001
 40
0.0
 40
0.0
 40
0.0
 40
0.0
 40
0.3686993104
 40
0.6633763524
 40
0.8757839147
 40
0.9491858882
 40
1.0
 40
1.0
 40
1.0
 40
1.0
 10
381.9637999849
 20
197.4299779767
 30
0.0
 10
381.3664176438
 20
197.4179381994
 30
0.0
 10
380.2916196439
 20
197.3941486214
 30
0.0
 10
378.8728908052
 20
197.3556645421
 30
0.0
 10
377.9326852423
 20
197.3223290898
 30
0.0
 10
377.387970739
 20
197.2928948501
 30
0.0
 10
377.1871513003
 20
197.2781098849
 30
0.0
 10
377.1052558261
 20
197.2694895874
 30
0.0
  0
SPLINE
  5
42B
100
AcDbEntity
  8
123007_8
100
AcDbSpline
 62
7
  6
CONTINUOUS
 70
0
 71
3
 72
10
 73
6
 74
0
 42
0.0000001
 43
0.0000001
 44
0.0000000001
 40
0.0
 40
0.0
 40
0.0
 40
0.0
 40
0.6650777498
 40
0.8731933723
 40
1.0
 40
1.0
 40
1.0
 40
1.0
 10
377.1052558261
 20
197.2694895874
 30
0.0
 10
377.0702295928
 20
197.2658027348
 30
0.0
 10
377.0240965197
 20
197.2606836847
 30
0.0
 10
376.9723522611
 20
197.2501962775
 30
0.0
 10
376.9550957894
 20
197.2451417034
 30
0.0
 10
376.9492515622
 20
197.2418344034
 30
0.0
  0
SPLINE
  5
42C
100
AcDbEntity
  8
123007_8
100
AcDbSpline
 62
7
  6
CONTINUOUS
 70
0
 71
3
 72
9
 73
5
 74
0
 42
0.0000001
 43
0.0000001
 44
0.0000000001
 40
0.0
 40
0.0
 40
0.0
 40
0.0
 40
0.5510353833
 40
1.0
 40
1.0
 40
1.0
 40
1.0
 10
376.9492515622
 20
197.2418344034
 30
0.0
 10
376.9484334385
 20
197.2413714199
 30
0.0
 10
376.9469851791
 20
197.2404635916
 30
0.0
 10
376.9456790597
 20
197.2393470674
 30
0.0
 10
376.9451634282
 20
197.2387807204
 30
0.0
  0
SPLINE
  5
42D
100
AcDbEntity
  8
123007_8
100
AcDbSpline
 62
7
  6
CONTINUOUS
 70
0
 71
3
 72
9
 73
5
 74
0
 42
0.0000001
 43
0.0000001
 44
0.0000000001
 40
0.0
 40
0.0
 40
0.0
 40
0.0
 40
0.5414085827
 40
1.0
 40
1.0
 40
1.0
 40
1.0
 10
376.9451634282
 20
197.2387807204
 30
0.0
 10
376.9447232748
 20
197.2382972754
 30
0.0
 10
376.9439929321
 20
197.2373092251
 30
0.0
 10
376.9436869504
 20
197.2360956587
 30
0.0
 10
376.9436858651
 20
197.2355418692
 30
0.0
  0
SPLINE
  5
42E
100
AcDbEntity
  8
123007_8
100
AcDbSpline
 62
7
  6
CONTINUOUS
 70
0
 71
3
 72
11
 73
7
 74
0
 42
0.0000001
 43
0.0000001
 44
0.0000000001
 40
0.0
 40
0.0
 40
0.0
 40
0.0
 40
0.2738887796
 40
0.5380002121
 40
0.7829445879
 40
1.0
 40
1.0
 40
1.0
 40
1.0
 10
392.9436661349
 20
197.6098023736
 30
0.0
 10
391.9412254908
 20
197.5945859466
 30
0.0
 10
389.9720911984
 20
197.5672870371
 30
0.0
 10
387.1065226234
 20
197.5216555292
 30
0.0
 10
384.4490274621
 20
197.4757625376
 30
0.0
 10
382.758147403
 20
197.4465582238
 30
0.0
 10
381.9637999849
 20
197.4299779767
 30
0.0
  0
SPLINE
  5
42F
100
AcDbEntity
  8
123007_8
100
AcDbSpline
 62
7
  6
CONTINUOUS
 70
0
 71
3
 72
18
 73
14
 74
0
 42
0.0000001
 43
0.0000001
 44
0.0000000001
 40
0.0
 40
0.0
 40
0.0
 40
0.0
 40
0.1859600794
 40
0.3654603456
 40
0.5322957501
 40
0.6806741355
 40
0.8054571832
 40
0.8576098005
 40
0.90231621
 40
0.9391853787
 40
0.9679030443
 40
0.9882276516
 40
1.0
 40
1.0
 40
1.0
 40
1.0
 10
392.9436661349
 20
197.6305335311
 30
0.0
 10
393.932613745
 20
197.6455297785
 30
0.0
 10
395.876168432
 20
197.6741321509
 30
0.0
 10
398.7069362814
 20
197.7180383291
 30
0.0
 10
401.3378021177
 20
197.7615353534
 30
0.0
 10
403.6775992957
 20
197.8049352759
 30
0.0
 10
405.4074427977
 20
197.8425415527
 30
0.0
 10
406.5858663177
 20
197.8737475443
 30
0.0
 10
407.2968106094
 20
197.895536641
 30
0.0
 10
407.8829721465
 20
197.9174079343
 30
0.0
 10
408.3395670072
 20
197.9382478861
 30
0.0
 10
408.6620628569
 20
197.9599432463
 30
0.0
 10
408.8325093636
 20
197.9750636396
 30
0.0
 10
408.8940265132
 20
197.9867283588
 30
0.0
  0
SPLINE
  5
430
100
AcDbEntity
  8
123007_8
100
AcDbSpline
 62
7
  6
CONTINUOUS
 70
0
 71
3
 72
9
 73
5
 74
0
 42
0.0000001
 43
0.0000001
 44
0.0000000001
 40
0.0
 40
0.0
 40
0.0
 40
0.0
 40
0.7112934229
 40
1.0
 40
1.0
 40
1.0
 40
1.0
 10
408.8940265132
 20
197.9867283588
 30
0.0
 10
408.9065977427
 20
197.9891120821
 30
0.0
 10
408.9209412325
 20
197.9923702761
 30
0.0
 10
408.9436656153
 20
198.0003400674
 30
0.0
 10
408.9436661267
 20
198.0055335183
 30
0.0
  0
SPLINE
  5
431
100
AcDbEntity
  8
123007_8
100
AcDbSpline
 62
7
  6
CONTINUOUS
 70
0
 71
3
 72
42
 73
38
 74
0
 42
0.0000001
 43
0.0000001
 44
0.0000000001
 40
0.0
 40
0.0
 40
0.0
 40
0.0
 40
0.0002430864
 40
0.0007285642
 40
0.0025493886
 40
0.0055333562
 40
0.0096839555
 40
0.0149955231
 40
0.0214518839
 40
0.0290346622
 40
0.0377252761
 40
0.0583577998
 40
0.0831932715
 40
0.111975047
 40
0.1444056755
 40
0.1802060256
 40
0.2190467404
 40
0.2605413925
 40
0.3042960316
 40
0.3969379933
 40
0.4934822182
 40
0.5902697678
 40
0.6836640756
 40
0.7701175285
 40
0.8097141752
 40
0.8463919327
 40
0.8797904513
 40
0.9095785118
 40
0.9355098718
 40
0.957340933
 40
0.9748236557
 40
0.9818868133
 40
0.9878159062
 40
0.9925997794
 40
0.9962277841
 40
0.9986920431
 40
1.0
 40
1.0
 40
1.0
 40
1.0
 10
408.0933437411
 20
195.4960761954
 30
0.0
 10
408.0933239989
 20
195.493620062
 30
0.0
 10
408.0865440802
 20
195.4880342713
 30
0.0
 10
408.0631137589
 20
195.4802904354
 30
0.0
 10
408.00938286
 20
195.4700803168
 30
0.0
 10
407.9201575917
 20
195.4595106397
 30
0.0
 10
407.7946099574
 20
195.4481862065
 30
0.0
 10
407.6342663358
 20
195.4368982579
 30
0.0
 10
407.4390340139
 20
195.4254530756
 30
0.0
 10
407.2096644184
 20
195.4139786948
 30
0.0
 10
406.8371058541
 20
195.3976762855
 30
0.0
 10
406.2902298182
 20
195.3778123908
 30
0.0
 10
405.5403331394
 20
195.3549908136
 30
0.0
 10
404.6711819719
 20
195.3320772413
 30
0.0
 10
403.6912069579
 20
195.3090738542
 30
0.0
 10
402.6095693588
 20
195.2860389508
 30
0.0
 10
401.4363278684
 20
195.2629810818
 30
0.0
 10
400.1827000969
 20
195.2398992994
 30
0.0
 10
398.3855113438
 20
195.2085016654
 30
0.0
 10
396.0321288427
 20
195.1698723434
 30
0.0
 10
393.1429300747
 20
195.1242915385
 30
0.0
 10
390.2461286726
 20
195.0786907029
 30
0.0
 10
387.4512989175
 20
195.0331688501
 30
0.0
 10
385.2343109695
 20
194.9942915363
 30
0.0
 10
383.5903682877
 20
194.9625998292
 30
0.0
 10
382.4824416214
 20
194.939558985
 30
0.0
 10
381.4736453703
 20
194.9165633257
 30
0.0
 10
380.573465329
 20
194.8935985762
 30
0.0
 10
379.7902015327
 20
194.8707446144
 30
0.0
 10
379.1313422659
 20
194.848028444
 30
0.0
 10
378.6631288442
 20
194.8281938897
 30
0.0
 10
378.3556661098
 20
194.8116821573
 30
0.0
 10
378.1763499874
 20
194.80034676
 30
0.0
 10
378.0320399262
 20
194.7888721048
 30
0.0
 10
377.922288497
 20
194.7782532008
 30
0.0
 10
377.8490743031
 20
194.7666963703
 30
0.0
 10
377.8106934162
 20
194.759272065
 30
0.0
 10
377.7992741259
 20
194.7526191379
 30
0.0
  0
SPLINE
  5
432
100
AcDbEntity
  8
123007_8
100
AcDbSpline
 62
7
  6
CONTINUOUS
 70
0
 71
3
 72
13
 73
9
 74
0
 42
0.0000001
 43
0.0000001
 44
0.0000000001
 40
0.0
 40
0.0
 40
0.0
 40
0.0
 40
0.0238842784
 40
0.0735187928
 40
0.1525251878
 40
0.2615663574
 40
0.5703069006
 40
1.0
 40
1.0
 40
1.0
 40
1.0
 10
408.0933569367
 20
193.9962570394
 30
0.0
 10
408.093374136
 20
193.993502593
 30
0.0
 10
408.0850829677
 20
193.9873615065
 30
0.0
 10
408.0692570138
 20
193.9825741675
 30
0.0
 10
408.0420245845
 20
193.9761205863
 30
0.0
 10
407.9857392662
 20
193.967139761
 30
0.0
 10
407.8883428181
 20
193.9562102749
 30
0.0
 10
407.8035483514
 20
193.9492417202
 30
0.0
 10
407.7541319696
 20
193.9455353902
 30
0.0
  0
SPLINE
  5
433
100
AcDbEntity
  8
123007_8
100
AcDbSpline
 62
7
  6
CONTINUOUS
 70
0
 71
3
 72
23
 73
19
 74
0
 42
0.0000001
 43
0.0000001
 44
0.0000000001
 40
0.0
 40
0.0
 40
0.0
 40
0.0
 40
0.0025374341
 40
0.0073454076
 40
0.0144467612
 40
0.0238362152
 40
0.0354921008
 40
0.0493891677
 40
0.083783265
 40
0.1266984845
 40
0.1777406801
 40
0.2364365469
 40
0.302237931
 40
0.3745359737
 40
0.4526528161
 40
0.6233997631
 40
0.8081284023
 40
1.0
 40
1.0
 40
1.0
 40
1.0
 10
408.9381354079
 20
196.4792595073
 30
0.0
 10
408.9263626499
 20
196.4725820424
 30
0.0
 10
408.8868566861
 20
196.4653295291
 30
0.0
 10
408.8113415764
 20
196.4537859837
 30
0.0
 10
408.6978414133
 20
196.4432950636
 30
0.0
 10
408.5482847799
 20
196.4319012689
 30
0.0
 10
408.3621805944
 20
196.420667317
 30
0.0
 10
408.0428662639
 20
196.4042937898
 30
0.0
 10
407.5567426194
 20
196.3846313648
 30
0.0
 10
406.8724942149
 20
196.3620671523
 30
0.0
 10
406.0585538325
 20
196.3394048634
 30
0.0
 10
405.1225055131
 20
196.3166393154
 30
0.0
 10
404.0730491965
 20
196.2938210318
 30
0.0
 10
402.9199808878
 20
196.2709662602
 30
0.0
 10
401.2071968512
 20
196.2395055181
 30
0.0
 10
398.8947406381
 20
196.2009973931
 30
0.0
 10
395.975551527
 20
196.1556059113
 30
0.0
 10
393.9669887415
 20
196.1260510362
 30
0.0
 10
392.9436661349
 20
196.1105335311
 30
0.0
  0
SPLINE
  5
434
100
AcDbEntity
  8
123007_8
100
AcDbSpline
 62
7
  6
CONTINUOUS
 70
0
 71
3
 72
42
 73
38
 74
0
 42
0.0000001
 43
0.0000001
 44
0.0000000001
 40
0.0
 40
0.0
 40
0.0
 40
0.0
 40
0.0013185224
 40
0.0037914411
 40
0.0074305574
 40
0.0122342738
 40
0.0181903614
 40
0.0252807488
 40
0.0427903413
 40
0.0646178798
 40
0.0905881142
 40
0.1204189352
 40
0.1538188193
 40
0.1905048134
 40
0.2301242194
 40
0.3165985661
 40
0.4099931956
 40
0.506782931
 40
0.6033042034
 40
0.6959298753
 40
0.739670656
 40
0.7811409636
 40
0.8199570709
 40
0.8557537221
 40
0.8881731762
 40
0.9169078712
 40
0.9417215789
 40
0.9623636319
 40
0.9710433179
 40
0.9786055612
 40
0.9850389523
 40
0.9903323054
 40
0.9944745866
 40
0.9974562498
 40
0.9992742387
 40
0.9997579555
 40
1.0
 40
1.0
 40
1.0
 40
1.0
 10
408.0879456376
 20
195.988469345
 30
0.0
 10
408.0763845199
 20
195.9818481054
 30
0.0
 10
408.0378462428
 20
195.9743964856
 30
0.0
 10
407.9642924346
 20
195.9628433433
 30
0.0
 10
407.8541528211
 20
195.9522069699
 30
0.0
 10
407.7092467188
 20
195.9407419374
 30
0.0
 10
407.5291796329
 20
195.929413159
 30
0.0
 10
407.2208893703
 20
195.9129258145
 30
0.0
 10
406.7521584218
 20
195.8930876645
 30
0.0
 10
406.0926610513
 20
195.8703277657
 30
0.0
 10
405.3085947631
 20
195.8475044648
 30
0.0
 10
404.4075615836
 20
195.8245563181
 30
0.0
 10
403.3982210328
 20
195.8015438648
 30
0.0
 10
402.2899502659
 20
195.7785047336
 30
0.0
 10
400.6454577947
 20
195.7468221556
 30
0.0
 10
398.4279912504
 20
195.7079570074
 30
0.0
 10
395.6328823775
 20
195.6624222182
 30
0.0
 10
392.7362428057
 20
195.6168448898
 30
0.0
 10
389.8473744864
 20
195.571248169
 30
0.0
 10
387.494492209
 20
195.5326385106
 30
0.0
 10
385.6978266404
 20
195.5012387497
 30
0.0
 10
384.4448144432
 20
195.4781557623
 30
0.0
 10
383.272087092
 20
195.4550972218
 30
0.0
 10
382.1908317364
 20
195.4320718982
 30
0.0
 10
381.211467478
 20
195.4090847148
 30
0.0
 10
380.3431123275
 20
195.3861488982
 30
0.0
 10
379.593804289
 20
195.3633156206
 30
0.0
 10
379.0471524079
 20
195.3434957648
 30
0.0
 10
378.6748102464
 20
195.3271854458
 30
0.0
 10
378.4459879165
 20
195.3157075113
 30
0.0
 10
378.2513777818
 20
195.3042566101
 30
0.0
 10
378.0915330503
 20
195.2929634703
 30
0.0
 10
377.9662770703
 20
195.2816364606
 30
0.0
 10
377.8771843078
 20
195.2710916969
 30
0.0
 10
377.8235250941
 20
195.2608695715
 30
0.0
 10
377.800148752
 20
195.2531427363
 30
0.0
 10
377.7934121509
 20
195.2475339687
 30
0.0
 10
377.793414868
 20
195.2450882475
 30
0.0
  0
SPLINE
  5
435
100
AcDbEntity
  8
123007_8
100
AcDbSpline
 62
7
  6
CONTINUOUS
 70
0
 71
3
 72
23
 73
19
 74
0
 42
0.0000001
 43
0.0000001
 44
0.0000000001
 40
0.0
 40
0.0
 40
0.0
 40
0.0
 40
0.0025055946
 40
0.0072827335
 40
0.0143557695
 40
0.0237188188
 40
0.0353503112
 40
0.0492257682
 40
0.0835836728
 40
0.1264738328
 40
0.1775011862
 40
0.2361920778
 40
0.3019964607
 40
0.374304803
 40
0.4524394003
 40
0.6232415417
 40
0.8080455002
 40
1.0
 40
1.0
 40
1.0
 40
1.0
 10
408.9384317603
 20
194.9794313762
 30
0.0
 10
408.9268861703
 20
194.9726990033
 30
0.0
 10
408.8876485326
 20
194.96550193
 30
0.0
 10
408.8126760149
 20
194.9539188076
 30
0.0
 10
408.6996036377
 20
194.9434522645
 30
0.0
 10
408.5504789301
 20
194.9320454417
 30
0.0
 10
408.364753597
 20
194.9208110824
 30
0.0
 10
408.045874019
 20
194.9044268266
 30
0.0
 10
407.5601815292
 20
194.8847559414
 30
0.0
 10
406.8763256988
 20
194.8621821162
 30
0.0
 10
406.0626077672
 20
194.8395093959
 30
0.0
 10
405.1266298209
 20
194.8167336646
 30
0.0
 10
404.0771072498
 20
194.7939050598
 30
0.0
 10
402.9238493022
 20
194.7710369124
 30
0.0
 10
401.2105852039
 20
194.7395741176
 30
0.0
 10
398.8972908837
 20
194.7009735762
 30
0.0
 10
395.9768982862
 20
194.6558217958
 30
0.0
 10
393.9674569416
 20
194.6257550129
 30
0.0
 10
392.9436661349
 20
194.6105335311
 30
0.0
  0
SPLINE
  5
436
100
AcDbEntity
  8
123007_8
100
AcDbSpline
 62
7
  6
CONTINUOUS
 70
0
 71
3
 72
26
 73
22
 74
0
 42
0.0000001
 43
0.0000001
 44
0.0000000001
 40
0.0
 40
0.0
 40
0.0
 40
0.0
 40
0.1587665216
 40
0.32900977
 40
0.499478052
 40
0.5812458862
 40
0.6588690829
 40
0.7310927225
 40
0.7966677746
 40
0.8545300556
 40
0.903738474
 40
0.9248282852
 40
0.943445995
 40
0.9595145538
 40
0.9729861513
 40
0.9838150347
 40
0.9919498083
 40
0.9949912246
 40
0.9973421535
 40
0.9990062741
 40
1.0
 40
1.0
 40
1.0
 40
1.0
 10
400.4837981734
 20
198.2455358648
 30
0.0
 10
399.283034147
 20
198.2237138912
 30
0.0
 10
396.7946456357
 20
198.1818782822
 30
0.0
 10
393.0168991805
 20
198.1222978926
 30
0.0
 10
389.8215214273
 20
198.0720094757
 30
0.0
 10
387.3266977971
 20
198.0307514378
 30
0.0
 10
385.5749531778
 20
198.0002560692
 30
0.0
 10
383.9457144548
 20
197.9698345256
 30
0.0
 10
382.4659806057
 20
197.9394635485
 30
0.0
 10
381.1603805339
 20
197.9091980432
 30
0.0
 10
380.1912810305
 20
197.8830014764
 30
0.0
 10
379.5190335003
 20
197.8615252036
 30
0.0
 10
379.0973972101
 20
197.8462960753
 30
0.0
 10
378.733432542
 20
197.8311041472
 30
0.0
 10
378.4284276678
 20
197.8160298606
 30
0.0
 10
378.1835483892
 20
197.8010422985
 30
0.0
 10
378.0175487196
 20
197.7879746782
 30
0.0
 10
377.9158724205
 20
197.7768200212
 30
0.0
 10
377.8629015362
 20
197.7694930532
 30
0.0
 10
377.8258923181
 20
197.7621253832
 30
0.0
 10
377.8062502504
 20
197.7565464511
 30
0.0
 10
377.7997419784
 20
197.7527853696
 30
0.0
  0
SPLINE
  5
437
100
AcDbEntity
  8
123007_8
100
AcDbSpline
 62
7
  6
CONTINUOUS
 70
0
 71
3
 72
8
 73
4
 74
0
 42
0.0000001
 43
0.0000001
 44
0.0000000001
 40
0.0
 40
0.0
 40
0.0
 40
0.0
 40
1.0
 40
1.0
 40
1.0
 40
1.0
 10
408.0880386536
 20
194.4886371018
 30
0.0
 10
408.0854480633
 20
194.4871404411
 30
0.0
 10
408.0826619264
 20
194.4859865823
 30
0.0
 10
408.0798553437
 20
194.4849501242
 30
0.0
  0
SPLINE
  5
438
100
AcDbEntity
  8
123007_8
100
AcDbSpline
 62
7
  6
CONTINUOUS
 70
0
 71
3
 72
25
 73
21
 74
0
 42
0.0000001
 43
0.0000001
 44
0.0000000001
 40
0.0
 40
0.0
 40
0.0
 40
0.0
 40
0.0013180717
 40
0.0033622845
 40
0.009645599
 40
0.0188528864
 40
0.0309664401
 40
0.045921452
 40
0.0636197868
 40
0.0839692023
 40
0.1068869455
 40
0.1599949343
 40
0.2218351301
 40
0.2911836127
 40
0.3666816856
 40
0.4468066659
 40
0.5299650223
 40
0.6987644698
 40
0.8596895958
 40
1.0
 40
1.0
 40
1.0
 40
1.0
 10
408.0798553437
 20
194.4849501242
 30
0.0
 10
408.0694440278
 20
194.4811052732
 30
0.0
 10
408.0416728894
 20
194.4749073022
 30
0.0
 10
407.9615061159
 20
194.462290492
 30
0.0
 10
407.814346184
 20
194.4484133451
 30
0.0
 10
407.5825421874
 20
194.432095622
 30
0.0
 10
407.2774838481
 20
194.4158209056
 30
0.0
 10
406.9009041438
 20
194.3992662498
 30
0.0
 10
406.4549072417
 20
194.382654243
 30
0.0
 10
405.9418301465
 20
194.3659613654
 30
0.0
 10
405.1306585373
 20
194.3425023087
 30
0.0
 10
403.9701329785
 20
194.3138860924
 30
0.0
 10
402.41864933
 20
194.2807704057
 30
0.0
 10
400.6785983885
 20
194.2475422672
 30
0.0
 10
398.7845598258
 20
194.2142514006
 30
0.0
 10
396.7742219218
 20
194.1809106868
 30
0.0
 10
393.9783386077
 20
194.1361917564
 30
0.0
 10
390.5021579486
 20
194.0819529659
 30
0.0
 10
386.5448447283
 20
194.0173296332
 30
0.0
 10
384.0087717202
 20
193.9705437378
 30
0.0
 10
382.827578967
 20
193.9455344649
 30
0.0
  0
SPLINE
  5
439
100
AcDbEntity
  8
123007_8
100
AcDbSpline
 62
7
  6
CONTINUOUS
 70
0
 71
3
 72
18
 73
14
 74
0
 42
0.0000001
 43
0.0000001
 44
0.0000000001
 40
0.0
 40
0.0
 40
0.0
 40
0.0
 40
0.0083128586
 40
0.0241805453
 40
0.0476607268
 40
0.0787267332
 40
0.1173226965
 40
0.1633519962
 40
0.2772752023
 40
0.4193946313
 40
0.5883458726
 40
0.7825588328
 40
1.0
 40
1.0
 40
1.0
 40
1.0
 10
376.9491742817
 20
195.7617903591
 30
0.0
 10
376.9612611898
 20
195.7686785791
 30
0.0
 10
377.0021320326
 20
195.7759922886
 30
0.0
 10
377.0802845256
 20
195.7878221151
 30
0.0
 10
377.19804776
 20
195.798493739
 30
0.0
 10
377.3533327975
 20
195.8101385158
 30
0.0
 10
377.5466729036
 20
195.8215948034
 30
0.0
 10
377.8785060086
 20
195.8383087556
 30
0.0
 10
378.3836656257
 20
195.8583843332
 30
0.0
 10
379.0945316409
 20
195.8814120194
 30
0.0
 10
379.9398343343
 20
195.9044959764
 30
0.0
 10
380.9112205278
 20
195.9278173699
 30
0.0
 10
381.5999789908
 20
195.9427499566
 30
0.0
 10
381.9637961652
 20
195.9503437466
 30
0.0
  0
SPLINE
  5
43A
100
AcDbEntity
  8
123007_8
100
AcDbSpline
 62
7
  6
CONTINUOUS
 70
0
 71
3
 72
29
 73
25
 74
0
 42
0.0000001
 43
0.0000001
 44
0.0000000001
 40
0.0
 40
0.0
 40
0.0
 40
0.0
 40
0.0005163218
 40
0.0017363374
 40
0.0037228217
 40
0.0064855733
 40
0.0100218595
 40
0.0143264462
 40
0.0252156989
 40
0.0390933105
 40
0.0558878551
 40
0.0755183904
 40
0.0978890199
 40
0.1228890981
 40
0.1503690879
 40
0.212154452
 40
0.2820116185
 40
0.3584234322
 40
0.4397879511
 40
0.5243958566
 40
0.6104546058
 40
0.6961425665
 40
0.8592468717
 40
1.0
 40
1.0
 40
1.0
 40
1.0
 10
408.0931849827
 20
196.9961063805
 30
0.0
 10
408.0932059724
 20
196.9917076825
 30
0.0
 10
408.0757739063
 20
196.983783161
 30
0.0
 10
408.048238329
 20
196.9772785633
 30
0.0
 10
407.9962169164
 20
196.9685218238
 30
0.0
 10
407.9269008391
 20
196.9604302652
 30
0.0
 10
407.8366555194
 20
196.95184379
 30
0.0
 10
407.6777055158
 20
196.9395133162
 30
0.0
 10
407.4303713658
 20
196.9246439434
 30
0.0
 10
407.076737555
 20
196.9076900736
 30
0.0
 10
406.6485106453
 20
196.890620847
 30
0.0
 10
406.1479039868
 20
196.873470962
 30
0.0
 10
405.5773502418
 20
196.8562752808
 30
0.0
 10
404.9398999793
 20
196.8390578621
 30
0.0
 10
403.9667213603
 20
196.8151189324
 30
0.0
 10
402.6114108503
 20
196.78570521
 30
0.0
 10
400.8392424739
 20
196.7515436944
 30
0.0
 10
398.9002453231
 20
196.7172854239
 30
0.0
 10
396.8355637661
 20
196.6829685974
 30
0.0
 10
394.6886857369
 20
196.6486299584
 30
0.0
 10
392.5049702699
 20
196.6142802854
 30
0.0
 10
389.6525988473
 20
196.5692078084
 30
0.0
 10
386.3343543251
 20
196.5148728234
 30
0.0
 10
383.7461154222
 20
196.4665720676
 30
0.0
 10
382.5472652999
 20
196.4406110821
 30
0.0
  0
SPLINE
  5
43B
100
AcDbEntity
  8
123007_8
100
AcDbSpline
 62
7
  6
CONTINUOUS
 70
0
 71
3
 72
23
 73
19
 74
0
 42
0.0000001
 43
0.0000001
 44
0.0000000001
 40
0.0
 40
0.0
 40
0.0
 40
0.0
 40
0.0025068536
 40
0.0072852391
 40
0.0143594089
 40
0.0237236185
 40
0.0353562221
 40
0.0492325578
 40
0.0835918708
 40
0.126482862
 40
0.1775107047
 40
0.2362016639
 40
0.3020059003
 40
0.3743139583
 40
0.4524481972
 40
0.6232479988
 40
0.8080484914
 40
1.0
 40
1.0
 40
1.0
 40
1.0
 10
376.9489115711
 20
194.2616421861
 30
0.0
 10
376.9604660991
 20
194.2683725396
 30
0.0
 10
376.9997145348
 20
194.2755717432
 30
0.0
 10
377.0747086958
 20
194.2871534764
 30
0.0
 10
377.1877988252
 20
194.2976211827
 30
0.0
 10
377.3369420967
 20
194.3090275226
 30
0.0
 10
377.5226839524
 20
194.3202618751
 30
0.0
 10
377.841581522
 20
194.3366458008
 30
0.0
 10
378.3272902468
 20
194.3563161263
 30
0.0
 10
379.011160136
 20
194.3788895505
 30
0.0
 10
379.8248848391
 20
194.401561817
 30
0.0
 10
380.7608642545
 20
194.4243369753
 30
0.0
 10
381.8103840711
 20
194.4471649782
 30
0.0
 10
382.9636368724
 20
194.4700347412
 30
0.0
 10
384.6768838559
 20
194.5014887956
 30
0.0
 10
386.9901427478
 20
194.5401359443
 30
0.0
 10
389.910488628
 20
194.585121026
 30
0.0
 10
391.9198892348
 20
194.6155054024
 30
0.0
 10
392.9436661349
 20
194.6305335311
 30
0.0
  0
LINE
  5
43C
100
AcDbEntity
  8
123007_8
100
AcDbLine
 62
7
  6
CONTINUOUS
 10
377.7937860052
 20
198.2455333008
 11
377.7937692287
 21
198.245178626
  0
SPLINE
  5
43D
100
AcDbEntity
  8
123007_8
100
AcDbSpline
 62
7
  6
CONTINUOUS
 70
0
 71
3
 72
23
 73
19
 74
0
 42
0.0000001
 43
0.0000001
 44
0.0000000001
 40
0.0
 40
0.0
 40
0.0
 40
0.0
 40
0.0025374329
 40
0.0073454022
 40
0.014446761
 40
0.0238362155
 40
0.0354920931
 40
0.0493891561
 40
0.0837832348
 40
0.1266984509
 40
0.1777406514
 40
0.2364365528
 40
0.3022379607
 40
0.3745360064
 40
0.4526528635
 40
0.6233997755
 40
0.8081283946
 40
1.0
 40
1.0
 40
1.0
 40
1.0
 10
376.9491969181
 20
197.2618075567
 30
0.0
 10
376.9609696788
 20
197.2684850032
 30
0.0
 10
377.0004755926
 20
197.2757375551
 30
0.0
 10
377.0759907136
 20
197.287281089
 30
0.0
 10
377.1894908802
 20
197.2977719993
 30
0.0
 10
377.3390475032
 20
197.3091657912
 30
0.0
 10
377.5251516259
 20
197.3203997472
 30
0.0
 10
377.8444657938
 20
197.3367732594
 30
0.0
 10
378.3305892973
 20
197.3564356894
 30
0.0
 10
379.0148376085
 20
197.3789998904
 30
0.0
 10
379.8287781808
 20
197.4016621946
 30
0.0
 10
380.7648268349
 20
197.4244277456
 30
0.0
 10
381.8142834756
 20
197.4472460402
 30
0.0
 10
382.9673520013
 20
197.4701008171
 30
0.0
 10
384.6801359405
 20
197.501561556
 30
0.0
 10
386.9925919304
 20
197.5400696726
 30
0.0
 10
389.9117807788
 20
197.5854611488
 30
0.0
 10
391.920343491
 20
197.6150160261
 30
0.0
 10
392.9436661349
 20
197.6305335311
 30
0.0
  0
SPLINE
  5
43E
100
AcDbEntity
  8
123007_8
100
AcDbSpline
 62
7
  6
CONTINUOUS
 70
0
 71
3
 72
23
 73
19
 74
0
 42
0.0000001
 43
0.0000001
 44
0.0000000001
 40
0.0
 40
0.0
 40
0.0
 40
0.0
 40
0.0025339365
 40
0.0073384221
 40
0.0144369102
 40
0.0238233983
 40
0.035476244
 40
0.0493708745
 40
0.0837606552
 40
0.1266737257
 40
0.1777150532
 40
0.2364109316
 40
0.3022121456
 40
0.3745098833
 40
0.4526275757
 40
0.6233803274
 40
0.8081191928
 40
1.0
 40
1.0
 40
1.0
 40
1.0
 10
408.9381650761
 20
197.9792766148
 30
0.0
 10
408.9264164794
 20
197.9725943285
 30
0.0
 10
408.8869416978
 20
197.965346747
 30
0.0
 10
408.8114845263
 20
197.9537999746
 30
0.0
 10
408.6980312589
 20
197.9433123967
 30
0.0
 10
408.548522911
 20
197.931917248
 30
0.0
 10
408.3624630622
 20
197.9206829771
 30
0.0
 10
408.0432005822
 20
197.9043086948
 30
0.0
 10
407.5571233627
 20
197.8846449297
 30
0.0
 10
406.8729127289
 20
197.8620799575
 30
0.0
 10
406.0589866997
 20
197.8394158857
 30
0.0
 10
405.1229419186
 20
197.8166491745
 30
0.0
 10
404.073485882
 20
197.7938299665
 30
0.0
 10
402.9204131553
 20
197.7709746727
 30
0.0
 10
401.2075916722
 20
197.7395118443
 30
0.0
 10
398.8950405014
 20
197.7010057869
 30
0.0
 10
395.9757108473
 20
197.6555977616
 30
0.0
 10
393.9670397726
 20
197.626067708
 30
0.0
 10
392.9436661349
 20
197.6105335311
 30
0.0
  0
SPLINE
  5
43F
100
AcDbEntity
  8
123007_8
100
AcDbSpline
 62
7
  6
CONTINUOUS
 70
0
 71
3
 72
26
 73
22
 74
0
 42
0.0000001
 43
0.0000001
 44
0.0000000001
 40
0.0
 40
0.0
 40
0.0
 40
0.0
 40
0.0010198749
 40
0.0027818836
 40
0.0053015213
 40
0.0085780102
 40
0.0173816582
 40
0.0291454728
 40
0.0438060512
 40
0.0612929551
 40
0.0815224451
 40
0.1044001524
 40
0.1575972413
 40
0.2197316057
 40
0.2895950302
 40
0.3656945982
 40
0.4464828539
 40
0.5302961316
 40
0.7000407887
 40
0.8610140466
 40
1.0
 40
1.0
 40
1.0
 40
1.0
 10
408.0878711248
 20
197.4884856848
 30
0.0
 10
408.0803516641
 20
197.4841377029
 30
0.0
 10
408.0570188823
 20
197.4780462306
 30
0.0
 10
408.0128590796
 20
197.4698025215
 30
0.0
 10
407.9488601763
 20
197.4617036844
 30
0.0
 10
407.8252030692
 20
197.4492397119
 30
0.0
 10
407.6225732426
 20
197.4347023637
 30
0.0
 10
407.3230300618
 20
197.4180126855
 30
0.0
 10
406.9494086204
 20
197.4012373419
 30
0.0
 10
406.5036483643
 20
197.3843242817
 30
0.0
 10
405.9878586292
 20
197.3673562334
 30
0.0
 10
405.1680045263
 20
197.3434681138
 30
0.0
 10
403.9912644018
 20
197.3143526345
 30
0.0
 10
402.414361736
 20
197.2806441536
 30
0.0
 10
400.642365473
 20
197.2468763776
 30
0.0
 10
398.7114747012
 20
197.2129979281
 30
0.0
 10
396.6617599396
 20
197.1790747535
 30
0.0
 10
393.8145740158
 20
197.1336260828
 30
0.0
 10
390.2845378945
 20
197.0785277548
 30
0.0
 10
386.2847184883
 20
197.0129073149
 30
0.0
 10
383.7304734932
 20
196.9651617482
 30
0.0
 10
382.54703994
 20
196.9395345976
 30
0.0
  0
SPLINE
  5
440
100
AcDbEntity
  8
123007_8
100
AcDbSpline
 62
7
  6
CONTINUOUS
 70
0
 71
3
 72
18
 73
14
 74
0
 42
0.0000001
 43
0.0000001
 44
0.0000000001
 40
0.0
 40
0.0
 40
0.0
 40
0.0
 40
0.217003306
 40
0.411003834
 40
0.5798598686
 40
0.7218271034
 40
0.8357309494
 40
0.8818705911
 40
0.9206267074
 40
0.9518651665
 40
0.9754846815
 40
0.9914931097
 40
1.0
 40
1.0
 40
1.0
 40
1.0
 10
382.5472655843
 20
196.4406110821
 30
0.0
 10
382.2034965715
 20
196.4331604335
 30
0.0
 10
381.5524113306
 20
196.4184392331
 30
0.0
 10
380.6338943686
 20
196.3952483013
 30
0.0
 10
379.8343098437
 20
196.3721726904
 30
0.0
 10
379.1617112843
 20
196.3491751022
 30
0.0
 10
378.6835571446
 20
196.3291218327
 30
0.0
 10
378.369014631
 20
196.3124602851
 30
0.0
 10
378.1852929995
 20
196.3010132459
 30
0.0
 10
378.0375504143
 20
196.2894287083
 30
0.0
 10
377.925406882
 20
196.2786910076
 30
0.0
 10
377.8506897217
 20
196.2669982104
 30
0.0
 10
377.8115943644
 20
196.25948145
 30
0.0
 10
377.7999047669
 20
196.2527695405
 30
0.0
  0
SPLINE
  5
441
100
AcDbEntity
  8
128021_7
100
AcDbSpline
 62
7
  6
CONTINUOUS
 70
0
 71
3
 72
9
 73
5
 74
0
 42
0.0000001
 43
0.0000001
 44
0.0000000001
 40
0.0
 40
0.0
 40
0.0
 40
0.0
 40
0.263684308
 40
1.0
 40
1.0
 40
1.0
 40
1.0
 10
405.7946854376
 20
132.1455335311
 30
0.0
 10
405.7946854376
 20
132.1279508508
 30
0.0
 10
405.795005005
 20
132.0612708038
 30
0.0
 10
405.7965144224
 20
131.9945936597
 30
0.0
 10
405.798445494
 20
131.9455335311
 30
0.0
  0
SPLINE
  5
442
100
AcDbEntity
  8
128021_7
100
AcDbSpline
 62
7
  6
CONTINUOUS
 70
0
 71
3
 72
9
 73
5
 74
0
 42
0.0000001
 43
0.0000001
 44
0.0000000001
 40
0.0
 40
0.0
 40
0.0
 40
0.0
 40
0.2547673173
 40
1.0
 40
1.0
 40
1.0
 40
1.0
 10
374.5162409214
 20
132.1455335311
 30
0.0
 10
374.5162409214
 20
132.1279151047
 30
0.0
 10
374.5206129477
 20
132.0587894204
 30
0.0
 10
374.542654912
 20
131.9910952457
 30
0.0
 10
374.5667411238
 20
131.9455335311
 30
0.0
  0
SPLINE
  5
443
100
AcDbEntity
  8
128021_7
100
AcDbSpline
 62
7
  6
CONTINUOUS
 70
0
 71
3
 72
9
 73
5
 74
0
 42
0.0000001
 43
0.0000001
 44
0.0000000001
 40
0.0
 40
0.0
 40
0.0
 40
0.0
 40
0.7465321344
 40
1.0
 40
1.0
 40
1.0
 40
1.0
 10
398.4658117869
 20
131.9455335311
 30
0.0
 10
398.4914478503
 20
131.9906665258
 30
0.0
 10
398.5153524243
 20
132.0584019297
 30
0.0
 10
398.5200720458
 20
132.1279101631
 30
0.0
 10
398.5200720458
 20
132.1455335311
 30
0.0
  0
SPLINE
  5
444
100
AcDbEntity
  8
128021_7
100
AcDbSpline
 62
7
  6
CONTINUOUS
 70
0
 71
3
 72
11
 73
7
 74
0
 42
0.0000001
 43
0.0000001
 44
0.0000000001
 40
0.0
 40
0.0
 40
0.0
 40
0.0
 40
0.2548078129
 40
0.5064103507
 40
0.7544403216
 40
1.0
 40
1.0
 40
1.0
 40
1.0
 10
387.367260224
 20
158.3455335311
 30
0.0
 10
387.367260224
 20
158.4236656834
 30
0.0
 10
387.3113590885
 20
158.5807230943
 30
0.0
 10
387.1327423503
 20
158.7366348933
 30
0.0
 10
386.9193044527
 20
158.8259352185
 30
0.0
 10
386.7672020099
 20
158.8455335311
 30
0.0
 10
386.6919056289
 20
158.8455335311
 30
0.0
  0
SPLINE
  5
445
100
AcDbEntity
  8
128021_7
100
AcDbSpline
 62
7
  6
CONTINUOUS
 70
0
 71
3
 72
11
 73
7
 74
0
 42
0.0000001
 43
0.0000001
 44
0.0000000001
 40
0.0
 40
0.0
 40
0.0
 40
0.0
 40
0.2251766486
 40
0.4586909048
 40
0.7141457895
 40
1.0
 40
1.0
 40
1.0
 40
1.0
 10
380.6230542965
 20
158.8455335311
 30
0.0
 10
380.5627191754
 20
158.8455335311
 30
0.0
 10
380.4388909181
 20
158.8254260302
 30
0.0
 10
380.267371832
 20
158.7324404221
 30
0.0
 10
380.1299061453
 20
158.5695456064
 30
0.0
 10
380.0926468322
 20
158.4221269456
 30
0.0
 10
380.0926468322
 20
158.3455335311
 30
0.0
  0
SPLINE
  5
446
100
AcDbEntity
  8
128021_7
100
AcDbSpline
 62
7
  6
CONTINUOUS
 70
0
 71
3
 72
12
 73
8
 74
0
 42
0.0000001
 43
0.0000001
 44
0.0000000001
 40
0.0
 40
0.0
 40
0.0
 40
0.0
 40
0.413407727
 40
0.7137760267
 40
0.8197510513
 40
0.9001415441
 40
1.0
 40
1.0
 40
1.0
 40
1.0
 10
374.5162409214
 20
158.3455335311
 30
0.0
 10
374.5162409214
 20
158.4200475847
 30
0.0
 10
374.5070011547
 20
158.5489856537
 30
0.0
 10
374.4758118275
 20
158.6937965603
 30
0.0
 10
374.4423031854
 20
158.7759121961
 30
0.0
 10
374.4174558342
 20
158.8194844564
 30
0.0
 10
374.3892926275
 20
158.8455335311
 30
0.0
 10
374.3712937904
 20
158.8455335311
 30
0.0
  0
SPLINE
  5
447
100
AcDbEntity
  8
128021_7
100
AcDbSpline
 62
7
  6
CONTINUOUS
 70
0
 71
3
 72
11
 73
7
 74
0
 42
0.0000001
 43
0.0000001
 44
0.0000000001
 40
0.0
 40
0.0
 40
0.0
 40
0.0
 40
0.2858544053
 40
0.5413092809
 40
0.7748236414
 40
1.0
 40
1.0
 40
1.0
 40
1.0
 10
405.7946854376
 20
158.3455335311
 30
0.0
 10
405.7946854376
 20
158.4221269968
 30
0.0
 10
405.7574260663
 20
158.569545701
 30
0.0
 10
405.6199603051
 20
158.7324405541
 30
0.0
 10
405.4484412113
 20
158.8254260414
 30
0.0
 10
405.3246130159
 20
158.8455335311
 30
0.0
 10
405.2642779733
 20
158.8455335311
 30
0.0
  0
SPLINE
  5
448
100
AcDbEntity
  8
128021_7
100
AcDbSpline
 62
7
  6
CONTINUOUS
 70
0
 71
3
 72
11
 73
7
 74
0
 42
0.0000001
 43
0.0000001
 44
0.0000000001
 40
0.0
 40
0.0
 40
0.0
 40
0.0
 40
0.2455599949
 40
0.4935898375
 40
0.7451923694
 40
1.0
 40
1.0
 40
1.0
 40
1.0
 10
399.1954266409
 20
158.8455335311
 30
0.0
 10
399.1201301617
 20
158.8455335311
 30
0.0
 10
398.9680276493
 20
158.8259352113
 30
0.0
 10
398.7545897449
 20
158.736634762
 30
0.0
 10
398.5759730963
 20
158.5807229951
 30
0.0
 10
398.5200720458
 20
158.4236656286
 30
0.0
 10
398.5200720458
 20
158.3455335311
 30
0.0
  0
SPLINE
  5
449
100
AcDbEntity
  8
128021_7
100
AcDbSpline
 62
7
  6
CONTINUOUS
 70
0
 71
3
 72
9
 73
5
 74
0
 42
0.0000001
 43
0.0000001
 44
0.0000000001
 40
0.0
 40
0.0
 40
0.0
 40
0.0
 40
0.4931712749
 40
1.0
 40
1.0
 40
1.0
 40
1.0
 10
375.0240056129
 20
131.6455335311
 30
0.0
 10
374.9306232481
 20
131.6455335311
 30
0.0
 10
374.7377639794
 20
131.7080509577
 30
0.0
 10
374.6115930935
 20
131.8606911053
 30
0.0
 10
374.5667411238
 20
131.9455335311
 30
0.0
  0
SPLINE
  5
44A
100
AcDbEntity
  8
128021_7
100
AcDbSpline
 62
7
  6
CONTINUOUS
 70
0
 71
3
 72
9
 73
5
 74
0
 42
0.0000001
 43
0.0000001
 44
0.0000000001
 40
0.0
 40
0.0
 40
0.0
 40
0.0
 40
0.2534766741
 40
1.0
 40
1.0
 40
1.0
 40
1.0
 10
387.367260224
 20
132.1455335311
 30
0.0
 10
387.367260224
 20
132.1279095592
 30
0.0
 10
387.3719813268
 20
132.0584014652
 30
0.0
 10
387.3958847344
 20
131.9906659715
 30
0.0
 10
387.4215204829
 20
131.9455335311
 30
0.0
  0
SPLINE
  5
44B
100
AcDbEntity
  8
128021_7
100
AcDbSpline
 62
7
  6
CONTINUOUS
 70
0
 71
3
 72
9
 73
5
 74
0
 42
0.0000001
 43
0.0000001
 44
0.0000000001
 40
0.0
 40
0.0
 40
0.0
 40
0.0
 40
0.4795248006
 40
1.0
 40
1.0
 40
1.0
 40
1.0
 10
380.3666097153
 20
131.6455335311
 30
0.0
 10
380.2955741672
 20
131.6455335311
 30
0.0
 10
380.1417899889
 20
131.7103143001
 30
0.0
 10
380.0858542939
 20
131.8684913563
 30
0.0
 10
380.0888867758
 20
131.9455335311
 30
0.0
  0
SPLINE
  5
44C
100
AcDbEntity
  8
128021_7
100
AcDbSpline
 62
7
  6
CONTINUOUS
 70
0
 71
3
 72
11
 73
7
 74
0
 42
0.0000001
 43
0.0000001
 44
0.0000000001
 40
0.0
 40
0.0
 40
0.0
 40
0.0
 40
0.1121932863
 40
0.3176718954
 40
0.6218274696
 40
1.0
 40
1.0
 40
1.0
 40
1.0
 10
398.2862702374
 20
131.6455335311
 30
0.0
 10
398.2995306576
 20
131.6455335311
 30
0.0
 10
398.331010719
 20
131.6752344037
 30
0.0
 10
398.3626495781
 20
131.7387225566
 30
0.0
 10
398.4081404374
 20
131.8346149114
 30
0.0
 10
398.4437359475
 20
131.9066684087
 30
0.0
 10
398.4658117869
 20
131.9455335311
 30
0.0
  0
SPLINE
  5
44D
100
AcDbEntity
  8
128021_7
100
AcDbSpline
 62
7
  6
CONTINUOUS
 70
0
 71
3
 72
9
 73
5
 74
0
 42
0.0000001
 43
0.0000001
 44
0.0000000001
 40
0.0
 40
0.0
 40
0.0
 40
0.0
 40
0.4794623865
 40
1.0
 40
1.0
 40
1.0
 40
1.0
 10
405.5207225544
 20
131.6455335311
 30
0.0
 10
405.59174869
 20
131.6455335311
 30
0.0
 10
405.7455302488
 20
131.7103041371
 30
0.0
 10
405.8014783324
 20
131.8684822985
 30
0.0
 10
405.798445494
 20
131.9455335311
 30
0.0
  0
SPLINE
  5
44E
100
AcDbEntity
  8
128021_7
100
AcDbSpline
 62
7
  6
CONTINUOUS
 70
0
 71
3
 72
11
 73
7
 74
0
 42
0.0000001
 43
0.0000001
 44
0.0000000001
 40
0.0
 40
0.0
 40
0.0
 40
0.0
 40
0.2287155621
 40
0.4690534992
 40
0.7274923586
 40
1.0
 40
1.0
 40
1.0
 40
1.0
 10
410.9267394138
 20
131.6455335311
 30
0.0
 10
410.9829846011
 20
131.6455335311
 30
0.0
 10
411.0997093947
 20
131.671021211
 30
0.0
 10
411.2472415249
 20
131.7805157362
 30
0.0
 10
411.3475640044
 20
131.9466492805
 30
0.0
 10
411.3710913484
 20
132.0785190998
 30
0.0
 10
411.3710913484
 20
132.1455335311
 30
0.0
  0
SPLINE
  5
44F
100
AcDbEntity
  8
128021_7
100
AcDbSpline
 62
7
  6
CONTINUOUS
 70
0
 71
3
 72
12
 73
8
 74
0
 42
0.0000001
 43
0.0000001
 44
0.0000000001
 40
0.0
 40
0.0
 40
0.0
 40
0.0
 40
0.0998586132
 40
0.180249163
 40
0.2862241594
 40
0.5865925299
 40
1.0
 40
1.0
 40
1.0
 40
1.0
 10
411.5160384794
 20
158.8455335311
 30
0.0
 10
411.4980396139
 20
158.8455335311
 30
0.0
 10
411.4698763762
 20
158.8194844094
 30
0.0
 10
411.4450290486
 20
158.7759120999
 30
0.0
 10
411.411520406
 20
158.693796447
 30
0.0
 10
411.3803311036
 20
158.5489855724
 30
0.0
 10
411.3710913484
 20
158.4200475383
 30
0.0
 10
411.3710913484
 20
158.3455335311
 30
0.0
  0
SPLINE
  5
450
100
AcDbEntity
  8
128021_7
100
AcDbSpline
 62
7
  6
CONTINUOUS
 70
0
 71
3
 72
11
 73
7
 74
0
 42
0.0000001
 43
0.0000001
 44
0.0000000001
 40
0.0
 40
0.0
 40
0.0
 40
0.0
 40
0.1121909475
 40
0.3176290075
 40
0.6217689611
 40
1.0
 40
1.0
 40
1.0
 40
1.0
 10
387.6010620324
 20
131.6455335311
 30
0.0
 10
387.5878017383
 20
131.6455335311
 30
0.0
 10
387.5563135894
 20
131.6752138638
 30
0.0
 10
387.5246970468
 20
131.7387142211
 30
0.0
 10
387.4791121217
 20
131.8345585372
 30
0.0
 10
387.443599988
 20
131.9066619551
 30
0.0
 10
387.4215204829
 20
131.9455335311
 30
0.0
  0
LINE
  5
451
100
AcDbEntity
  8
123026_AF0_14
100
AcDbLine
 62
7
  6
CONTINUOUS
 10
415.4436661349
 20
297.4955335311
 11
415.4395200368
 21
297.4537434748
  0
LINE
  5
452
100
AcDbEntity
  8
123026_AF0_14
100
AcDbLine
 62
7
  6
CONTINUOUS
 10
415.4395224444
 20
293.0373009215
 11
415.4436661349
 21
292.9955335311
  0
SPLINE
  5
453
100
AcDbEntity
  8
MANIFOLD_SOLID_BREP_179958
100
AcDbSpline
 62
7
  6
CONTINUOUS
 70
0
 71
3
 72
10
 73
6
 74
0
 42
0.0000001
 43
0.0000001
 44
0.0000000001
 40
0.0
 40
0.0
 40
0.0
 40
0.0
 40
0.246996817
 40
0.4956628356
 40
1.0
 40
1.0
 40
1.0
 40
1.0
 10
406.5686661349
 20
15.9455335311
 30
0.0
 10
407.0584882715
 20
15.9455335311
 30
0.0
 10
408.0434556654
 20
16.0327227772
 30
0.0
 10
409.9701440627
 20
16.5288285815
 30
0.0
 10
411.3275050741
 20
17.1858362663
 30
0.0
 10
412.1936661349
 20
17.6859145879
 30
0.0
  0
SPLINE
  5
454
100
AcDbEntity
  8
MANIFOLD_SOLID_BREP_179958
100
AcDbSpline
 62
7
  6
CONTINUOUS
 70
0
 71
3
 72
10
 73
6
 74
0
 42
0.0000001
 43
0.0000001
 44
0.0000000001
 40
0.0
 40
0.0
 40
0.0
 40
0.0
 40
0.247043041
 40
0.4957422361
 40
1.0
 40
1.0
 40
1.0
 40
1.0
 10
406.5686661349
 20
15.9455335311
 30
0.0
 10
406.0787526822
 20
15.9455335311
 30
0.0
 10
405.0936481566
 20
16.0329095052
 30
0.0
 10
403.1669095485
 20
16.5287816047
 30
0.0
 10
401.8096902109
 20
17.1859153545
 30
0.0
 10
400.9436661349
 20
17.6859145879
 30
0.0
  0
SPLINE
  5
455
100
AcDbEntity
  8
MANIFOLD_SOLID_BREP_179958
100
AcDbSpline
 62
7
  6
CONTINUOUS
 70
0
 71
3
 72
9
 73
5
 74
0
 42
0.0000001
 43
0.0000001
 44
0.0000000001
 40
0.0
 40
0.0
 40
0.0
 40
0.0
 40
0.4951107761
 40
1.0
 40
1.0
 40
1.0
 40
1.0
 10
395.7015238809
 20
15.9542259202
 30
0.0
 10
396.6183234686
 20
15.9957966905
 30
0.0
 10
398.4608021172
 20
16.3953410502
 30
0.0
 10
400.1331815403
 20
17.217981089
 30
0.0
 10
400.9436661349
 20
17.6859145879
 30
0.0
  0
SPLINE
  5
456
100
AcDbEntity
  8
MANIFOLD_SOLID_BREP_179958
100
AcDbSpline
 62
7
  6
CONTINUOUS
 70
0
 71
3
 72
10
 73
6
 74
0
 42
0.0000001
 43
0.0000001
 44
0.0000000001
 40
0.0
 40
0.0
 40
0.0
 40
0.0
 40
0.504250365
 40
0.7529521825
 40
1.0
 40
1.0
 40
1.0
 40
1.0
 10
412.1936661349
 20
26.5051524744
 30
0.0
 10
411.327656531
 20
27.0051433523
 30
0.0
 10
409.9704440241
 20
27.6622802125
 30
0.0
 10
408.0436974534
 20
28.1580757215
 30
0.0
 10
407.0585880615
 20
28.2455335311
 30
0.0
 10
406.5686661349
 20
28.2455335311
 30
0.0
  0
SPLINE
  5
457
100
AcDbEntity
  8
MANIFOLD_SOLID_BREP_179958
100
AcDbSpline
 62
7
  6
CONTINUOUS
 70
0
 71
3
 72
9
 73
5
 74
0
 42
0.0000001
 43
0.0000001
 44
0.0000000001
 40
0.0
 40
0.0
 40
0.0
 40
0.0
 40
0.5043811911
 40
1.0
 40
1.0
 40
1.0
 40
1.0
 10
400.9436661349
 20
26.5051524744
 30
0.0
 10
400.2071141793
 20
26.9304009442
 30
0.0
 10
398.6917204338
 20
27.6859835516
 30
0.0
 10
397.0375473121
 20
28.1114897038
 30
0.0
 10
396.2063815383
 20
28.1986340064
 30
0.0
  0
SPLINE
  5
458
100
AcDbEntity
  8
MANIFOLD_SOLID_BREP_179958
100
AcDbSpline
 62
7
  6
CONTINUOUS
 70
0
 71
3
 72
10
 73
6
 74
0
 42
0.0000001
 43
0.0000001
 44
0.0000000001
 40
0.0
 40
0.0
 40
0.0
 40
0.0
 40
0.2469968167
 40
0.495662836
 40
1.0
 40
1.0
 40
1.0
 40
1.0
 10
406.5686661349
 20
28.2455335311
 30
0.0
 10
406.078843999
 20
28.2455335311
 30
0.0
 10
405.0938766045
 20
28.1583442854
 30
0.0
 10
403.1671882072
 20
27.6622384804
 30
0.0
 10
401.8098271952
 20
27.0052307957
 30
0.0
 10
400.9436661349
 20
26.5051524744
 30
0.0
  0
SPLINE
  5
459
100
AcDbEntity
  8
MANIFOLD_SOLID_BREP_179958
100
AcDbSpline
 62
7
  6
CONTINUOUS
 70
0
 71
3
 72
9
 73
5
 74
0
 42
0.0000001
 43
0.0000001
 44
0.0000000001
 40
0.0
 40
0.0
 40
0.0
 40
0.0
 40
0.4956008491
 40
1.0
 40
1.0
 40
1.0
 40
1.0
 10
389.6959846004
 20
15.9908401504
 30
0.0
 10
388.8622285527
 20
16.076765435
 30
0.0
 10
387.2024844256
 20
16.5017693194
 30
0.0
 10
385.6824307497
 20
17.2593886387
 30
0.0
 10
384.9436661349
 20
17.6859145879
 30
0.0
  0
SPLINE
  5
45A
100
AcDbEntity
  8
MANIFOLD_SOLID_BREP_179958
100
AcDbSpline
 62
7
  6
CONTINUOUS
 70
0
 71
3
 72
10
 73
6
 74
0
 42
0.0000001
 43
0.0000001
 44
0.0000000001
 40
0.0
 40
0.0
 40
0.0
 40
0.0
 40
0.246996817
 40
0.4956628356
 40
1.0
 40
1.0
 40
1.0
 40
1.0
 10
379.3186661349
 20
15.9455335311
 30
0.0
 10
379.8084882715
 20
15.9455335311
 30
0.0
 10
380.7934556654
 20
16.0327227772
 30
0.0
 10
382.7201440627
 20
16.5288285815
 30
0.0
 10
384.0775050741
 20
17.1858362663
 30
0.0
 10
384.9436661349
 20
17.6859145879
 30
0.0
  0
SPLINE
  5
45B
100
AcDbEntity
  8
MANIFOLD_SOLID_BREP_179958
100
AcDbSpline
 62
7
  6
CONTINUOUS
 70
0
 71
3
 72
10
 73
6
 74
0
 42
0.0000001
 43
0.0000001
 44
0.0000000001
 40
0.0
 40
0.0
 40
0.0
 40
0.0
 40
0.247043041
 40
0.4957422361
 40
1.0
 40
1.0
 40
1.0
 40
1.0
 10
379.3186661349
 20
15.9455335311
 30
0.0
 10
378.8287526822
 20
15.9455335311
 30
0.0
 10
377.8436481566
 20
16.0329095052
 30
0.0
 10
375.9169095485
 20
16.5287816047
 30
0.0
 10
374.5596902109
 20
17.1859153545
 30
0.0
 10
373.6936661349
 20
17.6859145879
 30
0.0
  0
SPLINE
  5
45C
100
AcDbEntity
  8
MANIFOLD_SOLID_BREP_179958
100
AcDbSpline
 62
7
  6
CONTINUOUS
 70
0
 71
3
 72
10
 73
6
 74
0
 42
0.0000001
 43
0.0000001
 44
0.0000000001
 40
0.0
 40
0.0
 40
0.0
 40
0.0
 40
0.504250365
 40
0.7529521825
 40
1.0
 40
1.0
 40
1.0
 40
1.0
 10
384.9436661349
 20
26.5051524744
 30
0.0
 10
384.077656531
 20
27.0051433523
 30
0.0
 10
382.7204440241
 20
27.6622802125
 30
0.0
 10
380.7936974534
 20
28.1580757215
 30
0.0
 10
379.8085880615
 20
28.2455335311
 30
0.0
 10
379.3186661349
 20
28.2455335311
 30
0.0
  0
SPLINE
  5
45D
100
AcDbEntity
  8
MANIFOLD_SOLID_BREP_179958
100
AcDbSpline
 62
7
  6
CONTINUOUS
 70
0
 71
3
 72
9
 73
5
 74
0
 42
0.0000001
 43
0.0000001
 44
0.0000000001
 40
0.0
 40
0.0
 40
0.0
 40
0.0
 40
0.4951107755
 40
1.0
 40
1.0
 40
1.0
 40
1.0
 10
390.1858099888
 20
28.2368412148
 30
0.0
 10
389.2690101329
 20
28.1952706057
 30
0.0
 10
387.4265308829
 20
27.7957263574
 30
0.0
 10
385.7541509617
 20
26.9730861073
 30
0.0
 10
384.9436661349
 20
26.5051524744
 30
0.0
  0
SPLINE
  5
45E
100
AcDbEntity
  8
MANIFOLD_SOLID_BREP_179958
100
AcDbSpline
 62
7
  6
CONTINUOUS
 70
0
 71
3
 72
10
 73
6
 74
0
 42
0.0000001
 43
0.0000001
 44
0.0000000001
 40
0.0
 40
0.0
 40
0.0
 40
0.0
 40
0.2469968167
 40
0.495662836
 40
1.0
 40
1.0
 40
1.0
 40
1.0
 10
379.3186661349
 20
28.2455335311
 30
0.0
 10
378.828843999
 20
28.2455335311
 30
0.0
 10
377.8438766045
 20
28.1583442854
 30
0.0
 10
375.9171882072
 20
27.6622384804
 30
0.0
 10
374.5598271952
 20
27.0052307957
 30
0.0
 10
373.6936661349
 20
26.5051524744
 30
0.0
  0
ELLIPSE
  5
45F
100
AcDbEntity
  8
125049_4
100
AcDbEllipse
 62
7
  6
CONTINUOUS
 10
578.5297493738
 20
175.5273904684
 30
0.0
 11
25.4948330818
 21
-5.8175874955
 31
0.0
 40
0.0882339975
 41
2.8314840529
 42
2.8511385544
  0
ELLIPSE
  5
460
100
AcDbEntity
  8
125049_4
100
AcDbEllipse
 62
7
  6
CONTINUOUS
 10
578.5297493738
 20
175.5273904684
 30
0.0
 11
25.4948330818
 21
-5.8175874955
 31
0.0
 40
0.0882339975
 41
2.6941145395
 42
2.713769041
  0
ELLIPSE
  5
461
100
AcDbEntity
  8
125049_4
100
AcDbEllipse
 62
7
  6
CONTINUOUS
 10
578.5297493738
 20
175.5273904684
 30
0.0
 11
25.4948330818
 21
5.8175874955
 31
0.0
 40
0.0882339975
 41
0.2904540992
 42
0.3101086007
  0
ELLIPSE
  5
462
100
AcDbEntity
  8
125049_4
100
AcDbEllipse
 62
7
  6
CONTINUOUS
 10
578.5297493738
 20
175.5273904684
 30
0.0
 11
25.4948330818
 21
5.8175874955
 31
0.0
 40
0.0882339975
 41
0.4278236126
 42
0.4474781141
  0
ELLIPSE
  5
463
100
AcDbEntity
  8
125049_4
100
AcDbEllipse
 62
7
  6
CONTINUOUS
 10
392.9436661349
 20
175.5273904684
 30
0.0
 11
25.4938735669
 21
-2.49209131
 31
0.0
 40
0.2242843132
 41
2.0406719169
 42
2.0603264184
  0
ELLIPSE
  5
464
100
AcDbEntity
  8
125049_4
100
AcDbEllipse
 62
7
  6
CONTINUOUS
 10
392.9436661349
 20
175.5273904684
 30
0.0
 11
25.4938735669
 21
-2.49209131
 31
0.0
 40
0.2242843132
 41
1.9033024035
 42
1.922956905
  0
ENDSEC
  0
SECTION
  2
OBJECTS
  0
DICTIONARY
  5
C
100
AcDbDictionary
280
0
281
1
  3
ACAD_GROUP
350
D
  3
ACAD_MLINESTYLE
350
17
  3
ACAD_LAYOUT
350
1A
  3
ACAD_PLOTSETTINGS
350
19
  3
ACAD_PLOTSTYLENAME
350
E
  0
DICTIONARY
  5
D
102
{ACAD_REACTORS
330
C
102
}
100
AcDbDictionary
280
0
281
1
  0
ACDBDICTIONARYWDFLT
  5
E
102
{ACAD_REACTORS
330
C
102
}
100
AcDbDictionary
281
1
  3
Normal
350
F
100
AcDbDictionaryWithDefault
340
F
  0
DICTIONARY
  5
17
102
{ACAD_REACTORS
330
C
102
}
100
AcDbDictionary
280
0
281
1
  3
Standard
350
18
  0
DICTIONARY
  5
19
102
{ACAD_REACTORS
330
C
102
}
100
AcDbDictionary
281
1
  0
DICTIONARY
  5
1A
102
{ACAD_REACTORS
330
C
102
}
100
AcDbDictionary
281
1
  3
Model
350
465
  3
Layout1
350
466
  0
ACDBPLACEHOLDER
  5
F
102
{ACAD_REACTORS
330
E
102
}
  0
MLINESTYLE
  5
18
102
{ACAD_REACTORS
330
17
102
}
100
AcDbMlineStyle
  2
STANDARD
 70
0
  3

 62
256
 51
90.0
 52
90.0
 71
2
 49
0.5
 62
256
  6
BYLAYER
 49
-0.5
 62
256
  6
BYLAYER
  0
LAYOUT
  5
465
102
{ACAD_REACTORS
330
1A
102
}
100
AcDbPlotSettings
  1

  2
none_device
  4
ISO_A1_(594.00_x_841.00_MM)
  6

 40
0.0
 41
0.0
 42
0.0
 43
0.0
 44
841.0
 45
594.0
 46
0.0
 47
0.0
 48
0.0
 49
0.0
140
0.0
141
0.0
142
1.0
143
1.0
 70
1024
 72
1
 73
0
 74
0
  7

 75
0
147
1.0
148
0.0
149
0.0
100
AcDbLayout
  1
Model
 70
0
 71
0
 10
0.0
 20
0.0
 11
841.0
 21
594.0
 12
0.0
 22
0.0
 32
0.0
 14
0.0
 24
0.0
 34
0.0
 15
0.0
 25
0.0
 35
0.0
146
0.0
 13
0.0
 23
0.0
 33
0.0
 16
1.0
 26
0.0
 36
0.0
 17
0.0
 27
1.0
 37
0.0
 76
0
330
239
345
0
346
0
  0
LAYOUT
  5
466
102
{ACAD_REACTORS
330
1A
102
}
100
AcDbPlotSettings
  1

  2
none_device
  4
ISO_A1_(594.00_x_841.00_MM)
  6

 40
0.0
 41
0.0
 42
0.0
 43
0.0
 44
841.0
 45
594.0
 46
0.0
 47
0.0
 48
0.0
 49
0.0
140
0.0
141
0.0
142
1.0
143
1.0
 70
0
 72
1
 73
0
 74
0
  7

 75
0
147
1.0
148
0.0
149
0.0
100
AcDbLayout
  1
Layout1
 70
0
 71
1
 10
0.0
 20
0.0
 11
841.0
 21
594.0
 12
0.0
 22
0.0
 32
0.0
 14
0.0
 24
0.0
 34
0.0
 15
0.0
 25
0.0
 35
0.0
146
0.0
 13
0.0
 23
0.0
 33
0.0
 16
1.0
 26
0.0
 36
0.0
 17
0.0
 27
1.0
 37
0.0
 76
0
330
23A
345
0
346
0
  0
ENDSEC
  0
EOF
