999
DXF file: S:\Engenharia\Wildfire\Engenharia\Produtos\Torneiras\94520020\94520_020.dxf
999
Pro/ENGINEER 2013150 by Parametric Technology Corporation
  0
SECTION
  2
HEADER
  9
$ACADVER
  1
AC1021
  9
$DWGCODEPAGE
  3
ANSI_1252
  9
$EXTMAX
 10
558.8
 20
431.8
 30
0.0
  9
$EXTMIN
 10
0.0
 20
0.0
 30
0.0
  9
$LIMMIN
 10
0.0
 20
0.0
  9
$LIMMAX
 10
558.8
 20
431.8
  9
$VIEWCTR
 10
279.4
 20
215.9
  9
$VIEWSIZE
 40
431.8
  9
$CLAYER
  8
0
  9
$LTSCALE
 40
30.734
  9
$CELTYPE
  6
BYLAYER
  9
$DIMSCALE
 40
1.0
  9
$DIMASZ
 40
3.0
  9
$DIMEXO
 40
0.5
  9
$DIMDLI
 40
21.2344
  9
$DIMEXE
 40
0.5
  9
$DIMCEN
 40
5.0292
  9
$DIMLFAC
 40
1.0
  9
$DIMBLK
  1
_FILLED
  9
$DIMTXT
 40
1.8
  9
$DIMTOL
 70
1
  9
$DIMLIM
 70
0
  9
$DIMTFAC
 40
1.0
  9
$DIMTP
 40
0.001
  9
$DIMTM
 40
0.001
  9
$DIMGAP
 40
0.625
  9
$DIMDSEP
 70
46
  9
$PDMODE
 70
3
  9
$PDSIZE
 40
1.0
  9
$HANDSEED
  5
2B1
  9
$TILEMODE
 70
1
  9
$MEASUREMENT
 70
1
  9
$INSUNITS
 70
4
  0
ENDSEC
  0
SECTION
  2
CLASSES
  0
CLASS
  1
ACDBDICTIONARYWDFLT
  2
AcDbDictionaryWithDefault
  3
AutoCAD 2000
 90
0
 91
1
280
0
281
0
  0
CLASS
  1
ACDBPLACEHOLDER
  2
AcDbPlaceHolder
  3
AutoCAD 2000
 90
0
 91
1
280
0
281
0
  0
CLASS
  1
LAYOUT
  2
AcDbLayout
  3
AutoCAD 2000
 90
0
 91
0
280
0
281
0
  0
ENDSEC
  0
SECTION
  2
TABLES
  0
TABLE
  2
VPORT
  5
8
100
AcDbSymbolTable
 70
2
  0
VPORT
  5
1F4
100
AcDbSymbolTableRecord
100
AcDbViewportTableRecord
  2
*ACTIVE
 70
0
 10
0.0
 20
0.0
 11
1.0
 21
1.0
 12
279.4
 22
215.9
 13
0.0
 23
0.0
 14
1.0
 24
1.0
 15
0.0
 25
0.0
 16
0.0
 26
0.0
 36
1.0
 17
0.0
 27
0.0
 37
0.0
 40
431.8
 41
1.2941176471
 42
50.0
 43
0.0
 44
0.0
 50
0.0
 51
0.0
 71
0
 72
100
 73
1
 74
1
 75
0
 76
0
 77
0
 78
0
  0
ENDTAB
  0
TABLE
  2
LTYPE
  5
5
100
AcDbSymbolTable
 70
6
  0
LTYPE
  5
14
100
AcDbSymbolTableRecord
100
AcDbLinetypeTableRecord
  2
BYBLOCK
 70
0
  3

 72
65
 73
0
 40
0.0
  0
LTYPE
  5
15
100
AcDbSymbolTableRecord
100
AcDbLinetypeTableRecord
  2
BYLAYER
 70
0
  3

 72
65
 73
0
 40
0.0
  0
LTYPE
  5
16
100
AcDbSymbolTableRecord
100
AcDbLinetypeTableRecord
  2
CONTINUOUS
 70
64
  3
Solid line
 72
65
 73
0
 40
0.0
  0
LTYPE
  5
1F5
100
AcDbSymbolTableRecord
100
AcDbLinetypeTableRecord
  2
CENTER
 70
64
  3
____ _ ____ _ ____ _ ____ _ ____ _ ____ _ ____
 72
65
 73
4
 40
0.6
 49
0.375
 74
0
 49
-0.075
 74
0
 49
0.075
 74
0
 49
-0.075
 74
0
  0
LTYPE
  5
1F6
100
AcDbSymbolTableRecord
100
AcDbLinetypeTableRecord
  2
HIDDEN
 70
64
  3
- - - - - - - - - - - - - - - - - - - -
 72
65
 73
2
 40
0.2
 49
0.1
 74
0
 49
-0.1
 74
0
  0
LTYPE
  5
1F7
100
AcDbSymbolTableRecord
100
AcDbLinetypeTableRecord
  2
PHANTOM
 70
64
  3
_____ _ _ _____ _ _ _____ _ _ _____
 72
65
 73
6
 40
0.8
 49
0.45
 74
0
 49
-0.05
 74
0
 49
0.1
 74
0
 49
-0.05
 74
0
 49
0.1
 74
0
 49
-0.05
 74
0
  0
LTYPE
  5
1F8
100
AcDbSymbolTableRecord
100
AcDbLinetypeTableRecord
  2
DOT
 70
64
  3
. . . . . . . . . . . . . . . . . . . .
 72
65
 73
2
 40
0.2
 49
0.1
 74
0
 49
-0.1
 74
0
  0
LTYPE
  5
1F9
100
AcDbSymbolTableRecord
100
AcDbLinetypeTableRecord
  2
DASHED
 70
64
  3
- - - - - - - - - - - - - - - - - - - -
 72
65
 73
2
 40
0.2
 49
0.1
 74
0
 49
-0.1
 74
0
  0
ENDTAB
  0
TABLE
  2
LAYER
  5
2
100
AcDbSymbolTable
 70
36
  0
LAYER
  5
10
100
AcDbSymbolTableRecord
100
AcDbLayerTableRecord
  2
0
 70
0
 62
7
  6
CONTINUOUS
370
-3
390
F
  0
LAYER
  5
1FA
100
AcDbSymbolTableRecord
100
AcDbLayerTableRecord
  2
DEFAULT_1
 70
0
 62
7
  6
CENTER
370
-3
390
F
  0
LAYER
  5
1FB
100
AcDbSymbolTableRecord
100
AcDbLayerTableRecord
  2
DEFAULT_2
 70
0
 62
8
  6
HIDDEN
370
-3
390
F
  0
LAYER
  5
1FC
100
AcDbSymbolTableRecord
100
AcDbLayerTableRecord
  2
DEFAULT_3
 70
0
 62
7
  6
PHANTOM
370
-3
390
F
  0
LAYER
  5
1FD
100
AcDbSymbolTableRecord
100
AcDbLayerTableRecord
  2
01_ALL_DTM_PLN
 70
0
 62
7
  6
CONTINUOUS
370
-3
390
F
  0
LAYER
  5
1FE
100
AcDbSymbolTableRecord
100
AcDbLayerTableRecord
  2
01__ASM_ALL_DTM_PLN
 70
0
 62
7
  6
CONTINUOUS
370
-3
390
F
  0
LAYER
  5
1FF
100
AcDbSymbolTableRecord
100
AcDbLayerTableRecord
  2
01__ASM_DEF_DTM_PLN
 70
0
 62
7
  6
CONTINUOUS
370
-3
390
F
  0
LAYER
  5
200
100
AcDbSymbolTableRecord
100
AcDbLayerTableRecord
  2
01___PRT_ALL_DTM_PLN
 70
0
 62
7
  6
CONTINUOUS
370
-3
390
F
  0
LAYER
  5
201
100
AcDbSymbolTableRecord
100
AcDbLayerTableRecord
  2
01___PRT_DEF_DTM_PLN
 70
0
 62
7
  6
CONTINUOUS
370
-3
390
F
  0
LAYER
  5
202
100
AcDbSymbolTableRecord
100
AcDbLayerTableRecord
  2
02_ALL_AXES
 70
0
 62
7
  6
CONTINUOUS
370
-3
390
F
  0
LAYER
  5
203
100
AcDbSymbolTableRecord
100
AcDbLayerTableRecord
  2
02__ASM_ALL_AXES
 70
0
 62
7
  6
CONTINUOUS
370
-3
390
F
  0
LAYER
  5
204
100
AcDbSymbolTableRecord
100
AcDbLayerTableRecord
  2
02___PRT_ALL_AXES
 70
0
 62
7
  6
CONTINUOUS
370
-3
390
F
  0
LAYER
  5
205
100
AcDbSymbolTableRecord
100
AcDbLayerTableRecord
  2
03_ALL_CURVES
 70
0
 62
7
  6
CONTINUOUS
370
-3
390
F
  0
LAYER
  5
206
100
AcDbSymbolTableRecord
100
AcDbLayerTableRecord
  2
03__ASM_ALL_CURVES
 70
0
 62
7
  6
CONTINUOUS
370
-3
390
F
  0
LAYER
  5
207
100
AcDbSymbolTableRecord
100
AcDbLayerTableRecord
  2
03___PRT_ALL_CURVES
 70
0
 62
7
  6
CONTINUOUS
370
-3
390
F
  0
LAYER
  5
208
100
AcDbSymbolTableRecord
100
AcDbLayerTableRecord
  2
04_ALL_DTM_PNT
 70
0
 62
7
  6
CONTINUOUS
370
-3
390
F
  0
LAYER
  5
209
100
AcDbSymbolTableRecord
100
AcDbLayerTableRecord
  2
04__ASM_ALL_DTM_PNT
 70
0
 62
7
  6
CONTINUOUS
370
-3
390
F
  0
LAYER
  5
20A
100
AcDbSymbolTableRecord
100
AcDbLayerTableRecord
  2
04___PRT_ALL_DTM_PNT
 70
0
 62
7
  6
CONTINUOUS
370
-3
390
F
  0
LAYER
  5
20B
100
AcDbSymbolTableRecord
100
AcDbLayerTableRecord
  2
05_ALL_DTM_CSYS
 70
0
 62
7
  6
CONTINUOUS
370
-3
390
F
  0
LAYER
  5
20C
100
AcDbSymbolTableRecord
100
AcDbLayerTableRecord
  2
05__ASM_ALL_DTM_CSYS
 70
0
 62
7
  6
CONTINUOUS
370
-3
390
F
  0
LAYER
  5
20D
100
AcDbSymbolTableRecord
100
AcDbLayerTableRecord
  2
05__ASM_DEF_DTM_CSYS
 70
0
 62
7
  6
CONTINUOUS
370
-3
390
F
  0
LAYER
  5
20E
100
AcDbSymbolTableRecord
100
AcDbLayerTableRecord
  2
05___PRT_ALL_DTM_CSYS
 70
0
 62
7
  6
CONTINUOUS
370
-3
390
F
  0
LAYER
  5
20F
100
AcDbSymbolTableRecord
100
AcDbLayerTableRecord
  2
05___PRT_DEF_DTM_CSYS
 70
0
 62
7
  6
CONTINUOUS
370
-3
390
F
  0
LAYER
  5
210
100
AcDbSymbolTableRecord
100
AcDbLayerTableRecord
  2
06_ALL_SURFS
 70
0
 62
7
  6
CONTINUOUS
370
-3
390
F
  0
LAYER
  5
211
100
AcDbSymbolTableRecord
100
AcDbLayerTableRecord
  2
06__ASM_ALL_SURFS
 70
0
 62
7
  6
CONTINUOUS
370
-3
390
F
  0
LAYER
  5
212
100
AcDbSymbolTableRecord
100
AcDbLayerTableRecord
  2
06___PRT_ALL_SURFS
 70
0
 62
7
  6
CONTINUOUS
370
-3
390
F
  0
LAYER
  5
213
100
AcDbSymbolTableRecord
100
AcDbLayerTableRecord
  2
07__ASM_ALL_SKELETONS
 70
0
 62
7
  6
CONTINUOUS
370
-3
390
F
  0
LAYER
  5
214
100
AcDbSymbolTableRecord
100
AcDbLayerTableRecord
  2
103125_1
 70
0
 62
7
  6
CONTINUOUS
370
-3
390
F
  0
LAYER
  5
215
100
AcDbSymbolTableRecord
100
AcDbLayerTableRecord
  2
103126_12
 70
0
 62
7
  6
CONTINUOUS
370
-3
390
F
  0
LAYER
  5
216
100
AcDbSymbolTableRecord
100
AcDbLayerTableRecord
  2
123039_1
 70
0
 62
7
  6
CONTINUOUS
370
-3
390
F
  0
LAYER
  5
217
100
AcDbSymbolTableRecord
100
AcDbLayerTableRecord
  2
125021_1
 70
0
 62
7
  6
CONTINUOUS
370
-3
390
F
  0
LAYER
  5
218
100
AcDbSymbolTableRecord
100
AcDbLayerTableRecord
  2
125051_2
 70
0
 62
7
  6
CONTINUOUS
370
-3
390
F
  0
LAYER
  5
219
100
AcDbSymbolTableRecord
100
AcDbLayerTableRecord
  2
128037_3
 70
0
 62
7
  6
CONTINUOUS
370
-3
390
F
  0
LAYER
  5
21A
100
AcDbSymbolTableRecord
100
AcDbLayerTableRecord
  2
133069_ASM_10
 70
0
 62
7
  6
CONTINUOUS
370
-3
390
F
  0
LAYER
  5
21B
100
AcDbSymbolTableRecord
100
AcDbLayerTableRecord
  2
143026_5
 70
0
 62
7
  6
CONTINUOUS
370
-3
390
F
  0
LAYER
  5
21C
100
AcDbSymbolTableRecord
100
AcDbLayerTableRecord
  2
153015_5
 70
0
 62
7
  6
CONTINUOUS
370
-3
390
F
  0
LAYER
  5
21D
100
AcDbSymbolTableRecord
100
AcDbLayerTableRecord
  2
173003_2
 70
0
 62
7
  6
CONTINUOUS
370
-3
390
F
  0
LAYER
  5
21E
100
AcDbSymbolTableRecord
100
AcDbLayerTableRecord
  2
195056_3
 70
0
 62
7
  6
CONTINUOUS
370
-3
390
F
  0
LAYER
  5
21F
100
AcDbSymbolTableRecord
100
AcDbLayerTableRecord
  2
195057_6
 70
0
 62
7
  6
CONTINUOUS
370
-3
390
F
  0
LAYER
  5
220
100
AcDbSymbolTableRecord
100
AcDbLayerTableRecord
  2
195058_2
 70
0
 62
7
  6
CONTINUOUS
370
-3
390
F
  0
LAYER
  5
221
100
AcDbSymbolTableRecord
100
AcDbLayerTableRecord
  2
196004_1
 70
0
 62
7
  6
CONTINUOUS
370
-3
390
F
  0
LAYER
  5
222
100
AcDbSymbolTableRecord
100
AcDbLayerTableRecord
  2
196033_3
 70
0
 62
7
  6
CONTINUOUS
370
-3
390
F
  0
LAYER
  5
223
100
AcDbSymbolTableRecord
100
AcDbLayerTableRecord
  2
196037_4
 70
0
 62
7
  6
CONTINUOUS
370
-3
390
F
  0
LAYER
  5
224
100
AcDbSymbolTableRecord
100
AcDbLayerTableRecord
  2
196090_4
 70
0
 62
7
  6
CONTINUOUS
370
-3
390
F
  0
LAYER
  5
225
100
AcDbSymbolTableRecord
100
AcDbLayerTableRecord
  2
196103_4
 70
0
 62
7
  6
CONTINUOUS
370
-3
390
F
  0
LAYER
  5
226
100
AcDbSymbolTableRecord
100
AcDbLayerTableRecord
  2
196106_2
 70
0
 62
7
  6
CONTINUOUS
370
-3
390
F
  0
LAYER
  5
227
100
AcDbSymbolTableRecord
100
AcDbLayerTableRecord
  2
196114_5
 70
0
 62
7
  6
CONTINUOUS
370
-3
390
F
  0
LAYER
  5
228
100
AcDbSymbolTableRecord
100
AcDbLayerTableRecord
  2
199006_1
 70
0
 62
7
  6
CONTINUOUS
370
-3
390
F
  0
LAYER
  5
229
100
AcDbSymbolTableRecord
100
AcDbLayerTableRecord
  2
20160630-04_7
 70
0
 62
7
  6
CONTINUOUS
370
-3
390
F
  0
LAYER
  5
22A
100
AcDbSymbolTableRecord
100
AcDbLayerTableRecord
  2
20160722-01_19
 70
0
 62
7
  6
CONTINUOUS
370
-3
390
F
  0
LAYER
  5
22B
100
AcDbSymbolTableRecord
100
AcDbLayerTableRecord
  2
20160722-02_9
 70
0
 62
7
  6
CONTINUOUS
370
-3
390
F
  0
LAYER
  5
22C
100
AcDbSymbolTableRecord
100
AcDbLayerTableRecord
  2
20160726-01_6
 70
0
 62
7
  6
CONTINUOUS
370
-3
390
F
  0
LAYER
  5
22D
100
AcDbSymbolTableRecord
100
AcDbLayerTableRecord
  2
203005_1
 70
0
 62
7
  6
CONTINUOUS
370
-3
390
F
  0
LAYER
  5
22E
100
AcDbSymbolTableRecord
100
AcDbLayerTableRecord
  2
203016_6
 70
0
 62
7
  6
CONTINUOUS
370
-3
390
F
  0
LAYER
  5
22F
100
AcDbSymbolTableRecord
100
AcDbLayerTableRecord
  2
218011_3
 70
0
 62
7
  6
CONTINUOUS
370
-3
390
F
  0
LAYER
  5
230
100
AcDbSymbolTableRecord
100
AcDbLayerTableRecord
  2
303010_ASM_2
 70
0
 62
7
  6
CONTINUOUS
370
-3
390
F
  0
LAYER
  5
231
100
AcDbSymbolTableRecord
100
AcDbLayerTableRecord
  2
BW5002_ASM_17
 70
0
 62
7
  6
CONTINUOUS
370
-3
390
F
  0
ENDTAB
  0
TABLE
  2
STYLE
  5
3
100
AcDbSymbolTable
 70
1
  0
STYLE
  5
11
100
AcDbSymbolTableRecord
100
AcDbTextStyleTableRecord
  2
STANDARD
 70
0
 40
0.0
 41
0.8
 50
0.0
 71
0
 42
0.2
  3
txt
  4

  0
STYLE
  5
232
100
AcDbSymbolTableRecord
100
AcDbTextStyleTableRecord
  2
TEXTSTYLE_1
 70
0
 40
0.0
 41
0.8
 50
0.0
 71
0
 42
0.2
  3
gdt
  4

  0
ENDTAB
  0
TABLE
  2
VIEW
  5
6
100
AcDbSymbolTable
 70
0
  0
ENDTAB
  0
TABLE
  2
UCS
  5
7
100
AcDbSymbolTable
 70
0
  0
ENDTAB
  0
TABLE
  2
APPID
  5
9
100
AcDbSymbolTable
 70
1
  0
APPID
  5
233
100
AcDbSymbolTableRecord
100
AcDbRegAppTableRecord
  2
ACAD
 70
0
  0
ENDTAB
  0
TABLE
  2
BLOCK_RECORD
  5
1
100
AcDbSymbolTable
 70
0
  0
BLOCK_RECORD
  5
234
100
AcDbSymbolTableRecord
100
AcDbBlockTableRecord
  2
*Model_Space
  0
BLOCK_RECORD
  5
235
100
AcDbSymbolTableRecord
100
AcDbBlockTableRecord
  2
*Paper_Space
  0
BLOCK_RECORD
  5
236
100
AcDbSymbolTableRecord
100
AcDbBlockTableRecord
  2
_FILLED
  0
BLOCK_RECORD
  5
237
100
AcDbSymbolTableRecord
100
AcDbBlockTableRecord
  2
*D0
  0
BLOCK_RECORD
  5
238
100
AcDbSymbolTableRecord
100
AcDbBlockTableRecord
  2
*D1
  0
ENDTAB
  0
TABLE
  2
DIMSTYLE
  5
A
100
AcDbSymbolTable
 70
1
100
AcDbDimStyleTable
 71
0
  0
DIMSTYLE
105
239
100
AcDbSymbolTableRecord
100
AcDbDimStyleTableRecord
  2
STANDARD
 70
0
  3

  4

 40
1.0
 41
3.0
 42
0.5
 43
0.38
 44
0.5
 45
0.0
 46
0.0
 47
0.001
 48
0.001
140
1.8
141
0.09
142
0.0
143
25.4
144
1.0
145
0.0
146
1.0
147
0.625
 71
1.0
 72
0.0
 73
0
 74
0
 75
0
 76
0
 77
1
 78
8
170
0
171
2
172
0
173
0
174
0
175
0
176
0
177
0
178
0
270
2
271
3
272
3
273
2
274
2
275
0
280
0
281
0
282
0
283
1
284
8
285
0
286
0
287
3
288
0
340
11
278
46
341
236
342
236
343
236
344
236
  0
DIMSTYLE
105
23A
100
AcDbSymbolTableRecord
100
AcDbDimStyleTableRecord
  2
DIMSTYLE_1
 70
0
  3

  4

 40
1.0
 41
3.0
 42
0.5
 43
0.38
 44
0.5
 45
0.0
 46
0.0
 47
0.001
 48
0.001
140
3.0
141
0.09
142
0.0
143
25.4
144
1.0
145
0.0
146
1.0
147
0.75
 71
0.0
 72
0.0
 73
0
 74
0
 75
0
 76
0
 77
1
 78
8
170
0
171
2
172
0
173
0
174
0
175
0
176
0
177
0
178
0
270
2
271
0
272
0
273
2
274
2
275
0
280
0
281
0
282
0
283
1
284
8
285
0
286
0
287
3
288
0
340
11
278
46
341
236
342
236
343
236
344
236
  0
ENDTAB
  0
ENDSEC
  0
SECTION
  2
BLOCKS
  0
BLOCK
  5
20
100
AcDbEntity
  8
0
100
AcDbBlockBegin
  2
*Model_Space
 70
0
 10
0.0
 20
0.0
 30
0.0
  3
*Model_Space
  1

  0
ENDBLK
  5
21
100
AcDbEntity
  8
0
100
AcDbBlockEnd
  0
BLOCK
  5
1C
100
AcDbEntity
  8
0
100
AcDbBlockBegin
  2
*Paper_Space
 70
0
 10
0.0
 20
0.0
 30
0.0
  3
*Paper_Space
  1

  0
ENDBLK
  5
1D
100
AcDbEntity
  8
0
100
AcDbBlockEnd
  0
BLOCK
  5
23B
100
AcDbEntity
  8
0
100
AcDbBlockBegin
  2
_FILLED
 70
64
 10
0.0
 20
0.0
  3
_FILLED
  1

  0
SOLID
  5
23C
100
AcDbEntity
  8
0
  6
BYBLOCK
 62
0
100
AcDbTrace
 10
0.0
 20
0.0
 11
-1.0
 21
0.1666666667
 12
-1.0
 22
-0.1666666667
 13
-1.0
 23
-0.1666666667
  0
ENDBLK
  5
23D
100
AcDbEntity
  8
0
  6
BYBLOCK
 62
0
100
AcDbBlockEnd
  0
BLOCK
  5
23E
100
AcDbEntity
  8
0
100
AcDbBlockBegin
 62
2
  6
CONTINUOUS
  2
*D0
 70
65
 10
0.0
 20
0.0
  3
*D0
  1

  0
MTEXT
  5
23F
100
AcDbEntity
  8
0
100
AcDbMText
 62
2
  6
CONTINUOUS
  7
STANDARD
 71
2
 72
1
 10
409.3875463171
 20
238.1406583969
 30
0.0
 11
0.0
 21
1.0
 31
0.0
 44
0.9
  1
328
 40
3.0
 41
13.8857142857
  0
LINE
  5
240
100
AcDbEntity
  8
0
100
AcDbLine
 62
2
  6
CONTINUOUS
 10
290.9968419531
 20
402.2406583969
 11
414.1732606028
 21
402.2406583969
  0
LINE
  5
241
100
AcDbEntity
  8
0
100
AcDbLine
 62
2
  6
CONTINUOUS
 10
330.9968419531
 20
74.0406583969
 11
414.1732606028
 21
74.0406583969
  0
LINE
  5
242
100
AcDbEntity
  8
0
100
AcDbLine
 62
2
  6
CONTINUOUS
 10
413.6732606028
 20
402.2406583969
 11
413.6732606028
 21
238.1406583969
  0
LINE
  5
243
100
AcDbEntity
  8
0
100
AcDbLine
 62
2
  6
CONTINUOUS
 10
413.6732606028
 20
74.0406583969
 11
413.6732606028
 21
238.1406583969
  0
INSERT
  5
244
100
AcDbEntity
  8
0
100
AcDbBlockReference
 62
2
  6
CONTINUOUS
  2
_FILLED
 10
413.6732606028
 20
402.2406583969
 41
3.0
 42
3.0
 43
3.0
 50
90.0
  0
INSERT
  5
245
100
AcDbEntity
  8
0
100
AcDbBlockReference
 62
2
  6
CONTINUOUS
  2
_FILLED
 10
413.6732606028
 20
74.0406583969
 41
3.0
 42
3.0
 43
3.0
 50
270.0
  0
ENDBLK
  5
246
100
AcDbEntity
  8
0
  6
BYBLOCK
 62
0
100
AcDbBlockEnd
  0
BLOCK
  5
247
100
AcDbEntity
  8
0
100
AcDbBlockBegin
 62
2
  6
CONTINUOUS
  2
*D1
 70
65
 10
0.0
 20
0.0
  3
*D1
  1

  0
MTEXT
  5
248
100
AcDbEntity
  8
0
100
AcDbMText
 62
2
  6
CONTINUOUS
  7
STANDARD
 71
2
 72
1
 10
245.6525461771
 20
25.1064364485
 30
0.0
 11
1.0
 21
0.0
 31
0.0
 44
0.9
  1
215
 40
3.0
 41
13.8857142857
  0
LINE
  5
249
100
AcDbEntity
  8
0
100
AcDbLine
 62
2
  6
CONTINUOUS
 10
138.308250401
 20
332.4251468879
 11
138.308250401
 21
20.3207221628
  0
LINE
  5
24A
100
AcDbEntity
  8
0
100
AcDbLine
 62
2
  6
CONTINUOUS
 10
352.9968419531
 20
73.5406583969
 11
352.9968419531
 21
20.3207221628
  0
LINE
  5
24B
100
AcDbEntity
  8
0
100
AcDbLine
 62
2
  6
CONTINUOUS
 10
138.308250401
 20
20.8207221628
 11
245.6525461771
 21
20.8207221628
  0
LINE
  5
24C
100
AcDbEntity
  8
0
100
AcDbLine
 62
2
  6
CONTINUOUS
 10
352.9968419531
 20
20.8207221628
 11
245.6525461771
 21
20.8207221628
  0
INSERT
  5
24D
100
AcDbEntity
  8
0
100
AcDbBlockReference
 62
2
  6
CONTINUOUS
  2
_FILLED
 10
138.308250401
 20
20.8207221628
 41
3.0
 42
3.0
 43
3.0
 50
180.0
  0
INSERT
  5
24E
100
AcDbEntity
  8
0
100
AcDbBlockReference
 62
2
  6
CONTINUOUS
  2
_FILLED
 10
352.9968419531
 20
20.8207221628
 41
3.0
 42
3.0
 43
3.0
  0
ENDBLK
  5
24F
100
AcDbEntity
  8
0
  6
BYBLOCK
 62
0
100
AcDbBlockEnd
  0
ENDSEC
  0
SECTION
  2
ENTITIES
  0
DIMENSION
  5
250
100
AcDbEntity
  8
0
100
AcDbDimension
 62
2
  6
CONTINUOUS
  2
*D0
 10
413.6732606028
 20
74.0406583969
 11
413.6732606028
 21
238.1406583969
 70
160
 71
2
 42
328.2
  3
DIMSTYLE_1
100
AcDbAlignedDimension
 13
290.4968419531
 23
402.2406583969
 14
330.4968419531
 24
74.0406583969
 50
270.0
100
AcDbRotatedDimension
  0
DIMENSION
  5
251
100
AcDbEntity
  8
0
100
AcDbDimension
 62
2
  6
CONTINUOUS
  2
*D1
 10
352.9968419531
 20
20.8207221628
 11
245.6525461771
 21
20.8207221628
 70
160
 71
2
 42
214.6885915521
  3
DIMSTYLE_1
100
AcDbAlignedDimension
 13
138.308250401
 23
332.9251468879
 14
352.9968419531
 24
74.0406583969
100
AcDbRotatedDimension
  0
LINE
  5
252
100
AcDbEntity
  8
123039_1
100
AcDbLine
 62
7
  6
CONTINUOUS
 10
321.2468419531
 20
24.0406583969
 11
339.7468419531
 21
24.0406583969
  0
LINE
  5
253
100
AcDbEntity
  8
123039_1
100
AcDbLine
 62
7
  6
CONTINUOUS
 10
320.2468419531
 20
25.0406583969
 11
340.7468419531
 21
25.0406583969
  0
LINE
  5
254
100
AcDbEntity
  8
125051_2
100
AcDbLine
 62
7
  6
CONTINUOUS
 10
310.4968419531
 20
54.4406583969
 11
350.4968419531
 21
54.4406583969
  0
LINE
  5
255
100
AcDbEntity
  8
103126_12
100
AcDbLine
 62
7
  6
CONTINUOUS
 10
157.6267669268
 20
327.7487659859
 11
157.0143944911
 21
327.3952125953
  0
LINE
  5
256
100
AcDbEntity
  8
125051_2
100
AcDbLine
 62
7
  6
CONTINUOUS
 10
347.1825438084
 20
61.5406583969
 11
332.4532042908
 21
61.5406583969
  0
LINE
  5
257
100
AcDbEntity
  8
125051_2
100
AcDbLine
 62
7
  6
CONTINUOUS
 10
328.5404796155
 20
61.5406583969
 11
313.8111400978
 21
61.5406583969
  0
LINE
  5
258
100
AcDbEntity
  8
125051_2
100
AcDbLine
 62
7
  6
CONTINUOUS
 10
308.7470239252
 20
64.0406583969
 11
352.2466599811
 21
64.0406583969
  0
LINE
  5
259
100
AcDbEntity
  8
125051_2
100
AcDbLine
 62
7
  6
CONTINUOUS
 10
352.2466599811
 20
68.0406583969
 11
308.7470239252
 21
68.0406583969
  0
LINE
  5
25A
100
AcDbEntity
  8
196106_2
100
AcDbLine
 62
7
  6
CONTINUOUS
 10
349.7466829317
 20
70.0406583969
 11
311.2470009746
 21
70.0406583969
  0
LINE
  5
25B
100
AcDbEntity
  8
20160630-04_7
100
AcDbLine
 62
7
  6
CONTINUOUS
 10
146.9513438172
 20
365.1816106521
 11
142.8375836902
 21
349.828848848
  0
LINE
  5
25C
100
AcDbEntity
  8
103126_12
100
AcDbLine
 62
7
  6
CONTINUOUS
 10
142.8375836903
 20
349.828848848
 11
138.308250401
 21
332.9251468879
  0
LINE
  5
25D
100
AcDbEntity
  8
196033_3
100
AcDbLine
 62
7
  6
CONTINUOUS
 10
310.4968419531
 20
73.5406583969
 11
350.4968419531
 21
73.5406583969
  0
LINE
  5
25E
100
AcDbEntity
  8
153015_5
100
AcDbLine
 62
7
  6
CONTINUOUS
 10
307.9970291865
 20
74.0406583969
 11
352.9966547198
 21
74.0406583969
  0
LINE
  5
25F
100
AcDbEntity
  8
153015_5
100
AcDbLine
 62
7
  6
CONTINUOUS
 10
308.1970264177
 20
81.0406583969
 11
352.7966574886
 21
81.0406583969
  0
LINE
  5
260
100
AcDbEntity
  8
20160630-04_7
100
AcDbLine
 62
7
  6
CONTINUOUS
 10
166.269860343
 20
360.00522975
 11
162.156100216
 21
344.6524679459
  0
LINE
  5
261
100
AcDbEntity
  8
103126_12
100
AcDbLine
 62
7
  6
CONTINUOUS
 10
162.1561002161
 20
344.6524679459
 11
157.6267669268
 21
327.7487659859
  0
LINE
  5
262
100
AcDbEntity
  8
103125_1
100
AcDbLine
 62
7
  6
CONTINUOUS
 10
325.4968516792
 20
141.5406583969
 11
335.4968322271
 21
141.5406583969
  0
LINE
  5
263
100
AcDbEntity
  8
123039_1
100
AcDbLine
 62
7
  6
CONTINUOUS
 10
321.2468419531
 20
24.0406583969
 11
320.2468419531
 21
25.0406583969
  0
LINE
  5
264
100
AcDbEntity
  8
20160722-01_19
100
AcDbLine
 62
7
  6
CONTINUOUS
 10
345.4965906759
 20
159.0406583969
 11
335.4968419531
 21
159.0406583969
  0
LINE
  5
265
100
AcDbEntity
  8
20160722-01_19
100
AcDbLine
 62
7
  6
CONTINUOUS
 10
325.4968419531
 20
159.0406583969
 11
315.4970932304
 21
159.0406583969
  0
LINE
  5
266
100
AcDbEntity
  8
20160726-01_6
100
AcDbLine
 62
7
  6
CONTINUOUS
 10
320.4968419531
 20
159.2406583969
 11
325.4968419531
 21
159.2406583969
  0
LINE
  5
267
100
AcDbEntity
  8
20160726-01_6
100
AcDbLine
 62
7
  6
CONTINUOUS
 10
335.4968419531
 20
159.2406583969
 11
340.4968419531
 21
159.2406583969
  0
LINE
  5
268
100
AcDbEntity
  8
20160726-01_6
100
AcDbLine
 62
7
  6
CONTINUOUS
 10
340.4968419531
 20
162.2406583969
 11
335.4968419531
 21
162.2406583969
  0
LINE
  5
269
100
AcDbEntity
  8
20160726-01_6
100
AcDbLine
 62
7
  6
CONTINUOUS
 10
325.4968419531
 20
162.2406583969
 11
320.4968419531
 21
162.2406583969
  0
LINE
  5
26A
100
AcDbEntity
  8
20160630-04_7
100
AcDbLine
 62
7
  6
CONTINUOUS
 10
320.4968419531
 20
162.2406583969
 11
325.4968419531
 21
162.2406583969
  0
LINE
  5
26B
100
AcDbEntity
  8
20160630-04_7
100
AcDbLine
 62
7
  6
CONTINUOUS
 10
335.4968419531
 20
162.2406583969
 11
340.4968419531
 21
162.2406583969
  0
LINE
  5
26C
100
AcDbEntity
  8
103125_1
100
AcDbLine
 62
7
  6
CONTINUOUS
 10
334.9968245272
 20
180.0406583969
 11
325.9968593791
 21
180.0406583969
  0
LINE
  5
26D
100
AcDbEntity
  8
103126_12
100
AcDbLine
 62
7
  6
CONTINUOUS
 10
138.308250401
 20
332.9251468879
 11
138.6618037916
 21
332.3127744522
  0
LINE
  5
26E
100
AcDbEntity
  8
153015_5
100
AcDbLine
 62
7
  6
CONTINUOUS
 10
307.9968419531
 20
74.0406583969
 11
307.9968419531
 21
80.8406583969
  0
LINE
  5
26F
100
AcDbEntity
  8
125051_2
100
AcDbLine
 62
7
  6
CONTINUOUS
 10
308.7468419531
 20
68.0406583969
 11
308.7468419531
 21
64.0406583969
  0
LINE
  5
270
100
AcDbEntity
  8
125051_2
100
AcDbLine
 62
7
  6
CONTINUOUS
 10
309.4968419531
 20
64.0406583969
 11
309.4968419531
 21
55.4406583969
  0
LINE
  5
271
100
AcDbEntity
  8
196106_2
100
AcDbLine
 62
7
  6
CONTINUOUS
 10
311.2468419531
 20
70.0406583969
 11
311.2468419531
 21
68.0406583969
  0
LINE
  5
272
100
AcDbEntity
  8
153015_5
100
AcDbLine
 62
7
  6
CONTINUOUS
 10
313.4968419531
 20
70.0406583969
 11
313.4968419531
 21
73.5406583969
  0
LINE
  5
273
100
AcDbEntity
  8
20160722-01_19
100
AcDbLine
 62
7
  6
CONTINUOUS
 10
315.4968419531
 20
81.0406583969
 11
315.4968419531
 21
159.0406583969
  0
LINE
  5
274
100
AcDbEntity
  8
20160722-01_19
100
AcDbLine
 62
7
  6
CONTINUOUS
 10
316.7491148683
 20
117.9393650051
 11
316.7491148683
 21
117.6414975289
  0
LINE
  5
275
100
AcDbEntity
  8
20160722-01_19
100
AcDbLine
 62
7
  6
CONTINUOUS
 10
316.7491148683
 20
112.439819265
 11
316.7491148683
 21
112.1419517888
  0
LINE
  5
276
100
AcDbEntity
  8
125051_2
100
AcDbLine
 62
7
  6
CONTINUOUS
 10
328.6472601444
 20
55.4232059917
 11
328.4968419531
 21
64.0406583969
  0
LINE
  5
277
100
AcDbEntity
  8
123039_1
100
AcDbLine
 62
7
  6
CONTINUOUS
 10
320.2468419531
 20
25.0406583969
 11
320.2468419531
 21
54.4406583969
  0
LINE
  5
278
100
AcDbEntity
  8
20160630-04_7
100
AcDbLine
 62
7
  6
CONTINUOUS
 10
320.4968419531
 20
352.2406583969
 11
320.4968419531
 21
162.2406583969
  0
LINE
  5
279
100
AcDbEntity
  8
20160726-01_6
100
AcDbLine
 62
7
  6
CONTINUOUS
 10
320.4968419531
 20
159.2406583969
 11
320.4968419531
 21
162.2406583969
  0
LINE
  5
27A
100
AcDbEntity
  8
195057_6
100
AcDbLine
 62
7
  6
CONTINUOUS
 10
321.7468419531
 20
159.0406583969
 11
321.7468419531
 21
159.2406583969
  0
LINE
  5
27B
100
AcDbEntity
  8
103125_1
100
AcDbLine
 62
7
  6
CONTINUOUS
 10
325.4968419531
 20
141.5406583969
 11
325.4968419531
 21
179.5406583969
  0
LINE
  5
27C
100
AcDbEntity
  8
103125_1
100
AcDbLine
 62
7
  6
CONTINUOUS
 10
326.4968419531
 20
128.4569970995
 11
326.4968419531
 21
141.5406583969
  0
LINE
  5
27D
100
AcDbEntity
  8
103125_1
100
AcDbLine
 62
7
  6
CONTINUOUS
 10
334.4968419531
 20
128.4550065749
 11
334.4968419531
 21
141.5406583969
  0
LINE
  5
27E
100
AcDbEntity
  8
103126_12
100
AcDbLine
 62
7
  6
CONTINUOUS
 10
138.6618037916
 20
332.3127744522
 11
157.0143944911
 21
327.3952125953
  0
LINE
  5
27F
100
AcDbEntity
  8
103126_12
100
AcDbLine
 62
7
  6
CONTINUOUS
 10
138.308250401
 20
332.9251468879
 11
157.6267669268
 21
327.7487659859
  0
LINE
  5
280
100
AcDbEntity
  8
103125_1
100
AcDbLine
 62
7
  6
CONTINUOUS
 10
335.4968419531
 20
141.5406583969
 11
335.4968419531
 21
179.5406583969
  0
LINE
  5
281
100
AcDbEntity
  8
195057_6
100
AcDbLine
 62
7
  6
CONTINUOUS
 10
339.2468419531
 20
159.0406583969
 11
339.2468419531
 21
159.2406583969
  0
LINE
  5
282
100
AcDbEntity
  8
20160630-04_7
100
AcDbLine
 62
7
  6
CONTINUOUS
 10
340.4968419531
 20
352.2406583969
 11
340.4968419531
 21
162.2406583969
  0
LINE
  5
283
100
AcDbEntity
  8
20160726-01_6
100
AcDbLine
 62
7
  6
CONTINUOUS
 10
340.4968419531
 20
159.2406583969
 11
340.4968419531
 21
162.2406583969
  0
LINE
  5
284
100
AcDbEntity
  8
123039_1
100
AcDbLine
 62
7
  6
CONTINUOUS
 10
340.7468419531
 20
25.0406583969
 11
340.7468419531
 21
54.4406583969
  0
LINE
  5
285
100
AcDbEntity
  8
20160722-01_19
100
AcDbLine
 62
7
  6
CONTINUOUS
 10
344.244569038
 20
112.1419517888
 11
344.244569038
 21
112.439819265
  0
LINE
  5
286
100
AcDbEntity
  8
20160722-01_19
100
AcDbLine
 62
7
  6
CONTINUOUS
 10
344.244569038
 20
117.6414975289
 11
344.244569038
 21
117.9393650051
  0
LINE
  5
287
100
AcDbEntity
  8
20160722-01_19
100
AcDbLine
 62
7
  6
CONTINUOUS
 10
345.4968419531
 20
81.0406583969
 11
345.4968419531
 21
150.8406801238
  0
LINE
  5
288
100
AcDbEntity
  8
199006_1
100
AcDbLine
 62
7
  6
CONTINUOUS
 10
345.4968419531
 20
150.8406801238
 11
345.4968419531
 21
155.8406366701
  0
LINE
  5
289
100
AcDbEntity
  8
20160722-01_19
100
AcDbLine
 62
7
  6
CONTINUOUS
 10
345.4968419531
 20
155.8406366701
 11
345.4968419531
 21
159.0406583969
  0
LINE
  5
28A
100
AcDbEntity
  8
153015_5
100
AcDbLine
 62
7
  6
CONTINUOUS
 10
347.4968419531
 20
70.0406583969
 11
347.4968419531
 21
73.5406583969
  0
LINE
  5
28B
100
AcDbEntity
  8
125051_2
100
AcDbLine
 62
7
  6
CONTINUOUS
 10
332.4968419531
 20
64.0406583969
 11
332.3464237619
 21
55.4232059911
  0
LINE
  5
28C
100
AcDbEntity
  8
196106_2
100
AcDbLine
 62
7
  6
CONTINUOUS
 10
349.7468419531
 20
70.0406583969
 11
349.7468419531
 21
68.0406583969
  0
LINE
  5
28D
100
AcDbEntity
  8
125051_2
100
AcDbLine
 62
7
  6
CONTINUOUS
 10
351.4968419531
 20
55.4406583969
 11
351.4968419531
 21
64.0406583969
  0
LINE
  5
28E
100
AcDbEntity
  8
125051_2
100
AcDbLine
 62
7
  6
CONTINUOUS
 10
352.2468419531
 20
68.0406583969
 11
352.2468419531
 21
64.0406583969
  0
LINE
  5
28F
100
AcDbEntity
  8
153015_5
100
AcDbLine
 62
7
  6
CONTINUOUS
 10
352.9968419531
 20
74.0406583969
 11
352.9968419531
 21
80.8406583969
  0
LINE
  5
290
100
AcDbEntity
  8
103126_12
100
AcDbLine
 62
7
  6
CONTINUOUS
 10
162.1561002161
 20
344.6524679459
 11
142.8375836903
 21
349.828848848
  0
LINE
  5
291
100
AcDbEntity
  8
20160630-04_7
100
AcDbLine
 62
7
  6
CONTINUOUS
 10
142.8375836902
 20
349.828848848
 11
162.156100216
 21
344.6524679459
  0
LINE
  5
292
100
AcDbEntity
  8
20160630-04_7
100
AcDbLine
 62
7
  6
CONTINUOUS
 10
290.4968419531
 20
382.2406583969
 11
195.2476351317
 21
382.2406583969
  0
LINE
  5
293
100
AcDbEntity
  8
20160630-04_7
100
AcDbLine
 62
7
  6
CONTINUOUS
 10
290.4968419531
 20
402.2406583969
 11
195.2476351317
 21
402.2406583969
  0
LINE
  5
294
100
AcDbEntity
  8
123039_1
100
AcDbLine
 62
7
  6
CONTINUOUS
 10
339.7468419531
 20
24.0406583969
 11
340.7468419531
 21
25.0406583969
  0
ARC
  5
295
100
AcDbEntity
  8
20160630-04_7
100
AcDbCircle
 62
7
  6
CONTINUOUS
 10
195.2476351317
 20
352.2406583969
 40
50.0
100
AcDbArc
 50
90.0
 51
165.0
  0
ARC
  5
296
100
AcDbEntity
  8
20160630-04_7
100
AcDbCircle
 62
7
  6
CONTINUOUS
 10
195.2476351317
 20
352.2406583969
 40
30.0
100
AcDbArc
 50
90.0
 51
165.0
  0
ARC
  5
297
100
AcDbEntity
  8
20160722-01_19
100
AcDbCircle
 62
7
  6
CONTINUOUS
 10
330.4968419531
 20
115.0406583969
 40
14.05
100
AcDbArc
 50
106.5408131571
 51
168.0935910424
  0
ARC
  5
298
100
AcDbEntity
  8
20160722-01_19
100
AcDbCircle
 62
7
  6
CONTINUOUS
 10
330.4968419531
 20
115.0406583969
 40
14.05
100
AcDbArc
 50
191.9064089576
 51
348.0935910424
  0
ARC
  5
299
100
AcDbEntity
  8
20160722-01_19
100
AcDbCircle
 62
7
  6
CONTINUOUS
 10
330.4968419531
 20
115.0406583969
 40
14.05
100
AcDbArc
 50
11.9064089576
 51
73.469193705
  0
CIRCLE
  5
29A
100
AcDbEntity
  8
143026_5
100
AcDbCircle
 62
7
  6
CONTINUOUS
 10
330.4968419531
 20
115.0406583969
 40
14.0
  0
ARC
  5
29B
100
AcDbEntity
  8
196033_3
100
AcDbCircle
 62
7
  6
CONTINUOUS
 10
350.4968419531
 20
75.0406583969
 40
1.5
100
AcDbArc
 50
270.0
 51
318.084038566
  0
ARC
  5
29C
100
AcDbEntity
  8
196033_3
100
AcDbCircle
 62
7
  6
CONTINUOUS
 10
310.4968419531
 20
75.0406583969
 40
1.5
100
AcDbArc
 50
221.915961434
 51
270.0
  0
ARC
  5
29D
100
AcDbEntity
  8
125051_2
100
AcDbCircle
 62
7
  6
CONTINUOUS
 10
331.3465760667
 20
55.4406583969
 40
1.0
100
AcDbArc
 50
270.0
 51
359.0000000333
  0
ARC
  5
29E
100
AcDbEntity
  8
125051_2
100
AcDbCircle
 62
7
  6
CONTINUOUS
 10
310.4968419531
 20
55.4406583969
 40
1.0
100
AcDbArc
 50
180.0
 51
270.0
  0
ARC
  5
29F
100
AcDbEntity
  8
125051_2
100
AcDbCircle
 62
7
  6
CONTINUOUS
 10
329.6471078396
 20
55.4406583969
 40
1.0
100
AcDbArc
 50
180.999999933
 51
270.0
  0
ARC
  5
2A0
100
AcDbEntity
  8
125051_2
100
AcDbCircle
 62
7
  6
CONTINUOUS
 10
350.4968419531
 20
55.4406583969
 40
1.0
100
AcDbArc
 50
270.0
 51
360.0
  0
ARC
  5
2A1
100
AcDbEntity
  8
125051_2
100
AcDbCircle
 62
7
  6
CONTINUOUS
 10
319.1234131955
 20
55.438075357
 40
0.9889336201
100
AcDbArc
 50
179.8503464215
 51
180.8615178994
  0
ARC
  5
2A2
100
AcDbEntity
  8
125051_2
100
AcDbCircle
 62
7
  6
CONTINUOUS
 10
341.87027073
 20
55.4380753569
 40
0.9889336009
100
AcDbArc
 50
359.1384821068
 51
0.1496535849
  0
ARC
  5
2A3
100
AcDbEntity
  8
103125_1
100
AcDbCircle
 62
7
  6
CONTINUOUS
 10
325.9968419531
 20
179.5406583969
 40
0.5
100
AcDbArc
 50
90.0
 51
180.0
  0
ARC
  5
2A4
100
AcDbEntity
  8
103125_1
100
AcDbCircle
 62
7
  6
CONTINUOUS
 10
334.9968419531
 20
179.5406583969
 40
0.5
100
AcDbArc
 50
0.0
 51
90.0
  0
ARC
  5
2A5
100
AcDbEntity
  8
153015_5
100
AcDbCircle
 62
7
  6
CONTINUOUS
 10
308.1968419531
 20
80.8406583969
 40
0.2
100
AcDbArc
 50
90.0
 51
180.0
  0
ARC
  5
2A6
100
AcDbEntity
  8
153015_5
100
AcDbCircle
 62
7
  6
CONTINUOUS
 10
352.7968419531
 20
80.8406583969
 40
0.2
100
AcDbArc
 50
0.0
 51
90.0
  0
ARC
  5
2A7
100
AcDbEntity
  8
20160630-04_7
100
AcDbCircle
 62
7
  6
CONTINUOUS
 10
290.4968419531
 20
352.2406583969
 40
50.0
100
AcDbArc
 50
0.0
 51
90.0
  0
ARC
  5
2A8
100
AcDbEntity
  8
20160630-04_7
100
AcDbCircle
 62
7
  6
CONTINUOUS
 10
290.4968419531
 20
352.2406583969
 40
30.0
100
AcDbArc
 50
0.0
 51
90.0
  0
SPLINE
  5
2A9
100
AcDbEntity
  8
125051_2
100
AcDbSpline
 62
7
  6
CONTINUOUS
 70
0
 71
3
 72
11
 73
7
 74
0
 42
0.0000001
 43
0.0000001
 44
0.0000000001
 40
0.0
 40
0.0
 40
0.0
 40
0.0
 40
0.250009728
 40
0.499980627
 40
0.7499667088
 40
1.0
 40
1.0
 40
1.0
 40
1.0
 10
311.3007486006
 20
64.0406583969
 30
0.0
 10
311.3001558157
 20
63.7147027628
 30
0.0
 10
311.4305754134
 20
63.055360826
 30
0.0
 10
311.9908486057
 20
62.2237654122
 30
0.0
 10
312.8261812991
 20
61.6696222261
 30
0.0
 10
313.4851532036
 20
61.5406583969
 30
0.0
 10
313.8111400979
 20
61.5406583969
 30
0.0
  0
SPLINE
  5
2AA
100
AcDbEntity
  8
125051_2
100
AcDbSpline
 62
7
  6
CONTINUOUS
 70
0
 71
3
 72
11
 73
7
 74
0
 42
0.0000001
 43
0.0000001
 44
0.0000000001
 40
0.0
 40
0.0
 40
0.0
 40
0.0
 40
0.3000170909
 40
0.5606023787
 40
0.7874100463
 40
1.0
 40
1.0
 40
1.0
 40
1.0
 10
318.1345913678
 20
55.4232059911
 30
0.0
 10
318.1367958207
 20
55.2766119008
 30
0.0
 10
318.1932717274
 20
54.9999863687
 30
0.0
 10
318.4134071914
 20
54.6724477555
 30
0.0
 10
318.7073210058
 20
54.4806433199
 30
0.0
 10
318.9243910516
 20
54.4406583969
 30
0.0
 10
319.0282783144
 20
54.4406583969
 30
0.0
  0
SPLINE
  5
2AB
100
AcDbEntity
  8
125051_2
100
AcDbSpline
 62
7
  6
CONTINUOUS
 70
0
 71
3
 72
11
 73
7
 74
0
 42
0.0000001
 43
0.0000001
 44
0.0000000001
 40
0.0
 40
0.0
 40
0.0
 40
0.0
 40
0.2125902644
 40
0.4393979125
 40
0.6999832291
 40
1.0
 40
1.0
 40
1.0
 40
1.0
 10
341.9654055919
 20
54.4406583969
 30
0.0
 10
342.0692930068
 20
54.4406583969
 30
0.0
 10
342.2863632081
 20
54.4806434094
 30
0.0
 10
342.580277035
 20
54.6724481025
 30
0.0
 10
342.8004122934
 20
54.9999866692
 30
0.0
 10
342.8568880879
 20
55.276612057
 30
0.0
 10
342.8590925386
 20
55.4232059914
 30
0.0
  0
SPLINE
  5
2AC
100
AcDbEntity
  8
125051_2
100
AcDbSpline
 62
7
  6
CONTINUOUS
 70
0
 71
3
 72
11
 73
7
 74
0
 42
0.0000001
 43
0.0000001
 44
0.0000000001
 40
0.0
 40
0.0
 40
0.0
 40
0.0
 40
0.2500883169
 40
0.5000939416
 40
0.7500478854
 40
1.0
 40
1.0
 40
1.0
 40
1.0
 10
347.1825438084
 20
61.5406583969
 30
0.0
 10
347.5086024515
 20
61.5406583969
 30
0.0
 10
348.1676840799
 20
61.6696365433
 30
0.0
 10
349.0030153535
 20
62.2239458336
 30
0.0
 10
349.5631277701
 20
63.0555448678
 30
0.0
 10
349.693527954
 20
63.7147778698
 30
0.0
 10
349.6929353057
 20
64.0406583969
 30
0.0
  0
ELLIPSE
  5
2AD
100
AcDbEntity
  8
125051_2
100
AcDbEllipse
 62
7
  6
CONTINUOUS
 10
330.4968419531
 20
-50.5392648646
 30
0.0
 11
0.0
 21
716.1245203846
 31
0.0
 40
0.0174550649
 41
-1.4222598178
 42
-1.4136412428
  0
ELLIPSE
  5
2AE
100
AcDbEntity
  8
125051_2
100
AcDbEllipse
 62
7
  6
CONTINUOUS
 10
330.4968419531
 20
-50.5392648646
 30
0.0
 11
0.0
 21
716.1245203846
 31
0.0
 40
0.0174550649
 41
1.4136412428
 42
1.4222598178
  0
ENDSEC
  0
SECTION
  2
OBJECTS
  0
DICTIONARY
  5
C
100
AcDbDictionary
280
0
281
1
  3
ACAD_GROUP
350
D
  3
ACAD_MLINESTYLE
350
17
  3
ACAD_LAYOUT
350
1A
  3
ACAD_PLOTSETTINGS
350
19
  3
ACAD_PLOTSTYLENAME
350
E
  0
DICTIONARY
  5
D
102
{ACAD_REACTORS
330
C
102
}
100
AcDbDictionary
280
0
281
1
  0
ACDBDICTIONARYWDFLT
  5
E
102
{ACAD_REACTORS
330
C
102
}
100
AcDbDictionary
281
1
  3
Normal
350
F
100
AcDbDictionaryWithDefault
340
F
  0
DICTIONARY
  5
17
102
{ACAD_REACTORS
330
C
102
}
100
AcDbDictionary
280
0
281
1
  3
Standard
350
18
  0
DICTIONARY
  5
19
102
{ACAD_REACTORS
330
C
102
}
100
AcDbDictionary
281
1
  0
DICTIONARY
  5
1A
102
{ACAD_REACTORS
330
C
102
}
100
AcDbDictionary
281
1
  3
Model
350
2AF
  3
Layout1
350
2B0
  0
ACDBPLACEHOLDER
  5
F
102
{ACAD_REACTORS
330
E
102
}
  0
MLINESTYLE
  5
18
102
{ACAD_REACTORS
330
17
102
}
100
AcDbMlineStyle
  2
STANDARD
 70
0
  3

 62
256
 51
90.0
 52
90.0
 71
2
 49
0.5
 62
256
  6
BYLAYER
 49
-0.5
 62
256
  6
BYLAYER
  0
LAYOUT
  5
2AF
102
{ACAD_REACTORS
330
1A
102
}
100
AcDbPlotSettings
  1

  2
none_device
  4
ANSI_C_(22.00_x_17.00_Inches)
  6

 40
0.0
 41
0.0
 42
0.0
 43
0.0
 44
558.8
 45
431.8
 46
0.0
 47
0.0
 48
0.0
 49
0.0
140
0.0
141
0.0
142
1.0
143
1.0
 70
1024
 72
1
 73
0
 74
0
  7

 75
0
147
1.0
148
0.0
149
0.0
100
AcDbLayout
  1
Model
 70
0
 71
0
 10
0.0
 20
0.0
 11
558.8
 21
431.8
 12
0.0
 22
0.0
 32
0.0
 14
0.0
 24
0.0
 34
0.0
 15
0.0
 25
0.0
 35
0.0
146
0.0
 13
0.0
 23
0.0
 33
0.0
 16
1.0
 26
0.0
 36
0.0
 17
0.0
 27
1.0
 37
0.0
 76
0
330
234
345
0
346
0
  0
LAYOUT
  5
2B0
102
{ACAD_REACTORS
330
1A
102
}
100
AcDbPlotSettings
  1

  2
none_device
  4
ANSI_C_(22.00_x_17.00_Inches)
  6

 40
0.0
 41
0.0
 42
0.0
 43
0.0
 44
558.8
 45
431.8
 46
0.0
 47
0.0
 48
0.0
 49
0.0
140
0.0
141
0.0
142
1.0
143
1.0
 70
0
 72
1
 73
0
 74
0
  7

 75
0
147
1.0
148
0.0
149
0.0
100
AcDbLayout
  1
Layout1
 70
0
 71
1
 10
0.0
 20
0.0
 11
558.8
 21
431.8
 12
0.0
 22
0.0
 32
0.0
 14
0.0
 24
0.0
 34
0.0
 15
0.0
 25
0.0
 35
0.0
146
0.0
 13
0.0
 23
0.0
 33
0.0
 16
1.0
 26
0.0
 36
0.0
 17
0.0
 27
1.0
 37
0.0
 76
0
330
235
345
0
346
0
  0
ENDSEC
  0
EOF
