999
DXF file: S:\Engenharia\Wildfire\Engenharia\Produtos\Misturadores\94520.019\94520019.dxf
999
Pro/ENGINEER 2013150 by Parametric Technology Corporation
  0
SECTION
  2
HEADER
  9
$ACADVER
  1
AC1021
  9
$DWGCODEPAGE
  3
ANSI_1252
  9
$EXTMAX
 10
558.8
 20
431.8
 30
0.0
  9
$EXTMIN
 10
0.0
 20
0.0
 30
0.0
  9
$LIMMIN
 10
0.0
 20
0.0
  9
$LIMMAX
 10
558.8
 20
431.8
  9
$VIEWCTR
 10
279.4
 20
215.9
  9
$VIEWSIZE
 40
431.8
  9
$CLAYER
  8
0
  9
$LTSCALE
 40
30.734
  9
$CELTYPE
  6
BYLAYER
  9
$DIMSCALE
 40
1.0
  9
$DIMASZ
 40
3.0
  9
$DIMEXO
 40
0.5
  9
$DIMDLI
 40
21.2344
  9
$DIMEXE
 40
0.5
  9
$DIMCEN
 40
5.0292
  9
$DIMLFAC
 40
5.0
  9
$DIMBLK
  1
_FILLED
  9
$DIMTXT
 40
1.8
  9
$DIMTOL
 70
1
  9
$DIMLIM
 70
0
  9
$DIMTFAC
 40
1.0
  9
$DIMTP
 40
0.001
  9
$DIMTM
 40
0.001
  9
$DIMGAP
 40
0.625
  9
$DIMDSEP
 70
46
  9
$PDMODE
 70
3
  9
$PDSIZE
 40
1.0
  9
$HANDSEED
  5
33A
  9
$TILEMODE
 70
1
  9
$MEASUREMENT
 70
1
  9
$INSUNITS
 70
4
  0
ENDSEC
  0
SECTION
  2
CLASSES
  0
CLASS
  1
ACDBDICTIONARYWDFLT
  2
AcDbDictionaryWithDefault
  3
AutoCAD 2000
 90
0
 91
1
280
0
281
0
  0
CLASS
  1
ACDBPLACEHOLDER
  2
AcDbPlaceHolder
  3
AutoCAD 2000
 90
0
 91
1
280
0
281
0
  0
CLASS
  1
LAYOUT
  2
AcDbLayout
  3
AutoCAD 2000
 90
0
 91
0
280
0
281
0
  0
ENDSEC
  0
SECTION
  2
TABLES
  0
TABLE
  2
VPORT
  5
8
100
AcDbSymbolTable
 70
2
  0
VPORT
  5
1F4
100
AcDbSymbolTableRecord
100
AcDbViewportTableRecord
  2
*ACTIVE
 70
0
 10
0.0
 20
0.0
 11
1.0
 21
1.0
 12
279.4
 22
215.9
 13
0.0
 23
0.0
 14
1.0
 24
1.0
 15
0.0
 25
0.0
 16
0.0
 26
0.0
 36
1.0
 17
0.0
 27
0.0
 37
0.0
 40
431.8
 41
1.2941176471
 42
50.0
 43
0.0
 44
0.0
 50
0.0
 51
0.0
 71
0
 72
100
 73
1
 74
1
 75
0
 76
0
 77
0
 78
0
  0
ENDTAB
  0
TABLE
  2
LTYPE
  5
5
100
AcDbSymbolTable
 70
6
  0
LTYPE
  5
14
100
AcDbSymbolTableRecord
100
AcDbLinetypeTableRecord
  2
BYBLOCK
 70
0
  3

 72
65
 73
0
 40
0.0
  0
LTYPE
  5
15
100
AcDbSymbolTableRecord
100
AcDbLinetypeTableRecord
  2
BYLAYER
 70
0
  3

 72
65
 73
0
 40
0.0
  0
LTYPE
  5
16
100
AcDbSymbolTableRecord
100
AcDbLinetypeTableRecord
  2
CONTINUOUS
 70
64
  3
Solid line
 72
65
 73
0
 40
0.0
  0
LTYPE
  5
1F5
100
AcDbSymbolTableRecord
100
AcDbLinetypeTableRecord
  2
CENTER
 70
64
  3
____ _ ____ _ ____ _ ____ _ ____ _ ____ _ ____
 72
65
 73
4
 40
0.6
 49
0.375
 74
0
 49
-0.075
 74
0
 49
0.075
 74
0
 49
-0.075
 74
0
  0
LTYPE
  5
1F6
100
AcDbSymbolTableRecord
100
AcDbLinetypeTableRecord
  2
HIDDEN
 70
64
  3
- - - - - - - - - - - - - - - - - - - -
 72
65
 73
2
 40
0.2
 49
0.1
 74
0
 49
-0.1
 74
0
  0
LTYPE
  5
1F7
100
AcDbSymbolTableRecord
100
AcDbLinetypeTableRecord
  2
PHANTOM
 70
64
  3
_____ _ _ _____ _ _ _____ _ _ _____
 72
65
 73
6
 40
0.8
 49
0.45
 74
0
 49
-0.05
 74
0
 49
0.1
 74
0
 49
-0.05
 74
0
 49
0.1
 74
0
 49
-0.05
 74
0
  0
LTYPE
  5
1F8
100
AcDbSymbolTableRecord
100
AcDbLinetypeTableRecord
  2
DOT
 70
64
  3
. . . . . . . . . . . . . . . . . . . .
 72
65
 73
2
 40
0.2
 49
0.1
 74
0
 49
-0.1
 74
0
  0
LTYPE
  5
1F9
100
AcDbSymbolTableRecord
100
AcDbLinetypeTableRecord
  2
DASHED
 70
64
  3
- - - - - - - - - - - - - - - - - - - -
 72
65
 73
2
 40
0.2
 49
0.1
 74
0
 49
-0.1
 74
0
  0
ENDTAB
  0
TABLE
  2
LAYER
  5
2
100
AcDbSymbolTable
 70
36
  0
LAYER
  5
10
100
AcDbSymbolTableRecord
100
AcDbLayerTableRecord
  2
0
 70
0
 62
7
  6
CONTINUOUS
370
-3
390
F
  0
LAYER
  5
1FA
100
AcDbSymbolTableRecord
100
AcDbLayerTableRecord
  2
DEFAULT_1
 70
0
 62
7
  6
CENTER
370
-3
390
F
  0
LAYER
  5
1FB
100
AcDbSymbolTableRecord
100
AcDbLayerTableRecord
  2
DEFAULT_2
 70
0
 62
8
  6
HIDDEN
370
-3
390
F
  0
LAYER
  5
1FC
100
AcDbSymbolTableRecord
100
AcDbLayerTableRecord
  2
DEFAULT_3
 70
0
 62
7
  6
PHANTOM
370
-3
390
F
  0
LAYER
  5
1FD
100
AcDbSymbolTableRecord
100
AcDbLayerTableRecord
  2
01_ALL_DTM_PLN
 70
0
 62
7
  6
CONTINUOUS
370
-3
390
F
  0
LAYER
  5
1FE
100
AcDbSymbolTableRecord
100
AcDbLayerTableRecord
  2
01__ASM_ALL_DTM_PLN
 70
0
 62
7
  6
CONTINUOUS
370
-3
390
F
  0
LAYER
  5
1FF
100
AcDbSymbolTableRecord
100
AcDbLayerTableRecord
  2
01__ASM_DEF_DTM_PLN
 70
0
 62
7
  6
CONTINUOUS
370
-3
390
F
  0
LAYER
  5
200
100
AcDbSymbolTableRecord
100
AcDbLayerTableRecord
  2
01___PRT_ALL_DTM_PLN
 70
0
 62
7
  6
CONTINUOUS
370
-3
390
F
  0
LAYER
  5
201
100
AcDbSymbolTableRecord
100
AcDbLayerTableRecord
  2
01___PRT_DEF_DTM_PLN
 70
0
 62
7
  6
CONTINUOUS
370
-3
390
F
  0
LAYER
  5
202
100
AcDbSymbolTableRecord
100
AcDbLayerTableRecord
  2
02_ALL_AXES
 70
0
 62
7
  6
CONTINUOUS
370
-3
390
F
  0
LAYER
  5
203
100
AcDbSymbolTableRecord
100
AcDbLayerTableRecord
  2
02__ASM_ALL_AXES
 70
0
 62
7
  6
CONTINUOUS
370
-3
390
F
  0
LAYER
  5
204
100
AcDbSymbolTableRecord
100
AcDbLayerTableRecord
  2
02___PRT_ALL_AXES
 70
0
 62
7
  6
CONTINUOUS
370
-3
390
F
  0
LAYER
  5
205
100
AcDbSymbolTableRecord
100
AcDbLayerTableRecord
  2
03_ALL_CURVES
 70
0
 62
7
  6
CONTINUOUS
370
-3
390
F
  0
LAYER
  5
206
100
AcDbSymbolTableRecord
100
AcDbLayerTableRecord
  2
03__ASM_ALL_CURVES
 70
0
 62
7
  6
CONTINUOUS
370
-3
390
F
  0
LAYER
  5
207
100
AcDbSymbolTableRecord
100
AcDbLayerTableRecord
  2
03___PRT_ALL_CURVES
 70
0
 62
7
  6
CONTINUOUS
370
-3
390
F
  0
LAYER
  5
208
100
AcDbSymbolTableRecord
100
AcDbLayerTableRecord
  2
04_ALL_DTM_PNT
 70
0
 62
7
  6
CONTINUOUS
370
-3
390
F
  0
LAYER
  5
209
100
AcDbSymbolTableRecord
100
AcDbLayerTableRecord
  2
04__ASM_ALL_DTM_PNT
 70
0
 62
7
  6
CONTINUOUS
370
-3
390
F
  0
LAYER
  5
20A
100
AcDbSymbolTableRecord
100
AcDbLayerTableRecord
  2
04___PRT_ALL_DTM_PNT
 70
0
 62
7
  6
CONTINUOUS
370
-3
390
F
  0
LAYER
  5
20B
100
AcDbSymbolTableRecord
100
AcDbLayerTableRecord
  2
05_ALL_DTM_CSYS
 70
0
 62
7
  6
CONTINUOUS
370
-3
390
F
  0
LAYER
  5
20C
100
AcDbSymbolTableRecord
100
AcDbLayerTableRecord
  2
05__ASM_ALL_DTM_CSYS
 70
0
 62
7
  6
CONTINUOUS
370
-3
390
F
  0
LAYER
  5
20D
100
AcDbSymbolTableRecord
100
AcDbLayerTableRecord
  2
05__ASM_DEF_DTM_CSYS
 70
0
 62
7
  6
CONTINUOUS
370
-3
390
F
  0
LAYER
  5
20E
100
AcDbSymbolTableRecord
100
AcDbLayerTableRecord
  2
05___PRT_ALL_DTM_CSYS
 70
0
 62
7
  6
CONTINUOUS
370
-3
390
F
  0
LAYER
  5
20F
100
AcDbSymbolTableRecord
100
AcDbLayerTableRecord
  2
05___PRT_DEF_DTM_CSYS
 70
0
 62
7
  6
CONTINUOUS
370
-3
390
F
  0
LAYER
  5
210
100
AcDbSymbolTableRecord
100
AcDbLayerTableRecord
  2
06_ALL_SURFS
 70
0
 62
7
  6
CONTINUOUS
370
-3
390
F
  0
LAYER
  5
211
100
AcDbSymbolTableRecord
100
AcDbLayerTableRecord
  2
06__ASM_ALL_SURFS
 70
0
 62
7
  6
CONTINUOUS
370
-3
390
F
  0
LAYER
  5
212
100
AcDbSymbolTableRecord
100
AcDbLayerTableRecord
  2
06___PRT_ALL_SURFS
 70
0
 62
7
  6
CONTINUOUS
370
-3
390
F
  0
LAYER
  5
213
100
AcDbSymbolTableRecord
100
AcDbLayerTableRecord
  2
07__ASM_ALL_SKELETONS
 70
0
 62
7
  6
CONTINUOUS
370
-3
390
F
  0
LAYER
  5
214
100
AcDbSymbolTableRecord
100
AcDbLayerTableRecord
  2
10X1_8_DEFAULT_1
 70
0
 62
7
  6
CONTINUOUS
370
-3
390
F
  0
LAYER
  5
215
100
AcDbSymbolTableRecord
100
AcDbLayerTableRecord
  2
24X3_DEFAULT_1
 70
0
 62
7
  6
CONTINUOUS
370
-3
390
F
  0
LAYER
  5
216
100
AcDbSymbolTableRecord
100
AcDbLayerTableRecord
  2
32X3_DEFAULT_1
 70
0
 62
7
  6
CONTINUOUS
370
-3
390
F
  0
LAYER
  5
217
100
AcDbSymbolTableRecord
100
AcDbLayerTableRecord
  2
70101-02___DEFAULT_1
 70
0
 62
7
  6
CONTINUOUS
370
-3
390
F
  0
LAYER
  5
218
100
AcDbSymbolTableRecord
100
AcDbLayerTableRecord
  2
70101-04____1
 70
0
 62
7
  6
CONTINUOUS
370
-3
390
F
  0
LAYER
  5
219
100
AcDbSymbolTableRecord
100
AcDbLayerTableRecord
  2
70101-05____1
 70
0
 62
7
  6
CONTINUOUS
370
-3
390
F
  0
LAYER
  5
21A
100
AcDbSymbolTableRecord
100
AcDbLayerTableRecord
  2
70111-02___1
 70
0
 62
7
  6
CONTINUOUS
370
-3
390
F
  0
LAYER
  5
21B
100
AcDbSymbolTableRecord
100
AcDbLayerTableRecord
  2
70116-04______1
 70
0
 62
7
  6
CONTINUOUS
370
-3
390
F
  0
LAYER
  5
21C
100
AcDbSymbolTableRecord
100
AcDbLayerTableRecord
  2
70116-12______1
 70
0
 62
7
  6
CONTINUOUS
370
-3
390
F
  0
LAYER
  5
21D
100
AcDbSymbolTableRecord
100
AcDbLayerTableRecord
  2
70116B-01-01___DEFAULT_1
 70
0
 62
7
  6
CONTINUOUS
370
-3
390
F
  0
LAYER
  5
21E
100
AcDbSymbolTableRecord
100
AcDbLayerTableRecord
  2
70116B-01-02___DEFAULT_1
 70
0
 62
7
  6
CONTINUOUS
370
-3
390
F
  0
LAYER
  5
21F
100
AcDbSymbolTableRecord
100
AcDbLayerTableRecord
  2
70116B-01-03-X_1
 70
0
 62
7
  6
CONTINUOUS
370
-3
390
F
  0
LAYER
  5
220
100
AcDbSymbolTableRecord
100
AcDbLayerTableRecord
  2
70116B-01-03_____DEFAULT_1
 70
0
 62
7
  6
CONTINUOUS
370
-3
390
F
  0
LAYER
  5
221
100
AcDbSymbolTableRecord
100
AcDbLayerTableRecord
  2
70116B-01____DEFAULT_ASM_1
 70
0
 62
7
  6
CONTINUOUS
370
-3
390
F
  0
LAYER
  5
222
100
AcDbSymbolTableRecord
100
AcDbLayerTableRecord
  2
70116B-02____1
 70
0
 62
7
  6
CONTINUOUS
370
-3
390
F
  0
LAYER
  5
223
100
AcDbSymbolTableRecord
100
AcDbLayerTableRecord
  2
70116B-ASM_ASM_1
 70
0
 62
7
  6
CONTINUOUS
370
-3
390
F
  0
LAYER
  5
224
100
AcDbSymbolTableRecord
100
AcDbLayerTableRecord
  2
70116B-ST______DEFAULT_ASM_1
 70
0
 62
7
  6
CONTINUOUS
370
-3
390
F
  0
LAYER
  5
225
100
AcDbSymbolTableRecord
100
AcDbLayerTableRecord
  2
E-35AZ_SD-01_1
 70
0
 62
7
  6
CONTINUOUS
370
-3
390
F
  0
LAYER
  5
226
100
AcDbSymbolTableRecord
100
AcDbLayerTableRecord
  2
E-35AZ_SD-02_1
 70
0
 62
7
  6
CONTINUOUS
370
-3
390
F
  0
LAYER
  5
227
100
AcDbSymbolTableRecord
100
AcDbLayerTableRecord
  2
E-35AZ_SD-03_1
 70
0
 62
7
  6
CONTINUOUS
370
-3
390
F
  0
LAYER
  5
228
100
AcDbSymbolTableRecord
100
AcDbLayerTableRecord
  2
E-35AZ_SD_ASM_1
 70
0
 62
7
  6
CONTINUOUS
370
-3
390
F
  0
LAYER
  5
229
100
AcDbSymbolTableRecord
100
AcDbLayerTableRecord
  2
EXTRUDE3_1
 70
0
 62
7
  6
CONTINUOUS
370
-3
390
F
  0
LAYER
  5
22A
100
AcDbSymbolTableRecord
100
AcDbLayerTableRecord
  2
M4X5_3_DEFAULT_1
 70
0
 62
7
  6
CONTINUOUS
370
-3
390
F
  0
LAYER
  5
22B
100
AcDbSymbolTableRecord
100
AcDbLayerTableRecord
  2
P02-A-02-02____DEFAULT_1
 70
0
 62
7
  6
CONTINUOUS
370
-3
390
F
  0
LAYER
  5
22C
100
AcDbSymbolTableRecord
100
AcDbLayerTableRecord
  2
PF7104-04-02______DEFAULT_1
 70
0
 62
7
  6
CONTINUOUS
370
-3
390
F
  0
LAYER
  5
22D
100
AcDbSymbolTableRecord
100
AcDbLayerTableRecord
  2
PF7104-04-03______DEFAULT_1
 70
0
 62
7
  6
CONTINUOUS
370
-3
390
F
  0
LAYER
  5
22E
100
AcDbSymbolTableRecord
100
AcDbLayerTableRecord
  2
PF7104-04_____DEFAULT_ASM_1
 70
0
 62
7
  6
CONTINUOUS
370
-3
390
F
  0
LAYER
  5
22F
100
AcDbSymbolTableRecord
100
AcDbLayerTableRecord
  2
PF7104-05____DEFAULT_1
 70
0
 62
7
  6
CONTINUOUS
370
-3
390
F
  0
LAYER
  5
230
100
AcDbSymbolTableRecord
100
AcDbLayerTableRecord
  2
PF7104-06_____DEFAULT_1
 70
0
 62
7
  6
CONTINUOUS
370
-3
390
F
  0
LAYER
  5
231
100
AcDbSymbolTableRecord
100
AcDbLayerTableRecord
  2
PF7104-08_____DEFAULT_1
 70
0
 62
7
  6
CONTINUOUS
370
-3
390
F
  0
LAYER
  5
232
100
AcDbSymbolTableRecord
100
AcDbLayerTableRecord
  2
PP-6_6X1_8_1
 70
0
 62
7
  6
CONTINUOUS
370
-3
390
F
  0
LAYER
  5
233
100
AcDbSymbolTableRecord
100
AcDbLayerTableRecord
  2
PP-M5X4-A____________DEFAULT_1
 70
0
 62
7
  6
CONTINUOUS
370
-3
390
F
  0
LAYER
  5
234
100
AcDbSymbolTableRecord
100
AcDbLayerTableRecord
  2
PP-M5X4-Z____________DEFAULT_1
 70
0
 62
7
  6
CONTINUOUS
370
-3
390
F
  0
LAYER
  5
235
100
AcDbSymbolTableRecord
100
AcDbLayerTableRecord
  2
PP-M6X5-Z_1
 70
0
 62
7
  6
CONTINUOUS
370
-3
390
F
  0
LAYER
  5
236
100
AcDbSymbolTableRecord
100
AcDbLayerTableRecord
  2
REVOLVE2_1
 70
0
 62
7
  6
CONTINUOUS
370
-3
390
F
  0
LAYER
  5
237
100
AcDbSymbolTableRecord
100
AcDbLayerTableRecord
  2
SG1090-05_DEFAULT_ASM_1
 70
0
 62
7
  6
CONTINUOUS
370
-3
390
F
  0
LAYER
  5
238
100
AcDbSymbolTableRecord
100
AcDbLayerTableRecord
  2
ZJPF7104-01-04____DEFAULT_1
 70
0
 62
7
  6
CONTINUOUS
370
-3
390
F
  0
LAYER
  5
239
100
AcDbSymbolTableRecord
100
AcDbLayerTableRecord
  2
ZJPF7104-04-01___DEFAULT_1
 70
0
 62
7
  6
CONTINUOUS
370
-3
390
F
  0
LAYER
  5
23A
100
AcDbSymbolTableRecord
100
AcDbLayerTableRecord
  2
ZJPF7104-07____DEFAULT_1
 70
0
 62
7
  6
CONTINUOUS
370
-3
390
F
  0
LAYER
  5
23B
100
AcDbSymbolTableRecord
100
AcDbLayerTableRecord
  2
ZSB-003_37_____1
 70
0
 62
7
  6
CONTINUOUS
370
-3
390
F
  0
ENDTAB
  0
TABLE
  2
STYLE
  5
3
100
AcDbSymbolTable
 70
1
  0
STYLE
  5
11
100
AcDbSymbolTableRecord
100
AcDbTextStyleTableRecord
  2
STANDARD
 70
0
 40
0.0
 41
0.8
 50
0.0
 71
0
 42
0.2
  3
txt
  4

  0
STYLE
  5
23C
100
AcDbSymbolTableRecord
100
AcDbTextStyleTableRecord
  2
TEXTSTYLE_1
 70
0
 40
0.0
 41
0.8
 50
0.0
 71
0
 42
0.2
  3
gdt
  4

  0
ENDTAB
  0
TABLE
  2
VIEW
  5
6
100
AcDbSymbolTable
 70
0
  0
ENDTAB
  0
TABLE
  2
UCS
  5
7
100
AcDbSymbolTable
 70
0
  0
ENDTAB
  0
TABLE
  2
APPID
  5
9
100
AcDbSymbolTable
 70
1
  0
APPID
  5
23D
100
AcDbSymbolTableRecord
100
AcDbRegAppTableRecord
  2
ACAD
 70
0
  0
ENDTAB
  0
TABLE
  2
BLOCK_RECORD
  5
1
100
AcDbSymbolTable
 70
0
  0
BLOCK_RECORD
  5
23E
100
AcDbSymbolTableRecord
100
AcDbBlockTableRecord
  2
*Model_Space
  0
BLOCK_RECORD
  5
23F
100
AcDbSymbolTableRecord
100
AcDbBlockTableRecord
  2
*Paper_Space
  0
BLOCK_RECORD
  5
240
100
AcDbSymbolTableRecord
100
AcDbBlockTableRecord
  2
_FILLED
  0
BLOCK_RECORD
  5
241
100
AcDbSymbolTableRecord
100
AcDbBlockTableRecord
  2
*D0
  0
BLOCK_RECORD
  5
242
100
AcDbSymbolTableRecord
100
AcDbBlockTableRecord
  2
*D1
  0
BLOCK_RECORD
  5
243
100
AcDbSymbolTableRecord
100
AcDbBlockTableRecord
  2
*D2
  0
BLOCK_RECORD
  5
244
100
AcDbSymbolTableRecord
100
AcDbBlockTableRecord
  2
*D3
  0
BLOCK_RECORD
  5
245
100
AcDbSymbolTableRecord
100
AcDbBlockTableRecord
  2
*D4
  0
BLOCK_RECORD
  5
246
100
AcDbSymbolTableRecord
100
AcDbBlockTableRecord
  2
*D5
  0
BLOCK_RECORD
  5
247
100
AcDbSymbolTableRecord
100
AcDbBlockTableRecord
  2
*D6
  0
ENDTAB
  0
TABLE
  2
DIMSTYLE
  5
A
100
AcDbSymbolTable
 70
1
100
AcDbDimStyleTable
 71
0
  0
DIMSTYLE
105
248
100
AcDbSymbolTableRecord
100
AcDbDimStyleTableRecord
  2
STANDARD
 70
0
  3

  4

 40
1.0
 41
3.0
 42
0.5
 43
0.38
 44
0.5
 45
0.0
 46
0.0
 47
0.001
 48
0.001
140
1.8
141
0.09
142
0.0
143
25.4
144
1.0
145
0.0
146
1.0
147
0.625
 71
1.0
 72
0.0
 73
0
 74
0
 75
0
 76
0
 77
1
 78
8
170
0
171
2
172
0
173
0
174
0
175
0
176
0
177
0
178
0
270
2
271
3
272
3
273
2
274
2
275
0
280
0
281
0
282
0
283
1
284
8
285
0
286
0
287
3
288
0
340
11
278
46
341
240
342
240
343
240
344
240
  0
DIMSTYLE
105
249
100
AcDbSymbolTableRecord
100
AcDbDimStyleTableRecord
  2
DIMSTYLE_1
 70
0
  3

  4

 40
1.0
 41
3.0
 42
0.5
 43
0.38
 44
0.5
 45
0.0
 46
0.0
 47
0.001
 48
0.001
140
1.8
141
0.09
142
0.0
143
25.4
144
1.0
145
0.0
146
1.0
147
0.45
 71
0.0
 72
0.0
 73
0
 74
0
 75
0
 76
0
 77
1
 78
8
170
0
171
2
172
0
173
0
174
0
175
0
176
0
177
0
178
0
270
2
271
3
272
3
273
2
274
2
275
0
280
0
281
0
282
0
283
1
284
8
285
0
286
0
287
3
288
0
340
11
278
46
341
240
342
240
343
240
344
240
  0
ENDTAB
  0
ENDSEC
  0
SECTION
  2
BLOCKS
  0
BLOCK
  5
20
100
AcDbEntity
  8
0
100
AcDbBlockBegin
  2
*Model_Space
 70
0
 10
0.0
 20
0.0
 30
0.0
  3
*Model_Space
  1

  0
ENDBLK
  5
21
100
AcDbEntity
  8
0
100
AcDbBlockEnd
  0
BLOCK
  5
1C
100
AcDbEntity
  8
0
100
AcDbBlockBegin
  2
*Paper_Space
 70
0
 10
0.0
 20
0.0
 30
0.0
  3
*Paper_Space
  1

  0
ENDBLK
  5
1D
100
AcDbEntity
  8
0
100
AcDbBlockEnd
  0
BLOCK
  5
24A
100
AcDbEntity
  8
0
100
AcDbBlockBegin
  2
_FILLED
 70
64
 10
0.0
 20
0.0
  3
_FILLED
  1

  0
SOLID
  5
24B
100
AcDbEntity
  8
0
  6
BYBLOCK
 62
0
100
AcDbTrace
 10
0.0
 20
0.0
 11
-1.0
 21
0.1666666667
 12
-1.0
 22
-0.1666666667
 13
-1.0
 23
-0.1666666667
  0
ENDBLK
  5
24C
100
AcDbEntity
  8
0
  6
BYBLOCK
 62
0
100
AcDbBlockEnd
  0
BLOCK
  5
24D
100
AcDbEntity
  8
0
100
AcDbBlockBegin
 62
2
  6
CONTINUOUS
  2
*D0
 70
65
 10
0.0
 20
0.0
  3
*D0
  1

  0
MTEXT
  5
24E
100
AcDbEntity
  8
0
100
AcDbMText
 62
2
  6
CONTINUOUS
  7
STANDARD
 71
2
 72
1
 10
117.4105267474
 20
30.7420220352
 30
0.0
 11
1.0
 21
0.0
 31
0.0
 44
0.9
  1
150.1
 40
1.8
 41
13.8857142857
  0
LINE
  5
24F
100
AcDbEntity
  8
0
100
AcDbLine
 62
2
  6
CONTINUOUS
 10
42.3605267474
 20
88.3062799861
 11
42.3605267474
 21
27.6705934637
  0
LINE
  5
250
100
AcDbEntity
  8
0
100
AcDbLine
 62
2
  6
CONTINUOUS
 10
192.4605267474
 20
82.5562799861
 11
192.4605267474
 21
27.6705934637
  0
LINE
  5
251
100
AcDbEntity
  8
0
100
AcDbLine
 62
2
  6
CONTINUOUS
 10
42.3605267474
 20
28.1705934637
 11
117.4105267474
 21
28.1705934637
  0
LINE
  5
252
100
AcDbEntity
  8
0
100
AcDbLine
 62
2
  6
CONTINUOUS
 10
192.4605267474
 20
28.1705934637
 11
117.4105267474
 21
28.1705934637
  0
INSERT
  5
253
100
AcDbEntity
  8
0
100
AcDbBlockReference
 62
2
  6
CONTINUOUS
  2
_FILLED
 10
42.3605267474
 20
28.1705934637
 41
3.0
 42
3.0
 43
3.0
 50
180.0
  0
INSERT
  5
254
100
AcDbEntity
  8
0
100
AcDbBlockReference
 62
2
  6
CONTINUOUS
  2
_FILLED
 10
192.4605267474
 20
28.1705934637
 41
3.0
 42
3.0
 43
3.0
  0
ENDBLK
  5
255
100
AcDbEntity
  8
0
  6
BYBLOCK
 62
0
100
AcDbBlockEnd
  0
BLOCK
  5
256
100
AcDbEntity
  8
0
100
AcDbBlockBegin
 62
2
  6
CONTINUOUS
  2
*D1
 70
65
 10
0.0
 20
0.0
  3
*D1
  1

  0
MTEXT
  5
257
100
AcDbEntity
  8
0
100
AcDbMText
 62
2
  6
CONTINUOUS
  7
STANDARD
 71
2
 72
1
 10
533.5253673748
 20
227.8312799861
 30
0.0
 11
0.0
 21
1.0
 31
0.0
 44
0.9
  1
350.55
 40
1.8
 41
16.6628571429
  0
LINE
  5
258
100
AcDbEntity
  8
0
100
AcDbLine
 62
2
  6
CONTINUOUS
 10
284.2990238497
 20
52.5562799861
 11
536.5967959462
 21
52.5562799861
  0
LINE
  5
259
100
AcDbEntity
  8
0
100
AcDbLine
 62
2
  6
CONTINUOUS
 10
516.8989656278
 20
403.1062799861
 11
536.5967959462
 21
403.1062799861
  0
LINE
  5
25A
100
AcDbEntity
  8
0
100
AcDbLine
 62
2
  6
CONTINUOUS
 10
536.0967959462
 20
52.5562799861
 11
536.0967959462
 21
227.8312799861
  0
LINE
  5
25B
100
AcDbEntity
  8
0
100
AcDbLine
 62
2
  6
CONTINUOUS
 10
536.0967959462
 20
403.1062799861
 11
536.0967959462
 21
227.8312799861
  0
INSERT
  5
25C
100
AcDbEntity
  8
0
100
AcDbBlockReference
 62
2
  6
CONTINUOUS
  2
_FILLED
 10
536.0967959462
 20
52.5562799861
 41
3.0
 42
3.0
 43
3.0
 50
270.0
  0
INSERT
  5
25D
100
AcDbEntity
  8
0
100
AcDbBlockReference
 62
2
  6
CONTINUOUS
  2
_FILLED
 10
536.0967959462
 20
403.1062799861
 41
3.0
 42
3.0
 43
3.0
 50
90.0
  0
ENDBLK
  5
25E
100
AcDbEntity
  8
0
  6
BYBLOCK
 62
0
100
AcDbBlockEnd
  0
BLOCK
  5
25F
100
AcDbEntity
  8
0
100
AcDbBlockBegin
 62
2
  6
CONTINUOUS
  2
*D2
 70
65
 10
0.0
 20
0.0
  3
*D2
  1

  0
MTEXT
  5
260
100
AcDbEntity
  8
0
100
AcDbMText
 62
2
  6
CONTINUOUS
  7
STANDARD
 71
2
 72
1
 10
489.8367630015
 20
211.4562799861
 30
0.0
 11
0.0
 21
1.0
 31
0.0
 44
0.9
  1
317.8
 40
1.8
 41
13.8857142857
  0
LINE
  5
261
100
AcDbEntity
  8
0
100
AcDbLine
 62
2
  6
CONTINUOUS
 10
284.2990238497
 20
52.5562799861
 11
492.9081915729
 21
52.5562799861
  0
LINE
  5
262
100
AcDbEntity
  8
0
100
AcDbLine
 62
2
  6
CONTINUOUS
 10
492.4081915729
 20
370.3562799861
 11
492.4081915729
 21
211.4562799861
  0
LINE
  5
263
100
AcDbEntity
  8
0
100
AcDbLine
 62
2
  6
CONTINUOUS
 10
492.4081915729
 20
52.5562799861
 11
492.4081915729
 21
211.4562799861
  0
INSERT
  5
264
100
AcDbEntity
  8
0
100
AcDbBlockReference
 62
2
  6
CONTINUOUS
  2
_FILLED
 10
492.4081915729
 20
370.3562799861
 41
3.0
 42
3.0
 43
3.0
 50
90.0
  0
INSERT
  5
265
100
AcDbEntity
  8
0
100
AcDbBlockReference
 62
2
  6
CONTINUOUS
  2
_FILLED
 10
492.4081915729
 20
52.5562799861
 41
3.0
 42
3.0
 43
3.0
 50
270.0
  0
ENDBLK
  5
266
100
AcDbEntity
  8
0
  6
BYBLOCK
 62
0
100
AcDbBlockEnd
  0
BLOCK
  5
267
100
AcDbEntity
  8
0
100
AcDbBlockBegin
 62
2
  6
CONTINUOUS
  2
*D3
 70
65
 10
0.0
 20
0.0
  3
*D3
  1

  0
MTEXT
  5
268
100
AcDbEntity
  8
0
100
AcDbMText
 62
2
  6
CONTINUOUS
  7
TEXTSTYLE_1
 71
3
 72
1
 10
75.7758037445
 20
227.3781076096
 30
0.0
 11
1.0
 21
0.0
 31
0.0
 44
0.9
  1
{\Fgdt;n}\Ftxt;25
 40
1.8
 41
9.1542857143
  0
LINE
  5
269
100
AcDbEntity
  8
0
100
AcDbLine
 62
2
  6
CONTINUOUS
 10
119.6605267474
 20
224.8066790382
 11
107.1605267474
 21
224.8066790382
  0
LINE
  5
26A
100
AcDbEntity
  8
0
100
AcDbLine
 62
2
  6
CONTINUOUS
 10
94.6605267474
 20
224.8066790382
 11
107.1605267474
 21
224.8066790382
  0
LINE
  5
26B
100
AcDbEntity
  8
0
100
AcDbLine
 62
2
  6
CONTINUOUS
 10
107.1605267474
 20
224.8066790382
 11
69.6729466016
 21
224.8066790382
  0
INSERT
  5
26C
100
AcDbEntity
  8
0
100
AcDbBlockReference
 62
2
  6
CONTINUOUS
  2
_FILLED
 10
119.6605267474
 20
224.8066790382
 41
3.0
 42
3.0
 43
3.0
  0
INSERT
  5
26D
100
AcDbEntity
  8
0
100
AcDbBlockReference
 62
2
  6
CONTINUOUS
  2
_FILLED
 10
94.6605267474
 20
224.8066790382
 41
3.0
 42
3.0
 43
3.0
 50
180.0
  0
ENDBLK
  5
26E
100
AcDbEntity
  8
0
  6
BYBLOCK
 62
0
100
AcDbBlockEnd
  0
BLOCK
  5
26F
100
AcDbEntity
  8
0
100
AcDbBlockBegin
 62
2
  6
CONTINUOUS
  2
*D4
 70
65
 10
0.0
 20
0.0
  3
*D4
  1

  0
MTEXT
  5
270
100
AcDbEntity
  8
0
100
AcDbMText
 62
2
  6
CONTINUOUS
  7
STANDARD
 71
2
 72
1
 10
378.3989656278
 20
422.4488192624
 30
0.0
 11
1.0
 21
0.0
 31
0.0
 44
0.9
  1
277
 40
1.8
 41
8.3314285714
  0
LINE
  5
271
100
AcDbEntity
  8
0
100
AcDbLine
 62
2
  6
CONTINUOUS
 10
239.8989656278
 20
175.5562799861
 11
239.8989656278
 21
420.377390691
  0
LINE
  5
272
100
AcDbEntity
  8
0
100
AcDbLine
 62
2
  6
CONTINUOUS
 10
516.8989656278
 20
402.8562799861
 11
516.8989656278
 21
420.377390691
  0
LINE
  5
273
100
AcDbEntity
  8
0
100
AcDbLine
 62
2
  6
CONTINUOUS
 10
239.8989656278
 20
419.877390691
 11
378.3989656278
 21
419.877390691
  0
LINE
  5
274
100
AcDbEntity
  8
0
100
AcDbLine
 62
2
  6
CONTINUOUS
 10
516.8989656278
 20
419.877390691
 11
378.3989656278
 21
419.877390691
  0
INSERT
  5
275
100
AcDbEntity
  8
0
100
AcDbBlockReference
 62
2
  6
CONTINUOUS
  2
_FILLED
 10
239.8989656278
 20
419.877390691
 41
3.0
 42
3.0
 43
3.0
 50
180.0
  0
INSERT
  5
276
100
AcDbEntity
  8
0
100
AcDbBlockReference
 62
2
  6
CONTINUOUS
  2
_FILLED
 10
516.8989656278
 20
419.877390691
 41
3.0
 42
3.0
 43
3.0
  0
ENDBLK
  5
277
100
AcDbEntity
  8
0
  6
BYBLOCK
 62
0
100
AcDbBlockEnd
  0
BLOCK
  5
278
100
AcDbEntity
  8
0
100
AcDbBlockBegin
 62
2
  6
CONTINUOUS
  2
*D5
 70
65
 10
0.0
 20
0.0
  3
*D5
  1

  0
MTEXT
  5
279
100
AcDbEntity
  8
0
100
AcDbMText
 62
2
  6
CONTINUOUS
  7
TEXTSTYLE_1
 71
2
 72
1
 10
262.3989656278
 20
29.8539758628
 30
0.0
 11
1.0
 21
0.0
 31
0.0
 44
0.9
  1
{\Fgdt;n}\Ftxt;52
 40
1.8
 41
9.1542857143
  0
LINE
  5
27A
100
AcDbEntity
  8
0
100
AcDbLine
 62
2
  6
CONTINUOUS
 10
288.3989656278
 20
52.0562799861
 11
288.3989656278
 21
26.7825472914
  0
LINE
  5
27B
100
AcDbEntity
  8
0
100
AcDbLine
 62
2
  6
CONTINUOUS
 10
236.3989656278
 20
52.0562799861
 11
236.3989656278
 21
26.7825472914
  0
LINE
  5
27C
100
AcDbEntity
  8
0
100
AcDbLine
 62
2
  6
CONTINUOUS
 10
288.3989656278
 20
27.2825472914
 11
262.3989656278
 21
27.2825472914
  0
LINE
  5
27D
100
AcDbEntity
  8
0
100
AcDbLine
 62
2
  6
CONTINUOUS
 10
236.3989656278
 20
27.2825472914
 11
262.3989656278
 21
27.2825472914
  0
INSERT
  5
27E
100
AcDbEntity
  8
0
100
AcDbBlockReference
 62
2
  6
CONTINUOUS
  2
_FILLED
 10
288.3989656278
 20
27.2825472914
 41
3.0
 42
3.0
 43
3.0
  0
INSERT
  5
27F
100
AcDbEntity
  8
0
100
AcDbBlockReference
 62
2
  6
CONTINUOUS
  2
_FILLED
 10
236.3989656278
 20
27.2825472914
 41
3.0
 42
3.0
 43
3.0
 50
180.0
  0
ENDBLK
  5
280
100
AcDbEntity
  8
0
  6
BYBLOCK
 62
0
100
AcDbBlockEnd
  0
BLOCK
  5
281
100
AcDbEntity
  8
0
100
AcDbBlockBegin
 62
2
  6
CONTINUOUS
  2
*D6
 70
65
 10
0.0
 20
0.0
  3
*D6
  1

  0
MTEXT
  5
282
100
AcDbEntity
  8
0
100
AcDbMText
 62
2
  6
CONTINUOUS
  7
TEXTSTYLE_1
 71
3
 72
1
 10
74.2592446454
 20
203.417534463
 30
0.0
 11
1.0
 21
0.0
 31
0.0
 44
0.9
  1
{\Fgdt;n}\Ftxt;45
 40
1.8
 41
9.1542857143
  0
LINE
  5
283
100
AcDbEntity
  8
0
100
AcDbLine
 62
2
  6
CONTINUOUS
 10
84.6605267474
 20
182.3562799861
 11
84.6605267474
 21
201.3461058916
  0
LINE
  5
284
100
AcDbEntity
  8
0
100
AcDbLine
 62
2
  6
CONTINUOUS
 10
129.6605267474
 20
182.3562799861
 11
129.6605267474
 21
201.3461058916
  0
LINE
  5
285
100
AcDbEntity
  8
0
100
AcDbLine
 62
2
  6
CONTINUOUS
 10
84.6605267474
 20
200.8461058916
 11
107.1605267474
 21
200.8461058916
  0
LINE
  5
286
100
AcDbEntity
  8
0
100
AcDbLine
 62
2
  6
CONTINUOUS
 10
107.1605267474
 20
200.8461058916
 11
68.1563875025
 21
200.8461058916
  0
LINE
  5
287
100
AcDbEntity
  8
0
100
AcDbLine
 62
2
  6
CONTINUOUS
 10
129.6605267474
 20
200.8461058916
 11
107.1605267474
 21
200.8461058916
  0
INSERT
  5
288
100
AcDbEntity
  8
0
100
AcDbBlockReference
 62
2
  6
CONTINUOUS
  2
_FILLED
 10
84.6605267474
 20
200.8461058916
 41
3.0
 42
3.0
 43
3.0
 50
180.0
  0
INSERT
  5
289
100
AcDbEntity
  8
0
100
AcDbBlockReference
 62
2
  6
CONTINUOUS
  2
_FILLED
 10
129.6605267474
 20
200.8461058916
 41
3.0
 42
3.0
 43
3.0
  0
ENDBLK
  5
28A
100
AcDbEntity
  8
0
  6
BYBLOCK
 62
0
100
AcDbBlockEnd
  0
ENDSEC
  0
SECTION
  2
ENTITIES
  0
DIMENSION
  5
28B
100
AcDbEntity
  8
0
100
AcDbDimension
 62
2
  6
CONTINUOUS
  2
*D0
 10
192.4605267474
 20
28.1705934637
 11
117.4105267474
 21
28.1705934637
 70
160
 71
2
 42
150.1
  3
DIMSTYLE_1
100
AcDbAlignedDimension
 13
42.3605267474
 23
88.8062799861
 14
192.4605267474
 24
83.0562799861
100
AcDbRotatedDimension
  0
DIMENSION
  5
28C
100
AcDbEntity
  8
0
100
AcDbDimension
 62
2
  6
CONTINUOUS
  2
*D1
 10
536.0967959462
 20
403.1062799861
 11
536.0967959462
 21
227.8312799861
 70
160
 71
2
 42
350.55
  3
DIMSTYLE_1
100
AcDbAlignedDimension
 13
283.7990238497
 23
52.5562799861
 14
516.3989656278
 24
403.1062799861
 50
90.0
100
AcDbRotatedDimension
  0
DIMENSION
  5
28D
100
AcDbEntity
  8
0
100
AcDbDimension
 62
2
  6
CONTINUOUS
  2
*D2
 10
492.4081915729
 20
52.5562799861
 11
492.4081915729
 21
211.4562799861
 70
160
 71
2
 42
317.8
  3
DIMSTYLE_1
100
AcDbAlignedDimension
 13
474.8434100723
 23
370.3562799861
 14
283.7990238497
 24
52.5562799861
 50
270.0
100
AcDbRotatedDimension
  0
DIMENSION
  5
28E
100
AcDbEntity
  8
0
100
AcDbDimension
 62
2
  6
CONTINUOUS
  2
*D3
 10
94.6605267474
 20
224.8066790382
 11
72.7243751731
 21
224.8066790382
 70
160
 71
3
 42
25.0
  1
%%c<>
  3
DIMSTYLE_1
100
AcDbAlignedDimension
 13
119.6605267474
 23
188.3562799861
 14
94.6605267474
 24
188.3562799861
 50
180.0
100
AcDbRotatedDimension
  0
DIMENSION
  5
28F
100
AcDbEntity
  8
0
100
AcDbDimension
 62
2
  6
CONTINUOUS
  2
*D4
 10
516.8989656278
 20
419.877390691
 11
378.3989656278
 21
419.877390691
 70
160
 71
2
 42
277.0
  3
DIMSTYLE_1
100
AcDbAlignedDimension
 13
239.8989656278
 23
175.0562799861
 14
516.8989656278
 24
402.3562799861
100
AcDbRotatedDimension
  0
DIMENSION
  5
290
100
AcDbEntity
  8
0
100
AcDbDimension
 62
2
  6
CONTINUOUS
  2
*D5
 10
236.3989656278
 20
27.2825472914
 11
262.3989656278
 21
27.2825472914
 70
160
 71
2
 42
52.0
  1
%%c<>
  3
DIMSTYLE_1
100
AcDbAlignedDimension
 13
288.3989656278
 23
52.5562799861
 14
236.3989656278
 24
52.5562799861
 50
180.0
100
AcDbRotatedDimension
  0
DIMENSION
  5
291
100
AcDbEntity
  8
0
100
AcDbDimension
 62
2
  6
CONTINUOUS
  2
*D6
 10
129.6605267474
 20
200.8461058916
 11
71.207816074
 21
200.8461058916
 70
160
 71
3
 42
45.0
  1
%%c<>
  3
DIMSTYLE_1
100
AcDbAlignedDimension
 13
84.6605267474
 23
181.8562799861
 14
129.6605267474
 24
181.8562799861
100
AcDbRotatedDimension
  0
LINE
  5
292
100
AcDbEntity
  8
70111-02___1
100
AcDbLine
 62
7
  6
CONTINUOUS
 10
81.1605365881
 20
52.5562799861
 11
133.1605169066
 21
52.5562799861
  0
LINE
  5
293
100
AcDbEntity
  8
70111-02___1
100
AcDbLine
 62
7
  6
CONTINUOUS
 10
132.6605144872
 20
58.5562799861
 11
81.6605390076
 21
58.5562799861
  0
LINE
  5
294
100
AcDbEntity
  8
PF7104-04-03______DEFAULT_1
100
AcDbLine
 62
7
  6
CONTINUOUS
 10
129.6591217207
 20
70.0562799861
 11
84.6616686974
 21
70.0562799861
  0
LINE
  5
295
100
AcDbEntity
  8
ZJPF7104-04-01___DEFAULT_1
100
AcDbLine
 62
7
  6
CONTINUOUS
 10
84.6605504866
 20
70.0562799861
 11
129.6605030082
 21
70.0562799861
  0
LINE
  5
296
100
AcDbEntity
  8
ZJPF7104-04-01___DEFAULT_1
100
AcDbLine
 62
7
  6
CONTINUOUS
 10
129.6498549454
 20
82.5562799861
 11
157.1605267474
 21
82.5562799861
  0
LINE
  5
297
100
AcDbEntity
  8
70101-04____1
100
AcDbLine
 62
7
  6
CONTINUOUS
 10
174.4605267474
 20
82.5562799861
 11
191.9605267474
 21
82.5562799861
  0
LINE
  5
298
100
AcDbEntity
  8
70101-04____1
100
AcDbLine
 62
7
  6
CONTINUOUS
 10
171.4605267474
 20
82.7571768651
 11
169.3887271135
 21
82.7571768651
  0
LINE
  5
299
100
AcDbEntity
  8
70116-04______1
100
AcDbLine
 62
7
  6
CONTINUOUS
 10
42.8605267474
 20
88.3062799861
 11
65.3605267474
 21
88.3062799861
  0
LINE
  5
29A
100
AcDbEntity
  8
ZJPF7104-04-01___DEFAULT_1
100
AcDbLine
 62
7
  6
CONTINUOUS
 10
65.6605267474
 20
88.5562799861
 11
84.6605267474
 21
88.5562799861
  0
LINE
  5
29B
100
AcDbEntity
  8
ZJPF7104-04-01___DEFAULT_1
100
AcDbLine
 62
7
  6
CONTINUOUS
 10
65.3605267474
 20
90.5562799861
 11
65.6605267474
 21
90.5562799861
  0
LINE
  5
29C
100
AcDbEntity
  8
70116-04______1
100
AcDbLine
 62
7
  6
CONTINUOUS
 10
42.3605267474
 20
121.3062799861
 11
42.3605267474
 21
88.8062799861
  0
LINE
  5
29D
100
AcDbEntity
  8
70116-12______1
100
AcDbLine
 62
7
  6
CONTINUOUS
 10
49.4605267474
 20
130.6062799861
 11
49.4605267474
 21
152.1062799861
  0
LINE
  5
29E
100
AcDbEntity
  8
70116-12______1
100
AcDbLine
 62
7
  6
CONTINUOUS
 10
51.3105267474
 20
121.7970817188
 11
51.3105267474
 21
130.6062799861
  0
LINE
  5
29F
100
AcDbEntity
  8
70116-12______1
100
AcDbLine
 62
7
  6
CONTINUOUS
 10
57.4105267474
 20
121.7970885386
 11
57.4105267474
 21
130.6062799861
  0
LINE
  5
2A0
100
AcDbEntity
  8
70116-12______1
100
AcDbLine
 62
7
  6
CONTINUOUS
 10
59.2605267474
 20
130.6062799861
 11
59.2605267474
 21
152.1062799861
  0
LINE
  5
2A1
100
AcDbEntity
  8
70116-04______1
100
AcDbLine
 62
7
  6
CONTINUOUS
 10
65.3605267474
 20
88.3062799861
 11
65.3605267474
 21
121.8062799861
  0
LINE
  5
2A2
100
AcDbEntity
  8
ZJPF7104-04-01___DEFAULT_1
100
AcDbLine
 62
7
  6
CONTINUOUS
 10
65.6605267474
 20
121.5562799861
 11
65.6605267474
 21
88.5562799861
  0
LINE
  5
2A3
100
AcDbEntity
  8
ZJPF7104-04-01___DEFAULT_1
100
AcDbLine
 62
7
  6
CONTINUOUS
 10
65.3605267474
 20
119.5562799861
 11
65.6605267474
 21
119.5562799861
  0
LINE
  5
2A4
100
AcDbEntity
  8
ZJPF7104-04-01___DEFAULT_1
100
AcDbLine
 62
7
  6
CONTINUOUS
 10
65.6605267474
 20
121.5562799861
 11
84.6605267474
 21
121.5562799861
  0
LINE
  5
2A5
100
AcDbEntity
  8
70116-12______1
100
AcDbLine
 62
7
  6
CONTINUOUS
 10
52.6431331956
 20
121.6062799861
 11
56.0776950651
 21
121.6062799861
  0
LINE
  5
2A6
100
AcDbEntity
  8
70116-04______1
100
AcDbLine
 62
7
  6
CONTINUOUS
 10
42.8605267474
 20
121.8062799861
 11
51.2605267474
 21
121.8062799861
  0
LINE
  5
2A7
100
AcDbEntity
  8
70116-04______1
100
AcDbLine
 62
7
  6
CONTINUOUS
 10
57.4605267474
 20
121.8062799861
 11
65.3605267474
 21
121.8062799861
  0
LINE
  5
2A8
100
AcDbEntity
  8
ZJPF7104-04-01___DEFAULT_1
100
AcDbLine
 62
7
  6
CONTINUOUS
 10
129.6498549454
 20
127.5562799861
 11
157.1605267474
 21
127.5562799861
  0
LINE
  5
2A9
100
AcDbEntity
  8
70101-04____1
100
AcDbLine
 62
7
  6
CONTINUOUS
 10
159.4605267474
 20
127.5562799861
 11
176.9605267474
 21
127.5562799861
  0
LINE
  5
2AA
100
AcDbEntity
  8
70101-04____1
100
AcDbLine
 62
7
  6
CONTINUOUS
 10
186.9605267474
 20
127.5562799861
 11
191.9605267474
 21
127.5562799861
  0
LINE
  5
2AB
100
AcDbEntity
  8
70116-12______1
100
AcDbLine
 62
7
  6
CONTINUOUS
 10
49.4606242188
 20
130.6062799861
 11
59.260429276
 21
130.6062799861
  0
LINE
  5
2AC
100
AcDbEntity
  8
70111-02___1
100
AcDbLine
 62
7
  6
CONTINUOUS
 10
81.1605267474
 20
58.0562799861
 11
81.1605267474
 21
52.5562799861
  0
LINE
  5
2AD
100
AcDbEntity
  8
ZJPF7104-01-04____DEFAULT_1
100
AcDbLine
 62
7
  6
CONTINUOUS
 10
84.6605267474
 20
181.8562799861
 11
84.6605267474
 21
175.3562799861
  0
LINE
  5
2AE
100
AcDbEntity
  8
PF7104-04-02______DEFAULT_1
100
AcDbLine
 62
7
  6
CONTINUOUS
 10
84.6605267474
 20
175.0562799861
 11
84.6605267474
 21
138.0562799861
  0
LINE
  5
2AF
100
AcDbEntity
  8
PF7104-04-03______DEFAULT_1
100
AcDbLine
 62
7
  6
CONTINUOUS
 10
84.6605267474
 20
70.0562799861
 11
84.6605267474
 21
58.5562799861
  0
LINE
  5
2B0
100
AcDbEntity
  8
ZJPF7104-04-01___DEFAULT_1
100
AcDbLine
 62
7
  6
CONTINUOUS
 10
84.6605267474
 20
70.0562799861
 11
84.6605267474
 21
88.5562799861
  0
LINE
  5
2B1
100
AcDbEntity
  8
ZJPF7104-04-01___DEFAULT_1
100
AcDbLine
 62
7
  6
CONTINUOUS
 10
84.6605267474
 20
121.5562799861
 11
84.6605267474
 21
138.0562799861
  0
LINE
  5
2B2
100
AcDbEntity
  8
PF7104-05____DEFAULT_1
100
AcDbLine
 62
7
  6
CONTINUOUS
 10
87.1605267474
 20
175.3562799861
 11
87.1605267474
 21
175.0562799861
  0
LINE
  5
2B3
100
AcDbEntity
  8
ZJPF7104-04-01___DEFAULT_1
100
AcDbLine
 62
7
  6
CONTINUOUS
 10
129.6605030082
 20
138.0562799861
 11
84.6605504866
 21
138.0562799861
  0
LINE
  5
2B4
100
AcDbEntity
  8
PF7104-04-02______DEFAULT_1
100
AcDbLine
 62
7
  6
CONTINUOUS
 10
84.6605392221
 20
138.0562799861
 11
129.6605142727
 21
138.0562799861
  0
LINE
  5
2B5
100
AcDbEntity
  8
70116B-01-03_____DEFAULT_1
100
AcDbLine
 62
7
  6
CONTINUOUS
 10
93.6605267474
 20
382.4140795697
 11
93.6605267474
 21
370.3562799861
  0
LINE
  5
2B6
100
AcDbEntity
  8
ZJPF7104-01-04____DEFAULT_1
100
AcDbLine
 62
7
  6
CONTINUOUS
 10
94.6605267474
 20
188.3562799861
 11
94.6605267474
 21
182.8562799861
  0
LINE
  5
2B7
100
AcDbEntity
  8
70116B-01-01___DEFAULT_1
100
AcDbLine
 62
7
  6
CONTINUOUS
 10
94.6605267474
 20
188.3562799861
 11
94.6605267474
 21
370.3562799861
  0
LINE
  5
2B8
100
AcDbEntity
  8
70116-12______1
100
AcDbLine
 62
7
  6
CONTINUOUS
 10
58.7604422611
 20
152.6062799861
 11
49.9606112337
 21
152.6062799861
  0
LWPOLYLINE
  5
2B9
100
AcDbEntity
  8
70116B-01-03-X_1
100
AcDbPolyline
 62
7
  6
CONTINUOUS
 90
7
 70
0
 10
120.6605168062
 20
382.0070510306
 10
120.6612534927
 20
382.0613283164
 10
120.6704848958
 20
382.2064762103
 10
120.6901319991
 20
382.3499443953
 10
120.7200105484
 20
382.4912198546
 10
120.759971956
 20
382.6298690962
 10
120.8095030411
 20
382.764486098
  0
LINE
  5
2BA
100
AcDbEntity
  8
PF7104-04-02______DEFAULT_1
100
AcDbLine
 62
7
  6
CONTINUOUS
 10
129.6605142727
 20
175.0562799861
 11
84.6605392221
 21
175.0562799861
  0
LINE
  5
2BB
100
AcDbEntity
  8
ZJPF7104-01-04____DEFAULT_1
100
AcDbLine
 62
7
  6
CONTINUOUS
 10
84.6605758238
 20
175.3562799861
 11
129.6604776709
 21
175.3562799861
  0
LINE
  5
2BC
100
AcDbEntity
  8
ZJPF7104-01-04____DEFAULT_1
100
AcDbLine
 62
7
  6
CONTINUOUS
 10
119.6605267474
 20
188.3562799861
 11
119.6605267474
 21
182.8562799861
  0
LINE
  5
2BD
100
AcDbEntity
  8
70116B-01-01___DEFAULT_1
100
AcDbLine
 62
7
  6
CONTINUOUS
 10
119.6605267474
 20
188.3562799861
 11
119.6605267474
 21
370.3562799861
  0
LINE
  5
2BE
100
AcDbEntity
  8
70116B-01-03_____DEFAULT_1
100
AcDbLine
 62
7
  6
CONTINUOUS
 10
120.6605267474
 20
382.4140928007
 11
120.6605267474
 21
370.3562799861
  0
LINE
  5
2BF
100
AcDbEntity
  8
PF7104-05____DEFAULT_1
100
AcDbLine
 62
7
  6
CONTINUOUS
 10
127.1605267474
 20
175.3562799861
 11
127.1605267474
 21
175.0562799861
  0
LINE
  5
2C0
100
AcDbEntity
  8
ZJPF7104-01-04____DEFAULT_1
100
AcDbLine
 62
7
  6
CONTINUOUS
 10
129.6605267474
 20
181.8562799861
 11
129.6605267474
 21
175.3562799861
  0
LINE
  5
2C1
100
AcDbEntity
  8
PF7104-04-02______DEFAULT_1
100
AcDbLine
 62
7
  6
CONTINUOUS
 10
129.6605267474
 20
175.0562799861
 11
129.6605267474
 21
138.0562799861
  0
LINE
  5
2C2
100
AcDbEntity
  8
PF7104-04-03______DEFAULT_1
100
AcDbLine
 62
7
  6
CONTINUOUS
 10
129.6605267474
 20
70.0562799861
 11
129.6605267474
 21
58.5562799861
  0
LINE
  5
2C3
100
AcDbEntity
  8
ZJPF7104-04-01___DEFAULT_1
100
AcDbLine
 62
7
  6
CONTINUOUS
 10
129.6605267474
 20
70.0562799861
 11
129.6605267474
 21
82.566951788
  0
LINE
  5
2C4
100
AcDbEntity
  8
ZJPF7104-04-01___DEFAULT_1
100
AcDbLine
 62
7
  6
CONTINUOUS
 10
129.6605267474
 20
127.5456081841
 11
129.6605267474
 21
138.0562799861
  0
LINE
  5
2C5
100
AcDbEntity
  8
70111-02___1
100
AcDbLine
 62
7
  6
CONTINUOUS
 10
133.1605267474
 20
58.0562799861
 11
133.1605267474
 21
52.5562799861
  0
LINE
  5
2C6
100
AcDbEntity
  8
ZJPF7104-01-04____DEFAULT_1
100
AcDbLine
 62
7
  6
CONTINUOUS
 10
129.1604574959
 20
182.3562799861
 11
85.1605959988
 21
182.3562799861
  0
LINE
  5
2C7
100
AcDbEntity
  8
ZJPF7104-01-04____DEFAULT_1
100
AcDbLine
 62
7
  6
CONTINUOUS
 10
119.6604799807
 20
188.3562799861
 11
94.6612083575
 21
188.3562799861
  0
LINE
  5
2C8
100
AcDbEntity
  8
70116B-01-01___DEFAULT_1
100
AcDbLine
 62
7
  6
CONTINUOUS
 10
94.6605267474
 20
188.3562799861
 11
119.6605267474
 21
188.3562799861
  0
LINE
  5
2C9
100
AcDbEntity
  8
70101-04____1
100
AcDbLine
 62
7
  6
CONTINUOUS
 10
159.4605267474
 20
105.0562799861
 11
169.3887271135
 21
82.7571768651
  0
LINE
  5
2CA
100
AcDbEntity
  8
70101-05____1
100
AcDbLine
 62
7
  6
CONTINUOUS
 10
186.960480226
 20
197.5562799861
 11
176.9605732687
 21
197.5562799861
  0
LINE
  5
2CB
100
AcDbEntity
  8
ZJPF7104-04-01___DEFAULT_1
100
AcDbLine
 62
7
  6
CONTINUOUS
 10
157.1605267474
 20
82.5563037253
 11
157.1605267474
 21
127.5562562469
  0
LINE
  5
2CC
100
AcDbEntity
  8
70101-04____1
100
AcDbLine
 62
7
  6
CONTINUOUS
 10
159.4605267474
 20
127.5562799861
 11
159.4605267474
 21
105.0562799861
  0
LWPOLYLINE
  5
2CD
100
AcDbEntity
  8
70116B-01-03-X_1
100
AcDbPolyline
 62
7
  6
CONTINUOUS
 90
7
 70
0
 10
93.5116071884
 20
382.7643473919
 10
93.5611043993
 20
382.6297991498
 10
93.6010473147
 20
382.4912020153
 10
93.6309184778
 20
382.3499612112
 10
93.6505653364
 20
382.2065078745
 10
93.6597992367
 20
382.0613537172
 10
93.6605366207
 20
382.0070507164
  0
LINE
  5
2CE
100
AcDbEntity
  8
70101-05____1
100
AcDbLine
 62
7
  6
CONTINUOUS
 10
176.9605267474
 20
127.5562799861
 11
176.9605267474
 21
197.5562799861
  0
LINE
  5
2CF
100
AcDbEntity
  8
70101-05____1
100
AcDbLine
 62
7
  6
CONTINUOUS
 10
186.9605267474
 20
127.5562799861
 11
186.9605267474
 21
197.5562799861
  0
LINE
  5
2D0
100
AcDbEntity
  8
70101-04____1
100
AcDbLine
 62
7
  6
CONTINUOUS
 10
192.4605267474
 20
127.0562799861
 11
192.4605267474
 21
83.0562799861
  0
LINE
  5
2D1
100
AcDbEntity
  8
70116B-01-03_____DEFAULT_1
100
AcDbLine
 62
7
  6
CONTINUOUS
 10
93.6605267474
 20
370.3562799861
 11
120.6605267474
 21
370.3562799861
  0
LINE
  5
2D2
100
AcDbEntity
  8
70111-02___1
100
AcDbLine
 62
7
  6
CONTINUOUS
 10
236.3989656278
 20
58.0562799861
 11
236.3989656278
 21
52.5562799861
  0
LINE
  5
2D3
100
AcDbEntity
  8
ZJPF7104-01-04____DEFAULT_1
100
AcDbLine
 62
7
  6
CONTINUOUS
 10
239.8989656278
 20
181.8562799861
 11
239.8989656278
 21
175.3562799861
  0
LINE
  5
2D4
100
AcDbEntity
  8
PF7104-04-02______DEFAULT_1
100
AcDbLine
 62
7
  6
CONTINUOUS
 10
239.8989656278
 20
175.0562799861
 11
239.8989656278
 21
171.7062799861
  0
LINE
  5
2D5
100
AcDbEntity
  8
PF7104-04-02______DEFAULT_1
100
AcDbLine
 62
7
  6
CONTINUOUS
 10
239.8989656278
 20
168.4062799861
 11
239.8989656278
 21
138.0562799861
  0
LINE
  5
2D6
100
AcDbEntity
  8
PF7104-04-03______DEFAULT_1
100
AcDbLine
 62
7
  6
CONTINUOUS
 10
239.8989656278
 20
70.0562799861
 11
239.8989656278
 21
58.5562799861
  0
LINE
  5
2D7
100
AcDbEntity
  8
ZJPF7104-04-01___DEFAULT_1
100
AcDbLine
 62
7
  6
CONTINUOUS
 10
239.8989656278
 20
70.0562799861
 11
239.8989656278
 21
138.0562799861
  0
LINE
  5
2D8
100
AcDbEntity
  8
PF7104-05____DEFAULT_1
100
AcDbLine
 62
7
  6
CONTINUOUS
 10
242.3989656278
 20
175.3562799861
 11
242.3989656278
 21
175.0562799861
  0
LINE
  5
2D9
100
AcDbEntity
  8
70116B-01-01___DEFAULT_1
100
AcDbLine
 62
7
  6
CONTINUOUS
 10
249.8989656278
 20
332.3562799861
 11
249.8989656278
 21
188.3562799861
  0
LINE
  5
2DA
100
AcDbEntity
  8
ZJPF7104-01-04____DEFAULT_1
100
AcDbLine
 62
7
  6
CONTINUOUS
 10
249.8989656278
 20
188.3562799861
 11
249.8989656278
 21
182.8562799861
  0
LINE
  5
2DB
100
AcDbEntity
  8
70111-02___1
100
AcDbLine
 62
7
  6
CONTINUOUS
 10
236.399298107
 20
52.5562799861
 11
288.3986331486
 21
52.5562799861
  0
LINE
  5
2DC
100
AcDbEntity
  8
70116-12______1
100
AcDbLine
 62
7
  6
CONTINUOUS
 10
257.4989656278
 20
130.6062799861
 11
257.4989656278
 21
152.1062799861
  0
LINE
  5
2DD
100
AcDbEntity
  8
70116-12______1
100
AcDbLine
 62
7
  6
CONTINUOUS
 10
259.3489656278
 20
121.6062799861
 11
259.3489656278
 21
130.6062799861
  0
LINE
  5
2DE
100
AcDbEntity
  8
70116-12______1
100
AcDbLine
 62
7
  6
CONTINUOUS
 10
265.4489656278
 20
121.6062799861
 11
265.4489656278
 21
130.6062799861
  0
LINE
  5
2DF
100
AcDbEntity
  8
70116-12______1
100
AcDbLine
 62
7
  6
CONTINUOUS
 10
267.2989656278
 20
130.6062799861
 11
267.2989656278
 21
152.1062799861
  0
LINE
  5
2E0
100
AcDbEntity
  8
70111-02___1
100
AcDbLine
 62
7
  6
CONTINUOUS
 10
287.8986829723
 20
58.5562799861
 11
236.8992482834
 21
58.5562799861
  0
LINE
  5
2E1
100
AcDbEntity
  8
PF7104-04-03______DEFAULT_1
100
AcDbLine
 62
7
  6
CONTINUOUS
 10
284.8989656278
 20
70.0562799861
 11
239.8989656278
 21
70.0562799861
  0
LINE
  5
2E2
100
AcDbEntity
  8
ZJPF7104-04-01___DEFAULT_1
100
AcDbLine
 62
7
  6
CONTINUOUS
 10
239.8989656278
 20
70.0562799861
 11
284.8989656278
 21
70.0562799861
  0
LINE
  5
2E3
100
AcDbEntity
  8
70116B-01-01___DEFAULT_1
100
AcDbLine
 62
7
  6
CONTINUOUS
 10
274.8989656278
 20
332.3562799861
 11
274.8989656278
 21
188.3562799861
  0
LINE
  5
2E4
100
AcDbEntity
  8
ZJPF7104-01-04____DEFAULT_1
100
AcDbLine
 62
7
  6
CONTINUOUS
 10
274.8989656278
 20
188.3562799861
 11
274.8989656278
 21
182.8562799861
  0
LINE
  5
2E5
100
AcDbEntity
  8
PF7104-05____DEFAULT_1
100
AcDbLine
 62
7
  6
CONTINUOUS
 10
282.3989656278
 20
175.3562799861
 11
282.3989656278
 21
175.0562799861
  0
LINE
  5
2E6
100
AcDbEntity
  8
ZJPF7104-01-04____DEFAULT_1
100
AcDbLine
 62
7
  6
CONTINUOUS
 10
284.8989656278
 20
181.8562799861
 11
284.8989656278
 21
175.3562799861
  0
LINE
  5
2E7
100
AcDbEntity
  8
PF7104-04-02______DEFAULT_1
100
AcDbLine
 62
7
  6
CONTINUOUS
 10
284.8989656278
 20
175.0562799861
 11
284.8989656278
 21
138.0562799861
  0
LINE
  5
2E8
100
AcDbEntity
  8
PF7104-04-03______DEFAULT_1
100
AcDbLine
 62
7
  6
CONTINUOUS
 10
284.8989656278
 20
70.0562799861
 11
284.8989656278
 21
58.5562799861
  0
LINE
  5
2E9
100
AcDbEntity
  8
ZJPF7104-04-01___DEFAULT_1
100
AcDbLine
 62
7
  6
CONTINUOUS
 10
284.8989656278
 20
70.0562799861
 11
284.8989656278
 21
138.0562799861
  0
LINE
  5
2EA
100
AcDbEntity
  8
70111-02___1
100
AcDbLine
 62
7
  6
CONTINUOUS
 10
288.3989656278
 20
58.0562799861
 11
288.3989656278
 21
52.5562799861
  0
LINE
  5
2EB
100
AcDbEntity
  8
70101-04____1
100
AcDbLine
 62
7
  6
CONTINUOUS
 10
239.8254936452
 20
105.0562799861
 11
239.8989656278
 21
105.0562799861
  0
LWPOLYLINE
  5
2EC
100
AcDbEntity
  8
70116B-01-03-X_1
100
AcDbPolyline
 62
7
  6
CONTINUOUS
 90
8
 70
0
 10
513.0316725989
 20
373.0623264566
 10
513.1659652756
 20
373.1810108834
 10
513.3616011715
 20
373.3162330701
 10
513.5719465841
 20
373.427296584
 10
513.7937687803
 20
373.5125318489
 10
514.0243445063
 20
373.5708959258
 10
514.2613990681
 20
373.6015567517
 10
514.398958678
 20
373.6062930133
  0
LINE
  5
2ED
100
AcDbEntity
  8
70116-12______1
100
AcDbLine
 62
7
  6
CONTINUOUS
 10
259.3490367335
 20
121.6062799861
 11
259.8630399612
 21
121.6062799861
  0
LINE
  5
2EE
100
AcDbEntity
  8
70116-12______1
100
AcDbLine
 62
7
  6
CONTINUOUS
 10
264.9348912944
 20
121.6062799861
 11
265.4488945222
 21
121.6062799861
  0
LINE
  5
2EF
100
AcDbEntity
  8
70116-12______1
100
AcDbLine
 62
7
  6
CONTINUOUS
 10
257.4989929749
 20
130.6062799861
 11
267.2989382808
 21
130.6062799861
  0
LINE
  5
2F0
100
AcDbEntity
  8
ZJPF7104-04-01___DEFAULT_1
100
AcDbLine
 62
7
  6
CONTINUOUS
 10
284.8989656278
 20
138.0562799861
 11
267.2989656278
 21
138.0562799861
  0
LINE
  5
2F1
100
AcDbEntity
  8
ZJPF7104-04-01___DEFAULT_1
100
AcDbLine
 62
7
  6
CONTINUOUS
 10
257.4989656278
 20
138.0562799861
 11
239.8989656278
 21
138.0562799861
  0
LINE
  5
2F2
100
AcDbEntity
  8
PF7104-04-02______DEFAULT_1
100
AcDbLine
 62
7
  6
CONTINUOUS
 10
239.8989656278
 20
138.0562799861
 11
257.4989656278
 21
138.0562799861
  0
LINE
  5
2F3
100
AcDbEntity
  8
PF7104-04-02______DEFAULT_1
100
AcDbLine
 62
7
  6
CONTINUOUS
 10
267.2989656278
 20
138.0562799861
 11
284.8989656278
 21
138.0562799861
  0
LINE
  5
2F4
100
AcDbEntity
  8
70116-12______1
100
AcDbLine
 62
7
  6
CONTINUOUS
 10
266.7988709702
 20
152.6062799861
 11
257.9990602855
 21
152.6062799861
  0
LINE
  5
2F5
100
AcDbEntity
  8
PF7104-04-02______DEFAULT_1
100
AcDbLine
 62
7
  6
CONTINUOUS
 10
284.8989656278
 20
175.0562799861
 11
239.8989656278
 21
175.0562799861
  0
LINE
  5
2F6
100
AcDbEntity
  8
ZJPF7104-01-04____DEFAULT_1
100
AcDbLine
 62
7
  6
CONTINUOUS
 10
239.8991929414
 20
175.3562799861
 11
284.8987383143
 21
175.3562799861
  0
LINE
  5
2F7
100
AcDbEntity
  8
ZJPF7104-01-04____DEFAULT_1
100
AcDbLine
 62
7
  6
CONTINUOUS
 10
284.39874828
 20
182.3562799861
 11
240.3991829756
 21
182.3562799861
  0
LINE
  5
2F8
100
AcDbEntity
  8
ZJPF7104-01-04____DEFAULT_1
100
AcDbLine
 62
7
  6
CONTINUOUS
 10
274.8989550152
 20
188.3562799861
 11
249.8989762404
 21
188.3562799861
  0
LINE
  5
2F9
100
AcDbEntity
  8
70116B-01-01___DEFAULT_1
100
AcDbLine
 62
7
  6
CONTINUOUS
 10
249.8990035544
 20
188.3562799861
 11
274.8989277013
 21
188.3562799861
  0
LINE
  5
2FA
100
AcDbEntity
  8
70116B-01-03-X_1
100
AcDbLine
 62
7
  6
CONTINUOUS
 10
462.3989656278
 20
403.1062638184
 11
462.3989656278
 21
373.6062961538
  0
LINE
  5
2FB
100
AcDbEntity
  8
70116B-01-03-X_1
100
AcDbLine
 62
7
  6
CONTINUOUS
 10
466.3989656278
 20
371.6062468548
 11
466.3989656278
 21
370.3562799861
  0
LINE
  5
2FC
100
AcDbEntity
  8
70116B-01-03_____DEFAULT_1
100
AcDbLine
 62
7
  6
CONTINUOUS
 10
512.8989656278
 20
372.3610233761
 11
512.8989656278
 21
370.3562799861
  0
LINE
  5
2FD
100
AcDbEntity
  8
70116B-01-03-X_1
100
AcDbLine
 62
7
  6
CONTINUOUS
 10
516.3989656278
 20
373.6062961538
 11
516.3989656278
 21
403.1062638184
  0
LINE
  5
2FE
100
AcDbEntity
  8
70116B-01-03_____DEFAULT_1
100
AcDbLine
 62
7
  6
CONTINUOUS
 10
516.8989656278
 20
374.35629508
 11
516.8989656278
 21
402.3562648921
  0
LWPOLYLINE
  5
2FF
100
AcDbEntity
  8
70116B-01-03_____DEFAULT_1
100
AcDbPolyline
 62
7
  6
CONTINUOUS
 90
5
 70
0
 10
512.8989802078
 20
372.356258032
 10
512.9027042157
 20
372.4776881761
 10
512.9314536004
 20
372.7145091504
 10
512.9884349812
 20
372.9474948053
 10
513.0316725989
 20
373.0623264566
  0
LINE
  5
300
100
AcDbEntity
  8
70116B-01-03-X_1
100
AcDbLine
 62
7
  6
CONTINUOUS
 10
466.3989656278
 20
370.3562799861
 11
499.3989656278
 21
370.3562799861
  0
LINE
  5
301
100
AcDbEntity
  8
70116B-01-03_____DEFAULT_1
100
AcDbLine
 62
7
  6
CONTINUOUS
 10
499.0343880921
 20
370.3562799861
 11
512.8989512419
 21
370.3562799861
  0
LINE
  5
302
100
AcDbEntity
  8
70116B-01-03-X_1
100
AcDbLine
 62
7
  6
CONTINUOUS
 10
462.3989656278
 20
373.6062799861
 11
464.3991476233
 21
373.6062799861
  0
LINE
  5
303
100
AcDbEntity
  8
70116B-01-03-X_1
100
AcDbLine
 62
7
  6
CONTINUOUS
 10
514.3920698664
 20
373.6062799861
 11
516.3989656278
 21
373.6062799861
  0
LINE
  5
304
100
AcDbEntity
  8
70116B-01-03_____DEFAULT_1
100
AcDbLine
 62
7
  6
CONTINUOUS
 10
516.3989656278
 20
374.3562799861
 11
516.8989656278
 21
374.3562799861
  0
LINE
  5
305
100
AcDbEntity
  8
70116B-01-01___DEFAULT_1
100
AcDbLine
 62
7
  6
CONTINUOUS
 10
318.3989656278
 20
375.8562799861
 11
462.3989656278
 21
375.8562799861
  0
LWPOLYLINE
  5
306
100
AcDbEntity
  8
70116B-01-03-X_1
100
AcDbPolyline
 62
7
  6
CONTINUOUS
 90
15
 70
0
 10
464.3989706221
 20
373.6062986396
 10
464.6055107891
 20
373.5956053711
 10
464.8360668579
 20
373.5579511965
 10
465.0596460051
 20
373.4940249441
 10
465.2741301558
 20
373.4046594099
 10
465.4769627603
 20
373.2909182749
 10
465.6651932708
 20
373.154425549
 10
465.8363303431
 20
372.9969897297
 10
465.9880412291
 20
372.8207485598
 10
466.1182543418
 20
372.6281145904
 10
466.2252484703
 20
372.4216295249
 10
466.307484765
 20
372.2043286038
 10
466.3640010662
 20
371.9787655504
 10
466.394031907
 20
371.7470664657
 10
466.3989930006
 20
371.6062845081
  0
LINE
  5
307
100
AcDbEntity
  8
70116B-01-01___DEFAULT_1
100
AcDbLine
 62
7
  6
CONTINUOUS
 10
318.3989656278
 20
400.8562799861
 11
462.3989656278
 21
400.8562799861
  0
LINE
  5
308
100
AcDbEntity
  8
70116B-01-03_____DEFAULT_1
100
AcDbLine
 62
7
  6
CONTINUOUS
 10
516.3989656278
 20
402.3562799861
 11
516.8989656278
 21
402.3562799861
  0
LINE
  5
309
100
AcDbEntity
  8
70116B-01-03-X_1
100
AcDbLine
 62
7
  6
CONTINUOUS
 10
462.3989656278
 20
403.1062799861
 11
516.3989656278
 21
403.1062799861
  0
ARC
  5
30A
100
AcDbEntity
  8
70116-04______1
100
AcDbCircle
 62
7
  6
CONTINUOUS
 10
54.2373435037
 20
139.205794926
 40
17.6955258863
100
AcDbArc
 50
275.9702816948
 51
280.3377419736
  0
ARC
  5
30B
100
AcDbEntity
  8
70116-04______1
100
AcDbCircle
 62
7
  6
CONTINUOUS
 10
54.4526869689
 20
138.9892091604
 40
17.4768917394
100
AcDbArc
 50
259.6345374463
 51
264.0565621459
  0
ARC
  5
30C
100
AcDbEntity
  8
70116-04______1
100
AcDbCircle
 62
7
  6
CONTINUOUS
 10
54.3543829108
 20
138.1870621462
 40
16.6701484322
100
AcDbArc
 50
270.0211165434
 51
275.9343869823
  0
ARC
  5
30D
100
AcDbEntity
  8
70116-04______1
100
AcDbCircle
 62
7
  6
CONTINUOUS
 10
54.3622569017
 20
138.1025237833
 40
16.5856090273
100
AcDbArc
 50
264.05010453
 51
269.9940230992
  0
ARC
  5
30E
100
AcDbEntity
  8
70116-12______1
100
AcDbCircle
 62
7
  6
CONTINUOUS
 10
49.9605267474
 20
152.1062799861
 40
0.5
100
AcDbArc
 50
90.0
 51
180.0
  0
ARC
  5
30F
100
AcDbEntity
  8
70116-12______1
100
AcDbCircle
 62
7
  6
CONTINUOUS
 10
58.7605267474
 20
152.1062799861
 40
0.5
100
AcDbArc
 50
0.0
 51
90.0
  0
ARC
  5
310
100
AcDbEntity
  8
70111-02___1
100
AcDbCircle
 62
7
  6
CONTINUOUS
 10
81.6605267474
 20
58.0562799861
 40
0.5
100
AcDbArc
 50
90.0
 51
180.0
  0
ARC
  5
311
100
AcDbEntity
  8
70116-04______1
100
AcDbCircle
 62
7
  6
CONTINUOUS
 10
42.8605267474
 20
88.8062799861
 40
0.5
100
AcDbArc
 50
180.0
 51
270.0
  0
ARC
  5
312
100
AcDbEntity
  8
70116-04______1
100
AcDbCircle
 62
7
  6
CONTINUOUS
 10
42.8605267474
 20
121.3062799861
 40
0.5
100
AcDbArc
 50
90.0
 51
180.0
  0
ARC
  5
313
100
AcDbEntity
  8
ZJPF7104-01-04____DEFAULT_1
100
AcDbCircle
 62
7
  6
CONTINUOUS
 10
85.1605267474
 20
181.8562799861
 40
0.5
100
AcDbArc
 50
90.0
 51
180.0
  0
ARC
  5
314
100
AcDbEntity
  8
ZJPF7104-01-04____DEFAULT_1
100
AcDbCircle
 62
7
  6
CONTINUOUS
 10
94.1605267474
 20
182.8562799861
 40
0.5
100
AcDbArc
 50
270.0
 51
360.0
  0
CIRCLE
  5
315
100
AcDbEntity
  8
70116B-01-03-X_1
100
AcDbCircle
 62
7
  6
CONTINUOUS
 10
107.1605267474
 20
388.3562799861
 40
14.75
  0
CIRCLE
  5
316
100
AcDbEntity
  8
70116B-01-03_____DEFAULT_1
100
AcDbCircle
 62
7
  6
CONTINUOUS
 10
107.1605267474
 20
388.3562799861
 40
14.0
  0
ARC
  5
317
100
AcDbEntity
  8
P02-A-02-02____DEFAULT_1
100
AcDbCircle
 62
7
  6
CONTINUOUS
 10
107.1605267474
 20
388.3562799861
 40
12.5
100
AcDbArc
 50
90.0
 51
180.1979150449
  0
ARC
  5
318
100
AcDbEntity
  8
P02-A-02-02____DEFAULT_1
100
AcDbCircle
 62
7
  6
CONTINUOUS
 10
107.1605267474
 20
388.3562799861
 40
12.5
100
AcDbArc
 50
270.0
 51
0.1979150449
  0
CIRCLE
  5
319
100
AcDbEntity
  8
70116B-01-03_____DEFAULT_1
100
AcDbCircle
 62
7
  6
CONTINUOUS
 10
107.1605267474
 20
388.3562799861
 40
12.5
  0
ARC
  5
31A
100
AcDbEntity
  8
ZSB-003_37_____1
100
AcDbCircle
 62
7
  6
CONTINUOUS
 10
155.8058615613
 20
112.0222749099
 40
27.0
100
AcDbArc
 50
272.875896256
 51
295.0728133694
  0
ARC
  5
31B
100
AcDbEntity
  8
ZSB-003_37_____1
100
AcDbCircle
 62
7
  6
CONTINUOUS
 10
155.8058615613
 20
98.0902850622
 40
27.0
100
AcDbArc
 50
82.217324995
 51
87.124103744
  0
ARC
  5
31C
100
AcDbEntity
  8
70101-04____1
100
AcDbCircle
 62
7
  6
CONTINUOUS
 10
171.4533200728
 20
60.1495593453
 40
22.6076186684
100
AcDbArc
 50
82.3560086268
 51
89.9817357126
  0
ARC
  5
31D
100
AcDbEntity
  8
70111-02___1
100
AcDbCircle
 62
7
  6
CONTINUOUS
 10
132.6605267474
 20
58.0562799861
 40
0.5
100
AcDbArc
 50
0.0
 51
90.0
  0
ARC
  5
31E
100
AcDbEntity
  8
70101-04____1
100
AcDbCircle
 62
7
  6
CONTINUOUS
 10
191.9605267474
 20
83.0562799861
 40
0.5
100
AcDbArc
 50
270.0
 51
360.0
  0
ARC
  5
31F
100
AcDbEntity
  8
70101-04____1
100
AcDbCircle
 62
7
  6
CONTINUOUS
 10
191.9605267474
 20
127.0562799861
 40
0.5
100
AcDbArc
 50
0.0
 51
90.0
  0
ARC
  5
320
100
AcDbEntity
  8
ZJPF7104-01-04____DEFAULT_1
100
AcDbCircle
 62
7
  6
CONTINUOUS
 10
120.1605267474
 20
182.8562799861
 40
0.5
100
AcDbArc
 50
180.0
 51
270.0
  0
ARC
  5
321
100
AcDbEntity
  8
ZJPF7104-01-04____DEFAULT_1
100
AcDbCircle
 62
7
  6
CONTINUOUS
 10
129.1605267474
 20
181.8562799861
 40
0.5
100
AcDbArc
 50
0.0
 51
90.0
  0
ARC
  5
322
100
AcDbEntity
  8
70116B-01-01___DEFAULT_1
100
AcDbCircle
 62
7
  6
CONTINUOUS
 10
318.3989656278
 20
332.3562799861
 40
68.5
100
AcDbArc
 50
90.0
 51
180.0
  0
ARC
  5
323
100
AcDbEntity
  8
70116B-01-01___DEFAULT_1
100
AcDbCircle
 62
7
  6
CONTINUOUS
 10
318.3989656278
 20
332.3562799861
 40
43.5
100
AcDbArc
 50
90.0
 51
180.0
  0
ARC
  5
324
100
AcDbEntity
  8
PF7104-04-02______DEFAULT_1
100
AcDbCircle
 62
7
  6
CONTINUOUS
 10
217.3634637823
 20
170.0527521786
 40
22.5960836793
100
AcDbArc
 50
0.0089452882
 51
4.196520312
  0
ARC
  5
325
100
AcDbEntity
  8
PF7104-04-02______DEFAULT_1
100
AcDbCircle
 62
7
  6
CONTINUOUS
 10
217.398147595
 20
170.0585343394
 40
22.5613997038
100
AcDbArc
 50
355.8002594404
 51
359.9942749593
  0
ARC
  5
326
100
AcDbEntity
  8
70101-04____1
100
AcDbCircle
 62
7
  6
CONTINUOUS
 10
262.3254936452
 20
105.0562799861
 40
22.5
100
AcDbArc
 50
175.5931095762
 51
184.4181151126
  0
CIRCLE
  5
327
100
AcDbEntity
  8
70116-04______1
100
AcDbCircle
 62
7
  6
CONTINUOUS
 10
262.3989656278
 20
105.0562799861
 40
16.75
  0
ARC
  5
328
100
AcDbEntity
  8
70111-02___1
100
AcDbCircle
 62
7
  6
CONTINUOUS
 10
287.8989656278
 20
58.0562799861
 40
0.5
100
AcDbArc
 50
0.0
 51
90.0
  0
ARC
  5
329
100
AcDbEntity
  8
70111-02___1
100
AcDbCircle
 62
7
  6
CONTINUOUS
 10
236.8989656278
 20
58.0562799861
 40
0.5
100
AcDbArc
 50
90.0
 51
180.0
  0
ARC
  5
32A
100
AcDbEntity
  8
70116-12______1
100
AcDbCircle
 62
7
  6
CONTINUOUS
 10
257.9989656278
 20
152.1062799861
 40
0.5
100
AcDbArc
 50
90.0
 51
180.0
  0
ARC
  5
32B
100
AcDbEntity
  8
70116-12______1
100
AcDbCircle
 62
7
  6
CONTINUOUS
 10
266.7989656278
 20
152.1062799861
 40
0.5
100
AcDbArc
 50
0.0
 51
90.0
  0
ARC
  5
32C
100
AcDbEntity
  8
ZJPF7104-01-04____DEFAULT_1
100
AcDbCircle
 62
7
  6
CONTINUOUS
 10
275.3989656278
 20
182.8562799861
 40
0.5
100
AcDbArc
 50
180.0
 51
270.0
  0
ARC
  5
32D
100
AcDbEntity
  8
ZJPF7104-01-04____DEFAULT_1
100
AcDbCircle
 62
7
  6
CONTINUOUS
 10
284.3989656278
 20
181.8562799861
 40
0.5
100
AcDbArc
 50
0.0
 51
90.0
  0
ARC
  5
32E
100
AcDbEntity
  8
ZJPF7104-01-04____DEFAULT_1
100
AcDbCircle
 62
7
  6
CONTINUOUS
 10
240.3989656278
 20
181.8562799861
 40
0.5
100
AcDbArc
 50
90.0
 51
180.0
  0
ARC
  5
32F
100
AcDbEntity
  8
ZJPF7104-01-04____DEFAULT_1
100
AcDbCircle
 62
7
  6
CONTINUOUS
 10
249.3989656278
 20
182.8562799861
 40
0.5
100
AcDbArc
 50
270.0
 51
360.0
  0
LINE
  5
330
100
AcDbEntity
  8
70116-04______1
100
AcDbLine
 62
7
  6
CONTINUOUS
 10
57.4605267474
 20
121.8062799861
 11
57.4128106267
 21
121.7975197403
  0
LINE
  5
331
100
AcDbEntity
  8
70116-04______1
100
AcDbLine
 62
7
  6
CONTINUOUS
 10
51.3081358427
 20
121.797538413
 11
51.2605267474
 21
121.8062799861
  0
SPLINE
  5
332
100
AcDbEntity
  8
70101-04____1
100
AcDbSpline
 62
7
  6
CONTINUOUS
 70
0
 71
3
 72
13
 73
9
 74
0
 42
0.0000001
 43
0.0000001
 44
0.0000000001
 40
0.0
 40
0.0
 40
0.0
 40
0.0
 40
0.1479043304
 40
0.3096614039
 40
0.5000043195
 40
0.6903434001
 40
0.8520953175
 40
1.0
 40
1.0
 40
1.0
 40
1.0
 10
186.9605267474
 20
127.5562799861
 30
0.0
 10
186.4753714499
 20
127.4483393169
 30
0.0
 10
185.4526399134
 20
127.2525656824
 30
0.0
 10
183.7838875471
 20
127.0457024967
 30
0.0
 10
181.9604958697
 20
126.9656195878
 30
0.0
 10
180.1371227123
 20
127.0457135662
 30
0.0
 10
178.4683980685
 20
127.2525639029
 30
0.0
 10
177.4456824896
 20
127.4483343359
 30
0.0
 10
176.9605267474
 20
127.5562799861
 30
0.0
  0
LINE
  5
333
100
AcDbEntity
  8
ZJPF7104-04-01___DEFAULT_1
100
AcDbLine
 62
7
  6
CONTINUOUS
 10
107.1605267474
 20
105.0562799861
 11
129.6605224236
 21
82.5562843099
  0
LINE
  5
334
100
AcDbEntity
  8
ZJPF7104-04-01___DEFAULT_1
100
AcDbLine
 62
7
  6
CONTINUOUS
 10
129.6605224235
 20
127.5562756622
 11
118.8886551226
 21
116.7844083613
  0
LINE
  5
335
100
AcDbEntity
  8
ZJPF7104-04-01___DEFAULT_1
100
AcDbLine
 62
7
  6
CONTINUOUS
 10
118.8886551226
 20
116.7844083613
 11
107.1605267474
 21
105.0562799861
  0
SPLINE
  5
336
100
AcDbEntity
  8
ZJPF7104-04-01___DEFAULT_1
100
AcDbSpline
 62
7
  6
CONTINUOUS
 70
0
 71
3
 72
14
 73
10
 74
0
 42
0.0000001
 43
0.0000001
 44
0.0000000001
 40
0.0
 40
0.0
 40
0.0
 40
0.0
 40
0.0900036137
 40
0.3225846175
 40
0.4731512029
 40
0.639024074
 40
0.8161024901
 40
0.9075882354
 40
1.0
 40
1.0
 40
1.0
 40
1.0
 10
84.6605267474
 20
88.5562799861
 30
0.0
 10
84.984775015
 20
88.9989610125
 30
0.0
 10
86.1346766145
 20
90.5955890209
 30
0.0
 10
87.7336709181
 20
93.0005665028
 30
0.0
 10
89.3855091927
 20
95.9157204469
 30
0.0
 10
90.6499163025
 20
98.652080873
 30
0.0
 10
91.4444930554
 20
101.1931899676
 30
0.0
 10
91.8007935081
 20
103.3690265319
 30
0.0
 10
91.8634238824
 20
104.4915035722
 30
0.0
 10
91.8634681595
 20
105.055079808
 30
0.0
  0
SPLINE
  5
337
100
AcDbEntity
  8
ZJPF7104-04-01___DEFAULT_1
100
AcDbSpline
 62
7
  6
CONTINUOUS
 70
0
 71
3
 72
14
 73
10
 74
0
 42
0.0000001
 43
0.0000001
 44
0.0000000001
 40
0.0
 40
0.0
 40
0.0
 40
0.0
 40
0.0924084124
 40
0.1838919293
 40
0.3609680293
 40
0.5268403122
 40
0.6774075507
 40
0.9099928995
 40
1.0
 40
1.0
 40
1.0
 40
1.0
 10
91.8634681595
 20
105.055079808
 30
0.0
 10
91.8635124409
 20
105.6187093789
 30
0.0
 10
91.8010456467
 20
106.7413095428
 30
0.0
 10
91.4449901755
 20
108.9174315356
 30
0.0
 10
90.6505475349
 20
111.4589230196
 30
0.0
 10
89.3861143853
 20
114.1956942671
 30
0.0
 10
87.7341211842
 20
117.1112969482
 30
0.0
 10
86.1349078379
 20
119.5166463437
 30
0.0
 10
84.9848298346
 20
121.1135238263
 30
0.0
 10
84.6605267474
 20
121.5562799861
 30
0.0
  0
ENDSEC
  0
SECTION
  2
OBJECTS
  0
DICTIONARY
  5
C
100
AcDbDictionary
280
0
281
1
  3
ACAD_GROUP
350
D
  3
ACAD_MLINESTYLE
350
17
  3
ACAD_LAYOUT
350
1A
  3
ACAD_PLOTSETTINGS
350
19
  3
ACAD_PLOTSTYLENAME
350
E
  0
DICTIONARY
  5
D
102
{ACAD_REACTORS
330
C
102
}
100
AcDbDictionary
280
0
281
1
  0
ACDBDICTIONARYWDFLT
  5
E
102
{ACAD_REACTORS
330
C
102
}
100
AcDbDictionary
281
1
  3
Normal
350
F
100
AcDbDictionaryWithDefault
340
F
  0
DICTIONARY
  5
17
102
{ACAD_REACTORS
330
C
102
}
100
AcDbDictionary
280
0
281
1
  3
Standard
350
18
  0
DICTIONARY
  5
19
102
{ACAD_REACTORS
330
C
102
}
100
AcDbDictionary
281
1
  0
DICTIONARY
  5
1A
102
{ACAD_REACTORS
330
C
102
}
100
AcDbDictionary
281
1
  3
Model
350
338
  3
Layout1
350
339
  0
ACDBPLACEHOLDER
  5
F
102
{ACAD_REACTORS
330
E
102
}
  0
MLINESTYLE
  5
18
102
{ACAD_REACTORS
330
17
102
}
100
AcDbMlineStyle
  2
STANDARD
 70
0
  3

 62
256
 51
90.0
 52
90.0
 71
2
 49
0.5
 62
256
  6
BYLAYER
 49
-0.5
 62
256
  6
BYLAYER
  0
LAYOUT
  5
338
102
{ACAD_REACTORS
330
1A
102
}
100
AcDbPlotSettings
  1

  2
none_device
  4
ANSI_C_(22.00_x_17.00_Inches)
  6

 40
0.0
 41
0.0
 42
0.0
 43
0.0
 44
558.8
 45
431.8
 46
0.0
 47
0.0
 48
0.0
 49
0.0
140
0.0
141
0.0
142
1.0
143
1.0
 70
1024
 72
1
 73
0
 74
0
  7

 75
0
147
1.0
148
0.0
149
0.0
100
AcDbLayout
  1
Model
 70
0
 71
0
 10
0.0
 20
0.0
 11
558.8
 21
431.8
 12
0.0
 22
0.0
 32
0.0
 14
0.0
 24
0.0
 34
0.0
 15
0.0
 25
0.0
 35
0.0
146
0.0
 13
0.0
 23
0.0
 33
0.0
 16
1.0
 26
0.0
 36
0.0
 17
0.0
 27
1.0
 37
0.0
 76
0
330
23E
345
0
346
0
  0
LAYOUT
  5
339
102
{ACAD_REACTORS
330
1A
102
}
100
AcDbPlotSettings
  1

  2
none_device
  4
ANSI_C_(22.00_x_17.00_Inches)
  6

 40
0.0
 41
0.0
 42
0.0
 43
0.0
 44
558.8
 45
431.8
 46
0.0
 47
0.0
 48
0.0
 49
0.0
140
0.0
141
0.0
142
1.0
143
1.0
 70
0
 72
1
 73
0
 74
0
  7

 75
0
147
1.0
148
0.0
149
0.0
100
AcDbLayout
  1
Layout1
 70
0
 71
1
 10
0.0
 20
0.0
 11
558.8
 21
431.8
 12
0.0
 22
0.0
 32
0.0
 14
0.0
 24
0.0
 34
0.0
 15
0.0
 25
0.0
 35
0.0
146
0.0
 13
0.0
 23
0.0
 33
0.0
 16
1.0
 26
0.0
 36
0.0
 17
0.0
 27
1.0
 37
0.0
 76
0
330
23F
345
0
346
0
  0
ENDSEC
  0
EOF
