999
DXF file: S:\Engenharia\Wildfire\Engenharia\Produtos\Torneiras\94520018\94520018.dxf
999
Pro/ENGINEER 2013150 by Parametric Technology Corporation
  0
SECTION
  2
HEADER
  9
$ACADVER
  1
AC1021
  9
$DWGCODEPAGE
  3
ANSI_1252
  9
$EXTMAX
 10
628.0
 20
454.0
 30
0.0
  9
$EXTMIN
 10
0.0
 20
0.0
 30
0.0
  9
$LIMMIN
 10
0.0
 20
0.0
  9
$LIMMAX
 10
628.0
 20
454.0
  9
$VIEWCTR
 10
314.0
 20
227.0
  9
$VIEWSIZE
 40
454.0
  9
$CLAYER
  8
0
  9
$LTSCALE
 40
34.54
  9
$CELTYPE
  6
BYLAYER
  9
$DIMSCALE
 40
1.0
  9
$DIMASZ
 40
3.0
  9
$DIMEXO
 40
0.5
  9
$DIMDLI
 40
23.864
  9
$DIMEXE
 40
0.5
  9
$DIMCEN
 40
5.652
  9
$DIMLFAC
 40
1.0
  9
$DIMBLK
  1
_FILLED
  9
$DIMTXT
 40
1.8
  9
$DIMTOL
 70
1
  9
$DIMLIM
 70
0
  9
$DIMTFAC
 40
1.0
  9
$DIMTP
 40
0.001
  9
$DIMTM
 40
0.001
  9
$DIMGAP
 40
0.625
  9
$DIMDSEP
 70
46
  9
$PDMODE
 70
3
  9
$PDSIZE
 40
1.0
  9
$HANDSEED
  5
3FA
  9
$TILEMODE
 70
1
  9
$MEASUREMENT
 70
1
  9
$INSUNITS
 70
4
  0
ENDSEC
  0
SECTION
  2
CLASSES
  0
CLASS
  1
ACDBDICTIONARYWDFLT
  2
AcDbDictionaryWithDefault
  3
AutoCAD 2000
 90
0
 91
1
280
0
281
0
  0
CLASS
  1
ACDBPLACEHOLDER
  2
AcDbPlaceHolder
  3
AutoCAD 2000
 90
0
 91
1
280
0
281
0
  0
CLASS
  1
LAYOUT
  2
AcDbLayout
  3
AutoCAD 2000
 90
0
 91
0
280
0
281
0
  0
ENDSEC
  0
SECTION
  2
TABLES
  0
TABLE
  2
VPORT
  5
8
100
AcDbSymbolTable
 70
2
  0
VPORT
  5
1F4
100
AcDbSymbolTableRecord
100
AcDbViewportTableRecord
  2
*ACTIVE
 70
0
 10
0.0
 20
0.0
 11
1.0
 21
1.0
 12
314.0
 22
227.0
 13
0.0
 23
0.0
 14
1.0
 24
1.0
 15
0.0
 25
0.0
 16
0.0
 26
0.0
 36
1.0
 17
0.0
 27
0.0
 37
0.0
 40
454.0
 41
1.3832599119
 42
50.0
 43
0.0
 44
0.0
 50
0.0
 51
0.0
 71
0
 72
100
 73
1
 74
1
 75
0
 76
0
 77
0
 78
0
  0
ENDTAB
  0
TABLE
  2
LTYPE
  5
5
100
AcDbSymbolTable
 70
6
  0
LTYPE
  5
14
100
AcDbSymbolTableRecord
100
AcDbLinetypeTableRecord
  2
BYBLOCK
 70
0
  3

 72
65
 73
0
 40
0.0
  0
LTYPE
  5
15
100
AcDbSymbolTableRecord
100
AcDbLinetypeTableRecord
  2
BYLAYER
 70
0
  3

 72
65
 73
0
 40
0.0
  0
LTYPE
  5
16
100
AcDbSymbolTableRecord
100
AcDbLinetypeTableRecord
  2
CONTINUOUS
 70
64
  3
Solid line
 72
65
 73
0
 40
0.0
  0
LTYPE
  5
1F5
100
AcDbSymbolTableRecord
100
AcDbLinetypeTableRecord
  2
CENTER
 70
64
  3
____ _ ____ _ ____ _ ____ _ ____ _ ____ _ ____
 72
65
 73
4
 40
0.6
 49
0.375
 74
0
 49
-0.075
 74
0
 49
0.075
 74
0
 49
-0.075
 74
0
  0
LTYPE
  5
1F6
100
AcDbSymbolTableRecord
100
AcDbLinetypeTableRecord
  2
HIDDEN
 70
64
  3
- - - - - - - - - - - - - - - - - - - -
 72
65
 73
2
 40
0.2
 49
0.1
 74
0
 49
-0.1
 74
0
  0
LTYPE
  5
1F7
100
AcDbSymbolTableRecord
100
AcDbLinetypeTableRecord
  2
PHANTOM
 70
64
  3
_____ _ _ _____ _ _ _____ _ _ _____
 72
65
 73
6
 40
0.8
 49
0.45
 74
0
 49
-0.05
 74
0
 49
0.1
 74
0
 49
-0.05
 74
0
 49
0.1
 74
0
 49
-0.05
 74
0
  0
LTYPE
  5
1F8
100
AcDbSymbolTableRecord
100
AcDbLinetypeTableRecord
  2
DOT
 70
64
  3
. . . . . . . . . . . . . . . . . . . .
 72
65
 73
2
 40
0.2
 49
0.1
 74
0
 49
-0.1
 74
0
  0
LTYPE
  5
1F9
100
AcDbSymbolTableRecord
100
AcDbLinetypeTableRecord
  2
DASHED
 70
64
  3
- - - - - - - - - - - - - - - - - - - -
 72
65
 73
2
 40
0.2
 49
0.1
 74
0
 49
-0.1
 74
0
  0
ENDTAB
  0
TABLE
  2
LAYER
  5
2
100
AcDbSymbolTable
 70
36
  0
LAYER
  5
10
100
AcDbSymbolTableRecord
100
AcDbLayerTableRecord
  2
0
 70
0
 62
7
  6
CONTINUOUS
370
-3
390
F
  0
LAYER
  5
1FA
100
AcDbSymbolTableRecord
100
AcDbLayerTableRecord
  2
DEFAULT_1
 70
0
 62
7
  6
CENTER
370
-3
390
F
  0
LAYER
  5
1FB
100
AcDbSymbolTableRecord
100
AcDbLayerTableRecord
  2
DEFAULT_2
 70
0
 62
8
  6
HIDDEN
370
-3
390
F
  0
LAYER
  5
1FC
100
AcDbSymbolTableRecord
100
AcDbLayerTableRecord
  2
DEFAULT_3
 70
0
 62
7
  6
PHANTOM
370
-3
390
F
  0
LAYER
  5
1FD
100
AcDbSymbolTableRecord
100
AcDbLayerTableRecord
  2
01_ALL_DTM_PLN
 70
0
 62
7
  6
CONTINUOUS
370
-3
390
F
  0
LAYER
  5
1FE
100
AcDbSymbolTableRecord
100
AcDbLayerTableRecord
  2
01__ASM_ALL_DTM_PLN
 70
0
 62
7
  6
CONTINUOUS
370
-3
390
F
  0
LAYER
  5
1FF
100
AcDbSymbolTableRecord
100
AcDbLayerTableRecord
  2
01__ASM_DEF_DTM_PLN
 70
0
 62
7
  6
CONTINUOUS
370
-3
390
F
  0
LAYER
  5
200
100
AcDbSymbolTableRecord
100
AcDbLayerTableRecord
  2
01___PRT_ALL_DTM_PLN
 70
0
 62
7
  6
CONTINUOUS
370
-3
390
F
  0
LAYER
  5
201
100
AcDbSymbolTableRecord
100
AcDbLayerTableRecord
  2
01___PRT_DEF_DTM_PLN
 70
0
 62
7
  6
CONTINUOUS
370
-3
390
F
  0
LAYER
  5
202
100
AcDbSymbolTableRecord
100
AcDbLayerTableRecord
  2
02_ALL_AXES
 70
0
 62
7
  6
CONTINUOUS
370
-3
390
F
  0
LAYER
  5
203
100
AcDbSymbolTableRecord
100
AcDbLayerTableRecord
  2
02__ASM_ALL_AXES
 70
0
 62
7
  6
CONTINUOUS
370
-3
390
F
  0
LAYER
  5
204
100
AcDbSymbolTableRecord
100
AcDbLayerTableRecord
  2
02___PRT_ALL_AXES
 70
0
 62
7
  6
CONTINUOUS
370
-3
390
F
  0
LAYER
  5
205
100
AcDbSymbolTableRecord
100
AcDbLayerTableRecord
  2
03_ALL_CURVES
 70
0
 62
7
  6
CONTINUOUS
370
-3
390
F
  0
LAYER
  5
206
100
AcDbSymbolTableRecord
100
AcDbLayerTableRecord
  2
03__ASM_ALL_CURVES
 70
0
 62
7
  6
CONTINUOUS
370
-3
390
F
  0
LAYER
  5
207
100
AcDbSymbolTableRecord
100
AcDbLayerTableRecord
  2
03___PRT_ALL_CURVES
 70
0
 62
7
  6
CONTINUOUS
370
-3
390
F
  0
LAYER
  5
208
100
AcDbSymbolTableRecord
100
AcDbLayerTableRecord
  2
04_ALL_DTM_PNT
 70
0
 62
7
  6
CONTINUOUS
370
-3
390
F
  0
LAYER
  5
209
100
AcDbSymbolTableRecord
100
AcDbLayerTableRecord
  2
04__ASM_ALL_DTM_PNT
 70
0
 62
7
  6
CONTINUOUS
370
-3
390
F
  0
LAYER
  5
20A
100
AcDbSymbolTableRecord
100
AcDbLayerTableRecord
  2
04___PRT_ALL_DTM_PNT
 70
0
 62
7
  6
CONTINUOUS
370
-3
390
F
  0
LAYER
  5
20B
100
AcDbSymbolTableRecord
100
AcDbLayerTableRecord
  2
05_ALL_DTM_CSYS
 70
0
 62
7
  6
CONTINUOUS
370
-3
390
F
  0
LAYER
  5
20C
100
AcDbSymbolTableRecord
100
AcDbLayerTableRecord
  2
05__ASM_ALL_DTM_CSYS
 70
0
 62
7
  6
CONTINUOUS
370
-3
390
F
  0
LAYER
  5
20D
100
AcDbSymbolTableRecord
100
AcDbLayerTableRecord
  2
05__ASM_DEF_DTM_CSYS
 70
0
 62
7
  6
CONTINUOUS
370
-3
390
F
  0
LAYER
  5
20E
100
AcDbSymbolTableRecord
100
AcDbLayerTableRecord
  2
05___PRT_ALL_DTM_CSYS
 70
0
 62
7
  6
CONTINUOUS
370
-3
390
F
  0
LAYER
  5
20F
100
AcDbSymbolTableRecord
100
AcDbLayerTableRecord
  2
05___PRT_DEF_DTM_CSYS
 70
0
 62
7
  6
CONTINUOUS
370
-3
390
F
  0
LAYER
  5
210
100
AcDbSymbolTableRecord
100
AcDbLayerTableRecord
  2
06_ALL_SURFS
 70
0
 62
7
  6
CONTINUOUS
370
-3
390
F
  0
LAYER
  5
211
100
AcDbSymbolTableRecord
100
AcDbLayerTableRecord
  2
06__ASM_ALL_SURFS
 70
0
 62
7
  6
CONTINUOUS
370
-3
390
F
  0
LAYER
  5
212
100
AcDbSymbolTableRecord
100
AcDbLayerTableRecord
  2
06___PRT_ALL_SURFS
 70
0
 62
7
  6
CONTINUOUS
370
-3
390
F
  0
LAYER
  5
213
100
AcDbSymbolTableRecord
100
AcDbLayerTableRecord
  2
07__ASM_ALL_SKELETONS
 70
0
 62
7
  6
CONTINUOUS
370
-3
390
F
  0
LAYER
  5
214
100
AcDbSymbolTableRecord
100
AcDbLayerTableRecord
  2
1-2_1
 70
0
 62
7
  6
CONTINUOUS
370
-3
390
F
  0
LAYER
  5
215
100
AcDbSymbolTableRecord
100
AcDbLayerTableRecord
  2
102421-03_1
 70
0
 62
7
  6
CONTINUOUS
370
-3
390
F
  0
LAYER
  5
216
100
AcDbSymbolTableRecord
100
AcDbLayerTableRecord
  2
18WZ_1
 70
0
 62
7
  6
CONTINUOUS
370
-3
390
F
  0
LAYER
  5
217
100
AcDbSymbolTableRecord
100
AcDbLayerTableRecord
  2
20GUAN_1
 70
0
 62
7
  6
CONTINUOUS
370
-3
390
F
  0
LAYER
  5
218
100
AcDbSymbolTableRecord
100
AcDbLayerTableRecord
  2
20WANGJU_1
 70
0
 62
7
  6
CONTINUOUS
370
-3
390
F
  0
LAYER
  5
219
100
AcDbSymbolTableRecord
100
AcDbLayerTableRecord
  2
7-1_INST126_1
 70
0
 62
7
  6
CONTINUOUS
370
-3
390
F
  0
LAYER
  5
21A
100
AcDbSymbolTableRecord
100
AcDbLayerTableRecord
  2
7-1_INST41_1
 70
0
 62
7
  6
CONTINUOUS
370
-3
390
F
  0
LAYER
  5
21B
100
AcDbSymbolTableRecord
100
AcDbLayerTableRecord
  2
7-1_INST94_1
 70
0
 62
7
  6
CONTINUOUS
370
-3
390
F
  0
LAYER
  5
21C
100
AcDbSymbolTableRecord
100
AcDbLayerTableRecord
  2
70101-07-03_1
 70
0
 62
7
  6
CONTINUOUS
370
-3
390
F
  0
LAYER
  5
21D
100
AcDbSymbolTableRecord
100
AcDbLayerTableRecord
  2
70188A-01-01_1
 70
0
 62
7
  6
CONTINUOUS
370
-3
390
F
  0
LAYER
  5
21E
100
AcDbSymbolTableRecord
100
AcDbLayerTableRecord
  2
70188A-05_1
 70
0
 62
7
  6
CONTINUOUS
370
-3
390
F
  0
LAYER
  5
21F
100
AcDbSymbolTableRecord
100
AcDbLayerTableRecord
  2
70188A-06_1
 70
0
 62
7
  6
CONTINUOUS
370
-3
390
F
  0
LAYER
  5
220
100
AcDbSymbolTableRecord
100
AcDbLayerTableRecord
  2
DZ_4
 70
0
 62
7
  6
CONTINUOUS
370
-3
390
F
  0
LAYER
  5
221
100
AcDbSymbolTableRecord
100
AcDbLayerTableRecord
  2
M5-6_1
 70
0
 62
7
  6
CONTINUOUS
370
-3
390
F
  0
LAYER
  5
222
100
AcDbSymbolTableRecord
100
AcDbLayerTableRecord
  2
MANIFOLD_SOLID_BREP_6365
 70
0
 62
7
  6
CONTINUOUS
370
-3
390
F
  0
LAYER
  5
223
100
AcDbSymbolTableRecord
100
AcDbLayerTableRecord
  2
MANIFOLD_SOLID_BREP_6471
 70
0
 62
7
  6
CONTINUOUS
370
-3
390
F
  0
LAYER
  5
224
100
AcDbSymbolTableRecord
100
AcDbLayerTableRecord
  2
PA-SL15T90_1
 70
0
 62
7
  6
CONTINUOUS
370
-3
390
F
  0
LAYER
  5
225
100
AcDbSymbolTableRecord
100
AcDbLayerTableRecord
  2
PC04_ASM_7
 70
0
 62
7
  6
CONTINUOUS
370
-3
390
F
  0
LAYER
  5
226
100
AcDbSymbolTableRecord
100
AcDbLayerTableRecord
  2
SB_3
 70
0
 62
7
  6
CONTINUOUS
370
-3
390
F
  0
LAYER
  5
227
100
AcDbSymbolTableRecord
100
AcDbLayerTableRecord
  2
ZT4_5
 70
0
 62
7
  6
CONTINUOUS
370
-3
390
F
  0
ENDTAB
  0
TABLE
  2
STYLE
  5
3
100
AcDbSymbolTable
 70
1
  0
STYLE
  5
11
100
AcDbSymbolTableRecord
100
AcDbTextStyleTableRecord
  2
STANDARD
 70
0
 40
0.0
 41
0.8
 50
0.0
 71
0
 42
0.2
  3
txt
  4

  0
STYLE
  5
228
100
AcDbSymbolTableRecord
100
AcDbTextStyleTableRecord
  2
TEXTSTYLE_1
 70
0
 40
0.0
 41
0.8
 50
0.0
 71
0
 42
0.2
  3
gdt
  4

  0
ENDTAB
  0
TABLE
  2
VIEW
  5
6
100
AcDbSymbolTable
 70
0
  0
ENDTAB
  0
TABLE
  2
UCS
  5
7
100
AcDbSymbolTable
 70
0
  0
ENDTAB
  0
TABLE
  2
APPID
  5
9
100
AcDbSymbolTable
 70
1
  0
APPID
  5
229
100
AcDbSymbolTableRecord
100
AcDbRegAppTableRecord
  2
ACAD
 70
0
  0
ENDTAB
  0
TABLE
  2
BLOCK_RECORD
  5
1
100
AcDbSymbolTable
 70
0
  0
BLOCK_RECORD
  5
22A
100
AcDbSymbolTableRecord
100
AcDbBlockTableRecord
  2
*Model_Space
  0
BLOCK_RECORD
  5
22B
100
AcDbSymbolTableRecord
100
AcDbBlockTableRecord
  2
*Paper_Space
  0
BLOCK_RECORD
  5
22C
100
AcDbSymbolTableRecord
100
AcDbBlockTableRecord
  2
_FILLED
  0
BLOCK_RECORD
  5
22D
100
AcDbSymbolTableRecord
100
AcDbBlockTableRecord
  2
*D0
  0
BLOCK_RECORD
  5
22E
100
AcDbSymbolTableRecord
100
AcDbBlockTableRecord
  2
*D1
  0
ENDTAB
  0
TABLE
  2
DIMSTYLE
  5
A
100
AcDbSymbolTable
 70
1
100
AcDbDimStyleTable
 71
0
  0
DIMSTYLE
105
22F
100
AcDbSymbolTableRecord
100
AcDbDimStyleTableRecord
  2
STANDARD
 70
0
  3

  4

 40
1.0
 41
3.0
 42
0.5
 43
0.38
 44
0.5
 45
0.0
 46
0.0
 47
0.001
 48
0.001
140
1.8
141
0.09
142
0.0
143
25.4
144
1.0
145
0.0
146
1.0
147
0.625
 71
1.0
 72
0.0
 73
0
 74
0
 75
0
 76
0
 77
1
 78
8
170
0
171
2
172
0
173
0
174
0
175
0
176
0
177
0
178
0
270
2
271
3
272
3
273
2
274
2
275
0
280
0
281
0
282
0
283
1
284
8
285
0
286
0
287
3
288
0
340
11
278
46
341
22C
342
22C
343
22C
344
22C
  0
DIMSTYLE
105
230
100
AcDbSymbolTableRecord
100
AcDbDimStyleTableRecord
  2
DIMSTYLE_1
 70
0
  3

  4

 40
1.0
 41
3.0
 42
0.5
 43
0.38
 44
0.5
 45
0.0
 46
0.0
 47
0.001
 48
0.001
140
1.8
141
0.09
142
0.0
143
25.4
144
1.0
145
0.0
146
1.0
147
0.45
 71
0.0
 72
0.0
 73
0
 74
0
 75
0
 76
0
 77
1
 78
8
170
0
171
2
172
0
173
0
174
0
175
0
176
0
177
0
178
0
270
2
271
3
272
3
273
2
274
2
275
0
280
0
281
0
282
0
283
1
284
8
285
0
286
0
287
3
288
0
340
11
278
46
341
22C
342
22C
343
22C
344
22C
  0
DIMSTYLE
105
231
100
AcDbSymbolTableRecord
100
AcDbDimStyleTableRecord
  2
DIMSTYLE_2
 70
0
  3

  4

 40
1.0
 41
3.0
 42
0.5
 43
0.38
 44
0.5
 45
0.0
 46
0.0
 47
0.001
 48
0.001
140
1.8
141
0.09
142
0.0
143
25.4
144
1.0
145
0.0
146
1.0
147
0.45
 71
0.0
 72
0.0
 73
0
 74
0
 75
0
 76
0
 77
1
 78
8
170
0
171
2
172
0
173
0
174
0
175
0
176
0
177
0
178
0
270
2
271
0
272
0
273
2
274
2
275
0
280
0
281
0
282
0
283
1
284
8
285
0
286
0
287
3
288
0
340
11
278
46
341
22C
342
22C
343
22C
344
22C
  0
ENDTAB
  0
ENDSEC
  0
SECTION
  2
BLOCKS
  0
BLOCK
  5
20
100
AcDbEntity
  8
0
100
AcDbBlockBegin
  2
*Model_Space
 70
0
 10
0.0
 20
0.0
 30
0.0
  3
*Model_Space
  1

  0
ENDBLK
  5
21
100
AcDbEntity
  8
0
100
AcDbBlockEnd
  0
BLOCK
  5
1C
100
AcDbEntity
  8
0
100
AcDbBlockBegin
  2
*Paper_Space
 70
0
 10
0.0
 20
0.0
 30
0.0
  3
*Paper_Space
  1

  0
ENDBLK
  5
1D
100
AcDbEntity
  8
0
100
AcDbBlockEnd
  0
BLOCK
  5
232
100
AcDbEntity
  8
0
100
AcDbBlockBegin
  2
_FILLED
 70
64
 10
0.0
 20
0.0
  3
_FILLED
  1

  0
SOLID
  5
233
100
AcDbEntity
  8
0
  6
BYBLOCK
 62
0
100
AcDbTrace
 10
0.0
 20
0.0
 11
-1.0
 21
0.1666666667
 12
-1.0
 22
-0.1666666667
 13
-1.0
 23
-0.1666666667
  0
ENDBLK
  5
234
100
AcDbEntity
  8
0
  6
BYBLOCK
 62
0
100
AcDbBlockEnd
  0
BLOCK
  5
235
100
AcDbEntity
  8
0
100
AcDbBlockBegin
 62
2
  6
CONTINUOUS
  2
*D0
 70
65
 10
0.0
 20
0.0
  3
*D0
  1

  0
MTEXT
  5
236
100
AcDbEntity
  8
0
100
AcDbMText
 62
2
  6
CONTINUOUS
  7
STANDARD
 71
2
 72
1
 10
149.4567676026
 20
230.9883745187
 30
0.0
 11
0.0
 21
1.0
 31
0.0
 44
0.9
  1
330.25
 40
1.8
 41
16.6628571429
  0
LINE
  5
237
100
AcDbEntity
  8
0
100
AcDbLine
 62
2
  6
CONTINUOUS
 10
347.1312101051
 20
396.1133745187
 11
151.528196174
 21
396.1133745187
  0
LINE
  5
238
100
AcDbEntity
  8
0
100
AcDbLine
 62
2
  6
CONTINUOUS
 10
191.6312101051
 20
65.8633745187
 11
151.528196174
 21
65.8633745187
  0
LINE
  5
239
100
AcDbEntity
  8
0
100
AcDbLine
 62
2
  6
CONTINUOUS
 10
152.028196174
 20
396.1133745187
 11
152.028196174
 21
230.9883745187
  0
LINE
  5
23A
100
AcDbEntity
  8
0
100
AcDbLine
 62
2
  6
CONTINUOUS
 10
152.028196174
 20
65.8633745187
 11
152.028196174
 21
230.9883745187
  0
INSERT
  5
23B
100
AcDbEntity
  8
0
100
AcDbBlockReference
 62
2
  6
CONTINUOUS
  2
_FILLED
 10
152.028196174
 20
396.1133745187
 41
3.0
 42
3.0
 43
3.0
 50
90.0
  0
INSERT
  5
23C
100
AcDbEntity
  8
0
100
AcDbBlockReference
 62
2
  6
CONTINUOUS
  2
_FILLED
 10
152.028196174
 20
65.8633745187
 41
3.0
 42
3.0
 43
3.0
 50
270.0
  0
ENDBLK
  5
23D
100
AcDbEntity
  8
0
  6
BYBLOCK
 62
0
100
AcDbBlockEnd
  0
BLOCK
  5
23E
100
AcDbEntity
  8
0
100
AcDbBlockBegin
 62
2
  6
CONTINUOUS
  2
*D1
 70
65
 10
0.0
 20
0.0
  3
*D1
  1

  0
MTEXT
  5
23F
100
AcDbEntity
  8
0
100
AcDbMText
 62
2
  6
CONTINUOUS
  7
STANDARD
 71
2
 72
1
 10
330.7535238845
 20
36.1233106167
 30
0.0
 11
1.0
 21
0.0
 31
0.0
 44
0.9
  1
289
 40
1.8
 41
8.3314285714
  0
LINE
  5
240
100
AcDbEntity
  8
0
100
AcDbLine
 62
2
  6
CONTINUOUS
 10
170.1312101051
 20
77.3633719609
 11
170.1312101051
 21
33.0518820453
  0
LINE
  5
241
100
AcDbEntity
  8
0
100
AcDbLine
 62
2
  6
CONTINUOUS
 10
459.1677494286
 20
281.0746086355
 11
459.1677494286
 21
33.0518820453
  0
LINE
  5
242
100
AcDbEntity
  8
0
100
AcDbLine
 62
2
  6
CONTINUOUS
 10
170.1312101051
 20
33.5518820453
 11
314.6494797669
 21
33.5518820453
  0
LINE
  5
243
100
AcDbEntity
  8
0
100
AcDbLine
 62
2
  6
CONTINUOUS
 10
459.1677494286
 20
33.5518820453
 11
314.6494797669
 21
33.5518820453
  0
INSERT
  5
244
100
AcDbEntity
  8
0
100
AcDbBlockReference
 62
2
  6
CONTINUOUS
  2
_FILLED
 10
170.1312101051
 20
33.5518820453
 41
3.0
 42
3.0
 43
3.0
 50
180.0
  0
INSERT
  5
245
100
AcDbEntity
  8
0
100
AcDbBlockReference
 62
2
  6
CONTINUOUS
  2
_FILLED
 10
459.1677494286
 20
33.5518820453
 41
3.0
 42
3.0
 43
3.0
  0
ENDBLK
  5
246
100
AcDbEntity
  8
0
  6
BYBLOCK
 62
0
100
AcDbBlockEnd
  0
ENDSEC
  0
SECTION
  2
ENTITIES
  0
DIMENSION
  5
247
100
AcDbEntity
  8
0
100
AcDbDimension
 62
2
  6
CONTINUOUS
  2
*D0
 10
152.028196174
 20
65.8633745187
 11
152.028196174
 21
230.9883745187
 70
160
 71
2
 42
330.25
  3
DIMSTYLE_1
100
AcDbAlignedDimension
 13
347.6312101051
 23
396.1133745187
 14
192.1312101051
 24
65.8633745187
 50
270.0
100
AcDbRotatedDimension
  0
DIMENSION
  5
248
100
AcDbEntity
  8
0
100
AcDbDimension
 62
2
  6
CONTINUOUS
  2
*D1
 10
459.1677494286
 20
33.5518820453
 11
330.7535238845
 21
33.5518820453
 70
160
 71
2
 42
289.0365393235
  3
DIMSTYLE_2
100
AcDbAlignedDimension
 13
170.1312101051
 23
77.8633719609
 14
459.1677494286
 24
281.5746086355
100
AcDbRotatedDimension
  0
LINE
  5
249
100
AcDbEntity
  8
1-2_1
100
AcDbLine
 62
7
  6
CONTINUOUS
 10
176.4812101051
 20
76.8633745187
 11
176.4702693988
 21
76.8728333521
  0
LINE
  5
24A
100
AcDbEntity
  8
1-2_1
100
AcDbLine
 62
7
  6
CONTINUOUS
 10
174.8812101051
 20
76.8633745187
 11
174.8701979291
 21
76.8729573151
  0
LINE
  5
24B
100
AcDbEntity
  8
1-2_1
100
AcDbLine
 62
7
  6
CONTINUOUS
 10
178.0812101051
 20
76.8633745187
 11
178.0701746981
 21
76.8729977828
  0
LINE
  5
24C
100
AcDbEntity
  8
1-2_1
100
AcDbLine
 62
7
  6
CONTINUOUS
 10
181.2812101051
 20
76.8633745187
 11
181.270153371
 21
76.8730350087
  0
LINE
  5
24D
100
AcDbEntity
  8
1-2_1
100
AcDbLine
 62
7
  6
CONTINUOUS
 10
173.2812101051
 20
76.8633745187
 11
173.2701462295
 21
76.8730474901
  0
LINE
  5
24E
100
AcDbEntity
  8
1-2_1
100
AcDbLine
 62
7
  6
CONTINUOUS
 10
171.6812100932
 20
76.8633745187
 11
171.6701367204
 21
76.8730640992
  0
LINE
  5
24F
100
AcDbEntity
  8
1-2_1
100
AcDbLine
 62
7
  6
CONTINUOUS
 10
179.6812101051
 20
76.8633745187
 11
179.670134305
 21
76.873068349
  0
LINE
  5
250
100
AcDbEntity
  8
1-2_1
100
AcDbLine
 62
7
  6
CONTINUOUS
 10
170.5289332623
 20
77.4656486938
 11
170.1312101051
 21
77.8633719609
  0
LINE
  5
251
100
AcDbEntity
  8
1-2_1
100
AcDbLine
 62
7
  6
CONTINUOUS
 10
175.7812101051
 20
97.3633745187
 11
175.7920377751
 21
97.3541100868
  0
LINE
  5
252
100
AcDbEntity
  8
1-2_1
100
AcDbLine
 62
7
  6
CONTINUOUS
 10
189.2811934148
 20
76.8633745187
 11
189.2703973122
 21
76.8726313904
  0
LINE
  5
253
100
AcDbEntity
  8
1-2_1
100
AcDbLine
 62
7
  6
CONTINUOUS
 10
190.8812101051
 20
76.8633745187
 11
190.8703487922
 21
76.8726965911
  0
LINE
  5
254
100
AcDbEntity
  8
1-2_1
100
AcDbLine
 62
7
  6
CONTINUOUS
 10
177.3812101051
 20
97.3633745187
 11
177.3920753786
 21
97.3540456475
  0
LINE
  5
255
100
AcDbEntity
  8
1-2_1
100
AcDbLine
 62
7
  6
CONTINUOUS
 10
178.9812101051
 20
97.3633745187
 11
178.9921416334
 21
97.353931546
  0
LINE
  5
256
100
AcDbEntity
  8
1-2_1
100
AcDbLine
 62
7
  6
CONTINUOUS
 10
184.4812101051
 20
76.8633745187
 11
184.4702645584
 21
76.8728417222
  0
LINE
  5
257
100
AcDbEntity
  8
1-2_1
100
AcDbLine
 62
7
  6
CONTINUOUS
 10
172.5812101051
 20
97.3633745187
 11
172.5922009934
 21
97.3538287298
  0
LINE
  5
258
100
AcDbEntity
  8
1-2_1
100
AcDbLine
 62
7
  6
CONTINUOUS
 10
182.8812101051
 20
76.8633745187
 11
182.8702103539
 21
76.8729357065
  0
LINE
  5
259
100
AcDbEntity
  8
1-2_1
100
AcDbLine
 62
7
  6
CONTINUOUS
 10
180.5812101051
 20
97.3633745187
 11
180.5922139586
 21
97.3538061991
  0
LINE
  5
25A
100
AcDbEntity
  8
1-2_1
100
AcDbLine
 62
7
  6
CONTINUOUS
 10
186.0812101051
 20
76.8633745187
 11
186.0701616701
 21
76.8730205143
  0
LINE
  5
25B
100
AcDbEntity
  8
1-2_1
100
AcDbLine
 62
7
  6
CONTINUOUS
 10
174.1812101051
 20
97.3633745187
 11
174.1922613229
 21
97.3537236642
  0
LINE
  5
25C
100
AcDbEntity
  8
1-2_1
100
AcDbLine
 62
7
  6
CONTINUOUS
 10
187.6812101051
 20
76.8633745187
 11
187.6701339726
 21
76.8730689307
  0
LINE
  5
25D
100
AcDbEntity
  8
1-2_1
100
AcDbLine
 62
7
  6
CONTINUOUS
 10
172.5185563089
 20
78.1738131789
 11
172.5311510966
 21
78.1520256825
  0
LINE
  5
25E
100
AcDbEntity
  8
1-2_1
100
AcDbLine
 62
7
  6
CONTINUOUS
 10
172.5311510966
 20
78.1520256825
 11
173.2703955608
 21
76.8730477592
  0
LINE
  5
25F
100
AcDbEntity
  8
1-2_1
100
AcDbLine
 62
7
  6
CONTINUOUS
 10
174.1186025124
 20
78.173882752
 11
174.1312164986
 21
78.1520622129
  0
LINE
  5
260
100
AcDbEntity
  8
1-2_1
100
AcDbLine
 62
7
  6
CONTINUOUS
 10
174.1312164986
 20
78.1520622129
 11
174.8705395477
 21
76.872957682
  0
LINE
  5
261
100
AcDbEntity
  8
1-2_1
100
AcDbLine
 62
7
  6
CONTINUOUS
 10
175.7186712844
 20
78.1738206834
 11
175.7312798014
 21
78.1520094535
  0
LINE
  5
262
100
AcDbEntity
  8
1-2_1
100
AcDbLine
 62
7
  6
CONTINUOUS
 10
175.7312798014
 20
78.1520094535
 11
176.4706387463
 21
76.8728337462
  0
LINE
  5
263
100
AcDbEntity
  8
1-2_1
100
AcDbLine
 62
7
  6
CONTINUOUS
 10
178.9185505331
 20
78.1736688004
 11
178.9311118246
 21
78.1519388994
  0
LINE
  5
264
100
AcDbEntity
  8
1-2_1
100
AcDbLine
 62
7
  6
CONTINUOUS
 10
178.9311118246
 20
78.1519388994
 11
179.6702826466
 21
76.8730685092
  0
LINE
  5
265
100
AcDbEntity
  8
1-2_1
100
AcDbLine
 62
7
  6
CONTINUOUS
 10
170.1436617501
 20
96.0531607612
 11
170.1312101051
 21
96.0747007786
  0
LINE
  5
266
100
AcDbEntity
  8
1-2_1
100
AcDbLine
 62
7
  6
CONTINUOUS
 10
180.5185622333
 20
78.1738360553
 11
180.5311624884
 21
78.1520391564
  0
LINE
  5
267
100
AcDbEntity
  8
1-2_1
100
AcDbLine
 62
7
  6
CONTINUOUS
 10
180.5311624884
 20
78.1520391564
 11
181.2704237506
 21
76.8730353003
  0
LINE
  5
268
100
AcDbEntity
  8
1-2_1
100
AcDbLine
 62
7
  6
CONTINUOUS
 10
171.7437263491
 20
96.0529723835
 11
171.7311245952
 21
96.0747720354
  0
LINE
  5
269
100
AcDbEntity
  8
1-2_1
100
AcDbLine
 62
7
  6
CONTINUOUS
 10
171.7311245952
 20
96.0747720354
 11
171.0428670833
 21
97.2655312139
  0
LINE
  5
26A
100
AcDbEntity
  8
1-2_1
100
AcDbLine
 62
7
  6
CONTINUOUS
 10
182.1186141837
 20
78.1738824728
 11
182.1312291222
 21
78.1520602855
  0
LINE
  5
26B
100
AcDbEntity
  8
1-2_1
100
AcDbLine
 62
7
  6
CONTINUOUS
 10
182.1312291222
 20
78.1520602855
 11
182.8705634772
 21
76.8729360854
  0
LINE
  5
26C
100
AcDbEntity
  8
1-2_1
100
AcDbLine
 62
7
  6
CONTINUOUS
 10
173.3437975828
 20
96.0528718104
 11
173.3311826593
 21
96.0746939987
  0
LINE
  5
26D
100
AcDbEntity
  8
1-2_1
100
AcDbLine
 62
7
  6
CONTINUOUS
 10
173.3311826593
 20
96.0746939987
 11
172.5918428856
 21
97.3538283459
  0
LINE
  5
26E
100
AcDbEntity
  8
1-2_1
100
AcDbLine
 62
7
  6
CONTINUOUS
 10
174.9438532278
 20
96.0529001645
 11
174.9312498121
 21
96.074702514
  0
LINE
  5
26F
100
AcDbEntity
  8
1-2_1
100
AcDbLine
 62
7
  6
CONTINUOUS
 10
174.9312498121
 20
96.074702514
 11
174.1919777133
 21
97.3537233585
  0
LINE
  5
270
100
AcDbEntity
  8
1-2_1
100
AcDbLine
 62
7
  6
CONTINUOUS
 10
170.9185545684
 20
78.1736267778
 11
171.6702614538
 21
76.8730642339
  0
LINE
  5
271
100
AcDbEntity
  8
1-2_1
100
AcDbLine
 62
7
  6
CONTINUOUS
 10
177.3186002585
 20
78.1734226362
 11
178.0702109887
 21
76.8729978218
  0
LINE
  5
272
100
AcDbEntity
  8
1-2_1
100
AcDbLine
 62
7
  6
CONTINUOUS
 10
183.7186960043
 20
78.1732220931
 11
184.4702646531
 21
76.8728417223
  0
LINE
  5
273
100
AcDbEntity
  8
1-2_1
100
AcDbLine
 62
7
  6
CONTINUOUS
 10
185.3185853387
 20
78.1734716979
 11
186.0702152482
 21
76.873020572
  0
LINE
  5
274
100
AcDbEntity
  8
1-2_1
100
AcDbLine
 62
7
  6
CONTINUOUS
 10
190.1812101051
 20
97.3633745187
 11
190.1920382618
 21
97.3541092658
  0
LINE
  5
275
100
AcDbEntity
  8
1-2_1
100
AcDbLine
 62
7
  6
CONTINUOUS
 10
183.7812101051
 20
97.3633745187
 11
183.7920416114
 21
97.3541035333
  0
LINE
  5
276
100
AcDbEntity
  8
1-2_1
100
AcDbLine
 62
7
  6
CONTINUOUS
 10
182.1812101051
 20
97.3633745187
 11
182.1920429519
 21
97.3541012328
  0
LINE
  5
277
100
AcDbEntity
  8
1-2_1
100
AcDbLine
 62
7
  6
CONTINUOUS
 10
185.3812101051
 20
97.3633745187
 11
185.3920862891
 21
97.3540269056
  0
LINE
  5
278
100
AcDbEntity
  8
1-2_1
100
AcDbLine
 62
7
  6
CONTINUOUS
 10
188.5812101051
 20
97.3633745187
 11
188.5920915909
 21
97.3540177914
  0
LINE
  5
279
100
AcDbEntity
  8
1-2_1
100
AcDbLine
 62
7
  6
CONTINUOUS
 10
186.9812101051
 20
97.3633745187
 11
186.9921554235
 21
97.3539077092
  0
LINE
  5
27A
100
AcDbEntity
  8
1-2_1
100
AcDbLine
 62
7
  6
CONTINUOUS
 10
186.9185486621
 20
78.173707953
 11
186.9311190837
 21
78.1519623523
  0
LINE
  5
27B
100
AcDbEntity
  8
1-2_1
100
AcDbLine
 62
7
  6
CONTINUOUS
 10
186.9311190837
 20
78.1519623523
 11
187.6703062309
 21
76.8730691167
  0
LINE
  5
27C
100
AcDbEntity
  8
1-2_1
100
AcDbLine
 62
7
  6
CONTINUOUS
 10
179.7437398597
 20
96.0529446928
 11
179.7311337647
 21
96.0747517869
  0
LINE
  5
27D
100
AcDbEntity
  8
1-2_1
100
AcDbLine
 62
7
  6
CONTINUOUS
 10
179.7311337647
 20
96.0747517869
 11
178.9917740446
 21
97.3539311541
  0
LINE
  5
27E
100
AcDbEntity
  8
1-2_1
100
AcDbLine
 62
7
  6
CONTINUOUS
 10
181.3438098789
 20
96.0528669279
 11
181.3311952326
 21
96.0746886247
  0
LINE
  5
27F
100
AcDbEntity
  8
1-2_1
100
AcDbLine
 62
7
  6
CONTINUOUS
 10
181.3311952326
 20
96.0746886247
 11
180.5918649329
 21
97.3538058245
  0
LINE
  5
280
100
AcDbEntity
  8
1-2_1
100
AcDbLine
 62
7
  6
CONTINUOUS
 10
187.7437534637
 20
96.0529208159
 11
187.7311438886
 21
96.0747338721
  0
LINE
  5
281
100
AcDbEntity
  8
1-2_1
100
AcDbLine
 62
7
  6
CONTINUOUS
 10
187.7311438886
 20
96.0747338721
 11
186.9917856214
 21
97.3539073144
  0
LINE
  5
282
100
AcDbEntity
  8
1-2_1
100
AcDbLine
 62
7
  6
CONTINUOUS
 10
176.5436299343
 20
96.0533576429
 11
175.7918336922
 21
97.3541098713
  0
LINE
  5
283
100
AcDbEntity
  8
1-2_1
100
AcDbLine
 62
7
  6
CONTINUOUS
 10
178.143672479
 20
96.0531281463
 11
177.3917619899
 21
97.3540453154
  0
LINE
  5
284
100
AcDbEntity
  8
1-2_1
100
AcDbLine
 62
7
  6
CONTINUOUS
 10
188.5187977325
 20
78.1733141808
 11
189.1092305496
 21
77.1517720853
  0
LINE
  5
285
100
AcDbEntity
  8
1-2_1
100
AcDbLine
 62
7
  6
CONTINUOUS
 10
189.1092305496
 20
77.1517720853
 11
189.2705474574
 21
76.8726315486
  0
LINE
  5
286
100
AcDbEntity
  8
1-2_1
100
AcDbLine
 62
7
  6
CONTINUOUS
 10
190.1187696548
 20
78.1731766251
 11
190.8703913705
 21
76.8726966362
  0
LINE
  5
287
100
AcDbEntity
  8
1-2_1
100
AcDbLine
 62
7
  6
CONTINUOUS
 10
182.9436282455
 20
96.0535144547
 11
182.1919404044
 21
97.3541011245
  0
LINE
  5
288
100
AcDbEntity
  8
1-2_1
100
AcDbLine
 62
7
  6
CONTINUOUS
 10
184.543634995
 20
96.0533147167
 11
183.7918142247
 21
97.3541032931
  0
LINE
  5
289
100
AcDbEntity
  8
1-2_1
100
AcDbLine
 62
7
  6
CONTINUOUS
 10
186.1436838834
 20
96.053087997
 11
185.3917577006
 21
97.354026557
  0
LINE
  5
28A
100
AcDbEntity
  8
1-2_1
100
AcDbLine
 62
7
  6
CONTINUOUS
 10
189.3436676671
 20
96.0535774739
 11
188.5920691204
 21
97.3540177676
  0
LINE
  5
28B
100
AcDbEntity
  8
1-2_1
100
AcDbLine
 62
7
  6
CONTINUOUS
 10
190.9436253566
 20
96.0534840342
 11
190.1919128681
 21
97.3541091333
  0
LINE
  5
28C
100
AcDbEntity
  8
DZ_4
100
AcDbLine
 62
7
  6
CONTINUOUS
 10
200.1312101051
 20
65.8633745187
 11
192.1312101051
 21
65.8633745187
  0
LINE
  5
28D
100
AcDbEntity
  8
SB_3
100
AcDbLine
 62
7
  6
CONTINUOUS
 10
304.1312101051
 20
70.1133745187
 11
317.1312101051
 21
70.1133745187
  0
LINE
  5
28E
100
AcDbEntity
  8
03__ASM_ALL_CURVES
100
AcDbLine
 62
40
  6
CONTINUOUS
 10
217.9269243749
 20
86.3835952697
 11
218.9254528742
 21
84.9449509142
  0
LINE
  5
28F
100
AcDbEntity
  8
03__ASM_ALL_CURVES
100
AcDbLine
 62
40
  6
CONTINUOUS
 10
219.0269981454
 20
85.4587216311
 11
217.9174260927
 21
87.0852592775
  0
LINE
  5
290
100
AcDbEntity
  8
03__ASM_ALL_CURVES
100
AcDbLine
 62
40
  6
CONTINUOUS
 10
209.582165407
 20
84.7854661219
 11
209.0553561391
 21
85.7169022099
  0
LINE
  5
291
100
AcDbEntity
  8
03__ASM_ALL_CURVES
100
AcDbLine
 62
40
  6
CONTINUOUS
 10
208.650729319
 20
85.6343535031
 11
209.0171903144
 21
84.9163697197
  0
LINE
  5
292
100
AcDbEntity
  8
1-2_1
100
AcDbLine
 62
7
  6
CONTINUOUS
 10
170.1312101051
 20
96.0736867155
 11
170.1312101051
 21
77.8633719609
  0
LINE
  5
293
100
AcDbEntity
  8
1-2_1
100
AcDbLine
 62
7
  6
CONTINUOUS
 10
170.1312099985
 20
96.0747007786
 11
170.1312099985
 21
96.3633765436
  0
LINE
  5
294
100
AcDbEntity
  8
102421-03_1
100
AcDbLine
 62
7
  6
CONTINUOUS
 10
292.6312101051
 20
72.0633745187
 11
272.6312101051
 21
72.0633745187
  0
LINE
  5
295
100
AcDbEntity
  8
PC04_ASM_7
100
AcDbLine
 62
7
  6
CONTINUOUS
 10
272.6312101051
 20
72.3133745187
 11
200.1312101051
 21
72.3133745187
  0
LINE
  5
296
100
AcDbEntity
  8
1-2_1
100
AcDbLine
 62
7
  6
CONTINUOUS
 10
190.9812101051
 20
76.8633745187
 11
190.8812101051
 21
76.8633745187
  0
LINE
  5
297
100
AcDbEntity
  8
1-2_1
100
AcDbLine
 62
7
  6
CONTINUOUS
 10
189.3812101051
 20
76.8633745187
 11
189.2811934148
 21
76.8633745187
  0
LINE
  5
298
100
AcDbEntity
  8
1-2_1
100
AcDbLine
 62
7
  6
CONTINUOUS
 10
187.7812101051
 20
76.8633745187
 11
187.6812101051
 21
76.8633745187
  0
LINE
  5
299
100
AcDbEntity
  8
1-2_1
100
AcDbLine
 62
7
  6
CONTINUOUS
 10
186.1812101051
 20
76.8633745187
 11
186.0812101051
 21
76.8633745187
  0
LINE
  5
29A
100
AcDbEntity
  8
1-2_1
100
AcDbLine
 62
7
  6
CONTINUOUS
 10
184.5812101051
 20
76.8633745187
 11
184.4812101051
 21
76.8633745187
  0
LINE
  5
29B
100
AcDbEntity
  8
1-2_1
100
AcDbLine
 62
7
  6
CONTINUOUS
 10
182.9812101051
 20
76.8633745187
 11
182.8812101051
 21
76.8633745187
  0
LINE
  5
29C
100
AcDbEntity
  8
1-2_1
100
AcDbLine
 62
7
  6
CONTINUOUS
 10
181.3812101051
 20
76.8633745187
 11
181.2812101051
 21
76.8633745187
  0
LINE
  5
29D
100
AcDbEntity
  8
1-2_1
100
AcDbLine
 62
7
  6
CONTINUOUS
 10
179.7812101051
 20
76.8633745187
 11
179.6812101051
 21
76.8633745187
  0
LINE
  5
29E
100
AcDbEntity
  8
1-2_1
100
AcDbLine
 62
7
  6
CONTINUOUS
 10
178.1812101051
 20
76.8633745187
 11
178.0812101051
 21
76.8633745187
  0
LINE
  5
29F
100
AcDbEntity
  8
1-2_1
100
AcDbLine
 62
7
  6
CONTINUOUS
 10
176.5812101051
 20
76.8633745187
 11
176.4812101051
 21
76.8633745187
  0
LINE
  5
2A0
100
AcDbEntity
  8
1-2_1
100
AcDbLine
 62
7
  6
CONTINUOUS
 10
174.9812101051
 20
76.8633745187
 11
174.8812101051
 21
76.8633745187
  0
LINE
  5
2A1
100
AcDbEntity
  8
1-2_1
100
AcDbLine
 62
7
  6
CONTINUOUS
 10
173.3812101051
 20
76.8633745187
 11
173.2812101051
 21
76.8633745187
  0
LINE
  5
2A2
100
AcDbEntity
  8
1-2_1
100
AcDbLine
 62
7
  6
CONTINUOUS
 10
171.6812100932
 20
76.8633745187
 11
171.7812101087
 21
76.8633745187
  0
LINE
  5
2A3
100
AcDbEntity
  8
SB_3
100
AcDbLine
 62
7
  6
CONTINUOUS
 10
302.6312101051
 20
80.1133745187
 11
297.9183018502
 21
80.1133745187
  0
LINE
  5
2A4
100
AcDbEntity
  8
SB_3
100
AcDbLine
 62
7
  6
CONTINUOUS
 10
293.3351594927
 20
80.1133745187
 11
292.6312101051
 21
80.1133745187
  0
LINE
  5
2A5
100
AcDbEntity
  8
M5-6_1
100
AcDbLine
 62
7
  6
CONTINUOUS
 10
293.3443256211
 20
80.1133745187
 11
297.908749221
 21
80.1133745187
  0
LINE
  5
2A6
100
AcDbEntity
  8
03__ASM_ALL_CURVES
100
AcDbLine
 62
40
  6
CONTINUOUS
 10
204.9785207389
 20
83.5163229289
 11
227.8479664416
 21
83.5163229289
  0
LINE
  5
2A7
100
AcDbEntity
  8
03__ASM_ALL_CURVES
100
AcDbLine
 62
40
  6
CONTINUOUS
 10
227.0119449153
 20
84.7854661219
 11
226.7023009168
 21
84.7854661219
  0
LINE
  5
2A8
100
AcDbEntity
  8
03__ASM_ALL_CURVES
100
AcDbLine
 62
40
  6
CONTINUOUS
 10
224.5622515976
 20
84.7854661219
 11
224.3163324376
 21
84.7854661219
  0
LINE
  5
2A9
100
AcDbEntity
  8
03__ASM_ALL_CURVES
100
AcDbLine
 62
40
  6
CONTINUOUS
 10
225.2575258519
 20
84.7854661219
 11
224.8074799734
 21
84.7854661219
  0
LINE
  5
2AA
100
AcDbEntity
  8
03__ASM_ALL_CURVES
100
AcDbLine
 62
40
  6
CONTINUOUS
 10
223.0430445397
 20
84.7854661219
 11
222.8009246926
 21
84.7854661219
  0
LINE
  5
2AB
100
AcDbEntity
  8
03__ASM_ALL_CURVES
100
AcDbLine
 62
40
  6
CONTINUOUS
 10
220.8076670068
 20
84.7854661219
 11
220.5299717755
 21
84.7854661219
  0
LINE
  5
2AC
100
AcDbEntity
  8
03__ASM_ALL_CURVES
100
AcDbLine
 62
40
  6
CONTINUOUS
 10
211.8692654038
 20
84.7854661219
 11
211.5594487092
 21
84.7854661219
  0
LINE
  5
2AD
100
AcDbEntity
  8
03__ASM_ALL_CURVES
100
AcDbLine
 62
40
  6
CONTINUOUS
 10
210.1145009482
 20
84.7854661219
 11
209.6646277658
 21
84.7854661219
  0
LINE
  5
2AE
100
AcDbEntity
  8
03__ASM_ALL_CURVES
100
AcDbLine
 62
40
  6
CONTINUOUS
 10
207.0140889544
 20
84.7854661219
 11
206.7364800712
 21
84.7854661219
  0
LINE
  5
2AF
100
AcDbEntity
  8
03__ASM_ALL_CURVES
100
AcDbLine
 62
40
  6
CONTINUOUS
 10
208.0990518214
 20
84.7854661219
 11
208.3540375234
 21
84.7854661219
  0
LINE
  5
2B0
100
AcDbEntity
  8
03__ASM_ALL_CURVES
100
AcDbLine
 62
40
  6
CONTINUOUS
 10
209.2370323725
 20
84.7854661219
 11
209.582165407
 21
84.7854661219
  0
LINE
  5
2B1
100
AcDbEntity
  8
03__ASM_ALL_CURVES
100
AcDbLine
 62
40
  6
CONTINUOUS
 10
211.9936065521
 20
84.7854661219
 11
212.4275916989
 21
84.7854661219
  0
LINE
  5
2B2
100
AcDbEntity
  8
03__ASM_ALL_CURVES
100
AcDbLine
 62
40
  6
CONTINUOUS
 10
214.4433862178
 20
84.7854661219
 11
214.7084746382
 21
84.7854661219
  0
LINE
  5
2B3
100
AcDbEntity
  8
03__ASM_ALL_CURVES
100
AcDbLine
 62
40
  6
CONTINUOUS
 10
217.6846318317
 20
84.7854661219
 11
217.9269243749
 21
84.7854661219
  0
LINE
  5
2B4
100
AcDbEntity
  8
03__ASM_ALL_CURVES
100
AcDbLine
 62
40
  6
CONTINUOUS
 10
219.1995214886
 20
84.7854661219
 11
219.4452679526
 21
84.7854661219
  0
LINE
  5
2B5
100
AcDbEntity
  8
03__ASM_ALL_CURVES
100
AcDbLine
 62
40
  6
CONTINUOUS
 10
221.9108493059
 20
84.7854661219
 11
222.1883718411
 21
84.7854661219
  0
LINE
  5
2B6
100
AcDbEntity
  8
03__ASM_ALL_CURVES
100
AcDbLine
 62
40
  6
CONTINUOUS
 10
213.3268199756
 20
84.9768133334
 11
213.5342279188
 21
84.9768133334
  0
LINE
  5
2B7
100
AcDbEntity
  8
03__ASM_ALL_CURVES
100
AcDbLine
 62
40
  6
CONTINUOUS
 10
226.3672706005
 20
85.2926743893
 11
225.4362662526
 21
85.2926743893
  0
LINE
  5
2B8
100
AcDbEntity
  8
03__ASM_ALL_CURVES
100
AcDbLine
 62
40
  6
CONTINUOUS
 10
211.2243320449
 20
85.2926743893
 11
210.2930686529
 21
85.2926743893
  0
LINE
  5
2B9
100
AcDbEntity
  8
03__ASM_ALL_CURVES
100
AcDbLine
 62
40
  6
CONTINUOUS
 10
208.3540375234
 20
85.6343535031
 11
208.650729319
 21
85.6343535031
  0
LINE
  5
2BA
100
AcDbEntity
  8
03__ASM_ALL_CURVES
100
AcDbLine
 62
40
  6
CONTINUOUS
 10
226.2235874958
 20
85.6944517248
 11
225.5796039652
 21
85.6944517248
  0
LINE
  5
2BB
100
AcDbEntity
  8
03__ASM_ALL_CURVES
100
AcDbLine
 62
40
  6
CONTINUOUS
 10
211.0810806803
 20
85.6944517248
 11
210.4368381056
 21
85.6944517248
  0
LINE
  5
2BC
100
AcDbEntity
  8
03__ASM_ALL_CURVES
100
AcDbLine
 62
40
  6
CONTINUOUS
 10
208.6539241957
 20
86.0260281203
 11
208.3540375234
 21
86.0260281203
  0
LINE
  5
2BD
100
AcDbEntity
  8
03__ASM_ALL_CURVES
100
AcDbLine
 62
40
  6
CONTINUOUS
 10
224.0422638232
 20
84.9449509142
 11
223.0430445397
 21
86.3835952697
  0
LINE
  5
2BE
100
AcDbEntity
  8
03__ASM_ALL_CURVES
100
AcDbLine
 62
40
  6
CONTINUOUS
 10
224.1439817903
 20
85.4587216311
 11
223.0338916496
 21
87.0852592775
  0
LINE
  5
2BF
100
AcDbEntity
  8
03__ASM_ALL_CURVES
100
AcDbLine
 62
40
  6
CONTINUOUS
 10
210.9820395018
 20
87.0852592775
 11
211.8692654038
 21
84.7854661219
  0
LINE
  5
2C0
100
AcDbEntity
  8
03__ASM_ALL_CURVES
100
AcDbLine
 62
40
  6
CONTINUOUS
 10
212.63465425
 20
86.3643396613
 11
213.1036103448
 21
85.1430332713
  0
LINE
  5
2C1
100
AcDbEntity
  8
03__ASM_ALL_CURVES
100
AcDbLine
 62
40
  6
CONTINUOUS
 10
213.3524653374
 20
85.5225328177
 11
212.7561459137
 21
87.0852592775
  0
LINE
  5
2C2
100
AcDbEntity
  8
03__ASM_ALL_CURVES
100
AcDbLine
 62
40
  6
CONTINUOUS
 10
211.2243320449
 20
85.2926743893
 11
211.352040766
 21
84.9420150815
  0
LINE
  5
2C3
100
AcDbEntity
  8
03__ASM_ALL_CURVES
100
AcDbLine
 62
40
  6
CONTINUOUS
 10
210.7587435229
 20
86.5910032129
 11
211.0810806803
 21
85.6944517248
  0
LINE
  5
2C4
100
AcDbEntity
  8
1-2_1
100
AcDbLine
 62
7
  6
CONTINUOUS
 10
171.1312072708
 20
95.636001427
 11
171.1312072708
 21
92.8080642658
  0
LINE
  5
2C5
100
AcDbEntity
  8
03__ASM_ALL_CURVES
100
AcDbLine
 62
40
  6
CONTINUOUS
 10
221.4424976473
 20
86.6741563559
 11
220.8076670068
 21
86.6741563559
  0
LINE
  5
2C6
100
AcDbEntity
  8
03__ASM_ALL_CURVES
100
AcDbLine
 62
40
  6
CONTINUOUS
 10
220.3543399035
 20
86.6741563559
 11
219.895141135
 21
86.6741563559
  0
LINE
  5
2C7
100
AcDbEntity
  8
03__ASM_ALL_CURVES
100
AcDbLine
 62
40
  6
CONTINUOUS
 10
207.6489195949
 20
86.6741563559
 11
207.0140889544
 21
86.6741563559
  0
LINE
  5
2C8
100
AcDbEntity
  8
03__ASM_ALL_CURVES
100
AcDbLine
 62
40
  6
CONTINUOUS
 10
206.5608481992
 20
86.6741563559
 11
206.1015630826
 21
86.6741563559
  0
LINE
  5
2C9
100
AcDbEntity
  8
03__ASM_ALL_CURVES
100
AcDbLine
 62
40
  6
CONTINUOUS
 10
208.6539241957
 20
86.6900443915
 11
208.3540375234
 21
86.6900443915
  0
LINE
  5
2CA
100
AcDbEntity
  8
03__ASM_ALL_CURVES
100
AcDbLine
 62
40
  6
CONTINUOUS
 10
226.1254961455
 20
87.0852592775
 11
225.6880570779
 21
87.0852592775
  0
LINE
  5
2CB
100
AcDbEntity
  8
03__ASM_ALL_CURVES
100
AcDbLine
 62
40
  6
CONTINUOUS
 10
224.5622515976
 20
87.0852592775
 11
224.1439817903
 21
87.0852592775
  0
LINE
  5
2CC
100
AcDbEntity
  8
03__ASM_ALL_CURVES
100
AcDbLine
 62
40
  6
CONTINUOUS
 10
223.0338916496
 20
87.0852592775
 11
222.6258109087
 21
87.0852592775
  0
LINE
  5
2CD
100
AcDbEntity
  8
03__ASM_ALL_CURVES
100
AcDbLine
 62
40
  6
CONTINUOUS
 10
222.1883718411
 20
87.0852592775
 11
221.7360809141
 21
87.0852592775
  0
LINE
  5
2CE
100
AcDbEntity
  8
03__ASM_ALL_CURVES
100
AcDbLine
 62
40
  6
CONTINUOUS
 10
221.4424976473
 20
87.0852592775
 11
219.7196819591
 21
87.0852592775
  0
LINE
  5
2CF
100
AcDbEntity
  8
03__ASM_ALL_CURVES
100
AcDbLine
 62
40
  6
CONTINUOUS
 10
219.4452679526
 20
87.0852592775
 11
219.0269981454
 21
87.0852592775
  0
LINE
  5
2D0
100
AcDbEntity
  8
03__ASM_ALL_CURVES
100
AcDbLine
 62
40
  6
CONTINUOUS
 10
217.9174260927
 20
87.0852592775
 11
217.5086545677
 21
87.0852592775
  0
LINE
  5
2D1
100
AcDbEntity
  8
03__ASM_ALL_CURVES
100
AcDbLine
 62
40
  6
CONTINUOUS
 10
214.3509074887
 20
87.0852592775
 11
213.9490438053
 21
87.0852592775
  0
LINE
  5
2D2
100
AcDbEntity
  8
03__ASM_ALL_CURVES
100
AcDbLine
 62
40
  6
CONTINUOUS
 10
212.7561459137
 20
87.0852592775
 11
212.3508283094
 21
87.0852592775
  0
LINE
  5
2D3
100
AcDbEntity
  8
03__ASM_ALL_CURVES
100
AcDbLine
 62
40
  6
CONTINUOUS
 10
210.9820395018
 20
87.0852592775
 11
210.5452912183
 21
87.0852592775
  0
LINE
  5
2D4
100
AcDbEntity
  8
03__ASM_ALL_CURVES
100
AcDbLine
 62
40
  6
CONTINUOUS
 10
208.6920036724
 20
87.0852592775
 11
207.9234199494
 21
87.0852592775
  0
LINE
  5
2D5
100
AcDbEntity
  8
03__ASM_ALL_CURVES
100
AcDbLine
 62
40
  6
CONTINUOUS
 10
207.6489195949
 20
87.0852592775
 11
205.9260175587
 21
87.0852592775
  0
LINE
  5
2D6
100
AcDbEntity
  8
03__ASM_ALL_CURVES
100
AcDbLine
 62
40
  6
CONTINUOUS
 10
227.8479664416
 20
88.616382362
 11
204.9785207389
 21
88.616382362
  0
LINE
  5
2D7
100
AcDbEntity
  8
SB_3
100
AcDbLine
 62
7
  6
CONTINUOUS
 10
302.6312101051
 20
94.1133745187
 11
292.6312101051
 21
94.1133745187
  0
LINE
  5
2D8
100
AcDbEntity
  8
1-2_1
100
AcDbLine
 62
7
  6
CONTINUOUS
 10
190.1812101051
 20
97.3633745187
 11
190.0812101051
 21
97.3633745187
  0
LINE
  5
2D9
100
AcDbEntity
  8
1-2_1
100
AcDbLine
 62
7
  6
CONTINUOUS
 10
188.5812101051
 20
97.3633745187
 11
188.4812101051
 21
97.3633745187
  0
LINE
  5
2DA
100
AcDbEntity
  8
1-2_1
100
AcDbLine
 62
7
  6
CONTINUOUS
 10
186.9812101051
 20
97.3633745187
 11
186.8812101051
 21
97.3633745187
  0
LINE
  5
2DB
100
AcDbEntity
  8
1-2_1
100
AcDbLine
 62
7
  6
CONTINUOUS
 10
185.3812101051
 20
97.3633745187
 11
185.2812101051
 21
97.3633745187
  0
LINE
  5
2DC
100
AcDbEntity
  8
1-2_1
100
AcDbLine
 62
7
  6
CONTINUOUS
 10
183.7812101051
 20
97.3633745187
 11
183.6812101051
 21
97.3633745187
  0
LINE
  5
2DD
100
AcDbEntity
  8
1-2_1
100
AcDbLine
 62
7
  6
CONTINUOUS
 10
182.1812101051
 20
97.3633745187
 11
182.0812101051
 21
97.3633745187
  0
LINE
  5
2DE
100
AcDbEntity
  8
1-2_1
100
AcDbLine
 62
7
  6
CONTINUOUS
 10
180.5812101051
 20
97.3633745187
 11
180.4812101051
 21
97.3633745187
  0
LINE
  5
2DF
100
AcDbEntity
  8
1-2_1
100
AcDbLine
 62
7
  6
CONTINUOUS
 10
178.9812101051
 20
97.3633745187
 11
178.8812101051
 21
97.3633745187
  0
LINE
  5
2E0
100
AcDbEntity
  8
1-2_1
100
AcDbLine
 62
7
  6
CONTINUOUS
 10
177.3812101051
 20
97.3633745187
 11
177.2812101051
 21
97.3633745187
  0
LINE
  5
2E1
100
AcDbEntity
  8
1-2_1
100
AcDbLine
 62
7
  6
CONTINUOUS
 10
175.7812101051
 20
97.3633745187
 11
175.6812101051
 21
97.3633745187
  0
LINE
  5
2E2
100
AcDbEntity
  8
1-2_1
100
AcDbLine
 62
7
  6
CONTINUOUS
 10
174.1812101051
 20
97.3633745187
 11
174.0812101051
 21
97.3633745187
  0
LINE
  5
2E3
100
AcDbEntity
  8
1-2_1
100
AcDbLine
 62
7
  6
CONTINUOUS
 10
172.5812101051
 20
97.3633745187
 11
172.4812101051
 21
97.3633745187
  0
LINE
  5
2E4
100
AcDbEntity
  8
03__ASM_ALL_CURVES
100
AcDbLine
 62
40
  6
CONTINUOUS
 10
226.1254961455
 20
87.0852592775
 11
227.0119449153
 21
84.7854661219
  0
LINE
  5
2E5
100
AcDbEntity
  8
03__ASM_ALL_CURVES
100
AcDbLine
 62
40
  6
CONTINUOUS
 10
226.3672706005
 20
85.2926743893
 11
226.4954110617
 21
84.9420150815
  0
LINE
  5
2E6
100
AcDbEntity
  8
03__ASM_ALL_CURVES
100
AcDbLine
 62
40
  6
CONTINUOUS
 10
225.9016820785
 20
86.5910032129
 11
226.2235874958
 21
85.6944517248
  0
LINE
  5
2E7
100
AcDbEntity
  8
7-1_INST126_1
100
AcDbLine
 62
7
  6
CONTINUOUS
 10
191.3812101051
 20
69.3633745187
 11
191.3812101051
 21
104.8633745187
  0
LINE
  5
2E8
100
AcDbEntity
  8
DZ_4
100
AcDbLine
 62
7
  6
CONTINUOUS
 10
192.1312101051
 20
108.3631982585
 11
192.1312101051
 21
65.8635507788
  0
LINE
  5
2E9
100
AcDbEntity
  8
102421-03_1
100
AcDbLine
 62
7
  6
CONTINUOUS
 10
292.6312101051
 20
102.1633745187
 11
272.6312101051
 21
102.1633745187
  0
LINE
  5
2EA
100
AcDbEntity
  8
PC04_ASM_7
100
AcDbLine
 62
7
  6
CONTINUOUS
 10
272.6312101051
 20
102.3133745187
 11
264.6312101051
 21
102.3133745187
  0
LINE
  5
2EB
100
AcDbEntity
  8
PC04_ASM_7
100
AcDbLine
 62
7
  6
CONTINUOUS
 10
230.6312101051
 20
102.3133745187
 11
200.1312101051
 21
102.3133745187
  0
LINE
  5
2EC
100
AcDbEntity
  8
DZ_4
100
AcDbLine
 62
7
  6
CONTINUOUS
 10
200.1312101051
 20
108.3633745187
 11
192.1312101051
 21
108.3633745187
  0
LINE
  5
2ED
100
AcDbEntity
  8
03__ASM_ALL_CURVES
100
AcDbLine
 62
40
  6
CONTINUOUS
 10
214.7084746382
 20
84.7854661219
 11
214.3509074887
 21
87.0852592775
  0
LINE
  5
2EE
100
AcDbEntity
  8
03__ASM_ALL_CURVES
100
AcDbLine
 62
40
  6
CONTINUOUS
 10
214.0507617724
 20
86.3393850836
 11
214.2358919266
 21
84.9543628483
  0
LINE
  5
2EF
100
AcDbEntity
  8
DZ_4
100
AcDbLine
 62
7
  6
CONTINUOUS
 10
200.1312101051
 20
65.8635507788
 11
200.1312101051
 21
108.3631982585
  0
LINE
  5
2F0
100
AcDbEntity
  8
03__ASM_ALL_CURVES
100
AcDbLine
 62
40
  6
CONTINUOUS
 10
203.8812101051
 20
87.5190717282
 11
203.8812101051
 21
84.6133745187
  0
LINE
  5
2F1
100
AcDbEntity
  8
03__ASM_ALL_CURVES
100
AcDbLine
 62
40
  6
CONTINUOUS
 10
205.9260175587
 20
87.0852592775
 11
205.9260175587
 21
86.8491837917
  0
LINE
  5
2F2
100
AcDbEntity
  8
03__ASM_ALL_CURVES
100
AcDbLine
 62
40
  6
CONTINUOUS
 10
206.5608481992
 20
86.6741563559
 11
206.5608481992
 21
84.9610979939
  0
LINE
  5
2F3
100
AcDbEntity
  8
03__ASM_ALL_CURVES
100
AcDbLine
 62
40
  6
CONTINUOUS
 10
207.0140889544
 20
86.6741563559
 11
207.0140889544
 21
84.7854661219
  0
LINE
  5
2F4
100
AcDbEntity
  8
03__ASM_ALL_CURVES
100
AcDbLine
 62
40
  6
CONTINUOUS
 10
207.6489195949
 20
87.0852592775
 11
207.6489195949
 21
86.6741563559
  0
LINE
  5
2F5
100
AcDbEntity
  8
03__ASM_ALL_CURVES
100
AcDbLine
 62
40
  6
CONTINUOUS
 10
207.9234199494
 20
87.0852592775
 11
207.9234199494
 21
84.9610979939
  0
LINE
  5
2F6
100
AcDbEntity
  8
03__ASM_ALL_CURVES
100
AcDbLine
 62
40
  6
CONTINUOUS
 10
208.3540375234
 20
86.6900443915
 11
208.3540375234
 21
86.0260281203
  0
LINE
  5
2F7
100
AcDbEntity
  8
03__ASM_ALL_CURVES
100
AcDbLine
 62
40
  6
CONTINUOUS
 10
208.3540375234
 20
84.7854661219
 11
208.3540375234
 21
85.6343535031
  0
LINE
  5
2F8
100
AcDbEntity
  8
70188A-01-01_1
100
AcDbLine
 62
7
  6
CONTINUOUS
 10
257.6312124598
 20
135.8133754
 11
257.331213244
 21
136.1133745187
  0
LINE
  5
2F9
100
AcDbEntity
  8
03__ASM_ALL_CURVES
100
AcDbLine
 62
40
  6
CONTINUOUS
 10
217.5086545677
 20
87.0852592775
 11
217.5086545677
 21
84.9610979939
  0
LINE
  5
2FA
100
AcDbEntity
  8
03__ASM_ALL_CURVES
100
AcDbLine
 62
40
  6
CONTINUOUS
 10
217.9269243749
 20
84.7854661219
 11
217.9269243749
 21
86.3835952697
  0
LINE
  5
2FB
100
AcDbEntity
  8
03__ASM_ALL_CURVES
100
AcDbLine
 62
40
  6
CONTINUOUS
 10
219.0269981454
 20
87.0852592775
 11
219.0269981454
 21
85.4587216311
  0
LINE
  5
2FC
100
AcDbEntity
  8
03__ASM_ALL_CURVES
100
AcDbLine
 62
40
  6
CONTINUOUS
 10
219.4452679526
 20
84.7854661219
 11
219.4452679526
 21
87.0852592775
  0
LINE
  5
2FD
100
AcDbEntity
  8
03__ASM_ALL_CURVES
100
AcDbLine
 62
40
  6
CONTINUOUS
 10
219.7196819591
 20
87.0852592775
 11
219.7196819591
 21
86.8491837917
  0
LINE
  5
2FE
100
AcDbEntity
  8
03__ASM_ALL_CURVES
100
AcDbLine
 62
40
  6
CONTINUOUS
 10
220.3543399035
 20
86.6741563559
 11
220.3543399035
 21
84.9610979939
  0
LINE
  5
2FF
100
AcDbEntity
  8
03__ASM_ALL_CURVES
100
AcDbLine
 62
40
  6
CONTINUOUS
 10
220.8076670068
 20
86.6741563559
 11
220.8076670068
 21
84.7854661219
  0
LINE
  5
300
100
AcDbEntity
  8
03__ASM_ALL_CURVES
100
AcDbLine
 62
40
  6
CONTINUOUS
 10
221.4424976473
 20
87.0852592775
 11
221.4424976473
 21
86.6741563559
  0
LINE
  5
301
100
AcDbEntity
  8
03__ASM_ALL_CURVES
100
AcDbLine
 62
40
  6
CONTINUOUS
 10
221.7360809141
 20
87.0852592775
 11
221.7360809141
 21
84.9610979939
  0
LINE
  5
302
100
AcDbEntity
  8
03__ASM_ALL_CURVES
100
AcDbLine
 62
40
  6
CONTINUOUS
 10
222.1883718411
 20
84.7854661219
 11
222.1883718411
 21
87.0852592775
  0
LINE
  5
303
100
AcDbEntity
  8
03__ASM_ALL_CURVES
100
AcDbLine
 62
40
  6
CONTINUOUS
 10
222.6258109087
 20
87.0852592775
 11
222.6258109087
 21
84.9610979939
  0
LINE
  5
304
100
AcDbEntity
  8
03__ASM_ALL_CURVES
100
AcDbLine
 62
40
  6
CONTINUOUS
 10
223.0430445397
 20
86.3835952697
 11
223.0430445397
 21
84.7854661219
  0
LINE
  5
305
100
AcDbEntity
  8
03__ASM_ALL_CURVES
100
AcDbLine
 62
40
  6
CONTINUOUS
 10
224.1439817903
 20
87.0852592775
 11
224.1439817903
 21
85.4587216311
  0
LINE
  5
306
100
AcDbEntity
  8
03__ASM_ALL_CURVES
100
AcDbLine
 62
40
  6
CONTINUOUS
 10
224.5622515976
 20
87.0852592775
 11
224.5622515976
 21
84.7854661219
  0
LINE
  5
307
100
AcDbEntity
  8
PC04_ASM_7
100
AcDbLine
 62
7
  6
CONTINUOUS
 10
232.6312101051
 20
132.3133745187
 11
262.6312101051
 21
132.3133745187
  0
LINE
  5
308
100
AcDbEntity
  8
70188A-01-01_1
100
AcDbLine
 62
7
  6
CONTINUOUS
 10
257.6312101051
 20
135.8133730453
 11
237.6312101051
 21
135.8133730453
  0
LINE
  5
309
100
AcDbEntity
  8
20GUAN_1
100
AcDbLine
 62
7
  6
CONTINUOUS
 10
237.6312101051
 20
136.1133745187
 11
257.6312101051
 21
136.1133745187
  0
LINE
  5
30A
100
AcDbEntity
  8
SB_3
100
AcDbLine
 62
7
  6
CONTINUOUS
 10
317.1312101051
 20
145.1133745187
 11
304.1312101051
 21
145.1133745187
  0
LINE
  5
30B
100
AcDbEntity
  8
03__ASM_ALL_CURVES
100
AcDbLine
 62
40
  6
CONTINUOUS
 10
228.9451043794
 20
84.6133745187
 11
228.9451043794
 21
87.5190717282
  0
LINE
  5
30C
100
AcDbEntity
  8
PC04_ASM_7
100
AcDbLine
 62
7
  6
CONTINUOUS
 10
232.6312101051
 20
104.3133745187
 11
232.6312101051
 21
125.3136265938
  0
LINE
  5
30D
100
AcDbEntity
  8
PC04_ASM_7
100
AcDbLine
 62
7
  6
CONTINUOUS
 10
232.6312101051
 20
129.3131224435
 11
232.6312101051
 21
132.3133745187
  0
LINE
  5
30E
100
AcDbEntity
  8
20GUAN_1
100
AcDbLine
 62
7
  6
CONTINUOUS
 10
237.6312101051
 20
286.1133745187
 11
237.6312101051
 21
136.1133745187
  0
LINE
  5
30F
100
AcDbEntity
  8
70188A-01-01_1
100
AcDbLine
 62
7
  6
CONTINUOUS
 10
237.6312101051
 20
135.8133730453
 11
237.6312101051
 21
132.3133745187
  0
LINE
  5
310
100
AcDbEntity
  8
03__ASM_ALL_CURVES
100
AcDbLine
 62
40
  6
CONTINUOUS
 10
212.4275916989
 20
84.7854661219
 11
212.63465425
 21
86.3643396613
  0
LINE
  5
311
100
AcDbEntity
  8
03__ASM_ALL_CURVES
100
AcDbLine
 62
40
  6
CONTINUOUS
 10
212.3508283094
 20
87.0852592775
 11
211.9936065521
 21
84.7854661219
  0
LINE
  5
312
100
AcDbEntity
  8
20GUAN_1
100
AcDbLine
 62
7
  6
CONTINUOUS
 10
257.6312101051
 20
286.1133745187
 11
257.6312101051
 21
136.1133745187
  0
LINE
  5
313
100
AcDbEntity
  8
70188A-01-01_1
100
AcDbLine
 62
7
  6
CONTINUOUS
 10
257.6312101051
 20
135.8133730453
 11
257.6312101051
 21
132.3133745187
  0
LINE
  5
314
100
AcDbEntity
  8
1-2_1
100
AcDbLine
 62
7
  6
CONTINUOUS
 10
170.5397074025
 20
96.7718744868
 11
170.1356980071
 21
96.0721096872
  0
LINE
  5
315
100
AcDbEntity
  8
PC04_ASM_7
100
AcDbLine
 62
7
  6
CONTINUOUS
 10
262.6312101051
 20
104.3133745187
 11
262.6312101051
 21
132.3133745187
  0
LINE
  5
316
100
AcDbEntity
  8
102421-03_1
100
AcDbLine
 62
7
  6
CONTINUOUS
 10
272.6312101051
 20
91.0883084866
 11
272.6312101051
 21
72.0635045242
  0
LINE
  5
317
100
AcDbEntity
  8
PC04_ASM_7
100
AcDbLine
 62
7
  6
CONTINUOUS
 10
272.6312101051
 20
91.0883084866
 11
272.6312101051
 21
102.3133745187
  0
LINE
  5
318
100
AcDbEntity
  8
03__ASM_ALL_CURVES
100
AcDbLine
 62
40
  6
CONTINUOUS
 10
210.2930686529
 20
85.2926743893
 11
210.1145009482
 21
84.7854661219
  0
LINE
  5
319
100
AcDbEntity
  8
03__ASM_ALL_CURVES
100
AcDbLine
 62
40
  6
CONTINUOUS
 10
210.4368381056
 20
85.6944517248
 11
210.7587435229
 21
86.5910032129
  0
LINE
  5
31A
100
AcDbEntity
  8
03__ASM_ALL_CURVES
100
AcDbLine
 62
40
  6
CONTINUOUS
 10
213.5342279188
 20
84.9768133334
 11
214.0507617724
 21
86.3393850836
  0
LINE
  5
31B
100
AcDbEntity
  8
03__ASM_ALL_CURVES
100
AcDbLine
 62
40
  6
CONTINUOUS
 10
213.9490438053
 20
87.0852592775
 11
213.3524653374
 21
85.5225328177
  0
LINE
  5
31C
100
AcDbEntity
  8
03__ASM_ALL_CURVES
100
AcDbLine
 62
40
  6
CONTINUOUS
 10
210.5452912183
 20
87.0852592775
 11
209.6646277658
 21
84.7854661219
  0
LINE
  5
31D
100
AcDbEntity
  8
1-2_1
100
AcDbLine
 62
7
  6
CONTINUOUS
 10
172.4703230228
 20
97.3536814356
 11
171.7311245952
 21
96.0747720354
  0
LINE
  5
31E
100
AcDbEntity
  8
1-2_1
100
AcDbLine
 62
7
  6
CONTINUOUS
 10
174.0704702484
 20
97.3537395658
 11
173.3311826593
 21
96.0746939987
  0
LINE
  5
31F
100
AcDbEntity
  8
1-2_1
100
AcDbLine
 62
7
  6
CONTINUOUS
 10
175.6705972919
 20
97.3538516126
 11
174.9312498121
 21
96.074702514
  0
LINE
  5
320
100
AcDbEntity
  8
1-2_1
100
AcDbLine
 62
7
  6
CONTINUOUS
 10
177.2702285484
 20
97.3538361658
 11
176.5311135394
 21
96.0750105643
  0
LINE
  5
321
100
AcDbEntity
  8
1-2_1
100
AcDbLine
 62
7
  6
CONTINUOUS
 10
178.8702329395
 20
97.3537007058
 11
178.1310993794
 21
96.074878608
  0
LINE
  5
322
100
AcDbEntity
  8
1-2_1
100
AcDbLine
 62
7
  6
CONTINUOUS
 10
180.4703494396
 20
97.3536864076
 11
179.7311337647
 21
96.0747517869
  0
LINE
  5
323
100
AcDbEntity
  8
1-2_1
100
AcDbLine
 62
7
  6
CONTINUOUS
 10
170.5360593261
 20
77.4684728955
 11
170.9311059014
 21
78.1519140024
  0
LINE
  5
324
100
AcDbEntity
  8
1-2_1
100
AcDbLine
 62
7
  6
CONTINUOUS
 10
182.070497229
 20
97.3537576738
 11
181.3311952326
 21
96.0746886247
  0
LINE
  5
325
100
AcDbEntity
  8
1-2_1
100
AcDbLine
 62
7
  6
CONTINUOUS
 10
171.7917948568
 20
76.8728577079
 11
172.5311510966
 21
78.1520256825
  0
LINE
  5
326
100
AcDbEntity
  8
1-2_1
100
AcDbLine
 62
7
  6
CONTINUOUS
 10
183.6703410902
 20
97.3540077663
 11
182.9311699593
 21
96.0750672262
  0
LINE
  5
327
100
AcDbEntity
  8
1-2_1
100
AcDbLine
 62
7
  6
CONTINUOUS
 10
173.3919055954
 20
76.8729783658
 11
174.1312164986
 21
78.1520622129
  0
LINE
  5
328
100
AcDbEntity
  8
1-2_1
100
AcDbLine
 62
7
  6
CONTINUOUS
 10
185.2702165019
 20
97.3537999159
 11
184.5311061736
 21
96.0749890317
  0
LINE
  5
329
100
AcDbEntity
  8
1-2_1
100
AcDbLine
 62
7
  6
CONTINUOUS
 10
174.9920525587
 20
76.8730576193
 11
175.7312798014
 21
78.1520094535
  0
LINE
  5
32A
100
AcDbEntity
  8
1-2_1
100
AcDbLine
 62
7
  6
CONTINUOUS
 10
186.8702489227
 20
97.3536898059
 11
186.1311027643
 21
96.0748522343
  0
LINE
  5
32B
100
AcDbEntity
  8
1-2_1
100
AcDbLine
 62
7
  6
CONTINUOUS
 10
176.591787918
 20
76.8726629077
 11
177.3310990688
 21
78.1518002294
  0
LINE
  5
32C
100
AcDbEntity
  8
1-2_1
100
AcDbLine
 62
7
  6
CONTINUOUS
 10
188.4703769016
 20
97.3536943984
 11
187.7311438886
 21
96.0747338721
  0
LINE
  5
32D
100
AcDbEntity
  8
03__ASM_ALL_CURVES
100
AcDbLine
 62
40
  6
CONTINUOUS
 10
225.4362662526
 20
85.2926743893
 11
225.2575258519
 21
84.7854661219
  0
LINE
  5
32E
100
AcDbEntity
  8
03__ASM_ALL_CURVES
100
AcDbLine
 62
40
  6
CONTINUOUS
 10
225.5796039652
 20
85.6944517248
 11
225.9016820785
 21
86.5910032129
  0
LINE
  5
32F
100
AcDbEntity
  8
03__ASM_ALL_CURVES
100
AcDbLine
 62
40
  6
CONTINUOUS
 10
225.6880570779
 20
87.0852592775
 11
224.8074799734
 21
84.7854661219
  0
LINE
  5
330
100
AcDbEntity
  8
1-2_1
100
AcDbLine
 62
7
  6
CONTINUOUS
 10
178.1917573044
 20
76.8727569572
 11
178.9311118246
 21
78.1519388994
  0
LINE
  5
331
100
AcDbEntity
  8
1-2_1
100
AcDbLine
 62
7
  6
CONTINUOUS
 10
190.070470343
 20
97.3540975805
 11
189.3312447236
 21
96.0750692518
  0
LINE
  5
332
100
AcDbEntity
  8
1-2_1
100
AcDbLine
 62
7
  6
CONTINUOUS
 10
179.7918108734
 20
76.8728816286
 11
180.5311624884
 21
78.1520391564
  0
LINE
  5
333
100
AcDbEntity
  8
1-2_1
100
AcDbLine
 62
7
  6
CONTINUOUS
 10
191.3812101051
 20
96.8537206358
 11
190.9311540694
 21
96.0750592245
  0
LINE
  5
334
100
AcDbEntity
  8
1-2_1
100
AcDbLine
 62
7
  6
CONTINUOUS
 10
181.3919309379
 20
76.8729976525
 11
182.1312291222
 21
78.1520602855
  0
LINE
  5
335
100
AcDbEntity
  8
1-2_1
100
AcDbLine
 62
7
  6
CONTINUOUS
 10
182.9918704382
 20
76.8726347911
 11
183.7311308802
 21
78.1517098096
  0
LINE
  5
336
100
AcDbEntity
  8
1-2_1
100
AcDbLine
 62
7
  6
CONTINUOUS
 10
184.59177578
 20
76.8726764637
 11
185.3310975993
 21
78.1518261409
  0
LINE
  5
337
100
AcDbEntity
  8
1-2_1
100
AcDbLine
 62
7
  6
CONTINUOUS
 10
186.1917611097
 20
76.8727791621
 11
186.9311190837
 21
78.1519623523
  0
LINE
  5
338
100
AcDbEntity
  8
1-2_1
100
AcDbLine
 62
7
  6
CONTINUOUS
 10
187.792148211
 20
76.8728297591
 11
188.5312870571
 21
78.1517079183
  0
LINE
  5
339
100
AcDbEntity
  8
1-2_1
100
AcDbLine
 62
7
  6
CONTINUOUS
 10
189.3919887932
 20
76.8726701972
 11
190.1311984057
 21
78.1516748255
  0
LINE
  5
33A
100
AcDbEntity
  8
1-2_1
100
AcDbLine
 62
7
  6
CONTINUOUS
 10
190.9918475005
 20
76.8726363052
 11
191.3812101051
 21
77.5463572387
  0
LINE
  5
33B
100
AcDbEntity
  8
102421-03_1
100
AcDbLine
 62
7
  6
CONTINUOUS
 10
292.6312101051
 20
72.0635045242
 11
292.6312101051
 21
102.1632445132
  0
LINE
  5
33C
100
AcDbEntity
  8
SB_3
100
AcDbLine
 62
7
  6
CONTINUOUS
 10
303.6312101051
 20
144.6133745187
 11
303.6312101051
 21
95.1133745188
  0
LINE
  5
33D
100
AcDbEntity
  8
SB_3
100
AcDbLine
 62
7
  6
CONTINUOUS
 10
303.6312101051
 20
79.1133745186
 11
303.6312101051
 21
70.6133745187
  0
LINE
  5
33E
100
AcDbEntity
  8
1-2_1
100
AcDbLine
 62
7
  6
CONTINUOUS
 10
170.1312099985
 20
96.3633765436
 11
171.0359406293
 21
97.2681078508
  0
LINE
  5
33F
100
AcDbEntity
  8
SB_3
100
AcDbLine
 62
7
  6
CONTINUOUS
 10
317.6312101051
 20
144.6133745187
 11
317.6312101051
 21
70.6133745187
  0
LINE
  5
340
100
AcDbEntity
  8
70188A-01-01_1
100
AcDbLine
 62
7
  6
CONTINUOUS
 10
237.9312069663
 20
136.1133745187
 11
237.6312077505
 21
135.8133754
  0
LINE
  5
341
100
AcDbEntity
  8
1-2_1
100
AcDbLine
 62
7
  6
CONTINUOUS
 10
172.4812101051
 20
97.3633745187
 11
172.4701348494
 21
97.3536816389
  0
LINE
  5
342
100
AcDbEntity
  8
1-2_1
100
AcDbLine
 62
7
  6
CONTINUOUS
 10
180.4812101051
 20
97.3633745187
 11
180.470137704
 21
97.3536866363
  0
LINE
  5
343
100
AcDbEntity
  8
1-2_1
100
AcDbLine
 62
7
  6
CONTINUOUS
 10
186.8812101051
 20
97.3633745187
 11
186.8701395832
 21
97.353689924
  0
LINE
  5
344
100
AcDbEntity
  8
1-2_1
100
AcDbLine
 62
7
  6
CONTINUOUS
 10
178.8812101051
 20
97.3633745187
 11
178.8701458021
 21
97.3537007999
  0
LINE
  5
345
100
AcDbEntity
  8
1-2_1
100
AcDbLine
 62
7
  6
CONTINUOUS
 10
174.0812101051
 20
97.3633745187
 11
174.0701681835
 21
97.3537398911
  0
LINE
  5
346
100
AcDbEntity
  8
1-2_1
100
AcDbLine
 62
7
  6
CONTINUOUS
 10
182.0812101051
 20
97.3633745187
 11
182.0701785766
 21
97.3537580167
  0
LINE
  5
347
100
AcDbEntity
  8
1-2_1
100
AcDbLine
 62
7
  6
CONTINUOUS
 10
185.2812101051
 20
97.3633745187
 11
185.2702026473
 21
97.3537999308
  0
LINE
  5
348
100
AcDbEntity
  8
1-2_1
100
AcDbLine
 62
7
  6
CONTINUOUS
 10
177.2812101051
 20
97.3633745187
 11
177.2702235037
 21
97.3538361712
  0
LINE
  5
349
100
AcDbEntity
  8
1-2_1
100
AcDbLine
 62
7
  6
CONTINUOUS
 10
175.6812101051
 20
97.3633745187
 11
175.6702326253
 21
97.353852003
  0
LINE
  5
34A
100
AcDbEntity
  8
1-2_1
100
AcDbLine
 62
7
  6
CONTINUOUS
 10
183.6812101051
 20
97.3633745187
 11
183.6703228025
 21
97.3540077857
  0
LINE
  5
34B
100
AcDbEntity
  8
1-2_1
100
AcDbLine
 62
7
  6
CONTINUOUS
 10
188.4812101051
 20
97.3633745187
 11
188.4701422861
 21
97.3536946516
  0
LINE
  5
34C
100
AcDbEntity
  8
1-2_1
100
AcDbLine
 62
7
  6
CONTINUOUS
 10
174.9812101051
 20
76.8633745187
 11
174.992279632
 21
76.8730573742
  0
LINE
  5
34D
100
AcDbEntity
  8
1-2_1
100
AcDbLine
 62
7
  6
CONTINUOUS
 10
181.3812101051
 20
76.8633745187
 11
181.3922452441
 21
76.8729973143
  0
LINE
  5
34E
100
AcDbEntity
  8
1-2_1
100
AcDbLine
 62
7
  6
CONTINUOUS
 10
173.3812101051
 20
76.8633745187
 11
173.3922341688
 21
76.8729780125
  0
LINE
  5
34F
100
AcDbEntity
  8
1-2_1
100
AcDbLine
 62
7
  6
CONTINUOUS
 10
179.7812101051
 20
76.8633745187
 11
179.7921784732
 21
76.8728812354
  0
LINE
  5
350
100
AcDbEntity
  8
1-2_1
100
AcDbLine
 62
7
  6
CONTINUOUS
 10
171.7812101087
 20
76.8633745187
 11
171.7921646653
 21
76.8728573128
  0
LINE
  5
351
100
AcDbEntity
  8
1-2_1
100
AcDbLine
 62
7
  6
CONTINUOUS
 10
178.1812101051
 20
76.8633745187
 11
178.1921063181
 21
76.8727565863
  0
LINE
  5
352
100
AcDbEntity
  8
1-2_1
100
AcDbLine
 62
7
  6
CONTINUOUS
 10
176.5812101051
 20
76.8633745187
 11
176.592051612
 21
76.8726626288
  0
LINE
  5
353
100
AcDbEntity
  8
1-2_1
100
AcDbLine
 62
7
  6
CONTINUOUS
 10
190.0812101051
 20
97.3633745187
 11
190.0703751802
 21
97.3540976811
  0
LINE
  5
354
100
AcDbEntity
  8
20WANGJU_1
100
AcDbLine
 62
7
  6
CONTINUOUS
 10
439.8982265485
 20
278.5438516386
 11
458.7369924317
 21
281.0138516386
  0
LINE
  5
355
100
AcDbEntity
  8
1-2_1
100
AcDbLine
 62
7
  6
CONTINUOUS
 10
187.7812101051
 20
76.8633745187
 11
187.7921487179
 21
76.8728297586
  0
LINE
  5
356
100
AcDbEntity
  8
1-2_1
100
AcDbLine
 62
7
  6
CONTINUOUS
 10
186.1812101051
 20
76.8633745187
 11
186.1921192008
 21
76.8727787811
  0
LINE
  5
357
100
AcDbEntity
  8
1-2_1
100
AcDbLine
 62
7
  6
CONTINUOUS
 10
184.5812101051
 20
76.8633745187
 11
184.5920595094
 21
76.8726761635
  0
LINE
  5
358
100
AcDbEntity
  8
1-2_1
100
AcDbLine
 62
7
  6
CONTINUOUS
 10
189.3812101051
 20
76.8633745187
 11
189.3920559873
 21
76.8726701261
  0
LINE
  5
359
100
AcDbEntity
  8
1-2_1
100
AcDbLine
 62
7
  6
CONTINUOUS
 10
182.9812101051
 20
76.8633745187
 11
182.9920352489
 21
76.8726346171
  0
LINE
  5
35A
100
AcDbEntity
  8
1-2_1
100
AcDbLine
 62
7
  6
CONTINUOUS
 10
190.9812101051
 20
76.8633745187
 11
190.9920361193
 21
76.8726361061
  0
LINE
  5
35B
100
AcDbEntity
  8
20WANGJU_1
100
AcDbLine
 62
7
  6
CONTINUOUS
 10
439.3374695516
 20
278.9746086355
 11
459.1677494286
 21
281.5746086355
  0
LINE
  5
35C
100
AcDbEntity
  8
70101-07-03_1
100
AcDbLine
 62
7
  6
CONTINUOUS
 10
437.3632276716
 20
297.8783742294
 11
436.9324701479
 21
297.3176164545
  0
LINE
  5
35D
100
AcDbEntity
  8
20WANGJU_1
100
AcDbLine
 62
7
  6
CONTINUOUS
 10
456.9577494286
 20
298.430346531
 11
437.1274695516
 21
295.830346531
  0
LINE
  5
35E
100
AcDbEntity
  8
70101-07-03_1
100
AcDbLine
 62
7
  6
CONTINUOUS
 10
437.1274695516
 20
295.8303465309
 11
456.9577494286
 21
298.4303465309
  0
LINE
  5
35F
100
AcDbEntity
  8
70101-07-03_1
100
AcDbLine
 62
7
  6
CONTINUOUS
 10
456.7627495174
 20
299.9176168443
 11
436.9324696404
 21
297.3176168443
  0
LINE
  5
360
100
AcDbEntity
  8
20GUAN_1
100
AcDbLine
 62
7
  6
CONTINUOUS
 10
436.8674695516
 20
297.8133745187
 11
456.6977494286
 21
300.4133745187
  0
LINE
  5
361
100
AcDbEntity
  8
20WANGJU_1
100
AcDbLine
 62
7
  6
CONTINUOUS
 10
458.7369924317
 20
281.0138516386
 11
459.1677494286
 21
281.5746086355
  0
LINE
  5
362
100
AcDbEntity
  8
1-2_1
100
AcDbLine
 62
7
  6
CONTINUOUS
 10
170.5361727801
 20
77.4683593878
 11
170.5289332623
 21
77.4656486938
  0
LINE
  5
363
100
AcDbEntity
  8
20WANGJU_1
100
AcDbLine
 62
7
  6
CONTINUOUS
 10
439.8982265485
 20
278.5438516386
 11
439.3374695516
 21
278.9746086355
  0
LINE
  5
364
100
AcDbEntity
  8
70101-07-03_1
100
AcDbLine
 62
7
  6
CONTINUOUS
 10
436.9324696404
 20
297.3176168443
 11
437.1274695516
 21
295.8303465309
  0
LINE
  5
365
100
AcDbEntity
  8
20WANGJU_1
100
AcDbLine
 62
7
  6
CONTINUOUS
 10
437.1274695516
 20
295.830346531
 11
439.3374695516
 21
278.9746086355
  0
LINE
  5
366
100
AcDbEntity
  8
70101-07-03_1
100
AcDbLine
 62
7
  6
CONTINUOUS
 10
456.2019914212
 20
300.3483739496
 11
456.7627491276
 21
299.9176163369
  0
LINE
  5
367
100
AcDbEntity
  8
70101-07-03_1
100
AcDbLine
 62
7
  6
CONTINUOUS
 10
456.7627495174
 20
299.9176168443
 11
456.9577494286
 21
298.4303465309
  0
LINE
  5
368
100
AcDbEntity
  8
20WANGJU_1
100
AcDbLine
 62
7
  6
CONTINUOUS
 10
459.1677494286
 20
281.5746086355
 11
456.9577494286
 21
298.430346531
  0
ARC
  5
369
100
AcDbEntity
  8
20GUAN_1
100
AcDbCircle
 62
7
  6
CONTINUOUS
 10
347.6312101051
 20
286.1133745187
 40
110.0
100
AcDbArc
 50
7.4695923164
 51
180.0
  0
ARC
  5
36A
100
AcDbEntity
  8
20GUAN_1
100
AcDbCircle
 62
7
  6
CONTINUOUS
 10
347.6312101051
 20
286.1133745187
 40
90.0
100
AcDbArc
 50
7.4695923164
 51
180.0
  0
ARC
  5
36B
100
AcDbEntity
  8
PC04_ASM_7
100
AcDbCircle
 62
7
  6
CONTINUOUS
 10
217.5493870741
 20
127.3278557176
 40
15.2157611748
100
AcDbArc
 50
352.4688866975
 51
359.9454702467
  0
ARC
  5
36C
100
AcDbEntity
  8
PC04_ASM_7
100
AcDbCircle
 62
7
  6
CONTINUOUS
 10
217.703026777
 20
127.3090839422
 40
15.0621151919
100
AcDbArc
 50
0.0163212089
 51
7.5719966342
  0
ARC
  5
36D
100
AcDbEntity
  8
PC04_ASM_7
100
AcDbCircle
 62
7
  6
CONTINUOUS
 10
230.6312101051
 20
104.3133745187
 40
2.0
100
AcDbArc
 50
269.9999999999
 51
360.0
  0
ARC
  5
36E
100
AcDbEntity
  8
PC04_ASM_7
100
AcDbCircle
 62
7
  6
CONTINUOUS
 10
264.6312101051
 20
104.3133745187
 40
2.0
100
AcDbArc
 50
179.9999999998
 51
270.0000000001
  0
ARC
  5
36F
100
AcDbEntity
  8
7-1_INST126_1
100
AcDbCircle
 62
7
  6
CONTINUOUS
 10
192.6312101051
 20
69.3633745187
 40
1.25
100
AcDbArc
 50
180.0
 51
246.3929589411
  0
ARC
  5
370
100
AcDbEntity
  8
7-1_INST126_1
100
AcDbCircle
 62
7
  6
CONTINUOUS
 10
192.6312101051
 20
104.8633745187
 40
1.25
100
AcDbArc
 50
113.6070410589
 51
180.0
  0
ARC
  5
371
100
AcDbEntity
  8
SB_3
100
AcDbCircle
 62
7
  6
CONTINUOUS
 10
302.6312182399
 20
95.113368007
 40
1.0000057277
100
AcDbArc
 50
269.9995336291
 51
0.0003731144
  0
ARC
  5
372
100
AcDbEntity
  8
SB_3
100
AcDbCircle
 62
7
  6
CONTINUOUS
 10
302.631216854
 20
79.1133801315
 40
1.0000053342
100
AcDbArc
 50
359.9996783903
 51
90.0003870222
  0
ARC
  5
373
100
AcDbEntity
  8
SB_3
100
AcDbCircle
 62
7
  6
CONTINUOUS
 10
317.1312101051
 20
70.6133745187
 40
0.5
100
AcDbArc
 50
270.0
 51
360.0
  0
ARC
  5
374
100
AcDbEntity
  8
SB_3
100
AcDbCircle
 62
7
  6
CONTINUOUS
 10
304.1312101051
 20
70.6133745187
 40
0.5
100
AcDbArc
 50
180.0
 51
270.0
  0
ARC
  5
375
100
AcDbEntity
  8
SB_3
100
AcDbCircle
 62
7
  6
CONTINUOUS
 10
317.1312101051
 20
144.6133745187
 40
0.5
100
AcDbArc
 50
0.0
 51
90.0
  0
ARC
  5
376
100
AcDbEntity
  8
SB_3
100
AcDbCircle
 62
7
  6
CONTINUOUS
 10
304.1312101051
 20
144.6133745187
 40
0.5
100
AcDbArc
 50
90.0
 51
180.0
  0
ARC
  5
377
100
AcDbEntity
  8
1-2_1
100
AcDbCircle
 62
7
  6
CONTINUOUS
 10
188.4812081327
 20
97.3569281844
 40
0.0064463345
100
AcDbArc
 50
81.3682727298
 51
89.9824691183
  0
SPLINE
  5
378
100
AcDbEntity
  8
M5-6_1
100
AcDbSpline
 62
7
  6
CONTINUOUS
 70
0
 71
3
 72
9
 73
5
 74
0
 42
0.0000001
 43
0.0000001
 44
0.0000000001
 40
0.0
 40
0.0
 40
0.0
 40
0.0
 40
0.2225088661
 40
1.0
 40
1.0
 40
1.0
 40
1.0
 10
297.3071023407
 20
80.2232478762
 30
0.0
 10
297.2851467144
 20
80.2209338134
 30
0.0
 10
297.1864200001
 20
80.2110430131
 30
0.0
 10
297.0875408052
 20
80.2027373721
 30
0.0
 10
297.0106350051
 20
80.1967008336
 30
0.0
  0
SPLINE
  5
379
100
AcDbEntity
  8
M5-6_1
100
AcDbSpline
 62
7
  6
CONTINUOUS
 70
0
 71
3
 72
10
 73
6
 74
0
 42
0.0000001
 43
0.0000001
 44
0.0000000001
 40
0.0
 40
0.0
 40
0.0
 40
0.0
 40
0.2159879413
 40
0.4605703773
 40
1.0
 40
1.0
 40
1.0
 40
1.0
 10
297.0106350051
 20
80.1967008336
 30
0.0
 10
296.9147796802
 20
80.1891768969
 30
0.0
 10
296.7102621538
 20
80.1746237875
 30
0.0
 10
296.2659795771
 20
80.1465920824
 30
0.0
 10
295.917518734
 20
80.1268981922
 30
0.0
 10
295.677760106
 20
80.1134604599
 30
0.0
  0
SPLINE
  5
37A
100
AcDbEntity
  8
M5-6_1
100
AcDbSpline
 62
7
  6
CONTINUOUS
 70
0
 71
3
 72
40
 73
36
 74
0
 42
0.0000001
 43
0.0000001
 44
0.0000000001
 40
0.0
 40
0.0
 40
0.0
 40
0.0
 40
0.0026142645
 40
0.006293751
 40
0.0110623495
 40
0.0169234929
 40
0.0318984537
 40
0.0511134526
 40
0.0744068986
 40
0.1015735346
 40
0.1323679873
 40
0.1665117906
 40
0.2036945201
 40
0.2435762217
 40
0.3299598469
 40
0.4225110706
 40
0.5178507925
 40
0.6124968746
 40
0.7029930645
 40
0.7860353746
 40
0.8238016618
 40
0.8585963669
 40
0.8901035901
 40
0.9180374633
 40
0.9421451849
 40
0.9622139381
 40
0.9706782843
 40
0.9780725313
 40
0.9843821474
 40
0.9896002405
 40
0.9937264266
 40
0.9967734263
 40
0.9979071585
 40
0.9987986327
 40
1.0
 40
1.0
 40
1.0
 40
1.0
 10
298.1239721368
 20
80.5773154337
 30
0.0
 10
298.1202069315
 20
80.5751005124
 30
0.0
 10
298.1104076133
 20
80.5710866243
 30
0.0
 10
298.0926631366
 20
80.5659210911
 30
0.0
 10
298.0693060805
 20
80.5607202629
 30
0.0
 10
298.0272020572
 20
80.5531025449
 30
0.0
 10
297.9608743799
 20
80.5439954483
 30
0.0
 10
297.8653853447
 20
80.533578267
 30
0.0
 10
297.7494252356
 20
80.5231103931
 30
0.0
 10
297.6140581433
 20
80.5125818327
 30
0.0
 10
297.4605140334
 20
80.5020243482
 30
0.0
 10
297.2901998519
 20
80.4914459171
 30
0.0
 10
297.104675317
 20
80.4808528307
 30
0.0
 10
296.8319439151
 20
80.466326274
 30
0.0
 10
296.4667410531
 20
80.4484876333
 30
0.0
 10
296.0089136342
 20
80.4275500595
 30
0.0
 10
295.5372668818
 20
80.4065928895
 30
0.0
 10
295.0690570861
 20
80.3856414229
 30
0.0
 10
294.6214157749
 20
80.3647209301
 30
0.0
 10
294.2687820471
 20
80.3468347844
 30
0.0
 10
294.0091820043
 20
80.3322426708
 30
0.0
 10
293.835608094
 20
80.321660405
 30
0.0
 10
293.6784959733
 20
80.3110971676
 30
0.0
 10
293.5392833528
 20
80.3005647332
 30
0.0
 10
293.4192437828
 20
80.2900722021
 30
0.0
 10
293.3317481517
 20
80.2809507629
 30
0.0
 10
293.2721809883
 20
80.273462607
 30
0.0
 10
293.2355131182
 20
80.2681892994
 30
0.0
 10
293.2043301893
 20
80.2629376923
 30
0.0
 10
293.1786893204
 20
80.2577296262
 30
0.0
 10
293.1586328377
 20
80.2525243424
 30
0.0
 10
293.1455024991
 20
80.2479625295
 30
0.0
 10
293.1379338219
 20
80.2440085276
 30
0.0
 10
293.1335783118
 20
80.2409910403
 30
0.0
 10
293.1312101051
 20
80.2377628687
 30
0.0
 10
293.1312101051
 20
80.2357554148
 30
0.0
  0
SPLINE
  5
37B
100
AcDbEntity
  8
03__ASM_ALL_CURVES
100
AcDbSpline
 62
40
  6
CONTINUOUS
 70
0
 71
3
 72
11
 73
7
 74
0
 42
0.0000001
 43
0.0000001
 44
0.0000000001
 40
0.0
 40
0.0
 40
0.0
 40
0.0
 40
0.2505069092
 40
0.5010138185
 40
0.7528108068
 40
1.0
 40
1.0
 40
1.0
 40
1.0
 10
214.8392918879
 20
85.9310452987
 30
0.0
 10
214.8382979106
 20
85.6190405663
 30
0.0
 10
215.0938625362
 20
85.0021568355
 30
0.0
 10
216.0191256327
 20
84.6148474846
 30
0.0
 10
216.9489409207
 20
84.9976018381
 30
0.0
 10
217.211369454
 20
85.6120408358
 30
0.0
 10
217.2156537953
 20
85.9198719913
 30
0.0
  0
SPLINE
  5
37C
100
AcDbEntity
  8
03__ASM_ALL_CURVES
100
AcDbSpline
 62
40
  6
CONTINUOUS
 70
0
 71
3
 72
12
 73
8
 74
0
 42
0.0000001
 43
0.0000001
 44
0.0000000001
 40
0.0
 40
0.0
 40
0.0
 40
0.0
 40
0.0046077952
 40
0.2527674247
 40
0.5009270542
 40
0.7504635271
 40
1.0
 40
1.0
 40
1.0
 40
1.0
 10
217.2156537953
 20
85.9198719913
 30
0.0
 10
217.2157336587
 20
85.925610199
 30
0.0
 10
217.2177183144
 20
86.2404538075
 30
0.0
 10
216.9596593439
 20
86.8682721975
 30
0.0
 10
216.0307799623
 20
87.2556306865
 30
0.0
 10
215.0978232527
 20
86.8705041112
 30
0.0
 10
214.8402820147
 20
86.2418413588
 30
0.0
 10
214.8392918879
 20
85.9310452987
 30
0.0
  0
SPLINE
  5
37D
100
AcDbEntity
  8
03__ASM_ALL_CURVES
100
AcDbSpline
 62
40
  6
CONTINUOUS
 70
0
 71
3
 72
11
 73
7
 74
0
 42
0.0000001
 43
0.0000001
 44
0.0000000001
 40
0.0
 40
0.0
 40
0.0
 40
0.0
 40
0.2499218831
 40
0.4998437663
 40
0.7497656494
 40
1.0
 40
1.0
 40
1.0
 40
1.0
 10
215.3045350179
 20
85.9337220873
 30
0.0
 10
215.3045633644
 20
85.7371846451
 30
0.0
 10
215.4600726716
 20
85.3449412029
 30
0.0
 10
216.0251523722
 20
85.0993280426
 30
0.0
 10
216.5928002025
 20
85.3450435625
 30
0.0
 10
216.7498230617
 20
85.7376751421
 30
0.0
 10
216.7496552141
 20
85.9344592581
 30
0.0
  0
SPLINE
  5
37E
100
AcDbEntity
  8
03__ASM_ALL_CURVES
100
AcDbSpline
 62
40
  6
CONTINUOUS
 70
0
 71
3
 72
11
 73
7
 74
0
 42
0.0000001
 43
0.0000001
 44
0.0000000001
 40
0.0
 40
0.0
 40
0.0
 40
0.0
 40
0.2497656494
 40
0.4998437663
 40
0.7499218831
 40
1.0
 40
1.0
 40
1.0
 40
1.0
 10
216.7496552141
 20
85.9344592581
 30
0.0
 10
216.749487681
 20
86.1308747879
 30
0.0
 10
216.5923028232
 20
86.5246388803
 30
0.0
 10
216.0251524506
 20
86.772798847
 30
0.0
 10
215.4600969537
 20
86.5245354803
 30
0.0
 10
215.3045066536
 20
86.130382391
 30
0.0
 10
215.3045350179
 20
85.9337220873
 30
0.0
  0
SPLINE
  5
37F
100
AcDbEntity
  8
03__ASM_ALL_CURVES
100
AcDbSpline
 62
40
  6
CONTINUOUS
 70
0
 71
3
 72
9
 73
5
 74
0
 42
0.0000001
 43
0.0000001
 44
0.0000000001
 40
0.0
 40
0.0
 40
0.0
 40
0.0
 40
0.4999510448
 40
1.0
 40
1.0
 40
1.0
 40
1.0
 10
204.9785207389
 20
88.616382362
 30
0.0
 10
204.6945697664
 20
88.616382362
 30
0.0
 10
204.0743966766
 20
88.4232677628
 30
0.0
 10
203.8812101051
 20
87.8030783098
 30
0.0
 10
203.8812101051
 20
87.5190717282
 30
0.0
  0
SPLINE
  5
380
100
AcDbEntity
  8
03__ASM_ALL_CURVES
100
AcDbSpline
 62
40
  6
CONTINUOUS
 70
0
 71
3
 72
9
 73
5
 74
0
 42
0.0000001
 43
0.0000001
 44
0.0000000001
 40
0.0
 40
0.0
 40
0.0
 40
0.0
 40
0.5000757061
 40
1.0
 40
1.0
 40
1.0
 40
1.0
 10
203.8812101051
 20
84.6133745187
 30
0.0
 10
203.8812101051
 20
84.3293679371
 30
0.0
 10
204.074337962
 20
83.7090924332
 30
0.0
 10
204.6946001485
 20
83.5163229289
 30
0.0
 10
204.9785207389
 20
83.5163229289
 30
0.0
  0
SPLINE
  5
381
100
AcDbEntity
  8
03__ASM_ALL_CURVES
100
AcDbSpline
 62
40
  6
CONTINUOUS
 70
0
 71
3
 72
9
 73
5
 74
0
 42
0.0000001
 43
0.0000001
 44
0.0000000001
 40
0.0
 40
0.0
 40
0.0
 40
0.0
 40
0.4999094876
 40
1.0
 40
1.0
 40
1.0
 40
1.0
 10
227.8479664416
 20
83.5163229289
 30
0.0
 10
228.1318600887
 20
83.5163229289
 30
0.0
 10
228.7521004046
 20
83.7091114431
 30
0.0
 10
228.9451043794
 20
84.3293780695
 30
0.0
 10
228.9451043794
 20
84.6133745187
 30
0.0
  0
SPLINE
  5
382
100
AcDbEntity
  8
03__ASM_ALL_CURVES
100
AcDbSpline
 62
40
  6
CONTINUOUS
 70
0
 71
3
 72
9
 73
5
 74
0
 42
0.0000001
 43
0.0000001
 44
0.0000000001
 40
0.0
 40
0.0
 40
0.0
 40
0.0
 40
0.5000637564
 40
1.0
 40
1.0
 40
1.0
 40
1.0
 10
228.9451043794
 20
87.5190717282
 30
0.0
 10
228.9451043794
 20
87.8030681774
 30
0.0
 10
228.7520416864
 20
88.4232487533
 30
0.0
 10
228.1318904737
 20
88.616382362
 30
0.0
 10
227.8479664416
 20
88.616382362
 30
0.0
  0
SPLINE
  5
383
100
AcDbEntity
  8
03__ASM_ALL_CURVES
100
AcDbSpline
 62
40
  6
CONTINUOUS
 70
0
 71
3
 72
8
 73
4
 74
0
 42
0.0000001
 43
0.0000001
 44
0.0000000001
 40
0.0
 40
0.0
 40
0.0
 40
0.0
 40
1.0
 40
1.0
 40
1.0
 40
1.0
 10
214.2358919266
 20
84.9543628483
 30
0.0
 10
214.2475997133
 20
84.8659532368
 30
0.0
 10
214.3542047641
 20
84.7854661219
 30
0.0
 10
214.4433862178
 20
84.7854661219
 30
0.0
  0
SPLINE
  5
384
100
AcDbEntity
  8
03__ASM_ALL_CURVES
100
AcDbSpline
 62
40
  6
CONTINUOUS
 70
0
 71
3
 72
8
 73
4
 74
0
 42
0.0000001
 43
0.0000001
 44
0.0000000001
 40
0.0
 40
0.0
 40
0.0
 40
0.0
 40
1.0
 40
1.0
 40
1.0
 40
1.0
 10
213.1036103448
 20
85.1430332713
 30
0.0
 10
213.1379945008
 20
85.0568737452
 30
0.0
 10
213.2340528795
 20
84.9768133334
 30
0.0
 10
213.3268199756
 20
84.9768133334
 30
0.0
  0
SPLINE
  5
385
100
AcDbEntity
  8
03__ASM_ALL_CURVES
100
AcDbSpline
 62
40
  6
CONTINUOUS
 70
0
 71
3
 72
8
 73
4
 74
0
 42
0.0000001
 43
0.0000001
 44
0.0000000001
 40
0.0
 40
0.0
 40
0.0
 40
0.0
 40
1.0
 40
1.0
 40
1.0
 40
1.0
 10
222.6258109087
 20
84.9610979939
 30
0.0
 10
222.6258109087
 20
84.8784263598
 30
0.0
 10
222.7182530585
 20
84.7854661219
 30
0.0
 10
222.8009246926
 20
84.7854661219
 30
0.0
  0
SPLINE
  5
386
100
AcDbEntity
  8
03__ASM_ALL_CURVES
100
AcDbSpline
 62
40
  6
CONTINUOUS
 70
0
 71
3
 72
8
 73
4
 74
0
 42
0.0000001
 43
0.0000001
 44
0.0000000001
 40
0.0
 40
0.0
 40
0.0
 40
0.0
 40
1.0
 40
1.0
 40
1.0
 40
1.0
 10
224.0422638232
 20
84.9449509142
 30
0.0
 10
224.1025132207
 20
84.8581055245
 30
0.0
 10
224.2106342276
 20
84.7854661219
 30
0.0
 10
224.3163324376
 20
84.7854661219
 30
0.0
  0
SPLINE
  5
387
100
AcDbEntity
  8
03__ASM_ALL_CURVES
100
AcDbSpline
 62
40
  6
CONTINUOUS
 70
0
 71
3
 72
8
 73
4
 74
0
 42
0.0000001
 43
0.0000001
 44
0.0000000001
 40
0.0
 40
0.0
 40
0.0
 40
0.0
 40
1.0
 40
1.0
 40
1.0
 40
1.0
 10
217.5086545677
 20
84.9610979939
 30
0.0
 10
217.5086545677
 20
84.8782228857
 30
0.0
 10
217.6017567236
 20
84.7854661219
 30
0.0
 10
217.6846318317
 20
84.7854661219
 30
0.0
  0
SPLINE
  5
388
100
AcDbEntity
  8
03__ASM_ALL_CURVES
100
AcDbSpline
 62
40
  6
CONTINUOUS
 70
0
 71
3
 72
8
 73
4
 74
0
 42
0.0000001
 43
0.0000001
 44
0.0000000001
 40
0.0
 40
0.0
 40
0.0
 40
0.0
 40
1.0
 40
1.0
 40
1.0
 40
1.0
 10
218.9254528742
 20
84.9449509142
 30
0.0
 10
218.9856139497
 20
84.8580443172
 30
0.0
 10
219.0938232786
 20
84.7854661219
 30
0.0
 10
219.1995214886
 20
84.7854661219
 30
0.0
  0
SPLINE
  5
389
100
AcDbEntity
  8
03__ASM_ALL_CURVES
100
AcDbSpline
 62
40
  6
CONTINUOUS
 70
0
 71
3
 72
8
 73
4
 74
0
 42
0.0000001
 43
0.0000001
 44
0.0000000001
 40
0.0
 40
0.0
 40
0.0
 40
0.0
 40
1.0
 40
1.0
 40
1.0
 40
1.0
 10
211.352040766
 20
84.9420150815
 30
0.0
 10
211.3816850845
 20
84.8606267387
 30
0.0
 10
211.4728297277
 20
84.7854661219
 30
0.0
 10
211.5594487092
 20
84.7854661219
 30
0.0
  0
SPLINE
  5
38A
100
AcDbEntity
  8
03__ASM_ALL_CURVES
100
AcDbSpline
 62
40
  6
CONTINUOUS
 70
0
 71
3
 72
8
 73
4
 74
0
 42
0.0000001
 43
0.0000001
 44
0.0000000001
 40
0.0
 40
0.0
 40
0.0
 40
0.0
 40
1.0
 40
1.0
 40
1.0
 40
1.0
 10
226.4954110617
 20
84.9420150815
 30
0.0
 10
226.5248904294
 20
84.8607133863
 30
0.0
 10
226.6158197121
 20
84.7854661219
 30
0.0
 10
226.7023009168
 20
84.7854661219
 30
0.0
  0
SPLINE
  5
38B
100
AcDbEntity
  8
03__ASM_ALL_CURVES
100
AcDbSpline
 62
40
  6
CONTINUOUS
 70
0
 71
3
 72
8
 73
4
 74
0
 42
0.0000001
 43
0.0000001
 44
0.0000000001
 40
0.0
 40
0.0
 40
0.0
 40
0.0
 40
1.0
 40
1.0
 40
1.0
 40
1.0
 10
220.3543399035
 20
84.9610979939
 30
0.0
 10
220.3543399035
 20
84.8783043354
 30
0.0
 10
220.4471781171
 20
84.7854661219
 30
0.0
 10
220.5299717755
 20
84.7854661219
 30
0.0
  0
SPLINE
  5
38C
100
AcDbEntity
  8
03__ASM_ALL_CURVES
100
AcDbSpline
 62
40
  6
CONTINUOUS
 70
0
 71
3
 72
8
 73
4
 74
0
 42
0.0000001
 43
0.0000001
 44
0.0000000001
 40
0.0
 40
0.0
 40
0.0
 40
0.0
 40
1.0
 40
1.0
 40
1.0
 40
1.0
 10
219.7196819591
 20
86.8491837917
 30
0.0
 10
219.7196819591
 20
86.7665732424
 30
0.0
 10
219.8125305857
 20
86.6741563559
 30
0.0
 10
219.895141135
 20
86.6741563559
 30
0.0
  0
SPLINE
  5
38D
100
AcDbEntity
  8
03__ASM_ALL_CURVES
100
AcDbSpline
 62
40
  6
CONTINUOUS
 70
0
 71
3
 72
8
 73
4
 74
0
 42
0.0000001
 43
0.0000001
 44
0.0000000001
 40
0.0
 40
0.0
 40
0.0
 40
0.0
 40
1.0
 40
1.0
 40
1.0
 40
1.0
 10
206.5608481992
 20
84.9610979939
 30
0.0
 10
206.5608481992
 20
84.8783043354
 30
0.0
 10
206.6536864127
 20
84.7854661219
 30
0.0
 10
206.7364800712
 20
84.7854661219
 30
0.0
  0
SPLINE
  5
38E
100
AcDbEntity
  8
03__ASM_ALL_CURVES
100
AcDbSpline
 62
40
  6
CONTINUOUS
 70
0
 71
3
 72
8
 73
4
 74
0
 42
0.0000001
 43
0.0000001
 44
0.0000000001
 40
0.0
 40
0.0
 40
0.0
 40
0.0
 40
1.0
 40
1.0
 40
1.0
 40
1.0
 10
205.9260175587
 20
86.8491837917
 30
0.0
 10
205.9260175587
 20
86.7665528624
 30
0.0
 10
206.0189321533
 20
86.6741563559
 30
0.0
 10
206.1015630826
 20
86.6741563559
 30
0.0
  0
SPLINE
  5
38F
100
AcDbEntity
  8
03__ASM_ALL_CURVES
100
AcDbSpline
 62
40
  6
CONTINUOUS
 70
0
 71
3
 72
8
 73
4
 74
0
 42
0.0000001
 43
0.0000001
 44
0.0000000001
 40
0.0
 40
0.0
 40
0.0
 40
0.0
 40
1.0
 40
1.0
 40
1.0
 40
1.0
 10
221.7360809141
 20
84.9610979939
 30
0.0
 10
221.7360809141
 20
84.8785076089
 30
0.0
 10
221.8282589209
 20
84.7854661219
 30
0.0
 10
221.9108493059
 20
84.7854661219
 30
0.0
  0
SPLINE
  5
390
100
AcDbEntity
  8
03__ASM_ALL_CURVES
100
AcDbSpline
 62
40
  6
CONTINUOUS
 70
0
 71
3
 72
13
 73
9
 74
0
 42
0.0000001
 43
0.0000001
 44
0.0000000001
 40
0.0
 40
0.0
 40
0.0
 40
0.0
 40
0.2274579106
 40
0.3481039998
 40
0.4975883831
 40
0.6503482535
 40
0.7723351924
 40
1.0
 40
1.0
 40
1.0
 40
1.0
 10
208.6539241957
 20
86.0260281203
 30
0.0
 10
208.7355521798
 20
86.0260281203
 30
0.0
 10
208.8700478476
 20
86.0559406137
 30
0.0
 10
208.9863793091
 20
86.2016243758
 30
0.0
 10
209.0097898823
 20
86.3561502293
 30
0.0
 10
208.9866032835
 20
86.5110189911
 30
0.0
 10
208.8710142399
 20
86.659542686
 30
0.0
 10
208.7356264291
 20
86.6900443915
 30
0.0
 10
208.6539241957
 20
86.6900443915
 30
0.0
  0
SPLINE
  5
391
100
AcDbEntity
  8
03__ASM_ALL_CURVES
100
AcDbSpline
 62
40
  6
CONTINUOUS
 70
0
 71
3
 72
9
 73
5
 74
0
 42
0.0000001
 43
0.0000001
 44
0.0000000001
 40
0.0
 40
0.0
 40
0.0
 40
0.0
 40
0.5010847227
 40
1.0
 40
1.0
 40
1.0
 40
1.0
 10
209.4444403157
 20
86.3517328505
 30
0.0
 10
209.4444403157
 20
86.5441465431
 30
0.0
 10
209.3012102798
 20
86.9610465583
 30
0.0
 10
208.8835843103
 20
87.0852592775
 30
0.0
 10
208.6920036724
 20
87.0852592775
 30
0.0
  0
SPLINE
  5
392
100
AcDbEntity
  8
03__ASM_ALL_CURVES
100
AcDbSpline
 62
40
  6
CONTINUOUS
 70
0
 71
3
 72
8
 73
4
 74
0
 42
0.0000001
 43
0.0000001
 44
0.0000000001
 40
0.0
 40
0.0
 40
0.0
 40
0.0
 40
1.0
 40
1.0
 40
1.0
 40
1.0
 10
207.9234199494
 20
84.9610979939
 30
0.0
 10
207.9234199494
 20
84.8783043354
 30
0.0
 10
208.0162581629
 20
84.7854661219
 30
0.0
 10
208.0990518214
 20
84.7854661219
 30
0.0
  0
SPLINE
  5
393
100
AcDbEntity
  8
03__ASM_ALL_CURVES
100
AcDbSpline
 62
40
  6
CONTINUOUS
 70
0
 71
3
 72
8
 73
4
 74
0
 42
0.0000001
 43
0.0000001
 44
0.0000000001
 40
0.0
 40
0.0
 40
0.0
 40
0.0
 40
1.0
 40
1.0
 40
1.0
 40
1.0
 10
209.0171903144
 20
84.9163697197
 30
0.0
 10
209.0552221597
 20
84.8400309345
 30
0.0
 10
209.1517444403
 20
84.7854661219
 30
0.0
 10
209.2370323725
 20
84.7854661219
 30
0.0
  0
SPLINE
  5
394
100
AcDbEntity
  8
03__ASM_ALL_CURVES
100
AcDbSpline
 62
40
  6
CONTINUOUS
 70
0
 71
3
 72
8
 73
4
 74
0
 42
0.0000001
 43
0.0000001
 44
0.0000000001
 40
0.0
 40
0.0
 40
0.0
 40
0.0
 40
1.0
 40
1.0
 40
1.0
 40
1.0
 10
209.0553561391
 20
85.7169022099
 30
0.0
 10
209.2786554725
 20
85.825239701
 30
0.0
 10
209.4444403157
 20
86.1035401747
 30
0.0
 10
209.4444403157
 20
86.3517328505
 30
0.0
  0
SPLINE
  5
395
100
AcDbEntity
  8
1-2_1
100
AcDbSpline
 62
7
  6
CONTINUOUS
 70
0
 71
3
 72
9
 73
5
 74
0
 42
0.0000001
 43
0.0000001
 44
0.0000000001
 40
0.0
 40
0.0
 40
0.0
 40
0.0
 40
0.5810340389
 40
1.0
 40
1.0
 40
1.0
 40
1.0
 10
171.0428858782
 20
97.2655469922
 30
0.0
 10
171.0420438011
 20
97.2670016747
 30
0.0
 10
171.0402665142
 20
97.2701518526
 30
0.0
 10
171.0367955403
 20
97.2689611664
 30
0.0
 10
171.035938908
 20
97.2681037769
 30
0.0
  0
SPLINE
  5
396
100
AcDbEntity
  8
1-2_1
100
AcDbSpline
 62
7
  6
CONTINUOUS
 70
0
 71
3
 72
23
 73
19
 74
0
 42
0.0000001
 43
0.0000001
 44
0.0000000001
 40
0.0
 40
0.0
 40
0.0
 40
0.0
 40
0.1787279612
 40
0.3567244183
 40
0.5258384017
 40
0.6045936318
 40
0.6782729085
 40
0.7460561199
 40
0.8070989579
 40
0.860714831
 40
0.9063496215
 40
0.9434450913
 40
0.9586474042
 40
0.9715591276
 40
0.9821516475
 40
0.9904164073
 40
0.9963551779
 40
1.0
 40
1.0
 40
1.0
 40
1.0
 10
191.3812098866
 20
85.3714983175
 30
0.0
 10
191.3627379473
 20
86.0084596358
 30
0.0
 10
191.3266411317
 20
87.2797975643
 30
0.0
 10
191.2732040487
 20
89.1538376744
 30
0.0
 10
191.2277978422
 20
90.6715236541
 30
0.0
 10
191.1907253001
 20
91.8173601613
 30
0.0
 10
191.1636088759
 20
92.6020474639
 30
0.0
 10
191.1365566562
 20
93.3235459775
 30
0.0
 10
191.1095440915
 20
93.9734574117
 30
0.0
 10
191.0826173053
 20
94.544332124
 30
0.0
 10
191.0558484048
 20
95.0297196542
 30
0.0
 10
191.0325162233
 20
95.3781274103
 30
0.0
 10
191.0131988718
 20
95.6098163415
 30
0.0
 10
190.9997653762
 20
95.7471880482
 30
0.0
 10
190.9863706696
 20
95.8596236504
 30
0.0
 10
190.9733014059
 20
95.9472040699
 30
0.0
 10
190.9602458517
 20
96.0092698135
 30
0.0
 10
190.9502531583
 20
96.0424478334
 30
0.0
 10
190.9437519051
 20
96.0536997747
 30
0.0
  0
SPLINE
  5
397
100
AcDbEntity
  8
1-2_1
100
AcDbSpline
 62
7
  6
CONTINUOUS
 70
0
 71
3
 72
9
 73
5
 74
0
 42
0.0000001
 43
0.0000001
 44
0.0000000001
 40
0.0
 40
0.0
 40
0.0
 40
0.0
 40
0.2072526896
 40
1.0
 40
1.0
 40
1.0
 40
1.0
 10
177.3920068211
 20
97.3540270025
 30
0.0
 10
177.3927326106
 20
97.352776644
 30
0.0
 10
177.3959735279
 20
97.346592285
 30
0.0
 10
177.3984094713
 20
97.3400217293
 30
0.0
 10
177.4001595729
 20
97.3347759657
 30
0.0
  0
SPLINE
  5
398
100
AcDbEntity
  8
1-2_1
100
AcDbSpline
 62
7
  6
CONTINUOUS
 70
0
 71
3
 72
33
 73
29
 74
0
 42
0.0000001
 43
0.0000001
 44
0.0000000001
 40
0.0
 40
0.0
 40
0.0
 40
0.0
 40
0.0023655739
 40
0.0057947854
 40
0.015848763
 40
0.0301095194
 40
0.048461705
 40
0.0707509807
 40
0.0967834964
 40
0.1263341342
 40
0.1591461527
 40
0.2333818705
 40
0.3169067793
 40
0.4068117903
 40
0.4999640895
 40
0.5931177384
 40
0.683026801
 40
0.7665582903
 40
0.840802735
 40
0.873619849
 40
0.9031761227
 40
0.9292147018
 40
0.9515104718
 40
0.9698694411
 40
0.9841371795
 40
0.9941982691
 40
0.997630989
 40
1.0
 40
1.0
 40
1.0
 40
1.0
 10
177.4001595729
 20
97.3347759657
 30
0.0
 10
177.4052661349
 20
97.3194695312
 30
0.0
 10
177.4141444601
 20
97.2808342367
 30
0.0
 10
177.431767195
 20
97.1741959795
 30
0.0
 10
177.4516015151
 20
96.9858450226
 30
0.0
 10
177.4745971973
 20
96.6957564943
 30
0.0
 10
177.4977104552
 20
96.3219437699
 30
0.0
 10
177.5211046583
 20
95.8677597978
 30
0.0
 10
177.5445768816
 20
95.3370975422
 30
0.0
 10
177.5681370922
 20
94.7346055143
 30
0.0
 10
177.6009696409
 20
93.8034320862
 30
0.0
 10
177.6410593019
 20
92.5041320309
 30
0.0
 10
177.6876713092
 20
90.8154240432
 30
0.0
 10
177.7343995263
 20
88.9976421716
 30
0.0
 10
177.7811906262
 20
87.1141630675
 30
0.0
 10
177.827981751
 20
85.2306563193
 30
0.0
 10
177.874710053
 20
83.4127926951
 30
0.0
 10
177.9213221941
 20
81.7239526133
 30
0.0
 10
177.9614116126
 20
80.4245133168
 30
0.0
 10
177.9942437749
 20
79.4932070693
 30
0.0
 10
178.0178038651
 20
78.8906003853
 30
0.0
 10
178.0412764712
 20
78.3598139466
 30
0.0
 10
178.0646711403
 20
77.9054978447
 30
0.0
 10
178.0877839221
 20
77.5315468053
 30
0.0
 10
178.1107804756
 20
77.2413151108
 30
0.0
 10
178.1306211808
 20
77.0528448115
 30
0.0
 10
178.1482367156
 20
76.9461080755
 30
0.0
 10
178.1571100679
 20
76.9074235868
 30
0.0
 10
178.1622134525
 20
76.892091381
 30
0.0
  0
SPLINE
  5
399
100
AcDbEntity
  8
1-2_1
100
AcDbSpline
 62
7
  6
CONTINUOUS
 70
0
 71
3
 72
9
 73
5
 74
0
 42
0.0000001
 43
0.0000001
 44
0.0000000001
 40
0.0
 40
0.0
 40
0.0
 40
0.0
 40
0.6645304952
 40
1.0
 40
1.0
 40
1.0
 40
1.0
 10
178.1622134525
 20
76.892091381
 30
0.0
 10
178.1646921228
 20
76.88464466
 30
0.0
 10
178.1680682393
 20
76.8741226895
 30
0.0
 10
178.1772480589
 20
76.8633745187
 30
0.0
 10
178.1812101051
 20
76.8633745187
 30
0.0
  0
SPLINE
  5
39A
100
AcDbEntity
  8
1-2_1
100
AcDbSpline
 62
7
  6
CONTINUOUS
 70
0
 71
3
 72
18
 73
14
 74
0
 42
0.0000001
 43
0.0000001
 44
0.0000000001
 40
0.0
 40
0.0
 40
0.0
 40
0.0
 40
0.218855634
 40
0.4125250213
 40
0.5799530093
 40
0.7203110791
 40
0.8328818018
 40
0.8785858343
 40
0.917171029
 40
0.948594597
 40
0.9728386545
 40
0.9899310852
 40
1.0
 40
1.0
 40
1.0
 40
1.0
 10
171.1312072708
 20
95.6360014271
 30
0.0
 10
171.1277115758
 20
95.7551084434
 30
0.0
 10
171.1207734564
 20
95.9796055855
 30
0.0
 10
171.1097934999
 20
96.2951768434
 30
0.0
 10
171.0990286209
 20
96.5679895721
 30
0.0
 10
171.0883795706
 20
96.7966099838
 30
0.0
 10
171.0789756221
 20
96.9589426017
 30
0.0
 10
171.0711162844
 20
97.0658340686
 30
0.0
 10
171.0656622344
 20
97.1286117535
 30
0.0
 10
171.0602088584
 20
97.1796139847
 30
0.0
 10
171.054932093
 20
97.2189553891
 30
0.0
 10
171.0496081637
 20
97.2463041405
 30
0.0
 10
171.0456323613
 20
97.2608024618
 30
0.0
 10
171.0428858782
 20
97.2655469922
 30
0.0
  0
SPLINE
  5
39B
100
AcDbEntity
  8
1-2_1
100
AcDbSpline
 62
7
  6
CONTINUOUS
 70
0
 71
3
 72
9
 73
5
 74
0
 42
0.0000001
 43
0.0000001
 44
0.0000000001
 40
0.0
 40
0.0
 40
0.0
 40
0.0
 40
0.2080677534
 40
1.0
 40
1.0
 40
1.0
 40
1.0
 10
172.592183796
 20
97.3538098125
 30
0.0
 10
172.5928984247
 20
97.3525664876
 30
0.0
 10
172.5960815921
 20
97.3464465235
 30
0.0
 10
172.5984850599
 20
97.3399544564
 30
0.0
 10
172.6002100764
 20
97.3347759669
 30
0.0
  0
SPLINE
  5
39C
100
AcDbEntity
  8
1-2_1
100
AcDbSpline
 62
7
  6
CONTINUOUS
 70
0
 71
3
 72
35
 73
31
 74
0
 42
0.0000001
 43
0.0000001
 44
0.0000000001
 40
0.0
 40
0.0
 40
0.0
 40
0.0
 40
0.0023652012
 40
0.0057941777
 40
0.0102908886
 40
0.0158489326
 40
0.0301097293
 40
0.0484618978
 40
0.0707511655
 40
0.0967836763
 40
0.1263343057
 40
0.1591463149
 40
0.2333820126
 40
0.3169068987
 40
0.4068118852
 40
0.4999641591
 40
0.5931177826
 40
0.6830268208
 40
0.7665582872
 40
0.8408027119
 40
0.8736198166
 40
0.9031760819
 40
0.9292146566
 40
0.9515104179
 40
0.9698693673
 40
0.9841371572
 40
0.9896987614
 40
0.9941990199
 40
0.9976314489
 40
1.0
 40
1.0
 40
1.0
 40
1.0
 10
172.6002100764
 20
97.3347759669
 30
0.0
 10
172.6053088102
 20
97.3194695977
 30
0.0
 10
172.6141486123
 20
97.2808292067
 30
0.0
 10
172.6256173329
 20
97.2115966215
 30
0.0
 10
172.6371788333
 20
97.120321395
 30
0.0
 10
172.6542168281
 20
96.9553398021
 30
0.0
 10
172.6745133528
 20
96.695727929
 30
0.0
 10
172.6977412963
 20
96.321954189
 30
0.0
 10
172.7210927639
 20
95.8677561592
 30
0.0
 10
172.7445811491
 20
95.3370987636
 30
0.0
 10
172.7681358936
 20
94.734605148
 30
0.0
 10
172.8009703343
 20
93.8034323406
 30
0.0
 10
172.8410590431
 20
92.5041319382
 30
0.0
 10
172.8876713877
 20
90.8154240768
 30
0.0
 10
172.9343995046
 20
88.997642166
 30
0.0
 10
172.9811906266
 20
87.1141630681
 30
0.0
 10
173.0279817712
 20
85.230656326
 30
0.0
 10
173.0747099798
 20
83.412792663
 30
0.0
 10
173.1213224357
 20
81.7239527058
 30
0.0
 10
173.161410951
 20
80.4245130659
 30
0.0
 10
173.1942449723
 20
79.4932074349
 30
0.0
 10
173.2177994851
 20
78.8905991652
 30
0.0
 10
173.2412884604
 20
78.3598175668
 30
0.0
 10
173.2646410194
 20
77.9054875415
 30
0.0
 10
173.2878653973
 20
77.5315750479
 30
0.0
 10
173.3081659763
 20
77.2718449026
 30
0.0
 10
173.3252088788
 20
77.1067670937
 30
0.0
 10
173.336770614
 20
77.0154194599
 30
0.0
 10
173.3482295814
 20
76.9461138258
 30
0.0
 10
173.3570570927
 20
76.9074235035
 30
0.0
 10
173.3621507979
 20
76.89209138
 30
0.0
  0
SPLINE
  5
39D
100
AcDbEntity
  8
1-2_1
100
AcDbSpline
 62
7
  6
CONTINUOUS
 70
0
 71
3
 72
9
 73
5
 74
0
 42
0.0000001
 43
0.0000001
 44
0.0000000001
 40
0.0
 40
0.0
 40
0.0
 40
0.0
 40
0.6636343593
 40
1.0
 40
1.0
 40
1.0
 40
1.0
 10
173.3621507979
 20
76.89209138
 30
0.0
 10
173.3646253365
 20
76.8846429843
 30
0.0
 10
173.3679944656
 20
76.8740802699
 30
0.0
 10
173.3772319661
 20
76.8633745187
 30
0.0
 10
173.3812101051
 20
76.8633745187
 30
0.0
  0
SPLINE
  5
39E
100
AcDbEntity
  8
1-2_1
100
AcDbSpline
 62
7
  6
CONTINUOUS
 70
0
 71
3
 72
9
 73
5
 74
0
 42
0.0000001
 43
0.0000001
 44
0.0000000001
 40
0.0
 40
0.0
 40
0.0
 40
0.0
 40
0.2076781905
 40
1.0
 40
1.0
 40
1.0
 40
1.0
 10
178.9920947685
 20
97.3539127572
 30
0.0
 10
178.9928145752
 20
97.35266604
 30
0.0
 10
178.9960247578
 20
97.3465153875
 30
0.0
 10
178.9984438282
 20
97.3399862575
 30
0.0
 10
179.0001809697
 20
97.3347759664
 30
0.0
  0
SPLINE
  5
39F
100
AcDbEntity
  8
1-2_1
100
AcDbSpline
 62
7
  6
CONTINUOUS
 70
0
 71
3
 72
35
 73
31
 74
0
 42
0.0000001
 43
0.0000001
 44
0.0000000001
 40
0.0
 40
0.0
 40
0.0
 40
0.0
 40
0.0023654139
 40
0.0057945228
 40
0.0102912516
 40
0.0158492709
 40
0.0301100322
 40
0.0484621949
 40
0.0707514482
 40
0.0967839397
 40
0.1263345488
 40
0.1591465354
 40
0.2333821815
 40
0.3169070095
 40
0.4068119336
 40
0.4999641427
 40
0.5931177016
 40
0.6830266772
 40
0.7665580856
 40
0.8408024587
 40
0.8736195407
 40
0.9031757857
 40
0.9292143409
 40
0.9515100881
 40
0.9698690323
 40
0.9841367839
 40
0.9896983615
 40
0.9941986405
 40
0.9976312155
 40
1.0
 40
1.0
 40
1.0
 40
1.0
 10
179.0001809697
 20
97.3347759664
 30
0.0
 10
179.005284215
 20
97.3194695598
 30
0.0
 10
179.0141419442
 20
97.2808310331
 30
0.0
 10
179.0256257268
 20
97.2115978548
 30
0.0
 10
179.0371878034
 20
97.1203217583
 30
0.0
 10
179.0542178502
 20
96.9553394828
 30
0.0
 10
179.0745090292
 20
96.6957275883
 30
0.0
 10
179.0977427218
 20
96.3219543132
 30
0.0
 10
179.1210930467
 20
95.8677561589
 30
0.0
 10
179.1445808362
 20
95.3370987453
 30
0.0
 10
179.1681359209
 20
94.7346051477
 30
0.0
 10
179.2009703898
 20
93.8034323395
 30
0.0
 10
179.2410590114
 20
92.504131934
 30
0.0
 10
179.2876713973
 20
90.8154240747
 30
0.0
 10
179.3343995023
 20
88.9976421639
 30
0.0
 10
179.3811906265
 20
87.1141630668
 30
0.0
 10
179.4279817739
 20
85.2306563256
 30
0.0
 10
179.4747099689
 20
83.4127926627
 30
0.0
 10
179.5213224718
 20
81.723952708
 30
0.0
 10
179.5614108877
 20
80.4245130647
 30
0.0
 10
179.5942449453
 20
79.4932074334
 30
0.0
 10
179.6177998316
 20
78.8905991837
 30
0.0
 10
179.6412881281
 20
78.3598175644
 30
0.0
 10
179.6646394766
 20
77.905487404
 30
0.0
 10
179.6878702044
 20
77.5315754275
 30
0.0
 10
179.7081647424
 20
77.2718452462
 30
0.0
 10
179.725198959
 20
77.1067666904
 30
0.0
 10
179.7367614027
 20
77.0154181025
 30
0.0
 10
179.7482370196
 20
76.9461118292
 30
0.0
 10
179.7570842288
 20
76.9074235454
 30
0.0
 10
179.762182892
 20
76.8920913803
 30
0.0
  0
SPLINE
  5
3A0
100
AcDbEntity
  8
1-2_1
100
AcDbSpline
 62
7
  6
CONTINUOUS
 70
0
 71
3
 72
9
 73
5
 74
0
 42
0.0000001
 43
0.0000001
 44
0.0000000001
 40
0.0
 40
0.0
 40
0.0
 40
0.0
 40
0.6640933444
 40
1.0
 40
1.0
 40
1.0
 40
1.0
 10
179.762182892
 20
76.8920913803
 30
0.0
 10
179.7646595473
 20
76.8846438423
 30
0.0
 10
179.7680322187
 20
76.8741019818
 30
0.0
 10
179.7772402141
 20
76.8633745187
 30
0.0
 10
179.7812101051
 20
76.8633745187
 30
0.0
  0
SPLINE
  5
3A1
100
AcDbEntity
  8
1-2_1
100
AcDbSpline
 62
7
  6
CONTINUOUS
 70
0
 71
3
 72
26
 73
22
 74
0
 42
0.0000001
 43
0.0000001
 44
0.0000000001
 40
0.0
 40
0.0
 40
0.0
 40
0.0
 40
0.0522953897
 40
0.1142042273
 40
0.2607572855
 40
0.4257351269
 40
0.5102597203
 40
0.5934520668
 40
0.6733231165
 40
0.7479634682
 40
0.8155892086
 40
0.8745849525
 40
0.9003980416
 40
0.9235428588
 40
0.9438837875
 40
0.9612984199
 40
0.9756871034
 40
0.9869650629
 40
0.9950765851
 40
0.9979352808
 40
1.0
 40
1.0
 40
1.0
 40
1.0
 10
171.1312072708
 20
95.636001427
 30
0.0
 10
171.1459689164
 20
95.3093543193
 30
0.0
 10
171.1737802159
 20
94.5958157414
 30
0.0
 10
171.2284963371
 20
92.966329426
 30
0.0
 10
171.2932596908
 20
90.632255175
 30
0.0
 10
171.3553760269
 20
88.1566729902
 30
0.0
 10
171.4068961797
 20
86.0771139294
 30
0.0
 10
171.4458421867
 20
84.5295430853
 30
0.0
 10
171.484748086
 20
83.0437931095
 30
0.0
 10
171.5235770748
 20
81.6554070396
 30
0.0
 10
171.5622962644
 20
80.3975976699
 30
0.0
 10
171.5956888634
 20
79.4450694443
 30
0.0
 10
171.6229960729
 20
78.7706324752
 30
0.0
 10
171.6425212001
 20
78.3377755516
 30
0.0
 10
171.6619792819
 20
77.9574843804
 30
0.0
 10
171.6813825853
 20
77.6320267314
 30
0.0
 10
171.700573161
 20
77.3633195935
 30
0.0
 10
171.7196457004
 20
77.1529974991
 30
0.0
 10
171.7362421945
 20
77.0147818638
 30
0.0
 10
171.7507177064
 20
76.9345755113
 30
0.0
 10
171.7580458356
 20
76.9046065066
 30
0.0
 10
171.7621039044
 20
76.8923511021
 30
0.0
  0
SPLINE
  5
3A2
100
AcDbEntity
  8
1-2_1
100
AcDbSpline
 62
7
  6
CONTINUOUS
 70
0
 71
3
 72
9
 73
5
 74
0
 42
0.0000001
 43
0.0000001
 44
0.0000000001
 40
0.0
 40
0.0
 40
0.0
 40
0.0
 40
0.6646630275
 40
1.0
 40
1.0
 40
1.0
 40
1.0
 10
171.7621039044
 20
76.8923511021
 30
0.0
 10
171.7645914869
 20
76.8848385803
 30
0.0
 10
171.7679721387
 20
76.8742260572
 30
0.0
 10
171.7772174938
 20
76.8633745187
 30
0.0
 10
171.7812101087
 20
76.8633745187
 30
0.0
  0
SPLINE
  5
3A3
100
AcDbEntity
  8
1-2_1
100
AcDbSpline
 62
7
  6
CONTINUOUS
 70
0
 71
3
 72
9
 73
5
 74
0
 42
0.0000001
 43
0.0000001
 44
0.0000000001
 40
0.0
 40
0.0
 40
0.0
 40
0.0
 40
0.2081536847
 40
1.0
 40
1.0
 40
1.0
 40
1.0
 10
180.5922043714
 20
97.3537872537
 30
0.0
 10
180.5929178875
 20
97.3525446852
 30
0.0
 10
180.5960952075
 20
97.3464314797
 30
0.0
 10
180.5984952133
 20
97.3399475061
 30
0.0
 10
180.6002175255
 20
97.334775967
 30
0.0
  0
SPLINE
  5
3A4
100
AcDbEntity
  8
1-2_1
100
AcDbSpline
 62
7
  6
CONTINUOUS
 70
0
 71
3
 72
35
 73
31
 74
0
 42
0.0000001
 43
0.0000001
 44
0.0000000001
 40
0.0
 40
0.0
 40
0.0
 40
0.0
 40
0.0023651468
 40
0.0057940894
 40
0.0102907957
 40
0.015848846
 40
0.0301096517
 40
0.0484618215
 40
0.0707510926
 40
0.0967836082
 40
0.1263342425
 40
0.1591462573
 40
0.2333819676
 40
0.3169068678
 40
0.4068118696
 40
0.4999641593
 40
0.5931177986
 40
0.683026852
 40
0.7665583326
 40
0.8408027699
 40
0.8736198802
 40
0.9031761504
 40
0.9292147299
 40
0.9515104947
 40
0.9698694454
 40
0.9841372443
 40
0.9896988548
 40
0.9941991086
 40
0.9976315034
 40
1.0
 40
1.0
 40
1.0
 40
1.0
 10
180.6002175255
 20
97.334775967
 30
0.0
 10
180.6053151047
 20
97.3194696072
 30
0.0
 10
180.6141503185
 20
97.2808287397
 30
0.0
 10
180.6256151847
 20
97.211596306
 30
0.0
 10
180.6371765376
 20
97.1203213018
 30
0.0
 10
180.6542165665
 20
96.9553398837
 30
0.0
 10
180.6745144593
 20
96.695728016
 30
0.0
 10
180.6977409315
 20
96.3219541569
 30
0.0
 10
180.7210926915
 20
95.867756159
 30
0.0
 10
180.7445812292
 20
95.337098768
 30
0.0
 10
180.7681358867
 20
94.7346051479
 30
0.0
 10
180.8009703201
 20
93.8034323406
 30
0.0
 10
180.8410590513
 20
92.5041319391
 30
0.0
 10
180.8876713852
 20
90.8154240772
 30
0.0
 10
180.9343995051
 20
88.9976421665
 30
0.0
 10
180.9811906265
 20
87.1141630685
 30
0.0
 10
181.0279817706
 20
85.2306563264
 30
0.0
 10
181.0747099823
 20
83.4127926633
 30
0.0
 10
181.1213224273
 20
81.7239527056
 30
0.0
 10
181.1614109659
 20
80.4245130666
 30
0.0
 10
181.1942449785
 20
79.4932074356
 30
0.0
 10
181.217799404
 20
78.8905991612
 30
0.0
 10
181.2412885381
 20
78.3598175677
 30
0.0
 10
181.2646413804
 20
77.9054875739
 30
0.0
 10
181.2878642724
 20
77.5315749593
 30
0.0
 10
181.308166265
 20
77.2718448223
 30
0.0
 10
181.3252112
 20
77.1067671883
 30
0.0
 10
181.3367727694
 20
77.0154197774
 30
0.0
 10
181.3482278413
 20
76.9461142925
 30
0.0
 10
181.3570507429
 20
76.9074234939
 30
0.0
 10
181.362143288
 20
76.8920913799
 30
0.0
  0
SPLINE
  5
3A5
100
AcDbEntity
  8
1-2_1
100
AcDbSpline
 62
7
  6
CONTINUOUS
 70
0
 71
3
 72
9
 73
5
 74
0
 42
0.0000001
 43
0.0000001
 44
0.0000000001
 40
0.0
 40
0.0
 40
0.0
 40
0.0
 40
0.6635269739
 40
1.0
 40
1.0
 40
1.0
 40
1.0
 10
181.362143288
 20
76.8920913799
 30
0.0
 10
181.3646173312
 20
76.8846427837
 30
0.0
 10
181.3679856425
 20
76.8740751945
 30
0.0
 10
181.3772300347
 20
76.8633745187
 30
0.0
 10
181.3812101051
 20
76.8633745187
 30
0.0
  0
SPLINE
  5
3A6
100
AcDbEntity
  8
1-2_1
100
AcDbSpline
 62
7
  6
CONTINUOUS
 70
0
 71
3
 72
9
 73
5
 74
0
 42
0.0000001
 43
0.0000001
 44
0.0000000001
 40
0.0
 40
0.0
 40
0.0
 40
0.0
 40
0.2084719058
 40
1.0
 40
1.0
 40
1.0
 40
1.0
 10
174.1922849263
 20
97.3537046165
 30
0.0
 10
174.1929944666
 20
97.3524648647
 30
0.0
 10
174.1961506659
 20
97.3463765632
 30
0.0
 10
174.1985377822
 20
97.3399221161
 30
0.0
 10
174.2002499534
 20
97.334775967
 30
0.0
  0
SPLINE
  5
3A7
100
AcDbEntity
  8
1-2_1
100
AcDbSpline
 62
7
  6
CONTINUOUS
 70
0
 71
3
 72
35
 73
31
 74
0
 42
0.0000001
 43
0.0000001
 44
0.0000000001
 40
0.0
 40
0.0
 40
0.0
 40
0.0
 40
0.0023649102
 40
0.0057937053
 40
0.0102903914
 40
0.0158484689
 40
0.0301093132
 40
0.0484614883
 40
0.070750774
 40
0.0967833096
 40
0.1263339647
 40
0.1591460027
 40
0.233381766
 40
0.3169067256
 40
0.4068117914
 40
0.4999641474
 40
0.5931178532
 40
0.6830269706
 40
0.7665585107
 40
0.8408030009
 40
0.8736201344
 40
0.9031764254
 40
0.9292150248
 40
0.9515108043
 40
0.9698697609
 40
0.9841375969
 40
0.989699233
 40
0.9941994676
 40
0.9976317243
 40
1.0
 40
1.0
 40
1.0
 40
1.0
 10
174.2002499534
 20
97.334775967
 30
0.0
 10
174.2053425068
 20
97.3194696474
 30
0.0
 10
174.2141577446
 20
97.2808267083
 30
0.0
 10
174.225605833
 20
97.2115949333
 30
0.0
 10
174.2371665441
 20
97.1203208955
 30
0.0
 10
174.2542154278
 20
96.9553402381
 30
0.0
 10
174.2745192763
 20
96.6957283937
 30
0.0
 10
174.2977393435
 20
96.3219540164
 30
0.0
 10
174.3210923766
 20
95.8677561569
 30
0.0
 10
174.344581578
 20
95.3370987859
 30
0.0
 10
174.3681358564
 20
94.7346051457
 30
0.0
 10
174.4009702583
 20
93.8034323394
 30
0.0
 10
174.4410590866
 20
92.5041319419
 30
0.0
 10
174.4876713745
 20
90.8154240782
 30
0.0
 10
174.5343995076
 20
88.9976421681
 30
0.0
 10
174.5811906265
 20
87.1141630702
 30
0.0
 10
174.6279817681
 20
85.230656328
 30
0.0
 10
174.6747099926
 20
83.4127926653
 30
0.0
 10
174.721322393
 20
81.7239527057
 30
0.0
 10
174.7614110259
 20
80.4245130702
 30
0.0
 10
174.794245004
 20
79.4932074397
 30
0.0
 10
174.8177990752
 20
78.8905991462
 30
0.0
 10
174.8412888533
 20
78.3598175724
 30
0.0
 10
174.864642844
 20
77.9054877065
 30
0.0
 10
174.8878597117
 20
77.5315746011
 30
0.0
 10
174.9081674354
 20
77.2718444976
 30
0.0
 10
174.9252206109
 20
77.1067675725
 30
0.0
 10
174.9367815085
 20
77.015421064
 30
0.0
 10
174.9482207872
 20
76.9461161835
 30
0.0
 10
174.9570249976
 20
76.9074234559
 30
0.0
 10
174.9621128393
 20
76.8920913801
 30
0.0
  0
SPLINE
  5
3A8
100
AcDbEntity
  8
1-2_1
100
AcDbSpline
 62
7
  6
CONTINUOUS
 70
0
 71
3
 72
9
 73
5
 74
0
 42
0.0000001
 43
0.0000001
 44
0.0000000001
 40
0.0
 40
0.0
 40
0.0
 40
0.0
 40
0.663091644
 40
1.0
 40
1.0
 40
1.0
 40
1.0
 10
174.9621128393
 20
76.8920913801
 30
0.0
 10
174.9645848735
 20
76.8846419706
 30
0.0
 10
174.9679499124
 20
76.8740546366
 30
0.0
 10
174.9772221984
 20
76.8633745187
 30
0.0
 10
174.9812101051
 20
76.8633745187
 30
0.0
  0
SPLINE
  5
3A9
100
AcDbEntity
  8
1-2_1
100
AcDbSpline
 62
7
  6
CONTINUOUS
 70
0
 71
3
 72
9
 73
5
 74
0
 42
0.0000001
 43
0.0000001
 44
0.0000000001
 40
0.0
 40
0.0
 40
0.0
 40
0.0
 40
0.208652365
 40
1.0
 40
1.0
 40
1.0
 40
1.0
 10
187.6700784157
 20
76.8730880321
 30
0.0
 10
187.6693707104
 20
76.8743262308
 30
0.0
 10
187.666224968
 20
76.8804010342
 30
0.0
 10
187.6638452298
 20
76.886840191
 30
0.0
 10
187.6621390891
 20
76.8919730707
 30
0.0
  0
SPLINE
  5
3AA
100
AcDbEntity
  8
1-2_1
100
AcDbSpline
 62
7
  6
CONTINUOUS
 70
0
 71
3
 72
35
 73
31
 74
0
 42
0.0000001
 43
0.0000001
 44
0.0000000001
 40
0.0
 40
0.0
 40
0.0
 40
0.0
 40
0.002364683
 40
0.0057933364
 40
0.0102900027
 40
0.0158481061
 40
0.0301089866
 40
0.0484611656
 40
0.070750464
 40
0.0967830171
 40
0.1263336904
 40
0.1591457486
 40
0.233381558
 40
0.3169065696
 40
0.4068116912
 40
0.499964105
 40
0.5931178685
 40
0.6830270418
 40
0.7665586337
 40
0.8408031701
 40
0.8736203239
 40
0.9031766331
 40
0.9292152498
 40
0.9515110421
 40
0.9698700045
 40
0.9841378704
 40
0.9896995268
 40
0.9941997468
 40
0.9976318962
 40
1.0
 40
1.0
 40
1.0
 40
1.0
 10
187.6621390891
 20
76.8919730707
 30
0.0
 10
187.6570513659
 20
76.9072793527
 30
0.0
 10
187.6482553305
 20
76.9459242786
 30
0.0
 10
187.6368233656
 20
77.0151554224
 30
0.0
 10
187.6252632711
 20
77.1064285337
 30
0.0
 10
187.6082058767
 20
77.2714084597
 30
0.0
 10
187.587896304
 20
77.5310202823
 30
0.0
 10
187.5646823929
 20
77.904795158
 30
0.0
 10
187.5413281362
 20
78.3589928846
 30
0.0
 10
187.5178382969
 20
78.8896502366
 30
0.0
 10
187.4942843829
 20
79.4921438961
 30
0.0
 10
187.4614500113
 20
80.4233167015
 30
0.0
 10
187.4213610895
 20
81.7226170952
 30
0.0
 10
187.3747488459
 20
83.4113249603
 30
0.0
 10
187.3280207001
 20
85.2291068694
 30
0.0
 10
187.2812295839
 20
87.1125859668
 30
0.0
 10
187.2344384441
 20
88.9960927085
 30
0.0
 10
187.1877102096
 20
90.8139563702
 30
0.0
 10
187.141097844
 20
92.502796331
 30
0.0
 10
187.1010091376
 20
93.8022359634
 30
0.0
 10
187.0681751864
 20
94.7335415935
 30
0.0
 10
187.0446213915
 20
95.3361499018
 30
0.0
 10
187.0211311113
 20
95.8669314602
 30
0.0
 10
186.9977762249
 20
96.3212612265
 30
0.0
 10
186.9745640551
 20
96.6951747147
 30
0.0
 10
186.9542518621
 20
96.9549047925
 30
0.0
 10
186.9371922607
 20
97.1199811644
 30
0.0
 10
186.925631887
 20
97.2113269709
 30
0.0
 10
186.9142049223
 20
97.2806313811
 30
0.0
 10
186.9054152892
 20
97.3193256101
 30
0.0
 10
186.900331115
 20
97.3346576568
 30
0.0
  0
SPLINE
  5
3AB
100
AcDbEntity
  8
1-2_1
100
AcDbSpline
 62
7
  6
CONTINUOUS
 70
0
 71
3
 72
9
 73
5
 74
0
 42
0.0000001
 43
0.0000001
 44
0.0000000001
 40
0.0
 40
0.0
 40
0.0
 40
0.0
 40
0.6627522428
 40
1.0
 40
1.0
 40
1.0
 40
1.0
 10
186.900331115
 20
97.3346576568
 30
0.0
 10
186.8978606478
 20
97.3421077003
 30
0.0
 10
186.8944981129
 20
97.3527104095
 30
0.0
 10
186.8852041287
 20
97.3633745187
 30
0.0
 10
186.8812101051
 20
97.3633745187
 30
0.0
  0
SPLINE
  5
3AC
100
AcDbEntity
  8
1-2_1
100
AcDbSpline
 62
7
  6
CONTINUOUS
 70
0
 71
3
 72
11
 73
7
 74
0
 42
0.0000001
 43
0.0000001
 44
0.0000000001
 40
0.0
 40
0.0
 40
0.0
 40
0.0
 40
0.3786971642
 40
0.6716486145
 40
0.8783861261
 40
1.0
 40
1.0
 40
1.0
 40
1.0
 10
187.7145517814
 20
77.2126348525
 30
0.0
 10
187.7186643329
 20
77.1692892787
 30
0.0
 10
187.7267027815
 20
77.0925350588
 30
0.0
 10
187.739914631
 20
76.9922066883
 30
0.0
 10
187.7533000256
 20
76.9223662684
 30
0.0
 10
187.7631845701
 20
76.8852956732
 30
0.0
 10
187.7700844554
 20
76.8731342927
 30
0.0
  0
SPLINE
  5
3AD
100
AcDbEntity
  8
1-2_1
100
AcDbSpline
 62
7
  6
CONTINUOUS
 70
0
 71
3
 72
9
 73
5
 74
0
 42
0.0000001
 43
0.0000001
 44
0.0000000001
 40
0.0
 40
0.0
 40
0.0
 40
0.0
 40
0.3372974051
 40
1.0
 40
1.0
 40
1.0
 40
1.0
 10
187.7700844554
 20
76.8731342927
 30
0.0
 10
187.7709215229
 20
76.871658921
 30
0.0
 10
187.7734750045
 20
76.8675183674
 30
0.0
 10
187.7778773297
 20
76.8633745187
 30
0.0
 10
187.7812101051
 20
76.8633745187
 30
0.0
  0
SPLINE
  5
3AE
100
AcDbEntity
  8
1-2_1
100
AcDbSpline
 62
7
  6
CONTINUOUS
 70
0
 71
3
 72
36
 73
32
 74
0
 42
0.0000001
 43
0.0000001
 44
0.0000000001
 40
0.0
 40
0.0
 40
0.0
 40
0.0
 40
0.0018469981
 40
0.0047530517
 40
0.0087394597
 40
0.0138073073
 40
0.0199442047
 40
0.0271345094
 40
0.0446118945
 40
0.0661231008
 40
0.0915016516
 40
0.1204870513
 40
0.1528194369
 40
0.1882351799
 40
0.2264233192
 40
0.3097157518
 40
0.3997415228
 40
0.4933343491
 40
0.5871781532
 40
0.6779575966
 40
0.7624725817
 40
0.8377229901
 40
0.8710432074
 40
0.9010782986
 40
0.9275534782
 40
0.9502615096
 40
0.9690184214
 40
0.9836234324
 40
0.9939546305
 40
0.9975104025
 40
1.0
 40
1.0
 40
1.0
 40
1.0
 10
170.918680847
 20
78.1734628196
 30
0.0
 10
170.9131924312
 20
78.1830106796
 30
0.0
 10
170.9043088048
 20
78.2102761066
 30
0.0
 10
170.892857512
 20
78.2609888049
 30
0.0
 10
170.8813283828
 20
78.3314609427
 30
0.0
 10
170.8695886685
 20
78.4212565605
 30
0.0
 10
170.8577919123
 20
78.5303193337
 30
0.0
 10
170.8408635331
 20
78.7132135695
 30
0.0
 10
170.8203471599
 20
78.9878151325
 30
0.0
 10
170.796824722
 20
79.370893097
 30
0.0
 10
170.7732274408
 20
79.8226962287
 30
0.0
 10
170.7495185406
 20
80.3390900866
 30
0.0
 10
170.7257538235
 20
80.9153856478
 30
0.0
 10
170.7019544596
 20
81.5465940153
 30
0.0
 10
170.6692422937
 20
82.4815332613
 30
0.0
 10
170.6290932284
 20
83.7420249278
 30
0.0
 10
170.5820279968
 20
85.3328138036
 30
0.0
 10
170.5349301436
 20
86.9865416175
 30
0.0
 10
170.4878040133
 20
88.6447640877
 30
0.0
 10
170.4407508869
 20
90.2488393068
 30
0.0
 10
170.393811127
 20
91.7420024208
 30
0.0
 10
170.353439133
 20
92.8925927322
 30
0.0
 10
170.320397056
 20
93.718385076
 30
0.0
 10
170.2966701176
 20
94.2534840789
 30
0.0
 10
170.2730150197
 20
94.7252451901
 30
0.0
 10
170.2494347915
 20
95.1296558736
 30
0.0
 10
170.2261742512
 20
95.4632025191
 30
0.0
 10
170.2030262752
 20
95.7226647333
 30
0.0
 10
170.182926509
 20
95.8915105652
 30
0.0
 10
170.1652604043
 20
95.9875303692
 30
0.0
 10
170.1563515814
 20
96.0225761362
 30
0.0
 10
170.1512912669
 20
96.0365314886
 30
0.0
  0
SPLINE
  5
3AF
100
AcDbEntity
  8
1-2_1
100
AcDbSpline
 62
7
  6
CONTINUOUS
 70
0
 71
3
 72
9
 73
5
 74
0
 42
0.0000001
 43
0.0000001
 44
0.0000000001
 40
0.0
 40
0.0
 40
0.0
 40
0.0
 40
0.2860853025
 40
1.0
 40
1.0
 40
1.0
 40
1.0
 10
170.1512912669
 20
96.0365314886
 30
0.0
 10
170.1506915559
 20
96.0381853735
 30
0.0
 10
170.1485101722
 20
96.0439318912
 30
0.0
 10
170.1459845129
 20
96.0495712152
 30
0.0
 10
170.1437880337
 20
96.0533723966
 30
0.0
  0
SPLINE
  5
3B0
100
AcDbEntity
  8
1-2_1
100
AcDbSpline
 62
7
  6
CONTINUOUS
 70
0
 71
3
 72
39
 73
35
 74
0
 42
0.0000001
 43
0.0000001
 44
0.0000000001
 40
0.0
 40
0.0
 40
0.0
 40
0.0
 40
0.0018679683
 40
0.0048165893
 40
0.0088641465
 40
0.014011599
 40
0.0202493449
 40
0.0275612461
 40
0.0453383669
 40
0.0672072619
 40
0.0930074833
 40
0.1224737696
 40
0.1553251716
 40
0.1912920504
 40
0.2300543002
 40
0.3145117903
 40
0.4056437408
 40
0.5001845855
 40
0.594714247
 40
0.685828761
 40
0.7702548079
 40
0.8089818615
 40
0.8449352558
 40
0.8777806696
 40
0.9072081822
 40
0.9329516059
 40
0.9548017057
 40
0.9725761992
 40
0.9798744301
 40
0.9860832506
 40
0.9911959465
 40
0.9952133201
 40
0.9981410855
 40
1.0
 40
1.0
 40
1.0
 40
1.0
 10
186.9186750584
 20
78.1734752867
 30
0.0
 10
186.9131118693
 20
78.1831375927
 30
0.0
 10
186.9041552264
 20
78.2108211758
 30
0.0
 10
186.8925961032
 20
78.2623195399
 30
0.0
 10
186.8809577064
 20
78.3339605653
 30
0.0
 10
186.8690993464
 20
78.42528751
 30
0.0
 10
186.8571900933
 20
78.5362654811
 30
0.0
 10
186.8400968555
 20
78.7224639064
 30
0.0
 10
186.819391285
 20
79.0019980435
 30
0.0
 10
186.7956288558
 20
79.3919093837
 30
0.0
 10
186.7718034149
 20
79.851698731
 30
0.0
 10
186.7478689949
 20
80.3771081206
 30
0.0
 10
186.723870989
 20
80.9632531308
 30
0.0
 10
186.6998419709
 20
81.604923819
 30
0.0
 10
186.66682443
 20
82.5544933143
 30
0.0
 10
186.6263056018
 20
83.8332620857
 30
0.0
 10
186.5787919452
 20
85.4448978664
 30
0.0
 10
186.5312486492
 20
87.1166758113
 30
0.0
 10
186.483684492
 20
88.7883490458
 30
0.0
 10
186.4361862547
 20
90.3996266132
 30
0.0
 10
186.3956682453
 20
91.6778933828
 30
0.0
 10
186.3626316709
 20
92.6269836827
 30
0.0
 10
186.3386116192
 20
93.2683281508
 30
0.0
 10
186.3146295603
 20
93.8541258814
 30
0.0
 10
186.2906900248
 20
94.3789283231
 30
0.0
 10
186.2668341099
 20
94.8380325553
 30
0.0
 10
186.2430811667
 20
95.2274764773
 30
0.0
 10
186.2224029177
 20
95.5068027055
 30
0.0
 10
186.2053095527
 20
95.6927303022
 30
0.0
 10
186.1933945057
 20
95.8032433847
 30
0.0
 10
186.1815274173
 20
95.8940049816
 30
0.0
 10
186.1698824925
 20
95.9651247753
 30
0.0
 10
186.158321444
 20
96.0162585465
 30
0.0
 10
186.1493591304
 20
96.0437482467
 30
0.0
 10
186.1438104961
 20
96.0533565652
 30
0.0
  0
SPLINE
  5
3B1
100
AcDbEntity
  8
1-2_1
100
AcDbSpline
 62
7
  6
CONTINUOUS
 70
0
 71
3
 72
26
 73
22
 74
0
 42
0.0000001
 43
0.0000001
 44
0.0000000001
 40
0.0
 40
0.0
 40
0.0
 40
0.0
 40
0.0013802073
 40
0.0034245875
 40
0.0095597174
 40
0.0184338089
 40
0.0300207448
 40
0.0442771773
 40
0.0611420146
 40
0.0805457075
 40
0.1024022803
 40
0.1530897042
 40
0.2123231478
 40
0.2790703265
 40
0.3521669668
 40
0.4303374998
 40
0.5122175067
 40
0.5963777876
 40
0.6813484192
 40
0.8477991223
 40
1.0
 40
1.0
 40
1.0
 40
1.0
 10
171.6700741651
 20
76.8730813235
 30
0.0
 10
171.6664319645
 20
76.8794511208
 30
0.0
 10
171.6601401425
 20
76.8967063104
 30
0.0
 10
171.6476869329
 20
76.9459348284
 30
0.0
 10
171.6336913727
 20
77.0357027266
 30
0.0
 10
171.6174125517
 20
77.1761005539
 30
0.0
 10
171.6010755867
 20
77.3599883674
 30
0.0
 10
171.584526115
 20
77.5864272781
 30
0.0
 10
171.5679213087
 20
77.854526544
 30
0.0
 10
171.551249242
 20
78.1630868113
 30
0.0
 10
171.5277993661
 20
78.6513465909
 30
0.0
 10
171.4991606969
 20
79.3513341318
 30
0.0
 10
171.4660536791
 20
80.289970106
 30
0.0
 10
171.4328425751
 20
81.3478016932
 30
0.0
 10
171.3995510399
 20
82.5063500041
 30
0.0
 10
171.3662132642
 20
83.7453781303
 30
0.0
 10
171.3328443373
 20
85.0432429087
 30
0.0
 10
171.2994639132
 20
86.3772701371
 30
0.0
 10
171.2552271677
 20
88.1607679618
 30
0.0
 10
171.2016133328
 20
90.3058676863
 30
0.0
 10
171.1551028523
 20
91.9992744503
 30
0.0
 10
171.1312072708
 20
92.8080642658
 30
0.0
  0
SPLINE
  5
3B2
100
AcDbEntity
  8
1-2_1
100
AcDbSpline
 62
7
  6
CONTINUOUS
 70
0
 71
3
 72
39
 73
35
 74
0
 42
0.0000001
 43
0.0000001
 44
0.0000000001
 40
0.0
 40
0.0
 40
0.0
 40
0.0
 40
0.0018649155
 40
0.0048096457
 40
0.0088532648
 40
0.0139975849
 40
0.0202353289
 40
0.0275492557
 40
0.0453288782
 40
0.0671909923
 40
0.0929828131
 40
0.1224495634
 40
0.1553024156
 40
0.1912640189
 40
0.2300203935
 40
0.3144753766
 40
0.4055989561
 40
0.5001368513
 40
0.5946661561
 40
0.6857786204
 40
0.770211594
 40
0.8089398266
 40
0.8448914538
 40
0.8777408676
 40
0.9071766839
 40
0.9329259777
 40
0.9547744935
 40
0.9725526411
 40
0.9798570975
 40
0.9860739286
 40
0.9911922503
 40
0.995212685
 40
0.9981411732
 40
1.0
 40
1.0
 40
1.0
 40
1.0
 10
172.518682767
 20
78.1735596307
 30
0.0
 10
172.5131225119
 20
78.1832024529
 30
0.0
 10
172.5041600409
 20
78.2108400269
 30
0.0
 10
172.4926044942
 20
78.2622726949
 30
0.0
 10
172.4809649519
 20
78.3338462146
 30
0.0
 10
172.4691051386
 20
78.4251295187
 30
0.0
 10
172.4571987199
 20
78.5360998935
 30
0.0
 10
172.4401096054
 20
78.7223237072
 30
0.0
 10
172.4194104566
 20
79.0018416013
 30
0.0
 10
172.3956432376
 20
79.3916723857
 30
0.0
 10
172.3718137168
 20
79.851368398
 30
0.0
 10
172.34788406
 20
80.3767333323
 30
0.0
 10
172.3238903669
 20
80.9628518195
 30
0.0
 10
172.2998603105
 20
81.6044572868
 30
0.0
 10
172.2668394005
 20
82.5539343946
 30
0.0
 10
172.2263285319
 20
83.832588964
 30
0.0
 10
172.1788136943
 20
85.4441239683
 30
0.0
 10
172.1312718253
 20
87.1158133861
 30
0.0
 10
172.0837134371
 20
88.7874359643
 30
0.0
 10
172.0362097405
 20
90.3987221942
 30
0.0
 10
171.9957003679
 20
91.6770109875
 30
0.0
 10
171.9626641115
 20
92.6261284595
 30
0.0
 10
171.9386407188
 20
93.267485944
 30
0.0
 10
171.9146614087
 20
93.8533401118
 30
0.0
 10
171.8907257271
 20
94.378245384
 30
0.0
 10
171.8668743573
 20
94.8374199303
 30
0.0
 10
171.8431154865
 20
95.2269066091
 30
0.0
 10
171.8224358926
 20
95.506279122
 30
0.0
 10
171.8053471144
 20
95.6923121985
 30
0.0
 10
171.7934372398
 20
95.8029437887
 30
0.0
 10
171.7815709772
 20
95.8938050138
 30
0.0
 10
171.769927134
 20
95.9649809924
 30
0.0
 10
171.7583661275
 20
96.0161372833
 30
0.0
 10
171.7494002704
 20
96.0436290851
 30
0.0
 10
171.7438528841
 20
96.0532373757
 30
0.0
  0
SPLINE
  5
3B3
100
AcDbEntity
  8
1-2_1
100
AcDbSpline
 62
7
  6
CONTINUOUS
 70
0
 71
3
 72
9
 73
5
 74
0
 42
0.0000001
 43
0.0000001
 44
0.0000000001
 40
0.0
 40
0.0
 40
0.0
 40
0.0
 40
0.2085595463
 40
1.0
 40
1.0
 40
1.0
 40
1.0
 10
173.2701107504
 20
76.8730665651
 30
0.0
 10
173.2694022211
 20
76.8743055447
 30
0.0
 10
173.2662515321
 20
76.8803870972
 30
0.0
 10
173.2638679877
 20
76.8868336944
 30
0.0
 10
173.2621586713
 20
76.8919730704
 30
0.0
  0
SPLINE
  5
3B4
100
AcDbEntity
  8
1-2_1
100
AcDbSpline
 62
7
  6
CONTINUOUS
 70
0
 71
3
 72
35
 73
31
 74
0
 42
0.0000001
 43
0.0000001
 44
0.0000000001
 40
0.0
 40
0.0
 40
0.0
 40
0.0
 40
0.0023648257
 40
0.0057935682
 40
0.0102902469
 40
0.0158483342
 40
0.030109192
 40
0.0484613688
 40
0.0707506594
 40
0.0967832018
 40
0.126333864
 40
0.1591459098
 40
0.233381691
 40
0.3169066708
 40
0.4068117582
 40
0.4999641367
 40
0.5931178648
 40
0.6830270039
 40
0.7665585641
 40
0.8408030723
 40
0.8736202136
 40
0.9031765117
 40
0.9292151178
 40
0.9515109022
 40
0.969869861
 40
0.9841377091
 40
0.9896993534
 40
0.994199582
 40
0.9976317947
 40
1.0
 40
1.0
 40
1.0
 40
1.0
 10
173.2621586713
 20
76.8919730704
 30
0.0
 10
173.2570679134
 20
76.9072793759
 30
0.0
 10
173.2482598131
 20
76.9459230541
 30
0.0
 10
173.2368177183
 20
77.0151545942
 30
0.0
 10
173.2252572365
 20
77.1064282873
 30
0.0
 10
173.2082051892
 20
77.2714086729
 30
0.0
 10
173.1878992129
 20
77.5310205091
 30
0.0
 10
173.164681434
 20
77.9047950717
 30
0.0
 10
173.1413279461
 20
78.3589928817
 30
0.0
 10
173.1178385076
 20
78.8896502457
 30
0.0
 10
173.0942843647
 20
79.492143893
 30
0.0
 10
173.061449974
 20
80.423316699
 30
0.0
 10
173.0213611109
 20
81.7226170951
 30
0.0
 10
172.9747488395
 20
83.4113249593
 30
0.0
 10
172.9280207017
 20
85.2291068691
 30
0.0
 10
172.8812295838
 20
87.1125859668
 30
0.0
 10
172.8344384429
 20
88.9960927089
 30
0.0
 10
172.7877102143
 20
90.8139563712
 30
0.0
 10
172.7410978282
 20
92.5027963314
 30
0.0
 10
172.7010091652
 20
93.8022359657
 30
0.0
 10
172.6681751981
 20
94.733541596
 30
0.0
 10
172.64462124
 20
95.3361498956
 30
0.0
 10
172.6211312564
 20
95.8669314631
 30
0.0
 10
172.5977768992
 20
96.3212612883
 30
0.0
 10
172.5745619538
 20
96.6951745503
 30
0.0
 10
172.5542524013
 20
96.9549046433
 30
0.0
 10
172.5371965965
 20
97.119981342
 30
0.0
 10
172.5256359133
 20
97.2113275631
 30
0.0
 10
172.5142016734
 20
97.2806322511
 30
0.0
 10
172.5054034275
 20
97.3193255933
 30
0.0
 10
172.5003170864
 20
97.3346576571
 30
0.0
  0
SPLINE
  5
3B5
100
AcDbEntity
  8
1-2_1
100
AcDbSpline
 62
7
  6
CONTINUOUS
 70
0
 71
3
 72
9
 73
5
 74
0
 42
0.0000001
 43
0.0000001
 44
0.0000000001
 40
0.0
 40
0.0
 40
0.0
 40
0.0
 40
0.662952762
 40
1.0
 40
1.0
 40
1.0
 40
1.0
 10
172.5003170864
 20
97.3346576571
 30
0.0
 10
172.4978456934
 20
97.342107326
 30
0.0
 10
172.4944816841
 20
97.3527009535
 30
0.0
 10
172.4852005141
 20
97.3633745187
 30
0.0
 10
172.4812101051
 20
97.3633745187
 30
0.0
  0
SPLINE
  5
3B6
100
AcDbEntity
  8
1-2_1
100
AcDbSpline
 62
7
  6
CONTINUOUS
 70
0
 71
3
 72
9
 73
5
 74
0
 42
0.0000001
 43
0.0000001
 44
0.0000000001
 40
0.0
 40
0.0
 40
0.0
 40
0.0
 40
0.2084999428
 40
1.0
 40
1.0
 40
1.0
 40
1.0
 10
186.0700908461
 20
76.8730395561
 30
0.0
 10
186.0693801593
 20
76.8742793029
 30
0.0
 10
186.0662204267
 20
76.8803678761
 30
0.0
 10
186.0638345332
 20
76.8868250415
 30
0.0
 10
186.0621241343
 20
76.891973071
 30
0.0
  0
SPLINE
  5
3B7
100
AcDbEntity
  8
1-2_1
100
AcDbSpline
 62
7
  6
CONTINUOUS
 70
0
 71
3
 72
35
 73
31
 74
0
 42
0.0000001
 43
0.0000001
 44
0.0000000001
 40
0.0
 40
0.0
 40
0.0
 40
0.0
 40
0.0023645738
 40
0.0057931589
 40
0.0102898152
 40
0.0158479304
 40
0.0301088266
 40
0.0484610054
 40
0.0707503073
 40
0.0967828658
 40
0.1263335443
 40
0.1591456084
 40
0.2333814314
 40
0.3169064581
 40
0.406811596
 40
0.4999640268
 40
0.5931178072
 40
0.6830269968
 40
0.7665586039
 40
0.8408031538
 40
0.8736203135
 40
0.903176628
 40
0.9292152494
 40
0.9515110458
 40
0.9698700112
 40
0.9841378807
 40
0.9896995389
 40
0.9941997589
 40
0.9976319038
 40
1.0
 40
1.0
 40
1.0
 40
1.0
 10
186.0621241343
 20
76.891973071
 30
0.0
 10
186.0570387285
 20
76.9072793354
 30
0.0
 10
186.0482519077
 20
76.9459252131
 30
0.0
 10
186.0368276783
 20
77.0151560545
 30
0.0
 10
186.0252678796
 20
77.1064287222
 30
0.0
 10
186.0082064017
 20
77.2714082972
 30
0.0
 10
185.9878940824
 20
77.5310201096
 30
0.0
 10
185.9646831252
 20
77.9047952245
 30
0.0
 10
185.9413282814
 20
78.3589928876
 30
0.0
 10
185.917838136
 20
78.8896502307
 30
0.0
 10
185.8942843968
 20
79.4921438996
 30
0.0
 10
185.8614500397
 20
80.4233167048
 30
0.0
 10
185.8213610731
 20
81.7226170968
 30
0.0
 10
185.7747488508
 20
83.4113249627
 30
0.0
 10
185.7280206988
 20
85.2291068715
 30
0.0
 10
185.6812295841
 20
87.1125859687
 30
0.0
 10
185.634438444
 20
88.9960927101
 30
0.0
 10
185.5877102092
 20
90.8139563715
 30
0.0
 10
185.5410978452
 20
92.502796332
 30
0.0
 10
185.5010091354
 20
93.802235964
 30
0.0
 10
185.4681751855
 20
94.7335415938
 30
0.0
 10
185.4446214034
 20
95.3361499027
 30
0.0
 10
185.4211310998
 20
95.8669314602
 30
0.0
 10
185.3977761717
 20
96.3212612218
 30
0.0
 10
185.374564221
 20
96.6951747278
 30
0.0
 10
185.3542518195
 20
96.9549048043
 30
0.0
 10
185.3371919185
 20
97.1199811505
 30
0.0
 10
185.3256315692
 20
97.2113269242
 30
0.0
 10
185.3142051787
 20
97.2806313125
 30
0.0
 10
185.3054162254
 20
97.3193256114
 30
0.0
 10
185.3003322222
 20
97.3346576568
 30
0.0
  0
SPLINE
  5
3B8
100
AcDbEntity
  8
1-2_1
100
AcDbSpline
 62
7
  6
CONTINUOUS
 70
0
 71
3
 72
9
 73
5
 74
0
 42
0.0000001
 43
0.0000001
 44
0.0000000001
 40
0.0
 40
0.0
 40
0.0
 40
0.0
 40
0.6627364177
 40
1.0
 40
1.0
 40
1.0
 40
1.0
 10
185.3003322222
 20
97.3346576568
 30
0.0
 10
185.2978618281
 20
97.3421077298
 30
0.0
 10
185.294499409
 20
97.3527111555
 30
0.0
 10
185.285204414
 20
97.3633745187
 30
0.0
 10
185.2812101051
 20
97.3633745187
 30
0.0
  0
SPLINE
  5
3B9
100
AcDbEntity
  8
1-2_1
100
AcDbSpline
 62
7
  6
CONTINUOUS
 70
0
 71
3
 72
39
 73
35
 74
0
 42
0.0000001
 43
0.0000001
 44
0.0000000001
 40
0.0
 40
0.0
 40
0.0
 40
0.0
 40
0.0018680132
 40
0.0048155359
 40
0.0088637352
 40
0.0140101982
 40
0.0202426038
 40
0.0275465084
 40
0.0453120621
 40
0.0671939745
 40
0.0929962612
 40
0.1224501416
 40
0.1553012547
 40
0.1912743916
 40
0.2300421626
 40
0.3145009662
 40
0.4056485008
 40
0.500193591
 40
0.5947292942
 40
0.6858574044
 40
0.770277316
 40
0.8090124425
 40
0.8449699021
 40
0.8778107303
 40
0.9072310115
 40
0.9329708907
 40
0.9548296916
 40
0.9725967314
 40
0.9798803848
 40
0.9860801156
 40
0.9911914087
 40
0.9952116352
 40
0.9981419947
 40
1.0
 40
1.0
 40
1.0
 40
1.0
 10
185.318711593
 20
78.173356276
 30
0.0
 10
185.313153024
 20
78.1830217991
 30
0.0
 10
185.3041882863
 20
78.210694275
 30
0.0
 10
185.2926259498
 20
78.2621924863
 30
0.0
 10
185.2809935298
 20
78.3338264321
 30
0.0
 10
185.2691359618
 20
78.4251212145
 30
0.0
 10
185.2572227132
 20
78.5360147974
 30
0.0
 10
185.2401208787
 20
78.7220668517
 30
0.0
 10
185.2193995463
 20
79.0015662611
 30
0.0
 10
185.1956623297
 20
79.3915077997
 30
0.0
 10
185.1718299688
 20
79.8513215933
 30
0.0
 10
185.1478830794
 20
80.3766771413
 30
0.0
 10
185.123885835
 20
80.9627951114
 30
0.0
 10
185.0998542685
 20
81.6045467854
 30
0.0
 10
185.0668393504
 20
82.5542129804
 30
0.0
 10
185.0263023172
 20
83.8331398441
 30
0.0
 10
184.978794875
 20
85.4449333224
 30
0.0
 10
184.9312418575
 20
87.1168978792
 30
0.0
 10
184.8836699184
 20
88.7887459074
 30
0.0
 10
184.8361786791
 20
90.4001355683
 30
0.0
 10
184.7956389969
 20
91.6785191903
 30
0.0
 10
184.762609216
 20
92.6276639759
 30
0.0
 10
184.7385885249
 20
93.2690659865
 30
0.0
 10
184.7145980507
 20
93.8548284367
 30
0.0
 10
184.6906564416
 20
94.3795491764
 30
0.0
 10
184.6667925936
 20
94.8386495407
 30
0.0
 10
184.6430498131
 20
95.228087707
 30
0.0
 10
184.6223819898
 20
95.5073408168
 30
0.0
 10
184.6052637206
 20
95.6930832077
 30
0.0
 10
184.5933434361
 20
95.8034474868
 30
0.0
 10
184.5814757321
 20
95.8941641341
 30
0.0
 10
184.5698355665
 20
95.9653118836
 30
0.0
 10
184.5582780362
 20
96.0164718573
 30
0.0
 10
184.5493205712
 20
96.0439793811
 30
0.0
 10
184.5437614733
 20
96.0535756266
 30
0.0
  0
SPLINE
  5
3BA
100
AcDbEntity
  8
1-2_1
100
AcDbSpline
 62
7
  6
CONTINUOUS
 70
0
 71
3
 72
28
 73
24
 74
0
 42
0.0000001
 43
0.0000001
 44
0.0000000001
 40
0.0
 40
0.0
 40
0.0
 40
0.0
 40
0.0306248884
 40
0.0753825662
 40
0.1329151483
 40
0.2014620347
 40
0.2789223477
 40
0.3629189554
 40
0.4508737831
 40
0.5400873176
 40
0.6278214337
 40
0.7113832925
 40
0.788208713
 40
0.8559413009
 40
0.8857362673
 40
0.9125049481
 40
0.9360417919
 40
0.9561686175
 40
0.9727316267
 40
0.9856088823
 40
0.9947106556
 40
0.9978306021
 40
1.0
 40
1.0
 40
1.0
 40
1.0
 10
189.2145434384
 20
77.2126347991
 30
0.0
 10
189.1951231528
 20
77.417318682
 30
0.0
 10
189.1622086794
 20
77.9224714188
 30
0.0
 10
189.1197917208
 20
78.8137720476
 30
0.0
 10
189.0767124546
 20
79.9599250808
 30
0.0
 10
189.0331334756
 20
81.3257106018
 30
0.0
 10
188.9893454234
 20
82.8692464219
 30
0.0
 10
188.9454229843
 20
84.5431197594
 30
0.0
 10
188.9014380799
 20
86.2959242534
 30
0.0
 10
188.8574342234
 20
88.0738277787
 30
0.0
 10
188.8134515259
 20
89.8222302221
 30
0.0
 10
188.7695424923
 20
91.4874389905
 30
0.0
 10
188.7257509117
 20
93.0183187208
 30
0.0
 10
188.6880425441
 20
94.1882518705
 30
0.0
 10
188.6571724335
 20
95.0221574095
 30
0.0
 10
188.6350603766
 20
95.5594659908
 30
0.0
 10
188.613024849
 20
96.0318125017
 30
0.0
 10
188.5910643044
 20
96.4355508455
 30
0.0
 10
188.5693772701
 20
96.7676479645
 30
0.0
 10
188.5477791729
 20
97.0254700859
 30
0.0
 10
188.5290778067
 20
97.1930715191
 30
0.0
 10
188.5126376226
 20
97.2882600534
 30
0.0
 10
188.504362401
 20
97.322902328
 30
0.0
 10
188.4996229869
 20
97.3366740907
 30
0.0
  0
SPLINE
  5
3BB
100
AcDbEntity
  8
1-2_1
100
AcDbSpline
 62
7
  6
CONTINUOUS
 70
0
 71
3
 72
9
 73
5
 74
0
 42
0.0000001
 43
0.0000001
 44
0.0000000001
 40
0.0
 40
0.0
 40
0.0
 40
0.0
 40
0.6500531034
 40
1.0
 40
1.0
 40
1.0
 40
1.0
 10
188.4996229869
 20
97.3366740907
 30
0.0
 10
188.4973258484
 20
97.3433491028
 30
0.0
 10
188.4938113605
 20
97.3531022643
 30
0.0
 10
188.4859330993
 20
97.3627330879
 30
0.0
 10
188.4821756169
 20
97.3633015041
 30
0.0
  0
SPLINE
  5
3BC
100
AcDbEntity
  8
1-2_1
100
AcDbSpline
 62
7
  6
CONTINUOUS
 70
0
 71
3
 72
39
 73
35
 74
0
 42
0.0000001
 43
0.0000001
 44
0.0000000001
 40
0.0
 40
0.0
 40
0.0
 40
0.0
 40
0.0018585034
 40
0.0047951851
 40
0.0088327771
 40
0.0139698384
 40
0.0201993842
 40
0.0275097421
 40
0.0452922561
 40
0.0671487861
 40
0.0929147078
 40
0.12237631
 40
0.1552304017
 40
0.1911805608
 40
0.2299274053
 40
0.3143735087
 40
0.4054886501
 40
0.5000199803
 40
0.5945475092
 40
0.6856618951
 40
0.7701110824
 40
0.8088475185
 40
0.8447991896
 40
0.8776558992
 40
0.9071048089
 40
0.9328715598
 40
0.9547259553
 40
0.9725036735
 40
0.9798157848
 40
0.9860489028
 40
0.9911833504
 40
0.9952112913
 40
0.9981414311
 40
1.0
 40
1.0
 40
1.0
 40
1.0
 10
174.1187291296
 20
78.1736122231
 30
0.0
 10
174.1131742645
 20
78.1832138276
 30
0.0
 10
174.1041997466
 20
78.2107562153
 30
0.0
 10
174.0926478112
 20
78.2620651154
 30
0.0
 10
174.08101522
 20
78.3335097437
 30
0.0
 10
174.0691537813
 20
78.4246626036
 30
0.0
 10
174.0572411338
 20
78.5355169649
 30
0.0
 10
174.0401516885
 20
78.7216856776
 30
0.0
 10
174.0194670697
 20
79.0011642595
 30
0.0
 10
173.995704818
 20
79.3908201276
 30
0.0
 10
173.9718522932
 20
79.8502912089
 30
0.0
 10
173.9479351215
 20
80.3754731621
 30
0.0
 10
173.923947715
 20
80.9614940108
 30
0.0
 10
173.8999154132
 20
81.6029747878
 30
0.0
 10
173.8668942461
 20
82.5522636281
 30
0.0
 10
173.8263834705
 20
83.8307444633
 30
0.0
 10
173.7788731179
 20
85.4421200814
 30
0.0
 10
173.7313287024
 20
87.1136916988
 30
0.0
 10
173.683779839
 20
88.7852586817
 30
0.0
 10
173.6362693579
 20
90.3966254896
 30
0.0
 10
173.5957663763
 20
91.6750583374
 30
0.0
 10
173.5627353424
 20
92.6243121288
 30
0.0
 10
173.538703616
 20
93.2657554037
 30
0.0
 10
173.5147271959
 20
93.8517255816
 30
0.0
 10
173.4907932137
 20
94.3768515373
 30
0.0
 10
173.4669484677
 20
94.836239297
 30
0.0
 10
173.4431914973
 20
95.2258590988
 30
0.0
 10
173.4224979883
 20
95.5053059851
 30
0.0
 10
173.4054089922
 20
95.6914779278
 30
0.0
 10
173.3935046468
 20
95.8023492547
 30
0.0
 10
173.3816513688
 20
95.8934515403
 30
0.0
 10
173.3700063622
 20
95.9647794943
 30
0.0
 10
173.3584442799
 20
96.0159903893
 30
0.0
 10
173.3494696019
 20
96.0434871763
 30
0.0
 10
173.3439239675
 20
96.0530945662
 30
0.0
  0
SPLINE
  5
3BD
100
AcDbEntity
  8
1-2_1
100
AcDbSpline
 62
7
  6
CONTINUOUS
 70
0
 71
3
 72
9
 73
5
 74
0
 42
0.0000001
 43
0.0000001
 44
0.0000000001
 40
0.0
 40
0.0
 40
0.0
 40
0.0
 40
0.20820904
 40
1.0
 40
1.0
 40
1.0
 40
1.0
 10
174.8702023757
 20
76.8729762785
 30
0.0
 10
174.8694895696
 20
76.8742183583
 30
0.0
 10
174.8663159916
 20
76.8803272139
 30
0.0
 10
174.86391822
 20
76.8868059933
 30
0.0
 10
174.8621976562
 20
76.8919730704
 30
0.0
  0
SPLINE
  5
3BE
100
AcDbEntity
  8
1-2_1
100
AcDbSpline
 62
7
  6
CONTINUOUS
 70
0
 71
3
 72
35
 73
31
 74
0
 42
0.0000001
 43
0.0000001
 44
0.0000000001
 40
0.0
 40
0.0
 40
0.0
 40
0.0
 40
0.0023651101
 40
0.0057940299
 40
0.010290733
 40
0.0158487876
 40
0.0301095992
 40
0.0484617699
 40
0.0707510434
 40
0.0967835622
 40
0.1263341998
 40
0.1591462183
 40
0.2333819371
 40
0.3169068469
 40
0.4068118589
 40
0.4999641592
 40
0.5931178092
 40
0.6830268728
 40
0.766558363
 40
0.8408028088
 40
0.8736199227
 40
0.9031761963
 40
0.9292147789
 40
0.9515105461
 40
0.9698694977
 40
0.9841373027
 40
0.9896989174
 40
0.994199168
 40
0.99763154
 40
1.0
 40
1.0
 40
1.0
 40
1.0
 10
174.8621976562
 20
76.8919730704
 30
0.0
 10
174.8571008564
 20
76.9072794239
 30
0.0
 10
174.84826874
 20
76.9459206129
 30
0.0
 10
174.8368064756
 20
77.0151529443
 30
0.0
 10
174.8252452223
 20
77.1064277984
 30
0.0
 10
174.8082038203
 20
77.2714090987
 30
0.0
 10
174.787905004
 20
77.5310209626
 30
0.0
 10
174.764679525
 20
77.9047949021
 30
0.0
 10
174.7413275675
 20
78.3589928786
 30
0.0
 10
174.7178389269
 20
78.8896502664
 30
0.0
 10
174.6942843283
 20
79.4921438897
 30
0.0
 10
174.6614498998
 20
80.4233166968
 30
0.0
 10
174.6213611535
 20
81.7226170977
 30
0.0
 10
174.5747488267
 20
83.4113249599
 30
0.0
 10
174.5280207047
 20
85.2291068706
 30
0.0
 10
174.4812295837
 20
87.1125859686
 30
0.0
 10
174.43443844
 20
88.9960927108
 30
0.0
 10
174.3877102262
 20
90.8139563738
 30
0.0
 10
174.3410977886
 20
92.5027963319
 30
0.0
 10
174.3010092344
 20
93.8022359703
 30
0.0
 10
174.2681752275
 20
94.7335416012
 30
0.0
 10
174.2446208606
 20
95.3361498788
 30
0.0
 10
174.22113162
 20
95.866931469
 30
0.0
 10
174.1977785878
 20
96.3212614417
 30
0.0
 10
174.1745566919
 20
96.6951741374
 30
0.0
 10
174.1542537517
 20
96.9549042688
 30
0.0
 10
174.1372074543
 20
97.1199817856
 30
0.0
 10
174.125645996
 20
97.2113290472
 30
0.0
 10
174.1141935354
 20
97.280634432
 30
0.0
 10
174.1053737239
 20
97.3193255498
 30
0.0
 10
174.1002819565
 20
97.3346576574
 30
0.0
  0
SPLINE
  5
3BF
100
AcDbEntity
  8
1-2_1
100
AcDbSpline
 62
7
  6
CONTINUOUS
 70
0
 71
3
 72
9
 73
5
 74
0
 42
0.0000001
 43
0.0000001
 44
0.0000000001
 40
0.0
 40
0.0
 40
0.0
 40
0.0
 40
0.6634549905
 40
1.0
 40
1.0
 40
1.0
 40
1.0
 10
174.1002819565
 20
97.3346576574
 30
0.0
 10
174.0978082455
 20
97.3421063881
 30
0.0
 10
174.09444048
 20
97.3526772441
 30
0.0
 10
174.0851914706
 20
97.3633745187
 30
0.0
 10
174.0812101051
 20
97.3633745187
 30
0.0
  0
SPLINE
  5
3C0
100
AcDbEntity
  8
1-2_1
100
AcDbSpline
 62
7
  6
CONTINUOUS
 70
0
 71
3
 72
23
 73
19
 74
0
 42
0.0000001
 43
0.0000001
 44
0.0000000001
 40
0.0
 40
0.0
 40
0.0
 40
0.0
 40
0.2275394729
 40
0.4302084471
 40
0.5212279893
 40
0.6048986062
 40
0.6808953874
 40
0.7489137375
 40
0.8086995399
 40
0.8600236325
 40
0.9027163637
 40
0.936671497
 40
0.9619350801
 40
0.971422265
 40
0.9789569777
 40
0.9893924897
 40
0.994162585
 40
1.0
 40
1.0
 40
1.0
 40
1.0
 10
171.1312072708
 20
92.8080642658
 30
0.0
 10
171.1086669159
 20
93.1179733394
 30
0.0
 10
171.0633314529
 20
93.7037220239
 30
0.0
 10
171.0017837573
 20
94.4128623091
 30
0.0
 10
170.9516396463
 20
94.9257436516
 30
0.0
 10
170.9152421767
 20
95.266146766
 30
0.0
 10
170.878755099
 20
95.5749340945
 30
0.0
 10
170.842189975
 20
95.8508433882
 30
0.0
 10
170.8056078776
 20
96.0927293673
 30
0.0
 10
170.7690045955
 20
96.299574773
 30
0.0
 10
170.7325852136
 20
96.4705545897
 30
0.0
 10
170.6960893937
 20
96.6049527273
 30
0.0
 10
170.6641055438
 20
96.6933361099
 30
0.0
 10
170.63641283
 20
96.7444656191
 30
0.0
 10
170.6149115045
 20
96.7744910325
 30
0.0
 10
170.5858974859
 20
96.7947202512
 30
0.0
 10
170.5566980144
 20
96.7869013549
 30
0.0
 10
170.545344152
 20
96.7775112378
 30
0.0
 10
170.5397074025
 20
96.7718744868
 30
0.0
  0
SPLINE
  5
3C1
100
AcDbEntity
  8
1-2_1
100
AcDbSpline
 62
7
  6
CONTINUOUS
 70
0
 71
3
 72
39
 73
35
 74
0
 42
0.0000001
 43
0.0000001
 44
0.0000000001
 40
0.0
 40
0.0
 40
0.0
 40
0.0
 40
0.0018554371
 40
0.004783074
 40
0.0088093506
 40
0.0139380216
 40
0.0201594456
 40
0.0274612692
 40
0.0452379151
 40
0.0670929343
 40
0.0928396587
 40
0.1222829308
 40
0.1551383821
 40
0.1910849407
 40
0.2298187496
 40
0.3142523965
 40
0.4053657074
 40
0.4998941649
 40
0.5944282538
 40
0.685553152
 40
0.7700089261
 40
0.8087617577
 40
0.8447146038
 40
0.8775727091
 40
0.9070352831
 40
0.9328166742
 40
0.9546849628
 40
0.9724613077
 40
0.979773645
 40
0.9860127188
 40
0.991161254
 40
0.9952042612
 40
0.9981410503
 40
1.0
 40
1.0
 40
1.0
 40
1.0
 10
175.7187977983
 20
78.1735841522
 30
0.0
 10
175.7132486061
 20
78.1831679301
 30
0.0
 10
175.7042748864
 20
78.2106325036
 30
0.0
 10
175.6927143
 20
78.2617977047
 30
0.0
 10
175.6810780476
 20
78.3330679059
 30
0.0
 10
175.6692232589
 20
78.4240546259
 30
0.0
 10
175.6573100226
 20
78.5347588072
 30
0.0
 10
175.6402096551
 20
78.7207921192
 30
0.0
 10
175.6195329123
 20
79.0001770239
 30
0.0
 10
175.5957837211
 20
79.3896757471
 30
0.0
 10
175.5719180497
 20
79.8489140944
 30
0.0
 10
175.5479935135
 20
80.3738811408
 30
0.0
 10
175.5240162609
 20
80.9597811785
 30
0.0
 10
175.49998442
 20
81.6011725184
 30
0.0
 10
175.4669586648
 20
82.5502901203
 30
0.0
 10
175.426444332
 20
83.8286112888
 30
0.0
 10
175.3789420967
 20
85.4398892086
 30
0.0
 10
175.331387417
 20
87.111476315
 30
0.0
 10
175.2838433032
 20
88.783132911
 30
0.0
 10
175.2363311268
 20
90.3946454857
 30
0.0
 10
175.1958178254
 20
91.6732815842
 30
0.0
 10
175.1628020632
 20
92.6226828475
 30
0.0
 10
175.138763794
 20
93.2642409826
 30
0.0
 10
175.1147798788
 20
93.8503094536
 30
0.0
 10
175.090854101
 20
94.3756147171
 30
0.0
 10
175.0670053139
 20
94.8352557296
 30
0.0
 10
175.0432578124
 20
95.2250396491
 30
0.0
 10
175.0225534643
 20
95.5045629023
 30
0.0
 10
175.0054604828
 20
95.6907637374
 30
0.0
 10
174.9935506648
 20
95.8017565507
 30
0.0
 10
174.9816995336
 20
95.893069879
 30
0.0
 10
174.9700721067
 20
95.9646185945
 30
0.0
 10
174.9585099046
 20
96.0159626514
 30
0.0
 10
174.9495329829
 20
96.0435068311
 30
0.0
 10
174.9439794167
 20
96.0531122995
 30
0.0
  0
SPLINE
  5
3C2
100
AcDbEntity
  8
1-2_1
100
AcDbSpline
 62
7
  6
CONTINUOUS
 70
0
 71
3
 72
9
 73
5
 74
0
 42
0.0000001
 43
0.0000001
 44
0.0000000001
 40
0.0
 40
0.0
 40
0.0
 40
0.0
 40
0.2078630884
 40
1.0
 40
1.0
 40
1.0
 40
1.0
 10
184.4702099782
 20
76.8728605414
 30
0.0
 10
184.4694895517
 20
76.8741061187
 30
0.0
 10
184.4662810706
 20
76.8802471464
 30
0.0
 10
184.4638695117
 20
76.8867695106
 30
0.0
 10
184.4621398379
 20
76.8919730707
 30
0.0
  0
SPLINE
  5
3C3
100
AcDbEntity
  8
1-2_1
100
AcDbSpline
 62
7
  6
CONTINUOUS
 70
0
 71
3
 72
35
 73
31
 74
0
 42
0.0000001
 43
0.0000001
 44
0.0000000001
 40
0.0
 40
0.0
 40
0.0
 40
0.0
 40
0.0023646875
 40
0.005793343
 40
0.0102900081
 40
0.0158481088
 40
0.0301089829
 40
0.0484611549
 40
0.0707504445
 40
0.0967829872
 40
0.1263336488
 40
0.159145694
 40
0.233381474
 40
0.3169064524
 40
0.4068115383
 40
0.4999639152
 40
0.5931176418
 40
0.6830267794
 40
0.7665583382
 40
0.840802845
 40
0.8736199859
 40
0.9031762837
 40
0.9292148884
 40
0.9515106733
 40
0.9698696365
 40
0.9841374663
 40
0.9896990961
 40
0.9941993395
 40
0.9976316461
 40
1.0
 40
1.0
 40
1.0
 40
1.0
 10
184.4621398379
 20
76.8919730707
 30
0.0
 10
184.4570519987
 20
76.9072793536
 30
0.0
 10
184.4482555019
 20
76.9459242319
 30
0.0
 10
184.4368231496
 20
77.0151553907
 30
0.0
 10
184.4252630403
 20
77.1064285243
 30
0.0
 10
184.4082058504
 20
77.2714084679
 30
0.0
 10
184.3878964152
 20
77.5310202912
 30
0.0
 10
184.3646823562
 20
77.904795155
 30
0.0
 10
184.341328129
 20
78.358992885
 30
0.0
 10
184.317838305
 20
78.8896502377
 30
0.0
 10
184.2942843821
 20
79.4921438969
 30
0.0
 10
184.2614500098
 20
80.4233167027
 30
0.0
 10
184.2213610903
 20
81.722617097
 30
0.0
 10
184.1747488457
 20
83.4113249625
 30
0.0
 10
184.1280207
 20
85.2291068722
 30
0.0
 10
184.0812295845
 20
87.1125859701
 30
0.0
 10
184.034438441
 20
88.996092712
 30
0.0
 10
183.9877102212
 20
90.8139563745
 30
0.0
 10
183.9410978052
 20
92.5027963332
 30
0.0
 10
183.9010092053
 20
93.8022359696
 30
0.0
 10
183.8681752151
 20
94.7335416
 30
0.0
 10
183.8446210202
 20
95.3361498867
 30
0.0
 10
183.821131467
 20
95.8669314672
 30
0.0
 10
183.7977778774
 20
96.3212613777
 30
0.0
 10
183.7745589055
 20
96.6951743115
 30
0.0
 10
183.7542531836
 20
96.9549044266
 30
0.0
 10
183.7372028865
 20
97.1199815993
 30
0.0
 10
183.7256417543
 20
97.2113284227
 30
0.0
 10
183.7141969593
 20
97.2806335141
 30
0.0
 10
183.7053862198
 20
97.3193255683
 30
0.0
 10
183.7002967352
 20
97.3346576574
 30
0.0
  0
SPLINE
  5
3C4
100
AcDbEntity
  8
1-2_1
100
AcDbSpline
 62
7
  6
CONTINUOUS
 70
0
 71
3
 72
9
 73
5
 74
0
 42
0.0000001
 43
0.0000001
 44
0.0000000001
 40
0.0
 40
0.0
 40
0.0
 40
0.0
 40
0.6632436932
 40
1.0
 40
1.0
 40
1.0
 40
1.0
 10
183.7002967352
 20
97.3346576574
 30
0.0
 10
183.6978239992
 20
97.3421067828
 30
0.0
 10
183.6944578251
 20
97.3526872235
 30
0.0
 10
183.6851952736
 20
97.3633745187
 30
0.0
 10
183.6812101051
 20
97.3633745187
 30
0.0
  0
SPLINE
  5
3C5
100
AcDbEntity
  8
1-2_1
100
AcDbSpline
 62
7
  6
CONTINUOUS
 70
0
 71
3
 72
9
 73
5
 74
0
 42
0.0000001
 43
0.0000001
 44
0.0000000001
 40
0.0
 40
0.0
 40
0.0
 40
0.0
 40
0.2071733543
 40
1.0
 40
1.0
 40
1.0
 40
1.0
 10
182.1920131488
 20
97.3540827342
 30
0.0
 10
182.1927410768
 20
97.3528339181
 30
0.0
 10
182.1959910264
 20
97.3466525318
 30
0.0
 10
182.1984283
 20
97.3400803413
 30
0.0
 10
182.2001786838
 20
97.3348328964
 30
0.0
  0
SPLINE
  5
3C6
100
AcDbEntity
  8
1-2_1
100
AcDbSpline
 62
7
  6
CONTINUOUS
 70
0
 71
3
 72
35
 73
31
 74
0
 42
0.0000001
 43
0.0000001
 44
0.0000000001
 40
0.0
 40
0.0
 40
0.0
 40
0.0
 40
0.0023639224
 40
0.0057918152
 40
0.0102876398
 40
0.0158450232
 40
0.0301052202
 40
0.0484577953
 40
0.0707484629
 40
0.0967831633
 40
0.126336756
 40
0.1591526349
 40
0.233397746
 40
0.3169338041
 40
0.406848812
 40
0.5000112345
 40
0.5931740121
 40
0.6830882826
 40
0.7666219263
 40
0.8408641433
 40
0.8736780236
 40
0.9032295517
 40
0.9292622081
 40
0.9515509669
 40
0.969901485
 40
0.9841594344
 40
0.9897156559
 40
0.99421033
 40
0.997637125
 40
1.0
 40
1.0
 40
1.0
 40
1.0
 10
182.2001786838
 20
97.3348328964
 30
0.0
 10
182.2052810264
 20
97.3195366723
 30
0.0
 10
182.2141295526
 20
97.2809139608
 30
0.0
 10
182.2256057962
 20
97.2117039324
 30
0.0
 10
182.2371686094
 20
97.1204454888
 30
0.0
 10
182.2542055902
 20
96.9554760484
 30
0.0
 10
182.2745020947
 20
96.6958661385
 30
0.0
 10
182.2977350656
 20
96.3220788996
 30
0.0
 10
182.3210886841
 20
95.8678469054
 30
0.0
 10
182.3445795707
 20
95.3371369875
 30
0.0
 10
182.3681371774
 20
94.7345729284
 30
0.0
 10
182.4009756473
 20
93.803275529
 30
0.0
 10
182.4410691312
 20
92.5037890661
 30
0.0
 10
182.4876868483
 20
90.8148474012
 30
0.0
 10
182.534420009
 20
88.9968247454
 30
0.0
 10
182.5812163191
 20
87.113117702
 30
0.0
 10
182.6280130882
 20
85.2294157015
 30
0.0
 10
182.6747464019
 20
83.4114121336
 30
0.0
 10
182.7213639663
 20
81.72251172
 30
0.0
 10
182.7614575164
 20
80.4230751242
 30
0.0
 10
182.7942960716
 20
79.4918252144
 30
0.0
 10
182.817853665
 20
78.8893028427
 30
0.0
 10
182.8413440319
 20
78.3586339962
 30
0.0
 10
182.8646968066
 20
77.9044429834
 30
0.0
 10
182.8879344938
 20
77.5306985061
 30
0.0
 10
182.9082264449
 20
77.2711257052
 30
0.0
 10
182.9252576041
 20
77.1061869233
 30
0.0
 10
182.9368208942
 20
77.0149519176
 30
0.0
 10
182.9483091845
 20
76.9457663367
 30
0.0
 10
182.9571720326
 20
76.9071618712
 30
0.0
 10
182.9622786369
 20
76.8918746017
 30
0.0
  0
SPLINE
  5
3C7
100
AcDbEntity
  8
1-2_1
100
AcDbSpline
 62
7
  6
CONTINUOUS
 70
0
 71
3
 72
9
 73
5
 74
0
 42
0.0000001
 43
0.0000001
 44
0.0000000001
 40
0.0
 40
0.0
 40
0.0
 40
0.0
 40
0.6640369023
 40
1.0
 40
1.0
 40
1.0
 40
1.0
 10
182.9622786369
 20
76.8918746017
 30
0.0
 10
182.9647480538
 20
76.884482088
 30
0.0
 10
182.9681172664
 20
76.8740184448
 30
0.0
 10
182.9772667783
 20
76.8633745187
 30
0.0
 10
182.9812101051
 20
76.8633745187
 30
0.0
  0
SPLINE
  5
3C8
100
AcDbEntity
  8
1-2_1
100
AcDbSpline
 62
7
  6
CONTINUOUS
 70
0
 71
3
 72
9
 73
5
 74
0
 42
0.0000001
 43
0.0000001
 44
0.0000000001
 40
0.0
 40
0.0
 40
0.0
 40
0.0
 40
0.2077380237
 40
1.0
 40
1.0
 40
1.0
 40
1.0
 10
176.4703122059
 20
76.8728521608
 30
0.0
 10
176.4695932086
 20
76.8740983611
 30
0.0
 10
176.4663872288
 20
76.8802442957
 30
0.0
 10
176.4639705451
 20
76.8867676946
 30
0.0
 10
176.4622352519
 20
76.8919730709
 30
0.0
  0
SPLINE
  5
3C9
100
AcDbEntity
  8
1-2_1
100
AcDbSpline
 62
7
  6
CONTINUOUS
 70
0
 71
3
 72
35
 73
31
 74
0
 42
0.0000001
 43
0.0000001
 44
0.0000000001
 40
0.0
 40
0.0
 40
0.0
 40
0.0
 40
0.0023653847
 40
0.0057944755
 40
0.0102912018
 40
0.0158492246
 40
0.0301099908
 40
0.0484621544
 40
0.0707514097
 40
0.0967839039
 40
0.1263345159
 40
0.1591465057
 40
0.2333821591
 40
0.3169069954
 40
0.4068119284
 40
0.4999641467
 40
0.5931177148
 40
0.6830266993
 40
0.766558116
 40
0.8408024964
 40
0.8736195817
 40
0.9031758295
 40
0.9292143875
 40
0.9515101367
 40
0.9698690816
 40
0.9841368388
 40
0.9896984202
 40
0.9941986962
 40
0.9976312498
 40
1.0
 40
1.0
 40
1.0
 40
1.0
 10
176.4622352519
 20
76.8919730709
 30
0.0
 10
176.4571326249
 20
76.9072794723
 30
0.0
 10
176.4482773522
 20
76.9459182547
 30
0.0
 10
176.4367956336
 20
77.0151513516
 30
0.0
 10
176.425233636
 20
77.1064273288
 30
0.0
 10
176.4082025001
 20
77.2714095107
 30
0.0
 10
176.3879105886
 20
77.5310214023
 30
0.0
 10
176.3646776837
 20
77.9047947411
 30
0.0
 10
176.3413272023
 20
78.3589928784
 30
0.0
 10
176.3178393312
 20
78.8896502895
 30
0.0
 10
176.2942842931
 20
79.4921438895
 30
0.0
 10
176.261449828
 20
80.4233166976
 30
0.0
 10
176.2213611945
 20
81.7226171028
 30
0.0
 10
176.1747488143
 20
83.4113249624
 30
0.0
 10
176.1280207076
 20
85.2291068732
 30
0.0
 10
176.0812295837
 20
87.1125859704
 30
0.0
 10
176.0344384367
 20
88.9960927118
 30
0.0
 10
175.9877102397
 20
90.8139563748
 30
0.0
 10
175.9410977437
 20
92.5027963298
 30
0.0
 10
175.9010093132
 20
93.8022359726
 30
0.0
 10
175.8681752609
 20
94.7335416039
 30
0.0
 10
175.8446204295
 20
95.3361498565
 30
0.0
 10
175.8211320334
 20
95.8669314728
 30
0.0
 10
175.7977805071
 20
96.3212616133
 30
0.0
 10
175.7745507115
 20
96.6951736657
 30
0.0
 10
175.7542552867
 20
96.9549038417
 30
0.0
 10
175.7372197949
 20
97.1199822879
 30
0.0
 10
175.7256574553
 20
97.2113307355
 30
0.0
 10
175.7141842827
 20
97.2806369149
 30
0.0
 10
175.705339965
 20
97.3193254982
 30
0.0
 10
175.7002420297
 20
97.3346576571
 30
0.0
  0
SPLINE
  5
3CA
100
AcDbEntity
  8
1-2_1
100
AcDbSpline
 62
7
  6
CONTINUOUS
 70
0
 71
3
 72
9
 73
5
 74
0
 42
0.0000001
 43
0.0000001
 44
0.0000000001
 40
0.0
 40
0.0
 40
0.0
 40
0.0
 40
0.6640259585
 40
1.0
 40
1.0
 40
1.0
 40
1.0
 10
175.7002420297
 20
97.3346576571
 30
0.0
 10
175.6977656851
 20
97.3421053211
 30
0.0
 10
175.6943935385
 20
97.3526502451
 30
0.0
 10
175.6851812063
 20
97.3633745187
 30
0.0
 10
175.6812101051
 20
97.3633745187
 30
0.0
  0
SPLINE
  5
3CB
100
AcDbEntity
  8
1-2_1
100
AcDbSpline
 62
7
  6
CONTINUOUS
 70
0
 71
3
 72
39
 73
35
 74
0
 42
0.0000001
 43
0.0000001
 44
0.0000000001
 40
0.0
 40
0.0
 40
0.0
 40
0.0
 40
0.0018602815
 40
0.0048028607
 40
0.0088441294
 40
0.0139786509
 40
0.0201958999
 40
0.0274851
 40
0.0452394894
 40
0.0671238441
 40
0.0929073967
 40
0.122345147
 40
0.1551948019
 40
0.1911665271
 40
0.2299330261
 40
0.3143812215
 40
0.4055401345
 40
0.500094227
 40
0.594643827
 40
0.685792905
 40
0.7702239247
 40
0.8089738696
 40
0.8449391216
 40
0.8777836992
 40
0.9072039179
 40
0.9329580827
 40
0.9548293452
 40
0.9725841597
 40
0.9798636816
 40
0.9860656287
 40
0.9911828619
 40
0.9952092422
 40
0.9981430738
 40
1.0
 40
1.0
 40
1.0
 40
1.0
 10
183.718822423
 20
78.1731397138
 30
0.0
 10
183.7132539463
 20
78.1827464814
 30
0.0
 10
183.7042853713
 20
78.2103459597
 30
0.0
 10
183.6927372607
 20
78.2617246758
 30
0.0
 10
183.6811046447
 20
78.3332174715
 30
0.0
 10
183.6692424139
 20
78.4243080919
 30
0.0
 10
183.6573237052
 20
78.5349525867
 30
0.0
 10
183.6402056129
 20
78.7207609465
 30
0.0
 10
183.6194887495
 20
79.0001264276
 30
0.0
 10
183.5957681112
 20
79.389912383
 30
0.0
 10
183.5719161333
 20
79.849540503
 30
0.0
 10
183.5479633483
 20
80.3746892418
 30
0.0
 10
183.5239657185
 20
80.9607053412
 30
0.0
 10
183.4999302797
 20
81.6024448854
 30
0.0
 10
183.4669163337
 20
82.55205059
 30
0.0
 10
183.4263591852
 20
83.8309992216
 30
0.0
 10
183.3788589264
 20
85.4428832933
 30
0.0
 10
183.3312906021
 20
87.1150852959
 30
0.0
 10
183.2837130237
 20
88.7872283064
 30
0.0
 10
183.2362203002
 20
90.3989244717
 30
0.0
 10
183.1956626183
 20
91.6776129443
 30
0.0
 10
183.1626392527
 20
92.6269782004
 30
0.0
 10
183.138610055
 20
93.2685500964
 30
0.0
 10
183.1146165963
 20
93.8543926459
 30
0.0
 10
183.0906640693
 20
94.3792307196
 30
0.0
 10
183.0668004194
 20
94.8384996342
 30
0.0
 10
183.0430743514
 20
95.2280335074
 30
0.0
 10
183.0223848596
 20
95.5072674673
 30
0.0
 10
183.0052587323
 20
95.692927954
 30
0.0
 10
182.9933382846
 20
95.8033187067
 30
0.0
 10
182.9814720738
 20
95.8941228633
 30
0.0
 10
182.9698354192
 20
95.9653682255
 30
0.0
 10
182.9582806657
 20
96.0165788844
 30
0.0
 10
182.9493243702
 20
96.0441077057
 30
0.0
 10
182.9437545347
 20
96.0536905282
 30
0.0
  0
SPLINE
  5
3CC
100
AcDbEntity
  8
1-2_1
100
AcDbSpline
 62
7
  6
CONTINUOUS
 70
0
 71
3
 72
9
 73
5
 74
0
 42
0.0000001
 43
0.0000001
 44
0.0000000001
 40
0.0
 40
0.0
 40
0.0
 40
0.0
 40
0.2073081061
 40
1.0
 40
1.0
 40
1.0
 40
1.0
 10
190.8703384607
 20
76.8727152272
 30
0.0
 10
190.8696106883
 20
76.8739654941
 30
0.0
 10
190.8663637631
 20
76.8801497518
 30
0.0
 10
190.8639300876
 20
76.8867245168
 30
0.0
 10
190.8621831615
 20
76.8919730703
 30
0.0
  0
SPLINE
  5
3CD
100
AcDbEntity
  8
1-2_1
100
AcDbSpline
 62
7
  6
CONTINUOUS
 70
0
 71
3
 72
35
 73
31
 74
0
 42
0.0000001
 43
0.0000001
 44
0.0000000001
 40
0.0
 40
0.0
 40
0.0
 40
0.0
 40
0.0023650028
 40
0.0057938545
 40
0.0102905458
 40
0.0158486091
 40
0.0301094291
 40
0.0484615908
 40
0.0707508569
 40
0.0967833683
 40
0.1263339969
 40
0.1591460053
 40
0.2333817014
 40
0.3169065857
 40
0.4068115703
 40
0.4999638421
 40
0.5931174637
 40
0.6830264999
 40
0.7665579646
 40
0.8408023877
 40
0.8736194918
 40
0.9031757566
 40
0.9292143295
 40
0.9515100916
 40
0.9698690475
 40
0.9841368115
 40
0.989698395
 40
0.9941986747
 40
0.9976312373
 40
1.0
 40
1.0
 40
1.0
 40
1.0
 10
190.8621831615
 20
76.8919730703
 30
0.0
 10
190.8570886082
 20
76.9072794058
 30
0.0
 10
190.8482654206
 20
76.945921521
 30
0.0
 10
190.8368106557
 20
77.0151535579
 30
0.0
 10
190.8252496892
 20
77.10642798
 30
0.0
 10
190.8082043293
 20
77.2714089401
 30
0.0
 10
190.7879028509
 20
77.5310207936
 30
0.0
 10
190.7646802348
 20
77.9047949646
 30
0.0
 10
190.7413277083
 20
78.3589928791
 30
0.0
 10
190.7178387711
 20
78.889650258
 30
0.0
 10
190.6942843418
 20
79.49214389
 30
0.0
 10
190.6614499274
 20
80.4233166966
 30
0.0
 10
190.6213611377
 20
81.7226170955
 30
0.0
 10
190.5747488316
 20
83.4113249582
 30
0.0
 10
190.5280207034
 20
85.2291068684
 30
0.0
 10
190.4812295849
 20
87.1125859662
 30
0.0
 10
190.4344384365
 20
88.9960927081
 30
0.0
 10
190.3877102404
 20
90.8139563718
 30
0.0
 10
190.3410977421
 20
92.5027963274
 30
0.0
 10
190.3010093163
 20
93.8022359709
 30
0.0
 10
190.2681752623
 20
94.7335416027
 30
0.0
 10
190.2446204131
 20
95.3361498546
 30
0.0
 10
190.2211320491
 20
95.8669314721
 30
0.0
 10
190.1977805802
 20
96.3212616193
 30
0.0
 10
190.174550484
 20
96.6951736474
 30
0.0
 10
190.1542553451
 20
96.9549038252
 30
0.0
 10
190.1372202645
 20
97.1199823068
 30
0.0
 10
190.1256578914
 20
97.2113307998
 30
0.0
 10
190.1141839306
 20
97.2806370094
 30
0.0
 10
190.1053386804
 20
97.3193254962
 30
0.0
 10
190.1002405104
 20
97.3346576571
 30
0.0
  0
SPLINE
  5
3CE
100
AcDbEntity
  8
1-2_1
100
AcDbSpline
 62
7
  6
CONTINUOUS
 70
0
 71
3
 72
9
 73
5
 74
0
 42
0.0000001
 43
0.0000001
 44
0.0000000001
 40
0.0
 40
0.0
 40
0.0
 40
0.0
 40
0.6640476883
 40
1.0
 40
1.0
 40
1.0
 40
1.0
 10
190.1002405104
 20
97.3346576571
 30
0.0
 10
190.0977640656
 20
97.3421052805
 30
0.0
 10
190.09439175
 20
97.3526492167
 30
0.0
 10
190.085180816
 20
97.3633745187
 30
0.0
 10
190.0812101051
 20
97.3633745187
 30
0.0
  0
SPLINE
  5
3CF
100
AcDbEntity
  8
1-2_1
100
AcDbSpline
 62
7
  6
CONTINUOUS
 70
0
 71
3
 72
9
 73
5
 74
0
 42
0.0000001
 43
0.0000001
 44
0.0000000001
 40
0.0
 40
0.0
 40
0.0
 40
0.0
 40
0.2070550155
 40
1.0
 40
1.0
 40
1.0
 40
1.0
 10
190.1919982556
 20
97.3540907018
 30
0.0
 10
190.192728228
 20
97.3528385089
 30
0.0
 10
190.1959885338
 20
97.3466364724
 30
0.0
 10
190.1984322265
 20
97.3400418951
 30
0.0
 10
190.200187567
 20
97.3347759665
 30
0.0
  0
SPLINE
  5
3D0
100
AcDbEntity
  8
1-2_1
100
AcDbSpline
 62
7
  6
CONTINUOUS
 70
0
 71
3
 72
34
 73
30
 74
0
 42
0.0000001
 43
0.0000001
 44
0.0000000001
 40
0.0
 40
0.0
 40
0.0
 40
0.0
 40
0.0023653665
 40
0.0057944466
 40
0.0102911729
 40
0.0158491998
 40
0.0301099742
 40
0.0484621448
 40
0.0707514093
 40
0.0967839144
 40
0.1263345387
 40
0.1591465421
 40
0.2333822263
 40
0.3169070973
 40
0.4068120676
 40
0.4999643246
 40
0.5931179314
 40
0.6830269533
 40
0.7665584047
 40
0.8408028159
 40
0.873619915
 40
0.9031761754
 40
0.9292147427
 40
0.9515105026
 40
0.9698694633
 40
0.984137196
 40
0.9941982812
 40
0.9976309959
 40
1.0
 40
1.0
 40
1.0
 40
1.0
 10
190.200187567
 20
97.3347759665
 30
0.0
 10
190.2052897897
 20
97.3194695685
 30
0.0
 10
190.2141434557
 20
97.280830619
 30
0.0
 10
190.2256238243
 20
97.2115975753
 30
0.0
 10
190.2371857703
 20
97.1203216761
 30
0.0
 10
190.2542176185
 20
96.9553395555
 30
0.0
 10
190.2745100091
 20
96.695727666
 30
0.0
 10
190.2977423987
 20
96.3219542858
 30
0.0
 10
190.3210929826
 20
95.86775616
 30
0.0
 10
190.3445809071
 20
95.3370987508
 30
0.0
 10
190.3681359147
 20
94.7346051495
 30
0.0
 10
190.4009703771
 20
93.803432342
 30
0.0
 10
190.4410590184
 20
92.5041319379
 30
0.0
 10
190.4876713954
 20
90.8154240791
 30
0.0
 10
190.534399501
 20
88.9976421684
 30
0.0
 10
190.5811906331
 20
87.1141630748
 30
0.0
 10
190.627981749
 20
85.2306563229
 30
0.0
 10
190.6747100536
 20
83.4127926987
 30
0.0
 10
190.7213221931
 20
81.7239526158
 30
0.0
 10
190.7614116139
 20
80.4245133187
 30
0.0
 10
190.7942437758
 20
79.4932070708
 30
0.0
 10
190.8178038556
 20
78.8906003857
 30
0.0
 10
190.8412764821
 20
78.3598139478
 30
0.0
 10
190.86467117
 20
77.9054978472
 30
0.0
 10
190.8877838262
 20
77.5315468001
 30
0.0
 10
190.9107804675
 20
77.241315097
 30
0.0
 10
190.9306216042
 20
77.0528448753
 30
0.0
 10
190.9482365343
 20
76.946108125
 30
0.0
 10
190.9571094002
 20
76.9074235857
 30
0.0
 10
190.9622126629
 20
76.892091381
 30
0.0
  0
SPLINE
  5
3D1
100
AcDbEntity
  8
1-2_1
100
AcDbSpline
 62
7
  6
CONTINUOUS
 70
0
 71
3
 72
9
 73
5
 74
0
 42
0.0000001
 43
0.0000001
 44
0.0000000001
 40
0.0
 40
0.0
 40
0.0
 40
0.0
 40
0.6645191981
 40
1.0
 40
1.0
 40
1.0
 40
1.0
 10
190.9622126629
 20
76.892091381
 30
0.0
 10
190.964691281
 20
76.8846446388
 30
0.0
 10
190.9680673077
 20
76.874122154
 30
0.0
 10
190.9772478563
 20
76.8633745187
 30
0.0
 10
190.9812101051
 20
76.8633745187
 30
0.0
  0
SPLINE
  5
3D2
100
AcDbEntity
  8
1-2_1
100
AcDbSpline
 62
7
  6
CONTINUOUS
 70
0
 71
3
 72
11
 73
7
 74
0
 42
0.0000001
 43
0.0000001
 44
0.0000000001
 40
0.0
 40
0.0
 40
0.0
 40
0.0
 40
0.12059843
 40
0.3269418547
 40
0.6201956173
 40
1.0
 40
1.0
 40
1.0
 40
1.0
 10
189.2704202324
 20
76.8726353974
 30
0.0
 10
189.2634162611
 20
76.8846295685
 30
0.0
 10
189.2534123759
 20
76.9216090694
 30
0.0
 10
189.2399631606
 20
76.9914092549
 30
0.0
 10
189.2268506687
 20
77.0920578438
 30
0.0
 10
189.218770979
 20
77.1690972112
 30
0.0
 10
189.2145434384
 20
77.2126347991
 30
0.0
  0
SPLINE
  5
3D3
100
AcDbEntity
  8
1-2_1
100
AcDbSpline
 62
7
  6
CONTINUOUS
 70
0
 71
3
 72
9
 73
5
 74
0
 42
0.0000001
 43
0.0000001
 44
0.0000000001
 40
0.0
 40
0.0
 40
0.0
 40
0.0
 40
0.207048528
 40
1.0
 40
1.0
 40
1.0
 40
1.0
 10
183.7919751643
 20
97.3540849619
 30
0.0
 10
183.7927042675
 20
97.3528328407
 30
0.0
 10
183.7959615574
 20
97.3466317596
 30
0.0
 10
183.7984055286
 20
97.3400398732
 30
0.0
 10
183.800161577
 20
97.3347759658
 30
0.0
  0
SPLINE
  5
3D4
100
AcDbEntity
  8
1-2_1
100
AcDbSpline
 62
7
  6
CONTINUOUS
 70
0
 71
3
 72
33
 73
29
 74
0
 42
0.0000001
 43
0.0000001
 44
0.0000000001
 40
0.0
 40
0.0
 40
0.0
 40
0.0
 40
0.0023655589
 40
0.0057947608
 40
0.0158487379
 40
0.0301094947
 40
0.0484616783
 40
0.070750952
 40
0.0967834655
 40
0.1263341007
 40
0.1591461163
 40
0.2333818277
 40
0.3169067292
 40
0.4068117324
 40
0.4999640235
 40
0.5931176643
 40
0.6830267191
 40
0.7665582011
 40
0.8408026394
 40
0.8736197505
 40
0.9031760218
 40
0.9292145981
 40
0.9515103666
 40
0.9698693366
 40
0.9841370652
 40
0.9941981528
 40
0.9976309176
 40
1.0
 40
1.0
 40
1.0
 40
1.0
 10
183.800161577
 20
97.3347759658
 30
0.0
 10
183.8052678283
 20
97.3194695339
 30
0.0
 10
183.8141449147
 20
97.2808341102
 30
0.0
 10
183.831766119
 20
97.174195818
 30
0.0
 10
183.8516015441
 20
96.9858450589
 30
0.0
 10
183.874597438
 20
96.6957565083
 30
0.0
 10
183.8977103778
 20
96.3219437653
 30
0.0
 10
183.9211046317
 20
95.8677597972
 30
0.0
 10
183.9445769054
 20
95.3370975446
 30
0.0
 10
183.9681370896
 20
94.734605515
 30
0.0
 10
184.0009696375
 20
93.8034320875
 30
0.0
 10
184.0410593038
 20
92.5041320326
 30
0.0
 10
184.0876713085
 20
90.8154240451
 30
0.0
 10
184.1343995264
 20
88.9976421739
 30
0.0
 10
184.181190626
 20
87.11416307
 30
0.0
 10
184.2279817517
 20
85.230656322
 30
0.0
 10
184.2747100499
 20
83.4127926977
 30
0.0
 10
184.3213222041
 20
81.7239526163
 30
0.0
 10
184.3614115956
 20
80.424513319
 30
0.0
 10
184.3942437631
 20
79.4932070702
 30
0.0
 10
184.4178039816
 20
78.8906003945
 30
0.0
 10
184.4412763356
 20
78.3598139414
 30
0.0
 10
184.464670772
 20
77.9054978215
 30
0.0
 10
184.4877851069
 20
77.5315468741
 30
0.0
 10
184.5107805767
 20
77.2413152837
 30
0.0
 10
184.5306159492
 20
77.0528440247
 30
0.0
 10
184.5482389553
 20
76.9461074642
 30
0.0
 10
184.5571183171
 20
76.9074236003
 30
0.0
 10
184.5622232091
 20
76.8920913813
 30
0.0
  0
SPLINE
  5
3D5
100
AcDbEntity
  8
1-2_1
100
AcDbSpline
 62
7
  6
CONTINUOUS
 70
0
 71
3
 72
9
 73
5
 74
0
 42
0.0000001
 43
0.0000001
 44
0.0000000001
 40
0.0
 40
0.0
 40
0.0
 40
0.0
 40
0.6646700768
 40
1.0
 40
1.0
 40
1.0
 40
1.0
 10
184.5622232091
 20
76.8920913813
 30
0.0
 10
184.5647025225
 20
76.8846449211
 30
0.0
 10
184.5680797538
 20
76.8741293074
 30
0.0
 10
184.5772505615
 20
76.8633745187
 30
0.0
 10
184.5812101051
 20
76.8633745187
 30
0.0
  0
SPLINE
  5
3D6
100
AcDbEntity
  8
1-2_1
100
AcDbSpline
 62
7
  6
CONTINUOUS
 70
0
 71
3
 72
10
 73
6
 74
0
 42
0.0000001
 43
0.0000001
 44
0.0000000001
 40
0.0
 40
0.0
 40
0.0
 40
0.0
 40
0.2012928021
 40
0.4433899433
 40
1.0
 40
1.0
 40
1.0
 40
1.0
 10
170.1312101051
 20
94.3175441395
 30
0.0
 10
170.144998298
 20
93.8342597387
 30
0.0
 10
170.1706258049
 20
92.7695908138
 30
0.0
 10
170.2194518149
 20
90.3682073845
 30
0.0
 10
170.2525951098
 20
88.4500914106
 30
0.0
 10
170.2753334656
 20
87.1133745199
 30
0.0
  0
SPLINE
  5
3D7
100
AcDbEntity
  8
1-2_1
100
AcDbSpline
 62
7
  6
CONTINUOUS
 70
0
 71
3
 72
18
 73
14
 74
0
 42
0.0000001
 43
0.0000001
 44
0.0000000001
 40
0.0
 40
0.0
 40
0.0
 40
0.0
 40
0.1847071336
 40
0.3633992907
 40
0.5297659853
 40
0.6779578455
 40
0.8028408008
 40
0.8551645563
 40
0.9001324612
 40
0.937367761
 40
0.9665633546
 40
0.9874863518
 40
1.0
 40
1.0
 40
1.0
 40
1.0
 10
170.2753334656
 20
87.1133745199
 30
0.0
 10
170.2854031654
 20
86.5214083301
 30
0.0
 10
170.3055525794
 20
85.3567590481
 30
0.0
 10
170.3353568468
 20
83.6589328781
 30
0.0
 10
170.3651811725
 20
82.0781696416
 30
0.0
 10
170.3946567715
 20
80.66991231
 30
0.0
 10
170.4202394248
 20
79.6272005828
 30
0.0
 10
170.4413229055
 20
78.9153666072
 30
0.0
 10
170.4560665351
 20
78.484400942
 30
0.0
 10
170.4708217778
 20
78.1276541863
 30
0.0
 10
170.4850119551
 20
77.8479439361
 30
0.0
 10
170.4994412921
 20
77.6478178224
 30
0.0
 10
170.5099484961
 20
77.5409351137
 30
0.0
 10
170.5174746391
 20
77.5015368442
 30
0.0
  0
SPLINE
  5
3D8
100
AcDbEntity
  8
1-2_1
100
AcDbSpline
 62
7
  6
CONTINUOUS
 70
0
 71
3
 72
9
 73
5
 74
0
 42
0.0000001
 43
0.0000001
 44
0.0000000001
 40
0.0
 40
0.0
 40
0.0
 40
0.0
 40
0.6533559103
 40
1.0
 40
1.0
 40
1.0
 40
1.0
 10
170.5174746391
 20
77.5015368442
 30
0.0
 10
170.5190222323
 20
77.4934354177
 30
0.0
 10
170.5218746889
 20
77.4814598051
 30
0.0
 10
170.5258389562
 20
77.4687430007
 30
0.0
 10
170.5289332622
 20
77.4656486938
 30
0.0
  0
SPLINE
  5
3D9
100
AcDbEntity
  8
1-2_1
100
AcDbSpline
 62
7
  6
CONTINUOUS
 70
0
 71
3
 72
9
 73
5
 74
0
 42
0.0000001
 43
0.0000001
 44
0.0000000001
 40
0.0
 40
0.0
 40
0.0
 40
0.0
 40
0.2081264079
 40
1.0
 40
1.0
 40
1.0
 40
1.0
 10
182.8702224506
 20
76.872954643
 30
0.0
 10
182.8695085841
 20
76.8741974517
 30
0.0
 10
182.8663294187
 20
76.8803127992
 30
0.0
 10
182.8639283131
 20
76.8867993325
 30
0.0
 10
182.8622051403
 20
76.8919730704
 30
0.0
  0
SPLINE
  5
3DA
100
AcDbEntity
  8
1-2_1
100
AcDbSpline
 62
7
  6
CONTINUOUS
 70
0
 71
3
 72
35
 73
31
 74
0
 42
0.0000001
 43
0.0000001
 44
0.0000000001
 40
0.0
 40
0.0
 40
0.0
 40
0.0
 40
0.0023651647
 40
0.0057941185
 40
0.0102908263
 40
0.0158488746
 40
0.0301096773
 40
0.0484618466
 40
0.0707511166
 40
0.0967836306
 40
0.1263342633
 40
0.1591462763
 40
0.2333819825
 40
0.316906878
 40
0.4068118748
 40
0.4999641593
 40
0.5931177935
 40
0.6830268418
 40
0.7665583178
 40
0.840802751
 40
0.8736198594
 40
0.903176128
 40
0.9292147059
 40
0.9515104695
 40
0.9698694198
 40
0.9841372158
 40
0.9896988242
 40
0.9941990795
 40
0.9976314855
 40
1.0
 40
1.0
 40
1.0
 40
1.0
 10
182.8622051403
 20
76.8919730704
 30
0.0
 10
182.8571071805
 20
76.9072794333
 30
0.0
 10
182.8482704542
 20
76.9459201438
 30
0.0
 10
182.8368043173
 20
77.0151526274
 30
0.0
 10
182.8252429159
 20
77.1064277048
 30
0.0
 10
182.8082035575
 20
77.2714091806
 30
0.0
 10
182.7879061157
 20
77.53102105
 30
0.0
 10
182.7646791584
 20
77.9047948699
 30
0.0
 10
182.7413274948
 20
78.3589928783
 30
0.0
 10
182.7178390074
 20
78.8896502708
 30
0.0
 10
182.6942843213
 20
79.4921438894
 30
0.0
 10
182.6614498855
 20
80.4233166968
 30
0.0
 10
182.6213611616
 20
81.7226170985
 30
0.0
 10
182.5747488242
 20
83.4113249603
 30
0.0
 10
182.5280207053
 20
85.2291068711
 30
0.0
 10
182.4812295837
 20
87.112585969
 30
0.0
 10
182.4344384394
 20
88.9960927111
 30
0.0
 10
182.3877102287
 20
90.8139563742
 30
0.0
 10
182.3410977802
 20
92.5027963318
 30
0.0
 10
182.3010092492
 20
93.802235971
 30
0.0
 10
182.2681752337
 20
94.733541602
 30
0.0
 10
182.2446207797
 20
95.3361498748
 30
0.0
 10
182.2211316976
 20
95.86693147
 30
0.0
 10
182.197778948
 20
96.3212614741
 30
0.0
 10
182.1745555693
 20
96.6951740491
 30
0.0
 10
182.1542540398
 20
96.9549041888
 30
0.0
 10
182.1372097707
 20
97.1199818801
 30
0.0
 10
182.1256481469
 20
97.2113293639
 30
0.0
 10
182.1141917989
 20
97.2806348977
 30
0.0
 10
182.1053673871
 20
97.3193255403
 30
0.0
 10
182.100274462
 20
97.3346576574
 30
0.0
  0
SPLINE
  5
3DB
100
AcDbEntity
  8
1-2_1
100
AcDbSpline
 62
7
  6
CONTINUOUS
 70
0
 71
3
 72
9
 73
5
 74
0
 42
0.0000001
 43
0.0000001
 44
0.0000000001
 40
0.0
 40
0.0
 40
0.0
 40
0.0
 40
0.6635621521
 40
1.0
 40
1.0
 40
1.0
 40
1.0
 10
182.100274462
 20
97.3346576574
 30
0.0
 10
182.0978002565
 20
97.3421061879
 30
0.0
 10
182.0944316778
 20
97.3526721804
 30
0.0
 10
182.0851895427
 20
97.3633745187
 30
0.0
 10
182.0812101051
 20
97.3633745187
 30
0.0
  0
SPLINE
  5
3DC
100
AcDbEntity
  8
1-2_1
100
AcDbSpline
 62
7
  6
CONTINUOUS
 70
0
 71
3
 72
9
 73
5
 74
0
 42
0.0000001
 43
0.0000001
 44
0.0000000001
 40
0.0
 40
0.0
 40
0.0
 40
0.0
 40
0.2073216326
 40
1.0
 40
1.0
 40
1.0
 40
1.0
 10
185.3920200556
 20
97.3540082369
 30
0.0
 10
185.3927448358
 20
97.3527584657
 30
0.0
 10
185.3959806253
 20
97.3465796057
 30
0.0
 10
185.3984138469
 20
97.3400158859
 30
0.0
 10
185.4001618772
 20
97.3347759658
 30
0.0
  0
SPLINE
  5
3DD
100
AcDbEntity
  8
1-2_1
100
AcDbSpline
 62
7
  6
CONTINUOUS
 70
0
 71
3
 72
33
 73
29
 74
0
 42
0.0000001
 43
0.0000001
 44
0.0000000001
 40
0.0
 40
0.0
 40
0.0
 40
0.0
 40
0.0023655571
 40
0.0057947581
 40
0.0158487369
 40
0.0301094963
 40
0.0484616828
 40
0.0707509601
 40
0.0967834779
 40
0.126334118
 40
0.1591461389
 40
0.2333818624
 40
0.3169067775
 40
0.4068117954
 40
0.4999641017
 40
0.5931177577
 40
0.6830268271
 40
0.7665583227
 40
0.8408027731
 40
0.8736198895
 40
0.9031761655
 40
0.9292147467
 40
0.9515105182
 40
0.9698694878
 40
0.9841372313
 40
0.9941983223
 40
0.9976310217
 40
1.0
 40
1.0
 40
1.0
 40
1.0
 10
185.4001618772
 20
97.3347759658
 30
0.0
 10
185.405268082
 20
97.3194695343
 30
0.0
 10
185.4141449828
 20
97.2808340912
 30
0.0
 10
185.4317659579
 20
97.1741957937
 30
0.0
 10
185.4516015484
 20
96.9858450643
 30
0.0
 10
185.474597474
 20
96.6957565101
 30
0.0
 10
185.4977103662
 20
96.3219437642
 30
0.0
 10
185.5211046277
 20
95.8677597965
 30
0.0
 10
185.544576909
 20
95.3370975442
 30
0.0
 10
185.5681370892
 20
94.7346055142
 30
0.0
 10
185.600969637
 20
93.8034320864
 30
0.0
 10
185.6410593041
 20
92.5041320311
 30
0.0
 10
185.6876713085
 20
90.8154240431
 30
0.0
 10
185.7343995264
 20
88.9976421715
 30
0.0
 10
185.7811906263
 20
87.1141630671
 30
0.0
 10
185.8279817506
 20
85.2306563188
 30
0.0
 10
185.8747100544
 20
83.4127926945
 30
0.0
 10
185.9213221895
 20
81.7239526125
 30
0.0
 10
185.9614116203
 20
80.4245133161
 30
0.0
 10
185.9942437802
 20
79.4932070692
 30
0.0
 10
186.0178038116
 20
78.8906003813
 30
0.0
 10
186.0412765334
 20
78.3598139491
 30
0.0
 10
186.0646713092
 20
77.9054978555
 30
0.0
 10
186.0877833787
 20
77.5315467738
 30
0.0
 10
186.1107804293
 20
77.2413150316
 30
0.0
 10
186.1306235803
 20
77.0528451724
 30
0.0
 10
186.1482356884
 20
76.9461083558
 30
0.0
 10
186.1571062844
 20
76.9074235806
 30
0.0
 10
186.1622089776
 20
76.8920913809
 30
0.0
  0
SPLINE
  5
3DE
100
AcDbEntity
  8
1-2_1
100
AcDbSpline
 62
7
  6
CONTINUOUS
 70
0
 71
3
 72
9
 73
5
 74
0
 42
0.0000001
 43
0.0000001
 44
0.0000000001
 40
0.0
 40
0.0
 40
0.0
 40
0.0
 40
0.6644664785
 40
1.0
 40
1.0
 40
1.0
 40
1.0
 10
186.1622089776
 20
76.8920913809
 30
0.0
 10
186.1646873529
 20
76.8846445402
 30
0.0
 10
186.1680629605
 20
76.8741196553
 30
0.0
 10
186.1772469108
 20
76.8633745187
 30
0.0
 10
186.1812101051
 20
76.8633745187
 30
0.0
  0
SPLINE
  5
3DF
100
AcDbEntity
  8
1-2_1
100
AcDbSpline
 62
7
  6
CONTINUOUS
 70
0
 71
3
 72
39
 73
35
 74
0
 42
0.0000001
 43
0.0000001
 44
0.0000000001
 40
0.0
 40
0.0
 40
0.0
 40
0.0
 40
0.0018596353
 40
0.0047913634
 40
0.0088204536
 40
0.0139550293
 40
0.0201887377
 40
0.0275017473
 40
0.0452801082
 40
0.0671341383
 40
0.0929040617
 40
0.122355189
 40
0.1552112773
 40
0.1911639092
 40
0.2299017245
 40
0.314352095
 40
0.4054667922
 40
0.4999958862
 40
0.594528338
 40
0.6856422703
 40
0.7700860401
 40
0.8088300381
 40
0.8447801403
 40
0.8776338741
 40
0.907093889
 40
0.9328581299
 40
0.9547130366
 40
0.9724959927
 40
0.9798062659
 40
0.9860346058
 40
0.9911695814
 40
0.9952053226
 40
0.9981413484
 40
1.0
 40
1.0
 40
1.0
 40
1.0
 10
182.1187404989
 20
78.1736525159
 30
0.0
 10
182.1131937389
 20
78.1832666081
 30
0.0
 10
182.1042212754
 20
78.2107809899
 30
0.0
 10
182.0926593951
 20
78.2620148901
 30
0.0
 10
182.0810146554
 20
78.3333602662
 30
0.0
 10
182.0691590758
 20
78.4244734828
 30
0.0
 10
182.0572559643
 20
78.5353547049
 30
0.0
 10
182.0401686233
 20
78.721539596
 30
0.0
 10
182.0194749734
 20
79.0009935523
 30
0.0
 10
181.9957149622
 20
79.3906338972
 30
0.0
 10
181.9718733069
 20
79.8500519622
 30
0.0
 10
181.9479393581
 20
80.3752065195
 30
0.0
 10
181.9239612238
 20
80.9611920378
 30
0.0
 10
181.8999301212
 20
81.6026457484
 30
0.0
 10
181.8668990548
 20
82.5519207947
 30
0.0
 10
181.8263967948
 20
83.8303711158
 30
0.0
 10
181.7788850386
 20
85.4417565206
 30
0.0
 10
181.7313369152
 20
87.113341805
 30
0.0
 10
181.6837912022
 20
88.7849225872
 30
0.0
 10
181.6362809194
 20
90.3962841137
 30
0.0
 10
181.5957719187
 20
91.6747271465
 30
0.0
 10
181.5627489364
 20
92.6239848622
 30
0.0
 10
181.5387180504
 20
93.2654463557
 30
0.0
 10
181.5147311226
 20
93.8514554014
 30
0.0
 10
181.4908128485
 20
94.3766157569
 30
0.0
 10
181.4669609697
 20
94.8360577466
 30
0.0
 10
181.4431972568
 20
95.2256964969
 30
0.0
 10
181.4225139356
 20
95.5051676486
 30
0.0
 10
181.4054252426
 20
95.6913313994
 30
0.0
 10
181.3935128206
 20
95.8021655439
 30
0.0
 10
181.381650627
 20
95.8932874551
 30
0.0
 10
181.3700161598
 20
95.9647039055
 30
0.0
 10
181.3584637904
 20
96.0159984671
 30
0.0
 10
181.3494902358
 20
96.0435375623
 30
0.0
 10
181.3439360162
 20
96.0531405644
 30
0.0
  0
SPLINE
  5
3E0
100
AcDbEntity
  8
1-2_1
100
AcDbSpline
 62
7
  6
CONTINUOUS
 70
0
 71
3
 72
31
 73
27
 74
0
 42
0.0000001
 43
0.0000001
 44
0.0000000001
 40
0.0
 40
0.0
 40
0.0
 40
0.0
 40
0.0136150465
 40
0.0309371055
 40
0.0761800295
 40
0.1343979673
 40
0.2037178832
 40
0.2820338303
 40
0.3668652444
 40
0.4555924057
 40
0.5454355554
 40
0.6335944267
 40
0.7173273752
 40
0.7940130474
 40
0.8289489269
 40
0.8612648413
 40
0.8906954768
 40
0.9169985804
 40
0.9399723236
 40
0.9594537483
 40
0.9753084699
 40
0.9873967925
 40
0.9919903988
 40
0.9956141502
 40
0.9982762899
 40
1.0
 40
1.0
 40
1.0
 40
1.0
 10
188.4646670179
 20
78.4674790112
 30
0.0
 10
188.4559525812
 20
78.5469053079
 30
0.0
 10
188.4395444113
 20
78.7277496787
 30
0.0
 10
188.4072687132
 20
79.1736704287
 30
0.0
 10
188.3692441401
 20
79.8815393772
 30
0.0
 10
188.325693002
 20
80.8946056486
 30
0.0
 10
188.2817912823
 20
82.1019157402
 30
0.0
 10
188.2376575921
 20
83.4654883383
 30
0.0
 10
188.1933772928
 20
84.9430077765
 30
0.0
 10
188.1490447578
 20
86.4882035734
 30
0.0
 10
188.1046984058
 20
88.0529348005
 30
0.0
 10
188.0603638571
 20
89.5883450334
 30
0.0
 10
188.0161148566
 20
91.0465067416
 30
0.0
 10
187.9782871512
 20
92.1923668207
 30
0.0
 10
187.9474719912
 20
93.0365344905
 30
0.0
 10
187.9251222424
 20
93.6034976
 30
0.0
 10
187.9028054239
 20
94.1197557863
 30
0.0
 10
187.8805312402
 20
94.5811342276
 30
0.0
 10
187.858318873
 20
94.9840472512
 30
0.0
 10
187.836252169
 20
95.3255541367
 30
0.0
 10
187.8143300607
 20
95.6030047598
 30
0.0
 10
187.7951879373
 20
95.7930569368
 30
0.0
 10
187.7789537294
 20
95.9110993031
 30
0.0
 10
187.7680851366
 20
95.9740940576
 30
0.0
 10
187.7573193287
 20
96.0197605889
 30
0.0
 10
187.748936652
 20
96.0443931973
 30
0.0
 10
187.7438799546
 20
96.0531546347
 30
0.0
  0
SPLINE
  5
3E1
100
AcDbEntity
  8
1-2_1
100
AcDbSpline
 62
7
  6
CONTINUOUS
 70
0
 71
3
 72
9
 73
5
 74
0
 42
0.0000001
 43
0.0000001
 44
0.0000000001
 40
0.0
 40
0.0
 40
0.0
 40
0.0
 40
0.2074477635
 40
1.0
 40
1.0
 40
1.0
 40
1.0
 10
188.5921188987
 20
97.3539991114
 30
0.0
 10
188.5928450446
 20
97.352749976
 30
0.0
 10
188.5960830932
 20
97.3465761994
 30
0.0
 10
188.5985112239
 20
97.3400138169
 30
0.0
 10
188.6002537062
 20
97.334775967
 30
0.0
  0
SPLINE
  5
3E2
100
AcDbEntity
  8
1-2_1
100
AcDbSpline
 62
7
  6
CONTINUOUS
 70
0
 71
3
 72
35
 73
31
 74
0
 42
0.0000001
 43
0.0000001
 44
0.0000000001
 40
0.0
 40
0.0
 40
0.0
 40
0.0
 40
0.0023648814
 40
0.0057936574
 40
0.0102903384
 40
0.0158484157
 40
0.0301092558
 40
0.0484614204
 40
0.0707506943
 40
0.0967832164
 40
0.126333856
 40
0.1591458767
 40
0.2333816011
 40
0.3169065169
 40
0.4068115356
 40
0.4999638427
 40
0.5931174996
 40
0.6830265699
 40
0.7665580662
 40
0.8408025173
 40
0.8736196339
 40
0.9031759097
 40
0.9292144932
 40
0.951510263
 40
0.9698692219
 40
0.9841370061
 40
0.9896986037
 40
0.9941988727
 40
0.9976313591
 40
1.0
 40
1.0
 40
1.0
 40
1.0
 10
188.6002537062
 20
97.334775967
 30
0.0
 10
188.605345678
 20
97.319469652
 30
0.0
 10
188.6141586039
 20
97.2808264734
 30
0.0
 10
188.6256047508
 20
97.2115947745
 30
0.0
 10
188.6371653876
 20
97.1203208484
 30
0.0
 10
188.6542152961
 20
96.955340279
 30
0.0
 10
188.6745198338
 20
96.6957284373
 30
0.0
 10
188.6977391597
 20
96.3219539999
 30
0.0
 10
188.7210923402
 20
95.8677561564
 30
0.0
 10
188.7445816184
 20
95.3370987876
 30
0.0
 10
188.7681358529
 20
94.7346051451
 30
0.0
 10
188.8009702511
 20
93.8034323388
 30
0.0
 10
188.8410590908
 20
92.5041319416
 30
0.0
 10
188.8876713732
 20
90.8154240777
 30
0.0
 10
188.9343995082
 20
88.9976421675
 30
0.0
 10
188.9811906254
 20
87.1141630695
 30
0.0
 10
189.0279817724
 20
85.2306563274
 30
0.0
 10
189.0747099756
 20
83.412792664
 30
0.0
 10
189.1213224494
 20
81.7239527074
 30
0.0
 10
189.1614109271
 20
80.424513066
 30
0.0
 10
189.1942449621
 20
79.4932074347
 30
0.0
 10
189.2177996163
 20
78.8905991724
 30
0.0
 10
189.2412883346
 20
78.359817566
 30
0.0
 10
189.2646404353
 20
77.9054874894
 30
0.0
 10
189.2878672173
 20
77.5315751915
 30
0.0
 10
189.3081655091
 20
77.2718450326
 30
0.0
 10
189.3252051232
 20
77.1067669409
 30
0.0
 10
189.3367671266
 20
77.0154189462
 30
0.0
 10
189.3482323972
 20
76.9461130702
 30
0.0
 10
189.3570673665
 20
76.9074235192
 30
0.0
 10
189.3621629487
 20
76.89209138
 30
0.0
  0
SPLINE
  5
3E3
100
AcDbEntity
  8
1-2_1
100
AcDbSpline
 62
7
  6
CONTINUOUS
 70
0
 71
3
 72
9
 73
5
 74
0
 42
0.0000001
 43
0.0000001
 44
0.0000000001
 40
0.0
 40
0.0
 40
0.0
 40
0.0
 40
0.6638081181
 40
1.0
 40
1.0
 40
1.0
 40
1.0
 10
189.3621629487
 20
76.89209138
 30
0.0
 10
189.3646382888
 20
76.8846433091
 30
0.0
 10
189.3680087498
 20
76.8740884858
 30
0.0
 10
189.37723509
 20
76.8633745187
 30
0.0
 10
189.3812101051
 20
76.8633745187
 30
0.0
  0
SPLINE
  5
3E4
100
AcDbEntity
  8
1-2_1
100
AcDbSpline
 62
7
  6
CONTINUOUS
 70
0
 71
3
 72
32
 73
28
 74
0
 42
0.0000001
 43
0.0000001
 44
0.0000000001
 40
0.0
 40
0.0
 40
0.0
 40
0.0
 40
0.0015708699
 40
0.0040959802
 40
0.007593948
 40
0.0120652846
 40
0.0175042499
 40
0.023903258
 40
0.0395326723
 40
0.0588359002
 40
0.0816638034
 40
0.1078405476
 40
0.1371600505
 40
0.1693935666
 40
0.2042885801
 40
0.2809485703
 40
0.3647395146
 40
0.4530367052
 40
0.5430735599
 40
0.6320290267
 40
0.7171162362
 40
0.7956695652
 40
0.8652281897
 40
0.9236156835
 40
0.9690080795
 40
0.9863761785
 40
1.0
 40
1.0
 40
1.0
 40
1.0
 10
186.9921158302
 20
97.3538908789
 30
0.0
 10
186.9973910416
 20
97.344747482
 30
0.0
 10
187.0057195375
 20
97.3181375247
 30
0.0
 10
187.0165267715
 20
97.2684126062
 30
0.0
 10
187.0273558297
 20
97.198621978
 30
0.0
 10
187.0384090835
 20
97.1092256974
 30
0.0
 10
187.0495016094
 20
97.0001741928
 30
0.0
 10
187.0654534791
 20
96.8162887027
 30
0.0
 10
187.0847590909
 20
96.5391980753
 30
0.0
 10
187.1068951917
 20
96.1516843971
 30
0.0
 10
187.1291277613
 20
95.6931988495
 30
0.0
 10
187.1514472551
 20
95.1673434265
 30
0.0
 10
187.1738160269
 20
94.5782349444
 30
0.0
 10
187.1962207839
 20
93.9305044946
 30
0.0
 10
187.2271003392
 20
92.9647590041
 30
0.0
 10
187.2650182712
 20
91.6526074316
 30
0.0
 10
187.3093678155
 20
89.9816436017
 30
0.0
 10
187.3537859554
 20
88.220761187
 30
0.0
 10
187.3982329727
 20
86.4251640886
 30
0.0
 10
187.4426636297
 20
84.6511438541
 30
0.0
 10
187.4870279614
 20
82.9543138333
 30
0.0
 10
187.5312719728
 20
81.3878730022
 30
0.0
 10
187.5752551943
 20
80.0009157031
 30
0.0
 10
187.6188807943
 20
78.8369230812
 30
0.0
 10
187.6570774961
 20
78.023680397
 30
0.0
 10
187.6892935061
 20
77.5113960612
 30
0.0
 10
187.7057037975
 20
77.3037564108
 30
0.0
 10
187.7145517814
 20
77.2126348525
 30
0.0
  0
SPLINE
  5
3E5
100
AcDbEntity
  8
1-2_1
100
AcDbSpline
 62
7
  6
CONTINUOUS
 70
0
 71
3
 72
9
 73
5
 74
0
 42
0.0000001
 43
0.0000001
 44
0.0000000001
 40
0.0
 40
0.0
 40
0.0
 40
0.0
 40
0.2085098132
 40
1.0
 40
1.0
 40
1.0
 40
1.0
 10
181.270124911
 20
76.8730540683
 30
0.0
 10
181.269415817
 20
76.8742934851
 30
0.0
 10
181.2662620333
 20
76.8803788541
 30
0.0
 10
181.2638764606
 20
76.8868298749
 30
0.0
 10
181.2621655182
 20
76.8919730703
 30
0.0
  0
SPLINE
  5
3E6
100
AcDbEntity
  8
1-2_1
100
AcDbSpline
 62
7
  6
CONTINUOUS
 70
0
 71
3
 72
35
 73
31
 74
0
 42
0.0000001
 43
0.0000001
 44
0.0000000001
 40
0.0
 40
0.0
 40
0.0
 40
0.0
 40
0.0023648756
 40
0.0057936492
 40
0.0102903323
 40
0.0158484138
 40
0.0301092636
 40
0.0484614394
 40
0.0707507272
 40
0.0967832656
 40
0.1263339236
 40
0.1591459648
 40
0.2333817355
 40
0.3169067035
 40
0.4068117783
 40
0.4999641435
 40
0.5931178585
 40
0.6830269849
 40
0.7665585333
 40
0.840803031
 40
0.8736201677
 40
0.9031764617
 40
0.9292150638
 40
0.9515108453
 40
0.9698698028
 40
0.9841376438
 40
0.9896992833
 40
0.9941995154
 40
0.9976317537
 40
1.0
 40
1.0
 40
1.0
 40
1.0
 10
181.2621655182
 20
76.8919730703
 30
0.0
 10
181.2570736992
 20
76.9072793842
 30
0.0
 10
181.2482613807
 20
76.9459226256
 30
0.0
 10
181.2368157438
 20
77.0151543046
 30
0.0
 10
181.2252551264
 20
77.1064282013
 30
0.0
 10
181.2082049488
 20
77.2714087476
 30
0.0
 10
181.18790023
 20
77.5310205886
 30
0.0
 10
181.1646810988
 20
77.9047950417
 30
0.0
 10
181.1413278796
 20
78.3589928809
 30
0.0
 10
181.1178385813
 20
78.8896502491
 30
0.0
 10
181.0942843583
 20
79.4921438921
 30
0.0
 10
181.061449961
 20
80.4233166983
 30
0.0
 10
181.0213611184
 20
81.7226170953
 30
0.0
 10
180.9747488373
 20
83.4113249592
 30
0.0
 10
180.9280207022
 20
85.2291068692
 30
0.0
 10
180.8812295837
 20
87.112585967
 30
0.0
 10
180.8344384425
 20
88.9960927092
 30
0.0
 10
180.7877102162
 20
90.8139563717
 30
0.0
 10
180.7410978218
 20
92.5027963316
 30
0.0
 10
180.7010091764
 20
93.8022359666
 30
0.0
 10
180.6681752028
 20
94.733541597
 30
0.0
 10
180.6446211789
 20
95.336149893
 30
0.0
 10
180.6211313149
 20
95.8669314642
 30
0.0
 10
180.5977771709
 20
96.3212613131
 30
0.0
 10
180.5745611072
 20
96.695174484
 30
0.0
 10
180.5542526186
 20
96.9549045831
 30
0.0
 10
180.5371983433
 20
97.1199814135
 30
0.0
 10
180.5256375355
 20
97.2113278018
 30
0.0
 10
180.5142003643
 20
97.2806326017
 30
0.0
 10
180.5053986486
 20
97.3193255864
 30
0.0
 10
180.5003114346
 20
97.3346576572
 30
0.0
  0
SPLINE
  5
3E7
100
AcDbEntity
  8
1-2_1
100
AcDbSpline
 62
7
  6
CONTINUOUS
 70
0
 71
3
 72
9
 73
5
 74
0
 42
0.0000001
 43
0.0000001
 44
0.0000000001
 40
0.0
 40
0.0
 40
0.0
 40
0.0
 40
0.6630335532
 40
1.0
 40
1.0
 40
1.0
 40
1.0
 10
180.5003114346
 20
97.3346576572
 30
0.0
 10
180.4978396685
 20
97.3421071752
 30
0.0
 10
180.4944750611
 20
97.3526971419
 30
0.0
 10
180.4851990583
 20
97.3633745187
 30
0.0
 10
180.4812101051
 20
97.3633745187
 30
0.0
  0
SPLINE
  5
3E8
100
AcDbEntity
  8
1-2_1
100
AcDbSpline
 62
7
  6
CONTINUOUS
 70
0
 71
3
 72
39
 73
35
 74
0
 42
0.0000001
 43
0.0000001
 44
0.0000000001
 40
0.0
 40
0.0
 40
0.0
 40
0.0
 40
0.0018599029
 40
0.0047974166
 40
0.0088405907
 40
0.0139898856
 40
0.0202299614
 40
0.0275429409
 40
0.0453185741
 40
0.0671873774
 40
0.0929719618
 40
0.1224343091
 40
0.1552920864
 40
0.1912468269
 40
0.2300006489
 40
0.3144567838
 40
0.4055826818
 40
0.5001170957
 40
0.594646246
 40
0.6857597029
 40
0.7701923654
 40
0.8089266323
 40
0.8448738476
 40
0.8777280045
 40
0.9071702477
 40
0.9329142995
 40
0.9547680846
 40
0.9725448999
 40
0.9798453745
 40
0.9860644761
 40
0.9911911477
 40
0.9952167749
 40
0.9981444806
 40
1.0
 40
1.0
 40
1.0
 40
1.0
 10
180.5186887006
 20
78.1736338946
 30
0.0
 10
180.5131355727
 20
78.1832462052
 30
0.0
 10
180.5041595667
 20
78.2108006956
 30
0.0
 10
180.4925967721
 20
78.2621561937
 30
0.0
 10
180.4809671573
 20
78.3337145025
 30
0.0
 10
180.4691172432
 20
78.4250398033
 30
0.0
 10
180.4572078439
 20
78.5360472081
 30
0.0
 10
180.4401158065
 20
78.7222539809
 30
0.0
 10
180.4194085344
 20
79.0017800418
 30
0.0
 10
180.3956611046
 20
79.3915824535
 30
0.0
 10
180.3718158426
 20
79.8512450745
 30
0.0
 10
180.3478879709
 20
80.376566722
 30
0.0
 10
180.3239035011
 20
80.9626439813
 30
0.0
 10
180.2998655333
 20
81.6042182778
 30
0.0
 10
180.2668494735
 20
82.5536402148
 30
0.0
 10
180.2263363671
 20
83.8322921111
 30
0.0
 10
180.1788239318
 20
85.4438169511
 30
0.0
 10
180.1312799767
 20
87.1154878896
 30
0.0
 10
180.0837240323
 20
88.7870841985
 30
0.0
 10
180.0362227299
 20
90.3983634847
 30
0.0
 10
179.9957064724
 20
91.6766840739
 30
0.0
 10
179.9626798678
 20
92.6258037223
 30
0.0
 10
179.9386490072
 20
93.2671949073
 30
0.0
 10
179.9146699058
 20
93.8530857183
 30
0.0
 10
179.8907463213
 20
94.3780236762
 30
0.0
 10
179.8668799399
 20
94.837233131
 30
0.0
 10
179.843129897
 20
95.2267099606
 30
0.0
 10
179.8224564249
 20
95.5060810681
 30
0.0
 10
179.8053553527
 20
95.6920935931
 30
0.0
 10
179.7934411555
 20
95.8027638133
 30
0.0
 10
179.7815845047
 20
95.8937204622
 30
0.0
 10
179.7699485828
 20
95.964975254
 30
0.0
 10
179.7583884167
 20
96.0161373144
 30
0.0
 10
179.7494159532
 20
96.0436035639
 30
0.0
 10
179.7438660703
 20
96.0531875264
 30
0.0
  0
SPLINE
  5
3E9
100
AcDbEntity
  8
1-2_1
100
AcDbSpline
 62
7
  6
CONTINUOUS
 70
0
 71
3
 72
11
 73
7
 74
0
 42
0.0000001
 43
0.0000001
 44
0.0000000001
 40
0.0
 40
0.0
 40
0.0
 40
0.0
 40
0.1284662368
 40
0.3375099481
 40
0.6281236173
 40
1.0
 40
1.0
 40
1.0
 40
1.0
 10
188.5189241474
 20
78.1731027527
 30
0.0
 10
188.5124879458
 20
78.1842312352
 30
0.0
 10
188.5025580511
 20
78.2170069976
 30
0.0
 10
188.4896091816
 20
78.2783047822
 30
0.0
 10
188.4766413853
 20
78.3646937858
 30
0.0
 10
188.4687457244
 20
78.4304882497
 30
0.0
 10
188.4646721552
 20
78.4674783988
 30
0.0
  0
SPLINE
  5
3EA
100
AcDbEntity
  8
1-2_1
100
AcDbSpline
 62
7
  6
CONTINUOUS
 70
0
 71
3
 72
39
 73
35
 74
0
 42
0.0000001
 43
0.0000001
 44
0.0000000001
 40
0.0
 40
0.0
 40
0.0
 40
0.0
 40
0.0018677635
 40
0.0048210451
 40
0.0088720526
 40
0.0140155968
 40
0.0202422695
 40
0.027541953
 40
0.0453137831
 40
0.0671936613
 40
0.0929894166
 40
0.1224458123
 40
0.1552919979
 40
0.1912653057
 40
0.2300382349
 40
0.3144933123
 40
0.4056419486
 40
0.5001909944
 40
0.5947254789
 40
0.6858549884
 40
0.770280339
 40
0.8090135633
 40
0.8449753833
 40
0.8778193698
 40
0.9072301081
 40
0.9329761229
 40
0.9548348163
 40
0.9725919873
 40
0.979879989
 40
0.9860836292
 40
0.9911943979
 40
0.9952117864
 40
0.9981404054
 40
1.0
 40
1.0
 40
1.0
 40
1.0
 10
177.3187266865
 20
78.1731960067
 30
0.0
 10
177.3131499836
 20
78.1828494756
 30
0.0
 10
177.3042011518
 20
78.2105707874
 30
0.0
 10
177.2926492929
 20
78.2621162315
 30
0.0
 10
177.28101571
 20
78.3337870314
 30
0.0
 10
177.2691512795
 20
78.4250456534
 30
0.0
 10
177.2572339975
 20
78.5358629004
 30
0.0
 10
177.240124074
 20
78.7218938199
 30
0.0
 10
177.2194222949
 20
79.0013975745
 30
0.0
 10
177.1956732753
 20
79.3913280923
 30
0.0
 10
177.1718371725
 20
79.8511098777
 30
0.0
 10
177.1478980851
 20
80.376417149
 30
0.0
 10
177.1238913624
 20
80.9625267373
 30
0.0
 10
177.0998627657
 20
81.6042868419
 30
0.0
 10
177.0668511372
 20
82.5539714552
 30
0.0
 10
177.0263074226
 20
83.8329250008
 30
0.0
 10
176.9788003296
 20
85.4447412709
 30
0.0
 10
176.9312464766
 20
87.1167441037
 30
0.0
 10
176.8836728898
 20
88.788632164
 30
0.0
 10
176.8361799465
 20
90.4000701536
 30
0.0
 10
176.7956415754
 20
91.6784950591
 30
0.0
 10
176.7626073221
 20
92.6276955959
 30
0.0
 10
176.7385847811
 20
93.2691369728
 30
0.0
 10
176.7146035234
 20
93.8548931197
 30
0.0
 10
176.6906457499
 20
94.3796164941
 30
0.0
 10
176.666789774
 20
94.8387003551
 30
0.0
 10
176.6430593745
 20
95.2281201598
 30
0.0
 10
176.6223642759
 20
95.5073399638
 30
0.0
 10
176.6052582268
 20
95.6930755117
 30
0.0
 10
176.5933432962
 20
95.8034877083
 30
0.0
 10
176.5814759561
 20
95.8942090577
 30
0.0
 10
176.5698318829
 20
95.965324948
 30
0.0
 10
176.558268736
 20
96.0164684794
 30
0.0
 10
176.5493085034
 20
96.0439702652
 30
0.0
 10
176.5437565228
 20
96.0535817045
 30
0.0
  0
SPLINE
  5
3EB
100
AcDbEntity
  8
1-2_1
100
AcDbSpline
 62
7
  6
CONTINUOUS
 70
0
 71
3
 72
9
 73
5
 74
0
 42
0.0000001
 43
0.0000001
 44
0.0000000001
 40
0.0
 40
0.0
 40
0.0
 40
0.0
 40
0.2084211655
 40
1.0
 40
1.0
 40
1.0
 40
1.0
 10
178.0701041597
 20
76.8730167965
 30
0.0
 10
178.0693922065
 20
76.8742572902
 30
0.0
 10
178.0662262288
 20
76.8803525013
 30
0.0
 10
178.0638371453
 20
76.8868179806
 30
0.0
 10
178.0621243872
 20
76.891973071
 30
0.0
  0
SPLINE
  5
3EC
100
AcDbEntity
  8
1-2_1
100
AcDbSpline
 62
7
  6
CONTINUOUS
 70
0
 71
3
 72
35
 73
31
 74
0
 42
0.0000001
 43
0.0000001
 44
0.0000000001
 40
0.0
 40
0.0
 40
0.0
 40
0.0
 40
0.0023645756
 40
0.0057931617
 40
0.010289818
 40
0.0158479328
 40
0.0301088281
 40
0.0484610062
 40
0.0707503071
 40
0.0967828645
 40
0.1263335417
 40
0.1591456044
 40
0.2333814242
 40
0.3169064473
 40
0.4068115813
 40
0.499964008
 40
0.5931177845
 40
0.6830269701
 40
0.7665585736
 40
0.8408031203
 40
0.8736202786
 40
0.903176592
 40
0.9292152121
 40
0.9515110076
 40
0.9698699731
 40
0.9841378388
 40
0.9896994942
 40
0.9941997166
 40
0.9976318778
 40
1.0
 40
1.0
 40
1.0
 40
1.0
 10
178.0621243872
 20
76.891973071
 30
0.0
 10
178.0570389423
 20
76.9072793357
 30
0.0
 10
178.0482519656
 20
76.9459251973
 30
0.0
 10
178.0368276053
 20
77.0151560438
 30
0.0
 10
178.0252678017
 20
77.106428719
 30
0.0
 10
178.0082063928
 20
77.2714082999
 30
0.0
 10
177.98789412
 20
77.5310201125
 30
0.0
 10
177.9646831128
 20
77.9047952235
 30
0.0
 10
177.9413282789
 20
78.3589928877
 30
0.0
 10
177.9178381387
 20
78.8896502309
 30
0.0
 10
177.8942843965
 20
79.4921438997
 30
0.0
 10
177.8614500392
 20
80.4233167049
 30
0.0
 10
177.8213610734
 20
81.722617097
 30
0.0
 10
177.7747488507
 20
83.411324963
 30
0.0
 10
177.7280206988
 20
85.2291068719
 30
0.0
 10
177.6812295841
 20
87.1125859692
 30
0.0
 10
177.6344384437
 20
88.9960927106
 30
0.0
 10
177.5877102104
 20
90.8139563721
 30
0.0
 10
177.5410978411
 20
92.5027963324
 30
0.0
 10
177.5010091424
 20
93.8022359648
 30
0.0
 10
177.4681751884
 20
94.7335415947
 30
0.0
 10
177.4446213648
 20
95.3361499012
 30
0.0
 10
177.4211311368
 20
95.8669314611
 30
0.0
 10
177.3977763434
 20
96.3212612376
 30
0.0
 10
177.3745636857
 20
96.695174686
 30
0.0
 10
177.3542519569
 20
96.9549047663
 30
0.0
 10
177.3371930229
 20
97.1199811957
 30
0.0
 10
177.3256325948
 20
97.211327075
 30
0.0
 10
177.3142043512
 20
97.280631534
 30
0.0
 10
177.3054132039
 20
97.3193256071
 30
0.0
 10
177.3003286488
 20
97.3346576569
 30
0.0
  0
SPLINE
  5
3ED
100
AcDbEntity
  8
1-2_1
100
AcDbSpline
 62
7
  6
CONTINUOUS
 70
0
 71
3
 72
9
 73
5
 74
0
 42
0.0000001
 43
0.0000001
 44
0.0000000001
 40
0.0
 40
0.0
 40
0.0
 40
0.0
 40
0.6627874926
 40
1.0
 40
1.0
 40
1.0
 40
1.0
 10
177.3003286488
 20
97.3346576569
 30
0.0
 10
177.2978580188
 20
97.3421076345
 30
0.0
 10
177.2944952258
 20
97.3527087476
 30
0.0
 10
177.2852034931
 20
97.3633745187
 30
0.0
 10
177.2812101051
 20
97.3633745187
 30
0.0
  0
SPLINE
  5
3EE
100
AcDbEntity
  8
1-2_1
100
AcDbSpline
 62
7
  6
CONTINUOUS
 70
0
 71
3
 72
9
 73
5
 74
0
 42
0.0000001
 43
0.0000001
 44
0.0000000001
 40
0.0
 40
0.0
 40
0.0
 40
0.0
 40
0.2070497505
 40
1.0
 40
1.0
 40
1.0
 40
1.0
 10
175.7919751032
 20
97.354091571
 30
0.0
 10
175.7927041803
 20
97.3528400841
 30
0.0
 10
175.7959612357
 20
97.3466419792
 30
0.0
 10
175.7984046763
 20
97.3400527922
 30
0.0
 10
175.800160264
 20
97.3347910409
 30
0.0
  0
SPLINE
  5
3EF
100
AcDbEntity
  8
1-2_1
100
AcDbSpline
 62
7
  6
CONTINUOUS
 70
0
 71
3
 72
34
 73
30
 74
0
 42
0.0000001
 43
0.0000001
 44
0.0000000001
 40
0.0
 40
0.0
 40
0.0
 40
0.0
 40
0.0023654897
 40
0.0057949487
 40
0.0158504153
 40
0.0301138122
 40
0.0484698004
 40
0.0707640147
 40
0.0968022502
 40
0.1263593459
 40
0.1591787981
 40
0.2334311128
 40
0.3169729818
 40
0.4068933467
 40
0.5000602641
 40
0.5932247849
 40
0.6831380105
 40
0.7666686316
 40
0.8409064011
 40
0.8737170353
 40
0.9032644409
 40
0.9292924618
 40
0.9515761983
 40
0.9699210785
 40
0.9841728243
 40
0.9897257525
 40
0.9942170588
 40
0.9976404813
 40
1.0
 40
1.0
 40
1.0
 40
1.0
 10
175.800160264
 20
97.3347910409
 30
0.0
 10
175.8052671394
 20
97.319484994
 30
0.0
 10
175.8141432865
 20
97.280847124
 30
0.0
 10
175.8317647225
 20
97.1741953759
 30
0.0
 10
175.8516049341
 20
96.9858113802
 30
0.0
 10
175.8746046926
 20
96.6956633473
 30
0.0
 10
175.8977204278
 20
96.3217658869
 30
0.0
 10
175.9211182726
 20
95.8674747131
 30
0.0
 10
175.9445941665
 20
95.3366856849
 30
0.0
 10
175.968157808
 20
94.7340484921
 30
0.0
 10
176.0009954122
 20
93.8026494946
 30
0.0
 10
176.0410910488
 20
92.5030452633
 30
0.0
 10
176.0877099409
 20
90.8139717137
 30
0.0
 10
176.1344448219
 20
88.9958353392
 30
0.0
 10
176.181243174
 20
87.1120420437
 30
0.0
 10
176.2280409554
 20
85.228297461
 30
0.0
 10
176.2747756724
 20
83.4103028617
 30
0.0
 10
176.3213947112
 20
81.7214541606
 30
0.0
 10
176.3614895354
 20
80.4220857805
 30
0.0
 10
176.3943299049
 20
79.4909130349
 30
0.0
 10
176.417888345
 20
78.8884703399
 30
0.0
 10
176.4413790375
 20
78.3578935814
 30
0.0
 10
176.4647317447
 20
77.9038052744
 30
0.0
 10
176.4879732606
 20
77.5301748807
 30
0.0
 10
176.5082626734
 20
77.2707044093
 30
0.0
 10
176.5252907146
 20
77.1058529245
 30
0.0
 10
176.5368540785
 20
77.014686389
 30
0.0
 10
176.5483504296
 20
76.945571646
 30
0.0
 10
176.5572234503
 20
76.9070159337
 30
0.0
 10
176.562334713
 20
76.8917542987
 30
0.0
  0
SPLINE
  5
3F0
100
AcDbEntity
  8
1-2_1
100
AcDbSpline
 62
7
  6
CONTINUOUS
 70
0
 71
3
 72
9
 73
5
 74
0
 42
0.0000001
 43
0.0000001
 44
0.0000000001
 40
0.0
 40
0.0
 40
0.0
 40
0.0
 40
0.6640462224
 40
1.0
 40
1.0
 40
1.0
 40
1.0
 10
176.562334713
 20
76.8917542987
 30
0.0
 10
176.5648002788
 20
76.8843924063
 30
0.0
 10
176.5681678411
 20
76.8739740359
 30
0.0
 10
176.5772822529
 20
76.8633745187
 30
0.0
 10
176.5812101051
 20
76.8633745187
 30
0.0
  0
SPLINE
  5
3F1
100
AcDbEntity
  8
1-2_1
100
AcDbSpline
 62
7
  6
CONTINUOUS
 70
0
 71
3
 72
9
 73
5
 74
0
 42
0.0000001
 43
0.0000001
 44
0.0000000001
 40
0.0
 40
0.0
 40
0.0
 40
0.0
 40
0.2086547894
 40
1.0
 40
1.0
 40
1.0
 40
1.0
 10
179.670074045
 20
76.8730874497
 30
0.0
 10
179.6693662212
 20
76.8743256515
 30
0.0
 10
179.666220104
 20
76.880400512
 30
0.0
 10
179.6638404735
 20
76.886839974
 30
0.0
 10
179.6621344986
 20
76.8919730708
 30
0.0
  0
SPLINE
  5
3F2
100
AcDbEntity
  8
1-2_1
100
AcDbSpline
 62
7
  6
CONTINUOUS
 70
0
 71
3
 72
35
 73
31
 74
0
 42
0.0000001
 43
0.0000001
 44
0.0000000001
 40
0.0
 40
0.0
 40
0.0
 40
0.0
 40
0.0023646495
 40
0.005793282
 40
0.0102899454
 40
0.0158480526
 40
0.0301089382
 40
0.0484611176
 40
0.0707504176
 40
0.096782973
 40
0.1263336486
 40
0.1591457094
 40
0.2333815247
 40
0.3169065429
 40
0.4068116717
 40
0.4999640929
 40
0.5931178639
 40
0.6830270443
 40
0.7665586429
 40
0.8408031852
 40
0.8736203415
 40
0.9031766531
 40
0.9292152719
 40
0.9515110659
 40
0.9698700292
 40
0.9841378984
 40
0.989699557
 40
0.9941997756
 40
0.9976319139
 40
1.0
 40
1.0
 40
1.0
 40
1.0
 10
179.6621344986
 20
76.8919730708
 30
0.0
 10
179.6570474868
 20
76.9072793474
 30
0.0
 10
179.6482542798
 20
76.9459245656
 30
0.0
 10
179.6368246894
 20
77.0151556164
 30
0.0
 10
179.6252646857
 20
77.1064285915
 30
0.0
 10
179.6082060378
 20
77.2714084097
 30
0.0
 10
179.5878956221
 20
77.5310202292
 30
0.0
 10
179.5646826177
 20
77.9047951783
 30
0.0
 10
179.5413281808
 20
78.3589928854
 30
0.0
 10
179.5178382475
 20
78.8896502346
 30
0.0
 10
179.4942843871
 20
79.492143897
 30
0.0
 10
179.46145002
 20
80.4233167023
 30
0.0
 10
179.4213610845
 20
81.7226170955
 30
0.0
 10
179.3747488474
 20
83.4113249607
 30
0.0
 10
179.3280206998
 20
85.2291068697
 30
0.0
 10
179.2812295839
 20
87.112585967
 30
0.0
 10
179.2344384442
 20
88.9960927086
 30
0.0
 10
179.1877102088
 20
90.8139563702
 30
0.0
 10
179.1410978467
 20
92.502796331
 30
0.0
 10
179.1010091328
 20
93.8022359631
 30
0.0
 10
179.0681751844
 20
94.733541593
 30
0.0
 10
179.044621418
 20
95.3361499028
 30
0.0
 10
179.0211310859
 20
95.8669314596
 30
0.0
 10
178.9977761069
 20
96.3212612157
 30
0.0
 10
178.974564423
 20
96.6951747435
 30
0.0
 10
178.9542517677
 20
96.9549048186
 30
0.0
 10
178.9371915015
 20
97.1199811333
 30
0.0
 10
178.925631182
 20
97.2113268672
 30
0.0
 10
178.9142054911
 20
97.2806312289
 30
0.0
 10
178.9054173661
 20
97.319325613
 30
0.0
 10
178.9003335713
 20
97.3346576568
 30
0.0
  0
SPLINE
  5
3F3
100
AcDbEntity
  8
1-2_1
100
AcDbSpline
 62
7
  6
CONTINUOUS
 70
0
 71
3
 72
9
 73
5
 74
0
 42
0.0000001
 43
0.0000001
 44
0.0000000001
 40
0.0
 40
0.0
 40
0.0
 40
0.0
 40
0.6627171363
 40
1.0
 40
1.0
 40
1.0
 40
1.0
 10
178.9003335713
 20
97.3346576568
 30
0.0
 10
178.8978632662
 20
97.3421077658
 30
0.0
 10
178.894500988
 20
97.3527120645
 30
0.0
 10
178.8852047617
 20
97.3633745187
 30
0.0
 10
178.8812101051
 20
97.3633745187
 30
0.0
  0
SPLINE
  5
3F4
100
AcDbEntity
  8
1-2_1
100
AcDbSpline
 62
7
  6
CONTINUOUS
 70
0
 71
3
 72
39
 73
35
 74
0
 42
0.0000001
 43
0.0000001
 44
0.0000000001
 40
0.0
 40
0.0
 40
0.0
 40
0.0
 40
0.0018630122
 40
0.0048009766
 40
0.0088298215
 40
0.0139497148
 40
0.0201562826
 40
0.0274428092
 40
0.0451975885
 40
0.0670667461
 40
0.0928375221
 40
0.1222613241
 40
0.1551024914
 40
0.1910783466
 40
0.2298337313
 40
0.3142754137
 40
0.4054270409
 40
0.4999815073
 40
0.5945385293
 40
0.6856929258
 40
0.7701368309
 40
0.8088969957
 40
0.8448727257
 40
0.877711317
 40
0.9071416963
 40
0.9329154045
 40
0.9547853386
 40
0.9725451487
 40
0.979830953
 40
0.9860382669
 40
0.9911608575
 40
0.9951941652
 40
0.998136013
 40
1.0
 40
1.0
 40
1.0
 40
1.0
 10
190.1188958917
 20
78.1729864086
 30
0.0
 10
190.1133330812
 20
78.182615473
 30
0.0
 10
190.1043771135
 20
78.210203403
 30
0.0
 10
190.0928165313
 20
78.2614941522
 30
0.0
 10
190.0811750404
 20
78.3327942555
 30
0.0
 10
190.0693074432
 20
78.4236588441
 30
0.0
 10
190.0573871909
 20
78.5341368194
 30
0.0
 10
190.0402742579
 20
78.7198707558
 30
0.0
 10
190.0195678682
 20
78.9991363473
 30
0.0
 10
189.9958322242
 20
79.3887620677
 30
0.0
 10
189.9719871624
 20
79.8481466928
 30
0.0
 10
189.9480260683
 20
80.3730922345
 30
0.0
 10
189.9240257476
 20
80.9590073955
 30
0.0
 10
189.9000027798
 20
81.60066428
 30
0.0
 10
189.8669734129
 20
82.5502025799
 30
0.0
 10
189.8264205481
 20
83.8290211216
 30
0.0
 10
189.7789193237
 20
85.440848327
 30
0.0
 10
189.7313443168
 20
87.1130774053
 30
0.0
 10
189.6837716268
 20
88.7853230856
 30
0.0
 10
189.636268425
 20
90.3971953073
 30
0.0
 10
189.595713695
 20
91.6760721427
 30
0.0
 10
189.5626878031
 20
92.6256516376
 30
0.0
 10
189.5386660168
 20
93.2673209929
 30
0.0
 10
189.5146591002
 20
93.8532590369
 30
0.0
 10
189.4907043593
 20
94.3782462652
 30
0.0
 10
189.4668610577
 20
94.8376925356
 30
0.0
 10
189.4431160933
 20
95.2273698445
 30
0.0
 10
189.422420604
 20
95.5066667716
 30
0.0
 10
189.4053017416
 20
95.6924304184
 30
0.0
 10
189.3933809295
 20
95.8029247816
 30
0.0
 10
189.3815111943
 20
95.8938362566
 30
0.0
 10
189.3698723834
 20
95.9652044541
 30
0.0
 10
189.3583135598
 20
96.0165502733
 30
0.0
 10
189.3493639296
 20
96.0441738553
 30
0.0
 10
189.3437941173
 20
96.0538055934
 30
0.0
  0
SPLINE
  5
3F5
100
AcDbEntity
  8
1-2_1
100
AcDbSpline
 62
7
  6
CONTINUOUS
 70
0
 71
3
 72
39
 73
35
 74
0
 42
0.0000001
 43
0.0000001
 44
0.0000000001
 40
0.0
 40
0.0
 40
0.0
 40
0.0
 40
0.00186231
 40
0.0048107087
 40
0.008864764
 40
0.0140167907
 40
0.0202536192
 40
0.0275610957
 40
0.0453349773
 40
0.0672144655
 40
0.0930075266
 40
0.1224732639
 40
0.1553267479
 40
0.191288265
 40
0.2300575958
 40
0.3145137419
 40
0.405651027
 40
0.5001917781
 40
0.5947206039
 40
0.6858408179
 40
0.7702668233
 40
0.8089937662
 40
0.8449451515
 40
0.8777966642
 40
0.9072169191
 40
0.9329574581
 40
0.9548139669
 40
0.9725794885
 40
0.9798725179
 40
0.9860843833
 40
0.9912012787
 40
0.9952188706
 40
0.9981438558
 40
1.0
 40
1.0
 40
1.0
 40
1.0
 10
178.9186770723
 20
78.1734570115
 30
0.0
 10
178.9131124283
 20
78.1830794967
 30
0.0
 10
178.9041360431
 20
78.2107229287
 30
0.0
 10
178.8925914789
 20
78.2622280968
 30
0.0
 10
178.8809654069
 20
78.3339370105
 30
0.0
 10
178.8691071184
 20
78.4253248692
 30
0.0
 10
178.8571934944
 20
78.5362978499
 30
0.0
 10
178.8400922585
 20
78.7224442663
 30
0.0
 10
178.8193844607
 20
79.0019961879
 30
0.0
 10
178.7956425505
 20
79.3919102024
 30
0.0
 10
178.7717975124
 20
79.8517161114
 30
0.0
 10
178.7478708484
 20
80.3770927392
 30
0.0
 10
178.7238740293
 20
80.9632153915
 30
0.0
 10
178.699836344
 20
81.6049090209
 30
0.0
 10
178.6668309636
 20
82.5544819939
 30
0.0
 10
178.6262999794
 20
83.8333175645
 30
0.0
 10
178.578790772
 20
85.4449781364
 30
0.0
 10
178.5312458123
 20
87.116783758
 30
0.0
 10
178.4836789054
 20
88.7884868232
 30
0.0
 10
178.4361844761
 20
90.3997946847
 30
0.0
 10
178.3956588286
 20
91.6780954205
 30
0.0
 10
178.3626269943
 20
92.6271737958
 30
0.0
 10
178.3385996802
 20
93.268542298
 30
0.0
 10
178.3146275613
 20
93.8543220083
 30
0.0
 10
178.2906823572
 20
94.3791005198
 30
0.0
 10
178.2668181591
 20
94.8381823483
 30
0.0
 10
178.2430825195
 20
95.2275950361
 30
0.0
 10
178.2223996501
 20
95.5068749244
 30
0.0
 10
178.2052914092
 20
95.6927345732
 30
0.0
 10
178.1933809453
 20
95.8032603739
 30
0.0
 10
178.1815209435
 20
95.8940679283
 30
0.0
 10
178.1698769768
 20
95.9651978882
 30
0.0
 10
178.158316207
 20
96.0162998414
 30
0.0
 10
178.149345645
 20
96.0437520271
 30
0.0
 10
178.1437989037
 20
96.0533423522
 30
0.0
  0
LINE
  5
3F6
100
AcDbEntity
  8
PC04_ASM_7
100
AcDbLine
 62
7
  6
CONTINUOUS
 10
232.6338012627
 20
129.2938477345
 11
232.6312301475
 21
129.3133363877
  0
LINE
  5
3F7
100
AcDbEntity
  8
PC04_ASM_7
100
AcDbLine
 62
7
  6
CONTINUOUS
 10
232.6338945951
 20
125.3336087483
 11
232.6312301475
 21
125.3134126497
  0
ENDSEC
  0
SECTION
  2
OBJECTS
  0
DICTIONARY
  5
C
100
AcDbDictionary
280
0
281
1
  3
ACAD_GROUP
350
D
  3
ACAD_MLINESTYLE
350
17
  3
ACAD_LAYOUT
350
1A
  3
ACAD_PLOTSETTINGS
350
19
  3
ACAD_PLOTSTYLENAME
350
E
  0
DICTIONARY
  5
D
102
{ACAD_REACTORS
330
C
102
}
100
AcDbDictionary
280
0
281
1
  0
ACDBDICTIONARYWDFLT
  5
E
102
{ACAD_REACTORS
330
C
102
}
100
AcDbDictionary
281
1
  3
Normal
350
F
100
AcDbDictionaryWithDefault
340
F
  0
DICTIONARY
  5
17
102
{ACAD_REACTORS
330
C
102
}
100
AcDbDictionary
280
0
281
1
  3
Standard
350
18
  0
DICTIONARY
  5
19
102
{ACAD_REACTORS
330
C
102
}
100
AcDbDictionary
281
1
  0
DICTIONARY
  5
1A
102
{ACAD_REACTORS
330
C
102
}
100
AcDbDictionary
281
1
  3
Model
350
3F8
  3
Layout1
350
3F9
  0
ACDBPLACEHOLDER
  5
F
102
{ACAD_REACTORS
330
E
102
}
  0
MLINESTYLE
  5
18
102
{ACAD_REACTORS
330
17
102
}
100
AcDbMlineStyle
  2
STANDARD
 70
0
  3

 62
256
 51
90.0
 52
90.0
 71
2
 49
0.5
 62
256
  6
BYLAYER
 49
-0.5
 62
256
  6
BYLAYER
  0
LAYOUT
  5
3F8
102
{ACAD_REACTORS
330
1A
102
}
100
AcDbPlotSettings
  1

  2
none_device
  4

  6

 40
0.0
 41
0.0
 42
0.0
 43
0.0
 44
628.0
 45
454.0
 46
0.0
 47
0.0
 48
0.0
 49
0.0
140
0.0
141
0.0
142
1.0
143
1.0
 70
1024
 72
1
 73
0
 74
0
  7

 75
0
147
1.0
148
0.0
149
0.0
100
AcDbLayout
  1
Model
 70
0
 71
0
 10
0.0
 20
0.0
 11
628.0
 21
454.0
 12
0.0
 22
0.0
 32
0.0
 14
0.0
 24
0.0
 34
0.0
 15
0.0
 25
0.0
 35
0.0
146
0.0
 13
0.0
 23
0.0
 33
0.0
 16
1.0
 26
0.0
 36
0.0
 17
0.0
 27
1.0
 37
0.0
 76
0
330
22A
345
0
346
0
  0
LAYOUT
  5
3F9
102
{ACAD_REACTORS
330
1A
102
}
100
AcDbPlotSettings
  1

  2
none_device
  4

  6

 40
0.0
 41
0.0
 42
0.0
 43
0.0
 44
628.0
 45
454.0
 46
0.0
 47
0.0
 48
0.0
 49
0.0
140
0.0
141
0.0
142
1.0
143
1.0
 70
0
 72
1
 73
0
 74
0
  7

 75
0
147
1.0
148
0.0
149
0.0
100
AcDbLayout
  1
Layout1
 70
0
 71
1
 10
0.0
 20
0.0
 11
628.0
 21
454.0
 12
0.0
 22
0.0
 32
0.0
 14
0.0
 24
0.0
 34
0.0
 15
0.0
 25
0.0
 35
0.0
146
0.0
 13
0.0
 23
0.0
 33
0.0
 16
1.0
 26
0.0
 36
0.0
 17
0.0
 27
1.0
 37
0.0
 76
0
330
22B
345
0
346
0
  0
ENDSEC
  0
EOF
