999
DXF file: S:\Engenharia\Wildfire\Engenharia\Produtos\Torneiras\94520017\94520017.dxf
999
Pro/ENGINEER 2013150 by Parametric Technology Corporation
  0
SECTION
  2
HEADER
  9
$ACADVER
  1
AC1021
  9
$DWGCODEPAGE
  3
ANSI_1252
  9
$EXTMAX
 10
875.0
 20
628.0
 30
0.0
  9
$EXTMIN
 10
0.0
 20
0.0
 30
0.0
  9
$LIMMIN
 10
0.0
 20
0.0
  9
$LIMMAX
 10
875.0
 20
628.0
  9
$VIEWCTR
 10
437.5
 20
314.0
  9
$VIEWSIZE
 40
628.0
  9
$CLAYER
  8
0
  9
$LTSCALE
 40
48.125
  9
$CELTYPE
  6
BYLAYER
  9
$DIMSCALE
 40
1.0
  9
$DIMASZ
 40
3.0
  9
$DIMEXO
 40
0.5
  9
$DIMDLI
 40
33.25
  9
$DIMEXE
 40
0.5
  9
$DIMCEN
 40
7.875
  9
$DIMLFAC
 40
1.0
  9
$DIMBLK
  1
_FILLED
  9
$DIMTXT
 40
1.8
  9
$DIMTOL
 70
1
  9
$DIMLIM
 70
0
  9
$DIMTFAC
 40
1.0
  9
$DIMTP
 40
0.001
  9
$DIMTM
 40
0.001
  9
$DIMGAP
 40
0.625
  9
$DIMDSEP
 70
46
  9
$PDMODE
 70
3
  9
$PDSIZE
 40
1.0
  9
$HANDSEED
  5
50A
  9
$TILEMODE
 70
1
  9
$MEASUREMENT
 70
1
  9
$INSUNITS
 70
4
  0
ENDSEC
  0
SECTION
  2
CLASSES
  0
CLASS
  1
ACDBDICTIONARYWDFLT
  2
AcDbDictionaryWithDefault
  3
AutoCAD 2000
 90
0
 91
1
280
0
281
0
  0
CLASS
  1
ACDBPLACEHOLDER
  2
AcDbPlaceHolder
  3
AutoCAD 2000
 90
0
 91
1
280
0
281
0
  0
CLASS
  1
LAYOUT
  2
AcDbLayout
  3
AutoCAD 2000
 90
0
 91
0
280
0
281
0
  0
ENDSEC
  0
SECTION
  2
TABLES
  0
TABLE
  2
VPORT
  5
8
100
AcDbSymbolTable
 70
2
  0
VPORT
  5
1F4
100
AcDbSymbolTableRecord
100
AcDbViewportTableRecord
  2
*ACTIVE
 70
0
 10
0.0
 20
0.0
 11
1.0
 21
1.0
 12
437.5
 22
314.0
 13
0.0
 23
0.0
 14
1.0
 24
1.0
 15
0.0
 25
0.0
 16
0.0
 26
0.0
 36
1.0
 17
0.0
 27
0.0
 37
0.0
 40
628.0
 41
1.3933121019
 42
50.0
 43
0.0
 44
0.0
 50
0.0
 51
0.0
 71
0
 72
100
 73
1
 74
1
 75
0
 76
0
 77
0
 78
0
  0
ENDTAB
  0
TABLE
  2
LTYPE
  5
5
100
AcDbSymbolTable
 70
6
  0
LTYPE
  5
14
100
AcDbSymbolTableRecord
100
AcDbLinetypeTableRecord
  2
BYBLOCK
 70
0
  3

 72
65
 73
0
 40
0.0
  0
LTYPE
  5
15
100
AcDbSymbolTableRecord
100
AcDbLinetypeTableRecord
  2
BYLAYER
 70
0
  3

 72
65
 73
0
 40
0.0
  0
LTYPE
  5
16
100
AcDbSymbolTableRecord
100
AcDbLinetypeTableRecord
  2
CONTINUOUS
 70
64
  3
Solid line
 72
65
 73
0
 40
0.0
  0
LTYPE
  5
1F5
100
AcDbSymbolTableRecord
100
AcDbLinetypeTableRecord
  2
CENTER
 70
64
  3
____ _ ____ _ ____ _ ____ _ ____ _ ____ _ ____
 72
65
 73
4
 40
0.6
 49
0.375
 74
0
 49
-0.075
 74
0
 49
0.075
 74
0
 49
-0.075
 74
0
  0
LTYPE
  5
1F6
100
AcDbSymbolTableRecord
100
AcDbLinetypeTableRecord
  2
HIDDEN
 70
64
  3
- - - - - - - - - - - - - - - - - - - -
 72
65
 73
2
 40
0.2
 49
0.1
 74
0
 49
-0.1
 74
0
  0
LTYPE
  5
1F7
100
AcDbSymbolTableRecord
100
AcDbLinetypeTableRecord
  2
PHANTOM
 70
64
  3
_____ _ _ _____ _ _ _____ _ _ _____
 72
65
 73
6
 40
0.8
 49
0.45
 74
0
 49
-0.05
 74
0
 49
0.1
 74
0
 49
-0.05
 74
0
 49
0.1
 74
0
 49
-0.05
 74
0
  0
LTYPE
  5
1F8
100
AcDbSymbolTableRecord
100
AcDbLinetypeTableRecord
  2
DOT
 70
64
  3
. . . . . . . . . . . . . . . . . . . .
 72
65
 73
2
 40
0.2
 49
0.1
 74
0
 49
-0.1
 74
0
  0
LTYPE
  5
1F9
100
AcDbSymbolTableRecord
100
AcDbLinetypeTableRecord
  2
DASHED
 70
64
  3
- - - - - - - - - - - - - - - - - - - -
 72
65
 73
2
 40
0.2
 49
0.1
 74
0
 49
-0.1
 74
0
  0
ENDTAB
  0
TABLE
  2
LAYER
  5
2
100
AcDbSymbolTable
 70
36
  0
LAYER
  5
10
100
AcDbSymbolTableRecord
100
AcDbLayerTableRecord
  2
0
 70
0
 62
7
  6
CONTINUOUS
370
-3
390
F
  0
LAYER
  5
1FA
100
AcDbSymbolTableRecord
100
AcDbLayerTableRecord
  2
DEFAULT_1
 70
0
 62
7
  6
CENTER
370
-3
390
F
  0
LAYER
  5
1FB
100
AcDbSymbolTableRecord
100
AcDbLayerTableRecord
  2
DEFAULT_2
 70
0
 62
8
  6
HIDDEN
370
-3
390
F
  0
LAYER
  5
1FC
100
AcDbSymbolTableRecord
100
AcDbLayerTableRecord
  2
DEFAULT_3
 70
0
 62
7
  6
PHANTOM
370
-3
390
F
  0
LAYER
  5
1FD
100
AcDbSymbolTableRecord
100
AcDbLayerTableRecord
  2
01_ALL_DTM_PLN
 70
0
 62
7
  6
CONTINUOUS
370
-3
390
F
  0
LAYER
  5
1FE
100
AcDbSymbolTableRecord
100
AcDbLayerTableRecord
  2
01__ASM_ALL_DTM_PLN
 70
0
 62
7
  6
CONTINUOUS
370
-3
390
F
  0
LAYER
  5
1FF
100
AcDbSymbolTableRecord
100
AcDbLayerTableRecord
  2
01__ASM_DEF_DTM_PLN
 70
0
 62
7
  6
CONTINUOUS
370
-3
390
F
  0
LAYER
  5
200
100
AcDbSymbolTableRecord
100
AcDbLayerTableRecord
  2
01___PRT_ALL_DTM_PLN
 70
0
 62
7
  6
CONTINUOUS
370
-3
390
F
  0
LAYER
  5
201
100
AcDbSymbolTableRecord
100
AcDbLayerTableRecord
  2
01___PRT_DEF_DTM_PLN
 70
0
 62
7
  6
CONTINUOUS
370
-3
390
F
  0
LAYER
  5
202
100
AcDbSymbolTableRecord
100
AcDbLayerTableRecord
  2
02_ALL_AXES
 70
0
 62
7
  6
CONTINUOUS
370
-3
390
F
  0
LAYER
  5
203
100
AcDbSymbolTableRecord
100
AcDbLayerTableRecord
  2
02__ASM_ALL_AXES
 70
0
 62
7
  6
CONTINUOUS
370
-3
390
F
  0
LAYER
  5
204
100
AcDbSymbolTableRecord
100
AcDbLayerTableRecord
  2
02___PRT_ALL_AXES
 70
0
 62
7
  6
CONTINUOUS
370
-3
390
F
  0
LAYER
  5
205
100
AcDbSymbolTableRecord
100
AcDbLayerTableRecord
  2
03_ALL_CURVES
 70
0
 62
7
  6
CONTINUOUS
370
-3
390
F
  0
LAYER
  5
206
100
AcDbSymbolTableRecord
100
AcDbLayerTableRecord
  2
03__ASM_ALL_CURVES
 70
0
 62
7
  6
CONTINUOUS
370
-3
390
F
  0
LAYER
  5
207
100
AcDbSymbolTableRecord
100
AcDbLayerTableRecord
  2
03___PRT_ALL_CURVES
 70
0
 62
7
  6
CONTINUOUS
370
-3
390
F
  0
LAYER
  5
208
100
AcDbSymbolTableRecord
100
AcDbLayerTableRecord
  2
04_ALL_DTM_PNT
 70
0
 62
7
  6
CONTINUOUS
370
-3
390
F
  0
LAYER
  5
209
100
AcDbSymbolTableRecord
100
AcDbLayerTableRecord
  2
04__ASM_ALL_DTM_PNT
 70
0
 62
7
  6
CONTINUOUS
370
-3
390
F
  0
LAYER
  5
20A
100
AcDbSymbolTableRecord
100
AcDbLayerTableRecord
  2
04___PRT_ALL_DTM_PNT
 70
0
 62
7
  6
CONTINUOUS
370
-3
390
F
  0
LAYER
  5
20B
100
AcDbSymbolTableRecord
100
AcDbLayerTableRecord
  2
05_ALL_DTM_CSYS
 70
0
 62
7
  6
CONTINUOUS
370
-3
390
F
  0
LAYER
  5
20C
100
AcDbSymbolTableRecord
100
AcDbLayerTableRecord
  2
05__ASM_ALL_DTM_CSYS
 70
0
 62
7
  6
CONTINUOUS
370
-3
390
F
  0
LAYER
  5
20D
100
AcDbSymbolTableRecord
100
AcDbLayerTableRecord
  2
05__ASM_DEF_DTM_CSYS
 70
0
 62
7
  6
CONTINUOUS
370
-3
390
F
  0
LAYER
  5
20E
100
AcDbSymbolTableRecord
100
AcDbLayerTableRecord
  2
05___PRT_ALL_DTM_CSYS
 70
0
 62
7
  6
CONTINUOUS
370
-3
390
F
  0
LAYER
  5
20F
100
AcDbSymbolTableRecord
100
AcDbLayerTableRecord
  2
05___PRT_DEF_DTM_CSYS
 70
0
 62
7
  6
CONTINUOUS
370
-3
390
F
  0
LAYER
  5
210
100
AcDbSymbolTableRecord
100
AcDbLayerTableRecord
  2
06_ALL_SURFS
 70
0
 62
7
  6
CONTINUOUS
370
-3
390
F
  0
LAYER
  5
211
100
AcDbSymbolTableRecord
100
AcDbLayerTableRecord
  2
06__ASM_ALL_SURFS
 70
0
 62
7
  6
CONTINUOUS
370
-3
390
F
  0
LAYER
  5
212
100
AcDbSymbolTableRecord
100
AcDbLayerTableRecord
  2
06___PRT_ALL_SURFS
 70
0
 62
7
  6
CONTINUOUS
370
-3
390
F
  0
LAYER
  5
213
100
AcDbSymbolTableRecord
100
AcDbLayerTableRecord
  2
07__ASM_ALL_SKELETONS
 70
0
 62
7
  6
CONTINUOUS
370
-3
390
F
  0
LAYER
  5
214
100
AcDbSymbolTableRecord
100
AcDbLayerTableRecord
  2
102421-03_5
 70
0
 62
7
  6
CONTINUOUS
370
-3
390
F
  0
LAYER
  5
215
100
AcDbSymbolTableRecord
100
AcDbLayerTableRecord
  2
20GUAN_4
 70
0
 62
7
  6
CONTINUOUS
370
-3
390
F
  0
LAYER
  5
216
100
AcDbSymbolTableRecord
100
AcDbLayerTableRecord
  2
20WANGJU_2
 70
0
 62
7
  6
CONTINUOUS
370
-3
390
F
  0
LAYER
  5
217
100
AcDbSymbolTableRecord
100
AcDbLayerTableRecord
  2
70101-07-03_2
 70
0
 62
7
  6
CONTINUOUS
370
-3
390
F
  0
LAYER
  5
218
100
AcDbSymbolTableRecord
100
AcDbLayerTableRecord
  2
70188A-01-01_2
 70
0
 62
7
  6
CONTINUOUS
370
-3
390
F
  0
LAYER
  5
219
100
AcDbSymbolTableRecord
100
AcDbLayerTableRecord
  2
70201_ASM_12
 70
0
 62
7
  6
CONTINUOUS
370
-3
390
F
  0
LAYER
  5
21A
100
AcDbSymbolTableRecord
100
AcDbLayerTableRecord
  2
70538-16_2
 70
0
 62
7
  6
CONTINUOUS
370
-3
390
F
  0
LAYER
  5
21B
100
AcDbSymbolTableRecord
100
AcDbLayerTableRecord
  2
72101-05_4
 70
0
 62
7
  6
CONTINUOUS
370
-3
390
F
  0
LAYER
  5
21C
100
AcDbSymbolTableRecord
100
AcDbLayerTableRecord
  2
DZ_1
 70
0
 62
7
  6
CONTINUOUS
370
-3
390
F
  0
LAYER
  5
21D
100
AcDbSymbolTableRecord
100
AcDbLayerTableRecord
  2
JSG_3
 70
0
 62
7
  6
CONTINUOUS
370
-3
390
F
  0
LAYER
  5
21E
100
AcDbSymbolTableRecord
100
AcDbLayerTableRecord
  2
MANIFOLD_SOLID_BREP_5046
 70
0
 62
7
  6
CONTINUOUS
370
-3
390
F
  0
LAYER
  5
21F
100
AcDbSymbolTableRecord
100
AcDbLayerTableRecord
  2
MANIFOLD_SOLID_BREP_5152
 70
0
 62
7
  6
CONTINUOUS
370
-3
390
F
  0
LAYER
  5
220
100
AcDbSymbolTableRecord
100
AcDbLayerTableRecord
  2
PA-SL15T90_3
 70
0
 62
7
  6
CONTINUOUS
370
-3
390
F
  0
LAYER
  5
221
100
AcDbSymbolTableRecord
100
AcDbLayerTableRecord
  2
PD15-10_1
 70
0
 62
7
  6
CONTINUOUS
370
-3
390
F
  0
LAYER
  5
222
100
AcDbSymbolTableRecord
100
AcDbLayerTableRecord
  2
SB_10
 70
0
 62
7
  6
CONTINUOUS
370
-3
390
F
  0
LAYER
  5
223
100
AcDbSymbolTableRecord
100
AcDbLayerTableRecord
  2
ZT3_8
 70
0
 62
7
  6
CONTINUOUS
370
-3
390
F
  0
ENDTAB
  0
TABLE
  2
STYLE
  5
3
100
AcDbSymbolTable
 70
1
  0
STYLE
  5
11
100
AcDbSymbolTableRecord
100
AcDbTextStyleTableRecord
  2
STANDARD
 70
0
 40
0.0
 41
0.8
 50
0.0
 71
0
 42
0.2
  3
txt
  4

  0
STYLE
  5
224
100
AcDbSymbolTableRecord
100
AcDbTextStyleTableRecord
  2
TEXTSTYLE_1
 70
0
 40
0.0
 41
0.8
 50
0.0
 71
0
 42
0.2
  3
gdt
  4

  0
ENDTAB
  0
TABLE
  2
VIEW
  5
6
100
AcDbSymbolTable
 70
0
  0
ENDTAB
  0
TABLE
  2
UCS
  5
7
100
AcDbSymbolTable
 70
0
  0
ENDTAB
  0
TABLE
  2
APPID
  5
9
100
AcDbSymbolTable
 70
1
  0
APPID
  5
225
100
AcDbSymbolTableRecord
100
AcDbRegAppTableRecord
  2
ACAD
 70
0
  0
ENDTAB
  0
TABLE
  2
BLOCK_RECORD
  5
1
100
AcDbSymbolTable
 70
0
  0
BLOCK_RECORD
  5
226
100
AcDbSymbolTableRecord
100
AcDbBlockTableRecord
  2
*Model_Space
  0
BLOCK_RECORD
  5
227
100
AcDbSymbolTableRecord
100
AcDbBlockTableRecord
  2
*Paper_Space
  0
BLOCK_RECORD
  5
228
100
AcDbSymbolTableRecord
100
AcDbBlockTableRecord
  2
_FILLED
  0
BLOCK_RECORD
  5
229
100
AcDbSymbolTableRecord
100
AcDbBlockTableRecord
  2
*D0
  0
BLOCK_RECORD
  5
22A
100
AcDbSymbolTableRecord
100
AcDbBlockTableRecord
  2
*D1
  0
ENDTAB
  0
TABLE
  2
DIMSTYLE
  5
A
100
AcDbSymbolTable
 70
1
100
AcDbDimStyleTable
 71
0
  0
DIMSTYLE
105
22B
100
AcDbSymbolTableRecord
100
AcDbDimStyleTableRecord
  2
STANDARD
 70
0
  3

  4

 40
1.0
 41
3.0
 42
0.5
 43
0.38
 44
0.5
 45
0.0
 46
0.0
 47
0.001
 48
0.001
140
1.8
141
0.09
142
0.0
143
25.4
144
1.0
145
0.0
146
1.0
147
0.625
 71
1.0
 72
0.0
 73
0
 74
0
 75
0
 76
0
 77
1
 78
8
170
0
171
2
172
0
173
0
174
0
175
0
176
0
177
0
178
0
270
2
271
3
272
3
273
2
274
2
275
0
280
0
281
0
282
0
283
1
284
8
285
0
286
0
287
3
288
0
340
11
278
46
341
228
342
228
343
228
344
228
  0
DIMSTYLE
105
22C
100
AcDbSymbolTableRecord
100
AcDbDimStyleTableRecord
  2
DIMSTYLE_1
 70
0
  3

  4

 40
1.0
 41
3.0
 42
0.5
 43
0.38
 44
0.5
 45
0.0
 46
0.0
 47
0.001
 48
0.001
140
1.8
141
0.09
142
0.0
143
25.4
144
1.0
145
0.0
146
1.0
147
0.45
 71
0.0
 72
0.0
 73
0
 74
0
 75
0
 76
0
 77
1
 78
8
170
0
171
2
172
0
173
0
174
0
175
0
176
0
177
0
178
0
270
2
271
3
272
3
273
2
274
2
275
0
280
0
281
0
282
0
283
1
284
8
285
0
286
0
287
3
288
0
340
11
278
46
341
228
342
228
343
228
344
228
  0
DIMSTYLE
105
22D
100
AcDbSymbolTableRecord
100
AcDbDimStyleTableRecord
  2
DIMSTYLE_2
 70
0
  3

  4

 40
1.0
 41
3.0
 42
0.5
 43
0.38
 44
0.5
 45
0.0
 46
0.0
 47
0.001
 48
0.001
140
1.8
141
0.09
142
0.0
143
25.4
144
1.0
145
0.0
146
1.0
147
0.45
 71
0.0
 72
0.0
 73
0
 74
0
 75
0
 76
0
 77
1
 78
8
170
0
171
2
172
0
173
0
174
0
175
0
176
0
177
0
178
0
270
2
271
1
272
1
273
2
274
2
275
0
280
0
281
0
282
0
283
1
284
8
285
0
286
0
287
3
288
0
340
11
278
46
341
228
342
228
343
228
344
228
  0
ENDTAB
  0
ENDSEC
  0
SECTION
  2
BLOCKS
  0
BLOCK
  5
20
100
AcDbEntity
  8
0
100
AcDbBlockBegin
  2
*Model_Space
 70
0
 10
0.0
 20
0.0
 30
0.0
  3
*Model_Space
  1

  0
ENDBLK
  5
21
100
AcDbEntity
  8
0
100
AcDbBlockEnd
  0
BLOCK
  5
1C
100
AcDbEntity
  8
0
100
AcDbBlockBegin
  2
*Paper_Space
 70
0
 10
0.0
 20
0.0
 30
0.0
  3
*Paper_Space
  1

  0
ENDBLK
  5
1D
100
AcDbEntity
  8
0
100
AcDbBlockEnd
  0
BLOCK
  5
22E
100
AcDbEntity
  8
0
100
AcDbBlockBegin
  2
_FILLED
 70
64
 10
0.0
 20
0.0
  3
_FILLED
  1

  0
SOLID
  5
22F
100
AcDbEntity
  8
0
  6
BYBLOCK
 62
0
100
AcDbTrace
 10
0.0
 20
0.0
 11
-1.0
 21
0.1666666667
 12
-1.0
 22
-0.1666666667
 13
-1.0
 23
-0.1666666667
  0
ENDBLK
  5
230
100
AcDbEntity
  8
0
  6
BYBLOCK
 62
0
100
AcDbBlockEnd
  0
BLOCK
  5
231
100
AcDbEntity
  8
0
100
AcDbBlockBegin
 62
2
  6
CONTINUOUS
  2
*D0
 70
65
 10
0.0
 20
0.0
  3
*D0
  1

  0
MTEXT
  5
232
100
AcDbEntity
  8
0
100
AcDbMText
 62
2
  6
CONTINUOUS
  7
STANDARD
 71
2
 72
1
 10
272.4498185598
 20
314.7278963635
 30
0.0
 11
0.0
 21
1.0
 31
0.0
 44
0.9
  1
415
 40
1.8
 41
8.3314285714
  0
LINE
  5
233
100
AcDbEntity
  8
0
100
AcDbLine
 62
2
  6
CONTINUOUS
 10
417.989771307
 20
522.2278963645
 11
274.5212471312
 21
522.2278963645
  0
LINE
  5
234
100
AcDbEntity
  8
0
100
AcDbLine
 62
2
  6
CONTINUOUS
 10
317.989771307
 20
107.2278963625
 11
274.5212471312
 21
107.2278963625
  0
LINE
  5
235
100
AcDbEntity
  8
0
100
AcDbLine
 62
2
  6
CONTINUOUS
 10
275.0212471312
 20
522.2278963645
 11
275.0212471312
 21
314.7278963635
  0
LINE
  5
236
100
AcDbEntity
  8
0
100
AcDbLine
 62
2
  6
CONTINUOUS
 10
275.0212471312
 20
107.2278963625
 11
275.0212471312
 21
314.7278963635
  0
INSERT
  5
237
100
AcDbEntity
  8
0
100
AcDbBlockReference
 62
2
  6
CONTINUOUS
  2
_FILLED
 10
275.0212471312
 20
522.2278963645
 41
3.0
 42
3.0
 43
3.0
 50
90.0
  0
INSERT
  5
238
100
AcDbEntity
  8
0
100
AcDbBlockReference
 62
2
  6
CONTINUOUS
  2
_FILLED
 10
275.0212471312
 20
107.2278963625
 41
3.0
 42
3.0
 43
3.0
 50
270.0
  0
ENDBLK
  5
239
100
AcDbEntity
  8
0
  6
BYBLOCK
 62
0
100
AcDbBlockEnd
  0
BLOCK
  5
23A
100
AcDbEntity
  8
0
100
AcDbBlockBegin
 62
2
  6
CONTINUOUS
  2
*D1
 70
65
 10
0.0
 20
0.0
  3
*D1
  1

  0
MTEXT
  5
23B
100
AcDbEntity
  8
0
100
AcDbMText
 62
2
  6
CONTINUOUS
  7
STANDARD
 71
2
 72
1
 10
413.2580409688
 20
87.3085092467
 30
0.0
 11
1.0
 21
0.0
 31
0.0
 44
0.9
  1
233.5
 40
1.8
 41
13.8857142857
  0
LINE
  5
23C
100
AcDbEntity
  8
0
100
AcDbLine
 62
2
  6
CONTINUOUS
 10
530.0263106305
 20
407.1891304814
 11
530.0263106305
 21
84.2370806753
  0
LINE
  5
23D
100
AcDbEntity
  8
0
100
AcDbLine
 62
2
  6
CONTINUOUS
 10
296.489771307
 20
128.2278963625
 11
296.489771307
 21
84.2370806753
  0
LINE
  5
23E
100
AcDbEntity
  8
0
100
AcDbLine
 62
2
  6
CONTINUOUS
 10
530.0263106305
 20
84.7370806753
 11
413.2580409688
 21
84.7370806753
  0
LINE
  5
23F
100
AcDbEntity
  8
0
100
AcDbLine
 62
2
  6
CONTINUOUS
 10
296.489771307
 20
84.7370806753
 11
413.2580409688
 21
84.7370806753
  0
INSERT
  5
240
100
AcDbEntity
  8
0
100
AcDbBlockReference
 62
2
  6
CONTINUOUS
  2
_FILLED
 10
530.0263106305
 20
84.7370806753
 41
3.0
 42
3.0
 43
3.0
  0
INSERT
  5
241
100
AcDbEntity
  8
0
100
AcDbBlockReference
 62
2
  6
CONTINUOUS
  2
_FILLED
 10
296.489771307
 20
84.7370806753
 41
3.0
 42
3.0
 43
3.0
 50
180.0
  0
ENDBLK
  5
242
100
AcDbEntity
  8
0
  6
BYBLOCK
 62
0
100
AcDbBlockEnd
  0
ENDSEC
  0
SECTION
  2
ENTITIES
  0
DIMENSION
  5
243
100
AcDbEntity
  8
0
100
AcDbDimension
 62
2
  6
CONTINUOUS
  2
*D0
 10
275.0212471312
 20
107.2278963625
 11
275.0212471312
 21
314.7278963635
 70
160
 71
2
 42
415.000000002
  3
DIMSTYLE_1
100
AcDbAlignedDimension
 13
418.489771307
 23
522.2278963645
 14
318.489771307
 24
107.2278963625
 50
270.0
100
AcDbRotatedDimension
  0
DIMENSION
  5
244
100
AcDbEntity
  8
0
100
AcDbDimension
 62
2
  6
CONTINUOUS
  2
*D1
 10
296.489771307
 20
84.7370806753
 11
413.2580409688
 21
84.7370806753
 70
160
 71
2
 42
233.5365393235
  3
DIMSTYLE_2
100
AcDbAlignedDimension
 13
530.0263106305
 23
407.6891304814
 14
296.489771307
 24
128.7278963625
 50
180.0
100
AcDbRotatedDimension
  0
LINE
  5
245
100
AcDbEntity
  8
JSG_3
100
AcDbLine
 62
7
  6
CONTINUOUS
 10
308.8312921122
 20
107.6363816663
 11
309.5311158932
 21
107.232338218
  0
LINE
  5
246
100
AcDbEntity
  8
JSG_3
100
AcDbLine
 62
7
  6
CONTINUOUS
 10
308.2494643813
 20
109.5670092852
 11
309.5283738464
 21
108.8278108545
  0
LINE
  5
247
100
AcDbEntity
  8
JSG_3
100
AcDbLine
 62
7
  6
CONTINUOUS
 10
308.2494062512
 20
111.1671565108
 11
309.5284518833
 21
110.4278689186
  0
LINE
  5
248
100
AcDbEntity
  8
JSG_3
100
AcDbLine
 62
7
  6
CONTINUOUS
 10
308.2492942045
 20
112.7672835542
 11
309.528443368
 21
112.0279360715
  0
LINE
  5
249
100
AcDbEntity
  8
JSG_3
100
AcDbLine
 62
7
  6
CONTINUOUS
 10
308.2493096512
 20
114.3669148108
 11
309.5281353166
 21
113.6277997984
  0
LINE
  5
24A
100
AcDbEntity
  8
JSG_3
100
AcDbLine
 62
7
  6
CONTINUOUS
 10
308.2494451111
 20
115.966919202
 11
309.5282672735
 21
115.2277856385
  0
LINE
  5
24B
100
AcDbEntity
  8
JSG_3
100
AcDbLine
 62
7
  6
CONTINUOUS
 10
308.2494594093
 20
117.5670357021
 11
309.5283940949
 21
116.827820024
  0
LINE
  5
24C
100
AcDbEntity
  8
JSG_3
100
AcDbLine
 62
7
  6
CONTINUOUS
 10
328.134667363
 20
107.6327488012
 11
327.4512317673
 21
108.0277921606
  0
LINE
  5
24D
100
AcDbEntity
  8
JSG_3
100
AcDbLine
 62
7
  6
CONTINUOUS
 10
328.7302881266
 20
108.8884811091
 11
327.4511200869
 21
109.6278373559
  0
LINE
  5
24E
100
AcDbEntity
  8
JSG_3
100
AcDbLine
 62
7
  6
CONTINUOUS
 10
309.2397759388
 20
107.2278966063
 11
308.3349969065
 21
108.132677186
  0
LINE
  5
24F
100
AcDbEntity
  8
JSG_3
100
AcDbLine
 62
7
  6
CONTINUOUS
 10
309.2397759388
 20
107.2278966063
 11
327.7397654563
 21
107.2278963625
  0
LINE
  5
250
100
AcDbEntity
  8
JSG_3
100
AcDbLine
 62
7
  6
CONTINUOUS
 10
309.967352766
 20
108.2279028457
 11
312.7953934019
 21
108.2279028457
  0
LINE
  5
251
100
AcDbEntity
  8
JSG_3
100
AcDbLine
 62
7
  6
CONTINUOUS
 10
328.7301674689
 20
110.4885918476
 11
327.4510835564
 21
111.227902758
  0
LINE
  5
252
100
AcDbEntity
  8
JSG_3
100
AcDbLine
 62
7
  6
CONTINUOUS
 10
328.7300882154
 20
112.0887388108
 11
327.4511363159
 21
112.8279660609
  0
LINE
  5
253
100
AcDbEntity
  8
JSG_3
100
AcDbLine
 62
7
  6
CONTINUOUS
 10
328.7304829266
 20
113.6884741704
 11
327.4513455408
 21
114.4277853279
  0
LINE
  5
254
100
AcDbEntity
  8
JSG_3
100
AcDbLine
 62
7
  6
CONTINUOUS
 10
328.7303888772
 20
115.2884435567
 11
327.4512068703
 21
116.0277980838
  0
LINE
  5
255
100
AcDbEntity
  8
JSG_3
100
AcDbLine
 62
7
  6
CONTINUOUS
 10
328.730264206
 20
116.8884971256
 11
327.451106613
 21
117.6278487477
  0
LINE
  5
256
100
AcDbEntity
  8
JSG_3
100
AcDbLine
 62
7
  6
CONTINUOUS
 10
309.3549935549
 20
129.7278963625
 11
309.5281804262
 21
129.6277874472
  0
LINE
  5
257
100
AcDbEntity
  8
JSG_3
100
AcDbLine
 62
7
  6
CONTINUOUS
 10
308.2494628849
 20
131.9669544873
 11
308.6631065575
 21
131.7278963625
  0
LINE
  5
258
100
AcDbEntity
  8
JSG_3
100
AcDbLine
 62
7
  6
CONTINUOUS
 10
308.2490343051
 20
133.567266143
 11
309.5281290219
 21
132.8279900845
  0
LINE
  5
259
100
AcDbEntity
  8
JSG_3
100
AcDbLine
 62
7
  6
CONTINUOUS
 10
308.2490615912
 20
135.167127548
 11
309.5280724416
 21
134.4279138849
  0
LINE
  5
25A
100
AcDbEntity
  8
JSG_3
100
AcDbLine
 62
7
  6
CONTINUOUS
 10
308.2492098699
 20
136.7669692041
 11
309.5280976272
 21
136.0278258285
  0
LINE
  5
25B
100
AcDbEntity
  8
JSG_3
100
AcDbLine
 62
7
  6
CONTINUOUS
 10
308.2494015033
 20
138.3668982482
 11
309.528203644
 21
137.6277853663
  0
LINE
  5
25C
100
AcDbEntity
  8
70538-16_2
100
AcDbLine
 62
7
  6
CONTINUOUS
 10
305.489771307
 20
117.7278963625
 11
303.0574860333
 21
120.1601816362
  0
LINE
  5
25D
100
AcDbEntity
  8
JSG_3
100
AcDbLine
 62
7
  6
CONTINUOUS
 10
308.239771307
 20
109.5778963625
 11
308.2494641781
 21
109.5668211118
  0
LINE
  5
25E
100
AcDbEntity
  8
JSG_3
100
AcDbLine
 62
7
  6
CONTINUOUS
 10
308.239771307
 20
117.5778963625
 11
308.2494591806
 21
117.5668239665
  0
LINE
  5
25F
100
AcDbEntity
  8
JSG_3
100
AcDbLine
 62
7
  6
CONTINUOUS
 10
308.239771307
 20
115.9778963625
 11
308.2494450171
 21
115.9668320646
  0
LINE
  5
260
100
AcDbEntity
  8
JSG_3
100
AcDbLine
 62
7
  6
CONTINUOUS
 10
308.239771307
 20
111.1778963625
 11
308.2494059259
 21
111.166854446
  0
LINE
  5
261
100
AcDbEntity
  8
JSG_3
100
AcDbLine
 62
7
  6
CONTINUOUS
 10
308.239771307
 20
114.3778963625
 11
308.2493096458
 21
114.3669097644
  0
LINE
  5
262
100
AcDbEntity
  8
JSG_3
100
AcDbLine
 62
7
  6
CONTINUOUS
 10
308.239771307
 20
112.7778963625
 11
308.249293814
 21
112.7669188878
  0
LINE
  5
263
100
AcDbEntity
  8
70538-16_2
100
AcDbLine
 62
7
  6
CONTINUOUS
 10
305.4899428833
 20
117.7278963625
 11
331.4895997307
 21
117.7278963625
  0
LINE
  5
264
100
AcDbEntity
  8
70538-16_2
100
AcDbLine
 62
7
  6
CONTINUOUS
 10
300.9897713072
 20
124.7278963623
 11
335.9897616161
 21
124.7278963625
  0
LINE
  5
265
100
AcDbEntity
  8
JSG_3
100
AcDbLine
 62
7
  6
CONTINUOUS
 10
308.2490782537
 20
139.9673341028
 11
309.5282317869
 21
139.2280089323
  0
LINE
  5
266
100
AcDbEntity
  8
JSG_3
100
AcDbLine
 62
7
  6
CONTINUOUS
 10
328.7304536618
 20
129.6884527731
 11
328.6622020487
 21
129.7278963625
  0
LINE
  5
267
100
AcDbEntity
  8
JSG_3
100
AcDbLine
 62
7
  6
CONTINUOUS
 10
308.2490317116
 20
141.567243908
 11
309.5281116971
 21
140.827979603
  0
LINE
  5
268
100
AcDbEntity
  8
JSG_3
100
AcDbLine
 62
7
  6
CONTINUOUS
 10
327.9705595887
 20
131.7278963625
 11
327.4513540828
 21
132.0280064089
  0
LINE
  5
269
100
AcDbEntity
  8
JSG_3
100
AcDbLine
 62
7
  6
CONTINUOUS
 10
308.249079204
 20
143.1670977419
 11
309.5280710515
 21
142.4278963684
  0
LINE
  5
26A
100
AcDbEntity
  8
JSG_3
100
AcDbLine
 62
7
  6
CONTINUOUS
 10
328.7303589914
 20
132.8888045938
 11
327.4514526362
 21
133.6279574168
  0
LINE
  5
26B
100
AcDbEntity
  8
JSG_3
100
AcDbLine
 62
7
  6
CONTINUOUS
 10
308.2492866633
 20
144.7672865066
 11
309.5284361284
 21
144.0279395459
  0
LINE
  5
26C
100
AcDbEntity
  8
JSG_3
100
AcDbLine
 62
7
  6
CONTINUOUS
 10
328.730490387
 20
134.4886457002
 11
327.4514676941
 21
135.2278673809
  0
LINE
  5
26D
100
AcDbEntity
  8
JSG_3
100
AcDbLine
 62
7
  6
CONTINUOUS
 10
308.249161032
 20
146.3673482339
 11
309.5283437409
 21
145.6279923751
  0
LINE
  5
26E
100
AcDbEntity
  8
JSG_3
100
AcDbLine
 62
7
  6
CONTINUOUS
 10
328.7305048524
 20
136.0885129976
 11
327.4514002765
 21
136.8277970165
  0
LINE
  5
26F
100
AcDbEntity
  8
JSG_3
100
AcDbLine
 62
7
  6
CONTINUOUS
 10
308.2490639534
 20
147.9673229132
 11
309.528205607
 21
147.228008122
  0
LINE
  5
270
100
AcDbEntity
  8
JSG_3
100
AcDbLine
 62
7
  6
CONTINUOUS
 10
328.7300838819
 20
137.6888514469
 11
327.4512403167
 21
138.4280022298
  0
LINE
  5
271
100
AcDbEntity
  8
JSG_3
100
AcDbLine
 62
7
  6
CONTINUOUS
 10
308.2490324308
 20
149.567219644
 11
309.5280976273
 21
148.8279669084
  0
LINE
  5
272
100
AcDbEntity
  8
JSG_3
100
AcDbLine
 62
7
  6
CONTINUOUS
 10
328.7301858641
 20
139.2888924353
 11
327.4513781225
 21
140.0280022134
  0
LINE
  5
273
100
AcDbEntity
  8
JSG_3
100
AcDbLine
 62
7
  6
CONTINUOUS
 10
308.2493817288
 20
151.1671923134
 11
309.5284584173
 21
150.4278857345
  0
LINE
  5
274
100
AcDbEntity
  8
JSG_3
100
AcDbLine
 62
7
  6
CONTINUOUS
 10
328.7303940184
 20
140.8887753061
 11
327.4514616155
 21
141.6279419432
  0
LINE
  5
275
100
AcDbEntity
  8
JSG_3
100
AcDbLine
 62
7
  6
CONTINUOUS
 10
308.2492624797
 20
152.7673065586
 11
309.5284273329
 21
152.0279516559
  0
LINE
  5
276
100
AcDbEntity
  8
JSG_3
100
AcDbLine
 62
7
  6
CONTINUOUS
 10
328.7305010212
 20
142.488617331
 11
327.4514616156
 21
143.2278507936
  0
LINE
  5
277
100
AcDbEntity
  8
JSG_3
100
AcDbLine
 62
7
  6
CONTINUOUS
 10
308.249139521
 20
154.3673500235
 11
309.5283192819
 21
153.6279987593
  0
LINE
  5
278
100
AcDbEntity
  8
JSG_3
100
AcDbLine
 62
7
  6
CONTINUOUS
 10
328.7300855467
 20
144.0887479609
 11
327.4511422745
 21
144.8279694375
  0
LINE
  5
279
100
AcDbEntity
  8
JSG_3
100
AcDbLine
 62
7
  6
CONTINUOUS
 10
308.2490519652
 20
155.9673089172
 11
309.5281804265
 21
155.2280052898
  0
LINE
  5
27A
100
AcDbEntity
  8
JSG_3
100
AcDbLine
 62
7
  6
CONTINUOUS
 10
328.7300934073
 20
145.6888685979
 11
327.4512664955
 21
146.4280061531
  0
LINE
  5
27B
100
AcDbEntity
  8
JSG_3
100
AcDbLine
 62
7
  6
CONTINUOUS
 10
308.239771307
 20
144.7776805652
 11
308.2492862365
 21
144.7668824441
  0
LINE
  5
27C
100
AcDbEntity
  8
JSG_3
100
AcDbLine
 62
7
  6
CONTINUOUS
 10
308.239771307
 20
131.9778963625
 11
308.2494627417
 21
131.9668219314
  0
LINE
  5
27D
100
AcDbEntity
  8
JSG_3
100
AcDbLine
 62
7
  6
CONTINUOUS
 10
328.739771307
 20
112.0778963625
 11
328.7300884606
 21
112.0889658837
  0
LINE
  5
27E
100
AcDbEntity
  8
JSG_3
100
AcDbLine
 62
7
  6
CONTINUOUS
 10
308.239771307
 20
138.3778963625
 11
308.2494014589
 21
138.3668570064
  0
LINE
  5
27F
100
AcDbEntity
  8
JSG_3
100
AcDbLine
 62
7
  6
CONTINUOUS
 10
328.739771307
 20
110.4778963625
 11
328.7301678222
 21
110.4889204208
  0
LINE
  5
280
100
AcDbEntity
  8
JSG_3
100
AcDbLine
 62
7
  6
CONTINUOUS
 10
328.739771307
 20
116.8778963625
 11
328.7302645992
 21
116.8888647253
  0
LINE
  5
281
100
AcDbEntity
  8
JSG_3
100
AcDbLine
 62
7
  6
CONTINUOUS
 10
328.739771307
 20
108.8778963416
 11
328.7302885217
 21
108.8888508953
  0
LINE
  5
282
100
AcDbEntity
  8
JSG_3
100
AcDbLine
 62
7
  6
CONTINUOUS
 10
308.239771307
 20
136.7778963625
 11
308.249209868
 21
136.7669673886
  0
LINE
  5
283
100
AcDbEntity
  8
JSG_3
100
AcDbLine
 62
7
  6
CONTINUOUS
 10
308.239771307
 20
146.3778963625
 11
308.2491606574
 21
146.3669959208
  0
LINE
  5
284
100
AcDbEntity
  8
JSG_3
100
AcDbLine
 62
7
  6
CONTINUOUS
 10
328.739771307
 20
115.2778963625
 11
328.7303892481
 21
115.2887925702
  0
LINE
  5
285
100
AcDbEntity
  8
JSG_3
100
AcDbLine
 62
7
  6
CONTINUOUS
 10
308.239771307
 20
139.9778963625
 11
308.2490779467
 21
139.9670440453
  0
LINE
  5
286
100
AcDbEntity
  8
JSG_3
100
AcDbLine
 62
7
  6
CONTINUOUS
 10
308.239771307
 20
143.1778963625
 11
308.2490791464
 21
143.1670433457
  0
LINE
  5
287
100
AcDbEntity
  8
JSG_3
100
AcDbLine
 62
7
  6
CONTINUOUS
 10
308.239771307
 20
135.1778963625
 11
308.249061513
 21
135.1670536325
  0
LINE
  5
288
100
AcDbEntity
  8
JSG_3
100
AcDbLine
 62
7
  6
CONTINUOUS
 10
328.739771307
 20
113.6778963625
 11
328.7304832055
 21
113.6887378641
  0
LINE
  5
289
100
AcDbEntity
  8
JSG_3
100
AcDbLine
 62
7
  6
CONTINUOUS
 10
308.239771307
 20
133.5778963625
 11
308.2490340976
 21
133.5670696452
  0
LINE
  5
28A
100
AcDbEntity
  8
JSG_3
100
AcDbLine
 62
7
  6
CONTINUOUS
 10
308.239771307
 20
141.5778963625
 11
308.2490315292
 21
141.5670711465
  0
LINE
  5
28B
100
AcDbEntity
  8
70538-16_2
100
AcDbLine
 62
7
  6
CONTINUOUS
 10
328.2396081731
 20
128.7278963622
 11
305.8406606663
 21
128.7278963622
  0
LINE
  5
28C
100
AcDbEntity
  8
PD15-10_1
100
AcDbLine
 62
7
  6
CONTINUOUS
 10
296.489771307
 20
128.7278963625
 11
311.011407186
 21
128.7278963625
  0
LINE
  5
28D
100
AcDbEntity
  8
PD15-10_1
100
AcDbLine
 62
7
  6
CONTINUOUS
 10
325.9672443786
 20
128.7278963625
 11
340.489771307
 21
128.7278963625
  0
LINE
  5
28E
100
AcDbEntity
  8
PD15-10_1
100
AcDbLine
 62
7
  6
CONTINUOUS
 10
296.489771307
 20
129.5278963625
 11
340.489771307
 21
129.5278963625
  0
LINE
  5
28F
100
AcDbEntity
  8
72101-05_4
100
AcDbLine
 62
7
  6
CONTINUOUS
 10
300.989771307
 20
129.7278963625
 11
335.989771307
 21
129.7278963625
  0
LINE
  5
290
100
AcDbEntity
  8
72101-05_4
100
AcDbLine
 62
7
  6
CONTINUOUS
 10
335.989771307
 20
131.7278963625
 11
300.989771307
 21
131.7278963625
  0
LINE
  5
291
100
AcDbEntity
  8
JSG_3
100
AcDbLine
 62
7
  6
CONTINUOUS
 10
328.7302201258
 20
147.2888827785
 11
327.4514002763
 21
148.0279957205
  0
LINE
  5
292
100
AcDbEntity
  8
JSG_3
100
AcDbLine
 62
7
  6
CONTINUOUS
 10
328.7304239295
 20
148.888745415
 11
327.4514676892
 21
149.6279253932
  0
LINE
  5
293
100
AcDbEntity
  8
JSG_3
100
AcDbLine
 62
7
  6
CONTINUOUS
 10
328.7301422023
 20
150.4886271163
 11
327.4510885859
 21
151.2279196557
  0
LINE
  5
294
100
AcDbEntity
  8
JSG_3
100
AcDbLine
 62
7
  6
CONTINUOUS
 10
328.7300795407
 20
152.0887747789
 11
327.4511617763
 21
152.8279789412
  0
LINE
  5
295
100
AcDbEntity
  8
JSG_3
100
AcDbLine
 62
7
  6
CONTINUOUS
 10
328.7301071299
 20
153.6888820512
 11
327.4512931003
 21
154.428008415
  0
LINE
  5
296
100
AcDbEntity
  8
JSG_3
100
AcDbLine
 62
7
  6
CONTINUOUS
 10
328.7302624822
 20
155.2888646393
 11
327.4514215943
 21
156.0279857855
  0
LINE
  5
297
100
AcDbEntity
  8
JSG_3
100
AcDbLine
 62
7
  6
CONTINUOUS
 10
328.739771307
 20
137.6778963625
 11
328.7300840082
 21
137.688968436
  0
LINE
  5
298
100
AcDbEntity
  8
JSG_3
100
AcDbLine
 62
7
  6
CONTINUOUS
 10
328.739771307
 20
144.0778963625
 11
328.7300857837
 21
144.088967415
  0
LINE
  5
299
100
AcDbEntity
  8
JSG_3
100
AcDbLine
 62
7
  6
CONTINUOUS
 10
328.739771307
 20
145.6778963625
 11
328.7300935092
 21
145.6889629981
  0
LINE
  5
29A
100
AcDbEntity
  8
JSG_3
100
AcDbLine
 62
7
  6
CONTINUOUS
 10
308.239771307
 20
151.1778963625
 11
308.2493813805
 21
151.1668685225
  0
LINE
  5
29B
100
AcDbEntity
  8
JSG_3
100
AcDbLine
 62
7
  6
CONTINUOUS
 10
328.739771307
 20
139.2778963625
 11
328.730185883
 21
139.2889100482
  0
LINE
  5
29C
100
AcDbEntity
  8
JSG_3
100
AcDbLine
 62
7
  6
CONTINUOUS
 10
328.739771307
 20
147.2778963625
 11
328.7302201339
 21
147.2888903503
  0
LINE
  5
29D
100
AcDbEntity
  8
JSG_3
100
AcDbLine
 62
7
  6
CONTINUOUS
 10
308.239771307
 20
152.7778963625
 11
308.2492620849
 21
152.7669371945
  0
LINE
  5
29E
100
AcDbEntity
  8
JSG_3
100
AcDbLine
 62
7
  6
CONTINUOUS
 10
328.739771307
 20
132.8778963625
 11
328.7303589973
 21
132.8888101252
  0
LINE
  5
29F
100
AcDbEntity
  8
JSG_3
100
AcDbLine
 62
7
  6
CONTINUOUS
 10
328.739771307
 20
140.8778963625
 11
328.7303940338
 21
140.8887897904
  0
LINE
  5
2A0
100
AcDbEntity
  8
JSG_3
100
AcDbLine
 62
7
  6
CONTINUOUS
 10
308.239771307
 20
154.3778963625
 11
308.2491391582
 21
154.3670084095
  0
LINE
  5
2A1
100
AcDbEntity
  8
JSG_3
100
AcDbLine
 62
7
  6
CONTINUOUS
 10
328.739771307
 20
129.6778963625
 11
328.7304539818
 21
129.6887549089
  0
LINE
  5
2A2
100
AcDbEntity
  8
JSG_3
100
AcDbLine
 62
7
  6
CONTINUOUS
 10
308.239771307
 20
147.9778963625
 11
308.2490636673
 21
147.9670523752
  0
LINE
  5
2A3
100
AcDbEntity
  8
JSG_3
100
AcDbLine
 62
7
  6
CONTINUOUS
 10
308.239771307
 20
155.9778963625
 11
308.2490517015
 21
155.9670593604
  0
LINE
  5
2A4
100
AcDbEntity
  8
JSG_3
100
AcDbLine
 62
7
  6
CONTINUOUS
 10
328.739771307
 20
134.4778963625
 11
328.7304904799
 21
134.4887336171
  0
LINE
  5
2A5
100
AcDbEntity
  8
JSG_3
100
AcDbLine
 62
7
  6
CONTINUOUS
 10
328.739771307
 20
142.4778963625
 11
328.7305011375
 21
142.4887273919
  0
LINE
  5
2A6
100
AcDbEntity
  8
JSG_3
100
AcDbLine
 62
7
  6
CONTINUOUS
 10
328.739771307
 20
136.0778963625
 11
328.7305050764
 21
136.0887250903
  0
LINE
  5
2A7
100
AcDbEntity
  8
JSG_3
100
AcDbLine
 62
7
  6
CONTINUOUS
 10
308.239771307
 20
149.5778963625
 11
308.2490322736
 21
149.5670707114
  0
LINE
  5
2A8
100
AcDbEntity
  8
DZ_1
100
AcDbLine
 62
7
  6
CONTINUOUS
 10
297.2399475671
 20
156.7278963625
 11
339.7395950469
 21
156.7278963625
  0
LINE
  5
2A9
100
AcDbEntity
  8
JSG_3
100
AcDbLine
 62
7
  6
CONTINUOUS
 10
328.739771307
 20
152.0778963625
 11
328.7300797525
 21
152.088970862
  0
LINE
  5
2AA
100
AcDbEntity
  8
JSG_3
100
AcDbLine
 62
7
  6
CONTINUOUS
 10
328.739771307
 20
153.6778963625
 11
328.7301072087
 21
153.6889551614
  0
LINE
  5
2AB
100
AcDbEntity
  8
JSG_3
100
AcDbLine
 62
7
  6
CONTINUOUS
 10
328.739771307
 20
150.4778963625
 11
328.7301425336
 21
150.4889349282
  0
LINE
  5
2AC
100
AcDbEntity
  8
JSG_3
100
AcDbLine
 62
7
  6
CONTINUOUS
 10
328.739771307
 20
155.2778963625
 11
328.7302624266
 21
155.2888124569
  0
LINE
  5
2AD
100
AcDbEntity
  8
JSG_3
100
AcDbLine
 62
7
  6
CONTINUOUS
 10
328.739771307
 20
148.8778963625
 11
328.7304239581
 21
148.8887723926
  0
LINE
  5
2AE
100
AcDbEntity
  8
DZ_1
100
AcDbLine
 62
7
  6
CONTINUOUS
 10
339.7395950469
 20
164.7278963625
 11
297.2399475671
 21
164.7278963625
  0
LINE
  5
2AF
100
AcDbEntity
  8
JSG_3
100
AcDbLine
 62
7
  6
CONTINUOUS
 10
328.1347984579
 20
107.6328798339
 11
328.137491572
 21
107.6256227297
  0
LINE
  5
2B0
100
AcDbEntity
  8
03__ASM_ALL_CURVES
100
AcDbLine
 62
40
  6
CONTINUOUS
 10
318.5663921288
 20
206.4452601847
 11
318.0604798568
 21
206.6233716213
  0
LINE
  5
2B1
100
AcDbEntity
  8
03__ASM_ALL_CURVES
100
AcDbLine
 62
40
  6
CONTINUOUS
 10
317.6597291245
 20
206.7667737209
 11
316.7654684639
 21
207.0878566201
  0
LINE
  5
2B2
100
AcDbEntity
  8
03__ASM_ALL_CURVES
100
AcDbLine
 62
40
  6
CONTINUOUS
 10
318.3755338389
 20
209.8562492246
 11
317.01644367
 21
210.3714632545
  0
LINE
  5
2B3
100
AcDbEntity
  8
03__ASM_ALL_CURVES
100
AcDbLine
 62
40
  6
CONTINUOUS
 10
316.2724752999
 20
210.2700051924
 11
317.8312087523
 21
209.6749510747
  0
LINE
  5
2B4
100
AcDbEntity
  8
03__ASM_ALL_CURVES
100
AcDbLine
 62
40
  6
CONTINUOUS
 10
316.2724752999
 20
206.8749497191
 11
318.5663921288
 21
205.9965364977
  0
LINE
  5
2B5
100
AcDbEntity
  8
PD15-10_1
100
AcDbLine
 62
7
  6
CONTINUOUS
 10
296.489771307
 20
129.5278963625
 11
296.489771307
 21
128.7278963625
  0
LINE
  5
2B6
100
AcDbEntity
  8
DZ_1
100
AcDbLine
 62
7
  6
CONTINUOUS
 10
297.239771307
 20
164.7278963625
 11
297.239771307
 21
156.7278963625
  0
LINE
  5
2B7
100
AcDbEntity
  8
72101-05_4
100
AcDbLine
 62
7
  6
CONTINUOUS
 10
300.989771307
 20
131.7278963625
 11
300.989771307
 21
129.7278963625
  0
LINE
  5
2B8
100
AcDbEntity
  8
70538-16_2
100
AcDbLine
 62
7
  6
CONTINUOUS
 10
303.056014577
 20
124.2278963601
 11
303.056014577
 21
120.1601816362
  0
LINE
  5
2B9
100
AcDbEntity
  8
ZT3_8
100
AcDbLine
 62
7
  6
CONTINUOUS
 10
303.239771307
 20
258.2278963625
 11
303.239771307
 21
164.7278963625
  0
LINE
  5
2BA
100
AcDbEntity
  8
SB_10
100
AcDbLine
 62
7
  6
CONTINUOUS
 10
376.989771307
 20
195.7278963625
 11
389.989771307
 21
195.7278963625
  0
LINE
  5
2BB
100
AcDbEntity
  8
ZT3_8
100
AcDbLine
 62
7
  6
CONTINUOUS
 10
345.489771307
 20
197.4778963625
 11
334.7397713071
 21
197.4778963625
  0
LINE
  5
2BC
100
AcDbEntity
  8
102421-03_5
100
AcDbLine
 62
7
  6
CONTINUOUS
 10
365.489771307
 20
197.6778963625
 11
345.489771307
 21
197.6778963625
  0
LINE
  5
2BD
100
AcDbEntity
  8
03__ASM_ALL_CURVES
100
AcDbLine
 62
40
  6
CONTINUOUS
 10
318.7380440114
 20
200.2278963625
 11
315.839771307
 21
200.2278963625
  0
LINE
  5
2BE
100
AcDbEntity
  8
03__ASM_ALL_CURVES
100
AcDbLine
 62
40
  6
CONTINUOUS
 10
316.5079475764
 20
202.2674790171
 11
316.2724752999
 21
202.2674790171
  0
LINE
  5
2BF
100
AcDbEntity
  8
03__ASM_ALL_CURVES
100
AcDbLine
 62
40
  6
CONTINUOUS
 10
318.3912090234
 20
202.9006875673
 11
316.6825277901
 21
202.9006875673
  0
LINE
  5
2C0
100
AcDbEntity
  8
03__ASM_ALL_CURVES
100
AcDbLine
 62
40
  6
CONTINUOUS
 10
318.5663921288
 20
203.3527702224
 11
316.6825277901
 21
203.3527702224
  0
LINE
  5
2C1
100
AcDbEntity
  8
03__ASM_ALL_CURVES
100
AcDbLine
 62
40
  6
CONTINUOUS
 10
316.6825277901
 20
203.9859787726
 11
316.2724752999
 21
203.9859787726
  0
LINE
  5
2C2
100
AcDbEntity
  8
03__ASM_ALL_CURVES
100
AcDbLine
 62
40
  6
CONTINUOUS
 10
316.2724752999
 20
204.2597777362
 11
318.3912090234
 21
204.2597777362
  0
LINE
  5
2C3
100
AcDbEntity
  8
03__ASM_ALL_CURVES
100
AcDbLine
 62
40
  6
CONTINUOUS
 10
318.5663921288
 20
204.6892950159
 11
317.7196737859
 21
204.6892950159
  0
LINE
  5
2C4
100
AcDbEntity
  8
03__ASM_ALL_CURVES
100
AcDbLine
 62
40
  6
CONTINUOUS
 10
317.3289999579
 20
204.6892950159
 11
316.6666803508
 21
204.6892950159
  0
LINE
  5
2C5
100
AcDbEntity
  8
03__ASM_ALL_CURVES
100
AcDbLine
 62
40
  6
CONTINUOUS
 10
318.5663921288
 20
208.7524406312
 11
316.9915528551
 21
208.9589741055
  0
LINE
  5
2C6
100
AcDbEntity
  8
03__ASM_ALL_CURVES
100
AcDbLine
 62
40
  6
CONTINUOUS
 10
316.2724752999
 20
208.675873384
 11
318.5663921288
 21
208.3195643835
  0
LINE
  5
2C7
100
AcDbEntity
  8
03__ASM_ALL_CURVES
100
AcDbLine
 62
40
  6
CONTINUOUS
 10
318.5663921288
 20
221.5495923207
 11
318.0604798568
 21
221.727876012
  0
LINE
  5
2C8
100
AcDbEntity
  8
03__ASM_ALL_CURVES
100
AcDbLine
 62
40
  6
CONTINUOUS
 10
317.6597291245
 20
221.8708474747
 11
316.7654684639
 21
222.1921026287
  0
LINE
  5
2C9
100
AcDbEntity
  8
03__ASM_ALL_CURVES
100
AcDbLine
 62
40
  6
CONTINUOUS
 10
316.2724752999
 20
221.9790234729
 11
318.5663921288
 21
221.100696379
  0
LINE
  5
2CA
100
AcDbEntity
  8
PD15-10_1
100
AcDbLine
 62
7
  6
CONTINUOUS
 10
305.8406606663
 20
129.5278963625
 11
305.8406606663
 21
128.7278963625
  0
LINE
  5
2CB
100
AcDbEntity
  8
JSG_3
100
AcDbLine
 62
7
  6
CONTINUOUS
 10
308.239771307
 20
156.0778963625
 11
308.239771307
 21
155.9778963625
  0
LINE
  5
2CC
100
AcDbEntity
  8
JSG_3
100
AcDbLine
 62
7
  6
CONTINUOUS
 10
308.239771307
 20
154.4778963625
 11
308.239771307
 21
154.3778963625
  0
LINE
  5
2CD
100
AcDbEntity
  8
JSG_3
100
AcDbLine
 62
7
  6
CONTINUOUS
 10
308.239771307
 20
152.8778963625
 11
308.239771307
 21
152.7778963625
  0
LINE
  5
2CE
100
AcDbEntity
  8
JSG_3
100
AcDbLine
 62
7
  6
CONTINUOUS
 10
308.239771307
 20
151.2778963625
 11
308.239771307
 21
151.1778963625
  0
LINE
  5
2CF
100
AcDbEntity
  8
JSG_3
100
AcDbLine
 62
7
  6
CONTINUOUS
 10
308.239771307
 20
149.6778963625
 11
308.239771307
 21
149.5778963625
  0
LINE
  5
2D0
100
AcDbEntity
  8
JSG_3
100
AcDbLine
 62
7
  6
CONTINUOUS
 10
308.239771307
 20
148.0778963625
 11
308.239771307
 21
147.9778963625
  0
LINE
  5
2D1
100
AcDbEntity
  8
JSG_3
100
AcDbLine
 62
7
  6
CONTINUOUS
 10
308.239771307
 20
146.4778963625
 11
308.239771307
 21
146.3778963625
  0
LINE
  5
2D2
100
AcDbEntity
  8
JSG_3
100
AcDbLine
 62
7
  6
CONTINUOUS
 10
308.239771307
 20
144.8778963625
 11
308.239771307
 21
144.7776805652
  0
LINE
  5
2D3
100
AcDbEntity
  8
JSG_3
100
AcDbLine
 62
7
  6
CONTINUOUS
 10
308.239771307
 20
143.2778963625
 11
308.239771307
 21
143.1778963625
  0
LINE
  5
2D4
100
AcDbEntity
  8
JSG_3
100
AcDbLine
 62
7
  6
CONTINUOUS
 10
308.239771307
 20
141.6778963625
 11
308.239771307
 21
141.5778963625
  0
LINE
  5
2D5
100
AcDbEntity
  8
JSG_3
100
AcDbLine
 62
7
  6
CONTINUOUS
 10
308.239771307
 20
140.0778963625
 11
308.239771307
 21
139.9778963625
  0
LINE
  5
2D6
100
AcDbEntity
  8
JSG_3
100
AcDbLine
 62
7
  6
CONTINUOUS
 10
308.239771307
 20
138.4778963625
 11
308.239771307
 21
138.3778963625
  0
LINE
  5
2D7
100
AcDbEntity
  8
JSG_3
100
AcDbLine
 62
7
  6
CONTINUOUS
 10
308.239771307
 20
136.8778963625
 11
308.239771307
 21
136.7778963625
  0
LINE
  5
2D8
100
AcDbEntity
  8
JSG_3
100
AcDbLine
 62
7
  6
CONTINUOUS
 10
308.239771307
 20
135.2778963625
 11
308.239771307
 21
135.1778963625
  0
LINE
  5
2D9
100
AcDbEntity
  8
JSG_3
100
AcDbLine
 62
7
  6
CONTINUOUS
 10
308.239771307
 20
133.6778963625
 11
308.239771307
 21
133.5778963625
  0
LINE
  5
2DA
100
AcDbEntity
  8
JSG_3
100
AcDbLine
 62
7
  6
CONTINUOUS
 10
308.239771307
 20
132.0778963625
 11
308.239771307
 21
131.9778963625
  0
LINE
  5
2DB
100
AcDbEntity
  8
JSG_3
100
AcDbLine
 62
7
  6
CONTINUOUS
 10
308.239771307
 20
117.6778963625
 11
308.239771307
 21
117.5778963625
  0
LINE
  5
2DC
100
AcDbEntity
  8
JSG_3
100
AcDbLine
 62
7
  6
CONTINUOUS
 10
308.239771307
 20
116.0778963625
 11
308.239771307
 21
115.9778963625
  0
LINE
  5
2DD
100
AcDbEntity
  8
JSG_3
100
AcDbLine
 62
7
  6
CONTINUOUS
 10
308.239771307
 20
114.4778963625
 11
308.239771307
 21
114.3778963625
  0
LINE
  5
2DE
100
AcDbEntity
  8
JSG_3
100
AcDbLine
 62
7
  6
CONTINUOUS
 10
308.239771307
 20
112.8778963625
 11
308.239771307
 21
112.7778963625
  0
LINE
  5
2DF
100
AcDbEntity
  8
JSG_3
100
AcDbLine
 62
7
  6
CONTINUOUS
 10
308.239771307
 20
111.2778963625
 11
308.239771307
 21
111.1778963625
  0
LINE
  5
2E0
100
AcDbEntity
  8
JSG_3
100
AcDbLine
 62
7
  6
CONTINUOUS
 10
308.239771307
 20
109.6778963625
 11
308.239771307
 21
109.5778963625
  0
LINE
  5
2E1
100
AcDbEntity
  8
70201_ASM_12
100
AcDbLine
 62
7
  6
CONTINUOUS
 10
308.489771307
 20
412.2278963645
 11
308.489771307
 21
262.2278963645
  0
LINE
  5
2E2
100
AcDbEntity
  8
70188A-01-01_2
100
AcDbLine
 62
7
  6
CONTINUOUS
 10
308.489771307
 20
261.7278948891
 11
308.489771307
 21
258.2278963625
  0
LINE
  5
2E3
100
AcDbEntity
  8
03__ASM_ALL_CURVES
100
AcDbLine
 62
40
  6
CONTINUOUS
 10
314.7452644713
 20
224.1334139346
 11
314.7452644713
 21
201.3224031981
  0
LINE
  5
2E4
100
AcDbEntity
  8
03__ASM_ALL_CURVES
100
AcDbLine
 62
40
  6
CONTINUOUS
 10
316.2724752999
 20
222.4153448161
 11
316.2724752999
 21
221.9790234729
  0
LINE
  5
2E5
100
AcDbEntity
  8
03__ASM_ALL_CURVES
100
AcDbLine
 62
40
  6
CONTINUOUS
 10
316.2724752999
 20
220.8560945995
 11
316.2724752999
 21
220.4388935362
  0
LINE
  5
2E6
100
AcDbEntity
  8
03__ASM_ALL_CURVES
100
AcDbLine
 62
40
  6
CONTINUOUS
 10
316.2724752999
 20
219.3316398473
 11
316.2724752999
 21
218.9246018157
  0
LINE
  5
2E7
100
AcDbEntity
  8
03__ASM_ALL_CURVES
100
AcDbLine
 62
40
  6
CONTINUOUS
 10
316.2724752999
 20
218.4882804725
 11
316.2724752999
 21
218.0371452187
  0
LINE
  5
2E8
100
AcDbEntity
  8
03__ASM_ALL_CURVES
100
AcDbLine
 62
40
  6
CONTINUOUS
 10
316.2724752999
 20
217.7443121024
 11
316.2724752999
 21
216.0258984744
  0
LINE
  5
2E9
100
AcDbEntity
  8
03__ASM_ALL_CURVES
100
AcDbLine
 62
40
  6
CONTINUOUS
 10
316.2724752999
 20
215.7521856381
 11
316.2724752999
 21
215.3349845748
  0
LINE
  5
2EA
100
AcDbEntity
  8
03__ASM_ALL_CURVES
100
AcDbLine
 62
40
  6
CONTINUOUS
 10
316.2724752999
 20
214.2282476502
 11
316.2724752999
 21
213.8205205995
  0
LINE
  5
2EB
100
AcDbEntity
  8
03__ASM_ALL_CURVES
100
AcDbLine
 62
40
  6
CONTINUOUS
 10
316.2724752999
 20
210.6708420521
 11
316.2724752999
 21
210.2700051924
  0
LINE
  5
2EC
100
AcDbEntity
  8
03__ASM_ALL_CURVES
100
AcDbLine
 62
40
  6
CONTINUOUS
 10
316.2724752999
 20
209.0801553392
 11
316.2724752999
 21
208.675873384
  0
LINE
  5
2ED
100
AcDbEntity
  8
03__ASM_ALL_CURVES
100
AcDbLine
 62
40
  6
CONTINUOUS
 10
316.2724752999
 20
207.3105820432
 11
316.2724752999
 21
206.8749497191
  0
LINE
  5
2EE
100
AcDbEntity
  8
03__ASM_ALL_CURVES
100
AcDbLine
 62
40
  6
CONTINUOUS
 10
316.2724752999
 20
205.0263976091
 11
316.2724752999
 21
204.2597777362
  0
LINE
  5
2EF
100
AcDbEntity
  8
03__ASM_ALL_CURVES
100
AcDbLine
 62
40
  6
CONTINUOUS
 10
316.2724752999
 20
203.9859787726
 11
316.2724752999
 21
202.2674790171
  0
LINE
  5
2F0
100
AcDbEntity
  8
03__ASM_ALL_CURVES
100
AcDbLine
 62
40
  6
CONTINUOUS
 10
316.6666803508
 20
204.9884154314
 11
316.6666803508
 21
204.6892950159
  0
LINE
  5
2F1
100
AcDbEntity
  8
03__ASM_ALL_CURVES
100
AcDbLine
 62
40
  6
CONTINUOUS
 10
316.6825277901
 20
203.9859787726
 11
316.6825277901
 21
203.3527702224
  0
LINE
  5
2F2
100
AcDbEntity
  8
03__ASM_ALL_CURVES
100
AcDbLine
 62
40
  6
CONTINUOUS
 10
316.6825277901
 20
202.9006875673
 11
316.6825277901
 21
202.4425759952
  0
LINE
  5
2F3
100
AcDbEntity
  8
03__ASM_ALL_CURVES
100
AcDbLine
 62
40
  6
CONTINUOUS
 10
316.6825277901
 20
216.2009093251
 11
316.6825277901
 21
216.6589347698
  0
LINE
  5
2F4
100
AcDbEntity
  8
03__ASM_ALL_CURVES
100
AcDbLine
 62
40
  6
CONTINUOUS
 10
316.6825277901
 20
217.1111035523
 11
316.6825277901
 21
217.7443121024
  0
LINE
  5
2F5
100
AcDbEntity
  8
03__ASM_ALL_CURVES
100
AcDbLine
 62
40
  6
CONTINUOUS
 10
317.3289999579
 20
204.9884154314
 11
317.3289999579
 21
204.6892950159
  0
LINE
  5
2F6
100
AcDbEntity
  8
03__ASM_ALL_CURVES
100
AcDbLine
 62
40
  6
CONTINUOUS
 10
317.6597291245
 20
222.5131855279
 11
317.6597291245
 21
221.8708474747
  0
LINE
  5
2F7
100
AcDbEntity
  8
03__ASM_ALL_CURVES
100
AcDbLine
 62
40
  6
CONTINUOUS
 10
317.6597291245
 20
207.4093701562
 11
317.6597291245
 21
206.7667737209
  0
LINE
  5
2F8
100
AcDbEntity
  8
03__ASM_ALL_CURVES
100
AcDbLine
 62
40
  6
CONTINUOUS
 10
317.7196737859
 20
204.6892950159
 11
317.7196737859
 21
204.9852287181
  0
LINE
  5
2F9
100
AcDbEntity
  8
03__ASM_ALL_CURVES
100
AcDbLine
 62
40
  6
CONTINUOUS
 10
318.0604798568
 20
206.6233716213
 11
318.0604798568
 21
207.5522554915
  0
LINE
  5
2FA
100
AcDbEntity
  8
03__ASM_ALL_CURVES
100
AcDbLine
 62
40
  6
CONTINUOUS
 10
318.0604798568
 20
221.727876012
 11
318.0604798568
 21
222.6565015001
  0
LINE
  5
2FB
100
AcDbEntity
  8
03__ASM_ALL_CURVES
100
AcDbLine
 62
40
  6
CONTINUOUS
 10
318.3755338389
 20
209.6493712408
 11
318.3755338389
 21
209.8562492246
  0
LINE
  5
2FC
100
AcDbEntity
  8
03__ASM_ALL_CURVES
100
AcDbLine
 62
40
  6
CONTINUOUS
 10
318.5663921288
 20
218.4882804725
 11
318.5663921288
 21
218.2114670502
  0
LINE
  5
2FD
100
AcDbEntity
  8
03__ASM_ALL_CURVES
100
AcDbLine
 62
40
  6
CONTINUOUS
 10
318.5663921288
 20
215.7521856381
 11
318.5663921288
 21
215.5070670943
  0
LINE
  5
2FE
100
AcDbEntity
  8
03__ASM_ALL_CURVES
100
AcDbLine
 62
40
  6
CONTINUOUS
 10
318.5663921288
 20
214.2377216628
 11
318.5663921288
 21
213.9960482145
  0
LINE
  5
2FF
100
AcDbEntity
  8
03__ASM_ALL_CURVES
100
AcDbLine
 62
40
  6
CONTINUOUS
 10
318.5663921288
 20
203.3527702224
 11
318.5663921288
 21
203.0758706727
  0
LINE
  5
300
100
AcDbEntity
  8
03__ASM_ALL_CURVES
100
AcDbLine
 62
40
  6
CONTINUOUS
 10
318.5663921288
 20
204.4349608417
 11
318.5663921288
 21
204.6892950159
  0
LINE
  5
301
100
AcDbEntity
  8
03__ASM_ALL_CURVES
100
AcDbLine
 62
40
  6
CONTINUOUS
 10
318.5663921288
 20
205.5700336767
 11
318.5663921288
 21
205.914284843
  0
LINE
  5
302
100
AcDbEntity
  8
03__ASM_ALL_CURVES
100
AcDbLine
 62
40
  6
CONTINUOUS
 10
318.5663921288
 20
205.9965364977
 11
318.5663921288
 21
206.4452601847
  0
LINE
  5
303
100
AcDbEntity
  8
03__ASM_ALL_CURVES
100
AcDbLine
 62
40
  6
CONTINUOUS
 10
318.5663921288
 20
207.886515881
 11
318.5663921288
 21
208.195540946
  0
LINE
  5
304
100
AcDbEntity
  8
03__ASM_ALL_CURVES
100
AcDbLine
 62
40
  6
CONTINUOUS
 10
318.5663921288
 20
208.3195643835
 11
318.5663921288
 21
208.7524406312
  0
LINE
  5
305
100
AcDbEntity
  8
03__ASM_ALL_CURVES
100
AcDbLine
 62
40
  6
CONTINUOUS
 10
318.5663921288
 20
210.7630844838
 11
318.5663921288
 21
211.0274955622
  0
LINE
  5
306
100
AcDbEntity
  8
03__ASM_ALL_CURVES
100
AcDbLine
 62
40
  6
CONTINUOUS
 10
318.5663921288
 20
216.8341178752
 11
318.5663921288
 21
217.1111035523
  0
LINE
  5
307
100
AcDbEntity
  8
03__ASM_ALL_CURVES
100
AcDbLine
 62
40
  6
CONTINUOUS
 10
318.5663921288
 20
219.0992681568
 11
318.5663921288
 21
219.3407693503
  0
LINE
  5
308
100
AcDbEntity
  8
03__ASM_ALL_CURVES
100
AcDbLine
 62
40
  6
CONTINUOUS
 10
318.5663921288
 20
220.610803801
 11
318.5663921288
 21
220.8560945995
  0
LINE
  5
309
100
AcDbEntity
  8
03__ASM_ALL_CURVES
100
AcDbLine
 62
40
  6
CONTINUOUS
 10
318.5663921288
 20
221.100696379
 11
318.5663921288
 21
221.5495923207
  0
LINE
  5
30A
100
AcDbEntity
  8
03__ASM_ALL_CURVES
100
AcDbLine
 62
40
  6
CONTINUOUS
 10
318.5663921288
 20
222.9906757622
 11
318.5663921288
 21
223.2995285724
  0
LINE
  5
30B
100
AcDbEntity
  8
03__ASM_ALL_CURVES
100
AcDbLine
 62
40
  6
CONTINUOUS
 10
319.8322924649
 20
224.1334139346
 11
319.8322924649
 21
201.3224031981
  0
LINE
  5
30C
100
AcDbEntity
  8
SB_10
100
AcDbLine
 62
7
  6
CONTINUOUS
 10
375.489771307
 20
205.7278963625
 11
369.589771307
 21
205.7278963625
  0
LINE
  5
30D
100
AcDbEntity
  8
03__ASM_ALL_CURVES
100
AcDbLine
 62
40
  6
CONTINUOUS
 10
318.3912090234
 20
213.8205205995
 11
316.2724752999
 21
213.8205205995
  0
LINE
  5
30E
100
AcDbEntity
  8
03__ASM_ALL_CURVES
100
AcDbLine
 62
40
  6
CONTINUOUS
 10
318.5663921288
 20
214.2377216628
 11
316.9723464478
 21
214.2377216628
  0
LINE
  5
30F
100
AcDbEntity
  8
03__ASM_ALL_CURVES
100
AcDbLine
 62
40
  6
CONTINUOUS
 10
317.8948568913
 20
215.3349845748
 11
316.2724752999
 21
215.3349845748
  0
LINE
  5
310
100
AcDbEntity
  8
03__ASM_ALL_CURVES
100
AcDbLine
 62
40
  6
CONTINUOUS
 10
318.5663921288
 20
215.7521856381
 11
316.2724752999
 21
215.7521856381
  0
LINE
  5
311
100
AcDbEntity
  8
03__ASM_ALL_CURVES
100
AcDbLine
 62
40
  6
CONTINUOUS
 10
316.2724752999
 20
216.0258984744
 11
316.5079475764
 21
216.0258984744
  0
LINE
  5
312
100
AcDbEntity
  8
03__ASM_ALL_CURVES
100
AcDbLine
 62
40
  6
CONTINUOUS
 10
316.6825277901
 20
216.6589347698
 11
318.3912090234
 21
216.6589347698
  0
LINE
  5
313
100
AcDbEntity
  8
03__ASM_ALL_CURVES
100
AcDbLine
 62
40
  6
CONTINUOUS
 10
318.5663921288
 20
217.1111035523
 11
316.6825277901
 21
217.1111035523
  0
LINE
  5
314
100
AcDbEntity
  8
03__ASM_ALL_CURVES
100
AcDbLine
 62
40
  6
CONTINUOUS
 10
316.6825277901
 20
217.7443121024
 11
316.2724752999
 21
217.7443121024
  0
LINE
  5
315
100
AcDbEntity
  8
03__ASM_ALL_CURVES
100
AcDbLine
 62
40
  6
CONTINUOUS
 10
318.3912090234
 20
218.0371452187
 11
316.2724752999
 21
218.0371452187
  0
LINE
  5
316
100
AcDbEntity
  8
03__ASM_ALL_CURVES
100
AcDbLine
 62
40
  6
CONTINUOUS
 10
318.5663921288
 20
218.4882804725
 11
316.2724752999
 21
218.4882804725
  0
LINE
  5
317
100
AcDbEntity
  8
03__ASM_ALL_CURVES
100
AcDbLine
 62
40
  6
CONTINUOUS
 10
316.2724752999
 20
218.9246018157
 11
318.3912090234
 21
218.9246018157
  0
LINE
  5
318
100
AcDbEntity
  8
03__ASM_ALL_CURVES
100
AcDbLine
 62
40
  6
CONTINUOUS
 10
318.5663921288
 20
219.3407693503
 11
316.9723464478
 21
219.3407693503
  0
LINE
  5
319
100
AcDbEntity
  8
SB_10
100
AcDbLine
 62
7
  6
CONTINUOUS
 10
375.489771307
 20
219.7278963625
 11
365.489771307
 21
219.7278963625
  0
LINE
  5
31A
100
AcDbEntity
  8
03__ASM_ALL_CURVES
100
AcDbLine
 62
40
  6
CONTINUOUS
 10
316.2724752999
 20
220.4388935362
 11
317.8948568913
 21
220.4388935362
  0
LINE
  5
31B
100
AcDbEntity
  8
03__ASM_ALL_CURVES
100
AcDbLine
 62
40
  6
CONTINUOUS
 10
318.5663921288
 20
220.8560945995
 11
316.2724752999
 21
220.8560945995
  0
LINE
  5
31C
100
AcDbEntity
  8
70188A-01-01_2
100
AcDbLine
 62
7
  6
CONTINUOUS
 10
328.4897736617
 20
261.7278972437
 11
327.9897743791
 21
262.2278963645
  0
LINE
  5
31D
100
AcDbEntity
  8
70201_ASM_12
100
AcDbLine
 62
7
  6
CONTINUOUS
 10
328.489771307
 20
412.2278963645
 11
328.489771307
 21
262.2278963645
  0
LINE
  5
31E
100
AcDbEntity
  8
70188A-01-01_2
100
AcDbLine
 62
7
  6
CONTINUOUS
 10
328.489771307
 20
261.7278948891
 11
328.489771307
 21
258.2278963625
  0
LINE
  5
31F
100
AcDbEntity
  8
JSG_3
100
AcDbLine
 62
7
  6
CONTINUOUS
 10
328.739771307
 20
155.2778963625
 11
328.739771307
 21
155.1778963625
  0
LINE
  5
320
100
AcDbEntity
  8
JSG_3
100
AcDbLine
 62
7
  6
CONTINUOUS
 10
328.739771307
 20
153.6778963625
 11
328.739771307
 21
153.5778963625
  0
LINE
  5
321
100
AcDbEntity
  8
JSG_3
100
AcDbLine
 62
7
  6
CONTINUOUS
 10
328.739771307
 20
152.0778963625
 11
328.739771307
 21
151.9778963625
  0
LINE
  5
322
100
AcDbEntity
  8
JSG_3
100
AcDbLine
 62
7
  6
CONTINUOUS
 10
328.739771307
 20
150.4778963625
 11
328.739771307
 21
150.3778963625
  0
LINE
  5
323
100
AcDbEntity
  8
JSG_3
100
AcDbLine
 62
7
  6
CONTINUOUS
 10
328.739771307
 20
148.8778963625
 11
328.739771307
 21
148.7778963625
  0
LINE
  5
324
100
AcDbEntity
  8
JSG_3
100
AcDbLine
 62
7
  6
CONTINUOUS
 10
328.739771307
 20
147.2778963625
 11
328.739771307
 21
147.1778963625
  0
LINE
  5
325
100
AcDbEntity
  8
JSG_3
100
AcDbLine
 62
7
  6
CONTINUOUS
 10
328.739771307
 20
145.6778963625
 11
328.739771307
 21
145.5778963625
  0
LINE
  5
326
100
AcDbEntity
  8
JSG_3
100
AcDbLine
 62
7
  6
CONTINUOUS
 10
328.739771307
 20
144.0778963625
 11
328.739771307
 21
143.9778963625
  0
LINE
  5
327
100
AcDbEntity
  8
JSG_3
100
AcDbLine
 62
7
  6
CONTINUOUS
 10
328.739771307
 20
142.4778963625
 11
328.739771307
 21
142.3778963625
  0
LINE
  5
328
100
AcDbEntity
  8
JSG_3
100
AcDbLine
 62
7
  6
CONTINUOUS
 10
328.739771307
 20
140.8778963625
 11
328.739771307
 21
140.7778963625
  0
LINE
  5
329
100
AcDbEntity
  8
JSG_3
100
AcDbLine
 62
7
  6
CONTINUOUS
 10
328.739771307
 20
139.2778963625
 11
328.739771307
 21
139.1778963625
  0
LINE
  5
32A
100
AcDbEntity
  8
JSG_3
100
AcDbLine
 62
7
  6
CONTINUOUS
 10
328.739771307
 20
137.6778963625
 11
328.739771307
 21
137.5778963625
  0
LINE
  5
32B
100
AcDbEntity
  8
JSG_3
100
AcDbLine
 62
7
  6
CONTINUOUS
 10
328.739771307
 20
136.0778963625
 11
328.739771307
 21
135.9778963625
  0
LINE
  5
32C
100
AcDbEntity
  8
JSG_3
100
AcDbLine
 62
7
  6
CONTINUOUS
 10
328.739771307
 20
134.4778963625
 11
328.739771307
 21
134.3778963625
  0
LINE
  5
32D
100
AcDbEntity
  8
JSG_3
100
AcDbLine
 62
7
  6
CONTINUOUS
 10
328.739771307
 20
132.8778963625
 11
328.739771307
 21
132.7778963625
  0
LINE
  5
32E
100
AcDbEntity
  8
JSG_3
100
AcDbLine
 62
7
  6
CONTINUOUS
 10
328.739771307
 20
129.6778963625
 11
328.739771307
 21
129.5778963625
  0
LINE
  5
32F
100
AcDbEntity
  8
JSG_3
100
AcDbLine
 62
7
  6
CONTINUOUS
 10
328.739771307
 20
116.8778963625
 11
328.739771307
 21
116.7778963625
  0
LINE
  5
330
100
AcDbEntity
  8
JSG_3
100
AcDbLine
 62
7
  6
CONTINUOUS
 10
328.739771307
 20
115.2778963625
 11
328.739771307
 21
115.1778963625
  0
LINE
  5
331
100
AcDbEntity
  8
JSG_3
100
AcDbLine
 62
7
  6
CONTINUOUS
 10
328.739771307
 20
113.6778963625
 11
328.739771307
 21
113.5778963625
  0
LINE
  5
332
100
AcDbEntity
  8
JSG_3
100
AcDbLine
 62
7
  6
CONTINUOUS
 10
328.739771307
 20
112.0778963625
 11
328.739771307
 21
111.9778963625
  0
LINE
  5
333
100
AcDbEntity
  8
JSG_3
100
AcDbLine
 62
7
  6
CONTINUOUS
 10
328.739771307
 20
110.4778963625
 11
328.739771307
 21
110.3778963625
  0
LINE
  5
334
100
AcDbEntity
  8
JSG_3
100
AcDbLine
 62
7
  6
CONTINUOUS
 10
328.739771307
 20
108.7778963689
 11
328.739771307
 21
108.8778963416
  0
LINE
  5
335
100
AcDbEntity
  8
PD15-10_1
100
AcDbLine
 62
7
  6
CONTINUOUS
 10
331.1388819477
 20
128.7278963625
 11
331.1388819477
 21
129.5278963625
  0
LINE
  5
336
100
AcDbEntity
  8
ZT3_8
100
AcDbLine
 62
7
  6
CONTINUOUS
 10
333.739771307
 20
258.2278963625
 11
333.739771307
 21
228.9778963625
  0
LINE
  5
337
100
AcDbEntity
  8
ZT3_8
100
AcDbLine
 62
7
  6
CONTINUOUS
 10
333.739771307
 20
196.4778963624
 11
333.739771307
 21
164.7278963625
  0
LINE
  5
338
100
AcDbEntity
  8
70538-16_2
100
AcDbLine
 62
7
  6
CONTINUOUS
 10
333.923528037
 20
124.2278963601
 11
333.923528037
 21
120.1565175567
  0
LINE
  5
339
100
AcDbEntity
  8
72101-05_4
100
AcDbLine
 62
7
  6
CONTINUOUS
 10
335.989771307
 20
131.7278963625
 11
335.989771307
 21
129.7278963625
  0
LINE
  5
33A
100
AcDbEntity
  8
03__ASM_ALL_CURVES
100
AcDbLine
 62
40
  6
CONTINUOUS
 10
318.5663921288
 20
211.0274955622
 11
316.2724752999
 21
210.6708420521
  0
LINE
  5
33B
100
AcDbEntity
  8
03__ASM_ALL_CURVES
100
AcDbLine
 62
40
  6
CONTINUOUS
 10
317.01644367
 20
210.3714632545
 11
318.3979269596
 21
210.5561203725
  0
LINE
  5
33C
100
AcDbEntity
  8
03__ASM_ALL_CURVES
100
AcDbLine
 62
40
  6
CONTINUOUS
 10
318.7380440114
 20
225.2277485155
 11
315.839771307
 21
225.2277485155
  0
LINE
  5
33D
100
AcDbEntity
  8
102421-03_5
100
AcDbLine
 62
7
  6
CONTINUOUS
 10
365.489771307
 20
227.7778963625
 11
345.489771307
 21
227.7778963625
  0
LINE
  5
33E
100
AcDbEntity
  8
ZT3_8
100
AcDbLine
 62
7
  6
CONTINUOUS
 10
345.489771307
 20
227.9778963625
 11
334.7397713071
 21
227.9778963625
  0
LINE
  5
33F
100
AcDbEntity
  8
DZ_1
100
AcDbLine
 62
7
  6
CONTINUOUS
 10
339.739771307
 20
164.7278963625
 11
339.739771307
 21
156.7278963625
  0
LINE
  5
340
100
AcDbEntity
  8
PD15-10_1
100
AcDbLine
 62
7
  6
CONTINUOUS
 10
340.489771307
 20
129.5278963625
 11
340.489771307
 21
128.7278963625
  0
LINE
  5
341
100
AcDbEntity
  8
ZT3_8
100
AcDbLine
 62
7
  6
CONTINUOUS
 10
345.489771307
 20
197.4778963625
 11
345.489771307
 21
227.9778963625
  0
LINE
  5
342
100
AcDbEntity
  8
102421-03_5
100
AcDbLine
 62
7
  6
CONTINUOUS
 10
365.489771307
 20
197.678026368
 11
365.489771307
 21
227.777766357
  0
LINE
  5
343
100
AcDbEntity
  8
ZT3_8
100
AcDbLine
 62
7
  6
CONTINUOUS
 10
333.739771307
 20
258.2278963625
 11
303.239771307
 21
258.2278963625
  0
LINE
  5
344
100
AcDbEntity
  8
70188A-01-01_2
100
AcDbLine
 62
7
  6
CONTINUOUS
 10
328.489771307
 20
261.7278948891
 11
308.489771307
 21
261.7278948891
  0
LINE
  5
345
100
AcDbEntity
  8
70201_ASM_12
100
AcDbLine
 62
7
  6
CONTINUOUS
 10
308.489771307
 20
262.2278963645
 11
328.489771307
 21
262.2278963645
  0
LINE
  5
346
100
AcDbEntity
  8
SB_10
100
AcDbLine
 62
7
  6
CONTINUOUS
 10
389.989771307
 20
267.7278963625
 11
376.989771307
 21
267.7278963625
  0
LINE
  5
347
100
AcDbEntity
  8
SB_10
100
AcDbLine
 62
7
  6
CONTINUOUS
 10
376.489771307
 20
267.2278963625
 11
376.489771307
 21
220.7278963626
  0
LINE
  5
348
100
AcDbEntity
  8
SB_10
100
AcDbLine
 62
7
  6
CONTINUOUS
 10
376.489771307
 20
204.7278963624
 11
376.489771307
 21
196.2278963625
  0
LINE
  5
349
100
AcDbEntity
  8
70188A-01-01_2
100
AcDbLine
 62
7
  6
CONTINUOUS
 10
308.9897682349
 20
262.2278963645
 11
308.4897689524
 21
261.7278972437
  0
LINE
  5
34A
100
AcDbEntity
  8
SB_10
100
AcDbLine
 62
7
  6
CONTINUOUS
 10
390.489771307
 20
267.2278963625
 11
390.489771307
 21
196.2278963625
  0
LINE
  5
34B
100
AcDbEntity
  8
70201_ASM_12
100
AcDbLine
 62
7
  6
CONTINUOUS
 10
508.2217888735
 20
423.9928960752
 11
507.7910313498
 21
423.4321383003
  0
LINE
  5
34C
100
AcDbEntity
  8
JSG_3
100
AcDbLine
 62
7
  6
CONTINUOUS
 10
308.239771307
 20
141.6778963625
 11
308.2490791451
 21
141.6887493785
  0
LINE
  5
34D
100
AcDbEntity
  8
JSG_3
100
AcDbLine
 62
7
  6
CONTINUOUS
 10
308.239771307
 20
148.0778963625
 11
308.2492098667
 21
148.0888253356
  0
LINE
  5
34E
100
AcDbEntity
  8
JSG_3
100
AcDbLine
 62
7
  6
CONTINUOUS
 10
308.239771307
 20
156.0778963625
 11
308.249246097
 21
156.0888462878
  0
LINE
  5
34F
100
AcDbEntity
  8
JSG_3
100
AcDbLine
 62
7
  6
CONTINUOUS
 10
308.239771307
 20
149.6778963625
 11
308.2493469378
 21
149.6889044225
  0
LINE
  5
350
100
AcDbEntity
  8
JSG_3
100
AcDbLine
 62
7
  6
CONTINUOUS
 10
308.239771307
 20
154.4778963625
 11
308.2493767437
 21
154.4889215413
  0
LINE
  5
351
100
AcDbEntity
  8
JSG_3
100
AcDbLine
 62
7
  6
CONTINUOUS
 10
308.239771307
 20
146.4778963625
 11
308.2494026635
 21
146.4889364091
  0
LINE
  5
352
100
AcDbEntity
  8
JSG_3
100
AcDbLine
 62
7
  6
CONTINUOUS
 10
308.239771307
 20
143.2778963625
 11
308.2494259876
 21
143.2889497782
  0
LINE
  5
353
100
AcDbEntity
  8
JSG_3
100
AcDbLine
 62
7
  6
CONTINUOUS
 10
308.239771307
 20
151.2778963625
 11
308.2494403833
 21
151.2889580097
  0
LINE
  5
354
100
AcDbEntity
  8
JSG_3
100
AcDbLine
 62
7
  6
CONTINUOUS
 10
308.239771307
 20
152.8778963625
 11
308.249462716
 21
152.8889707789
  0
LINE
  5
355
100
AcDbEntity
  8
JSG_3
100
AcDbLine
 62
7
  6
CONTINUOUS
 10
308.239771307
 20
144.8778963625
 11
308.2494657168
 21
144.8889724935
  0
LINE
  5
356
100
AcDbEntity
  8
03__ASM_ALL_CURVES
100
AcDbLine
 62
40
  6
CONTINUOUS
 10
316.9723464478
 20
219.3407693503
 11
318.4073148448
 21
220.3374354742
  0
LINE
  5
357
100
AcDbEntity
  8
03__ASM_ALL_CURVES
100
AcDbLine
 62
40
  6
CONTINUOUS
 10
318.4073148448
 20
215.2336987676
 11
316.9723464478
 21
214.2377216628
  0
LINE
  5
358
100
AcDbEntity
  8
03__ASM_ALL_CURVES
100
AcDbLine
 62
40
  6
CONTINUOUS
 10
317.8948568913
 20
220.4388935362
 11
316.2724752999
 21
219.3316398473
  0
LINE
  5
359
100
AcDbEntity
  8
03__ASM_ALL_CURVES
100
AcDbLine
 62
40
  6
CONTINUOUS
 10
317.8948568913
 20
215.3349845748
 11
316.2724752999
 21
214.2282476502
  0
LINE
  5
35A
100
AcDbEntity
  8
70201_ASM_12
100
AcDbLine
 62
7
  6
CONTINUOUS
 10
530.0263106305
 20
407.6891304814
 11
529.5955536336
 21
407.1283734844
  0
LINE
  5
35B
100
AcDbEntity
  8
JSG_3
100
AcDbLine
 62
7
  6
CONTINUOUS
 10
308.239771307
 20
135.2778963625
 11
308.2490322722
 21
135.2887220127
  0
LINE
  5
35C
100
AcDbEntity
  8
JSG_3
100
AcDbLine
 62
7
  6
CONTINUOUS
 10
328.739771307
 20
148.7778963625
 11
328.730505075
 21
148.7670676338
  0
LINE
  5
35D
100
AcDbEntity
  8
JSG_3
100
AcDbLine
 62
7
  6
CONTINUOUS
 10
328.739771307
 20
142.3778963625
 11
328.7305011359
 21
142.3670653321
  0
LINE
  5
35E
100
AcDbEntity
  8
JSG_3
100
AcDbLine
 62
7
  6
CONTINUOUS
 10
328.739771307
 20
140.7778963625
 11
328.7304974878
 21
140.7670632008
  0
LINE
  5
35F
100
AcDbEntity
  8
JSG_3
100
AcDbLine
 62
7
  6
CONTINUOUS
 10
328.739771307
 20
150.3778963625
 11
328.7304905171
 21
150.3670591295
  0
LINE
  5
360
100
AcDbEntity
  8
JSG_3
100
AcDbLine
 62
7
  6
CONTINUOUS
 10
328.739771307
 20
155.1778963625
 11
328.7304539804
 21
155.1670378152
  0
LINE
  5
361
100
AcDbEntity
  8
JSG_3
100
AcDbLine
 62
7
  6
CONTINUOUS
 10
308.239771307
 20
133.6778963625
 11
308.2491012466
 21
133.6887622581
  0
LINE
  5
362
100
AcDbEntity
  8
JSG_3
100
AcDbLine
 62
7
  6
CONTINUOUS
 10
328.739771307
 20
147.1778963625
 11
328.7304363782
 21
147.1670275615
  0
LINE
  5
363
100
AcDbEntity
  8
JSG_3
100
AcDbLine
 62
7
  6
CONTINUOUS
 10
328.739771307
 20
143.9778963625
 11
328.7303940324
 21
143.9670029338
  0
LINE
  5
364
100
AcDbEntity
  8
JSG_3
100
AcDbLine
 62
7
  6
CONTINUOUS
 10
328.739771307
 20
153.5778963625
 11
328.7303440266
 21
153.5669739225
  0
LINE
  5
365
100
AcDbEntity
  8
JSG_3
100
AcDbLine
 62
7
  6
CONTINUOUS
 10
328.739771307
 20
145.5778963625
 11
328.7303204278
 21
145.5669602582
  0
LINE
  5
366
100
AcDbEntity
  8
JSG_3
100
AcDbLine
 62
7
  6
CONTINUOUS
 10
308.239771307
 20
140.0778963625
 11
308.2492536801
 21
140.088850676
  0
LINE
  5
367
100
AcDbEntity
  8
JSG_3
100
AcDbLine
 62
7
  6
CONTINUOUS
 10
308.239771307
 20
132.0778963625
 11
308.2492967513
 21
132.0888755303
  0
LINE
  5
368
100
AcDbEntity
  8
JSG_3
100
AcDbLine
 62
7
  6
CONTINUOUS
 10
328.739771307
 20
151.9778963625
 11
328.7302179196
 21
151.9669011002
  0
LINE
  5
369
100
AcDbEntity
  8
JSG_3
100
AcDbLine
 62
7
  6
CONTINUOUS
 10
308.239771307
 20
138.4778963625
 11
308.2494238333
 21
138.4889485373
  0
LINE
  5
36A
100
AcDbEntity
  8
JSG_3
100
AcDbLine
 62
7
  6
CONTINUOUS
 10
308.239771307
 20
136.8778963625
 11
308.2490651163
 21
136.8884888642
  0
LINE
  5
36B
100
AcDbEntity
  8
03__ASM_ALL_CURVES
100
AcDbLine
 62
40
  6
CONTINUOUS
 10
318.5663921288
 20
205.914284843
 11
317.6373360038
 21
205.3888216541
  0
LINE
  5
36C
100
AcDbEntity
  8
JSG_3
100
AcDbLine
 62
7
  6
CONTINUOUS
 10
308.239771307
 20
112.8778963625
 11
308.2490357303
 21
112.8887240285
  0
LINE
  5
36D
100
AcDbEntity
  8
JSG_3
100
AcDbLine
 62
7
  6
CONTINUOUS
 10
328.739771307
 20
134.3778963625
 11
328.730507894
 21
134.3670692814
  0
LINE
  5
36E
100
AcDbEntity
  8
JSG_3
100
AcDbLine
 62
7
  6
CONTINUOUS
 10
328.739771307
 20
132.7778963625
 11
328.7304870932
 21
132.7670571321
  0
LINE
  5
36F
100
AcDbEntity
  8
JSG_3
100
AcDbLine
 62
7
  6
CONTINUOUS
 10
308.239771307
 20
114.4778963625
 11
308.2491001695
 21
114.4887616307
  0
LINE
  5
370
100
AcDbEntity
  8
JSG_3
100
AcDbLine
 62
7
  6
CONTINUOUS
 10
328.739771307
 20
135.9778963625
 11
328.7304240458
 21
135.9670203834
  0
LINE
  5
371
100
AcDbEntity
  8
JSG_3
100
AcDbLine
 62
7
  6
CONTINUOUS
 10
328.739771307
 20
139.1778963625
 11
328.730417108
 21
139.1670163483
  0
LINE
  5
372
100
AcDbEntity
  8
JSG_3
100
AcDbLine
 62
7
  6
CONTINUOUS
 10
308.239771307
 20
116.0778963625
 11
308.2492142708
 21
116.0888278855
  0
LINE
  5
373
100
AcDbEntity
  8
JSG_3
100
AcDbLine
 62
7
  6
CONTINUOUS
 10
328.739771307
 20
129.5778963625
 11
328.7302596072
 21
129.5669251198
  0
LINE
  5
374
100
AcDbEntity
  8
JSG_3
100
AcDbLine
 62
7
  6
CONTINUOUS
 10
308.239771307
 20
109.6778963625
 11
308.2493170869
 21
109.6888872454
  0
LINE
  5
375
100
AcDbEntity
  8
JSG_3
100
AcDbLine
 62
7
  6
CONTINUOUS
 10
328.739771307
 20
137.5778963625
 11
328.7302201324
 21
137.5669023738
  0
LINE
  5
376
100
AcDbEntity
  8
JSG_3
100
AcDbLine
 62
7
  6
CONTINUOUS
 10
308.239771307
 20
117.6778963625
 11
308.2493396177
 21
117.6889002106
  0
LINE
  5
377
100
AcDbEntity
  8
JSG_3
100
AcDbLine
 62
7
  6
CONTINUOUS
 10
308.239771307
 20
111.2778963625
 11
308.2494221525
 21
111.2889475749
  0
LINE
  5
378
100
AcDbEntity
  8
03__ASM_ALL_CURVES
100
AcDbLine
 62
40
  6
CONTINUOUS
 10
317.7196737859
 20
204.9852287181
 11
318.4358230099
 21
205.350753349
  0
LINE
  5
379
100
AcDbEntity
  8
03__ASM_ALL_CURVES
100
AcDbLine
 62
40
  6
CONTINUOUS
 10
318.5663921288
 20
208.195540946
 11
316.2724752999
 21
207.3105820432
  0
LINE
  5
37A
100
AcDbEntity
  8
03__ASM_ALL_CURVES
100
AcDbLine
 62
40
  6
CONTINUOUS
 10
318.5663921288
 20
223.2995285724
 11
316.2724752999
 21
222.4153448161
  0
LINE
  5
37B
100
AcDbEntity
  8
03__ASM_ALL_CURVES
100
AcDbLine
 62
40
  6
CONTINUOUS
 10
316.9915528551
 20
208.9589741055
 11
318.2097386187
 21
209.426731945
  0
LINE
  5
37C
100
AcDbEntity
  8
03__ASM_ALL_CURVES
100
AcDbLine
 62
40
  6
CONTINUOUS
 10
317.8312087523
 20
209.6749510747
 11
316.2724752999
 21
209.0801553392
  0
LINE
  5
37D
100
AcDbEntity
  8
03__ASM_ALL_CURVES
100
AcDbLine
 62
40
  6
CONTINUOUS
 10
318.0604798568
 20
222.6565015001
 11
318.4102431759
 21
222.7843145426
  0
LINE
  5
37E
100
AcDbEntity
  8
03__ASM_ALL_CURVES
100
AcDbLine
 62
40
  6
CONTINUOUS
 10
316.7654684639
 20
222.1921026287
 11
317.6597291245
 21
222.5131855279
  0
LINE
  5
37F
100
AcDbEntity
  8
JSG_3
100
AcDbLine
 62
7
  6
CONTINUOUS
 10
328.739771307
 20
113.5778963625
 11
328.7303124822
 21
113.5669556613
  0
LINE
  5
380
100
AcDbEntity
  8
JSG_3
100
AcDbLine
 62
7
  6
CONTINUOUS
 10
328.739771307
 20
111.9778963625
 11
328.7301885192
 21
111.9668841917
  0
LINE
  5
381
100
AcDbEntity
  8
JSG_3
100
AcDbLine
 62
7
  6
CONTINUOUS
 10
328.739771307
 20
115.1778963625
 11
328.7301480516
 21
115.1668609606
  0
LINE
  5
382
100
AcDbEntity
  8
JSG_3
100
AcDbLine
 62
7
  6
CONTINUOUS
 10
328.739771307
 20
110.3778963625
 11
328.7300983443
 21
110.3668324921
  0
LINE
  5
383
100
AcDbEntity
  8
JSG_3
100
AcDbLine
 62
7
  6
CONTINUOUS
 10
328.739771307
 20
108.7778963689
 11
328.7300817352
 21
108.7668230055
  0
LINE
  5
384
100
AcDbEntity
  8
JSG_3
100
AcDbLine
 62
7
  6
CONTINUOUS
 10
328.739771307
 20
116.7778963625
 11
328.7300774855
 21
116.7668205676
  0
LINE
  5
385
100
AcDbEntity
  8
70538-16_2
100
AcDbLine
 62
7
  6
CONTINUOUS
 10
331.489771307
 20
117.7278963625
 11
333.9184116067
 21
120.1565366622
  0
LINE
  5
386
100
AcDbEntity
  8
03__ASM_ALL_CURVES
100
AcDbLine
 62
40
  6
CONTINUOUS
 10
318.0604798568
 20
207.5522554915
 11
318.4102431759
 21
207.6796378971
  0
LINE
  5
387
100
AcDbEntity
  8
03__ASM_ALL_CURVES
100
AcDbLine
 62
40
  6
CONTINUOUS
 10
316.7654684639
 20
207.0878566201
 11
317.6597291245
 21
207.4093701562
  0
LINE
  5
388
100
AcDbEntity
  8
70201_ASM_12
100
AcDbLine
 62
7
  6
CONTINUOUS
 10
510.7567877504
 20
404.6583734844
 11
529.5955536336
 21
407.1283734844
  0
LINE
  5
389
100
AcDbEntity
  8
70201_ASM_12
100
AcDbLine
 62
7
  6
CONTINUOUS
 10
510.1960307535
 20
405.0891304814
 11
530.0263106305
 21
407.6891304814
  0
LINE
  5
38A
100
AcDbEntity
  8
JSG_3
100
AcDbLine
 62
7
  6
CONTINUOUS
 10
328.137491572
 20
107.6256227297
 11
327.7397654563
 21
107.2278963625
  0
LINE
  5
38B
100
AcDbEntity
  8
JSG_3
100
AcDbLine
 62
7
  6
CONTINUOUS
 10
309.5502180641
 20
152.0405483472
 11
309.5284273329
 21
152.0279516559
  0
LINE
  5
38C
100
AcDbEntity
  8
JSG_3
100
AcDbLine
 62
7
  6
CONTINUOUS
 10
309.5284273329
 20
152.0279516559
 11
308.24944066
 21
151.2887015151
  0
LINE
  5
38D
100
AcDbEntity
  8
JSG_3
100
AcDbLine
 62
7
  6
CONTINUOUS
 10
309.5502795642
 20
150.4405000945
 11
309.5284584173
 21
150.4278857345
  0
LINE
  5
38E
100
AcDbEntity
  8
JSG_3
100
AcDbLine
 62
7
  6
CONTINUOUS
 10
309.5284584173
 20
150.4278857345
 11
308.2493473087
 21
149.6885589174
  0
LINE
  5
38F
100
AcDbEntity
  8
JSG_3
100
AcDbLine
 62
7
  6
CONTINUOUS
 10
309.5500789717
 20
145.6405567883
 11
309.5283437409
 21
145.6279923751
  0
LINE
  5
390
100
AcDbEntity
  8
JSG_3
100
AcDbLine
 62
7
  6
CONTINUOUS
 10
309.5283437409
 20
145.6279923751
 11
308.2494658857
 21
144.888816193
  0
LINE
  5
391
100
AcDbEntity
  8
JSG_3
100
AcDbLine
 62
7
  6
CONTINUOUS
 10
309.5502354551
 20
144.0405412304
 11
309.5284361284
 21
144.0279395459
  0
LINE
  5
392
100
AcDbEntity
  8
JSG_3
100
AcDbLine
 62
7
  6
CONTINUOUS
 10
309.5284361284
 20
144.0279395459
 11
308.2494262842
 21
143.2886746531
  0
LINE
  5
393
100
AcDbEntity
  8
JSG_3
100
AcDbLine
 62
7
  6
CONTINUOUS
 10
327.4293595449
 20
152.8153756398
 11
327.4511617763
 21
152.8279789412
  0
LINE
  5
394
100
AcDbEntity
  8
JSG_3
100
AcDbLine
 62
7
  6
CONTINUOUS
 10
327.4511617763
 20
152.8279789412
 11
328.7303436381
 21
153.5673385739
  0
LINE
  5
395
100
AcDbEntity
  8
JSG_3
100
AcDbLine
 62
7
  6
CONTINUOUS
 10
309.3555360308
 20
156.7278963625
 11
308.2492464921
 21
156.0884763431
  0
LINE
  5
396
100
AcDbEntity
  8
JSG_3
100
AcDbLine
 62
7
  6
CONTINUOUS
 10
309.5497865874
 20
155.2404946854
 11
308.2493767719
 21
154.4888952787
  0
LINE
  5
397
100
AcDbEntity
  8
JSG_3
100
AcDbLine
 62
7
  6
CONTINUOUS
 10
309.5500378612
 20
153.6405534893
 11
308.2494628591
 21
152.8888382426
  0
LINE
  5
398
100
AcDbEntity
  8
JSG_3
100
AcDbLine
 62
7
  6
CONTINUOUS
 10
309.5495992742
 20
148.8403956301
 11
308.2492098686
 21
148.08882352
  0
LINE
  5
399
100
AcDbEntity
  8
JSG_3
100
AcDbLine
 62
7
  6
CONTINUOUS
 10
309.5498358194
 20
147.240511489
 11
308.2494027085
 21
146.4888946364
  0
LINE
  5
39A
100
AcDbEntity
  8
JSG_3
100
AcDbLine
 62
7
  6
CONTINUOUS
 10
327.4297846198
 20
156.0154786083
 11
328.662400507
 21
156.7278963625
  0
LINE
  5
39B
100
AcDbEntity
  8
JSG_3
100
AcDbLine
 62
7
  6
CONTINUOUS
 10
327.4295526865
 20
154.41544112
 11
328.7304536604
 21
155.167339951
  0
LINE
  5
39C
100
AcDbEntity
  8
JSG_3
100
AcDbLine
 62
7
  6
CONTINUOUS
 10
309.5495811965
 20
142.4403299759
 11
308.2490792027
 21
141.6886949823
  0
LINE
  5
39D
100
AcDbEntity
  8
70201_ASM_12
100
AcDbLine
 62
7
  6
CONTINUOUS
 10
527.8163106305
 20
424.5448683768
 11
507.9860307535
 21
421.9448683768
  0
LINE
  5
39E
100
AcDbEntity
  8
70201_ASM_12
100
AcDbLine
 62
7
  6
CONTINUOUS
 10
527.6213107193
 20
426.0321386902
 11
507.7910308423
 21
423.4321386902
  0
LINE
  5
39F
100
AcDbEntity
  8
70201_ASM_12
100
AcDbLine
 62
7
  6
CONTINUOUS
 10
507.7260307535
 20
423.9278963645
 11
527.5563106305
 21
426.5278963645
  0
LINE
  5
3A0
100
AcDbEntity
  8
JSG_3
100
AcDbLine
 62
7
  6
CONTINUOUS
 10
327.4292664609
 20
151.215304723
 11
327.4510885859
 21
151.2279196557
  0
LINE
  5
3A1
100
AcDbEntity
  8
JSG_3
100
AcDbLine
 62
7
  6
CONTINUOUS
 10
327.4510885859
 20
151.2279196557
 11
328.7302175385
 21
151.9672564563
  0
LINE
  5
3A2
100
AcDbEntity
  8
JSG_3
100
AcDbLine
 62
7
  6
CONTINUOUS
 10
327.4293330937
 20
144.8153620816
 11
327.4511422745
 21
144.8279694375
  0
LINE
  5
3A3
100
AcDbEntity
  8
JSG_3
100
AcDbLine
 62
7
  6
CONTINUOUS
 10
327.4511422745
 20
144.8279694375
 11
328.7303200346
 21
145.5673288783
  0
LINE
  5
3A4
100
AcDbEntity
  8
JSG_3
100
AcDbLine
 62
7
  6
CONTINUOUS
 10
309.549874593
 20
129.640327835
 11
309.3553721845
 21
129.5278963625
  0
LINE
  5
3A5
100
AcDbEntity
  8
JSG_3
100
AcDbLine
 62
7
  6
CONTINUOUS
 10
327.4294718741
 20
138.4154186189
 11
327.4512403167
 21
138.4280022298
  0
LINE
  5
3A6
100
AcDbEntity
  8
JSG_3
100
AcDbLine
 62
7
  6
CONTINUOUS
 10
327.4512403167
 20
138.4280022298
 11
328.7304167545
 21
139.1673495277
  0
LINE
  5
3A7
100
AcDbEntity
  8
JSG_3
100
AcDbLine
 62
7
  6
CONTINUOUS
 10
309.5496306459
 20
140.8404183703
 11
308.2492536801
 21
140.0888506414
  0
LINE
  5
3A8
100
AcDbEntity
  8
JSG_3
100
AcDbLine
 62
7
  6
CONTINUOUS
 10
327.4299287983
 20
149.6154751128
 11
328.7304904241
 21
150.3671470887
  0
LINE
  5
3A9
100
AcDbEntity
  8
JSG_3
100
AcDbLine
 62
7
  6
CONTINUOUS
 10
309.5498846958
 20
139.2405254872
 11
308.2494238978
 21
138.4888886736
  0
LINE
  5
3AA
100
AcDbEntity
  8
JSG_3
100
AcDbLine
 62
7
  6
CONTINUOUS
 10
327.4297400713
 20
148.0154750529
 11
328.730504851
 21
148.7672797264
  0
LINE
  5
3AB
100
AcDbEntity
  8
JSG_3
100
AcDbLine
 62
7
  6
CONTINUOUS
 10
309.5499162808
 20
137.6403364892
 11
308.2490651332
 21
136.8884725444
  0
LINE
  5
3AC
100
AcDbEntity
  8
JSG_3
100
AcDbLine
 62
7
  6
CONTINUOUS
 10
327.4295113471
 20
146.4154302825
 11
328.7304360404
 21
147.1673462476
  0
LINE
  5
3AD
100
AcDbEntity
  8
JSG_3
100
AcDbLine
 62
7
  6
CONTINUOUS
 10
309.5496963266
 20
136.040310783
 11
308.2490324294
 21
135.2885730801
  0
LINE
  5
3AE
100
AcDbEntity
  8
JSG_3
100
AcDbLine
 62
7
  6
CONTINUOUS
 10
309.5495707727
 20
134.4403406492
 11
308.2491012859
 21
133.688725176
  0
LINE
  5
3AF
100
AcDbEntity
  8
JSG_3
100
AcDbLine
 62
7
  6
CONTINUOUS
 10
327.4299709713
 20
143.2154284588
 11
328.730394017
 21
143.9670174181
  0
LINE
  5
3B0
100
AcDbEntity
  8
JSG_3
100
AcDbLine
 62
7
  6
CONTINUOUS
 10
309.549673889
 20
132.8404438931
 11
308.2492967546
 21
132.0888724581
  0
LINE
  5
3B1
100
AcDbEntity
  8
JSG_3
100
AcDbLine
 62
7
  6
CONTINUOUS
 10
327.4299016225
 20
141.6154794274
 11
328.7305010197
 21
142.367175393
  0
LINE
  5
3B2
100
AcDbEntity
  8
JSG_3
100
AcDbLine
 62
7
  6
CONTINUOUS
 10
327.42969708
 20
140.0154694406
 11
328.7304972396
 21
140.7672980915
  0
LINE
  5
3B3
100
AcDbEntity
  8
JSG_3
100
AcDbLine
 62
7
  6
CONTINUOUS
 10
327.4298371676
 20
136.8153326077
 11
328.7302201243
 21
137.5669099456
  0
LINE
  5
3B4
100
AcDbEntity
  8
JSG_3
100
AcDbLine
 62
7
  6
CONTINUOUS
 10
327.4299744099
 20
135.2154435254
 11
328.7304240171
 21
135.9670473926
  0
LINE
  5
3B5
100
AcDbEntity
  8
70201_ASM_12
100
AcDbLine
 62
7
  6
CONTINUOUS
 10
510.1960307535
 20
405.0891304814
 11
507.7910308423
 21
423.4321386902
  0
LINE
  5
3B6
100
AcDbEntity
  8
JSG_3
100
AcDbLine
 62
7
  6
CONTINUOUS
 10
309.550201125
 20
116.8404261125
 11
309.5283940949
 21
116.827820024
  0
LINE
  5
3B7
100
AcDbEntity
  8
JSG_3
100
AcDbLine
 62
7
  6
CONTINUOUS
 10
309.5283940949
 20
116.827820024
 11
308.2492146627
 21
116.0884602968
  0
LINE
  5
3B8
100
AcDbEntity
  8
JSG_3
100
AcDbLine
 62
7
  6
CONTINUOUS
 10
309.5502456537
 20
112.0405394808
 11
309.528443368
 21
112.0279360715
  0
LINE
  5
3B9
100
AcDbEntity
  8
JSG_3
100
AcDbLine
 62
7
  6
CONTINUOUS
 10
309.528443368
 20
112.0279360715
 11
308.2494224582
 21
111.2886639655
  0
LINE
  5
3BA
100
AcDbEntity
  8
JSG_3
100
AcDbLine
 62
7
  6
CONTINUOUS
 10
309.5502740076
 20
110.4404838357
 11
309.5284518833
 21
110.4278689186
  0
LINE
  5
3BB
100
AcDbEntity
  8
JSG_3
100
AcDbLine
 62
7
  6
CONTINUOUS
 10
309.5284518833
 20
110.4278689186
 11
308.2493174708
 21
109.6885291378
  0
LINE
  5
3BC
100
AcDbEntity
  8
JSG_3
100
AcDbLine
 62
7
  6
CONTINUOUS
 10
309.5501734343
 20
108.8404126019
 11
309.5283738464
 21
108.8278108545
  0
LINE
  5
3BD
100
AcDbEntity
  8
JSG_3
100
AcDbLine
 62
7
  6
CONTINUOUS
 10
309.5283738464
 20
108.8278108545
 11
308.3376204654
 21
108.1395567236
  0
LINE
  5
3BE
100
AcDbEntity
  8
JSG_3
100
AcDbLine
 62
7
  6
CONTINUOUS
 10
327.4293097781
 20
117.6152484952
 11
327.6241788708
 21
117.7278963625
  0
LINE
  5
3BF
100
AcDbEntity
  8
JSG_3
100
AcDbLine
 62
7
  6
CONTINUOUS
 10
309.5499850565
 20
107.2403480028
 11
309.5284450471
 21
107.2278963625
  0
LINE
  5
3C0
100
AcDbEntity
  8
JSG_3
100
AcDbLine
 62
7
  6
CONTINUOUS
 10
327.4294770328
 20
116.0152367949
 11
327.4512068703
 21
116.0277980838
  0
LINE
  5
3C1
100
AcDbEntity
  8
JSG_3
100
AcDbLine
 62
7
  6
CONTINUOUS
 10
327.4512068703
 20
116.0277980838
 11
328.7300773253
 21
116.766968909
  0
LINE
  5
3C2
100
AcDbEntity
  8
JSG_3
100
AcDbLine
 62
7
  6
CONTINUOUS
 10
327.429869735
 20
133.6154816148
 11
328.7305077533
 21
134.3672024644
  0
LINE
  5
3C3
100
AcDbEntity
  8
JSG_3
100
AcDbLine
 62
7
  6
CONTINUOUS
 10
327.4296535902
 20
132.0154623321
 11
328.7304868219
 21
132.7673136766
  0
LINE
  5
3C4
100
AcDbEntity
  8
JSG_3
100
AcDbLine
 62
7
  6
CONTINUOUS
 10
328.6627209841
 20
129.5278963625
 11
328.7302596056
 21
129.5669266632
  0
LINE
  5
3C5
100
AcDbEntity
  8
JSG_3
100
AcDbLine
 62
7
  6
CONTINUOUS
 10
308.3174191345
 20
117.7278963625
 11
308.2493399923
 21
117.6885511851
  0
LINE
  5
3C6
100
AcDbEntity
  8
JSG_3
100
AcDbLine
 62
7
  6
CONTINUOUS
 10
309.5500176714
 20
115.2403587318
 11
308.2491005016
 21
114.4884482422
  0
LINE
  5
3C7
100
AcDbEntity
  8
JSG_3
100
AcDbLine
 62
7
  6
CONTINUOUS
 10
309.5497881747
 20
113.6403161869
 11
308.2490359458
 21
112.8885199447
  0
LINE
  5
3C8
100
AcDbEntity
  8
70201_ASM_12
100
AcDbLine
 62
7
  6
CONTINUOUS
 10
527.6213107193
 20
426.0321386902
 11
530.0263106305
 21
407.6891304814
  0
LINE
  5
3C9
100
AcDbEntity
  8
JSG_3
100
AcDbLine
 62
7
  6
CONTINUOUS
 10
327.4293251504
 20
112.8153575465
 11
327.4511363159
 21
112.8279660609
  0
LINE
  5
3CA
100
AcDbEntity
  8
JSG_3
100
AcDbLine
 62
7
  6
CONTINUOUS
 10
327.4511363159
 20
112.8279660609
 11
328.7303120881
 21
113.5673250086
  0
LINE
  5
3CB
100
AcDbEntity
  8
JSG_3
100
AcDbLine
 62
7
  6
CONTINUOUS
 10
327.4292630816
 20
111.2152887743
 11
327.4510835564
 21
111.227902758
  0
LINE
  5
3CC
100
AcDbEntity
  8
JSG_3
100
AcDbLine
 62
7
  6
CONTINUOUS
 10
327.4510835564
 20
111.227902758
 11
328.7301881523
 21
111.96722581
  0
LINE
  5
3CD
100
AcDbEntity
  8
JSG_3
100
AcDbLine
 62
7
  6
CONTINUOUS
 10
327.4293326545
 20
109.6152425707
 11
327.4511200869
 21
109.6278373559
  0
LINE
  5
3CE
100
AcDbEntity
  8
JSG_3
100
AcDbLine
 62
7
  6
CONTINUOUS
 10
327.4511200869
 20
109.6278373559
 11
328.7300980753
 21
110.3670818233
  0
LINE
  5
3CF
100
AcDbEntity
  8
JSG_3
100
AcDbLine
 62
7
  6
CONTINUOUS
 10
327.4297231968
 20
114.4152865201
 11
328.7301480126
 21
115.1668972511
  0
LINE
  5
3D0
100
AcDbEntity
  8
JSG_3
100
AcDbLine
 62
7
  6
CONTINUOUS
 10
327.4295190554
 20
108.0152408302
 11
328.7300816005
 21
108.7669477162
  0
LINE
  5
3D1
100
AcDbEntity
  8
70201_ASM_12
100
AcDbLine
 62
7
  6
CONTINUOUS
 10
510.7567877504
 20
404.6583734844
 11
510.1960307535
 21
405.0891304814
  0
LINE
  5
3D2
100
AcDbEntity
  8
70201_ASM_12
100
AcDbLine
 62
7
  6
CONTINUOUS
 10
527.060552623
 20
426.4628957954
 11
527.6213103295
 21
426.0321381827
  0
ARC
  5
3D3
100
AcDbEntity
  8
70538-16_2
100
AcDbCircle
 62
7
  6
CONTINUOUS
 10
300.9897713072
 20
127.7278963627
 40
3.0000000004
100
AcDbArc
 50
180.0
 51
269.9999999696
  0
ARC
  5
3D4
100
AcDbEntity
  8
70538-16_2
100
AcDbCircle
 62
7
  6
CONTINUOUS
 10
298.9897713066
 20
127.7278963624
 40
0.9999999998
100
AcDbArc
 50
90.0000000063
 51
180.0
  0
ARC
  5
3D5
100
AcDbEntity
  8
70538-16_2
100
AcDbCircle
 62
7
  6
CONTINUOUS
 10
302.5560145771
 20
124.2278963632
 40
0.5000000003
100
AcDbArc
 50
359.9999996699
 51
89.9999999231
  0
ARC
  5
3D6
100
AcDbEntity
  8
JSG_3
100
AcDbCircle
 62
7
  6
CONTINUOUS
 10
308.24632564
 20
115.9778910676
 40
0.0065543351
100
AcDbArc
 50
168.0410525722
 51
179.9537143381
  0
ARC
  5
3D7
100
AcDbEntity
  8
JSG_3
100
AcDbCircle
 62
7
  6
CONTINUOUS
 10
308.2463091773
 20
114.3778914954
 40
0.0065378721
100
AcDbArc
 50
168.3771074456
 51
179.9573465876
  0
ARC
  5
3D8
100
AcDbEntity
  8
JSG_3
100
AcDbCircle
 62
7
  6
CONTINUOUS
 10
308.2462987862
 20
131.9778921916
 40
0.0065274805
100
AcDbArc
 50
168.9309842463
 51
179.963389862
  0
ARC
  5
3D9
100
AcDbEntity
  8
JSG_3
100
AcDbCircle
 62
7
  6
CONTINUOUS
 10
308.2462947772
 20
109.5778908858
 40
0.0065234725
100
AcDbArc
 50
167.962812778
 51
179.9518979303
  0
ARC
  5
3DA
100
AcDbEntity
  8
JSG_3
100
AcDbCircle
 62
7
  6
CONTINUOUS
 10
308.2462879329
 20
138.3778932826
 40
0.0065166266
100
AcDbArc
 50
169.2692951013
 51
179.972920499
  0
ARC
  5
3DB
100
AcDbEntity
  8
JSG_3
100
AcDbCircle
 62
7
  6
CONTINUOUS
 10
308.2462836058
 20
117.5778908645
 40
0.0065123011
100
AcDbArc
 50
167.9654773469
 51
179.9516284184
  0
ARC
  5
3DC
100
AcDbEntity
  8
JSG_3
100
AcDbCircle
 62
7
  6
CONTINUOUS
 10
308.2462778457
 20
136.7778917332
 40
0.0065065403
100
AcDbArc
 50
168.6075993183
 51
179.9592355893
  0
ARC
  5
3DD
100
AcDbEntity
  8
JSG_3
100
AcDbCircle
 62
7
  6
CONTINUOUS
 10
308.2462240142
 20
111.1778908542
 40
0.0064527096
100
AcDbArc
 50
168.0491118847
 51
179.9510903552
  0
ARC
  5
3DE
100
AcDbEntity
  8
JSG_3
100
AcDbCircle
 62
7
  6
CONTINUOUS
 10
308.246203445
 20
151.177890875
 40
0.0064321403
100
AcDbArc
 50
168.094175747
 51
179.9511186656
  0
ARC
  5
3DF
100
AcDbEntity
  8
JSG_3
100
AcDbCircle
 62
7
  6
CONTINUOUS
 10
308.2461780223
 20
143.1778918569
 40
0.0064067169
100
AcDbArc
 50
168.8590642058
 51
179.9597059856
  0
ARC
  5
3E0
100
AcDbEntity
  8
JSG_3
100
AcDbCircle
 62
7
  6
CONTINUOUS
 10
308.24615011
 20
135.177891831
 40
0.0063788046
100
AcDbArc
 50
168.880519204
 51
179.9592972001
  0
ARC
  5
3E1
100
AcDbEntity
  8
JSG_3
100
AcDbCircle
 62
7
  6
CONTINUOUS
 10
308.2461414416
 20
112.7778909906
 40
0.0063701368
100
AcDbArc
 50
168.2660380869
 51
179.951683371
  0
ARC
  5
3E2
100
AcDbEntity
  8
JSG_3
100
AcDbCircle
 62
7
  6
CONTINUOUS
 10
308.2461350535
 20
144.7778911351
 40
0.0063637486
100
AcDbArc
 50
168.378138078
 51
179.9529354857
  0
ARC
  5
3E3
100
AcDbEntity
  8
JSG_3
100
AcDbCircle
 62
7
  6
CONTINUOUS
 10
308.2461219909
 20
152.7778910432
 40
0.0063506862
100
AcDbArc
 50
168.3312930303
 51
179.9520092122
  0
ARC
  5
3E4
100
AcDbEntity
  8
JSG_3
100
AcDbCircle
 62
7
  6
CONTINUOUS
 10
308.246082364
 20
149.5778917261
 40
0.0063110587
100
AcDbArc
 50
168.8972404658
 51
179.9579079374
  0
ARC
  5
3E5
100
AcDbEntity
  8
JSG_3
100
AcDbCircle
 62
7
  6
CONTINUOUS
 10
308.2460696413
 20
146.3778912424
 40
0.0062983363
100
AcDbArc
 50
168.5495056899
 51
179.9534229302
  0
ARC
  5
3E6
100
AcDbEntity
  8
JSG_3
100
AcDbCircle
 62
7
  6
CONTINUOUS
 10
308.2460690412
 20
141.577891689
 40
0.006297736
100
AcDbArc
 50
168.8874113814
 51
179.9574818222
  0
ARC
  5
3E7
100
AcDbEntity
  8
JSG_3
100
AcDbCircle
 62
7
  6
CONTINUOUS
 10
308.246060899
 20
154.3778912917
 40
0.0062895941
100
AcDbArc
 50
168.5980047358
 51
179.9538072152
  0
ARC
  5
3E8
100
AcDbEntity
  8
JSG_3
100
AcDbCircle
 62
7
  6
CONTINUOUS
 10
308.2460586774
 20
133.5778916496
 40
0.0062873722
100
AcDbArc
 50
168.8715023817
 51
179.9570520639
  0
ARC
  5
3E9
100
AcDbEntity
  8
JSG_3
100
AcDbCircle
 62
7
  6
CONTINUOUS
 10
308.2460451357
 20
155.9778915491
 40
0.0062738305
100
AcDbArc
 50
168.8133062488
 51
179.9560418094
  0
ARC
  5
3EA
100
AcDbEntity
  8
JSG_3
100
AcDbCircle
 62
7
  6
CONTINUOUS
 10
308.2460441878
 20
139.9778914555
 40
0.0062728828
100
AcDbArc
 50
168.7435974091
 51
179.9551806045
  0
ARC
  5
3EB
100
AcDbEntity
  8
JSG_3
100
AcDbCircle
 62
7
  6
CONTINUOUS
 10
308.2460435187
 20
147.977891503
 40
0.0062722136
100
AcDbArc
 50
168.7804695468
 51
179.9556095287
  0
ARC
  5
3EC
100
AcDbEntity
  8
70538-16_2
100
AcDbCircle
 62
7
  6
CONTINUOUS
 10
332.4090421842
 20
125.9019409724
 40
8.2641244646
100
AcDbArc
 50
232.9933488895
 51
233.3205658798
  0
ARC
  5
3ED
100
AcDbEntity
  8
70538-16_2
100
AcDbCircle
 62
7
  6
CONTINUOUS
 10
335.9897713068
 20
127.7278963627
 40
3.0000000004
100
AcDbArc
 50
270.0000000304
 51
360.0
  0
ARC
  5
3EE
100
AcDbEntity
  8
70538-16_2
100
AcDbCircle
 62
7
  6
CONTINUOUS
 10
337.9897713074
 20
127.7278963624
 40
0.9999999998
100
AcDbArc
 50
0.0
 51
89.9999999937
  0
ARC
  5
3EF
100
AcDbEntity
  8
70538-16_2
100
AcDbCircle
 62
7
  6
CONTINUOUS
 10
334.4235280369
 20
124.2278963632
 40
0.5000000003
100
AcDbArc
 50
90.0000000769
 51
180.0000003301
  0
ARC
  5
3F0
100
AcDbEntity
  8
JSG_3
100
AcDbCircle
 62
7
  6
CONTINUOUS
 10
328.7332153148
 20
153.6779016161
 40
0.0065559943
100
AcDbArc
 50
348.0675166541
 51
359.954086465
  0
ARC
  5
3F1
100
AcDbEntity
  8
JSG_3
100
AcDbCircle
 62
7
  6
CONTINUOUS
 10
328.7332181496
 20
145.6779016766
 40
0.0065531596
100
AcDbArc
 50
348.029362772
 51
359.9535374607
  0
ARC
  5
3F2
100
AcDbEntity
  8
JSG_3
100
AcDbCircle
 62
7
  6
CONTINUOUS
 10
328.7332224124
 20
139.2779013573
 40
0.0065488965
100
AcDbArc
 50
348.2650517803
 51
359.9563004229
  0
ARC
  5
3F3
100
AcDbEntity
  8
JSG_3
100
AcDbCircle
 62
7
  6
CONTINUOUS
 10
328.7332301187
 20
147.2779012631
 40
0.0065411902
100
AcDbArc
 50
348.3468418246
 51
359.9570743293
  0
ARC
  5
3F4
100
AcDbEntity
  8
JSG_3
100
AcDbCircle
 62
7
  6
CONTINUOUS
 10
328.7332396324
 20
155.2779013187
 40
0.0065316764
100
AcDbArc
 50
348.3208190991
 51
359.9565240126
  0
ARC
  5
3F5
100
AcDbEntity
  8
JSG_3
100
AcDbCircle
 62
7
  6
CONTINUOUS
 10
328.7332406419
 20
137.6779004327
 40
0.0065306664
100
AcDbArc
 50
349.0089618936
 51
359.9642907336
  0
ARC
  5
3F6
100
AcDbEntity
  8
JSG_3
100
AcDbCircle
 62
7
  6
CONTINUOUS
 10
328.7332514225
 20
152.0779018471
 40
0.0065198868
100
AcDbArc
 50
347.9629217502
 51
359.9518018995
  0
ARC
  5
3F7
100
AcDbEntity
  8
JSG_3
100
AcDbCircle
 62
7
  6
CONTINUOUS
 10
328.7332642976
 20
144.0779017555
 40
0.0065070116
100
AcDbArc
 50
348.0460399055
 51
359.9525131963
  0
ARC
  5
3F8
100
AcDbEntity
  8
JSG_3
100
AcDbCircle
 62
7
  6
CONTINUOUS
 10
328.7332671115
 20
112.0779018705
 40
0.0065041978
100
AcDbArc
 50
347.9710572723
 51
359.9514796892
  0
ARC
  5
3F9
100
AcDbEntity
  8
JSG_3
100
AcDbCircle
 62
7
  6
CONTINUOUS
 10
328.733276528
 20
132.8779009415
 40
0.0064947806
100
AcDbArc
 50
348.6652089882
 51
359.9596048894
  0
ARC
  5
3FA
100
AcDbEntity
  8
JSG_3
100
AcDbCircle
 62
7
  6
CONTINUOUS
 10
328.7332965161
 20
140.8779008881
 40
0.0064747925
100
AcDbArc
 50
348.7384191616
 51
359.9599522219
  0
ARC
  5
3FB
100
AcDbEntity
  8
JSG_3
100
AcDbCircle
 62
7
  6
CONTINUOUS
 10
328.7333194197
 20
148.8779008604
 40
0.0064518889
100
AcDbArc
 50
348.795952581
 51
359.9600560952
  0
ARC
  5
3FC
100
AcDbEntity
  8
JSG_3
100
AcDbCircle
 62
7
  6
CONTINUOUS
 10
328.7333261369
 20
150.4779016712
 40
0.0064451723
100
AcDbArc
 50
348.199838258
 51
359.9528065095
  0
ARC
  5
3FD
100
AcDbEntity
  8
JSG_3
100
AcDbCircle
 62
7
  6
CONTINUOUS
 10
328.7333443574
 20
110.4779018432
 40
0.006426952
100
AcDbArc
 50
348.1065933749
 51
359.9511398074
  0
ARC
  5
3FE
100
AcDbEntity
  8
JSG_3
100
AcDbCircle
 62
7
  6
CONTINUOUS
 10
328.7334090914
 20
134.4779009126
 40
0.0063622173
100
AcDbArc
 50
348.8904127939
 51
359.959023076
  0
ARC
  5
3FF
100
AcDbEntity
  8
JSG_3
100
AcDbCircle
 62
7
  6
CONTINUOUS
 10
328.7334110327
 20
116.8779017087
 40
0.0063602765
100
AcDbArc
 50
348.2983577887
 51
359.9518387459
  0
ARC
  5
400
100
AcDbEntity
  8
JSG_3
100
AcDbCircle
 62
7
  6
CONTINUOUS
 10
328.7334310621
 20
142.4779009428
 40
0.0063402466
100
AcDbArc
 50
348.8989141557
 51
359.9586082951
  0
ARC
  5
401
100
AcDbEntity
  8
JSG_3
100
AcDbCircle
 62
7
  6
CONTINUOUS
 10
328.7334392889
 20
108.8779006192
 40
0.0063320196
100
AcDbArc
 50
349.1626500143
 51
359.9612939789
  0
ARC
  5
402
100
AcDbEntity
  8
JSG_3
100
AcDbCircle
 62
7
  6
CONTINUOUS
 10
328.7334760543
 20
115.2779014662
 40
0.0062952548
100
AcDbArc
 50
348.5658453194
 51
359.9535492014
  0
ARC
  5
403
100
AcDbEntity
  8
JSG_3
100
AcDbCircle
 62
7
  6
CONTINUOUS
 10
328.7334892782
 20
136.0779011029
 40
0.0062820306
100
AcDbArc
 50
348.8577456902
 51
359.956764105
  0
ARC
  5
404
100
AcDbEntity
  8
JSG_3
100
AcDbCircle
 62
7
  6
CONTINUOUS
 10
328.7334967878
 20
129.6779013017
 40
0.0062745211
100
AcDbArc
 50
348.7170234217
 51
359.9548977191
  0
ARC
  5
405
100
AcDbEntity
  8
JSG_3
100
AcDbCircle
 62
7
  6
CONTINUOUS
 10
328.7335005481
 20
113.6779010833
 40
0.0062707607
100
AcDbArc
 50
348.8907143415
 51
359.9568663055
  0
ARC
  5
406
100
AcDbEntity
  8
ZT3_8
100
AcDbCircle
 62
7
  6
CONTINUOUS
 10
334.7397627404
 20
228.977887833
 40
1.000003134
100
AcDbArc
 50
179.9995112853
 51
270.0004908734
  0
ARC
  5
407
100
AcDbEntity
  8
ZT3_8
100
AcDbCircle
 62
7
  6
CONTINUOUS
 10
334.7397639212
 20
196.477903845
 40
1.0000029071
100
AcDbArc
 50
89.9995767697
 51
180.0004287265
  0
ARC
  5
408
100
AcDbEntity
  8
SB_10
100
AcDbCircle
 62
7
  6
CONTINUOUS
 10
375.4897787657
 20
220.7278903106
 40
1.0000054842
100
AcDbArc
 50
269.9995723903
 51
0.000346768
  0
ARC
  5
409
100
AcDbEntity
  8
SB_10
100
AcDbCircle
 62
7
  6
CONTINUOUS
 10
375.4897774875
 20
204.7279015797
 40
1.0000051014
100
AcDbArc
 50
359.999701055
 51
90.0003544315
  0
ARC
  5
40A
100
AcDbEntity
  8
SB_10
100
AcDbCircle
 62
7
  6
CONTINUOUS
 10
389.989771307
 20
196.2278963625
 40
0.5
100
AcDbArc
 50
270.0
 51
360.0
  0
ARC
  5
40B
100
AcDbEntity
  8
SB_10
100
AcDbCircle
 62
7
  6
CONTINUOUS
 10
376.989771307
 20
196.2278963625
 40
0.5
100
AcDbArc
 50
180.0
 51
270.0
  0
ARC
  5
40C
100
AcDbEntity
  8
70201_ASM_12
100
AcDbCircle
 62
7
  6
CONTINUOUS
 10
418.489771307
 20
412.2278963645
 40
110.0
100
AcDbArc
 50
7.4695923164
 51
180.0
  0
ARC
  5
40D
100
AcDbEntity
  8
70201_ASM_12
100
AcDbCircle
 62
7
  6
CONTINUOUS
 10
418.489771307
 20
412.2278963645
 40
90.0
100
AcDbArc
 50
7.4695923164
 51
180.0
  0
ARC
  5
40E
100
AcDbEntity
  8
SB_10
100
AcDbCircle
 62
7
  6
CONTINUOUS
 10
389.989771307
 20
267.2278963625
 40
0.5
100
AcDbArc
 50
0.0
 51
90.0
  0
ARC
  5
40F
100
AcDbEntity
  8
SB_10
100
AcDbCircle
 62
7
  6
CONTINUOUS
 10
376.989771307
 20
267.2278963625
 40
0.5
100
AcDbArc
 50
90.0
 51
180.0
  0
SPLINE
  5
410
100
AcDbEntity
  8
03__ASM_ALL_CURVES
100
AcDbSpline
 62
40
  6
CONTINUOUS
 70
0
 71
3
 72
11
 73
7
 74
0
 42
0.0000001
 43
0.0000001
 44
0.0000000001
 40
0.0
 40
0.0
 40
0.0
 40
0.0
 40
0.2505069092
 40
0.5010138185
 40
0.7528108068
 40
1.0
 40
1.0
 40
1.0
 40
1.0
 10
317.4237400837
 20
211.1579785537
 30
0.0
 10
317.7349475958
 20
211.1569871162
 30
0.0
 10
318.3502550934
 20
211.4118987346
 30
0.0
 10
318.7365748091
 20
212.334797641
 30
0.0
 10
318.3547984521
 20
213.2622371074
 30
0.0
 10
317.7419294409
 20
213.5239950952
 30
0.0
 10
317.4348848416
 20
213.5282684894
 30
0.0
  0
SPLINE
  5
411
100
AcDbEntity
  8
03__ASM_ALL_CURVES
100
AcDbSpline
 62
40
  6
CONTINUOUS
 70
0
 71
3
 72
12
 73
8
 74
0
 42
0.0000001
 43
0.0000001
 44
0.0000000001
 40
0.0
 40
0.0
 40
0.0
 40
0.0
 40
0.0046077952
 40
0.2527674247
 40
0.5009270542
 40
0.7504635271
 40
1.0
 40
1.0
 40
1.0
 40
1.0
 10
317.4348848416
 20
213.5282684894
 30
0.0
 10
317.4291612959
 20
213.5283481487
 30
0.0
 10
317.1151221615
 20
213.5303277333
 30
0.0
 10
316.4889079444
 20
213.2729281434
 30
0.0
 10
316.1025392162
 20
212.3464221921
 30
0.0
 10
316.4866817335
 20
211.4158493309
 30
0.0
 10
317.1137381555
 20
211.1589661506
 30
0.0
 10
317.4237400837
 20
211.1579785537
 30
0.0
  0
SPLINE
  5
412
100
AcDbEntity
  8
03__ASM_ALL_CURVES
100
AcDbSpline
 62
40
  6
CONTINUOUS
 70
0
 71
3
 72
11
 73
7
 74
0
 42
0.0000001
 43
0.0000001
 44
0.0000000001
 40
0.0
 40
0.0
 40
0.0
 40
0.0
 40
0.2499218831
 40
0.4998437663
 40
0.7497656494
 40
1.0
 40
1.0
 40
1.0
 40
1.0
 10
317.4210701347
 20
211.6220329156
 30
0.0
 10
317.6171053934
 20
211.6220611897
 30
0.0
 10
318.008346593
 20
211.7771731466
 30
0.0
 10
318.2533321737
 20
212.3408089813
 30
0.0
 10
318.0082444949
 20
212.9070063837
 30
0.0
 10
317.6166161497
 20
213.0636280252
 30
0.0
 10
317.4203348475
 20
213.0634606066
 30
0.0
  0
SPLINE
  5
413
100
AcDbEntity
  8
03__ASM_ALL_CURVES
100
AcDbSpline
 62
40
  6
CONTINUOUS
 70
0
 71
3
 72
11
 73
7
 74
0
 42
0.0000001
 43
0.0000001
 44
0.0000000001
 40
0.0
 40
0.0
 40
0.0
 40
0.0
 40
0.2497656494
 40
0.4998437663
 40
0.7499218831
 40
1.0
 40
1.0
 40
1.0
 40
1.0
 10
317.4203348475
 20
213.0634606066
 30
0.0
 10
317.2244211897
 20
213.0632935015
 30
0.0
 10
316.8316632254
 20
212.9065102753
 30
0.0
 10
316.5841373457
 20
212.3408090595
 30
0.0
 10
316.8317663611
 20
211.7771973667
 30
0.0
 10
317.2249123285
 20
211.6220046239
 30
0.0
 10
317.4210701347
 20
211.6220329156
 30
0.0
  0
SPLINE
  5
414
100
AcDbEntity
  8
03__ASM_ALL_CURVES
100
AcDbSpline
 62
40
  6
CONTINUOUS
 70
0
 71
3
 72
9
 73
5
 74
0
 42
0.0000001
 43
0.0000001
 44
0.0000000001
 40
0.0
 40
0.0
 40
0.0
 40
0.0
 40
0.4999510448
 40
1.0
 40
1.0
 40
1.0
 40
1.0
 10
314.7452644713
 20
201.3224031981
 30
0.0
 10
314.7452644713
 20
201.0391777642
 30
0.0
 10
314.937885633
 20
200.4205893125
 30
0.0
 10
315.5564904061
 20
200.2278963625
 30
0.0
 10
315.839771307
 20
200.2278963625
 30
0.0
  0
SPLINE
  5
415
100
AcDbEntity
  8
03__ASM_ALL_CURVES
100
AcDbSpline
 62
40
  6
CONTINUOUS
 70
0
 71
3
 72
9
 73
5
 74
0
 42
0.0000001
 43
0.0000001
 44
0.0000000001
 40
0.0
 40
0.0
 40
0.0
 40
0.0
 40
0.5000757061
 40
1.0
 40
1.0
 40
1.0
 40
1.0
 10
318.7380440114
 20
200.2278963625
 30
0.0
 10
319.0213249122
 20
200.2278963625
 30
0.0
 10
319.6400155164
 20
200.4205307478
 30
0.0
 10
319.8322924649
 20
201.0392080686
 30
0.0
 10
319.8322924649
 20
201.3224031981
 30
0.0
  0
SPLINE
  5
416
100
AcDbEntity
  8
03__ASM_ALL_CURVES
100
AcDbSpline
 62
40
  6
CONTINUOUS
 70
0
 71
3
 72
9
 73
5
 74
0
 42
0.0000001
 43
0.0000001
 44
0.0000000001
 40
0.0
 40
0.0
 40
0.0
 40
0.0
 40
0.4999094876
 40
1.0
 40
1.0
 40
1.0
 40
1.0
 10
319.8322924649
 20
224.1334139346
 30
0.0
 10
319.8322924649
 20
224.4165821896
 30
0.0
 10
319.6399965551
 20
225.0352376956
 30
0.0
 10
319.0213148058
 20
225.2277485155
 30
0.0
 10
318.7380440114
 20
225.2277485155
 30
0.0
  0
SPLINE
  5
417
100
AcDbEntity
  8
03__ASM_ALL_CURVES
100
AcDbSpline
 62
40
  6
CONTINUOUS
 70
0
 71
3
 72
9
 73
5
 74
0
 42
0.0000001
 43
0.0000001
 44
0.0000000001
 40
0.0
 40
0.0
 40
0.0
 40
0.0
 40
0.5000637564
 40
1.0
 40
1.0
 40
1.0
 40
1.0
 10
315.839771307
 20
225.2277485155
 30
0.0
 10
315.5565005126
 20
225.2277485155
 30
0.0
 10
314.9379045939
 20
225.0351791275
 30
0.0
 10
314.7452644713
 20
224.4166124969
 30
0.0
 10
314.7452644713
 20
224.1334139346
 30
0.0
  0
SPLINE
  5
418
100
AcDbEntity
  8
03__ASM_ALL_CURVES
100
AcDbSpline
 62
40
  6
CONTINUOUS
 70
0
 71
3
 72
8
 73
4
 74
0
 42
0.0000001
 43
0.0000001
 44
0.0000000001
 40
0.0
 40
0.0
 40
0.0
 40
0.0
 40
1.0
 40
1.0
 40
1.0
 40
1.0
 10
318.3979269596
 20
210.5561203725
 30
0.0
 10
318.4861106709
 20
210.567798244
 30
0.0
 10
318.5663921288
 20
210.6741309025
 30
0.0
 10
318.5663921288
 20
210.7630844838
 30
0.0
  0
SPLINE
  5
419
100
AcDbEntity
  8
03__ASM_ALL_CURVES
100
AcDbSpline
 62
40
  6
CONTINUOUS
 70
0
 71
3
 72
8
 73
4
 74
0
 42
0.0000001
 43
0.0000001
 44
0.0000000001
 40
0.0
 40
0.0
 40
0.0
 40
0.0
 40
1.0
 40
1.0
 40
1.0
 40
1.0
 10
318.2097386187
 20
209.426731945
 30
0.0
 10
318.2956779938
 20
209.4610282442
 30
0.0
 10
318.3755338389
 20
209.5568411789
 30
0.0
 10
318.3755338389
 20
209.6493712408
 30
0.0
  0
SPLINE
  5
41A
100
AcDbEntity
  8
03__ASM_ALL_CURVES
100
AcDbSpline
 62
40
  6
CONTINUOUS
 70
0
 71
3
 72
8
 73
4
 74
0
 42
0.0000001
 43
0.0000001
 44
0.0000000001
 40
0.0
 40
0.0
 40
0.0
 40
0.0
 40
1.0
 40
1.0
 40
1.0
 40
1.0
 10
318.3912090234
 20
218.9246018157
 30
0.0
 10
318.4736694187
 20
218.9246018157
 30
0.0
 10
318.5663921288
 20
219.0168077615
 30
0.0
 10
318.5663921288
 20
219.0992681568
 30
0.0
  0
SPLINE
  5
41B
100
AcDbEntity
  8
03__ASM_ALL_CURVES
100
AcDbSpline
 62
40
  6
CONTINUOUS
 70
0
 71
3
 72
8
 73
4
 74
0
 42
0.0000001
 43
0.0000001
 44
0.0000000001
 40
0.0
 40
0.0
 40
0.0
 40
0.0
 40
1.0
 40
1.0
 40
1.0
 40
1.0
 10
318.4073148448
 20
220.3374354742
 30
0.0
 10
318.493938331
 20
220.3975309252
 30
0.0
 10
318.5663921288
 20
220.5053756662
 30
0.0
 10
318.5663921288
 20
220.610803801
 30
0.0
  0
SPLINE
  5
41C
100
AcDbEntity
  8
03__ASM_ALL_CURVES
100
AcDbSpline
 62
40
  6
CONTINUOUS
 70
0
 71
3
 72
8
 73
4
 74
0
 42
0.0000001
 43
0.0000001
 44
0.0000000001
 40
0.0
 40
0.0
 40
0.0
 40
0.0
 40
1.0
 40
1.0
 40
1.0
 40
1.0
 10
318.5663921288
 20
215.5070670943
 30
0.0
 10
318.5663921288
 20
215.4016389596
 30
0.0
 10
318.493999382
 20
215.2937061222
 30
0.0
 10
318.4073148448
 20
215.2336987676
 30
0.0
  0
SPLINE
  5
41D
100
AcDbEntity
  8
03__ASM_ALL_CURVES
100
AcDbSpline
 62
40
  6
CONTINUOUS
 70
0
 71
3
 72
8
 73
4
 74
0
 42
0.0000001
 43
0.0000001
 44
0.0000000001
 40
0.0
 40
0.0
 40
0.0
 40
0.0
 40
1.0
 40
1.0
 40
1.0
 40
1.0
 10
318.5663921288
 20
213.9960482145
 30
0.0
 10
318.5663921288
 20
213.9133848651
 30
0.0
 10
318.4738723728
 20
213.8205205995
 30
0.0
 10
318.3912090234
 20
213.8205205995
 30
0.0
  0
SPLINE
  5
41E
100
AcDbEntity
  8
03__ASM_ALL_CURVES
100
AcDbSpline
 62
40
  6
CONTINUOUS
 70
0
 71
3
 72
8
 73
4
 74
0
 42
0.0000001
 43
0.0000001
 44
0.0000000001
 40
0.0
 40
0.0
 40
0.0
 40
0.0
 40
1.0
 40
1.0
 40
1.0
 40
1.0
 10
318.4102431759
 20
207.6796378971
 30
0.0
 10
318.491423559
 20
207.7092064697
 30
0.0
 10
318.5663921288
 20
207.8001182243
 30
0.0
 10
318.5663921288
 20
207.886515881
 30
0.0
  0
SPLINE
  5
41F
100
AcDbEntity
  8
03__ASM_ALL_CURVES
100
AcDbSpline
 62
40
  6
CONTINUOUS
 70
0
 71
3
 72
8
 73
4
 74
0
 42
0.0000001
 43
0.0000001
 44
0.0000000001
 40
0.0
 40
0.0
 40
0.0
 40
0.0
 40
1.0
 40
1.0
 40
1.0
 40
1.0
 10
318.4102431759
 20
222.7843145426
 30
0.0
 10
318.4913371328
 20
222.813718586
 30
0.0
 10
318.5663921288
 20
222.9044155303
 30
0.0
 10
318.5663921288
 20
222.9906757622
 30
0.0
  0
SPLINE
  5
420
100
AcDbEntity
  8
03__ASM_ALL_CURVES
100
AcDbSpline
 62
40
  6
CONTINUOUS
 70
0
 71
3
 72
8
 73
4
 74
0
 42
0.0000001
 43
0.0000001
 44
0.0000000001
 40
0.0
 40
0.0
 40
0.0
 40
0.0
 40
1.0
 40
1.0
 40
1.0
 40
1.0
 10
318.3912090234
 20
216.6589347698
 30
0.0
 10
318.4737911312
 20
216.6589347698
 30
0.0
 10
318.5663921288
 20
216.7515357674
 30
0.0
 10
318.5663921288
 20
216.8341178752
 30
0.0
  0
SPLINE
  5
421
100
AcDbEntity
  8
03__ASM_ALL_CURVES
100
AcDbSpline
 62
40
  6
CONTINUOUS
 70
0
 71
3
 72
8
 73
4
 74
0
 42
0.0000001
 43
0.0000001
 44
0.0000000001
 40
0.0
 40
0.0
 40
0.0
 40
0.0
 40
1.0
 40
1.0
 40
1.0
 40
1.0
 10
316.5079475764
 20
216.0258984744
 30
0.0
 10
316.590347043
 20
216.0258984744
 30
0.0
 10
316.6825277901
 20
216.1185098585
 30
0.0
 10
316.6825277901
 20
216.2009093251
 30
0.0
  0
SPLINE
  5
422
100
AcDbEntity
  8
03__ASM_ALL_CURVES
100
AcDbSpline
 62
40
  6
CONTINUOUS
 70
0
 71
3
 72
8
 73
4
 74
0
 42
0.0000001
 43
0.0000001
 44
0.0000000001
 40
0.0
 40
0.0
 40
0.0
 40
0.0
 40
1.0
 40
1.0
 40
1.0
 40
1.0
 10
316.6825277901
 20
202.4425759952
 30
0.0
 10
316.6825277901
 20
202.3601562007
 30
0.0
 10
316.5903673709
 20
202.2674790171
 30
0.0
 10
316.5079475764
 20
202.2674790171
 30
0.0
  0
SPLINE
  5
423
100
AcDbEntity
  8
03__ASM_ALL_CURVES
100
AcDbSpline
 62
40
  6
CONTINUOUS
 70
0
 71
3
 72
8
 73
4
 74
0
 42
0.0000001
 43
0.0000001
 44
0.0000000001
 40
0.0
 40
0.0
 40
0.0
 40
0.0
 40
1.0
 40
1.0
 40
1.0
 40
1.0
 10
318.5663921288
 20
203.0758706727
 30
0.0
 10
318.5663921288
 20
202.9932885649
 30
0.0
 10
318.4737911312
 20
202.9006875673
 30
0.0
 10
318.3912090234
 20
202.9006875673
 30
0.0
  0
SPLINE
  5
424
100
AcDbEntity
  8
03__ASM_ALL_CURVES
100
AcDbSpline
 62
40
  6
CONTINUOUS
 70
0
 71
3
 72
8
 73
4
 74
0
 42
0.0000001
 43
0.0000001
 44
0.0000000001
 40
0.0
 40
0.0
 40
0.0
 40
0.0
 40
1.0
 40
1.0
 40
1.0
 40
1.0
 10
318.3912090234
 20
218.0371452187
 30
0.0
 10
318.4735883772
 20
218.0371452187
 30
0.0
 10
318.5663921288
 20
218.1290876965
 30
0.0
 10
318.5663921288
 20
218.2114670502
 30
0.0
  0
SPLINE
  5
425
100
AcDbEntity
  8
03__ASM_ALL_CURVES
100
AcDbSpline
 62
40
  6
CONTINUOUS
 70
0
 71
3
 72
13
 73
9
 74
0
 42
0.0000001
 43
0.0000001
 44
0.0000000001
 40
0.0
 40
0.0
 40
0.0
 40
0.0
 40
0.2274579106
 40
0.3481039998
 40
0.4975883831
 40
0.6503482535
 40
0.7723351924
 40
1.0
 40
1.0
 40
1.0
 40
1.0
 10
317.3289999579
 20
204.9884154314
 30
0.0
 10
317.3289999579
 20
205.0698348434
 30
0.0
 10
317.2991638956
 20
205.203986854
 30
0.0
 10
317.1538523779
 20
205.3200210706
 30
0.0
 10
316.9997213619
 20
205.3433718262
 30
0.0
 10
316.8452483136
 20
205.3202444727
 30
0.0
 10
316.6971041198
 20
205.204950777
 30
0.0
 10
316.6666803508
 20
205.069908903
 30
0.0
 10
316.6666803508
 20
204.9884154314
 30
0.0
  0
SPLINE
  5
426
100
AcDbEntity
  8
03__ASM_ALL_CURVES
100
AcDbSpline
 62
40
  6
CONTINUOUS
 70
0
 71
3
 72
9
 73
5
 74
0
 42
0.0000001
 43
0.0000001
 44
0.0000000001
 40
0.0
 40
0.0
 40
0.0
 40
0.0
 40
0.5010847227
 40
1.0
 40
1.0
 40
1.0
 40
1.0
 10
317.0041274536
 20
205.7769116606
 30
0.0
 10
316.8122054077
 20
205.7769116606
 30
0.0
 10
316.3963706364
 20
205.6340475995
 30
0.0
 10
316.2724752999
 20
205.2174887289
 30
0.0
 10
316.2724752999
 20
205.0263976091
 30
0.0
  0
SPLINE
  5
427
100
AcDbEntity
  8
03__ASM_ALL_CURVES
100
AcDbSpline
 62
40
  6
CONTINUOUS
 70
0
 71
3
 72
8
 73
4
 74
0
 42
0.0000001
 43
0.0000001
 44
0.0000000001
 40
0.0
 40
0.0
 40
0.0
 40
0.0
 40
1.0
 40
1.0
 40
1.0
 40
1.0
 10
318.3912090234
 20
204.2597777362
 30
0.0
 10
318.4737911312
 20
204.2597777362
 30
0.0
 10
318.5663921288
 20
204.3523787338
 30
0.0
 10
318.5663921288
 20
204.4349608417
 30
0.0
  0
SPLINE
  5
428
100
AcDbEntity
  8
03__ASM_ALL_CURVES
100
AcDbSpline
 62
40
  6
CONTINUOUS
 70
0
 71
3
 72
8
 73
4
 74
0
 42
0.0000001
 43
0.0000001
 44
0.0000000001
 40
0.0
 40
0.0
 40
0.0
 40
0.0
 40
1.0
 40
1.0
 40
1.0
 40
1.0
 10
318.4358230099
 20
205.350753349
 30
0.0
 10
318.5119667377
 20
205.388688017
 30
0.0
 10
318.5663921288
 20
205.4849636683
 30
0.0
 10
318.5663921288
 20
205.5700336767
 30
0.0
  0
SPLINE
  5
429
100
AcDbEntity
  8
03__ASM_ALL_CURVES
100
AcDbSpline
 62
40
  6
CONTINUOUS
 70
0
 71
3
 72
8
 73
4
 74
0
 42
0.0000001
 43
0.0000001
 44
0.0000000001
 40
0.0
 40
0.0
 40
0.0
 40
0.0
 40
1.0
 40
1.0
 40
1.0
 40
1.0
 10
317.6373360038
 20
205.3888216541
 30
0.0
 10
317.5292753317
 20
205.6115504233
 30
0.0
 10
317.2516859587
 20
205.7769116606
 30
0.0
 10
317.0041274536
 20
205.7769116606
 30
0.0
  0
SPLINE
  5
42A
100
AcDbEntity
  8
70538-16_2
100
AcDbSpline
 62
7
  6
CONTINUOUS
 70
0
 71
3
 72
9
 73
5
 74
0
 42
0.0000001
 43
0.0000001
 44
0.0000000001
 40
0.0
 40
0.0
 40
0.0
 40
0.0
 40
0.2555236689
 40
1.0
 40
1.0
 40
1.0
 40
1.0
 10
326.5726750755
 20
120.0358463661
 30
0.0
 10
326.6428351818
 20
119.9696929029
 30
0.0
 10
326.9203168892
 20
119.7139392672
 30
0.0
 10
327.2104420695
 20
119.4715999804
 30
0.0
 10
327.4348018061
 20
119.3024950997
 30
0.0
  0
SPLINE
  5
42B
100
AcDbEntity
  8
70538-16_2
100
AcDbSpline
 62
7
  6
CONTINUOUS
 70
0
 71
3
 72
15
 73
11
 74
0
 42
0.0000001
 43
0.0000001
 44
0.0000000001
 40
0.0
 40
0.0
 40
0.0
 40
0.0
 40
0.1305914538
 40
0.25353703
 40
0.3706252113
 40
0.4857737995
 40
0.6037746021
 40
0.7281643715
 40
0.8603155026
 40
1.0
 40
1.0
 40
1.0
 40
1.0
 10
327.4725722469
 20
119.2741949208
 30
0.0
 10
327.7197520625
 20
119.0900941839
 30
0.0
 10
328.2204794802
 20
118.7587767901
 30
0.0
 10
329.020963866
 20
118.3946446839
 30
0.0
 10
329.8463709163
 20
118.2106272292
 30
0.0
 10
330.6811798522
 20
118.2313599238
 30
0.0
 10
331.5023639363
 20
118.4536397216
 30
0.0
 10
332.2974687992
 20
118.8496922846
 30
0.0
 10
333.0657311471
 20
119.3869940213
 30
0.0
 10
333.5496960106
 20
119.8096865088
 30
0.0
 10
333.7895534408
 20
120.0358463666
 30
0.0
  0
SPLINE
  5
42C
100
AcDbEntity
  8
70538-16_2
100
AcDbSpline
 62
7
  6
CONTINUOUS
 70
0
 71
3
 72
15
 73
11
 74
0
 42
0.0000001
 43
0.0000001
 44
0.0000000001
 40
0.0
 40
0.0
 40
0.0
 40
0.0
 40
0.1371763779
 40
0.2657083739
 40
0.3857009175
 40
0.5000000071
 40
0.6142990955
 40
0.7342916367
 40
0.8628236262
 40
1.0
 40
1.0
 40
1.0
 40
1.0
 10
303.189989173
 20
120.0358463664
 30
0.0
 10
303.4646629554
 20
119.7768584188
 30
0.0
 10
304.0191506639
 20
119.2977208774
 30
0.0
 10
304.9084443832
 20
118.7107592224
 30
0.0
 10
305.83670563
 20
118.3214687116
 30
0.0
 10
306.7984284114
 20
118.182247118
 30
0.0
 10
307.760151181
 20
118.3214687437
 30
0.0
 10
308.6884123909
 20
118.7107592661
 30
0.0
 10
309.5777060785
 20
119.2977209026
 30
0.0
 10
310.1321937641
 20
119.7768584263
 30
0.0
 10
310.4068675383
 20
120.0358463663
 30
0.0
  0
SPLINE
  5
42D
100
AcDbEntity
  8
70538-16_2
100
AcDbSpline
 62
7
  6
CONTINUOUS
 70
0
 71
3
 72
11
 73
7
 74
0
 42
0.0000001
 43
0.0000001
 44
0.0000000001
 40
0.0
 40
0.0
 40
0.0
 40
0.0
 40
0.1966838238
 40
0.431834764
 40
0.7058892804
 40
1.0
 40
1.0
 40
1.0
 40
1.0
 10
310.4068675385
 20
120.0358463663
 30
0.0
 10
310.4504068426
 20
120.0768992651
 30
0.0
 10
310.5683518864
 20
120.1445647557
 30
0.0
 10
310.7852531195
 20
120.1725425609
 30
0.0
 10
311.0290954316
 20
120.1352195796
 30
0.0
 10
311.191952986
 20
120.0740052194
 30
0.0
 10
311.2728929414
 20
120.0358463665
 30
0.0
  0
SPLINE
  5
42E
100
AcDbEntity
  8
70538-16_2
100
AcDbSpline
 62
7
  6
CONTINUOUS
 70
0
 71
3
 72
11
 73
7
 74
0
 42
0.0000001
 43
0.0000001
 44
0.0000000001
 40
0.0
 40
0.0
 40
0.0
 40
0.0
 40
0.2500397846
 40
0.500051082
 40
0.7500367137
 40
1.0
 40
1.0
 40
1.0
 40
1.0
 10
311.2728929414
 20
120.0358463665
 30
0.0
 10
311.8381646231
 20
119.7693510507
 30
0.0
 10
312.9879773886
 20
119.2757027864
 30
0.0
 10
314.7732915134
 20
118.6936334012
 30
0.0
 10
316.6138582088
 20
118.3158178667
 30
0.0
 10
317.865021049
 20
118.227896363
 30
0.0
 10
318.4897713107
 20
118.2278963631
 30
0.0
  0
SPLINE
  5
42F
100
AcDbEntity
  8
70538-16_2
100
AcDbSpline
 62
7
  6
CONTINUOUS
 70
0
 71
3
 72
11
 73
7
 74
0
 42
0.0000001
 43
0.0000001
 44
0.0000000001
 40
0.0
 40
0.0
 40
0.0
 40
0.0
 40
0.1966763523
 40
0.4318884285
 40
0.7059277736
 40
1.0
 40
1.0
 40
1.0
 40
1.0
 10
326.5726750753
 20
120.0358463662
 30
0.0
 10
326.5291419295
 20
120.0768934584
 30
0.0
 10
326.4110903094
 20
120.1443521711
 30
0.0
 10
326.1942566732
 20
120.1726060506
 30
0.0
 10
325.950469028
 20
120.1349325168
 30
0.0
 10
325.7875706612
 20
120.0739962781
 30
0.0
 10
325.706649672
 20
120.0358463667
 30
0.0
  0
SPLINE
  5
430
100
AcDbEntity
  8
70538-16_2
100
AcDbSpline
 62
7
  6
CONTINUOUS
 70
0
 71
3
 72
11
 73
7
 74
0
 42
0.0000001
 43
0.0000001
 44
0.0000000001
 40
0.0
 40
0.0
 40
0.0
 40
0.0
 40
0.2499628686
 40
0.4999496712
 40
0.7499617781
 40
1.0
 40
1.0
 40
1.0
 40
1.0
 10
318.4897713107
 20
118.2278963631
 30
0.0
 10
319.1145202331
 20
118.2278963633
 30
0.0
 10
320.3656822112
 20
118.3158333358
 30
0.0
 10
322.2062584953
 20
118.6936239843
 30
0.0
 10
323.9915546084
 20
119.2757473065
 30
0.0
 10
325.1413817905
 20
119.7693528425
 30
0.0
 10
325.706649672
 20
120.0358463667
 30
0.0
  0
LINE
  5
431
100
AcDbEntity
  8
70538-16_2
100
AcDbLine
 62
7
  6
CONTINUOUS
 10
303.0560166418
 20
120.1616512356
 11
303.1899891732
 21
120.0358463664
  0
SPLINE
  5
432
100
AcDbEntity
  8
70538-16_2
100
AcDbSpline
 62
7
  6
CONTINUOUS
 70
0
 71
3
 72
13
 73
9
 74
0
 42
0.0000001
 43
0.0000001
 44
0.0000000001
 40
0.0
 40
0.0
 40
0.0
 40
0.0
 40
0.017149206
 40
0.068261119
 40
0.1525503663
 40
0.2681141796
 40
0.5848660755
 40
1.0
 40
1.0
 40
1.0
 40
1.0
 10
333.9234876111
 20
120.1616090121
 30
0.0
 10
333.9224947493
 20
120.1612666179
 30
0.0
 10
333.9199868036
 20
120.1575041965
 30
0.0
 10
333.9126662293
 20
120.151965008
 30
0.0
 10
333.9017668086
 20
120.140945277
 30
0.0
 10
333.8785491224
 20
120.1195546671
 30
0.0
 10
333.8407751068
 20
120.083891187
 30
0.0
 10
333.8080509069
 20
120.0532874955
 30
0.0
 10
333.7895534406
 20
120.0358463666
 30
0.0
  0
SPLINE
  5
433
100
AcDbEntity
  8
JSG_3
100
AcDbSpline
 62
7
  6
CONTINUOUS
 70
0
 71
3
 72
9
 73
5
 74
0
 42
0.0000001
 43
0.0000001
 44
0.0000000001
 40
0.0
 40
0.0
 40
0.0
 40
0.0
 40
0.581003824
 40
1.0
 40
1.0
 40
1.0
 40
1.0
 10
308.3375968825
 20
108.1395918321
 30
0.0
 10
308.3361413514
 20
108.1387531615
 30
0.0
 10
308.3329856011
 20
108.1369827636
 30
0.0
 10
308.3341777731
 20
108.1335121396
 30
0.0
 10
308.3350346731
 20
108.132655793
 30
0.0
  0
SPLINE
  5
434
100
AcDbEntity
  8
JSG_3
100
AcDbSpline
 62
7
  6
CONTINUOUS
 70
0
 71
3
 72
35
 73
31
 74
0
 42
0.0000001
 43
0.0000001
 44
0.0000000001
 40
0.0
 40
0.0
 40
0.0
 40
0.0
 40
0.0018540061
 40
0.0047832007
 40
0.0088059785
 40
0.0139231845
 40
0.0274155409
 40
0.0451644114
 40
0.0670273179
 40
0.0927849393
 40
0.1222007262
 40
0.1550378685
 40
0.2297506546
 40
0.3141785079
 40
0.405320915
 40
0.4998665865
 40
0.594420826
 40
0.6855786071
 40
0.7700307406
 40
0.8447783257
 40
0.8776211247
 40
0.907066877
 40
0.9328607892
 40
0.9547371556
 40
0.9724968988
 40
0.9860179702
 40
0.9911559613
 40
0.995197846
 40
0.9981391422
 40
1.0
 40
1.0
 40
1.0
 40
1.0
 10
327.4299946999
 20
133.615606433
 30
0.0
 10
327.4204295401
 20
133.6100412007
 30
0.0
 10
327.3929522127
 20
133.6010774089
 30
0.0
 10
327.3418089924
 20
133.5895234403
 30
0.0
 10
327.2706164168
 20
133.5778805479
 30
0.0
 10
327.1366859522
 20
133.5604190113
 30
0.0
 10
326.9205713536
 20
133.5398220204
 30
0.0
 10
326.6044855441
 20
133.516251047
 30
0.0
 10
326.2150062177
 20
133.4925703432
 30
0.0
 10
325.7558041572
 20
133.4687037412
 30
0.0
 10
325.231022222
 20
133.4447484536
 30
0.0
 10
324.4141722489
 20
133.4113034494
 30
0.0
 10
323.2689973079
 20
133.3705428561
 30
0.0
 10
321.7758374036
 20
133.3231470698
 30
0.0
 10
320.1642449129
 20
133.2756641865
 30
0.0
 10
318.4921875522
 20
133.2280863431
 30
0.0
 10
316.8200380468
 20
133.1805205176
 30
0.0
 10
315.208157892
 20
133.1330273519
 30
0.0
 10
313.7145533918
 20
133.0856321424
 30
0.0
 10
312.5689912905
 20
133.0448845282
 30
0.0
 10
311.7517214969
 20
133.0114183185
 30
0.0
 10
311.2265096575
 20
132.9874697941
 30
0.0
 10
310.7668301691
 20
132.963620215
 30
0.0
 10
310.3769892099
 20
132.9399259145
 30
0.0
 10
310.0605868124
 20
132.916337873
 30
0.0
 10
309.8441116735
 20
132.8957379362
 30
0.0
 10
309.7097660235
 20
132.8782924544
 30
0.0
 10
309.6382586296
 20
132.866657396
 30
0.0
 10
309.5868806395
 20
132.8551035302
 30
0.0
 10
309.5592896455
 20
132.8461320037
 30
0.0
 10
309.5496761357
 20
132.84056861
 30
0.0
  0
SPLINE
  5
435
100
AcDbEntity
  8
JSG_3
100
AcDbSpline
 62
7
  6
CONTINUOUS
 70
0
 71
3
 72
9
 73
5
 74
0
 42
0.0000001
 43
0.0000001
 44
0.0000000001
 40
0.0
 40
0.0
 40
0.0
 40
0.0
 40
0.1992964779
 40
1.0
 40
1.0
 40
1.0
 40
1.0
 10
328.7304733866
 20
140.7671348046
 30
0.0
 10
328.7288992197
 20
140.7662194018
 30
0.0
 10
328.720751216
 20
140.762057407
 30
0.0
 10
328.7120395743
 20
140.759133298
 30
0.0
 10
328.7050374562
 20
140.7570131537
 30
0.0
  0
SPLINE
  5
436
100
AcDbEntity
  8
JSG_3
100
AcDbSpline
 62
7
  6
CONTINUOUS
 70
0
 71
3
 72
27
 73
23
 74
0
 42
0.0000001
 43
0.0000001
 44
0.0000000001
 40
0.0
 40
0.0
 40
0.0
 40
0.0
 40
0.0059023118
 40
0.0158165505
 40
0.0296857267
 40
0.0474082785
 40
0.0688412636
 40
0.0938129449
 40
0.153535032
 40
0.2246330081
 40
0.3047914263
 40
0.3913983629
 40
0.4816310902
 40
0.5725486064
 40
0.6611876442
 40
0.7446594977
 40
0.8202443837
 40
0.8854806586
 40
0.9382445224
 40
0.9768265206
 40
0.9903937128
 40
1.0
 40
1.0
 40
1.0
 40
1.0
 10
328.7050374562
 20
140.7570131537
 30
0.0
 10
328.6667322686
 20
140.7454148736
 30
0.0
 10
328.56016861
 20
140.7291588404
 30
0.0
 10
328.3603811003
 20
140.706987121
 30
0.0
 10
328.0796039143
 20
140.6852447495
 30
0.0
 10
327.7208146103
 20
140.6626618517
 30
0.0
 10
327.2865377808
 20
140.6400806161
 30
0.0
 10
326.5676393602
 20
140.607815275
 30
0.0
 10
325.5119406809
 20
140.5688701212
 30
0.0
 10
324.0820358458
 20
140.523969415
 30
0.0
 10
322.4697516713
 20
140.4788785745
 30
0.0
 10
320.7276778342
 20
140.4336422356
 30
0.0
 10
318.9126261653
 20
140.388348721
 30
0.0
 10
317.0837912476
 20
140.3430442254
 30
0.0
 10
315.3008145457
 20
140.2977732889
 30
0.0
 10
313.6218355143
 20
140.252611345
 30
0.0
 10
312.1016111835
 20
140.2075853595
 30
0.0
 10
310.7896779811
 20
140.1630340041
 30
0.0
 10
309.7288679411
 20
140.1187482274
 30
0.0
 10
309.0183936928
 20
140.0803915907
 30
0.0
 10
308.6010023926
 20
140.0468076272
 30
0.0
 10
308.4446965128
 20
140.0298398035
 30
0.0
 10
308.3802886228
 20
140.0201102632
 30
0.0
  0
SPLINE
  5
437
100
AcDbEntity
  8
JSG_3
100
AcDbSpline
 62
7
  6
CONTINUOUS
 70
0
 71
3
 72
9
 73
5
 74
0
 42
0.0000001
 43
0.0000001
 44
0.0000000001
 40
0.0
 40
0.0
 40
0.0
 40
0.0
 40
0.3098278966
 40
1.0
 40
1.0
 40
1.0
 40
1.0
 10
308.3802886228
 20
140.0201102632
 30
0.0
 10
308.3693189151
 20
140.0184531648
 30
0.0
 10
308.3339928035
 20
140.012731612
 30
0.0
 10
308.2986790622
 20
140.0060435881
 30
0.0
 10
308.2750121047
 20
139.9989285134
 30
0.0
  0
SPLINE
  5
438
100
AcDbEntity
  8
JSG_3
100
AcDbSpline
 62
7
  6
CONTINUOUS
 70
0
 71
3
 72
9
 73
5
 74
0
 42
0.0000001
 43
0.0000001
 44
0.0000000001
 40
0.0
 40
0.0
 40
0.0
 40
0.0
 40
0.6623958413
 40
1.0
 40
1.0
 40
1.0
 40
1.0
 10
308.2750121047
 20
139.9989285134
 30
0.0
 10
308.2663170689
 20
139.9963144963
 30
0.0
 10
308.2540997751
 20
139.9923530308
 30
0.0
 10
308.2407896778
 20
139.9836555575
 30
0.0
 10
308.2398919736
 20
139.9791159217
 30
0.0
  0
SPLINE
  5
439
100
AcDbEntity
  8
JSG_3
100
AcDbSpline
 62
7
  6
CONTINUOUS
 70
0
 71
3
 72
35
 73
31
 74
0
 42
0.0000001
 43
0.0000001
 44
0.0000000001
 40
0.0
 40
0.0
 40
0.0
 40
0.0
 40
0.0018627189
 40
0.0048077175
 40
0.0088562553
 40
0.0140023348
 40
0.0275364131
 40
0.0453009956
 40
0.0671811337
 40
0.0929828106
 40
0.1224365863
 40
0.1552836173
 40
0.2300311773
 40
0.3144866065
 40
0.4056372104
 40
0.5001866436
 40
0.5947235747
 40
0.6858563028
 40
0.7702761387
 40
0.8449768365
 40
0.8778137161
 40
0.9072296103
 40
0.9329808133
 40
0.95483809
 40
0.9725905072
 40
0.986085525
 40
0.9912003358
 40
0.9952194427
 40
0.9981459116
 40
1.0
 40
1.0
 40
1.0
 40
1.0
 10
327.4297606242
 20
114.415411314
 30
0.0
 10
327.4201336271
 20
114.4098492974
 30
0.0
 10
327.3925096409
 20
114.4008756172
 30
0.0
 10
327.3410566055
 20
114.3893228969
 30
0.0
 10
327.2694381643
 20
114.377691419
 30
0.0
 10
327.1349260497
 20
114.3602530064
 30
0.0
 10
326.9182979462
 20
114.3396559747
 30
0.0
 10
326.6017698633
 20
114.3160638852
 30
0.0
 10
326.2118353216
 20
114.2923694006
 30
0.0
 10
325.7520438034
 20
114.2685230907
 30
0.0
 10
325.226717959
 20
114.2445784553
 30
0.0
 10
324.4093839018
 20
114.2111172703
 30
0.0
 10
323.2637897372
 20
114.1703657575
 30
0.0
 10
321.7702245488
 20
114.1229842408
 30
0.0
 10
320.1584141131
 20
114.0754874692
 30
0.0
 10
318.4864064688
 20
114.0279310497
 30
0.0
 10
316.8145061363
 20
113.9803547067
 30
0.0
 10
315.2030891061
 20
113.9328762612
 30
0.0
 10
313.7101232531
 20
113.8854875864
 30
0.0
 10
312.5650826584
 20
113.8447245225
 30
0.0
 10
311.7483145846
 20
113.8112853902
 30
0.0
 10
311.2235774973
 20
113.7873345578
 30
0.0
 10
310.7644519028
 20
113.7634666559
 30
0.0
 10
310.3750280143
 20
113.7397814952
 30
0.0
 10
310.0589418278
 20
113.7162169232
 30
0.0
 10
309.8428058484
 20
113.6956302171
 30
0.0
 10
309.7088972619
 20
113.6781659096
 30
0.0
 10
309.6377596151
 20
113.6665214771
 30
0.0
 10
309.5866543499
 20
113.6549648828
 30
0.0
 10
309.5591971767
 20
113.6460000432
 30
0.0
 10
309.5496280276
 20
113.6404409383
 30
0.0
  0
SPLINE
  5
43A
100
AcDbEntity
  8
JSG_3
100
AcDbSpline
 62
7
  6
CONTINUOUS
 70
0
 71
3
 72
9
 73
5
 74
0
 42
0.0000001
 43
0.0000001
 44
0.0000000001
 40
0.0
 40
0.0
 40
0.0
 40
0.0
 40
0.2006592064
 40
1.0
 40
1.0
 40
1.0
 40
1.0
 10
328.73012334
 20
115.1667859034
 30
0.0
 10
328.7285565196
 20
115.165886479
 30
0.0
 10
328.7205126133
 20
115.1618163293
 30
0.0
 10
328.7119278144
 20
115.1589418491
 30
0.0
 10
328.7050374571
 20
115.156864061
 30
0.0
  0
SPLINE
  5
43B
100
AcDbEntity
  8
JSG_3
100
AcDbSpline
 62
7
  6
CONTINUOUS
 70
0
 71
3
 72
27
 73
23
 74
0
 42
0.0000001
 43
0.0000001
 44
0.0000000001
 40
0.0
 40
0.0
 40
0.0
 40
0.0
 40
0.0059008087
 40
0.0158149327
 40
0.0296842982
 40
0.0474068768
 40
0.0688398694
 40
0.0938115927
 40
0.1535337752
 40
0.2246318613
 40
0.304790404
 40
0.391397475
 40
0.4816303425
 40
0.5725479999
 40
0.6611871753
 40
0.7446591584
 40
0.8202441622
 40
0.8854805366
 40
0.9382444889
 40
0.9768265257
 40
0.9903939099
 40
1.0
 40
1.0
 40
1.0
 40
1.0
 10
328.7050374571
 20
115.156864061
 30
0.0
 10
328.6667289759
 20
115.1453121333
 30
0.0
 10
328.5601465332
 20
115.1292500858
 30
0.0
 10
328.3603829945
 20
115.107004155
 30
0.0
 10
328.0796048355
 20
115.0852282214
 30
0.0
 10
327.7208150046
 20
115.0626553068
 30
0.0
 10
327.286537327
 20
115.0400867257
 30
0.0
 10
326.5676396032
 20
115.0078131895
 30
0.0
 10
325.5119406336
 20
114.9688706741
 30
0.0
 10
324.082035872
 20
114.9239692567
 30
0.0
 10
322.4697516712
 20
114.8788786292
 30
0.0
 10
320.7276778421
 20
114.8336422239
 30
0.0
 10
318.9126261717
 20
114.7883486924
 30
0.0
 10
317.0837912472
 20
114.7430443549
 30
0.0
 10
315.3008145689
 20
114.6977728396
 30
0.0
 10
313.6218354547
 20
114.6526127816
 30
0.0
 10
312.1016113772
 20
114.6075811215
 30
0.0
 10
310.7896774496
 20
114.5630453174
 30
0.0
 10
309.7288692312
 20
114.5187219655
 30
0.0
 10
309.018390746
 20
114.4804343605
 30
0.0
 10
308.6010031987
 20
114.4467737379
 30
0.0
 10
308.4447034144
 20
114.4297843303
 30
0.0
 10
308.3802886228
 20
114.4201102632
 30
0.0
  0
SPLINE
  5
43C
100
AcDbEntity
  8
JSG_3
100
AcDbSpline
 62
7
  6
CONTINUOUS
 70
0
 71
3
 72
9
 73
5
 74
0
 42
0.0000001
 43
0.0000001
 44
0.0000000001
 40
0.0
 40
0.0
 40
0.0
 40
0.0
 40
0.3098585516
 40
1.0
 40
1.0
 40
1.0
 40
1.0
 10
308.3802886228
 20
114.4201102632
 30
0.0
 10
308.3693193834
 20
114.4184628596
 30
0.0
 10
308.3339972702
 20
114.4127797095
 30
0.0
 10
308.2986793917
 20
114.4061608865
 30
0.0
 10
308.2750121035
 20
114.3990740212
 30
0.0
  0
SPLINE
  5
43D
100
AcDbEntity
  8
JSG_3
100
AcDbSpline
 62
7
  6
CONTINUOUS
 70
0
 71
3
 72
9
 73
5
 74
0
 42
0.0000001
 43
0.0000001
 44
0.0000000001
 40
0.0
 40
0.0
 40
0.0
 40
0.0
 40
0.660361699
 40
1.0
 40
1.0
 40
1.0
 40
1.0
 10
308.2750121035
 20
114.3990740212
 30
0.0
 10
308.2663354834
 20
114.3964759188
 30
0.0
 10
308.2540620853
 20
114.3925291089
 30
0.0
 10
308.2408382024
 20
114.3837726618
 30
0.0
 10
308.2399053654
 20
114.3792086759
 30
0.0
  0
SPLINE
  5
43E
100
AcDbEntity
  8
JSG_3
100
AcDbSpline
 62
7
  6
CONTINUOUS
 70
0
 71
3
 72
35
 73
31
 74
0
 42
0.0000001
 43
0.0000001
 44
0.0000000001
 40
0.0
 40
0.0
 40
0.0
 40
0.0
 40
0.0018584497
 40
0.004785989
 40
0.0088073306
 40
0.0139303757
 40
0.0274617602
 40
0.0452393141
 40
0.0670875174
 40
0.0928415684
 40
0.122286098
 40
0.1551334822
 40
0.2298202755
 40
0.3142504074
 40
0.4053669313
 40
0.4998916883
 40
0.5944297506
 40
0.6855506361
 40
0.7700064491
 40
0.8447156551
 40
0.8775730594
 40
0.9070299252
 40
0.9328141017
 40
0.954685274
 40
0.9724606208
 40
0.9860057424
 40
0.9911535029
 40
0.9952003097
 40
0.9981407867
 40
1.0
 40
1.0
 40
1.0
 40
1.0
 10
327.4295535687
 20
112.8154821888
 30
0.0
 10
327.4199457789
 20
112.809938578
 30
0.0
 10
327.3924662784
 20
112.8009662114
 30
0.0
 10
327.3413114659
 20
112.7894049489
 30
0.0
 10
327.2701094474
 20
112.7777551621
 30
0.0
 10
327.1359221267
 20
112.7602894081
 30
0.0
 10
326.919372219
 20
112.7397400526
 30
0.0
 10
326.6029819176
 20
112.7161844668
 30
0.0
 10
326.2134592946
 20
112.692470899
 30
0.0
 10
325.7542141878
 20
112.6686055228
 30
0.0
 10
325.2292418719
 20
112.644680975
 30
0.0
 10
324.412348941
 20
112.6112497523
 30
0.0
 10
323.2673043581
 20
112.5704713471
 30
0.0
 10
321.7745034844
 20
112.523117187
 30
0.0
 10
320.1632462607
 20
112.4756306428
 30
0.0
 10
318.49163633
 20
112.4280696198
 30
0.0
 10
316.8199997978
 20
112.3805277338
 30
0.0
 10
315.2084843656
 20
112.3330203732
 30
0.0
 10
313.7153696524
 20
112.2856847437
 30
0.0
 10
312.5699783535
 20
112.2448963258
 30
0.0
 10
311.7528178779
 20
112.2114677249
 30
0.0
 10
311.2275323255
 20
112.187536407
 30
0.0
 10
310.7678958775
 20
112.1636770872
 30
0.0
 10
310.3780682294
 20
112.1399762932
 30
0.0
 10
310.061472264
 20
112.1164033137
 30
0.0
 10
309.8447090064
 20
112.095818101
 30
0.0
 10
309.7101351171
 20
112.0783798155
 30
0.0
 10
309.6385458887
 20
112.0667520335
 30
0.0
 10
309.5871538971
 20
112.0551986257
 30
0.0
 10
309.5595822282
 20
112.0462222041
 30
0.0
 10
309.5499776818
 20
112.0406638713
 30
0.0
  0
SPLINE
  5
43F
100
AcDbEntity
  8
JSG_3
100
AcDbSpline
 62
7
  6
CONTINUOUS
 70
0
 71
3
 72
35
 73
31
 74
0
 42
0.0000001
 43
0.0000001
 44
0.0000000001
 40
0.0
 40
0.0
 40
0.0
 40
0.0
 40
0.0018581218
 40
0.0047893145
 40
0.0088113876
 40
0.0139250981
 40
0.0274078979
 40
0.0451706707
 40
0.0670327057
 40
0.0927725059
 40
0.1221860098
 40
0.1550341142
 40
0.2297217148
 40
0.3141492374
 40
0.4052739742
 40
0.4998095593
 40
0.5943528339
 40
0.6854973867
 40
0.7699537614
 40
0.8446899532
 40
0.8775437579
 40
0.90700491
 40
0.9327971462
 40
0.9546756843
 40
0.9724544832
 40
0.9859876457
 40
0.9911300034
 40
0.9951769329
 40
0.998128002
 40
1.0
 40
1.0
 40
1.0
 40
1.0
 10
327.4300016619
 20
140.0155939844
 30
0.0
 10
327.4204050132
 20
140.0100341618
 30
0.0
 10
327.3928911546
 20
140.0010765394
 30
0.0
 10
327.3417140472
 20
139.9895196134
 30
0.0
 10
327.2705362332
 20
139.9778759446
 30
0.0
 10
327.1366891787
 20
139.9604111315
 30
0.0
 10
326.9205723181
 20
139.9397945641
 30
0.0
 10
326.6044635818
 20
139.9162679451
 30
0.0
 10
326.2150155787
 20
139.8925782227
 30
0.0
 10
325.7559415105
 20
139.8686984387
 30
0.0
 10
325.2312161826
 20
139.8447512847
 30
0.0
 10
324.4144675067
 20
139.8113310724
 30
0.0
 10
323.2693856639
 20
139.7705439404
 30
0.0
 10
321.7764895629
 20
139.7231723418
 30
0.0
 10
320.1650721581
 20
139.6756872522
 30
0.0
 10
318.4932533898
 20
139.6281148311
 30
0.0
 10
316.8213157941
 20
139.5805601366
 30
0.0
 10
315.2095621406
 20
139.5330645143
 30
0.0
 10
313.7160853145
 20
139.4856927497
 30
0.0
 10
312.5705058477
 20
139.4449317749
 30
0.0
 10
311.7531497422
 20
139.4114742426
 30
0.0
 10
311.2277917315
 20
139.3875432218
 30
0.0
 10
310.7680194351
 20
139.3636886505
 30
0.0
 10
310.3780644534
 20
139.3399798143
 30
0.0
 10
310.0614622143
 20
139.3164148414
 30
0.0
 10
309.8447753953
 20
139.2958167218
 30
0.0
 10
309.7103002692
 20
139.2783709266
 30
0.0
 10
309.6386800373
 20
139.2667263489
 30
0.0
 10
309.5871433018
 20
139.2551659615
 30
0.0
 10
309.5594215538
 20
139.2462099532
 30
0.0
 10
309.5497291871
 20
139.2406503318
 30
0.0
  0
SPLINE
  5
440
100
AcDbEntity
  8
JSG_3
100
AcDbSpline
 62
7
  6
CONTINUOUS
 70
0
 71
3
 72
9
 73
5
 74
0
 42
0.0000001
 43
0.0000001
 44
0.0000000001
 40
0.0
 40
0.0
 40
0.0
 40
0.0
 40
0.1999693848
 40
1.0
 40
1.0
 40
1.0
 40
1.0
 10
328.7302880561
 20
113.5670011771
 30
0.0
 10
328.7287173831
 20
113.566095801
 30
0.0
 10
328.7206225962
 20
113.561987041
 30
0.0
 10
328.7119797611
 20
113.5590868304
 30
0.0
 10
328.705037457
 20
113.5569863401
 30
0.0
  0
SPLINE
  5
441
100
AcDbEntity
  8
JSG_3
100
AcDbSpline
 62
7
  6
CONTINUOUS
 70
0
 71
3
 72
27
 73
23
 74
0
 42
0.0000001
 43
0.0000001
 44
0.0000000001
 40
0.0
 40
0.0
 40
0.0
 40
0.0
 40
0.0059020408
 40
0.0158162589
 40
0.0296854692
 40
0.0474080259
 40
0.0688410126
 40
0.0938127017
 40
0.1535348065
 40
0.2246328031
 40
0.3047912445
 40
0.3913982062
 40
0.4816309597
 40
0.5725485022
 40
0.6611875656
 40
0.7446594433
 40
0.8202443514
 40
0.8854806445
 40
0.9382445259
 40
0.976826528
 40
0.9903937825
 40
1.0
 40
1.0
 40
1.0
 40
1.0
 10
328.705037457
 20
113.5569863401
 30
0.0
 10
328.6667316787
 20
113.5453963961
 30
0.0
 10
328.5601646275
 20
113.5291752456
 30
0.0
 10
328.360381447
 20
113.5069901872
 30
0.0
 10
328.0796040807
 20
113.4852417761
 30
0.0
 10
327.720814685
 20
113.4626606752
 30
0.0
 10
327.2865377025
 20
113.4400817149
 30
0.0
 10
326.5676394081
 20
113.4078149001
 30
0.0
 10
325.5119406768
 20
113.3688702207
 30
0.0
 10
324.0820358552
 20
113.3239693868
 30
0.0
 10
322.469751676
 20
113.2788785841
 30
0.0
 10
320.72767784
 20
113.2336422352
 30
0.0
 10
318.9126261708
 20
113.1883487101
 30
0.0
 10
317.0837912502
 20
113.1430442701
 30
0.0
 10
315.3008145559
 20
113.0977731354
 30
0.0
 10
313.6218354958
 20
113.0526118357
 30
0.0
 10
312.1016112507
 20
113.0075839122
 30
0.0
 10
310.789677801
 20
112.963037868
 30
0.0
 10
309.7288683804
 20
112.9187392581
 30
0.0
 10
309.0183926904
 20
112.8804061983
 30
0.0
 10
308.6010026651
 20
112.8467960524
 30
0.0
 10
308.4446988746
 20
112.8298208613
 30
0.0
 10
308.3802886228
 20
112.8201102632
 30
0.0
  0
SPLINE
  5
442
100
AcDbEntity
  8
JSG_3
100
AcDbSpline
 62
7
  6
CONTINUOUS
 70
0
 71
3
 72
9
 73
5
 74
0
 42
0.0000001
 43
0.0000001
 44
0.0000000001
 40
0.0
 40
0.0
 40
0.0
 40
0.0
 40
0.3098383871
 40
1.0
 40
1.0
 40
1.0
 40
1.0
 10
308.3802886228
 20
112.8201102632
 30
0.0
 10
308.3693190754
 20
112.8184564758
 30
0.0
 10
308.3339943318
 20
112.8127480395
 30
0.0
 10
308.2986791715
 20
112.8060836452
 30
0.0
 10
308.2750121033
 20
112.7989782045
 30
0.0
  0
SPLINE
  5
443
100
AcDbEntity
  8
JSG_3
100
AcDbSpline
 62
7
  6
CONTINUOUS
 70
0
 71
3
 72
9
 73
5
 74
0
 42
0.0000001
 43
0.0000001
 44
0.0000000001
 40
0.0
 40
0.0
 40
0.0
 40
0.0
 40
0.6612905882
 40
1.0
 40
1.0
 40
1.0
 40
1.0
 10
308.2750121033
 20
112.7989782045
 30
0.0
 10
308.2663359872
 20
112.7963734194
 30
0.0
 10
308.2541028402
 20
112.7924087908
 30
0.0
 10
308.2408418671
 20
112.7837305943
 30
0.0
 10
308.2399044251
 20
112.7791864707
 30
0.0
  0
SPLINE
  5
444
100
AcDbEntity
  8
JSG_3
100
AcDbSpline
 62
7
  6
CONTINUOUS
 70
0
 71
3
 72
14
 73
10
 74
0
 42
0.0000001
 43
0.0000001
 44
0.0000000001
 40
0.0
 40
0.0
 40
0.0
 40
0.0
 40
0.4004490245
 40
0.5649214534
 40
0.7042602709
 40
0.8177580667
 40
0.9048665909
 40
0.9655029055
 40
1.0
 40
1.0
 40
1.0
 40
1.0
 10
311.1576291544
 20
137.7835754975
 30
0.0
 10
310.9420754652
 20
137.7728763137
 30
0.0
 10
310.638028665
 20
137.756596545
 30
0.0
 10
310.2593293772
 20
137.7313531318
 30
0.0
 10
310.0350524292
 20
137.7138384419
 30
0.0
 10
309.8527975801
 20
137.6963047425
 30
0.0
 10
309.7126679172
 20
137.6795105564
 30
0.0
 10
309.616564815
 20
137.6622252812
 30
0.0
 10
309.565807358
 20
137.6497667363
 30
0.0
 10
309.549711666
 20
137.6404613882
 30
0.0
  0
SPLINE
  5
445
100
AcDbEntity
  8
JSG_3
100
AcDbSpline
 62
7
  6
CONTINUOUS
 70
0
 71
3
 72
35
 73
31
 74
0
 42
0.0000001
 43
0.0000001
 44
0.0000000001
 40
0.0
 40
0.0
 40
0.0
 40
0.0
 40
0.0018697378
 40
0.0048167403
 40
0.0088618685
 40
0.014007902
 40
0.0275555899
 40
0.045336111
 40
0.0672058883
 40
0.0930015523
 40
0.1224696405
 40
0.1553215984
 40
0.2300528881
 40
0.3145086548
 40
0.4056475207
 40
0.5001850992
 40
0.594716869
 40
0.6858340042
 40
0.7702618539
 40
0.8449433325
 40
0.8777930563
 40
0.9072102425
 40
0.9329530877
 40
0.9548121877
 40
0.9725768021
 40
0.9860735993
 40
0.9911928036
 40
0.9952155828
 40
0.9981442081
 40
1.0
 40
1.0
 40
1.0
 40
1.0
 10
327.4296165562
 20
116.0153614681
 30
0.0
 10
327.4199362749
 20
116.0098083576
 30
0.0
 10
327.392259743
 20
116.0008439627
 30
0.0
 10
327.3407721319
 20
115.9892822143
 30
0.0
 10
327.2691674133
 20
115.9776361105
 30
0.0
 10
327.1345950532
 20
115.9601976341
 30
0.0
 10
326.9177920496
 20
115.9396173864
 30
0.0
 10
326.6011521568
 20
115.9160460972
 30
0.0
 10
326.2112274441
 20
115.8923279233
 30
0.0
 10
325.7514546557
 20
115.868482127
 30
0.0
 10
325.226056503
 20
115.8445559831
 30
0.0
 10
324.4087162587
 20
115.8110995598
 30
0.0
 10
323.2632045686
 20
115.7703387419
 30
0.0
 10
321.7698253871
 20
115.7229764267
 30
0.0
 10
320.158176929
 20
115.6754790913
 30
0.0
 10
318.4863647222
 20
115.6279296052
 30
0.0
 10
316.8146827398
 20
115.5803634477
 30
0.0
 10
315.2033651831
 20
115.5328754908
 30
0.0
 10
313.7105796841
 20
115.4855180284
 30
0.0
 10
312.5655468456
 20
115.444724919
 30
0.0
 10
311.7488197161
 20
115.4113136941
 30
0.0
 10
311.2240553963
 20
115.3873676709
 30
0.0
 10
310.7649680442
 20
115.363491483
 30
0.0
 10
310.3755165681
 20
115.3398001099
 30
0.0
 10
310.0593378611
 20
115.3162652199
 30
0.0
 10
309.8430968975
 20
115.2956596234
 30
0.0
 10
309.709129952
 20
115.2782031629
 30
0.0
 10
309.6379314176
 20
115.2665609901
 30
0.0
 10
309.5867803394
 20
115.2550036574
 30
0.0
 10
309.5593001617
 20
115.2460402629
 30
0.0
 10
309.5497180663
 20
115.2404835232
 30
0.0
  0
SPLINE
  5
446
100
AcDbEntity
  8
JSG_3
100
AcDbSpline
 62
7
  6
CONTINUOUS
 70
0
 71
3
 72
9
 73
5
 74
0
 42
0.0000001
 43
0.0000001
 44
0.0000000001
 40
0.0
 40
0.0
 40
0.0
 40
0.0
 40
0.2008873014
 40
1.0
 40
1.0
 40
1.0
 40
1.0
 10
328.7300526524
 20
116.7667564272
 30
0.0
 10
328.7284871999
 20
116.7658614354
 30
0.0
 10
328.7204629567
 20
116.7618130532
 30
0.0
 10
328.7119049392
 20
116.7589467381
 30
0.0
 10
328.7050374573
 20
116.7568752131
 30
0.0
  0
SPLINE
  5
447
100
AcDbEntity
  8
JSG_3
100
AcDbSpline
 62
7
  6
CONTINUOUS
 70
0
 71
3
 72
27
 73
23
 74
0
 42
0.0000001
 43
0.0000001
 44
0.0000000001
 40
0.0
 40
0.0
 40
0.0
 40
0.0
 40
0.0059009208
 40
0.0158150535
 40
0.0296844049
 40
0.0474069815
 40
0.0688399738
 40
0.093811694
 40
0.1535338698
 40
0.2246319481
 40
0.3047904821
 40
0.3913975436
 40
0.4816304012
 40
0.5725480487
 40
0.6611872144
 40
0.7446591884
 40
0.8202441839
 40
0.8854805512
 40
0.938244498
 40
0.9768265297
 40
0.9903939189
 40
1.0
 40
1.0
 40
1.0
 40
1.0
 10
328.7050374573
 20
116.7568752131
 30
0.0
 10
328.6667292233
 20
116.7453198181
 30
0.0
 10
328.5601481788
 20
116.7292432584
 30
0.0
 10
328.3603828556
 20
116.7070028821
 30
0.0
 10
328.0796047669
 20
116.6852294573
 30
0.0
 10
327.7208149768
 20
116.6626557966
 30
0.0
 10
327.2865373625
 20
116.6400862687
 30
0.0
 10
326.567639587
 20
116.6078133456
 30
0.0
 10
325.5119406392
 20
116.5688706328
 30
0.0
 10
324.0820358722
 20
116.5239692686
 30
0.0
 10
322.4697516734
 20
116.4788786249
 30
0.0
 10
320.7276778435
 20
116.4336422259
 30
0.0
 10
318.9126261734
 20
116.3883486905
 30
0.0
 10
317.0837912482
 20
116.34304436
 30
0.0
 10
315.3008145707
 20
116.2977728227
 30
0.0
 10
313.6218354532
 20
116.2526128354
 30
0.0
 10
312.101611385
 20
116.2075809629
 30
0.0
 10
310.7896774299
 20
116.1630457408
 30
0.0
 10
309.72886928
 20
116.1187209826
 30
0.0
 10
309.0183906351
 20
116.0804359612
 30
0.0
 10
308.6010032294
 20
116.0467724697
 30
0.0
 10
308.4447036719
 20
116.0297822535
 30
0.0
 10
308.3802886228
 20
116.0201102632
 30
0.0
  0
SPLINE
  5
448
100
AcDbEntity
  8
JSG_3
100
AcDbSpline
 62
7
  6
CONTINUOUS
 70
0
 71
3
 72
9
 73
5
 74
0
 42
0.0000001
 43
0.0000001
 44
0.0000000001
 40
0.0
 40
0.0
 40
0.0
 40
0.0
 40
0.3098596953
 40
1.0
 40
1.0
 40
1.0
 40
1.0
 10
308.3802886228
 20
116.0201102632
 30
0.0
 10
308.3693194008
 20
116.0184632225
 30
0.0
 10
308.3339974369
 20
116.0127815095
 30
0.0
 10
308.2986794046
 20
116.0061652773
 30
0.0
 10
308.2750121036
 20
115.9990794678
 30
0.0
  0
SPLINE
  5
449
100
AcDbEntity
  8
JSG_3
100
AcDbSpline
 62
7
  6
CONTINUOUS
 70
0
 71
3
 72
9
 73
5
 74
0
 42
0.0000001
 43
0.0000001
 44
0.0000000001
 40
0.0
 40
0.0
 40
0.0
 40
0.0
 40
0.6599130202
 40
1.0
 40
1.0
 40
1.0
 40
1.0
 10
308.2750121036
 20
115.9990794678
 30
0.0
 10
308.2663479874
 20
115.9964854974
 30
0.0
 10
308.2540765349
 20
115.9925317255
 30
0.0
 10
308.2408731847
 20
115.983810222
 30
0.0
 10
308.2399135581
 20
115.9792491966
 30
0.0
  0
SPLINE
  5
44A
100
AcDbEntity
  8
JSG_3
100
AcDbSpline
 62
7
  6
CONTINUOUS
 70
0
 71
3
 72
25
 73
21
 74
0
 42
0.0000001
 43
0.0000001
 44
0.0000000001
 40
0.0
 40
0.0
 40
0.0
 40
0.0
 40
0.0014300565
 40
0.0036496371
 40
0.0105115349
 40
0.0206014108
 40
0.0338722767
 40
0.0502498855
 40
0.0696375729
 40
0.0919205852
 40
0.1169648986
 40
0.1747209801
 40
0.2415162318
 40
0.3157413095
 40
0.395606951
 40
0.4791875448
 40
0.5644676611
 40
0.7319088834
 40
0.881876936
 40
1.0
 40
1.0
 40
1.0
 40
1.0
 10
328.7303954371
 20
139.1670839436
 30
0.0
 10
328.7227020514
 20
139.162626538
 30
0.0
 10
328.7009787846
 20
139.1552460076
 30
0.0
 10
328.6374489641
 20
139.1403772292
 30
0.0
 10
328.5190866394
 20
139.1240246637
 30
0.0
 10
328.3322517149
 20
139.1049378789
 30
0.0
 10
328.0858526783
 20
139.0858259957
 30
0.0
 10
327.7816054077
 20
139.0663703549
 30
0.0
 10
327.4212066187
 20
139.0468600868
 30
0.0
 10
327.0068685754
 20
139.0272720613
 30
0.0
 10
326.3540877254
 20
138.9997808575
 30
0.0
 10
325.4245755073
 20
138.9662216647
 30
0.0
 10
324.18929111
 20
138.927372159
 30
0.0
 10
322.8164834533
 20
138.8884008469
 30
0.0
 10
321.3392772224
 20
138.8493414311
 30
0.0
 10
319.7933143811
 20
138.8102433067
 30
0.0
 10
317.7030002915
 20
138.7583802821
 30
0.0
 10
315.2000467823
 20
138.6960773668
 30
0.0
 10
312.4931734582
 20
138.6211384414
 30
0.0
 10
310.8271923519
 20
138.5653860909
 30
0.0
 10
310.0934658
 20
138.5332378457
 30
0.0
  0
SPLINE
  5
44B
100
AcDbEntity
  8
JSG_3
100
AcDbSpline
 62
7
  6
CONTINUOUS
 70
0
 71
3
 72
12
 73
8
 74
0
 42
0.0000001
 43
0.0000001
 44
0.0000000001
 40
0.0
 40
0.0
 40
0.0
 40
0.0
 40
0.3903160371
 40
0.6877869557
 40
0.8907057144
 40
0.9568523757
 40
1.0
 40
1.0
 40
1.0
 40
1.0
 10
310.2185616064
 20
129.7278975236
 30
0.0
 10
310.1308274296
 20
129.7213699246
 30
0.0
 10
309.9762469818
 20
129.7089569061
 30
0.0
 10
309.7766985544
 20
129.6878674579
 30
0.0
 10
309.6499866707
 20
129.6697880969
 30
0.0
 10
309.5816363878
 20
129.6534788764
 30
0.0
 10
309.5581130061
 20
129.6453279113
 30
0.0
 10
309.5496977895
 20
129.6404526903
 30
0.0
  0
SPLINE
  5
44C
100
AcDbEntity
  8
JSG_3
100
AcDbSpline
 62
7
  6
CONTINUOUS
 70
0
 71
3
 72
33
 73
29
 74
0
 42
0.0000001
 43
0.0000001
 44
0.0000000001
 40
0.0
 40
0.0
 40
0.0
 40
0.0
 40
0.0018637462
 40
0.0048101193
 40
0.0088564761
 40
0.0139999878
 40
0.0275418933
 40
0.0453231385
 40
0.067195492
 40
0.0929728172
 40
0.1224355039
 40
0.15529612
 40
0.2712039745
 40
0.4055847338
 40
0.5476003145
 40
0.6178782316
 40
0.6857618678
 40
0.7498870295
 40
0.8089304612
 40
0.861710003
 40
0.9071738533
 40
0.9443407945
 40
0.9596040411
 40
0.9725503781
 40
0.983097843
 40
0.9911891183
 40
0.9968143155
 40
1.0
 40
1.0
 40
1.0
 40
1.0
 10
327.4296131529
 20
117.6153734921
 30
0.0
 10
327.4199786109
 20
117.6098129547
 30
0.0
 10
327.3923396395
 20
117.6008431434
 30
0.0
 10
327.3408850888
 20
117.5892987294
 30
0.0
 10
327.2692910648
 20
117.5776587356
 30
0.0
 10
327.1347654079
 20
117.5602108887
 30
0.0
 10
326.9180108195
 20
117.5396284957
 30
0.0
 10
326.6013904406
 20
117.5160662461
 30
0.0
 10
326.2115609992
 20
117.4923631192
 30
0.0
 10
325.7519233654
 20
117.4684940467
 30
0.0
 10
325.2266235305
 20
117.4445710888
 30
0.0
 10
324.1637118569
 20
117.401112855
 30
0.0
 10
322.4746432713
 20
117.3439869372
 30
0.0
 10
320.1341564125
 20
117.2744349939
 30
0.0
 10
318.0658032795
 20
117.2161465402
 30
0.0
 10
316.3942191758
 20
117.1680462927
 30
0.0
 10
315.1873769377
 20
117.1321312122
 30
0.0
 10
314.0476182304
 20
117.0962683091
 30
0.0
 10
312.9980570189
 20
117.0604672589
 30
0.0
 10
312.0599403068
 20
117.0248009643
 30
0.0
 10
311.2525044968
 20
116.989351893
 30
0.0
 10
310.6689962372
 20
116.9584326821
 30
0.0
 10
310.2796463448
 20
116.9328062958
 30
0.0
 10
310.0489461724
 20
116.9150410259
 30
0.0
 10
309.8613900993
 20
116.8972405961
 30
0.0
 10
309.7172162186
 20
116.8802112627
 30
0.0
 10
309.6184865921
 20
116.8626461699
 30
0.0
 10
309.5663651003
 20
116.8500518477
 30
0.0
 10
309.5498946858
 20
116.8405510478
 30
0.0
  0
SPLINE
  5
44D
100
AcDbEntity
  8
JSG_3
100
AcDbSpline
 62
7
  6
CONTINUOUS
 70
0
 71
3
 72
9
 73
5
 74
0
 42
0.0000001
 43
0.0000001
 44
0.0000000001
 40
0.0
 40
0.0
 40
0.0
 40
0.0
 40
0.2980894184
 40
1.0
 40
1.0
 40
1.0
 40
1.0
 10
309.9671766215
 20
117.7278935726
 30
0.0
 10
309.8509167915
 20
117.7226944236
 30
0.0
 10
309.4609522726
 20
117.7043295608
 30
0.0
 10
309.0710500824
 20
117.6831778324
 30
0.0
 10
308.7978153173
 20
117.6623109931
 30
0.0
  0
SPLINE
  5
44E
100
AcDbEntity
  8
JSG_3
100
AcDbSpline
 62
7
  6
CONTINUOUS
 70
0
 71
3
 72
9
 73
5
 74
0
 42
0.0000001
 43
0.0000001
 44
0.0000000001
 40
0.0
 40
0.0
 40
0.0
 40
0.0
 40
0.3103963333
 40
1.0
 40
1.0
 40
1.0
 40
1.0
 10
308.7978153173
 20
117.6623109931
 30
0.0
 10
308.7545179554
 20
117.6590043894
 30
0.0
 10
308.6151100137
 20
117.6475962802
 30
0.0
 10
308.4756904075
 20
117.634449032
 30
0.0
 10
308.3802886228
 20
117.6201102632
 30
0.0
  0
SPLINE
  5
44F
100
AcDbEntity
  8
JSG_3
100
AcDbSpline
 62
7
  6
CONTINUOUS
 70
0
 71
3
 72
9
 73
5
 74
0
 42
0.0000001
 43
0.0000001
 44
0.0000000001
 40
0.0
 40
0.0
 40
0.0
 40
0.0
 40
0.3098545512
 40
1.0
 40
1.0
 40
1.0
 40
1.0
 10
308.3802886228
 20
117.6201102632
 30
0.0
 10
308.3693193223
 20
117.6184615911
 30
0.0
 10
308.3339966872
 20
117.6127734166
 30
0.0
 10
308.298679347
 20
117.6061455369
 30
0.0
 10
308.2750121031
 20
117.5990549804
 30
0.0
  0
SPLINE
  5
450
100
AcDbEntity
  8
JSG_3
100
AcDbSpline
 62
7
  6
CONTINUOUS
 70
0
 71
3
 72
9
 73
5
 74
0
 42
0.0000001
 43
0.0000001
 44
0.0000000001
 40
0.0
 40
0.0
 40
0.0
 40
0.0
 40
0.6600947648
 40
1.0
 40
1.0
 40
1.0
 40
1.0
 10
308.2750121031
 20
117.5990549804
 30
0.0
 10
308.2663498118
 20
117.5964598128
 30
0.0
 10
308.2540890448
 20
117.5925004836
 30
0.0
 10
308.2408789349
 20
117.5838040861
 30
0.0
 10
308.2399144311
 20
117.5792486859
 30
0.0
  0
SPLINE
  5
451
100
AcDbEntity
  8
JSG_3
100
AcDbSpline
 62
7
  6
CONTINUOUS
 70
0
 71
3
 72
11
 73
7
 74
0
 42
0.0000001
 43
0.0000001
 44
0.0000000001
 40
0.0
 40
0.0
 40
0.0
 40
0.0
 40
0.3551168061
 40
0.6425145239
 40
0.8583234065
 40
1.0
 40
1.0
 40
1.0
 40
1.0
 10
310.0934658
 20
138.5332378457
 30
0.0
 10
309.8878224392
 20
138.524433636
 30
0.0
 10
309.5158073829
 20
138.5073749017
 30
0.0
 10
309.019045644
 20
138.4793471405
 30
0.0
 10
308.6463866247
 20
138.4510020657
 30
0.0
 10
308.4401357104
 20
138.4293049128
 30
0.0
 10
308.3590679019
 20
138.4162128068
 30
0.0
  0
SPLINE
  5
452
100
AcDbEntity
  8
JSG_3
100
AcDbSpline
 62
7
  6
CONTINUOUS
 70
0
 71
3
 72
9
 73
5
 74
0
 42
0.0000001
 43
0.0000001
 44
0.0000000001
 40
0.0
 40
0.0
 40
0.0
 40
0.0
 40
0.3096845705
 40
1.0
 40
1.0
 40
1.0
 40
1.0
 10
308.3590679019
 20
138.4162128068
 30
0.0
 10
308.3497497452
 20
138.4147079641
 30
0.0
 10
308.3197341854
 20
138.4095313725
 30
0.0
 10
308.289718582
 20
138.4035490167
 30
0.0
 10
308.269670365
 20
138.397164905
 30
0.0
  0
SPLINE
  5
453
100
AcDbEntity
  8
JSG_3
100
AcDbSpline
 62
7
  6
CONTINUOUS
 70
0
 71
3
 72
9
 73
5
 74
0
 42
0.0000001
 43
0.0000001
 44
0.0000000001
 40
0.0
 40
0.0
 40
0.0
 40
0.0
 40
0.6536487984
 40
1.0
 40
1.0
 40
1.0
 40
1.0
 10
308.269670365
 20
138.397164905
 30
0.0
 10
308.2622818474
 20
138.3948121211
 30
0.0
 10
308.2516056255
 20
138.3912238148
 30
0.0
 10
308.2406467436
 20
138.3831441355
 30
0.0
 10
308.2398852615
 20
138.3791066339
 30
0.0
  0
SPLINE
  5
454
100
AcDbEntity
  8
JSG_3
100
AcDbSpline
 62
7
  6
CONTINUOUS
 70
0
 71
3
 72
25
 73
21
 74
0
 42
0.0000001
 43
0.0000001
 44
0.0000000001
 40
0.0
 40
0.0
 40
0.0
 40
0.0
 40
0.0015815099
 40
0.0039390061
 40
0.0110390384
 40
0.021341795
 40
0.0348282192
 40
0.0514015808
 40
0.0709427426
 40
0.0933408263
 40
0.1184878959
 40
0.1764063027
 40
0.2432487589
 40
0.3174480178
 40
0.3972206933
 40
0.4806444097
 40
0.5657215517
 40
0.732692308
 40
0.8822056061
 40
1.0
 40
1.0
 40
1.0
 40
1.0
 10
327.4297514659
 20
138.4155430531
 30
0.0
 10
327.422313303
 20
138.4112516975
 30
0.0
 10
327.4020313905
 20
138.4038679415
 30
0.0
 10
327.3439715572
 20
138.3892039356
 30
0.0
 10
327.2377081045
 20
138.3727587343
 30
0.0
 10
327.0711413245
 20
138.3536876928
 30
0.0
 10
326.852759723
 20
138.334589917
 30
0.0
 10
326.5841429321
 20
138.3151952875
 30
0.0
 10
326.2670176341
 20
138.2957246323
 30
0.0
 10
325.9032754171
 20
138.2761683102
 30
0.0
 10
325.3312805545
 20
138.2487551395
 30
0.0
 10
324.5179876749
 20
138.2153010879
 30
0.0
 10
323.4383633837
 20
138.1765293701
 30
0.0
 10
322.2400096222
 20
138.1376466127
 30
0.0
 10
320.9515819905
 20
138.0986905852
 30
0.0
 10
319.6040653054
 20
138.059680162
 30
0.0
 10
317.7832497192
 20
138.0079576271
 30
0.0
 10
315.6037254848
 20
137.9457644365
 30
0.0
 10
313.246862903
 20
137.8711467748
 30
0.0
 10
311.7964488744
 20
137.8152422338
 30
0.0
 10
311.1576305927
 20
137.7835790284
 30
0.0
  0
SPLINE
  5
455
100
AcDbEntity
  8
JSG_3
100
AcDbSpline
 62
7
  6
CONTINUOUS
 70
0
 71
3
 72
9
 73
5
 74
0
 42
0.0000001
 43
0.0000001
 44
0.0000000001
 40
0.0
 40
0.0
 40
0.0
 40
0.0
 40
0.1994464873
 40
1.0
 40
1.0
 40
1.0
 40
1.0
 10
328.7304298024
 20
155.167111745
 30
0.0
 10
328.728856384
 20
155.1661989755
 30
0.0
 10
328.7207205604
 20
155.1620503234
 30
0.0
 10
328.7120253926
 20
155.1591314373
 30
0.0
 10
328.7050374561
 20
155.1570154537
 30
0.0
  0
SPLINE
  5
456
100
AcDbEntity
  8
JSG_3
100
AcDbSpline
 62
7
  6
CONTINUOUS
 70
0
 71
3
 72
27
 73
23
 74
0
 42
0.0000001
 43
0.0000001
 44
0.0000000001
 40
0.0
 40
0.0
 40
0.0
 40
0.0
 40
0.0059023351
 40
0.0158165756
 40
0.0296857489
 40
0.0474083004
 40
0.0688412854
 40
0.0938129662
 40
0.1535350521
 40
0.2246330267
 40
0.3047914434
 40
0.3913983782
 40
0.4816311038
 40
0.5725486181
 40
0.6611876541
 40
0.744659506
 40
0.8202443905
 40
0.8854806639
 40
0.938244527
 40
0.9768265233
 40
0.9903937244
 40
1.0
 40
1.0
 40
1.0
 40
1.0
 10
328.7050374561
 20
155.1570154537
 30
0.0
 10
328.6667323191
 20
155.1454164586
 30
0.0
 10
328.5601689519
 20
155.1291574333
 30
0.0
 10
328.3603810704
 20
155.1069868579
 30
0.0
 10
328.0796039
 20
155.0852450045
 30
0.0
 10
327.7208146038
 20
155.0626619526
 30
0.0
 10
327.2865377874
 20
155.0400805218
 30
0.0
 10
326.567639356
 20
155.0078153071
 30
0.0
 10
325.5119406812
 20
154.9688701127
 30
0.0
 10
324.0820358449
 20
154.9239694175
 30
0.0
 10
322.4697516708
 20
154.8788785735
 30
0.0
 10
320.7276778335
 20
154.8336422365
 30
0.0
 10
318.9126261648
 20
154.7883487189
 30
0.0
 10
317.0837912468
 20
154.7430442325
 30
0.0
 10
315.3008145464
 20
154.6977732647
 30
0.0
 10
313.6218355106
 20
154.6526114223
 30
0.0
 10
312.1016111935
 20
154.6075851315
 30
0.0
 10
310.7896779524
 20
154.5630346127
 30
0.0
 10
309.72886801
 20
154.5187468146
 30
0.0
 10
309.0183935351
 20
154.4803938916
 30
0.0
 10
308.6010024353
 20
154.446805804
 30
0.0
 10
308.4446968852
 20
154.4298368201
 30
0.0
 10
308.3802886228
 20
154.4201102632
 30
0.0
  0
SPLINE
  5
457
100
AcDbEntity
  8
JSG_3
100
AcDbSpline
 62
7
  6
CONTINUOUS
 70
0
 71
3
 72
9
 73
5
 74
0
 42
0.0000001
 43
0.0000001
 44
0.0000000001
 40
0.0
 40
0.0
 40
0.0
 40
0.0
 40
0.3098295504
 40
1.0
 40
1.0
 40
1.0
 40
1.0
 10
308.3802886228
 20
154.4201102632
 30
0.0
 10
308.3693189404
 20
154.4184536863
 30
0.0
 10
308.3339930444
 20
154.4127341996
 30
0.0
 10
308.2986790792
 20
154.4060498972
 30
0.0
 10
308.2750121044
 20
154.39893634
 30
0.0
  0
SPLINE
  5
458
100
AcDbEntity
  8
JSG_3
100
AcDbSpline
 62
7
  6
CONTINUOUS
 70
0
 71
3
 72
9
 73
5
 74
0
 42
0.0000001
 43
0.0000001
 44
0.0000000001
 40
0.0
 40
0.0
 40
0.0
 40
0.0
 40
0.6621399398
 40
1.0
 40
1.0
 40
1.0
 40
1.0
 10
308.2750121044
 20
154.39893634
 30
0.0
 10
308.2663225448
 20
154.3963245283
 30
0.0
 10
308.2541033521
 20
154.3923608801
 30
0.0
 10
308.2408049351
 20
154.3836743212
 30
0.0
 10
308.2398954346
 20
154.3791346908
 30
0.0
  0
SPLINE
  5
459
100
AcDbEntity
  8
JSG_3
100
AcDbSpline
 62
7
  6
CONTINUOUS
 70
0
 71
3
 72
35
 73
31
 74
0
 42
0.0000001
 43
0.0000001
 44
0.0000000001
 40
0.0
 40
0.0
 40
0.0
 40
0.0
 40
0.0018590836
 40
0.0047859416
 40
0.008802029
 40
0.0139131239
 40
0.0274154852
 40
0.045186451
 40
0.0670359164
 40
0.0927759124
 40
0.1222045117
 40
0.1550461408
 40
0.2297298839
 40
0.3141499547
 40
0.4052733953
 40
0.4997992474
 40
0.5943445051
 40
0.6854791875
 40
0.7699420278
 40
0.8446721452
 40
0.8775288798
 40
0.9069872622
 40
0.9327818888
 40
0.9546674283
 40
0.9724397175
 40
0.9859796987
 40
0.9911301885
 40
0.9951845732
 40
0.9981360645
 40
1.0
 40
1.0
 40
1.0
 40
1.0
 10
327.4297969997
 20
154.4155655551
 30
0.0
 10
327.4201865763
 20
154.4100184191
 30
0.0
 10
327.3927027573
 20
154.4010547186
 30
0.0
 10
327.341580738
 20
154.3894920963
 30
0.0
 10
327.2704848471
 20
154.377842875
 30
0.0
 10
327.1365743847
 20
154.360365147
 30
0.0
 10
326.9203059238
 20
154.3397940754
 30
0.0
 10
326.604112362
 20
154.3162566608
 30
0.0
 10
326.2146960715
 20
154.2925512051
 30
0.0
 10
325.7556123958
 20
154.2686764026
 30
0.0
 10
325.2308415864
 20
154.2447460089
 30
0.0
 10
324.4140774758
 20
154.2113103258
 30
0.0
 10
323.2691185321
 20
154.1705392552
 30
0.0
 10
321.7763204063
 20
154.1231647286
 30
0.0
 10
320.1650374618
 20
154.0756875667
 30
0.0
 10
318.4932980152
 20
154.0281140308
 30
0.0
 10
316.8214905864
 20
153.98056998
 30
0.0
 10
315.2097701362
 20
153.9330630975
 30
0.0
 10
313.7163718272
 20
153.8857113159
 30
0.0
 10
312.5707904202
 20
153.8449348887
 30
0.0
 10
311.7534813944
 20
153.8114928041
 30
0.0
 10
311.2281161394
 20
153.7875596268
 30
0.0
 10
310.7683116646
 20
153.7636985764
 30
0.0
 10
310.3783440564
 20
153.7400094745
 30
0.0
 10
310.0617041291
 20
153.7164276946
 30
0.0
 10
309.8449701836
 20
153.6958272455
 30
0.0
 10
309.7103619103
 20
153.6783913559
 30
0.0
 10
309.6386430473
 20
153.6667558826
 30
0.0
 10
309.5871066198
 20
153.6552174188
 30
0.0
 10
309.559430435
 20
153.6462462541
 30
0.0
 10
309.5497987715
 20
153.640677991
 30
0.0
  0
SPLINE
  5
45A
100
AcDbEntity
  8
JSG_3
100
AcDbSpline
 62
7
  6
CONTINUOUS
 70
0
 71
3
 72
17
 73
13
 74
0
 42
0.0000001
 43
0.0000001
 44
0.0000000001
 40
0.0
 40
0.0
 40
0.0
 40
0.0
 40
0.2188157926
 40
0.4124945705
 40
0.5799520356
 40
0.7203195739
 40
0.8329084531
 40
0.9171596772
 40
0.948576745
 40
0.9728306986
 40
0.9899316949
 40
1.0
 40
1.0
 40
1.0
 40
1.0
 10
309.967352766
 20
108.2279028457
 30
0.0
 10
309.8482528394
 20
108.2244075649
 30
0.0
 10
309.6237448097
 20
108.2174775897
 30
0.0
 10
309.3081339279
 20
108.2065067299
 30
0.0
 10
309.0352661559
 20
108.1956999498
 30
0.0
 10
308.8065767305
 20
108.185076376
 30
0.0
 10
308.6232765088
 20
108.1744484929
 30
0.0
 10
308.4992963257
 20
108.1650032105
 30
0.0
 10
308.4235687494
 20
108.1568959542
 30
0.0
 10
308.384218723
 20
108.1516046433
 30
0.0
 10
308.3568553495
 20
108.1462862469
 30
0.0
 10
308.3423472127
 20
108.1423289517
 30
0.0
 10
308.3375968825
 20
108.1395918321
 30
0.0
  0
SPLINE
  5
45B
100
AcDbEntity
  8
JSG_3
100
AcDbSpline
 62
7
  6
CONTINUOUS
 70
0
 71
3
 72
16
 73
12
 74
0
 42
0.0000001
 43
0.0000001
 44
0.0000000001
 40
0.0
 40
0.0
 40
0.0
 40
0.0
 40
0.339163517
 40
0.5009151207
 40
0.648896437
 40
0.7773131809
 40
0.8811413086
 40
0.9225272331
 40
0.9563320142
 40
0.9822337992
 40
1.0
 40
1.0
 40
1.0
 40
1.0
 10
320.2696651281
 20
132.4223408069
 30
0.0
 10
318.9236445254
 20
132.3887772329
 30
0.0
 10
316.9356705747
 20
132.3399131802
 30
0.0
 10
314.3604971782
 20
132.2730243997
 30
0.0
 10
312.6217859497
 20
132.2238131701
 30
0.0
 10
311.1131268936
 20
132.1748921203
 30
0.0
 10
310.0276484588
 20
132.1323150596
 30
0.0
 10
309.3178683628
 20
132.0965268338
 30
0.0
 10
308.9172552437
 20
132.0720911744
 30
0.0
 10
308.6106825943
 20
132.0478137904
 30
0.0
 10
308.4382005878
 20
132.0292295384
 30
0.0
 10
308.3685227961
 20
132.0183004123
 30
0.0
  0
SPLINE
  5
45C
100
AcDbEntity
  8
JSG_3
100
AcDbSpline
 62
7
  6
CONTINUOUS
 70
0
 71
3
 72
9
 73
5
 74
0
 42
0.0000001
 43
0.0000001
 44
0.0000000001
 40
0.0
 40
0.0
 40
0.0
 40
0.0
 40
0.3096978187
 40
1.0
 40
1.0
 40
1.0
 40
1.0
 10
308.3685227961
 20
132.0183004123
 30
0.0
 10
308.3584680876
 20
132.0167233075
 30
0.0
 10
308.3260801245
 20
132.0112814634
 30
0.0
 10
308.2936987776
 20
132.0049371584
 30
0.0
 10
308.2720481221
 20
131.9981636107
 30
0.0
  0
SPLINE
  5
45D
100
AcDbEntity
  8
JSG_3
100
AcDbSpline
 62
7
  6
CONTINUOUS
 70
0
 71
3
 72
9
 73
5
 74
0
 42
0.0000001
 43
0.0000001
 44
0.0000000001
 40
0.0
 40
0.0
 40
0.0
 40
0.0
 40
0.6566905015
 40
1.0
 40
1.0
 40
1.0
 40
1.0
 10
308.2720481221
 20
131.9981636107
 30
0.0
 10
308.2640805275
 20
131.9956708972
 30
0.0
 10
308.2526800433
 20
131.9918695754
 30
0.0
 10
308.240726082
 20
131.9834295642
 30
0.0
 10
308.2398927388
 20
131.979145411
 30
0.0
  0
SPLINE
  5
45E
100
AcDbEntity
  8
JSG_3
100
AcDbSpline
 62
7
  6
CONTINUOUS
 70
0
 71
3
 72
9
 73
5
 74
0
 42
0.0000001
 43
0.0000001
 44
0.0000000001
 40
0.0
 40
0.0
 40
0.0
 40
0.0
 40
0.2000038766
 40
1.0
 40
1.0
 40
1.0
 40
1.0
 10
308.2492342573
 20
148.0888782386
 30
0.0
 10
308.2508047518
 20
148.08978784
 30
0.0
 10
308.258901707
 20
148.0939112677
 30
0.0
 10
308.2675552515
 20
148.0968094126
 30
0.0
 10
308.2745051565
 20
148.0989064379
 30
0.0
  0
SPLINE
  5
45F
100
AcDbEntity
  8
JSG_3
100
AcDbSpline
 62
7
  6
CONTINUOUS
 70
0
 71
3
 72
27
 73
23
 74
0
 42
0.0000001
 43
0.0000001
 44
0.0000000001
 40
0.0
 40
0.0
 40
0.0
 40
0.0
 40
0.0059010321
 40
0.0158151731
 40
0.0296845102
 40
0.0474070846
 40
0.0688400759
 40
0.0938117927
 40
0.1535339605
 40
0.2246320296
 40
0.3047905531
 40
0.3913976034
 40
0.4816304493
 40
0.572548085
 40
0.6611872391
 40
0.7446592023
 40
0.8202441879
 40
0.8854805473
 40
0.938244485
 40
0.976826519
 40
0.9903938486
 40
1.0
 40
1.0
 40
1.0
 40
1.0
 10
308.2745051565
 20
148.0989064379
 30
0.0
 10
308.3128131452
 20
148.1104652758
 30
0.0
 10
308.4193928002
 20
148.1265562458
 30
0.0
 10
308.6191598967
 20
148.148791107
 30
0.0
 10
308.8999379152
 20
148.1705620404
 30
0.0
 10
309.258727665
 20
148.193136442
 30
0.0
 10
309.6930052165
 20
148.21570691
 30
0.0
 10
310.4119030434
 20
148.2479792244
 30
0.0
 10
311.4676019696
 20
148.2869221331
 30
0.0
 10
312.8975067419
 20
148.3318234446
 30
0.0
 10
314.5097909388
 20
148.3769141034
 30
0.0
 10
316.2518647692
 20
148.4221505006
 30
0.0
 10
318.0669164399
 20
148.4674440227
 30
0.0
 10
319.8957513629
 20
148.5127484092
 30
0.0
 10
321.678728049
 20
148.5580197503
 30
0.0
 10
323.3577071389
 20
148.6031803744
 30
0.0
 10
324.8779312934
 20
148.6482103317
 30
0.0
 10
326.1898650032
 20
148.6927508022
 30
0.0
 10
327.250673771
 20
148.7370628793
 30
0.0
 10
327.96115098
 20
148.7753711977
 30
0.0
 10
328.3785396598
 20
148.8090088187
 30
0.0
 10
328.5348412661
 20
148.8259917459
 30
0.0
 10
328.5992539912
 20
148.8356824617
 30
0.0
  0
SPLINE
  5
460
100
AcDbEntity
  8
JSG_3
100
AcDbSpline
 62
7
  6
CONTINUOUS
 70
0
 71
3
 72
9
 73
5
 74
0
 42
0.0000001
 43
0.0000001
 44
0.0000000001
 40
0.0
 40
0.0
 40
0.0
 40
0.0
 40
0.3098493727
 40
1.0
 40
1.0
 40
1.0
 40
1.0
 10
328.5992539912
 20
148.8356824617
 30
0.0
 10
328.6102233708
 20
148.8373327745
 30
0.0
 10
328.6455466814
 20
148.843027447
 30
0.0
 10
328.6808633242
 20
148.8496670389
 30
0.0
 10
328.7045305111
 20
148.856762369
 30
0.0
  0
SPLINE
  5
461
100
AcDbEntity
  8
JSG_3
100
AcDbSpline
 62
7
  6
CONTINUOUS
 70
0
 71
3
 72
9
 73
5
 74
0
 42
0.0000001
 43
0.0000001
 44
0.0000000001
 40
0.0
 40
0.0
 40
0.0
 40
0.0
 40
0.6613275345
 40
1.0
 40
1.0
 40
1.0
 40
1.0
 10
328.7045305111
 20
148.856762369
 30
0.0
 10
328.7132239135
 20
148.8593686171
 30
0.0
 10
328.7254843108
 20
148.8633123243
 30
0.0
 10
328.7387504899
 20
148.8720870423
 30
0.0
 10
328.7396483448
 20
148.8766472349
 30
0.0
  0
SPLINE
  5
462
100
AcDbEntity
  8
JSG_3
100
AcDbSpline
 62
7
  6
CONTINUOUS
 70
0
 71
3
 72
9
 73
5
 74
0
 42
0.0000001
 43
0.0000001
 44
0.0000000001
 40
0.0
 40
0.0
 40
0.0
 40
0.0
 40
0.1998512181
 40
1.0
 40
1.0
 40
1.0
 40
1.0
 10
328.7303196556
 20
153.5670278009
 30
0.0
 10
328.728748346
 20
153.5661208419
 30
0.0
 10
328.7206443274
 20
153.562003396
 30
0.0
 10
328.7119898991
 20
153.559098927
 30
0.0
 10
328.7050374568
 20
153.5569948771
 30
0.0
  0
SPLINE
  5
463
100
AcDbEntity
  8
JSG_3
100
AcDbSpline
 62
7
  6
CONTINUOUS
 70
0
 71
3
 72
27
 73
23
 74
0
 42
0.0000001
 43
0.0000001
 44
0.0000000001
 40
0.0
 40
0.0
 40
0.0
 40
0.0
 40
0.0059021271
 40
0.0158163517
 40
0.0296855512
 40
0.0474081064
 40
0.0688410926
 40
0.0938127793
 40
0.1535348786
 40
0.2246328688
 40
0.304791303
 40
0.3913982569
 40
0.4816310023
 40
0.5725485366
 40
0.6611875921
 40
0.7446594623
 40
0.8202443635
 40
0.8854806509
 40
0.9382445271
 40
0.9768265271
 40
0.9903937684
 40
1.0
 40
1.0
 40
1.0
 40
1.0
 10
328.7050374568
 20
153.5569948771
 30
0.0
 10
328.6667318666
 20
153.5454022791
 30
0.0
 10
328.5601658949
 20
153.5291700222
 30
0.0
 10
328.3603813369
 20
153.5069892111
 30
0.0
 10
328.0796040277
 20
153.4852427227
 30
0.0
 10
327.7208146614
 20
153.4626610498
 30
0.0
 10
327.2865377276
 20
153.440081365
 30
0.0
 10
326.567639393
 20
153.4078150195
 30
0.0
 10
325.5119406783
 20
153.3688701891
 30
0.0
 10
324.0820358524
 20
153.3239693958
 30
0.0
 10
322.4697516748
 20
153.2788785809
 30
0.0
 10
320.7276778384
 20
153.2336422357
 30
0.0
 10
318.9126261693
 20
153.1883487122
 30
0.0
 10
317.0837912493
 20
153.1430442609
 30
0.0
 10
315.3008145535
 20
153.0977731671
 30
0.0
 10
313.6218354994
 20
153.0526117343
 30
0.0
 10
312.1016112366
 20
153.0075842112
 30
0.0
 10
310.7896778382
 20
152.9630370697
 30
0.0
 10
309.7288682894
 20
152.9187411111
 30
0.0
 10
309.0183928978
 20
152.8804031805
 30
0.0
 10
308.6010026085
 20
152.8467984436
 30
0.0
 10
308.4446983871
 20
152.8298247749
 30
0.0
 10
308.3802886228
 20
152.8201102632
 30
0.0
  0
SPLINE
  5
464
100
AcDbEntity
  8
JSG_3
100
AcDbSpline
 62
7
  6
CONTINUOUS
 70
0
 71
3
 72
9
 73
5
 74
0
 42
0.0000001
 43
0.0000001
 44
0.0000000001
 40
0.0
 40
0.0
 40
0.0
 40
0.0
 40
0.3098362216
 40
1.0
 40
1.0
 40
1.0
 40
1.0
 10
308.3802886228
 20
152.8201102632
 30
0.0
 10
308.3693190423
 20
152.8184557917
 30
0.0
 10
308.3339940163
 20
152.8127446458
 30
0.0
 10
308.2986791487
 20
152.8060753694
 30
0.0
 10
308.2750121035
 20
152.7989679384
 30
0.0
  0
SPLINE
  5
465
100
AcDbEntity
  8
JSG_3
100
AcDbSpline
 62
7
  6
CONTINUOUS
 70
0
 71
3
 72
9
 73
5
 74
0
 42
0.0000001
 43
0.0000001
 44
0.0000000001
 40
0.0
 40
0.0
 40
0.0
 40
0.0
 40
0.6614799727
 40
1.0
 40
1.0
 40
1.0
 40
1.0
 10
308.2750121035
 20
152.7989679384
 30
0.0
 10
308.2663332562
 20
152.7963616008
 30
0.0
 10
308.2541036364
 20
152.792396831
 30
0.0
 10
308.2408344095
 20
152.7837183533
 30
0.0
 10
308.2399025517
 20
152.779175485
 30
0.0
  0
SPLINE
  5
466
100
AcDbEntity
  8
JSG_3
100
AcDbSpline
 62
7
  6
CONTINUOUS
 70
0
 71
3
 72
9
 73
5
 74
0
 42
0.0000001
 43
0.0000001
 44
0.0000000001
 40
0.0
 40
0.0
 40
0.0
 40
0.0
 40
0.1990567243
 40
1.0
 40
1.0
 40
1.0
 40
1.0
 10
308.2490598775
 20
112.8886573474
 30
0.0
 10
308.2506435608
 20
112.8895789041
 30
0.0
 10
308.2588527613
 20
112.893770867
 30
0.0
 10
308.2676320918
 20
112.8967091256
 30
0.0
 10
308.2746899854
 20
112.8988402082
 30
0.0
  0
SPLINE
  5
467
100
AcDbEntity
  8
JSG_3
100
AcDbSpline
 62
7
  6
CONTINUOUS
 70
0
 71
3
 72
27
 73
23
 74
0
 42
0.0000001
 43
0.0000001
 44
0.0000000001
 40
0.0
 40
0.0
 40
0.0
 40
0.0
 40
0.0059134997
 40
0.015840688
 40
0.0297239717
 40
0.0474615937
 40
0.0689105769
 40
0.0938988985
 40
0.1536550947
 40
0.2247886569
 40
0.3049802938
 40
0.3916142454
 40
0.4818705712
 40
0.5728039418
 40
0.6614458534
 40
0.7449070733
 40
0.8204690517
 40
0.8856685491
 40
0.9383813662
 40
0.976900154
 40
0.9904317245
 40
1.0
 40
1.0
 40
1.0
 40
1.0
 10
308.2746899854
 20
112.8988402082
 30
0.0
 10
308.3130792764
 20
112.9104315912
 30
0.0
 10
308.4198117912
 20
112.9266912954
 30
0.0
 10
308.6198750444
 20
112.9488687998
 30
0.0
 10
308.9009555436
 20
112.9706205584
 30
0.0
 10
309.2600757278
 20
112.9932078412
 30
0.0
 10
309.6947047998
 20
113.0157941025
 30
0.0
 10
310.4141036044
 20
113.0480657549
 30
0.0
 10
311.4704574869
 20
113.0870195335
 30
0.0
 10
312.9011546342
 20
113.1319309003
 30
0.0
 10
314.5141949418
 20
113.1770327952
 30
0.0
 10
316.2569521734
 20
113.2222791313
 30
0.0
 10
318.0725742229
 20
113.2675837256
 30
0.0
 10
319.901816659
 20
113.3129000551
 30
0.0
 10
321.6849656639
 20
113.3581815285
 30
0.0
 10
323.3638472499
 20
113.4033529038
 30
0.0
 10
324.883694495
 20
113.4483889983
 30
0.0
 10
326.1949630359
 20
113.4929471088
 30
0.0
 10
327.2548171563
 20
113.537241144
 30
0.0
 10
327.9643219171
 20
113.5755976308
 30
0.0
 10
328.3808079572
 20
113.6091978408
 30
0.0
 10
328.5366230037
 20
113.6261689052
 30
0.0
 10
328.600772524
 20
113.635911694
 30
0.0
  0
SPLINE
  5
468
100
AcDbEntity
  8
JSG_3
100
AcDbSpline
 62
7
  6
CONTINUOUS
 70
0
 71
3
 72
9
 73
5
 74
0
 42
0.0000001
 43
0.0000001
 44
0.0000000001
 40
0.0
 40
0.0
 40
0.0
 40
0.0
 40
0.3097529672
 40
1.0
 40
1.0
 40
1.0
 40
1.0
 10
328.600772524
 20
113.635911694
 30
0.0
 10
328.6116171057
 20
113.6375587285
 30
0.0
 10
328.6465480731
 20
113.6432462787
 30
0.0
 10
328.6814658465
 20
113.6498957544
 30
0.0
 10
328.7048646201
 20
113.656963686
 30
0.0
  0
SPLINE
  5
469
100
AcDbEntity
  8
JSG_3
100
AcDbSpline
 62
7
  6
CONTINUOUS
 70
0
 71
3
 72
9
 73
5
 74
0
 42
0.0000001
 43
0.0000001
 44
0.0000000001
 40
0.0
 40
0.0
 40
0.0
 40
0.0
 40
0.6621040767
 40
1.0
 40
1.0
 40
1.0
 40
1.0
 10
328.7048646201
 20
113.656963686
 30
0.0
 10
328.7134826517
 20
113.6595668848
 30
0.0
 10
328.7256035399
 20
113.6635093931
 30
0.0
 10
328.7387739031
 20
113.6721835075
 30
0.0
 10
328.7396538038
 20
113.6766928268
 30
0.0
  0
SPLINE
  5
46A
100
AcDbEntity
  8
JSG_3
100
AcDbSpline
 62
7
  6
CONTINUOUS
 70
0
 71
3
 72
9
 73
5
 74
0
 42
0.0000001
 43
0.0000001
 44
0.0000000001
 40
0.0
 40
0.0
 40
0.0
 40
0.0
 40
0.2006869768
 40
1.0
 40
1.0
 40
1.0
 40
1.0
 10
308.2494273892
 20
146.4890117067
 30
0.0
 10
308.2509940465
 20
146.489910665
 30
0.0
 10
308.2590356461
 20
146.4939784326
 30
0.0
 10
308.2676174128
 20
146.4968519076
 30
0.0
 10
308.2745051569
 20
146.4989288945
 30
0.0
  0
SPLINE
  5
46B
100
AcDbEntity
  8
JSG_3
100
AcDbSpline
 62
7
  6
CONTINUOUS
 70
0
 71
3
 72
27
 73
23
 74
0
 42
0.0000001
 43
0.0000001
 44
0.0000000001
 40
0.0
 40
0.0
 40
0.0
 40
0.0
 40
0.0059008064
 40
0.0158149302
 40
0.0296842961
 40
0.0474068746
 40
0.0688398673
 40
0.0938115906
 40
0.1535337733
 40
0.2246318596
 40
0.3047904026
 40
0.3913974739
 40
0.4816303416
 40
0.5725479992
 40
0.6611871749
 40
0.7446591582
 40
0.8202441622
 40
0.8854805369
 40
0.9382444894
 40
0.976826526
 40
0.9903939121
 40
1.0
 40
1.0
 40
1.0
 40
1.0
 10
308.2745051569
 20
146.4989288945
 30
0.0
 10
308.3128136432
 20
146.5104807506
 30
0.0
 10
308.4193961149
 20
146.526542498
 30
0.0
 10
308.6191596166
 20
146.5487885437
 30
0.0
 10
308.8999377771
 20
146.5705645291
 30
0.0
 10
309.2587276089
 20
146.5931374283
 30
0.0
 10
309.6930052877
 20
146.6157059898
 30
0.0
 10
310.4119030105
 20
146.6479795387
 30
0.0
 10
311.4676019805
 20
146.68692205
 30
0.0
 10
312.897506742
 20
146.7318234685
 30
0.0
 10
314.5097909429
 20
146.7769140957
 30
0.0
 10
316.251864772
 20
146.822150501
 30
0.0
 10
318.0669164423
 20
146.8674440329
 30
0.0
 10
319.8957513669
 20
146.9127483687
 30
0.0
 10
321.678728045
 20
146.9580198901
 30
0.0
 10
323.35770716
 20
147.0031799283
 30
0.0
 10
324.8779312348
 20
147.0482116478
 30
0.0
 10
326.1898651701
 20
147.0927472891
 30
0.0
 10
327.2506733692
 20
147.1370710344
 30
0.0
 10
327.961151899
 20
147.1753579167
 30
0.0
 10
328.3785394067
 20
147.2090193418
 30
0.0
 10
328.5348391276
 20
147.2260089756
 30
0.0
 10
328.5992539912
 20
147.2356824617
 30
0.0
  0
SPLINE
  5
46C
100
AcDbEntity
  8
JSG_3
100
AcDbSpline
 62
7
  6
CONTINUOUS
 70
0
 71
3
 72
9
 73
5
 74
0
 42
0.0000001
 43
0.0000001
 44
0.0000000001
 40
0.0
 40
0.0
 40
0.0
 40
0.0
 40
0.3098588716
 40
1.0
 40
1.0
 40
1.0
 40
1.0
 10
328.5992539912
 20
147.2356824617
 30
0.0
 10
328.6102232257
 20
147.2373297638
 30
0.0
 10
328.6455452971
 20
147.2430125119
 30
0.0
 10
328.6808632187
 20
147.2496306102
 30
0.0
 10
328.7045305105
 20
147.2567171802
 30
0.0
  0
SPLINE
  5
46D
100
AcDbEntity
  8
JSG_3
100
AcDbSpline
 62
7
  6
CONTINUOUS
 70
0
 71
3
 72
9
 73
5
 74
0
 42
0.0000001
 43
0.0000001
 44
0.0000000001
 40
0.0
 40
0.0
 40
0.0
 40
0.0
 40
0.6603099395
 40
1.0
 40
1.0
 40
1.0
 40
1.0
 10
328.7045305105
 20
147.2567171802
 30
0.0
 10
328.7132059686
 20
147.259314826
 30
0.0
 10
328.7254796133
 20
147.2632621092
 30
0.0
 10
328.7387011877
 20
147.2720161031
 30
0.0
 10
328.7396364836
 20
147.2765800299
 30
0.0
  0
SPLINE
  5
46E
100
AcDbEntity
  8
JSG_3
100
AcDbSpline
 62
7
  6
CONTINUOUS
 70
0
 71
3
 72
9
 73
5
 74
0
 42
0.0000001
 43
0.0000001
 44
0.0000000001
 40
0.0
 40
0.0
 40
0.0
 40
0.0
 40
0.2002674302
 40
1.0
 40
1.0
 40
1.0
 40
1.0
 10
328.730235089
 20
129.5668607037
 30
0.0
 10
328.7286660336
 20
129.5659550598
 30
0.0
 10
328.7205901559
 20
129.561852578
 30
0.0
 10
328.7119637774
 20
129.5589639266
 30
0.0
 10
328.7050374573
 20
129.5568746838
 30
0.0
  0
SPLINE
  5
46F
100
AcDbEntity
  8
JSG_3
100
AcDbSpline
 62
7
  6
CONTINUOUS
 70
0
 71
3
 72
9
 73
5
 74
0
 42
0.0000001
 43
0.0000001
 44
0.0000000001
 40
0.0
 40
0.0
 40
0.0
 40
0.0
 40
0.4015549887
 40
1.0
 40
1.0
 40
1.0
 40
1.0
 10
328.7050374573
 20
129.5568746838
 30
0.0
 10
328.6839092603
 20
129.5505016124
 30
0.0
 10
328.6298364541
 20
129.5398266602
 30
0.0
 10
328.5754623969
 20
129.532062598
 30
0.0
 10
328.5428362621
 20
129.5279123971
 30
0.0
  0
SPLINE
  5
470
100
AcDbEntity
  8
JSG_3
100
AcDbSpline
 62
7
  6
CONTINUOUS
 70
0
 71
3
 72
9
 73
5
 74
0
 42
0.0000001
 43
0.0000001
 44
0.0000000001
 40
0.0
 40
0.0
 40
0.0
 40
0.0
 40
0.1994880174
 40
1.0
 40
1.0
 40
1.0
 40
1.0
 10
308.2491243678
 20
114.488688775
 30
0.0
 10
308.2506975753
 20
114.4896009013
 30
0.0
 10
308.2588301036
 20
114.4937461767
 30
0.0
 10
308.2675209607
 20
114.4966635987
 30
0.0
 10
308.2745051579
 20
114.4987783855
 30
0.0
  0
SPLINE
  5
471
100
AcDbEntity
  8
JSG_3
100
AcDbSpline
 62
7
  6
CONTINUOUS
 70
0
 71
3
 72
27
 73
23
 74
0
 42
0.0000001
 43
0.0000001
 44
0.0000000001
 40
0.0
 40
0.0
 40
0.0
 40
0.0
 40
0.0059023239
 40
0.0158165635
 40
0.0296857382
 40
0.0474082899
 40
0.068841275
 40
0.0938129562
 40
0.1535350427
 40
0.2246330183
 40
0.3047914359
 40
0.3913983718
 40
0.4816310985
 40
0.572548614
 40
0.661187651
 40
0.7446595039
 40
0.8202443894
 40
0.8854806636
 40
0.9382445275
 40
0.9768265238
 40
0.9903937284
 40
1.0
 40
1.0
 40
1.0
 40
1.0
 10
308.2745051579
 20
114.4987783855
 30
0.0
 10
308.3128103194
 20
114.5103770342
 30
0.0
 10
308.4193738277
 20
114.52663461
 30
0.0
 10
308.6191615291
 20
114.5488057396
 30
0.0
 10
308.8999387071
 20
114.570547844
 30
0.0
 10
309.258728007
 20
114.5931308212
 30
0.0
 10
309.6930048298
 20
114.6157121575
 30
0.0
 10
310.411903256
 20
114.6479774334
 30
0.0
 10
311.4676019329
 20
114.6869226081
 30
0.0
 10
312.8975067687
 20
114.7318233086
 30
0.0
 10
314.5097909429
 20
114.7769141511
 30
0.0
 10
316.2518647802
 20
114.8221504884
 30
0.0
 10
318.0669164489
 20
114.8674440067
 30
0.0
 10
319.8957513671
 20
114.9127484899
 30
0.0
 10
321.6787280671
 20
114.9580194691
 30
0.0
 10
323.3577071045
 20
115.0031812746
 30
0.0
 10
324.8779314167
 20
115.0482076763
 30
0.0
 10
326.1898646719
 20
115.0927578909
 30
0.0
 10
327.2506745789
 20
115.1370464241
 30
0.0
 10
327.9611491362
 20
115.1753979966
 30
0.0
 10
328.3785401631
 20
115.208987584
 30
0.0
 10
328.5348455935
 20
115.2259569898
 30
0.0
 10
328.5992539912
 20
115.2356824617
 30
0.0
  0
SPLINE
  5
472
100
AcDbEntity
  8
JSG_3
100
AcDbSpline
 62
7
  6
CONTINUOUS
 70
0
 71
3
 72
9
 73
5
 74
0
 42
0.0000001
 43
0.0000001
 44
0.0000000001
 40
0.0
 40
0.0
 40
0.0
 40
0.0
 40
0.3098301517
 40
1.0
 40
1.0
 40
1.0
 40
1.0
 10
328.5992539912
 20
115.2356824617
 30
0.0
 10
328.6102236644
 20
115.237338849
 30
0.0
 10
328.645549482
 20
115.2430575843
 30
0.0
 10
328.6808635286
 20
115.2497405332
 30
0.0
 10
328.7045305097
 20
115.2568535385
 30
0.0
  0
SPLINE
  5
473
100
AcDbEntity
  8
JSG_3
100
AcDbSpline
 62
7
  6
CONTINUOUS
 70
0
 71
3
 72
9
 73
5
 74
0
 42
0.0000001
 43
0.0000001
 44
0.0000000001
 40
0.0
 40
0.0
 40
0.0
 40
0.0
 40
0.662071011
 40
1.0
 40
1.0
 40
1.0
 40
1.0
 10
328.7045305097
 20
115.2568535385
 30
0.0
 10
328.7132188176
 20
115.2594647707
 30
0.0
 10
328.7254388874
 20
115.2634287141
 30
0.0
 10
328.7387342144
 20
115.2721136422
 30
0.0
 10
328.7396463682
 20
115.2766534844
 30
0.0
  0
SPLINE
  5
474
100
AcDbEntity
  8
JSG_3
100
AcDbSpline
 62
7
  6
CONTINUOUS
 70
0
 71
3
 72
35
 73
31
 74
0
 42
0.0000001
 43
0.0000001
 44
0.0000000001
 40
0.0
 40
0.0
 40
0.0
 40
0.0
 40
0.0018545799
 40
0.0047803774
 40
0.0088032002
 40
0.0139304826
 40
0.0274545614
 40
0.0452232872
 40
0.0670763209
 40
0.0928331732
 40
0.1222663988
 40
0.1551146233
 40
0.2298004757
 40
0.314229368
 40
0.4053436953
 40
0.4998716056
 40
0.5944067886
 40
0.6855347555
 40
0.7699857375
 40
0.8447069379
 40
0.8775593992
 40
0.9070230015
 40
0.9328162758
 40
0.9546798677
 40
0.9724561479
 40
0.9860104333
 40
0.9911589998
 40
0.9952008549
 40
0.9981387507
 40
1.0
 40
1.0
 40
1.0
 40
1.0
 10
327.4295917492
 20
152.8155004986
 30
0.0
 10
327.4200138546
 20
152.8099513649
 30
0.0
 10
327.3925657753
 20
152.800978475
 30
0.0
 10
327.3414380166
 20
152.7894193744
 30
0.0
 10
327.2702102543
 20
152.7777730125
 30
0.0
 10
327.1360309043
 20
152.7603269385
 30
0.0
 10
326.9195554986
 20
152.7397502987
 30
0.0
 10
326.6032331427
 20
152.7161932086
 30
0.0
 10
326.2137177851
 20
152.6924901843
 30
0.0
 10
325.7544953292
 20
152.6686271952
 30
0.0
 10
325.2295704094
 20
152.644687305
 30
0.0
 10
324.4127465187
 20
152.6112677256
 30
0.0
 10
323.267712222
 20
152.5704825019
 30
0.0
 10
321.7749399502
 20
152.5231317191
 30
0.0
 10
320.163687309
 20
152.4756424783
 30
0.0
 10
318.4920917134
 20
152.4280831246
 30
0.0
 10
316.8204142735
 20
152.3805378749
 30
0.0
 10
315.2089051806
 20
152.3330373045
 30
0.0
 10
313.7157084767
 20
152.2856877652
 30
0.0
 10
312.5703052766
 20
152.2449164478
 30
0.0
 10
311.7530644393
 20
152.2114731115
 30
0.0
 10
311.2277147902
 20
152.18754186
 30
0.0
 10
310.768028916
 20
152.1636985049
 30
0.0
 10
310.3781882319
 20
152.1399822967
 30
0.0
 10
310.0615781777
 20
152.1164026539
 30
0.0
 10
309.8447494201
 20
152.0958291441
 30
0.0
 10
309.7101436188
 20
152.0784002837
 30
0.0
 10
309.6385977289
 20
152.0667619132
 30
0.0
 10
309.5872390698
 20
152.0551996165
 30
0.0
 10
309.5596747443
 20
152.0462245458
 30
0.0
 10
309.5500522762
 20
152.0406729778
 30
0.0
  0
SPLINE
  5
475
100
AcDbEntity
  8
JSG_3
100
AcDbSpline
 62
7
  6
CONTINUOUS
 70
0
 71
3
 72
9
 73
5
 74
0
 42
0.0000001
 43
0.0000001
 44
0.0000000001
 40
0.0
 40
0.0
 40
0.0
 40
0.0
 40
0.2008876799
 40
1.0
 40
1.0
 40
1.0
 40
1.0
 10
308.249490551
 20
144.8890350514
 30
0.0
 10
308.2510559998
 20
144.8899299628
 30
0.0
 10
308.2590801301
 20
144.8939780415
 30
0.0
 10
308.2676378802
 20
144.8968443566
 30
0.0
 10
308.2745051566
 20
144.8989159108
 30
0.0
  0
SPLINE
  5
476
100
AcDbEntity
  8
JSG_3
100
AcDbSpline
 62
7
  6
CONTINUOUS
 70
0
 71
3
 72
27
 73
23
 74
0
 42
0.0000001
 43
0.0000001
 44
0.0000000001
 40
0.0
 40
0.0
 40
0.0
 40
0.0
 40
0.0059009369
 40
0.0158150708
 40
0.0296844202
 40
0.0474069965
 40
0.0688399887
 40
0.0938117085
 40
0.1535338832
 40
0.2246319605
 40
0.3047904931
 40
0.3913975532
 40
0.4816304094
 40
0.5725480553
 40
0.6611872196
 40
0.7446591922
 40
0.8202441865
 40
0.8854805528
 40
0.9382444986
 40
0.9768265299
 40
0.9903939179
 40
1.0
 40
1.0
 40
1.0
 40
1.0
 10
308.2745051566
 20
144.8989159108
 30
0.0
 10
308.3128133552
 20
144.9104718035
 30
0.0
 10
308.4193941989
 20
144.9265504467
 30
0.0
 10
308.6191597783
 20
144.9487900256
 30
0.0
 10
308.8999378569
 20
144.9705630902
 30
0.0
 10
309.2587276412
 20
144.9931368581
 30
0.0
 10
309.6930052464
 20
145.0157065218
 30
0.0
 10
310.4119030294
 20
145.047979357
 30
0.0
 10
311.467601974
 20
145.0869220981
 30
0.0
 10
312.8975067418
 20
145.1318234546
 30
0.0
 10
314.5097909403
 20
145.1769141006
 30
0.0
 10
316.2518647703
 20
145.2221504989
 30
0.0
 10
318.0669164405
 20
145.2674440343
 30
0.0
 10
319.8957513656
 20
145.3127483656
 30
0.0
 10
321.6787280433
 20
145.3580198998
 30
0.0
 10
323.3577071603
 20
145.4031798974
 30
0.0
 10
324.87793123
 20
145.4482117389
 30
0.0
 10
326.1898651812
 20
145.4927470458
 30
0.0
 10
327.250673341
 20
145.5370715992
 30
0.0
 10
327.9611519627
 20
145.5753569969
 30
0.0
 10
328.378539389
 20
145.6090200706
 30
0.0
 10
328.5348389796
 20
145.626010169
 30
0.0
 10
328.5992539912
 20
145.6356824617
 30
0.0
  0
SPLINE
  5
477
100
AcDbEntity
  8
JSG_3
100
AcDbSpline
 62
7
  6
CONTINUOUS
 70
0
 71
3
 72
9
 73
5
 74
0
 42
0.0000001
 43
0.0000001
 44
0.0000000001
 40
0.0
 40
0.0
 40
0.0
 40
0.0
 40
0.3098595288
 40
1.0
 40
1.0
 40
1.0
 40
1.0
 10
328.5992539912
 20
145.6356824617
 30
0.0
 10
328.6102232157
 20
145.6373295553
 30
0.0
 10
328.6455452014
 20
145.6430114776
 30
0.0
 10
328.6808632113
 20
145.6496280871
 30
0.0
 10
328.7045305104
 20
145.6567140503
 30
0.0
  0
SPLINE
  5
478
100
AcDbEntity
  8
JSG_3
100
AcDbSpline
 62
7
  6
CONTINUOUS
 70
0
 71
3
 72
9
 73
5
 74
0
 42
0.0000001
 43
0.0000001
 44
0.0000000001
 40
0.0
 40
0.0
 40
0.0
 40
0.0
 40
0.6599082039
 40
1.0
 40
1.0
 40
1.0
 40
1.0
 10
328.7045305104
 20
145.6567140503
 30
0.0
 10
328.7131942284
 20
145.6593079579
 30
0.0
 10
328.7254652199
 20
145.6632621217
 30
0.0
 10
328.7386682898
 20
145.6719817529
 30
0.0
 10
328.7396288043
 20
145.6765424832
 30
0.0
  0
SPLINE
  5
479
100
AcDbEntity
  8
JSG_3
100
AcDbSpline
 62
7
  6
CONTINUOUS
 70
0
 71
3
 72
9
 73
5
 74
0
 42
0.0000001
 43
0.0000001
 44
0.0000000001
 40
0.0
 40
0.0
 40
0.0
 40
0.0
 40
0.4433879474
 40
1.0
 40
1.0
 40
1.0
 40
1.0
 10
311.2854976269
 20
107.2278963625
 30
0.0
 10
312.3500432676
 20
107.2582689609
 30
0.0
 10
314.7515085314
 20
107.3069253722
 30
0.0
 10
317.1530315161
 20
107.3493406786
 30
0.0
 10
318.4897713055
 20
107.3720791702
 30
0.0
  0
SPLINE
  5
47A
100
AcDbEntity
  8
JSG_3
100
AcDbSpline
 62
7
  6
CONTINUOUS
 70
0
 71
3
 72
23
 73
19
 74
0
 42
0.0000001
 43
0.0000001
 44
0.0000000001
 40
0.0
 40
0.0
 40
0.0
 40
0.0
 40
0.1926320743
 40
0.378352916
 40
0.5499734932
 40
0.6284012064
 40
0.7008906908
 40
0.7667488372
 40
0.8253590199
 40
0.876176085
 40
0.9187303351
 40
0.9526354283
 40
0.9662436675
 40
0.977585779
 40
0.9866384361
 40
0.9933849854
 40
0.9978248582
 40
1.0
 40
1.0
 40
1.0
 40
1.0
 10
318.4897713055
 20
107.3720791702
 30
0.0
 10
319.1095522341
 20
107.3826218978
 30
0.0
 10
320.3268751968
 20
107.403478273
 30
0.0
 10
322.0963555554
 20
107.4348945077
 30
0.0
 10
323.4983678694
 20
107.4613655383
 30
0.0
 10
324.5360338879
 20
107.4831417931
 30
0.0
 10
325.233417522
 20
107.4988896757
 30
0.0
 10
325.867015483
 20
107.5145527667
 30
0.0
 10
326.4308506626
 20
107.5301250021
 30
0.0
 10
326.9196739181
 20
107.5455875049
 30
0.0
 10
327.3289361584
 20
107.5610107381
 30
0.0
 10
327.6184901134
 20
107.5744365313
 30
0.0
 10
327.8075099227
 20
107.5856228054
 30
0.0
 10
327.9167589494
 20
107.5932401408
 30
0.0
 10
328.0035076732
 20
107.6010516444
 30
0.0
 10
328.0688530136
 20
107.6080357932
 30
0.0
 10
328.110021089
 20
107.6160653519
 30
0.0
 10
328.1322678336
 20
107.6206627284
 30
0.0
 10
328.1373453899
 20
107.6254803875
 30
0.0
  0
SPLINE
  5
47B
100
AcDbEntity
  8
JSG_3
100
AcDbSpline
 62
7
  6
CONTINUOUS
 70
0
 71
3
 72
21
 73
17
 74
0
 42
0.0000001
 43
0.0000001
 44
0.0000000001
 40
0.0
 40
0.0
 40
0.0
 40
0.0
 40
0.0034997771
 40
0.0090636926
 40
0.0167339429
 40
0.0265158999
 40
0.0523624
 40
0.0864587739
 40
0.1285681504
 40
0.178402201
 40
0.2356024346
 40
0.2997677347
 40
0.447106452
 40
0.6162242
 40
0.8022863015
 40
1.0
 40
1.0
 40
1.0
 40
1.0
 10
328.7304664834
 20
132.7671282043
 30
0.0
 10
328.7219226872
 20
132.7621593735
 30
0.0
 10
328.6972664051
 20
132.7541772008
 30
0.0
 10
328.6512752403
 20
132.743846115
 30
0.0
 10
328.5870182337
 20
132.7334607856
 30
0.0
 10
328.4657572529
 20
132.717911043
 30
0.0
 10
328.2696334177
 20
132.6996133405
 30
0.0
 10
327.9822031119
 20
132.678654494
 30
0.0
 10
327.62686935
 20
132.6575526737
 30
0.0
 10
327.2062121484
 20
132.6363179425
 30
0.0
 10
326.7231990935
 20
132.6150151871
 30
0.0
 10
325.9649460833
 20
132.5851538612
 30
0.0
 10
324.8906552731
 20
132.5487112359
 30
0.0
 10
323.4721341965
 20
132.5065257506
 30
0.0
 10
321.9113014482
 20
132.4640523904
 30
0.0
 10
320.8278403742
 20
132.4365850299
 30
0.0
 10
320.2696651281
 20
132.4223408069
 30
0.0
  0
SPLINE
  5
47C
100
AcDbEntity
  8
JSG_3
100
AcDbSpline
 62
7
  6
CONTINUOUS
 70
0
 71
3
 72
9
 73
5
 74
0
 42
0.0000001
 43
0.0000001
 44
0.0000000001
 40
0.0
 40
0.0
 40
0.0
 40
0.0
 40
0.1999098988
 40
1.0
 40
1.0
 40
1.0
 40
1.0
 10
308.2492386692
 20
116.0887780584
 30
0.0
 10
308.2508096638
 20
116.0896842271
 30
0.0
 10
308.258909097
 20
116.0937973434
 30
0.0
 10
308.2675577574
 20
116.0966997002
 30
0.0
 10
308.2745051571
 20
116.0988019856
 30
0.0
  0
SPLINE
  5
47D
100
AcDbEntity
  8
JSG_3
100
AcDbSpline
 62
7
  6
CONTINUOUS
 70
0
 71
3
 72
27
 73
23
 74
0
 42
0.0000001
 43
0.0000001
 44
0.0000000001
 40
0.0
 40
0.0
 40
0.0
 40
0.0
 40
0.0059020852
 40
0.0158163067
 40
0.0296855115
 40
0.0474080674
 40
0.0688410538
 40
0.0938127417
 40
0.1535348437
 40
0.224632837
 40
0.3047912747
 40
0.3913982323
 40
0.4816309816
 40
0.57254852
 40
0.6611875793
 40
0.7446594531
 40
0.8202443576
 40
0.8854806478
 40
0.9382445265
 40
0.9768265276
 40
0.9903937753
 40
1.0
 40
1.0
 40
1.0
 40
1.0
 10
308.2745051571
 20
116.0988019856
 30
0.0
 10
308.3128108384
 20
116.1103932973
 30
0.0
 10
308.4193773335
 20
116.1266201711
 30
0.0
 10
308.6191612237
 20
116.1488030407
 30
0.0
 10
308.8999385606
 20
116.170550461
 30
0.0
 10
309.2587279412
 20
116.1931318567
 30
0.0
 10
309.6930048985
 20
116.2157111903
 30
0.0
 10
310.4119032137
 20
116.2479777633
 30
0.0
 10
311.4676019364
 20
116.2869225205
 30
0.0
 10
312.8975067602
 20
116.3318233335
 30
0.0
 10
314.5097909386
 20
116.3769141425
 30
0.0
 10
316.2518647748
 20
116.4221504895
 30
0.0
 10
318.066916444
 20
116.4674440138
 30
0.0
 10
319.8957513642
 20
116.5127484595
 30
0.0
 10
321.6787280593
 20
116.5580195735
 30
0.0
 10
323.3577071164
 20
116.6031809407
 30
0.0
 10
324.8779313705
 20
116.648208661
 30
0.0
 10
326.1898647941
 20
116.6927552622
 30
0.0
 10
327.2506742798
 20
116.7370525261
 30
0.0
 10
327.9611498183
 20
116.7753880587
 30
0.0
 10
328.3785399777
 20
116.8089954586
 30
0.0
 10
328.5348439869
 20
116.8259698768
 30
0.0
 10
328.5992539912
 20
116.8356824617
 30
0.0
  0
SPLINE
  5
47E
100
AcDbEntity
  8
JSG_3
100
AcDbSpline
 62
7
  6
CONTINUOUS
 70
0
 71
3
 72
9
 73
5
 74
0
 42
0.0000001
 43
0.0000001
 44
0.0000000001
 40
0.0
 40
0.0
 40
0.0
 40
0.0
 40
0.3098372879
 40
1.0
 40
1.0
 40
1.0
 40
1.0
 10
328.5992539912
 20
116.8356824617
 30
0.0
 10
328.6102235554
 20
116.8373365964
 30
0.0
 10
328.6455484423
 20
116.8430464083
 30
0.0
 10
328.6808634541
 20
116.8497132812
 30
0.0
 10
328.7045305106
 20
116.8568197322
 30
0.0
  0
SPLINE
  5
47F
100
AcDbEntity
  8
JSG_3
100
AcDbSpline
 62
7
  6
CONTINUOUS
 70
0
 71
3
 72
9
 73
5
 74
0
 42
0.0000001
 43
0.0000001
 44
0.0000000001
 40
0.0
 40
0.0
 40
0.0
 40
0.0
 40
0.661385783
 40
1.0
 40
1.0
 40
1.0
 40
1.0
 10
328.7045305106
 20
116.8568197322
 30
0.0
 10
328.7132079851
 20
116.859425297
 30
0.0
 10
328.7254393371
 20
116.8633900161
 30
0.0
 10
328.7387044532
 20
116.8720682681
 30
0.0
 10
328.7396391236
 20
116.876611747
 30
0.0
  0
SPLINE
  5
480
100
AcDbEntity
  8
JSG_3
100
AcDbSpline
 62
7
  6
CONTINUOUS
 70
0
 71
3
 72
9
 73
5
 74
0
 42
0.0000001
 43
0.0000001
 44
0.0000000001
 40
0.0
 40
0.0
 40
0.0
 40
0.0
 40
0.1996578029
 40
1.0
 40
1.0
 40
1.0
 40
1.0
 10
328.7303998154
 20
135.966995559
 30
0.0
 10
328.7288275021
 20
135.9660814333
 30
0.0
 10
328.7207037781
 20
135.9619329437
 30
0.0
 10
328.712016716
 20
135.9590223184
 30
0.0
 10
328.7050374578
 20
135.9569147871
 30
0.0
  0
SPLINE
  5
481
100
AcDbEntity
  8
JSG_3
100
AcDbSpline
 62
7
  6
CONTINUOUS
 70
0
 71
3
 72
27
 73
23
 74
0
 42
0.0000001
 43
0.0000001
 44
0.0000000001
 40
0.0
 40
0.0
 40
0.0
 40
0.0
 40
0.0059013189
 40
0.0158154817
 40
0.0296847825
 40
0.0474073517
 40
0.0688403415
 40
0.0938120502
 40
0.1535341994
 40
0.2246322472
 40
0.3047907466
 40
0.3913977708
 40
0.4816305895
 40
0.5725481978
 40
0.6611873253
 40
0.7446592634
 40
0.8202442261
 40
0.8854805663
 40
0.9382444864
 40
0.9768265146
 40
0.9903937929
 40
1.0
 40
1.0
 40
1.0
 40
1.0
 10
328.7050374578
 20
135.9569147871
 30
0.0
 10
328.6667300998
 20
135.9453470886
 30
0.0
 10
328.560154026
 20
135.9292190338
 30
0.0
 10
328.3603823592
 20
135.9069983636
 30
0.0
 10
328.0796045232
 20
135.8852338434
 30
0.0
 10
327.7208148761
 20
135.8626575344
 30
0.0
 10
327.2865374865
 20
135.8400846471
 30
0.0
 10
326.5676395269
 20
135.8078138994
 30
0.0
 10
325.5119406563
 20
135.7688704862
 30
0.0
 10
324.0820358702
 20
135.7239693106
 30
0.0
 10
322.4697516784
 20
135.6788786113
 30
0.0
 10
320.7276778463
 20
135.6336422258
 30
0.0
 10
318.9126261755
 20
135.5883487109
 30
0.0
 10
317.0837912541
 20
135.5430442797
 30
0.0
 10
315.3008145609
 20
135.497773099
 30
0.0
 10
313.6218354934
 20
135.4526119531
 30
0.0
 10
312.1016112682
 20
135.4075835657
 30
0.0
 10
310.7896777588
 20
135.363038793
 30
0.0
 10
309.7288684863
 20
135.3187371109
 30
0.0
 10
309.01839245
 20
135.2804096952
 30
0.0
 10
308.6010027308
 20
135.2467932815
 30
0.0
 10
308.4446994393
 20
135.2298163261
 30
0.0
 10
308.3802886228
 20
135.2201102632
 30
0.0
  0
SPLINE
  5
482
100
AcDbEntity
  8
JSG_3
100
AcDbSpline
 62
7
  6
CONTINUOUS
 70
0
 71
3
 72
9
 73
5
 74
0
 42
0.0000001
 43
0.0000001
 44
0.0000000001
 40
0.0
 40
0.0
 40
0.0
 40
0.0
 40
0.3098408953
 40
1.0
 40
1.0
 40
1.0
 40
1.0
 10
308.3802886228
 20
135.2201102632
 30
0.0
 10
308.3693191137
 20
135.2184572684
 30
0.0
 10
308.3339946973
 20
135.212751972
 30
0.0
 10
308.2986791982
 20
135.2060932352
 30
0.0
 10
308.2750121031
 20
135.198990101
 30
0.0
  0
SPLINE
  5
483
100
AcDbEntity
  8
JSG_3
100
AcDbSpline
 62
7
  6
CONTINUOUS
 70
0
 71
3
 72
9
 73
5
 74
0
 42
0.0000001
 43
0.0000001
 44
0.0000000001
 40
0.0
 40
0.0
 40
0.0
 40
0.0
 40
0.6618709653
 40
1.0
 40
1.0
 40
1.0
 40
1.0
 10
308.2750121031
 20
135.198990101
 30
0.0
 10
308.2663142734
 20
135.1963796475
 30
0.0
 10
308.2540697757
 20
135.1924315255
 30
0.0
 10
308.2407805406
 20
135.1836752073
 30
0.0
 10
308.2398910537
 20
135.1791220192
 30
0.0
  0
SPLINE
  5
484
100
AcDbEntity
  8
JSG_3
100
AcDbSpline
 62
7
  6
CONTINUOUS
 70
0
 71
3
 72
9
 73
5
 74
0
 42
0.0000001
 43
0.0000001
 44
0.0000000001
 40
0.0
 40
0.0
 40
0.0
 40
0.0
 40
0.1993734819
 40
1.0
 40
1.0
 40
1.0
 40
1.0
 10
328.7304664038
 20
150.367082622
 30
0.0
 10
328.7288926408
 20
150.3661660921
 30
0.0
 10
328.7207484042
 20
150.3620018258
 30
0.0
 10
328.7120378251
 20
150.3590808155
 30
0.0
 10
328.7050374575
 20
150.3569640509
 30
0.0
  0
SPLINE
  5
485
100
AcDbEntity
  8
JSG_3
100
AcDbSpline
 62
7
  6
CONTINUOUS
 70
0
 71
3
 72
27
 73
23
 74
0
 42
0.0000001
 43
0.0000001
 44
0.0000000001
 40
0.0
 40
0.0
 40
0.0
 40
0.0
 40
0.0059018156
 40
0.0158160163
 40
0.0296852547
 40
0.0474078151
 40
0.0688408025
 40
0.0938124974
 40
0.1535346153
 40
0.224632627
 40
0.3047910856
 40
0.3913980657
 40
0.4816308385
 40
0.5725484004
 40
0.6611874828
 40
0.7446593784
 40
0.8202443025
 40
0.8854806099
 40
0.9382445014
 40
0.9768265156
 40
0.9903937421
 40
1.0
 40
1.0
 40
1.0
 40
1.0
 10
328.7050374575
 20
150.3569640509
 30
0.0
 10
328.6667311877
 20
150.3453810365
 30
0.0
 10
328.560161321
 20
150.3291888843
 30
0.0
 10
328.3603817331
 20
150.3069927351
 30
0.0
 10
328.0796042188
 20
150.2852393047
 30
0.0
 10
327.7208147458
 20
150.262659697
 30
0.0
 10
327.2865376363
 20
150.2400826283
 30
0.0
 10
326.5676394465
 20
150.2078145885
 30
0.0
 10
325.5119406719
 20
150.1688703035
 30
0.0
 10
324.0820358615
 20
150.123969363
 30
0.0
 10
322.4697516783
 20
150.0788785931
 30
0.0
 10
320.7276778436
 20
150.0336422304
 30
0.0
 10
318.9126261733
 20
149.9883487178
 30
0.0
 10
317.0837912537
 20
149.9430442459
 30
0.0
 10
315.3008145545
 20
149.8977732168
 30
0.0
 10
313.6218355087
 20
149.8526115764
 30
0.0
 10
312.1016112174
 20
149.8075846771
 30
0.0
 10
310.7896778977
 20
149.7630358263
 30
0.0
 10
309.7288681488
 20
149.7187439975
 30
0.0
 10
309.0183932209
 20
149.6803984797
 30
0.0
 10
308.6010025208
 20
149.6468021684
 30
0.0
 10
308.4446976273
 20
149.6298308708
 30
0.0
 10
308.3802886228
 20
149.6201102632
 30
0.0
  0
SPLINE
  5
486
100
AcDbEntity
  8
JSG_3
100
AcDbSpline
 62
7
  6
CONTINUOUS
 70
0
 71
3
 72
9
 73
5
 74
0
 42
0.0000001
 43
0.0000001
 44
0.0000000001
 40
0.0
 40
0.0
 40
0.0
 40
0.0
 40
0.3098328466
 40
1.0
 40
1.0
 40
1.0
 40
1.0
 10
308.3802886228
 20
149.6201102632
 30
0.0
 10
308.3693189908
 20
149.6184547262
 30
0.0
 10
308.3339935246
 20
149.6127393593
 30
0.0
 10
308.2986791133
 20
149.6060624784
 30
0.0
 10
308.2750121039
 20
149.5989519471
 30
0.0
  0
SPLINE
  5
487
100
AcDbEntity
  8
JSG_3
100
AcDbSpline
 62
7
  6
CONTINUOUS
 70
0
 71
3
 72
9
 73
5
 74
0
 42
0.0000001
 43
0.0000001
 44
0.0000000001
 40
0.0
 40
0.0
 40
0.0
 40
0.0
 40
0.6623136423
 40
1.0
 40
1.0
 40
1.0
 40
1.0
 10
308.2750121039
 20
149.5989519471
 30
0.0
 10
308.2663123809
 20
149.5963381968
 30
0.0
 10
308.2540837624
 20
149.5923842759
 30
0.0
 10
308.2407760032
 20
149.5836528891
 30
0.0
 10
308.2398894269
 20
149.5791070418
 30
0.0
  0
SPLINE
  5
488
100
AcDbEntity
  8
JSG_3
100
AcDbSpline
 62
7
  6
CONTINUOUS
 70
0
 71
3
 72
9
 73
5
 74
0
 42
0.0000001
 43
0.0000001
 44
0.0000000001
 40
0.0
 40
0.0
 40
0.0
 40
0.0
 40
0.2010932233
 40
1.0
 40
1.0
 40
1.0
 40
1.0
 10
308.2494505213
 20
143.2889771402
 30
0.0
 10
308.251000174
 20
143.2898637236
 30
0.0
 10
308.2589334397
 20
143.2938738484
 30
0.0
 10
308.2673926415
 20
143.2967229102
 30
0.0
 10
308.2741800306
 20
143.2987819961
 30
0.0
  0
SPLINE
  5
489
100
AcDbEntity
  8
JSG_3
100
AcDbSpline
 62
7
  6
CONTINUOUS
 70
0
 71
3
 72
27
 73
23
 74
0
 42
0.0000001
 43
0.0000001
 44
0.0000000001
 40
0.0
 40
0.0
 40
0.0
 40
0.0
 40
0.0058860581
 40
0.0157869493
 40
0.0296454785
 40
0.0473596002
 40
0.0687865588
 40
0.0937543531
 40
0.153475911
 40
0.224582128
 40
0.3047541105
 40
0.391379016
 40
0.4816342464
 40
0.5725753937
 40
0.6612333741
 40
0.7447196151
 40
0.8203139397
 40
0.8855490154
 40
0.9383006045
 40
0.9768595827
 40
0.9904116019
 40
1.0
 40
1.0
 40
1.0
 40
1.0
 10
308.2741800306
 20
143.2987819961
 30
0.0
 10
308.3123756439
 20
143.3103693749
 30
0.0
 10
308.4187710167
 20
143.3264848771
 30
0.0
 10
308.6182794302
 20
143.3487186005
 30
0.0
 10
308.8988547459
 20
143.3704824412
 30
0.0
 10
309.2574914489
 20
143.3930659996
 30
0.0
 10
309.6916684074
 20
143.4156436598
 30
0.0
 10
310.4105344001
 20
143.4479253664
 30
0.0
 10
311.4663169052
 20
143.4868790672
 30
0.0
 10
312.8964440452
 20
143.5317928957
 30
0.0
 10
314.5090861951
 20
143.576895524
 30
0.0
 10
316.251621815
 20
143.6221442119
 30
0.0
 10
318.0672075376
 20
143.6674511596
 30
0.0
 10
319.8965838611
 20
143.7127694696
 30
0.0
 10
321.6800444034
 20
143.7580536418
 30
0.0
 10
323.359405399
 20
143.8032270635
 30
0.0
 10
324.8798659783
 20
143.8482717676
 30
0.0
 10
326.1918441431
 20
143.8928214436
 30
0.0
 10
327.2524624758
 20
143.9371514411
 30
0.0
 10
327.9626361719
 20
143.9754551092
 30
0.0
 10
328.3796645944
 20
144.0091191596
 30
0.0
 10
328.5357488418
 20
144.026110303
 30
0.0
 10
328.6000434456
 20
144.0358015004
 30
0.0
  0
SPLINE
  5
48A
100
AcDbEntity
  8
JSG_3
100
AcDbSpline
 62
7
  6
CONTINUOUS
 70
0
 71
3
 72
9
 73
5
 74
0
 42
0.0000001
 43
0.0000001
 44
0.0000000001
 40
0.0
 40
0.0
 40
0.0
 40
0.0
 40
0.3099239074
 40
1.0
 40
1.0
 40
1.0
 40
1.0
 10
328.6000434456
 20
144.0358015004
 30
0.0
 10
328.6109616017
 20
144.0374472062
 30
0.0
 10
328.6461110348
 20
144.0431244455
 30
0.0
 10
328.6812557396
 20
144.0497396851
 30
0.0
 10
328.7047989494
 20
144.0568204795
 30
0.0
  0
SPLINE
  5
48B
100
AcDbEntity
  8
JSG_3
100
AcDbSpline
 62
7
  6
CONTINUOUS
 70
0
 71
3
 72
9
 73
5
 74
0
 42
0.0000001
 43
0.0000001
 44
0.0000000001
 40
0.0
 40
0.0
 40
0.0
 40
0.0
 40
0.6598420327
 40
1.0
 40
1.0
 40
1.0
 40
1.0
 10
328.7047989494
 20
144.0568204795
 30
0.0
 10
328.7133983318
 20
144.0594068073
 30
0.0
 10
328.725579849
 20
144.0633523512
 30
0.0
 10
328.7386775654
 20
144.0720238036
 30
0.0
 10
328.7396302005
 20
144.0765539866
 30
0.0
  0
SPLINE
  5
48C
100
AcDbEntity
  8
JSG_3
100
AcDbSpline
 62
7
  6
CONTINUOUS
 70
0
 71
3
 72
35
 73
31
 74
0
 42
0.0000001
 43
0.0000001
 44
0.0000000001
 40
0.0
 40
0.0
 40
0.0
 40
0.0
 40
0.0018546777
 40
0.0047876907
 40
0.0088152426
 40
0.0139360529
 40
0.02742657
 40
0.0451740095
 40
0.0670445029
 40
0.0928084709
 40
0.1222263368
 40
0.1550675082
 40
0.2297895978
 40
0.314225497
 40
0.4053727862
 40
0.4999254301
 40
0.5944798267
 40
0.6856391764
 40
0.7700863321
 40
0.8448304109
 40
0.8776707718
 40
0.9071116313
 40
0.9328964797
 40
0.9547665631
 40
0.9725246515
 40
0.9860356918
 40
0.9911663713
 40
0.9952018579
 40
0.9981396806
 40
1.0
 40
1.0
 40
1.0
 40
1.0
 10
327.4300746354
 20
149.6155999489
 30
0.0
 10
327.420509454
 20
149.6100265948
 30
0.0
 10
327.3929979174
 20
149.6010691455
 30
0.0
 10
327.3418000736
 20
149.5895160099
 30
0.0
 10
327.270531647
 20
149.5778753577
 30
0.0
 10
327.1365607832
 20
149.5604179879
 30
0.0
 10
326.9204433973
 20
149.5398074925
 30
0.0
 10
326.604329104
 20
149.5162338297
 30
0.0
 10
326.2147712962
 20
149.4925577055
 30
0.0
 10
325.7554696254
 20
149.4686889993
 30
0.0
 10
325.2306088137
 20
149.4447302353
 30
0.0
 10
324.4136596353
 20
149.4112842793
 30
0.0
 10
323.2683470717
 20
149.3705203442
 30
0.0
 10
321.7750413039
 20
149.3231242156
 30
0.0
 10
320.1633159893
 20
149.2756360453
 30
0.0
 10
318.4911721922
 20
149.2280593502
 30
0.0
 10
316.8189562631
 20
149.1804868844
 30
0.0
 10
315.2070812474
 20
149.1329979819
 30
0.0
 10
313.7135051895
 20
149.0855947642
 30
0.0
 10
312.5679982271
 20
149.0448480699
 30
0.0
 10
311.7507861277
 20
149.0113785301
 30
0.0
 10
311.2256676452
 20
148.9874296869
 30
0.0
 10
310.7661052089
 20
148.9635774025
 30
0.0
 10
310.3763627671
 20
148.9398787454
 30
0.0
 10
310.0600644933
 20
148.9163004855
 30
0.0
 10
309.8437010414
 20
148.8957004062
 30
0.0
 10
309.7094978678
 20
148.8782477897
 30
0.0
 10
309.6380943914
 20
148.8666093079
 30
0.0
 10
309.5867803671
 20
148.8550508518
 30
0.0
 10
309.5592140828
 20
148.8460824625
 30
0.0
 10
309.5496034207
 20
148.84052037
 30
0.0
  0
SPLINE
  5
48D
100
AcDbEntity
  8
JSG_3
100
AcDbSpline
 62
7
  6
CONTINUOUS
 70
0
 71
3
 72
9
 73
5
 74
0
 42
0.0000001
 43
0.0000001
 44
0.0000000001
 40
0.0
 40
0.0
 40
0.0
 40
0.0
 40
0.2003834259
 40
1.0
 40
1.0
 40
1.0
 40
1.0
 10
308.2493642341
 20
117.6888900129
 30
0.0
 10
308.2509326071
 20
117.6897900895
 30
0.0
 10
308.2589950948
 20
117.6938693433
 30
0.0
 10
308.267597919
 20
117.696754482
 30
0.0
 10
308.2745051563
 20
117.6988423054
 30
0.0
  0
SPLINE
  5
48E
100
AcDbEntity
  8
JSG_3
100
AcDbSpline
 62
7
  6
CONTINUOUS
 70
0
 71
3
 72
9
 73
5
 74
0
 42
0.0000001
 43
0.0000001
 44
0.0000000001
 40
0.0
 40
0.0
 40
0.0
 40
0.0
 40
0.4015816947
 40
1.0
 40
1.0
 40
1.0
 40
1.0
 10
308.2745051563
 20
117.6988423054
 30
0.0
 10
308.2956333163
 20
117.7052286313
 30
0.0
 10
308.3497006075
 20
117.7159582547
 30
0.0
 10
308.4040788952
 20
117.7237417553
 30
0.0
 10
308.436706351
 20
117.7278974308
 30
0.0
  0
SPLINE
  5
48F
100
AcDbEntity
  8
JSG_3
100
AcDbSpline
 62
7
  6
CONTINUOUS
 70
0
 71
3
 72
18
 73
14
 74
0
 42
0.0000001
 43
0.0000001
 44
0.0000000001
 40
0.0
 40
0.0
 40
0.0
 40
0.0
 40
0.0101566847
 40
0.0280601981
 40
0.053770543
 40
0.0872232466
 40
0.1283178234
 40
0.1768453487
 40
0.2950301179
 40
0.4395030353
 40
0.6075186741
 40
0.795548543
 40
1.0
 40
1.0
 40
1.0
 40
1.0
 10
327.4299463394
 20
132.0155869708
 30
0.0
 10
327.4137505163
 20
132.0061916067
 30
0.0
 10
327.3624956071
 20
131.9937183786
 30
0.0
 10
327.2655110551
 20
131.9763366538
 30
0.0
 10
327.1240932289
 20
131.9594750781
 30
0.0
 10
326.940234185
 20
131.9418207087
 30
0.0
 10
326.7139746464
 20
131.9242248574
 30
0.0
 10
326.3317417222
 20
131.8988680727
 30
0.0
 10
325.7588600973
 20
131.8682681869
 30
0.0
 10
324.9656997413
 20
131.8331123232
 30
0.0
 10
324.0436686562
 20
131.7978365531
 30
0.0
 10
323.0110079424
 20
131.7623692104
 30
0.0
 10
322.2878345299
 20
131.7394934615
 30
0.0
 10
321.9111093864
 20
131.7278963199
 30
0.0
  0
SPLINE
  5
490
100
AcDbEntity
  8
JSG_3
100
AcDbSpline
 62
7
  6
CONTINUOUS
 70
0
 71
3
 72
9
 73
5
 74
0
 42
0.0000001
 43
0.0000001
 44
0.0000000001
 40
0.0
 40
0.0
 40
0.0
 40
0.0
 40
0.1992736464
 40
1.0
 40
1.0
 40
1.0
 40
1.0
 10
328.7304809873
 20
148.7671357484
 30
0.0
 10
328.7289067097
 20
148.7662197866
 30
0.0
 10
328.7207566996
 20
148.7620551779
 30
0.0
 10
328.7120420826
 20
148.7591303024
 30
0.0
 10
328.7050374563
 20
148.7570096047
 30
0.0
  0
SPLINE
  5
491
100
AcDbEntity
  8
JSG_3
100
AcDbSpline
 62
7
  6
CONTINUOUS
 70
0
 71
3
 72
27
 73
23
 74
0
 42
0.0000001
 43
0.0000001
 44
0.0000000001
 40
0.0
 40
0.0
 40
0.0
 40
0.0
 40
0.0059022759
 40
0.0158165118
 40
0.0296856925
 40
0.0474082449
 40
0.0688412302
 40
0.0938129125
 40
0.1535350017
 40
0.2246329803
 40
0.3047914014
 40
0.3913983411
 40
0.4816310717
 40
0.5725485912
 40
0.661187632
 40
0.7446594886
 40
0.8202443773
 40
0.8854806545
 40
0.9382445202
 40
0.9768265198
 40
0.9903937125
 40
1.0
 40
1.0
 40
1.0
 40
1.0
 10
328.7050374563
 20
148.7570096047
 30
0.0
 10
328.6667321906
 20
148.745412428
 30
0.0
 10
328.5601680826
 20
148.7291610116
 30
0.0
 10
328.3603811463
 20
148.7069875269
 30
0.0
 10
328.0796039363
 20
148.6852443559
 30
0.0
 10
327.7208146203
 20
148.662661696
 30
0.0
 10
327.2865377705
 20
148.6400807615
 30
0.0
 10
326.5676393666
 20
148.6078152254
 30
0.0
 10
325.5119406805
 20
148.5688701344
 30
0.0
 10
324.0820358472
 20
148.5239694113
 30
0.0
 10
322.4697516721
 20
148.4788785759
 30
0.0
 10
320.7276778351
 20
148.4336422352
 30
0.0
 10
318.912626166
 20
148.3883487212
 30
0.0
 10
317.0837912483
 20
148.3430442254
 30
0.0
 10
315.3008145463
 20
148.2977732888
 30
0.0
 10
313.6218355147
 20
148.2526113454
 30
0.0
 10
312.1016111838
 20
148.2075853583
 30
0.0
 10
310.7896779811
 20
148.1630340074
 30
0.0
 10
309.7288679416
 20
148.1187482198
 30
0.0
 10
309.018393692
 20
148.0803916032
 30
0.0
 10
308.6010023929
 20
148.0468076173
 30
0.0
 10
308.4446965149
 20
148.0298397873
 30
0.0
 10
308.3802886228
 20
148.0201102632
 30
0.0
  0
SPLINE
  5
492
100
AcDbEntity
  8
JSG_3
100
AcDbSpline
 62
7
  6
CONTINUOUS
 70
0
 71
3
 72
9
 73
5
 74
0
 42
0.0000001
 43
0.0000001
 44
0.0000000001
 40
0.0
 40
0.0
 40
0.0
 40
0.0
 40
0.3098279056
 40
1.0
 40
1.0
 40
1.0
 40
1.0
 10
308.3802886228
 20
148.0201102632
 30
0.0
 10
308.3693189153
 20
148.0184531676
 30
0.0
 10
308.3339928048
 20
148.0127316261
 30
0.0
 10
308.2986790623
 20
148.0060436222
 30
0.0
 10
308.2750121047
 20
147.9989285558
 30
0.0
  0
SPLINE
  5
493
100
AcDbEntity
  8
JSG_3
100
AcDbSpline
 62
7
  6
CONTINUOUS
 70
0
 71
3
 72
9
 73
5
 74
0
 42
0.0000001
 43
0.0000001
 44
0.0000000001
 40
0.0
 40
0.0
 40
0.0
 40
0.0
 40
0.6624381493
 40
1.0
 40
1.0
 40
1.0
 40
1.0
 10
308.2750121047
 20
147.9989285558
 30
0.0
 10
308.2663157545
 20
147.9963141466
 30
0.0
 10
308.2540980986
 20
147.9923535718
 30
0.0
 10
308.2407859759
 20
147.9836519084
 30
0.0
 10
308.2398911741
 20
147.9791118796
 30
0.0
  0
SPLINE
  5
494
100
AcDbEntity
  8
JSG_3
100
AcDbSpline
 62
7
  6
CONTINUOUS
 70
0
 71
3
 72
35
 73
31
 74
0
 42
0.0000001
 43
0.0000001
 44
0.0000000001
 40
0.0
 40
0.0
 40
0.0
 40
0.0
 40
0.0018585175
 40
0.0047903515
 40
0.008812653
 40
0.013925839
 40
0.0274064586
 40
0.0451679385
 40
0.0670305964
 40
0.0927719133
 40
0.1221859712
 40
0.1550338739
 40
0.2297239406
 40
0.3141503121
 40
0.4052755793
 40
0.4998138984
 40
0.5943607584
 40
0.6855079714
 40
0.7699635315
 40
0.8446997542
 40
0.8775531902
 40
0.9070120618
 40
0.9328033845
 40
0.9546832731
 40
0.9724612298
 40
0.985990286
 40
0.9911311054
 40
0.9951773647
 40
0.9981282124
 40
1.0
 40
1.0
 40
1.0
 40
1.0
 10
327.4300391194
 20
148.0155995846
 30
0.0
 10
327.4204402836
 20
148.0100387226
 30
0.0
 10
327.3929190889
 20
148.0010822639
 30
0.0
 10
327.3417342722
 20
147.9895253997
 30
0.0
 10
327.270553979
 20
147.9778816474
 30
0.0
 10
327.1367213473
 20
147.9604161213
 30
0.0
 10
326.920627565
 20
147.9397978506
 30
0.0
 10
326.6045344206
 20
147.9162710873
 30
0.0
 10
326.2150795217
 20
147.8925816146
 30
0.0
 10
325.7559872265
 20
147.8687018372
 30
0.0
 10
325.2312483605
 20
147.8447533474
 30
0.0
 10
324.4144791823
 20
147.8113300884
 30
0.0
 10
323.2693852896
 20
147.7705454075
 30
0.0
 10
321.776471351
 20
147.7231708089
 30
0.0
 10
320.1650338328
 20
147.6756865052
 30
0.0
 10
318.4931664611
 20
147.6281125646
 30
0.0
 10
316.8211675752
 20
147.5805552439
 30
0.0
 10
315.2093740149
 20
147.5330598543
 30
0.0
 10
313.7158791627
 20
147.4856848897
 30
0.0
 10
312.5703012588
 20
147.4449242965
 30
0.0
 10
311.7529569914
 20
147.4114669931
 30
0.0
 10
311.2276179197
 20
147.387533923
 30
0.0
 10
310.7678546146
 20
147.3636774408
 30
0.0
 10
310.3779001835
 20
147.3399696888
 30
0.0
 10
310.0613178855
 20
147.3164061429
 30
0.0
 10
309.8446692217
 20
147.295804102
 30
0.0
 10
309.710231722
 20
147.2783568587
 30
0.0
 10
309.6386257304
 20
147.2667124083
 30
0.0
 10
309.5870957653
 20
147.2551520367
 30
0.0
 10
309.5593759605
 20
147.2461967618
 30
0.0
 10
309.5496854376
 20
147.2406363467
 30
0.0
  0
SPLINE
  5
495
100
AcDbEntity
  8
JSG_3
100
AcDbSpline
 62
7
  6
CONTINUOUS
 70
0
 71
3
 72
9
 73
5
 74
0
 42
0.0000001
 43
0.0000001
 44
0.0000000001
 40
0.0
 40
0.0
 40
0.0
 40
0.0
 40
0.2003266178
 40
1.0
 40
1.0
 40
1.0
 40
1.0
 10
328.7301933291
 20
151.9669167127
 30
0.0
 10
328.7286246342
 20
151.9660159318
 30
0.0
 10
328.7205577202
 20
151.9619327155
 30
0.0
 10
328.7119494634
 20
151.9590454948
 30
0.0
 10
328.7050374576
 20
151.9569559151
 30
0.0
  0
SPLINE
  5
496
100
AcDbEntity
  8
JSG_3
100
AcDbSpline
 62
7
  6
CONTINUOUS
 70
0
 71
3
 72
27
 73
23
 74
0
 42
0.0000001
 43
0.0000001
 44
0.0000000001
 40
0.0
 40
0.0
 40
0.0
 40
0.0
 40
0.0059017336
 40
0.0158159283
 40
0.0296851772
 40
0.0474077394
 40
0.0688407277
 40
0.0938124254
 40
0.1535345497
 40
0.2246325689
 40
0.3047910359
 40
0.3913980251
 40
0.4816308074
 40
0.5725483789
 40
0.6611874706
 40
0.7446593749
 40
0.8202443071
 40
0.8854806207
 40
0.9382445204
 40
0.9768265299
 40
0.9903938276
 40
1.0
 40
1.0
 40
1.0
 40
1.0
 10
328.7050374576
 20
151.9569559151
 30
0.0
 10
328.6667310082
 20
151.9453754301
 30
0.0
 10
328.560160115
 20
151.9291938629
 30
0.0
 10
328.3603818371
 20
151.9069936649
 30
0.0
 10
328.0796042691
 20
151.8852384027
 30
0.0
 10
327.7208147677
 20
151.8626593399
 30
0.0
 10
327.2865376119
 20
151.8400829617
 30
0.0
 10
326.5676394602
 20
151.8078144747
 30
0.0
 10
325.5119406697
 20
151.7688703336
 30
0.0
 10
324.0820358634
 20
151.7239693546
 30
0.0
 10
322.4697516788
 20
151.6788785953
 30
0.0
 10
320.7276778444
 20
151.6336422331
 30
0.0
 10
318.9126261746
 20
151.5883487035
 30
0.0
 10
317.0837912521
 20
151.5430442996
 30
0.0
 10
315.3008145629
 20
151.4977730333
 30
0.0
 10
313.6218354836
 20
151.4526121623
 30
0.0
 10
312.1016112956
 20
151.4075829488
 30
0.0
 10
310.7896776809
 20
151.3630404398
 30
0.0
 10
309.7288686738
 20
151.3187332881
 30
0.0
 10
309.018392021
 20
151.2804159211
 30
0.0
 10
308.6010028481
 20
151.2467883484
 30
0.0
 10
308.444700444
 20
151.229808251
 30
0.0
 10
308.3802886228
 20
151.2201102632
 30
0.0
  0
SPLINE
  5
497
100
AcDbEntity
  8
JSG_3
100
AcDbSpline
 62
7
  6
CONTINUOUS
 70
0
 71
3
 72
9
 73
5
 74
0
 42
0.0000001
 43
0.0000001
 44
0.0000000001
 40
0.0
 40
0.0
 40
0.0
 40
0.0
 40
0.3098453577
 40
1.0
 40
1.0
 40
1.0
 40
1.0
 10
308.3802886228
 20
151.2201102632
 30
0.0
 10
308.3693191819
 20
151.2184586797
 30
0.0
 10
308.3339953475
 20
151.2127589734
 30
0.0
 10
308.2986792462
 20
151.20611031
 30
0.0
 10
308.2750121029
 20
151.1990112821
 30
0.0
  0
SPLINE
  5
498
100
AcDbEntity
  8
JSG_3
100
AcDbSpline
 62
7
  6
CONTINUOUS
 70
0
 71
3
 72
9
 73
5
 74
0
 42
0.0000001
 43
0.0000001
 44
0.0000000001
 40
0.0
 40
0.0
 40
0.0
 40
0.0
 40
0.6607255989
 40
1.0
 40
1.0
 40
1.0
 40
1.0
 10
308.2750121029
 20
151.1990112821
 30
0.0
 10
308.2663434485
 20
151.1964110942
 30
0.0
 10
308.2540987258
 20
151.1924478001
 30
0.0
 10
308.2408620996
 20
151.1837663809
 30
0.0
 10
308.2399096727
 20
151.179217849
 30
0.0
  0
SPLINE
  5
499
100
AcDbEntity
  8
JSG_3
100
AcDbSpline
 62
7
  6
CONTINUOUS
 70
0
 71
3
 72
35
 73
31
 74
0
 42
0.0000001
 43
0.0000001
 44
0.0000000001
 40
0.0
 40
0.0
 40
0.0
 40
0.0
 40
0.001858785
 40
0.0047952343
 40
0.0088327306
 40
0.0139689022
 40
0.0274998466
 40
0.0452780431
 40
0.0671413611
 40
0.0929030653
 40
0.1223510763
 40
0.1552101478
 40
0.229899486
 40
0.3143489857
 40
0.405461231
 40
0.4999922657
 40
0.5945200811
 40
0.6856396397
 40
0.7700835823
 40
0.8447782749
 40
0.8776320326
 40
0.9070922319
 40
0.9328572646
 40
0.9547114366
 40
0.9724954215
 40
0.9860382254
 40
0.9911702323
 40
0.9952013753
 40
0.9981371661
 40
1.0
 40
1.0
 40
1.0
 40
1.0
 10
327.4295874762
 20
151.215429705
 30
0.0
 10
327.4199840685
 20
151.2098745361
 30
0.0
 10
327.3924405583
 20
151.2009022811
 30
0.0
 10
327.3411323225
 20
151.1893484148
 30
0.0
 10
327.2696954623
 20
151.1777139974
 30
0.0
 10
327.1353341312
 20
151.1602627658
 30
0.0
 10
326.91870809
 20
151.1396773736
 30
0.0
 10
326.6022256639
 20
151.1161282688
 30
0.0
 10
326.2125630378
 20
151.0924255615
 30
0.0
 10
325.7531619975
 20
151.068553105
 30
0.0
 10
325.2280540628
 20
151.0446266971
 30
0.0
 10
324.4110557978
 20
151.0112094276
 30
0.0
 10
323.2658128442
 20
150.9704081694
 30
0.0
 10
321.7729077664
 20
150.9230778881
 30
0.0
 10
320.1615255216
 20
150.8755748014
 30
0.0
 10
318.4899665593
 20
150.8280274638
 30
0.0
 10
316.8183640861
 20
150.7804750026
 30
0.0
 10
315.206990317
 20
150.7329799788
 30
0.0
 10
313.7140432594
 20
150.6856359371
 30
0.0
 10
312.5688325171
 20
150.6448538294
 30
0.0
 10
311.7517619532
 20
150.611418441
 30
0.0
 10
311.2265925795
 20
150.5875032458
 30
0.0
 10
310.7671530261
 20
150.5636384185
 30
0.0
 10
310.3774914537
 20
150.5399194661
 30
0.0
 10
310.0609590495
 20
150.5163623652
 30
0.0
 10
309.8442491755
 20
150.4958101498
 30
0.0
 10
309.7098800342
 20
150.4783489651
 30
0.0
 10
309.6385142965
 20
150.4667007282
 30
0.0
 10
309.587222968
 20
150.4551411214
 30
0.0
 10
309.559661895
 20
150.4461729975
 30
0.0
 10
309.5500265157
 20
150.4406248798
 30
0.0
  0
SPLINE
  5
49A
100
AcDbEntity
  8
JSG_3
100
AcDbSpline
 62
7
  6
CONTINUOUS
 70
0
 71
3
 72
35
 73
31
 74
0
 42
0.0000001
 43
0.0000001
 44
0.0000000001
 40
0.0
 40
0.0
 40
0.0
 40
0.0
 40
0.0018621153
 40
0.0047987581
 40
0.0088277316
 40
0.0139491993
 40
0.0274466579
 40
0.0452088042
 40
0.0670747139
 40
0.0928458402
 40
0.1222822548
 40
0.1551245691
 40
0.2298542394
 40
0.314294337
 40
0.4054537891
 40
0.5000077668
 40
0.5945666622
 40
0.6857181906
 40
0.770165165
 40
0.8448913044
 40
0.877738483
 40
0.9071611251
 40
0.9329290982
 40
0.9548064621
 40
0.9725566341
 40
0.9860452065
 40
0.9911696166
 40
0.9952031547
 40
0.9981420767
 40
1.0
 40
1.0
 40
1.0
 40
1.0
 10
327.4300685269
 20
135.215568159
 30
0.0
 10
327.4204443273
 20
135.2100078084
 30
0.0
 10
327.3928730212
 20
135.2010469493
 30
0.0
 10
327.3415946171
 20
135.1894861472
 30
0.0
 10
327.2702940368
 20
135.177841131
 30
0.0
 10
327.1362666593
 20
135.1603786399
 30
0.0
 10
326.9200133674
 20
135.1397715256
 30
0.0
 10
326.603791798
 20
135.1162153303
 30
0.0
 10
326.2141282024
 20
135.0925091331
 30
0.0
 10
325.7546944021
 20
135.0686482076
 30
0.0
 10
325.2296666456
 20
135.0447016601
 30
0.0
 10
324.4125459228
 20
135.0112369266
 30
0.0
 10
323.2671425952
 20
134.9704837422
 30
0.0
 10
321.7736769976
 20
134.9230790807
 30
0.0
 10
320.1618274044
 20
134.8755938257
 30
0.0
 10
318.4895570328
 20
134.8280143641
 30
0.0
 10
316.8173338062
 20
134.7804404877
 30
0.0
 10
315.2054614311
 20
134.7329447222
 30
0.0
 10
313.7120227128
 20
134.6855532084
 30
0.0
 10
312.566571084
 20
134.6447806345
 30
0.0
 10
311.749523868
 20
134.6113357403
 30
0.0
 10
311.2245685761
 20
134.5873787471
 30
0.0
 10
310.7651682169
 20
134.5635068622
 30
0.0
 10
310.3755245951
 20
134.539830982
 30
0.0
 10
310.0593601962
 20
134.5162644942
 30
0.0
 10
309.8432151889
 20
134.4956402402
 30
0.0
 10
309.7091969222
 20
134.4781857998
 30
0.0
 10
309.6378327974
 20
134.4665479576
 30
0.0
 10
309.5865440598
 20
134.4549936913
 30
0.0
 10
309.5589695168
 20
134.4460455315
 30
0.0
 10
309.5493857481
 20
134.4404653445
 30
0.0
  0
SPLINE
  5
49B
100
AcDbEntity
  8
JSG_3
100
AcDbSpline
 62
7
  6
CONTINUOUS
 70
0
 71
3
 72
11
 73
7
 74
0
 42
0.0000001
 43
0.0000001
 44
0.0000000001
 40
0.0
 40
0.0
 40
0.0
 40
0.0
 40
0.3485014665
 40
0.633265716
 40
0.8511871915
 40
1.0
 40
1.0
 40
1.0
 40
1.0
 10
327.0123659977
 20
129.5278969747
 30
0.0
 10
327.1969956665
 20
129.5361528728
 30
0.0
 10
327.5324359741
 20
129.552220135
 30
0.0
 10
327.9831124356
 20
129.5782886342
 30
0.0
 10
328.3276083625
 20
129.6041389669
 30
0.0
 10
328.5212221798
 20
129.6238951689
 30
0.0
 10
328.5992539912
 20
129.6356824617
 30
0.0
  0
SPLINE
  5
49C
100
AcDbEntity
  8
JSG_3
100
AcDbSpline
 62
7
  6
CONTINUOUS
 70
0
 71
3
 72
9
 73
5
 74
0
 42
0.0000001
 43
0.0000001
 44
0.0000000001
 40
0.0
 40
0.0
 40
0.0
 40
0.0
 40
0.309828029
 40
1.0
 40
1.0
 40
1.0
 40
1.0
 10
328.5992539912
 20
129.6356824617
 30
0.0
 10
328.6102236968
 20
129.6373395184
 30
0.0
 10
328.6455497912
 20
129.6430609058
 30
0.0
 10
328.6808635505
 20
129.6497486318
 30
0.0
 10
328.7045305093
 20
129.656863585
 30
0.0
  0
SPLINE
  5
49D
100
AcDbEntity
  8
JSG_3
100
AcDbSpline
 62
7
  6
CONTINUOUS
 70
0
 71
3
 72
9
 73
5
 74
0
 42
0.0000001
 43
0.0000001
 44
0.0000000001
 40
0.0
 40
0.0
 40
0.0
 40
0.0
 40
0.6623580436
 40
1.0
 40
1.0
 40
1.0
 40
1.0
 10
328.7045305093
 20
129.656863585
 30
0.0
 10
328.7132245748
 20
129.6594772656
 30
0.0
 10
328.7254418829
 20
129.6634392635
 30
0.0
 10
328.7387502168
 20
129.6721341813
 30
0.0
 10
328.7396500402
 20
129.6766736616
 30
0.0
  0
SPLINE
  5
49E
100
AcDbEntity
  8
JSG_3
100
AcDbSpline
 62
7
  6
CONTINUOUS
 70
0
 71
3
 72
9
 73
5
 74
0
 42
0.0000001
 43
0.0000001
 44
0.0000000001
 40
0.0
 40
0.0
 40
0.0
 40
0.0
 40
0.19951
 40
1.0
 40
1.0
 40
1.0
 40
1.0
 10
328.7304121692
 20
147.1670997055
 30
0.0
 10
328.728839074
 20
147.1661879126
 30
0.0
 10
328.7207082843
 20
147.1620443985
 30
0.0
 10
328.712019689
 20
147.1591277535
 30
0.0
 10
328.7050374561
 20
147.157013604
 30
0.0
  0
SPLINE
  5
49F
100
AcDbEntity
  8
JSG_3
100
AcDbSpline
 62
7
  6
CONTINUOUS
 70
0
 71
3
 72
27
 73
23
 74
0
 42
0.0000001
 43
0.0000001
 44
0.0000000001
 40
0.0
 40
0.0
 40
0.0
 40
0.0
 40
0.0059023164
 40
0.0158165555
 40
0.0296857312
 40
0.0474082829
 40
0.0688412681
 40
0.0938129495
 40
0.1535350365
 40
0.2246330127
 40
0.3047914309
 40
0.3913983675
 40
0.4816310949
 40
0.5725486112
 40
0.6611876489
 40
0.7446595025
 40
0.8202443885
 40
0.8854806633
 40
0.9382445277
 40
0.9768265241
 40
0.9903937306
 40
1.0
 40
1.0
 40
1.0
 40
1.0
 10
328.7050374561
 20
147.157013604
 30
0.0
 10
328.6667322785
 20
147.145415184
 30
0.0
 10
328.560168677
 20
147.1291585648
 30
0.0
 10
328.3603810945
 20
147.1069870695
 30
0.0
 10
328.0796039115
 20
147.0852447994
 30
0.0
 10
327.7208146091
 20
147.0626618714
 30
0.0
 10
327.2865377821
 20
147.0400805976
 30
0.0
 10
326.5676393594
 20
147.0078152813
 30
0.0
 10
325.511940681
 20
146.9688701195
 30
0.0
 10
324.0820358456
 20
146.9239694155
 30
0.0
 10
322.4697516712
 20
146.8788785741
 30
0.0
 10
320.727677834
 20
146.8336422365
 30
0.0
 10
318.9126261653
 20
146.7883487179
 30
0.0
 10
317.083791247
 20
146.7430442365
 30
0.0
 10
315.3008145473
 20
146.697773251
 30
0.0
 10
313.621835509
 20
146.6526114658
 30
0.0
 10
312.1016111994
 20
146.6075850031
 30
0.0
 10
310.7896779364
 20
146.5630349555
 30
0.0
 10
309.7288680489
 20
146.5187460188
 30
0.0
 10
309.0183934463
 20
146.4803951877
 30
0.0
 10
308.6010024594
 20
146.4468047769
 30
0.0
 10
308.4446970948
 20
146.4298351395
 30
0.0
 10
308.3802886228
 20
146.4201102632
 30
0.0
  0
SPLINE
  5
4A0
100
AcDbEntity
  8
JSG_3
100
AcDbSpline
 62
7
  6
CONTINUOUS
 70
0
 71
3
 72
9
 73
5
 74
0
 42
0.0000001
 43
0.0000001
 44
0.0000000001
 40
0.0
 40
0.0
 40
0.0
 40
0.0
 40
0.3098304818
 40
1.0
 40
1.0
 40
1.0
 40
1.0
 10
308.3802886228
 20
146.4201102632
 30
0.0
 10
308.3693189546
 20
146.4184539801
 30
0.0
 10
308.3339931801
 20
146.4127356572
 30
0.0
 10
308.2986790888
 20
146.4060534514
 30
0.0
 10
308.2750121043
 20
146.3989407489
 30
0.0
  0
SPLINE
  5
4A1
100
AcDbEntity
  8
JSG_3
100
AcDbSpline
 62
7
  6
CONTINUOUS
 70
0
 71
3
 72
9
 73
5
 74
0
 42
0.0000001
 43
0.0000001
 44
0.0000000001
 40
0.0
 40
0.0
 40
0.0
 40
0.0
 40
0.662034701
 40
1.0
 40
1.0
 40
1.0
 40
1.0
 10
308.2750121043
 20
146.3989407489
 30
0.0
 10
308.266324437
 20
146.396329821
 30
0.0
 10
308.2541038747
 20
146.3923657469
 30
0.0
 10
308.2408101702
 20
146.3836815672
 30
0.0
 10
308.2398966632
 20
146.3791415955
 30
0.0
  0
SPLINE
  5
4A2
100
AcDbEntity
  8
JSG_3
100
AcDbSpline
 62
7
  6
CONTINUOUS
 70
0
 71
3
 72
35
 73
31
 74
0
 42
0.0000001
 43
0.0000001
 44
0.0000000001
 40
0.0
 40
0.0
 40
0.0
 40
0.0
 40
0.0018591169
 40
0.0047859734
 40
0.0088024088
 40
0.0139144188
 40
0.0274201182
 40
0.045192838
 40
0.0670419528
 40
0.0927823715
 40
0.1222137256
 40
0.1550569347
 40
0.2297386879
 40
0.3141602165
 40
0.4052823474
 40
0.4998088126
 40
0.5943520157
 40
0.6854825475
 40
0.7699458037
 40
0.844673479
 40
0.8775319189
 40
0.9069918145
 40
0.9327837175
 40
0.9546668308
 40
0.9724402484
 40
0.9859813193
 40
0.9911315547
 40
0.9951853765
 40
0.99813624
 40
1.0
 40
1.0
 40
1.0
 40
1.0
 10
327.4297608646
 20
146.415554724
 30
0.0
 10
327.4201498102
 20
146.4100083644
 30
0.0
 10
327.3926664052
 20
146.4010440688
 30
0.0
 10
327.3415420193
 20
146.3894814497
 30
0.0
 10
327.2704388257
 20
146.3778322982
 30
0.0
 10
327.1365010947
 20
146.360354672
 30
0.0
 10
326.9201971177
 20
146.3397870263
 30
0.0
 10
326.6039763935
 20
146.3162491475
 30
0.0
 10
326.2145506827
 20
146.292542265
 30
0.0
 10
325.755451803
 20
146.2686668403
 30
0.0
 10
325.230654379
 20
146.2447383945
 30
0.0
 10
324.4138791622
 20
146.2113043053
 30
0.0
 10
323.26891819
 20
146.1705309586
 30
0.0
 10
321.7761363406
 20
146.1231603676
 30
0.0
 10
320.1648547329
 20
146.0756817131
 30
0.0
 10
318.4931377259
 20
146.0281095964
 30
0.0
 10
316.8213697038
 20
145.9805668717
 30
0.0
 10
315.2096896736
 20
145.9330596525
 30
0.0
 10
313.716333527
 20
145.8857118633
 30
0.0
 10
312.5707583117
 20
145.8449319501
 30
0.0
 10
311.7534475623
 20
145.8114911973
 30
0.0
 10
311.2280811473
 20
145.7875603217
 30
0.0
 10
310.7683001324
 20
145.763697905
 30
0.0
 10
310.3783581136
 20
145.7400069833
 30
0.0
 10
310.0617203864
 20
145.716428277
 30
0.0
 10
309.8449751806
 20
145.6958307105
 30
0.0
 10
309.7103657541
 20
145.6783943068
 30
0.0
 10
309.6386559838
 20
145.6667589838
 30
0.0
 10
309.5871278506
 20
145.6552201139
 30
0.0
 10
309.5594574815
 20
145.6462483504
 30
0.0
 10
309.5498263915
 20
145.6406812686
 30
0.0
  0
SPLINE
  5
4A3
100
AcDbEntity
  8
JSG_3
100
AcDbSpline
 62
7
  6
CONTINUOUS
 70
0
 71
3
 72
9
 73
5
 74
0
 42
0.0000001
 43
0.0000001
 44
0.0000000001
 40
0.0
 40
0.0
 40
0.0
 40
0.0
 40
0.1994943616
 40
1.0
 40
1.0
 40
1.0
 40
1.0
 10
308.249103306
 20
141.6887500611
 30
0.0
 10
308.250676456
 20
141.6896657591
 30
0.0
 10
308.2588121763
 20
141.6938240169
 30
0.0
 10
308.267513333
 20
141.6967405901
 30
0.0
 10
308.2745051562
 20
141.6988533413
 30
0.0
  0
SPLINE
  5
4A4
100
AcDbEntity
  8
JSG_3
100
AcDbSpline
 62
7
  6
CONTINUOUS
 70
0
 71
3
 72
27
 73
23
 74
0
 42
0.0000001
 43
0.0000001
 44
0.0000000001
 40
0.0
 40
0.0
 40
0.0
 40
0.0
 40
0.0059015667
 40
0.0158157485
 40
0.0296850181
 40
0.0474075829
 40
0.0688405714
 40
0.0938122732
 40
0.1535344067
 40
0.2246324364
 40
0.3047909154
 40
0.3913979175
 40
0.4816307132
 40
0.5725482983
 40
0.6611874032
 40
0.74465932
 40
0.8202442634
 40
0.8854805872
 40
0.9382444928
 40
0.9768265144
 40
0.9903937638
 40
1.0
 40
1.0
 40
1.0
 40
1.0
 10
308.2745051562
 20
141.6988533413
 30
0.0
 10
308.3128119707
 20
141.7104286868
 30
0.0
 10
308.419384948
 20
141.7265887451
 30
0.0
 10
308.6191605663
 20
141.748797171
 30
0.0
 10
308.8999382427
 20
141.7705561549
 30
0.0
 10
309.2587278023
 20
141.7931341107
 30
0.0
 10
309.6930050521
 20
141.8157090858
 30
0.0
 10
310.4119031265
 20
141.8479784815
 30
0.0
 10
311.4676019491
 20
141.8869223299
 30
0.0
 10
312.8975067473
 20
141.9318233881
 30
0.0
 10
314.5097909348
 20
141.9769141227
 30
0.0
 10
316.2518647682
 20
142.022150497
 30
0.0
 10
318.0669164389
 20
142.0674440099
 30
0.0
 10
319.8957513594
 20
142.1127484644
 30
0.0
 10
321.678728056
 20
142.1580195592
 30
0.0
 10
323.3577071115
 20
142.203180985
 30
0.0
 10
324.8779313742
 20
142.2482085302
 30
0.0
 10
326.1898647763
 20
142.2927556112
 30
0.0
 10
327.2506743187
 20
142.337051716
 30
0.0
 10
327.9611497273
 20
142.375389378
 30
0.0
 10
328.3785400023
 20
142.4089944132
 30
0.0
 10
328.5348442
 20
142.4259681659
 30
0.0
 10
328.5992539912
 20
142.4356824617
 30
0.0
  0
SPLINE
  5
4A5
100
AcDbEntity
  8
JSG_3
100
AcDbSpline
 62
7
  6
CONTINUOUS
 70
0
 71
3
 72
9
 73
5
 74
0
 42
0.0000001
 43
0.0000001
 44
0.0000000001
 40
0.0
 40
0.0
 40
0.0
 40
0.0
 40
0.3098363411
 40
1.0
 40
1.0
 40
1.0
 40
1.0
 10
328.5992539912
 20
142.4356824617
 30
0.0
 10
328.6102235699
 20
142.4373368955
 30
0.0
 10
328.6455485803
 20
142.443047892
 30
0.0
 10
328.6808634641
 20
142.4497168992
 30
0.0
 10
328.7045305105
 20
142.4568242204
 30
0.0
  0
SPLINE
  5
4A6
100
AcDbEntity
  8
JSG_3
100
AcDbSpline
 62
7
  6
CONTINUOUS
 70
0
 71
3
 72
9
 73
5
 74
0
 42
0.0000001
 43
0.0000001
 44
0.0000000001
 40
0.0
 40
0.0
 40
0.0
 40
0.0
 40
0.6621317697
 40
1.0
 40
1.0
 40
1.0
 40
1.0
 10
328.7045305105
 20
142.4568242204
 30
0.0
 10
328.7132297329
 20
142.4594366363
 30
0.0
 10
328.7254653434
 20
142.463387815
 30
0.0
 10
328.7387655422
 20
142.4721310602
 30
0.0
 10
328.7396526764
 20
142.4766801881
 30
0.0
  0
SPLINE
  5
4A7
100
AcDbEntity
  8
JSG_3
100
AcDbSpline
 62
7
  6
CONTINUOUS
 70
0
 71
3
 72
9
 73
5
 74
0
 42
0.0000001
 43
0.0000001
 44
0.0000000001
 40
0.0
 40
0.0
 40
0.0
 40
0.0
 40
0.2002977117
 40
1.0
 40
1.0
 40
1.0
 40
1.0
 10
308.2493416643
 20
109.6888689537
 30
0.0
 10
308.2509105221
 20
109.689770096
 30
0.0
 10
308.2589796894
 20
109.6938553401
 30
0.0
 10
308.2675907183
 20
109.6967436184
 30
0.0
 10
308.2745051564
 20
109.6988340894
 30
0.0
  0
SPLINE
  5
4A8
100
AcDbEntity
  8
JSG_3
100
AcDbSpline
 62
7
  6
CONTINUOUS
 70
0
 71
3
 72
27
 73
23
 74
0
 42
0.0000001
 43
0.0000001
 44
0.0000000001
 40
0.0
 40
0.0
 40
0.0
 40
0.0
 40
0.005901761
 40
0.0158159578
 40
0.0296852033
 40
0.047407765
 40
0.0688407531
 40
0.0938124501
 40
0.1535345727
 40
0.2246325898
 40
0.3047910545
 40
0.3913980413
 40
0.481630821
 40
0.5725483899
 40
0.6611874791
 40
0.7446593811
 40
0.8202443111
 40
0.8854806229
 40
0.938244521
 40
0.9768265298
 40
0.9903938238
 40
1.0
 40
1.0
 40
1.0
 40
1.0
 10
308.2745051564
 20
109.6988340894
 30
0.0
 10
308.3128115458
 20
109.7104154202
 30
0.0
 10
308.4193820958
 20
109.7266005268
 30
0.0
 10
308.6191608116
 20
109.7487993709
 30
0.0
 10
308.8999383617
 20
109.7705540206
 30
0.0
 10
309.2587278536
 20
109.7931332657
 30
0.0
 10
309.6930049939
 20
109.8157098747
 30
0.0
 10
310.4119031584
 20
109.8479782122
 30
0.0
 10
311.4676019435
 20
109.8869224014
 30
0.0
 10
312.8975067512
 20
109.9318233675
 30
0.0
 10
314.5097909353
 20
109.9769141307
 30
0.0
 10
316.2518647699
 20
110.0221504917
 30
0.0
 10
318.0669164396
 20
110.0674440209
 30
0.0
 10
319.895751362
 20
110.1127484278
 30
0.0
 10
321.6787280517
 20
110.1580196831
 30
0.0
 10
323.3577071294
 20
110.2031805901
 30
0.0
 10
324.8779313221
 20
110.248209695
 30
0.0
 10
326.189864923
 20
110.2927525018
 30
0.0
 10
327.2506739649
 20
110.3370589339
 30
0.0
 10
327.9611505366
 20
110.375377623
 30
0.0
 10
328.3785397814
 20
110.4090037276
 30
0.0
 10
328.5348423022
 20
110.4259834115
 30
0.0
 10
328.5992539912
 20
110.4356824617
 30
0.0
  0
SPLINE
  5
4A9
100
AcDbEntity
  8
JSG_3
100
AcDbSpline
 62
7
  6
CONTINUOUS
 70
0
 71
3
 72
9
 73
5
 74
0
 42
0.0000001
 43
0.0000001
 44
0.0000000001
 40
0.0
 40
0.0
 40
0.0
 40
0.0
 40
0.3098447708
 40
1.0
 40
1.0
 40
1.0
 40
1.0
 10
328.5992539912
 20
110.4356824617
 30
0.0
 10
328.6102234411
 20
110.437334231
 30
0.0
 10
328.645547352
 20
110.4430346726
 30
0.0
 10
328.6808633742
 20
110.4496846615
 30
0.0
 10
328.7045305111
 20
110.4567842296
 30
0.0
  0
SPLINE
  5
4AA
100
AcDbEntity
  8
JSG_3
100
AcDbSpline
 62
7
  6
CONTINUOUS
 70
0
 71
3
 72
9
 73
5
 74
0
 42
0.0000001
 43
0.0000001
 44
0.0000000001
 40
0.0
 40
0.0
 40
0.0
 40
0.0
 40
0.6607707684
 40
1.0
 40
1.0
 40
1.0
 40
1.0
 10
328.7045305111
 20
110.4567842296
 30
0.0
 10
328.713199722
 20
110.459384783
 30
0.0
 10
328.7254434573
 20
110.4633482361
 30
0.0
 10
328.7386820142
 20
110.4720291622
 30
0.0
 10
328.7396333401
 20
110.4765773025
 30
0.0
  0
SPLINE
  5
4AB
100
AcDbEntity
  8
JSG_3
100
AcDbSpline
 62
7
  6
CONTINUOUS
 70
0
 71
3
 72
18
 73
14
 74
0
 42
0.0000001
 43
0.0000001
 44
0.0000000001
 40
0.0
 40
0.0
 40
0.0
 40
0.0
 40
0.112572278
 40
0.2548664532
 40
0.4144714336
 40
0.5774685484
 40
0.7296317563
 40
0.7974352505
 40
0.8576937758
 40
0.9090873902
 40
0.9504931675
 40
0.9810127395
 40
1.0
 40
1.0
 40
1.0
 40
1.0
 10
310.0934658
 20
137.0332378457
 30
0.0
 10
310.7881388679
 20
137.0629792962
 30
0.0
 10
312.3614353942
 20
137.1174158708
 30
0.0
 10
314.9204528867
 20
137.1885504
 30
0.0
 10
317.7910078964
 20
137.2607728709
 30
0.0
 10
320.7225304946
 20
137.3330594927
 30
0.0
 10
323.087125062
 20
137.3950460893
 30
0.0
 10
324.8171819711
 20
137.4466147991
 30
0.0
 10
325.9249996833
 20
137.4835814279
 30
0.0
 10
326.8696220707
 20
137.5204858198
 30
0.0
 10
327.6305717977
 20
137.5563462219
 30
0.0
 10
328.1907661209
 20
137.5925174224
 30
0.0
 10
328.4957373814
 20
137.619372058
 30
0.0
 10
328.6115909111
 20
137.6375822091
 30
0.0
  0
SPLINE
  5
4AC
100
AcDbEntity
  8
JSG_3
100
AcDbSpline
 62
7
  6
CONTINUOUS
 70
0
 71
3
 72
9
 73
5
 74
0
 42
0.0000001
 43
0.0000001
 44
0.0000000001
 40
0.0
 40
0.0
 40
0.0
 40
0.0
 40
0.3097324595
 40
1.0
 40
1.0
 40
1.0
 40
1.0
 10
328.6115909111
 20
137.6375822091
 30
0.0
 10
328.6216063301
 20
137.639156458
 30
0.0
 10
328.6538637077
 20
137.6445879934
 30
0.0
 10
328.6861149359
 20
137.6509198646
 30
0.0
 10
328.7076733724
 20
137.6576828369
 30
0.0
  0
SPLINE
  5
4AD
100
AcDbEntity
  8
JSG_3
100
AcDbSpline
 62
7
  6
CONTINUOUS
 70
0
 71
3
 72
9
 73
5
 74
0
 42
0.0000001
 43
0.0000001
 44
0.0000000001
 40
0.0
 40
0.0
 40
0.0
 40
0.0
 40
0.6564738096
 40
1.0
 40
1.0
 40
1.0
 40
1.0
 10
328.7076733724
 20
137.6576828369
 30
0.0
 10
328.7155996117
 20
137.6601693316
 30
0.0
 10
328.7269488633
 20
137.6639607347
 30
0.0
 10
328.7388272044
 20
137.6723871739
 30
0.0
 10
328.7396515164
 20
137.6766553255
 30
0.0
  0
SPLINE
  5
4AE
100
AcDbEntity
  8
JSG_3
100
AcDbSpline
 62
7
  6
CONTINUOUS
 70
0
 71
3
 72
9
 73
5
 74
0
 42
0.0000001
 43
0.0000001
 44
0.0000000001
 40
0.0
 40
0.0
 40
0.0
 40
0.0
 40
0.2005976773
 40
1.0
 40
1.0
 40
1.0
 40
1.0
 10
308.2494014245
 20
154.4889956924
 30
0.0
 10
308.2509686039
 20
154.4898961314
 30
0.0
 10
308.2590175952
 20
154.4939714945
 30
0.0
 10
308.2676090538
 20
154.4968482027
 30
0.0
 10
308.2745051569
 20
154.4989277744
 30
0.0
  0
SPLINE
  5
4AF
100
AcDbEntity
  8
JSG_3
100
AcDbSpline
 62
7
  6
CONTINUOUS
 70
0
 71
3
 72
27
 73
23
 74
0
 42
0.0000001
 43
0.0000001
 44
0.0000000001
 40
0.0
 40
0.0
 40
0.0
 40
0.0
 40
0.0059008176
 40
0.0158149423
 40
0.0296843067
 40
0.047406885
 40
0.0688398776
 40
0.0938116006
 40
0.1535337824
 40
0.2246318678
 40
0.3047904097
 40
0.3913974798
 40
0.4816303463
 40
0.5725480028
 40
0.6611871772
 40
0.7446591595
 40
0.8202441624
 40
0.8854805363
 40
0.9382444878
 40
0.9768265248
 40
0.990393904
 40
1.0
 40
1.0
 40
1.0
 40
1.0
 10
308.2745051569
 20
154.4989277744
 30
0.0
 10
308.3128136183
 20
154.5104799787
 30
0.0
 10
308.4193959496
 20
154.5265431838
 30
0.0
 10
308.6191596305
 20
154.5487886715
 30
0.0
 10
308.899937784
 20
154.570564405
 30
0.0
 10
309.2587276116
 20
154.5931373791
 30
0.0
 10
309.6930052841
 20
154.6157060357
 30
0.0
 10
310.4119030121
 20
154.647979523
 30
0.0
 10
311.4676019799
 20
154.6869220541
 30
0.0
 10
312.897506742
 20
154.7318234673
 30
0.0
 10
314.5097909427
 20
154.776914096
 30
0.0
 10
316.2518647718
 20
154.8221505012
 30
0.0
 10
318.0669164422
 20
154.8674440315
 30
0.0
 10
319.8957513666
 20
154.9127483738
 30
0.0
 10
321.6787280456
 20
154.9580198727
 30
0.0
 10
323.3577071574
 20
155.0031799838
 30
0.0
 10
324.8779312422
 20
155.048211484
 30
0.0
 10
326.1898651493
 20
155.0927477263
 30
0.0
 10
327.2506734193
 20
155.1370700195
 30
0.0
 10
327.9611517845
 20
155.1753595695
 30
0.0
 10
328.3785394383
 20
155.2090180322
 30
0.0
 10
328.5348393935
 20
155.2260068311
 30
0.0
 10
328.5992539912
 20
155.2356824617
 30
0.0
  0
SPLINE
  5
4B0
100
AcDbEntity
  8
JSG_3
100
AcDbSpline
 62
7
  6
CONTINUOUS
 70
0
 71
3
 72
9
 73
5
 74
0
 42
0.0000001
 43
0.0000001
 44
0.0000000001
 40
0.0
 40
0.0
 40
0.0
 40
0.0
 40
0.3098576904
 40
1.0
 40
1.0
 40
1.0
 40
1.0
 10
328.5992539912
 20
155.2356824617
 30
0.0
 10
328.6102232438
 20
155.2373301385
 30
0.0
 10
328.6455454693
 20
155.2430143706
 30
0.0
 10
328.680863232
 20
155.249635144
 30
0.0
 10
328.7045305106
 20
155.2567228042
 30
0.0
  0
SPLINE
  5
4B1
100
AcDbEntity
  8
JSG_3
100
AcDbSpline
 62
7
  6
CONTINUOUS
 70
0
 71
3
 72
9
 73
5
 74
0
 42
0.0000001
 43
0.0000001
 44
0.0000000001
 40
0.0
 40
0.0
 40
0.0
 40
0.0
 40
0.6603417867
 40
1.0
 40
1.0
 40
1.0
 40
1.0
 10
328.7045305106
 20
155.2567228042
 30
0.0
 10
328.7132052246
 20
155.2593206283
 30
0.0
 10
328.7254762707
 20
155.2632694044
 30
0.0
 10
328.7386989705
 20
155.2720165698
 30
0.0
 10
328.7396360799
 20
155.2765791018
 30
0.0
  0
SPLINE
  5
4B2
100
AcDbEntity
  8
JSG_3
100
AcDbSpline
 62
7
  6
CONTINUOUS
 70
0
 71
3
 72
9
 73
5
 74
0
 42
0.0000001
 43
0.0000001
 44
0.0000000001
 40
0.0
 40
0.0
 40
0.0
 40
0.0
 40
0.2004075829
 40
1.0
 40
1.0
 40
1.0
 40
1.0
 10
328.7301955456
 20
137.56683311
 30
0.0
 10
328.7286272762
 20
137.5659296383
 30
0.0
 10
328.7205627399
 20
137.5618385356
 30
0.0
 10
328.7119510515
 20
137.5589549471
 30
0.0
 10
328.7050374572
 20
137.5568698216
 30
0.0
  0
SPLINE
  5
4B3
100
AcDbEntity
  8
JSG_3
100
AcDbSpline
 62
7
  6
CONTINUOUS
 70
0
 71
3
 72
27
 73
23
 74
0
 42
0.0000001
 43
0.0000001
 44
0.0000000001
 40
0.0
 40
0.0
 40
0.0
 40
0.0
 40
0.0059008666
 40
0.015814995
 40
0.0296843531
 40
0.0474069305
 40
0.0688399228
 40
0.0938116443
 40
0.1535338229
 40
0.2246319046
 40
0.3047904422
 40
0.3913975077
 40
0.4816303695
 40
0.5725480211
 40
0.6611871909
 40
0.7446591687
 40
0.8202441676
 40
0.8854805381
 40
0.9382444864
 40
0.9768265229
 40
0.9903938886
 40
1.0
 40
1.0
 40
1.0
 40
1.0
 10
328.7050374572
 20
137.5568698216
 30
0.0
 10
328.6667291038
 20
137.5453161029
 30
0.0
 10
328.5601473831
 20
137.529246559
 30
0.0
 10
328.3603829228
 20
137.5070034975
 30
0.0
 10
328.0796048001
 20
137.4852288598
 30
0.0
 10
327.7208149903
 20
137.4626555598
 30
0.0
 10
327.2865373454
 20
137.4400864896
 30
0.0
 10
326.5676395949
 20
137.4078132701
 30
0.0
 10
325.5119406365
 20
137.3688706528
 30
0.0
 10
324.0820358721
 20
137.3239692628
 30
0.0
 10
322.4697516723
 20
137.2788786273
 30
0.0
 10
320.7276778429
 20
137.2336422238
 30
0.0
 10
318.9126261724
 20
137.1883486959
 30
0.0
 10
317.0837912484
 20
137.1430443413
 30
0.0
 10
315.3008145675
 20
137.0977728861
 30
0.0
 10
313.6218354617
 20
137.0526126332
 30
0.0
 10
312.1016113576
 20
137.0075815592
 30
0.0
 10
310.7896775051
 20
136.963044149
 30
0.0
 10
309.7288690975
 20
136.9187246777
 30
0.0
 10
309.018391052
 20
136.8804299436
 30
0.0
 10
308.6010031143
 20
136.8467772376
 30
0.0
 10
308.4447027036
 20
136.8297900608
 30
0.0
 10
308.3802886228
 20
136.8201102632
 30
0.0
  0
SPLINE
  5
4B4
100
AcDbEntity
  8
JSG_3
100
AcDbSpline
 62
7
  6
CONTINUOUS
 70
0
 71
3
 72
9
 73
5
 74
0
 42
0.0000001
 43
0.0000001
 44
0.0000000001
 40
0.0
 40
0.0
 40
0.0
 40
0.0
 40
0.3098553943
 40
1.0
 40
1.0
 40
1.0
 40
1.0
 10
308.3802886228
 20
136.8201102632
 30
0.0
 10
308.3693193352
 20
136.8184618583
 30
0.0
 10
308.3339968101
 20
136.8127747425
 30
0.0
 10
308.2986793564
 20
136.8061487708
 30
0.0
 10
308.2750121032
 20
136.799058992
 30
0.0
  0
SPLINE
  5
4B5
100
AcDbEntity
  8
JSG_3
100
AcDbSpline
 62
7
  6
CONTINUOUS
 70
0
 71
3
 72
9
 73
5
 74
0
 42
0.0000001
 43
0.0000001
 44
0.0000000001
 40
0.0
 40
0.0
 40
0.0
 40
0.0
 40
0.660793668
 40
1.0
 40
1.0
 40
1.0
 40
1.0
 10
308.2750121032
 20
136.799058992
 30
0.0
 10
308.2663265368
 20
136.7964571377
 30
0.0
 10
308.2540564884
 20
136.7925134383
 30
0.0
 10
308.2408134645
 20
136.7837406619
 30
0.0
 10
308.2398995012
 20
136.7791769527
 30
0.0
  0
SPLINE
  5
4B6
100
AcDbEntity
  8
JSG_3
100
AcDbSpline
 62
7
  6
CONTINUOUS
 70
0
 71
3
 72
21
 73
17
 74
0
 42
0.0000001
 43
0.0000001
 44
0.0000000001
 40
0.0
 40
0.0
 40
0.0
 40
0.0
 40
0.2275676464
 40
0.4302958436
 40
0.6050140003
 40
0.6810234961
 40
0.7490645478
 40
0.8088609665
 40
0.860198279
 40
0.9028970507
 40
0.9368562294
 40
0.9621356606
 40
0.9716273888
 40
0.9791629478
 40
0.9896027481
 40
1.0
 40
1.0
 40
1.0
 40
1.0
 10
312.7953934019
 20
108.2279028457
 30
0.0
 10
312.4854896608
 20
108.2053635575
 30
0.0
 10
311.8996927017
 20
108.1601434959
 30
0.0
 10
311.0767020529
 20
108.0885211261
 30
0.0
 10
310.4606232922
 20
108.0265221272
 30
0.0
 10
310.0283688028
 20
107.9754586284
 30
0.0
 10
309.7524361091
 20
107.9388897372
 30
0.0
 10
309.5105222068
 20
107.9023000894
 30
0.0
 10
309.3036664864
 20
107.8656854993
 30
0.0
 10
309.1326874528
 20
107.8292378853
 30
0.0
 10
308.9982783152
 20
107.792696746
 30
0.0
 10
308.9098720853
 20
107.7607804999
 30
0.0
 10
308.8586808686
 20
107.733095211
 30
0.0
 10
308.8286647818
 20
107.711701107
 30
0.0
 10
308.8032654457
 20
107.6750484055
 30
0.0
 10
308.8212536928
 20
107.6464200921
 30
0.0
 10
308.8312921122
 20
107.6363816663
 30
0.0
  0
SPLINE
  5
4B7
100
AcDbEntity
  8
JSG_3
100
AcDbSpline
 62
7
  6
CONTINUOUS
 70
0
 71
3
 72
35
 73
31
 74
0
 42
0.0000001
 43
0.0000001
 44
0.0000000001
 40
0.0
 40
0.0
 40
0.0
 40
0.0
 40
0.0018687379
 40
0.0048195481
 40
0.0088654396
 40
0.0140023581
 40
0.0275154195
 40
0.0452832596
 40
0.0671670021
 40
0.0929510293
 40
0.122397988
 40
0.1552531216
 40
0.2299889658
 40
0.3144471715
 40
0.4055959455
 40
0.5001485098
 40
0.594689087
 40
0.6858291892
 40
0.770257702
 40
0.8449580728
 40
0.8778002705
 40
0.9072213111
 40
0.9329672966
 40
0.954827646
 40
0.9725918357
 40
0.986073509
 40
0.9911846793
 40
0.9952058921
 40
0.9981389081
 40
1.0
 40
1.0
 40
1.0
 40
1.0
 10
327.4300504915
 20
136.8154573479
 30
0.0
 10
327.4203881775
 20
136.8098840832
 30
0.0
 10
327.3926773
 20
136.8009381831
 30
0.0
 10
327.3411717882
 20
136.789380557
 30
0.0
 10
327.2695880745
 20
136.7777406838
 30
0.0
 10
327.1352721771
 20
136.7602901161
 30
0.0
 10
326.9188009068
 20
136.7396734901
 30
0.0
 10
326.6023474363
 20
136.7161094895
 30
0.0
 10
326.2124673546
 20
136.6924186958
 30
0.0
 10
325.752789812
 20
136.6685529759
 30
0.0
 10
325.227548196
 20
136.6446109314
 30
0.0
 10
324.4102552627
 20
136.6111594971
 30
0.0
 10
323.2646376361
 20
136.5703891804
 30
0.0
 10
321.771098623
 20
136.5230109384
 30
0.0
 10
320.159222912
 20
136.4755119618
 30
0.0
 10
318.4871433059
 20
136.427951465
 30
0.0
 10
316.8151160383
 20
136.3803717645
 30
0.0
 10
315.2035404629
 20
136.3328909737
 30
0.0
 10
313.7104428124
 20
136.2854993268
 30
0.0
 10
312.5652916634
 20
136.2447299512
 30
0.0
 10
311.7484423993
 20
136.2112869304
 30
0.0
 10
311.2236602688
 20
136.1873439355
 30
0.0
 10
310.7645052238
 20
136.1634695019
 30
0.0
 10
310.3750150813
 20
136.139768882
 30
0.0
 10
310.0589088226
 20
136.1162407683
 30
0.0
 10
309.842800959
 20
136.0956286854
 30
0.0
 10
309.7089790095
 20
136.0781573109
 30
0.0
 10
309.6378108223
 20
136.066509058
 30
0.0
 10
309.5866079318
 20
136.0549504055
 30
0.0
 10
309.5590653858
 20
136.0459936497
 30
0.0
 10
309.5494468472
 20
136.0404358412
 30
0.0
  0
SPLINE
  5
4B8
100
AcDbEntity
  8
JSG_3
100
AcDbSpline
 62
7
  6
CONTINUOUS
 70
0
 71
3
 72
9
 73
5
 74
0
 42
0.0000001
 43
0.0000001
 44
0.0000000001
 40
0.0
 40
0.0
 40
0.0
 40
0.0
 40
0.2007016355
 40
1.0
 40
1.0
 40
1.0
 40
1.0
 10
308.2494469116
 20
111.2889726942
 30
0.0
 10
308.2510134483
 20
111.2898690322
 30
0.0
 10
308.2590512569
 20
111.2939268566
 30
0.0
 10
308.2676242096
 20
111.2968002356
 30
0.0
 10
308.2745051562
 20
111.298878072
 30
0.0
  0
SPLINE
  5
4B9
100
AcDbEntity
  8
JSG_3
100
AcDbSpline
 62
7
  6
CONTINUOUS
 70
0
 71
3
 72
27
 73
23
 74
0
 42
0.0000001
 43
0.0000001
 44
0.0000000001
 40
0.0
 40
0.0
 40
0.0
 40
0.0
 40
0.0059013176
 40
0.0158154806
 40
0.029684782
 40
0.0474073516
 40
0.0688403419
 40
0.0938120512
 40
0.1535342019
 40
0.2246322515
 40
0.3047907529
 40
0.3913977793
 40
0.4816306003
 40
0.5725482108
 40
0.6611873405
 40
0.7446592807
 40
0.8202442455
 40
0.8854805866
 40
0.9382445106
 40
0.976826531
 40
0.9903938806
 40
1.0
 40
1.0
 40
1.0
 40
1.0
 10
308.2745051562
 20
111.298878072
 30
0.0
 10
308.3128125172
 20
111.3104457288
 30
0.0
 10
308.4193886079
 20
111.326573609
 30
0.0
 10
308.6191602531
 20
111.348794346
 30
0.0
 10
308.89993809
 20
111.3705588964
 30
0.0
 10
309.2587277375
 20
111.3931351965
 30
0.0
 10
309.6930051279
 20
111.4157080724
 30
0.0
 10
310.4119030869
 20
111.4479788274
 30
0.0
 10
311.4676019577
 20
111.4869222383
 30
0.0
 10
312.8975067437
 20
111.5318234142
 30
0.0
 10
314.5097909356
 20
111.5769141145
 30
0.0
 10
316.2518647678
 20
111.6221504952
 30
0.0
 10
318.0669164379
 20
111.6674440291
 30
0.0
 10
319.8957513622
 20
111.7127483905
 30
0.0
 10
321.6787280451
 20
111.7580198127
 30
0.0
 10
323.3577071467
 20
111.8031801756
 30
0.0
 10
324.8779312662
 20
111.8482109179
 30
0.0
 10
326.1898650767
 20
111.8927492373
 30
0.0
 10
327.2506735918
 20
111.937066512
 30
0.0
 10
327.9611513888
 20
111.9753652816
 30
0.0
 10
328.3785395473
 20
112.0090135063
 30
0.0
 10
328.534840313
 20
112.0259994205
 30
0.0
 10
328.5992539912
 20
112.0356824617
 30
0.0
  0
SPLINE
  5
4BA
100
AcDbEntity
  8
JSG_3
100
AcDbSpline
 62
7
  6
CONTINUOUS
 70
0
 71
3
 72
9
 73
5
 74
0
 42
0.0000001
 43
0.0000001
 44
0.0000000001
 40
0.0
 40
0.0
 40
0.0
 40
0.0
 40
0.3098536062
 40
1.0
 40
1.0
 40
1.0
 40
1.0
 10
328.5992539912
 20
112.0356824617
 30
0.0
 10
328.6102233062
 20
112.0373314334
 30
0.0
 10
328.6455460645
 20
112.0430207941
 30
0.0
 10
328.6808632775
 20
112.0496508121
 30
0.0
 10
328.7045305109
 20
112.0567422401
 30
0.0
  0
SPLINE
  5
4BB
100
AcDbEntity
  8
JSG_3
100
AcDbSpline
 62
7
  6
CONTINUOUS
 70
0
 71
3
 72
9
 73
5
 74
0
 42
0.0000001
 43
0.0000001
 44
0.0000000001
 40
0.0
 40
0.0
 40
0.0
 40
0.0
 40
0.6601507084
 40
1.0
 40
1.0
 40
1.0
 40
1.0
 10
328.7045305109
 20
112.0567422401
 30
0.0
 10
328.7131931799
 20
112.059337841
 30
0.0
 10
328.7254522199
 20
112.0632977489
 30
0.0
 10
328.7386646289
 20
112.0719917533
 30
0.0
 10
328.7396284931
 20
112.0765463581
 30
0.0
  0
SPLINE
  5
4BC
100
AcDbEntity
  8
JSG_3
100
AcDbSpline
 62
7
  6
CONTINUOUS
 70
0
 71
3
 72
9
 73
5
 74
0
 42
0.0000001
 43
0.0000001
 44
0.0000000001
 40
0.0
 40
0.0
 40
0.0
 40
0.0
 40
0.1999395676
 40
1.0
 40
1.0
 40
1.0
 40
1.0
 10
328.7302960156
 20
145.5670079604
 30
0.0
 10
328.7287251811
 20
145.5661021881
 30
0.0
 10
328.7206280656
 20
145.5619912486
 30
0.0
 10
328.7119823132
 20
145.5590899615
 30
0.0
 10
328.705037457
 20
145.5569885706
 30
0.0
  0
SPLINE
  5
4BD
100
AcDbEntity
  8
JSG_3
100
AcDbSpline
 62
7
  6
CONTINUOUS
 70
0
 71
3
 72
27
 73
23
 74
0
 42
0.0000001
 43
0.0000001
 44
0.0000000001
 40
0.0
 40
0.0
 40
0.0
 40
0.0
 40
0.0059020633
 40
0.0158162831
 40
0.0296854906
 40
0.047408047
 40
0.0688410335
 40
0.093812722
 40
0.1535348254
 40
0.2246328203
 40
0.3047912599
 40
0.3913982195
 40
0.4816309709
 40
0.5725485113
 40
0.6611875726
 40
0.7446594484
 40
0.8202443547
 40
0.8854806463
 40
0.9382445264
 40
0.9768265279
 40
0.9903937793
 40
1.0
 40
1.0
 40
1.0
 40
1.0
 10
328.705037457
 20
145.5569885706
 30
0.0
 10
328.6667317278
 20
145.5453979332
 30
0.0
 10
328.5601649586
 20
145.5291738808
 30
0.0
 10
328.3603814182
 20
145.5069899322
 30
0.0
 10
328.0796040668
 20
145.4852420234
 30
0.0
 10
327.7208146788
 20
145.462660773
 30
0.0
 10
327.2865377091
 20
145.4400816235
 30
0.0
 10
326.5676394041
 20
145.4078149313
 30
0.0
 10
325.5119406772
 20
145.3688702125
 30
0.0
 10
324.0820358545
 20
145.3239693891
 30
0.0
 10
322.4697516757
 20
145.2788785833
 30
0.0
 10
320.7276778396
 20
145.2336422353
 30
0.0
 10
318.9126261704
 20
145.1883487105
 30
0.0
 10
317.08379125
 20
145.143044268
 30
0.0
 10
315.3008145554
 20
145.0977731425
 30
0.0
 10
313.6218354966
 20
145.0526118129
 30
0.0
 10
312.1016112475
 20
145.0075839795
 30
0.0
 10
310.7896778094
 20
144.9630376883
 30
0.0
 10
309.7288683599
 20
144.9187396752
 30
0.0
 10
309.0183927371
 20
144.880405519
 30
0.0
 10
308.6010026523
 20
144.8467965906
 30
0.0
 10
308.4446987649
 20
144.8298217422
 30
0.0
 10
308.3802886228
 20
144.8201102632
 30
0.0
  0
SPLINE
  5
4BE
100
AcDbEntity
  8
JSG_3
100
AcDbSpline
 62
7
  6
CONTINUOUS
 70
0
 71
3
 72
9
 73
5
 74
0
 42
0.0000001
 43
0.0000001
 44
0.0000000001
 40
0.0
 40
0.0
 40
0.0
 40
0.0
 40
0.3098378997
 40
1.0
 40
1.0
 40
1.0
 40
1.0
 10
308.3802886228
 20
144.8201102632
 30
0.0
 10
308.3693190679
 20
144.8184563218
 30
0.0
 10
308.3339942608
 20
144.8127472756
 30
0.0
 10
308.2986791664
 20
144.8060817823
 30
0.0
 10
308.2750121034
 20
144.7989758936
 30
0.0
  0
SPLINE
  5
4BF
100
AcDbEntity
  8
JSG_3
100
AcDbSpline
 62
7
  6
CONTINUOUS
 70
0
 71
3
 72
9
 73
5
 74
0
 42
0.0000001
 43
0.0000001
 44
0.0000000001
 40
0.0
 40
0.0
 40
0.0
 40
0.0
 40
0.661446301
 40
1.0
 40
1.0
 40
1.0
 40
1.0
 10
308.2750121034
 20
144.7989758936
 30
0.0
 10
308.26633186
 20
144.7963697045
 30
0.0
 10
308.2540985022
 20
144.7924073106
 30
0.0
 10
308.2408302853
 20
144.7837180639
 30
0.0
 10
308.2399017715
 20
144.7791731229
 30
0.0
  0
SPLINE
  5
4C0
100
AcDbEntity
  8
JSG_3
100
AcDbSpline
 62
7
  6
CONTINUOUS
 70
0
 71
3
 72
9
 73
5
 74
0
 42
0.0000001
 43
0.0000001
 44
0.0000000001
 40
0.0
 40
0.0
 40
0.0
 40
0.0
 40
0.2001625168
 40
1.0
 40
1.0
 40
1.0
 40
1.0
 10
308.2492781472
 20
140.0889110151
 30
0.0
 10
308.2508477815
 20
140.089818261
 30
0.0
 10
308.2589320953
 20
140.093929176
 30
0.0
 10
308.2675693792
 20
140.0968216096
 30
0.0
 10
308.2745051566
 20
140.0989139408
 30
0.0
  0
SPLINE
  5
4C1
100
AcDbEntity
  8
JSG_3
100
AcDbSpline
 62
7
  6
CONTINUOUS
 70
0
 71
3
 72
27
 73
23
 74
0
 42
0.0000001
 43
0.0000001
 44
0.0000000001
 40
0.0
 40
0.0
 40
0.0
 40
0.0
 40
0.0059009566
 40
0.0158150919
 40
0.0296844386
 40
0.0474070144
 40
0.0688400061
 40
0.0938117251
 40
0.1535338977
 40
0.2246319725
 40
0.3047905025
 40
0.3913975597
 40
0.4816304128
 40
0.5725480557
 40
0.6611872169
 40
0.7446591868
 40
0.8202441784
 40
0.8854805429
 40
0.9382444853
 40
0.9768265206
 40
0.9903938657
 40
1.0
 40
1.0
 40
1.0
 40
1.0
 10
308.2745051566
 20
140.0989139408
 30
0.0
 10
308.3128133115
 20
140.110470446
 30
0.0
 10
308.419393908
 20
140.1265516527
 30
0.0
 10
308.6191598029
 20
140.1487902505
 30
0.0
 10
308.899937869
 20
140.1705628719
 30
0.0
 10
309.2587276461
 20
140.1931367715
 30
0.0
 10
309.6930052402
 20
140.2157066026
 30
0.0
 10
310.4119030323
 20
140.2479793294
 30
0.0
 10
311.4676019731
 20
140.2869221053
 30
0.0
 10
312.8975067418
 20
140.3318234526
 30
0.0
 10
314.50979094
 20
140.3769141008
 30
0.0
 10
316.2518647699
 20
140.4221505009
 30
0.0
 10
318.0669164406
 20
140.4674440254
 30
0.0
 10
319.895751364
 20
140.5127483983
 30
0.0
 10
321.6787280479
 20
140.5580197882
 30
0.0
 10
323.3577071446
 20
140.6031802535
 30
0.0
 10
324.8779312776
 20
140.6482106883
 30
0.0
 10
326.1898650484
 20
140.6927498503
 30
0.0
 10
327.2506736623
 20
140.737065089
 30
0.0
 10
327.9611512287
 20
140.7753675989
 30
0.0
 10
328.3785395915
 20
140.8090116701
 30
0.0
 10
328.5348406862
 20
140.8259964142
 30
0.0
 10
328.5992539912
 20
140.8356824617
 30
0.0
  0
SPLINE
  5
4C2
100
AcDbEntity
  8
JSG_3
100
AcDbSpline
 62
7
  6
CONTINUOUS
 70
0
 71
3
 72
9
 73
5
 74
0
 42
0.0000001
 43
0.0000001
 44
0.0000000001
 40
0.0
 40
0.0
 40
0.0
 40
0.0
 40
0.3098519484
 40
1.0
 40
1.0
 40
1.0
 40
1.0
 10
328.5992539912
 20
140.8356824617
 30
0.0
 10
328.6102233315
 20
140.8373319587
 30
0.0
 10
328.6455463061
 20
140.8430234
 30
0.0
 10
328.6808632958
 20
140.8496571683
 30
0.0
 10
328.704530511
 20
140.8567501247
 30
0.0
  0
SPLINE
  5
4C3
100
AcDbEntity
  8
JSG_3
100
AcDbSpline
 62
7
  6
CONTINUOUS
 70
0
 71
3
 72
9
 73
5
 74
0
 42
0.0000001
 43
0.0000001
 44
0.0000000001
 40
0.0
 40
0.0
 40
0.0
 40
0.0
 40
0.6611257377
 40
1.0
 40
1.0
 40
1.0
 40
1.0
 10
328.704530511
 20
140.8567501247
 30
0.0
 10
328.7132214055
 20
140.8593547462
 30
0.0
 10
328.725486228
 20
140.8632978954
 30
0.0
 10
328.7387437214
 20
140.8720744721
 30
0.0
 10
328.7396466418
 20
140.8766364352
 30
0.0
  0
SPLINE
  5
4C4
100
AcDbEntity
  8
JSG_3
100
AcDbSpline
 62
7
  6
CONTINUOUS
 70
0
 71
3
 72
9
 73
5
 74
0
 42
0.0000001
 43
0.0000001
 44
0.0000000001
 40
0.0
 40
0.0
 40
0.0
 40
0.0
 40
0.2008820874
 40
1.0
 40
1.0
 40
1.0
 40
1.0
 10
308.249487545
 20
152.8890378129
 30
0.0
 10
308.2510530314
 20
152.8899330297
 30
0.0
 10
308.2590778611
 20
152.8939823609
 30
0.0
 10
308.2676368682
 20
152.8968488403
 30
0.0
 10
308.2745051567
 20
152.8989204418
 30
0.0
  0
SPLINE
  5
4C5
100
AcDbEntity
  8
JSG_3
100
AcDbSpline
 62
7
  6
CONTINUOUS
 70
0
 71
3
 72
27
 73
23
 74
0
 42
0.0000001
 43
0.0000001
 44
0.0000000001
 40
0.0
 40
0.0
 40
0.0
 40
0.0
 40
0.0059008914
 40
0.0158150218
 40
0.0296843769
 40
0.047406954
 40
0.0688399464
 40
0.0938116675
 40
0.1535338451
 40
0.2246319255
 40
0.3047904619
 40
0.391397526
 40
0.4816303863
 40
0.5725480365
 40
0.6611872048
 40
0.7446591813
 40
0.8202441791
 40
0.8854805483
 40
0.9382444966
 40
0.9768265294
 40
0.9903939204
 40
1.0
 40
1.0
 40
1.0
 40
1.0
 10
308.2745051567
 20
152.8989204418
 30
0.0
 10
308.3128134557
 20
152.9104749258
 30
0.0
 10
308.4193948676
 20
152.9265476729
 30
0.0
 10
308.6191597218
 20
152.9487895084
 30
0.0
 10
308.899937829
 20
152.9705635924
 30
0.0
 10
309.2587276298
 20
152.9931370571
 30
0.0
 10
309.6930052608
 20
153.0157063362
 30
0.0
 10
310.4119030227
 20
153.0479794204
 30
0.0
 10
311.4676019762
 20
153.0869220813
 30
0.0
 10
312.8975067418
 20
153.1318234594
 30
0.0
 10
314.5097909412
 20
153.1769140989
 30
0.0
 10
316.2518647708
 20
153.2221504994
 30
0.0
 10
318.066916441
 20
153.2674440346
 30
0.0
 10
319.8957513661
 20
153.3127483639
 30
0.0
 10
321.6787280434
 20
153.358019906
 30
0.0
 10
323.3577071615
 20
153.4031798774
 30
0.0
 10
324.8779312275
 20
153.4482117979
 30
0.0
 10
326.1898651888
 20
153.4927468883
 30
0.0
 10
327.250673323
 20
153.5370719647
 30
0.0
 10
327.961152004
 20
153.5753564015
 30
0.0
 10
328.3785393776
 20
153.6090205423
 30
0.0
 10
328.5348388839
 20
153.6260109414
 30
0.0
 10
328.5992539912
 20
153.6356824617
 30
0.0
  0
SPLINE
  5
4C6
100
AcDbEntity
  8
JSG_3
100
AcDbSpline
 62
7
  6
CONTINUOUS
 70
0
 71
3
 72
9
 73
5
 74
0
 42
0.0000001
 43
0.0000001
 44
0.0000000001
 40
0.0
 40
0.0
 40
0.0
 40
0.0
 40
0.3098599541
 40
1.0
 40
1.0
 40
1.0
 40
1.0
 10
328.5992539912
 20
153.6356824617
 30
0.0
 10
328.6102232092
 20
153.6373294203
 30
0.0
 10
328.6455451394
 20
153.6430108081
 30
0.0
 10
328.6808632065
 20
153.649626454
 30
0.0
 10
328.7045305104
 20
153.6567120245
 30
0.0
  0
SPLINE
  5
4C7
100
AcDbEntity
  8
JSG_3
100
AcDbSpline
 62
7
  6
CONTINUOUS
 70
0
 71
3
 72
9
 73
5
 74
0
 42
0.0000001
 43
0.0000001
 44
0.0000000001
 40
0.0
 40
0.0
 40
0.0
 40
0.0
 40
0.6599301076
 40
1.0
 40
1.0
 40
1.0
 40
1.0
 10
328.7045305104
 20
153.6567120245
 30
0.0
 10
328.7131955497
 20
153.6593061834
 30
0.0
 10
328.7254678222
 20
153.6632591553
 30
0.0
 10
328.7386720551
 20
153.6719845212
 30
0.0
 10
328.7396296467
 20
153.6765461058
 30
0.0
  0
SPLINE
  5
4C8
100
AcDbEntity
  8
JSG_3
100
AcDbSpline
 62
7
  6
CONTINUOUS
 70
0
 71
3
 72
35
 73
31
 74
0
 42
0.0000001
 43
0.0000001
 44
0.0000000001
 40
0.0
 40
0.0
 40
0.0
 40
0.0
 40
0.0018554903
 40
0.0047815599
 40
0.0088041648
 40
0.0139317161
 40
0.0274617115
 40
0.0452331105
 40
0.0670840955
 40
0.0928428503
 40
0.1222812606
 40
0.1551292721
 40
0.2298188749
 40
0.3142491073
 40
0.405364549
 40
0.4998910643
 40
0.5944263823
 40
0.685551142
 40
0.7700032969
 40
0.8447190007
 40
0.8775721468
 40
0.9070315939
 40
0.9328214595
 40
0.9546859039
 40
0.9724604307
 40
0.9860124113
 40
0.9911611181
 40
0.9952038723
 40
0.9981407859
 40
1.0
 40
1.0
 40
1.0
 40
1.0
 10
327.4295530331
 20
144.8154868965
 30
0.0
 10
327.4199677031
 20
144.8099397827
 30
0.0
 10
327.3925140136
 20
144.8009655193
 30
0.0
 10
327.3413797538
 20
144.7894056173
 30
0.0
 10
327.2701508325
 20
144.7777572504
 30
0.0
 10
327.1359358113
 20
144.7603082754
 30
0.0
 10
326.9194064984
 20
144.739743045
 30
0.0
 10
326.6030456409
 20
144.7161830644
 30
0.0
 10
326.2135158195
 20
144.6924753903
 30
0.0
 10
325.7542636039
 20
144.6686144077
 30
0.0
 10
325.2292979615
 20
144.6446787864
 30
0.0
 10
324.4124230223
 20
144.611253987
 30
0.0
 10
323.2673606346
 20
144.5704719278
 30
0.0
 10
321.7745528882
 20
144.5231197452
 30
0.0
 10
320.1632955446
 20
144.4756310437
 30
0.0
 10
318.4917025117
 20
144.4280721597
 30
0.0
 10
316.8200534117
 20
144.3805281728
 30
0.0
 10
315.208557382
 20
144.3330252095
 30
0.0
 10
313.7154070016
 20
144.2856805989
 30
0.0
 10
312.5700269483
 20
144.2449028024
 30
0.0
 10
311.7528402397
 20
144.2114661704
 30
0.0
 10
311.2275322901
 20
144.1875330808
 30
0.0
 10
310.7678872199
 20
144.1636860383
 30
0.0
 10
310.3780723441
 20
144.139975394
 30
0.0
 10
310.0614818127
 20
144.1163962996
 30
0.0
 10
309.8446768587
 20
144.0958193542
 30
0.0
 10
309.7100793567
 20
144.0783891055
 30
0.0
 10
309.6385317845
 20
144.0667563259
 30
0.0
 10
309.5871867521
 20
144.0551952129
 30
0.0
 10
309.5596398581
 20
144.0462193881
 30
0.0
 10
309.5500325933
 20
144.0406658059
 30
0.0
  0
SPLINE
  5
4C9
100
AcDbEntity
  8
JSG_3
100
AcDbSpline
 62
7
  6
CONTINUOUS
 70
0
 71
3
 72
29
 73
25
 74
0
 42
0.0000001
 43
0.0000001
 44
0.0000000001
 40
0.0
 40
0.0
 40
0.0
 40
0.0
 40
0.0017862565
 40
0.0045696835
 40
0.0131835321
 40
0.0258362067
 40
0.0424282789
 40
0.0628343349
 40
0.0869067826
 40
0.1144448019
 40
0.1451949602
 40
0.2153315715
 40
0.2950403363
 40
0.3816424054
 40
0.4722988552
 40
0.5639875006
 40
0.6536730728
 40
0.7384005888
 40
0.8153262927
 40
0.8819613765
 40
0.9360253053
 40
0.9758250893
 40
0.9899222449
 40
1.0
 40
1.0
 40
1.0
 40
1.0
 10
327.4296813913
 20
108.0153655077
 30
0.0
 10
327.4204993049
 20
108.010099813
 30
0.0
 10
327.3945094484
 20
108.0014751707
 30
0.0
 10
327.3184860899
 20
107.9841084329
 30
0.0
 10
327.1769142112
 20
107.9650122856
 30
0.0
 10
326.9538213479
 20
107.9426109086
 30
0.0
 10
326.6603836239
 20
107.9201875153
 30
0.0
 10
326.2992344242
 20
107.8973759197
 30
0.0
 10
325.8730864918
 20
107.8745161449
 30
0.0
 10
325.38558259
 20
107.8515675725
 30
0.0
 10
324.6252507243
 20
107.8194599387
 30
0.0
 10
323.5558073022
 20
107.7802916371
 30
0.0
 10
322.1554267459
 20
107.7348579719
 30
0.0
 10
320.6333986932
 20
107.6892606954
 30
0.0
 10
319.0403534668
 20
107.643613086
 30
0.0
 10
317.4290296236
 20
107.597937663
 30
0.0
 10
315.8528529053
 20
107.5522881148
 30
0.0
 10
314.364188561
 20
107.5067681602
 30
0.0
 10
313.0121872716
 20
107.4613279234
 30
0.0
 10
311.8419609122
 20
107.4164422451
 30
0.0
 10
310.8919695179
 20
107.3716933659
 30
0.0
 10
310.2532796959
 20
107.3330383857
 30
0.0
 10
309.8757059685
 20
107.2992027791
 30
0.0
 10
309.7333924852
 20
107.282064928
 30
0.0
 10
309.674466166
 20
107.2723750454
 30
0.0
  0
SPLINE
  5
4CA
100
AcDbEntity
  8
JSG_3
100
AcDbSpline
 62
7
  6
CONTINUOUS
 70
0
 71
3
 72
9
 73
5
 74
0
 42
0.0000001
 43
0.0000001
 44
0.0000000001
 40
0.0
 40
0.0
 40
0.0
 40
0.0
 40
0.6300444063
 40
1.0
 40
1.0
 40
1.0
 40
1.0
 10
309.674466166
 20
107.2723750454
 30
0.0
 10
309.647728873
 20
107.2679783474
 30
0.0
 10
309.6057855576
 20
107.2598275268
 30
0.0
 10
309.5635434071
 20
107.2484361774
 30
0.0
 10
309.5497690774
 20
107.2404725911
 30
0.0
  0
SPLINE
  5
4CB
100
AcDbEntity
  8
JSG_3
100
AcDbSpline
 62
7
  6
CONTINUOUS
 70
0
 71
3
 72
23
 73
19
 74
0
 42
0.0000001
 43
0.0000001
 44
0.0000000001
 40
0.0
 40
0.0
 40
0.0
 40
0.0
 40
0.0034184371
 40
0.0095528914
 40
0.0184281188
 40
0.0300147775
 40
0.0442713099
 40
0.0611372649
 40
0.1023975791
 40
0.1530841905
 40
0.2123168534
 40
0.279064
 40
0.3521607397
 40
0.430331056
 40
0.5122110464
 40
0.6813426303
 40
0.8477925558
 40
1.0
 40
1.0
 40
1.0
 40
1.0
 10
328.7300562944
 20
108.7667543282
 30
0.0
 10
328.7142812029
 20
108.7577321374
 30
0.0
 10
328.6637162894
 20
108.7462981272
 30
0.0
 10
328.5677746572
 20
108.7299675195
 30
0.0
 10
328.4268859266
 20
108.7142757937
 30
0.0
 10
328.2431948431
 20
108.6977077953
 30
0.0
 10
328.0166867713
 20
108.6812264511
 30
0.0
 10
327.632645546
 20
108.6574237064
 30
0.0
 10
327.0548597554
 20
108.6287622528
 30
0.0
 10
326.251846263
 20
108.5958277219
 30
0.0
 10
325.3132398505
 20
108.5627486027
 30
0.0
 10
324.2554425756
 20
108.5295297725
 30
0.0
 10
323.09692632
 20
108.496241916
 30
0.0
 10
321.857933039
 20
108.4629023699
 30
0.0
 10
320.1085348871
 20
108.4179346027
 30
0.0
 10
317.8899299231
 20
108.363111698
 30
0.0
 10
315.2975866731
 20
108.2983243654
 30
0.0
 10
313.6041959729
 20
108.2517981942
 30
0.0
 10
312.7953934019
 20
108.2279028457
 30
0.0
  0
SPLINE
  5
4CC
100
AcDbEntity
  8
JSG_3
100
AcDbSpline
 62
7
  6
CONTINUOUS
 70
0
 71
3
 72
9
 73
5
 74
0
 42
0.0000001
 43
0.0000001
 44
0.0000000001
 40
0.0
 40
0.0
 40
0.0
 40
0.0
 40
0.2007587292
 40
1.0
 40
1.0
 40
1.0
 40
1.0
 10
308.2494485954
 20
138.4890237425
 30
0.0
 10
308.2510148281
 20
138.4899214628
 30
0.0
 10
308.2590504224
 20
138.493982953
 30
0.0
 10
308.2676242464
 20
138.4968538336
 30
0.0
 10
308.2745051569
 20
138.4989287673
 30
0.0
  0
SPLINE
  5
4CD
100
AcDbEntity
  8
JSG_3
100
AcDbSpline
 62
7
  6
CONTINUOUS
 70
0
 71
3
 72
27
 73
23
 74
0
 42
0.0000001
 43
0.0000001
 44
0.0000000001
 40
0.0
 40
0.0
 40
0.0
 40
0.0
 40
0.0059008077
 40
0.0158149316
 40
0.0296842973
 40
0.0474068759
 40
0.0688398686
 40
0.0938115919
 40
0.1535337746
 40
0.2246318609
 40
0.3047904039
 40
0.3913974751
 40
0.4816303429
 40
0.5725480005
 40
0.6611871762
 40
0.7446591596
 40
0.8202441636
 40
0.8854805382
 40
0.9382444908
 40
0.976826527
 40
0.9903939171
 40
1.0
 40
1.0
 40
1.0
 40
1.0
 10
308.2745051569
 20
138.4989287673
 30
0.0
 10
308.3128136403
 20
138.5104806628
 30
0.0
 10
308.4193960961
 20
138.526542576
 30
0.0
 10
308.6191596182
 20
138.5487885582
 30
0.0
 10
308.8999377779
 20
138.570564515
 30
0.0
 10
309.2587276092
 20
138.5931374227
 30
0.0
 10
309.6930052873
 20
138.615705995
 30
0.0
 10
310.4119030107
 20
138.6479795369
 30
0.0
 10
311.4676019804
 20
138.6869220504
 30
0.0
 10
312.897506742
 20
138.7318234684
 30
0.0
 10
314.5097909429
 20
138.7769140958
 30
0.0
 10
316.251864772
 20
138.8221505007
 30
0.0
 10
318.0669164422
 20
138.8674440338
 30
0.0
 10
319.8957513671
 20
138.9127483656
 30
0.0
 10
321.6787280445
 20
138.9580199006
 30
0.0
 10
323.3577071614
 20
139.0031798947
 30
0.0
 10
324.8779312303
 20
139.048211747
 30
0.0
 10
326.1898651826
 20
139.0927470243
 30
0.0
 10
327.2506733388
 20
139.1370716492
 30
0.0
 10
327.9611519684
 20
139.1753569155
 30
0.0
 10
328.3785393875
 20
139.209020135
 30
0.0
 10
328.5348389665
 20
139.2260102746
 30
0.0
 10
328.5992539912
 20
139.2356824617
 30
0.0
  0
SPLINE
  5
4CE
100
AcDbEntity
  8
JSG_3
100
AcDbSpline
 62
7
  6
CONTINUOUS
 70
0
 71
3
 72
9
 73
5
 74
0
 42
0.0000001
 43
0.0000001
 44
0.0000000001
 40
0.0
 40
0.0
 40
0.0
 40
0.0
 40
0.3098595869
 40
1.0
 40
1.0
 40
1.0
 40
1.0
 10
328.5992539912
 20
139.2356824617
 30
0.0
 10
328.6102232148
 20
139.2373295368
 30
0.0
 10
328.6455451929
 20
139.243011386
 30
0.0
 10
328.6808632106
 20
139.2496278638
 30
0.0
 10
328.7045305104
 20
139.2567137734
 30
0.0
  0
SPLINE
  5
4CF
100
AcDbEntity
  8
JSG_3
100
AcDbSpline
 62
7
  6
CONTINUOUS
 70
0
 71
3
 72
9
 73
5
 74
0
 42
0.0000001
 43
0.0000001
 44
0.0000000001
 40
0.0
 40
0.0
 40
0.0
 40
0.0
 40
0.6601778808
 40
1.0
 40
1.0
 40
1.0
 40
1.0
 10
328.7045305104
 20
139.2567137734
 30
0.0
 10
328.7132028512
 20
139.2593102429
 30
0.0
 10
328.7254768658
 20
139.2632589093
 30
0.0
 10
328.7386925207
 20
139.2720057922
 30
0.0
 10
328.73963443
 20
139.276569413
 30
0.0
  0
SPLINE
  5
4D0
100
AcDbEntity
  8
JSG_3
100
AcDbSpline
 62
7
  6
CONTINUOUS
 70
0
 71
3
 72
9
 73
5
 74
0
 42
0.0000001
 43
0.0000001
 44
0.0000000001
 40
0.0
 40
0.0
 40
0.0
 40
0.0
 40
0.1992882598
 40
1.0
 40
1.0
 40
1.0
 40
1.0
 10
328.7304838114
 20
134.3671150067
 30
0.0
 10
328.7289096173
 20
134.3661981603
 30
0.0
 10
328.7207596553
 20
134.3620306517
 30
0.0
 10
328.7120432435
 20
134.3591064768
 30
0.0
 10
328.705037457
 20
134.3569867549
 30
0.0
  0
SPLINE
  5
4D1
100
AcDbEntity
  8
JSG_3
100
AcDbSpline
 62
7
  6
CONTINUOUS
 70
0
 71
3
 72
27
 73
23
 74
0
 42
0.0000001
 43
0.0000001
 44
0.0000000001
 40
0.0
 40
0.0
 40
0.0
 40
0.0
 40
0.0059020449
 40
0.0158162631
 40
0.0296854727
 40
0.0474080291
 40
0.0688410154
 40
0.093812704
 40
0.1535348076
 40
0.2246328028
 40
0.3047912426
 40
0.3913982025
 40
0.4816309542
 40
0.5725484949
 40
0.6611875566
 40
0.7446594327
 40
0.8202443391
 40
0.8854806314
 40
0.9382445099
 40
0.9768265171
 40
0.9903937243
 40
1.0
 40
1.0
 40
1.0
 40
1.0
 10
328.705037457
 20
134.3569867549
 30
0.0
 10
328.6667316879
 20
134.345396682
 30
0.0
 10
328.5601646891
 20
134.3291749918
 30
0.0
 10
328.3603814416
 20
134.3069901398
 30
0.0
 10
328.0796040781
 20
134.2852418221
 30
0.0
 10
327.7208146838
 20
134.2626606934
 30
0.0
 10
327.2865377037
 20
134.2400816979
 30
0.0
 10
326.5676394073
 20
134.2078149059
 30
0.0
 10
325.5119406768
 20
134.1688702192
 30
0.0
 10
324.0820358551
 20
134.1239693871
 30
0.0
 10
322.4697516759
 20
134.0788785845
 30
0.0
 10
320.7276778401
 20
134.0336422326
 30
0.0
 10
318.9126261703
 20
133.98834872
 30
0.0
 10
317.0837912516
 20
133.9430442338
 30
0.0
 10
315.3008145506
 20
133.8977732591
 30
0.0
 10
313.6218355129
 20
133.8526114408
 30
0.0
 10
312.1016111982
 20
133.8075850771
 30
0.0
 10
310.789677947
 20
133.7630347582
 30
0.0
 10
309.7288680273
 20
133.7187464769
 30
0.0
 10
309.0183934977
 20
133.6803944417
 30
0.0
 10
308.6010024457
 20
133.6468053681
 30
0.0
 10
308.4446969742
 20
133.6298361069
 30
0.0
 10
308.3802886228
 20
133.6201102632
 30
0.0
  0
SPLINE
  5
4D2
100
AcDbEntity
  8
JSG_3
100
AcDbSpline
 62
7
  6
CONTINUOUS
 70
0
 71
3
 72
9
 73
5
 74
0
 42
0.0000001
 43
0.0000001
 44
0.0000000001
 40
0.0
 40
0.0
 40
0.0
 40
0.0
 40
0.3098299457
 40
1.0
 40
1.0
 40
1.0
 40
1.0
 10
308.3802886228
 20
133.6201102632
 30
0.0
 10
308.3693189464
 20
133.618453811
 30
0.0
 10
308.333993102
 20
133.6127348182
 30
0.0
 10
308.2986790833
 20
133.6060514056
 30
0.0
 10
308.2750121044
 20
133.5989382111
 30
0.0
  0
SPLINE
  5
4D3
100
AcDbEntity
  8
JSG_3
100
AcDbSpline
 62
7
  6
CONTINUOUS
 70
0
 71
3
 72
9
 73
5
 74
0
 42
0.0000001
 43
0.0000001
 44
0.0000000001
 40
0.0
 40
0.0
 40
0.0
 40
0.0
 40
0.6624364125
 40
1.0
 40
1.0
 40
1.0
 40
1.0
 10
308.2750121044
 20
133.5989382111
 30
0.0
 10
308.2663128353
 20
133.5963236149
 30
0.0
 10
308.2540902567
 20
133.5923668197
 30
0.0
 10
308.240777561
 20
133.583648049
 30
0.0
 10
308.239889528
 20
133.5791051754
 30
0.0
  0
SPLINE
  5
4D4
100
AcDbEntity
  8
JSG_3
100
AcDbSpline
 62
7
  6
CONTINUOUS
 70
0
 71
3
 72
9
 73
5
 74
0
 42
0.0000001
 43
0.0000001
 44
0.0000000001
 40
0.0
 40
0.0
 40
0.0
 40
0.0
 40
0.2003163785
 40
1.0
 40
1.0
 40
1.0
 40
1.0
 10
308.2493212934
 20
132.0889417286
 30
0.0
 10
308.2508900759
 20
132.0898466186
 30
0.0
 10
308.2589620026
 20
132.0939451429
 30
0.0
 10
308.267583268
 20
132.0968320273
 30
0.0
 10
308.2745051567
 20
132.0989198307
 30
0.0
  0
SPLINE
  5
4D5
100
AcDbEntity
  8
JSG_3
100
AcDbSpline
 62
7
  6
CONTINUOUS
 70
0
 71
3
 72
27
 73
23
 74
0
 42
0.0000001
 43
0.0000001
 44
0.0000000001
 40
0.0
 40
0.0
 40
0.0
 40
0.0
 40
0.0059008974
 40
0.0158150282
 40
0.0296843824
 40
0.0474069593
 40
0.0688399514
 40
0.093811672
 40
0.1535338486
 40
0.2246319278
 40
0.3047904628
 40
0.3913975255
 40
0.4816303842
 40
0.5725480329
 40
0.6611871997
 40
0.7446591748
 40
0.8202441712
 40
0.8854805396
 40
0.9382444859
 40
0.976826522
 40
0.9903938803
 40
1.0
 40
1.0
 40
1.0
 40
1.0
 10
308.2745051567
 20
132.0989198307
 30
0.0
 10
308.3128134421
 20
132.1104745047
 30
0.0
 10
308.4193947774
 20
132.126548047
 30
0.0
 10
308.6191597294
 20
132.1487895782
 30
0.0
 10
308.8999378328
 20
132.1705635247
 30
0.0
 10
309.2587276314
 20
132.1931370302
 30
0.0
 10
309.6930052588
 20
132.2157063612
 30
0.0
 10
310.4119030236
 20
132.2479794118
 30
0.0
 10
311.4676019759
 20
132.2869220835
 30
0.0
 10
312.8975067418
 20
132.3318234589
 30
0.0
 10
314.5097909411
 20
132.3769140987
 30
0.0
 10
316.2518647707
 20
132.4221505011
 30
0.0
 10
318.0669164412
 20
132.4674440277
 30
0.0
 10
319.895751365
 20
132.5127483889
 30
0.0
 10
321.678728047
 20
132.5580198204
 30
0.0
 10
323.3577071495
 20
132.6031801506
 30
0.0
 10
324.8779312641
 20
132.6482109919
 30
0.0
 10
326.1898650869
 20
132.6927490399
 30
0.0
 10
327.2506735696
 20
132.7370669701
 30
0.0
 10
327.9611514406
 20
132.7753645355
 30
0.0
 10
328.3785395332
 20
132.8090140975
 30
0.0
 10
328.5348401929
 20
132.8260003885
 30
0.0
 10
328.5992539912
 20
132.8356824617
 30
0.0
  0
SPLINE
  5
4D6
100
AcDbEntity
  8
JSG_3
100
AcDbSpline
 62
7
  6
CONTINUOUS
 70
0
 71
3
 72
9
 73
5
 74
0
 42
0.0000001
 43
0.0000001
 44
0.0000000001
 40
0.0
 40
0.0
 40
0.0
 40
0.0
 40
0.3098541399
 40
1.0
 40
1.0
 40
1.0
 40
1.0
 10
328.5992539912
 20
132.8356824617
 30
0.0
 10
328.610223298
 20
132.8373312642
 30
0.0
 10
328.6455459867
 20
132.843019955
 30
0.0
 10
328.6808632716
 20
132.8496487655
 30
0.0
 10
328.7045305109
 20
132.8567397013
 30
0.0
  0
SPLINE
  5
4D7
100
AcDbEntity
  8
JSG_3
100
AcDbSpline
 62
7
  6
CONTINUOUS
 70
0
 71
3
 72
9
 73
5
 74
0
 42
0.0000001
 43
0.0000001
 44
0.0000000001
 40
0.0
 40
0.0
 40
0.0
 40
0.0
 40
0.6609260709
 40
1.0
 40
1.0
 40
1.0
 40
1.0
 10
328.7045305109
 20
132.8567397013
 30
0.0
 10
328.7132183831
 20
132.8593426726
 30
0.0
 10
328.7254866582
 20
132.8632859331
 30
0.0
 10
328.7387354788
 20
132.8720612569
 30
0.0
 10
328.7396446311
 20
132.8766244472
 30
0.0
  0
SPLINE
  5
4D8
100
AcDbEntity
  8
JSG_3
100
AcDbSpline
 62
7
  6
CONTINUOUS
 70
0
 71
3
 72
9
 73
5
 74
0
 42
0.0000001
 43
0.0000001
 44
0.0000000001
 40
0.0
 40
0.0
 40
0.0
 40
0.0
 40
0.2007740144
 40
1.0
 40
1.0
 40
1.0
 40
1.0
 10
308.2494651738
 20
151.2889933224
 30
0.0
 10
308.2510312859
 20
151.2898889037
 30
0.0
 10
308.2590635586
 20
151.2939421992
 30
0.0
 10
308.2676299867
 20
151.2968128718
 30
0.0
 10
308.2745051562
 20
151.2988883764
 30
0.0
  0
SPLINE
  5
4D9
100
AcDbEntity
  8
JSG_3
100
AcDbSpline
 62
7
  6
CONTINUOUS
 70
0
 71
3
 72
27
 73
23
 74
0
 42
0.0000001
 43
0.0000001
 44
0.0000000001
 40
0.0
 40
0.0
 40
0.0
 40
0.0
 40
0.0059012139
 40
0.0158153689
 40
0.0296846834
 40
0.0474072548
 40
0.0688402457
 40
0.0938119578
 40
0.1535341151
 40
0.2246321722
 40
0.3047906822
 40
0.3913977178
 40
0.4816305484
 40
0.5725481687
 40
0.6611873078
 40
0.7446592569
 40
0.8202442297
 40
0.8854805777
 40
0.9382445078
 40
0.976826531
 40
0.9903938923
 40
1.0
 40
1.0
 40
1.0
 40
1.0
 10
308.2745051562
 20
151.2988883764
 30
0.0
 10
308.3128127452
 20
151.3104528295
 30
0.0
 10
308.4193901315
 20
151.3265673018
 30
0.0
 10
308.6191601233
 20
151.3487931692
 30
0.0
 10
308.8999380265
 20
151.3705600385
 30
0.0
 10
309.258727711
 20
151.3931356489
 30
0.0
 10
309.6930051599
 20
151.4157076501
 30
0.0
 10
310.4119030709
 20
151.4479789716
 30
0.0
 10
311.4676019618
 20
151.4869222001
 30
0.0
 10
312.8975067428
 20
151.5318234252
 30
0.0
 10
314.5097909365
 20
151.5769141107
 30
0.0
 10
316.2518647681
 20
151.6221504961
 30
0.0
 10
318.0669164383
 20
151.6674440308
 30
0.0
 10
319.8957513629
 20
151.7127483827
 30
0.0
 10
321.6787280442
 20
151.7580198397
 30
0.0
 10
323.3577071507
 20
151.8031800894
 30
0.0
 10
324.8779312548
 20
151.8482111723
 30
0.0
 10
326.1898651089
 20
151.8927485583
 30
0.0
 10
327.2506735141
 20
151.937068088
 30
0.0
 10
327.9611515664
 20
151.975362715
 30
0.0
 10
328.3785394984
 20
152.0090155399
 30
0.0
 10
328.5348398997
 20
152.0260027503
 30
0.0
 10
328.5992539912
 20
152.0356824617
 30
0.0
  0
SPLINE
  5
4DA
100
AcDbEntity
  8
JSG_3
100
AcDbSpline
 62
7
  6
CONTINUOUS
 70
0
 71
3
 72
9
 73
5
 74
0
 42
0.0000001
 43
0.0000001
 44
0.0000000001
 40
0.0
 40
0.0
 40
0.0
 40
0.0
 40
0.3098554418
 40
1.0
 40
1.0
 40
1.0
 40
1.0
 10
328.5992539912
 20
152.0356824617
 30
0.0
 10
328.6102232781
 20
152.0373308515
 30
0.0
 10
328.645545797
 20
152.0430179078
 30
0.0
 10
328.6808632571
 20
152.049643772
 30
0.0
 10
328.7045305108
 20
152.056733507
 30
0.0
  0
SPLINE
  5
4DB
100
AcDbEntity
  8
JSG_3
100
AcDbSpline
 62
7
  6
CONTINUOUS
 70
0
 71
3
 72
9
 73
5
 74
0
 42
0.0000001
 43
0.0000001
 44
0.0000000001
 40
0.0
 40
0.0
 40
0.0
 40
0.0
 40
0.66004518
 40
1.0
 40
1.0
 40
1.0
 40
1.0
 10
328.7045305108
 20
152.056733507
 30
0.0
 10
328.7131925448
 20
152.0593282958
 30
0.0
 10
328.7254549704
 20
152.0632870187
 30
0.0
 10
328.7386630618
 20
152.0719859771
 30
0.0
 10
328.7396279556
 20
152.0765421596
 30
0.0
  0
SPLINE
  5
4DC
100
AcDbEntity
  8
JSG_3
100
AcDbSpline
 62
7
  6
CONTINUOUS
 70
0
 71
3
 72
9
 73
5
 74
0
 42
0.0000001
 43
0.0000001
 44
0.0000000001
 40
0.0
 40
0.0
 40
0.0
 40
0.0
 40
0.1997748732
 40
1.0
 40
1.0
 40
1.0
 40
1.0
 10
328.7303697493
 20
143.9669661158
 30
0.0
 10
328.728798043
 20
143.9660533911
 30
0.0
 10
328.7206832167
 20
143.9619129063
 30
0.0
 10
328.7120070889
 20
143.9590065118
 30
0.0
 10
328.7050374577
 20
143.9569025922
 30
0.0
  0
SPLINE
  5
4DD
100
AcDbEntity
  8
JSG_3
100
AcDbSpline
 62
7
  6
CONTINUOUS
 70
0
 71
3
 72
27
 73
23
 74
0
 42
0.0000001
 43
0.0000001
 44
0.0000000001
 40
0.0
 40
0.0
 40
0.0
 40
0.0
 40
0.0059011961
 40
0.0158153496
 40
0.0296846659
 40
0.0474072373
 40
0.0688402278
 40
0.0938119399
 40
0.153534097
 40
0.2246321539
 40
0.3047906635
 40
0.3913976989
 40
0.4816305292
 40
0.5725481491
 40
0.661187288
 40
0.7446592367
 40
0.8202442092
 40
0.8854805576
 40
0.9382444851
 40
0.976826516
 40
0.9903938142
 40
1.0
 40
1.0
 40
1.0
 40
1.0
 10
328.7050374577
 20
143.9569025922
 30
0.0
 10
328.6667298299
 20
143.9453386851
 30
0.0
 10
328.5601522229
 20
143.9292264982
 30
0.0
 10
328.3603825128
 20
143.9069997563
 30
0.0
 10
328.0796045984
 20
143.8852324917
 30
0.0
 10
327.7208149076
 20
143.8626569989
 30
0.0
 10
327.2865374486
 20
143.8400851468
 30
0.0
 10
326.5676395458
 20
143.8078137288
 30
0.0
 10
325.5119406515
 20
143.7688705314
 30
0.0
 10
324.0820358713
 20
143.7239692977
 30
0.0
 10
322.4697516773
 20
143.6788786157
 30
0.0
 10
320.727677846
 20
143.6336422251
 30
0.0
 10
318.9126261751
 20
143.5883487076
 30
0.0
 10
317.0837912531
 20
143.5430442936
 30
0.0
 10
315.3008145626
 20
143.4977730511
 30
0.0
 10
313.6218354864
 20
143.4526121063
 30
0.0
 10
312.1016112885
 20
143.4075831139
 30
0.0
 10
310.7896777018
 20
143.3630399991
 30
0.0
 10
309.7288686237
 20
143.3187343111
 30
0.0
 10
309.0183921359
 20
143.280414255
 30
0.0
 10
308.6010028166
 20
143.2467896685
 30
0.0
 10
308.4447001752
 20
143.2298104121
 30
0.0
 10
308.3802886228
 20
143.2201102632
 30
0.0
  0
SPLINE
  5
4DE
100
AcDbEntity
  8
JSG_3
100
AcDbSpline
 62
7
  6
CONTINUOUS
 70
0
 71
3
 72
9
 73
5
 74
0
 42
0.0000001
 43
0.0000001
 44
0.0000000001
 40
0.0
 40
0.0
 40
0.0
 40
0.0
 40
0.3098441639
 40
1.0
 40
1.0
 40
1.0
 40
1.0
 10
308.3802886228
 20
143.2201102632
 30
0.0
 10
308.3693191636
 20
143.218458302
 30
0.0
 10
308.3339951735
 20
143.2127570998
 30
0.0
 10
308.2986792333
 20
143.2061057404
 30
0.0
 10
308.275012103
 20
143.1990056136
 30
0.0
  0
SPLINE
  5
4DF
100
AcDbEntity
  8
JSG_3
100
AcDbSpline
 62
7
  6
CONTINUOUS
 70
0
 71
3
 72
9
 73
5
 74
0
 42
0.0000001
 43
0.0000001
 44
0.0000000001
 40
0.0
 40
0.0
 40
0.0
 40
0.0
 40
0.6616742811
 40
1.0
 40
1.0
 40
1.0
 40
1.0
 10
308.275012103
 20
143.1990056136
 30
0.0
 10
308.2663155735
 20
143.1963966593
 30
0.0
 10
308.2540648033
 20
143.1924505182
 30
0.0
 10
308.2407838704
 20
143.1836857944
 30
0.0
 10
308.2398920409
 20
143.179129782
 30
0.0
  0
SPLINE
  5
4E0
100
AcDbEntity
  8
JSG_3
100
AcDbSpline
 62
7
  6
CONTINUOUS
 70
0
 71
3
 72
35
 73
31
 74
0
 42
0.0000001
 43
0.0000001
 44
0.0000000001
 40
0.0
 40
0.0
 40
0.0
 40
0.0
 40
0.0018615115
 40
0.004798285
 40
0.0088291955
 40
0.0139536914
 40
0.0274558778
 40
0.045215698
 40
0.0670820393
 40
0.0928579715
 40
0.1222949173
 40
0.1551343564
 40
0.2298705403
 40
0.3143140987
 40
0.4054747323
 40
0.5000282091
 40
0.5945839498
 40
0.6857351803
 40
0.7701802244
 40
0.8449052893
 40
0.877751437
 40
0.9071717277
 40
0.9329376801
 40
0.9548134584
 40
0.9725627834
 40
0.9860505702
 40
0.9911735833
 40
0.9952053102
 40
0.9981426928
 40
1.0
 40
1.0
 40
1.0
 40
1.0
 10
327.4300216943
 20
143.2155531448
 30
0.0
 10
327.4204017867
 20
143.2099926304
 30
0.0
 10
327.3928340349
 20
143.2010292001
 30
0.0
 10
327.3415467623
 20
143.189468582
 30
0.0
 10
327.2702150652
 20
143.1778259172
 30
0.0
 10
327.1361293173
 20
143.1603671007
 30
0.0
 10
326.9198438205
 20
143.1397639242
 30
0.0
 10
326.603606809
 20
143.1161989665
 30
0.0
 10
326.2139266522
 20
143.0924952872
 30
0.0
 10
325.7544593996
 20
143.0686389718
 30
0.0
 10
325.2294183912
 20
143.0446917987
 30
0.0
 10
324.412275107
 20
143.0112236762
 30
0.0
 10
323.2668323249
 20
142.9704744791
 30
0.0
 10
321.7733042115
 20
142.9230680973
 30
0.0
 10
320.1614342777
 20
142.8755817707
 30
0.0
 10
318.4891831424
 20
142.8280045397
 30
0.0
 10
316.8169880706
 20
142.780429903
 30
0.0
 10
315.2051521505
 20
142.7329358404
 30
0.0
 10
313.7117372357
 20
142.6855431083
 30
0.0
 10
312.5663127942
 20
142.644771143
 30
0.0
 10
311.7492943691
 20
142.6113273142
 30
0.0
 10
311.2243728414
 20
142.5873689582
 30
0.0
 10
310.7650093448
 20
142.5634970773
 30
0.0
 10
310.3753933542
 20
142.5398219275
 30
0.0
 10
310.0592491397
 20
142.5162549399
 30
0.0
 10
309.8431226629
 20
142.4956327574
 30
0.0
 10
309.7091289171
 20
142.4781767386
 30
0.0
 10
309.6377939447
 20
142.4665380168
 30
0.0
 10
309.5865295086
 20
142.4549825626
 30
0.0
 10
309.5589693421
 20
142.446033545
 30
0.0
 10
309.5493890894
 20
142.4404546877
 30
0.0
  0
SPLINE
  5
4E1
100
AcDbEntity
  8
JSG_3
100
AcDbSpline
 62
7
  6
CONTINUOUS
 70
0
 71
3
 72
9
 73
5
 74
0
 42
0.0000001
 43
0.0000001
 44
0.0000000001
 40
0.0
 40
0.0
 40
0.0
 40
0.0
 40
0.1995878025
 40
1.0
 40
1.0
 40
1.0
 40
1.0
 10
308.2491254465
 20
133.6887780632
 30
0.0
 10
308.2506981195
 20
133.6896929307
 30
0.0
 10
308.2588270553
 20
133.6938458552
 30
0.0
 10
308.2675203615
 20
133.6967590197
 30
0.0
 10
308.2745051562
 20
133.6988687546
 30
0.0
  0
SPLINE
  5
4E2
100
AcDbEntity
  8
JSG_3
100
AcDbSpline
 62
7
  6
CONTINUOUS
 70
0
 71
3
 72
27
 73
23
 74
0
 42
0.0000001
 43
0.0000001
 44
0.0000000001
 40
0.0
 40
0.0
 40
0.0
 40
0.0
 40
0.0059014114
 40
0.0158155812
 40
0.0296848704
 40
0.047407438
 40
0.0688404273
 40
0.0938121333
 40
0.1535342767
 40
0.2246323177
 40
0.3047908094
 40
0.3913978254
 40
0.4816306355
 40
0.572548235
 40
0.661187354
 40
0.7446592841
 40
0.8202442396
 40
0.8854805737
 40
0.9382444883
 40
0.9768265142
 40
0.9903937803
 40
1.0
 40
1.0
 40
1.0
 40
1.0
 10
308.2745051562
 20
133.6988687546
 30
0.0
 10
308.3128123112
 20
133.7104393082
 30
0.0
 10
308.4193872295
 20
133.7265793118
 30
0.0
 10
308.6191603709
 20
133.7487954102
 30
0.0
 10
308.8999381475
 20
133.7705578636
 30
0.0
 10
309.2587277617
 20
133.7931347874
 30
0.0
 10
309.6930050992
 20
133.8157084542
 30
0.0
 10
310.4119031017
 20
133.8479786971
 30
0.0
 10
311.4676019543
 20
133.8869222728
 30
0.0
 10
312.8975067449
 20
133.9318234045
 30
0.0
 10
314.5097909351
 20
133.976914117
 30
0.0
 10
316.2518647677
 20
134.0221504984
 30
0.0
 10
318.0669164385
 20
134.0674440122
 30
0.0
 10
319.8957513595
 20
134.1127484534
 30
0.0
 10
321.6787280542
 20
134.1580195973
 30
0.0
 10
323.3577071166
 20
134.2031808632
 30
0.0
 10
324.8779313579
 20
134.2482088894
 30
0.0
 10
326.1898648213
 20
134.2927546521
 30
0.0
 10
327.2506742097
 20
134.3370539422
 30
0.0
 10
327.9611499766
 20
134.3753857523
 30
0.0
 10
328.3785399343
 20
134.4089972861
 30
0.0
 10
328.5348436143
 20
134.4259728678
 30
0.0
 10
328.5992539912
 20
134.4356824617
 30
0.0
  0
SPLINE
  5
4E3
100
AcDbEntity
  8
JSG_3
100
AcDbSpline
 62
7
  6
CONTINUOUS
 70
0
 71
3
 72
9
 73
5
 74
0
 42
0.0000001
 43
0.0000001
 44
0.0000000001
 40
0.0
 40
0.0
 40
0.0
 40
0.0
 40
0.3098389426
 40
1.0
 40
1.0
 40
1.0
 40
1.0
 10
328.5992539912
 20
134.4356824617
 30
0.0
 10
328.6102235301
 20
134.4373360737
 30
0.0
 10
328.6455482012
 20
134.4430438147
 30
0.0
 10
328.6808634366
 20
134.4497069564
 30
0.0
 10
328.7045305107
 20
134.4568118863
 30
0.0
  0
SPLINE
  5
4E4
100
AcDbEntity
  8
JSG_3
100
AcDbSpline
 62
7
  6
CONTINUOUS
 70
0
 71
3
 72
9
 73
5
 74
0
 42
0.0000001
 43
0.0000001
 44
0.0000000001
 40
0.0
 40
0.0
 40
0.0
 40
0.0
 40
0.6619851041
 40
1.0
 40
1.0
 40
1.0
 40
1.0
 10
328.7045305107
 20
134.4568118863
 30
0.0
 10
328.7132290103
 20
134.4594232032
 30
0.0
 10
328.7254697215
 20
134.4633725846
 30
0.0
 10
328.7387637641
 20
134.4721235327
 30
0.0
 10
328.7396520835
 20
134.4766750014
 30
0.0
  0
SPLINE
  5
4E5
100
AcDbEntity
  8
JSG_3
100
AcDbSpline
 62
7
  6
CONTINUOUS
 70
0
 71
3
 72
33
 73
29
 74
0
 42
0.0000001
 43
0.0000001
 44
0.0000000001
 40
0.0
 40
0.0
 40
0.0
 40
0.0
 40
0.0018643655
 40
0.0048123142
 40
0.0088604925
 40
0.0140055374
 40
0.0275478775
 40
0.0453282925
 40
0.0672028944
 40
0.0929833113
 40
0.1224465425
 40
0.1553073155
 40
0.2712215166
 40
0.4056018848
 40
0.5476193277
 40
0.6178980726
 40
0.6857842686
 40
0.7499071279
 40
0.8089474738
 40
0.8617255172
 40
0.9071852013
 40
0.9443498765
 40
0.9596128843
 40
0.9725585108
 40
0.9831038718
 40
0.9911920889
 40
0.9968148972
 40
1.0
 40
1.0
 40
1.0
 40
1.0
 10
327.4296320995
 20
109.615367575
 30
0.0
 10
327.4199941733
 20
109.6098054564
 30
0.0
 10
327.3923405921
 20
109.6008363211
 30
0.0
 10
327.3408615976
 20
109.5892927113
 30
0.0
 10
327.269237454
 20
109.5776528592
 30
0.0
 10
327.1346885479
 20
109.5602068332
 30
0.0
 10
326.917926943
 20
109.5396219477
 30
0.0
 10
326.6012949019
 20
109.5160572813
 30
0.0
 10
326.2114375117
 20
109.4923558669
 30
0.0
 10
325.7517636293
 20
109.4684879441
 30
0.0
 10
325.2264400241
 20
109.4445636182
 30
0.0
 10
324.163483968
 20
109.4011030571
 30
0.0
 10
322.4743750135
 20
109.3439798825
 30
0.0
 10
320.1338363475
 20
109.2744251133
 30
0.0
 10
318.0654648555
 20
109.2161373005
 30
0.0
 10
316.3938457457
 20
109.1680347301
 30
0.0
 10
315.1869943088
 20
109.1321206037
 30
0.0
 10
314.0472500042
 20
109.0962559012
 30
0.0
 10
312.9977276007
 20
109.0604544053
 30
0.0
 10
312.059660936
 20
109.0247912678
 30
0.0
 10
311.252270815
 20
108.9893394792
 30
0.0
 10
310.6688011391
 20
108.9584203222
 30
0.0
 10
310.2794695524
 20
108.9327946783
 30
0.0
 10
310.0487871173
 20
108.9150299044
 30
0.0
 10
309.8612657264
 20
108.8972294147
 30
0.0
 10
309.7171373101
 20
108.8801987472
 30
0.0
 10
309.6184436076
 20
108.8626316346
 30
0.0
 10
309.5663413409
 20
108.8500366807
 30
0.0
 10
309.5498739121
 20
108.8405375685
 30
0.0
  0
SPLINE
  5
4E6
100
AcDbEntity
  8
JSG_3
100
AcDbSpline
 62
7
  6
CONTINUOUS
 70
0
 71
3
 72
9
 73
5
 74
0
 42
0.0000001
 43
0.0000001
 44
0.0000000001
 40
0.0
 40
0.0
 40
0.0
 40
0.0
 40
0.2007897067
 40
1.0
 40
1.0
 40
1.0
 40
1.0
 10
328.7300735471
 20
110.3667947313
 30
0.0
 10
328.7285075272
 20
110.3658993033
 30
0.0
 10
328.7204764442
 20
110.3618469504
 30
0.0
 10
328.7119113988
 20
110.3589768673
 30
0.0
 10
328.7050374577
 20
110.3569018746
 30
0.0
  0
SPLINE
  5
4E7
100
AcDbEntity
  8
JSG_3
100
AcDbSpline
 62
7
  6
CONTINUOUS
 70
0
 71
3
 72
27
 73
23
 74
0
 42
0.0000001
 43
0.0000001
 44
0.0000000001
 40
0.0
 40
0.0
 40
0.0
 40
0.0
 40
0.005901189
 40
0.0158153421
 40
0.0296846597
 40
0.0474072316
 40
0.0688402226
 40
0.0938119354
 40
0.1535340943
 40
0.2246321532
 40
0.3047906652
 40
0.391397703
 40
0.481630536
 40
0.5725481585
 40
0.6611873
 40
0.7446592511
 40
0.8202442259
 40
0.8854805756
 40
0.9382445071
 40
0.976826531
 40
0.990393895
 40
1.0
 40
1.0
 40
1.0
 40
1.0
 10
328.7050374577
 20
110.3569018746
 30
0.0
 10
328.666729814
 20
110.3453381906
 30
0.0
 10
328.5601521168
 20
110.3292269375
 30
0.0
 10
328.3603825218
 20
110.3069998382
 30
0.0
 10
328.0796046028
 20
110.2852324122
 30
0.0
 10
327.7208149094
 20
110.2626569674
 30
0.0
 10
327.2865374464
 20
110.2400851762
 30
0.0
 10
326.5676395469
 20
110.2078137187
 30
0.0
 10
325.5119406512
 20
110.168870534
 30
0.0
 10
324.0820358714
 20
110.1239692971
 30
0.0
 10
322.4697516773
 20
110.0788786151
 30
0.0
 10
320.7276778458
 20
110.0336422286
 30
0.0
 10
318.9126261756
 20
109.9883486938
 30
0.0
 10
317.0837912509
 20
109.943044344
 30
0.0
 10
315.3008145699
 20
109.897772879
 30
0.0
 10
313.6218354624
 20
109.8526126554
 30
0.0
 10
312.1016113618
 20
109.807581494
 30
0.0
 10
310.7896774976
 20
109.7630443233
 30
0.0
 10
309.7288691178
 20
109.7187242733
 30
0.0
 10
309.0183910066
 20
109.6804306022
 30
0.0
 10
308.6010031269
 20
109.6467767158
 30
0.0
 10
308.4447028096
 20
109.6297892063
 30
0.0
 10
308.3802886228
 20
109.6201102632
 30
0.0
  0
SPLINE
  5
4E8
100
AcDbEntity
  8
JSG_3
100
AcDbSpline
 62
7
  6
CONTINUOUS
 70
0
 71
3
 72
9
 73
5
 74
0
 42
0.0000001
 43
0.0000001
 44
0.0000000001
 40
0.0
 40
0.0
 40
0.0
 40
0.0
 40
0.3098558652
 40
1.0
 40
1.0
 40
1.0
 40
1.0
 10
308.3802886228
 20
109.6201102632
 30
0.0
 10
308.3693193424
 20
109.6184620077
 30
0.0
 10
308.3339968787
 20
109.6127754832
 30
0.0
 10
308.2986793616
 20
109.6061505775
 30
0.0
 10
308.2750121032
 20
109.5990612332
 30
0.0
  0
SPLINE
  5
4E9
100
AcDbEntity
  8
JSG_3
100
AcDbSpline
 62
7
  6
CONTINUOUS
 70
0
 71
3
 72
9
 73
5
 74
0
 42
0.0000001
 43
0.0000001
 44
0.0000000001
 40
0.0
 40
0.0
 40
0.0
 40
0.0
 40
0.6600228861
 40
1.0
 40
1.0
 40
1.0
 40
1.0
 10
308.2750121032
 20
109.5990612332
 30
0.0
 10
308.2663501512
 20
109.5964666124
 30
0.0
 10
308.254086924
 20
109.5925082026
 30
0.0
 10
308.2408797318
 20
109.5838079012
 30
0.0
 10
308.2399147399
 20
109.5792513331
 30
0.0
  0
SPLINE
  5
4EA
100
AcDbEntity
  8
JSG_3
100
AcDbSpline
 62
7
  6
CONTINUOUS
 70
0
 71
3
 72
9
 73
5
 74
0
 42
0.0000001
 43
0.0000001
 44
0.0000000001
 40
0.0
 40
0.0
 40
0.0
 40
0.0
 40
0.1999416767
 40
1.0
 40
1.0
 40
1.0
 40
1.0
 10
308.2492705286
 20
156.0888053017
 30
0.0
 10
308.2508447641
 20
156.0897121248
 30
0.0
 10
308.2589590267
 20
156.0938274667
 30
0.0
 10
308.2676222965
 20
156.0967310034
 30
0.0
 10
308.2745811013
 20
156.0988339264
 30
0.0
  0
SPLINE
  5
4EB
100
AcDbEntity
  8
JSG_3
100
AcDbSpline
 62
7
  6
CONTINUOUS
 70
0
 71
3
 72
22
 73
18
 74
0
 42
0.0000001
 43
0.0000001
 44
0.0000000001
 40
0.0
 40
0.0
 40
0.0
 40
0.0
 40
0.0051985231
 40
0.0135719001
 40
0.0250897379
 40
0.0396951488
 40
0.0573022791
 40
0.0778104588
 40
0.1270272113
 40
0.1861830581
 40
0.2538743051
 40
0.3284914116
 40
0.4082604396
 40
0.5756038999
 40
0.7400797419
 40
0.8861444214
 40
1.0
 40
1.0
 40
1.0
 40
1.0
 10
308.2745811013
 20
156.0988339264
 30
0.0
 10
308.3056852511
 20
156.1082334764
 30
0.0
 10
308.3896763169
 20
156.1224534606
 30
0.0
 10
308.5452094761
 20
156.1413053948
 30
0.0
 10
308.7601191888
 20
156.1600580747
 30
0.0
 10
309.0327503237
 20
156.1793175953
 30
0.0
 10
309.3617320028
 20
156.1986376606
 30
0.0
 10
309.9069014718
 20
156.2262419592
 30
0.0
 10
310.7117960928
 20
156.2596178695
 30
0.0
 10
311.8116138399
 20
156.2980484415
 30
0.0
 10
313.0702781761
 20
156.3366421679
 30
0.0
 10
314.4578335415
 20
156.3753730408
 30
0.0
 10
316.4681190053
 20
156.427932875
 30
0.0
 10
319.0399688264
 20
156.4913808347
 30
0.0
 10
322.0260545417
 20
156.5661517233
 30
0.0
 10
324.6776923205
 20
156.6404091448
 30
0.0
 10
326.301426525
 20
156.696106209
 30
0.0
 10
327.0123705701
 20
156.7278981214
 30
0.0
  0
SPLINE
  5
4EC
100
AcDbEntity
  8
JSG_3
100
AcDbSpline
 62
7
  6
CONTINUOUS
 70
0
 71
3
 72
9
 73
5
 74
0
 42
0.0000001
 43
0.0000001
 44
0.0000000001
 40
0.0
 40
0.0
 40
0.0
 40
0.0
 40
0.1993231774
 40
1.0
 40
1.0
 40
1.0
 40
1.0
 10
328.7304770415
 20
142.3671008128
 30
0.0
 10
328.7289030243
 20
142.3661840378
 30
0.0
 10
328.7207553494
 20
142.3620176433
 30
0.0
 10
328.7120411535
 20
142.3590947739
 30
0.0
 10
328.7050374573
 20
142.356976292
 30
0.0
  0
SPLINE
  5
4ED
100
AcDbEntity
  8
JSG_3
100
AcDbSpline
 62
7
  6
CONTINUOUS
 70
0
 71
3
 72
27
 73
23
 74
0
 42
0.0000001
 43
0.0000001
 44
0.0000000001
 40
0.0
 40
0.0
 40
0.0
 40
0.0
 40
0.0059019392
 40
0.0158161494
 40
0.0296853722
 40
0.0474079304
 40
0.0688409172
 40
0.0938126087
 40
0.1535347189
 40
0.2246327217
 40
0.3047911702
 40
0.3913981394
 40
0.4816309008
 40
0.5725484513
 40
0.6611875225
 40
0.7446594076
 40
0.8202443221
 40
0.8854806214
 40
0.9382445059
 40
0.9768265163
 40
0.9903937322
 40
1.0
 40
1.0
 40
1.0
 40
1.0
 10
328.7050374573
 20
142.356976292
 30
0.0
 10
328.6667314574
 20
142.3453894719
 30
0.0
 10
328.5601631364
 20
142.3291813938
 30
0.0
 10
328.3603815762
 20
142.3069913359
 30
0.0
 10
328.0796041429
 20
142.285240662
 30
0.0
 10
327.7208147125
 20
142.2626602342
 30
0.0
 10
327.2865376728
 20
142.2400821267
 30
0.0
 10
326.5676394255
 20
142.2078147597
 30
0.0
 10
325.5119406747
 20
142.1688702581
 30
0.0
 10
324.0820358582
 20
142.123969376
 30
0.0
 10
322.4697516772
 20
142.0788785885
 30
0.0
 10
320.7276778419
 20
142.0336422316
 30
0.0
 10
318.9126261719
 20
141.9883487191
 30
0.0
 10
317.0837912528
 20
141.9430442392
 30
0.0
 10
315.3008145525
 20
141.8977732404
 30
0.0
 10
313.6218355112
 20
141.8526115007
 30
0.0
 10
312.1016112067
 20
141.8075849005
 30
0.0
 10
310.7896779253
 20
141.7630352299
 30
0.0
 10
309.7288680809
 20
141.7187453821
 30
0.0
 10
309.0183933756
 20
141.6803962248
 30
0.0
 10
308.6010024788
 20
141.6468039552
 30
0.0
 10
308.4446972626
 20
141.6298337947
 30
0.0
 10
308.3802886228
 20
141.6201102632
 30
0.0
  0
SPLINE
  5
4EE
100
AcDbEntity
  8
JSG_3
100
AcDbSpline
 62
7
  6
CONTINUOUS
 70
0
 71
3
 72
9
 73
5
 74
0
 42
0.0000001
 43
0.0000001
 44
0.0000000001
 40
0.0
 40
0.0
 40
0.0
 40
0.0
 40
0.3098312269
 40
1.0
 40
1.0
 40
1.0
 40
1.0
 10
308.3802886228
 20
141.6201102632
 30
0.0
 10
308.369318966
 20
141.6184542151
 30
0.0
 10
308.3339932886
 20
141.6127368235
 30
0.0
 10
308.2986790965
 20
141.6060562951
 30
0.0
 10
308.2750121042
 20
141.5989442767
 30
0.0
  0
SPLINE
  5
4EF
100
AcDbEntity
  8
JSG_3
100
AcDbSpline
 62
7
  6
CONTINUOUS
 70
0
 71
3
 72
9
 73
5
 74
0
 42
0.0000001
 43
0.0000001
 44
0.0000000001
 40
0.0
 40
0.0
 40
0.0
 40
0.0
 40
0.662387456
 40
1.0
 40
1.0
 40
1.0
 40
1.0
 10
308.2750121042
 20
141.5989442767
 30
0.0
 10
308.2663124727
 20
141.5963300053
 30
0.0
 10
308.2540871839
 20
141.5923745902
 30
0.0
 10
308.2407764174
 20
141.5836497329
 30
0.0
 10
308.2398893857
 20
141.5791054993
 30
0.0
  0
SPLINE
  5
4F0
100
AcDbEntity
  8
JSG_3
100
AcDbSpline
 62
7
  6
CONTINUOUS
 70
0
 71
3
 72
9
 73
5
 74
0
 42
0.0000001
 43
0.0000001
 44
0.0000000001
 40
0.0
 40
0.0
 40
0.0
 40
0.0
 40
0.1992732192
 40
1.0
 40
1.0
 40
1.0
 40
1.0
 10
308.2490563504
 20
135.2886704006
 30
0.0
 10
308.2506306214
 20
135.2895872028
 30
0.0
 10
308.2587814939
 20
135.2937549154
 30
0.0
 10
308.267498637
 20
135.296679665
 30
0.0
 10
308.2745051572
 20
135.2987999581
 30
0.0
  0
SPLINE
  5
4F1
100
AcDbEntity
  8
JSG_3
100
AcDbSpline
 62
7
  6
CONTINUOUS
 70
0
 71
3
 72
27
 73
23
 74
0
 42
0.0000001
 43
0.0000001
 44
0.0000000001
 40
0.0
 40
0.0
 40
0.0
 40
0.0
 40
0.0059021057
 40
0.0158163285
 40
0.0296855305
 40
0.0474080858
 40
0.0688410719
 40
0.0938127588
 40
0.1535348586
 40
0.2246328494
 40
0.3047912843
 40
0.3913982389
 40
0.481630985
 40
0.5725485201
 40
0.6611875762
 40
0.7446594472
 40
0.8202443489
 40
0.8854806372
 40
0.9382445124
 40
0.9768265176
 40
0.9903937203
 40
1.0
 40
1.0
 40
1.0
 40
1.0
 10
308.2745051572
 20
135.2987999581
 30
0.0
 10
308.3128107938
 20
135.3103919001
 30
0.0
 10
308.4193770324
 20
135.3266214116
 30
0.0
 10
308.6191612499
 20
135.3488032726
 30
0.0
 10
308.8999385732
 20
135.3705502362
 30
0.0
 10
309.2587279468
 20
135.3931317678
 30
0.0
 10
309.6930048926
 20
135.4157112734
 30
0.0
 10
310.4119032173
 20
135.447977735
 30
0.0
 10
311.4676019361
 20
135.486922528
 30
0.0
 10
312.8975067609
 20
135.5318233315
 30
0.0
 10
314.5097909389
 20
135.5769141427
 30
0.0
 10
316.2518647751
 20
135.6221504917
 30
0.0
 10
318.0669164447
 20
135.6674440044
 30
0.0
 10
319.8957513631
 20
135.7127484939
 30
0.0
 10
321.6787280645
 20
135.758019456
 30
0.0
 10
323.3577071003
 20
135.8031813157
 30
0.0
 10
324.8779314204
 20
135.8482075549
 30
0.0
 10
326.1898646556
 20
135.8927582149
 30
0.0
 10
327.250674615
 20
135.937045672
 30
0.0
 10
327.961149052
 20
135.9753992214
 30
0.0
 10
328.3785401858
 20
136.0089866134
 30
0.0
 10
328.5348457916
 20
136.0259554016
 30
0.0
 10
328.5992539912
 20
136.0356824617
 30
0.0
  0
SPLINE
  5
4F2
100
AcDbEntity
  8
JSG_3
100
AcDbSpline
 62
7
  6
CONTINUOUS
 70
0
 71
3
 72
9
 73
5
 74
0
 42
0.0000001
 43
0.0000001
 44
0.0000000001
 40
0.0
 40
0.0
 40
0.0
 40
0.0
 40
0.3098292715
 40
1.0
 40
1.0
 40
1.0
 40
1.0
 10
328.5992539912
 20
136.0356824617
 30
0.0
 10
328.6102236779
 20
136.0373391266
 30
0.0
 10
328.6455496102
 20
136.0430589618
 30
0.0
 10
328.6808635377
 20
136.0497438919
 30
0.0
 10
328.7045305095
 20
136.0568577051
 30
0.0
  0
SPLINE
  5
4F3
100
AcDbEntity
  8
JSG_3
100
AcDbSpline
 62
7
  6
CONTINUOUS
 70
0
 71
3
 72
9
 73
5
 74
0
 42
0.0000001
 43
0.0000001
 44
0.0000000001
 40
0.0
 40
0.0
 40
0.0
 40
0.0
 40
0.6624559299
 40
1.0
 40
1.0
 40
1.0
 40
1.0
 10
328.7045305095
 20
136.0568577051
 30
0.0
 10
328.7132293961
 20
136.0594724146
 30
0.0
 10
328.7254504987
 20
136.0634300664
 30
0.0
 10
328.7387639112
 20
136.0721450255
 30
0.0
 10
328.7396528951
 20
136.0766871282
 30
0.0
  0
SPLINE
  5
4F4
100
AcDbEntity
  8
JSG_3
100
AcDbSpline
 62
7
  6
CONTINUOUS
 70
0
 71
3
 72
23
 73
19
 74
0
 42
0.0000001
 43
0.0000001
 44
0.0000000001
 40
0.0
 40
0.0
 40
0.0
 40
0.0
 40
0.0247249006
 40
0.0636703098
 40
0.1156861436
 40
0.179216262
 40
0.2523515086
 40
0.3328932385
 40
0.5063560713
 40
0.5940592386
 40
0.6788902726
 40
0.7582976738
 40
0.8298935707
 40
0.8915260905
 40
0.9413436451
 40
0.9778580063
 40
0.9907728381
 40
1.0
 40
1.0
 40
1.0
 40
1.0
 10
328.5428362644
 20
156.7278832085
 30
0.0
 10
328.3778749333
 20
156.7068535474
 30
0.0
 10
327.9504692535
 20
156.6754226566
 30
0.0
 10
327.1736723282
 20
156.6330710534
 30
0.0
 10
326.1353441547
 20
156.5910447214
 30
0.0
 10
324.8670570404
 20
156.5478767781
 30
0.0
 10
323.4067788754
 20
156.5046330838
 30
0.0
 10
321.2072852481
 20
156.4452037891
 30
0.0
 10
318.9097040975
 20
156.3883840294
 30
0.0
 10
316.5832947816
 20
156.3304893284
 30
0.0
 10
314.8893281927
 20
156.286964908
 30
0.0
 10
313.3037296067
 20
156.2435441112
 30
0.0
 10
311.8742263818
 20
156.2002583186
 30
0.0
 10
310.6438088567
 20
156.1574155125
 30
0.0
 10
309.6495504981
 20
156.1148371475
 30
0.0
 10
308.9829497307
 20
156.0779082866
 30
0.0
 10
308.5897618938
 20
156.0456851789
 30
0.0
 10
308.4416531522
 20
156.0293795744
 30
0.0
 10
308.3802886228
 20
156.0201102632
 30
0.0
  0
SPLINE
  5
4F5
100
AcDbEntity
  8
JSG_3
100
AcDbSpline
 62
7
  6
CONTINUOUS
 70
0
 71
3
 72
9
 73
5
 74
0
 42
0.0000001
 43
0.0000001
 44
0.0000000001
 40
0.0
 40
0.0
 40
0.0
 40
0.0
 40
0.3098281794
 40
1.0
 40
1.0
 40
1.0
 40
1.0
 10
308.3802886228
 20
156.0201102632
 30
0.0
 10
308.3693189195
 20
156.0184532539
 30
0.0
 10
308.3339928447
 20
156.0127320544
 30
0.0
 10
308.2986790651
 20
156.0060446666
 30
0.0
 10
308.2750121047
 20
155.9989298513
 30
0.0
  0
SPLINE
  5
4F6
100
AcDbEntity
  8
JSG_3
100
AcDbSpline
 62
7
  6
CONTINUOUS
 70
0
 71
3
 72
9
 73
5
 74
0
 42
0.0000001
 43
0.0000001
 44
0.0000000001
 40
0.0
 40
0.0
 40
0.0
 40
0.0
 40
0.6624618406
 40
1.0
 40
1.0
 40
1.0
 40
1.0
 10
308.2750121047
 20
155.9989298513
 30
0.0
 10
308.2663146274
 20
155.9963151959
 30
0.0
 10
308.2540961197
 20
155.9923556232
 30
0.0
 10
308.2407827758
 20
155.9836493381
 30
0.0
 10
308.2398905064
 20
155.9791087132
 30
0.0
  0
SPLINE
  5
4F7
100
AcDbEntity
  8
JSG_3
100
AcDbSpline
 62
7
  6
CONTINUOUS
 70
0
 71
3
 72
35
 73
31
 74
0
 42
0.0000001
 43
0.0000001
 44
0.0000000001
 40
0.0
 40
0.0
 40
0.0
 40
0.0
 40
0.0018598802
 40
0.0047921999
 40
0.0088136456
 40
0.0139251253
 40
0.027404727
 40
0.0451687135
 40
0.0670309501
 40
0.092772915
 40
0.1221898663
 40
0.1550364162
 40
0.2297287157
 40
0.314155276
 40
0.4052873725
 40
0.4998275234
 40
0.594376806
 40
0.6855248455
 40
0.7699812743
 40
0.8447165128
 40
0.877570398
 40
0.907024595
 40
0.9328126281
 40
0.9546942829
 40
0.9724685908
 40
0.9859909985
 40
0.9911303588
 40
0.9951771213
 40
0.9981288244
 40
1.0
 40
1.0
 40
1.0
 40
1.0
 10
327.4300611618
 20
156.0156032397
 30
0.0
 10
327.4204515662
 20
156.0100445921
 30
0.0
 10
327.392920338
 20
156.0010876932
 30
0.0
 10
327.3417284293
 20
155.989529848
 30
0.0
 10
327.2705611067
 20
155.9778838562
 30
0.0
 10
327.1367493187
 20
155.9604150294
 30
0.0
 10
326.9206553665
 20
155.939798497
 30
0.0
 10
326.604553629
 20
155.9162748064
 30
0.0
 10
326.2150803214
 20
155.8925797555
 30
0.0
 10
325.7559664534
 20
155.8687006709
 30
0.0
 10
325.2312111253
 20
155.8447551447
 30
0.0
 10
324.4144146093
 20
155.811324984
 30
0.0
 10
323.2693070232
 20
155.7705451693
 30
0.0
 10
321.7763287643
 20
155.7231645802
 30
0.0
 10
320.1648283472
 20
155.6756812858
 30
0.0
 10
318.4928844842
 20
155.6281045717
 30
0.0
 10
316.8208449101
 20
155.5805457384
 30
0.0
 10
315.2090167798
 20
155.533049178
 30
0.0
 10
313.7155084368
 20
155.4856728236
 30
0.0
 10
312.5699215483
 20
155.4449087491
 30
0.0
 10
311.7526032285
 20
155.4114537085
 30
0.0
 10
311.2273058877
 20
155.3875180713
 30
0.0
 10
310.7675770085
 20
155.3636576451
 30
0.0
 10
310.3776506292
 20
155.3399567126
 30
0.0
 10
310.0611173925
 20
155.3163941796
 30
0.0
 10
309.8445381062
 20
155.2957859759
 30
0.0
 10
309.7101462427
 20
155.2783369133
 30
0.0
 10
309.6385392745
 20
155.2666946468
 30
0.0
 10
309.5870060582
 20
155.255135799
 30
0.0
 10
309.5592801375
 20
155.2461854548
 30
0.0
 10
309.5495969338
 20
155.240619491
 30
0.0
  0
SPLINE
  5
4F8
100
AcDbEntity
  8
JSG_3
100
AcDbSpline
 62
7
  6
CONTINUOUS
 70
0
 71
3
 72
35
 73
31
 74
0
 42
0.0000001
 43
0.0000001
 44
0.0000000001
 40
0.0
 40
0.0
 40
0.0
 40
0.0
 40
0.0018541396
 40
0.0047845968
 40
0.0088090808
 40
0.0139276461
 40
0.02741953
 40
0.0451675584
 40
0.0670336546
 40
0.0927951291
 40
0.1222127028
 40
0.1550509459
 40
0.229768916
 40
0.3141998155
 40
0.4053455562
 40
0.4998970236
 40
0.5944535464
 40
0.6856130212
 40
0.77006055
 40
0.8448053414
 40
0.8776466554
 40
0.9070895865
 40
0.932879237
 40
0.9547526653
 40
0.9725111018
 40
0.9860271819
 40
0.9911615926
 40
0.9952002989
 40
0.9981397133
 40
1.0
 40
1.0
 40
1.0
 40
1.0
 10
327.4300217368
 20
141.6156042614
 30
0.0
 10
327.4204568791
 20
141.6100368409
 30
0.0
 10
327.392969333
 20
141.6010739537
 30
0.0
 10
327.3418073503
 20
141.5895212106
 30
0.0
 10
327.270587915
 20
141.5778791688
 30
0.0
 10
327.1366412421
 20
141.5604196024
 30
0.0
 10
326.920525993
 20
141.5398178512
 30
0.0
 10
326.6044279002
 20
141.5162439792
 30
0.0
 10
326.2149099021
 20
141.4925644548
 30
0.0
 10
325.7556533145
 20
141.4686974184
 30
0.0
 10
325.2308291384
 20
141.444740598
 30
0.0
 10
324.4139278772
 20
141.4112931375
 30
0.0
 10
323.2686927398
 20
141.3705331469
 30
0.0
 10
321.7754580474
 20
141.3231356655
 30
0.0
 10
320.1637866678
 20
141.2756505348
 30
0.0
 10
318.4916546975
 20
141.2280719731
 30
0.0
 10
316.8194404641
 20
141.1805023398
 30
0.0
 10
315.2075577711
 20
141.1330104034
 30
0.0
 10
313.7139816584
 20
141.085611796
 30
0.0
 10
312.5684681222
 20
141.044865542
 30
0.0
 10
311.7512376274
 20
141.0113979336
 30
0.0
 10
311.2260749728
 20
140.9874487368
 30
0.0
 10
310.7664536504
 20
140.9635980297
 30
0.0
 10
310.3766621366
 20
140.9399021465
 30
0.0
 10
310.0603135827
 20
140.9163175745
 30
0.0
 10
309.8438966631
 20
140.8957175698
 30
0.0
 10
309.7096216125
 20
140.8782686921
 30
0.0
 10
309.6381663959
 20
140.866632194
 30
0.0
 10
309.5868230767
 20
140.8550763925
 30
0.0
 10
309.5592470634
 20
140.846106188
 30
0.0
 10
309.5496372679
 20
140.8405430961
 30
0.0
  0
SPLINE
  5
4F9
100
AcDbEntity
  8
JSG_3
100
AcDbSpline
 62
7
  6
CONTINUOUS
 70
0
 71
3
 72
35
 73
31
 74
0
 42
0.0000001
 43
0.0000001
 44
0.0000000001
 40
0.0
 40
0.0
 40
0.0
 40
0.0
 40
0.0018567805
 40
0.0047891623
 40
0.0088253264
 40
0.0139677615
 40
0.0275120886
 40
0.0452867335
 40
0.0671465721
 40
0.0929227746
 40
0.1223731255
 40
0.1552262584
 40
0.2299274316
 40
0.3143742795
 40
0.405491072
 40
0.5000220121
 40
0.5945485549
 40
0.6856659386
 40
0.7701057357
 40
0.8448050737
 40
0.8776557649
 40
0.9071076406
 40
0.932877367
 40
0.9547289218
 40
0.9725055593
 40
0.9860496428
 40
0.9911843009
 40
0.9952121886
 40
0.9981419527
 40
1.0
 40
1.0
 40
1.0
 40
1.0
 10
327.4295006823
 20
111.2154138143
 30
0.0
 10
327.4199094636
 20
111.2098616059
 30
0.0
 10
327.3924064365
 20
111.2008856362
 30
0.0
 10
327.3411445008
 20
111.1893245426
 30
0.0
 10
327.2697030413
 20
111.1776879576
 30
0.0
 10
327.1352300452
 20
111.1602537617
 30
0.0
 10
326.9185087196
 20
111.1396759713
 30
0.0
 10
326.6019915644
 20
111.1161082161
 30
0.0
 10
326.2122870286
 20
111.0923990618
 30
0.0
 10
325.7528080535
 20
111.0685448992
 30
0.0
 10
325.2276386486
 20
111.044611211
 30
0.0
 10
324.4105965386
 20
111.0111864539
 30
0.0
 10
323.2653408451
 20
110.9703985572
 30
0.0
 10
321.772363353
 20
110.9230595534
 30
0.0
 10
320.1609802973
 20
110.8755585097
 30
0.0
 10
318.4894127046
 20
110.8280123596
 30
0.0
 10
316.8178417645
 20
110.7804600196
 30
0.0
 10
315.2065232983
 20
110.7329666859
 30
0.0
 10
313.7135956369
 20
110.6856188042
 30
0.0
 10
312.568407309
 20
110.6448384823
 30
0.0
 10
311.7513819377
 20
110.6114065195
 30
0.0
 10
311.2262565083
 20
110.587477203
 30
0.0
 10
310.7668566237
 20
110.5636227959
 30
0.0
 10
310.3772288393
 20
110.5399065154
 30
0.0
 10
310.0607507722
 20
110.5163413309
 30
0.0
 10
309.8440637249
 20
110.4957831909
 30
0.0
 10
309.7096891643
 20
110.4783395308
 30
0.0
 10
309.6383636779
 20
110.4666907229
 30
0.0
 10
309.587158695
 20
110.4551298258
 30
0.0
 10
309.5596673305
 20
110.4461547322
 30
0.0
 10
309.5500639129
 20
110.4406085173
 30
0.0
  0
SPLINE
  5
4FA
100
AcDbEntity
  8
JSG_3
100
AcDbSpline
 62
7
  6
CONTINUOUS
 70
0
 71
3
 72
15
 73
11
 74
0
 42
0.0000001
 43
0.0000001
 44
0.0000000001
 40
0.0
 40
0.0
 40
0.0
 40
0.0
 40
0.0127898658
 40
0.0322020724
 40
0.0913957572
 40
0.1777845687
 40
0.2910193637
 40
0.4306019773
 40
0.5958842259
 40
1.0
 40
1.0
 40
1.0
 40
1.0
 10
308.2490840796
 20
136.888580448
 30
0.0
 10
308.2559378885
 20
136.8925055964
 30
0.0
 10
308.2748943108
 20
136.8991355216
 30
0.0
 10
308.3296809294
 20
136.9123948
 30
0.0
 10
308.4306934155
 20
136.9273409709
 30
0.0
 10
308.589469701
 20
136.9450132245
 30
0.0
 10
308.7982359589
 20
136.9628223451
 30
0.0
 10
309.0557885918
 20
136.9808606339
 30
0.0
 10
309.492880933
 20
137.0063475125
 30
0.0
 10
309.8441492035
 20
137.0223137819
 30
0.0
 10
310.0934658
 20
137.0332378457
 30
0.0
  0
SPLINE
  5
4FB
100
AcDbEntity
  8
JSG_3
100
AcDbSpline
 62
7
  6
CONTINUOUS
 70
0
 71
3
 72
9
 73
5
 74
0
 42
0.0000001
 43
0.0000001
 44
0.0000000001
 40
0.0
 40
0.0
 40
0.0
 40
0.0
 40
0.2004386801
 40
1.0
 40
1.0
 40
1.0
 40
1.0
 10
328.7301638777
 20
111.966888921
 30
0.0
 10
328.7285958195
 20
111.9659895213
 30
0.0
 10
328.7205376341
 20
111.9619140913
 30
0.0
 10
328.7119400728
 20
111.9590309822
 30
0.0
 10
328.7050374577
 20
111.9569448733
 30
0.0
  0
SPLINE
  5
4FC
100
AcDbEntity
  8
JSG_3
100
AcDbSpline
 62
7
  6
CONTINUOUS
 70
0
 71
3
 72
27
 73
23
 74
0
 42
0.0000001
 43
0.0000001
 44
0.0000000001
 40
0.0
 40
0.0
 40
0.0
 40
0.0
 40
0.0059016222
 40
0.0158158084
 40
0.0296850714
 40
0.0474076356
 40
0.0688406244
 40
0.0938123252
 40
0.1535344566
 40
0.2246324839
 40
0.3047909601
 40
0.3913979593
 40
0.481630752
 40
0.572548334
 40
0.6611874359
 40
0.7446593498
 40
0.8202442908
 40
0.8854806118
 40
0.938244518
 40
0.9768265304
 40
0.9903938427
 40
1.0
 40
1.0
 40
1.0
 40
1.0
 10
328.7050374577
 20
111.9569448733
 30
0.0
 10
328.6667307646
 20
111.9453678211
 30
0.0
 10
328.560158479
 20
111.9292006202
 30
0.0
 10
328.3603819779
 20
111.9069949267
 30
0.0
 10
328.0796043374
 20
111.8852371786
 30
0.0
 10
327.7208147972
 20
111.8626588552
 30
0.0
 10
327.2865375786
 20
111.8400834142
 30
0.0
 10
326.5676394785
 20
111.8078143203
 30
0.0
 10
325.5119406666
 20
111.7688703746
 30
0.0
 10
324.0820358657
 20
111.7239693428
 30
0.0
 10
322.4697516792
 20
111.6788785993
 30
0.0
 10
320.7276778453
 20
111.6336422322
 30
0.0
 10
318.9126261754
 20
111.5883487013
 30
0.0
 10
317.0837912524
 20
111.5430443095
 30
0.0
 10
315.3008145649
 20
111.497772999
 30
0.0
 10
313.6218354792
 20
111.4526122718
 30
0.0
 10
312.1016113105
 20
111.4075826258
 30
0.0
 10
310.7896776404
 20
111.363041302
 30
0.0
 10
309.7288687723
 20
111.3187312866
 30
0.0
 10
309.0183917961
 20
111.2804191806
 30
0.0
 10
308.6010029097
 20
111.2467857657
 30
0.0
 10
308.4447009696
 20
111.2298040231
 30
0.0
 10
308.3802886228
 20
111.2201102632
 30
0.0
  0
SPLINE
  5
4FD
100
AcDbEntity
  8
JSG_3
100
AcDbSpline
 62
7
  6
CONTINUOUS
 70
0
 71
3
 72
9
 73
5
 74
0
 42
0.0000001
 43
0.0000001
 44
0.0000000001
 40
0.0
 40
0.0
 40
0.0
 40
0.0
 40
0.3098476925
 40
1.0
 40
1.0
 40
1.0
 40
1.0
 10
308.3802886228
 20
111.2201102632
 30
0.0
 10
308.3693192175
 20
111.2184594185
 30
0.0
 10
308.3339956877
 20
111.212762639
 30
0.0
 10
308.2986792715
 20
111.2061192497
 30
0.0
 10
308.2750121029
 20
111.1990223717
 30
0.0
  0
SPLINE
  5
4FE
100
AcDbEntity
  8
JSG_3
100
AcDbSpline
 62
7
  6
CONTINUOUS
 70
0
 71
3
 72
9
 73
5
 74
0
 42
0.0000001
 43
0.0000001
 44
0.0000000001
 40
0.0
 40
0.0
 40
0.0
 40
0.0
 40
0.660550968
 40
1.0
 40
1.0
 40
1.0
 40
1.0
 10
308.2750121029
 20
111.1990223717
 30
0.0
 10
308.2663455084
 20
111.1964235917
 30
0.0
 10
308.2540968247
 20
111.1924610277
 30
0.0
 10
308.2408676307
 20
111.1837771734
 30
0.0
 10
308.2399111642
 20
111.1792270373
 30
0.0
  0
SPLINE
  5
4FF
100
AcDbEntity
  8
JSG_3
100
AcDbSpline
 62
7
  6
CONTINUOUS
 70
0
 71
3
 72
18
 73
14
 74
0
 42
0.0000001
 43
0.0000001
 44
0.0000000001
 40
0.0
 40
0.0
 40
0.0
 40
0.0
 40
0.1103173594
 40
0.2513965803
 40
0.4107276286
 40
0.5741718717
 40
0.7272251266
 40
0.7955418473
 40
0.8563096846
 40
0.9081748215
 40
0.9499840148
 40
0.9808137002
 40
1.0
 40
1.0
 40
1.0
 40
1.0
 10
309.967352766
 20
108.2279028457
 30
0.0
 10
310.652591011
 20
108.2588679587
 30
0.0
 10
312.214880564
 20
108.3123873437
 30
0.0
 10
314.7676864337
 20
108.3847648409
 30
0.0
 10
317.6509642947
 20
108.457280891
 30
0.0
 10
320.6086947808
 20
108.5302089238
 30
0.0
 10
323.0006075691
 20
108.5926523958
 30
0.0
 10
324.7541269516
 20
108.6446296306
 30
0.0
 10
325.8786446987
 20
108.6819084949
 30
0.0
 10
326.8381922671
 20
108.7191346336
 30
0.0
 10
327.6116072488
 20
108.755275241
 30
0.0
 10
328.1812176894
 20
108.7918261548
 30
0.0
 10
328.491419896
 20
108.8187762006
 30
0.0
 10
328.60928318
 20
108.8372201278
 30
0.0
  0
SPLINE
  5
500
100
AcDbEntity
  8
JSG_3
100
AcDbSpline
 62
7
  6
CONTINUOUS
 70
0
 71
3
 72
9
 73
5
 74
0
 42
0.0000001
 43
0.0000001
 44
0.0000000001
 40
0.0
 40
0.0
 40
0.0
 40
0.0
 40
0.3097371366
 40
1.0
 40
1.0
 40
1.0
 40
1.0
 10
328.60928318
 20
108.8372201278
 30
0.0
 10
328.6194778148
 20
108.8388154431
 30
0.0
 10
328.6523124651
 20
108.8443230964
 30
0.0
 10
328.6851352527
 20
108.8507601446
 30
0.0
 10
328.7070883624
 20
108.8576057543
 30
0.0
  0
SPLINE
  5
501
100
AcDbEntity
  8
JSG_3
100
AcDbSpline
 62
7
  6
CONTINUOUS
 70
0
 71
3
 72
9
 73
5
 74
0
 42
0.0000001
 43
0.0000001
 44
0.0000000001
 40
0.0
 40
0.0
 40
0.0
 40
0.0
 40
0.6588014397
 40
1.0
 40
1.0
 40
1.0
 40
1.0
 10
328.7070883624
 20
108.8576057543
 30
0.0
 10
328.7151673814
 20
108.8601250243
 30
0.0
 10
328.7266503165
 20
108.8639540789
 30
0.0
 10
328.7388389435
 20
108.8724044454
 30
0.0
 10
328.7396583762
 20
108.8767100627
 30
0.0
  0
SPLINE
  5
502
100
AcDbEntity
  8
JSG_3
100
AcDbSpline
 62
7
  6
CONTINUOUS
 70
0
 71
3
 72
9
 73
5
 74
0
 42
0.0000001
 43
0.0000001
 44
0.0000000001
 40
0.0
 40
0.0
 40
0.0
 40
0.0
 40
0.2006675904
 40
1.0
 40
1.0
 40
1.0
 40
1.0
 10
308.2493712851
 20
149.6888969626
 30
0.0
 10
308.2509280318
 20
149.6897901379
 30
0.0
 10
308.2589175773
 20
149.6938354719
 30
0.0
 10
308.2674408008
 20
149.6967033909
 30
0.0
 10
308.2742824619
 20
149.6987778703
 30
0.0
  0
SPLINE
  5
503
100
AcDbEntity
  8
JSG_3
100
AcDbSpline
 62
7
  6
CONTINUOUS
 70
0
 71
3
 72
27
 73
23
 74
0
 42
0.0000001
 43
0.0000001
 44
0.0000000001
 40
0.0
 40
0.0
 40
0.0
 40
0.0
 40
0.005892574
 40
0.0158006792
 40
0.0296668614
 40
0.0473894087
 40
0.0688250055
 40
0.093801835
 40
0.1535405668
 40
0.2246649708
 40
0.3048554336
 40
0.3914945903
 40
0.4817585025
 40
0.5727024173
 40
0.6613602544
 40
0.744840319
 40
0.8204207683
 40
0.885635973
 40
0.9383629527
 40
0.9768931529
 40
0.9904289197
 40
1.0
 40
1.0
 40
1.0
 40
1.0
 10
308.2742824619
 20
149.6987778703
 30
0.0
 10
308.3125231483
 20
149.710372937
 30
0.0
 10
308.4190059906
 20
149.7265401134
 30
0.0
 10
308.6186708052
 20
149.748756948
 30
0.0
 10
308.8994115741
 20
149.7705181431
 30
0.0
 10
309.2582271068
 20
149.7931060744
 30
0.0
 10
309.6925936097
 20
149.8156900692
 30
0.0
 10
310.411717479
 20
149.8479721755
 30
0.0
 10
311.4678321823
 20
149.8869308715
 30
0.0
 10
312.89836674
 20
149.931849192
 30
0.0
 10
314.5114017491
 20
149.9769579811
 30
0.0
 10
316.2542696204
 20
150.0222115295
 30
0.0
 10
318.0700831795
 20
150.0675223049
 30
0.0
 10
319.8995901106
 20
150.1128441889
 30
0.0
 10
321.6830791021
 20
150.1581323366
 30
0.0
 10
323.3623525665
 20
150.2033101282
 30
0.0
 10
324.882587119
 20
150.2483565811
 30
0.0
 10
326.1942079931
 20
150.2929111383
 30
0.0
 10
327.2543604557
 20
150.3372356137
 30
0.0
 10
327.9640821227
 20
150.3755546173
 30
0.0
 10
328.3806986438
 20
150.4092081879
 30
0.0
 10
328.5365603061
 20
150.4261961324
 30
0.0
 10
328.6007352491
 20
150.4359060698
 30
0.0
  0
SPLINE
  5
504
100
AcDbEntity
  8
JSG_3
100
AcDbSpline
 62
7
  6
CONTINUOUS
 70
0
 71
3
 72
9
 73
5
 74
0
 42
0.0000001
 43
0.0000001
 44
0.0000000001
 40
0.0
 40
0.0
 40
0.0
 40
0.0
 40
0.3099465731
 40
1.0
 40
1.0
 40
1.0
 40
1.0
 10
328.6007352491
 20
150.4359060698
 30
0.0
 10
328.611604676
 20
150.4375506595
 30
0.0
 10
328.646593977
 20
150.443224827
 30
0.0
 10
328.6815769755
 20
150.4498420571
 30
0.0
 10
328.7050070355
 20
150.4569162282
 30
0.0
  0
SPLINE
  5
505
100
AcDbEntity
  8
JSG_3
100
AcDbSpline
 62
7
  6
CONTINUOUS
 70
0
 71
3
 72
9
 73
5
 74
0
 42
0.0000001
 43
0.0000001
 44
0.0000000001
 40
0.0
 40
0.0
 40
0.0
 40
0.0
 40
0.6600973347
 40
1.0
 40
1.0
 40
1.0
 40
1.0
 10
328.7050070355
 20
150.4569162282
 30
0.0
 10
328.7135621024
 20
150.4594992351
 30
0.0
 10
328.7256707125
 20
150.463436848
 30
0.0
 10
328.73870012
 20
150.4720779721
 30
0.0
 10
328.7396351021
 20
150.4765836411
 30
0.0
  0
SPLINE
  5
506
100
AcDbEntity
  8
SB_10
100
AcDbSpline
 62
7
  6
CONTINUOUS
 70
0
 71
3
 72
11
 73
7
 74
0
 42
0.0000001
 43
0.0000001
 44
0.0000000001
 40
0.0
 40
0.0
 40
0.0
 40
0.0
 40
0.1952726628
 40
0.5080367229
 40
0.816362237
 40
1.0
 40
1.0
 40
1.0
 40
1.0
 10
365.4861271554
 20
205.7561963646
 30
0.0
 10
365.7417402092
 20
205.8297107559
 30
0.0
 10
366.4160626082
 20
205.9899320844
 30
0.0
 10
367.5303270694
 20
206.09138108
 30
0.0
 10
368.6271138765
 20
205.9777954909
 30
0.0
 10
369.2789477785
 20
205.8186183369
 30
0.0
 10
369.5191221854
 20
205.7487632663
 30
0.0
  0
LINE
  5
507
100
AcDbEntity
  8
SB_10
100
AcDbLine
 62
7
  6
CONTINUOUS
 10
369.5191221854
 20
205.7487632663
 11
369.589771307
 21
205.7278963625
  0
ENDSEC
  0
SECTION
  2
OBJECTS
  0
DICTIONARY
  5
C
100
AcDbDictionary
280
0
281
1
  3
ACAD_GROUP
350
D
  3
ACAD_MLINESTYLE
350
17
  3
ACAD_LAYOUT
350
1A
  3
ACAD_PLOTSETTINGS
350
19
  3
ACAD_PLOTSTYLENAME
350
E
  0
DICTIONARY
  5
D
102
{ACAD_REACTORS
330
C
102
}
100
AcDbDictionary
280
0
281
1
  0
ACDBDICTIONARYWDFLT
  5
E
102
{ACAD_REACTORS
330
C
102
}
100
AcDbDictionary
281
1
  3
Normal
350
F
100
AcDbDictionaryWithDefault
340
F
  0
DICTIONARY
  5
17
102
{ACAD_REACTORS
330
C
102
}
100
AcDbDictionary
280
0
281
1
  3
Standard
350
18
  0
DICTIONARY
  5
19
102
{ACAD_REACTORS
330
C
102
}
100
AcDbDictionary
281
1
  0
DICTIONARY
  5
1A
102
{ACAD_REACTORS
330
C
102
}
100
AcDbDictionary
281
1
  3
Model
350
508
  3
Layout1
350
509
  0
ACDBPLACEHOLDER
  5
F
102
{ACAD_REACTORS
330
E
102
}
  0
MLINESTYLE
  5
18
102
{ACAD_REACTORS
330
17
102
}
100
AcDbMlineStyle
  2
STANDARD
 70
0
  3

 62
256
 51
90.0
 52
90.0
 71
2
 49
0.5
 62
256
  6
BYLAYER
 49
-0.5
 62
256
  6
BYLAYER
  0
LAYOUT
  5
508
102
{ACAD_REACTORS
330
1A
102
}
100
AcDbPlotSettings
  1

  2
none_device
  4

  6

 40
0.0
 41
0.0
 42
0.0
 43
0.0
 44
875.0
 45
628.0
 46
0.0
 47
0.0
 48
0.0
 49
0.0
140
0.0
141
0.0
142
1.0
143
1.0
 70
1024
 72
1
 73
0
 74
0
  7

 75
0
147
1.0
148
0.0
149
0.0
100
AcDbLayout
  1
Model
 70
0
 71
0
 10
0.0
 20
0.0
 11
875.0
 21
628.0
 12
0.0
 22
0.0
 32
0.0
 14
0.0
 24
0.0
 34
0.0
 15
0.0
 25
0.0
 35
0.0
146
0.0
 13
0.0
 23
0.0
 33
0.0
 16
1.0
 26
0.0
 36
0.0
 17
0.0
 27
1.0
 37
0.0
 76
0
330
226
345
0
346
0
  0
LAYOUT
  5
509
102
{ACAD_REACTORS
330
1A
102
}
100
AcDbPlotSettings
  1

  2
none_device
  4

  6

 40
0.0
 41
0.0
 42
0.0
 43
0.0
 44
875.0
 45
628.0
 46
0.0
 47
0.0
 48
0.0
 49
0.0
140
0.0
141
0.0
142
1.0
143
1.0
 70
0
 72
1
 73
0
 74
0
  7

 75
0
147
1.0
148
0.0
149
0.0
100
AcDbLayout
  1
Layout1
 70
0
 71
1
 10
0.0
 20
0.0
 11
875.0
 21
628.0
 12
0.0
 22
0.0
 32
0.0
 14
0.0
 24
0.0
 34
0.0
 15
0.0
 25
0.0
 35
0.0
146
0.0
 13
0.0
 23
0.0
 33
0.0
 16
1.0
 26
0.0
 36
0.0
 17
0.0
 27
1.0
 37
0.0
 76
0
330
227
345
0
346
0
  0
ENDSEC
  0
EOF
