999
DXF file: S:\Engenharia\Wildfire\Engenharia\Produtos\Misturadores\94520.012\94520012.dxf
999
Pro/ENGINEER 2013150 by Parametric Technology Corporation
  0
SECTION
  2
HEADER
  9
$ACADVER
  1
AC1021
  9
$DWGCODEPAGE
  3
ANSI_1252
  9
$EXTMAX
 10
841.0
 20
594.0
 30
0.0
  9
$EXTMIN
 10
0.0
 20
0.0
 30
0.0
  9
$LIMMIN
 10
0.0
 20
0.0
  9
$LIMMAX
 10
841.0
 20
594.0
  9
$VIEWCTR
 10
420.5
 20
297.0
  9
$VIEWSIZE
 40
594.0
  9
$CLAYER
  8
0
  9
$LTSCALE
 40
46.255
  9
$CELTYPE
  6
BYLAYER
  9
$DIMSCALE
 40
1.0
  9
$DIMASZ
 40
3.0
  9
$DIMEXO
 40
0.5
  9
$DIMDLI
 40
31.958
  9
$DIMEXE
 40
0.5
  9
$DIMCEN
 40
7.569
  9
$DIMLFAC
 40
1.0
  9
$DIMBLK
  1
_FILLED
  9
$DIMTXT
 40
1.8
  9
$DIMTOL
 70
1
  9
$DIMLIM
 70
0
  9
$DIMTFAC
 40
1.0
  9
$DIMTP
 40
0.001
  9
$DIMTM
 40
0.001
  9
$DIMGAP
 40
0.625
  9
$DIMDSEP
 70
46
  9
$PDMODE
 70
3
  9
$PDSIZE
 40
1.0
  9
$HANDSEED
  5
34A
  9
$TILEMODE
 70
1
  9
$MEASUREMENT
 70
1
  9
$INSUNITS
 70
4
  0
ENDSEC
  0
SECTION
  2
CLASSES
  0
CLASS
  1
ACDBDICTIONARYWDFLT
  2
AcDbDictionaryWithDefault
  3
AutoCAD 2000
 90
0
 91
1
280
0
281
0
  0
CLASS
  1
ACDBPLACEHOLDER
  2
AcDbPlaceHolder
  3
AutoCAD 2000
 90
0
 91
1
280
0
281
0
  0
CLASS
  1
LAYOUT
  2
AcDbLayout
  3
AutoCAD 2000
 90
0
 91
0
280
0
281
0
  0
ENDSEC
  0
SECTION
  2
TABLES
  0
TABLE
  2
VPORT
  5
8
100
AcDbSymbolTable
 70
2
  0
VPORT
  5
1F4
100
AcDbSymbolTableRecord
100
AcDbViewportTableRecord
  2
*ACTIVE
 70
0
 10
0.0
 20
0.0
 11
1.0
 21
1.0
 12
420.5
 22
297.0
 13
0.0
 23
0.0
 14
1.0
 24
1.0
 15
0.0
 25
0.0
 16
0.0
 26
0.0
 36
1.0
 17
0.0
 27
0.0
 37
0.0
 40
594.0
 41
1.4158249158
 42
50.0
 43
0.0
 44
0.0
 50
0.0
 51
0.0
 71
0
 72
100
 73
1
 74
1
 75
0
 76
0
 77
0
 78
0
  0
ENDTAB
  0
TABLE
  2
LTYPE
  5
5
100
AcDbSymbolTable
 70
6
  0
LTYPE
  5
14
100
AcDbSymbolTableRecord
100
AcDbLinetypeTableRecord
  2
BYBLOCK
 70
0
  3

 72
65
 73
0
 40
0.0
  0
LTYPE
  5
15
100
AcDbSymbolTableRecord
100
AcDbLinetypeTableRecord
  2
BYLAYER
 70
0
  3

 72
65
 73
0
 40
0.0
  0
LTYPE
  5
16
100
AcDbSymbolTableRecord
100
AcDbLinetypeTableRecord
  2
CONTINUOUS
 70
64
  3
Solid line
 72
65
 73
0
 40
0.0
  0
LTYPE
  5
1F5
100
AcDbSymbolTableRecord
100
AcDbLinetypeTableRecord
  2
CENTER
 70
64
  3
____ _ ____ _ ____ _ ____ _ ____ _ ____ _ ____
 72
65
 73
4
 40
0.6
 49
0.375
 74
0
 49
-0.075
 74
0
 49
0.075
 74
0
 49
-0.075
 74
0
  0
LTYPE
  5
1F6
100
AcDbSymbolTableRecord
100
AcDbLinetypeTableRecord
  2
HIDDEN
 70
64
  3
- - - - - - - - - - - - - - - - - - - -
 72
65
 73
2
 40
0.2
 49
0.1
 74
0
 49
-0.1
 74
0
  0
LTYPE
  5
1F7
100
AcDbSymbolTableRecord
100
AcDbLinetypeTableRecord
  2
PHANTOM
 70
64
  3
_____ _ _ _____ _ _ _____ _ _ _____
 72
65
 73
6
 40
0.8
 49
0.45
 74
0
 49
-0.05
 74
0
 49
0.1
 74
0
 49
-0.05
 74
0
 49
0.1
 74
0
 49
-0.05
 74
0
  0
LTYPE
  5
1F8
100
AcDbSymbolTableRecord
100
AcDbLinetypeTableRecord
  2
DOT
 70
64
  3
. . . . . . . . . . . . . . . . . . . .
 72
65
 73
2
 40
0.2
 49
0.1
 74
0
 49
-0.1
 74
0
  0
LTYPE
  5
1F9
100
AcDbSymbolTableRecord
100
AcDbLinetypeTableRecord
  2
DASHED
 70
64
  3
- - - - - - - - - - - - - - - - - - - -
 72
65
 73
2
 40
0.2
 49
0.1
 74
0
 49
-0.1
 74
0
  0
ENDTAB
  0
TABLE
  2
LAYER
  5
2
100
AcDbSymbolTable
 70
36
  0
LAYER
  5
10
100
AcDbSymbolTableRecord
100
AcDbLayerTableRecord
  2
0
 70
0
 62
7
  6
CONTINUOUS
370
-3
390
F
  0
LAYER
  5
1FA
100
AcDbSymbolTableRecord
100
AcDbLayerTableRecord
  2
DEFAULT_1
 70
0
 62
7
  6
CENTER
370
-3
390
F
  0
LAYER
  5
1FB
100
AcDbSymbolTableRecord
100
AcDbLayerTableRecord
  2
DEFAULT_2
 70
0
 62
8
  6
HIDDEN
370
-3
390
F
  0
LAYER
  5
1FC
100
AcDbSymbolTableRecord
100
AcDbLayerTableRecord
  2
DEFAULT_3
 70
0
 62
7
  6
PHANTOM
370
-3
390
F
  0
LAYER
  5
1FD
100
AcDbSymbolTableRecord
100
AcDbLayerTableRecord
  2
01_ALL_DTM_PLN
 70
0
 62
7
  6
CONTINUOUS
370
-3
390
F
  0
LAYER
  5
1FE
100
AcDbSymbolTableRecord
100
AcDbLayerTableRecord
  2
01__ASM_ALL_DTM_PLN
 70
0
 62
7
  6
CONTINUOUS
370
-3
390
F
  0
LAYER
  5
1FF
100
AcDbSymbolTableRecord
100
AcDbLayerTableRecord
  2
01__ASM_DEF_DTM_PLN
 70
0
 62
7
  6
CONTINUOUS
370
-3
390
F
  0
LAYER
  5
200
100
AcDbSymbolTableRecord
100
AcDbLayerTableRecord
  2
01___PRT_ALL_DTM_PLN
 70
0
 62
7
  6
CONTINUOUS
370
-3
390
F
  0
LAYER
  5
201
100
AcDbSymbolTableRecord
100
AcDbLayerTableRecord
  2
01___PRT_DEF_DTM_PLN
 70
0
 62
7
  6
CONTINUOUS
370
-3
390
F
  0
LAYER
  5
202
100
AcDbSymbolTableRecord
100
AcDbLayerTableRecord
  2
02_ALL_AXES
 70
0
 62
7
  6
CONTINUOUS
370
-3
390
F
  0
LAYER
  5
203
100
AcDbSymbolTableRecord
100
AcDbLayerTableRecord
  2
02__ASM_ALL_AXES
 70
0
 62
7
  6
CONTINUOUS
370
-3
390
F
  0
LAYER
  5
204
100
AcDbSymbolTableRecord
100
AcDbLayerTableRecord
  2
02___PRT_ALL_AXES
 70
0
 62
7
  6
CONTINUOUS
370
-3
390
F
  0
LAYER
  5
205
100
AcDbSymbolTableRecord
100
AcDbLayerTableRecord
  2
03_ALL_CURVES
 70
0
 62
7
  6
CONTINUOUS
370
-3
390
F
  0
LAYER
  5
206
100
AcDbSymbolTableRecord
100
AcDbLayerTableRecord
  2
03__ASM_ALL_CURVES
 70
0
 62
7
  6
CONTINUOUS
370
-3
390
F
  0
LAYER
  5
207
100
AcDbSymbolTableRecord
100
AcDbLayerTableRecord
  2
03___PRT_ALL_CURVES
 70
0
 62
7
  6
CONTINUOUS
370
-3
390
F
  0
LAYER
  5
208
100
AcDbSymbolTableRecord
100
AcDbLayerTableRecord
  2
04_ALL_DTM_PNT
 70
0
 62
7
  6
CONTINUOUS
370
-3
390
F
  0
LAYER
  5
209
100
AcDbSymbolTableRecord
100
AcDbLayerTableRecord
  2
04__ASM_ALL_DTM_PNT
 70
0
 62
7
  6
CONTINUOUS
370
-3
390
F
  0
LAYER
  5
20A
100
AcDbSymbolTableRecord
100
AcDbLayerTableRecord
  2
04___PRT_ALL_DTM_PNT
 70
0
 62
7
  6
CONTINUOUS
370
-3
390
F
  0
LAYER
  5
20B
100
AcDbSymbolTableRecord
100
AcDbLayerTableRecord
  2
05_ALL_DTM_CSYS
 70
0
 62
7
  6
CONTINUOUS
370
-3
390
F
  0
LAYER
  5
20C
100
AcDbSymbolTableRecord
100
AcDbLayerTableRecord
  2
05__ASM_ALL_DTM_CSYS
 70
0
 62
7
  6
CONTINUOUS
370
-3
390
F
  0
LAYER
  5
20D
100
AcDbSymbolTableRecord
100
AcDbLayerTableRecord
  2
05__ASM_DEF_DTM_CSYS
 70
0
 62
7
  6
CONTINUOUS
370
-3
390
F
  0
LAYER
  5
20E
100
AcDbSymbolTableRecord
100
AcDbLayerTableRecord
  2
05___PRT_ALL_DTM_CSYS
 70
0
 62
7
  6
CONTINUOUS
370
-3
390
F
  0
LAYER
  5
20F
100
AcDbSymbolTableRecord
100
AcDbLayerTableRecord
  2
05___PRT_DEF_DTM_CSYS
 70
0
 62
7
  6
CONTINUOUS
370
-3
390
F
  0
LAYER
  5
210
100
AcDbSymbolTableRecord
100
AcDbLayerTableRecord
  2
06_ALL_SURFS
 70
0
 62
7
  6
CONTINUOUS
370
-3
390
F
  0
LAYER
  5
211
100
AcDbSymbolTableRecord
100
AcDbLayerTableRecord
  2
06__ASM_ALL_SURFS
 70
0
 62
7
  6
CONTINUOUS
370
-3
390
F
  0
LAYER
  5
212
100
AcDbSymbolTableRecord
100
AcDbLayerTableRecord
  2
06___PRT_ALL_SURFS
 70
0
 62
7
  6
CONTINUOUS
370
-3
390
F
  0
LAYER
  5
213
100
AcDbSymbolTableRecord
100
AcDbLayerTableRecord
  2
07__ASM_ALL_SKELETONS
 70
0
 62
7
  6
CONTINUOUS
370
-3
390
F
  0
LAYER
  5
214
100
AcDbSymbolTableRecord
100
AcDbLayerTableRecord
  2
37-10_5_____1
 70
0
 62
7
  6
CONTINUOUS
370
-3
390
F
  0
LAYER
  5
215
100
AcDbSymbolTableRecord
100
AcDbLayerTableRecord
  2
70101-16_DEFAULT_1
 70
0
 62
7
  6
CONTINUOUS
370
-3
390
F
  0
LAYER
  5
216
100
AcDbSymbolTableRecord
100
AcDbLayerTableRecord
  2
70101-24____DEFAULT_1
 70
0
 62
7
  6
CONTINUOUS
370
-3
390
F
  0
LAYER
  5
217
100
AcDbSymbolTableRecord
100
AcDbLayerTableRecord
  2
70101G-01-01_DEFAULT_1
 70
0
 62
7
  6
CONTINUOUS
370
-3
390
F
  0
LAYER
  5
218
100
AcDbSymbolTableRecord
100
AcDbLayerTableRecord
  2
70101G-01-02_DEFAULT_1
 70
0
 62
7
  6
CONTINUOUS
370
-3
390
F
  0
LAYER
  5
219
100
AcDbSymbolTableRecord
100
AcDbLayerTableRecord
  2
70101G-01-03_DEFAULT_1
 70
0
 62
7
  6
CONTINUOUS
370
-3
390
F
  0
LAYER
  5
21A
100
AcDbSymbolTableRecord
100
AcDbLayerTableRecord
  2
70101G-01-04_DEFAULT_1
 70
0
 62
7
  6
CONTINUOUS
370
-3
390
F
  0
LAYER
  5
21B
100
AcDbSymbolTableRecord
100
AcDbLayerTableRecord
  2
70101G-01_ASM_1
 70
0
 62
7
  6
CONTINUOUS
370
-3
390
F
  0
LAYER
  5
21C
100
AcDbSymbolTableRecord
100
AcDbLayerTableRecord
  2
70101G-02-01_DEFAULT_1
 70
0
 62
7
  6
CONTINUOUS
370
-3
390
F
  0
LAYER
  5
21D
100
AcDbSymbolTableRecord
100
AcDbLayerTableRecord
  2
70101G-04_DEFAULT_1
 70
0
 62
7
  6
CONTINUOUS
370
-3
390
F
  0
LAYER
  5
21E
100
AcDbSymbolTableRecord
100
AcDbLayerTableRecord
  2
70101G-10-01_2
 70
0
 62
7
  6
CONTINUOUS
370
-3
390
F
  0
LAYER
  5
21F
100
AcDbSymbolTableRecord
100
AcDbLayerTableRecord
  2
70101______1
 70
0
 62
7
  6
CONTINUOUS
370
-3
390
F
  0
LAYER
  5
220
100
AcDbSymbolTableRecord
100
AcDbLayerTableRecord
  2
70105-12_DEFAULT_1
 70
0
 62
7
  6
CONTINUOUS
370
-3
390
F
  0
LAYER
  5
221
100
AcDbSymbolTableRecord
100
AcDbLayerTableRecord
  2
70111-05_DEFAULT_1
 70
0
 62
7
  6
CONTINUOUS
370
-3
390
F
  0
LAYER
  5
222
100
AcDbSymbolTableRecord
100
AcDbLayerTableRecord
  2
70111C-02-02_DEFAULT_1
 70
0
 62
7
  6
CONTINUOUS
370
-3
390
F
  0
LAYER
  5
223
100
AcDbSymbolTableRecord
100
AcDbLayerTableRecord
  2
70111C-04_DEFAULT_1
 70
0
 62
7
  6
CONTINUOUS
370
-3
390
F
  0
LAYER
  5
224
100
AcDbSymbolTableRecord
100
AcDbLayerTableRecord
  2
70111H-01_ASM_2
 70
0
 62
7
  6
CONTINUOUS
370
-3
390
F
  0
LAYER
  5
225
100
AcDbSymbolTableRecord
100
AcDbLayerTableRecord
  2
70111H-TUBE_ASM_2
 70
0
 62
7
  6
CONTINUOUS
370
-3
390
F
  0
LAYER
  5
226
100
AcDbSymbolTableRecord
100
AcDbLayerTableRecord
  2
70113-10-02_DEFAULT_2
 70
0
 62
7
  6
CONTINUOUS
370
-3
390
F
  0
LAYER
  5
227
100
AcDbSymbolTableRecord
100
AcDbLayerTableRecord
  2
70113-16_DEFAULT_2
 70
0
 62
7
  6
CONTINUOUS
370
-3
390
F
  0
LAYER
  5
228
100
AcDbSymbolTableRecord
100
AcDbLayerTableRecord
  2
ASM0001_ASM_1
 70
0
 62
7
  6
CONTINUOUS
370
-3
390
F
  0
LAYER
  5
229
100
AcDbSymbolTableRecord
100
AcDbLayerTableRecord
  2
CHAMFER1_1
 70
0
 62
7
  6
CONTINUOUS
370
-3
390
F
  0
LAYER
  5
22A
100
AcDbSymbolTableRecord
100
AcDbLayerTableRecord
  2
CUT-REVOLVE1_2__1
 70
0
 62
7
  6
CONTINUOUS
370
-3
390
F
  0
LAYER
  5
22B
100
AcDbSymbolTableRecord
100
AcDbLayerTableRecord
  2
FILLET1_1
 70
0
 62
7
  6
CONTINUOUS
370
-3
390
F
  0
LAYER
  5
22C
100
AcDbSymbolTableRecord
100
AcDbLayerTableRecord
  2
H35_DEFAULT_ASM_1
 70
0
 62
7
  6
CONTINUOUS
370
-3
390
F
  0
LAYER
  5
22D
100
AcDbSymbolTableRecord
100
AcDbLayerTableRecord
  2
PA-KLD_DEFAULT_1
 70
0
 62
7
  6
CONTINUOUS
370
-3
390
F
  0
LAYER
  5
22E
100
AcDbSymbolTableRecord
100
AcDbLayerTableRecord
  2
PF7107_ASM_2
 70
0
 62
7
  6
CONTINUOUS
370
-3
390
F
  0
LAYER
  5
22F
100
AcDbSymbolTableRecord
100
AcDbLayerTableRecord
  2
PP-18___X3_1
 70
0
 62
7
  6
CONTINUOUS
370
-3
390
F
  0
LAYER
  5
230
100
AcDbSymbolTableRecord
100
AcDbLayerTableRecord
  2
PP-50_35_2_DEFAULT_1
 70
0
 62
7
  6
CONTINUOUS
370
-3
390
F
  0
LAYER
  5
231
100
AcDbSymbolTableRecord
100
AcDbLayerTableRecord
  2
PP_M5_4__________1
 70
0
 62
7
  6
CONTINUOUS
370
-3
390
F
  0
LAYER
  5
232
100
AcDbSymbolTableRecord
100
AcDbLayerTableRecord
  2
RUBBER_RING__10__1_5_1
 70
0
 62
7
  6
CONTINUOUS
370
-3
390
F
  0
LAYER
  5
233
100
AcDbSymbolTableRecord
100
AcDbLayerTableRecord
  2
SCREW-04AA_GB_FASTENER_SCREWS_H
 70
0
 62
7
  6
CONTINUOUS
370
-3
390
F
  0
LAYER
  5
234
100
AcDbSymbolTableRecord
100
AcDbLayerTableRecord
  2
ZSB-003____1
 70
0
 62
7
  6
CONTINUOUS
370
-3
390
F
  0
LAYER
  5
235
100
AcDbSymbolTableRecord
100
AcDbLayerTableRecord
  2
_H35-1_-_FILLET1__1
 70
0
 62
7
  6
CONTINUOUS
370
-3
390
F
  0
ENDTAB
  0
TABLE
  2
STYLE
  5
3
100
AcDbSymbolTable
 70
1
  0
STYLE
  5
11
100
AcDbSymbolTableRecord
100
AcDbTextStyleTableRecord
  2
STANDARD
 70
0
 40
0.0
 41
0.8
 50
0.0
 71
0
 42
0.2
  3
txt
  4

  0
STYLE
  5
236
100
AcDbSymbolTableRecord
100
AcDbTextStyleTableRecord
  2
TEXTSTYLE_1
 70
0
 40
0.0
 41
0.8
 50
0.0
 71
0
 42
0.2
  3
gdt
  4

  0
ENDTAB
  0
TABLE
  2
VIEW
  5
6
100
AcDbSymbolTable
 70
0
  0
ENDTAB
  0
TABLE
  2
UCS
  5
7
100
AcDbSymbolTable
 70
0
  0
ENDTAB
  0
TABLE
  2
APPID
  5
9
100
AcDbSymbolTable
 70
1
  0
APPID
  5
237
100
AcDbSymbolTableRecord
100
AcDbRegAppTableRecord
  2
ACAD
 70
0
  0
ENDTAB
  0
TABLE
  2
BLOCK_RECORD
  5
1
100
AcDbSymbolTable
 70
0
  0
BLOCK_RECORD
  5
238
100
AcDbSymbolTableRecord
100
AcDbBlockTableRecord
  2
*Model_Space
  0
BLOCK_RECORD
  5
239
100
AcDbSymbolTableRecord
100
AcDbBlockTableRecord
  2
*Paper_Space
  0
BLOCK_RECORD
  5
23A
100
AcDbSymbolTableRecord
100
AcDbBlockTableRecord
  2
_FILLED
  0
BLOCK_RECORD
  5
23B
100
AcDbSymbolTableRecord
100
AcDbBlockTableRecord
  2
*D0
  0
BLOCK_RECORD
  5
23C
100
AcDbSymbolTableRecord
100
AcDbBlockTableRecord
  2
*D1
  0
ENDTAB
  0
TABLE
  2
DIMSTYLE
  5
A
100
AcDbSymbolTable
 70
1
100
AcDbDimStyleTable
 71
0
  0
DIMSTYLE
105
23D
100
AcDbSymbolTableRecord
100
AcDbDimStyleTableRecord
  2
STANDARD
 70
0
  3

  4

 40
1.0
 41
3.0
 42
0.5
 43
0.38
 44
0.5
 45
0.0
 46
0.0
 47
0.001
 48
0.001
140
1.8
141
0.09
142
0.0
143
25.4
144
1.0
145
0.0
146
1.0
147
0.625
 71
1.0
 72
0.0
 73
0
 74
0
 75
0
 76
0
 77
1
 78
8
170
0
171
2
172
0
173
0
174
0
175
0
176
0
177
0
178
0
270
2
271
3
272
3
273
2
274
2
275
0
280
0
281
0
282
0
283
1
284
8
285
0
286
0
287
3
288
0
340
11
278
46
341
23A
342
23A
343
23A
344
23A
  0
DIMSTYLE
105
23E
100
AcDbSymbolTableRecord
100
AcDbDimStyleTableRecord
  2
DIMSTYLE_1
 70
0
  3

  4

 40
1.0
 41
3.0
 42
0.5
 43
0.38
 44
0.5
 45
0.0
 46
0.0
 47
0.001
 48
0.001
140
1.8
141
0.09
142
0.0
143
25.4
144
1.0
145
0.0
146
1.0
147
0.45
 71
0.0
 72
0.0
 73
0
 74
0
 75
0
 76
0
 77
1
 78
8
170
0
171
2
172
0
173
0
174
0
175
0
176
0
177
0
178
0
270
2
271
3
272
3
273
2
274
2
275
0
280
0
281
0
282
0
283
1
284
8
285
0
286
0
287
3
288
0
340
11
278
46
341
23A
342
23A
343
23A
344
23A
  0
ENDTAB
  0
ENDSEC
  0
SECTION
  2
BLOCKS
  0
BLOCK
  5
20
100
AcDbEntity
  8
0
100
AcDbBlockBegin
  2
*Model_Space
 70
0
 10
0.0
 20
0.0
 30
0.0
  3
*Model_Space
  1

  0
ENDBLK
  5
21
100
AcDbEntity
  8
0
100
AcDbBlockEnd
  0
BLOCK
  5
1C
100
AcDbEntity
  8
0
100
AcDbBlockBegin
  2
*Paper_Space
 70
0
 10
0.0
 20
0.0
 30
0.0
  3
*Paper_Space
  1

  0
ENDBLK
  5
1D
100
AcDbEntity
  8
0
100
AcDbBlockEnd
  0
BLOCK
  5
23F
100
AcDbEntity
  8
0
100
AcDbBlockBegin
  2
_FILLED
 70
64
 10
0.0
 20
0.0
  3
_FILLED
  1

  0
SOLID
  5
240
100
AcDbEntity
  8
0
  6
BYBLOCK
 62
0
100
AcDbTrace
 10
0.0
 20
0.0
 11
-1.0
 21
0.1666666667
 12
-1.0
 22
-0.1666666667
 13
-1.0
 23
-0.1666666667
  0
ENDBLK
  5
241
100
AcDbEntity
  8
0
  6
BYBLOCK
 62
0
100
AcDbBlockEnd
  0
BLOCK
  5
242
100
AcDbEntity
  8
0
100
AcDbBlockBegin
 62
2
  6
CONTINUOUS
  2
*D0
 70
65
 10
0.0
 20
0.0
  3
*D0
  1

  0
MTEXT
  5
243
100
AcDbEntity
  8
0
100
AcDbMText
 62
2
  6
CONTINUOUS
  7
STANDARD
 71
2
 72
1
 10
559.4160542647
 20
288.7716566865
 30
0.0
 11
0.0
 21
1.0
 31
0.0
 44
0.9
  1
442.8
 40
1.8
 41
13.8857142857
  0
LINE
  5
244
100
AcDbEntity
  8
0
100
AcDbLine
 62
2
  6
CONTINUOUS
 10
325.1565093245
 20
510.1714280673
 11
562.4874828361
 21
510.1714280673
  0
LINE
  5
245
100
AcDbEntity
  8
0
100
AcDbLine
 62
2
  6
CONTINUOUS
 10
518.2744721738
 20
67.3718853057
 11
562.4874828361
 21
67.3718853057
  0
LINE
  5
246
100
AcDbEntity
  8
0
100
AcDbLine
 62
2
  6
CONTINUOUS
 10
561.9874828361
 20
510.1714280673
 11
561.9874828361
 21
288.7716566865
  0
LINE
  5
247
100
AcDbEntity
  8
0
100
AcDbLine
 62
2
  6
CONTINUOUS
 10
561.9874828361
 20
67.3718853057
 11
561.9874828361
 21
288.7716566865
  0
INSERT
  5
248
100
AcDbEntity
  8
0
100
AcDbBlockReference
 62
2
  6
CONTINUOUS
  2
_FILLED
 10
561.9874828361
 20
510.1714280673
 41
3.0
 42
3.0
 43
3.0
 50
90.0
  0
INSERT
  5
249
100
AcDbEntity
  8
0
100
AcDbBlockReference
 62
2
  6
CONTINUOUS
  2
_FILLED
 10
561.9874828361
 20
67.3718853057
 41
3.0
 42
3.0
 43
3.0
 50
270.0
  0
ENDBLK
  5
24A
100
AcDbEntity
  8
0
  6
BYBLOCK
 62
0
100
AcDbBlockEnd
  0
BLOCK
  5
24B
100
AcDbEntity
  8
0
100
AcDbBlockBegin
 62
2
  6
CONTINUOUS
  2
*D1
 70
65
 10
0.0
 20
0.0
  3
*D1
  1

  0
MTEXT
  5
24C
100
AcDbEntity
  8
0
100
AcDbMText
 62
2
  6
CONTINUOUS
  7
STANDARD
 71
2
 72
1
 10
399.4514100147
 20
519.7428566848
 30
0.0
 11
1.0
 21
0.0
 31
0.0
 44
0.9
  1
242
 40
1.8
 41
8.3314285714
  0
LINE
  5
24D
100
AcDbEntity
  8
0
100
AcDbLine
 62
2
  6
CONTINUOUS
 10
278.4514100147
 20
460.6718853057
 11
278.4514100147
 21
517.6714281134
  0
LINE
  5
24E
100
AcDbEntity
  8
0
100
AcDbLine
 62
2
  6
CONTINUOUS
 10
520.4514100147
 20
459.6718853057
 11
520.4514100147
 21
517.6714281134
  0
LINE
  5
24F
100
AcDbEntity
  8
0
100
AcDbLine
 62
2
  6
CONTINUOUS
 10
278.4514100147
 20
517.1714281134
 11
399.4514100147
 21
517.1714281134
  0
LINE
  5
250
100
AcDbEntity
  8
0
100
AcDbLine
 62
2
  6
CONTINUOUS
 10
520.4514100147
 20
517.1714281134
 11
399.4514100147
 21
517.1714281134
  0
INSERT
  5
251
100
AcDbEntity
  8
0
100
AcDbBlockReference
 62
2
  6
CONTINUOUS
  2
_FILLED
 10
278.4514100147
 20
517.1714281134
 41
3.0
 42
3.0
 43
3.0
 50
180.0
  0
INSERT
  5
252
100
AcDbEntity
  8
0
100
AcDbBlockReference
 62
2
  6
CONTINUOUS
  2
_FILLED
 10
520.4514100147
 20
517.1714281134
 41
3.0
 42
3.0
 43
3.0
  0
ENDBLK
  5
253
100
AcDbEntity
  8
0
  6
BYBLOCK
 62
0
100
AcDbBlockEnd
  0
ENDSEC
  0
SECTION
  2
ENTITIES
  0
DIMENSION
  5
254
100
AcDbEntity
  8
0
100
AcDbDimension
 62
2
  6
CONTINUOUS
  2
*D0
 10
561.9874828361
 20
67.3718853057
 11
561.9874828361
 21
288.7716566865
 70
160
 71
2
 42
442.7995427616
  3
DIMSTYLE_1
100
AcDbAlignedDimension
 13
324.6565093245
 23
510.1714280673
 14
517.7744721738
 24
67.3718853057
 50
270.0
100
AcDbRotatedDimension
  0
DIMENSION
  5
255
100
AcDbEntity
  8
0
100
AcDbDimension
 62
2
  6
CONTINUOUS
  2
*D1
 10
520.4514100147
 20
517.1714281134
 11
399.4514100147
 21
517.1714281134
 70
160
 71
2
 42
242.0
  3
DIMSTYLE_1
100
AcDbAlignedDimension
 13
278.4514100147
 23
460.1718853057
 14
520.4514100147
 24
459.1718853057
100
AcDbRotatedDimension
  0
LINE
  5
256
100
AcDbEntity
  8
PA-KLD_DEFAULT_1
100
AcDbLine
 62
7
  6
CONTINUOUS
 10
482.4306671079
 20
67.3718853057
 11
536.4306459098
 21
67.3718853057
  0
LINE
  5
257
100
AcDbEntity
  8
PA-KLD_DEFAULT_1
100
AcDbLine
 62
7
  6
CONTINUOUS
 10
535.9244506855
 20
96.3718853057
 11
532.1284754298
 21
96.3718853057
  0
LINE
  5
258
100
AcDbEntity
  8
PA-KLD_DEFAULT_1
100
AcDbLine
 62
7
  6
CONTINUOUS
 10
523.9911197477
 20
96.3718853057
 11
517.594744005
 21
96.3718853057
  0
LINE
  5
259
100
AcDbEntity
  8
PA-KLD_DEFAULT_1
100
AcDbLine
 62
7
  6
CONTINUOUS
 10
501.2988493826
 20
96.3718853057
 11
494.896928079
 21
96.3718853057
  0
LINE
  5
25A
100
AcDbEntity
  8
PA-KLD_DEFAULT_1
100
AcDbLine
 62
7
  6
CONTINUOUS
 10
486.7383891388
 20
96.3718853057
 11
482.9368638482
 21
96.3718853057
  0
LINE
  5
25B
100
AcDbEntity
  8
PA-KLD_DEFAULT_1
100
AcDbLine
 62
7
  6
CONTINUOUS
 10
531.9522239197
 20
123.4264223826
 11
486.9091014308
 21
123.4264223826
  0
LINE
  5
25C
100
AcDbEntity
  8
PA-KLD_DEFAULT_1
100
AcDbLine
 62
7
  6
CONTINUOUS
 10
530.1844084295
 20
124.4470711317
 11
488.6769164231
 21
124.4470711317
  0
LINE
  5
25D
100
AcDbEntity
  8
70105-12_DEFAULT_1
100
AcDbLine
 62
7
  6
CONTINUOUS
 10
482.07625771
 20
141.8718853057
 11
536.77620552
 21
141.8718853057
  0
LINE
  5
25E
100
AcDbEntity
  8
70105-12_DEFAULT_1
100
AcDbLine
 62
7
  6
CONTINUOUS
 10
536.776204438
 20
142.6718853057
 11
482.07625771
 21
142.6718853057
  0
LINE
  5
25F
100
AcDbEntity
  8
70101G-10-01_2
100
AcDbLine
 62
7
  6
CONTINUOUS
 10
278.4514100147
 20
464.1718853057
 11
278.4514100147
 21
460.1718853057
  0
LINE
  5
260
100
AcDbEntity
  8
PF7107_ASM_2
100
AcDbLine
 62
7
  6
CONTINUOUS
 10
278.4514100147
 20
460.1718853057
 11
278.4514100147
 21
444.1718853057
  0
LINE
  5
261
100
AcDbEntity
  8
PF7107_ASM_2
100
AcDbLine
 62
7
  6
CONTINUOUS
 10
278.7014100147
 20
441.1718853057
 11
278.7014100147
 21
417.1718853057
  0
LINE
  5
262
100
AcDbEntity
  8
PF7107_ASM_2
100
AcDbLine
 62
7
  6
CONTINUOUS
 10
283.7014100147
 20
444.1718853057
 11
283.7014100147
 21
441.1718853057
  0
LINE
  5
263
100
AcDbEntity
  8
PF7107_ASM_2
100
AcDbLine
 62
7
  6
CONTINUOUS
 10
284.9514100147
 20
446.1718853057
 11
284.9514100147
 21
444.1718853057
  0
LINE
  5
264
100
AcDbEntity
  8
PF7107_ASM_2
100
AcDbLine
 62
7
  6
CONTINUOUS
 10
284.9514100147
 20
441.1718853057
 11
284.9514100147
 21
436.1718853057
  0
LINE
  5
265
100
AcDbEntity
  8
PF7107_ASM_2
100
AcDbLine
 62
7
  6
CONTINUOUS
 10
293.9514100147
 20
446.1718853057
 11
293.9514100147
 21
444.1718853057
  0
LINE
  5
266
100
AcDbEntity
  8
PF7107_ASM_2
100
AcDbLine
 62
7
  6
CONTINUOUS
 10
293.9514100147
 20
441.1718853057
 11
293.9514100147
 21
436.1718853057
  0
LINE
  5
267
100
AcDbEntity
  8
PF7107_ASM_2
100
AcDbLine
 62
7
  6
CONTINUOUS
 10
295.2014100147
 20
444.1718853057
 11
295.2014100147
 21
441.1718853057
  0
LINE
  5
268
100
AcDbEntity
  8
PF7107_ASM_2
100
AcDbLine
 62
7
  6
CONTINUOUS
 10
300.2014100147
 20
441.1718853057
 11
300.2014100147
 21
417.1718853057
  0
LINE
  5
269
100
AcDbEntity
  8
70101G-10-01_2
100
AcDbLine
 62
7
  6
CONTINUOUS
 10
300.4514100147
 20
464.1718853057
 11
300.4514100147
 21
460.1718853057
  0
LINE
  5
26A
100
AcDbEntity
  8
PF7107_ASM_2
100
AcDbLine
 62
7
  6
CONTINUOUS
 10
300.4514100147
 20
460.1718853057
 11
300.4514100147
 21
444.1718853057
  0
LINE
  5
26B
100
AcDbEntity
  8
PP-50_35_2_DEFAULT_1
100
AcDbLine
 62
7
  6
CONTINUOUS
 10
484.4514100147
 20
172.1718853057
 11
534.4514100147
 21
172.1718853057
  0
LINE
  5
26C
100
AcDbEntity
  8
PP-50_35_2_DEFAULT_1
100
AcDbLine
 62
7
  6
CONTINUOUS
 10
534.4514100147
 20
174.1718853057
 11
484.4514100147
 21
174.1718853057
  0
LINE
  5
26D
100
AcDbEntity
  8
70101G-04_DEFAULT_1
100
AcDbLine
 62
7
  6
CONTINUOUS
 10
483.5015051063
 20
174.6718853057
 11
535.4013149231
 21
174.6718853057
  0
LINE
  5
26E
100
AcDbEntity
  8
70101G-04_DEFAULT_1
100
AcDbLine
 62
7
  6
CONTINUOUS
 10
535.4014100147
 20
180.6718853057
 11
483.5014100147
 21
180.6718853057
  0
LINE
  5
26F
100
AcDbEntity
  8
70101G-04_DEFAULT_1
100
AcDbLine
 62
7
  6
CONTINUOUS
 10
533.7013443651
 20
182.3718853057
 11
485.2014756643
 21
182.3718853057
  0
LINE
  5
270
100
AcDbEntity
  8
70101G-01-01_DEFAULT_1
100
AcDbLine
 62
7
  6
CONTINUOUS
 10
486.8014100147
 20
208.2718853057
 11
532.1014100147
 21
208.2718853057
  0
LINE
  5
271
100
AcDbEntity
  8
PA-KLD_DEFAULT_1
100
AcDbLine
 62
7
  6
CONTINUOUS
 10
530.1844084295
 20
124.4470711317
 11
531.9522239197
 21
123.4264223826
  0
LINE
  5
272
100
AcDbEntity
  8
70101G-02-01_DEFAULT_1
100
AcDbLine
 62
40
  6
CONTINUOUS
 10
497.0789033519
 20
232.0343079735
 11
524.4518366643
 21
231.9105927441
  0
LINE
  5
273
100
AcDbEntity
  8
70101G-02-01_DEFAULT_1
100
AcDbLine
 62
40
  6
CONTINUOUS
 10
523.4580500442
 20
233.4341801993
 11
523.0874304572
 21
233.4358552586
  0
LINE
  5
274
100
AcDbEntity
  8
70101G-02-01_DEFAULT_1
100
AcDbLine
 62
40
  6
CONTINUOUS
 10
520.5259592234
 20
233.4474321327
 11
520.2316132715
 21
233.4487624642
  0
LINE
  5
275
100
AcDbEntity
  8
70101G-02-01_DEFAULT_1
100
AcDbLine
 62
40
  6
CONTINUOUS
 10
521.3581479894
 20
233.4436709565
 11
520.8194783609
 21
233.446105538
  0
LINE
  5
276
100
AcDbEntity
  8
70101G-02-01_DEFAULT_1
100
AcDbLine
 62
40
  6
CONTINUOUS
 10
518.7075874962
 20
233.4556504801
 11
518.4177890238
 21
233.4569602588
  0
LINE
  5
277
100
AcDbEntity
  8
70101G-02-01_DEFAULT_1
100
AcDbLine
 62
40
  6
CONTINUOUS
 10
516.0320158653
 20
233.4677430444
 11
515.6996364476
 21
233.4692452728
  0
LINE
  5
278
100
AcDbEntity
  8
70101G-02-01_DEFAULT_1
100
AcDbLine
 62
40
  6
CONTINUOUS
 10
514.4013310232
 20
233.4751131186
 11
514.1071917748
 21
233.476442516
  0
LINE
  5
279
100
AcDbEntity
  8
70101G-02-01_DEFAULT_1
100
AcDbLine
 62
40
  6
CONTINUOUS
 10
512.5839928141
 20
233.4833267949
 11
512.2939876381
 21
233.4846375078
  0
LINE
  5
27A
100
AcDbEntity
  8
70101G-02-01_DEFAULT_1
100
AcDbLine
 62
40
  6
CONTINUOUS
 10
505.3334500068
 20
233.5160964859
 11
504.9626237162
 21
233.5177724795
  0
LINE
  5
27B
100
AcDbEntity
  8
70101G-02-01_DEFAULT_1
100
AcDbLine
 62
40
  6
CONTINUOUS
 10
503.2331345447
 20
233.5255891116
 11
502.6946716199
 21
233.5280227588
  0
LINE
  5
27C
100
AcDbEntity
  8
70101G-02-01_DEFAULT_1
100
AcDbLine
 62
40
  6
CONTINUOUS
 10
499.5221844914
 20
233.5423611919
 11
499.1899084255
 21
233.5438629532
  0
LINE
  5
27D
100
AcDbEntity
  8
70101G-02-01_DEFAULT_1
100
AcDbLine
 62
40
  6
CONTINUOUS
 10
500.8207999712
 20
233.5364919447
 11
501.1259978631
 21
233.5351125666
  0
LINE
  5
27E
100
AcDbEntity
  8
70101G-02-01_DEFAULT_1
100
AcDbLine
 62
40
  6
CONTINUOUS
 10
502.1828734618
 20
233.5303358915
 11
502.5959706423
 21
233.5284688497
  0
LINE
  5
27F
100
AcDbEntity
  8
70101G-02-01_DEFAULT_1
100
AcDbLine
 62
40
  6
CONTINUOUS
 10
505.4822766117
 20
233.5154238464
 11
506.0017228037
 21
233.5130761475
  0
LINE
  5
280
100
AcDbEntity
  8
70101G-02-01_DEFAULT_1
100
AcDbLine
 62
40
  6
CONTINUOUS
 10
508.4144707843
 20
233.5021714459
 11
508.7317608379
 21
233.5007374157
  0
LINE
  5
281
100
AcDbEntity
  8
70101G-02-01_DEFAULT_1
100
AcDbLine
 62
40
  6
CONTINUOUS
 10
517.3524385769
 20
233.4617752369
 11
517.6846112909
 21
233.4602739428
  0
LINE
  5
282
100
AcDbEntity
  8
70101G-02-01_DEFAULT_1
100
AcDbLine
 62
40
  6
CONTINUOUS
 10
507.0790636599
 20
233.7372392643
 11
507.3273147051
 21
233.7361172642
  0
LINE
  5
283
100
AcDbEntity
  8
70101G-02-01_DEFAULT_1
100
AcDbLine
 62
40
  6
CONTINUOUS
 10
522.6891692472
 20
234.0447561745
 11
521.5748300428
 21
234.0497925631
  0
LINE
  5
284
100
AcDbEntity
  8
70101G-02-01_DEFAULT_1
100
AcDbLine
 62
40
  6
CONTINUOUS
 10
504.5642591543
 20
234.1266738624
 11
503.4496098945
 21
234.1317116524
  0
LINE
  5
285
100
AcDbEntity
  8
70101G-02-01_DEFAULT_1
100
AcDbLine
 62
40
  6
CONTINUOUS
 10
501.1305900294
 20
234.5511642007
 11
501.4857068451
 21
234.5495592079
  0
LINE
  5
286
100
AcDbEntity
  8
70101G-02-01_DEFAULT_1
100
AcDbLine
 62
40
  6
CONTINUOUS
 10
522.5193653036
 20
234.526429414
 11
521.7485675122
 21
234.5299131264
  0
LINE
  5
287
100
AcDbEntity
  8
70101G-02-01_DEFAULT_1
100
AcDbLine
 62
40
  6
CONTINUOUS
 10
504.3949719698
 20
234.6083447664
 11
503.623864123
 21
234.6118298801
  0
LINE
  5
288
100
AcDbEntity
  8
70101G-02-01_DEFAULT_1
100
AcDbLine
 62
40
  6
CONTINUOUS
 10
501.4916496766
 20
235.0183457304
 11
501.132708844
 21
235.0199680062
  0
LINE
  5
289
100
AcDbEntity
  8
70101G-02-01_DEFAULT_1
100
AcDbLine
 62
40
  6
CONTINUOUS
 10
516.8020754794
 20
235.7249229637
 11
516.0422329798
 21
235.7283571623
  0
LINE
  5
28A
100
AcDbEntity
  8
70101G-02-01_DEFAULT_1
100
AcDbLine
 62
40
  6
CONTINUOUS
 10
515.4996359827
 20
235.730809494
 11
514.9500110625
 21
235.7332935892
  0
LINE
  5
28B
100
AcDbEntity
  8
70101G-02-01_DEFAULT_1
100
AcDbLine
 62
40
  6
CONTINUOUS
 10
500.2922441055
 20
235.7995411112
 11
499.5324016059
 21
235.8029753098
  0
LINE
  5
28C
100
AcDbEntity
  8
70101G-02-01_DEFAULT_1
100
AcDbLine
 62
40
  6
CONTINUOUS
 10
498.9899079605
 20
235.8054271744
 11
498.4401796886
 21
235.8079117367
  0
LINE
  5
28D
100
AcDbEntity
  8
70101G-02-01_DEFAULT_1
100
AcDbLine
 62
40
  6
CONTINUOUS
 10
501.4952417586
 20
235.8131211415
 11
501.136300926
 21
235.8147434173
  0
LINE
  5
28E
100
AcDbEntity
  8
70101G-02-01_DEFAULT_1
100
AcDbLine
 62
40
  6
CONTINUOUS
 10
522.4094814023
 20
236.1916476392
 11
521.885901138
 21
236.1940140225
  0
LINE
  5
28F
100
AcDbEntity
  8
70101G-02-01_DEFAULT_1
100
AcDbLine
 62
40
  6
CONTINUOUS
 10
520.5384002525
 20
236.2001042131
 11
520.0377640898
 21
236.2023668978
  0
LINE
  5
290
100
AcDbEntity
  8
70101G-02-01_DEFAULT_1
100
AcDbLine
 62
40
  6
CONTINUOUS
 10
518.7090732335
 20
236.2083720742
 11
518.2206325842
 21
236.2105796399
  0
LINE
  5
291
100
AcDbEntity
  8
70101G-02-01_DEFAULT_1
100
AcDbLine
 62
40
  6
CONTINUOUS
 10
517.6970523199
 20
236.2129460232
 11
517.1556955445
 21
236.2153927495
  0
LINE
  5
292
100
AcDbEntity
  8
70101G-02-01_DEFAULT_1
100
AcDbLine
 62
40
  6
CONTINUOUS
 10
516.804299394
 20
236.2169809263
 11
514.7422241012
 21
236.2263007209
  0
LINE
  5
293
100
AcDbEntity
  8
70101G-02-01_DEFAULT_1
100
AcDbLine
 62
40
  6
CONTINUOUS
 10
514.4137720522
 20
236.227785199
 11
513.9131358895
 21
236.2300478838
  0
LINE
  5
294
100
AcDbEntity
  8
70101G-02-01_DEFAULT_1
100
AcDbLine
 62
40
  6
CONTINUOUS
 10
512.5850651441
 20
236.2360502575
 11
512.0957976804
 21
236.23826156
  0
LINE
  5
295
100
AcDbEntity
  8
70101G-02-01_DEFAULT_1
100
AcDbLine
 62
40
  6
CONTINUOUS
 10
508.3162220259
 20
236.255343802
 11
507.8352227069
 21
236.2575177356
  0
LINE
  5
296
100
AcDbEntity
  8
70101G-02-01_DEFAULT_1
100
AcDbLine
 62
40
  6
CONTINUOUS
 10
506.4074174659
 20
236.2639708713
 11
505.9222840745
 21
236.2661634894
  0
LINE
  5
297
100
AcDbEntity
  8
70101G-02-01_DEFAULT_1
100
AcDbLine
 62
40
  6
CONTINUOUS
 10
504.2839511985
 20
236.2735681298
 11
503.7611977487
 21
236.2759307762
  0
LINE
  5
298
100
AcDbEntity
  8
70101G-02-01_DEFAULT_1
100
AcDbLine
 62
40
  6
CONTINUOUS
 10
501.5429578725
 20
236.2859563753
 11
500.6230234208
 21
236.2901141285
  0
LINE
  5
299
100
AcDbEntity
  8
70101G-02-01_DEFAULT_1
100
AcDbLine
 62
40
  6
CONTINUOUS
 10
500.29446802
 20
236.2915990738
 11
498.2322893754
 21
236.3009193355
  0
LINE
  5
29A
100
AcDbEntity
  8
70101G-02-01_DEFAULT_1
100
AcDbLine
 62
40
  6
CONTINUOUS
 10
524.4794260965
 20
238.0149639898
 11
497.1064927842
 21
238.1386792192
  0
LINE
  5
29B
100
AcDbEntity
  8
70101-24____DEFAULT_1
100
AcDbLine
 62
7
  6
CONTINUOUS
 10
504.6531510386
 20
257.3938014102
 11
514.4530503582
 21
257.3495095991
  0
LINE
  5
29C
100
AcDbEntity
  8
70101G-01-01_DEFAULT_1
100
AcDbLine
 62
7
  6
CONTINUOUS
 10
532.1011117827
 20
285.8718853057
 11
514.5819600395
 21
285.8718853057
  0
LINE
  5
29D
100
AcDbEntity
  8
70101G-01-01_DEFAULT_1
100
AcDbLine
 62
7
  6
CONTINUOUS
 10
504.7818605377
 20
285.8718853057
 11
486.8017082467
 21
285.8718853057
  0
LINE
  5
29E
100
AcDbEntity
  8
70111C-04_DEFAULT_1
100
AcDbLine
 62
7
  6
CONTINUOUS
 10
516.0571781318
 20
286.1618853057
 11
514.583270729
 21
286.1618853057
  0
LINE
  5
29F
100
AcDbEntity
  8
70111C-04_DEFAULT_1
100
AcDbLine
 62
7
  6
CONTINUOUS
 10
504.7831712272
 20
286.1618853057
 11
502.845642012
 21
286.1618853057
  0
LINE
  5
2A0
100
AcDbEntity
  8
70111C-02-02_DEFAULT_1
100
AcDbLine
 62
7
  6
CONTINUOUS
 10
498.4514100147
 20
286.1718853057
 11
504.7832164234
 21
286.1718853057
  0
LINE
  5
2A1
100
AcDbEntity
  8
70111C-02-02_DEFAULT_1
100
AcDbLine
 62
7
  6
CONTINUOUS
 10
514.5833159252
 20
286.1718853057
 11
520.4514100147
 21
286.1718853057
  0
LINE
  5
2A2
100
AcDbEntity
  8
70111C-02-02_DEFAULT_1
100
AcDbLine
 62
7
  6
CONTINUOUS
 10
520.4514100147
 20
291.1718853057
 11
514.6059140201
 21
291.1718853057
  0
LINE
  5
2A3
100
AcDbEntity
  8
70111C-02-02_DEFAULT_1
100
AcDbLine
 62
7
  6
CONTINUOUS
 10
504.8058145184
 20
291.1718853057
 11
498.4514100147
 21
291.1718853057
  0
LINE
  5
2A4
100
AcDbEntity
  8
70101G-10-01_2
100
AcDbLine
 62
7
  6
CONTINUOUS
 10
498.4514100147
 20
291.1718853057
 11
504.8058145184
 21
291.1718853057
  0
LINE
  5
2A5
100
AcDbEntity
  8
70101G-10-01_2
100
AcDbLine
 62
7
  6
CONTINUOUS
 10
514.6059140201
 20
291.1718853057
 11
520.4514100147
 21
291.1718853057
  0
LINE
  5
2A6
100
AcDbEntity
  8
70101-24____DEFAULT_1
100
AcDbLine
 62
7
  6
CONTINUOUS
 10
514.7106660099
 20
314.3489274398
 11
504.9107666902
 21
314.3932192509
  0
LINE
  5
2A7
100
AcDbEntity
  8
70101-24____DEFAULT_1
100
AcDbLine
 62
7
  6
CONTINUOUS
 10
513.715191743
 20
315.3534368176
 11
505.9152759294
 21
315.3886894653
  0
LINE
  5
2A8
100
AcDbEntity
  8
70101G-10-01_2
100
AcDbLine
 62
7
  6
CONTINUOUS
 10
475.2899598268
 20
482.89778209
 11
476.0577487542
 21
504.8843802844
  0
LINE
  5
2A9
100
AcDbEntity
  8
70101G-02-01_DEFAULT_1
100
AcDbLine
 62
40
  6
CONTINUOUS
 10
519.9044373834
 20
233.6411358651
 11
518.7162327829
 21
235.3684857607
  0
LINE
  5
2AA
100
AcDbEntity
  8
70101G-02-01_DEFAULT_1
100
AcDbLine
 62
40
  6
CONTINUOUS
 10
513.7800158868
 20
233.6688159168
 11
512.5926381007
 21
235.3961620756
  0
LINE
  5
2AB
100
AcDbEntity
  8
70101G-02-01_DEFAULT_1
100
AcDbLine
 62
40
  6
CONTINUOUS
 10
520.0289651236
 20
234.255528872
 11
518.7090732335
 21
236.2083720742
  0
LINE
  5
2AC
100
AcDbEntity
  8
70101G-02-01_DEFAULT_1
100
AcDbLine
 62
40
  6
CONTINUOUS
 10
513.9043369234
 20
234.283209858
 11
512.5850651441
 21
236.2360502575
  0
LINE
  5
2AD
100
AcDbEntity
  8
70101G-02-01_DEFAULT_1
100
AcDbLine
 62
40
  6
CONTINUOUS
 10
502.5959706423
 20
233.5284688497
 11
501.9704599799
 21
234.6461746561
  0
LINE
  5
2AE
100
AcDbEntity
  8
70101G-02-01_DEFAULT_1
100
AcDbLine
 62
40
  6
CONTINUOUS
 10
501.4857068451
 20
234.5495592079
 11
501.9204478961
 21
233.688206498
  0
LINE
  5
2AF
100
AcDbEntity
  8
70105-12_DEFAULT_1
100
AcDbLine
 62
7
  6
CONTINUOUS
 10
482.0762278458
 20
142.6718853057
 11
482.0762278458
 21
141.8718853057
  0
LINE
  5
2B0
100
AcDbEntity
  8
70101G-04_DEFAULT_1
100
AcDbLine
 62
7
  6
CONTINUOUS
 10
483.5014100147
 20
174.6718853057
 11
483.5014100147
 21
180.6718853057
  0
LINE
  5
2B1
100
AcDbEntity
  8
PP-50_35_2_DEFAULT_1
100
AcDbLine
 62
7
  6
CONTINUOUS
 10
484.4514100147
 20
174.1718853057
 11
484.4514100147
 21
172.1718853057
  0
LINE
  5
2B2
100
AcDbEntity
  8
70101G-01-01_DEFAULT_1
100
AcDbLine
 62
7
  6
CONTINUOUS
 10
486.8014100147
 20
208.2718853057
 11
486.8014100147
 21
285.8718853057
  0
LINE
  5
2B3
100
AcDbEntity
  8
70101G-01-02_DEFAULT_1
100
AcDbLine
 62
7
  6
CONTINUOUS
 10
486.9514100147
 20
208.2718853057
 11
486.9514100147
 21
182.3718853057
  0
LINE
  5
2B4
100
AcDbEntity
  8
70111-05_DEFAULT_1
100
AcDbLine
 62
7
  6
CONTINUOUS
 10
492.4535908122
 20
142.6718853057
 11
492.4535908122
 21
172.1718853057
  0
LINE
  5
2B5
100
AcDbEntity
  8
PA-KLD_DEFAULT_1
100
AcDbLine
 62
7
  6
CONTINUOUS
 10
483.6847361038
 20
96.3718853057
 11
483.4319667397
 21
67.3718853057
  0
LINE
  5
2B6
100
AcDbEntity
  8
PA-KLD_DEFAULT_1
100
AcDbLine
 62
7
  6
CONTINUOUS
 10
485.7512939014
 20
67.3718853057
 11
486.0040632655
 21
96.3718853057
  0
LINE
  5
2B7
100
AcDbEntity
  8
PA-KLD_DEFAULT_1
100
AcDbLine
 62
7
  6
CONTINUOUS
 10
486.7383891388
 20
96.3718853057
 11
486.2388303461
 21
67.3718853057
  0
LINE
  5
2B8
100
AcDbEntity
  8
PA-KLD_DEFAULT_1
100
AcDbLine
 62
7
  6
CONTINUOUS
 10
482.9368634275
 20
96.3718853057
 11
482.4306665446
 21
67.3718853057
  0
LINE
  5
2B9
100
AcDbEntity
  8
PA-KLD_DEFAULT_1
100
AcDbLine
 62
7
  6
CONTINUOUS
 10
486.9090950881
 20
123.4264223826
 11
486.4368563868
 21
96.3718853057
  0
LINE
  5
2BA
100
AcDbEntity
  8
PA-KLD_DEFAULT_1
100
AcDbLine
 62
7
  6
CONTINUOUS
 10
488.981061841
 20
141.8718853057
 11
488.6769105783
 21
124.4470711317
  0
LINE
  5
2BB
100
AcDbEntity
  8
70101G-02-01_DEFAULT_1
100
AcDbLine
 62
40
  6
CONTINUOUS
 10
504.2839511985
 20
236.2735681298
 11
505.3334500068
 21
233.5160964859
  0
LINE
  5
2BC
100
AcDbEntity
  8
70101G-02-01_DEFAULT_1
100
AcDbLine
 62
40
  6
CONTINUOUS
 10
506.2581015626
 20
235.401743843
 11
506.812798422
 21
233.937398978
  0
LINE
  5
2BD
100
AcDbEntity
  8
70101G-02-01_DEFAULT_1
100
AcDbLine
 62
40
  6
CONTINUOUS
 10
507.1127112874
 20
234.3902839652
 11
506.4074174659
 21
236.2639708713
  0
LINE
  5
2BE
100
AcDbEntity
  8
70101G-02-01_DEFAULT_1
100
AcDbLine
 62
40
  6
CONTINUOUS
 10
504.5642591543
 20
234.1266738624
 11
504.7152195429
 21
233.7062713093
  0
LINE
  5
2BF
100
AcDbEntity
  8
70101G-02-01_DEFAULT_1
100
AcDbLine
 62
40
  6
CONTINUOUS
 10
504.0140096783
 20
235.6831903237
 11
504.3949719698
 21
234.6083447664
  0
LINE
  5
2C0
100
AcDbEntity
  8
70101-24____DEFAULT_1
100
AcDbLine
 62
7
  6
CONTINUOUS
 10
504.67782503
 20
256.8511592875
 11
504.6531510386
 21
257.3938014102
  0
LINE
  5
2C1
100
AcDbEntity
  8
PA-KLD_DEFAULT_1
100
AcDbLine
 62
7
  6
CONTINUOUS
 10
497.6947841975
 20
96.3718853057
 11
497.9482115737
 21
67.3718853057
  0
LINE
  5
2C2
100
AcDbEntity
  8
PA-KLD_DEFAULT_1
100
AcDbLine
 62
7
  6
CONTINUOUS
 10
500.2655296558
 20
67.3718853057
 11
500.0121022796
 21
96.3718853057
  0
LINE
  5
2C3
100
AcDbEntity
  8
70101G-10-01_2
100
AcDbLine
 62
7
  6
CONTINUOUS
 10
498.4514100147
 20
459.1718853057
 11
498.4514100147
 21
291.1718853057
  0
LINE
  5
2C4
100
AcDbEntity
  8
70111C-02-02_DEFAULT_1
100
AcDbLine
 62
7
  6
CONTINUOUS
 10
498.4514100147
 20
291.1718853057
 11
498.4514100147
 21
286.1718853057
  0
LINE
  5
2C5
100
AcDbEntity
  8
70111C-04_DEFAULT_1
100
AcDbLine
 62
7
  6
CONTINUOUS
 10
499.5014100147
 20
286.1718853057
 11
499.5014100147
 21
285.8718853057
  0
LINE
  5
2C6
100
AcDbEntity
  8
70111C-04_DEFAULT_1
100
AcDbLine
 62
7
  6
CONTINUOUS
 10
499.7044874234
 20
286.1718853057
 11
499.7044874234
 21
285.8718853057
  0
LINE
  5
2C7
100
AcDbEntity
  8
70111C-04_DEFAULT_1
100
AcDbLine
 62
7
  6
CONTINUOUS
 10
500.2154747616
 20
285.8718853057
 11
500.2154747616
 21
286.1718853057
  0
LINE
  5
2C8
100
AcDbEntity
  8
70111C-04_DEFAULT_1
100
AcDbLine
 62
7
  6
CONTINUOUS
 10
502.8459323108
 20
285.8718853057
 11
502.8459323108
 21
286.1618853057
  0
LINE
  5
2C9
100
AcDbEntity
  8
70101G-02-01_DEFAULT_1
100
AcDbLine
 62
40
  6
CONTINUOUS
 10
495.7871619516
 20
236.8312204747
 11
495.7714432061
 21
233.3533287507
  0
LINE
  5
2CA
100
AcDbEntity
  8
70101G-02-01_DEFAULT_1
100
AcDbLine
 62
40
  6
CONTINUOUS
 10
498.2322893754
 20
236.3009193355
 11
498.2310122945
 21
236.0183554898
  0
LINE
  5
2CB
100
AcDbEntity
  8
70101G-02-01_DEFAULT_1
100
AcDbLine
 62
40
  6
CONTINUOUS
 10
498.9899079605
 20
235.8054271744
 11
498.9806409494
 21
233.755030636
  0
LINE
  5
2CC
100
AcDbEntity
  8
70101G-02-01_DEFAULT_1
100
AcDbLine
 62
40
  6
CONTINUOUS
 10
499.5324016059
 20
235.8029753098
 11
499.5221844914
 21
233.5423611919
  0
LINE
  5
2CD
100
AcDbEntity
  8
70101G-02-01_DEFAULT_1
100
AcDbLine
 62
40
  6
CONTINUOUS
 10
500.29446802
 20
236.2915990738
 11
500.2922441055
 21
235.7995411112
  0
LINE
  5
2CE
100
AcDbEntity
  8
70101G-02-01_DEFAULT_1
100
AcDbLine
 62
40
  6
CONTINUOUS
 10
500.6230234208
 20
236.2901141285
 11
500.6115324951
 21
233.7476596276
  0
LINE
  5
2CF
100
AcDbEntity
  8
70101G-02-01_DEFAULT_1
100
AcDbLine
 62
40
  6
CONTINUOUS
 10
501.136300926
 20
235.8147434173
 11
501.132708844
 21
235.0199680062
  0
LINE
  5
2D0
100
AcDbEntity
  8
70101G-02-01_DEFAULT_1
100
AcDbLine
 62
40
  6
CONTINUOUS
 10
501.1259978631
 20
233.5351125666
 11
501.1305900294
 21
234.5511642007
  0
LINE
  5
2D1
100
AcDbEntity
  8
70101-24____DEFAULT_1
100
AcDbLine
 62
7
  6
CONTINUOUS
 10
504.9107661004
 20
314.3932192536
 11
504.6531504488
 21
257.3938014129
  0
LINE
  5
2D2
100
AcDbEntity
  8
70101G-02-01_DEFAULT_1
100
AcDbLine
 62
40
  6
CONTINUOUS
 10
512.0957976804
 20
236.23826156
 11
512.0843067547
 21
233.6958070591
  0
LINE
  5
2D3
100
AcDbEntity
  8
PA-KLD_DEFAULT_1
100
AcDbLine
 62
7
  6
CONTINUOUS
 10
501.2988493826
 20
96.3718853057
 11
501.1198317179
 21
67.3718853057
  0
LINE
  5
2D4
100
AcDbEntity
  8
PA-KLD_DEFAULT_1
100
AcDbLine
 62
7
  6
CONTINUOUS
 10
494.5769753723
 20
67.3718853057
 11
494.896928079
 21
96.3718853057
  0
LINE
  5
2D5
100
AcDbEntity
  8
PA-KLD_DEFAULT_1
100
AcDbLine
 62
7
  6
CONTINUOUS
 10
495.4511001659
 20
96.3718853057
 11
494.9449034255
 21
67.3718853057
  0
LINE
  5
2D6
100
AcDbEntity
  8
PA-KLD_DEFAULT_1
100
AcDbLine
 62
7
  6
CONTINUOUS
 10
494.9469125052
 20
67.3718853057
 11
495.4531092456
 21
96.3718853057
  0
LINE
  5
2D7
100
AcDbEntity
  8
70101G-02-01_DEFAULT_1
100
AcDbLine
 62
40
  6
CONTINUOUS
 10
522.4094814023
 20
236.1916476392
 11
523.4580500442
 21
233.4341801993
  0
LINE
  5
2D8
100
AcDbEntity
  8
70101G-02-01_DEFAULT_1
100
AcDbLine
 62
40
  6
CONTINUOUS
 10
522.6891692472
 20
234.0447561745
 11
522.8406463948
 21
233.6243512858
  0
LINE
  5
2D9
100
AcDbEntity
  8
70101G-02-01_DEFAULT_1
100
AcDbLine
 62
40
  6
CONTINUOUS
 10
522.1389197712
 20
235.6012726358
 11
522.5193653036
 21
234.526429414
  0
LINE
  5
2DA
100
AcDbEntity
  8
70101G-02-01_DEFAULT_1
100
AcDbLine
 62
40
  6
CONTINUOUS
 10
508.7317608379
 20
233.5007374157
 11
508.3162220259
 21
236.255343802
  0
LINE
  5
2DB
100
AcDbEntity
  8
70101G-02-01_DEFAULT_1
100
AcDbLine
 62
40
  6
CONTINUOUS
 10
507.9529362348
 20
235.3642145531
 11
508.1670300561
 21
233.7054500515
  0
LINE
  5
2DC
100
AcDbEntity
  8
PA-KLD_DEFAULT_1
100
AcDbLine
 62
7
  6
CONTINUOUS
 10
523.4407080183
 20
96.3718853057
 11
523.9469049012
 21
67.3718853057
  0
LINE
  5
2DD
100
AcDbEntity
  8
PA-KLD_DEFAULT_1
100
AcDbLine
 62
7
  6
CONTINUOUS
 10
529.8802571667
 20
141.8718853057
 11
530.1844084295
 21
124.4470711317
  0
LINE
  5
2DE
100
AcDbEntity
  8
PA-KLD_DEFAULT_1
100
AcDbLine
 62
7
  6
CONTINUOUS
 10
531.9522239197
 20
123.4264223826
 11
532.424462621
 21
96.3718853057
  0
LINE
  5
2DF
100
AcDbEntity
  8
PA-KLD_DEFAULT_1
100
AcDbLine
 62
7
  6
CONTINUOUS
 10
532.6283206117
 20
67.3718853883
 11
532.1287229098
 21
96.3718853057
  0
LINE
  5
2E0
100
AcDbEntity
  8
PA-KLD_DEFAULT_1
100
AcDbLine
 62
7
  6
CONTINUOUS
 10
523.9911197477
 20
96.3718853057
 11
524.3116608757
 21
67.3718853057
  0
LINE
  5
2E1
100
AcDbEntity
  8
PA-KLD_DEFAULT_1
100
AcDbLine
 62
7
  6
CONTINUOUS
 10
517.7744721737
 20
67.3718853057
 11
517.594744005
 21
96.3718853057
  0
LINE
  5
2E2
100
AcDbEntity
  8
70111C-04_DEFAULT_1
100
AcDbLine
 62
7
  6
CONTINUOUS
 10
516.0568877033
 20
286.1618853057
 11
516.0568877033
 21
285.8718853057
  0
LINE
  5
2E3
100
AcDbEntity
  8
70111C-04_DEFAULT_1
100
AcDbLine
 62
7
  6
CONTINUOUS
 10
518.6873452678
 20
286.1718853057
 11
518.6873452678
 21
285.8718853057
  0
LINE
  5
2E4
100
AcDbEntity
  8
70111C-04_DEFAULT_1
100
AcDbLine
 62
7
  6
CONTINUOUS
 10
519.198332606
 20
285.8718853057
 11
519.198332606
 21
286.1718853057
  0
LINE
  5
2E5
100
AcDbEntity
  8
70111C-04_DEFAULT_1
100
AcDbLine
 62
7
  6
CONTINUOUS
 10
519.4014100147
 20
286.1718853057
 11
519.4014100147
 21
285.8718853057
  0
LINE
  5
2E6
100
AcDbEntity
  8
70111C-02-02_DEFAULT_1
100
AcDbLine
 62
7
  6
CONTINUOUS
 10
520.4514100147
 20
291.1718853057
 11
520.4514100147
 21
286.1718853057
  0
LINE
  5
2E7
100
AcDbEntity
  8
70101G-10-01_2
100
AcDbLine
 62
7
  6
CONTINUOUS
 10
520.4514100147
 20
291.1718853057
 11
520.4514100147
 21
459.2120868004
  0
LINE
  5
2E8
100
AcDbEntity
  8
70111-05_DEFAULT_1
100
AcDbLine
 62
7
  6
CONTINUOUS
 10
526.4535908122
 20
142.6718853057
 11
526.4535908122
 21
172.1718853057
  0
LINE
  5
2E9
100
AcDbEntity
  8
70101G-02-01_DEFAULT_1
100
AcDbLine
 62
40
  6
CONTINUOUS
 10
512.5926381007
 20
235.3961620756
 11
512.5839928141
 21
233.4833267949
  0
LINE
  5
2EA
100
AcDbEntity
  8
70101G-02-01_DEFAULT_1
100
AcDbLine
 62
40
  6
CONTINUOUS
 10
513.9131358895
 20
236.2300478838
 11
513.9043369234
 21
234.283209858
  0
LINE
  5
2EB
100
AcDbEntity
  8
70101-24____DEFAULT_1
100
AcDbLine
 62
7
  6
CONTINUOUS
 10
514.71066542
 20
314.3489274424
 11
514.4530497684
 21
257.3495096018
  0
LINE
  5
2EC
100
AcDbEntity
  8
70101G-02-01_DEFAULT_1
100
AcDbLine
 62
40
  6
CONTINUOUS
 10
514.4137720522
 20
236.227785199
 11
514.4013310232
 21
233.4751131186
  0
LINE
  5
2ED
100
AcDbEntity
  8
70101G-02-01_DEFAULT_1
100
AcDbLine
 62
40
  6
CONTINUOUS
 10
514.7422241012
 20
236.2263007209
 11
514.7409470202
 21
235.9437368752
  0
LINE
  5
2EE
100
AcDbEntity
  8
70101G-02-01_DEFAULT_1
100
AcDbLine
 62
40
  6
CONTINUOUS
 10
515.4996359827
 20
235.730809494
 11
515.4903689715
 21
233.6804129556
  0
LINE
  5
2EF
100
AcDbEntity
  8
70101G-02-01_DEFAULT_1
100
AcDbLine
 62
40
  6
CONTINUOUS
 10
516.0422329798
 20
235.7283571623
 11
516.0320158653
 21
233.4677430444
  0
LINE
  5
2F0
100
AcDbEntity
  8
70101G-02-01_DEFAULT_1
100
AcDbLine
 62
40
  6
CONTINUOUS
 10
516.804299394
 20
236.2169809263
 11
516.8020754794
 21
235.7249229637
  0
LINE
  5
2F1
100
AcDbEntity
  8
70101G-02-01_DEFAULT_1
100
AcDbLine
 62
40
  6
CONTINUOUS
 10
517.1556955445
 20
236.2153927495
 11
517.1442046188
 21
233.6729382486
  0
LINE
  5
2F2
100
AcDbEntity
  8
70101G-02-01_DEFAULT_1
100
AcDbLine
 62
40
  6
CONTINUOUS
 10
517.6846112909
 20
233.4602739428
 11
517.6970523199
 21
236.2129460232
  0
LINE
  5
2F3
100
AcDbEntity
  8
70101G-02-01_DEFAULT_1
100
AcDbLine
 62
40
  6
CONTINUOUS
 10
518.2206325842
 20
236.2105796399
 11
518.2091416586
 21
233.6681251389
  0
LINE
  5
2F4
100
AcDbEntity
  8
70101G-02-01_DEFAULT_1
100
AcDbLine
 62
40
  6
CONTINUOUS
 10
518.7162327829
 20
235.3684857607
 11
518.7075874962
 21
233.4556504801
  0
LINE
  5
2F5
100
AcDbEntity
  8
70101G-02-01_DEFAULT_1
100
AcDbLine
 62
40
  6
CONTINUOUS
 10
520.0377640898
 20
236.2023668978
 11
520.0289651236
 21
234.255528872
  0
LINE
  5
2F6
100
AcDbEntity
  8
70101G-02-01_DEFAULT_1
100
AcDbLine
 62
40
  6
CONTINUOUS
 10
520.5384002525
 20
236.2001042131
 11
520.5259592234
 21
233.4474321327
  0
LINE
  5
2F7
100
AcDbEntity
  8
70101G-02-01_DEFAULT_1
100
AcDbLine
 62
40
  6
CONTINUOUS
 10
525.7709593919
 20
233.2177423674
 11
525.7866781374
 21
236.6956340915
  0
LINE
  5
2F8
100
AcDbEntity
  8
PA-KLD_DEFAULT_1
100
AcDbLine
 62
7
  6
CONTINUOUS
 10
518.8816472986
 20
96.3718853057
 11
518.6288779345
 21
67.3718853057
  0
LINE
  5
2F9
100
AcDbEntity
  8
PA-KLD_DEFAULT_1
100
AcDbLine
 62
7
  6
CONTINUOUS
 10
520.9482050963
 20
67.3718853057
 11
521.2009744604
 21
96.3718853057
  0
LINE
  5
2FA
100
AcDbEntity
  8
70101-24____DEFAULT_1
100
AcDbLine
 62
7
  6
CONTINUOUS
 10
514.423471814
 20
256.8071126771
 11
514.4530497684
 21
257.3495096018
  0
LINE
  5
2FB
100
AcDbEntity
  8
70101G-02-01_DEFAULT_1
100
AcDbLine
 62
40
  6
CONTINUOUS
 10
506.0017228037
 20
233.5130761475
 11
506.2581015626
 21
235.401743843
  0
LINE
  5
2FC
100
AcDbEntity
  8
70101G-02-01_DEFAULT_1
100
AcDbLine
 62
40
  6
CONTINUOUS
 10
505.9222840745
 20
236.2661634894
 11
505.4822766117
 21
233.5154238464
  0
LINE
  5
2FD
100
AcDbEntity
  8
70101G-02-01_DEFAULT_1
100
AcDbLine
 62
40
  6
CONTINUOUS
 10
503.4496098945
 20
234.1317116524
 11
503.2331345447
 21
233.5255891116
  0
LINE
  5
2FE
100
AcDbEntity
  8
70101G-02-01_DEFAULT_1
100
AcDbLine
 62
40
  6
CONTINUOUS
 10
503.623864123
 20
234.6118298801
 11
504.0140096783
 21
235.6831903237
  0
LINE
  5
2FF
100
AcDbEntity
  8
70101G-02-01_DEFAULT_1
100
AcDbLine
 62
40
  6
CONTINUOUS
 10
507.3273147051
 20
233.7361172642
 11
507.9529362348
 21
235.3642145531
  0
LINE
  5
300
100
AcDbEntity
  8
70101G-02-01_DEFAULT_1
100
AcDbLine
 62
40
  6
CONTINUOUS
 10
507.8352227069
 20
236.2575177356
 11
507.1127112874
 21
234.3902839652
  0
LINE
  5
301
100
AcDbEntity
  8
70101G-02-01_DEFAULT_1
100
AcDbLine
 62
40
  6
CONTINUOUS
 10
503.7611977487
 20
236.2759307762
 11
502.6946716199
 21
233.5280227588
  0
LINE
  5
302
100
AcDbEntity
  8
PA-KLD_DEFAULT_1
100
AcDbLine
 62
7
  6
CONTINUOUS
 10
535.9244555802
 20
96.3718853057
 11
536.4306524631
 21
67.3718853057
  0
LINE
  5
303
100
AcDbEntity
  8
PA-KLD_DEFAULT_1
100
AcDbLine
 62
7
  6
CONTINUOUS
 10
532.8612066366
 20
96.3718853057
 11
533.1146340128
 21
67.3718853057
  0
LINE
  5
304
100
AcDbEntity
  8
PA-KLD_DEFAULT_1
100
AcDbLine
 62
7
  6
CONTINUOUS
 10
535.4319520949
 20
67.3718853057
 11
535.1785247187
 21
96.3718853057
  0
LINE
  5
305
100
AcDbEntity
  8
70101G-01-02_DEFAULT_1
100
AcDbLine
 62
7
  6
CONTINUOUS
 10
531.9514100147
 20
208.2718853057
 11
531.9514100147
 21
182.3718853057
  0
LINE
  5
306
100
AcDbEntity
  8
70101G-01-01_DEFAULT_1
100
AcDbLine
 62
7
  6
CONTINUOUS
 10
532.1014100147
 20
208.2718853057
 11
532.1014100147
 21
285.8718853057
  0
LINE
  5
307
100
AcDbEntity
  8
PP-50_35_2_DEFAULT_1
100
AcDbLine
 62
7
  6
CONTINUOUS
 10
534.4514100147
 20
174.1718853057
 11
534.4514100147
 21
172.1718853057
  0
LINE
  5
308
100
AcDbEntity
  8
70101G-04_DEFAULT_1
100
AcDbLine
 62
7
  6
CONTINUOUS
 10
535.4014100147
 20
174.6718853057
 11
535.4014100147
 21
180.6718853057
  0
LINE
  5
309
100
AcDbEntity
  8
70105-12_DEFAULT_1
100
AcDbLine
 62
7
  6
CONTINUOUS
 10
536.7762278458
 20
142.6718853057
 11
536.7762278458
 21
141.8718853057
  0
LINE
  5
30A
100
AcDbEntity
  8
70101G-02-01_DEFAULT_1
100
AcDbLine
 62
40
  6
CONTINUOUS
 10
521.5748300428
 20
234.0497925631
 11
521.3581479894
 21
233.4436709565
  0
LINE
  5
30B
100
AcDbEntity
  8
70101G-02-01_DEFAULT_1
100
AcDbLine
 62
40
  6
CONTINUOUS
 10
521.7485675122
 20
234.5299131264
 11
522.1389197712
 21
235.6012726358
  0
LINE
  5
30C
100
AcDbEntity
  8
70101G-02-01_DEFAULT_1
100
AcDbLine
 62
40
  6
CONTINUOUS
 10
521.885901138
 20
236.1940140225
 11
520.8194783609
 21
233.446105538
  0
LINE
  5
30D
100
AcDbEntity
  8
PF7107_ASM_2
100
AcDbLine
 62
7
  6
CONTINUOUS
 10
278.7014100147
 20
417.1718853057
 11
300.2014100147
 21
417.1718853057
  0
LINE
  5
30E
100
AcDbEntity
  8
PF7107_ASM_2
100
AcDbLine
 62
7
  6
CONTINUOUS
 10
293.9514100147
 20
436.1718853057
 11
284.9514100147
 21
436.1718853057
  0
LINE
  5
30F
100
AcDbEntity
  8
PF7107_ASM_2
100
AcDbLine
 62
7
  6
CONTINUOUS
 10
278.701543672
 20
441.1718853057
 11
300.2012763574
 21
441.1718853057
  0
LINE
  5
310
100
AcDbEntity
  8
PF7107_ASM_2
100
AcDbLine
 62
7
  6
CONTINUOUS
 10
278.4515518993
 20
444.1718853057
 11
300.4512681301
 21
444.1718853057
  0
LINE
  5
311
100
AcDbEntity
  8
PF7107_ASM_2
100
AcDbLine
 62
7
  6
CONTINUOUS
 10
293.9514100147
 20
446.1718853057
 11
284.9514100147
 21
446.1718853057
  0
LINE
  5
312
100
AcDbEntity
  8
70101G-10-01_2
100
AcDbLine
 62
7
  6
CONTINUOUS
 10
509.4514090553
 20
459.1721591755
 11
498.7271642146
 21
459.1718853057
  0
LINE
  5
313
100
AcDbEntity
  8
70101G-10-01_2
100
AcDbLine
 62
7
  6
CONTINUOUS
 10
498.7271642146
 20
459.1718853057
 11
498.4514100147
 21
459.1718853057
  0
LINE
  5
314
100
AcDbEntity
  8
PF7107_ASM_2
100
AcDbLine
 62
7
  6
CONTINUOUS
 10
278.4514100147
 20
460.1718853057
 11
300.4514100147
 21
460.1718853057
  0
LINE
  5
315
100
AcDbEntity
  8
70101G-10-01_2
100
AcDbLine
 62
7
  6
CONTINUOUS
 10
278.4514100147
 20
460.1718853057
 11
300.4514100147
 21
460.1718853057
  0
LINE
  5
316
100
AcDbEntity
  8
PA-KLD_DEFAULT_1
100
AcDbLine
 62
7
  6
CONTINUOUS
 10
488.6769105783
 20
124.4470711317
 11
486.9090950881
 21
123.4264223826
  0
LINE
  5
317
100
AcDbEntity
  8
70101G-10-01_2
100
AcDbLine
 62
7
  6
CONTINUOUS
 10
300.4514100147
 20
464.1718853057
 11
278.4514100147
 21
464.1718853057
  0
LINE
  5
318
100
AcDbEntity
  8
70101G-10-01_2
100
AcDbLine
 62
7
  6
CONTINUOUS
 10
324.2774592772
 20
488.171254812
 11
475.2899598268
 21
482.89778209
  0
LINE
  5
319
100
AcDbEntity
  8
70101G-10-01_2
100
AcDbLine
 62
7
  6
CONTINUOUS
 10
324.6565080044
 20
510.1714281134
 11
476.0577487542
 21
504.8843802844
  0
ARC
  5
31A
100
AcDbEntity
  8
70101G-10-01_2
100
AcDbCircle
 62
7
  6
CONTINUOUS
 10
474.4523719059
 20
458.9124022415
 40
46.0
100
AcDbArc
 50
0.3725617216
 51
88.0
  0
ARC
  5
31B
100
AcDbEntity
  8
70101G-10-01_2
100
AcDbCircle
 62
7
  6
CONTINUOUS
 10
324.4514100147
 20
464.1718853057
 40
46.0
100
AcDbArc
 50
89.743649923
 51
180.0
  0
ARC
  5
31C
100
AcDbEntity
  8
70101G-10-01_2
100
AcDbCircle
 62
7
  6
CONTINUOUS
 10
474.4523719059
 20
458.9124022415
 40
24.0
100
AcDbArc
 50
0.6194708745
 51
88.0
  0
ARC
  5
31D
100
AcDbEntity
  8
70101G-10-01_2
100
AcDbCircle
 62
7
  6
CONTINUOUS
 10
324.4514100147
 20
464.1718853057
 40
24.0
100
AcDbArc
 50
90.412657484
 51
180.0
  0
CIRCLE
  5
31E
100
AcDbEntity
  8
70101G-02-01_DEFAULT_1
100
AcDbCircle
 62
7
  6
CONTINUOUS
 10
509.4514100147
 20
234.8718853057
 40
22.5
  0
CIRCLE
  5
31F
100
AcDbEntity
  8
70101G-02-01_DEFAULT_1
100
AcDbCircle
 62
7
  6
CONTINUOUS
 10
509.4514100147
 20
234.8718853057
 40
21.5815939279
  0
ARC
  5
320
100
AcDbEntity
  8
70101______1
100
AcDbCircle
 62
7
  6
CONTINUOUS
 10
487.2014100147
 20
176.1718853057
 40
2.0
100
AcDbArc
 50
228.6901067012
 51
270.0
  0
ARC
  5
321
100
AcDbEntity
  8
70101______1
100
AcDbCircle
 62
7
  6
CONTINUOUS
 10
531.7014100147
 20
176.1718853057
 40
2.0
100
AcDbArc
 50
270.0
 51
311.3098932988
  0
ARC
  5
322
100
AcDbEntity
  8
70101G-04_DEFAULT_1
100
AcDbCircle
 62
7
  6
CONTINUOUS
 10
533.7014100147
 20
180.6718853057
 40
1.7
100
AcDbArc
 50
0.0
 51
90.0
  0
ARC
  5
323
100
AcDbEntity
  8
70101G-04_DEFAULT_1
100
AcDbCircle
 62
7
  6
CONTINUOUS
 10
485.2014100147
 20
180.6718853057
 40
1.7
100
AcDbArc
 50
90.0
 51
180.0
  0
ARC
  5
324
100
AcDbEntity
  8
70101-24____DEFAULT_1
100
AcDbCircle
 62
7
  6
CONTINUOUS
 10
505.9107563565
 20
314.3886996786
 40
1.0
100
AcDbArc
 50
89.7410466697
 51
179.7410466697
  0
ARC
  5
325
100
AcDbEntity
  8
70101-24____DEFAULT_1
100
AcDbCircle
 62
7
  6
CONTINUOUS
 10
513.7106757537
 20
314.3534470147
 40
1.0
100
AcDbArc
 50
359.7410466697
 51
89.7410466697
  0
LINE
  5
326
100
AcDbEntity
  8
70111C-04_DEFAULT_1
100
AcDbLine
 62
7
  6
CONTINUOUS
 10
502.850967782
 20
286.1718853057
 11
502.8459323108
 21
286.1618853057
  0
LINE
  5
327
100
AcDbEntity
  8
70111C-04_DEFAULT_1
100
AcDbLine
 62
7
  6
CONTINUOUS
 10
516.0568877033
 20
286.1618853057
 11
516.051852232
 21
286.1718853057
  0
SPLINE
  5
328
100
AcDbEntity
  8
70101G-02-01_DEFAULT_1
100
AcDbSpline
 62
40
  6
CONTINUOUS
 70
0
 71
3
 72
11
 73
7
 74
0
 42
0.0000001
 43
0.0000001
 44
0.0000000001
 40
0.0
 40
0.0
 40
0.0
 40
0.0
 40
0.2505069092
 40
0.5010138185
 40
0.7528108068
 40
1.0
 40
1.0
 40
1.0
 40
1.0
 10
508.8945359875
 20
234.8711981926
 30
0.0
 10
508.8916584445
 20
234.4977583694
 30
0.0
 10
509.19421215
 20
233.7580144035
 30
0.0
 10
510.2995843265
 20
233.2894301488
 30
0.0
 10
511.4145708788
 20
233.7425271419
 30
0.0
 10
511.7320011434
 20
234.4765428028
 30
0.0
 10
511.7387944165
 20
234.8449693822
 30
0.0
  0
SPLINE
  5
329
100
AcDbEntity
  8
70101G-02-01_DEFAULT_1
100
AcDbSpline
 62
40
  6
CONTINUOUS
 70
0
 71
3
 72
12
 73
8
 74
0
 42
0.0000001
 43
0.0000001
 44
0.0000000001
 40
0.0
 40
0.0
 40
0.0
 40
0.0
 40
0.0046077952
 40
0.2527674247
 40
0.5009270542
 40
0.7504635271
 40
1.0
 40
1.0
 40
1.0
 40
1.0
 10
511.7387944165
 20
234.8449693822
 30
0.0
 10
511.7389210483
 20
234.8518371348
 30
0.0
 10
511.7429997129
 20
235.228669511
 30
0.0
 10
511.4375196246
 20
235.9815149001
 30
0.0
 10
510.3278193042
 20
236.450177532
 30
0.0
 10
509.2090598838
 20
235.9942581694
 30
0.0
 10
508.8974023832
 20
235.2431913509
 30
0.0
 10
508.8945359875
 20
234.8711981926
 30
0.0
  0
SPLINE
  5
32A
100
AcDbEntity
  8
70101G-02-01_DEFAULT_1
100
AcDbSpline
 62
40
  6
CONTINUOUS
 70
0
 71
3
 72
11
 73
7
 74
0
 42
0.0000001
 43
0.0000001
 44
0.0000000001
 40
0.0
 40
0.0
 40
0.0
 40
0.0
 40
0.2499218831
 40
0.4998437663
 40
0.7497656494
 40
1.0
 40
1.0
 40
1.0
 40
1.0
 10
509.4514100147
 20
234.8718853057
 30
0.0
 10
509.4503807485
 20
234.6366452446
 30
0.0
 10
509.634391304
 20
234.1663193524
 30
0.0
 10
510.3094187215
 20
233.8692827862
 30
0.0
 10
510.990177895
 20
234.1603142325
 30
0.0
 10
511.1802459367
 20
234.6294140114
 30
0.0
 10
511.1811095656
 20
234.8649500765
 30
0.0
  0
SPLINE
  5
32B
100
AcDbEntity
  8
70101G-02-01_DEFAULT_1
100
AcDbSpline
 62
40
  6
CONTINUOUS
 70
0
 71
3
 72
11
 73
7
 74
0
 42
0.0000001
 43
0.0000001
 44
0.0000000001
 40
0.0
 40
0.0
 40
0.0
 40
0.0
 40
0.2497656494
 40
0.4998437663
 40
0.7499218831
 40
1.0
 40
1.0
 40
1.0
 40
1.0
 10
511.1811095656
 20
234.8649500765
 30
0.0
 10
511.1819715768
 20
235.100044971
 30
0.0
 10
510.9959637447
 20
235.5722000264
 30
0.0
 10
510.3184716725
 20
235.8722961218
 30
0.0
 10
509.6408015359
 20
235.5782010791
 30
0.0
 10
509.4524399243
 20
235.1072724225
 30
0.0
 10
509.4514100147
 20
234.8718853057
 30
0.0
  0
SPLINE
  5
32C
100
AcDbEntity
  8
70101G-02-01_DEFAULT_1
100
AcDbSpline
 62
40
  6
CONTINUOUS
 70
0
 71
3
 72
9
 73
5
 74
0
 42
0.0000001
 43
0.0000001
 44
0.0000000001
 40
0.0
 40
0.0
 40
0.0
 40
0.0
 40
0.5010847227
 40
1.0
 40
1.0
 40
1.0
 40
1.0
 10
502.4395974297
 20
235.4039123545
 30
0.0
 10
502.4406383165
 20
235.6342164574
 30
0.0
 10
502.2714584689
 20
236.1339879079
 30
0.0
 10
501.7722648743
 20
236.284919995
 30
0.0
 10
501.5429578725
 20
236.2859563753
 30
0.0
  0
SPLINE
  5
32D
100
AcDbEntity
  8
70101G-02-01_DEFAULT_1
100
AcDbSpline
 62
40
  6
CONTINUOUS
 70
0
 71
3
 72
8
 73
4
 74
0
 42
0.0000001
 43
0.0000001
 44
0.0000000001
 40
0.0
 40
0.0
 40
0.0
 40
0.0
 40
1.0
 40
1.0
 40
1.0
 40
1.0
 10
500.6115324951
 20
233.7476596276
 30
0.0
 10
500.6110846121
 20
233.6485621103
 30
0.0
 10
500.7217024539
 20
233.5369398278
 30
0.0
 10
500.8207999712
 20
233.5364919447
 30
0.0
  0
SPLINE
  5
32E
100
AcDbEntity
  8
70101G-02-01_DEFAULT_1
100
AcDbSpline
 62
40
  6
CONTINUOUS
 70
0
 71
3
 72
8
 73
4
 74
0
 42
0.0000001
 43
0.0000001
 44
0.0000000001
 40
0.0
 40
0.0
 40
0.0
 40
0.0
 40
1.0
 40
1.0
 40
1.0
 40
1.0
 10
501.9204478961
 20
233.688206498
 30
0.0
 10
501.9655560682
 20
233.5966292197
 30
0.0
 10
502.0807904944
 20
233.5307972676
 30
0.0
 10
502.1828734618
 20
233.5303358915
 30
0.0
  0
SPLINE
  5
32F
100
AcDbEntity
  8
70101G-02-01_DEFAULT_1
100
AcDbSpline
 62
40
  6
CONTINUOUS
 70
0
 71
3
 72
8
 73
4
 74
0
 42
0.0000001
 43
0.0000001
 44
0.0000000001
 40
0.0
 40
0.0
 40
0.0
 40
0.0
 40
1.0
 40
1.0
 40
1.0
 40
1.0
 10
501.9704599799
 20
234.6461746561
 30
0.0
 10
502.2383178388
 20
234.7746381716
 30
0.0
 10
502.4382547993
 20
235.1068451824
 30
0.0
 10
502.4395974297
 20
235.4039123545
 30
0.0
  0
SPLINE
  5
330
100
AcDbEntity
  8
70101G-02-01_DEFAULT_1
100
AcDbSpline
 62
40
  6
CONTINUOUS
 70
0
 71
3
 72
8
 73
4
 74
0
 42
0.0000001
 43
0.0000001
 44
0.0000000001
 40
0.0
 40
0.0
 40
0.0
 40
0.0
 40
1.0
 40
1.0
 40
1.0
 40
1.0
 10
514.9500110625
 20
235.7332935892
 30
0.0
 10
514.8511327125
 20
235.7337404817
 30
0.0
 10
514.7405001278
 20
235.8448585251
 30
0.0
 10
514.7409470202
 20
235.9437368752
 30
0.0
  0
SPLINE
  5
331
100
AcDbEntity
  8
70101G-02-01_DEFAULT_1
100
AcDbSpline
 62
40
  6
CONTINUOUS
 70
0
 71
3
 72
8
 73
4
 74
0
 42
0.0000001
 43
0.0000001
 44
0.0000000001
 40
0.0
 40
0.0
 40
0.0
 40
0.0
 40
1.0
 40
1.0
 40
1.0
 40
1.0
 10
515.6996364476
 20
233.4692452728
 30
0.0
 10
515.6005389303
 20
233.4696931558
 30
0.0
 10
515.4899210885
 20
233.5813154383
 30
0.0
 10
515.4903689715
 20
233.6804129556
 30
0.0
  0
SPLINE
  5
332
100
AcDbEntity
  8
70101G-02-01_DEFAULT_1
100
AcDbSpline
 62
40
  6
CONTINUOUS
 70
0
 71
3
 72
8
 73
4
 74
0
 42
0.0000001
 43
0.0000001
 44
0.0000000001
 40
0.0
 40
0.0
 40
0.0
 40
0.0
 40
1.0
 40
1.0
 40
1.0
 40
1.0
 10
498.4401796886
 20
235.8079117367
 30
0.0
 10
498.3412769453
 20
235.8083587394
 30
0.0
 10
498.2305652918
 20
235.9194527465
 30
0.0
 10
498.2310122945
 20
236.0183554898
 30
0.0
  0
SPLINE
  5
333
100
AcDbEntity
  8
70101G-02-01_DEFAULT_1
100
AcDbSpline
 62
40
  6
CONTINUOUS
 70
0
 71
3
 72
8
 73
4
 74
0
 42
0.0000001
 43
0.0000001
 44
0.0000000001
 40
0.0
 40
0.0
 40
0.0
 40
0.0
 40
1.0
 40
1.0
 40
1.0
 40
1.0
 10
499.1899084255
 20
233.5438629532
 30
0.0
 10
499.0908109082
 20
233.5443108362
 30
0.0
 10
498.9801930664
 20
233.6559331187
 30
0.0
 10
498.9806409494
 20
233.755030636
 30
0.0
  0
SPLINE
  5
334
100
AcDbEntity
  8
70101G-02-01_DEFAULT_1
100
AcDbSpline
 62
40
  6
CONTINUOUS
 70
0
 71
3
 72
8
 73
4
 74
0
 42
0.0000001
 43
0.0000001
 44
0.0000000001
 40
0.0
 40
0.0
 40
0.0
 40
0.0
 40
1.0
 40
1.0
 40
1.0
 40
1.0
 10
517.1442046188
 20
233.6729382486
 30
0.0
 10
517.1437578355
 20
233.5740840337
 30
0.0
 10
517.2535843619
 20
233.4622220203
 30
0.0
 10
517.3524385769
 20
233.4617752369
 30
0.0
  0
SPLINE
  5
335
100
AcDbEntity
  8
70101G-02-01_DEFAULT_1
100
AcDbSpline
 62
40
  6
CONTINUOUS
 70
0
 71
3
 72
13
 73
9
 74
0
 42
0.0000001
 43
0.0000001
 44
0.0000000001
 40
0.0
 40
0.0
 40
0.0
 40
0.0
 40
0.2276648076
 40
0.3496517465
 40
0.5024116169
 40
0.6518960002
 40
0.7725420894
 40
1.0
 40
1.0
 40
1.0
 40
1.0
 10
501.4952417586
 20
235.8131211415
 30
0.0
 10
501.5930329257
 20
235.8126791626
 30
0.0
 10
501.7549165166
 20
235.7754386149
 30
0.0
 10
501.8924640803
 20
235.597042104
 30
0.0
 10
501.9193788384
 20
235.4115509084
 30
0.0
 10
501.8905222902
 20
235.2267222207
 30
0.0
 10
501.7504945572
 20
235.0529794906
 30
0.0
 10
501.5893519731
 20
235.0179041532
 30
0.0
 10
501.4916496766
 20
235.0183457304
 30
0.0
  0
SPLINE
  5
336
100
AcDbEntity
  8
70101G-02-01_DEFAULT_1
100
AcDbSpline
 62
40
  6
CONTINUOUS
 70
0
 71
3
 72
9
 73
5
 74
0
 42
0.0000001
 43
0.0000001
 44
0.0000000001
 40
0.0
 40
0.0
 40
0.0
 40
0.0
 40
0.4999510448
 40
1.0
 40
1.0
 40
1.0
 40
1.0
 10
497.1064927842
 20
238.1386792192
 30
0.0
 10
496.7666257346
 20
238.1402152888
 30
0.0
 10
496.0232824955
 20
237.9124271622
 30
0.0
 10
495.788698322
 20
237.1711540838
 30
0.0
 10
495.7871619516
 20
236.8312204747
 30
0.0
  0
SPLINE
  5
337
100
AcDbEntity
  8
70101G-02-01_DEFAULT_1
100
AcDbSpline
 62
40
  6
CONTINUOUS
 70
0
 71
3
 72
9
 73
5
 74
0
 42
0.0000001
 43
0.0000001
 44
0.0000000001
 40
0.0
 40
0.0
 40
0.0
 40
0.0
 40
0.5000757061
 40
1.0
 40
1.0
 40
1.0
 40
1.0
 10
495.7714432061
 20
233.3533287507
 30
0.0
 10
495.7699068357
 20
233.0133951415
 30
0.0
 10
495.9977102765
 20
232.269929249
 30
0.0
 10
496.7390726674
 20
232.0358438787
 30
0.0
 10
497.0789033519
 20
232.0343079735
 30
0.0
  0
SPLINE
  5
338
100
AcDbEntity
  8
70101G-02-01_DEFAULT_1
100
AcDbSpline
 62
40
  6
CONTINUOUS
 70
0
 71
3
 72
9
 73
5
 74
0
 42
0.0000001
 43
0.0000001
 44
0.0000000001
 40
0.0
 40
0.0
 40
0.0
 40
0.0
 40
0.4999094876
 40
1.0
 40
1.0
 40
1.0
 40
1.0
 10
524.4518366643
 20
231.9105927441
 30
0.0
 10
524.7916350997
 20
231.9090569847
 30
0.0
 10
525.5350570392
 20
232.1364544493
 30
0.0
 10
525.7694230763
 20
232.8778208859
 30
0.0
 10
525.7709593919
 20
233.2177423674
 30
0.0
  0
SPLINE
  5
339
100
AcDbEntity
  8
70101G-02-01_DEFAULT_1
100
AcDbSpline
 62
40
  6
CONTINUOUS
 70
0
 71
3
 72
9
 73
5
 74
0
 42
0.0000001
 43
0.0000001
 44
0.0000000001
 40
0.0
 40
0.0
 40
0.0
 40
0.0
 40
0.5000637564
 40
1.0
 40
1.0
 40
1.0
 40
1.0
 10
525.7866781374
 20
236.6956340915
 30
0.0
 10
525.788214453
 20
237.035555573
 30
0.0
 10
525.5604884947
 20
237.7789074916
 30
0.0
 10
524.8192609004
 20
238.013428066
 30
0.0
 10
524.4794260965
 20
238.0149639898
 30
0.0
  0
SPLINE
  5
33A
100
AcDbEntity
  8
70101G-02-01_DEFAULT_1
100
AcDbSpline
 62
40
  6
CONTINUOUS
 70
0
 71
3
 72
8
 73
4
 74
0
 42
0.0000001
 43
0.0000001
 44
0.0000000001
 40
0.0
 40
0.0
 40
0.0
 40
0.0
 40
1.0
 40
1.0
 40
1.0
 40
1.0
 10
508.1670300561
 20
233.7054500515
 30
0.0
 10
508.1805650956
 20
233.5995673439
 30
0.0
 10
508.307727577
 20
233.5026538845
 30
0.0
 10
508.4144707843
 20
233.5021714459
 30
0.0
  0
SPLINE
  5
33B
100
AcDbEntity
  8
70101G-02-01_DEFAULT_1
100
AcDbSpline
 62
40
  6
CONTINUOUS
 70
0
 71
3
 72
8
 73
4
 74
0
 42
0.0000001
 43
0.0000001
 44
0.0000000001
 40
0.0
 40
0.0
 40
0.0
 40
0.0
 40
1.0
 40
1.0
 40
1.0
 40
1.0
 10
506.812798422
 20
233.937398978
 30
0.0
 10
506.8534874695
 20
233.8340867756
 30
0.0
 10
506.9680287198
 20
233.7377411
 30
0.0
 10
507.0790636599
 20
233.7372392643
 30
0.0
  0
SPLINE
  5
33C
100
AcDbEntity
  8
70101G-02-01_DEFAULT_1
100
AcDbSpline
 62
40
  6
CONTINUOUS
 70
0
 71
3
 72
8
 73
4
 74
0
 42
0.0000001
 43
0.0000001
 44
0.0000000001
 40
0.0
 40
0.0
 40
0.0
 40
0.0
 40
1.0
 40
1.0
 40
1.0
 40
1.0
 10
518.2091416586
 20
233.6681251389
 30
0.0
 10
518.2086944357
 20
233.5691736752
 30
0.0
 10
518.3188375601
 20
233.4574074817
 30
0.0
 10
518.4177890238
 20
233.4569602588
 30
0.0
  0
SPLINE
  5
33D
100
AcDbEntity
  8
70101G-02-01_DEFAULT_1
100
AcDbSpline
 62
40
  6
CONTINUOUS
 70
0
 71
3
 72
8
 73
4
 74
0
 42
0.0000001
 43
0.0000001
 44
0.0000000001
 40
0.0
 40
0.0
 40
0.0
 40
0.0
 40
1.0
 40
1.0
 40
1.0
 40
1.0
 10
519.9044373834
 20
233.6411358651
 30
0.0
 10
519.9760813866
 20
233.5368628163
 30
0.0
 10
520.1051008019
 20
233.4493342524
 30
0.0
 10
520.2316132715
 20
233.4487624642
 30
0.0
  0
SPLINE
  5
33E
100
AcDbEntity
  8
70101G-02-01_DEFAULT_1
100
AcDbSpline
 62
40
  6
CONTINUOUS
 70
0
 71
3
 72
8
 73
4
 74
0
 42
0.0000001
 43
0.0000001
 44
0.0000000001
 40
0.0
 40
0.0
 40
0.0
 40
0.0
 40
1.0
 40
1.0
 40
1.0
 40
1.0
 10
512.0843067547
 20
233.6958070591
 30
0.0
 10
512.0838584311
 20
233.5966120529
 30
0.0
 10
512.1947926319
 20
233.4850858315
 30
0.0
 10
512.2939876381
 20
233.4846375078
 30
0.0
  0
SPLINE
  5
33F
100
AcDbEntity
  8
70101G-02-01_DEFAULT_1
100
AcDbSpline
 62
40
  6
CONTINUOUS
 70
0
 71
3
 72
8
 73
4
 74
0
 42
0.0000001
 43
0.0000001
 44
0.0000000001
 40
0.0
 40
0.0
 40
0.0
 40
0.0
 40
1.0
 40
1.0
 40
1.0
 40
1.0
 10
513.7800158868
 20
233.6688159168
 30
0.0
 10
513.8515538443
 20
233.5644700854
 30
0.0
 10
513.9806793053
 20
233.4770143041
 30
0.0
 10
514.1071917748
 20
233.476442516
 30
0.0
  0
SPLINE
  5
340
100
AcDbEntity
  8
70101G-02-01_DEFAULT_1
100
AcDbSpline
 62
40
  6
CONTINUOUS
 70
0
 71
3
 72
8
 73
4
 74
0
 42
0.0000001
 43
0.0000001
 44
0.0000000001
 40
0.0
 40
0.0
 40
0.0
 40
0.0
 40
1.0
 40
1.0
 40
1.0
 40
1.0
 10
504.7152195429
 20
233.7062713093
 30
0.0
 10
504.7502611869
 20
233.6086954798
 30
0.0
 10
504.858947587
 20
233.5182410561
 30
0.0
 10
504.9626237162
 20
233.5177724795
 30
0.0
  0
SPLINE
  5
341
100
AcDbEntity
  8
70101G-02-01_DEFAULT_1
100
AcDbSpline
 62
40
  6
CONTINUOUS
 70
0
 71
3
 72
8
 73
4
 74
0
 42
0.0000001
 43
0.0000001
 44
0.0000000001
 40
0.0
 40
0.0
 40
0.0
 40
0.0
 40
1.0
 40
1.0
 40
1.0
 40
1.0
 10
522.8406463948
 20
233.6243512858
 30
0.0
 10
522.8754910745
 20
233.526880059
 30
0.0
 10
522.9839192362
 20
233.4363230899
 30
0.0
 10
523.0874304572
 20
233.4358552586
 30
0.0
  0
LINE
  5
342
100
AcDbEntity
  8
70101G-10-01_2
100
AcDbLine
 62
7
  6
CONTINUOUS
 10
324.2785625235
 20
488.1712162858
 11
324.2808662619
 21
488.4470434839
  0
LINE
  5
343
100
AcDbEntity
  8
70101G-10-01_2
100
AcDbLine
 62
7
  6
CONTINUOUS
 10
324.2808662619
 20
488.4470434839
 11
324.4510301003
 21
499.1718921834
  0
LINE
  5
344
100
AcDbEntity
  8
70101G-10-01_2
100
AcDbLine
 62
7
  6
CONTINUOUS
 10
509.4514090553
 20
459.1721591755
 11
518.7652921839
 21
459.2055311867
  0
LINE
  5
345
100
AcDbEntity
  8
70101G-10-01_2
100
AcDbLine
 62
7
  6
CONTINUOUS
 10
518.7652921839
 20
459.2055311867
 11
520.4514100147
 21
459.2120868009
  0
LINE
  5
346
100
AcDbEntity
  8
70101G-10-01_2
100
AcDbLine
 62
7
  6
CONTINUOUS
 10
324.4510301003
 20
499.1718921834
 11
324.6224286683
 21
508.4856417681
  0
LINE
  5
347
100
AcDbEntity
  8
70101G-10-01_2
100
AcDbLine
 62
7
  6
CONTINUOUS
 10
324.6224286683
 20
508.4856417681
 11
324.656507945
 21
510.171428115
  0
ENDSEC
  0
SECTION
  2
OBJECTS
  0
DICTIONARY
  5
C
100
AcDbDictionary
280
0
281
1
  3
ACAD_GROUP
350
D
  3
ACAD_MLINESTYLE
350
17
  3
ACAD_LAYOUT
350
1A
  3
ACAD_PLOTSETTINGS
350
19
  3
ACAD_PLOTSTYLENAME
350
E
  0
DICTIONARY
  5
D
102
{ACAD_REACTORS
330
C
102
}
100
AcDbDictionary
280
0
281
1
  0
ACDBDICTIONARYWDFLT
  5
E
102
{ACAD_REACTORS
330
C
102
}
100
AcDbDictionary
281
1
  3
Normal
350
F
100
AcDbDictionaryWithDefault
340
F
  0
DICTIONARY
  5
17
102
{ACAD_REACTORS
330
C
102
}
100
AcDbDictionary
280
0
281
1
  3
Standard
350
18
  0
DICTIONARY
  5
19
102
{ACAD_REACTORS
330
C
102
}
100
AcDbDictionary
281
1
  0
DICTIONARY
  5
1A
102
{ACAD_REACTORS
330
C
102
}
100
AcDbDictionary
281
1
  3
Model
350
348
  3
Layout1
350
349
  0
ACDBPLACEHOLDER
  5
F
102
{ACAD_REACTORS
330
E
102
}
  0
MLINESTYLE
  5
18
102
{ACAD_REACTORS
330
17
102
}
100
AcDbMlineStyle
  2
STANDARD
 70
0
  3

 62
256
 51
90.0
 52
90.0
 71
2
 49
0.5
 62
256
  6
BYLAYER
 49
-0.5
 62
256
  6
BYLAYER
  0
LAYOUT
  5
348
102
{ACAD_REACTORS
330
1A
102
}
100
AcDbPlotSettings
  1

  2
none_device
  4
ISO_A1_(594.00_x_841.00_MM)
  6

 40
0.0
 41
0.0
 42
0.0
 43
0.0
 44
841.0
 45
594.0
 46
0.0
 47
0.0
 48
0.0
 49
0.0
140
0.0
141
0.0
142
1.0
143
1.0
 70
1024
 72
1
 73
0
 74
0
  7

 75
0
147
1.0
148
0.0
149
0.0
100
AcDbLayout
  1
Model
 70
0
 71
0
 10
0.0
 20
0.0
 11
841.0
 21
594.0
 12
0.0
 22
0.0
 32
0.0
 14
0.0
 24
0.0
 34
0.0
 15
0.0
 25
0.0
 35
0.0
146
0.0
 13
0.0
 23
0.0
 33
0.0
 16
1.0
 26
0.0
 36
0.0
 17
0.0
 27
1.0
 37
0.0
 76
0
330
238
345
0
346
0
  0
LAYOUT
  5
349
102
{ACAD_REACTORS
330
1A
102
}
100
AcDbPlotSettings
  1

  2
none_device
  4
ISO_A1_(594.00_x_841.00_MM)
  6

 40
0.0
 41
0.0
 42
0.0
 43
0.0
 44
841.0
 45
594.0
 46
0.0
 47
0.0
 48
0.0
 49
0.0
140
0.0
141
0.0
142
1.0
143
1.0
 70
0
 72
1
 73
0
 74
0
  7

 75
0
147
1.0
148
0.0
149
0.0
100
AcDbLayout
  1
Layout1
 70
0
 71
1
 10
0.0
 20
0.0
 11
841.0
 21
594.0
 12
0.0
 22
0.0
 32
0.0
 14
0.0
 24
0.0
 34
0.0
 15
0.0
 25
0.0
 35
0.0
146
0.0
 13
0.0
 23
0.0
 33
0.0
 16
1.0
 26
0.0
 36
0.0
 17
0.0
 27
1.0
 37
0.0
 76
0
330
239
345
0
346
0
  0
ENDSEC
  0
EOF
