999
DXF file: S:\Engenharia\Wildfire\Engenharia\Produtos\Misturadores\94520.011\94520011.dxf
999
Pro/ENGINEER 2013150 by Parametric Technology Corporation
  0
SECTION
  2
HEADER
  9
$ACADVER
  1
AC1021
  9
$DWGCODEPAGE
  3
ANSI_1252
  9
$EXTMAX
 10
1117.6
 20
863.6
 30
0.0
  9
$EXTMIN
 10
0.0
 20
0.0
 30
0.0
  9
$LIMMIN
 10
0.0
 20
0.0
  9
$LIMMAX
 10
1117.6
 20
863.6
  9
$VIEWCTR
 10
558.8
 20
431.8
  9
$VIEWSIZE
 40
863.6
  9
$CLAYER
  8
0
  9
$LTSCALE
 40
61.468
  9
$CELTYPE
  6
BYLAYER
  9
$DIMSCALE
 40
1.0
  9
$DIMASZ
 40
3.0
  9
$DIMEXO
 40
0.5
  9
$DIMDLI
 40
42.4688
  9
$DIMEXE
 40
0.5
  9
$DIMCEN
 40
10.0584
  9
$DIMLFAC
 40
1.0
  9
$DIMBLK
  1
_FILLED
  9
$DIMTXT
 40
1.8
  9
$DIMTOL
 70
1
  9
$DIMLIM
 70
0
  9
$DIMTFAC
 40
1.0
  9
$DIMTP
 40
0.001
  9
$DIMTM
 40
0.001
  9
$DIMGAP
 40
0.625
  9
$DIMDSEP
 70
46
  9
$PDMODE
 70
3
  9
$PDSIZE
 40
1.0
  9
$HANDSEED
  5
2F8
  9
$TILEMODE
 70
1
  9
$MEASUREMENT
 70
1
  9
$INSUNITS
 70
4
  0
ENDSEC
  0
SECTION
  2
CLASSES
  0
CLASS
  1
ACDBDICTIONARYWDFLT
  2
AcDbDictionaryWithDefault
  3
AutoCAD 2000
 90
0
 91
1
280
0
281
0
  0
CLASS
  1
ACDBPLACEHOLDER
  2
AcDbPlaceHolder
  3
AutoCAD 2000
 90
0
 91
1
280
0
281
0
  0
CLASS
  1
LAYOUT
  2
AcDbLayout
  3
AutoCAD 2000
 90
0
 91
0
280
0
281
0
  0
ENDSEC
  0
SECTION
  2
TABLES
  0
TABLE
  2
VPORT
  5
8
100
AcDbSymbolTable
 70
2
  0
VPORT
  5
1F4
100
AcDbSymbolTableRecord
100
AcDbViewportTableRecord
  2
*ACTIVE
 70
0
 10
0.0
 20
0.0
 11
1.0
 21
1.0
 12
558.8
 22
431.8
 13
0.0
 23
0.0
 14
1.0
 24
1.0
 15
0.0
 25
0.0
 16
0.0
 26
0.0
 36
1.0
 17
0.0
 27
0.0
 37
0.0
 40
863.6
 41
1.2941176471
 42
50.0
 43
0.0
 44
0.0
 50
0.0
 51
0.0
 71
0
 72
100
 73
1
 74
1
 75
0
 76
0
 77
0
 78
0
  0
ENDTAB
  0
TABLE
  2
LTYPE
  5
5
100
AcDbSymbolTable
 70
6
  0
LTYPE
  5
14
100
AcDbSymbolTableRecord
100
AcDbLinetypeTableRecord
  2
BYBLOCK
 70
0
  3

 72
65
 73
0
 40
0.0
  0
LTYPE
  5
15
100
AcDbSymbolTableRecord
100
AcDbLinetypeTableRecord
  2
BYLAYER
 70
0
  3

 72
65
 73
0
 40
0.0
  0
LTYPE
  5
16
100
AcDbSymbolTableRecord
100
AcDbLinetypeTableRecord
  2
CONTINUOUS
 70
64
  3
Solid line
 72
65
 73
0
 40
0.0
  0
LTYPE
  5
1F5
100
AcDbSymbolTableRecord
100
AcDbLinetypeTableRecord
  2
CENTER
 70
64
  3
____ _ ____ _ ____ _ ____ _ ____ _ ____ _ ____
 72
65
 73
4
 40
0.6
 49
0.375
 74
0
 49
-0.075
 74
0
 49
0.075
 74
0
 49
-0.075
 74
0
  0
LTYPE
  5
1F6
100
AcDbSymbolTableRecord
100
AcDbLinetypeTableRecord
  2
HIDDEN
 70
64
  3
- - - - - - - - - - - - - - - - - - - -
 72
65
 73
2
 40
0.2
 49
0.1
 74
0
 49
-0.1
 74
0
  0
LTYPE
  5
1F7
100
AcDbSymbolTableRecord
100
AcDbLinetypeTableRecord
  2
PHANTOM
 70
64
  3
_____ _ _ _____ _ _ _____ _ _ _____
 72
65
 73
6
 40
0.8
 49
0.45
 74
0
 49
-0.05
 74
0
 49
0.1
 74
0
 49
-0.05
 74
0
 49
0.1
 74
0
 49
-0.05
 74
0
  0
LTYPE
  5
1F8
100
AcDbSymbolTableRecord
100
AcDbLinetypeTableRecord
  2
DOT
 70
64
  3
. . . . . . . . . . . . . . . . . . . .
 72
65
 73
2
 40
0.2
 49
0.1
 74
0
 49
-0.1
 74
0
  0
LTYPE
  5
1F9
100
AcDbSymbolTableRecord
100
AcDbLinetypeTableRecord
  2
DASHED
 70
64
  3
- - - - - - - - - - - - - - - - - - - -
 72
65
 73
2
 40
0.2
 49
0.1
 74
0
 49
-0.1
 74
0
  0
ENDTAB
  0
TABLE
  2
LAYER
  5
2
100
AcDbSymbolTable
 70
36
  0
LAYER
  5
10
100
AcDbSymbolTableRecord
100
AcDbLayerTableRecord
  2
0
 70
0
 62
7
  6
CONTINUOUS
370
-3
390
F
  0
LAYER
  5
1FA
100
AcDbSymbolTableRecord
100
AcDbLayerTableRecord
  2
DEFAULT_1
 70
0
 62
7
  6
CENTER
370
-3
390
F
  0
LAYER
  5
1FB
100
AcDbSymbolTableRecord
100
AcDbLayerTableRecord
  2
DEFAULT_2
 70
0
 62
8
  6
HIDDEN
370
-3
390
F
  0
LAYER
  5
1FC
100
AcDbSymbolTableRecord
100
AcDbLayerTableRecord
  2
DEFAULT_3
 70
0
 62
7
  6
PHANTOM
370
-3
390
F
  0
LAYER
  5
1FD
100
AcDbSymbolTableRecord
100
AcDbLayerTableRecord
  2
01_ALL_DTM_PLN
 70
0
 62
7
  6
CONTINUOUS
370
-3
390
F
  0
LAYER
  5
1FE
100
AcDbSymbolTableRecord
100
AcDbLayerTableRecord
  2
01__ASM_ALL_DTM_PLN
 70
0
 62
7
  6
CONTINUOUS
370
-3
390
F
  0
LAYER
  5
1FF
100
AcDbSymbolTableRecord
100
AcDbLayerTableRecord
  2
01__ASM_DEF_DTM_PLN
 70
0
 62
7
  6
CONTINUOUS
370
-3
390
F
  0
LAYER
  5
200
100
AcDbSymbolTableRecord
100
AcDbLayerTableRecord
  2
01___PRT_ALL_DTM_PLN
 70
0
 62
7
  6
CONTINUOUS
370
-3
390
F
  0
LAYER
  5
201
100
AcDbSymbolTableRecord
100
AcDbLayerTableRecord
  2
01___PRT_DEF_DTM_PLN
 70
0
 62
7
  6
CONTINUOUS
370
-3
390
F
  0
LAYER
  5
202
100
AcDbSymbolTableRecord
100
AcDbLayerTableRecord
  2
02_ALL_AXES
 70
0
 62
7
  6
CONTINUOUS
370
-3
390
F
  0
LAYER
  5
203
100
AcDbSymbolTableRecord
100
AcDbLayerTableRecord
  2
02__ASM_ALL_AXES
 70
0
 62
7
  6
CONTINUOUS
370
-3
390
F
  0
LAYER
  5
204
100
AcDbSymbolTableRecord
100
AcDbLayerTableRecord
  2
02___PRT_ALL_AXES
 70
0
 62
7
  6
CONTINUOUS
370
-3
390
F
  0
LAYER
  5
205
100
AcDbSymbolTableRecord
100
AcDbLayerTableRecord
  2
03_ALL_CURVES
 70
0
 62
7
  6
CONTINUOUS
370
-3
390
F
  0
LAYER
  5
206
100
AcDbSymbolTableRecord
100
AcDbLayerTableRecord
  2
03__ASM_ALL_CURVES
 70
0
 62
7
  6
CONTINUOUS
370
-3
390
F
  0
LAYER
  5
207
100
AcDbSymbolTableRecord
100
AcDbLayerTableRecord
  2
03___PRT_ALL_CURVES
 70
0
 62
7
  6
CONTINUOUS
370
-3
390
F
  0
LAYER
  5
208
100
AcDbSymbolTableRecord
100
AcDbLayerTableRecord
  2
04_ALL_DTM_PNT
 70
0
 62
7
  6
CONTINUOUS
370
-3
390
F
  0
LAYER
  5
209
100
AcDbSymbolTableRecord
100
AcDbLayerTableRecord
  2
04__ASM_ALL_DTM_PNT
 70
0
 62
7
  6
CONTINUOUS
370
-3
390
F
  0
LAYER
  5
20A
100
AcDbSymbolTableRecord
100
AcDbLayerTableRecord
  2
04___PRT_ALL_DTM_PNT
 70
0
 62
7
  6
CONTINUOUS
370
-3
390
F
  0
LAYER
  5
20B
100
AcDbSymbolTableRecord
100
AcDbLayerTableRecord
  2
05_ALL_DTM_CSYS
 70
0
 62
7
  6
CONTINUOUS
370
-3
390
F
  0
LAYER
  5
20C
100
AcDbSymbolTableRecord
100
AcDbLayerTableRecord
  2
05__ASM_ALL_DTM_CSYS
 70
0
 62
7
  6
CONTINUOUS
370
-3
390
F
  0
LAYER
  5
20D
100
AcDbSymbolTableRecord
100
AcDbLayerTableRecord
  2
05__ASM_DEF_DTM_CSYS
 70
0
 62
7
  6
CONTINUOUS
370
-3
390
F
  0
LAYER
  5
20E
100
AcDbSymbolTableRecord
100
AcDbLayerTableRecord
  2
05___PRT_ALL_DTM_CSYS
 70
0
 62
7
  6
CONTINUOUS
370
-3
390
F
  0
LAYER
  5
20F
100
AcDbSymbolTableRecord
100
AcDbLayerTableRecord
  2
05___PRT_DEF_DTM_CSYS
 70
0
 62
7
  6
CONTINUOUS
370
-3
390
F
  0
LAYER
  5
210
100
AcDbSymbolTableRecord
100
AcDbLayerTableRecord
  2
06_ALL_SURFS
 70
0
 62
7
  6
CONTINUOUS
370
-3
390
F
  0
LAYER
  5
211
100
AcDbSymbolTableRecord
100
AcDbLayerTableRecord
  2
06__ASM_ALL_SURFS
 70
0
 62
7
  6
CONTINUOUS
370
-3
390
F
  0
LAYER
  5
212
100
AcDbSymbolTableRecord
100
AcDbLayerTableRecord
  2
06___PRT_ALL_SURFS
 70
0
 62
7
  6
CONTINUOUS
370
-3
390
F
  0
LAYER
  5
213
100
AcDbSymbolTableRecord
100
AcDbLayerTableRecord
  2
07__ASM_ALL_SKELETONS
 70
0
 62
7
  6
CONTINUOUS
370
-3
390
F
  0
LAYER
  5
214
100
AcDbSymbolTableRecord
100
AcDbLayerTableRecord
  2
10X18_-_1_1_1_1
 70
0
 62
7
  6
CONTINUOUS
370
-3
390
F
  0
LAYER
  5
215
100
AcDbSymbolTableRecord
100
AcDbLayerTableRecord
  2
68182-15_-_1_1_1_1
 70
0
 62
7
  6
CONTINUOUS
370
-3
390
F
  0
LAYER
  5
216
100
AcDbSymbolTableRecord
100
AcDbLayerTableRecord
  2
68182-16_-_1_1_1_1
 70
0
 62
7
  6
CONTINUOUS
370
-3
390
F
  0
LAYER
  5
217
100
AcDbSymbolTableRecord
100
AcDbLayerTableRecord
  2
68182-17_-_1_1_1_1
 70
0
 62
7
  6
CONTINUOUS
370
-3
390
F
  0
LAYER
  5
218
100
AcDbSymbolTableRecord
100
AcDbLayerTableRecord
  2
68190-01_-_1_1_1_1
 70
0
 62
7
  6
CONTINUOUS
370
-3
390
F
  0
LAYER
  5
219
100
AcDbSymbolTableRecord
100
AcDbLayerTableRecord
  2
68190-ST_-_ASM_1_ASM_1_ASM_1_AS
 70
0
 62
7
  6
CONTINUOUS
370
-3
390
F
  0
LAYER
  5
21A
100
AcDbSymbolTableRecord
100
AcDbLayerTableRecord
  2
70101G-HD_-_ASM_1_ASM_1_ASM_1_A
 70
0
 62
7
  6
CONTINUOUS
370
-3
390
F
  0
LAYER
  5
21B
100
AcDbSymbolTableRecord
100
AcDbLayerTableRecord
  2
70105-03___-_1_1_1_1
 70
0
 62
7
  6
CONTINUOUS
370
-3
390
F
  0
LAYER
  5
21C
100
AcDbSymbolTableRecord
100
AcDbLayerTableRecord
  2
70501-04___-_1_1_1_1
 70
0
 62
7
  6
CONTINUOUS
370
-3
390
F
  0
LAYER
  5
21D
100
AcDbSymbolTableRecord
100
AcDbLayerTableRecord
  2
8X19_-_1_1_1_1
 70
0
 62
7
  6
CONTINUOUS
370
-3
390
F
  0
LAYER
  5
21E
100
AcDbSymbolTableRecord
100
AcDbLayerTableRecord
  2
ASM0006_ASM_1
 70
0
 62
7
  6
CONTINUOUS
370
-3
390
F
  0
LAYER
  5
21F
100
AcDbSymbolTableRecord
100
AcDbLayerTableRecord
  2
JS_-_1_1_1_1
 70
0
 62
7
  6
CONTINUOUS
370
-3
390
F
  0
LAYER
  5
220
100
AcDbSymbolTableRecord
100
AcDbLayerTableRecord
  2
M4X5_-_1_1_1_1
 70
0
 62
7
  6
CONTINUOUS
370
-3
390
F
  0
LAYER
  5
221
100
AcDbSymbolTableRecord
100
AcDbLayerTableRecord
  2
M5X4_-_1_1_1_1
 70
0
 62
7
  6
CONTINUOUS
370
-3
390
F
  0
LAYER
  5
222
100
AcDbSymbolTableRecord
100
AcDbLayerTableRecord
  2
MANIFOLD_SOLID_BREP_1864_-_1_1_
 70
0
 62
7
  6
CONTINUOUS
370
-3
390
F
  0
LAYER
  5
223
100
AcDbSymbolTableRecord
100
AcDbLayerTableRecord
  2
MANIFOLD_SOLID_BREP_1866_-_1_1_
 70
0
 62
7
  6
CONTINUOUS
370
-3
390
F
  0
LAYER
  5
224
100
AcDbSymbolTableRecord
100
AcDbLayerTableRecord
  2
MANIFOLD_SOLID_BREP_1867_-_1_1_
 70
0
 62
7
  6
CONTINUOUS
370
-3
390
F
  0
LAYER
  5
225
100
AcDbSymbolTableRecord
100
AcDbLayerTableRecord
  2
MANIFOLD_SOLID_BREP_1868_-_1_1_
 70
0
 62
7
  6
CONTINUOUS
370
-3
390
F
  0
LAYER
  5
226
100
AcDbSymbolTableRecord
100
AcDbLayerTableRecord
  2
MANIFOLD_SOLID_BREP_1869_-_1_1_
 70
0
 62
7
  6
CONTINUOUS
370
-3
390
F
  0
LAYER
  5
227
100
AcDbSymbolTableRecord
100
AcDbLayerTableRecord
  2
MANIFOLD_SOLID_BREP_1870_-_1_1_
 70
0
 62
7
  6
CONTINUOUS
370
-3
390
F
  0
LAYER
  5
228
100
AcDbSymbolTableRecord
100
AcDbLayerTableRecord
  2
MANIFOLD_SOLID_BREP_1871_-_1_1_
 70
0
 62
7
  6
CONTINUOUS
370
-3
390
F
  0
LAYER
  5
229
100
AcDbSymbolTableRecord
100
AcDbLayerTableRecord
  2
MANIFOLD_SOLID_BREP_1872_-_1_1_
 70
0
 62
7
  6
CONTINUOUS
370
-3
390
F
  0
LAYER
  5
22A
100
AcDbSymbolTableRecord
100
AcDbLayerTableRecord
  2
MANIFOLD_SOLID_BREP_1873_-_1_1_
 70
0
 62
7
  6
CONTINUOUS
370
-3
390
F
  0
LAYER
  5
22B
100
AcDbSymbolTableRecord
100
AcDbLayerTableRecord
  2
MANIFOLD_SOLID_BREP_1874_-_1_1_
 70
0
 62
7
  6
CONTINUOUS
370
-3
390
F
  0
LAYER
  5
22C
100
AcDbSymbolTableRecord
100
AcDbLayerTableRecord
  2
MANIFOLD_SOLID_BREP_1875_-_1_1_
 70
0
 62
7
  6
CONTINUOUS
370
-3
390
F
  0
LAYER
  5
22D
100
AcDbSymbolTableRecord
100
AcDbLayerTableRecord
  2
MANIFOLD_SOLID_BREP_1876_-_1_1_
 70
0
 62
7
  6
CONTINUOUS
370
-3
390
F
  0
LAYER
  5
22E
100
AcDbSymbolTableRecord
100
AcDbLayerTableRecord
  2
MANIFOLD_SOLID_BREP_1877_-_1_1_
 70
0
 62
7
  6
CONTINUOUS
370
-3
390
F
  0
LAYER
  5
22F
100
AcDbSymbolTableRecord
100
AcDbLayerTableRecord
  2
MANIFOLD_SOLID_BREP_1878_-_1_1_
 70
0
 62
7
  6
CONTINUOUS
370
-3
390
F
  0
LAYER
  5
230
100
AcDbSymbolTableRecord
100
AcDbLayerTableRecord
  2
MANIFOLD_SOLID_BREP_1879_-_1_1_
 70
0
 62
7
  6
CONTINUOUS
370
-3
390
F
  0
LAYER
  5
231
100
AcDbSymbolTableRecord
100
AcDbLayerTableRecord
  2
MANIFOLD_SOLID_BREP_1880_-_1_1_
 70
0
 62
7
  6
CONTINUOUS
370
-3
390
F
  0
LAYER
  5
232
100
AcDbSymbolTableRecord
100
AcDbLayerTableRecord
  2
MANIFOLD_SOLID_BREP_1881_-_1_1_
 70
0
 62
7
  6
CONTINUOUS
370
-3
390
F
  0
LAYER
  5
233
100
AcDbSymbolTableRecord
100
AcDbLayerTableRecord
  2
MANIFOLD_SOLID_BREP_1882_-_1_1_
 70
0
 62
7
  6
CONTINUOUS
370
-3
390
F
  0
LAYER
  5
234
100
AcDbSymbolTableRecord
100
AcDbLayerTableRecord
  2
MANIFOLD_SOLID_BREP_1883_-_2_1_
 70
0
 62
7
  6
CONTINUOUS
370
-3
390
F
  0
LAYER
  5
235
100
AcDbSymbolTableRecord
100
AcDbLayerTableRecord
  2
MANIFOLD_SOLID_BREP_1884_-_1_1_
 70
0
 62
7
  6
CONTINUOUS
370
-3
390
F
  0
LAYER
  5
236
100
AcDbSymbolTableRecord
100
AcDbLayerTableRecord
  2
MANIFOLD_SOLID_BREP_1885_-_1_1_
 70
0
 62
7
  6
CONTINUOUS
370
-3
390
F
  0
LAYER
  5
237
100
AcDbSymbolTableRecord
100
AcDbLayerTableRecord
  2
MSBR1_-_1_1_1_1
 70
0
 62
7
  6
CONTINUOUS
370
-3
390
F
  0
LAYER
  5
238
100
AcDbSymbolTableRecord
100
AcDbLayerTableRecord
  2
MTJ_-_1_1_1_1
 70
0
 62
7
  6
CONTINUOUS
370
-3
390
F
  0
LAYER
  5
239
100
AcDbSymbolTableRecord
100
AcDbLayerTableRecord
  2
P40237B8BF7T_-_ASM_1_ASM_1_ASM_
 70
0
 62
7
  6
CONTINUOUS
370
-3
390
F
  0
LAYER
  5
23A
100
AcDbSymbolTableRecord
100
AcDbLayerTableRecord
  2
PF7203-01_ASM_1
 70
0
 62
7
  6
CONTINUOUS
370
-3
390
F
  0
LAYER
  5
23B
100
AcDbSymbolTableRecord
100
AcDbLayerTableRecord
  2
PF7203-01_ASM_1_ASM_1
 70
0
 62
7
  6
CONTINUOUS
370
-3
390
F
  0
LAYER
  5
23C
100
AcDbSymbolTableRecord
100
AcDbLayerTableRecord
  2
PF7203_ASM_1_ASM_1_ASM_1_ASM_1
 70
0
 62
7
  6
CONTINUOUS
370
-3
390
F
  0
LAYER
  5
23D
100
AcDbSymbolTableRecord
100
AcDbLayerTableRecord
  2
PP-STD___-_1_1_1_1
 70
0
 62
7
  6
CONTINUOUS
370
-3
390
F
  0
LAYER
  5
23E
100
AcDbSymbolTableRecord
100
AcDbLayerTableRecord
  2
WZT_-_ASM_1_ASM_1_ASM_1_ASM_1
 70
0
 62
7
  6
CONTINUOUS
370
-3
390
F
  0
ENDTAB
  0
TABLE
  2
STYLE
  5
3
100
AcDbSymbolTable
 70
1
  0
STYLE
  5
11
100
AcDbSymbolTableRecord
100
AcDbTextStyleTableRecord
  2
STANDARD
 70
0
 40
0.0
 41
0.8
 50
0.0
 71
0
 42
0.2
  3
txt
  4

  0
STYLE
  5
23F
100
AcDbSymbolTableRecord
100
AcDbTextStyleTableRecord
  2
TEXTSTYLE_1
 70
0
 40
0.0
 41
0.8
 50
0.0
 71
0
 42
0.2
  3
gdt
  4

  0
ENDTAB
  0
TABLE
  2
VIEW
  5
6
100
AcDbSymbolTable
 70
0
  0
ENDTAB
  0
TABLE
  2
UCS
  5
7
100
AcDbSymbolTable
 70
0
  0
ENDTAB
  0
TABLE
  2
APPID
  5
9
100
AcDbSymbolTable
 70
1
  0
APPID
  5
240
100
AcDbSymbolTableRecord
100
AcDbRegAppTableRecord
  2
ACAD
 70
0
  0
ENDTAB
  0
TABLE
  2
BLOCK_RECORD
  5
1
100
AcDbSymbolTable
 70
0
  0
BLOCK_RECORD
  5
241
100
AcDbSymbolTableRecord
100
AcDbBlockTableRecord
  2
*Model_Space
  0
BLOCK_RECORD
  5
242
100
AcDbSymbolTableRecord
100
AcDbBlockTableRecord
  2
*Paper_Space
  0
BLOCK_RECORD
  5
243
100
AcDbSymbolTableRecord
100
AcDbBlockTableRecord
  2
_FILLED
  0
BLOCK_RECORD
  5
244
100
AcDbSymbolTableRecord
100
AcDbBlockTableRecord
  2
*D0
  0
BLOCK_RECORD
  5
245
100
AcDbSymbolTableRecord
100
AcDbBlockTableRecord
  2
*D1
  0
ENDTAB
  0
TABLE
  2
DIMSTYLE
  5
A
100
AcDbSymbolTable
 70
1
100
AcDbDimStyleTable
 71
0
  0
DIMSTYLE
105
246
100
AcDbSymbolTableRecord
100
AcDbDimStyleTableRecord
  2
STANDARD
 70
0
  3

  4

 40
1.0
 41
3.0
 42
0.5
 43
0.38
 44
0.5
 45
0.0
 46
0.0
 47
0.001
 48
0.001
140
1.8
141
0.09
142
0.0
143
25.4
144
1.0
145
0.0
146
1.0
147
0.625
 71
1.0
 72
0.0
 73
0
 74
0
 75
0
 76
0
 77
1
 78
8
170
0
171
2
172
0
173
0
174
0
175
0
176
0
177
0
178
0
270
2
271
3
272
3
273
2
274
2
275
0
280
0
281
0
282
0
283
1
284
8
285
0
286
0
287
3
288
0
340
11
278
46
341
243
342
243
343
243
344
243
  0
DIMSTYLE
105
247
100
AcDbSymbolTableRecord
100
AcDbDimStyleTableRecord
  2
DIMSTYLE_1
 70
0
  3

  4

 40
1.0
 41
3.0
 42
0.5
 43
0.38
 44
0.5
 45
0.0
 46
0.0
 47
0.001
 48
0.001
140
5.0
141
0.09
142
0.0
143
25.4
144
1.0
145
0.0
146
1.0
147
1.25
 71
0.0
 72
0.0
 73
0
 74
0
 75
0
 76
0
 77
1
 78
8
170
0
171
2
172
0
173
0
174
0
175
0
176
0
177
0
178
0
270
2
271
0
272
0
273
2
274
2
275
0
280
0
281
0
282
0
283
1
284
8
285
0
286
0
287
3
288
0
340
11
278
46
341
243
342
243
343
243
344
243
  0
ENDTAB
  0
ENDSEC
  0
SECTION
  2
BLOCKS
  0
BLOCK
  5
20
100
AcDbEntity
  8
0
100
AcDbBlockBegin
  2
*Model_Space
 70
0
 10
0.0
 20
0.0
 30
0.0
  3
*Model_Space
  1

  0
ENDBLK
  5
21
100
AcDbEntity
  8
0
100
AcDbBlockEnd
  0
BLOCK
  5
1C
100
AcDbEntity
  8
0
100
AcDbBlockBegin
  2
*Paper_Space
 70
0
 10
0.0
 20
0.0
 30
0.0
  3
*Paper_Space
  1

  0
ENDBLK
  5
1D
100
AcDbEntity
  8
0
100
AcDbBlockEnd
  0
BLOCK
  5
248
100
AcDbEntity
  8
0
100
AcDbBlockBegin
  2
_FILLED
 70
64
 10
0.0
 20
0.0
  3
_FILLED
  1

  0
SOLID
  5
249
100
AcDbEntity
  8
0
  6
BYBLOCK
 62
0
100
AcDbTrace
 10
0.0
 20
0.0
 11
-1.0
 21
0.1666666667
 12
-1.0
 22
-0.1666666667
 13
-1.0
 23
-0.1666666667
  0
ENDBLK
  5
24A
100
AcDbEntity
  8
0
  6
BYBLOCK
 62
0
100
AcDbBlockEnd
  0
BLOCK
  5
24B
100
AcDbEntity
  8
0
100
AcDbBlockBegin
 62
2
  6
CONTINUOUS
  2
*D0
 70
65
 10
0.0
 20
0.0
  3
*D0
  1

  0
MTEXT
  5
24C
100
AcDbEntity
  8
0
100
AcDbMText
 62
2
  6
CONTINUOUS
  7
STANDARD
 71
2
 72
1
 10
350.9785461426
 20
585.8175842588
 30
0.0
 11
0.0
 21
1.0
 31
0.0
 44
0.9
  1
402
 40
5.0
 41
23.1428571429
  0
LINE
  5
24D
100
AcDbEntity
  8
0
100
AcDbLine
 62
2
  6
CONTINUOUS
 10
423.3117294125
 20
384.7175842588
 11
357.6214032854
 21
384.7175842588
  0
LINE
  5
24E
100
AcDbEntity
  8
0
100
AcDbLine
 62
2
  6
CONTINUOUS
 10
554.3117294125
 20
786.9175842588
 11
357.6214032854
 21
786.9175842588
  0
LINE
  5
24F
100
AcDbEntity
  8
0
100
AcDbLine
 62
2
  6
CONTINUOUS
 10
358.1214032854
 20
384.7175842588
 11
358.1214032854
 21
585.8175842588
  0
LINE
  5
250
100
AcDbEntity
  8
0
100
AcDbLine
 62
2
  6
CONTINUOUS
 10
358.1214032854
 20
786.9175842588
 11
358.1214032854
 21
585.8175842588
  0
INSERT
  5
251
100
AcDbEntity
  8
0
100
AcDbBlockReference
 62
2
  6
CONTINUOUS
  2
_FILLED
 10
358.1214032854
 20
384.7175842588
 41
3.0
 42
3.0
 43
3.0
 50
270.0
  0
INSERT
  5
252
100
AcDbEntity
  8
0
100
AcDbBlockReference
 62
2
  6
CONTINUOUS
  2
_FILLED
 10
358.1214032854
 20
786.9175842588
 41
3.0
 42
3.0
 43
3.0
 50
90.0
  0
ENDBLK
  5
253
100
AcDbEntity
  8
0
  6
BYBLOCK
 62
0
100
AcDbBlockEnd
  0
BLOCK
  5
254
100
AcDbEntity
  8
0
100
AcDbBlockBegin
 62
2
  6
CONTINUOUS
  2
*D1
 70
65
 10
0.0
 20
0.0
  3
*D1
  1

  0
MTEXT
  5
255
100
AcDbEntity
  8
0
100
AcDbMText
 62
2
  6
CONTINUOUS
  7
STANDARD
 71
2
 72
1
 10
579.2307912918
 20
362.3865957373
 30
0.0
 11
1.0
 21
0.0
 31
0.0
 44
0.9
  1
233
 40
5.0
 41
23.1428571429
  0
LINE
  5
256
100
AcDbEntity
  8
0
100
AcDbLine
 62
2
  6
CONTINUOUS
 10
682.9003491711
 20
607.5904670058
 11
682.9003491711
 21
354.7437385945
  0
LINE
  5
257
100
AcDbEntity
  8
0
100
AcDbLine
 62
2
  6
CONTINUOUS
 10
449.8117294125
 20
384.2175842588
 11
449.8117294125
 21
354.7437385945
  0
LINE
  5
258
100
AcDbEntity
  8
0
100
AcDbLine
 62
2
  6
CONTINUOUS
 10
682.9003491711
 20
355.2437385945
 11
566.3560392918
 21
355.2437385945
  0
LINE
  5
259
100
AcDbEntity
  8
0
100
AcDbLine
 62
2
  6
CONTINUOUS
 10
449.8117294125
 20
355.2437385945
 11
566.3560392918
 21
355.2437385945
  0
INSERT
  5
25A
100
AcDbEntity
  8
0
100
AcDbBlockReference
 62
2
  6
CONTINUOUS
  2
_FILLED
 10
682.9003491711
 20
355.2437385945
 41
3.0
 42
3.0
 43
3.0
  0
INSERT
  5
25B
100
AcDbEntity
  8
0
100
AcDbBlockReference
 62
2
  6
CONTINUOUS
  2
_FILLED
 10
449.8117294125
 20
355.2437385945
 41
3.0
 42
3.0
 43
3.0
 50
180.0
  0
ENDBLK
  5
25C
100
AcDbEntity
  8
0
  6
BYBLOCK
 62
0
100
AcDbBlockEnd
  0
ENDSEC
  0
SECTION
  2
ENTITIES
  0
DIMENSION
  5
25D
100
AcDbEntity
  8
0
100
AcDbDimension
 62
2
  6
CONTINUOUS
  2
*D0
 10
358.1214032854
 20
786.9175842588
 11
358.1214032854
 21
585.8175842588
 70
160
 71
2
 42
402.2
  3
DIMSTYLE_1
100
AcDbAlignedDimension
 13
423.8117294125
 23
384.7175842588
 14
554.8117294125
 24
786.9175842588
 50
90.0
100
AcDbRotatedDimension
  0
DIMENSION
  5
25E
100
AcDbEntity
  8
0
100
AcDbDimension
 62
2
  6
CONTINUOUS
  2
*D1
 10
449.8117294125
 20
355.2437385945
 11
579.2307912918
 21
355.2437385945
 70
160
 71
2
 42
233.0886197586
  3
DIMSTYLE_1
100
AcDbAlignedDimension
 13
682.9003491711
 23
608.0904670058
 14
449.8117294125
 24
384.7175842588
 50
180.0
100
AcDbRotatedDimension
  0
LINE
  5
25F
100
AcDbEntity
  8
0
100
AcDbLine
 62
7
  6
CONTINUOUS
 10
0.0
 20
0.0
 11
0.0
 21
863.6
  0
LINE
  5
260
100
AcDbEntity
  8
0
100
AcDbLine
 62
7
  6
CONTINUOUS
 10
0.0
 20
0.0
 11
1117.6
 21
0.0
  0
LINE
  5
261
100
AcDbEntity
  8
0
100
AcDbLine
 62
7
  6
CONTINUOUS
 10
0.0
 20
863.6
 11
1117.6
 21
863.6
  0
LINE
  5
262
100
AcDbEntity
  8
0
100
AcDbLine
 62
7
  6
CONTINUOUS
 10
1117.6
 20
0.0
 11
1117.6
 21
863.6
  0
LINE
  5
263
100
AcDbEntity
  8
MANIFOLD_SOLID_BREP_1867_-_1_1_
100
AcDbLine
 62
7
  6
CONTINUOUS
 10
443.3117295375
 20
127.9475512723
 11
456.3117293698
 21
127.9475512723
  0
LINE
  5
264
100
AcDbEntity
  8
MANIFOLD_SOLID_BREP_1867_-_1_1_
100
AcDbLine
 62
7
  6
CONTINUOUS
 10
442.3117293422
 20
128.9475512723
 11
457.3117294843
 21
128.9475512723
  0
LINE
  5
265
100
AcDbEntity
  8
MANIFOLD_SOLID_BREP_1867_-_1_1_
100
AcDbLine
 62
7
  6
CONTINUOUS
 10
457.3117294843
 20
134.9475512723
 11
442.3117293422
 21
134.9475512723
  0
LINE
  5
266
100
AcDbEntity
  8
MANIFOLD_SOLID_BREP_1867_-_1_1_
100
AcDbLine
 62
7
  6
CONTINUOUS
 10
456.3117292856
 20
135.9475512723
 11
443.3117294531
 21
135.9475512723
  0
LINE
  5
267
100
AcDbEntity
  8
MANIFOLD_SOLID_BREP_1867_-_1_1_
100
AcDbLine
 62
7
  6
CONTINUOUS
 10
443.3117294808
 20
127.947551204
 11
442.3117293914
 21
128.9475512934
  0
LINE
  5
268
100
AcDbEntity
  8
MANIFOLD_SOLID_BREP_1870_-_1_1_
100
AcDbLine
 62
7
  6
CONTINUOUS
 10
424.8883916682
 20
165.9305455823
 11
474.6624883912
 21
165.9305455823
  0
LINE
  5
269
100
AcDbEntity
  8
MANIFOLD_SOLID_BREP_1870_-_1_1_
100
AcDbLine
 62
7
  6
CONTINUOUS
 10
464.6800879278
 20
168.4305455823
 11
434.4412170323
 21
168.4305455823
  0
LINE
  5
26A
100
AcDbEntity
  8
MANIFOLD_SOLID_BREP_1866_-_1_1_
100
AcDbLine
 62
7
  6
CONTINUOUS
 10
423.7161068183
 20
168.4305455823
 11
434.4412170323
 21
168.4305455823
  0
LINE
  5
26B
100
AcDbEntity
  8
MANIFOLD_SOLID_BREP_1866_-_1_1_
100
AcDbLine
 62
7
  6
CONTINUOUS
 10
464.6800879278
 20
168.4305455823
 11
475.715682922
 21
168.4305455823
  0
LINE
  5
26C
100
AcDbEntity
  8
MANIFOLD_SOLID_BREP_1867_-_1_1_
100
AcDbLine
 62
7
  6
CONTINUOUS
 10
456.3117293431
 20
135.9475513417
 11
457.3117294343
 21
134.9475512504
  0
LINE
  5
26D
100
AcDbEntity
  8
MANIFOLD_SOLID_BREP_1866_-_1_1_
100
AcDbLine
 62
7
  6
CONTINUOUS
 10
475.7157342861
 20
206.4305455823
 11
423.7161465619
 21
206.4305455823
  0
LINE
  5
26E
100
AcDbEntity
  8
MANIFOLD_SOLID_BREP_1869_-_1_1_
100
AcDbLine
 62
7
  6
CONTINUOUS
 10
668.6119953721
 20
702.7098171208
 11
641.8354622051
 21
694.5234093886
  0
LINE
  5
26F
100
AcDbEntity
  8
MTJ_-_1_1_1_1
100
AcDbLine
 62
7
  6
CONTINUOUS
 10
420.7159368963
 20
254.1622652262
 11
478.7159165553
 21
254.1622652262
  0
LINE
  5
270
100
AcDbEntity
  8
MTJ_-_1_1_1_1
100
AcDbLine
 62
7
  6
CONTINUOUS
 10
478.7159125549
 20
262.1622652262
 11
420.7159333517
 21
262.1622652262
  0
LINE
  5
271
100
AcDbEntity
  8
MANIFOLD_SOLID_BREP_1878_-_1_1_
100
AcDbLine
 62
7
  6
CONTINUOUS
 10
444.8117294125
 20
295.4175842588
 11
443.8117294125
 21
296.4175842588
  0
LINE
  5
272
100
AcDbEntity
  8
MANIFOLD_SOLID_BREP_1874_-_1_1_
100
AcDbLine
 62
7
  6
CONTINUOUS
 10
677.3831391092
 20
674.0206721781
 11
650.6066207514
 21
665.8342689735
  0
LINE
  5
273
100
AcDbEntity
  8
MANIFOLD_SOLID_BREP_1869_-_1_1_
100
AcDbLine
 62
7
  6
CONTINUOUS
 10
650.6066133468
 20
665.8342667097
 11
677.3831465138
 21
674.0206744419
  0
LINE
  5
274
100
AcDbEntity
  8
68190-01_-_1_1_1_1
100
AcDbLine
 62
7
  6
CONTINUOUS
 10
677.5432236436
 20
673.4970857428
 11
650.7666904766
 21
665.3106780105
  0
LINE
  5
275
100
AcDbEntity
  8
MANIFOLD_SOLID_BREP_1874_-_1_1_
100
AcDbLine
 62
7
  6
CONTINUOUS
 10
650.8989924561
 20
664.8779642175
 11
677.6755108139
 21
673.0643674221
  0
LINE
  5
276
100
AcDbEntity
  8
MANIFOLD_SOLID_BREP_1878_-_1_1_
100
AcDbLine
 62
7
  6
CONTINUOUS
 10
444.8119788009
 20
295.4175842588
 11
454.8114800241
 21
295.4175842588
  0
LINE
  5
277
100
AcDbEntity
  8
MANIFOLD_SOLID_BREP_1878_-_1_1_
100
AcDbLine
 62
7
  6
CONTINUOUS
 10
443.8117294125
 20
296.4175842588
 11
455.8117294125
 21
296.4175842588
  0
LINE
  5
278
100
AcDbEntity
  8
MANIFOLD_SOLID_BREP_1878_-_1_1_
100
AcDbLine
 62
7
  6
CONTINUOUS
 10
455.3117294125
 20
352.4175842588
 11
455.8117294125
 21
351.9175842588
  0
LINE
  5
279
100
AcDbEntity
  8
MTJ_-_1_1_1_1
100
AcDbLine
 62
7
  6
CONTINUOUS
 10
420.7159249535
 20
254.1622652262
 11
420.7159249535
 21
262.1622652262
  0
LINE
  5
27A
100
AcDbEntity
  8
MANIFOLD_SOLID_BREP_1866_-_1_1_
100
AcDbLine
 62
7
  6
CONTINUOUS
 10
423.7159249535
 20
168.4305455823
 11
423.7159249535
 21
206.4305455823
  0
LINE
  5
27B
100
AcDbEntity
  8
MANIFOLD_SOLID_BREP_1872_-_1_1_
100
AcDbLine
 62
7
  6
CONTINUOUS
 10
423.8117294125
 20
390.7175842588
 11
423.8117294125
 21
384.7175842588
  0
LINE
  5
27C
100
AcDbEntity
  8
MANIFOLD_SOLID_BREP_1870_-_1_1_
100
AcDbLine
 62
7
  6
CONTINUOUS
 10
424.888283004
 20
165.9305455823
 11
424.888283004
 21
168.4305455823
  0
LINE
  5
27D
100
AcDbEntity
  8
MANIFOLD_SOLID_BREP_1882_-_1_1_
100
AcDbLine
 62
7
  6
CONTINUOUS
 10
427.3117294125
 20
504.9175842588
 11
427.3117294125
 21
501.4175842588
  0
LINE
  5
27E
100
AcDbEntity
  8
MANIFOLD_SOLID_BREP_1884_-_1_1_
100
AcDbLine
 62
7
  6
CONTINUOUS
 10
427.3117294125
 20
460.1175842588
 11
427.3117294125
 21
392.9175842588
  0
LINE
  5
27F
100
AcDbEntity
  8
MANIFOLD_SOLID_BREP_1879_-_1_1_
100
AcDbLine
 62
7
  6
CONTINUOUS
 10
427.3117294125
 20
396.4175842588
 11
427.3117294125
 21
501.4175842588
  0
LINE
  5
280
100
AcDbEntity
  8
MANIFOLD_SOLID_BREP_1870_-_1_1_
100
AcDbLine
 62
7
  6
CONTINUOUS
 10
429.3121177114
 20
168.4305455823
 11
429.3121177114
 21
165.9305455823
  0
LINE
  5
281
100
AcDbEntity
  8
MANIFOLD_SOLID_BREP_1884_-_1_1_
100
AcDbLine
 62
7
  6
CONTINUOUS
 10
432.8117294125
 20
392.9175842588
 11
432.8117294125
 21
392.4175842588
  0
LINE
  5
282
100
AcDbEntity
  8
MANIFOLD_SOLID_BREP_1866_-_1_1_
100
AcDbLine
 62
7
  6
CONTINUOUS
 10
433.1683247055
 20
206.4305455823
 11
433.1683247055
 21
168.4305455823
  0
LINE
  5
283
100
AcDbEntity
  8
MANIFOLD_SOLID_BREP_1866_-_1_1_
100
AcDbLine
 62
7
  6
CONTINUOUS
 10
434.4412170323
 20
168.4305455823
 11
434.4412170323
 21
206.4305455823
  0
LINE
  5
284
100
AcDbEntity
  8
MANIFOLD_SOLID_BREP_1869_-_1_1_
100
AcDbLine
 62
7
  6
CONTINUOUS
 10
435.8117294125
 20
667.9175842588
 11
435.8117294125
 21
509.9175842588
  0
LINE
  5
285
100
AcDbEntity
  8
MANIFOLD_SOLID_BREP_1881_-_1_1_
100
AcDbLine
 62
7
  6
CONTINUOUS
 10
435.8117294125
 20
509.9175842588
 11
435.8117294125
 21
504.9175842588
  0
LINE
  5
286
100
AcDbEntity
  8
MTJ_-_1_1_1_1
100
AcDbLine
 62
7
  6
CONTINUOUS
 10
438.7159249535
 20
262.1622652262
 11
438.7159249535
 21
254.1622652262
  0
LINE
  5
287
100
AcDbEntity
  8
MANIFOLD_SOLID_BREP_1864_-_1_1_
100
AcDbLine
 62
7
  6
CONTINUOUS
 10
441.3117294125
 20
384.7175842588
 11
441.3117294125
 21
352.4175842588
  0
LINE
  5
288
100
AcDbEntity
  8
MANIFOLD_SOLID_BREP_1870_-_1_1_
100
AcDbLine
 62
7
  6
CONTINUOUS
 10
441.8432068365
 20
168.4305455823
 11
441.8432068365
 21
165.9305455823
  0
LINE
  5
289
100
AcDbEntity
  8
68190-01_-_1_1_1_1
100
AcDbLine
 62
7
  6
CONTINUOUS
 10
666.6157840594
 20
613.4706287644
 11
693.3923172264
 21
621.6570364967
  0
LINE
  5
28A
100
AcDbEntity
  8
68190-01_-_1_1_1_1
100
AcDbLine
 62
7
  6
CONTINUOUS
 10
694.1728992216
 20
620.7456135714
 11
666.4783134889
 21
612.2785290026
  0
LINE
  5
28B
100
AcDbEntity
  8
MANIFOLD_SOLID_BREP_1867_-_1_1_
100
AcDbLine
 62
7
  6
CONTINUOUS
 10
442.3117294125
 20
128.947551278
 11
442.3117294125
 21
134.9475512668
  0
LINE
  5
28C
100
AcDbEntity
  8
MANIFOLD_SOLID_BREP_1867_-_1_1_
100
AcDbLine
 62
7
  6
CONTINUOUS
 10
443.0852594795
 20
134.9475512667
 11
443.0852594795
 21
128.9475512782
  0
LINE
  5
28D
100
AcDbEntity
  8
MANIFOLD_SOLID_BREP_1878_-_1_1_
100
AcDbLine
 62
7
  6
CONTINUOUS
 10
443.8117294125
 20
351.9175842588
 11
443.8117294125
 21
296.4175842588
  0
LINE
  5
28E
100
AcDbEntity
  8
MANIFOLD_SOLID_BREP_1867_-_1_1_
100
AcDbLine
 62
7
  6
CONTINUOUS
 10
449.0381994881
 20
128.9475512782
 11
449.0381994881
 21
134.9475512667
  0
LINE
  5
28F
100
AcDbEntity
  8
MANIFOLD_SOLID_BREP_1867_-_1_1_
100
AcDbLine
 62
7
  6
CONTINUOUS
 10
450.5852592898
 20
134.9475512682
 11
450.5852592898
 21
128.9475512764
  0
LINE
  5
290
100
AcDbEntity
  8
MANIFOLD_SOLID_BREP_1878_-_1_1_
100
AcDbLine
 62
7
  6
CONTINUOUS
 10
455.8117294125
 20
351.9175842588
 11
455.8117294125
 21
296.4175842588
  0
LINE
  5
291
100
AcDbEntity
  8
MANIFOLD_SOLID_BREP_1867_-_1_1_
100
AcDbLine
 62
7
  6
CONTINUOUS
 10
456.5381995352
 20
128.9475512764
 11
456.5381995352
 21
134.9475512682
  0
LINE
  5
292
100
AcDbEntity
  8
MANIFOLD_SOLID_BREP_1867_-_1_1_
100
AcDbLine
 62
7
  6
CONTINUOUS
 10
457.3117294125
 20
134.9475512665
 11
457.3117294125
 21
128.9475512779
  0
LINE
  5
293
100
AcDbEntity
  8
MANIFOLD_SOLID_BREP_1870_-_1_1_
100
AcDbLine
 62
7
  6
CONTINUOUS
 10
457.6784840639
 20
168.4305455823
 11
457.6784840639
 21
165.9305455823
  0
LINE
  5
294
100
AcDbEntity
  8
MANIFOLD_SOLID_BREP_1864_-_1_1_
100
AcDbLine
 62
7
  6
CONTINUOUS
 10
458.3117294125
 20
384.7175842588
 11
458.3117294125
 21
352.4175842588
  0
LINE
  5
295
100
AcDbEntity
  8
MTJ_-_1_1_1_1
100
AcDbLine
 62
7
  6
CONTINUOUS
 10
460.7159249535
 20
254.1622652262
 11
460.7159249535
 21
262.1622652262
  0
LINE
  5
296
100
AcDbEntity
  8
MANIFOLD_SOLID_BREP_1869_-_1_1_
100
AcDbLine
 62
7
  6
CONTINUOUS
 10
463.8117294125
 20
667.9175842588
 11
463.8117294125
 21
509.9175842588
  0
LINE
  5
297
100
AcDbEntity
  8
MANIFOLD_SOLID_BREP_1881_-_1_1_
100
AcDbLine
 62
7
  6
CONTINUOUS
 10
463.8117294125
 20
509.9175842588
 11
463.8117294125
 21
504.9175842588
  0
LINE
  5
298
100
AcDbEntity
  8
MANIFOLD_SOLID_BREP_1866_-_1_1_
100
AcDbLine
 62
7
  6
CONTINUOUS
 10
464.6800879278
 20
206.4305455823
 11
464.6800879278
 21
168.4305455823
  0
LINE
  5
299
100
AcDbEntity
  8
68190-01_-_1_1_1_1
100
AcDbLine
 62
7
  6
CONTINUOUS
 10
667.7242493505
 20
609.8450021647
 11
694.5007825175
 21
618.0314098969
  0
LINE
  5
29A
100
AcDbEntity
  8
70501-04___-_1_1_1_1
100
AcDbLine
 62
7
  6
CONTINUOUS
 10
670.1090194283
 20
608.8853779509
 11
670.2088077494
 21
608.9158863023
  0
LINE
  5
29B
100
AcDbEntity
  8
70501-04___-_1_1_1_1
100
AcDbLine
 62
7
  6
CONTINUOUS
 10
680.0746051706
 20
611.932163271
 11
683.0947478413
 21
612.8555135479
  0
LINE
  5
29C
100
AcDbEntity
  8
70501-04___-_1_1_1_1
100
AcDbLine
 62
7
  6
CONTINUOUS
 10
692.9605452482
 20
615.8717905122
 11
693.0603335714
 21
615.9022988643
  0
LINE
  5
29D
100
AcDbEntity
  8
70501-04___-_1_1_1_1
100
AcDbLine
 62
7
  6
CONTINUOUS
 10
670.7333739128
 20
608.5534163947
 11
670.8289881568
 21
608.5826486027
  0
LINE
  5
29E
100
AcDbEntity
  8
70501-04___-_1_1_1_1
100
AcDbLine
 62
7
  6
CONTINUOUS
 10
680.2837104598
 20
611.4732472954
 11
683.1780141884
 21
612.3581247467
  0
LINE
  5
29F
100
AcDbEntity
  8
70501-04___-_1_1_1_1
100
AcDbLine
 62
7
  6
CONTINUOUS
 10
692.6327365305
 20
615.2487234513
 11
692.7283670458
 21
615.2779606339
  0
LINE
  5
2A0
100
AcDbEntity
  8
70501-04___-_1_1_1_1
100
AcDbLine
 62
7
  6
CONTINUOUS
 10
686.7748152115
 20
612.9349312965
 11
676.9792818936
 21
609.9401337305
  0
LINE
  5
2A1
100
AcDbEntity
  8
70501-04___-_1_1_1_1
100
AcDbLine
 62
7
  6
CONTINUOUS
 10
671.499062679
 20
608.2646650648
 11
671.4533263645
 21
608.2506820703
  0
LINE
  5
2A2
100
AcDbEntity
  8
70501-04___-_1_1_1_1
100
AcDbLine
 62
7
  6
CONTINUOUS
 10
692.3007710893
 20
614.6243818158
 11
692.2550347749
 21
614.6103988213
  0
LINE
  5
2A3
100
AcDbEntity
  8
70501-04___-_1_1_1_1
100
AcDbLine
 62
7
  6
CONTINUOUS
 10
672.4766273335
 20
604.903615425
 11
693.3240710088
 21
611.2773185865
  0
LINE
  5
2A4
100
AcDbEntity
  8
PP-STD___-_1_1_1_1
100
AcDbLine
 62
7
  6
CONTINUOUS
 10
674.8035634842
 20
605.592594092
 11
691.0096815297
 21
610.5473016059
  0
LINE
  5
2A5
100
AcDbEntity
  8
MANIFOLD_SOLID_BREP_1878_-_1_1_
100
AcDbLine
 62
7
  6
CONTINUOUS
 10
455.8117294125
 20
351.9175842588
 11
443.8117294125
 21
351.9175842588
  0
LINE
  5
2A6
100
AcDbEntity
  8
MANIFOLD_SOLID_BREP_1864_-_1_1_
100
AcDbLine
 62
7
  6
CONTINUOUS
 10
441.3117392364
 20
352.4175842588
 11
458.3117195886
 21
352.4175842588
  0
LINE
  5
2A7
100
AcDbEntity
  8
MANIFOLD_SOLID_BREP_1866_-_1_1_
100
AcDbLine
 62
7
  6
CONTINUOUS
 10
465.927101509
 20
168.4305455823
 11
465.927101509
 21
206.4305455823
  0
LINE
  5
2A8
100
AcDbEntity
  8
MANIFOLD_SOLID_BREP_1884_-_1_1_
100
AcDbLine
 62
7
  6
CONTINUOUS
 10
466.8117294125
 20
392.9175842588
 11
466.8117294125
 21
392.4175842588
  0
LINE
  5
2A9
100
AcDbEntity
  8
MANIFOLD_SOLID_BREP_1870_-_1_1_
100
AcDbLine
 62
7
  6
CONTINUOUS
 10
470.2124231682
 20
168.4305455823
 11
470.2124231682
 21
165.9305455823
  0
LINE
  5
2AA
100
AcDbEntity
  8
MANIFOLD_SOLID_BREP_1882_-_1_1_
100
AcDbLine
 62
7
  6
CONTINUOUS
 10
472.3117294125
 20
504.9175842588
 11
472.3117294125
 21
501.4175842588
  0
LINE
  5
2AB
100
AcDbEntity
  8
MANIFOLD_SOLID_BREP_1884_-_1_1_
100
AcDbLine
 62
7
  6
CONTINUOUS
 10
472.3117294125
 20
460.1175842588
 11
472.3117294125
 21
392.9175842588
  0
LINE
  5
2AC
100
AcDbEntity
  8
MANIFOLD_SOLID_BREP_1879_-_1_1_
100
AcDbLine
 62
7
  6
CONTINUOUS
 10
472.3117294125
 20
396.4175842588
 11
472.3117294125
 21
501.4175842588
  0
LINE
  5
2AD
100
AcDbEntity
  8
MANIFOLD_SOLID_BREP_1870_-_1_1_
100
AcDbLine
 62
7
  6
CONTINUOUS
 10
474.6625904755
 20
165.9305455823
 11
474.6625904755
 21
168.4305455823
  0
LINE
  5
2AE
100
AcDbEntity
  8
MANIFOLD_SOLID_BREP_1866_-_1_1_
100
AcDbLine
 62
7
  6
CONTINUOUS
 10
475.7159249535
 20
168.4305455823
 11
475.7159249535
 21
206.4305455823
  0
LINE
  5
2AF
100
AcDbEntity
  8
MANIFOLD_SOLID_BREP_1872_-_1_1_
100
AcDbLine
 62
7
  6
CONTINUOUS
 10
475.8117294125
 20
390.7175842588
 11
475.8117294125
 21
384.7175842588
  0
LINE
  5
2B0
100
AcDbEntity
  8
MTJ_-_1_1_1_1
100
AcDbLine
 62
7
  6
CONTINUOUS
 10
478.7159249535
 20
254.1622652262
 11
478.7159249535
 21
262.1622652262
  0
LINE
  5
2B1
100
AcDbEntity
  8
MANIFOLD_SOLID_BREP_1872_-_1_1_
100
AcDbLine
 62
7
  6
CONTINUOUS
 10
423.8119447011
 20
384.7175842588
 11
475.8115141239
 21
384.7175842588
  0
LINE
  5
2B2
100
AcDbEntity
  8
MANIFOLD_SOLID_BREP_1872_-_1_1_
100
AcDbLine
 62
7
  6
CONTINUOUS
 10
475.8117294125
 20
390.7175842588
 11
423.8117294125
 21
390.7175842588
  0
LINE
  5
2B3
100
AcDbEntity
  8
MANIFOLD_SOLID_BREP_1872_-_1_1_
100
AcDbLine
 62
7
  6
CONTINUOUS
 10
474.1117294125
 20
392.4175842588
 11
425.5117294125
 21
392.4175842588
  0
LINE
  5
2B4
100
AcDbEntity
  8
MANIFOLD_SOLID_BREP_1884_-_1_1_
100
AcDbLine
 62
7
  6
CONTINUOUS
 10
427.3120245801
 20
392.9175842588
 11
472.3114342449
 21
392.9175842588
  0
LINE
  5
2B5
100
AcDbEntity
  8
MANIFOLD_SOLID_BREP_1879_-_1_1_
100
AcDbLine
 62
7
  6
CONTINUOUS
 10
427.3117294125
 20
396.4175842588
 11
472.3117294125
 21
396.4175842588
  0
LINE
  5
2B6
100
AcDbEntity
  8
MANIFOLD_SOLID_BREP_1878_-_1_1_
100
AcDbLine
 62
7
  6
CONTINUOUS
 10
444.3117294125
 20
352.4175842588
 11
443.8117294125
 21
351.9175842588
  0
LINE
  5
2B7
100
AcDbEntity
  8
MANIFOLD_SOLID_BREP_1884_-_1_1_
100
AcDbLine
 62
7
  6
CONTINUOUS
 10
472.3114342449
 20
460.1175842588
 11
427.3120245801
 21
460.1175842588
  0
LINE
  5
2B8
100
AcDbEntity
  8
MANIFOLD_SOLID_BREP_1878_-_1_1_
100
AcDbLine
 62
7
  6
CONTINUOUS
 10
454.8117294125
 20
295.4175842588
 11
455.8117294125
 21
296.4175842588
  0
LINE
  5
2B9
100
AcDbEntity
  8
MANIFOLD_SOLID_BREP_1879_-_1_1_
100
AcDbLine
 62
7
  6
CONTINUOUS
 10
472.3117294125
 20
501.4175842588
 11
427.3117294125
 21
501.4175842588
  0
LINE
  5
2BA
100
AcDbEntity
  8
MANIFOLD_SOLID_BREP_1882_-_1_1_
100
AcDbLine
 62
7
  6
CONTINUOUS
 10
427.3119104338
 20
501.4175842588
 11
472.3110215587
 21
501.4175842588
  0
LINE
  5
2BB
100
AcDbEntity
  8
MANIFOLD_SOLID_BREP_1882_-_1_1_
100
AcDbLine
 62
7
  6
CONTINUOUS
 10
472.3115386426
 20
504.9175842588
 11
427.3119201824
 21
504.9175842588
  0
LINE
  5
2BC
100
AcDbEntity
  8
MANIFOLD_SOLID_BREP_1881_-_1_1_
100
AcDbLine
 62
7
  6
CONTINUOUS
 10
463.8116370791
 20
509.9175842588
 11
435.8118217459
 21
509.9175842588
  0
LINE
  5
2BD
100
AcDbEntity
  8
MANIFOLD_SOLID_BREP_1869_-_1_1_
100
AcDbLine
 62
7
  6
CONTINUOUS
 10
435.8117294125
 20
509.9175842588
 11
463.8117294125
 21
509.9175842588
  0
LINE
  5
2BE
100
AcDbEntity
  8
MANIFOLD_SOLID_BREP_1867_-_1_1_
100
AcDbLine
 62
7
  6
CONTINUOUS
 10
442.3117293695
 20
134.9475512293
 11
443.3117294365
 21
135.9475512964
  0
LINE
  5
2BF
100
AcDbEntity
  8
MANIFOLD_SOLID_BREP_1867_-_1_1_
100
AcDbLine
 62
7
  6
CONTINUOUS
 10
457.3117294565
 20
128.9475513163
 11
456.3117293873
 21
127.9475512471
  0
LINE
  5
2C0
100
AcDbEntity
  8
MANIFOLD_SOLID_BREP_1869_-_1_1_
100
AcDbLine
 62
7
  6
CONTINUOUS
 10
641.8354622051
 20
694.5234093886
 11
650.6066133468
 21
665.8342667097
  0
LINE
  5
2C1
100
AcDbEntity
  8
68190-01_-_1_1_1_1
100
AcDbLine
 62
7
  6
CONTINUOUS
 10
650.7666904766
 20
665.3106780105
 11
666.6157840594
 21
613.4706287644
  0
LINE
  5
2C2
100
AcDbEntity
  8
MANIFOLD_SOLID_BREP_1874_-_1_1_
100
AcDbLine
 62
7
  6
CONTINUOUS
 10
650.8989850515
 20
664.8779619537
 11
650.6066133468
 21
665.8342667097
  0
LINE
  5
2C3
100
AcDbEntity
  8
70501-04___-_1_1_1_1
100
AcDbLine
 62
7
  6
CONTINUOUS
 10
669.6368588624
 20
610.4297455741
 11
670.1090194283
 21
608.8853779509
  0
LINE
  5
2C4
100
AcDbEntity
  8
70501-04___-_1_1_1_1
100
AcDbLine
 62
7
  6
CONTINUOUS
 10
671.4533263645
 20
608.2506820703
 11
672.4766273311
 21
604.9036154243
  0
LINE
  5
2C5
100
AcDbEntity
  8
70501-04___-_1_1_1_1
100
AcDbLine
 62
7
  6
CONTINUOUS
 10
671.499062679
 20
608.2646650648
 11
672.5223636455
 21
604.9175984189
  0
LINE
  5
2C6
100
AcDbEntity
  8
PP-STD___-_1_1_1_1
100
AcDbLine
 62
7
  6
CONTINUOUS
 10
674.797285669
 20
605.6131118793
 11
674.8035590048
 21
605.5925927225
  0
LINE
  5
2C7
100
AcDbEntity
  8
70501-04___-_1_1_1_1
100
AcDbLine
 62
7
  6
CONTINUOUS
 10
678.0025821641
 20
606.5930693611
 11
676.9792818936
 21
609.9401337305
  0
LINE
  5
2C8
100
AcDbEntity
  8
70501-04___-_1_1_1_1
100
AcDbLine
 62
7
  6
CONTINUOUS
 10
677.1833581042
 20
610.002527791
 11
678.2066588505
 21
606.6554618655
  0
LINE
  5
2C9
100
AcDbEntity
  8
70501-04___-_1_1_1_1
100
AcDbLine
 62
7
  6
CONTINUOUS
 10
687.5940395423
 20
609.5254721615
 11
686.5707387961
 21
612.872538087
  0
LINE
  5
2CA
100
AcDbEntity
  8
70501-04___-_1_1_1_1
100
AcDbLine
 62
7
  6
CONTINUOUS
 10
686.7748152115
 20
612.9349312965
 11
687.7981161781
 21
609.5878646504
  0
LINE
  5
2CB
100
AcDbEntity
  8
PP-STD___-_1_1_1_1
100
AcDbLine
 62
7
  6
CONTINUOUS
 10
691.0034126732
 20
610.5678221322
 11
691.009686009
 21
610.5473029753
  0
LINE
  5
2CC
100
AcDbEntity
  8
70501-04___-_1_1_1_1
100
AcDbLine
 62
7
  6
CONTINUOUS
 10
693.2783346967
 20
611.2633355927
 11
692.2550347749
 21
614.6103988213
  0
LINE
  5
2CD
100
AcDbEntity
  8
70501-04___-_1_1_1_1
100
AcDbLine
 62
7
  6
CONTINUOUS
 10
692.3007702781
 20
614.6243844694
 11
693.3240710111
 21
611.2773185872
  0
LINE
  5
2CE
100
AcDbEntity
  8
70501-04___-_1_1_1_1
100
AcDbLine
 62
7
  6
CONTINUOUS
 10
692.5881730055
 20
617.4466664875
 11
693.0603335714
 21
615.9022988643
  0
LINE
  5
2CF
100
AcDbEntity
  8
MANIFOLD_SOLID_BREP_1869_-_1_1_
100
AcDbLine
 62
7
  6
CONTINUOUS
 10
668.6119953721
 20
702.7098171208
 11
677.3831465138
 21
674.0206744419
  0
LINE
  5
2D0
100
AcDbEntity
  8
68190-01_-_1_1_1_1
100
AcDbLine
 62
7
  6
CONTINUOUS
 10
677.5432236436
 20
673.4970857428
 11
693.3923172264
 21
621.6570364967
  0
LINE
  5
2D1
100
AcDbEntity
  8
MANIFOLD_SOLID_BREP_1874_-_1_1_
100
AcDbLine
 62
7
  6
CONTINUOUS
 10
677.6755182185
 20
673.0643696859
 11
677.3831465137
 21
674.0206744419
  0
LINE
  5
2D2
100
AcDbEntity
  8
MANIFOLD_SOLID_BREP_1869_-_1_1_
100
AcDbLine
 62
7
  6
CONTINUOUS
 10
463.8117294125
 20
667.9175842588
 11
435.8117294125
 21
667.9175842588
  0
ARC
  5
2D3
100
AcDbEntity
  8
MANIFOLD_SOLID_BREP_1867_-_1_1_
100
AcDbCircle
 62
7
  6
CONTINUOUS
 10
344.771242969
 20
205.927977371
 40
135.7123377107
100
AcDbArc
 50
324.9283149259
 51
325.4425473763
  0
ARC
  5
2D4
100
AcDbEntity
  8
MANIFOLD_SOLID_BREP_1867_-_1_1_
100
AcDbCircle
 62
7
  6
CONTINUOUS
 10
344.8336721136
 20
58.0106068229
 40
135.6362586127
100
AcDbArc
 50
34.5572848124
 51
35.0718055762
  0
ARC
  5
2D5
100
AcDbEntity
  8
MANIFOLD_SOLID_BREP_1867_-_1_1_
100
AcDbCircle
 62
7
  6
CONTINUOUS
 10
366.3143378081
 20
160.6920032254
 40
86.6372556048
100
AcDbArc
 50
342.7133617015
 51
343.4046954159
  0
ARC
  5
2D6
100
AcDbEntity
  8
MANIFOLD_SOLID_BREP_1867_-_1_1_
100
AcDbCircle
 62
7
  6
CONTINUOUS
 10
367.3240151617
 20
103.5106372422
 40
85.5818003438
100
AcDbArc
 50
16.5910505247
 51
17.2909104129
  0
ARC
  5
2D7
100
AcDbEntity
  8
MANIFOLD_SOLID_BREP_1872_-_1_1_
100
AcDbCircle
 62
7
  6
CONTINUOUS
 10
474.1117294125
 20
390.7175842588
 40
1.7
100
AcDbArc
 50
0.0
 51
90.0
  0
ARC
  5
2D8
100
AcDbEntity
  8
MANIFOLD_SOLID_BREP_1872_-_1_1_
100
AcDbCircle
 62
7
  6
CONTINUOUS
 10
425.5117294125
 20
390.7175842588
 40
1.7
100
AcDbArc
 50
90.0
 51
180.0
  0
ARC
  5
2D9
100
AcDbEntity
  8
MANIFOLD_SOLID_BREP_1867_-_1_1_
100
AcDbCircle
 62
7
  6
CONTINUOUS
 10
555.6665729631
 20
57.4009052606
 40
136.704186128
100
AcDbArc
 50
144.9302081702
 51
145.440709466
  0
ARC
  5
2DA
100
AcDbEntity
  8
MANIFOLD_SOLID_BREP_1867_-_1_1_
100
AcDbCircle
 62
7
  6
CONTINUOUS
 10
554.7854984063
 20
205.8815017276
 40
135.6310285623
100
AcDbArc
 50
214.557270773
 51
215.07181136
  0
ARC
  5
2DB
100
AcDbEntity
  8
MANIFOLD_SOLID_BREP_1867_-_1_1_
100
AcDbCircle
 62
7
  6
CONTINUOUS
 10
532.298604878
 20
160.3842146198
 40
85.5809249037
100
AcDbArc
 50
196.5910500281
 51
197.2909170924
  0
ARC
  5
2DC
100
AcDbEntity
  8
MANIFOLD_SOLID_BREP_1867_-_1_1_
100
AcDbCircle
 62
7
  6
CONTINUOUS
 10
532.252703466
 20
103.5248197659
 40
85.5329559684
100
AcDbArc
 50
162.7088544077
 51
163.409114131
  0
ARC
  5
2DD
100
AcDbEntity
  8
MANIFOLD_SOLID_BREP_1869_-_1_1_
100
AcDbCircle
 62
7
  6
CONTINUOUS
 10
554.8117294125
 20
667.9175842588
 40
119.0
100
AcDbArc
 50
17.0
 51
180.0
  0
ARC
  5
2DE
100
AcDbEntity
  8
MANIFOLD_SOLID_BREP_1869_-_1_1_
100
AcDbCircle
 62
7
  6
CONTINUOUS
 10
554.8117294125
 20
667.9175842588
 40
91.0
100
AcDbArc
 50
17.0
 51
180.0
  0
ARC
  5
2DF
100
AcDbEntity
  8
68190-01_-_1_1_1_1
100
AcDbCircle
 62
7
  6
CONTINUOUS
 10
693.4645344879
 20
619.2831347154
 40
1.625
100
AcDbArc
 50
309.619864948
 51
64.1563569564
  0
ARC
  5
2E0
100
AcDbEntity
  8
68190-01_-_1_1_1_1
100
AcDbCircle
 62
7
  6
CONTINUOUS
 10
667.8833822659
 20
611.4621916141
 40
1.625
100
AcDbArc
 50
149.8436430436
 51
264.380135052
  0
ARC
  5
2E1
100
AcDbEntity
  8
68190-01_-_1_1_1_1
100
AcDbCircle
 62
7
  6
CONTINUOUS
 10
694.8267743604
 20
622.0955940538
 40
1.5
100
AcDbArc
 50
197.0
 51
244.1563569564
  0
ARC
  5
2E2
100
AcDbEntity
  8
68190-01_-_1_1_1_1
100
AcDbCircle
 62
7
  6
CONTINUOUS
 10
665.1813269255
 20
613.0320712074
 40
1.5
100
AcDbArc
 50
329.8436430436
 51
17.0
  0
ARC
  5
2E3
100
AcDbEntity
  8
70501-04___-_1_1_1_1
100
AcDbCircle
 62
7
  6
CONTINUOUS
 10
670.5836033064
 20
607.9849025314
 40
0.9572528095
100
AcDbArc
 50
16.9930731975
 51
20.8063923918
  0
ARC
  5
2E4
100
AcDbEntity
  8
70501-04___-_1_1_1_1
100
AcDbCircle
 62
7
  6
CONTINUOUS
 10
693.1691879505
 20
614.8899927549
 40
0.9559543854
100
AcDbArc
 50
191.186639568
 51
197.006255941
  0
ARC
  5
2E5
100
AcDbEntity
  8
70501-04___-_1_1_1_1
100
AcDbCircle
 62
7
  6
CONTINUOUS
 10
670.5871718063
 20
609.0315638033
 40
0.5
100
AcDbArc
 50
197.0
 51
287.0
  0
ARC
  5
2E6
100
AcDbEntity
  8
70501-04___-_1_1_1_1
100
AcDbCircle
 62
7
  6
CONTINUOUS
 10
692.7789224226
 20
614.7705710855
 40
0.5
100
AcDbArc
 50
107.0
 51
197.000091513
  0
ARC
  5
2E7
100
AcDbEntity
  8
70501-04___-_1_1_1_1
100
AcDbCircle
 62
7
  6
CONTINUOUS
 10
692.5821811934
 20
615.7561130119
 40
0.5
100
AcDbArc
 50
287.0
 51
17.0
  0
ARC
  5
2E8
100
AcDbEntity
  8
70501-04___-_1_1_1_1
100
AcDbCircle
 62
7
  6
CONTINUOUS
 10
670.9751739866
 20
608.1044962178
 40
0.5
100
AcDbArc
 50
16.9999221783
 51
107.0
  0
ARC
  5
2E9
100
AcDbEntity
  8
70501-04___-_1_1_1_1
100
AcDbCircle
 62
7
  6
CONTINUOUS
 10
670.6846234379
 20
609.0570942399
 40
0.4959381882
100
AcDbArc
 50
271.96494965
 51
279.3816369313
  0
ARC
  5
2EA
100
AcDbEntity
  8
70501-04___-_1_1_1_1
100
AcDbCircle
 62
7
  6
CONTINUOUS
 10
692.4887953273
 20
615.7187022958
 40
0.4915273366
100
AcDbArc
 50
287.0283464693
 51
294.9015460527
  0
ARC
  5
2EB
100
AcDbEntity
  8
70501-04___-_1_1_1_1
100
AcDbCircle
 62
7
  6
CONTINUOUS
 10
670.6855738076
 20
609.0525281456
 40
0.4912782864
100
AcDbArc
 50
279.3590884753
 51
286.9729795457
  0
SPLINE
  5
2EC
100
AcDbEntity
  8
70501-04___-_1_1_1_1
100
AcDbSpline
 62
7
  6
CONTINUOUS
 70
0
 71
3
 72
20
 73
16
 74
0
 42
0.0000001
 43
0.0000001
 44
0.0000000001
 40
0.0
 40
0.0
 40
0.0
 40
0.0
 40
0.0202194997
 40
0.0431665625
 40
0.0687888981
 40
0.0962659906
 40
0.1249663938
 40
0.1545617173
 40
0.2154291335
 40
0.2777982353
 40
0.3412348999
 40
0.4701135293
 40
0.600894544
 40
0.7330114209
 40
1.0
 40
1.0
 40
1.0
 40
1.0
 10
677.1833792635
 20
610.002534263
 30
0.0
 10
677.1764255717
 20
610.0252684593
 30
0.0
 10
677.1778286052
 20
610.0789044153
 30
0.0
 10
677.2145131778
 20
610.1522835484
 30
0.0
 10
677.2709223309
 20
610.2221217904
 30
0.0
 10
677.3411277714
 20
610.2881478345
 30
0.0
 10
677.4203723771
 20
610.3506629564
 30
0.0
 10
677.535874773
 20
610.4301005264
 30
0.0
 10
677.6908697398
 20
610.5214027154
 30
0.0
 10
677.8862520255
 20
610.6215733077
 30
0.0
 10
678.1585310174
 20
610.7463902683
 30
0.0
 10
678.5108985347
 20
610.8888131764
 30
0.0
 10
678.9442267033
 20
611.0452505996
 30
0.0
 10
679.535191749
 20
611.2426893053
 30
0.0
 10
679.9835052428
 20
611.3814679743
 30
0.0
 10
680.2837113489
 20
611.4732481966
 30
0.0
  0
SPLINE
  5
2ED
100
AcDbEntity
  8
70501-04___-_1_1_1_1
100
AcDbSpline
 62
7
  6
CONTINUOUS
 70
0
 71
3
 72
12
 73
8
 74
0
 42
0.0000001
 43
0.0000001
 44
0.0000000001
 40
0.0
 40
0.0
 40
0.0
 40
0.0
 40
0.3597146993
 40
0.6921398113
 40
0.9140064426
 40
0.971414544
 40
1.0
 40
1.0
 40
1.0
 40
1.0
 10
680.0746050676
 20
611.9321632396
 30
0.0
 10
680.0925474313
 20
611.8734764791
 30
0.0
 10
680.1299073334
 20
611.7611572039
 30
0.0
 10
680.1863445292
 20
611.6166487981
 30
0.0
 10
680.2340299652
 20
611.5215454409
 30
0.0
 10
680.2640301673
 20
611.4802531599
 30
0.0
 10
680.2790468311
 20
611.4718221111
 30
0.0
 10
680.2837104939
 20
611.4732479352
 30
0.0
  0
SPLINE
  5
2EE
100
AcDbEntity
  8
70501-04___-_1_1_1_1
100
AcDbSpline
 62
7
  6
CONTINUOUS
 70
0
 71
3
 72
19
 73
15
 74
0
 42
0.0000001
 43
0.0000001
 44
0.0000000001
 40
0.0
 40
0.0
 40
0.0
 40
0.0
 40
0.0322902203
 40
0.0641742462
 40
0.1262856101
 40
0.1873925471
 40
0.248201574
 40
0.3090871309
 40
0.3702261695
 40
0.4935023407
 40
0.6182672179
 40
0.7444068055
 40
0.8717249292
 40
1.0
 40
1.0
 40
1.0
 40
1.0
 10
686.7748150405
 20
612.9349318751
 30
0.0
 10
686.7624878421
 20
612.9753132739
 30
0.0
 10
686.7262369172
 20
613.0524135426
 30
0.0
 10
686.6189960654
 20
613.1798400907
 30
0.0
 10
686.443825666
 20
613.2901410125
 30
0.0
 10
686.2138632984
 20
613.3647712429
 30
0.0
 10
685.977083553
 20
613.4023188832
 30
0.0
 10
685.7379681486
 20
613.4137021181
 30
0.0
 10
685.4171453207
 20
613.4031993265
 30
0.0
 10
685.0152448996
 20
613.3532493196
 30
0.0
 10
684.5353087708
 20
613.2570753783
 30
0.0
 10
684.0554785187
 20
613.1368029219
 30
0.0
 10
683.5751346699
 20
613.0010035743
 30
0.0
 10
683.2551452886
 20
612.9045508641
 30
0.0
 10
683.0947478413
 20
612.8555135479
 30
0.0
  0
SPLINE
  5
2EF
100
AcDbEntity
  8
70501-04___-_1_1_1_1
100
AcDbSpline
 62
7
  6
CONTINUOUS
 70
0
 71
3
 72
19
 73
15
 74
0
 42
0.0000001
 43
0.0000001
 44
0.0000000001
 40
0.0
 40
0.0
 40
0.0
 40
0.0
 40
0.1282751331
 40
0.2555933286
 40
0.3817330017
 40
0.5064979695
 40
0.6297742138
 40
0.6909132545
 40
0.7517988728
 40
0.8126080141
 40
0.8737150342
 40
0.935826187
 40
0.9677100398
 40
1.0
 40
1.0
 40
1.0
 40
1.0
 10
680.0746051706
 20
611.932163271
 30
0.0
 10
679.9142072219
 20
611.8831268657
 30
0.0
 10
679.5949883613
 20
611.7841523144
 30
0.0
 10
679.1208268215
 20
611.6281293946
 30
0.0
 10
678.655772843
 20
611.4595232126
 30
0.0
 10
678.2041078778
 20
611.2708763411
 30
0.0
 10
677.8429860171
 20
611.0875451941
 30
0.0
 10
677.5711378238
 20
610.9168512445
 30
0.0
 10
677.3792677035
 20
610.7737014751
 30
0.0
 10
677.2039655651
 20
610.610166095
 30
0.0
 10
677.0550499831
 20
610.4197016826
 30
0.0
 10
676.9715093803
 20
610.2303031956
 30
0.0
 10
676.9538592312
 20
610.0646939338
 30
0.0
 10
676.9669215439
 20
609.9805046708
 30
0.0
 10
676.979281902
 20
609.9401337305
 30
0.0
  0
SPLINE
  5
2F0
100
AcDbEntity
  8
70501-04___-_1_1_1_1
100
AcDbSpline
 62
7
  6
CONTINUOUS
 70
0
 71
3
 72
12
 73
8
 74
0
 42
0.0000001
 43
0.0000001
 44
0.0000000001
 40
0.0
 40
0.0
 40
0.0
 40
0.0
 40
0.1145326197
 40
0.2884386722
 40
0.5449217562
 40
0.7310545708
 40
1.0
 40
1.0
 40
1.0
 40
1.0
 10
692.9605452482
 20
615.8717905122
 30
0.0
 10
692.9057389502
 20
615.8550386669
 30
0.0
 10
692.7708577187
 20
615.8018250036
 30
0.0
 10
692.5398977028
 20
615.6523635945
 30
0.0
 10
692.3381778713
 20
615.4085078412
 30
0.0
 10
692.209372872
 20
615.0727054951
 30
0.0
 10
692.2052888133
 20
614.8365491538
 30
0.0
 10
692.231396296
 20
614.7045322476
 30
0.0
  0
SPLINE
  5
2F1
100
AcDbEntity
  8
70501-04___-_1_1_1_1
100
AcDbSpline
 62
7
  6
CONTINUOUS
 70
0
 71
3
 72
11
 73
7
 74
0
 42
0.0000001
 43
0.0000001
 44
0.0000000001
 40
0.0
 40
0.0
 40
0.0
 40
0.0
 40
0.2379838947
 40
0.4948902133
 40
0.7544395982
 40
1.0
 40
1.0
 40
1.0
 40
1.0
 10
692.9605453277
 20
615.8717905365
 30
0.0
 10
692.977025288
 20
615.8178869597
 30
0.0
 10
692.9924935359
 20
615.699083468
 30
0.0
 10
692.9519645415
 20
615.5209674009
 30
0.0
 10
692.8488117622
 20
615.3678623773
 30
0.0
 10
692.7485200426
 20
615.2973427239
 30
0.0
 10
692.6957579695
 20
615.2728709517
 30
0.0
  0
SPLINE
  5
2F2
100
AcDbEntity
  8
70501-04___-_1_1_1_1
100
AcDbSpline
 62
7
  6
CONTINUOUS
 70
0
 71
3
 72
12
 73
8
 74
0
 42
0.0000001
 43
0.0000001
 44
0.0000000001
 40
0.0
 40
0.0
 40
0.0
 40
0.0
 40
0.0285853696
 40
0.0859933226
 40
0.3078596693
 40
0.6402848711
 40
1.0
 40
1.0
 40
1.0
 40
1.0
 10
683.1780139833
 20
612.358124963
 30
0.0
 10
683.1826776347
 20
612.3595507843
 30
0.0
 10
683.1904124229
 20
612.3749376135
 30
0.0
 10
683.1921933698
 20
612.4259463174
 30
0.0
 10
683.178545263
 20
612.5314559337
 30
0.0
 10
683.1445257013
 20
612.6828182441
 30
0.0
 10
683.1126902637
 20
612.7968266884
 30
0.0
 10
683.0947478943
 20
612.8555135641
 30
0.0
  0
SPLINE
  5
2F3
100
AcDbEntity
  8
70501-04___-_1_1_1_1
100
AcDbSpline
 62
7
  6
CONTINUOUS
 70
0
 71
3
 72
20
 73
16
 74
0
 42
0.0000001
 43
0.0000001
 44
0.0000000001
 40
0.0
 40
0.0
 40
0.0
 40
0.0
 40
0.2669842788
 40
0.3990994866
 40
0.5298794838
 40
0.6587593882
 40
0.7221979945
 40
0.7845688414
 40
0.8454369999
 40
0.8750326173
 40
0.9037332417
 40
0.9312103748
 40
0.9568327081
 40
0.979780171
 40
1.0
 40
1.0
 40
1.0
 40
1.0
 10
683.1780138851
 20
612.358124933
 30
0.0
 10
683.4782148155
 20
612.4499044092
 30
0.0
 10
683.9274798737
 20
612.5855459798
 30
0.0
 10
684.527809841
 20
612.7523248129
 30
0.0
 10
684.9745323221
 20
612.8649450617
 30
0.0
 10
685.3463023879
 20
612.9439134615
 30
0.0
 10
685.6418340345
 20
612.9926945428
 30
0.0
 10
685.8598329216
 20
613.0189077204
 30
0.0
 10
686.039388323
 20
613.02988709
 30
0.0
 10
686.1795665008
 20
613.0286186389
 30
0.0
 10
686.2802219003
 20
613.0211044701
 30
0.0
 10
686.375346463
 20
613.0056250672
 30
0.0
 10
686.4611653784
 20
612.9792703172
 30
0.0
 10
686.5326123946
 20
612.9389503314
 30
0.0
 10
686.5637692911
 20
612.8952678483
 30
0.0
 10
686.5707168293
 20
612.8725313748
 30
0.0
  0
SPLINE
  5
2F4
100
AcDbEntity
  8
70501-04___-_1_1_1_1
100
AcDbSpline
 62
7
  6
CONTINUOUS
 70
0
 71
3
 72
13
 73
9
 74
0
 42
0.0000001
 43
0.0000001
 44
0.0000000001
 40
0.0
 40
0.0
 40
0.0
 40
0.0
 40
0.1131433644
 40
0.2854221438
 40
0.3998744559
 40
0.541756255
 40
0.728532615
 40
1.0
 40
1.0
 40
1.0
 40
1.0
 10
670.2088077494
 20
608.9158863023
 30
0.0
 10
670.2641958652
 20
608.9328153639
 30
0.0
 10
670.4074790282
 20
608.9644474696
 30
0.0
 10
670.6144598683
 20
608.9674602056
 30
0.0
 10
670.8306893512
 20
608.9254320372
 30
0.0
 10
671.0429546144
 20
608.8406105667
 30
0.0
 10
671.2948316523
 20
608.6584272654
 30
0.0
 10
671.4290594068
 20
608.4548263815
 30
0.0
 10
671.4784298809
 20
608.3249295052
 30
0.0
  0
SPLINE
  5
2F5
100
AcDbEntity
  8
70501-04___-_1_1_1_1
100
AcDbSpline
 62
7
  6
CONTINUOUS
 70
0
 71
3
 72
9
 73
5
 74
0
 42
0.0000001
 43
0.0000001
 44
0.0000000001
 40
0.0
 40
0.0
 40
0.0
 40
0.0
 40
0.5096611434
 40
1.0
 40
1.0
 40
1.0
 40
1.0
 10
670.7016282254
 20
608.5614476685
 30
0.0
 10
670.5928195682
 20
608.5577369384
 30
0.0
 10
670.3706060771
 20
608.6265156833
 30
0.0
 10
670.2394319693
 20
608.8157187542
 30
0.0
 10
670.2088076404
 20
608.915886269
 30
0.0
  0
ENDSEC
  0
SECTION
  2
OBJECTS
  0
DICTIONARY
  5
C
100
AcDbDictionary
280
0
281
1
  3
ACAD_GROUP
350
D
  3
ACAD_MLINESTYLE
350
17
  3
ACAD_LAYOUT
350
1A
  3
ACAD_PLOTSETTINGS
350
19
  3
ACAD_PLOTSTYLENAME
350
E
  0
DICTIONARY
  5
D
102
{ACAD_REACTORS
330
C
102
}
100
AcDbDictionary
280
0
281
1
  0
ACDBDICTIONARYWDFLT
  5
E
102
{ACAD_REACTORS
330
C
102
}
100
AcDbDictionary
281
1
  3
Normal
350
F
100
AcDbDictionaryWithDefault
340
F
  0
DICTIONARY
  5
17
102
{ACAD_REACTORS
330
C
102
}
100
AcDbDictionary
280
0
281
1
  3
Standard
350
18
  0
DICTIONARY
  5
19
102
{ACAD_REACTORS
330
C
102
}
100
AcDbDictionary
281
1
  0
DICTIONARY
  5
1A
102
{ACAD_REACTORS
330
C
102
}
100
AcDbDictionary
281
1
  3
Model
350
2F6
  3
Layout1
350
2F7
  0
ACDBPLACEHOLDER
  5
F
102
{ACAD_REACTORS
330
E
102
}
  0
MLINESTYLE
  5
18
102
{ACAD_REACTORS
330
17
102
}
100
AcDbMlineStyle
  2
STANDARD
 70
0
  3

 62
256
 51
90.0
 52
90.0
 71
2
 49
0.5
 62
256
  6
BYLAYER
 49
-0.5
 62
256
  6
BYLAYER
  0
LAYOUT
  5
2F6
102
{ACAD_REACTORS
330
1A
102
}
100
AcDbPlotSettings
  1

  2
none_device
  4
ANSI_E_(44.00_x_34.00_Inches)
  6

 40
0.0
 41
0.0
 42
0.0
 43
0.0
 44
1117.6
 45
863.6
 46
0.0
 47
0.0
 48
0.0
 49
0.0
140
0.0
141
0.0
142
1.0
143
1.0
 70
1024
 72
1
 73
0
 74
0
  7

 75
0
147
1.0
148
0.0
149
0.0
100
AcDbLayout
  1
Model
 70
0
 71
0
 10
0.0
 20
0.0
 11
1117.6
 21
863.6
 12
0.0
 22
0.0
 32
0.0
 14
0.0
 24
0.0
 34
0.0
 15
0.0
 25
0.0
 35
0.0
146
0.0
 13
0.0
 23
0.0
 33
0.0
 16
1.0
 26
0.0
 36
0.0
 17
0.0
 27
1.0
 37
0.0
 76
0
330
241
345
0
346
0
  0
LAYOUT
  5
2F7
102
{ACAD_REACTORS
330
1A
102
}
100
AcDbPlotSettings
  1

  2
none_device
  4
ANSI_E_(44.00_x_34.00_Inches)
  6

 40
0.0
 41
0.0
 42
0.0
 43
0.0
 44
1117.6
 45
863.6
 46
0.0
 47
0.0
 48
0.0
 49
0.0
140
0.0
141
0.0
142
1.0
143
1.0
 70
0
 72
1
 73
0
 74
0
  7

 75
0
147
1.0
148
0.0
149
0.0
100
AcDbLayout
  1
Layout1
 70
0
 71
1
 10
0.0
 20
0.0
 11
1117.6
 21
863.6
 12
0.0
 22
0.0
 32
0.0
 14
0.0
 24
0.0
 34
0.0
 15
0.0
 25
0.0
 35
0.0
146
0.0
 13
0.0
 23
0.0
 33
0.0
 16
1.0
 26
0.0
 36
0.0
 17
0.0
 27
1.0
 37
0.0
 76
0
330
242
345
0
346
0
  0
ENDSEC
  0
EOF
