999
DXF file: S:\Engenharia\Wildfire\Engenharia\Produtos\Misturadores\94520.010\94520010.dxf
999
Pro/ENGINEER 2013150 by Parametric Technology Corporation
  0
SECTION
  2
HEADER
  9
$ACADVER
  1
AC1021
  9
$DWGCODEPAGE
  3
ANSI_1252
  9
$EXTMAX
 10
1117.6
 20
863.6
 30
0.0
  9
$EXTMIN
 10
0.0
 20
0.0
 30
0.0
  9
$LIMMIN
 10
0.0
 20
0.0
  9
$LIMMAX
 10
1117.6
 20
863.6
  9
$VIEWCTR
 10
558.8
 20
431.8
  9
$VIEWSIZE
 40
863.6
  9
$CLAYER
  8
0
  9
$LTSCALE
 40
61.468
  9
$CELTYPE
  6
BYLAYER
  9
$DIMSCALE
 40
1.0
  9
$DIMASZ
 40
3.0
  9
$DIMEXO
 40
0.5
  9
$DIMDLI
 40
42.4688
  9
$DIMEXE
 40
0.5
  9
$DIMCEN
 40
10.0584
  9
$DIMLFAC
 40
1.0
  9
$DIMBLK
  1
_FILLED
  9
$DIMTXT
 40
1.8
  9
$DIMTOL
 70
1
  9
$DIMLIM
 70
0
  9
$DIMTFAC
 40
1.0
  9
$DIMTP
 40
0.001
  9
$DIMTM
 40
0.001
  9
$DIMGAP
 40
0.625
  9
$DIMDSEP
 70
46
  9
$PDMODE
 70
3
  9
$PDSIZE
 40
1.0
  9
$HANDSEED
  5
2D7
  9
$TILEMODE
 70
1
  9
$MEASUREMENT
 70
1
  9
$INSUNITS
 70
4
  0
ENDSEC
  0
SECTION
  2
CLASSES
  0
CLASS
  1
ACDBDICTIONARYWDFLT
  2
AcDbDictionaryWithDefault
  3
AutoCAD 2000
 90
0
 91
1
280
0
281
0
  0
CLASS
  1
ACDBPLACEHOLDER
  2
AcDbPlaceHolder
  3
AutoCAD 2000
 90
0
 91
1
280
0
281
0
  0
CLASS
  1
LAYOUT
  2
AcDbLayout
  3
AutoCAD 2000
 90
0
 91
0
280
0
281
0
  0
ENDSEC
  0
SECTION
  2
TABLES
  0
TABLE
  2
VPORT
  5
8
100
AcDbSymbolTable
 70
2
  0
VPORT
  5
1F4
100
AcDbSymbolTableRecord
100
AcDbViewportTableRecord
  2
*ACTIVE
 70
0
 10
0.0
 20
0.0
 11
1.0
 21
1.0
 12
558.8
 22
431.8
 13
0.0
 23
0.0
 14
1.0
 24
1.0
 15
0.0
 25
0.0
 16
0.0
 26
0.0
 36
1.0
 17
0.0
 27
0.0
 37
0.0
 40
863.6
 41
1.2941176471
 42
50.0
 43
0.0
 44
0.0
 50
0.0
 51
0.0
 71
0
 72
100
 73
1
 74
1
 75
0
 76
0
 77
0
 78
0
  0
ENDTAB
  0
TABLE
  2
LTYPE
  5
5
100
AcDbSymbolTable
 70
6
  0
LTYPE
  5
14
100
AcDbSymbolTableRecord
100
AcDbLinetypeTableRecord
  2
BYBLOCK
 70
0
  3

 72
65
 73
0
 40
0.0
  0
LTYPE
  5
15
100
AcDbSymbolTableRecord
100
AcDbLinetypeTableRecord
  2
BYLAYER
 70
0
  3

 72
65
 73
0
 40
0.0
  0
LTYPE
  5
16
100
AcDbSymbolTableRecord
100
AcDbLinetypeTableRecord
  2
CONTINUOUS
 70
64
  3
Solid line
 72
65
 73
0
 40
0.0
  0
LTYPE
  5
1F5
100
AcDbSymbolTableRecord
100
AcDbLinetypeTableRecord
  2
CENTER
 70
64
  3
____ _ ____ _ ____ _ ____ _ ____ _ ____ _ ____
 72
65
 73
4
 40
0.6
 49
0.375
 74
0
 49
-0.075
 74
0
 49
0.075
 74
0
 49
-0.075
 74
0
  0
LTYPE
  5
1F6
100
AcDbSymbolTableRecord
100
AcDbLinetypeTableRecord
  2
HIDDEN
 70
64
  3
- - - - - - - - - - - - - - - - - - - -
 72
65
 73
2
 40
0.2
 49
0.1
 74
0
 49
-0.1
 74
0
  0
LTYPE
  5
1F7
100
AcDbSymbolTableRecord
100
AcDbLinetypeTableRecord
  2
PHANTOM
 70
64
  3
_____ _ _ _____ _ _ _____ _ _ _____
 72
65
 73
6
 40
0.8
 49
0.45
 74
0
 49
-0.05
 74
0
 49
0.1
 74
0
 49
-0.05
 74
0
 49
0.1
 74
0
 49
-0.05
 74
0
  0
LTYPE
  5
1F8
100
AcDbSymbolTableRecord
100
AcDbLinetypeTableRecord
  2
DOT
 70
64
  3
. . . . . . . . . . . . . . . . . . . .
 72
65
 73
2
 40
0.2
 49
0.1
 74
0
 49
-0.1
 74
0
  0
LTYPE
  5
1F9
100
AcDbSymbolTableRecord
100
AcDbLinetypeTableRecord
  2
DASHED
 70
64
  3
- - - - - - - - - - - - - - - - - - - -
 72
65
 73
2
 40
0.2
 49
0.1
 74
0
 49
-0.1
 74
0
  0
ENDTAB
  0
TABLE
  2
LAYER
  5
2
100
AcDbSymbolTable
 70
36
  0
LAYER
  5
10
100
AcDbSymbolTableRecord
100
AcDbLayerTableRecord
  2
0
 70
0
 62
7
  6
CONTINUOUS
370
-3
390
F
  0
LAYER
  5
1FA
100
AcDbSymbolTableRecord
100
AcDbLayerTableRecord
  2
DEFAULT_1
 70
0
 62
7
  6
CENTER
370
-3
390
F
  0
LAYER
  5
1FB
100
AcDbSymbolTableRecord
100
AcDbLayerTableRecord
  2
DEFAULT_2
 70
0
 62
8
  6
HIDDEN
370
-3
390
F
  0
LAYER
  5
1FC
100
AcDbSymbolTableRecord
100
AcDbLayerTableRecord
  2
DEFAULT_3
 70
0
 62
7
  6
PHANTOM
370
-3
390
F
  0
LAYER
  5
1FD
100
AcDbSymbolTableRecord
100
AcDbLayerTableRecord
  2
01_ALL_DTM_PLN
 70
0
 62
7
  6
CONTINUOUS
370
-3
390
F
  0
LAYER
  5
1FE
100
AcDbSymbolTableRecord
100
AcDbLayerTableRecord
  2
01__ASM_ALL_DTM_PLN
 70
0
 62
7
  6
CONTINUOUS
370
-3
390
F
  0
LAYER
  5
1FF
100
AcDbSymbolTableRecord
100
AcDbLayerTableRecord
  2
01__ASM_DEF_DTM_PLN
 70
0
 62
7
  6
CONTINUOUS
370
-3
390
F
  0
LAYER
  5
200
100
AcDbSymbolTableRecord
100
AcDbLayerTableRecord
  2
01___PRT_ALL_DTM_PLN
 70
0
 62
7
  6
CONTINUOUS
370
-3
390
F
  0
LAYER
  5
201
100
AcDbSymbolTableRecord
100
AcDbLayerTableRecord
  2
01___PRT_DEF_DTM_PLN
 70
0
 62
7
  6
CONTINUOUS
370
-3
390
F
  0
LAYER
  5
202
100
AcDbSymbolTableRecord
100
AcDbLayerTableRecord
  2
02_ALL_AXES
 70
0
 62
7
  6
CONTINUOUS
370
-3
390
F
  0
LAYER
  5
203
100
AcDbSymbolTableRecord
100
AcDbLayerTableRecord
  2
02__ASM_ALL_AXES
 70
0
 62
7
  6
CONTINUOUS
370
-3
390
F
  0
LAYER
  5
204
100
AcDbSymbolTableRecord
100
AcDbLayerTableRecord
  2
02___PRT_ALL_AXES
 70
0
 62
7
  6
CONTINUOUS
370
-3
390
F
  0
LAYER
  5
205
100
AcDbSymbolTableRecord
100
AcDbLayerTableRecord
  2
03_ALL_CURVES
 70
0
 62
7
  6
CONTINUOUS
370
-3
390
F
  0
LAYER
  5
206
100
AcDbSymbolTableRecord
100
AcDbLayerTableRecord
  2
03__ASM_ALL_CURVES
 70
0
 62
7
  6
CONTINUOUS
370
-3
390
F
  0
LAYER
  5
207
100
AcDbSymbolTableRecord
100
AcDbLayerTableRecord
  2
03___PRT_ALL_CURVES
 70
0
 62
7
  6
CONTINUOUS
370
-3
390
F
  0
LAYER
  5
208
100
AcDbSymbolTableRecord
100
AcDbLayerTableRecord
  2
04_ALL_DTM_PNT
 70
0
 62
7
  6
CONTINUOUS
370
-3
390
F
  0
LAYER
  5
209
100
AcDbSymbolTableRecord
100
AcDbLayerTableRecord
  2
04__ASM_ALL_DTM_PNT
 70
0
 62
7
  6
CONTINUOUS
370
-3
390
F
  0
LAYER
  5
20A
100
AcDbSymbolTableRecord
100
AcDbLayerTableRecord
  2
04___PRT_ALL_DTM_PNT
 70
0
 62
7
  6
CONTINUOUS
370
-3
390
F
  0
LAYER
  5
20B
100
AcDbSymbolTableRecord
100
AcDbLayerTableRecord
  2
05_ALL_DTM_CSYS
 70
0
 62
7
  6
CONTINUOUS
370
-3
390
F
  0
LAYER
  5
20C
100
AcDbSymbolTableRecord
100
AcDbLayerTableRecord
  2
05__ASM_ALL_DTM_CSYS
 70
0
 62
7
  6
CONTINUOUS
370
-3
390
F
  0
LAYER
  5
20D
100
AcDbSymbolTableRecord
100
AcDbLayerTableRecord
  2
05__ASM_DEF_DTM_CSYS
 70
0
 62
7
  6
CONTINUOUS
370
-3
390
F
  0
LAYER
  5
20E
100
AcDbSymbolTableRecord
100
AcDbLayerTableRecord
  2
05___PRT_ALL_DTM_CSYS
 70
0
 62
7
  6
CONTINUOUS
370
-3
390
F
  0
LAYER
  5
20F
100
AcDbSymbolTableRecord
100
AcDbLayerTableRecord
  2
05___PRT_DEF_DTM_CSYS
 70
0
 62
7
  6
CONTINUOUS
370
-3
390
F
  0
LAYER
  5
210
100
AcDbSymbolTableRecord
100
AcDbLayerTableRecord
  2
06_ALL_SURFS
 70
0
 62
7
  6
CONTINUOUS
370
-3
390
F
  0
LAYER
  5
211
100
AcDbSymbolTableRecord
100
AcDbLayerTableRecord
  2
06__ASM_ALL_SURFS
 70
0
 62
7
  6
CONTINUOUS
370
-3
390
F
  0
LAYER
  5
212
100
AcDbSymbolTableRecord
100
AcDbLayerTableRecord
  2
06___PRT_ALL_SURFS
 70
0
 62
7
  6
CONTINUOUS
370
-3
390
F
  0
LAYER
  5
213
100
AcDbSymbolTableRecord
100
AcDbLayerTableRecord
  2
07__ASM_ALL_SKELETONS
 70
0
 62
7
  6
CONTINUOUS
370
-3
390
F
  0
LAYER
  5
214
100
AcDbSymbolTableRecord
100
AcDbLayerTableRecord
  2
37-10_5_____1
 70
0
 62
7
  6
CONTINUOUS
370
-3
390
F
  0
LAYER
  5
215
100
AcDbSymbolTableRecord
100
AcDbLayerTableRecord
  2
70101-16_DEFAULT_1
 70
0
 62
7
  6
CONTINUOUS
370
-3
390
F
  0
LAYER
  5
216
100
AcDbSymbolTableRecord
100
AcDbLayerTableRecord
  2
70101-24____DEFAULT_1
 70
0
 62
7
  6
CONTINUOUS
370
-3
390
F
  0
LAYER
  5
217
100
AcDbSymbolTableRecord
100
AcDbLayerTableRecord
  2
70101G-01-01_DEFAULT_1
 70
0
 62
7
  6
CONTINUOUS
370
-3
390
F
  0
LAYER
  5
218
100
AcDbSymbolTableRecord
100
AcDbLayerTableRecord
  2
70101G-01-02_DEFAULT_1
 70
0
 62
7
  6
CONTINUOUS
370
-3
390
F
  0
LAYER
  5
219
100
AcDbSymbolTableRecord
100
AcDbLayerTableRecord
  2
70101G-01-03_DEFAULT_1
 70
0
 62
7
  6
CONTINUOUS
370
-3
390
F
  0
LAYER
  5
21A
100
AcDbSymbolTableRecord
100
AcDbLayerTableRecord
  2
70101G-01-04_DEFAULT_1
 70
0
 62
7
  6
CONTINUOUS
370
-3
390
F
  0
LAYER
  5
21B
100
AcDbSymbolTableRecord
100
AcDbLayerTableRecord
  2
70101G-01_ASM_1
 70
0
 62
7
  6
CONTINUOUS
370
-3
390
F
  0
LAYER
  5
21C
100
AcDbSymbolTableRecord
100
AcDbLayerTableRecord
  2
70101G-02-01_DEFAULT_1
 70
0
 62
7
  6
CONTINUOUS
370
-3
390
F
  0
LAYER
  5
21D
100
AcDbSymbolTableRecord
100
AcDbLayerTableRecord
  2
70101G-04_DEFAULT_1
 70
0
 62
7
  6
CONTINUOUS
370
-3
390
F
  0
LAYER
  5
21E
100
AcDbSymbolTableRecord
100
AcDbLayerTableRecord
  2
70101G-10-01_1
 70
0
 62
7
  6
CONTINUOUS
370
-3
390
F
  0
LAYER
  5
21F
100
AcDbSymbolTableRecord
100
AcDbLayerTableRecord
  2
70101______1
 70
0
 62
7
  6
CONTINUOUS
370
-3
390
F
  0
LAYER
  5
220
100
AcDbSymbolTableRecord
100
AcDbLayerTableRecord
  2
70105-12_DEFAULT_1
 70
0
 62
7
  6
CONTINUOUS
370
-3
390
F
  0
LAYER
  5
221
100
AcDbSymbolTableRecord
100
AcDbLayerTableRecord
  2
70111-05_DEFAULT_1
 70
0
 62
7
  6
CONTINUOUS
370
-3
390
F
  0
LAYER
  5
222
100
AcDbSymbolTableRecord
100
AcDbLayerTableRecord
  2
70111C-02-02_DEFAULT_1
 70
0
 62
7
  6
CONTINUOUS
370
-3
390
F
  0
LAYER
  5
223
100
AcDbSymbolTableRecord
100
AcDbLayerTableRecord
  2
70111C-04_DEFAULT_1
 70
0
 62
7
  6
CONTINUOUS
370
-3
390
F
  0
LAYER
  5
224
100
AcDbSymbolTableRecord
100
AcDbLayerTableRecord
  2
70111H-01_ASM_1
 70
0
 62
7
  6
CONTINUOUS
370
-3
390
F
  0
LAYER
  5
225
100
AcDbSymbolTableRecord
100
AcDbLayerTableRecord
  2
70111H-TUBE_ASM_1
 70
0
 62
7
  6
CONTINUOUS
370
-3
390
F
  0
LAYER
  5
226
100
AcDbSymbolTableRecord
100
AcDbLayerTableRecord
  2
70113-10-02_DEFAULT_1
 70
0
 62
7
  6
CONTINUOUS
370
-3
390
F
  0
LAYER
  5
227
100
AcDbSymbolTableRecord
100
AcDbLayerTableRecord
  2
70113-16_DEFAULT_1
 70
0
 62
7
  6
CONTINUOUS
370
-3
390
F
  0
LAYER
  5
228
100
AcDbSymbolTableRecord
100
AcDbLayerTableRecord
  2
ASM0001_ASM_1
 70
0
 62
7
  6
CONTINUOUS
370
-3
390
F
  0
LAYER
  5
229
100
AcDbSymbolTableRecord
100
AcDbLayerTableRecord
  2
CHAMFER1_1
 70
0
 62
7
  6
CONTINUOUS
370
-3
390
F
  0
LAYER
  5
22A
100
AcDbSymbolTableRecord
100
AcDbLayerTableRecord
  2
CUT-REVOLVE1_2__1
 70
0
 62
7
  6
CONTINUOUS
370
-3
390
F
  0
LAYER
  5
22B
100
AcDbSymbolTableRecord
100
AcDbLayerTableRecord
  2
FILLET1_1
 70
0
 62
7
  6
CONTINUOUS
370
-3
390
F
  0
LAYER
  5
22C
100
AcDbSymbolTableRecord
100
AcDbLayerTableRecord
  2
H35_DEFAULT_ASM_1
 70
0
 62
7
  6
CONTINUOUS
370
-3
390
F
  0
LAYER
  5
22D
100
AcDbSymbolTableRecord
100
AcDbLayerTableRecord
  2
PA-KLD_DEFAULT_1
 70
0
 62
7
  6
CONTINUOUS
370
-3
390
F
  0
LAYER
  5
22E
100
AcDbSymbolTableRecord
100
AcDbLayerTableRecord
  2
PF7107_ASM_1
 70
0
 62
7
  6
CONTINUOUS
370
-3
390
F
  0
LAYER
  5
22F
100
AcDbSymbolTableRecord
100
AcDbLayerTableRecord
  2
PP-18___X3_1
 70
0
 62
7
  6
CONTINUOUS
370
-3
390
F
  0
LAYER
  5
230
100
AcDbSymbolTableRecord
100
AcDbLayerTableRecord
  2
PP-50_35_2_DEFAULT_1
 70
0
 62
7
  6
CONTINUOUS
370
-3
390
F
  0
LAYER
  5
231
100
AcDbSymbolTableRecord
100
AcDbLayerTableRecord
  2
PP_M5_4__________1
 70
0
 62
7
  6
CONTINUOUS
370
-3
390
F
  0
LAYER
  5
232
100
AcDbSymbolTableRecord
100
AcDbLayerTableRecord
  2
RUBBER_RING__10__1_5_1
 70
0
 62
7
  6
CONTINUOUS
370
-3
390
F
  0
LAYER
  5
233
100
AcDbSymbolTableRecord
100
AcDbLayerTableRecord
  2
SCREW-04AA_GB_FASTENER_SCREWS_H
 70
0
 62
7
  6
CONTINUOUS
370
-3
390
F
  0
LAYER
  5
234
100
AcDbSymbolTableRecord
100
AcDbLayerTableRecord
  2
Y150299217_1
 70
0
 62
7
  6
CONTINUOUS
370
-3
390
F
  0
LAYER
  5
235
100
AcDbSymbolTableRecord
100
AcDbLayerTableRecord
  2
ZSB-003____1
 70
0
 62
7
  6
CONTINUOUS
370
-3
390
F
  0
LAYER
  5
236
100
AcDbSymbolTableRecord
100
AcDbLayerTableRecord
  2
_H35-1_-_FILLET1__1
 70
0
 62
7
  6
CONTINUOUS
370
-3
390
F
  0
ENDTAB
  0
TABLE
  2
STYLE
  5
3
100
AcDbSymbolTable
 70
1
  0
STYLE
  5
11
100
AcDbSymbolTableRecord
100
AcDbTextStyleTableRecord
  2
STANDARD
 70
0
 40
0.0
 41
0.8
 50
0.0
 71
0
 42
0.2
  3
txt
  4

  0
STYLE
  5
237
100
AcDbSymbolTableRecord
100
AcDbTextStyleTableRecord
  2
TEXTSTYLE_1
 70
0
 40
0.0
 41
0.8
 50
0.0
 71
0
 42
0.2
  3
gdt
  4

  0
ENDTAB
  0
TABLE
  2
VIEW
  5
6
100
AcDbSymbolTable
 70
0
  0
ENDTAB
  0
TABLE
  2
UCS
  5
7
100
AcDbSymbolTable
 70
0
  0
ENDTAB
  0
TABLE
  2
APPID
  5
9
100
AcDbSymbolTable
 70
1
  0
APPID
  5
238
100
AcDbSymbolTableRecord
100
AcDbRegAppTableRecord
  2
ACAD
 70
0
  0
ENDTAB
  0
TABLE
  2
BLOCK_RECORD
  5
1
100
AcDbSymbolTable
 70
0
  0
BLOCK_RECORD
  5
239
100
AcDbSymbolTableRecord
100
AcDbBlockTableRecord
  2
*Model_Space
  0
BLOCK_RECORD
  5
23A
100
AcDbSymbolTableRecord
100
AcDbBlockTableRecord
  2
*Paper_Space
  0
BLOCK_RECORD
  5
23B
100
AcDbSymbolTableRecord
100
AcDbBlockTableRecord
  2
_FILLED
  0
BLOCK_RECORD
  5
23C
100
AcDbSymbolTableRecord
100
AcDbBlockTableRecord
  2
*D0
  0
BLOCK_RECORD
  5
23D
100
AcDbSymbolTableRecord
100
AcDbBlockTableRecord
  2
*D1
  0
ENDTAB
  0
TABLE
  2
DIMSTYLE
  5
A
100
AcDbSymbolTable
 70
1
100
AcDbDimStyleTable
 71
0
  0
DIMSTYLE
105
23E
100
AcDbSymbolTableRecord
100
AcDbDimStyleTableRecord
  2
STANDARD
 70
0
  3

  4

 40
1.0
 41
3.0
 42
0.5
 43
0.38
 44
0.5
 45
0.0
 46
0.0
 47
0.001
 48
0.001
140
1.8
141
0.09
142
0.0
143
25.4
144
1.0
145
0.0
146
1.0
147
0.625
 71
1.0
 72
0.0
 73
0
 74
0
 75
0
 76
0
 77
1
 78
8
170
0
171
2
172
0
173
0
174
0
175
0
176
0
177
0
178
0
270
2
271
3
272
3
273
2
274
2
275
0
280
0
281
0
282
0
283
1
284
8
285
0
286
0
287
3
288
0
340
11
278
46
341
23B
342
23B
343
23B
344
23B
  0
DIMSTYLE
105
23F
100
AcDbSymbolTableRecord
100
AcDbDimStyleTableRecord
  2
DIMSTYLE_1
 70
0
  3

  4

 40
1.0
 41
3.0
 42
0.5
 43
0.38
 44
0.5
 45
0.0
 46
0.0
 47
0.001
 48
0.001
140
5.0
141
0.09
142
0.0
143
25.4
144
1.0
145
0.0
146
1.0
147
1.25
 71
0.0
 72
0.0
 73
0
 74
0
 75
0
 76
0
 77
1
 78
8
170
0
171
2
172
0
173
0
174
0
175
0
176
0
177
0
178
0
270
2
271
3
272
3
273
2
274
2
275
0
280
0
281
0
282
0
283
1
284
8
285
0
286
0
287
3
288
0
340
11
278
46
341
23B
342
23B
343
23B
344
23B
  0
ENDTAB
  0
ENDSEC
  0
SECTION
  2
BLOCKS
  0
BLOCK
  5
20
100
AcDbEntity
  8
0
100
AcDbBlockBegin
  2
*Model_Space
 70
0
 10
0.0
 20
0.0
 30
0.0
  3
*Model_Space
  1

  0
ENDBLK
  5
21
100
AcDbEntity
  8
0
100
AcDbBlockEnd
  0
BLOCK
  5
1C
100
AcDbEntity
  8
0
100
AcDbBlockBegin
  2
*Paper_Space
 70
0
 10
0.0
 20
0.0
 30
0.0
  3
*Paper_Space
  1

  0
ENDBLK
  5
1D
100
AcDbEntity
  8
0
100
AcDbBlockEnd
  0
BLOCK
  5
240
100
AcDbEntity
  8
0
100
AcDbBlockBegin
  2
_FILLED
 70
64
 10
0.0
 20
0.0
  3
_FILLED
  1

  0
SOLID
  5
241
100
AcDbEntity
  8
0
  6
BYBLOCK
 62
0
100
AcDbTrace
 10
0.0
 20
0.0
 11
-1.0
 21
0.1666666667
 12
-1.0
 22
-0.1666666667
 13
-1.0
 23
-0.1666666667
  0
ENDBLK
  5
242
100
AcDbEntity
  8
0
  6
BYBLOCK
 62
0
100
AcDbBlockEnd
  0
BLOCK
  5
243
100
AcDbEntity
  8
0
100
AcDbBlockBegin
 62
2
  6
CONTINUOUS
  2
*D0
 70
65
 10
0.0
 20
0.0
  3
*D0
  1

  0
MTEXT
  5
244
100
AcDbEntity
  8
0
100
AcDbMText
 62
2
  6
CONTINUOUS
  7
STANDARD
 71
2
 72
1
 10
551.5986514641
 20
394.8499226158
 30
0.0
 11
1.0
 21
0.0
 31
0.0
 44
0.9
  1
200
 40
5.0
 41
23.1428571429
  0
LINE
  5
245
100
AcDbEntity
  8
0
100
AcDbLine
 62
2
  6
CONTINUOUS
 10
450.7866255179
 20
408.4443143679
 11
450.7866255179
 21
387.2070654729
  0
LINE
  5
246
100
AcDbEntity
  8
0
100
AcDbLine
 62
2
  6
CONTINUOUS
 10
652.4106774102
 20
663.8176505866
 11
652.4106774102
 21
387.2070654729
  0
LINE
  5
247
100
AcDbEntity
  8
0
100
AcDbLine
 62
2
  6
CONTINUOUS
 10
450.7866255179
 20
387.7070654729
 11
551.5986514641
 21
387.7070654729
  0
LINE
  5
248
100
AcDbEntity
  8
0
100
AcDbLine
 62
2
  6
CONTINUOUS
 10
652.4106774102
 20
387.7070654729
 11
551.5986514641
 21
387.7070654729
  0
INSERT
  5
249
100
AcDbEntity
  8
0
100
AcDbBlockReference
 62
2
  6
CONTINUOUS
  2
_FILLED
 10
450.7866255179
 20
387.7070654729
 41
3.0
 42
3.0
 43
3.0
 50
180.0
  0
INSERT
  5
24A
100
AcDbEntity
  8
0
100
AcDbBlockReference
 62
2
  6
CONTINUOUS
  2
_FILLED
 10
652.4106774102
 20
387.7070654729
 41
3.0
 42
3.0
 43
3.0
  0
ENDBLK
  5
24B
100
AcDbEntity
  8
0
  6
BYBLOCK
 62
0
100
AcDbBlockEnd
  0
BLOCK
  5
24C
100
AcDbEntity
  8
0
100
AcDbBlockBegin
 62
2
  6
CONTINUOUS
  2
*D1
 70
65
 10
0.0
 20
0.0
  3
*D1
  1

  0
MTEXT
  5
24D
100
AcDbEntity
  8
0
100
AcDbMText
 62
2
  6
CONTINUOUS
  7
STANDARD
 71
2
 72
1
 10
371.5167050654
 20
599.5145543679
 30
0.0
 11
0.0
 21
1.0
 31
0.0
 44
0.9
  1
380
 40
5.0
 41
23.1428571429
  0
LINE
  5
24E
100
AcDbEntity
  8
0
100
AcDbLine
 62
2
  6
CONTINUOUS
 10
550.2866255179
 20
789.5145543679
 11
378.1595622083
 21
789.5145543679
  0
LINE
  5
24F
100
AcDbEntity
  8
0
100
AcDbLine
 62
2
  6
CONTINUOUS
 10
424.3366255179
 20
409.5145543679
 11
378.1595622083
 21
409.5145543679
  0
LINE
  5
250
100
AcDbEntity
  8
0
100
AcDbLine
 62
2
  6
CONTINUOUS
 10
378.6595622083
 20
789.5145543679
 11
378.6595622083
 21
599.5145543679
  0
LINE
  5
251
100
AcDbEntity
  8
0
100
AcDbLine
 62
2
  6
CONTINUOUS
 10
378.6595622083
 20
409.5145543679
 11
378.6595622083
 21
599.5145543679
  0
INSERT
  5
252
100
AcDbEntity
  8
0
100
AcDbBlockReference
 62
2
  6
CONTINUOUS
  2
_FILLED
 10
378.6595622083
 20
789.5145543679
 41
3.0
 42
3.0
 43
3.0
 50
90.0
  0
INSERT
  5
253
100
AcDbEntity
  8
0
100
AcDbBlockReference
 62
2
  6
CONTINUOUS
  2
_FILLED
 10
378.6595622083
 20
409.5145543679
 41
3.0
 42
3.0
 43
3.0
 50
270.0
  0
ENDBLK
  5
254
100
AcDbEntity
  8
0
  6
BYBLOCK
 62
0
100
AcDbBlockEnd
  0
ENDSEC
  0
SECTION
  2
ENTITIES
  0
DIMENSION
  5
255
100
AcDbEntity
  8
0
100
AcDbDimension
 62
2
  6
CONTINUOUS
  2
*D0
 10
652.4106774102
 20
387.7070654729
 11
551.5986514641
 21
387.7070654729
 70
160
 71
2
 42
201.6240518924
  3
DIMSTYLE_1
100
AcDbAlignedDimension
 13
450.7866255179
 23
408.9443143679
 14
652.4106774102
 24
664.3176505866
100
AcDbRotatedDimension
  0
DIMENSION
  5
256
100
AcDbEntity
  8
0
100
AcDbDimension
 62
2
  6
CONTINUOUS
  2
*D1
 10
378.6595622083
 20
409.5145543679
 11
378.6595622083
 21
599.5145543679
 70
160
 71
2
 42
380.0
  3
DIMSTYLE_1
100
AcDbAlignedDimension
 13
550.7866255179
 23
789.5145543679
 14
424.8366255179
 24
409.5145543679
 50
270.0
100
AcDbRotatedDimension
  0
LINE
  5
257
100
AcDbEntity
  8
0
100
AcDbLine
 62
7
  6
CONTINUOUS
 10
0.0
 20
0.0
 11
0.0
 21
863.6
  0
LINE
  5
258
100
AcDbEntity
  8
0
100
AcDbLine
 62
7
  6
CONTINUOUS
 10
0.0
 20
0.0
 11
1117.6
 21
0.0
  0
LINE
  5
259
100
AcDbEntity
  8
0
100
AcDbLine
 62
7
  6
CONTINUOUS
 10
0.0
 20
863.6
 11
1117.6
 21
863.6
  0
LINE
  5
25A
100
AcDbEntity
  8
0
100
AcDbLine
 62
7
  6
CONTINUOUS
 10
1117.6
 20
0.0
 11
1117.6
 21
863.6
  0
LINE
  5
25B
100
AcDbEntity
  8
PA-KLD_DEFAULT_1
100
AcDbLine
 62
7
  6
CONTINUOUS
 10
427.1359973035
 20
119.6566261248
 11
474.4372537608
 21
119.6566261248
  0
LINE
  5
25C
100
AcDbEntity
  8
PA-KLD_DEFAULT_1
100
AcDbLine
 62
7
  6
CONTINUOUS
 10
473.9308787715
 20
148.6566261248
 11
468.5938393757
 21
148.6566261248
  0
LINE
  5
25D
100
AcDbEntity
  8
PA-KLD_DEFAULT_1
100
AcDbLine
 62
7
  6
CONTINUOUS
 10
454.4811766808
 20
148.6566261248
 11
447.092074355
 21
148.6566261248
  0
LINE
  5
25E
100
AcDbEntity
  8
PA-KLD_DEFAULT_1
100
AcDbLine
 62
7
  6
CONTINUOUS
 10
432.9794116601
 20
148.6566261248
 11
427.6423722643
 21
148.6566261248
  0
LINE
  5
25F
100
AcDbEntity
  8
PA-KLD_DEFAULT_1
100
AcDbLine
 62
7
  6
CONTINUOUS
 10
473.3081899337
 20
175.7111632016
 11
428.2650611021
 21
175.7111632016
  0
LINE
  5
260
100
AcDbEntity
  8
PA-KLD_DEFAULT_1
100
AcDbLine
 62
7
  6
CONTINUOUS
 10
471.5403744435
 20
176.7318119508
 11
430.0328765923
 21
176.7318119508
  0
LINE
  5
261
100
AcDbEntity
  8
PA-KLD_DEFAULT_1
100
AcDbLine
 62
7
  6
CONTINUOUS
 10
471.236201014
 20
194.1566261248
 11
430.3370500218
 21
194.1566261248
  0
LINE
  5
262
100
AcDbEntity
  8
PA-KLD_DEFAULT_1
100
AcDbLine
 62
7
  6
CONTINUOUS
 10
471.5403744435
 20
176.7318119508
 11
473.3081899337
 21
175.7111632016
  0
LINE
  5
263
100
AcDbEntity
  8
70105-12_DEFAULT_1
100
AcDbLine
 62
7
  6
CONTINUOUS
 10
423.4368513854
 20
236.6477764368
 11
478.1363996504
 21
236.6477764368
  0
LINE
  5
264
100
AcDbEntity
  8
70105-12_DEFAULT_1
100
AcDbLine
 62
7
  6
CONTINUOUS
 10
478.1363996504
 20
237.4477764368
 11
423.4368513854
 21
237.4477764368
  0
LINE
  5
265
100
AcDbEntity
  8
PP-50_35_2_DEFAULT_1
100
AcDbLine
 62
7
  6
CONTINUOUS
 10
425.7868320122
 20
285.8171491239
 11
475.7864190236
 21
285.8171491239
  0
LINE
  5
266
100
AcDbEntity
  8
PP-50_35_2_DEFAULT_1
100
AcDbLine
 62
7
  6
CONTINUOUS
 10
475.7864190236
 20
287.8171491239
 11
425.7868320122
 21
287.8171491239
  0
LINE
  5
267
100
AcDbEntity
  8
70111-05_DEFAULT_1
100
AcDbLine
 62
7
  6
CONTINUOUS
 10
434.5866255179
 20
322.1579943093
 11
433.7866255179
 21
322.9579943093
  0
LINE
  5
268
100
AcDbEntity
  8
70105-12_DEFAULT_1
100
AcDbLine
 62
7
  6
CONTINUOUS
 10
423.4366255179
 20
237.4477764368
 11
423.4366255179
 21
236.6477764368
  0
LINE
  5
269
100
AcDbEntity
  8
70101G-04_DEFAULT_1
100
AcDbLine
 62
7
  6
CONTINUOUS
 10
424.8366255179
 20
409.5145543679
 11
424.8366255179
 21
415.5145543679
  0
LINE
  5
26A
100
AcDbEntity
  8
PP-50_35_2_DEFAULT_1
100
AcDbLine
 62
7
  6
CONTINUOUS
 10
425.7866255179
 20
287.8171491239
 11
425.7866255179
 21
285.8171491239
  0
LINE
  5
26B
100
AcDbEntity
  8
70111-05_DEFAULT_1
100
AcDbLine
 62
7
  6
CONTINUOUS
 10
434.5867920115
 20
322.1579943093
 11
466.9864590243
 21
322.1579943093
  0
LINE
  5
26C
100
AcDbEntity
  8
70111-05_DEFAULT_1
100
AcDbLine
 62
7
  6
CONTINUOUS
 10
433.7866255179
 20
322.9579943093
 11
467.7866255179
 21
322.9579943093
  0
LINE
  5
26D
100
AcDbEntity
  8
PA-KLD_DEFAULT_1
100
AcDbLine
 62
7
  6
CONTINUOUS
 10
452.0802969655
 20
148.6566261248
 11
452.5186763254
 21
119.6566261248
  0
LINE
  5
26E
100
AcDbEntity
  8
PA-KLD_DEFAULT_1
100
AcDbLine
 62
7
  6
CONTINUOUS
 10
453.8571608922
 20
119.6566261248
 11
453.4187815323
 21
148.6566261248
  0
LINE
  5
26F
100
AcDbEntity
  8
70101G-01-01_DEFAULT_1
100
AcDbLine
 62
7
  6
CONTINUOUS
 10
428.1366255179
 20
445.1145543679
 11
428.1366255179
 21
520.7145543679
  0
LINE
  5
270
100
AcDbEntity
  8
70101G-01-02_DEFAULT_1
100
AcDbLine
 62
7
  6
CONTINUOUS
 10
428.2866255179
 20
417.2145543679
 11
428.2866255179
 21
445.1145543679
  0
LINE
  5
271
100
AcDbEntity
  8
PA-KLD_DEFAULT_1
100
AcDbLine
 62
7
  6
CONTINUOUS
 10
429.1359904233
 20
148.6566261248
 11
429.1359904233
 21
119.6566261248
  0
LINE
  5
272
100
AcDbEntity
  8
PA-KLD_DEFAULT_1
100
AcDbLine
 62
7
  6
CONTINUOUS
 10
431.8129595569
 20
119.6566261248
 11
431.8129595569
 21
148.6566261248
  0
LINE
  5
273
100
AcDbEntity
  8
70111-05_DEFAULT_1
100
AcDbLine
 62
7
  6
CONTINUOUS
 10
433.7866255179
 20
322.9579943093
 11
433.7866255179
 21
371.3579943093
  0
LINE
  5
274
100
AcDbEntity
  8
70101G-10-01_1
100
AcDbLine
 62
7
  6
CONTINUOUS
 10
439.7866255179
 20
678.5145543679
 11
439.7866255179
 21
526.0145543679
  0
LINE
  5
275
100
AcDbEntity
  8
70111C-02-02_DEFAULT_1
100
AcDbLine
 62
7
  6
CONTINUOUS
 10
439.7866255179
 20
526.0145543679
 11
439.7866255179
 21
521.0145543679
  0
LINE
  5
276
100
AcDbEntity
  8
70111C-04_DEFAULT_1
100
AcDbLine
 62
7
  6
CONTINUOUS
 10
441.3455429451
 20
520.7145543679
 11
441.3455429451
 21
521.0145543679
  0
LINE
  5
277
100
AcDbEntity
  8
70111C-04_DEFAULT_1
100
AcDbLine
 62
7
  6
CONTINUOUS
 10
443.3455429451
 20
521.0145543679
 11
443.3455429451
 21
520.7145543679
  0
LINE
  5
278
100
AcDbEntity
  8
70111C-04_DEFAULT_1
100
AcDbLine
 62
7
  6
CONTINUOUS
 10
443.788070961
 20
520.7145543679
 11
443.788070961
 21
521.0145543679
  0
LINE
  5
279
100
AcDbEntity
  8
70111C-04_DEFAULT_1
100
AcDbLine
 62
7
  6
CONTINUOUS
 10
448.7866255179
 20
520.7145543679
 11
448.7866255179
 21
521.0145543679
  0
LINE
  5
27A
100
AcDbEntity
  8
PA-KLD_DEFAULT_1
100
AcDbLine
 62
7
  6
CONTINUOUS
 10
447.0107406898
 20
119.6566261248
 11
447.092074355
 21
148.6566261248
  0
LINE
  5
27B
100
AcDbEntity
  8
PA-KLD_DEFAULT_1
100
AcDbLine
 62
7
  6
CONTINUOUS
 10
432.97941166
 20
148.6566261248
 11
432.5873949022
 21
119.6566261248
  0
LINE
  5
27C
100
AcDbEntity
  8
PA-KLD_DEFAULT_1
100
AcDbLine
 62
7
  6
CONTINUOUS
 10
427.6421873062
 20
148.6566261248
 11
427.1359904233
 21
119.6566261248
  0
LINE
  5
27D
100
AcDbEntity
  8
PA-KLD_DEFAULT_1
100
AcDbLine
 62
7
  6
CONTINUOUS
 10
428.2650611021
 20
175.7111632016
 11
427.7927765194
 21
148.6539975803
  0
LINE
  5
27E
100
AcDbEntity
  8
PA-KLD_DEFAULT_1
100
AcDbLine
 62
7
  6
CONTINUOUS
 10
430.337027855
 20
194.1566261248
 11
430.0328765923
 21
176.7318119508
  0
LINE
  5
27F
100
AcDbEntity
  8
70111-05_DEFAULT_1
100
AcDbLine
 62
7
  6
CONTINUOUS
 10
466.9866255179
 20
372.1579943093
 11
467.7866255179
 21
371.3579943093
  0
LINE
  5
280
100
AcDbEntity
  8
PA-KLD_DEFAULT_1
100
AcDbLine
 62
7
  6
CONTINUOUS
 10
471.2362231807
 20
194.1566261248
 11
471.5403744435
 21
176.7318119508
  0
LINE
  5
281
100
AcDbEntity
  8
PA-KLD_DEFAULT_1
100
AcDbLine
 62
7
  6
CONTINUOUS
 10
473.3081899337
 20
175.7111632016
 11
473.78047446
 21
148.6540008078
  0
LINE
  5
282
100
AcDbEntity
  8
PA-KLD_DEFAULT_1
100
AcDbLine
 62
7
  6
CONTINUOUS
 10
473.9310637296
 20
148.6566261248
 11
474.4372606125
 21
119.6566261248
  0
LINE
  5
283
100
AcDbEntity
  8
PA-KLD_DEFAULT_1
100
AcDbLine
 62
7
  6
CONTINUOUS
 10
468.9858561335
 20
119.6566261248
 11
468.5938393757
 21
148.6566261248
  0
LINE
  5
284
100
AcDbEntity
  8
PA-KLD_DEFAULT_1
100
AcDbLine
 62
7
  6
CONTINUOUS
 10
454.4811766808
 20
148.6566261248
 11
454.5625103459
 21
119.6566261248
  0
LINE
  5
285
100
AcDbEntity
  8
70111C-04_DEFAULT_1
100
AcDbLine
 62
7
  6
CONTINUOUS
 10
452.7866255179
 20
521.0145543679
 11
452.7866255179
 21
520.7145543679
  0
LINE
  5
286
100
AcDbEntity
  8
70111C-04_DEFAULT_1
100
AcDbLine
 62
7
  6
CONTINUOUS
 10
457.7851800748
 20
521.0145543679
 11
457.7851800748
 21
520.7145543679
  0
LINE
  5
287
100
AcDbEntity
  8
70111C-04_DEFAULT_1
100
AcDbLine
 62
7
  6
CONTINUOUS
 10
458.2276485094
 20
520.7145543679
 11
458.2276485094
 21
521.0045543679
  0
LINE
  5
288
100
AcDbEntity
  8
70111C-04_DEFAULT_1
100
AcDbLine
 62
7
  6
CONTINUOUS
 10
460.7366255179
 20
521.0045543679
 11
460.7366255179
 21
520.7145543679
  0
LINE
  5
289
100
AcDbEntity
  8
70101G-10-01_1
100
AcDbLine
 62
7
  6
CONTINUOUS
 10
461.7866255179
 20
678.5145543679
 11
461.7866255179
 21
526.0145543679
  0
LINE
  5
28A
100
AcDbEntity
  8
70111C-02-02_DEFAULT_1
100
AcDbLine
 62
7
  6
CONTINUOUS
 10
461.7866255179
 20
526.0145543679
 11
461.7866255179
 21
521.0145543679
  0
LINE
  5
28B
100
AcDbEntity
  8
70111-05_DEFAULT_1
100
AcDbLine
 62
7
  6
CONTINUOUS
 10
467.7866255179
 20
322.9579943093
 11
467.7866255179
 21
371.3579943093
  0
LINE
  5
28C
100
AcDbEntity
  8
PA-KLD_DEFAULT_1
100
AcDbLine
 62
7
  6
CONTINUOUS
 10
469.7602914789
 20
148.6566261248
 11
469.7602914789
 21
119.6566261248
  0
LINE
  5
28D
100
AcDbEntity
  8
PA-KLD_DEFAULT_1
100
AcDbLine
 62
7
  6
CONTINUOUS
 10
472.4372606125
 20
119.6566261248
 11
472.4372606125
 21
148.6566261248
  0
LINE
  5
28E
100
AcDbEntity
  8
70101G-01-02_DEFAULT_1
100
AcDbLine
 62
7
  6
CONTINUOUS
 10
473.2866255179
 20
417.2145543679
 11
473.2866255179
 21
445.1145543679
  0
LINE
  5
28F
100
AcDbEntity
  8
70101G-01-01_DEFAULT_1
100
AcDbLine
 62
7
  6
CONTINUOUS
 10
473.4366255179
 20
445.1145543679
 11
473.4366255179
 21
447.2145543679
  0
LINE
  5
290
100
AcDbEntity
  8
70101G-01-01_DEFAULT_1
100
AcDbLine
 62
7
  6
CONTINUOUS
 10
473.4366255179
 20
492.2145543679
 11
473.4366255179
 21
520.7145543679
  0
LINE
  5
291
100
AcDbEntity
  8
PA-KLD_DEFAULT_1
100
AcDbLine
 62
7
  6
CONTINUOUS
 10
448.1544695034
 20
148.6566261248
 11
447.7160901435
 21
119.6566261248
  0
LINE
  5
292
100
AcDbEntity
  8
PA-KLD_DEFAULT_1
100
AcDbLine
 62
7
  6
CONTINUOUS
 10
449.0545747103
 20
119.6566261248
 11
449.4929540702
 21
148.6566261248
  0
LINE
  5
293
100
AcDbEntity
  8
70111-05_DEFAULT_1
100
AcDbLine
 62
7
  6
CONTINUOUS
 10
467.7866255179
 20
371.3579943093
 11
433.7866255179
 21
371.3579943093
  0
LINE
  5
294
100
AcDbEntity
  8
70111-05_DEFAULT_1
100
AcDbLine
 62
7
  6
CONTINUOUS
 10
466.9864528664
 20
372.1579943093
 11
434.5867981693
 21
372.1579943093
  0
LINE
  5
295
100
AcDbEntity
  8
PP-50_35_2_DEFAULT_1
100
AcDbLine
 62
7
  6
CONTINUOUS
 10
475.7866255179
 20
287.8171491239
 11
475.7866255179
 21
285.8171491239
  0
LINE
  5
296
100
AcDbEntity
  8
70101G-04_DEFAULT_1
100
AcDbLine
 62
7
  6
CONTINUOUS
 10
476.7366255179
 20
409.5145543679
 11
476.7366255179
 21
415.5145543679
  0
LINE
  5
297
100
AcDbEntity
  8
70105-12_DEFAULT_1
100
AcDbLine
 62
7
  6
CONTINUOUS
 10
478.1366255179
 20
237.4477764368
 11
478.1366255179
 21
236.6477764368
  0
LINE
  5
298
100
AcDbEntity
  8
70101G-01-04_DEFAULT_1
100
AcDbLine
 62
7
  6
CONTINUOUS
 10
490.9366255179
 20
492.2030064044
 11
490.9366255179
 21
447.2167920319
  0
LINE
  5
299
100
AcDbEntity
  8
70101G-01-03_DEFAULT_1
100
AcDbLine
 62
7
  6
CONTINUOUS
 10
490.9366255179
 20
447.2145696093
 11
490.9366255179
 21
492.2145391264
  0
LINE
  5
29A
100
AcDbEntity
  8
70101G-01-04_DEFAULT_1
100
AcDbLine
 62
7
  6
CONTINUOUS
 10
495.8866255179
 20
447.2147406431
 11
495.8866255179
 21
492.2143680927
  0
LINE
  5
29B
100
AcDbEntity
  8
70101G-02-01_DEFAULT_1
100
AcDbLine
 62
7
  6
CONTINUOUS
 10
497.3866255179
 20
492.2143591436
 11
497.3866255179
 21
468.7438867092
  0
LINE
  5
29C
100
AcDbEntity
  8
70101______1
100
AcDbLine
 62
7
  6
CONTINUOUS
 10
428.5367147658
 20
409.0145543679
 11
473.03653627
 21
409.0145543679
  0
LINE
  5
29D
100
AcDbEntity
  8
70101G-04_DEFAULT_1
100
AcDbLine
 62
7
  6
CONTINUOUS
 10
424.8368864428
 20
409.5145543679
 11
476.736364593
 21
409.5145543679
  0
LINE
  5
29E
100
AcDbEntity
  8
70101-24____DEFAULT_1
100
AcDbLine
 62
7
  6
CONTINUOUS
 10
511.9866255179
 20
549.2137424088
 11
511.9866255179
 21
492.2143245681
  0
LINE
  5
29F
100
AcDbEntity
  8
70101-24____DEFAULT_1
100
AcDbLine
 62
7
  6
CONTINUOUS
 10
521.7866255179
 20
549.2137424088
 11
521.7866255179
 21
492.2143245681
  0
LINE
  5
2A0
100
AcDbEntity
  8
70101G-04_DEFAULT_1
100
AcDbLine
 62
7
  6
CONTINUOUS
 10
476.7366255179
 20
415.5145543679
 11
424.8366255179
 21
415.5145543679
  0
LINE
  5
2A1
100
AcDbEntity
  8
70101G-04_DEFAULT_1
100
AcDbLine
 62
7
  6
CONTINUOUS
 10
475.0364142
 20
417.2145543679
 11
426.5368368357
 21
417.2145543679
  0
LINE
  5
2A2
100
AcDbEntity
  8
70101G-02-01_DEFAULT_1
100
AcDbLine
 62
7
  6
CONTINUOUS
 10
525.5046963565
 20
448.1330176456
 11
525.5046916733
 21
448.1331808597
  0
LINE
  5
2A3
100
AcDbEntity
  8
70101G-02-01_DEFAULT_1
100
AcDbLine
 62
7
  6
CONTINUOUS
 10
524.5080260168
 20
447.2145543679
 11
524.5080260168
 21
492.2145543679
  0
LINE
  5
2A4
100
AcDbEntity
  8
70101G-02-01_DEFAULT_1
100
AcDbLine
 62
7
  6
CONTINUOUS
 10
525.5046916733
 20
448.1331808597
 11
525.5046963812
 21
491.2960907813
  0
LINE
  5
2A5
100
AcDbEntity
  8
70111-05_DEFAULT_1
100
AcDbLine
 62
7
  6
CONTINUOUS
 10
434.5866255179
 20
372.1579943093
 11
433.7866255179
 21
371.3579943093
  0
LINE
  5
2A6
100
AcDbEntity
  8
70101G-01-01_DEFAULT_1
100
AcDbLine
 62
7
  6
CONTINUOUS
 10
428.1366255179
 20
445.1145543679
 11
473.4366255179
 21
445.1145543679
  0
LINE
  5
2A7
100
AcDbEntity
  8
70101G-01-04_DEFAULT_1
100
AcDbLine
 62
7
  6
CONTINUOUS
 10
495.8866255179
 20
447.2145543679
 11
490.9366255179
 21
447.2145543679
  0
LINE
  5
2A8
100
AcDbEntity
  8
70101G-01-03_DEFAULT_1
100
AcDbLine
 62
7
  6
CONTINUOUS
 10
490.9366255179
 20
447.2145543679
 11
473.4366255179
 21
447.2145543679
  0
LINE
  5
2A9
100
AcDbEntity
  8
70101G-02-01_DEFAULT_1
100
AcDbLine
 62
7
  6
CONTINUOUS
 10
507.3769693009
 20
447.2145543679
 11
524.5080260168
 21
447.2145543679
  0
LINE
  5
2AA
100
AcDbEntity
  8
70111C-04_DEFAULT_1
100
AcDbLine
 62
7
  6
CONTINUOUS
 10
460.7266255179
 20
521.0145543679
 11
460.7366255179
 21
521.0045543679
  0
LINE
  5
2AB
100
AcDbEntity
  8
70111-05_DEFAULT_1
100
AcDbLine
 62
7
  6
CONTINUOUS
 10
466.9866255179
 20
322.1579943093
 11
467.7866255179
 21
322.9579943093
  0
LINE
  5
2AC
100
AcDbEntity
  8
70101G-01-04_DEFAULT_1
100
AcDbLine
 62
7
  6
CONTINUOUS
 10
495.8866255179
 20
492.2145543679
 11
490.9366255179
 21
492.2145543679
  0
LINE
  5
2AD
100
AcDbEntity
  8
70101G-01-03_DEFAULT_1
100
AcDbLine
 62
7
  6
CONTINUOUS
 10
490.9366255179
 20
492.2145543679
 11
473.4366255179
 21
492.2145543679
  0
LINE
  5
2AE
100
AcDbEntity
  8
70101G-02-01_DEFAULT_1
100
AcDbLine
 62
7
  6
CONTINUOUS
 10
497.3866255179
 20
492.2145543679
 11
511.9866255179
 21
492.2145543679
  0
LINE
  5
2AF
100
AcDbEntity
  8
70101G-02-01_DEFAULT_1
100
AcDbLine
 62
7
  6
CONTINUOUS
 10
521.7866255179
 20
492.2145543679
 11
524.5080260168
 21
492.2145543679
  0
LINE
  5
2B0
100
AcDbEntity
  8
70101G-01-01_DEFAULT_1
100
AcDbLine
 62
7
  6
CONTINUOUS
 10
473.4366255179
 20
520.7145543679
 11
428.1366255179
 21
520.7145543679
  0
LINE
  5
2B1
100
AcDbEntity
  8
70111C-04_DEFAULT_1
100
AcDbLine
 62
7
  6
CONTINUOUS
 10
460.7366255179
 20
521.0045543679
 11
458.2274809186
 21
521.0045543679
  0
LINE
  5
2B2
100
AcDbEntity
  8
70111C-02-02_DEFAULT_1
100
AcDbLine
 62
7
  6
CONTINUOUS
 10
439.7867690519
 20
521.0145543679
 11
461.7864819839
 21
521.0145543679
  0
LINE
  5
2B3
100
AcDbEntity
  8
70111C-02-02_DEFAULT_1
100
AcDbLine
 62
7
  6
CONTINUOUS
 10
461.7864819839
 20
526.0145543679
 11
439.7867690519
 21
526.0145543679
  0
LINE
  5
2B4
100
AcDbEntity
  8
70101G-10-01_1
100
AcDbLine
 62
7
  6
CONTINUOUS
 10
439.7873312798
 20
526.0145543679
 11
461.785919756
 21
526.0145543679
  0
LINE
  5
2B5
100
AcDbEntity
  8
70113-10-02_DEFAULT_1
100
AcDbLine
 62
7
  6
CONTINUOUS
 10
639.447953648
 20
686.2714154724
 11
639.7529987476
 21
682.7847340291
  0
LINE
  5
2B6
100
AcDbEntity
  8
70113-16_DEFAULT_1
100
AcDbLine
 62
7
  6
CONTINUOUS
 10
639.7529987477
 20
682.7847340291
 11
641.4961136027
 21
662.8608400672
  0
LINE
  5
2B7
100
AcDbEntity
  8
70113-10-02_DEFAULT_1
100
AcDbLine
 62
7
  6
CONTINUOUS
 10
661.364237006
 20
688.1888418128
 11
661.6692821056
 21
684.7021603695
  0
LINE
  5
2B8
100
AcDbEntity
  8
70113-16_DEFAULT_1
100
AcDbLine
 62
7
  6
CONTINUOUS
 10
661.6692821057
 20
684.7021603695
 11
663.4123969607
 21
664.7782664077
  0
LINE
  5
2B9
100
AcDbEntity
  8
PA-KLD_DEFAULT_1
100
AcDbLine
 62
7
  6
CONTINUOUS
 10
430.0328765923
 20
176.7318119508
 11
428.2650611021
 21
175.7111632016
  0
LINE
  5
2BA
100
AcDbEntity
  8
70113-16_DEFAULT_1
100
AcDbLine
 62
7
  6
CONTINUOUS
 10
641.4961136027
 20
662.8608400672
 11
663.4123969607
 21
664.7782664077
  0
LINE
  5
2BB
100
AcDbEntity
  8
70113-16_DEFAULT_1
100
AcDbLine
 62
7
  6
CONTINUOUS
 10
661.6692821057
 20
684.7021603695
 11
639.7529987477
 21
682.7847340291
  0
LINE
  5
2BC
100
AcDbEntity
  8
70113-10-02_DEFAULT_1
100
AcDbLine
 62
7
  6
CONTINUOUS
 10
639.754760526
 20
682.7848881647
 11
661.6674587274
 21
684.7020008446
  0
LINE
  5
2BD
100
AcDbEntity
  8
70113-10-02_DEFAULT_1
100
AcDbLine
 62
7
  6
CONTINUOUS
 10
661.364141683
 20
688.1888334731
 11
639.448048971
 21
686.2714238121
  0
LINE
  5
2BE
100
AcDbEntity
  8
70101G-10-01_1
100
AcDbLine
 62
7
  6
CONTINUOUS
 10
639.4479536481
 20
686.2714154725
 11
661.3642370061
 21
688.1888418129
  0
LINE
  5
2BF
100
AcDbEntity
  8
70101G-10-01_1
100
AcDbLine
 62
7
  6
CONTINUOUS
 10
461.7866255179
 20
678.5145543679
 11
439.7866255179
 21
678.5145543679
  0
ARC
  5
2C0
100
AcDbEntity
  8
70101G-02-01_DEFAULT_1
100
AcDbCircle
 62
7
  6
CONTINUOUS
 10
261.7763834605
 20
469.7190594198
 40
264.6102420958
100
AcDbArc
 50
355.3207848271
 51
359.9990245258
  0
ARC
  5
2C1
100
AcDbEntity
  8
70101G-02-01_DEFAULT_1
100
AcDbCircle
 62
7
  6
CONTINUOUS
 10
261.7763834605
 20
469.7100493159
 40
264.6102420958
100
AcDbArc
 50
0.0009754742
 51
4.6792151729
  0
ARC
  5
2C2
100
AcDbEntity
  8
70101G-10-01_1
100
AcDbCircle
 62
7
  6
CONTINUOUS
 10
550.7866255179
 20
678.5145543679
 40
111.0
100
AcDbArc
 50
5.0
 51
180.0
  0
ARC
  5
2C3
100
AcDbEntity
  8
70101G-10-01_1
100
AcDbCircle
 62
7
  6
CONTINUOUS
 10
550.7866255179
 20
678.5145543679
 40
89.0
100
AcDbArc
 50
5.0
 51
180.0
  0
ARC
  5
2C4
100
AcDbEntity
  8
ZSB-003____1
100
AcDbCircle
 62
7
  6
CONTINUOUS
 10
496.5670860641
 20
469.7261333836
 40
20.0
100
AcDbArc
 50
87.6506009465
 51
91.949752156
  0
ARC
  5
2C5
100
AcDbEntity
  8
ZSB-003____1
100
AcDbCircle
 62
7
  6
CONTINUOUS
 10
496.5670860641
 20
469.7029753521
 40
20.0
100
AcDbArc
 50
268.050247844
 51
295.9007851696
  0
ARC
  5
2C6
100
AcDbEntity
  8
70101______1
100
AcDbCircle
 62
7
  6
CONTINUOUS
 10
473.0366255179
 20
411.0145543679
 40
2.0
100
AcDbArc
 50
270.0
 51
311.3098932988
  0
ARC
  5
2C7
100
AcDbEntity
  8
70101______1
100
AcDbCircle
 62
7
  6
CONTINUOUS
 10
428.5366255179
 20
411.0145543679
 40
2.0
100
AcDbArc
 50
228.6901067012
 51
270.0
  0
ARC
  5
2C8
100
AcDbEntity
  8
70101G-04_DEFAULT_1
100
AcDbCircle
 62
7
  6
CONTINUOUS
 10
475.0366255179
 20
415.5145543679
 40
1.7
100
AcDbArc
 50
0.0
 51
90.0
  0
ARC
  5
2C9
100
AcDbEntity
  8
70101G-04_DEFAULT_1
100
AcDbCircle
 62
7
  6
CONTINUOUS
 10
426.5366255179
 20
415.5145543679
 40
1.7
100
AcDbArc
 50
90.0
 51
180.0
  0
ARC
  5
2CA
100
AcDbEntity
  8
70101G-02-01_DEFAULT_1
100
AcDbCircle
 62
7
  6
CONTINUOUS
 10
524.5080260168
 20
448.2145543679
 40
1.0
100
AcDbArc
 50
270.0
 51
355.3198093531
  0
ARC
  5
2CB
100
AcDbEntity
  8
70101G-02-01_DEFAULT_1
100
AcDbCircle
 62
7
  6
CONTINUOUS
 10
524.5080260168
 20
491.2145543679
 40
1.0
100
AcDbArc
 50
4.6801906469
 51
90.0
  0
LINE
  5
2CC
100
AcDbEntity
  8
70111C-04_DEFAULT_1
100
AcDbLine
 62
7
  6
CONTINUOUS
 10
458.2189268173
 20
521.0145543679
 11
458.2276485094
 21
521.0045543679
  0
SPLINE
  5
2CD
100
AcDbEntity
  8
70101-24____DEFAULT_1
100
AcDbSpline
 62
7
  6
CONTINUOUS
 70
0
 71
3
 72
19
 73
15
 74
0
 42
0.0000001
 43
0.0000001
 44
0.0000000001
 40
0.0
 40
0.0
 40
0.0
 40
0.0
 40
0.0851342844
 40
0.1701372799
 40
0.2535226764
 40
0.2856050763
 40
0.3048983432
 40
0.3322319514
 40
0.3685981458
 40
0.4137913607
 40
0.5283452992
 40
0.6697265719
 40
0.8299719512
 40
1.0
 40
1.0
 40
1.0
 40
1.0
 10
511.9866255179
 20
549.2137424088
 30
0.0
 10
511.9866255179
 20
549.3686934097
 30
0.0
 10
512.0613841848
 20
549.6832795678
 30
0.0
 10
512.3704586212
 20
550.0469799636
 30
0.0
 10
512.7194590898
 20
550.1971235375
 30
0.0
 10
512.9645748629
 20
550.215957173
 30
0.0
 10
513.107796001
 20
550.2182572652
 30
0.0
 10
513.2588402044
 20
550.2204433867
 30
0.0
 10
513.4570242249
 20
550.2222320764
 30
0.0
 10
513.8139573716
 20
550.2248227129
 30
0.0
 10
514.3620286621
 20
550.2273782089
 30
0.0
 10
515.1195065829
 20
550.2296443967
 30
0.0
 10
515.9779537483
 20
550.2310507902
 30
0.0
 10
516.5790770613
 20
550.231369427
 30
0.0
 10
516.8885412978
 20
550.2313687408
 30
0.0
  0
SPLINE
  5
2CE
100
AcDbEntity
  8
70101-24____DEFAULT_1
100
AcDbSpline
 62
7
  6
CONTINUOUS
 70
0
 71
3
 72
19
 73
15
 74
0
 42
0.0000001
 43
0.0000001
 44
0.0000000001
 40
0.0
 40
0.0
 40
0.0
 40
0.0
 40
0.1700511067
 40
0.3302934131
 40
0.4716478222
 40
0.5861593383
 40
0.6313271258
 40
0.6676665763
 40
0.6949740481
 40
0.714253825
 40
0.746424818
 40
0.8298368158
 40
0.9148521881
 40
1.0
 40
1.0
 40
1.0
 40
1.0
 10
516.8885412978
 20
550.2313687408
 30
0.0
 10
517.1978310757
 20
550.2313680549
 30
0.0
 10
517.7985703932
 20
550.2310471179
 30
0.0
 10
518.6564047641
 20
550.2296382273
 30
0.0
 10
519.4132213891
 20
550.2273704839
 30
0.0
 10
519.9607371659
 20
550.224814433
 30
0.0
 10
520.3172486443
 20
550.2222236676
 30
0.0
 10
520.5151516673
 20
550.2204350764
 30
0.0
 10
520.6659694403
 20
550.2182491404
 30
0.0
 10
520.809179567
 20
550.2159440195
 30
0.0
 10
521.0543040722
 20
550.1969779244
 30
0.0
 10
521.403185255
 20
550.0466526865
 30
0.0
 10
521.71194624
 20
549.6830157248
 30
0.0
 10
521.7866255179
 20
549.3686096622
 30
0.0
 10
521.7866255179
 20
549.2137424088
 30
0.0
  0
SPLINE
  5
2CF
100
AcDbEntity
  8
70101-24____DEFAULT_1
100
AcDbSpline
 62
7
  6
CONTINUOUS
 70
0
 71
3
 72
21
 73
17
 74
0
 42
0.0000001
 43
0.0000001
 44
0.0000000001
 40
0.0
 40
0.0
 40
0.0
 40
0.0
 40
0.0017115478
 40
0.0057868635
 40
0.0122205984
 40
0.0210024661
 40
0.0455279593
 40
0.0791170706
 40
0.1214650952
 40
0.1721559969
 40
0.2307210035
 40
0.2965901791
 40
0.4476984395
 40
0.6197460155
 40
0.8062059584
 40
1.0
 40
1.0
 40
1.0
 40
1.0
 10
511.9868902687
 20
492.2145544735
 30
0.0
 10
511.9894557432
 20
492.2156683689
 30
0.0
 10
511.9992604808
 20
492.2154532784
 30
0.0
 10
512.0188938973
 20
492.2172395838
 30
0.0
 10
512.0505670176
 20
492.2178067943
 30
0.0
 10
512.1153944125
 20
492.219607203
 30
0.0
 10
512.2247672568
 20
492.2211791541
 30
0.0
 10
512.3888899823
 20
492.2232240037
 30
0.0
 10
512.5958183493
 20
492.22507926
 30
0.0
 10
512.8435451245
 20
492.2269003088
 30
0.0
 10
513.1297154698
 20
492.2285946349
 30
0.0
 10
513.5799765747
 20
492.2307921272
 30
0.0
 10
514.2156832875
 20
492.2330513118
 30
0.0
 10
515.0484498687
 20
492.2350011786
 30
0.0
 10
515.9509714066
 20
492.236202675
 30
0.0
 10
516.5723487247
 20
492.2364711746
 30
0.0
 10
516.8890297373
 20
492.2364704724
 30
0.0
  0
SPLINE
  5
2D0
100
AcDbEntity
  8
70101-24____DEFAULT_1
100
AcDbSpline
 62
7
  6
CONTINUOUS
 70
0
 71
3
 72
26
 73
22
 74
0
 42
0.0000001
 43
0.0000001
 44
0.0000000001
 40
0.0
 40
0.0
 40
0.0
 40
0.0
 40
0.1950537097
 40
0.3826258953
 40
0.5555040764
 40
0.6343247543
 40
0.7070406566
 40
0.7729432842
 40
0.8314089246
 40
0.8818611072
 40
0.9238271531
 40
0.9414918767
 40
0.9568890885
 40
0.9699843974
 40
0.9807434636
 40
0.9891359568
 40
0.9951470221
 40
0.9972563072
 40
0.9987667276
 40
0.9996783586
 40
1.0
 40
1.0
 40
1.0
 40
1.0
 10
516.8890297373
 20
549.235888313
 30
0.0
 10
516.5702685168
 20
549.2358890199
 30
0.0
 10
515.9449725117
 20
549.2356174359
 30
0.0
 10
515.0371557825
 20
549.2343991977
 30
0.0
 10
514.3192908305
 20
549.2327099777
 30
0.0
 10
513.7891277291
 20
549.2309475703
 30
0.0
 10
513.4337864848
 20
549.2295055382
 30
0.0
 10
513.1117109754
 20
549.2279164874
 30
0.0
 10
512.8260202913
 20
549.2262001655
 30
0.0
 10
512.5794497067
 20
549.2243722592
 30
0.0
 10
512.3995557589
 20
549.222700581
 30
0.0
 10
512.2769539033
 20
549.2212773218
 30
0.0
 10
512.2015238799
 20
549.2202601942
 30
0.0
 10
512.137402819
 20
549.2192229676
 30
0.0
 10
512.0846680718
 20
549.2182085649
 30
0.0
 10
512.043678262
 20
549.2171259109
 30
0.0
 10
512.0164604592
 20
549.216312252
 30
0.0
 10
512.001073005
 20
549.2153913213
 30
0.0
 10
511.9931364234
 20
549.2150981313
 30
0.0
 10
511.9896543992
 20
549.2142506448
 30
0.0
 10
511.9866253367
 20
549.2142680424
 30
0.0
 10
511.9866255198
 20
549.2137424088
 30
0.0
  0
SPLINE
  5
2D1
100
AcDbEntity
  8
70101-24____DEFAULT_1
100
AcDbSpline
 62
7
  6
CONTINUOUS
 70
0
 71
3
 72
26
 73
22
 74
0
 42
0.0000001
 43
0.0000001
 44
0.0000000001
 40
0.0
 40
0.0
 40
0.0
 40
0.0
 40
0.0003216268
 40
0.0012330303
 40
0.0027430322
 40
0.0048517251
 40
0.0108611487
 40
0.0192514967
 40
0.0300078442
 40
0.043099801
 40
0.0584931697
 40
0.0761537011
 40
0.1181102552
 40
0.1685520521
 40
0.2270071524
 40
0.2928998498
 40
0.365607368
 40
0.4444221339
 40
0.6172999198
 40
0.8048940741
 40
1.0
 40
1.0
 40
1.0
 40
1.0
 10
521.786625516
 20
549.2137424088
 30
0.0
 10
521.7866253331
 20
549.2142675032
 30
0.0
 10
521.7836008497
 20
549.2142505953
 30
0.0
 10
521.7801221241
 20
549.215097091
 30
0.0
 10
521.7721960719
 20
549.2153903796
 30
0.0
 10
521.7568276297
 20
549.216310576
 30
0.0
 10
521.7296440014
 20
549.2171238655
 30
0.0
 10
521.6887048774
 20
549.2182057947
 30
0.0
 10
521.636035333
 20
549.2192196178
 30
0.0
 10
521.5719933342
 20
549.2202562441
 30
0.0
 10
521.4966558964
 20
549.2212728106
 30
0.0
 10
521.3742029076
 20
549.222695308
 30
0.0
 10
521.1945247035
 20
549.2243661827
 30
0.0
 10
520.9482456185
 20
549.2261933273
 30
0.0
 10
520.6628855172
 20
549.2279090966
 30
0.0
 10
520.341173007
 20
549.2294978286
 30
0.0
 10
519.9862198317
 20
549.2309397995
 30
0.0
 10
519.4566006945
 20
549.2327025488
 30
0.0
 10
518.7394142454
 20
549.2343929376
 30
0.0
 10
517.8323674165
 20
549.2356136578
 30
0.0
 10
517.2075635731
 20
549.2358876067
 30
0.0
 10
516.8890297373
 20
549.235888313
 30
0.0
  0
SPLINE
  5
2D2
100
AcDbEntity
  8
70101-24____DEFAULT_1
100
AcDbSpline
 62
7
  6
CONTINUOUS
 70
0
 71
3
 72
21
 73
17
 74
0
 42
0.0000001
 43
0.0000001
 44
0.0000000001
 40
0.0
 40
0.0
 40
0.0
 40
0.0
 40
0.1938452518
 40
0.3803265978
 40
0.5523735628
 40
0.7034675838
 40
0.7693269441
 40
0.8278815422
 40
0.8785622544
 40
0.9209009739
 40
0.9544823119
 40
0.9790019666
 40
0.9877818558
 40
0.9942141122
 40
0.9982885674
 40
1.0
 40
1.0
 40
1.0
 40
1.0
 10
516.8890297373
 20
492.2364704724
 30
0.0
 10
517.2054837276
 20
492.2364697706
 30
0.0
 10
517.826370095
 20
492.2361989201
 30
0.0
 10
518.7281239145
 20
492.2349949553
 30
0.0
 10
519.5600843485
 20
492.2330437747
 30
0.0
 10
520.1951272386
 20
492.2307843735
 30
0.0
 10
520.6448904249
 20
492.2285872813
 30
0.0
 10
520.930730415
 20
492.2268934922
 30
0.0
 10
521.1781653803
 20
492.2250732252
 30
0.0
 10
521.3848462398
 20
492.2232188137
 30
0.0
 10
521.5487705896
 20
492.2211752254
 30
0.0
 10
521.6580106185
 20
492.2196038732
 30
0.0
 10
521.7227593287
 20
492.2178049674
 30
0.0
 10
521.7543941563
 20
492.2172374392
 30
0.0
 10
521.7740045871
 20
492.215453447
 30
0.0
 10
521.7837977626
 20
492.215667005
 30
0.0
 10
521.786360633
 20
492.2145544724
 30
0.0
  0
ELLIPSE
  5
2D3
100
AcDbEntity
  8
70101G-02-01_DEFAULT_1
100
AcDbEllipse
 62
7
  6
CONTINUOUS
 10
496.8866255179
 20
469.7145543679
 30
0.0
 11
-10.4918500104
 21
22.4999926694
 31
0.0
 40
0.001731102
 41
-3.1423958227
 42
-1.6147577252
  0
ELLIPSE
  5
2D4
100
AcDbEntity
  8
70101G-02-01_DEFAULT_1
100
AcDbEllipse
 62
7
  6
CONTINUOUS
 10
496.8866255179
 20
469.7145543679
 30
0.0
 11
-9.6991324541
 21
20.7999932233
 31
0.0
 40
0.001731102
 41
-3.666013668
 42
-3.1423971946
  0
ENDSEC
  0
SECTION
  2
OBJECTS
  0
DICTIONARY
  5
C
100
AcDbDictionary
280
0
281
1
  3
ACAD_GROUP
350
D
  3
ACAD_MLINESTYLE
350
17
  3
ACAD_LAYOUT
350
1A
  3
ACAD_PLOTSETTINGS
350
19
  3
ACAD_PLOTSTYLENAME
350
E
  0
DICTIONARY
  5
D
102
{ACAD_REACTORS
330
C
102
}
100
AcDbDictionary
280
0
281
1
  0
ACDBDICTIONARYWDFLT
  5
E
102
{ACAD_REACTORS
330
C
102
}
100
AcDbDictionary
281
1
  3
Normal
350
F
100
AcDbDictionaryWithDefault
340
F
  0
DICTIONARY
  5
17
102
{ACAD_REACTORS
330
C
102
}
100
AcDbDictionary
280
0
281
1
  3
Standard
350
18
  0
DICTIONARY
  5
19
102
{ACAD_REACTORS
330
C
102
}
100
AcDbDictionary
281
1
  0
DICTIONARY
  5
1A
102
{ACAD_REACTORS
330
C
102
}
100
AcDbDictionary
281
1
  3
Model
350
2D5
  3
Layout1
350
2D6
  0
ACDBPLACEHOLDER
  5
F
102
{ACAD_REACTORS
330
E
102
}
  0
MLINESTYLE
  5
18
102
{ACAD_REACTORS
330
17
102
}
100
AcDbMlineStyle
  2
STANDARD
 70
0
  3

 62
256
 51
90.0
 52
90.0
 71
2
 49
0.5
 62
256
  6
BYLAYER
 49
-0.5
 62
256
  6
BYLAYER
  0
LAYOUT
  5
2D5
102
{ACAD_REACTORS
330
1A
102
}
100
AcDbPlotSettings
  1

  2
none_device
  4
ANSI_E_(44.00_x_34.00_Inches)
  6

 40
0.0
 41
0.0
 42
0.0
 43
0.0
 44
1117.6
 45
863.6
 46
0.0
 47
0.0
 48
0.0
 49
0.0
140
0.0
141
0.0
142
1.0
143
1.0
 70
1024
 72
1
 73
0
 74
0
  7

 75
0
147
1.0
148
0.0
149
0.0
100
AcDbLayout
  1
Model
 70
0
 71
0
 10
0.0
 20
0.0
 11
1117.6
 21
863.6
 12
0.0
 22
0.0
 32
0.0
 14
0.0
 24
0.0
 34
0.0
 15
0.0
 25
0.0
 35
0.0
146
0.0
 13
0.0
 23
0.0
 33
0.0
 16
1.0
 26
0.0
 36
0.0
 17
0.0
 27
1.0
 37
0.0
 76
0
330
239
345
0
346
0
  0
LAYOUT
  5
2D6
102
{ACAD_REACTORS
330
1A
102
}
100
AcDbPlotSettings
  1

  2
none_device
  4
ANSI_E_(44.00_x_34.00_Inches)
  6

 40
0.0
 41
0.0
 42
0.0
 43
0.0
 44
1117.6
 45
863.6
 46
0.0
 47
0.0
 48
0.0
 49
0.0
140
0.0
141
0.0
142
1.0
143
1.0
 70
0
 72
1
 73
0
 74
0
  7

 75
0
147
1.0
148
0.0
149
0.0
100
AcDbLayout
  1
Layout1
 70
0
 71
1
 10
0.0
 20
0.0
 11
1117.6
 21
863.6
 12
0.0
 22
0.0
 32
0.0
 14
0.0
 24
0.0
 34
0.0
 15
0.0
 25
0.0
 35
0.0
146
0.0
 13
0.0
 23
0.0
 33
0.0
 16
1.0
 26
0.0
 36
0.0
 17
0.0
 27
1.0
 37
0.0
 76
0
330
23A
345
0
346
0
  0
ENDSEC
  0
EOF
