999
DXF file: S:\Engenharia\Wildfire\Engenharia\Produtos\Misturadores\94520.009\94520009.dxf
999
Pro/ENGINEER 2013150 by Parametric Technology Corporation
  0
SECTION
  2
HEADER
  9
$ACADVER
  1
AC1021
  9
$DWGCODEPAGE
  3
ANSI_1252
  9
$EXTMAX
 10
1117.6
 20
863.6
 30
0.0
  9
$EXTMIN
 10
0.0
 20
0.0
 30
0.0
  9
$LIMMIN
 10
0.0
 20
0.0
  9
$LIMMAX
 10
1117.6
 20
863.6
  9
$VIEWCTR
 10
558.8
 20
431.8
  9
$VIEWSIZE
 40
863.6
  9
$CLAYER
  8
0
  9
$LTSCALE
 40
61.468
  9
$CELTYPE
  6
BYLAYER
  9
$DIMSCALE
 40
1.0
  9
$DIMASZ
 40
3.0
  9
$DIMEXO
 40
0.5
  9
$DIMDLI
 40
42.4688
  9
$DIMEXE
 40
0.5
  9
$DIMCEN
 40
10.0584
  9
$DIMLFAC
 40
1.0
  9
$DIMBLK
  1
_FILLED
  9
$DIMTXT
 40
1.8
  9
$DIMTOL
 70
1
  9
$DIMLIM
 70
0
  9
$DIMTFAC
 40
1.0
  9
$DIMTP
 40
0.001
  9
$DIMTM
 40
0.001
  9
$DIMGAP
 40
0.625
  9
$DIMDSEP
 70
46
  9
$PDMODE
 70
3
  9
$PDSIZE
 40
1.0
  9
$HANDSEED
  5
30A
  9
$TILEMODE
 70
1
  9
$MEASUREMENT
 70
1
  9
$INSUNITS
 70
4
  0
ENDSEC
  0
SECTION
  2
CLASSES
  0
CLASS
  1
ACDBDICTIONARYWDFLT
  2
AcDbDictionaryWithDefault
  3
AutoCAD 2000
 90
0
 91
1
280
0
281
0
  0
CLASS
  1
ACDBPLACEHOLDER
  2
AcDbPlaceHolder
  3
AutoCAD 2000
 90
0
 91
1
280
0
281
0
  0
CLASS
  1
LAYOUT
  2
AcDbLayout
  3
AutoCAD 2000
 90
0
 91
0
280
0
281
0
  0
ENDSEC
  0
SECTION
  2
TABLES
  0
TABLE
  2
VPORT
  5
8
100
AcDbSymbolTable
 70
2
  0
VPORT
  5
1F4
100
AcDbSymbolTableRecord
100
AcDbViewportTableRecord
  2
*ACTIVE
 70
0
 10
0.0
 20
0.0
 11
1.0
 21
1.0
 12
558.8
 22
431.8
 13
0.0
 23
0.0
 14
1.0
 24
1.0
 15
0.0
 25
0.0
 16
0.0
 26
0.0
 36
1.0
 17
0.0
 27
0.0
 37
0.0
 40
863.6
 41
1.2941176471
 42
50.0
 43
0.0
 44
0.0
 50
0.0
 51
0.0
 71
0
 72
100
 73
1
 74
1
 75
0
 76
0
 77
0
 78
0
  0
ENDTAB
  0
TABLE
  2
LTYPE
  5
5
100
AcDbSymbolTable
 70
6
  0
LTYPE
  5
14
100
AcDbSymbolTableRecord
100
AcDbLinetypeTableRecord
  2
BYBLOCK
 70
0
  3

 72
65
 73
0
 40
0.0
  0
LTYPE
  5
15
100
AcDbSymbolTableRecord
100
AcDbLinetypeTableRecord
  2
BYLAYER
 70
0
  3

 72
65
 73
0
 40
0.0
  0
LTYPE
  5
16
100
AcDbSymbolTableRecord
100
AcDbLinetypeTableRecord
  2
CONTINUOUS
 70
64
  3
Solid line
 72
65
 73
0
 40
0.0
  0
LTYPE
  5
1F5
100
AcDbSymbolTableRecord
100
AcDbLinetypeTableRecord
  2
CENTER
 70
64
  3
____ _ ____ _ ____ _ ____ _ ____ _ ____ _ ____
 72
65
 73
4
 40
0.6
 49
0.375
 74
0
 49
-0.075
 74
0
 49
0.075
 74
0
 49
-0.075
 74
0
  0
LTYPE
  5
1F6
100
AcDbSymbolTableRecord
100
AcDbLinetypeTableRecord
  2
HIDDEN
 70
64
  3
- - - - - - - - - - - - - - - - - - - -
 72
65
 73
2
 40
0.2
 49
0.1
 74
0
 49
-0.1
 74
0
  0
LTYPE
  5
1F7
100
AcDbSymbolTableRecord
100
AcDbLinetypeTableRecord
  2
PHANTOM
 70
64
  3
_____ _ _ _____ _ _ _____ _ _ _____
 72
65
 73
6
 40
0.8
 49
0.45
 74
0
 49
-0.05
 74
0
 49
0.1
 74
0
 49
-0.05
 74
0
 49
0.1
 74
0
 49
-0.05
 74
0
  0
LTYPE
  5
1F8
100
AcDbSymbolTableRecord
100
AcDbLinetypeTableRecord
  2
DOT
 70
64
  3
. . . . . . . . . . . . . . . . . . . .
 72
65
 73
2
 40
0.2
 49
0.1
 74
0
 49
-0.1
 74
0
  0
LTYPE
  5
1F9
100
AcDbSymbolTableRecord
100
AcDbLinetypeTableRecord
  2
DASHED
 70
64
  3
- - - - - - - - - - - - - - - - - - - -
 72
65
 73
2
 40
0.2
 49
0.1
 74
0
 49
-0.1
 74
0
  0
ENDTAB
  0
TABLE
  2
LAYER
  5
2
100
AcDbSymbolTable
 70
36
  0
LAYER
  5
10
100
AcDbSymbolTableRecord
100
AcDbLayerTableRecord
  2
0
 70
0
 62
7
  6
CONTINUOUS
370
-3
390
F
  0
LAYER
  5
1FA
100
AcDbSymbolTableRecord
100
AcDbLayerTableRecord
  2
DEFAULT_1
 70
0
 62
7
  6
CENTER
370
-3
390
F
  0
LAYER
  5
1FB
100
AcDbSymbolTableRecord
100
AcDbLayerTableRecord
  2
DEFAULT_2
 70
0
 62
8
  6
HIDDEN
370
-3
390
F
  0
LAYER
  5
1FC
100
AcDbSymbolTableRecord
100
AcDbLayerTableRecord
  2
DEFAULT_3
 70
0
 62
7
  6
PHANTOM
370
-3
390
F
  0
LAYER
  5
1FD
100
AcDbSymbolTableRecord
100
AcDbLayerTableRecord
  2
01_ALL_DTM_PLN
 70
0
 62
7
  6
CONTINUOUS
370
-3
390
F
  0
LAYER
  5
1FE
100
AcDbSymbolTableRecord
100
AcDbLayerTableRecord
  2
01__ASM_ALL_DTM_PLN
 70
0
 62
7
  6
CONTINUOUS
370
-3
390
F
  0
LAYER
  5
1FF
100
AcDbSymbolTableRecord
100
AcDbLayerTableRecord
  2
01__ASM_DEF_DTM_PLN
 70
0
 62
7
  6
CONTINUOUS
370
-3
390
F
  0
LAYER
  5
200
100
AcDbSymbolTableRecord
100
AcDbLayerTableRecord
  2
01___PRT_ALL_DTM_PLN
 70
0
 62
7
  6
CONTINUOUS
370
-3
390
F
  0
LAYER
  5
201
100
AcDbSymbolTableRecord
100
AcDbLayerTableRecord
  2
01___PRT_DEF_DTM_PLN
 70
0
 62
7
  6
CONTINUOUS
370
-3
390
F
  0
LAYER
  5
202
100
AcDbSymbolTableRecord
100
AcDbLayerTableRecord
  2
02_ALL_AXES
 70
0
 62
7
  6
CONTINUOUS
370
-3
390
F
  0
LAYER
  5
203
100
AcDbSymbolTableRecord
100
AcDbLayerTableRecord
  2
02__ASM_ALL_AXES
 70
0
 62
7
  6
CONTINUOUS
370
-3
390
F
  0
LAYER
  5
204
100
AcDbSymbolTableRecord
100
AcDbLayerTableRecord
  2
02___PRT_ALL_AXES
 70
0
 62
7
  6
CONTINUOUS
370
-3
390
F
  0
LAYER
  5
205
100
AcDbSymbolTableRecord
100
AcDbLayerTableRecord
  2
03_ALL_CURVES
 70
0
 62
7
  6
CONTINUOUS
370
-3
390
F
  0
LAYER
  5
206
100
AcDbSymbolTableRecord
100
AcDbLayerTableRecord
  2
03__ASM_ALL_CURVES
 70
0
 62
7
  6
CONTINUOUS
370
-3
390
F
  0
LAYER
  5
207
100
AcDbSymbolTableRecord
100
AcDbLayerTableRecord
  2
03___PRT_ALL_CURVES
 70
0
 62
7
  6
CONTINUOUS
370
-3
390
F
  0
LAYER
  5
208
100
AcDbSymbolTableRecord
100
AcDbLayerTableRecord
  2
04_ALL_DTM_PNT
 70
0
 62
7
  6
CONTINUOUS
370
-3
390
F
  0
LAYER
  5
209
100
AcDbSymbolTableRecord
100
AcDbLayerTableRecord
  2
04__ASM_ALL_DTM_PNT
 70
0
 62
7
  6
CONTINUOUS
370
-3
390
F
  0
LAYER
  5
20A
100
AcDbSymbolTableRecord
100
AcDbLayerTableRecord
  2
04___PRT_ALL_DTM_PNT
 70
0
 62
7
  6
CONTINUOUS
370
-3
390
F
  0
LAYER
  5
20B
100
AcDbSymbolTableRecord
100
AcDbLayerTableRecord
  2
05_ALL_DTM_CSYS
 70
0
 62
7
  6
CONTINUOUS
370
-3
390
F
  0
LAYER
  5
20C
100
AcDbSymbolTableRecord
100
AcDbLayerTableRecord
  2
05__ASM_ALL_DTM_CSYS
 70
0
 62
7
  6
CONTINUOUS
370
-3
390
F
  0
LAYER
  5
20D
100
AcDbSymbolTableRecord
100
AcDbLayerTableRecord
  2
05__ASM_DEF_DTM_CSYS
 70
0
 62
7
  6
CONTINUOUS
370
-3
390
F
  0
LAYER
  5
20E
100
AcDbSymbolTableRecord
100
AcDbLayerTableRecord
  2
05___PRT_ALL_DTM_CSYS
 70
0
 62
7
  6
CONTINUOUS
370
-3
390
F
  0
LAYER
  5
20F
100
AcDbSymbolTableRecord
100
AcDbLayerTableRecord
  2
05___PRT_DEF_DTM_CSYS
 70
0
 62
7
  6
CONTINUOUS
370
-3
390
F
  0
LAYER
  5
210
100
AcDbSymbolTableRecord
100
AcDbLayerTableRecord
  2
06_ALL_SURFS
 70
0
 62
7
  6
CONTINUOUS
370
-3
390
F
  0
LAYER
  5
211
100
AcDbSymbolTableRecord
100
AcDbLayerTableRecord
  2
06__ASM_ALL_SURFS
 70
0
 62
7
  6
CONTINUOUS
370
-3
390
F
  0
LAYER
  5
212
100
AcDbSymbolTableRecord
100
AcDbLayerTableRecord
  2
06___PRT_ALL_SURFS
 70
0
 62
7
  6
CONTINUOUS
370
-3
390
F
  0
LAYER
  5
213
100
AcDbSymbolTableRecord
100
AcDbLayerTableRecord
  2
07__ASM_ALL_SKELETONS
 70
0
 62
7
  6
CONTINUOUS
370
-3
390
F
  0
LAYER
  5
214
100
AcDbSymbolTableRecord
100
AcDbLayerTableRecord
  2
1_4_1
 70
0
 62
7
  6
CONTINUOUS
370
-3
390
F
  0
LAYER
  5
215
100
AcDbSymbolTableRecord
100
AcDbLayerTableRecord
  2
2_1_1
 70
0
 62
7
  6
CONTINUOUS
370
-3
390
F
  0
LAYER
  5
216
100
AcDbSymbolTableRecord
100
AcDbLayerTableRecord
  2
3_3_1
 70
0
 62
7
  6
CONTINUOUS
370
-3
390
F
  0
LAYER
  5
217
100
AcDbSymbolTableRecord
100
AcDbLayerTableRecord
  2
40__1_1
 70
0
 62
7
  6
CONTINUOUS
370
-3
390
F
  0
LAYER
  5
218
100
AcDbSymbolTableRecord
100
AcDbLayerTableRecord
  2
70101-04A_2_1
 70
0
 62
7
  6
CONTINUOUS
370
-3
390
F
  0
LAYER
  5
219
100
AcDbSymbolTableRecord
100
AcDbLayerTableRecord
  2
70101-24_3_1
 70
0
 62
7
  6
CONTINUOUS
370
-3
390
F
  0
LAYER
  5
21A
100
AcDbSymbolTableRecord
100
AcDbLayerTableRecord
  2
70101G-HD_ASM_6_ASM_1
 70
0
 62
7
  6
CONTINUOUS
370
-3
390
F
  0
LAYER
  5
21B
100
AcDbSymbolTableRecord
100
AcDbLayerTableRecord
  2
70101___1_1
 70
0
 62
7
  6
CONTINUOUS
370
-3
390
F
  0
LAYER
  5
21C
100
AcDbSymbolTableRecord
100
AcDbLayerTableRecord
  2
70111-05_2_1
 70
0
 62
7
  6
CONTINUOUS
370
-3
390
F
  0
LAYER
  5
21D
100
AcDbSymbolTableRecord
100
AcDbLayerTableRecord
  2
70118A-01_ASM_1
 70
0
 62
7
  6
CONTINUOUS
370
-3
390
F
  0
LAYER
  5
21E
100
AcDbSymbolTableRecord
100
AcDbLayerTableRecord
  2
70118A_ASM_1_ASM_1
 70
0
 62
7
  6
CONTINUOUS
370
-3
390
F
  0
LAYER
  5
21F
100
AcDbSymbolTableRecord
100
AcDbLayerTableRecord
  2
8X19_3_1
 70
0
 62
7
  6
CONTINUOUS
370
-3
390
F
  0
LAYER
  5
220
100
AcDbSymbolTableRecord
100
AcDbLayerTableRecord
  2
ASM0001_ASM_1_ASM_1
 70
0
 62
7
  6
CONTINUOUS
370
-3
390
F
  0
LAYER
  5
221
100
AcDbSymbolTableRecord
100
AcDbLayerTableRecord
  2
M5X4-A_3_1
 70
0
 62
7
  6
CONTINUOUS
370
-3
390
F
  0
LAYER
  5
222
100
AcDbSymbolTableRecord
100
AcDbLayerTableRecord
  2
PRODUCT_10919_1_1
 70
0
 62
7
  6
CONTINUOUS
370
-3
390
F
  0
LAYER
  5
223
100
AcDbSymbolTableRecord
100
AcDbLayerTableRecord
  2
PRODUCT_11199_1_1
 70
0
 62
7
  6
CONTINUOUS
370
-3
390
F
  0
LAYER
  5
224
100
AcDbSymbolTableRecord
100
AcDbLayerTableRecord
  2
PRODUCT_11322_1_1
 70
0
 62
7
  6
CONTINUOUS
370
-3
390
F
  0
LAYER
  5
225
100
AcDbSymbolTableRecord
100
AcDbLayerTableRecord
  2
PRODUCT_11608_1_1
 70
0
 62
7
  6
CONTINUOUS
370
-3
390
F
  0
LAYER
  5
226
100
AcDbSymbolTableRecord
100
AcDbLayerTableRecord
  2
PRODUCT_11888_1_1
 70
0
 62
7
  6
CONTINUOUS
370
-3
390
F
  0
LAYER
  5
227
100
AcDbSymbolTableRecord
100
AcDbLayerTableRecord
  2
PRODUCT_11900_1_1
 70
0
 62
7
  6
CONTINUOUS
370
-3
390
F
  0
LAYER
  5
228
100
AcDbSymbolTableRecord
100
AcDbLayerTableRecord
  2
PRODUCT_11972_ASM_1_ASM_1
 70
0
 62
7
  6
CONTINUOUS
370
-3
390
F
  0
LAYER
  5
229
100
AcDbSymbolTableRecord
100
AcDbLayerTableRecord
  2
PRODUCT_12005_1_1
 70
0
 62
7
  6
CONTINUOUS
370
-3
390
F
  0
LAYER
  5
22A
100
AcDbSymbolTableRecord
100
AcDbLayerTableRecord
  2
PRODUCT_12137_1_1
 70
0
 62
7
  6
CONTINUOUS
370
-3
390
F
  0
LAYER
  5
22B
100
AcDbSymbolTableRecord
100
AcDbLayerTableRecord
  2
__1_1_1
 70
0
 62
7
  6
CONTINUOUS
370
-3
390
F
  0
LAYER
  5
22C
100
AcDbSymbolTableRecord
100
AcDbLayerTableRecord
  2
___1_ASM_1_ASM_1
 70
0
 62
7
  6
CONTINUOUS
370
-3
390
F
  0
ENDTAB
  0
TABLE
  2
STYLE
  5
3
100
AcDbSymbolTable
 70
1
  0
STYLE
  5
11
100
AcDbSymbolTableRecord
100
AcDbTextStyleTableRecord
  2
STANDARD
 70
0
 40
0.0
 41
0.8
 50
0.0
 71
0
 42
0.2
  3
txt
  4

  0
STYLE
  5
22D
100
AcDbSymbolTableRecord
100
AcDbTextStyleTableRecord
  2
TEXTSTYLE_1
 70
0
 40
0.0
 41
0.8
 50
0.0
 71
0
 42
0.2
  3
gdt
  4

  0
ENDTAB
  0
TABLE
  2
VIEW
  5
6
100
AcDbSymbolTable
 70
0
  0
ENDTAB
  0
TABLE
  2
UCS
  5
7
100
AcDbSymbolTable
 70
0
  0
ENDTAB
  0
TABLE
  2
APPID
  5
9
100
AcDbSymbolTable
 70
1
  0
APPID
  5
22E
100
AcDbSymbolTableRecord
100
AcDbRegAppTableRecord
  2
ACAD
 70
0
  0
ENDTAB
  0
TABLE
  2
BLOCK_RECORD
  5
1
100
AcDbSymbolTable
 70
0
  0
BLOCK_RECORD
  5
22F
100
AcDbSymbolTableRecord
100
AcDbBlockTableRecord
  2
*Model_Space
  0
BLOCK_RECORD
  5
230
100
AcDbSymbolTableRecord
100
AcDbBlockTableRecord
  2
*Paper_Space
  0
BLOCK_RECORD
  5
231
100
AcDbSymbolTableRecord
100
AcDbBlockTableRecord
  2
_FILLED
  0
BLOCK_RECORD
  5
232
100
AcDbSymbolTableRecord
100
AcDbBlockTableRecord
  2
*D0
  0
BLOCK_RECORD
  5
233
100
AcDbSymbolTableRecord
100
AcDbBlockTableRecord
  2
*D1
  0
ENDTAB
  0
TABLE
  2
DIMSTYLE
  5
A
100
AcDbSymbolTable
 70
1
100
AcDbDimStyleTable
 71
0
  0
DIMSTYLE
105
234
100
AcDbSymbolTableRecord
100
AcDbDimStyleTableRecord
  2
STANDARD
 70
0
  3

  4

 40
1.0
 41
3.0
 42
0.5
 43
0.38
 44
0.5
 45
0.0
 46
0.0
 47
0.001
 48
0.001
140
1.8
141
0.09
142
0.0
143
25.4
144
1.0
145
0.0
146
1.0
147
0.625
 71
1.0
 72
0.0
 73
0
 74
0
 75
0
 76
0
 77
1
 78
8
170
0
171
2
172
0
173
0
174
0
175
0
176
0
177
0
178
0
270
2
271
3
272
3
273
2
274
2
275
0
280
0
281
0
282
0
283
1
284
8
285
0
286
0
287
3
288
0
340
11
278
46
341
231
342
231
343
231
344
231
  0
DIMSTYLE
105
235
100
AcDbSymbolTableRecord
100
AcDbDimStyleTableRecord
  2
DIMSTYLE_1
 70
0
  3

  4

 40
1.0
 41
3.0
 42
0.5
 43
0.38
 44
0.5
 45
0.0
 46
0.0
 47
0.001
 48
0.001
140
5.0
141
0.09
142
0.0
143
25.4
144
1.0
145
0.0
146
1.0
147
1.25
 71
0.0
 72
0.0
 73
0
 74
0
 75
0
 76
0
 77
1
 78
8
170
0
171
2
172
0
173
0
174
0
175
0
176
0
177
0
178
0
270
2
271
0
272
0
273
2
274
2
275
0
280
0
281
0
282
0
283
1
284
8
285
0
286
0
287
3
288
0
340
11
278
46
341
231
342
231
343
231
344
231
  0
ENDTAB
  0
ENDSEC
  0
SECTION
  2
BLOCKS
  0
BLOCK
  5
20
100
AcDbEntity
  8
0
100
AcDbBlockBegin
  2
*Model_Space
 70
0
 10
0.0
 20
0.0
 30
0.0
  3
*Model_Space
  1

  0
ENDBLK
  5
21
100
AcDbEntity
  8
0
100
AcDbBlockEnd
  0
BLOCK
  5
1C
100
AcDbEntity
  8
0
100
AcDbBlockBegin
  2
*Paper_Space
 70
0
 10
0.0
 20
0.0
 30
0.0
  3
*Paper_Space
  1

  0
ENDBLK
  5
1D
100
AcDbEntity
  8
0
100
AcDbBlockEnd
  0
BLOCK
  5
236
100
AcDbEntity
  8
0
100
AcDbBlockBegin
  2
_FILLED
 70
64
 10
0.0
 20
0.0
  3
_FILLED
  1

  0
SOLID
  5
237
100
AcDbEntity
  8
0
  6
BYBLOCK
 62
0
100
AcDbTrace
 10
0.0
 20
0.0
 11
-1.0
 21
0.1666666667
 12
-1.0
 22
-0.1666666667
 13
-1.0
 23
-0.1666666667
  0
ENDBLK
  5
238
100
AcDbEntity
  8
0
  6
BYBLOCK
 62
0
100
AcDbBlockEnd
  0
BLOCK
  5
239
100
AcDbEntity
  8
0
100
AcDbBlockBegin
 62
2
  6
CONTINUOUS
  2
*D0
 70
65
 10
0.0
 20
0.0
  3
*D0
  1

  0
MTEXT
  5
23A
100
AcDbEntity
  8
0
100
AcDbMText
 62
2
  6
CONTINUOUS
  7
STANDARD
 71
2
 72
1
 10
744.6532845277
 20
572.6644030074
 30
0.0
 11
0.0
 21
1.0
 31
0.0
 44
0.9
  1
425
 40
5.0
 41
23.1428571429
  0
LINE
  5
23B
100
AcDbEntity
  8
0
100
AcDbLine
 62
2
  6
CONTINUOUS
 10
690.5128855193
 20
360.1903151512
 11
752.2961416706
 21
360.1903151512
  0
LINE
  5
23C
100
AcDbEntity
  8
0
100
AcDbLine
 62
2
  6
CONTINUOUS
 10
515.5874850161
 20
785.1384908635
 11
752.2961416706
 21
785.1384908635
  0
LINE
  5
23D
100
AcDbEntity
  8
0
100
AcDbLine
 62
2
  6
CONTINUOUS
 10
751.7961416706
 20
360.1903151512
 11
751.7961416706
 21
572.6644030074
  0
LINE
  5
23E
100
AcDbEntity
  8
0
100
AcDbLine
 62
2
  6
CONTINUOUS
 10
751.7961416706
 20
785.1384908635
 11
751.7961416706
 21
572.6644030074
  0
INSERT
  5
23F
100
AcDbEntity
  8
0
100
AcDbBlockReference
 62
2
  6
CONTINUOUS
  2
_FILLED
 10
751.7961416706
 20
360.1903151512
 41
3.0
 42
3.0
 43
3.0
 50
270.0
  0
INSERT
  5
240
100
AcDbEntity
  8
0
100
AcDbBlockReference
 62
2
  6
CONTINUOUS
  2
_FILLED
 10
751.7961416706
 20
785.1384908635
 41
3.0
 42
3.0
 43
3.0
 50
90.0
  0
ENDBLK
  5
241
100
AcDbEntity
  8
0
  6
BYBLOCK
 62
0
100
AcDbBlockEnd
  0
BLOCK
  5
242
100
AcDbEntity
  8
0
100
AcDbBlockBegin
 62
2
  6
CONTINUOUS
  2
*D1
 70
65
 10
0.0
 20
0.0
  3
*D1
  1

  0
MTEXT
  5
243
100
AcDbEntity
  8
0
100
AcDbMText
 62
2
  6
CONTINUOUS
  7
STANDARD
 71
2
 72
1
 10
565.6092340671
 20
338.6934468605
 30
0.0
 11
1.0
 21
0.0
 31
0.0
 44
0.9
  1
195
 40
5.0
 41
23.1428571429
  0
LINE
  5
244
100
AcDbEntity
  8
0
100
AcDbLine
 62
2
  6
CONTINUOUS
 10
468.2055826149
 20
648.4845749677
 11
468.2055826149
 21
331.0505897176
  0
LINE
  5
245
100
AcDbEntity
  8
0
100
AcDbLine
 62
2
  6
CONTINUOUS
 10
663.0128855193
 20
359.2871212233
 11
663.0128855193
 21
331.0505897176
  0
LINE
  5
246
100
AcDbEntity
  8
0
100
AcDbLine
 62
2
  6
CONTINUOUS
 10
468.2055826149
 20
331.5505897176
 11
565.6092340671
 21
331.5505897176
  0
LINE
  5
247
100
AcDbEntity
  8
0
100
AcDbLine
 62
2
  6
CONTINUOUS
 10
663.0128855193
 20
331.5505897176
 11
565.6092340671
 21
331.5505897176
  0
INSERT
  5
248
100
AcDbEntity
  8
0
100
AcDbBlockReference
 62
2
  6
CONTINUOUS
  2
_FILLED
 10
468.2055826149
 20
331.5505897176
 41
3.0
 42
3.0
 43
3.0
 50
180.0
  0
INSERT
  5
249
100
AcDbEntity
  8
0
100
AcDbBlockReference
 62
2
  6
CONTINUOUS
  2
_FILLED
 10
663.0128855193
 20
331.5505897176
 41
3.0
 42
3.0
 43
3.0
  0
ENDBLK
  5
24A
100
AcDbEntity
  8
0
  6
BYBLOCK
 62
0
100
AcDbBlockEnd
  0
ENDSEC
  0
SECTION
  2
ENTITIES
  0
DIMENSION
  5
24B
100
AcDbEntity
  8
0
100
AcDbDimension
 62
2
  6
CONTINUOUS
  2
*D0
 10
751.7961416706
 20
785.1384908635
 11
751.7961416706
 21
572.6644030074
 70
160
 71
2
 42
424.9481757123
  3
DIMSTYLE_1
100
AcDbAlignedDimension
 13
690.0128855193
 23
360.1903151512
 14
515.0874850161
 24
785.1384908635
 50
90.0
100
AcDbRotatedDimension
  0
DIMENSION
  5
24C
100
AcDbEntity
  8
0
100
AcDbDimension
 62
2
  6
CONTINUOUS
  2
*D1
 10
663.0128855193
 20
331.5505897176
 11
565.6092340671
 21
331.5505897176
 70
160
 71
2
 42
194.8073029044
  3
DIMSTYLE_1
100
AcDbAlignedDimension
 13
468.2055826149
 23
648.9845749677
 14
663.0128855193
 24
359.7871212233
100
AcDbRotatedDimension
  0
LINE
  5
24D
100
AcDbEntity
  8
0
100
AcDbLine
 62
7
  6
CONTINUOUS
 10
0.0
 20
0.0
 11
0.0
 21
863.6
  0
LINE
  5
24E
100
AcDbEntity
  8
0
100
AcDbLine
 62
7
  6
CONTINUOUS
 10
0.0
 20
0.0
 11
1117.6
 21
0.0
  0
LINE
  5
24F
100
AcDbEntity
  8
0
100
AcDbLine
 62
7
  6
CONTINUOUS
 10
0.0
 20
863.6
 11
1117.6
 21
863.6
  0
LINE
  5
250
100
AcDbEntity
  8
0
100
AcDbLine
 62
7
  6
CONTINUOUS
 10
1117.6
 20
0.0
 11
1117.6
 21
863.6
  0
LINE
  5
251
100
AcDbEntity
  8
2_1_1
100
AcDbLine
 62
7
  6
CONTINUOUS
 10
637.0128855193
 20
80.8343113719
 11
689.0128855193
 21
80.8343113719
  0
LINE
  5
252
100
AcDbEntity
  8
2_1_1
100
AcDbLine
 62
7
  6
CONTINUOUS
 10
636.0128855921
 20
81.8343113719
 11
690.0128854466
 21
81.8343113719
  0
LINE
  5
253
100
AcDbEntity
  8
PRODUCT_12137_1_1
100
AcDbLine
 62
7
  6
CONTINUOUS
 10
495.2623659597
 20
770.5628567794
 11
495.2618915405
 21
770.5626780919
  0
LINE
  5
254
100
AcDbEntity
  8
PRODUCT_12137_1_1
100
AcDbLine
 62
7
  6
CONTINUOUS
 10
521.8903278246
 20
761.8937714418
 11
521.8898534054
 21
761.8935927544
  0
LINE
  5
255
100
AcDbEntity
  8
2_1_1
100
AcDbLine
 62
7
  6
CONTINUOUS
 10
690.0128728595
 20
109.8343113719
 11
685.7837025978
 21
109.8343113719
  0
LINE
  5
256
100
AcDbEntity
  8
2_1_1
100
AcDbLine
 62
7
  6
CONTINUOUS
 10
678.4651469186
 20
109.8343113719
 11
670.3314411986
 21
109.8343113719
  0
LINE
  5
257
100
AcDbEntity
  8
2_1_1
100
AcDbLine
 62
7
  6
CONTINUOUS
 10
655.6943298401
 20
109.8343113719
 11
647.5606241201
 21
109.8343113719
  0
LINE
  5
258
100
AcDbEntity
  8
2_1_1
100
AcDbLine
 62
7
  6
CONTINUOUS
 10
640.2420684409
 20
109.8343113719
 11
636.0128981792
 21
109.8343113719
  0
LINE
  5
259
100
AcDbEntity
  8
2_1_1
100
AcDbLine
 62
7
  6
CONTINUOUS
 10
686.2628855193
 20
135.8343144187
 11
639.7628855193
 21
135.8343144187
  0
LINE
  5
25A
100
AcDbEntity
  8
2_1_1
100
AcDbLine
 62
7
  6
CONTINUOUS
 10
685.2628884561
 20
136.8343113719
 11
640.7628825826
 21
136.8343113719
  0
LINE
  5
25B
100
AcDbEntity
  8
2_1_1
100
AcDbLine
 62
7
  6
CONTINUOUS
 10
684.5128618005
 20
154.8343113719
 11
641.5129092381
 21
154.8343113719
  0
LINE
  5
25C
100
AcDbEntity
  8
1_4_1
100
AcDbLine
 62
7
  6
CONTINUOUS
 10
636.5131043676
 20
191.5469382636
 11
689.5126666711
 21
191.5469382636
  0
LINE
  5
25D
100
AcDbEntity
  8
1_4_1
100
AcDbLine
 62
7
  6
CONTINUOUS
 10
689.5126666711
 20
192.3469382636
 11
636.5131043676
 21
192.3469382636
  0
LINE
  5
25E
100
AcDbEntity
  8
3_3_1
100
AcDbLine
 62
7
  6
CONTINUOUS
 10
638.0130920136
 20
232.3532303856
 11
688.0126790251
 21
232.3532303856
  0
LINE
  5
25F
100
AcDbEntity
  8
3_3_1
100
AcDbLine
 62
7
  6
CONTINUOUS
 10
688.0126790251
 20
234.3532303856
 11
638.0130920136
 21
234.3532303856
  0
LINE
  5
260
100
AcDbEntity
  8
PRODUCT_12137_1_1
100
AcDbLine
 62
7
  6
CONTINUOUS
 10
501.8502354176
 20
789.6964754036
 11
495.4158286277
 21
771.0097405221
  0
LINE
  5
261
100
AcDbEntity
  8
PRODUCT_12137_1_1
100
AcDbLine
 62
7
  6
CONTINUOUS
 10
495.2618915405
 20
770.5626780919
 11
454.9683330165
 21
653.5425595079
  0
LINE
  5
262
100
AcDbEntity
  8
PRODUCT_12137_1_1
100
AcDbLine
 62
7
  6
CONTINUOUS
 10
528.3247346145
 20
780.5805063233
 11
521.8903278246
 21
761.8937714418
  0
LINE
  5
263
100
AcDbEntity
  8
PRODUCT_12137_1_1
100
AcDbLine
 62
7
  6
CONTINUOUS
 10
521.7363907374
 20
761.4467090116
 11
513.9997376327
 21
738.9780044116
  0
LINE
  5
264
100
AcDbEntity
  8
PRODUCT_12137_1_1
100
AcDbLine
 62
7
  6
CONTINUOUS
 10
506.1860598372
 20
716.2856055345
 11
481.4428322134
 21
644.4265904276
  0
LINE
  5
265
100
AcDbEntity
  8
70111-05_2_1
100
AcDbLine
 62
7
  6
CONTINUOUS
 10
647.0128835951
 20
267.4242438803
 11
679.0128874436
 21
267.4242438803
  0
LINE
  5
266
100
AcDbEntity
  8
70111-05_2_1
100
AcDbLine
 62
7
  6
CONTINUOUS
 10
646.0128855193
 20
268.4242418512
 11
680.0128855193
 21
268.4242418512
  0
LINE
  5
267
100
AcDbEntity
  8
__1_1_1
100
AcDbLine
 62
7
  6
CONTINUOUS
 10
534.520473061
 20
703.3565121608
 11
534.6488390689
 21
703.7368708079
  0
LINE
  5
268
100
AcDbEntity
  8
__1_1_1
100
AcDbLine
 62
7
  6
CONTINUOUS
 10
542.3382241054
 20
726.0474160825
 11
542.9543497432
 21
727.8502923563
  0
LINE
  5
269
100
AcDbEntity
  8
__1_1_1
100
AcDbLine
 62
7
  6
CONTINUOUS
 10
516.0268150082
 20
712.632828236
 11
515.137349892
 21
710.0306669122
  0
LINE
  5
26A
100
AcDbEntity
  8
__1_1_1
100
AcDbLine
 62
7
  6
CONTINUOUS
 10
517.1033080911
 20
715.7666050327
 11
516.0268150082
 21
712.632828236
  0
LINE
  5
26B
100
AcDbEntity
  8
__1_1_1
100
AcDbLine
 62
7
  6
CONTINUOUS
 10
535.7431580794
 20
716.1545180377
 11
531.8122841498
 21
704.7135752713
  0
LINE
  5
26C
100
AcDbEntity
  8
__1_1_1
100
AcDbLine
 62
7
  6
CONTINUOUS
 10
538.5797129985
 20
715.1778135744
 11
534.6488390689
 21
703.7368708079
  0
LINE
  5
26D
100
AcDbEntity
  8
__1_1_1
100
AcDbLine
 62
7
  6
CONTINUOUS
 10
542.9590220822
 20
727.8486870361
 11
544.1590766682
 21
731.3414868767
  0
LINE
  5
26E
100
AcDbEntity
  8
__1_1_1
100
AcDbLine
 62
7
  6
CONTINUOUS
 10
523.5764418398
 20
734.562048119
 11
517.1033080911
 21
715.7666050327
  0
LINE
  5
26F
100
AcDbEntity
  8
__1_1_1
100
AcDbLine
 62
7
  6
CONTINUOUS
 10
538.5797129985
 20
715.1778135744
 11
541.9854064528
 21
725.064097094
  0
LINE
  5
270
100
AcDbEntity
  8
__1_1_1
100
AcDbLine
 62
7
  6
CONTINUOUS
 10
541.9854064528
 20
725.064097094
 11
542.9595671202
 21
727.8879009526
  0
LINE
  5
271
100
AcDbEntity
  8
__1_1_1
100
AcDbLine
 62
7
  6
CONTINUOUS
 10
524.0031705596
 20
735.7978426211
 11
523.5764418398
 21
734.562048119
  0
LINE
  5
272
100
AcDbEntity
  8
__1_1_1
100
AcDbLine
 62
7
  6
CONTINUOUS
 10
542.9595671202
 20
727.8879009526
 11
544.2874426761
 21
731.7218455238
  0
LINE
  5
273
100
AcDbEntity
  8
__1_1_1
100
AcDbLine
 62
7
  6
CONTINUOUS
 10
536.4819318734
 20
709.0267269477
 11
534.520473061
 21
703.3565121608
  0
LINE
  5
274
100
AcDbEntity
  8
__1_1_1
100
AcDbLine
 62
7
  6
CONTINUOUS
 10
524.9043152843
 20
738.3959851052
 11
524.0031705596
 21
735.7978426211
  0
LINE
  5
275
100
AcDbEntity
  8
__1_1_1
100
AcDbLine
 62
7
  6
CONTINUOUS
 10
535.8535479288
 20
707.2280717721
 11
536.4779969858
 21
709.0280818385
  0
LINE
  5
276
100
AcDbEntity
  8
2_1_1
100
AcDbLine
 62
7
  6
CONTINUOUS
 10
685.2628884561
 20
136.8343182283
 11
686.2628927059
 21
135.8343144187
  0
LINE
  5
277
100
AcDbEntity
  8
PRODUCT_11888_1_1
100
AcDbLine
 62
7
  6
CONTINUOUS
 10
548.0297156813
 20
702.6719626711
 11
547.626095207
 21
701.4878178463
  0
LINE
  5
278
100
AcDbEntity
  8
PRODUCT_11199_1_1
100
AcDbLine
 62
7
  6
CONTINUOUS
 10
547.6261247856
 20
701.4879046651
 11
548.039199809
 21
702.6996380348
  0
LINE
  5
279
100
AcDbEntity
  8
PRODUCT_11199_1_1
100
AcDbLine
 62
7
  6
CONTINUOUS
 10
544.0321432724
 20
706.4269750669
 11
542.8985265048
 21
703.115725454
  0
LINE
  5
27A
100
AcDbEntity
  8
PRODUCT_11888_1_1
100
AcDbLine
 62
7
  6
CONTINUOUS
 10
548.2524737047
 20
703.3215992061
 11
548.0297156813
 21
702.6719626711
  0
LINE
  5
27B
100
AcDbEntity
  8
PRODUCT_11199_1_1
100
AcDbLine
 62
7
  6
CONTINUOUS
 10
548.039199809
 20
702.6996380348
 11
548.1694603401
 21
703.0795894191
  0
LINE
  5
27C
100
AcDbEntity
  8
PRODUCT_11199_1_1
100
AcDbLine
 62
7
  6
CONTINUOUS
 10
544.6496311058
 20
708.2238285462
 11
544.0321432724
 21
706.4269750669
  0
LINE
  5
27D
100
AcDbEntity
  8
PRODUCT_11199_1_1
100
AcDbLine
 62
7
  6
CONTINUOUS
 10
548.1694603401
 20
703.0795894191
 11
551.2203633053
 21
711.9535271965
  0
LINE
  5
27E
100
AcDbEntity
  8
PRODUCT_11199_1_1
100
AcDbLine
 62
7
  6
CONTINUOUS
 10
547.4266857507
 20
716.2936654441
 11
544.6496311058
 21
708.2238285462
  0
LINE
  5
27F
100
AcDbEntity
  8
PRODUCT_11888_1_1
100
AcDbLine
 62
7
  6
CONTINUOUS
 10
551.2394523184
 20
712.0089938187
 11
548.2524737047
 21
703.3215992061
  0
LINE
  5
280
100
AcDbEntity
  8
PRODUCT_11199_1_1
100
AcDbLine
 62
7
  6
CONTINUOUS
 10
551.2203633053
 20
711.9535271965
 11
552.5540474781
 21
715.8263776601
  0
LINE
  5
281
100
AcDbEntity
  8
PRODUCT_11888_1_1
100
AcDbLine
 62
7
  6
CONTINUOUS
 10
555.1360696414
 20
723.312942724
 11
551.2394523184
 21
712.0089938187
  0
LINE
  5
282
100
AcDbEntity
  8
PRODUCT_11199_1_1
100
AcDbLine
 62
7
  6
CONTINUOUS
 10
549.2392113079
 20
721.5531067304
 11
547.4266857507
 21
716.2936654441
  0
LINE
  5
283
100
AcDbEntity
  8
PRODUCT_11199_1_1
100
AcDbLine
 62
7
  6
CONTINUOUS
 10
552.5540474781
 20
715.8263776601
 11
555.2635489993
 21
723.6817161805
  0
LINE
  5
284
100
AcDbEntity
  8
PRODUCT_11199_1_1
100
AcDbLine
 62
7
  6
CONTINUOUS
 10
549.8923554991
 20
723.4462790338
 11
549.2392113079
 21
721.5531067304
  0
LINE
  5
285
100
AcDbEntity
  8
PRODUCT_11888_1_1
100
AcDbLine
 62
7
  6
CONTINUOUS
 10
555.3579361319
 20
723.9546040335
 11
555.1360696414
 21
723.312942724
  0
LINE
  5
286
100
AcDbEntity
  8
PRODUCT_11199_1_1
100
AcDbLine
 62
7
  6
CONTINUOUS
 10
551.037682134
 20
726.7535417592
 11
549.8923554991
 21
723.4462790338
  0
LINE
  5
287
100
AcDbEntity
  8
PRODUCT_11199_1_1
100
AcDbLine
 62
7
  6
CONTINUOUS
 10
555.2635489993
 20
723.6817161805
 11
555.7652396284
 21
725.1256159623
  0
LINE
  5
288
100
AcDbEntity
  8
PRODUCT_11888_1_1
100
AcDbLine
 62
7
  6
CONTINUOUS
 10
555.7652966231
 20
725.1257750293
 11
555.3579361319
 21
723.9546040335
  0
LINE
  5
289
100
AcDbEntity
  8
70111-05_2_1
100
AcDbLine
 62
7
  6
CONTINUOUS
 10
680.0128855193
 20
321.4242459094
 11
646.0128855193
 21
321.4242459094
  0
LINE
  5
28A
100
AcDbEntity
  8
70111-05_2_1
100
AcDbLine
 62
7
  6
CONTINUOUS
 10
679.0128874436
 20
322.4242438803
 11
647.0128835951
 21
322.4242438803
  0
LINE
  5
28B
100
AcDbEntity
  8
70101___1_1
100
AcDbLine
 62
7
  6
CONTINUOUS
 10
636.0128855193
 20
360.1903151512
 11
690.0128855193
 21
360.1903151512
  0
LINE
  5
28C
100
AcDbEntity
  8
70101___1_1
100
AcDbLine
 62
7
  6
CONTINUOUS
 10
690.0128855193
 20
368.6903151512
 11
636.0128855193
 21
368.6903151512
  0
LINE
  5
28D
100
AcDbEntity
  8
70111-05_2_1
100
AcDbLine
 62
7
  6
CONTINUOUS
 10
647.0128835951
 20
267.4242392561
 11
646.0128805907
 21
268.4242418512
  0
LINE
  5
28E
100
AcDbEntity
  8
PRODUCT_11888_1_1
100
AcDbLine
 62
7
  6
CONTINUOUS
 10
633.3148797197
 20
671.9827871378
 11
633.7138061762
 21
673.1532339681
  0
LINE
  5
28F
100
AcDbEntity
  8
PRODUCT_11888_1_1
100
AcDbLine
 62
7
  6
CONTINUOUS
 10
633.7138061762
 20
673.1532339681
 11
640.8252933789
 21
693.8091872108
  0
LINE
  5
290
100
AcDbEntity
  8
PRODUCT_11888_1_1
100
AcDbLine
 62
7
  6
CONTINUOUS
 10
640.8252933789
 20
693.8091872108
 11
641.0469733768
 21
694.450303984
  0
LINE
  5
291
100
AcDbEntity
  8
PRODUCT_11888_1_1
100
AcDbLine
 62
7
  6
CONTINUOUS
 10
641.0469733768
 20
694.450303984
 11
641.4540834583
 21
695.620751171
  0
LINE
  5
292
100
AcDbEntity
  8
70111-05_2_1
100
AcDbLine
 62
7
  6
CONTINUOUS
 10
679.0128874436
 20
322.4242485045
 11
680.012890448
 21
321.4242459094
  0
LINE
  5
293
100
AcDbEntity
  8
70101___1_1
100
AcDbLine
 62
7
  6
CONTINUOUS
 10
685.5128855193
 20
478.1903151512
 11
668.0128855193
 21
478.1903151512
  0
LINE
  5
294
100
AcDbEntity
  8
70101___1_1
100
AcDbLine
 62
7
  6
CONTINUOUS
 10
658.0128855193
 20
478.1903151512
 11
640.5128855193
 21
478.1903151512
  0
LINE
  5
295
100
AcDbEntity
  8
PRODUCT_11888_1_1
100
AcDbLine
 62
7
  6
CONTINUOUS
 10
650.5129230885
 20
482.1903151512
 11
658.0128855193
 21
482.1903151512
  0
LINE
  5
296
100
AcDbEntity
  8
PRODUCT_11888_1_1
100
AcDbLine
 62
7
  6
CONTINUOUS
 10
668.0128855193
 20
482.1903151512
 11
675.5128479502
 21
482.1903151512
  0
LINE
  5
297
100
AcDbEntity
  8
70101___1_1
100
AcDbLine
 62
7
  6
CONTINUOUS
 10
636.0128855193
 20
368.6903151512
 11
636.0128855193
 21
360.1903151512
  0
LINE
  5
298
100
AcDbEntity
  8
2_1_1
100
AcDbLine
 62
7
  6
CONTINUOUS
 10
636.0128855193
 20
109.8343113719
 11
636.0128855193
 21
81.8343113719
  0
LINE
  5
299
100
AcDbEntity
  8
1_4_1
100
AcDbLine
 62
7
  6
CONTINUOUS
 10
636.5128855193
 20
191.5469382636
 11
636.5128855193
 21
192.3469382636
  0
LINE
  5
29A
100
AcDbEntity
  8
2_1_1
100
AcDbLine
 62
7
  6
CONTINUOUS
 10
636.5754941856
 20
109.8343113719
 11
636.5754941856
 21
81.8343113719
  0
LINE
  5
29B
100
AcDbEntity
  8
3_3_1
100
AcDbLine
 62
7
  6
CONTINUOUS
 10
638.0128855193
 20
232.3532303856
 11
638.0128855193
 21
234.3532303856
  0
LINE
  5
29C
100
AcDbEntity
  8
2_1_1
100
AcDbLine
 62
7
  6
CONTINUOUS
 10
639.5331435907
 20
81.8343113719
 11
639.5331435907
 21
109.8343113719
  0
LINE
  5
29D
100
AcDbEntity
  8
2_1_1
100
AcDbLine
 62
7
  6
CONTINUOUS
 10
639.7628855193
 20
135.8343144187
 11
639.7628855193
 21
109.8343113719
  0
LINE
  5
29E
100
AcDbEntity
  8
2_1_1
100
AcDbLine
 62
7
  6
CONTINUOUS
 10
640.2420684409
 20
81.8343113719
 11
640.2420684409
 21
109.8343113719
  0
LINE
  5
29F
100
AcDbEntity
  8
70101___1_1
100
AcDbLine
 62
7
  6
CONTINUOUS
 10
640.5128855193
 20
368.6903151512
 11
640.5128855193
 21
478.1903151512
  0
LINE
  5
2A0
100
AcDbEntity
  8
2_1_1
100
AcDbLine
 62
7
  6
CONTINUOUS
 10
641.5128855193
 20
136.8343113719
 11
641.5128855193
 21
154.8343113719
  0
LINE
  5
2A1
100
AcDbEntity
  8
70111-05_2_1
100
AcDbLine
 62
7
  6
CONTINUOUS
 10
646.0128855193
 20
268.4242418512
 11
646.0128855193
 21
321.4242459094
  0
LINE
  5
2A2
100
AcDbEntity
  8
2_1_1
100
AcDbLine
 62
7
  6
CONTINUOUS
 10
647.5606241201
 20
109.8343113719
 11
647.5606241201
 21
81.8343113719
  0
LINE
  5
2A3
100
AcDbEntity
  8
2_1_1
100
AcDbLine
 62
7
  6
CONTINUOUS
 10
648.2085070693
 20
109.8343113719
 11
648.2085070693
 21
81.8343113719
  0
LINE
  5
2A4
100
AcDbEntity
  8
2_1_1
100
AcDbLine
 62
7
  6
CONTINUOUS
 10
648.7800532172
 20
81.8343113719
 11
648.7800532172
 21
109.8343113719
  0
LINE
  5
2A5
100
AcDbEntity
  8
PRODUCT_11888_1_1
100
AcDbLine
 62
7
  6
CONTINUOUS
 10
650.5128855193
 20
647.8720631033
 11
650.5128855193
 21
482.1903151512
  0
LINE
  5
2A6
100
AcDbEntity
  8
70101-24_3_1
100
AcDbLine
 62
7
  6
CONTINUOUS
 10
668.0128855193
 20
507.1903151512
 11
658.0128855193
 21
507.1903151512
  0
LINE
  5
2A7
100
AcDbEntity
  8
70101-24_3_1
100
AcDbLine
 62
7
  6
CONTINUOUS
 10
667.0127415803
 20
508.1903151512
 11
659.0130294584
 21
508.1903151512
  0
LINE
  5
2A8
100
AcDbEntity
  8
2_1_1
100
AcDbLine
 62
7
  6
CONTINUOUS
 10
650.8083264881
 20
109.8343113719
 11
650.8083264881
 21
81.8343113719
  0
LINE
  5
2A9
100
AcDbEntity
  8
PRODUCT_11900_1_1
100
AcDbLine
 62
7
  6
CONTINUOUS
 10
651.0128855193
 20
482.1903151512
 11
651.0128855193
 21
478.1903151512
  0
LINE
  5
2AA
100
AcDbEntity
  8
2_1_1
100
AcDbLine
 62
7
  6
CONTINUOUS
 10
654.3375220407
 20
81.8343113719
 11
654.3375220407
 21
109.8343113719
  0
LINE
  5
2AB
100
AcDbEntity
  8
2_1_1
100
AcDbLine
 62
7
  6
CONTINUOUS
 10
655.6943298403
 20
81.8343113719
 11
655.6943298403
 21
109.8343113719
  0
LINE
  5
2AC
100
AcDbEntity
  8
70101-24_3_1
100
AcDbLine
 62
7
  6
CONTINUOUS
 10
658.0128855193
 20
507.1903151512
 11
658.0128855193
 21
449.1168101235
  0
LINE
  5
2AD
100
AcDbEntity
  8
70101-24_3_1
100
AcDbLine
 62
7
  6
CONTINUOUS
 10
668.0128855193
 20
507.1903151512
 11
668.0128855193
 21
449.1168101235
  0
LINE
  5
2AE
100
AcDbEntity
  8
2_1_1
100
AcDbLine
 62
7
  6
CONTINUOUS
 10
670.3314411985
 20
109.8343113719
 11
670.3314411985
 21
81.8343113719
  0
LINE
  5
2AF
100
AcDbEntity
  8
2_1_1
100
AcDbLine
 62
7
  6
CONTINUOUS
 10
671.6882489979
 20
109.8343113719
 11
671.6882489979
 21
81.8343113719
  0
LINE
  5
2B0
100
AcDbEntity
  8
PRODUCT_11900_1_1
100
AcDbLine
 62
7
  6
CONTINUOUS
 10
675.0128855193
 20
482.1903151512
 11
675.0128855193
 21
478.1903151512
  0
LINE
  5
2B1
100
AcDbEntity
  8
2_1_1
100
AcDbLine
 62
7
  6
CONTINUOUS
 10
675.2174445523
 20
81.8343113719
 11
675.2174445523
 21
109.8343113719
  0
LINE
  5
2B2
100
AcDbEntity
  8
PRODUCT_11888_1_1
100
AcDbLine
 62
7
  6
CONTINUOUS
 10
675.5128855193
 20
647.8720631033
 11
675.5128855193
 21
482.1903151512
  0
LINE
  5
2B3
100
AcDbEntity
  8
2_1_1
100
AcDbLine
 62
7
  6
CONTINUOUS
 10
677.2457178218
 20
109.8343113719
 11
677.2457178218
 21
81.8343113719
  0
LINE
  5
2B4
100
AcDbEntity
  8
2_1_1
100
AcDbLine
 62
7
  6
CONTINUOUS
 10
677.8172639694
 20
81.8343113719
 11
677.8172639694
 21
109.8343113719
  0
LINE
  5
2B5
100
AcDbEntity
  8
2_1_1
100
AcDbLine
 62
7
  6
CONTINUOUS
 10
678.4651469187
 20
81.8343113719
 11
678.4651469187
 21
109.8343113719
  0
LINE
  5
2B6
100
AcDbEntity
  8
70111-05_2_1
100
AcDbLine
 62
7
  6
CONTINUOUS
 10
680.0128855193
 20
268.4242418512
 11
680.0128855193
 21
321.4242459094
  0
LINE
  5
2B7
100
AcDbEntity
  8
2_1_1
100
AcDbLine
 62
7
  6
CONTINUOUS
 10
684.5128855193
 20
136.8343113719
 11
684.5128855193
 21
154.8343113719
  0
LINE
  5
2B8
100
AcDbEntity
  8
70101___1_1
100
AcDbLine
 62
7
  6
CONTINUOUS
 10
685.5128855193
 20
478.1903151512
 11
685.5128855193
 21
368.6903151512
  0
LINE
  5
2B9
100
AcDbEntity
  8
2_1_1
100
AcDbLine
 62
7
  6
CONTINUOUS
 10
685.7837025978
 20
109.8343113719
 11
685.7837025978
 21
81.8343113719
  0
LINE
  5
2BA
100
AcDbEntity
  8
2_1_1
100
AcDbLine
 62
7
  6
CONTINUOUS
 10
686.2628855193
 20
135.8343144187
 11
686.2628855193
 21
109.8343113719
  0
LINE
  5
2BB
100
AcDbEntity
  8
2_1_1
100
AcDbLine
 62
7
  6
CONTINUOUS
 10
686.4926274479
 20
109.8343113719
 11
686.4926274479
 21
81.8343113719
  0
LINE
  5
2BC
100
AcDbEntity
  8
3_3_1
100
AcDbLine
 62
7
  6
CONTINUOUS
 10
688.0128855193
 20
232.3532303856
 11
688.0128855193
 21
234.3532303856
  0
LINE
  5
2BD
100
AcDbEntity
  8
2_1_1
100
AcDbLine
 62
7
  6
CONTINUOUS
 10
689.4502768544
 20
81.8343113719
 11
689.4502768544
 21
109.8343113719
  0
LINE
  5
2BE
100
AcDbEntity
  8
1_4_1
100
AcDbLine
 62
7
  6
CONTINUOUS
 10
689.5128855193
 20
191.5469382636
 11
689.5128855193
 21
192.3469382636
  0
LINE
  5
2BF
100
AcDbEntity
  8
70101___1_1
100
AcDbLine
 62
7
  6
CONTINUOUS
 10
690.0128855193
 20
368.6903151512
 11
690.0128855193
 21
360.1903151512
  0
LINE
  5
2C0
100
AcDbEntity
  8
2_1_1
100
AcDbLine
 62
7
  6
CONTINUOUS
 10
690.0128855193
 20
109.8343113719
 11
690.0128855193
 21
81.8343113719
  0
LINE
  5
2C1
100
AcDbEntity
  8
PRODUCT_12137_1_1
100
AcDbLine
 62
7
  6
CONTINUOUS
 10
495.4160924622
 20
771.0093076317
 11
495.4158286277
 21
771.0097405221
  0
LINE
  5
2C2
100
AcDbEntity
  8
PRODUCT_12137_1_1
100
AcDbLine
 62
7
  6
CONTINUOUS
 10
521.7363907374
 20
761.4467090116
 11
521.736126903
 21
761.447141902
  0
LINE
  5
2C3
100
AcDbEntity
  8
70111-05_2_1
100
AcDbLine
 62
7
  6
CONTINUOUS
 10
647.0128835951
 20
322.4242485045
 11
646.0128805907
 21
321.4242459094
  0
LINE
  5
2C4
100
AcDbEntity
  8
70111-05_2_1
100
AcDbLine
 62
7
  6
CONTINUOUS
 10
679.0128874436
 20
267.4242392561
 11
680.012890448
 21
268.4242418512
  0
LINE
  5
2C5
100
AcDbEntity
  8
PRODUCT_12137_1_1
100
AcDbLine
 62
7
  6
CONTINUOUS
 10
495.8787678355
 20
770.5999746738
 11
495.4160924622
 21
771.0093076317
  0
LINE
  5
2C6
100
AcDbEntity
  8
PRODUCT_11888_1_1
100
AcDbLine
 62
7
  6
CONTINUOUS
 10
675.5128819599
 20
647.8720631033
 11
650.5128855193
 21
647.8720631033
  0
LINE
  5
2C7
100
AcDbEntity
  8
PRODUCT_12137_1_1
100
AcDbLine
 62
7
  6
CONTINUOUS
 10
521.2734515296
 20
761.8564748599
 11
521.736126903
 21
761.447141902
  0
LINE
  5
2C8
100
AcDbEntity
  8
__1_1_1
100
AcDbLine
 62
7
  6
CONTINUOUS
 10
515.1373090281
 20
710.0305478028
 11
534.5204343085
 21
703.3564006364
  0
LINE
  5
2C9
100
AcDbEntity
  8
__1_1_1
100
AcDbLine
 62
7
  6
CONTINUOUS
 10
531.8122841498
 20
704.7135752713
 11
534.6488390689
 21
703.7368708079
  0
LINE
  5
2CA
100
AcDbEntity
  8
PRODUCT_11888_1_1
100
AcDbLine
 62
7
  6
CONTINUOUS
 10
633.3148797197
 20
671.9827871378
 11
547.6260928845
 21
701.4878109961
  0
LINE
  5
2CB
100
AcDbEntity
  8
PRODUCT_11199_1_1
100
AcDbLine
 62
7
  6
CONTINUOUS
 10
547.6260928845
 20
701.4878109961
 11
542.8985013527
 21
703.1156517684
  0
LINE
  5
2CC
100
AcDbEntity
  8
PRODUCT_12005_1_1
100
AcDbLine
 62
7
  6
CONTINUOUS
 10
506.1850870786
 20
716.2859080374
 11
516.1079515057
 21
712.8691908393
  0
LINE
  5
2CD
100
AcDbEntity
  8
PRODUCT_11322_1_1
100
AcDbLine
 62
7
  6
CONTINUOUS
 10
536.4696916316
 20
709.0309416021
 11
544.0321447681
 21
706.4269794215
  0
LINE
  5
2CE
100
AcDbEntity
  8
2_1_1
100
AcDbLine
 62
7
  6
CONTINUOUS
 10
640.7628825826
 20
136.8343182283
 11
639.7628783328
 21
135.8343144187
  0
LINE
  5
2CF
100
AcDbEntity
  8
__1_1_1
100
AcDbLine
 62
7
  6
CONTINUOUS
 10
538.5797129985
 20
715.1778135744
 11
535.7431580794
 21
716.1545180377
  0
LINE
  5
2D0
100
AcDbEntity
  8
PRODUCT_11322_1_1
100
AcDbLine
 62
7
  6
CONTINUOUS
 10
542.3299187512
 20
726.0502758461
 11
549.8923679252
 21
723.4463150299
  0
LINE
  5
2D1
100
AcDbEntity
  8
PRODUCT_12005_1_1
100
AcDbLine
 62
7
  6
CONTINUOUS
 10
513.9987251516
 20
738.9783530371
 11
523.9215888115
 21
735.5616361031
  0
LINE
  5
2D2
100
AcDbEntity
  8
PRODUCT_11888_1_1
100
AcDbLine
 62
7
  6
CONTINUOUS
 10
641.4540856532
 20
695.6207508143
 11
555.7652988179
 21
725.1257746726
  0
LINE
  5
2D3
100
AcDbEntity
  8
PRODUCT_11199_1_1
100
AcDbLine
 62
7
  6
CONTINUOUS
 10
555.7652988179
 20
725.1257746726
 11
551.0377072861
 21
726.7536154449
  0
LINE
  5
2D4
100
AcDbEntity
  8
__1_1_1
100
AcDbLine
 62
7
  6
CONTINUOUS
 10
524.9043561482
 20
738.3961042146
 11
544.2874814286
 21
731.7219570482
  0
LINE
  5
2D5
100
AcDbEntity
  8
PRODUCT_12137_1_1
100
AcDbLine
 62
7
  6
CONTINUOUS
 10
521.27324953
 20
761.8558882148
 11
521.8898534054
 21
761.8935927544
  0
LINE
  5
2D6
100
AcDbEntity
  8
PRODUCT_12137_1_1
100
AcDbLine
 62
7
  6
CONTINUOUS
 10
495.8789698352
 20
770.6005613189
 11
495.2623659597
 21
770.5628567794
  0
ARC
  5
2D7
100
AcDbEntity
  8
PRODUCT_11888_1_1
100
AcDbCircle
 62
7
  6
CONTINUOUS
 10
625.0128963399
 20
647.8720631033
 40
50.5
100
AcDbArc
 50
0.0
 51
71.0000050223
  0
ARC
  5
2D8
100
AcDbEntity
  8
PRODUCT_12137_1_1
100
AcDbCircle
 62
7
  6
CONTINUOUS
 10
480.0511652891
 20
723.1588227759
 40
50.2607045643
100
AcDbArc
 50
71.5552377407
 51
71.9286316538
  0
ARC
  5
2D9
100
AcDbEntity
  8
PRODUCT_11888_1_1
100
AcDbCircle
 62
7
  6
CONTINUOUS
 10
625.0128963399
 20
647.8720631033
 40
25.5
100
AcDbArc
 50
0.0
 51
71.0000050223
  0
CIRCLE
  5
2DA
100
AcDbEntity
  8
70101-04A_2_1
100
AcDbCircle
 62
7
  6
CONTINUOUS
 10
663.0128855193
 20
427.1903151512
 40
22.5
  0
ARC
  5
2DB
100
AcDbEntity
  8
70101___1_1
100
AcDbCircle
 62
7
  6
CONTINUOUS
 10
663.0128855193
 20
427.1903151512
 40
22.5
100
AcDbArc
 50
274.3124155237
 51
355.6173962728
  0
CIRCLE
  5
2DC
100
AcDbEntity
  8
70101-04A_2_1
100
AcDbCircle
 62
7
  6
CONTINUOUS
 10
663.0128855193
 20
427.1903151512
 40
21.5815939279
  0
ARC
  5
2DD
100
AcDbEntity
  8
70101-24_3_1
100
AcDbCircle
 62
7
  6
CONTINUOUS
 10
659.0128855193
 20
507.1903151512
 40
1.0
100
AcDbArc
 50
90.0
 51
180.0
  0
ARC
  5
2DE
100
AcDbEntity
  8
70101-24_3_1
100
AcDbCircle
 62
7
  6
CONTINUOUS
 10
667.0128855193
 20
507.1903151512
 40
1.0
100
AcDbArc
 50
0.0
 51
90.0
  0
ARC
  5
2DF
100
AcDbEntity
  8
2_1_1
100
AcDbCircle
 62
7
  6
CONTINUOUS
 10
689.0128855193
 20
81.8343113719
 40
1.0
100
AcDbArc
 50
269.9999999998
 51
359.9999999998
  0
ARC
  5
2E0
100
AcDbEntity
  8
2_1_1
100
AcDbCircle
 62
7
  6
CONTINUOUS
 10
637.0128855193
 20
81.8343113719
 40
1.0
100
AcDbArc
 50
180.0000000002
 51
270.0000000002
  0
SPLINE
  5
2E1
100
AcDbEntity
  8
PRODUCT_12005_1_1
100
AcDbSpline
 62
7
  6
CONTINUOUS
 70
0
 71
3
 72
34
 73
30
 74
0
 42
0.0000001
 43
0.0000001
 44
0.0000000001
 40
0.0
 40
0.0
 40
0.0
 40
0.0
 40
0.0899587726
 40
0.1790226025
 40
0.266557936
 40
0.3521302025
 40
0.4353649142
 40
0.5158499124
 40
0.5930909405
 40
0.6664845325
 40
0.7352980143
 40
0.7986528779
 40
0.8555151977
 40
0.8811478526
 40
0.9047054309
 40
0.9260249428
 40
0.9449424291
 40
0.961297615
 40
0.9749391801
 40
0.9806990524
 40
0.9857307488
 40
0.9900207954
 40
0.9935572146
 40
0.996329786
 40
0.9983308849
 40
0.9990400452
 40
0.9995544336
 40
0.9998740085
 40
1.0
 40
1.0
 40
1.0
 40
1.0
 10
503.677852594
 20
729.8799254717
 30
0.0
 10
503.8147117905
 20
730.2773904759
 30
0.0
 10
504.1582503284
 20
731.0455728194
 30
0.0
 10
504.8450857988
 20
732.089545711
 30
0.0
 10
505.6426584742
 20
733.0225818776
 30
0.0
 10
506.5014334438
 20
733.8593026582
 30
0.0
 10
507.3874508136
 20
734.6165059332
 30
0.0
 10
508.2771689075
 20
735.3070915218
 30
0.0
 10
509.1528934384
 20
735.9394220865
 30
0.0
 10
509.9996590671
 20
736.5179777314
 30
0.0
 10
510.8033937785
 20
737.0440902216
 30
0.0
 10
511.5497973674
 20
737.5165114466
 30
0.0
 10
512.1300140309
 20
737.8740929494
 30
0.0
 10
512.5538089274
 20
738.1309795906
 30
0.0
 10
512.8362991424
 20
738.3005669315
 30
0.0
 10
513.0924754553
 20
738.4530160324
 30
0.0
 10
513.3202066288
 20
738.5874487484
 30
0.0
 10
513.5174288884
 20
738.7029828776
 30
0.0
 10
513.6618786055
 20
738.7869623507
 30
0.0
 10
513.7607514577
 20
738.8440550129
 30
0.0
 10
513.8218566546
 20
738.879170375
 30
0.0
 10
513.8740269089
 20
738.9089674307
 30
0.0
 10
513.9171139928
 20
738.9334196183
 30
0.0
 10
513.9509724965
 20
738.9523619443
 30
0.0
 10
513.973423558
 20
738.9648584781
 30
0.0
 10
513.986680074
 20
738.9718155674
 30
0.0
 10
513.9931284219
 20
738.9753986918
 30
0.0
 10
513.9970792393
 20
738.9768655117
 30
0.0
 10
513.9991058796
 20
738.9782215278
 30
0.0
 10
513.9996626514
 20
738.9780301502
 30
0.0
  0
SPLINE
  5
2E2
100
AcDbEntity
  8
PRODUCT_12005_1_1
100
AcDbSpline
 62
7
  6
CONTINUOUS
 70
0
 71
3
 72
23
 73
19
 74
0
 42
0.0000001
 43
0.0000001
 44
0.0000000001
 40
0.0
 40
0.0
 40
0.0
 40
0.0
 40
0.0078157507
 40
0.0156319911
 40
0.0312642451
 40
0.046896579
 40
0.0625288875
 40
0.0937935282
 40
0.1250581672
 40
0.1875872837
 40
0.2501163868
 40
0.312645506
 40
0.3751746857
 40
0.5002247825
 40
0.6252638464
 40
0.7502706549
 40
0.8751947238
 40
1.0
 40
1.0
 40
1.0
 40
1.0
 10
506.1860598305
 20
716.2856055479
 30
0.0
 10
506.1741289918
 20
716.320275519
 30
0.0
 10
506.1474594102
 20
716.3886169969
 30
0.0
 10
506.0947795528
 20
716.5254828297
 30
0.0
 10
506.0286296888
 20
716.6964769277
 30
0.0
 10
505.9494087301
 20
716.9017200583
 30
0.0
 10
505.8441973637
 20
717.1755421694
 30
0.0
 10
505.7134907139
 20
717.5181285922
 30
0.0
 10
505.5066155199
 20
718.0671217276
 30
0.0
 10
505.2526852079
 20
718.755114104
 30
0.0
 10
504.9571049342
 20
719.5840231654
 30
0.0
 10
504.6724808497
 20
720.4167756695
 30
0.0
 10
504.3106896481
 20
721.5329498579
 30
0.0
 10
503.8982112932
 20
722.9408584182
 30
0.0
 10
503.4991590941
 20
724.6560298168
 30
0.0
 10
503.2510845233
 20
726.4010073383
 30
0.0
 10
503.2450887615
 20
728.1669086075
 30
0.0
 10
503.4869775464
 20
729.326423847
 30
0.0
 10
503.677852594
 20
729.8799254717
 30
0.0
  0
SPLINE
  5
2E3
100
AcDbEntity
  8
2_1_1
100
AcDbSpline
 62
7
  6
CONTINUOUS
 70
0
 71
3
 72
12
 73
8
 74
0
 42
0.0000001
 43
0.0000001
 44
0.0000000001
 40
0.0
 40
0.0
 40
0.0
 40
0.0
 40
0.3413870479
 40
0.6383081497
 40
0.7593565995
 40
0.858815654
 40
1.0
 40
1.0
 40
1.0
 40
1.0
 10
650.8083264863
 20
81.8343113719
 30
0.0
 10
650.8083264863
 20
81.7064111893
 30
0.0
 10
650.7917654081
 20
81.4670055301
 30
0.0
 10
650.7306284378
 20
81.1875323735
 30
0.0
 10
650.6530904966
 20
81.008188734
 30
0.0
 10
650.5820732001
 20
80.8948775603
 30
0.0
 10
650.4975936938
 20
80.8343113719
 30
0.0
 10
650.444699175
 20
80.8343113719
 30
0.0
  0
SPLINE
  5
2E4
100
AcDbEntity
  8
2_1_1
100
AcDbSpline
 62
7
  6
CONTINUOUS
 70
0
 71
3
 72
11
 73
7
 74
0
 42
0.0000001
 43
0.0000001
 44
0.0000000001
 40
0.0
 40
0.0
 40
0.0
 40
0.0
 40
0.2513592048
 40
0.5018796286
 40
0.7512997842
 40
1.0
 40
1.0
 40
1.0
 40
1.0
 10
648.2085070693
 20
81.8343113719
 30
0.0
 10
648.2085070693
 20
81.7042923292
 30
0.0
 10
648.259721521
 20
81.4418716173
 30
0.0
 10
648.4793772575
 20
81.1096129149
 30
0.0
 10
648.8078754946
 20
80.8865368604
 30
0.0
 10
649.0684182937
 20
80.8343113719
 30
0.0
 10
649.1970619374
 20
80.8343113719
 30
0.0
  0
SPLINE
  5
2E5
100
AcDbEntity
  8
2_1_1
100
AcDbSpline
 62
7
  6
CONTINUOUS
 70
0
 71
3
 72
12
 73
8
 74
0
 42
0.0000001
 43
0.0000001
 44
0.0000000001
 40
0.0
 40
0.0
 40
0.0
 40
0.0
 40
0.1298060271
 40
0.2274769559
 40
0.3488188484
 40
0.6507140205
 40
1.0
 40
1.0
 40
1.0
 40
1.0
 10
670.0166646102
 20
80.8343113719
 30
0.0
 10
670.0641688203
 20
80.8343113719
 30
0.0
 10
670.1382690217
 20
80.8990296443
 30
0.0
 10
670.1972758444
 20
81.0089607537
 30
0.0
 10
670.2647919989
 20
81.1891958243
 30
0.0
 10
670.3170636701
 20
81.4678900226
 30
0.0
 10
670.3314411986
 20
81.7064856083
 30
0.0
 10
670.3314411986
 20
81.8343113719
 30
0.0
  0
SPLINE
  5
2E6
100
AcDbEntity
  8
2_1_1
100
AcDbSpline
 62
7
  6
CONTINUOUS
 70
0
 71
3
 72
12
 73
8
 74
0
 42
0.0000001
 43
0.0000001
 44
0.0000000001
 40
0.0
 40
0.0
 40
0.0
 40
0.0
 40
0.1411243325
 40
0.2405159381
 40
0.3615283388
 40
0.6584992888
 40
1.0
 40
1.0
 40
1.0
 40
1.0
 10
675.5810718637
 20
80.8343113719
 30
0.0
 10
675.5281996503
 20
80.8343113719
 30
0.0
 10
675.4437552849
 20
80.8948216951
 30
0.0
 10
675.3727445872
 20
81.0080693782
 30
0.0
 10
675.2951834427
 20
81.1873812528
 30
0.0
 10
675.2340162402
 20
81.4669007557
 30
0.0
 10
675.2174445524
 20
81.7063681735
 30
0.0
 10
675.2174445524
 20
81.8343113719
 30
0.0
  0
SPLINE
  5
2E7
100
AcDbEntity
  8
2_1_1
100
AcDbSpline
 62
7
  6
CONTINUOUS
 70
0
 71
3
 72
11
 73
7
 74
0
 42
0.0000001
 43
0.0000001
 44
0.0000000001
 40
0.0
 40
0.0
 40
0.0
 40
0.0
 40
0.2925637173
 40
0.5640015176
 40
0.7999383128
 40
1.0
 40
1.0
 40
1.0
 40
1.0
 10
636.5754941842
 20
81.8343113719
 30
0.0
 10
636.5754941842
 20
81.7187463949
 30
0.0
 10
636.5992676993
 20
81.495074895
 30
0.0
 10
636.704679529
 20
81.1938481995
 30
0.0
 10
636.8684968081
 20
80.9616545833
 30
0.0
 10
637.0222848079
 20
80.8679049794
 30
0.0
 10
637.0986894118
 20
80.8477199226
 30
0.0
  0
SPLINE
  5
2E8
100
AcDbEntity
  8
2_1_1
100
AcDbSpline
 62
7
  6
CONTINUOUS
 70
0
 71
3
 72
8
 73
4
 74
0
 42
0.0000001
 43
0.0000001
 44
0.0000000001
 40
0.0
 40
0.0
 40
0.0
 40
0.0
 40
1.0
 40
1.0
 40
1.0
 40
1.0
 10
637.0986894118
 20
80.8477199226
 30
0.0
 10
637.1317588958
 20
80.8389834149
 30
0.0
 10
637.1662176866
 20
80.8343113719
 30
0.0
 10
637.200421741
 20
80.8343113719
 30
0.0
  0
SPLINE
  5
2E9
100
AcDbEntity
  8
2_1_1
100
AcDbSpline
 62
7
  6
CONTINUOUS
 70
0
 71
3
 72
11
 73
7
 74
0
 42
0.0000001
 43
0.0000001
 44
0.0000000001
 40
0.0
 40
0.0
 40
0.0
 40
0.0
 40
0.2487002158
 40
0.4981203714
 40
0.7486407952
 40
1.0
 40
1.0
 40
1.0
 40
1.0
 10
676.8287091013
 20
80.8343113719
 30
0.0
 10
676.957352745
 20
80.8343113719
 30
0.0
 10
677.2178955441
 20
80.8865368604
 30
0.0
 10
677.5463937812
 20
81.1096129149
 30
0.0
 10
677.7660495177
 20
81.4418716173
 30
0.0
 10
677.8172639694
 20
81.7042923292
 30
0.0
 10
677.8172639694
 20
81.8343113719
 30
0.0
  0
SPLINE
  5
2EA
100
AcDbEntity
  8
2_1_1
100
AcDbSpline
 62
7
  6
CONTINUOUS
 70
0
 71
3
 72
9
 73
5
 74
0
 42
0.0000001
 43
0.0000001
 44
0.0000000001
 40
0.0
 40
0.0
 40
0.0
 40
0.0
 40
0.741101858
 40
1.0
 40
1.0
 40
1.0
 40
1.0
 10
688.8253492977
 20
80.8343113719
 30
0.0
 10
688.8746583039
 20
80.8343113719
 30
0.0
 10
688.9418956578
 20
80.8476287454
 30
0.0
 10
689.0025522286
 20
80.875021754
 30
0.0
 10
689.0178513746
 20
80.8829376507
 30
0.0
  0
SPLINE
  5
2EB
100
AcDbEntity
  8
2_1_1
100
AcDbSpline
 62
7
  6
CONTINUOUS
 70
0
 71
3
 72
9
 73
5
 74
0
 42
0.0000001
 43
0.0000001
 44
0.0000000001
 40
0.0
 40
0.0
 40
0.0
 40
0.0
 40
0.4439205665
 40
1.0
 40
1.0
 40
1.0
 40
1.0
 10
689.0178513746
 20
80.8829376507
 30
0.0
 10
689.1597357107
 20
80.9563497049
 30
0.0
 10
689.3900313403
 20
81.2724708856
 30
0.0
 10
689.4502768545
 20
81.634198
 30
0.0
 10
689.4502768545
 20
81.8343113719
 30
0.0
  0
SPLINE
  5
2EC
100
AcDbEntity
  8
2_1_1
100
AcDbSpline
 62
7
  6
CONTINUOUS
 70
0
 71
3
 72
12
 73
8
 74
0
 42
0.0000001
 43
0.0000001
 44
0.0000000001
 40
0.0
 40
0.0
 40
0.0
 40
0.0
 40
0.1411388019
 40
0.2405683814
 40
0.3616101363
 40
0.658589265
 40
1.0
 40
1.0
 40
1.0
 40
1.0
 10
653.9738947294
 20
80.8343113719
 30
0.0
 10
654.0267722518
 20
80.8343113719
 30
0.0
 10
654.111229591
 20
80.8948441902
 30
0.0
 10
654.1822502826
 20
81.0081195248
 30
0.0
 10
654.2598073288
 20
81.187464505
 30
0.0
 10
654.3209547628
 20
81.4669661337
 30
0.0
 10
654.3375220407
 20
81.7064021539
 30
0.0
 10
654.3375220407
 20
81.8343113719
 30
0.0
  0
SPLINE
  5
2ED
100
AcDbEntity
  8
2_1_1
100
AcDbSpline
 62
7
  6
CONTINUOUS
 70
0
 71
3
 72
11
 73
7
 74
0
 42
0.0000001
 43
0.0000001
 44
0.0000000001
 40
0.0
 40
0.0
 40
0.0
 40
0.0
 40
0.2476212454
 40
0.4965996638
 40
0.7475684813
 40
1.0
 40
1.0
 40
1.0
 40
1.0
 10
684.8043126159
 20
80.8343113719
 30
0.0
 10
684.9318102245
 20
80.8343113719
 30
0.0
 10
685.1903997474
 20
80.886711828
 30
0.0
 10
685.5158548006
 20
81.1101387873
 30
0.0
 10
685.7331230232
 20
81.44236568
 30
0.0
 10
685.7837025978
 20
81.7043370035
 30
0.0
 10
685.7837025978
 20
81.8343113719
 30
0.0
  0
SPLINE
  5
2EE
100
AcDbEntity
  8
2_1_1
100
AcDbSpline
 62
7
  6
CONTINUOUS
 70
0
 71
3
 72
11
 73
7
 74
0
 42
0.0000001
 43
0.0000001
 44
0.0000000001
 40
0.0
 40
0.0
 40
0.0
 40
0.0
 40
0.3001420709
 40
0.5736930461
 40
0.8046637042
 40
1.0
 40
1.0
 40
1.0
 40
1.0
 10
686.492627448
 20
81.8343113719
 30
0.0
 10
686.492627448
 20
81.7057535352
 30
0.0
 10
686.4635120555
 20
81.4587038119
 30
0.0
 10
686.3349894136
 20
81.1343833054
 30
0.0
 10
686.1353532456
 20
80.8995671935
 30
0.0
 10
685.9513669744
 20
80.8343113719
 30
0.0
 10
685.8676998912
 20
80.8343113719
 30
0.0
  0
SPLINE
  5
2EF
100
AcDbEntity
  8
2_1_1
100
AcDbSpline
 62
7
  6
CONTINUOUS
 70
0
 71
3
 72
11
 73
7
 74
0
 42
0.0000001
 43
0.0000001
 44
0.0000000001
 40
0.0
 40
0.0
 40
0.0
 40
0.0
 40
0.2023418402
 40
0.4353276537
 40
0.7057952194
 40
1.0
 40
1.0
 40
1.0
 40
1.0
 10
677.800533525
 20
80.8343113719
 30
0.0
 10
677.8890383841
 20
80.8343113719
 30
0.0
 10
678.0814014787
 20
80.897284098
 30
0.0
 10
678.2960132
 20
81.1313944725
 30
0.0
 10
678.4338623368
 20
81.4571985628
 30
0.0
 10
678.4651469185
 20
81.7056254184
 30
0.0
 10
678.4651469185
 20
81.8343113719
 30
0.0
  0
SPLINE
  5
2F0
100
AcDbEntity
  8
2_1_1
100
AcDbSpline
 62
7
  6
CONTINUOUS
 70
0
 71
3
 72
9
 73
5
 74
0
 42
0.0000001
 43
0.0000001
 44
0.0000000001
 40
0.0
 40
0.0
 40
0.0
 40
0.0
 40
0.5013356251
 40
1.0
 40
1.0
 40
1.0
 40
1.0
 10
677.2457178215
 20
81.8343113719
 30
0.0
 10
677.2457178215
 20
81.6558202764
 30
0.0
 10
677.1480076727
 20
81.2929199844
 30
0.0
 10
676.8753205502
 20
81.033645279
 30
0.0
 10
676.7187205007
 20
80.9499978469
 30
0.0
  0
SPLINE
  5
2F1
100
AcDbEntity
  8
2_1_1
100
AcDbSpline
 62
7
  6
CONTINUOUS
 70
0
 71
3
 72
8
 73
4
 74
0
 42
0.0000001
 43
0.0000001
 44
0.0000000001
 40
0.0
 40
0.0
 40
0.0
 40
0.0
 40
1.0
 40
1.0
 40
1.0
 40
1.0
 10
676.7187205007
 20
80.9499978469
 30
0.0
 10
676.5788163872
 20
80.8752684974
 30
0.0
 10
676.415774544
 20
80.8343113719
 30
0.0
 10
676.2571629534
 20
80.8343113719
 30
0.0
  0
SPLINE
  5
2F2
100
AcDbEntity
  8
2_1_1
100
AcDbSpline
 62
7
  6
CONTINUOUS
 70
0
 71
3
 72
11
 73
7
 74
0
 42
0.0000001
 43
0.0000001
 44
0.0000000001
 40
0.0
 40
0.0
 40
0.0
 40
0.0
 40
0.1953362958
 40
0.4263069539
 40
0.6998579291
 40
1.0
 40
1.0
 40
1.0
 40
1.0
 10
640.1580711475
 20
80.8343113719
 30
0.0
 10
640.0744040643
 20
80.8343113719
 30
0.0
 10
639.890417793
 20
80.8995671935
 30
0.0
 10
639.6907816251
 20
81.1343833054
 30
0.0
 10
639.5622589832
 20
81.4587038119
 30
0.0
 10
639.5331435907
 20
81.7057535352
 30
0.0
 10
639.5331435907
 20
81.8343113719
 30
0.0
  0
SPLINE
  5
2F3
100
AcDbEntity
  8
2_1_1
100
AcDbSpline
 62
7
  6
CONTINUOUS
 70
0
 71
3
 72
11
 73
7
 74
0
 42
0.0000001
 43
0.0000001
 44
0.0000000001
 40
0.0
 40
0.0
 40
0.0
 40
0.0
 40
0.2476212454
 40
0.4965996638
 40
0.7475684813
 40
1.0
 40
1.0
 40
1.0
 40
1.0
 10
641.2214584228
 20
80.8343113719
 30
0.0
 10
641.0939608141
 20
80.8343113719
 30
0.0
 10
640.8353712913
 20
80.886711828
 30
0.0
 10
640.509916238
 20
81.1101387873
 30
0.0
 10
640.2926480155
 20
81.44236568
 30
0.0
 10
640.2420684409
 20
81.7043370035
 30
0.0
 10
640.2420684409
 20
81.8343113719
 30
0.0
  0
SPLINE
  5
2F4
100
AcDbEntity
  8
2_1_1
100
AcDbSpline
 62
7
  6
CONTINUOUS
 70
0
 71
3
 72
11
 73
7
 74
0
 42
0.0000001
 43
0.0000001
 44
0.0000000001
 40
0.0
 40
0.0
 40
0.0
 40
0.0
 40
0.2023418402
 40
0.4353276537
 40
0.7057952194
 40
1.0
 40
1.0
 40
1.0
 40
1.0
 10
648.2252375136
 20
80.8343113719
 30
0.0
 10
648.1367326546
 20
80.8343113719
 30
0.0
 10
647.9443695599
 20
80.897284098
 30
0.0
 10
647.7297578387
 20
81.1313944725
 30
0.0
 10
647.5919087019
 20
81.4571985628
 30
0.0
 10
647.5606241201
 20
81.7056254184
 30
0.0
 10
647.5606241201
 20
81.8343113719
 30
0.0
  0
SPLINE
  5
2F5
100
AcDbEntity
  8
2_1_1
100
AcDbSpline
 62
7
  6
CONTINUOUS
 70
0
 71
3
 72
12
 73
8
 74
0
 42
0.0000001
 43
0.0000001
 44
0.0000000001
 40
0.0
 40
0.0
 40
0.0
 40
0.0
 40
0.341410735
 40
0.6383898637
 40
0.7594316186
 40
0.8588611981
 40
1.0
 40
1.0
 40
1.0
 40
1.0
 10
671.688248998
 20
81.8343113719
 30
0.0
 10
671.688248998
 20
81.7064021539
 30
0.0
 10
671.7048162759
 20
81.4669661337
 30
0.0
 10
671.7659637099
 20
81.187464505
 30
0.0
 10
671.8435207561
 20
81.0081195248
 30
0.0
 10
671.9145414477
 20
80.8948441902
 30
0.0
 10
671.9989987869
 20
80.8343113719
 30
0.0
 10
672.0518763093
 20
80.8343113719
 30
0.0
  0
SPLINE
  5
2F6
100
AcDbEntity
  8
2_1_1
100
AcDbSpline
 62
7
  6
CONTINUOUS
 70
0
 71
3
 72
8
 73
4
 74
0
 42
0.0000001
 43
0.0000001
 44
0.0000000001
 40
0.0
 40
0.0
 40
0.0
 40
0.0
 40
1.0
 40
1.0
 40
1.0
 40
1.0
 10
649.7686080853
 20
80.8343113719
 30
0.0
 10
649.6167041745
 20
80.8343113719
 30
0.0
 10
649.4608878989
 20
80.8716943313
 30
0.0
 10
649.3254233787
 20
80.9404268699
 30
0.0
  0
SPLINE
  5
2F7
100
AcDbEntity
  8
2_1_1
100
AcDbSpline
 62
7
  6
CONTINUOUS
 70
0
 71
3
 72
9
 73
5
 74
0
 42
0.0000001
 43
0.0000001
 44
0.0000000001
 40
0.0
 40
0.0
 40
0.0
 40
0.0
 40
0.4985187883
 40
1.0
 40
1.0
 40
1.0
 40
1.0
 10
649.3254233787
 20
80.9404268699
 30
0.0
 10
649.1641881188
 20
81.0222350711
 30
0.0
 10
648.8816434106
 20
81.2824682012
 30
0.0
 10
648.7800532172
 20
81.6524348881
 30
0.0
 10
648.7800532172
 20
81.8343113719
 30
0.0
  0
SPLINE
  5
2F8
100
AcDbEntity
  8
2_1_1
100
AcDbSpline
 62
7
  6
CONTINUOUS
 70
0
 71
3
 72
12
 73
8
 74
0
 42
0.0000001
 43
0.0000001
 44
0.0000000001
 40
0.0
 40
0.0
 40
0.0
 40
0.0
 40
0.1298060271
 40
0.2274769559
 40
0.3488188484
 40
0.6507140205
 40
1.0
 40
1.0
 40
1.0
 40
1.0
 10
656.0091064284
 20
80.8343113719
 30
0.0
 10
655.9616022184
 20
80.8343113719
 30
0.0
 10
655.887502017
 20
80.8990296443
 30
0.0
 10
655.8284951942
 20
81.0089607537
 30
0.0
 10
655.7609790398
 20
81.1891958243
 30
0.0
 10
655.7087073686
 20
81.4678900226
 30
0.0
 10
655.6943298401
 20
81.7064856083
 30
0.0
 10
655.6943298401
 20
81.8343113719
 30
0.0
  0
SPLINE
  5
2F9
100
AcDbEntity
  8
PRODUCT_12137_1_1
100
AcDbSpline
 62
7
  6
CONTINUOUS
 70
0
 71
3
 72
26
 73
22
 74
0
 42
0.0000001
 43
0.0000001
 44
0.0000000001
 40
0.0
 40
0.0
 40
0.0
 40
0.0
 40
0.1951303071
 40
0.3827321241
 40
0.5556186224
 40
0.6344346047
 40
0.7071395631
 40
0.773036301
 40
0.8314867924
 40
0.8819317157
 40
0.9238805935
 40
0.9415418288
 40
0.9569371717
 40
0.9700248593
 40
0.9807748165
 40
0.9891653808
 40
0.9951752048
 40
0.9972809654
 40
0.9987858152
 40
0.9996904901
 40
1.0
 40
1.0
 40
1.0
 40
1.0
 10
515.0921388969
 20
785.1826900627
 30
0.0
 10
514.231738392
 20
785.4789497994
 30
0.0
 10
512.5439597239
 20
786.0595352824
 30
0.0
 10
510.0932602775
 20
786.9008590655
 30
0.0
 10
508.1551351432
 20
787.5647171961
 30
0.0
 10
506.7235873493
 20
788.0539969384
 30
0.0
 10
505.7639997778
 20
788.3814288836
 30
0.0
 10
504.8941196032
 20
788.677670142
 30
0.0
 10
504.1223112151
 20
788.9398775901
 30
0.0
 10
503.4560316791
 20
789.1655200683
 30
0.0
 10
502.9697009962
 20
789.3295231728
 30
0.0
 10
502.6380861712
 20
789.4407641879
 30
0.0
 10
502.4339661842
 20
789.5089533007
 30
0.0
 10
502.2603684943
 20
789.5665670681
 30
0.0
 10
502.1175065146
 20
789.613709363
 30
0.0
 10
502.0062540509
 20
789.6496552527
 30
0.0
 10
501.932314861
 20
789.6736936521
 30
0.0
 10
501.8902199699
 20
789.6859367962
 30
0.0
 10
501.8686861014
 20
789.69331729
 30
0.0
 10
501.8587775579
 20
789.6939738572
 30
0.0
 10
501.8507535746
 20
789.6978223174
 30
0.0
 10
501.8502955456
 20
789.6964535396
 30
0.0
  0
SPLINE
  5
2FA
100
AcDbEntity
  8
PRODUCT_12137_1_1
100
AcDbSpline
 62
7
  6
CONTINUOUS
 70
0
 71
3
 72
26
 73
22
 74
0
 42
0.0000001
 43
0.0000001
 44
0.0000000001
 40
0.0
 40
0.0
 40
0.0
 40
0.0
 40
0.0003108131
 40
0.0012167728
 40
0.0027228408
 40
0.0048297386
 40
0.0108417381
 40
0.0192343322
 40
0.0299860873
 40
0.0430752641
 40
0.0584718311
 40
0.0761340576
 40
0.1180842279
 40
0.1685293007
 40
0.2269793798
 40
0.292874781
 40
0.365578287
 40
0.4443923916
 40
0.6172749353
 40
0.804873358
 40
1.0
 40
1.0
 40
1.0
 40
1.0
 10
481.4427713038
 20
644.4266100608
 30
0.0
 10
481.4422866722
 20
644.4252440242
 30
0.0
 10
481.4343045124
 20
644.4290922599
 30
0.0
 10
481.4243244476
 20
644.4297623275
 30
0.0
 10
481.4028064023
 20
644.4371425246
 30
0.0
 10
481.3606718015
 20
644.4493965414
 30
0.0
 10
481.2867238472
 20
644.4734400527
 30
0.0
 10
481.1754377903
 20
644.5093966342
 30
0.0
 10
481.0325551841
 20
644.5565464807
 30
0.0
 10
480.8589366353
 20
644.6141674028
 30
0.0
 10
480.6548007003
 20
644.6823621641
 30
0.0
 10
480.3231703407
 20
644.7936087126
 30
0.0
 10
479.836829116
 20
644.9576157013
 30
0.0
 10
479.1705451009
 20
645.1832599216
 30
0.0
 10
478.3987438982
 20
645.4454651614
 30
0.0
 10
477.5288779294
 20
645.7417016861
 30
0.0
 10
476.5693110508
 20
646.0691267165
 30
0.0
 10
475.1377955005
 20
646.5583955149
 30
0.0
 10
473.1997112029
 20
647.2222397533
 30
0.0
 10
470.7490604807
 20
648.0635468624
 30
0.0
 10
469.0613130332
 20
648.6441216119
 30
0.0
 10
468.200928734
 20
648.9403757685
 30
0.0
  0
SPLINE
  5
2FB
100
AcDbEntity
  8
PRODUCT_12137_1_1
100
AcDbSpline
 62
7
  6
CONTINUOUS
 70
0
 71
3
 72
26
 73
22
 74
0
 42
0.0000001
 43
0.0000001
 44
0.0000000001
 40
0.0
 40
0.0
 40
0.0
 40
0.0
 40
0.1950548065
 40
0.3826251353
 40
0.555512469
 40
0.6343371806
 40
0.7070543759
 40
0.7729656099
 40
0.8314313401
 40
0.8818913322
 40
0.9238538149
 40
0.9415211766
 40
0.9569219334
 40
0.970014213
 40
0.9807681082
 40
0.9891617946
 40
0.9951737302
 40
0.9972801482
 40
0.998785476
 40
0.9996904323
 40
1.0
 40
1.0
 40
1.0
 40
1.0
 10
468.200928734
 20
648.9403757685
 30
0.0
 10
467.3396328978
 20
649.2369437926
 30
0.0
 10
465.6502639227
 20
649.8192050574
 30
0.0
 10
463.1980874066
 20
650.6660819818
 30
0.0
 10
461.2594446281
 20
651.3371085546
 30
0.0
 10
459.8280018085
 20
651.8336418635
 30
0.0
 10
458.8687251888
 20
652.1669329813
 30
0.0
 10
457.9994414524
 20
652.4695393018
 30
0.0
 10
457.2285203821
 20
652.7385418655
 30
0.0
 10
456.5634235751
 20
652.9713347182
 30
0.0
 10
456.0783742306
 20
653.1418095436
 30
0.0
 10
455.7479892905
 20
653.2585172971
 30
0.0
 10
455.5447981376
 20
653.3305793811
 30
0.0
 10
455.3722230898
 20
653.3921652314
 30
0.0
 10
455.230368603
 20
653.4430610341
 30
0.0
 10
455.1203729488
 20
653.4832999612
 30
0.0
 10
455.0471769837
 20
653.5099251763
 30
0.0
 10
455.0063967464
 20
653.5262214383
 30
0.0
 10
454.9848446923
 20
653.5336752787
 30
0.0
 10
454.9766206009
 20
653.5392673966
 30
0.0
 10
454.9679105469
 20
653.5411773684
 30
0.0
 10
454.968393926
 20
653.5425398747
 30
0.0
  0
SPLINE
  5
2FC
100
AcDbEntity
  8
PRODUCT_12137_1_1
100
AcDbSpline
 62
7
  6
CONTINUOUS
 70
0
 71
3
 72
26
 73
22
 74
0
 42
0.0000001
 43
0.0000001
 44
0.0000000001
 40
0.0
 40
0.0
 40
0.0
 40
0.0
 40
0.0003108707
 40
0.0012171123
 40
0.0027236594
 40
0.0048312156
 40
0.0108453232
 40
0.0192410381
 40
0.029996732
 40
0.0430905022
 40
0.0584924828
 40
0.076160835
 40
0.1181246105
 40
0.1685847517
 40
0.2270500676
 40
0.2929599636
 40
0.3656757039
 40
0.4444985356
 40
0.6173819163
 40
0.8049488503
 40
1.0
 40
1.0
 40
1.0
 40
1.0
 10
528.3246744865
 20
780.5805281873
 30
0.0
 10
528.3251351862
 20
780.5819049464
 30
0.0
 10
528.3164582765
 20
780.5837892739
 30
0.0
 10
528.3081694074
 20
780.5894148719
 30
0.0
 10
528.2866300166
 20
780.5968591741
 30
0.0
 10
528.24581174
 20
780.6131713487
 30
0.0
 10
528.1726057293
 20
780.6397979204
 30
0.0
 10
528.0625769887
 20
780.6800491196
 30
0.0
 10
527.920701566
 20
780.7309516802
 30
0.0
 10
527.7481056378
 20
780.7925447482
 30
0.0
 10
527.544898415
 20
780.8646122084
 30
0.0
 10
527.2144978069
 20
780.9813251728
 30
0.0
 10
526.7294377514
 20
781.1518034315
 30
0.0
 10
526.0643363437
 20
781.3845976684
 30
0.0
 10
525.29342232
 20
781.6535975397
 30
0.0
 10
524.4241527367
 20
781.956198829
 30
0.0
 10
523.4648967352
 20
782.2894826367
 30
0.0
 10
522.0334861192
 20
782.7860046986
 30
0.0
 10
520.0948841325
 20
783.4570170562
 30
0.0
 10
517.6427563005
 20
784.3038771144
 30
0.0
 10
515.9534185426
 20
784.8861276135
 30
0.0
 10
515.0921388969
 20
785.1826900627
 30
0.0
  0
SPLINE
  5
2FD
100
AcDbEntity
  8
PRODUCT_12137_1_1
100
AcDbSpline
 62
7
  6
CONTINUOUS
 70
0
 71
3
 72
26
 73
22
 74
0
 42
0.0000001
 43
0.0000001
 44
0.0000000001
 40
0.0
 40
0.0
 40
0.0
 40
0.0
 40
0.1950548065
 40
0.3826251353
 40
0.555512469
 40
0.6343371806
 40
0.7070543759
 40
0.7729656099
 40
0.8314313401
 40
0.8818913322
 40
0.9238538149
 40
0.9415211766
 40
0.9569219334
 40
0.970014213
 40
0.9807681082
 40
0.9891617946
 40
0.9951737302
 40
0.9972801482
 40
0.998785476
 40
0.9996904323
 40
1.0
 40
1.0
 40
1.0
 40
1.0
 10
468.2102364958
 20
649.028774167
 30
0.0
 10
469.071532332
 20
648.7322061429
 30
0.0
 10
470.7609013071
 20
648.1499448781
 30
0.0
 10
473.2130778232
 20
647.3030679537
 30
0.0
 10
475.1517206017
 20
646.6320413809
 30
0.0
 10
476.5831634213
 20
646.135508072
 30
0.0
 10
477.542440041
 20
645.8022169542
 30
0.0
 10
478.4117237774
 20
645.4996106337
 30
0.0
 10
479.1826448477
 20
645.23060807
 30
0.0
 10
479.8477416547
 20
644.9978152173
 30
0.0
 10
480.3327909992
 20
644.8273403919
 30
0.0
 10
480.6631759394
 20
644.7106326384
 30
0.0
 10
480.8663670922
 20
644.6385705544
 30
0.0
 10
481.03894214
 20
644.5769847041
 30
0.0
 10
481.1807966268
 20
644.5260889013
 30
0.0
 10
481.290792281
 20
644.4858499743
 30
0.0
 10
481.3639882461
 20
644.4592247592
 30
0.0
 10
481.4047684834
 20
644.4429284972
 30
0.0
 10
481.4263205375
 20
644.4354746568
 30
0.0
 10
481.4345446289
 20
644.4298825389
 30
0.0
 10
481.4432546829
 20
644.4279725671
 30
0.0
 10
481.4427713038
 20
644.4266100608
 30
0.0
  0
SPLINE
  5
2FE
100
AcDbEntity
  8
PRODUCT_12137_1_1
100
AcDbSpline
 62
7
  6
CONTINUOUS
 70
0
 71
3
 72
26
 73
22
 74
0
 42
0.0000001
 43
0.0000001
 44
0.0000000001
 40
0.0
 40
0.0
 40
0.0
 40
0.0
 40
0.0003108131
 40
0.0012167728
 40
0.0027228408
 40
0.0048297386
 40
0.0108417381
 40
0.0192343322
 40
0.0299860873
 40
0.0430752641
 40
0.0584718311
 40
0.0761340576
 40
0.1180842279
 40
0.1685293007
 40
0.2269793798
 40
0.292874781
 40
0.365578287
 40
0.4443923916
 40
0.6172749353
 40
0.804873358
 40
1.0
 40
1.0
 40
1.0
 40
1.0
 10
454.968393926
 20
653.5425398747
 30
0.0
 10
454.9688785576
 20
653.5439059113
 30
0.0
 10
454.9768607174
 20
653.5400576755
 30
0.0
 10
454.9868407822
 20
653.539387608
 30
0.0
 10
455.0083588275
 20
653.5320074109
 30
0.0
 10
455.0504934283
 20
653.5197533941
 30
0.0
 10
455.1244413826
 20
653.4957098828
 30
0.0
 10
455.2357274395
 20
653.4597533013
 30
0.0
 10
455.3786100457
 20
653.4126034548
 30
0.0
 10
455.5522285945
 20
653.3549825327
 30
0.0
 10
455.7563645295
 20
653.2867877714
 30
0.0
 10
456.0879948891
 20
653.1755412229
 30
0.0
 10
456.5743361138
 20
653.0115342342
 30
0.0
 10
457.2406201289
 20
652.7858900139
 30
0.0
 10
458.0124213316
 20
652.5236847741
 30
0.0
 10
458.8822873004
 20
652.2274482494
 30
0.0
 10
459.8418541791
 20
651.900023219
 30
0.0
 10
461.2733697293
 20
651.4107544206
 30
0.0
 10
463.2114540269
 20
650.7469101822
 30
0.0
 10
465.6621047491
 20
649.9056030731
 30
0.0
 10
467.3498521966
 20
649.3250283236
 30
0.0
 10
468.2102364958
 20
649.028774167
 30
0.0
  0
SPLINE
  5
2FF
100
AcDbEntity
  8
PRODUCT_12137_1_1
100
AcDbSpline
 62
7
  6
CONTINUOUS
 70
0
 71
3
 72
10
 73
6
 74
0
 42
0.0000001
 43
0.0000001
 44
0.0000000001
 40
0.0
 40
0.0
 40
0.0
 40
0.0
 40
0.6263615716
 40
0.8575977468
 40
1.0
 40
1.0
 40
1.0
 40
1.0
 10
508.657732107
 20
766.4959551812
 30
0.0
 10
511.3174412232
 20
765.5801436284
 30
0.0
 10
514.9582354483
 20
764.3238540798
 30
0.0
 10
519.1999255448
 20
762.848498473
 30
0.0
 10
520.7838973237
 20
762.2946476152
 30
0.0
 10
521.3862843652
 20
762.0798944732
 30
0.0
  0
SPLINE
  5
300
100
AcDbEntity
  8
PRODUCT_12137_1_1
100
AcDbSpline
 62
7
  6
CONTINUOUS
 70
0
 71
3
 72
14
 73
10
 74
0
 42
0.0000001
 43
0.0000001
 44
0.0000000001
 40
0.0
 40
0.0
 40
0.0
 40
0.0
 40
0.4356945031
 40
0.6075644897
 40
0.7485158013
 40
0.858349598
 40
0.936881061
 40
0.9840547229
 40
1.0
 40
1.0
 40
1.0
 40
1.0
 10
521.3862843652
 20
762.0798944732
 30
0.0
 10
521.459800165
 20
762.0536858267
 30
0.0
 10
521.562434798
 20
762.0170703486
 30
0.0
 10
521.6881644934
 20
761.9713346298
 30
0.0
 10
521.7599856163
 20
761.9455124517
 30
0.0
 10
521.8134206071
 20
761.9244503124
 30
0.0
 10
521.8570505778
 20
761.9105399384
 30
0.0
 10
521.8731912678
 20
761.8990724892
 30
0.0
 10
521.891216298
 20
761.896486447
 30
0.0
 10
521.890287252
 20
761.8937854122
 30
0.0
  0
SPLINE
  5
301
100
AcDbEntity
  8
PRODUCT_12137_1_1
100
AcDbSpline
 62
7
  6
CONTINUOUS
 70
0
 71
3
 72
10
 73
6
 74
0
 42
0.0000001
 43
0.0000001
 44
0.0000000001
 40
0.0
 40
0.0
 40
0.0
 40
0.0
 40
0.6267370923
 40
0.8578768868
 40
1.0
 40
1.0
 40
1.0
 40
1.0
 10
508.5037950199
 20
766.048892751
 30
0.0
 10
505.8453577744
 20
766.9642663635
 30
0.0
 10
502.2056661953
 20
768.2148632921
 30
0.0
 10
497.9594190543
 20
769.6621259869
 30
0.0
 10
496.3735537515
 20
770.1997526173
 30
0.0
 10
495.7684821899
 20
770.4007464306
 30
0.0
  0
SPLINE
  5
302
100
AcDbEntity
  8
PRODUCT_12137_1_1
100
AcDbSpline
 62
7
  6
CONTINUOUS
 70
0
 71
3
 72
11
 73
7
 74
0
 42
0.0000001
 43
0.0000001
 44
0.0000000001
 40
0.0
 40
0.0
 40
0.0
 40
0.0
 40
0.4259197053
 40
0.7354337352
 40
0.9270938432
 40
1.0
 40
1.0
 40
1.0
 40
1.0
 10
495.7684821899
 20
770.4007464306
 30
0.0
 10
495.6968748969
 20
770.4245330763
 30
0.0
 10
495.5731227322
 20
770.4642892495
 30
0.0
 10
495.4171661872
 20
770.5188548041
 30
0.0
 10
495.3198768825
 20
770.5430647887
 30
0.0
 10
495.2752972237
 20
770.5636384718
 30
0.0
 10
495.2624059013
 20
770.5628430252
 30
0.0
  0
SPLINE
  5
303
100
AcDbEntity
  8
PRODUCT_12137_1_1
100
AcDbSpline
 62
7
  6
CONTINUOUS
 70
0
 71
3
 72
22
 73
18
 74
0
 42
0.0000001
 43
0.0000001
 44
0.0000000001
 40
0.0
 40
0.0
 40
0.0
 40
0.0
 40
0.194217898
 40
0.3810133804
 40
0.5532988506
 40
0.7045113467
 40
0.7703826294
 40
0.8289044927
 40
0.8795210542
 40
0.9217464115
 40
0.9551837999
 40
0.9685018963
 40
0.9795075355
 40
0.98817905
 40
0.9944952935
 40
0.9984368669
 40
1.0
 40
1.0
 40
1.0
 40
1.0
 10
508.5805738346
 20
766.2706220582
 30
0.0
 10
507.7591357865
 20
766.5534659413
 30
0.0
 10
506.1474874526
 20
767.1078649694
 30
0.0
 10
503.8065928532
 20
767.9115069164
 30
0.0
 10
501.6471327125
 20
768.6511910229
 30
0.0
 10
499.99892905
 20
769.2142159229
 30
0.0
 10
498.831926814
 20
769.6116827944
 30
0.0
 10
498.0906950958
 20
769.8635269045
 30
0.0
 10
497.4494100223
 20
770.0807602792
 30
0.0
 10
496.9141659883
 20
770.2612595503
 30
0.0
 10
496.5367832137
 20
770.3878521137
 30
0.0
 10
496.2915925494
 20
770.4692253568
 30
0.0
 10
496.1514295374
 20
770.515700235
 30
0.0
 10
496.0408626773
 20
770.5510631751
 30
0.0
 10
495.9602453302
 20
770.57839073
 30
0.0
 10
495.9096307578
 20
770.5910553208
 30
0.0
 10
495.885987037
 20
770.6009787511
 30
0.0
 10
495.8790081484
 20
770.6005481255
 30
0.0
  0
SPLINE
  5
304
100
AcDbEntity
  8
PRODUCT_12137_1_1
100
AcDbSpline
 62
7
  6
CONTINUOUS
 70
0
 71
3
 72
22
 73
18
 74
0
 42
0.0000001
 43
0.0000001
 44
0.0000000001
 40
0.0
 40
0.0
 40
0.0
 40
0.0
 40
0.0015634693
 40
0.0055061625
 40
0.0118245411
 40
0.0204991765
 40
0.0315087306
 40
0.0448314008
 40
0.0782802946
 40
0.120519175
 40
0.1711507155
 40
0.2296877031
 40
0.2955733573
 40
0.4468065937
 40
0.6190928282
 40
0.8058570077
 40
1.0
 40
1.0
 40
1.0
 40
1.0
 10
521.2734130225
 20
761.8564881181
 30
0.0
 10
521.268169678
 20
761.8611312316
 30
0.0
 10
521.2433865499
 20
761.8678778419
 30
0.0
 10
521.1956215205
 20
761.8890955825
 30
0.0
 10
521.1151273801
 20
761.9172422356
 30
0.0
 10
521.0060334927
 20
761.9575182457
 30
0.0
 10
520.866722774
 20
762.007275855
 30
0.0
 10
520.6229792438
 20
762.094260145
 30
0.0
 10
520.246997899
 20
762.2270760756
 30
0.0
 10
519.7131629288
 20
762.4146957529
 30
0.0
 10
519.07298381
 20
762.6387112974
 30
0.0
 10
518.3325907532
 20
762.8970369274
 30
0.0
 10
517.166400132
 20
763.3029598957
 30
0.0
 10
515.5184638165
 20
763.8748948656
 30
0.0
 10
513.3583525085
 20
764.6225657759
 30
0.0
 10
511.0160371266
 20
765.4314872343
 30
0.0
 10
509.4028677197
 20
765.9874834867
 30
0.0
 10
508.5805738346
 20
766.2706220582
 30
0.0
  0
SPLINE
  5
305
100
AcDbEntity
  8
PRODUCT_12137_1_1
100
AcDbSpline
 62
7
  6
CONTINUOUS
 70
0
 71
3
 72
22
 73
18
 74
0
 42
0.0000001
 43
0.0000001
 44
0.0000000001
 40
0.0
 40
0.0
 40
0.0
 40
0.0
 40
0.0015634693
 40
0.0055061625
 40
0.0118245411
 40
0.0204991765
 40
0.0315087306
 40
0.0448314008
 40
0.0782802946
 40
0.120519175
 40
0.1711507155
 40
0.2296877031
 40
0.2955733573
 40
0.4468065937
 40
0.6190928282
 40
0.8058570077
 40
1.0
 40
1.0
 40
1.0
 40
1.0
 10
521.7360867593
 20
761.4471557237
 30
0.0
 10
521.7306205698
 20
761.451996172
 30
0.0
 10
521.7047841453
 20
761.4590295169
 30
0.0
 10
521.6549890763
 20
761.481149023
 30
0.0
 10
521.5710738912
 20
761.5104919241
 30
0.0
 10
521.4573434544
 20
761.5524796865
 30
0.0
 10
521.3121119546
 20
761.6043520213
 30
0.0
 10
521.0580091921
 20
761.6950331908
 30
0.0
 10
520.6660484362
 20
761.8334938705
 30
0.0
 10
520.1095251902
 20
762.0290874858
 30
0.0
 10
519.4421381116
 20
762.2626238125
 30
0.0
 10
518.6702779482
 20
762.531928422
 30
0.0
 10
517.4545235929
 20
762.9551033366
 30
0.0
 10
515.7365490899
 20
763.551345853
 30
0.0
 10
513.4846318795
 20
764.3307931826
 30
0.0
 10
511.0427668231
 20
765.1740942419
 30
0.0
 10
509.3610368412
 20
765.7537206366
 30
0.0
 10
508.5037950199
 20
766.048892751
 30
0.0
  0
SPLINE
  5
306
100
AcDbEntity
  8
PRODUCT_12137_1_1
100
AcDbSpline
 62
7
  6
CONTINUOUS
 70
0
 71
3
 72
13
 73
9
 74
0
 42
0.0000001
 43
0.0000001
 44
0.0000000001
 40
0.0
 40
0.0
 40
0.0
 40
0.0
 40
0.016184421
 40
0.0632594441
 40
0.1415185068
 40
0.2510050417
 40
0.563530216
 40
1.0
 40
1.0
 40
1.0
 40
1.0
 10
495.4158692004
 20
771.0097265517
 30
0.0
 10
495.4162847321
 20
771.0109346357
 30
0.0
 10
495.4233473721
 20
771.0076793317
 30
0.0
 10
495.4321155835
 20
771.0070564538
 30
0.0
 10
495.4510733714
 20
771.0006684059
 30
0.0
 10
495.4881599947
 20
770.9899465562
 30
0.0
 10
495.5532911954
 20
770.9688931854
 30
0.0
 10
495.6093479832
 20
770.950884563
 30
0.0
 10
495.6421063277
 20
770.9402101651
 30
0.0
  0
SPLINE
  5
307
100
AcDbEntity
  8
PRODUCT_12137_1_1
100
AcDbSpline
 62
7
  6
CONTINUOUS
 70
0
 71
3
 72
10
 73
6
 74
0
 42
0.0000001
 43
0.0000001
 44
0.0000000001
 40
0.0
 40
0.0
 40
0.0
 40
0.0
 40
0.1437578732
 40
0.3752298049
 40
1.0
 40
1.0
 40
1.0
 40
1.0
 10
495.9531621108
 20
770.837590801
 30
0.0
 10
496.5636517013
 20
770.6345683268
 30
0.0
 10
498.1540305784
 20
770.095397781
 30
0.0
 10
502.3899940392
 20
768.6514318623
 30
0.0
 10
506.0140170291
 20
767.4062595434
 30
0.0
 10
508.657732107
 20
766.4959551812
 30
0.0
  0
ENDSEC
  0
SECTION
  2
OBJECTS
  0
DICTIONARY
  5
C
100
AcDbDictionary
280
0
281
1
  3
ACAD_GROUP
350
D
  3
ACAD_MLINESTYLE
350
17
  3
ACAD_LAYOUT
350
1A
  3
ACAD_PLOTSETTINGS
350
19
  3
ACAD_PLOTSTYLENAME
350
E
  0
DICTIONARY
  5
D
102
{ACAD_REACTORS
330
C
102
}
100
AcDbDictionary
280
0
281
1
  0
ACDBDICTIONARYWDFLT
  5
E
102
{ACAD_REACTORS
330
C
102
}
100
AcDbDictionary
281
1
  3
Normal
350
F
100
AcDbDictionaryWithDefault
340
F
  0
DICTIONARY
  5
17
102
{ACAD_REACTORS
330
C
102
}
100
AcDbDictionary
280
0
281
1
  3
Standard
350
18
  0
DICTIONARY
  5
19
102
{ACAD_REACTORS
330
C
102
}
100
AcDbDictionary
281
1
  0
DICTIONARY
  5
1A
102
{ACAD_REACTORS
330
C
102
}
100
AcDbDictionary
281
1
  3
Model
350
308
  3
Layout1
350
309
  0
ACDBPLACEHOLDER
  5
F
102
{ACAD_REACTORS
330
E
102
}
  0
MLINESTYLE
  5
18
102
{ACAD_REACTORS
330
17
102
}
100
AcDbMlineStyle
  2
STANDARD
 70
0
  3

 62
256
 51
90.0
 52
90.0
 71
2
 49
0.5
 62
256
  6
BYLAYER
 49
-0.5
 62
256
  6
BYLAYER
  0
LAYOUT
  5
308
102
{ACAD_REACTORS
330
1A
102
}
100
AcDbPlotSettings
  1

  2
none_device
  4
ANSI_E_(44.00_x_34.00_Inches)
  6

 40
0.0
 41
0.0
 42
0.0
 43
0.0
 44
1117.6
 45
863.6
 46
0.0
 47
0.0
 48
0.0
 49
0.0
140
0.0
141
0.0
142
1.0
143
1.0
 70
1024
 72
1
 73
0
 74
0
  7

 75
0
147
1.0
148
0.0
149
0.0
100
AcDbLayout
  1
Model
 70
0
 71
0
 10
0.0
 20
0.0
 11
1117.6
 21
863.6
 12
0.0
 22
0.0
 32
0.0
 14
0.0
 24
0.0
 34
0.0
 15
0.0
 25
0.0
 35
0.0
146
0.0
 13
0.0
 23
0.0
 33
0.0
 16
1.0
 26
0.0
 36
0.0
 17
0.0
 27
1.0
 37
0.0
 76
0
330
22F
345
0
346
0
  0
LAYOUT
  5
309
102
{ACAD_REACTORS
330
1A
102
}
100
AcDbPlotSettings
  1

  2
none_device
  4
ANSI_E_(44.00_x_34.00_Inches)
  6

 40
0.0
 41
0.0
 42
0.0
 43
0.0
 44
1117.6
 45
863.6
 46
0.0
 47
0.0
 48
0.0
 49
0.0
140
0.0
141
0.0
142
1.0
143
1.0
 70
0
 72
1
 73
0
 74
0
  7

 75
0
147
1.0
148
0.0
149
0.0
100
AcDbLayout
  1
Layout1
 70
0
 71
1
 10
0.0
 20
0.0
 11
1117.6
 21
863.6
 12
0.0
 22
0.0
 32
0.0
 14
0.0
 24
0.0
 34
0.0
 15
0.0
 25
0.0
 35
0.0
146
0.0
 13
0.0
 23
0.0
 33
0.0
 16
1.0
 26
0.0
 36
0.0
 17
0.0
 27
1.0
 37
0.0
 76
0
330
230
345
0
346
0
  0
ENDSEC
  0
EOF
