999
DXF file: S:\Engenharia\Wildfire\Engenharia\Produtos\Lixeiras\94518205\94518205.dxf
999
Pro/ENGINEER 2013150 by Parametric Technology Corporation
  0
SECTION
  2
HEADER
  9
$ACADVER
  1
AC1021
  9
$DWGCODEPAGE
  3
ANSI_1252
  9
$EXTMAX
 10
1223.0
 20
875.0
 30
0.0
  9
$EXTMIN
 10
0.0
 20
0.0
 30
0.0
  9
$LIMMIN
 10
0.0
 20
0.0
  9
$LIMMAX
 10
1223.0
 20
875.0
  9
$VIEWCTR
 10
611.5
 20
437.5
  9
$VIEWSIZE
 40
875.0
  9
$CLAYER
  8
0
  9
$LTSCALE
 40
67.265
  9
$CELTYPE
  6
BYLAYER
  9
$DIMSCALE
 40
1.0
  9
$DIMASZ
 40
3.0
  9
$DIMEXO
 40
0.5
  9
$DIMDLI
 40
46.474
  9
$DIMEXE
 40
0.5
  9
$DIMCEN
 40
11.007
  9
$DIMLFAC
 40
1.0
  9
$DIMBLK
  1
_FILLED
  9
$DIMTXT
 40
1.8
  9
$DIMTOL
 70
1
  9
$DIMLIM
 70
0
  9
$DIMTFAC
 40
1.0
  9
$DIMTP
 40
0.001
  9
$DIMTM
 40
0.001
  9
$DIMGAP
 40
0.625
  9
$DIMDSEP
 70
46
  9
$PDMODE
 70
3
  9
$PDSIZE
 40
1.0
  9
$HANDSEED
  5
457
  9
$TILEMODE
 70
1
  9
$MEASUREMENT
 70
1
  9
$INSUNITS
 70
4
  0
ENDSEC
  0
SECTION
  2
CLASSES
  0
CLASS
  1
ACDBDICTIONARYWDFLT
  2
AcDbDictionaryWithDefault
  3
AutoCAD 2000
 90
0
 91
1
280
0
281
0
  0
CLASS
  1
ACDBPLACEHOLDER
  2
AcDbPlaceHolder
  3
AutoCAD 2000
 90
0
 91
1
280
0
281
0
  0
CLASS
  1
LAYOUT
  2
AcDbLayout
  3
AutoCAD 2000
 90
0
 91
0
280
0
281
0
  0
ENDSEC
  0
SECTION
  2
TABLES
  0
TABLE
  2
VPORT
  5
8
100
AcDbSymbolTable
 70
2
  0
VPORT
  5
1F4
100
AcDbSymbolTableRecord
100
AcDbViewportTableRecord
  2
*ACTIVE
 70
0
 10
0.0
 20
0.0
 11
1.0
 21
1.0
 12
611.5
 22
437.5
 13
0.0
 23
0.0
 14
1.0
 24
1.0
 15
0.0
 25
0.0
 16
0.0
 26
0.0
 36
1.0
 17
0.0
 27
0.0
 37
0.0
 40
875.0
 41
1.3977142857
 42
50.0
 43
0.0
 44
0.0
 50
0.0
 51
0.0
 71
0
 72
100
 73
1
 74
1
 75
0
 76
0
 77
0
 78
0
  0
ENDTAB
  0
TABLE
  2
LTYPE
  5
5
100
AcDbSymbolTable
 70
6
  0
LTYPE
  5
14
100
AcDbSymbolTableRecord
100
AcDbLinetypeTableRecord
  2
BYBLOCK
 70
0
  3

 72
65
 73
0
 40
0.0
  0
LTYPE
  5
15
100
AcDbSymbolTableRecord
100
AcDbLinetypeTableRecord
  2
BYLAYER
 70
0
  3

 72
65
 73
0
 40
0.0
  0
LTYPE
  5
16
100
AcDbSymbolTableRecord
100
AcDbLinetypeTableRecord
  2
CONTINUOUS
 70
64
  3
Solid line
 72
65
 73
0
 40
0.0
  0
LTYPE
  5
1F5
100
AcDbSymbolTableRecord
100
AcDbLinetypeTableRecord
  2
CENTER
 70
64
  3
____ _ ____ _ ____ _ ____ _ ____ _ ____ _ ____
 72
65
 73
4
 40
0.6
 49
0.375
 74
0
 49
-0.075
 74
0
 49
0.075
 74
0
 49
-0.075
 74
0
  0
LTYPE
  5
1F6
100
AcDbSymbolTableRecord
100
AcDbLinetypeTableRecord
  2
HIDDEN
 70
64
  3
- - - - - - - - - - - - - - - - - - - -
 72
65
 73
2
 40
0.2
 49
0.1
 74
0
 49
-0.1
 74
0
  0
LTYPE
  5
1F7
100
AcDbSymbolTableRecord
100
AcDbLinetypeTableRecord
  2
PHANTOM
 70
64
  3
_____ _ _ _____ _ _ _____ _ _ _____
 72
65
 73
6
 40
0.8
 49
0.45
 74
0
 49
-0.05
 74
0
 49
0.1
 74
0
 49
-0.05
 74
0
 49
0.1
 74
0
 49
-0.05
 74
0
  0
LTYPE
  5
1F8
100
AcDbSymbolTableRecord
100
AcDbLinetypeTableRecord
  2
DOT
 70
64
  3
. . . . . . . . . . . . . . . . . . . .
 72
65
 73
2
 40
0.2
 49
0.1
 74
0
 49
-0.1
 74
0
  0
LTYPE
  5
1F9
100
AcDbSymbolTableRecord
100
AcDbLinetypeTableRecord
  2
DASHED
 70
64
  3
- - - - - - - - - - - - - - - - - - - -
 72
65
 73
2
 40
0.2
 49
0.1
 74
0
 49
-0.1
 74
0
  0
ENDTAB
  0
TABLE
  2
LAYER
  5
2
100
AcDbSymbolTable
 70
36
  0
LAYER
  5
10
100
AcDbSymbolTableRecord
100
AcDbLayerTableRecord
  2
0
 70
0
 62
7
  6
CONTINUOUS
370
-3
390
F
  0
LAYER
  5
1FA
100
AcDbSymbolTableRecord
100
AcDbLayerTableRecord
  2
DEFAULT_1
 70
0
 62
7
  6
CENTER
370
-3
390
F
  0
LAYER
  5
1FB
100
AcDbSymbolTableRecord
100
AcDbLayerTableRecord
  2
DEFAULT_2
 70
0
 62
8
  6
HIDDEN
370
-3
390
F
  0
LAYER
  5
1FC
100
AcDbSymbolTableRecord
100
AcDbLayerTableRecord
  2
DEFAULT_3
 70
0
 62
7
  6
PHANTOM
370
-3
390
F
  0
LAYER
  5
1FD
100
AcDbSymbolTableRecord
100
AcDbLayerTableRecord
  2
01_ALL_DTM_PLN
 70
0
 62
7
  6
CONTINUOUS
370
-3
390
F
  0
LAYER
  5
1FE
100
AcDbSymbolTableRecord
100
AcDbLayerTableRecord
  2
01__ASM_ALL_DTM_PLN
 70
0
 62
7
  6
CONTINUOUS
370
-3
390
F
  0
LAYER
  5
1FF
100
AcDbSymbolTableRecord
100
AcDbLayerTableRecord
  2
01__ASM_DEF_DTM_PLN
 70
0
 62
7
  6
CONTINUOUS
370
-3
390
F
  0
LAYER
  5
200
100
AcDbSymbolTableRecord
100
AcDbLayerTableRecord
  2
01___PRT_ALL_DTM_PLN
 70
0
 62
7
  6
CONTINUOUS
370
-3
390
F
  0
LAYER
  5
201
100
AcDbSymbolTableRecord
100
AcDbLayerTableRecord
  2
01___PRT_DEF_DTM_PLN
 70
0
 62
7
  6
CONTINUOUS
370
-3
390
F
  0
LAYER
  5
202
100
AcDbSymbolTableRecord
100
AcDbLayerTableRecord
  2
02_ALL_AXES
 70
0
 62
7
  6
CONTINUOUS
370
-3
390
F
  0
LAYER
  5
203
100
AcDbSymbolTableRecord
100
AcDbLayerTableRecord
  2
02__ASM_ALL_AXES
 70
0
 62
7
  6
CONTINUOUS
370
-3
390
F
  0
LAYER
  5
204
100
AcDbSymbolTableRecord
100
AcDbLayerTableRecord
  2
02___PRT_ALL_AXES
 70
0
 62
7
  6
CONTINUOUS
370
-3
390
F
  0
LAYER
  5
205
100
AcDbSymbolTableRecord
100
AcDbLayerTableRecord
  2
03_ALL_CURVES
 70
0
 62
7
  6
CONTINUOUS
370
-3
390
F
  0
LAYER
  5
206
100
AcDbSymbolTableRecord
100
AcDbLayerTableRecord
  2
03__ASM_ALL_CURVES
 70
0
 62
7
  6
CONTINUOUS
370
-3
390
F
  0
LAYER
  5
207
100
AcDbSymbolTableRecord
100
AcDbLayerTableRecord
  2
03___PRT_ALL_CURVES
 70
0
 62
7
  6
CONTINUOUS
370
-3
390
F
  0
LAYER
  5
208
100
AcDbSymbolTableRecord
100
AcDbLayerTableRecord
  2
04_ALL_DTM_PNT
 70
0
 62
7
  6
CONTINUOUS
370
-3
390
F
  0
LAYER
  5
209
100
AcDbSymbolTableRecord
100
AcDbLayerTableRecord
  2
04__ASM_ALL_DTM_PNT
 70
0
 62
7
  6
CONTINUOUS
370
-3
390
F
  0
LAYER
  5
20A
100
AcDbSymbolTableRecord
100
AcDbLayerTableRecord
  2
04___PRT_ALL_DTM_PNT
 70
0
 62
7
  6
CONTINUOUS
370
-3
390
F
  0
LAYER
  5
20B
100
AcDbSymbolTableRecord
100
AcDbLayerTableRecord
  2
05_ALL_DTM_CSYS
 70
0
 62
7
  6
CONTINUOUS
370
-3
390
F
  0
LAYER
  5
20C
100
AcDbSymbolTableRecord
100
AcDbLayerTableRecord
  2
05__ASM_ALL_DTM_CSYS
 70
0
 62
7
  6
CONTINUOUS
370
-3
390
F
  0
LAYER
  5
20D
100
AcDbSymbolTableRecord
100
AcDbLayerTableRecord
  2
05__ASM_DEF_DTM_CSYS
 70
0
 62
7
  6
CONTINUOUS
370
-3
390
F
  0
LAYER
  5
20E
100
AcDbSymbolTableRecord
100
AcDbLayerTableRecord
  2
05___PRT_ALL_DTM_CSYS
 70
0
 62
7
  6
CONTINUOUS
370
-3
390
F
  0
LAYER
  5
20F
100
AcDbSymbolTableRecord
100
AcDbLayerTableRecord
  2
05___PRT_DEF_DTM_CSYS
 70
0
 62
7
  6
CONTINUOUS
370
-3
390
F
  0
LAYER
  5
210
100
AcDbSymbolTableRecord
100
AcDbLayerTableRecord
  2
06_ALL_SURFS
 70
0
 62
7
  6
CONTINUOUS
370
-3
390
F
  0
LAYER
  5
211
100
AcDbSymbolTableRecord
100
AcDbLayerTableRecord
  2
06__ASM_ALL_SURFS
 70
0
 62
7
  6
CONTINUOUS
370
-3
390
F
  0
LAYER
  5
212
100
AcDbSymbolTableRecord
100
AcDbLayerTableRecord
  2
06___PRT_ALL_SURFS
 70
0
 62
7
  6
CONTINUOUS
370
-3
390
F
  0
LAYER
  5
213
100
AcDbSymbolTableRecord
100
AcDbLayerTableRecord
  2
07__ASM_ALL_SKELETONS
 70
0
 62
7
  6
CONTINUOUS
370
-3
390
F
  0
ENDTAB
  0
TABLE
  2
STYLE
  5
3
100
AcDbSymbolTable
 70
1
  0
STYLE
  5
11
100
AcDbSymbolTableRecord
100
AcDbTextStyleTableRecord
  2
STANDARD
 70
0
 40
0.0
 41
0.8
 50
0.0
 71
0
 42
0.2
  3
txt
  4

  0
STYLE
  5
214
100
AcDbSymbolTableRecord
100
AcDbTextStyleTableRecord
  2
TEXTSTYLE_1
 70
0
 40
0.0
 41
0.8
 50
0.0
 71
0
 42
0.2
  3
gdt
  4

  0
ENDTAB
  0
TABLE
  2
VIEW
  5
6
100
AcDbSymbolTable
 70
0
  0
ENDTAB
  0
TABLE
  2
UCS
  5
7
100
AcDbSymbolTable
 70
0
  0
ENDTAB
  0
TABLE
  2
APPID
  5
9
100
AcDbSymbolTable
 70
1
  0
APPID
  5
215
100
AcDbSymbolTableRecord
100
AcDbRegAppTableRecord
  2
ACAD
 70
0
  0
ENDTAB
  0
TABLE
  2
BLOCK_RECORD
  5
1
100
AcDbSymbolTable
 70
0
  0
BLOCK_RECORD
  5
216
100
AcDbSymbolTableRecord
100
AcDbBlockTableRecord
  2
*Model_Space
  0
BLOCK_RECORD
  5
217
100
AcDbSymbolTableRecord
100
AcDbBlockTableRecord
  2
*Paper_Space
  0
BLOCK_RECORD
  5
218
100
AcDbSymbolTableRecord
100
AcDbBlockTableRecord
  2
_FILLED
  0
BLOCK_RECORD
  5
219
100
AcDbSymbolTableRecord
100
AcDbBlockTableRecord
  2
*D0
  0
BLOCK_RECORD
  5
21A
100
AcDbSymbolTableRecord
100
AcDbBlockTableRecord
  2
*D1
  0
BLOCK_RECORD
  5
21B
100
AcDbSymbolTableRecord
100
AcDbBlockTableRecord
  2
*D2
  0
BLOCK_RECORD
  5
21C
100
AcDbSymbolTableRecord
100
AcDbBlockTableRecord
  2
*D3
  0
ENDTAB
  0
TABLE
  2
DIMSTYLE
  5
A
100
AcDbSymbolTable
 70
1
100
AcDbDimStyleTable
 71
0
  0
DIMSTYLE
105
21D
100
AcDbSymbolTableRecord
100
AcDbDimStyleTableRecord
  2
STANDARD
 70
0
  3

  4

 40
1.0
 41
3.0
 42
0.5
 43
0.38
 44
0.5
 45
0.0
 46
0.0
 47
0.001
 48
0.001
140
1.8
141
0.09
142
0.0
143
25.4
144
1.0
145
0.0
146
1.0
147
0.625
 71
1.0
 72
0.0
 73
0
 74
0
 75
0
 76
0
 77
1
 78
8
170
0
171
2
172
0
173
0
174
0
175
0
176
0
177
0
178
0
270
2
271
3
272
3
273
2
274
2
275
0
280
0
281
0
282
0
283
1
284
8
285
0
286
0
287
3
288
0
340
11
278
46
341
218
342
218
343
218
344
218
  0
DIMSTYLE
105
21E
100
AcDbSymbolTableRecord
100
AcDbDimStyleTableRecord
  2
DIMSTYLE_1
 70
0
  3

  4

 40
1.0
 41
3.0
 42
0.5
 43
0.38
 44
0.5
 45
0.0
 46
0.0
 47
0.001
 48
0.001
140
1.8
141
0.09
142
0.0
143
25.4
144
1.0
145
0.0
146
1.0
147
0.45
 71
0.0
 72
0.0
 73
0
 74
0
 75
0
 76
0
 77
1
 78
8
170
0
171
2
172
0
173
0
174
0
175
0
176
0
177
0
178
0
270
2
271
0
272
0
273
2
274
2
275
0
280
0
281
0
282
0
283
1
284
8
285
0
286
0
287
3
288
0
340
11
278
46
341
218
342
218
343
218
344
218
  0
DIMSTYLE
105
21F
100
AcDbSymbolTableRecord
100
AcDbDimStyleTableRecord
  2
DIMSTYLE_2
 70
0
  3

  4

 40
1.0
 41
3.0
 42
0.5
 43
0.38
 44
0.5
 45
0.0
 46
0.0
 47
0.001
 48
0.001
140
1.8
141
0.09
142
0.0
143
25.4
144
1.0
145
0.0
146
1.0
147
0.45
 71
0.0
 72
0.0
 73
0
 74
0
 75
0
 76
0
 77
1
 78
8
170
0
171
2
172
0
173
0
174
0
175
0
176
0
177
0
178
0
270
2
271
3
272
3
273
2
274
2
275
0
280
0
281
0
282
0
283
1
284
8
285
0
286
0
287
3
288
0
340
11
278
46
341
218
342
218
343
218
344
218
  0
ENDTAB
  0
ENDSEC
  0
SECTION
  2
BLOCKS
  0
BLOCK
  5
20
100
AcDbEntity
  8
0
100
AcDbBlockBegin
  2
*Model_Space
 70
0
 10
0.0
 20
0.0
 30
0.0
  3
*Model_Space
  1

  0
ENDBLK
  5
21
100
AcDbEntity
  8
0
100
AcDbBlockEnd
  0
BLOCK
  5
1C
100
AcDbEntity
  8
0
100
AcDbBlockBegin
  2
*Paper_Space
 70
0
 10
0.0
 20
0.0
 30
0.0
  3
*Paper_Space
  1

  0
ENDBLK
  5
1D
100
AcDbEntity
  8
0
100
AcDbBlockEnd
  0
BLOCK
  5
220
100
AcDbEntity
  8
0
100
AcDbBlockBegin
  2
_FILLED
 70
64
 10
0.0
 20
0.0
  3
_FILLED
  1

  0
SOLID
  5
221
100
AcDbEntity
  8
0
  6
BYBLOCK
 62
0
100
AcDbTrace
 10
0.0
 20
0.0
 11
-1.0
 21
0.1666666667
 12
-1.0
 22
-0.1666666667
 13
-1.0
 23
-0.1666666667
  0
ENDBLK
  5
222
100
AcDbEntity
  8
0
  6
BYBLOCK
 62
0
100
AcDbBlockEnd
  0
BLOCK
  5
223
100
AcDbEntity
  8
0
100
AcDbBlockBegin
 62
2
  6
CONTINUOUS
  2
*D0
 70
65
 10
0.0
 20
0.0
  3
*D0
  1

  0
MTEXT
  5
224
100
AcDbEntity
  8
0
100
AcDbMText
 62
2
  6
CONTINUOUS
  7
STANDARD
 71
2
 72
1
 10
377.7527613856
 20
594.6945638821
 30
0.0
 11
0.0
 21
1.0
 31
0.0
 44
0.9
  1
228
 40
1.8
 41
8.3314285714
  0
LINE
  5
225
100
AcDbEntity
  8
0
100
AcDbLine
 62
2
  6
CONTINUOUS
 10
393.824189957
 20
708.5145638821
 11
379.824189957
 21
708.5145638821
  0
LINE
  5
226
100
AcDbEntity
  8
0
100
AcDbLine
 62
2
  6
CONTINUOUS
 10
443.324189957
 20
480.8745638821
 11
379.824189957
 21
480.8745638821
  0
LINE
  5
227
100
AcDbEntity
  8
0
100
AcDbLine
 62
2
  6
CONTINUOUS
 10
380.324189957
 20
708.5145638821
 11
380.324189957
 21
594.6945638821
  0
LINE
  5
228
100
AcDbEntity
  8
0
100
AcDbLine
 62
2
  6
CONTINUOUS
 10
380.324189957
 20
480.8745638821
 11
380.324189957
 21
594.6945638821
  0
INSERT
  5
229
100
AcDbEntity
  8
0
100
AcDbBlockReference
 62
2
  6
CONTINUOUS
  2
_FILLED
 10
380.324189957
 20
708.5145638821
 41
3.0
 42
3.0
 43
3.0
 50
90.0
  0
INSERT
  5
22A
100
AcDbEntity
  8
0
100
AcDbBlockReference
 62
2
  6
CONTINUOUS
  2
_FILLED
 10
380.324189957
 20
480.8745638821
 41
3.0
 42
3.0
 43
3.0
 50
270.0
  0
ENDBLK
  5
22B
100
AcDbEntity
  8
0
  6
BYBLOCK
 62
0
100
AcDbBlockEnd
  0
BLOCK
  5
22C
100
AcDbEntity
  8
0
100
AcDbBlockBegin
 62
2
  6
CONTINUOUS
  2
*D1
 70
65
 10
0.0
 20
0.0
  3
*D1
  1

  0
MTEXT
  5
22D
100
AcDbEntity
  8
0
100
AcDbMText
 62
2
  6
CONTINUOUS
  7
STANDARD
 71
2
 72
1
 10
384.7527613856
 20
694.7645638821
 30
0.0
 11
0.0
 21
1.0
 31
0.0
 44
0.9
  1
27.5
 40
1.8
 41
11.1085714286
  0
LINE
  5
22E
100
AcDbEntity
  8
0
100
AcDbLine
 62
2
  6
CONTINUOUS
 10
393.824189957
 20
708.5145638821
 11
386.824189957
 21
708.5145638821
  0
LINE
  5
22F
100
AcDbEntity
  8
0
100
AcDbLine
 62
2
  6
CONTINUOUS
 10
412.863889957
 20
681.0145638821
 11
386.824189957
 21
681.0145638821
  0
LINE
  5
230
100
AcDbEntity
  8
0
100
AcDbLine
 62
2
  6
CONTINUOUS
 10
387.324189957
 20
708.5145638821
 11
387.324189957
 21
694.7645638821
  0
LINE
  5
231
100
AcDbEntity
  8
0
100
AcDbLine
 62
2
  6
CONTINUOUS
 10
387.324189957
 20
681.0145638821
 11
387.324189957
 21
694.7645638821
  0
INSERT
  5
232
100
AcDbEntity
  8
0
100
AcDbBlockReference
 62
2
  6
CONTINUOUS
  2
_FILLED
 10
387.324189957
 20
708.5145638821
 41
3.0
 42
3.0
 43
3.0
 50
90.0
  0
INSERT
  5
233
100
AcDbEntity
  8
0
100
AcDbBlockReference
 62
2
  6
CONTINUOUS
  2
_FILLED
 10
387.324189957
 20
681.0145638821
 41
3.0
 42
3.0
 43
3.0
 50
270.0
  0
ENDBLK
  5
234
100
AcDbEntity
  8
0
  6
BYBLOCK
 62
0
100
AcDbBlockEnd
  0
BLOCK
  5
235
100
AcDbEntity
  8
0
100
AcDbBlockBegin
 62
2
  6
CONTINUOUS
  2
*D2
 70
65
 10
0.0
 20
0.0
  3
*D2
  1

  0
MTEXT
  5
236
100
AcDbEntity
  8
0
100
AcDbMText
 62
2
  6
CONTINUOUS
  7
STANDARD
 71
2
 72
1
 10
518.324189957
 20
122.9733481046
 30
0.0
 11
1.0
 21
0.0
 31
0.0
 44
0.9
  1
248
 40
1.8
 41
8.3314285714
  0
LINE
  5
237
100
AcDbEntity
  8
0
100
AcDbLine
 62
2
  6
CONTINUOUS
 10
394.324189957
 20
150.9019195332
 11
394.324189957
 21
119.9019195332
  0
LINE
  5
238
100
AcDbEntity
  8
0
100
AcDbLine
 62
2
  6
CONTINUOUS
 10
642.324189957
 20
150.9019195332
 11
642.324189957
 21
119.9019195332
  0
LINE
  5
239
100
AcDbEntity
  8
0
100
AcDbLine
 62
2
  6
CONTINUOUS
 10
394.324189957
 20
120.4019195332
 11
518.324189957
 21
120.4019195332
  0
LINE
  5
23A
100
AcDbEntity
  8
0
100
AcDbLine
 62
2
  6
CONTINUOUS
 10
642.324189957
 20
120.4019195332
 11
518.324189957
 21
120.4019195332
  0
INSERT
  5
23B
100
AcDbEntity
  8
0
100
AcDbBlockReference
 62
2
  6
CONTINUOUS
  2
_FILLED
 10
394.324189957
 20
120.4019195332
 41
3.0
 42
3.0
 43
3.0
 50
180.0
  0
INSERT
  5
23C
100
AcDbEntity
  8
0
100
AcDbBlockReference
 62
2
  6
CONTINUOUS
  2
_FILLED
 10
642.324189957
 20
120.4019195332
 41
3.0
 42
3.0
 43
3.0
  0
ENDBLK
  5
23D
100
AcDbEntity
  8
0
  6
BYBLOCK
 62
0
100
AcDbBlockEnd
  0
BLOCK
  5
23E
100
AcDbEntity
  8
0
100
AcDbBlockBegin
 62
2
  6
CONTINUOUS
  2
*D3
 70
65
 10
0.0
 20
0.0
  3
*D3
  1

  0
MTEXT
  5
23F
100
AcDbEntity
  8
0
100
AcDbMText
 62
2
  6
CONTINUOUS
  7
STANDARD
 71
2
 72
1
 10
384.7527613856
 20
251.4019195332
 30
0.0
 11
0.0
 21
1.0
 31
0.0
 44
0.9
  1
248
 40
1.8
 41
8.3314285714
  0
LINE
  5
240
100
AcDbEntity
  8
0
100
AcDbLine
 62
2
  6
CONTINUOUS
 10
417.824189957
 20
127.4019195332
 11
386.824189957
 21
127.4019195332
  0
LINE
  5
241
100
AcDbEntity
  8
0
100
AcDbLine
 62
2
  6
CONTINUOUS
 10
417.824189957
 20
375.4019195332
 11
386.824189957
 21
375.4019195332
  0
LINE
  5
242
100
AcDbEntity
  8
0
100
AcDbLine
 62
2
  6
CONTINUOUS
 10
387.324189957
 20
127.4019195332
 11
387.324189957
 21
251.4019195332
  0
LINE
  5
243
100
AcDbEntity
  8
0
100
AcDbLine
 62
2
  6
CONTINUOUS
 10
387.324189957
 20
375.4019195332
 11
387.324189957
 21
251.4019195332
  0
INSERT
  5
244
100
AcDbEntity
  8
0
100
AcDbBlockReference
 62
2
  6
CONTINUOUS
  2
_FILLED
 10
387.324189957
 20
127.4019195332
 41
3.0
 42
3.0
 43
3.0
 50
270.0
  0
INSERT
  5
245
100
AcDbEntity
  8
0
100
AcDbBlockReference
 62
2
  6
CONTINUOUS
  2
_FILLED
 10
387.324189957
 20
375.4019195332
 41
3.0
 42
3.0
 43
3.0
 50
90.0
  0
ENDBLK
  5
246
100
AcDbEntity
  8
0
  6
BYBLOCK
 62
0
100
AcDbBlockEnd
  0
ENDSEC
  0
SECTION
  2
ENTITIES
  0
DIMENSION
  5
247
100
AcDbEntity
  8
0
100
AcDbDimension
 62
2
  6
CONTINUOUS
  2
*D0
 10
380.324189957
 20
480.8745638821
 11
380.324189957
 21
594.6945638821
 70
160
 71
2
 42
227.64
  3
DIMSTYLE_1
100
AcDbAlignedDimension
 13
394.324189957
 23
708.5145638821
 14
443.824189957
 24
480.8745638821
 50
270.0
100
AcDbRotatedDimension
  0
DIMENSION
  5
248
100
AcDbEntity
  8
0
100
AcDbDimension
 62
2
  6
CONTINUOUS
  2
*D1
 10
387.324189957
 20
681.0145638821
 11
387.324189957
 21
694.7645638821
 70
160
 71
2
 42
27.5
  3
DIMSTYLE_2
100
AcDbAlignedDimension
 13
394.324189957
 23
708.5145638821
 14
413.363889957
 24
681.0145638821
 50
270.0
100
AcDbRotatedDimension
  0
DIMENSION
  5
249
100
AcDbEntity
  8
0
100
AcDbDimension
 62
2
  6
CONTINUOUS
  2
*D2
 10
642.324189957
 20
120.4019195332
 11
518.324189957
 21
120.4019195332
 70
160
 71
2
 42
248.0
  3
DIMSTYLE_2
100
AcDbAlignedDimension
 13
394.324189957
 23
151.4019195332
 14
642.324189957
 24
151.4019195332
100
AcDbRotatedDimension
  0
DIMENSION
  5
24A
100
AcDbEntity
  8
0
100
AcDbDimension
 62
2
  6
CONTINUOUS
  2
*D3
 10
387.324189957
 20
375.4019195332
 11
387.324189957
 21
251.4019195332
 70
160
 71
2
 42
248.0
  3
DIMSTYLE_2
100
AcDbAlignedDimension
 13
418.324189957
 23
127.4019195332
 14
418.324189957
 24
375.4019195332
 50
90.0
100
AcDbRotatedDimension
  0
LINE
  5
24B
100
AcDbEntity
  8
0
100
AcDbLine
 62
7
  6
CONTINUOUS
 10
394.324189957
 20
708.5145638821
 11
394.324189957
 21
708.0145638821
  0
LINE
  5
24C
100
AcDbEntity
  8
0
100
AcDbLine
 62
7
  6
CONTINUOUS
 10
405.324189957
 20
702.5145638821
 11
405.324189957
 21
706.7645638821
  0
LINE
  5
24D
100
AcDbEntity
  8
02___PRT_ALL_AXES
100
AcDbLine
 62
7
  6
CONTINUOUS
 10
592.824189957
 20
480.8745638821
 11
443.824189957
 21
480.8745638821
  0
LINE
  5
24E
100
AcDbEntity
  8
02___PRT_ALL_AXES
100
AcDbLine
 62
7
  6
CONTINUOUS
 10
592.824189957
 20
482.3745638821
 11
443.824189957
 21
482.3745638821
  0
LINE
  5
24F
100
AcDbEntity
  8
0
100
AcDbLine
 62
7
  6
CONTINUOUS
 10
409.324189957
 20
686.0145638821
 11
409.324189957
 21
700.5145638821
  0
LINE
  5
250
100
AcDbEntity
  8
0
100
AcDbLine
 62
7
  6
CONTINUOUS
 10
424.8143592957
 20
681.0145638821
 11
426.2637916583
 21
653.3198714578
  0
LINE
  5
251
100
AcDbEntity
  8
02___PRT_ALL_AXES
100
AcDbLine
 62
7
  6
CONTINUOUS
 10
429.0792116358
 20
651.3530336639
 11
437.5873432074
 21
489.0082121884
  0
LINE
  5
252
100
AcDbEntity
  8
0
100
AcDbLine
 62
7
  6
CONTINUOUS
 10
434.5558473831
 20
662.257175186
 11
434.5558473831
 21
681.0145638821
  0
LINE
  5
253
100
AcDbEntity
  8
0
100
AcDbLine
 62
7
  6
CONTINUOUS
 10
435.5558473831
 20
662.257175186
 11
435.5558473831
 21
681.0145638821
  0
LINE
  5
254
100
AcDbEntity
  8
02___PRT_ALL_AXES
100
AcDbLine
 62
7
  6
CONTINUOUS
 10
443.824189957
 20
482.3745638821
 11
443.824189957
 21
480.8745638821
  0
LINE
  5
255
100
AcDbEntity
  8
0
100
AcDbLine
 62
7
  6
CONTINUOUS
 10
437.6464467644
 20
658.004144155
 11
434.5558473831
 21
662.257175186
  0
LINE
  5
256
100
AcDbEntity
  8
0
100
AcDbLine
 62
7
  6
CONTINUOUS
 10
438.6464467644
 20
658.004144155
 11
435.5558473831
 21
662.257175186
  0
LINE
  5
257
100
AcDbEntity
  8
0
100
AcDbLine
 62
7
  6
CONTINUOUS
 10
498.324189957
 20
681.0145638821
 11
498.324189957
 21
672.0145638821
  0
LWPOLYLINE
  5
258
100
AcDbEntity
  8
0
100
AcDbPolyline
 62
7
  6
CONTINUOUS
 90
3
 70
0
 10
607.5691695282
 20
651.353057514
 10
607.6023748746
 20
651.3664485521
 10
607.6387351502
 20
651.3779022566
  0
LINE
  5
259
100
AcDbEntity
  8
0
100
AcDbLine
 62
7
  6
CONTINUOUS
 10
538.324189957
 20
672.0145638821
 11
538.324189957
 21
681.0145638821
  0
LWPOLYLINE
  5
25A
100
AcDbEntity
  8
0
100
AcDbPolyline
 62
7
  6
CONTINUOUS
 90
19
 70
0
 10
429.0459483926
 20
651.3664688913
 10
429.0809283944
 20
651.352337478
 10
429.1123600021
 20
651.3367652298
 10
429.1413860316
 20
651.3196722393
 10
429.1678384942
 20
651.3015061283
 10
429.1916402368
 20
651.2827112182
 10
429.2127810434
 20
651.2637220386
 10
429.2312783722
 20
651.2449842894
 10
429.2472313469
 20
651.2268879412
 10
429.2607152177
 20
651.2098672676
 10
429.2719855106
 20
651.1941239652
 10
429.2812342847
 20
651.1798956577
 10
429.2886951376
 20
651.1673098534
 10
429.2945649348
 20
651.1564947407
 10
429.299042323
 20
651.147517341
 10
429.3022991663
 20
651.140435763
 10
429.3044930061
 20
651.135280516
 10
429.3057617233
 20
651.132070837
 10
429.3060459999
 20
651.1313117237
  0
LINE
  5
25B
100
AcDbEntity
  8
0
100
AcDbLine
 62
7
  6
CONTINUOUS
 10
598.0019331496
 20
658.004144155
 11
601.0925325309
 21
662.257175186
  0
LINE
  5
25C
100
AcDbEntity
  8
0
100
AcDbLine
 62
7
  6
CONTINUOUS
 10
599.0019331496
 20
658.004144155
 11
602.0925325309
 21
662.257175186
  0
LINE
  5
25D
100
AcDbEntity
  8
0
100
AcDbLine
 62
7
  6
CONTINUOUS
 10
429.0097377168
 20
651.3778769614
 11
429.047140694
 21
651.3660391827
  0
LWPOLYLINE
  5
25E
100
AcDbEntity
  8
0
100
AcDbPolyline
 62
7
  6
CONTINUOUS
 90
3
 70
0
 10
607.6387351502
 20
651.3779022566
 10
607.6768191772
 20
651.3866235633
 10
607.7154230243
 20
651.392202556
  0
LWPOLYLINE
  5
25F
100
AcDbEntity
  8
0
100
AcDbPolyline
 62
7
  6
CONTINUOUS
 90
3
 70
0
 10
428.9326856561
 20
651.3922475564
 10
428.9730744536
 20
651.3863383622
 10
429.0111359971
 20
651.3774940975
  0
LINE
  5
260
100
AcDbEntity
  8
0
100
AcDbLine
 62
7
  6
CONTINUOUS
 10
428.9717383209
 20
651.3865903574
 11
429.0097377168
 21
651.3778769614
  0
LINE
  5
261
100
AcDbEntity
  8
0
100
AcDbLine
 62
7
  6
CONTINUOUS
 10
607.7445466747
 20
651.3943880338
 11
608.4746794001
 21
651.4263097816
  0
LINE
  5
262
100
AcDbEntity
  8
0
100
AcDbLine
 62
7
  6
CONTINUOUS
 10
428.1737005139
 20
651.4263097816
 11
428.9038332394
 21
651.3943880338
  0
LINE
  5
263
100
AcDbEntity
  8
0
100
AcDbLine
 62
7
  6
CONTINUOUS
 10
428.9038429268
 20
651.3943883842
 11
428.9331824575
 21
651.3922106817
  0
LWPOLYLINE
  5
264
100
AcDbEntity
  8
0
100
AcDbPolyline
 62
7
  6
CONTINUOUS
 90
25
 70
0
 10
607.3429482788
 20
651.1332617919
 10
607.3426355452
 20
651.1322767979
 10
607.3421557317
 20
651.1308224114
 10
607.3423403529
 20
651.1313291781
 10
607.3433004384
 20
651.1338252202
 10
607.3451594527
 20
651.138317907
 10
607.3480611046
 20
651.1448078316
 10
607.352168987
 20
651.1532795736
 10
607.357663022
 20
651.1636885409
 10
607.3647539467
 20
651.1759826632
 10
607.3736465364
 20
651.1900342268
 10
607.3845850515
 20
651.2057171461
 10
607.3977755053
 20
651.2227929085
 10
607.4134906395
 20
651.2410592824
 10
607.4318193672
 20
651.2600675317
 10
607.4528776192
 20
651.2794151603
 10
607.4766920175
 20
651.2986338615
 10
607.5032627061
 20
651.3172678222
 10
607.5325149078
 20
651.3348461078
 10
607.5642794746
 20
651.3508944964
 10
607.5985069338
 20
651.365040863
 10
607.6350507364
 20
651.3768843642
 10
607.6737517317
 20
651.3860403678
 10
607.7143794461
 20
651.3921242056
 10
607.7445368118
 20
651.3943883777
  0
LINE
  5
265
100
AcDbEntity
  8
0
100
AcDbLine
 62
7
  6
CONTINUOUS
 10
528.324189957
 20
662.0145638821
 11
508.324189957
 21
662.0145638821
  0
LINE
  5
266
100
AcDbEntity
  8
0
100
AcDbLine
 62
7
  6
CONTINUOUS
 10
602.0925325309
 20
662.257175186
 11
601.0925325309
 21
662.257175186
  0
LINE
  5
267
100
AcDbEntity
  8
0
100
AcDbLine
 62
7
  6
CONTINUOUS
 10
435.5558473831
 20
662.257175186
 11
434.5558473831
 21
662.257175186
  0
LINE
  5
268
100
AcDbEntity
  8
02___PRT_ALL_AXES
100
AcDbLine
 62
7
  6
CONTINUOUS
 10
592.824189957
 20
482.3745638821
 11
592.824189957
 21
480.8745638821
  0
LINE
  5
269
100
AcDbEntity
  8
0
100
AcDbLine
 62
7
  6
CONTINUOUS
 10
601.0925325309
 20
662.257175186
 11
601.0925325309
 21
681.0145638821
  0
LINE
  5
26A
100
AcDbEntity
  8
0
100
AcDbLine
 62
7
  6
CONTINUOUS
 10
602.0925325309
 20
662.257175186
 11
602.0925325309
 21
681.0145638821
  0
LINE
  5
26B
100
AcDbEntity
  8
0
100
AcDbLine
 62
7
  6
CONTINUOUS
 10
599.0610367066
 20
489.0082121884
 11
607.5691619249
 21
651.3529124356
  0
LINE
  5
26C
100
AcDbEntity
  8
0
100
AcDbLine
 62
7
  6
CONTINUOUS
 10
610.3845882557
 20
653.3198714578
 11
611.8340206183
 21
681.0145638821
  0
LINE
  5
26D
100
AcDbEntity
  8
0
100
AcDbLine
 62
7
  6
CONTINUOUS
 10
622.324189957
 20
681.0145638821
 11
414.324189957
 21
681.0145638821
  0
LINE
  5
26E
100
AcDbEntity
  8
0
100
AcDbLine
 62
7
  6
CONTINUOUS
 10
627.324189957
 20
700.5145638821
 11
627.324189957
 21
686.0145638821
  0
LINE
  5
26F
100
AcDbEntity
  8
0
100
AcDbLine
 62
7
  6
CONTINUOUS
 10
631.324189957
 20
706.7645638821
 11
631.324189957
 21
702.5145638821
  0
LINE
  5
270
100
AcDbEntity
  8
0
100
AcDbLine
 62
7
  6
CONTINUOUS
 10
629.324189957
 20
700.5145638821
 11
407.324189957
 21
700.5145638821
  0
LINE
  5
271
100
AcDbEntity
  8
0
100
AcDbLine
 62
7
  6
CONTINUOUS
 10
394.324189957
 20
708.0145638821
 11
642.324189957
 21
708.0145638821
  0
LINE
  5
272
100
AcDbEntity
  8
0
100
AcDbLine
 62
7
  6
CONTINUOUS
 10
642.324189957
 20
708.5145638821
 11
642.324189957
 21
708.0145638821
  0
LINE
  5
273
100
AcDbEntity
  8
0
100
AcDbLine
 62
7
  6
CONTINUOUS
 10
394.324189957
 20
708.5145638821
 11
642.324189957
 21
708.5145638821
  0
LINE
  5
274
100
AcDbEntity
  8
0
100
AcDbLine
 62
7
  6
CONTINUOUS
 10
394.324189957
 20
151.4019195332
 11
394.324189957
 21
351.4019195332
  0
LINE
  5
275
100
AcDbEntity
  8
0
100
AcDbLine
 62
7
  6
CONTINUOUS
 10
618.324189957
 20
127.4019195332
 11
418.324189957
 21
127.4019195332
  0
LINE
  5
276
100
AcDbEntity
  8
0
100
AcDbLine
 62
7
  6
CONTINUOUS
 10
405.4884035194
 20
151.4019195332
 11
405.4884035194
 21
351.4019195332
  0
LINE
  5
277
100
AcDbEntity
  8
0
100
AcDbLine
 62
7
  6
CONTINUOUS
 10
406.324189957
 20
151.4019195332
 11
406.324189957
 21
351.4019195332
  0
LINE
  5
278
100
AcDbEntity
  8
0
100
AcDbLine
 62
7
  6
CONTINUOUS
 10
407.324189957
 20
151.4019195332
 11
407.324189957
 21
351.4019195332
  0
LINE
  5
279
100
AcDbEntity
  8
0
100
AcDbLine
 62
7
  6
CONTINUOUS
 10
407.399689957
 20
350.3264195332
 11
407.399689957
 21
152.4774195332
  0
LINE
  5
27A
100
AcDbEntity
  8
0
100
AcDbLine
 62
7
  6
CONTINUOUS
 10
409.399689957
 20
350.3264195332
 11
409.399689957
 21
152.4774195332
  0
LINE
  5
27B
100
AcDbEntity
  8
0
100
AcDbLine
 62
7
  6
CONTINUOUS
 10
618.324189957
 20
138.5661330955
 11
418.324189957
 21
138.5661330955
  0
LINE
  5
27C
100
AcDbEntity
  8
0
100
AcDbLine
 62
7
  6
CONTINUOUS
 10
618.324189957
 20
139.4019195332
 11
418.324189957
 21
139.4019195332
  0
LINE
  5
27D
100
AcDbEntity
  8
0
100
AcDbLine
 62
7
  6
CONTINUOUS
 10
618.324189957
 20
140.4019195332
 11
418.324189957
 21
140.4019195332
  0
LINE
  5
27E
100
AcDbEntity
  8
0
100
AcDbLine
 62
7
  6
CONTINUOUS
 10
419.399689957
 20
140.4774195332
 11
617.248689957
 21
140.4774195332
  0
LINE
  5
27F
100
AcDbEntity
  8
0
100
AcDbLine
 62
7
  6
CONTINUOUS
 10
419.399689957
 20
142.4774195332
 11
617.248689957
 21
142.4774195332
  0
LINE
  5
280
100
AcDbEntity
  8
0
100
AcDbLine
 62
7
  6
CONTINUOUS
 10
418.324189957
 20
138.5661330955
 11
418.324189957
 21
140.4019195332
  0
LINE
  5
281
100
AcDbEntity
  8
0
100
AcDbLine
 62
7
  6
CONTINUOUS
 10
418.324189957
 20
362.4019195332
 11
418.324189957
 21
364.2377059708
  0
LINE
  5
282
100
AcDbEntity
  8
0
100
AcDbLine
 62
7
  6
CONTINUOUS
 10
419.399689957
 20
142.4774195332
 11
419.399689957
 21
140.4774195332
  0
LINE
  5
283
100
AcDbEntity
  8
0
100
AcDbLine
 62
7
  6
CONTINUOUS
 10
419.399689957
 20
360.3264195332
 11
419.3996899844
 21
362.3264195332
  0
LINE
  5
284
100
AcDbEntity
  8
0
100
AcDbLine
 62
7
  6
CONTINUOUS
 10
405.4884035194
 20
151.4019195332
 11
407.324189957
 21
151.4019195332
  0
LINE
  5
285
100
AcDbEntity
  8
0
100
AcDbLine
 62
7
  6
CONTINUOUS
 10
629.324189957
 20
151.4019195332
 11
631.1599763946
 21
151.4019195332
  0
LINE
  5
286
100
AcDbEntity
  8
0
100
AcDbLine
 62
7
  6
CONTINUOUS
 10
409.399689957
 20
152.4774195332
 11
407.399689957
 21
152.4774195606
  0
LINE
  5
287
100
AcDbEntity
  8
0
100
AcDbLine
 62
7
  6
CONTINUOUS
 10
627.248689957
 20
152.4774195332
 11
629.248689957
 21
152.4774195332
  0
LINE
  5
288
100
AcDbEntity
  8
03___PRT_ALL_CURVES
100
AcDbLine
 62
40
  6
CONTINUOUS
 10
525.9057815738
 20
153.4759195332
 11
525.1087815738
 21
153.4759195332
  0
LINE
  5
289
100
AcDbEntity
  8
03___PRT_ALL_CURVES
100
AcDbLine
 62
40
  6
CONTINUOUS
 10
524.7987815738
 20
153.4759195332
 11
524.5347815738
 21
153.4759195332
  0
LINE
  5
28A
100
AcDbEntity
  8
03___PRT_ALL_CURVES
100
AcDbLine
 62
40
  6
CONTINUOUS
 10
523.2667815738
 20
153.4759195332
 11
522.9747815738
 21
153.4759195332
  0
LINE
  5
28B
100
AcDbEntity
  8
03___PRT_ALL_CURVES
100
AcDbLine
 62
40
  6
CONTINUOUS
 10
524.3137815738
 20
153.4759195332
 11
523.3727815738
 21
153.4759195332
  0
LINE
  5
28C
100
AcDbEntity
  8
03___PRT_ALL_CURVES
100
AcDbLine
 62
40
  6
CONTINUOUS
 10
518.7557815738
 20
153.4759195332
 11
518.4287815738
 21
153.4759195332
  0
LINE
  5
28D
100
AcDbEntity
  8
03___PRT_ALL_CURVES
100
AcDbLine
 62
40
  6
CONTINUOUS
 10
517.8877815738
 20
153.4759195332
 11
517.6357815738
 21
153.4759195332
  0
LINE
  5
28E
100
AcDbEntity
  8
03___PRT_ALL_CURVES
100
AcDbLine
 62
40
  6
CONTINUOUS
 10
517.3402430295
 20
153.4759195332
 11
517.0762430295
 21
153.4759195332
  0
LINE
  5
28F
100
AcDbEntity
  8
03___PRT_ALL_CURVES
100
AcDbLine
 62
40
  6
CONTINUOUS
 10
516.2573488245
 20
153.4759195332
 11
515.4533488245
 21
153.4759195332
  0
LINE
  5
290
100
AcDbEntity
  8
03___PRT_ALL_CURVES
100
AcDbLine
 62
40
  6
CONTINUOUS
 10
512.7351315487
 20
153.4759195332
 11
512.4631315487
 21
153.4759195332
  0
LINE
  5
291
100
AcDbEntity
  8
03___PRT_ALL_CURVES
100
AcDbLine
 62
40
  6
CONTINUOUS
 10
513.8330848435
 20
153.4759195332
 11
513.5410848435
 21
153.4759195332
  0
LINE
  5
292
100
AcDbEntity
  8
03___PRT_ALL_CURVES
100
AcDbLine
 62
40
  6
CONTINUOUS
 10
511.6357191774
 20
153.4759195332
 11
511.3807191774
 21
153.4759195332
  0
LINE
  5
293
100
AcDbEntity
  8
03___PRT_ALL_CURVES
100
AcDbLine
 62
40
  6
CONTINUOUS
 10
512.2725983402
 20
153.4759195332
 11
512.0205983402
 21
153.4759195332
  0
LINE
  5
294
100
AcDbEntity
  8
03___PRT_ALL_CURVES
100
AcDbLine
 62
40
  6
CONTINUOUS
 10
510.9945983402
 20
153.4759195332
 11
510.7425983402
 21
153.4759195332
  0
LINE
  5
295
100
AcDbEntity
  8
03___PRT_ALL_CURVES
100
AcDbLine
 62
40
  6
CONTINUOUS
 10
514.0163488245
 20
153.4759195332
 11
514.3993488245
 21
153.4759195332
  0
LINE
  5
296
100
AcDbEntity
  8
03___PRT_ALL_CURVES
100
AcDbLine
 62
40
  6
CONTINUOUS
 10
519.6107815738
 20
153.4759195332
 11
520.0987815738
 21
153.4759195332
  0
LINE
  5
297
100
AcDbEntity
  8
03___PRT_ALL_CURVES
100
AcDbLine
 62
40
  6
CONTINUOUS
 10
520.7937815738
 20
153.4759195332
 11
521.0827815738
 21
153.4759195332
  0
LINE
  5
298
100
AcDbEntity
  8
03___PRT_ALL_CURVES
100
AcDbLine
 62
40
  6
CONTINUOUS
 10
521.5169785132
 20
153.4759195332
 11
521.8379785132
 21
153.4759195332
  0
LINE
  5
299
100
AcDbEntity
  8
03___PRT_ALL_CURVES
100
AcDbLine
 62
40
  6
CONTINUOUS
 10
522.1737808009
 20
153.4889195332
 11
521.9018933696
 21
153.4889195332
  0
LINE
  5
29A
100
AcDbEntity
  8
03___PRT_ALL_CURVES
100
AcDbLine
 62
40
  6
CONTINUOUS
 10
520.0227815738
 20
153.6669195332
 11
519.8997815738
 21
153.6669195332
  0
LINE
  5
29B
100
AcDbEntity
  8
03___PRT_ALL_CURVES
100
AcDbLine
 62
40
  6
CONTINUOUS
 10
514.4533488245
 20
153.6669195332
 11
514.3053488245
 21
153.6669195332
  0
LINE
  5
29C
100
AcDbEntity
  8
03___PRT_ALL_CURVES
100
AcDbLine
 62
40
  6
CONTINUOUS
 10
515.7173488245
 20
153.6789195332
 11
516.2573488245
 21
153.6789195332
  0
LINE
  5
29D
100
AcDbEntity
  8
03___PRT_ALL_CURVES
100
AcDbLine
 62
40
  6
CONTINUOUS
 10
523.6407815738
 20
153.6789195332
 11
524.3137815738
 21
153.6789195332
  0
LINE
  5
29E
100
AcDbEntity
  8
03___PRT_ALL_CURVES
100
AcDbLine
 62
40
  6
CONTINUOUS
 10
525.3727815738
 20
153.6789195332
 11
525.9057815738
 21
153.6789195332
  0
LINE
  5
29F
100
AcDbEntity
  8
03___PRT_ALL_CURVES
100
AcDbLine
 62
40
  6
CONTINUOUS
 10
522.8562126543
 20
153.7919195332
 11
522.2892126543
 21
153.7919195332
  0
LINE
  5
2A0
100
AcDbEntity
  8
03___PRT_ALL_CURVES
100
AcDbLine
 62
40
  6
CONTINUOUS
 10
513.422515924
 20
153.7919195332
 11
512.855515924
 21
153.7919195332
  0
LINE
  5
2A1
100
AcDbEntity
  8
03___PRT_ALL_CURVES
100
AcDbLine
 62
40
  6
CONTINUOUS
 10
511.513928236
 20
153.7959195332
 11
511.5006245207
 21
153.7959195332
  0
LINE
  5
2A2
100
AcDbEntity
  8
03___PRT_ALL_CURVES
100
AcDbLine
 62
40
  6
CONTINUOUS
 10
518.4897815738
 20
153.8089195332
 11
518.5037815738
 21
153.8089195332
  0
LINE
  5
2A3
100
AcDbEntity
  8
03___PRT_ALL_CURVES
100
AcDbLine
 62
40
  6
CONTINUOUS
 10
512.9335983402
 20
153.9949195332
 11
513.3547823474
 21
153.9949195332
  0
LINE
  5
2A4
100
AcDbEntity
  8
03___PRT_ALL_CURVES
100
AcDbLine
 62
40
  6
CONTINUOUS
 10
522.3658851465
 20
153.9949195332
 11
522.7870691537
 21
153.9949195332
  0
LINE
  5
2A5
100
AcDbEntity
  8
03___PRT_ALL_CURVES
100
AcDbLine
 62
40
  6
CONTINUOUS
 10
521.0827815738
 20
154.0479195332
 11
521.1647815738
 21
154.0479195332
  0
LINE
  5
2A6
100
AcDbEntity
  8
03___PRT_ALL_CURVES
100
AcDbLine
 62
40
  6
CONTINUOUS
 10
516.2083488245
 20
154.0519195332
 11
515.7173488245
 21
154.0519195332
  0
LINE
  5
2A7
100
AcDbEntity
  8
03___PRT_ALL_CURVES
100
AcDbLine
 62
40
  6
CONTINUOUS
 10
519.8997815738
 20
154.0519195332
 11
520.0227815738
 21
154.0519195332
  0
LINE
  5
2A8
100
AcDbEntity
  8
03___PRT_ALL_CURVES
100
AcDbLine
 62
40
  6
CONTINUOUS
 10
515.7173488245
 20
154.2549195332
 11
516.2083488245
 21
154.2549195332
  0
LINE
  5
2A9
100
AcDbEntity
  8
03___PRT_ALL_CURVES
100
AcDbLine
 62
40
  6
CONTINUOUS
 10
521.1677815738
 20
154.2789195332
 11
521.0827815738
 21
154.2789195332
  0
LINE
  5
2AA
100
AcDbEntity
  8
03___PRT_ALL_CURVES
100
AcDbLine
 62
40
  6
CONTINUOUS
 10
520.0057815738
 20
154.3109195332
 11
519.8997815738
 21
154.3109195332
  0
LINE
  5
2AB
100
AcDbEntity
  8
03___PRT_ALL_CURVES
100
AcDbLine
 62
40
  6
CONTINUOUS
 10
512.0205983402
 20
154.4889195332
 11
511.9688876357
 21
154.4889195332
  0
LINE
  5
2AC
100
AcDbEntity
  8
03___PRT_ALL_CURVES
100
AcDbLine
 62
40
  6
CONTINUOUS
 10
511.0453091341
 20
154.4889195332
 11
510.9945983402
 21
154.4889195332
  0
LINE
  5
2AD
100
AcDbEntity
  8
03___PRT_ALL_CURVES
100
AcDbLine
 62
40
  6
CONTINUOUS
 10
517.8877815738
 20
154.5069195332
 11
517.9017815738
 21
154.5069195332
  0
LINE
  5
2AE
100
AcDbEntity
  8
03___PRT_ALL_CURVES
100
AcDbLine
 62
40
  6
CONTINUOUS
 10
522.5829368102
 20
154.5759195332
 11
522.569633095
 21
154.5759195332
  0
LINE
  5
2AF
100
AcDbEntity
  8
03___PRT_ALL_CURVES
100
AcDbLine
 62
40
  6
CONTINUOUS
 10
513.1506500039
 20
154.5759195332
 11
513.1373462886
 21
154.5759195332
  0
LINE
  5
2B0
100
AcDbEntity
  8
03___PRT_ALL_CURVES
100
AcDbLine
 62
40
  6
CONTINUOUS
 10
524.0237815738
 20
154.6369195332
 11
523.3977815738
 21
154.6369195332
  0
LINE
  5
2B1
100
AcDbEntity
  8
03___PRT_ALL_CURVES
100
AcDbLine
 62
40
  6
CONTINUOUS
 10
516.2543488245
 20
154.6369195332
 11
515.7173488245
 21
154.6369195332
  0
LINE
  5
2B2
100
AcDbEntity
  8
03___PRT_ALL_CURVES
100
AcDbLine
 62
40
  6
CONTINUOUS
 10
514.3053488245
 20
154.6369195332
 11
514.4533488245
 21
154.6369195332
  0
LINE
  5
2B3
100
AcDbEntity
  8
03___PRT_ALL_CURVES
100
AcDbLine
 62
40
  6
CONTINUOUS
 10
519.8997815738
 20
154.6369195332
 11
519.9997815738
 21
154.6369195332
  0
LINE
  5
2B4
100
AcDbEntity
  8
03___PRT_ALL_CURVES
100
AcDbLine
 62
40
  6
CONTINUOUS
 10
521.0827815738
 20
154.6369195332
 11
521.1677815738
 21
154.6369195332
  0
LINE
  5
2B5
100
AcDbEntity
  8
03___PRT_ALL_CURVES
100
AcDbLine
 62
40
  6
CONTINUOUS
 10
510.7425983402
 20
154.8399195332
 11
511.1735983402
 21
154.8399195332
  0
LINE
  5
2B6
100
AcDbEntity
  8
03___PRT_ALL_CURVES
100
AcDbLine
 62
40
  6
CONTINUOUS
 10
511.8415983402
 20
154.8399195332
 11
512.2725983402
 21
154.8399195332
  0
LINE
  5
2B7
100
AcDbEntity
  8
03___PRT_ALL_CURVES
100
AcDbLine
 62
40
  6
CONTINUOUS
 10
512.994576432
 20
154.8399195332
 11
513.296576432
 21
154.8399195332
  0
LINE
  5
2B8
100
AcDbEntity
  8
03___PRT_ALL_CURVES
100
AcDbLine
 62
40
  6
CONTINUOUS
 10
515.4533488245
 20
154.8399195332
 11
516.2543488245
 21
154.8399195332
  0
LINE
  5
2B9
100
AcDbEntity
  8
03___PRT_ALL_CURVES
100
AcDbLine
 62
40
  6
CONTINUOUS
 10
517.0762430295
 20
154.8399195332
 11
517.3402430295
 21
154.8399195332
  0
LINE
  5
2BA
100
AcDbEntity
  8
03___PRT_ALL_CURVES
100
AcDbLine
 62
40
  6
CONTINUOUS
 10
518.5037815738
 20
154.8399195332
 11
518.7557815738
 21
154.8399195332
  0
LINE
  5
2BB
100
AcDbEntity
  8
03___PRT_ALL_CURVES
100
AcDbLine
 62
40
  6
CONTINUOUS
 10
517.6357815738
 20
154.8399195332
 11
517.9647815738
 21
154.8399195332
  0
LINE
  5
2BC
100
AcDbEntity
  8
03___PRT_ALL_CURVES
100
AcDbLine
 62
40
  6
CONTINUOUS
 10
522.4282731624
 20
154.8399195332
 11
522.7302731624
 21
154.8399195332
  0
LINE
  5
2BD
100
AcDbEntity
  8
03___PRT_ALL_CURVES
100
AcDbLine
 62
40
  6
CONTINUOUS
 10
523.3977815738
 20
154.8399195332
 11
524.2997815738
 21
154.8399195332
  0
LINE
  5
2BE
100
AcDbEntity
  8
03___PRT_ALL_CURVES
100
AcDbLine
 62
40
  6
CONTINUOUS
 10
524.5347815738
 20
154.8399195332
 11
524.7987815738
 21
154.8399195332
  0
LINE
  5
2BF
100
AcDbEntity
  8
03___PRT_ALL_CURVES
100
AcDbLine
 62
40
  6
CONTINUOUS
 10
525.1087815738
 20
154.8399195332
 11
525.3727815738
 21
154.8399195332
  0
LINE
  5
2C0
100
AcDbEntity
  8
03___PRT_ALL_CURVES
100
AcDbLine
 62
40
  6
CONTINUOUS
 10
521.0967815738
 20
154.8659195332
 11
520.7937815738
 21
154.8659195332
  0
LINE
  5
2C1
100
AcDbEntity
  8
03___PRT_ALL_CURVES
100
AcDbLine
 62
40
  6
CONTINUOUS
 10
520.0987815738
 20
154.8659195332
 11
519.6107815738
 21
154.8659195332
  0
LINE
  5
2C2
100
AcDbEntity
  8
03___PRT_ALL_CURVES
100
AcDbLine
 62
40
  6
CONTINUOUS
 10
514.3993488245
 20
154.8659195332
 11
514.0163488245
 21
154.8659195332
  0
LINE
  5
2C3
100
AcDbEntity
  8
03___PRT_ALL_CURVES
100
AcDbLine
 62
40
  6
CONTINUOUS
 10
532.7023205389
 20
156.0659195332
 11
503.9483205389
 21
156.0659195332
  0
LINE
  5
2C4
100
AcDbEntity
  8
03___PRT_ALL_CURVES
100
AcDbLine
 62
40
  6
CONTINUOUS
 10
532.7023205389
 20
156.2154195332
 11
503.9483205389
 21
156.2154195332
  0
LINE
  5
2C5
100
AcDbEntity
  8
03___PRT_ALL_CURVES
100
AcDbLine
 62
40
  6
CONTINUOUS
 10
521.9344077714
 20
157.8424195332
 11
521.3274077714
 21
157.8424195332
  0
LINE
  5
2C6
100
AcDbEntity
  8
03___PRT_ALL_CURVES
100
AcDbLine
 62
40
  6
CONTINUOUS
 10
520.0944077714
 20
157.8424195332
 11
519.4864077714
 21
157.8424195332
  0
LINE
  5
2C7
100
AcDbEntity
  8
03___PRT_ALL_CURVES
100
AcDbLine
 62
40
  6
CONTINUOUS
 10
531.171689957
 20
157.8434195332
 11
530.580689957
 21
157.8434195332
  0
LINE
  5
2C8
100
AcDbEntity
  8
03___PRT_ALL_CURVES
100
AcDbLine
 62
40
  6
CONTINUOUS
 10
529.0274077714
 20
157.8444195332
 11
528.4354077714
 21
157.8444195332
  0
LINE
  5
2C9
100
AcDbEntity
  8
03___PRT_ALL_CURVES
100
AcDbLine
 62
40
  6
CONTINUOUS
 10
525.2184077714
 20
157.8444195332
 11
524.6114077714
 21
157.8444195332
  0
LINE
  5
2CA
100
AcDbEntity
  8
03___PRT_ALL_CURVES
100
AcDbLine
 62
40
  6
CONTINUOUS
 10
523.5764077714
 20
157.8444195332
 11
522.9694077714
 21
157.8444195332
  0
LINE
  5
2CB
100
AcDbEntity
  8
03___PRT_ALL_CURVES
100
AcDbLine
 62
40
  6
CONTINUOUS
 10
506.733689957
 20
157.8444195332
 11
506.126689957
 21
157.8444195332
  0
LINE
  5
2CC
100
AcDbEntity
  8
03___PRT_ALL_CURVES
100
AcDbLine
 62
40
  6
CONTINUOUS
 10
528.1284077714
 20
157.8469383943
 11
527.5214077714
 21
157.8469383943
  0
LINE
  5
2CD
100
AcDbEntity
  8
03___PRT_ALL_CURVES
100
AcDbLine
 62
40
  6
CONTINUOUS
 10
526.2884077714
 20
157.8469383943
 11
525.6804077714
 21
157.8469383943
  0
LINE
  5
2CE
100
AcDbEntity
  8
03___PRT_ALL_CURVES
100
AcDbLine
 62
40
  6
CONTINUOUS
 10
516.3244077714
 20
157.8469383943
 11
515.7314077714
 21
157.8469383943
  0
LINE
  5
2CF
100
AcDbEntity
  8
03___PRT_ALL_CURVES
100
AcDbLine
 62
40
  6
CONTINUOUS
 10
514.832049855
 20
157.8469383943
 11
514.478049855
 21
157.8469383943
  0
LINE
  5
2D0
100
AcDbEntity
  8
03___PRT_ALL_CURVES
100
AcDbLine
 62
40
  6
CONTINUOUS
 10
513.5741497451
 20
157.8469383943
 11
512.9811497451
 21
157.8469383943
  0
LINE
  5
2D1
100
AcDbEntity
  8
03___PRT_ALL_CURVES
100
AcDbLine
 62
40
  6
CONTINUOUS
 10
512.7532146178
 20
157.8469383943
 11
512.1622146178
 21
157.8469383943
  0
LINE
  5
2D2
100
AcDbEntity
  8
03___PRT_ALL_CURVES
100
AcDbLine
 62
40
  6
CONTINUOUS
 10
510.607689957
 20
157.8469383943
 11
510.016689957
 21
157.8469383943
  0
LINE
  5
2D3
100
AcDbEntity
  8
03___PRT_ALL_CURVES
100
AcDbLine
 62
40
  6
CONTINUOUS
 10
509.6528731287
 20
157.8469383943
 11
508.9788731287
 21
157.8469383943
  0
LINE
  5
2D4
100
AcDbEntity
  8
03___PRT_ALL_CURVES
100
AcDbLine
 62
40
  6
CONTINUOUS
 10
508.375689957
 20
157.8469383943
 11
507.768689957
 21
157.8469383943
  0
LINE
  5
2D5
100
AcDbEntity
  8
03___PRT_ALL_CURVES
100
AcDbLine
 62
40
  6
CONTINUOUS
 10
530.9576847854
 20
157.9898244667
 11
530.6799245088
 21
157.9898244667
  0
LINE
  5
2D6
100
AcDbEntity
  8
03___PRT_ALL_CURVES
100
AcDbLine
 62
40
  6
CONTINUOUS
 10
521.7886791032
 20
157.9898244667
 11
521.4070516885
 21
157.9898244667
  0
LINE
  5
2D7
100
AcDbEntity
  8
03___PRT_ALL_CURVES
100
AcDbLine
 62
40
  6
CONTINUOUS
 10
519.9488180989
 20
157.9898244667
 11
519.6348058368
 21
157.9898244667
  0
LINE
  5
2D8
100
AcDbEntity
  8
03___PRT_ALL_CURVES
100
AcDbLine
 62
40
  6
CONTINUOUS
 10
528.9273352733
 20
157.9908244667
 11
528.6495749966
 21
157.9908244667
  0
LINE
  5
2D9
100
AcDbEntity
  8
03___PRT_ALL_CURVES
100
AcDbLine
 62
40
  6
CONTINUOUS
 10
527.9827448008
 20
157.9908244667
 11
527.6011173861
 21
157.9908244667
  0
LINE
  5
2DA
100
AcDbEntity
  8
03___PRT_ALL_CURVES
100
AcDbLine
 62
40
  6
CONTINUOUS
 10
526.1428837965
 20
157.9908244667
 11
525.8288715343
 21
157.9908244667
  0
LINE
  5
2DB
100
AcDbEntity
  8
03___PRT_ALL_CURVES
100
AcDbLine
 62
40
  6
CONTINUOUS
 10
525.0723652348
 20
157.9908244667
 11
524.7589991581
 21
157.9908244667
  0
LINE
  5
2DC
100
AcDbEntity
  8
03___PRT_ALL_CURVES
100
AcDbLine
 62
40
  6
CONTINUOUS
 10
523.4311774848
 20
157.9908244667
 11
523.1178114081
 21
157.9908244667
  0
LINE
  5
2DD
100
AcDbEntity
  8
03___PRT_ALL_CURVES
100
AcDbLine
 62
40
  6
CONTINUOUS
 10
516.1532119205
 20
157.9908244667
 11
515.8554973727
 21
157.9908244667
  0
LINE
  5
2DE
100
AcDbEntity
  8
03___PRT_ALL_CURVES
100
AcDbLine
 62
40
  6
CONTINUOUS
 10
514.7271452695
 20
157.9908244667
 11
514.5830351694
 21
157.9908244667
  0
LINE
  5
2DF
100
AcDbEntity
  8
03___PRT_ALL_CURVES
100
AcDbLine
 62
40
  6
CONTINUOUS
 10
513.4500004323
 20
157.9908244667
 11
513.1522858845
 21
157.9908244667
  0
LINE
  5
2E0
100
AcDbEntity
  8
03___PRT_ALL_CURVES
100
AcDbLine
 62
40
  6
CONTINUOUS
 10
512.5394191882
 20
157.9908244667
 11
512.2616589116
 21
157.9908244667
  0
LINE
  5
2E1
100
AcDbEntity
  8
03___PRT_ALL_CURVES
100
AcDbLine
 62
40
  6
CONTINUOUS
 10
510.5078272008
 20
157.9908244667
 11
510.2300669241
 21
157.9908244667
  0
LINE
  5
2E2
100
AcDbEntity
  8
03___PRT_ALL_CURVES
100
AcDbLine
 62
40
  6
CONTINUOUS
 10
509.3724063644
 20
157.9908244667
 11
509.056109031
 21
157.9908244667
  0
LINE
  5
2E3
100
AcDbEntity
  8
03___PRT_ALL_CURVES
100
AcDbLine
 62
40
  6
CONTINUOUS
 10
508.228024604
 20
157.9908244667
 11
507.9146585273
 21
157.9908244667
  0
LINE
  5
2E4
100
AcDbEntity
  8
03___PRT_ALL_CURVES
100
AcDbLine
 62
40
  6
CONTINUOUS
 10
506.587557407
 20
157.9908244667
 11
506.274557407
 21
157.9908244667
  0
LINE
  5
2E5
100
AcDbEntity
  8
03___PRT_ALL_CURVES
100
AcDbLine
 62
40
  6
CONTINUOUS
 10
530.3629419646
 20
158.3984195332
 11
529.2449419646
 21
158.3984195332
  0
LINE
  5
2E6
100
AcDbEntity
  8
03___PRT_ALL_CURVES
100
AcDbLine
 62
40
  6
CONTINUOUS
 10
511.9440417649
 20
158.4019383943
 11
510.8260417649
 21
158.4019383943
  0
LINE
  5
2E7
100
AcDbEntity
  8
03___PRT_ALL_CURVES
100
AcDbLine
 62
40
  6
CONTINUOUS
 10
530.4621765164
 20
158.5448244667
 11
529.1448694664
 21
158.5448244667
  0
LINE
  5
2E8
100
AcDbEntity
  8
03___PRT_ALL_CURVES
100
AcDbLine
 62
40
  6
CONTINUOUS
 10
512.0434860586
 20
158.5458244667
 11
510.7261790086
 21
158.5458244667
  0
LINE
  5
2E9
100
AcDbEntity
  8
03___PRT_ALL_CURVES
100
AcDbLine
 62
40
  6
CONTINUOUS
 10
529.4394077714
 20
158.8984195332
 11
530.1644077714
 21
158.8984195332
  0
LINE
  5
2EA
100
AcDbEntity
  8
03___PRT_ALL_CURVES
100
AcDbLine
 62
40
  6
CONTINUOUS
 10
511.0222582118
 20
158.9009383943
 11
511.7472582118
 21
158.9009383943
  0
LINE
  5
2EB
100
AcDbEntity
  8
03___PRT_ALL_CURVES
100
AcDbLine
 62
40
  6
CONTINUOUS
 10
508.2274926361
 20
159.0418422544
 11
508.3209163216
 21
159.0418422544
  0
LINE
  5
2EC
100
AcDbEntity
  8
03___PRT_ALL_CURVES
100
AcDbLine
 62
40
  6
CONTINUOUS
 10
511.2364513516
 20
159.046458379
 11
511.5332475016
 21
159.046458379
  0
LINE
  5
2ED
100
AcDbEntity
  8
03___PRT_ALL_CURVES
100
AcDbLine
 62
40
  6
CONTINUOUS
 10
529.653642971
 20
159.046458379
 11
529.950439121
 21
159.046458379
  0
LINE
  5
2EE
100
AcDbEntity
  8
03___PRT_ALL_CURVES
100
AcDbLine
 62
40
  6
CONTINUOUS
 10
508.2265624873
 20
159.401974079
 11
508.5535624873
 21
159.401974079
  0
LINE
  5
2EF
100
AcDbEntity
  8
03___PRT_ALL_CURVES
100
AcDbLine
 62
40
  6
CONTINUOUS
 10
508.3727674873
 20
159.548179079
 11
508.5530869873
 21
159.548179079
  0
LINE
  5
2F0
100
AcDbEntity
  8
03___PRT_ALL_CURVES
100
AcDbLine
 62
40
  6
CONTINUOUS
 10
508.5530869873
 20
160.054535729
 11
508.3727674873
 21
160.054535729
  0
LINE
  5
2F1
100
AcDbEntity
  8
03___PRT_ALL_CURVES
100
AcDbLine
 62
40
  6
CONTINUOUS
 10
507.383689957
 20
160.1144195332
 11
506.733689957
 21
160.1144195332
  0
LINE
  5
2F2
100
AcDbEntity
  8
03___PRT_ALL_CURVES
100
AcDbLine
 62
40
  6
CONTINUOUS
 10
506.126689957
 20
160.1144195332
 11
505.476689957
 21
160.1144195332
  0
LINE
  5
2F3
100
AcDbEntity
  8
03___PRT_ALL_CURVES
100
AcDbLine
 62
40
  6
CONTINUOUS
 10
524.2264077714
 20
160.1164195332
 11
523.5764077714
 21
160.1164195332
  0
LINE
  5
2F4
100
AcDbEntity
  8
03___PRT_ALL_CURVES
100
AcDbLine
 62
40
  6
CONTINUOUS
 10
522.9694077714
 20
160.1164195332
 11
522.3194077714
 21
160.1164195332
  0
LINE
  5
2F5
100
AcDbEntity
  8
03___PRT_ALL_CURVES
100
AcDbLine
 62
40
  6
CONTINUOUS
 10
508.5535624873
 20
160.2009383943
 11
508.2265624873
 21
160.2009383943
  0
LINE
  5
2F6
100
AcDbEntity
  8
03___PRT_ALL_CURVES
100
AcDbLine
 62
40
  6
CONTINUOUS
 10
507.237557407
 20
160.2608244667
 11
506.587557407
 21
160.2608244667
  0
LINE
  5
2F7
100
AcDbEntity
  8
03___PRT_ALL_CURVES
100
AcDbLine
 62
40
  6
CONTINUOUS
 10
506.274557407
 20
160.2608244667
 11
505.624557407
 21
160.2608244667
  0
LINE
  5
2F8
100
AcDbEntity
  8
03___PRT_ALL_CURVES
100
AcDbLine
 62
40
  6
CONTINUOUS
 10
523.1178114081
 20
160.2628244667
 11
522.4678114081
 21
160.2628244667
  0
LINE
  5
2F9
100
AcDbEntity
  8
03___PRT_ALL_CURVES
100
AcDbLine
 62
40
  6
CONTINUOUS
 10
524.0811774848
 20
160.2628244667
 11
523.4311774848
 21
160.2628244667
  0
LINE
  5
2FA
100
AcDbEntity
  8
03___PRT_ALL_CURVES
100
AcDbLine
 62
40
  6
CONTINUOUS
 10
505.624557407
 20
160.4709383943
 11
507.237557407
 21
160.4709383943
  0
LINE
  5
2FB
100
AcDbEntity
  8
03___PRT_ALL_CURVES
100
AcDbLine
 62
40
  6
CONTINUOUS
 10
519.6348058368
 20
160.4709383943
 11
520.0174020866
 21
160.4709383943
  0
LINE
  5
2FC
100
AcDbEntity
  8
03___PRT_ALL_CURVES
100
AcDbLine
 62
40
  6
CONTINUOUS
 10
521.4746668411
 20
160.4709383943
 11
521.7886791032
 21
160.4709383943
  0
LINE
  5
2FD
100
AcDbEntity
  8
03___PRT_ALL_CURVES
100
AcDbLine
 62
40
  6
CONTINUOUS
 10
507.9146585273
 20
160.4719383943
 11
508.8055342873
 21
160.4719383943
  0
LINE
  5
2FE
100
AcDbEntity
  8
03___PRT_ALL_CURVES
100
AcDbLine
 62
40
  6
CONTINUOUS
 10
511.2037538545
 20
160.4719383943
 11
511.5655104955
 21
160.4719383943
  0
LINE
  5
2FF
100
AcDbEntity
  8
03___PRT_ALL_CURVES
100
AcDbLine
 62
40
  6
CONTINUOUS
 10
513.5584060144
 20
160.4719383943
 11
513.9361776963
 21
160.4719383943
  0
LINE
  5
300
100
AcDbEntity
  8
03___PRT_ALL_CURVES
100
AcDbLine
 62
40
  6
CONTINUOUS
 10
515.3702948028
 20
160.4719383943
 11
515.7470917906
 21
160.4719383943
  0
LINE
  5
301
100
AcDbEntity
  8
03___PRT_ALL_CURVES
100
AcDbLine
 62
40
  6
CONTINUOUS
 10
522.4678114081
 20
160.4719383943
 11
524.0811774848
 21
160.4719383943
  0
LINE
  5
302
100
AcDbEntity
  8
03___PRT_ALL_CURVES
100
AcDbLine
 62
40
  6
CONTINUOUS
 10
525.8288715343
 20
160.4719383943
 11
526.2114677842
 21
160.4719383943
  0
LINE
  5
303
100
AcDbEntity
  8
03___PRT_ALL_CURVES
100
AcDbLine
 62
40
  6
CONTINUOUS
 10
524.7589991581
 20
160.4719383943
 11
525.0723652348
 21
160.4719383943
  0
LINE
  5
304
100
AcDbEntity
  8
03___PRT_ALL_CURVES
100
AcDbLine
 62
40
  6
CONTINUOUS
 10
527.6697448008
 20
160.4719383943
 11
527.9827448008
 21
160.4719383943
  0
LINE
  5
305
100
AcDbEntity
  8
03___PRT_ALL_CURVES
100
AcDbLine
 62
40
  6
CONTINUOUS
 10
529.6235117992
 20
160.4719383943
 11
529.9852684402
 21
160.4719383943
  0
LINE
  5
306
100
AcDbEntity
  8
03___PRT_ALL_CURVES
100
AcDbLine
 62
40
  6
CONTINUOUS
 10
505.476689957
 20
160.6164195332
 11
507.383689957
 21
160.6164195332
  0
LINE
  5
307
100
AcDbEntity
  8
03___PRT_ALL_CURVES
100
AcDbLine
 62
40
  6
CONTINUOUS
 10
519.4864077714
 20
160.6164195332
 11
520.0944077714
 21
160.6164195332
  0
LINE
  5
308
100
AcDbEntity
  8
03___PRT_ALL_CURVES
100
AcDbLine
 62
40
  6
CONTINUOUS
 10
521.3264077714
 20
160.6164195332
 11
521.9344077714
 21
160.6164195332
  0
LINE
  5
309
100
AcDbEntity
  8
03___PRT_ALL_CURVES
100
AcDbLine
 62
40
  6
CONTINUOUS
 10
529.5239215731
 20
160.6174195332
 11
530.0849215731
 21
160.6174195332
  0
LINE
  5
30A
100
AcDbEntity
  8
03___PRT_ALL_CURVES
100
AcDbLine
 62
40
  6
CONTINUOUS
 10
511.1043284297
 20
160.6184195332
 11
511.6653284297
 21
160.6184195332
  0
LINE
  5
30B
100
AcDbEntity
  8
03___PRT_ALL_CURVES
100
AcDbLine
 62
40
  6
CONTINUOUS
 10
522.3194077714
 20
160.6184195332
 11
524.2264077714
 21
160.6184195332
  0
LINE
  5
30C
100
AcDbEntity
  8
03___PRT_ALL_CURVES
100
AcDbLine
 62
40
  6
CONTINUOUS
 10
524.6114077714
 20
160.6184195332
 11
525.2184077714
 21
160.6184195332
  0
LINE
  5
30D
100
AcDbEntity
  8
03___PRT_ALL_CURVES
100
AcDbLine
 62
40
  6
CONTINUOUS
 10
525.6804077714
 20
160.6184195332
 11
526.2884077714
 21
160.6184195332
  0
LINE
  5
30E
100
AcDbEntity
  8
03___PRT_ALL_CURVES
100
AcDbLine
 62
40
  6
CONTINUOUS
 10
507.768689957
 20
160.6199383943
 11
508.805689957
 21
160.6199383943
  0
LINE
  5
30F
100
AcDbEntity
  8
03___PRT_ALL_CURVES
100
AcDbLine
 62
40
  6
CONTINUOUS
 10
513.4352108133
 20
160.6209383943
 11
514.0432108133
 21
160.6209383943
  0
LINE
  5
310
100
AcDbEntity
  8
03___PRT_ALL_CURVES
100
AcDbLine
 62
40
  6
CONTINUOUS
 10
515.2633467032
 20
160.6209383943
 11
515.8703467032
 21
160.6209383943
  0
LINE
  5
311
100
AcDbEntity
  8
03___PRT_ALL_CURVES
100
AcDbLine
 62
40
  6
CONTINUOUS
 10
527.5214077714
 20
160.6209383943
 11
528.1284077714
 21
160.6209383943
  0
LINE
  5
312
100
AcDbEntity
  8
03___PRT_ALL_CURVES
100
AcDbLine
 62
40
  6
CONTINUOUS
 10
503.9483205389
 20
162.2524195332
 11
532.7023205389
 21
162.2524195332
  0
LINE
  5
313
100
AcDbEntity
  8
03___PRT_ALL_CURVES
100
AcDbLine
 62
40
  6
CONTINUOUS
 10
503.9483205389
 20
162.4019195332
 11
532.7023205389
 21
162.4019195332
  0
LINE
  5
314
100
AcDbEntity
  8
0
100
AcDbLine
 62
7
  6
CONTINUOUS
 10
445.1222932764
 20
197.7519195332
 11
445.1222932764
 21
305.0519195332
  0
LINE
  5
315
100
AcDbEntity
  8
0
100
AcDbLine
 62
7
  6
CONTINUOUS
 10
571.974189957
 20
178.2000228526
 11
464.674189957
 21
178.2000228526
  0
LINE
  5
316
100
AcDbEntity
  8
0
100
AcDbLine
 62
7
  6
CONTINUOUS
 10
453.9855630535
 20
197.7519195332
 11
453.9855630535
 21
305.0519195332
  0
LINE
  5
317
100
AcDbEntity
  8
0
100
AcDbLine
 62
7
  6
CONTINUOUS
 10
454.4355528621
 20
305.0519195332
 11
454.4355528621
 21
197.7519195332
  0
LINE
  5
318
100
AcDbEntity
  8
0
100
AcDbLine
 62
7
  6
CONTINUOUS
 10
571.974189957
 20
187.0632926297
 11
464.674189957
 21
187.0632926297
  0
LINE
  5
319
100
AcDbEntity
  8
0
100
AcDbLine
 62
7
  6
CONTINUOUS
 10
464.674189957
 20
187.5132824383
 11
571.974189957
 21
187.5132824383
  0
LINE
  5
31A
100
AcDbEntity
  8
03___PRT_ALL_CURVES
100
AcDbLine
 62
40
  6
CONTINUOUS
 10
508.6269543041
 20
159.0560733465
 11
509.3724063644
 21
157.9908244667
  0
LINE
  5
31B
100
AcDbEntity
  8
03___PRT_ALL_CURVES
100
AcDbLine
 62
40
  6
CONTINUOUS
 10
508.8938922133
 20
158.9315199697
 11
509.6528731287
 21
157.8469383943
  0
LINE
  5
31C
100
AcDbEntity
  8
03___PRT_ALL_CURVES
100
AcDbLine
 62
40
  6
CONTINUOUS
 10
508.9788731287
 20
157.8469383943
 11
508.375253192
 21
158.7098621997
  0
LINE
  5
31D
100
AcDbEntity
  8
03___PRT_ALL_CURVES
100
AcDbLine
 62
40
  6
CONTINUOUS
 10
509.056109031
 20
157.9908244667
 11
508.3209163216
 21
159.0418422544
  0
LINE
  5
31E
100
AcDbEntity
  8
0
100
AcDbLine
 62
7
  6
CONTINUOUS
 10
462.3140148862
 20
305.0519195332
 11
462.3140148862
 21
197.7519195332
  0
LINE
  5
31F
100
AcDbEntity
  8
0
100
AcDbLine
 62
7
  6
CONTINUOUS
 10
464.674189957
 20
324.6038162138
 11
464.674189957
 21
307.412094604
  0
LINE
  5
320
100
AcDbEntity
  8
0
100
AcDbLine
 62
7
  6
CONTINUOUS
 10
464.674189957
 20
178.2000228526
 11
464.674189957
 21
195.3917444623
  0
LINE
  5
321
100
AcDbEntity
  8
0
100
AcDbLine
 62
7
  6
CONTINUOUS
 10
464.674189957
 20
195.3917444623
 11
571.974189957
 21
195.3917444623
  0
LINE
  5
322
100
AcDbEntity
  8
0
100
AcDbLine
 62
7
  6
CONTINUOUS
 10
591.5260866376
 20
197.7519195332
 11
574.3343650278
 21
197.7519195332
  0
LINE
  5
323
100
AcDbEntity
  8
0
100
AcDbLine
 62
7
  6
CONTINUOUS
 10
445.1222932764
 20
197.7519195332
 11
462.3140148862
 21
197.7519195332
  0
LINE
  5
324
100
AcDbEntity
  8
03___PRT_ALL_CURVES
100
AcDbLine
 62
40
  6
CONTINUOUS
 10
520.0174020866
 20
160.4709383943
 11
521.4746668411
 21
158.2933211758
  0
LINE
  5
325
100
AcDbEntity
  8
03___PRT_ALL_CURVES
100
AcDbLine
 62
40
  6
CONTINUOUS
 10
520.0944077714
 20
160.6164195332
 11
521.3264077714
 21
158.7754195332
  0
LINE
  5
326
100
AcDbEntity
  8
03___PRT_ALL_CURVES
100
AcDbLine
 62
40
  6
CONTINUOUS
 10
521.3274077714
 20
157.8424195332
 11
520.0944077714
 21
159.6854195332
  0
LINE
  5
327
100
AcDbEntity
  8
03___PRT_ALL_CURVES
100
AcDbLine
 62
40
  6
CONTINUOUS
 10
521.4070516885
 20
157.9898244667
 11
519.9488180989
 21
160.1694874884
  0
LINE
  5
328
100
AcDbEntity
  8
03___PRT_ALL_CURVES
100
AcDbLine
 62
40
  6
CONTINUOUS
 10
526.2114677842
 20
160.4719383943
 11
527.6697448008
 21
158.297554947
  0
LINE
  5
329
100
AcDbEntity
  8
03___PRT_ALL_CURVES
100
AcDbLine
 62
40
  6
CONTINUOUS
 10
526.2884077714
 20
160.6184195332
 11
527.5214077714
 21
158.7799383943
  0
LINE
  5
32A
100
AcDbEntity
  8
03___PRT_ALL_CURVES
100
AcDbLine
 62
40
  6
CONTINUOUS
 10
527.5214077714
 20
157.8469383943
 11
526.2884077714
 21
159.6899383943
  0
LINE
  5
32B
100
AcDbEntity
  8
03___PRT_ALL_CURVES
100
AcDbLine
 62
40
  6
CONTINUOUS
 10
527.6011173861
 20
157.9908244667
 11
526.1428837965
 21
160.1704874884
  0
LINE
  5
32C
100
AcDbEntity
  8
03___PRT_ALL_CURVES
100
AcDbLine
 62
40
  6
CONTINUOUS
 10
518.4287815738
 20
153.4759195332
 11
517.9017815738
 21
154.5069195332
  0
LINE
  5
32D
100
AcDbEntity
  8
03___PRT_ALL_CURVES
100
AcDbLine
 62
40
  6
CONTINUOUS
 10
517.9647815738
 20
154.8399195332
 11
518.4897815738
 21
153.8089195332
  0
LINE
  5
32E
100
AcDbEntity
  8
03___PRT_ALL_CURVES
100
AcDbLine
 62
40
  6
CONTINUOUS
 10
521.8379785132
 20
153.4759195332
 11
521.6136263108
 21
154.0229195332
  0
LINE
  5
32F
100
AcDbEntity
  8
03___PRT_ALL_CURVES
100
AcDbLine
 62
40
  6
CONTINUOUS
 10
513.296576432
 20
154.8399195332
 11
513.8330848435
 21
153.4759195332
  0
LINE
  5
330
100
AcDbEntity
  8
03___PRT_ALL_CURVES
100
AcDbLine
 62
40
  6
CONTINUOUS
 10
512.1622146178
 20
157.8469383943
 11
511.9440417649
 21
158.4019383943
  0
LINE
  5
331
100
AcDbEntity
  8
03___PRT_ALL_CURVES
100
AcDbLine
 62
40
  6
CONTINUOUS
 10
512.2616589116
 20
157.9908244667
 11
512.0434860586
 21
158.5458244667
  0
LINE
  5
332
100
AcDbEntity
  8
03___PRT_ALL_CURVES
100
AcDbLine
 62
40
  6
CONTINUOUS
 10
511.5332475016
 20
159.046458379
 11
511.3847770897
 21
159.4244748786
  0
LINE
  5
333
100
AcDbEntity
  8
03___PRT_ALL_CURVES
100
AcDbLine
 62
40
  6
CONTINUOUS
 10
511.7472582118
 20
158.9009383943
 11
511.3845815107
 21
159.824339733
  0
LINE
  5
334
100
AcDbEntity
  8
03___PRT_ALL_CURVES
100
AcDbLine
 62
40
  6
CONTINUOUS
 10
511.5655104955
 20
160.4719383943
 11
512.5394191882
 21
157.9908244667
  0
LINE
  5
335
100
AcDbEntity
  8
03___PRT_ALL_CURVES
100
AcDbLine
 62
40
  6
CONTINUOUS
 10
511.6653284297
 20
160.6184195332
 11
512.7532146178
 21
157.8469383943
  0
LINE
  5
336
100
AcDbEntity
  8
03___PRT_ALL_CURVES
100
AcDbLine
 62
40
  6
CONTINUOUS
 10
513.5410848435
 20
153.4759195332
 11
513.422515924
 21
153.7919195332
  0
LINE
  5
337
100
AcDbEntity
  8
03___PRT_ALL_CURVES
100
AcDbLine
 62
40
  6
CONTINUOUS
 10
513.3547823474
 20
153.9949195332
 11
513.1506500039
 21
154.5759195332
  0
LINE
  5
338
100
AcDbEntity
  8
03___PRT_ALL_CURVES
100
AcDbLine
 62
40
  6
CONTINUOUS
 10
514.478049855
 20
157.8469383943
 11
513.8676848238
 21
159.6483205075
  0
LINE
  5
339
100
AcDbEntity
  8
03___PRT_ALL_CURVES
100
AcDbLine
 62
40
  6
CONTINUOUS
 10
514.5830351694
 20
157.9908244667
 11
513.817945338
 21
160.2488488731
  0
LINE
  5
33A
100
AcDbEntity
  8
03___PRT_ALL_CURVES
100
AcDbLine
 62
40
  6
CONTINUOUS
 10
511.0453091341
 20
154.4889195332
 11
511.3807191774
 21
153.4759195332
  0
LINE
  5
33B
100
AcDbEntity
  8
03___PRT_ALL_CURVES
100
AcDbLine
 62
40
  6
CONTINUOUS
 10
511.1735983402
 20
154.8399195332
 11
511.5006245207
 21
153.7959195332
  0
LINE
  5
33C
100
AcDbEntity
  8
0
100
AcDbLine
 62
7
  6
CONTINUOUS
 10
495.824189957
 20
269.4019195332
 11
495.824189957
 21
233.4019195332
  0
LINE
  5
33D
100
AcDbEntity
  8
0
100
AcDbLine
 62
7
  6
CONTINUOUS
 10
500.324189957
 20
228.9019195332
 11
536.324189957
 21
228.9019195332
  0
LINE
  5
33E
100
AcDbEntity
  8
03___PRT_ALL_CURVES
100
AcDbLine
 62
40
  6
CONTINUOUS
 10
522.7302731624
 20
154.8399195332
 11
523.2667815738
 21
153.4759195332
  0
LINE
  5
33F
100
AcDbEntity
  8
03___PRT_ALL_CURVES
100
AcDbLine
 62
40
  6
CONTINUOUS
 10
529.950439121
 20
159.046458379
 11
529.8020791059
 21
159.4243100812
  0
LINE
  5
340
100
AcDbEntity
  8
03___PRT_ALL_CURVES
100
AcDbLine
 62
40
  6
CONTINUOUS
 10
530.1644077714
 20
158.8984195332
 11
529.8020007423
 21
159.8214183124
  0
LINE
  5
341
100
AcDbEntity
  8
03___PRT_ALL_CURVES
100
AcDbLine
 62
40
  6
CONTINUOUS
 10
530.580689957
 20
157.8434195332
 11
530.3629419646
 21
158.3984195332
  0
LINE
  5
342
100
AcDbEntity
  8
03___PRT_ALL_CURVES
100
AcDbLine
 62
40
  6
CONTINUOUS
 10
530.6799245088
 20
157.9898244667
 11
530.4621765164
 21
158.5448244667
  0
LINE
  5
343
100
AcDbEntity
  8
03___PRT_ALL_CURVES
100
AcDbLine
 62
40
  6
CONTINUOUS
 10
529.9852684402
 20
160.4719383943
 11
530.9576847854
 21
157.9898244667
  0
LINE
  5
344
100
AcDbEntity
  8
03___PRT_ALL_CURVES
100
AcDbLine
 62
40
  6
CONTINUOUS
 10
530.0849215731
 20
160.6174195332
 11
531.171689957
 21
157.8434195332
  0
LINE
  5
345
100
AcDbEntity
  8
03___PRT_ALL_CURVES
100
AcDbLine
 62
40
  6
CONTINUOUS
 10
521.3497815738
 20
153.9099195332
 11
521.5169785132
 21
153.4759195332
  0
LINE
  5
346
100
AcDbEntity
  8
03___PRT_ALL_CURVES
100
AcDbLine
 62
40
  6
CONTINUOUS
 10
522.9747815738
 20
153.4759195332
 11
522.8562126543
 21
153.7919195332
  0
LINE
  5
347
100
AcDbEntity
  8
03___PRT_ALL_CURVES
100
AcDbLine
 62
40
  6
CONTINUOUS
 10
522.7870691537
 20
153.9949195332
 11
522.5829368102
 21
154.5759195332
  0
LINE
  5
348
100
AcDbEntity
  8
03___PRT_ALL_CURVES
100
AcDbLine
 62
40
  6
CONTINUOUS
 10
513.9361776963
 20
160.4719383943
 11
514.6526996594
 21
158.3492113145
  0
LINE
  5
349
100
AcDbEntity
  8
03___PRT_ALL_CURVES
100
AcDbLine
 62
40
  6
CONTINUOUS
 10
514.0432108133
 20
160.6209383943
 11
514.6528222315
 21
158.8149383943
  0
LINE
  5
34A
100
AcDbEntity
  8
03___PRT_ALL_CURVES
100
AcDbLine
 62
40
  6
CONTINUOUS
 10
508.2274926361
 20
159.0418422544
 11
508.228024604
 21
157.9908244667
  0
LINE
  5
34B
100
AcDbEntity
  8
0
100
AcDbLine
 62
7
  6
CONTINUOUS
 10
496.824189957
 20
269.4019195332
 11
496.824189957
 21
233.4019195332
  0
LINE
  5
34C
100
AcDbEntity
  8
0
100
AcDbLine
 62
7
  6
CONTINUOUS
 10
500.324189957
 20
229.9019195332
 11
500.324189957
 21
228.9019195332
  0
LINE
  5
34D
100
AcDbEntity
  8
0
100
AcDbLine
 62
7
  6
CONTINUOUS
 10
500.324189957
 20
272.9019195332
 11
500.3241899589
 21
273.9019195332
  0
LINE
  5
34E
100
AcDbEntity
  8
03___PRT_ALL_CURVES
100
AcDbLine
 62
40
  6
CONTINUOUS
 10
502.9733205389
 20
157.0409195332
 11
502.9733205389
 21
161.4269195332
  0
LINE
  5
34F
100
AcDbEntity
  8
03___PRT_ALL_CURVES
100
AcDbLine
 62
40
  6
CONTINUOUS
 10
503.1228205389
 20
157.0409195332
 11
503.1228205389
 21
161.4269195332
  0
LINE
  5
350
100
AcDbEntity
  8
03___PRT_ALL_CURVES
100
AcDbLine
 62
40
  6
CONTINUOUS
 10
505.476689957
 20
160.1144195332
 11
505.476689957
 21
160.6164195332
  0
LINE
  5
351
100
AcDbEntity
  8
03___PRT_ALL_CURVES
100
AcDbLine
 62
40
  6
CONTINUOUS
 10
505.624557407
 20
160.2608244667
 11
505.624557407
 21
160.4709383943
  0
LINE
  5
352
100
AcDbEntity
  8
03___PRT_ALL_CURVES
100
AcDbLine
 62
40
  6
CONTINUOUS
 10
506.126689957
 20
157.8444195332
 11
506.126689957
 21
160.1144195332
  0
LINE
  5
353
100
AcDbEntity
  8
03___PRT_ALL_CURVES
100
AcDbLine
 62
40
  6
CONTINUOUS
 10
506.274557407
 20
157.9908244667
 11
506.274557407
 21
160.2608244667
  0
LINE
  5
354
100
AcDbEntity
  8
03___PRT_ALL_CURVES
100
AcDbLine
 62
40
  6
CONTINUOUS
 10
506.587557407
 20
160.2608244667
 11
506.587557407
 21
157.9908244667
  0
LINE
  5
355
100
AcDbEntity
  8
03___PRT_ALL_CURVES
100
AcDbLine
 62
40
  6
CONTINUOUS
 10
506.733689957
 20
160.1144195332
 11
506.733689957
 21
157.8444195332
  0
LINE
  5
356
100
AcDbEntity
  8
03___PRT_ALL_CURVES
100
AcDbLine
 62
40
  6
CONTINUOUS
 10
507.237557407
 20
160.4709383943
 11
507.237557407
 21
160.2608244667
  0
LINE
  5
357
100
AcDbEntity
  8
03___PRT_ALL_CURVES
100
AcDbLine
 62
40
  6
CONTINUOUS
 10
507.383689957
 20
160.6164195332
 11
507.383689957
 21
160.1144195332
  0
LINE
  5
358
100
AcDbEntity
  8
03___PRT_ALL_CURVES
100
AcDbLine
 62
40
  6
CONTINUOUS
 10
507.768689957
 20
157.8469383943
 11
507.768689957
 21
160.6199383943
  0
LINE
  5
359
100
AcDbEntity
  8
03___PRT_ALL_CURVES
100
AcDbLine
 62
40
  6
CONTINUOUS
 10
507.9146585273
 20
157.9908244667
 11
507.9146585273
 21
160.4719383943
  0
LINE
  5
35A
100
AcDbEntity
  8
0
100
AcDbLine
 62
7
  6
CONTINUOUS
 10
500.324189957
 20
229.9019195332
 11
536.324189957
 21
229.9019195332
  0
LINE
  5
35B
100
AcDbEntity
  8
0
100
AcDbLine
 62
7
  6
CONTINUOUS
 10
496.824189957
 20
233.4019195332
 11
495.824189957
 21
233.401919535
  0
LINE
  5
35C
100
AcDbEntity
  8
0
100
AcDbLine
 62
7
  6
CONTINUOUS
 10
539.824189957
 20
233.4019195332
 11
540.824189957
 21
233.4019195332
  0
LINE
  5
35D
100
AcDbEntity
  8
03___PRT_ALL_CURVES
100
AcDbLine
 62
40
  6
CONTINUOUS
 10
515.7470917906
 20
160.4719383943
 11
516.1532119205
 21
157.9908244667
  0
LINE
  5
35E
100
AcDbEntity
  8
03___PRT_ALL_CURVES
100
AcDbLine
 62
40
  6
CONTINUOUS
 10
515.8703467032
 20
160.6209383943
 11
516.3244077714
 21
157.8469383943
  0
LINE
  5
35F
100
AcDbEntity
  8
03___PRT_ALL_CURVES
100
AcDbLine
 62
40
  6
CONTINUOUS
 10
515.7314077714
 20
157.8469383943
 11
515.4391699359
 21
159.6419383943
  0
LINE
  5
360
100
AcDbEntity
  8
03___PRT_ALL_CURVES
100
AcDbLine
 62
40
  6
CONTINUOUS
 10
515.8554973727
 20
157.9908244667
 11
515.4888500454
 21
160.242866716
  0
LINE
  5
361
100
AcDbEntity
  8
03___PRT_ALL_CURVES
100
AcDbLine
 62
40
  6
CONTINUOUS
 10
508.375253192
 20
158.7098621997
 11
508.375689957
 21
157.8469383943
  0
LINE
  5
362
100
AcDbEntity
  8
03___PRT_ALL_CURVES
100
AcDbLine
 62
40
  6
CONTINUOUS
 10
508.2265624873
 20
160.2009383943
 11
508.2265624873
 21
159.401974079
  0
LINE
  5
363
100
AcDbEntity
  8
03___PRT_ALL_CURVES
100
AcDbLine
 62
40
  6
CONTINUOUS
 10
508.3727674873
 20
160.054535729
 11
508.3727674873
 21
159.548179079
  0
LINE
  5
364
100
AcDbEntity
  8
03___PRT_ALL_CURVES
100
AcDbLine
 62
40
  6
CONTINUOUS
 10
510.7425983402
 20
153.4759195332
 11
510.7425983402
 21
154.8399195332
  0
LINE
  5
365
100
AcDbEntity
  8
03___PRT_ALL_CURVES
100
AcDbLine
 62
40
  6
CONTINUOUS
 10
510.9945983402
 20
154.4889195332
 11
510.9945983402
 21
153.4759195332
  0
LINE
  5
366
100
AcDbEntity
  8
03___PRT_ALL_CURVES
100
AcDbLine
 62
40
  6
CONTINUOUS
 10
512.0205983402
 20
153.4759195332
 11
512.0205983402
 21
154.4889195332
  0
LINE
  5
367
100
AcDbEntity
  8
03___PRT_ALL_CURVES
100
AcDbLine
 62
40
  6
CONTINUOUS
 10
512.2725983402
 20
154.8399195332
 11
512.2725983402
 21
153.4759195332
  0
LINE
  5
368
100
AcDbEntity
  8
03___PRT_ALL_CURVES
100
AcDbLine
 62
40
  6
CONTINUOUS
 10
514.0163488245
 20
154.8659195332
 11
514.0163488245
 21
153.4759195332
  0
LINE
  5
369
100
AcDbEntity
  8
03___PRT_ALL_CURVES
100
AcDbLine
 62
40
  6
CONTINUOUS
 10
514.3053488245
 20
153.6669195332
 11
514.3053488245
 21
154.6369195332
  0
LINE
  5
36A
100
AcDbEntity
  8
03___PRT_ALL_CURVES
100
AcDbLine
 62
40
  6
CONTINUOUS
 10
515.4533488245
 20
153.4759195332
 11
515.4533488245
 21
154.8399195332
  0
LINE
  5
36B
100
AcDbEntity
  8
03___PRT_ALL_CURVES
100
AcDbLine
 62
40
  6
CONTINUOUS
 10
515.7173488245
 20
154.0519195332
 11
515.7173488245
 21
153.6789195332
  0
LINE
  5
36C
100
AcDbEntity
  8
03___PRT_ALL_CURVES
100
AcDbLine
 62
40
  6
CONTINUOUS
 10
515.7173488245
 20
154.6369195332
 11
515.7173488245
 21
154.2549195332
  0
LINE
  5
36D
100
AcDbEntity
  8
03___PRT_ALL_CURVES
100
AcDbLine
 62
40
  6
CONTINUOUS
 10
516.2083488245
 20
154.2549195332
 11
516.2083488245
 21
154.0519195332
  0
LINE
  5
36E
100
AcDbEntity
  8
03___PRT_ALL_CURVES
100
AcDbLine
 62
40
  6
CONTINUOUS
 10
516.2543488245
 20
154.8399195332
 11
516.2543488245
 21
154.6369195332
  0
LINE
  5
36F
100
AcDbEntity
  8
03___PRT_ALL_CURVES
100
AcDbLine
 62
40
  6
CONTINUOUS
 10
516.2573488245
 20
153.6789195332
 11
516.2573488245
 21
153.4759195332
  0
LINE
  5
370
100
AcDbEntity
  8
03___PRT_ALL_CURVES
100
AcDbLine
 62
40
  6
CONTINUOUS
 10
517.0762430295
 20
153.4759195332
 11
517.0762430295
 21
154.8399195332
  0
LINE
  5
371
100
AcDbEntity
  8
03___PRT_ALL_CURVES
100
AcDbLine
 62
40
  6
CONTINUOUS
 10
517.3402430295
 20
154.8399195332
 11
517.3402430295
 21
153.4759195332
  0
LINE
  5
372
100
AcDbEntity
  8
03___PRT_ALL_CURVES
100
AcDbLine
 62
40
  6
CONTINUOUS
 10
517.6357815738
 20
153.4759195332
 11
517.6357815738
 21
154.8399195332
  0
LINE
  5
373
100
AcDbEntity
  8
03___PRT_ALL_CURVES
100
AcDbLine
 62
40
  6
CONTINUOUS
 10
517.8877815738
 20
154.5069195332
 11
517.8877815738
 21
153.4759195332
  0
LINE
  5
374
100
AcDbEntity
  8
03___PRT_ALL_CURVES
100
AcDbLine
 62
40
  6
CONTINUOUS
 10
518.5037815738
 20
153.8089195332
 11
518.5037815738
 21
154.8399195332
  0
LINE
  5
375
100
AcDbEntity
  8
03___PRT_ALL_CURVES
100
AcDbLine
 62
40
  6
CONTINUOUS
 10
518.7557815738
 20
154.8399195332
 11
518.7557815738
 21
153.4759195332
  0
LINE
  5
376
100
AcDbEntity
  8
03___PRT_ALL_CURVES
100
AcDbLine
 62
40
  6
CONTINUOUS
 10
519.4864077714
 20
157.8424195332
 11
519.4864077714
 21
160.6164195332
  0
LINE
  5
377
100
AcDbEntity
  8
03___PRT_ALL_CURVES
100
AcDbLine
 62
40
  6
CONTINUOUS
 10
519.6107815738
 20
154.8659195332
 11
519.6107815738
 21
153.4759195332
  0
LINE
  5
378
100
AcDbEntity
  8
03___PRT_ALL_CURVES
100
AcDbLine
 62
40
  6
CONTINUOUS
 10
519.6348058368
 20
157.9898244667
 11
519.6348058368
 21
160.4709383943
  0
LINE
  5
379
100
AcDbEntity
  8
03___PRT_ALL_CURVES
100
AcDbLine
 62
40
  6
CONTINUOUS
 10
519.8997815738
 20
153.6669195332
 11
519.8997815738
 21
154.0519195332
  0
LINE
  5
37A
100
AcDbEntity
  8
03___PRT_ALL_CURVES
100
AcDbLine
 62
40
  6
CONTINUOUS
 10
519.8997815738
 20
154.3109195332
 11
519.8997815738
 21
154.6369195332
  0
LINE
  5
37B
100
AcDbEntity
  8
03___PRT_ALL_CURVES
100
AcDbLine
 62
40
  6
CONTINUOUS
 10
519.9488180989
 20
160.1694874884
 11
519.9488180989
 21
157.9898244667
  0
LINE
  5
37C
100
AcDbEntity
  8
03___PRT_ALL_CURVES
100
AcDbLine
 62
40
  6
CONTINUOUS
 10
520.0944077714
 20
159.6854195332
 11
520.0944077714
 21
157.8424195332
  0
LINE
  5
37D
100
AcDbEntity
  8
03___PRT_ALL_CURVES
100
AcDbLine
 62
40
  6
CONTINUOUS
 10
520.7937815738
 20
154.8659195332
 11
520.7937815738
 21
153.4759195332
  0
LINE
  5
37E
100
AcDbEntity
  8
03___PRT_ALL_CURVES
100
AcDbLine
 62
40
  6
CONTINUOUS
 10
521.0827815738
 20
153.4759195332
 11
521.0827815738
 21
154.0479195332
  0
LINE
  5
37F
100
AcDbEntity
  8
03___PRT_ALL_CURVES
100
AcDbLine
 62
40
  6
CONTINUOUS
 10
521.0827815738
 20
154.2789195332
 11
521.0827815738
 21
154.6369195332
  0
LINE
  5
380
100
AcDbEntity
  8
03___PRT_ALL_CURVES
100
AcDbLine
 62
40
  6
CONTINUOUS
 10
521.3264077714
 20
158.7754195332
 11
521.3264077714
 21
160.6164195332
  0
LINE
  5
381
100
AcDbEntity
  8
03___PRT_ALL_CURVES
100
AcDbLine
 62
40
  6
CONTINUOUS
 10
521.4746668411
 20
158.2933211758
 11
521.4746668411
 21
160.4709383943
  0
LINE
  5
382
100
AcDbEntity
  8
03___PRT_ALL_CURVES
100
AcDbLine
 62
40
  6
CONTINUOUS
 10
521.7886791032
 20
160.4709383943
 11
521.7886791032
 21
157.9898244667
  0
LINE
  5
383
100
AcDbEntity
  8
03___PRT_ALL_CURVES
100
AcDbLine
 62
40
  6
CONTINUOUS
 10
521.9344077714
 20
160.6164195332
 11
521.9344077714
 21
157.8424195332
  0
LINE
  5
384
100
AcDbEntity
  8
03___PRT_ALL_CURVES
100
AcDbLine
 62
40
  6
CONTINUOUS
 10
522.3194077714
 20
160.1164195332
 11
522.3194077714
 21
160.6184195332
  0
LINE
  5
385
100
AcDbEntity
  8
03___PRT_ALL_CURVES
100
AcDbLine
 62
40
  6
CONTINUOUS
 10
522.4678114081
 20
160.2628244667
 11
522.4678114081
 21
160.4719383943
  0
LINE
  5
386
100
AcDbEntity
  8
03___PRT_ALL_CURVES
100
AcDbLine
 62
40
  6
CONTINUOUS
 10
522.9694077714
 20
157.8444195332
 11
522.9694077714
 21
160.1164195332
  0
LINE
  5
387
100
AcDbEntity
  8
03___PRT_ALL_CURVES
100
AcDbLine
 62
40
  6
CONTINUOUS
 10
523.1178114081
 20
157.9908244667
 11
523.1178114081
 21
160.2628244667
  0
LINE
  5
388
100
AcDbEntity
  8
03___PRT_ALL_CURVES
100
AcDbLine
 62
40
  6
CONTINUOUS
 10
523.3727815738
 20
153.4759195332
 11
523.3727815738
 21
153.6919195332
  0
LINE
  5
389
100
AcDbEntity
  8
03___PRT_ALL_CURVES
100
AcDbLine
 62
40
  6
CONTINUOUS
 10
523.3977815738
 20
154.6369195332
 11
523.3977815738
 21
154.8399195332
  0
LINE
  5
38A
100
AcDbEntity
  8
03___PRT_ALL_CURVES
100
AcDbLine
 62
40
  6
CONTINUOUS
 10
523.4311774848
 20
160.2628244667
 11
523.4311774848
 21
157.9908244667
  0
LINE
  5
38B
100
AcDbEntity
  8
03___PRT_ALL_CURVES
100
AcDbLine
 62
40
  6
CONTINUOUS
 10
523.5764077714
 20
160.1164195332
 11
523.5764077714
 21
157.8444195332
  0
LINE
  5
38C
100
AcDbEntity
  8
03___PRT_ALL_CURVES
100
AcDbLine
 62
40
  6
CONTINUOUS
 10
524.0811774848
 20
160.4719383943
 11
524.0811774848
 21
160.2628244667
  0
LINE
  5
38D
100
AcDbEntity
  8
03___PRT_ALL_CURVES
100
AcDbLine
 62
40
  6
CONTINUOUS
 10
524.2264077714
 20
160.6184195332
 11
524.2264077714
 21
160.1164195332
  0
LINE
  5
38E
100
AcDbEntity
  8
03___PRT_ALL_CURVES
100
AcDbLine
 62
40
  6
CONTINUOUS
 10
524.2997815738
 20
154.8399195332
 11
524.2997815738
 21
154.6239195332
  0
LINE
  5
38F
100
AcDbEntity
  8
03___PRT_ALL_CURVES
100
AcDbLine
 62
40
  6
CONTINUOUS
 10
524.3137815738
 20
153.6789195332
 11
524.3137815738
 21
153.4759195332
  0
LINE
  5
390
100
AcDbEntity
  8
03___PRT_ALL_CURVES
100
AcDbLine
 62
40
  6
CONTINUOUS
 10
524.5347815738
 20
153.4759195332
 11
524.5347815738
 21
154.8399195332
  0
LINE
  5
391
100
AcDbEntity
  8
03___PRT_ALL_CURVES
100
AcDbLine
 62
40
  6
CONTINUOUS
 10
524.6114077714
 20
157.8444195332
 11
524.6114077714
 21
160.6184195332
  0
LINE
  5
392
100
AcDbEntity
  8
03___PRT_ALL_CURVES
100
AcDbLine
 62
40
  6
CONTINUOUS
 10
524.7589991581
 20
157.9908244667
 11
524.7589991581
 21
160.4719383943
  0
LINE
  5
393
100
AcDbEntity
  8
03___PRT_ALL_CURVES
100
AcDbLine
 62
40
  6
CONTINUOUS
 10
524.7987815738
 20
154.8399195332
 11
524.7987815738
 21
153.4759195332
  0
LINE
  5
394
100
AcDbEntity
  8
03___PRT_ALL_CURVES
100
AcDbLine
 62
40
  6
CONTINUOUS
 10
525.0723652348
 20
160.4719383943
 11
525.0723652348
 21
157.9908244667
  0
LINE
  5
395
100
AcDbEntity
  8
03___PRT_ALL_CURVES
100
AcDbLine
 62
40
  6
CONTINUOUS
 10
525.1087815738
 20
153.4759195332
 11
525.1087815738
 21
154.8399195332
  0
LINE
  5
396
100
AcDbEntity
  8
03___PRT_ALL_CURVES
100
AcDbLine
 62
40
  6
CONTINUOUS
 10
525.2184077714
 20
160.6184195332
 11
525.2184077714
 21
157.8444195332
  0
LINE
  5
397
100
AcDbEntity
  8
03___PRT_ALL_CURVES
100
AcDbLine
 62
40
  6
CONTINUOUS
 10
525.3727815738
 20
154.8399195332
 11
525.3727815738
 21
153.6789195332
  0
LINE
  5
398
100
AcDbEntity
  8
03___PRT_ALL_CURVES
100
AcDbLine
 62
40
  6
CONTINUOUS
 10
525.6804077714
 20
157.8469383943
 11
525.6804077714
 21
160.6184195332
  0
LINE
  5
399
100
AcDbEntity
  8
03___PRT_ALL_CURVES
100
AcDbLine
 62
40
  6
CONTINUOUS
 10
525.8288715343
 20
157.9908244667
 11
525.8288715343
 21
160.4719383943
  0
LINE
  5
39A
100
AcDbEntity
  8
03___PRT_ALL_CURVES
100
AcDbLine
 62
40
  6
CONTINUOUS
 10
525.9057815738
 20
153.6789195332
 11
525.9057815738
 21
153.4759195332
  0
LINE
  5
39B
100
AcDbEntity
  8
03___PRT_ALL_CURVES
100
AcDbLine
 62
40
  6
CONTINUOUS
 10
526.1428837965
 20
160.1704874884
 11
526.1428837965
 21
157.9908244667
  0
LINE
  5
39C
100
AcDbEntity
  8
03___PRT_ALL_CURVES
100
AcDbLine
 62
40
  6
CONTINUOUS
 10
526.2884077714
 20
159.6899383943
 11
526.2884077714
 21
157.8469383943
  0
LINE
  5
39D
100
AcDbEntity
  8
03___PRT_ALL_CURVES
100
AcDbLine
 62
40
  6
CONTINUOUS
 10
527.5214077714
 20
158.7799383943
 11
527.5214077714
 21
160.6209383943
  0
LINE
  5
39E
100
AcDbEntity
  8
03___PRT_ALL_CURVES
100
AcDbLine
 62
40
  6
CONTINUOUS
 10
527.6697448008
 20
158.297554947
 11
527.6697448008
 21
160.4719383943
  0
LINE
  5
39F
100
AcDbEntity
  8
03___PRT_ALL_CURVES
100
AcDbLine
 62
40
  6
CONTINUOUS
 10
527.9827448008
 20
160.4719383943
 11
527.9827448008
 21
157.9908244667
  0
LINE
  5
3A0
100
AcDbEntity
  8
03___PRT_ALL_CURVES
100
AcDbLine
 62
40
  6
CONTINUOUS
 10
528.1284077714
 20
160.6209383943
 11
528.1284077714
 21
157.8469383943
  0
LINE
  5
3A1
100
AcDbEntity
  8
03___PRT_ALL_CURVES
100
AcDbLine
 62
40
  6
CONTINUOUS
 10
513.817945338
 20
160.2488488731
 11
513.4500004323
 21
157.9908244667
  0
LINE
  5
3A2
100
AcDbEntity
  8
03___PRT_ALL_CURVES
100
AcDbLine
 62
40
  6
CONTINUOUS
 10
513.8676848238
 20
159.6483205075
 11
513.5741497451
 21
157.8469383943
  0
LINE
  5
3A3
100
AcDbEntity
  8
03___PRT_ALL_CURVES
100
AcDbLine
 62
40
  6
CONTINUOUS
 10
512.9811497451
 20
157.8469383943
 11
513.4352108133
 21
160.6209383943
  0
LINE
  5
3A4
100
AcDbEntity
  8
03___PRT_ALL_CURVES
100
AcDbLine
 62
40
  6
CONTINUOUS
 10
513.1522858845
 20
157.9908244667
 11
513.5584060144
 21
160.4719383943
  0
LINE
  5
3A5
100
AcDbEntity
  8
03___PRT_ALL_CURVES
100
AcDbLine
 62
40
  6
CONTINUOUS
 10
533.5278205389
 20
161.4269195332
 11
533.5278205389
 21
157.0409195332
  0
LINE
  5
3A6
100
AcDbEntity
  8
03___PRT_ALL_CURVES
100
AcDbLine
 62
40
  6
CONTINUOUS
 10
533.6773205389
 20
161.4269195332
 11
533.6773205389
 21
157.0409195332
  0
LINE
  5
3A7
100
AcDbEntity
  8
0
100
AcDbLine
 62
7
  6
CONTINUOUS
 10
536.324189957
 20
229.9019195332
 11
536.3241899551
 21
228.9019195332
  0
LINE
  5
3A8
100
AcDbEntity
  8
0
100
AcDbLine
 62
7
  6
CONTINUOUS
 10
536.324189957
 20
272.9019195332
 11
536.324189957
 21
273.9019195332
  0
LINE
  5
3A9
100
AcDbEntity
  8
0
100
AcDbLine
 62
7
  6
CONTINUOUS
 10
539.824189957
 20
233.4019195332
 11
539.824189957
 21
269.4019195332
  0
LINE
  5
3AA
100
AcDbEntity
  8
0
100
AcDbLine
 62
7
  6
CONTINUOUS
 10
540.824189957
 20
233.4019195332
 11
540.824189957
 21
269.4019195332
  0
LINE
  5
3AB
100
AcDbEntity
  8
03___PRT_ALL_CURVES
100
AcDbLine
 62
40
  6
CONTINUOUS
 10
511.513928236
 20
153.7959195332
 11
511.8415983402
 21
154.8399195332
  0
LINE
  5
3AC
100
AcDbEntity
  8
03___PRT_ALL_CURVES
100
AcDbLine
 62
40
  6
CONTINUOUS
 10
511.9688876357
 20
154.4889195332
 11
511.6357191774
 21
153.4759195332
  0
LINE
  5
3AD
100
AcDbEntity
  8
0
100
AcDbLine
 62
7
  6
CONTINUOUS
 10
496.824189957
 20
269.4019195332
 11
495.824189957
 21
269.4019195332
  0
LINE
  5
3AE
100
AcDbEntity
  8
0
100
AcDbLine
 62
7
  6
CONTINUOUS
 10
539.824189957
 20
269.4019195332
 11
540.824189957
 21
269.4019195313
  0
LINE
  5
3AF
100
AcDbEntity
  8
0
100
AcDbLine
 62
7
  6
CONTINUOUS
 10
536.324189957
 20
272.9019195332
 11
500.324189957
 21
272.9019195332
  0
LINE
  5
3B0
100
AcDbEntity
  8
0
100
AcDbLine
 62
7
  6
CONTINUOUS
 10
536.324189957
 20
273.9019195332
 11
500.324189957
 21
273.9019195332
  0
LINE
  5
3B1
100
AcDbEntity
  8
03___PRT_ALL_CURVES
100
AcDbLine
 62
40
  6
CONTINUOUS
 10
514.6528222315
 20
158.8149383943
 11
515.2633467032
 21
160.6209383943
  0
LINE
  5
3B2
100
AcDbEntity
  8
03___PRT_ALL_CURVES
100
AcDbLine
 62
40
  6
CONTINUOUS
 10
514.6526996594
 20
158.3492113145
 11
515.3702948028
 21
160.4719383943
  0
LINE
  5
3B3
100
AcDbEntity
  8
03___PRT_ALL_CURVES
100
AcDbLine
 62
40
  6
CONTINUOUS
 10
515.4888500454
 20
160.242866716
 11
514.7271452695
 21
157.9908244667
  0
LINE
  5
3B4
100
AcDbEntity
  8
03___PRT_ALL_CURVES
100
AcDbLine
 62
40
  6
CONTINUOUS
 10
515.4391699359
 20
159.6419383943
 11
514.832049855
 21
157.8469383943
  0
LINE
  5
3B5
100
AcDbEntity
  8
03___PRT_ALL_CURVES
100
AcDbLine
 62
40
  6
CONTINUOUS
 10
513.1373462886
 20
154.5759195332
 11
512.9335983402
 21
153.9949195332
  0
LINE
  5
3B6
100
AcDbEntity
  8
03___PRT_ALL_CURVES
100
AcDbLine
 62
40
  6
CONTINUOUS
 10
522.569633095
 20
154.5759195332
 11
522.3658851465
 21
153.9949195332
  0
LINE
  5
3B7
100
AcDbEntity
  8
03___PRT_ALL_CURVES
100
AcDbLine
 62
40
  6
CONTINUOUS
 10
512.855515924
 20
153.7919195332
 11
512.7351315487
 21
153.4759195332
  0
LINE
  5
3B8
100
AcDbEntity
  8
03___PRT_ALL_CURVES
100
AcDbLine
 62
40
  6
CONTINUOUS
 10
512.4631315487
 20
153.4759195332
 11
512.994576432
 21
154.8399195332
  0
LINE
  5
3B9
100
AcDbEntity
  8
03___PRT_ALL_CURVES
100
AcDbLine
 62
40
  6
CONTINUOUS
 10
510.016689957
 20
157.8469383943
 11
511.1043284297
 21
160.6184195332
  0
LINE
  5
3BA
100
AcDbEntity
  8
03___PRT_ALL_CURVES
100
AcDbLine
 62
40
  6
CONTINUOUS
 10
510.2300669241
 20
157.9908244667
 11
511.2037538545
 21
160.4719383943
  0
LINE
  5
3BB
100
AcDbEntity
  8
03___PRT_ALL_CURVES
100
AcDbLine
 62
40
  6
CONTINUOUS
 10
511.3845815107
 20
159.824339733
 11
511.0222582118
 21
158.9009383943
  0
LINE
  5
3BC
100
AcDbEntity
  8
03___PRT_ALL_CURVES
100
AcDbLine
 62
40
  6
CONTINUOUS
 10
511.3847770897
 20
159.4244748786
 11
511.2364513516
 21
159.046458379
  0
LINE
  5
3BD
100
AcDbEntity
  8
03___PRT_ALL_CURVES
100
AcDbLine
 62
40
  6
CONTINUOUS
 10
510.7261790086
 20
158.5458244667
 11
510.5078272008
 21
157.9908244667
  0
LINE
  5
3BE
100
AcDbEntity
  8
03___PRT_ALL_CURVES
100
AcDbLine
 62
40
  6
CONTINUOUS
 10
510.8260417649
 20
158.4019383943
 11
510.607689957
 21
157.8469383943
  0
LINE
  5
3BF
100
AcDbEntity
  8
03___PRT_ALL_CURVES
100
AcDbLine
 62
40
  6
CONTINUOUS
 10
522.2892126543
 20
153.7919195332
 11
522.1737808009
 21
153.4889195332
  0
LINE
  5
3C0
100
AcDbEntity
  8
03___PRT_ALL_CURVES
100
AcDbLine
 62
40
  6
CONTINUOUS
 10
521.9018933696
 20
153.4889195332
 11
522.4282731624
 21
154.8399195332
  0
LINE
  5
3C1
100
AcDbEntity
  8
03___PRT_ALL_CURVES
100
AcDbLine
 62
40
  6
CONTINUOUS
 10
528.4354077714
 20
157.8444195332
 11
529.5239215731
 21
160.6174195332
  0
LINE
  5
3C2
100
AcDbEntity
  8
03___PRT_ALL_CURVES
100
AcDbLine
 62
40
  6
CONTINUOUS
 10
528.6495749966
 20
157.9908244667
 11
529.6235117992
 21
160.4719383943
  0
LINE
  5
3C3
100
AcDbEntity
  8
03___PRT_ALL_CURVES
100
AcDbLine
 62
40
  6
CONTINUOUS
 10
529.1448694664
 20
158.5448244667
 11
528.9273352733
 21
157.9908244667
  0
LINE
  5
3C4
100
AcDbEntity
  8
03___PRT_ALL_CURVES
100
AcDbLine
 62
40
  6
CONTINUOUS
 10
529.2449419646
 20
158.3984195332
 11
529.0274077714
 21
157.8444195332
  0
LINE
  5
3C5
100
AcDbEntity
  8
03___PRT_ALL_CURVES
100
AcDbLine
 62
40
  6
CONTINUOUS
 10
529.8020007423
 20
159.8214183124
 11
529.4394077714
 21
158.8984195332
  0
LINE
  5
3C6
100
AcDbEntity
  8
03___PRT_ALL_CURVES
100
AcDbLine
 62
40
  6
CONTINUOUS
 10
529.8020791059
 20
159.4243100812
 11
529.653642971
 21
159.046458379
  0
LINE
  5
3C7
100
AcDbEntity
  8
0
100
AcDbLine
 62
7
  6
CONTINUOUS
 10
571.974189957
 20
324.6038162138
 11
571.974189957
 21
307.412094604
  0
LINE
  5
3C8
100
AcDbEntity
  8
0
100
AcDbLine
 62
7
  6
CONTINUOUS
 10
571.974189957
 20
178.2000228526
 11
571.974189957
 21
195.3917444623
  0
LINE
  5
3C9
100
AcDbEntity
  8
0
100
AcDbLine
 62
7
  6
CONTINUOUS
 10
574.3343650278
 20
197.7519195332
 11
574.3343650278
 21
305.0519195332
  0
LINE
  5
3CA
100
AcDbEntity
  8
03___PRT_ALL_CURVES
100
AcDbLine
 62
40
  6
CONTINUOUS
 10
523.3727815738
 20
153.6919195332
 11
524.0237815738
 21
154.6369195332
  0
LINE
  5
3CB
100
AcDbEntity
  8
0
100
AcDbLine
 62
7
  6
CONTINUOUS
 10
591.5260866376
 20
305.0519195332
 11
574.3343650278
 21
305.0519195332
  0
LINE
  5
3CC
100
AcDbEntity
  8
0
100
AcDbLine
 62
7
  6
CONTINUOUS
 10
445.1222932764
 20
305.0519195332
 11
462.3140148862
 21
305.0519195332
  0
LINE
  5
3CD
100
AcDbEntity
  8
0
100
AcDbLine
 62
7
  6
CONTINUOUS
 10
571.974189957
 20
307.412094604
 11
464.674189957
 21
307.412094604
  0
LINE
  5
3CE
100
AcDbEntity
  8
0
100
AcDbLine
 62
7
  6
CONTINUOUS
 10
582.2128270519
 20
197.7519195332
 11
582.2128270519
 21
305.0519195332
  0
LINE
  5
3CF
100
AcDbEntity
  8
0
100
AcDbLine
 62
7
  6
CONTINUOUS
 10
582.6628168605
 20
305.0519195332
 11
582.6628168605
 21
197.7519195332
  0
LINE
  5
3D0
100
AcDbEntity
  8
03___PRT_ALL_CURVES
100
AcDbLine
 62
40
  6
CONTINUOUS
 10
524.2997815738
 20
154.6239195332
 11
523.6407815738
 21
153.6789195332
  0
LINE
  5
3D1
100
AcDbEntity
  8
0
100
AcDbLine
 62
7
  6
CONTINUOUS
 10
571.974189957
 20
315.2905566281
 11
464.674189957
 21
315.2905566281
  0
LINE
  5
3D2
100
AcDbEntity
  8
0
100
AcDbLine
 62
7
  6
CONTINUOUS
 10
464.674189957
 20
315.7405464367
 11
571.974189957
 21
315.7405464367
  0
LINE
  5
3D3
100
AcDbEntity
  8
0
100
AcDbLine
 62
7
  6
CONTINUOUS
 10
591.5260866376
 20
305.0519195332
 11
591.5260866376
 21
197.7519195332
  0
LINE
  5
3D4
100
AcDbEntity
  8
0
100
AcDbLine
 62
7
  6
CONTINUOUS
 10
464.674189957
 20
324.6038162138
 11
571.974189957
 21
324.6038162138
  0
LINE
  5
3D5
100
AcDbEntity
  8
0
100
AcDbLine
 62
7
  6
CONTINUOUS
 10
617.248689957
 20
142.4774195332
 11
617.2486899296
 21
140.4774195332
  0
LINE
  5
3D6
100
AcDbEntity
  8
0
100
AcDbLine
 62
7
  6
CONTINUOUS
 10
617.248689957
 20
360.3264195332
 11
617.248689957
 21
362.3264195332
  0
LINE
  5
3D7
100
AcDbEntity
  8
0
100
AcDbLine
 62
7
  6
CONTINUOUS
 10
618.324189957
 20
138.5661330955
 11
618.324189957
 21
140.4019195332
  0
LINE
  5
3D8
100
AcDbEntity
  8
0
100
AcDbLine
 62
7
  6
CONTINUOUS
 10
618.324189957
 20
362.4019195332
 11
618.324189957
 21
364.2377059708
  0
LINE
  5
3D9
100
AcDbEntity
  8
0
100
AcDbLine
 62
7
  6
CONTINUOUS
 10
409.399689957
 20
350.3264195332
 11
407.399689957
 21
350.3264195332
  0
LINE
  5
3DA
100
AcDbEntity
  8
0
100
AcDbLine
 62
7
  6
CONTINUOUS
 10
627.248689957
 20
350.3264195332
 11
629.248689957
 21
350.3264195057
  0
LINE
  5
3DB
100
AcDbEntity
  8
0
100
AcDbLine
 62
7
  6
CONTINUOUS
 10
405.4884035194
 20
351.4019195332
 11
407.324189957
 21
351.4019195332
  0
LINE
  5
3DC
100
AcDbEntity
  8
0
100
AcDbLine
 62
7
  6
CONTINUOUS
 10
629.324189957
 20
351.4019195332
 11
631.1599763946
 21
351.4019195332
  0
LINE
  5
3DD
100
AcDbEntity
  8
0
100
AcDbLine
 62
7
  6
CONTINUOUS
 10
627.248689957
 20
152.4774195332
 11
627.248689957
 21
350.3264195332
  0
LINE
  5
3DE
100
AcDbEntity
  8
0
100
AcDbLine
 62
7
  6
CONTINUOUS
 10
629.248689957
 20
152.4774195332
 11
629.248689957
 21
350.3264195332
  0
LINE
  5
3DF
100
AcDbEntity
  8
0
100
AcDbLine
 62
7
  6
CONTINUOUS
 10
629.324189957
 20
351.4019195332
 11
629.324189957
 21
151.4019195332
  0
LINE
  5
3E0
100
AcDbEntity
  8
0
100
AcDbLine
 62
7
  6
CONTINUOUS
 10
630.324189957
 20
351.4019195332
 11
630.324189957
 21
151.4019195332
  0
LINE
  5
3E1
100
AcDbEntity
  8
0
100
AcDbLine
 62
7
  6
CONTINUOUS
 10
631.1599763946
 20
351.4019195332
 11
631.1599763946
 21
151.4019195332
  0
LINE
  5
3E2
100
AcDbEntity
  8
0
100
AcDbLine
 62
7
  6
CONTINUOUS
 10
617.248689957
 20
360.3264195332
 11
419.399689957
 21
360.3264195332
  0
LINE
  5
3E3
100
AcDbEntity
  8
0
100
AcDbLine
 62
7
  6
CONTINUOUS
 10
617.248689957
 20
362.3264195332
 11
419.399689957
 21
362.3264195332
  0
LINE
  5
3E4
100
AcDbEntity
  8
0
100
AcDbLine
 62
7
  6
CONTINUOUS
 10
418.324189957
 20
362.4019195332
 11
618.324189957
 21
362.4019195332
  0
LINE
  5
3E5
100
AcDbEntity
  8
0
100
AcDbLine
 62
7
  6
CONTINUOUS
 10
418.324189957
 20
363.4019195332
 11
618.324189957
 21
363.4019195332
  0
LINE
  5
3E6
100
AcDbEntity
  8
0
100
AcDbLine
 62
7
  6
CONTINUOUS
 10
418.324189957
 20
364.2377059708
 11
618.324189957
 21
364.2377059708
  0
LINE
  5
3E7
100
AcDbEntity
  8
0
100
AcDbLine
 62
7
  6
CONTINUOUS
 10
642.324189957
 20
351.4019195332
 11
642.324189957
 21
151.4019195332
  0
LINE
  5
3E8
100
AcDbEntity
  8
0
100
AcDbLine
 62
7
  6
CONTINUOUS
 10
418.324189957
 20
375.4019195332
 11
618.324189957
 21
375.4019195332
  0
ARC
  5
3E9
100
AcDbEntity
  8
0
100
AcDbCircle
 62
7
  6
CONTINUOUS
 10
444.5777499507
 20
489.3745638821
 40
7.0
100
AcDbArc
 50
183.0
 51
270.0
  0
ARC
  5
3EA
100
AcDbEntity
  8
02___PRT_ALL_AXES
100
AcDbCircle
 62
7
  6
CONTINUOUS
 10
444.5777499507
 20
489.3745638821
 40
7.0
100
AcDbArc
 50
183.0
 51
270.0
  0
ARC
  5
3EB
100
AcDbEntity
  8
0
100
AcDbCircle
 62
7
  6
CONTINUOUS
 10
508.324189957
 20
672.0145638821
 40
10.0
100
AcDbArc
 50
180.0
 51
270.0
  0
ARC
  5
3EC
100
AcDbEntity
  8
0
100
AcDbCircle
 62
7
  6
CONTINUOUS
 10
414.324189957
 20
686.0145638821
 40
5.0
100
AcDbArc
 50
180.0
 51
270.0
  0
ARC
  5
3ED
100
AcDbEntity
  8
0
100
AcDbCircle
 62
7
  6
CONTINUOUS
 10
407.324189957
 20
702.5145638821
 40
2.0
100
AcDbArc
 50
180.0
 51
270.0
  0
ARC
  5
3EE
100
AcDbEntity
  8
0
100
AcDbCircle
 62
7
  6
CONTINUOUS
 10
428.2608994761
 20
653.4243485533
 40
1.9998375605
100
AcDbArc
 50
182.9917031469
 51
267.4965973463
  0
ARC
  5
3EF
100
AcDbEntity
  8
0
100
AcDbCircle
 62
7
  6
CONTINUOUS
 10
404.074189957
 20
706.7645638821
 40
1.25
100
AcDbArc
 50
0.0
 51
90.0
  0
ARC
  5
3F0
100
AcDbEntity
  8
02___PRT_ALL_AXES
100
AcDbCircle
 62
7
  6
CONTINUOUS
 10
592.0706299633
 20
489.3745638821
 40
7.0
100
AcDbArc
 50
270.0
 51
357.0
  0
ARC
  5
3F1
100
AcDbEntity
  8
0
100
AcDbCircle
 62
7
  6
CONTINUOUS
 10
528.324189957
 20
672.0145638821
 40
10.0
100
AcDbArc
 50
270.0
 51
360.0
  0
ARC
  5
3F2
100
AcDbEntity
  8
0
100
AcDbCircle
 62
7
  6
CONTINUOUS
 10
622.324189957
 20
686.0145638821
 40
5.0
100
AcDbArc
 50
270.0
 51
360.0
  0
ARC
  5
3F3
100
AcDbEntity
  8
0
100
AcDbCircle
 62
7
  6
CONTINUOUS
 10
629.324189957
 20
702.5145638821
 40
2.0
100
AcDbArc
 50
270.0
 51
360.0
  0
ARC
  5
3F4
100
AcDbEntity
  8
0
100
AcDbCircle
 62
7
  6
CONTINUOUS
 10
608.3874804389
 20
653.4243485533
 40
1.9998375594
100
AcDbArc
 50
272.5034026535
 51
357.0082968586
  0
ARC
  5
3F5
100
AcDbEntity
  8
0
100
AcDbCircle
 62
7
  6
CONTINUOUS
 10
632.574189957
 20
706.7645638821
 40
1.25
100
AcDbArc
 50
101.2499984886
 51
180.0
  0
ARC
  5
3F6
100
AcDbEntity
  8
0
100
AcDbCircle
 62
7
  6
CONTINUOUS
 10
418.324189957
 20
151.4019195332
 40
24.0
100
AcDbArc
 50
180.0
 51
270.0
  0
ARC
  5
3F7
100
AcDbEntity
  8
0
100
AcDbCircle
 62
7
  6
CONTINUOUS
 10
464.674189957
 20
197.7519195332
 40
19.5518966806
100
AcDbArc
 50
180.0
 51
270.0
  0
ARC
  5
3F8
100
AcDbEntity
  8
0
100
AcDbCircle
 62
7
  6
CONTINUOUS
 10
418.324189957
 20
151.4019195332
 40
12.8357864376
100
AcDbArc
 50
180.0
 51
270.0
  0
ARC
  5
3F9
100
AcDbEntity
  8
0
100
AcDbCircle
 62
7
  6
CONTINUOUS
 10
419.399689957
 20
152.4774195332
 40
12.0
100
AcDbArc
 50
180.0
 51
270.0
  0
ARC
  5
3FA
100
AcDbEntity
  8
0
100
AcDbCircle
 62
7
  6
CONTINUOUS
 10
418.324189957
 20
151.4019195332
 40
12.0
100
AcDbArc
 50
180.0
 51
270.0
  0
ARC
  5
3FB
100
AcDbEntity
  8
0
100
AcDbCircle
 62
7
  6
CONTINUOUS
 10
418.324189957
 20
151.4019195332
 40
11.0
100
AcDbArc
 50
180.0
 51
270.0
  0
ARC
  5
3FC
100
AcDbEntity
  8
0
100
AcDbCircle
 62
7
  6
CONTINUOUS
 10
464.674189957
 20
197.7519195332
 40
10.6886269035
100
AcDbArc
 50
180.0
 51
270.0
  0
ARC
  5
3FD
100
AcDbEntity
  8
0
100
AcDbCircle
 62
7
  6
CONTINUOUS
 10
464.674189957
 20
197.7519195332
 40
10.2386370949
100
AcDbArc
 50
180.0
 51
270.0
  0
ARC
  5
3FE
100
AcDbEntity
  8
0
100
AcDbCircle
 62
7
  6
CONTINUOUS
 10
419.399689957
 20
152.4774195332
 40
10.0
100
AcDbArc
 50
180.0
 51
270.0
  0
ARC
  5
3FF
100
AcDbEntity
  8
0
100
AcDbCircle
 62
7
  6
CONTINUOUS
 10
500.324189957
 20
233.4019195332
 40
4.5
100
AcDbArc
 50
180.0
 51
270.0
  0
ARC
  5
400
100
AcDbEntity
  8
0
100
AcDbCircle
 62
7
  6
CONTINUOUS
 10
500.324189957
 20
233.4019195332
 40
3.5
100
AcDbArc
 50
180.0
 51
270.0
  0
ARC
  5
401
100
AcDbEntity
  8
0
100
AcDbCircle
 62
7
  6
CONTINUOUS
 10
464.674189957
 20
197.7519195332
 40
2.3601750708
100
AcDbArc
 50
180.0
 51
270.0
  0
ARC
  5
402
100
AcDbEntity
  8
03___PRT_ALL_CURVES
100
AcDbCircle
 62
40
  6
CONTINUOUS
 10
503.9483205389
 20
161.4269195332
 40
0.975
100
AcDbArc
 50
90.0
 51
180.0
  0
ARC
  5
403
100
AcDbEntity
  8
03___PRT_ALL_CURVES
100
AcDbCircle
 62
40
  6
CONTINUOUS
 10
503.9483205389
 20
157.0409195332
 40
0.975
100
AcDbArc
 50
180.0
 51
270.0
  0
ARC
  5
404
100
AcDbEntity
  8
03___PRT_ALL_CURVES
100
AcDbCircle
 62
40
  6
CONTINUOUS
 10
508.6887898795
 20
159.7884286288
 40
0.881112602
100
AcDbArc
 50
283.4605929658
 51
338.1536992914
  0
ARC
  5
405
100
AcDbEntity
  8
03___PRT_ALL_CURVES
100
AcDbCircle
 62
40
  6
CONTINUOUS
 10
503.9483205389
 20
161.4269195332
 40
0.8255
100
AcDbArc
 50
90.0
 51
180.0
  0
ARC
  5
406
100
AcDbEntity
  8
03___PRT_ALL_CURVES
100
AcDbCircle
 62
40
  6
CONTINUOUS
 10
503.9483205389
 20
157.0409195332
 40
0.8255
100
AcDbArc
 50
180.0
 51
270.0
  0
ARC
  5
407
100
AcDbEntity
  8
03___PRT_ALL_CURVES
100
AcDbCircle
 62
40
  6
CONTINUOUS
 10
508.6887898795
 20
159.7884286288
 40
0.734961154
100
AcDbArc
 50
265.1737439885
 51
338.209556028
  0
ARC
  5
408
100
AcDbEntity
  8
03___PRT_ALL_CURVES
100
AcDbCircle
 62
40
  6
CONTINUOUS
 10
508.6525383671
 20
159.8146660192
 40
0.3805883817
100
AcDbArc
 50
0.0140774596
 51
83.6823521439
  0
ARC
  5
409
100
AcDbEntity
  8
03___PRT_ALL_CURVES
100
AcDbCircle
 62
40
  6
CONTINUOUS
 10
508.6525383671
 20
159.8146660192
 40
0.2343833817
100
AcDbArc
 50
0.0182583707
 51
83.6823521439
  0
ARC
  5
40A
100
AcDbEntity
  8
0
100
AcDbCircle
 62
7
  6
CONTINUOUS
 10
418.324189957
 20
351.4019195332
 40
24.0
100
AcDbArc
 50
90.0
 51
180.0
  0
ARC
  5
40B
100
AcDbEntity
  8
0
100
AcDbCircle
 62
7
  6
CONTINUOUS
 10
464.674189957
 20
305.0519195332
 40
19.5518966806
100
AcDbArc
 50
90.0
 51
180.0
  0
ARC
  5
40C
100
AcDbEntity
  8
0
100
AcDbCircle
 62
7
  6
CONTINUOUS
 10
418.324189957
 20
351.4019195332
 40
12.8357864376
100
AcDbArc
 50
90.0
 51
180.0
  0
ARC
  5
40D
100
AcDbEntity
  8
0
100
AcDbCircle
 62
7
  6
CONTINUOUS
 10
419.399689957
 20
350.3264195332
 40
12.0
100
AcDbArc
 50
90.0
 51
180.0
  0
ARC
  5
40E
100
AcDbEntity
  8
0
100
AcDbCircle
 62
7
  6
CONTINUOUS
 10
418.324189957
 20
351.4019195332
 40
12.0
100
AcDbArc
 50
90.0
 51
180.0
  0
ARC
  5
40F
100
AcDbEntity
  8
0
100
AcDbCircle
 62
7
  6
CONTINUOUS
 10
418.324189957
 20
351.4019195332
 40
11.0
100
AcDbArc
 50
90.0
 51
180.0
  0
ARC
  5
410
100
AcDbEntity
  8
0
100
AcDbCircle
 62
7
  6
CONTINUOUS
 10
464.674189957
 20
305.0519195332
 40
10.6886269035
100
AcDbArc
 50
90.0
 51
180.0
  0
ARC
  5
411
100
AcDbEntity
  8
0
100
AcDbCircle
 62
7
  6
CONTINUOUS
 10
464.674189957
 20
305.0519195332
 40
10.2386370949
100
AcDbArc
 50
90.0
 51
180.0
  0
ARC
  5
412
100
AcDbEntity
  8
0
100
AcDbCircle
 62
7
  6
CONTINUOUS
 10
419.399689957
 20
350.3264195332
 40
10.0
100
AcDbArc
 50
90.0
 51
180.0
  0
ARC
  5
413
100
AcDbEntity
  8
0
100
AcDbCircle
 62
7
  6
CONTINUOUS
 10
500.324189957
 20
269.4019195332
 40
4.5
100
AcDbArc
 50
90.0
 51
180.0
  0
ARC
  5
414
100
AcDbEntity
  8
0
100
AcDbCircle
 62
7
  6
CONTINUOUS
 10
500.324189957
 20
269.4019195332
 40
3.5
100
AcDbArc
 50
90.0
 51
180.0
  0
ARC
  5
415
100
AcDbEntity
  8
0
100
AcDbCircle
 62
7
  6
CONTINUOUS
 10
464.674189957
 20
305.0519195332
 40
2.3601750708
100
AcDbArc
 50
90.0
 51
180.0
  0
ARC
  5
416
100
AcDbEntity
  8
0
100
AcDbCircle
 62
7
  6
CONTINUOUS
 10
618.324189957
 20
151.4019195332
 40
24.0
100
AcDbArc
 50
270.0
 51
360.0
  0
ARC
  5
417
100
AcDbEntity
  8
0
100
AcDbCircle
 62
7
  6
CONTINUOUS
 10
571.974189957
 20
197.7519195332
 40
19.5518966806
100
AcDbArc
 50
270.0
 51
360.0
  0
ARC
  5
418
100
AcDbEntity
  8
0
100
AcDbCircle
 62
7
  6
CONTINUOUS
 10
618.324189957
 20
151.4019195332
 40
12.8357864376
100
AcDbArc
 50
270.0
 51
360.0
  0
ARC
  5
419
100
AcDbEntity
  8
0
100
AcDbCircle
 62
7
  6
CONTINUOUS
 10
617.248689957
 20
152.4774195332
 40
12.0
100
AcDbArc
 50
270.0
 51
360.0
  0
ARC
  5
41A
100
AcDbEntity
  8
0
100
AcDbCircle
 62
7
  6
CONTINUOUS
 10
618.324189957
 20
151.4019195332
 40
12.0
100
AcDbArc
 50
270.0
 51
360.0
  0
ARC
  5
41B
100
AcDbEntity
  8
0
100
AcDbCircle
 62
7
  6
CONTINUOUS
 10
618.324189957
 20
151.4019195332
 40
11.0
100
AcDbArc
 50
270.0
 51
360.0
  0
ARC
  5
41C
100
AcDbEntity
  8
0
100
AcDbCircle
 62
7
  6
CONTINUOUS
 10
571.974189957
 20
197.7519195332
 40
10.6886269035
100
AcDbArc
 50
270.0
 51
360.0
  0
ARC
  5
41D
100
AcDbEntity
  8
0
100
AcDbCircle
 62
7
  6
CONTINUOUS
 10
571.974189957
 20
197.7519195332
 40
10.2386370949
100
AcDbArc
 50
270.0
 51
360.0
  0
ARC
  5
41E
100
AcDbEntity
  8
0
100
AcDbCircle
 62
7
  6
CONTINUOUS
 10
617.248689957
 20
152.4774195332
 40
10.0
100
AcDbArc
 50
270.0
 51
360.0
  0
ARC
  5
41F
100
AcDbEntity
  8
0
100
AcDbCircle
 62
7
  6
CONTINUOUS
 10
536.324189957
 20
233.4019195332
 40
4.5
100
AcDbArc
 50
270.0
 51
360.0
  0
ARC
  5
420
100
AcDbEntity
  8
0
100
AcDbCircle
 62
7
  6
CONTINUOUS
 10
536.324189957
 20
233.4019195332
 40
3.5
100
AcDbArc
 50
270.0
 51
360.0
  0
ARC
  5
421
100
AcDbEntity
  8
0
100
AcDbCircle
 62
7
  6
CONTINUOUS
 10
571.974189957
 20
197.7519195332
 40
2.3601750708
100
AcDbArc
 50
270.0
 51
360.0
  0
ARC
  5
422
100
AcDbEntity
  8
03___PRT_ALL_CURVES
100
AcDbCircle
 62
40
  6
CONTINUOUS
 10
532.7023205389
 20
161.4269195332
 40
0.975
100
AcDbArc
 50
0.0
 51
90.0
  0
ARC
  5
423
100
AcDbEntity
  8
03___PRT_ALL_CURVES
100
AcDbCircle
 62
40
  6
CONTINUOUS
 10
532.7023205389
 20
157.0409195332
 40
0.975
100
AcDbArc
 50
270.0
 51
360.0
  0
ARC
  5
424
100
AcDbEntity
  8
03___PRT_ALL_CURVES
100
AcDbCircle
 62
40
  6
CONTINUOUS
 10
532.7023205389
 20
157.0409195332
 40
0.8255
100
AcDbArc
 50
270.0
 51
360.0
  0
ARC
  5
425
100
AcDbEntity
  8
03___PRT_ALL_CURVES
100
AcDbCircle
 62
40
  6
CONTINUOUS
 10
532.7023205389
 20
161.4269195332
 40
0.8255
100
AcDbArc
 50
0.0
 51
90.0
  0
ARC
  5
426
100
AcDbEntity
  8
0
100
AcDbCircle
 62
7
  6
CONTINUOUS
 10
618.324189957
 20
351.4019195332
 40
24.0
100
AcDbArc
 50
0.0
 51
90.0
  0
ARC
  5
427
100
AcDbEntity
  8
0
100
AcDbCircle
 62
7
  6
CONTINUOUS
 10
571.974189957
 20
305.0519195332
 40
19.5518966806
100
AcDbArc
 50
0.0
 51
90.0
  0
ARC
  5
428
100
AcDbEntity
  8
0
100
AcDbCircle
 62
7
  6
CONTINUOUS
 10
618.324189957
 20
351.4019195332
 40
12.8357864376
100
AcDbArc
 50
0.0
 51
90.0
  0
ARC
  5
429
100
AcDbEntity
  8
0
100
AcDbCircle
 62
7
  6
CONTINUOUS
 10
617.248689957
 20
350.3264195332
 40
12.0
100
AcDbArc
 50
0.0
 51
90.0
  0
ARC
  5
42A
100
AcDbEntity
  8
0
100
AcDbCircle
 62
7
  6
CONTINUOUS
 10
618.324189957
 20
351.4019195332
 40
12.0
100
AcDbArc
 50
0.0
 51
90.0
  0
ARC
  5
42B
100
AcDbEntity
  8
0
100
AcDbCircle
 62
7
  6
CONTINUOUS
 10
618.324189957
 20
351.4019195332
 40
11.0
100
AcDbArc
 50
0.0
 51
90.0
  0
ARC
  5
42C
100
AcDbEntity
  8
0
100
AcDbCircle
 62
7
  6
CONTINUOUS
 10
571.974189957
 20
305.0519195332
 40
10.6886269035
100
AcDbArc
 50
0.0
 51
90.0
  0
ARC
  5
42D
100
AcDbEntity
  8
0
100
AcDbCircle
 62
7
  6
CONTINUOUS
 10
571.974189957
 20
305.0519195332
 40
10.2386370949
100
AcDbArc
 50
0.0
 51
90.0
  0
ARC
  5
42E
100
AcDbEntity
  8
0
100
AcDbCircle
 62
7
  6
CONTINUOUS
 10
617.248689957
 20
350.3264195332
 40
10.0
100
AcDbArc
 50
0.0
 51
90.0
  0
ARC
  5
42F
100
AcDbEntity
  8
0
100
AcDbCircle
 62
7
  6
CONTINUOUS
 10
536.324189957
 20
269.4019195332
 40
4.5
100
AcDbArc
 50
0.0
 51
90.0
  0
ARC
  5
430
100
AcDbEntity
  8
0
100
AcDbCircle
 62
7
  6
CONTINUOUS
 10
536.324189957
 20
269.4019195332
 40
3.5
100
AcDbArc
 50
0.0
 51
90.0
  0
ARC
  5
431
100
AcDbEntity
  8
0
100
AcDbCircle
 62
7
  6
CONTINUOUS
 10
571.974189957
 20
305.0519195332
 40
2.3601750708
100
AcDbArc
 50
0.0
 51
90.0
  0
LINE
  5
432
100
AcDbEntity
  8
0
100
AcDbLine
 62
7
  6
CONTINUOUS
 10
599.0463549701
 20
681.0145638818
 11
598.0019331496
 21
658.004144155
  0
LINE
  5
433
100
AcDbEntity
  8
0
100
AcDbLine
 62
7
  6
CONTINUOUS
 10
438.6464467644
 20
658.004144155
 11
437.6020249439
 21
681.0145638818
  0
SPLINE
  5
434
100
AcDbEntity
  8
03___PRT_ALL_CURVES
100
AcDbSpline
 62
40
  6
CONTINUOUS
 70
0
 71
3
 72
18
 73
14
 74
0
 42
0.0000001
 43
0.0000001
 44
0.0000000001
 40
0.0
 40
0.0
 40
0.0
 40
0.0
 40
0.0014600816
 40
0.0328212306
 40
0.0641823797
 40
0.1269046778
 40
0.2528516398
 40
0.3791843505
 40
0.5045045939
 40
0.6284614529
 40
0.7519104637
 40
0.875165677
 40
1.0
 40
1.0
 40
1.0
 40
1.0
 10
517.3275179462
 20
158.7070054747
 30
0.0
 10
517.3268427015
 20
158.7076915301
 30
0.0
 10
517.3100177055
 20
158.7249124636
 30
0.0
 10
517.2769376674
 20
158.7624022293
 30
0.0
 10
517.2213342857
 20
158.8397331843
 30
0.0
 10
517.1434026481
 20
158.9893582984
 30
0.0
 10
517.0972962325
 20
159.2314069881
 30
0.0
 10
517.1532661736
 20
159.5204071567
 30
0.0
 10
517.3121461476
 20
159.7649143157
 30
0.0
 10
517.5505073462
 20
159.9286545066
 30
0.0
 10
517.8287498475
 20
159.9850839215
 30
0.0
 10
518.1089040745
 20
159.9275240731
 30
0.0
 10
518.2655323665
 20
159.8189653149
 30
0.0
 10
518.33141875
 20
159.7513617452
 30
0.0
  0
SPLINE
  5
435
100
AcDbEntity
  8
03___PRT_ALL_CURVES
100
AcDbSpline
 62
40
  6
CONTINUOUS
 70
0
 71
3
 72
15
 73
11
 74
0
 42
0.0000001
 43
0.0000001
 44
0.0000000001
 40
0.0
 40
0.0
 40
0.0
 40
0.0
 40
0.1261264951
 40
0.2531151989
 40
0.3797174871
 40
0.5056313512
 40
0.6305871341
 40
0.7538875075
 40
0.8773817494
 40
1.0
 40
1.0
 40
1.0
 40
1.0
 10
518.33141875
 20
159.7513617452
 30
0.0
 10
518.3977475206
 20
159.6833042586
 30
0.0
 10
518.5044230754
 20
159.5190151754
 30
0.0
 10
518.5599258756
 20
159.2298898135
 30
0.0
 10
518.5038828173
 20
158.9404642925
 30
0.0
 10
518.3436336863
 20
158.6951564616
 30
0.0
 10
518.107823449
 20
158.5328826785
 30
0.0
 10
517.8271213959
 20
158.4755936932
 30
0.0
 10
517.5502499849
 20
158.5323150606
 30
0.0
 10
517.3929276535
 20
158.6405485599
 30
0.0
 10
517.3275179462
 20
158.7070054747
 30
0.0
  0
SPLINE
  5
436
100
AcDbEntity
  8
03___PRT_ALL_CURVES
100
AcDbSpline
 62
40
  6
CONTINUOUS
 70
0
 71
3
 72
8
 73
4
 74
0
 42
0.0000001
 43
0.0000001
 44
0.0000000001
 40
0.0
 40
0.0
 40
0.0
 40
0.0
 40
1.0
 40
1.0
 40
1.0
 40
1.0
 10
508.8017507135
 20
159.6061883278
 30
0.0
 10
508.7414117342
 20
159.5651327172
 30
0.0
 10
508.6540815906
 20
159.548179079
 30
0.0
 10
508.5530869873
 20
159.548179079
 30
0.0
  0
SPLINE
  5
437
100
AcDbEntity
  8
03___PRT_ALL_CURVES
100
AcDbSpline
 62
40
  6
CONTINUOUS
 70
0
 71
3
 72
8
 73
4
 74
0
 42
0.0000001
 43
0.0000001
 44
0.0000000001
 40
0.0
 40
0.0
 40
0.0
 40
0.0
 40
1.0
 40
1.0
 40
1.0
 40
1.0
 10
508.8869217369
 20
159.8147407098
 30
0.0
 10
508.8869519422
 20
159.7199547986
 30
0.0
 10
508.8554670328
 20
159.6427377743
 30
0.0
 10
508.8017507135
 20
159.6061883278
 30
0.0
  0
SPLINE
  5
438
100
AcDbEntity
  8
03___PRT_ALL_CURVES
100
AcDbSpline
 62
40
  6
CONTINUOUS
 70
0
 71
3
 72
8
 73
4
 74
0
 42
0.0000001
 43
0.0000001
 44
0.0000000001
 40
0.0
 40
0.0
 40
0.0
 40
0.0
 40
1.0
 40
1.0
 40
1.0
 40
1.0
 10
508.5530869873
 20
160.054535729
 30
0.0
 10
508.5950065457
 20
160.054535729
 30
0.0
 10
508.6367218759
 20
160.0522325706
 30
0.0
 10
508.678330022
 20
160.0476260161
 30
0.0
  0
SPLINE
  5
439
100
AcDbEntity
  8
03___PRT_ALL_CURVES
100
AcDbSpline
 62
40
  6
CONTINUOUS
 70
0
 71
3
 72
16
 73
12
 74
0
 42
0.0000001
 43
0.0000001
 44
0.0000000001
 40
0.0
 40
0.0
 40
0.0
 40
0.0
 40
0.179406867
 40
0.358813734
 40
0.5382206009
 40
0.6279240344
 40
0.7176274679
 40
0.8218243336
 40
0.9260211992
 40
0.9991500001
 40
1.0
 40
1.0
 40
1.0
 40
1.0
 10
508.8055342873
 20
160.4719383943
 30
0.0
 10
508.8780165373
 20
160.4719383943
 30
0.0
 10
509.0295947994
 20
160.4246495316
 30
0.0
 10
509.2276816186
 20
160.2944343432
 30
0.0
 10
509.3428205667
 20
160.1385711628
 30
0.0
 10
509.4019601525
 20
159.9938986507
 30
0.0
 10
509.4289037213
 20
159.8686582328
 30
0.0
 10
509.4314289695
 20
159.7345783992
 30
0.0
 10
509.4096644151
 20
159.6157167818
 30
0.0
 10
509.3839728142
 20
159.5445358879
 30
0.0
 10
509.3713813342
 20
159.5159300622
 30
0.0
 10
509.3712364071
 20
159.5156015133
 30
0.0
  0
SPLINE
  5
43A
100
AcDbEntity
  8
03___PRT_ALL_CURVES
100
AcDbSpline
 62
40
  6
CONTINUOUS
 70
0
 71
3
 72
15
 73
11
 74
0
 42
0.0000001
 43
0.0000001
 44
0.0000000001
 40
0.0
 40
0.0
 40
0.0
 40
0.0
 40
0.1214031817
 40
0.2465772123
 40
0.3712693246
 40
0.4960797406
 40
0.6213712636
 40
0.7474201458
 40
0.8738876116
 40
1.0
 40
1.0
 40
1.0
 40
1.0
 10
516.654041507
 20
159.7412562087
 30
0.0
 10
516.7178755036
 20
159.8918515605
 30
0.0
 10
516.9059698118
 20
160.1731270285
 30
0.0
 10
517.3276166095
 20
160.4574128656
 30
0.0
 10
517.830876
 20
160.5595504817
 30
0.0
 10
518.3338393049
 20
160.4574835416
 30
0.0
 10
518.7597727285
 20
160.1692123876
 30
0.0
 10
519.0444631139
 20
159.7377816936
 30
0.0
 10
519.1445505822
 20
159.2295672596
 30
0.0
 10
519.0780216721
 20
158.8903170914
 30
0.0
 10
519.0133533714
 20
158.7329290587
 30
0.0
  0
SPLINE
  5
43B
100
AcDbEntity
  8
03___PRT_ALL_CURVES
100
AcDbSpline
 62
40
  6
CONTINUOUS
 70
0
 71
3
 72
16
 73
12
 74
0
 42
0.0000001
 43
0.0000001
 44
0.0000000001
 40
0.0
 40
0.0
 40
0.0
 40
0.0
 40
0.1247702247
 40
0.2486299424
 40
0.3723364896
 40
0.4959257793
 40
0.6199922477
 40
0.7450603439
 40
0.8703009278
 40
0.9958941345
 40
1.0
 40
1.0
 40
1.0
 40
1.0
 10
519.0133533714
 20
158.7329290587
 30
0.0
 10
518.9493671466
 20
158.5772010444
 30
0.0
 10
518.7599291282
 20
158.2891798378
 30
0.0
 10
518.3329392908
 20
158.0008053821
 30
0.0
 10
517.8308181927
 20
157.8991903736
 30
0.0
 10
517.3275192087
 20
158.0009489585
 30
0.0
 10
516.9007735977
 20
158.2901399648
 30
0.0
 10
516.6165504326
 20
158.7199929632
 30
0.0
 10
516.517207669
 20
159.2298919064
 30
0.0
 10
516.5847601676
 20
159.5749583961
 30
0.0
 10
516.6518863103
 20
159.7361717298
 30
0.0
 10
516.654041507
 20
159.7412562087
 30
0.0
  0
SPLINE
  5
43C
100
AcDbEntity
  8
03___PRT_ALL_CURVES
100
AcDbSpline
 62
40
  6
CONTINUOUS
 70
0
 71
3
 72
25
 73
21
 74
0
 42
0.0000001
 43
0.0000001
 44
0.0000000001
 40
0.0
 40
0.0
 40
0.0
 40
0.0
 40
0.1250129628
 40
0.1875194442
 40
0.2500259255
 40
0.3125324069
 40
0.3750388883
 40
0.406292129
 40
0.4375453697
 40
0.4687986104
 40
0.5000518511
 40
0.5312986104
 40
0.5625453697
 40
0.593792129
 40
0.6250388883
 40
0.6875324069
 40
0.7500259255
 40
0.8125194442
 40
0.8750129628
 40
1.0
 40
1.0
 40
1.0
 40
1.0
 10
514.3993488245
 20
153.4759195332
 30
0.0
 10
514.505219027
 20
153.4759195332
 30
0.0
 10
514.6595757526
 20
153.4892617738
 30
0.0
 10
514.8414785989
 20
153.5463638167
 30
0.0
 10
514.9621240215
 20
153.6120876835
 30
0.0
 10
515.0629932148
 20
153.7039018996
 30
0.0
 10
515.1271209777
 20
153.8046467074
 30
0.0
 10
515.164498222
 20
153.9010779781
 30
0.0
 10
515.1851017894
 20
153.9818505052
 30
0.0
 10
515.1978291646
 20
154.0706266295
 30
0.0
 10
515.2022203792
 20
154.1709123249
 30
0.0
 10
515.197829325
 20
154.2711929456
 30
0.0
 10
515.1851017099
 20
154.3599555266
 30
0.0
 10
515.1644981747
 20
154.4407185487
 30
0.0
 10
515.127120897
 20
154.5371422531
 30
0.0
 10
515.0629932496
 20
154.6378857257
 30
0.0
 10
514.9621243802
 20
154.7297077206
 30
0.0
 10
514.8414792024
 20
154.7954448946
 30
0.0
 10
514.6595763594
 20
154.8525665832
 30
0.0
 10
514.5052193214
 20
154.8659195332
 30
0.0
 10
514.3993488245
 20
154.8659195332
 30
0.0
  0
SPLINE
  5
43D
100
AcDbEntity
  8
03___PRT_ALL_CURVES
100
AcDbSpline
 62
40
  6
CONTINUOUS
 70
0
 71
3
 72
21
 73
17
 74
0
 42
0.0000001
 43
0.0000001
 44
0.0000000001
 40
0.0
 40
0.0
 40
0.0
 40
0.0
 40
0.125
 40
0.25
 40
0.3125
 40
0.375
 40
0.4375
 40
0.46875
 40
0.5
 40
0.53125
 40
0.5625
 40
0.625
 40
0.6875
 40
0.75
 40
0.875
 40
1.0
 40
1.0
 40
1.0
 40
1.0
 10
514.4533488245
 20
154.6369195332
 30
0.0
 10
514.5127104475
 20
154.6369195332
 30
0.0
 10
514.6304263323
 20
154.6148494937
 30
0.0
 10
514.7576319355
 20
154.5356561184
 30
0.0
 10
514.8371208853
 20
154.4434375523
 30
0.0
 10
514.8830472133
 20
154.3603803554
 30
0.0
 10
514.9077728036
 20
154.2797549374
 30
0.0
 10
514.9181061168
 20
154.2090297298
 30
0.0
 10
514.9208028255
 20
154.1519195332
 30
0.0
 10
514.9181061168
 20
154.0948093366
 30
0.0
 10
514.9077728036
 20
154.0240841289
 30
0.0
 10
514.8830472133
 20
153.9434587109
 30
0.0
 10
514.8371208853
 20
153.860401514
 30
0.0
 10
514.7576319355
 20
153.768182948
 30
0.0
 10
514.6304263323
 20
153.6889895726
 30
0.0
 10
514.5127104475
 20
153.6669195332
 30
0.0
 10
514.4533488245
 20
153.6669195332
 30
0.0
  0
SPLINE
  5
43E
100
AcDbEntity
  8
03___PRT_ALL_CURVES
100
AcDbSpline
 62
40
  6
CONTINUOUS
 70
0
 71
3
 72
8
 73
4
 74
0
 42
0.0000001
 43
0.0000001
 44
0.0000000001
 40
0.0
 40
0.0
 40
0.0
 40
0.0
 40
1.0
 40
1.0
 40
1.0
 40
1.0
 10
520.0227815738
 20
154.0519195332
 30
0.0
 10
520.1599876273
 20
154.0519195332
 30
0.0
 10
520.3007815738
 20
154.0279303246
 30
0.0
 10
520.3007815738
 20
153.8519195332
 30
0.0
  0
SPLINE
  5
43F
100
AcDbEntity
  8
03___PRT_ALL_CURVES
100
AcDbSpline
 62
40
  6
CONTINUOUS
 70
0
 71
3
 72
8
 73
4
 74
0
 42
0.0000001
 43
0.0000001
 44
0.0000000001
 40
0.0
 40
0.0
 40
0.0
 40
0.0
 40
1.0
 40
1.0
 40
1.0
 40
1.0
 10
520.3007815738
 20
153.8519195332
 30
0.0
 10
520.3007815738
 20
153.6961065334
 30
0.0
 10
520.1501207503
 20
153.6669195332
 30
0.0
 10
520.0227815738
 20
153.6669195332
 30
0.0
  0
SPLINE
  5
440
100
AcDbEntity
  8
03___PRT_ALL_CURVES
100
AcDbSpline
 62
40
  6
CONTINUOUS
 70
0
 71
3
 72
8
 73
4
 74
0
 42
0.0000001
 43
0.0000001
 44
0.0000000001
 40
0.0
 40
0.0
 40
0.0
 40
0.0
 40
1.0
 40
1.0
 40
1.0
 40
1.0
 10
519.9997815738
 20
154.6369195332
 30
0.0
 10
520.1257048348
 20
154.6369195332
 30
0.0
 10
520.2597815738
 20
154.6278617134
 30
0.0
 10
520.2597815738
 20
154.4719195332
 30
0.0
  0
SPLINE
  5
441
100
AcDbEntity
  8
03___PRT_ALL_CURVES
100
AcDbSpline
 62
40
  6
CONTINUOUS
 70
0
 71
3
 72
8
 73
4
 74
0
 42
0.0000001
 43
0.0000001
 44
0.0000000001
 40
0.0
 40
0.0
 40
0.0
 40
0.0
 40
1.0
 40
1.0
 40
1.0
 40
1.0
 10
520.2597815738
 20
154.4719195332
 30
0.0
 10
520.2597815738
 20
154.3342291192
 30
0.0
 10
520.1212232079
 20
154.3109195332
 30
0.0
 10
520.0057815738
 20
154.3109195332
 30
0.0
  0
SPLINE
  5
442
100
AcDbEntity
  8
03___PRT_ALL_CURVES
100
AcDbSpline
 62
40
  6
CONTINUOUS
 70
0
 71
3
 72
8
 73
4
 74
0
 42
0.0000001
 43
0.0000001
 44
0.0000000001
 40
0.0
 40
0.0
 40
0.0
 40
0.0
 40
1.0
 40
1.0
 40
1.0
 40
1.0
 10
520.0987815738
 20
153.4759195332
 30
0.0
 10
520.2737218309
 20
153.4759195332
 30
0.0
 10
520.5907019092
 20
153.5298081659
 30
0.0
 10
520.5907815738
 20
153.8809195332
 30
0.0
  0
SPLINE
  5
443
100
AcDbEntity
  8
03___PRT_ALL_CURVES
100
AcDbSpline
 62
40
  6
CONTINUOUS
 70
0
 71
3
 72
8
 73
4
 74
0
 42
0.0000001
 43
0.0000001
 44
0.0000000001
 40
0.0
 40
0.0
 40
0.0
 40
0.0
 40
1.0
 40
1.0
 40
1.0
 40
1.0
 10
520.5907815738
 20
153.8809195332
 30
0.0
 10
520.5908164516
 20
154.0346389703
 30
0.0
 10
520.4618114471
 20
154.1433645424
 30
0.0
 10
520.2967815738
 20
154.1579195332
 30
0.0
  0
SPLINE
  5
444
100
AcDbEntity
  8
03___PRT_ALL_CURVES
100
AcDbSpline
 62
40
  6
CONTINUOUS
 70
0
 71
3
 72
8
 73
4
 74
0
 42
0.0000001
 43
0.0000001
 44
0.0000000001
 40
0.0
 40
0.0
 40
0.0
 40
0.0
 40
1.0
 40
1.0
 40
1.0
 40
1.0
 10
520.2967815738
 20
154.1579195332
 30
0.0
 10
520.457216895
 20
154.2078595366
 30
0.0
 10
520.5488882387
 20
154.3361570465
 30
0.0
 10
520.5487815738
 20
154.5059195332
 30
0.0
  0
SPLINE
  5
445
100
AcDbEntity
  8
03___PRT_ALL_CURVES
100
AcDbSpline
 62
40
  6
CONTINUOUS
 70
0
 71
3
 72
8
 73
4
 74
0
 42
0.0000001
 43
0.0000001
 44
0.0000000001
 40
0.0
 40
0.0
 40
0.0
 40
0.0
 40
1.0
 40
1.0
 40
1.0
 40
1.0
 10
520.5487815738
 20
154.5059195332
 30
0.0
 10
520.5485895573
 20
154.8115232331
 30
0.0
 10
520.2776008041
 20
154.8659195332
 30
0.0
 10
520.0987815738
 20
154.8659195332
 30
0.0
  0
SPLINE
  5
446
100
AcDbEntity
  8
03___PRT_ALL_CURVES
100
AcDbSpline
 62
40
  6
CONTINUOUS
 70
0
 71
3
 72
8
 73
4
 74
0
 42
0.0000001
 43
0.0000001
 44
0.0000000001
 40
0.0
 40
0.0
 40
0.0
 40
0.0
 40
1.0
 40
1.0
 40
1.0
 40
1.0
 10
521.1647815738
 20
154.0479195332
 30
0.0
 10
521.2796388832
 20
154.0479195332
 30
0.0
 10
521.3105521153
 20
154.0117490587
 30
0.0
 10
521.3497815738
 20
153.9099195332
 30
0.0
  0
SPLINE
  5
447
100
AcDbEntity
  8
03___PRT_ALL_CURVES
100
AcDbSpline
 62
40
  6
CONTINUOUS
 70
0
 71
3
 72
8
 73
4
 74
0
 42
0.0000001
 43
0.0000001
 44
0.0000000001
 40
0.0
 40
0.0
 40
0.0
 40
0.0
 40
1.0
 40
1.0
 40
1.0
 40
1.0
 10
521.6136263108
 20
154.0229195332
 30
0.0
 10
521.5893606908
 20
154.0780751404
 30
0.0
 10
521.5521245932
 20
154.1461739331
 30
0.0
 10
521.4887815738
 20
154.1659195332
 30
0.0
  0
SPLINE
  5
448
100
AcDbEntity
  8
03___PRT_ALL_CURVES
100
AcDbSpline
 62
40
  6
CONTINUOUS
 70
0
 71
3
 72
8
 73
4
 74
0
 42
0.0000001
 43
0.0000001
 44
0.0000000001
 40
0.0
 40
0.0
 40
0.0
 40
0.0
 40
1.0
 40
1.0
 40
1.0
 40
1.0
 10
521.4887815738
 20
154.1659195332
 30
0.0
 10
521.6525721742
 20
154.1989394083
 30
0.0
 10
521.7537815738
 20
154.3308963465
 30
0.0
 10
521.7537815738
 20
154.4879195332
 30
0.0
  0
SPLINE
  5
449
100
AcDbEntity
  8
03___PRT_ALL_CURVES
100
AcDbSpline
 62
40
  6
CONTINUOUS
 70
0
 71
3
 72
8
 73
4
 74
0
 42
0.0000001
 43
0.0000001
 44
0.0000000001
 40
0.0
 40
0.0
 40
0.0
 40
0.0
 40
1.0
 40
1.0
 40
1.0
 40
1.0
 10
521.7537815738
 20
154.4879195332
 30
0.0
 10
521.7537815738
 20
154.8749261475
 30
0.0
 10
521.3927266882
 20
154.8659195332
 30
0.0
 10
521.0967815738
 20
154.8659195332
 30
0.0
  0
SPLINE
  5
44A
100
AcDbEntity
  8
03___PRT_ALL_CURVES
100
AcDbSpline
 62
40
  6
CONTINUOUS
 70
0
 71
3
 72
27
 73
23
 74
0
 42
0.0000001
 43
0.0000001
 44
0.0000000001
 40
0.0
 40
0.0
 40
0.0
 40
0.0
 40
0.1228158602
 40
0.1842237903
 40
0.2456317204
 40
0.3070396505
 40
0.3684475806
 40
0.3991515457
 40
0.4298555108
 40
0.4605594758
 40
0.4759114583
 40
0.4912634409
 40
0.5071614583
 40
0.5230594758
 40
0.5548555108
 40
0.5866515457
 40
0.6184475806
 40
0.6820396505
 40
0.7456317204
 40
0.8092237903
 40
0.8728158602
 40
1.0
 40
1.0
 40
1.0
 40
1.0
 10
521.1677815738
 20
154.6369195332
 30
0.0
 10
521.2022027761
 20
154.6369195332
 30
0.0
 10
521.255140864
 20
154.635615418
 30
0.0
 10
521.3202037145
 20
154.6249651131
 30
0.0
 10
521.3641630733
 20
154.6110384804
 30
0.0
 10
521.4012733353
 20
154.5898077125
 30
0.0
 10
521.4251041978
 20
154.5649334489
 30
0.0
 10
521.4392399936
 20
154.5397717872
 30
0.0
 10
521.4471621729
 20
154.5179897201
 30
0.0
 10
521.4513184924
 20
154.4971061445
 30
0.0
 10
521.4530306411
 20
154.4787717182
 30
0.0
 10
521.4534712869
 20
154.4636990867
 30
0.0
 10
521.4530245923
 20
154.4484141048
 30
0.0
 10
521.451291459
 20
154.4293221514
 30
0.0
 10
521.4470755444
 20
154.4074982819
 30
0.0
 10
521.4390412895
 20
154.3845929118
 30
0.0
 10
521.4247106154
 20
154.357976207
 30
0.0
 10
521.4005941731
 20
154.3314101708
 30
0.0
 10
521.363226169
 20
154.3084118239
 30
0.0
 10
521.3191543387
 20
154.2929886376
 30
0.0
 10
521.2541845815
 20
154.2807826331
 30
0.0
 10
521.2016708382
 20
154.2789195332
 30
0.0
 10
521.1677815738
 20
154.2789195332
 30
0.0
  0
SPLINE
  5
44B
100
AcDbEntity
  8
03___PRT_ALL_CURVES
100
AcDbSpline
 62
40
  6
CONTINUOUS
 70
0
 71
3
 72
15
 73
11
 74
0
 42
0.0000001
 43
0.0000001
 44
0.0000000001
 40
0.0
 40
0.0
 40
0.0
 40
0.0
 40
0.0731910132
 40
0.1774765216
 40
0.2817620299
 40
0.3715417762
 40
0.4613215224
 40
0.640881015
 40
0.8204405075
 40
1.0
 40
1.0
 40
1.0
 40
1.0
 10
509.5066257514
 20
159.460550749
 30
0.0
 10
509.5216144623
 20
159.4949494515
 30
0.0
 10
509.552433056
 20
159.5810758135
 30
0.0
 10
509.5785432135
 20
159.7261483444
 30
0.0
 10
509.5749571505
 20
159.8886514289
 30
0.0
 10
509.5418167175
 20
160.0405552314
 30
0.0
 10
509.4695034605
 20
160.2164389224
 30
0.0
 10
509.3272713738
 20
160.406474181
 30
0.0
 10
509.0918428561
 20
160.5605838874
 30
0.0
 10
508.9044976884
 20
160.6199383943
 30
0.0
 10
508.805689957
 20
160.6199383943
 30
0.0
  0
SPLINE
  5
44C
100
AcDbEntity
  8
03___PRT_ALL_CURVES
100
AcDbSpline
 62
40
  6
CONTINUOUS
 70
0
 71
3
 72
8
 73
4
 74
0
 42
0.0000001
 43
0.0000001
 44
0.0000000001
 40
0.0
 40
0.0
 40
0.0
 40
0.0
 40
1.0
 40
1.0
 40
1.0
 40
1.0
 10
508.5535624873
 20
159.401974079
 30
0.0
 10
508.669416232
 20
159.401974079
 30
0.0
 10
508.7877597521
 20
159.4204922761
 30
0.0
 10
508.8839976373
 20
159.485974079
 30
0.0
  0
SPLINE
  5
44D
100
AcDbEntity
  8
03___PRT_ALL_CURVES
100
AcDbSpline
 62
40
  6
CONTINUOUS
 70
0
 71
3
 72
8
 73
4
 74
0
 42
0.0000001
 43
0.0000001
 44
0.0000000001
 40
0.0
 40
0.0
 40
0.0
 40
0.0
 40
1.0
 40
1.0
 40
1.0
 40
1.0
 10
508.8839976373
 20
159.485974079
 30
0.0
 10
508.9896715693
 20
159.5578763197
 30
0.0
 10
509.0331580854
 20
159.6871715017
 30
0.0
 10
509.0331267373
 20
159.814759529
 30
0.0
  0
SPLINE
  5
44E
100
AcDbEntity
  8
03___PRT_ALL_CURVES
100
AcDbSpline
 62
40
  6
CONTINUOUS
 70
0
 71
3
 72
8
 73
4
 74
0
 42
0.0000001
 43
0.0000001
 44
0.0000000001
 40
0.0
 40
0.0
 40
0.0
 40
0.0
 40
1.0
 40
1.0
 40
1.0
 40
1.0
 10
508.6944184873
 20
160.192943129
 30
0.0
 10
508.6476324468
 20
160.1981229428
 30
0.0
 10
508.6006886282
 20
160.2009383943
 30
0.0
 10
508.5535624873
 20
160.2009383943
 30
0.0
  0
SPLINE
  5
44F
100
AcDbEntity
  8
03___PRT_ALL_CURVES
100
AcDbSpline
 62
40
  6
CONTINUOUS
 70
0
 71
3
 72
15
 73
11
 74
0
 42
0.0000001
 43
0.0000001
 44
0.0000000001
 40
0.0
 40
0.0
 40
0.0
 40
0.0
 40
0.1261123884
 40
0.2525798542
 40
0.3786287364
 40
0.5039202594
 40
0.6287306754
 40
0.7534227877
 40
0.8785968183
 40
1.0
 40
1.0
 40
1.0
 40
1.0
 10
519.1484077714
 20
158.6774195332
 30
0.0
 10
519.220426297
 20
158.8526963525
 30
0.0
 10
519.2948401431
 20
159.2297367112
 30
0.0
 10
519.1840051524
 20
159.7949218515
 30
0.0
 10
518.8676563357
 20
160.2753093586
 30
0.0
 10
518.3932943047
 20
160.5970916518
 30
0.0
 10
517.8319700404
 20
160.7114593768
 30
0.0
 10
517.2703730986
 20
160.5980192879
 30
0.0
 10
516.800305321
 20
160.2813607382
 30
0.0
 10
516.5905130821
 20
159.9686880236
 30
0.0
 10
516.5194077714
 20
159.8009383943
 30
0.0
  0
SPLINE
  5
450
100
AcDbEntity
  8
03___PRT_ALL_CURVES
100
AcDbSpline
 62
40
  6
CONTINUOUS
 70
0
 71
3
 72
16
 73
12
 74
0
 42
0.0000001
 43
0.0000001
 44
0.0000000001
 40
0.0
 40
0.0
 40
0.0
 40
0.0
 40
0.0041058655
 40
0.1296990722
 40
0.2549396561
 40
0.3800077523
 40
0.5040742207
 40
0.6276635104
 40
0.7513700576
 40
0.8752297753
 40
1.0
 40
1.0
 40
1.0
 40
1.0
 10
516.5194077714
 20
159.8009383943
 30
0.0
 10
516.517002984
 20
159.7952650881
 30
0.0
 10
516.441953515
 20
159.6156591501
 30
0.0
 10
516.3668742919
 20
159.2326271569
 30
0.0
 10
516.4766339825
 20
158.6657149373
 30
0.0
 10
516.7928001436
 20
158.1865808078
 30
0.0
 10
517.267815039
 20
157.8640675881
 30
0.0
 10
517.8294604382
 20
157.74994917
 30
0.0
 10
518.3900229516
 20
157.862871473
 30
0.0
 10
518.8661041754
 20
158.1842032538
 30
0.0
 10
519.0771557103
 20
158.5040081149
 30
0.0
 10
519.1484077714
 20
158.6774195332
 30
0.0
  0
SPLINE
  5
451
100
AcDbEntity
  8
03___PRT_ALL_CURVES
100
AcDbSpline
 62
40
  6
CONTINUOUS
 70
0
 71
3
 72
16
 73
12
 74
0
 42
0.0000001
 43
0.0000001
 44
0.0000000001
 40
0.0
 40
0.0
 40
0.0
 40
0.0
 40
0.124834323
 40
0.2480895363
 40
0.3715385471
 40
0.4954954061
 40
0.6208156495
 40
0.7471483602
 40
0.8730953222
 40
0.9985399184
 40
1.0
 40
1.0
 40
1.0
 40
1.0
 10
518.4354077714
 20
159.8554195332
 30
0.0
 10
518.3561344809
 20
159.9367589107
 30
0.0
 10
518.1669993015
 20
160.0678171197
 30
0.0
 10
517.8271224579
 20
160.1378477268
 30
0.0
 10
517.4888081926
 20
160.0690196336
 30
0.0
 10
517.201344815
 20
159.8712125979
 30
0.0
 10
517.0107327759
 20
159.5774661176
 30
0.0
 10
516.943999782
 20
159.232221206
 30
0.0
 10
517.0101201946
 20
158.885613797
 30
0.0
 10
517.1382676789
 20
158.6879844943
 30
0.0
 10
517.2194700865
 20
158.6048910915
 30
0.0
 10
517.2204077714
 20
158.6039383943
 30
0.0
  0
SPLINE
  5
452
100
AcDbEntity
  8
03___PRT_ALL_CURVES
100
AcDbSpline
 62
40
  6
CONTINUOUS
 70
0
 71
3
 72
15
 73
11
 74
0
 42
0.0000001
 43
0.0000001
 44
0.0000000001
 40
0.0
 40
0.0
 40
0.0
 40
0.0
 40
0.1226182506
 40
0.2461124925
 40
0.3694128659
 40
0.4943686488
 40
0.6202825129
 40
0.7468848011
 40
0.8738735049
 40
1.0
 40
1.0
 40
1.0
 40
1.0
 10
517.2204077714
 20
158.6039383943
 30
0.0
 10
517.2991549395
 20
158.5239304863
 30
0.0
 10
517.4885658246
 20
158.3935236502
 30
0.0
 10
517.8256088548
 20
158.3243404716
 30
0.0
 10
518.1657077508
 20
158.3939897597
 30
0.0
 10
518.4509194053
 20
158.5904680222
 30
0.0
 10
518.6426254817
 20
158.8846060989
 30
0.0
 10
518.7096496088
 20
159.2306662908
 30
0.0
 10
518.6431840836
 20
159.576304316
 30
0.0
 10
518.5155016275
 20
159.7732382039
 30
0.0
 10
518.4354077714
 20
159.8554195332
 30
0.0
  0
ELLIPSE
  5
453
100
AcDbEntity
  8
0
100
AcDbEllipse
 62
7
  6
CONTINUOUS
 10
523.0377782657
 20
554.1565234017
 30
0.0
 11
82.9133004847
 21
101.5429798274
 31
0.0
 40
0.2627972559
 41
0.1998795357
 42
0.2228753875
  0
ELLIPSE
  5
454
100
AcDbEntity
  8
0
100
AcDbEllipse
 62
7
  6
CONTINUOUS
 10
513.6106016483
 20
554.1565234017
 30
0.0
 11
-82.9133004847
 21
101.5429798274
 31
0.0
 40
0.2627972559
 41
-0.2228753875
 42
-0.1998795357
  0
ENDSEC
  0
SECTION
  2
OBJECTS
  0
DICTIONARY
  5
C
100
AcDbDictionary
280
0
281
1
  3
ACAD_GROUP
350
D
  3
ACAD_MLINESTYLE
350
17
  3
ACAD_LAYOUT
350
1A
  3
ACAD_PLOTSETTINGS
350
19
  3
ACAD_PLOTSTYLENAME
350
E
  0
DICTIONARY
  5
D
102
{ACAD_REACTORS
330
C
102
}
100
AcDbDictionary
280
0
281
1
  0
ACDBDICTIONARYWDFLT
  5
E
102
{ACAD_REACTORS
330
C
102
}
100
AcDbDictionary
281
1
  3
Normal
350
F
100
AcDbDictionaryWithDefault
340
F
  0
DICTIONARY
  5
17
102
{ACAD_REACTORS
330
C
102
}
100
AcDbDictionary
280
0
281
1
  3
Standard
350
18
  0
DICTIONARY
  5
19
102
{ACAD_REACTORS
330
C
102
}
100
AcDbDictionary
281
1
  0
DICTIONARY
  5
1A
102
{ACAD_REACTORS
330
C
102
}
100
AcDbDictionary
281
1
  3
Model
350
455
  3
Layout1
350
456
  0
ACDBPLACEHOLDER
  5
F
102
{ACAD_REACTORS
330
E
102
}
  0
MLINESTYLE
  5
18
102
{ACAD_REACTORS
330
17
102
}
100
AcDbMlineStyle
  2
STANDARD
 70
0
  3

 62
256
 51
90.0
 52
90.0
 71
2
 49
0.5
 62
256
  6
BYLAYER
 49
-0.5
 62
256
  6
BYLAYER
  0
LAYOUT
  5
455
102
{ACAD_REACTORS
330
1A
102
}
100
AcDbPlotSettings
  1

  2
none_device
  4

  6

 40
0.0
 41
0.0
 42
0.0
 43
0.0
 44
1223.0
 45
875.0
 46
0.0
 47
0.0
 48
0.0
 49
0.0
140
0.0
141
0.0
142
1.0
143
1.0
 70
1024
 72
1
 73
0
 74
0
  7

 75
0
147
1.0
148
0.0
149
0.0
100
AcDbLayout
  1
Model
 70
0
 71
0
 10
0.0
 20
0.0
 11
1223.0
 21
875.0
 12
0.0
 22
0.0
 32
0.0
 14
0.0
 24
0.0
 34
0.0
 15
0.0
 25
0.0
 35
0.0
146
0.0
 13
0.0
 23
0.0
 33
0.0
 16
1.0
 26
0.0
 36
0.0
 17
0.0
 27
1.0
 37
0.0
 76
0
330
216
345
0
346
0
  0
LAYOUT
  5
456
102
{ACAD_REACTORS
330
1A
102
}
100
AcDbPlotSettings
  1

  2
none_device
  4

  6

 40
0.0
 41
0.0
 42
0.0
 43
0.0
 44
1223.0
 45
875.0
 46
0.0
 47
0.0
 48
0.0
 49
0.0
140
0.0
141
0.0
142
1.0
143
1.0
 70
0
 72
1
 73
0
 74
0
  7

 75
0
147
1.0
148
0.0
149
0.0
100
AcDbLayout
  1
Layout1
 70
0
 71
1
 10
0.0
 20
0.0
 11
1223.0
 21
875.0
 12
0.0
 22
0.0
 32
0.0
 14
0.0
 24
0.0
 34
0.0
 15
0.0
 25
0.0
 35
0.0
146
0.0
 13
0.0
 23
0.0
 33
0.0
 16
1.0
 26
0.0
 36
0.0
 17
0.0
 27
1.0
 37
0.0
 76
0
330
217
345
0
346
0
  0
ENDSEC
  0
EOF
