999
DXF file: S:\Engenharia\Wildfire\Engenharia\Produtos\Lixeiras\94518105\94518105.dxf
999
Pro/ENGINEER 2013150 by Parametric Technology Corporation
  0
SECTION
  2
HEADER
  9
$ACADVER
  1
AC1021
  9
$DWGCODEPAGE
  3
ANSI_1252
  9
$EXTMAX
 10
500.0
 20
800.0
 30
0.0
  9
$EXTMIN
 10
0.0
 20
0.0
 30
0.0
  9
$LIMMIN
 10
0.0
 20
0.0
  9
$LIMMAX
 10
500.0
 20
800.0
  9
$VIEWCTR
 10
250.0
 20
400.0
  9
$VIEWSIZE
 40
800.0
  9
$CLAYER
  8
0
  9
$LTSCALE
 40
52.1481481481
  9
$CELTYPE
  6
BYLAYER
  9
$DIMSCALE
 40
1.0
  9
$DIMASZ
 40
3.0
  9
$DIMEXO
 40
0.5
  9
$DIMDLI
 40
36.0296296296
  9
$DIMEXE
 40
0.5
  9
$DIMCEN
 40
8.5333333333
  9
$DIMLFAC
 40
1.0
  9
$DIMBLK
  1
_FILLED
  9
$DIMTXT
 40
1.8
  9
$DIMTOL
 70
1
  9
$DIMLIM
 70
0
  9
$DIMTFAC
 40
1.0
  9
$DIMTP
 40
0.001
  9
$DIMTM
 40
0.001
  9
$DIMGAP
 40
0.625
  9
$DIMDSEP
 70
46
  9
$PDMODE
 70
3
  9
$PDSIZE
 40
1.0
  9
$HANDSEED
  5
45D
  9
$TILEMODE
 70
1
  9
$MEASUREMENT
 70
1
  9
$INSUNITS
 70
4
  0
ENDSEC
  0
SECTION
  2
CLASSES
  0
CLASS
  1
ACDBDICTIONARYWDFLT
  2
AcDbDictionaryWithDefault
  3
AutoCAD 2000
 90
0
 91
1
280
0
281
0
  0
CLASS
  1
ACDBPLACEHOLDER
  2
AcDbPlaceHolder
  3
AutoCAD 2000
 90
0
 91
1
280
0
281
0
  0
CLASS
  1
LAYOUT
  2
AcDbLayout
  3
AutoCAD 2000
 90
0
 91
0
280
0
281
0
  0
ENDSEC
  0
SECTION
  2
TABLES
  0
TABLE
  2
VPORT
  5
8
100
AcDbSymbolTable
 70
2
  0
VPORT
  5
1F4
100
AcDbSymbolTableRecord
100
AcDbViewportTableRecord
  2
*ACTIVE
 70
0
 10
0.0
 20
0.0
 11
1.0
 21
1.0
 12
250.0
 22
400.0
 13
0.0
 23
0.0
 14
1.0
 24
1.0
 15
0.0
 25
0.0
 16
0.0
 26
0.0
 36
1.0
 17
0.0
 27
0.0
 37
0.0
 40
800.0
 41
0.625
 42
50.0
 43
0.0
 44
0.0
 50
0.0
 51
0.0
 71
0
 72
100
 73
1
 74
1
 75
0
 76
0
 77
0
 78
0
  0
ENDTAB
  0
TABLE
  2
LTYPE
  5
5
100
AcDbSymbolTable
 70
6
  0
LTYPE
  5
14
100
AcDbSymbolTableRecord
100
AcDbLinetypeTableRecord
  2
BYBLOCK
 70
0
  3

 72
65
 73
0
 40
0.0
  0
LTYPE
  5
15
100
AcDbSymbolTableRecord
100
AcDbLinetypeTableRecord
  2
BYLAYER
 70
0
  3

 72
65
 73
0
 40
0.0
  0
LTYPE
  5
16
100
AcDbSymbolTableRecord
100
AcDbLinetypeTableRecord
  2
CONTINUOUS
 70
64
  3
Solid line
 72
65
 73
0
 40
0.0
  0
LTYPE
  5
1F5
100
AcDbSymbolTableRecord
100
AcDbLinetypeTableRecord
  2
CENTER
 70
64
  3
____ _ ____ _ ____ _ ____ _ ____ _ ____ _ ____
 72
65
 73
4
 40
0.6
 49
0.375
 74
0
 49
-0.075
 74
0
 49
0.075
 74
0
 49
-0.075
 74
0
  0
LTYPE
  5
1F6
100
AcDbSymbolTableRecord
100
AcDbLinetypeTableRecord
  2
HIDDEN
 70
64
  3
- - - - - - - - - - - - - - - - - - - -
 72
65
 73
2
 40
0.2
 49
0.1
 74
0
 49
-0.1
 74
0
  0
LTYPE
  5
1F7
100
AcDbSymbolTableRecord
100
AcDbLinetypeTableRecord
  2
PHANTOM
 70
64
  3
_____ _ _ _____ _ _ _____ _ _ _____
 72
65
 73
6
 40
0.8
 49
0.45
 74
0
 49
-0.05
 74
0
 49
0.1
 74
0
 49
-0.05
 74
0
 49
0.1
 74
0
 49
-0.05
 74
0
  0
LTYPE
  5
1F8
100
AcDbSymbolTableRecord
100
AcDbLinetypeTableRecord
  2
DOT
 70
64
  3
. . . . . . . . . . . . . . . . . . . .
 72
65
 73
2
 40
0.2
 49
0.1
 74
0
 49
-0.1
 74
0
  0
LTYPE
  5
1F9
100
AcDbSymbolTableRecord
100
AcDbLinetypeTableRecord
  2
DASHED
 70
64
  3
- - - - - - - - - - - - - - - - - - - -
 72
65
 73
2
 40
0.2
 49
0.1
 74
0
 49
-0.1
 74
0
  0
ENDTAB
  0
TABLE
  2
LAYER
  5
2
100
AcDbSymbolTable
 70
36
  0
LAYER
  5
10
100
AcDbSymbolTableRecord
100
AcDbLayerTableRecord
  2
0
 70
0
 62
7
  6
CONTINUOUS
370
-3
390
F
  0
LAYER
  5
1FA
100
AcDbSymbolTableRecord
100
AcDbLayerTableRecord
  2
DEFAULT_1
 70
0
 62
7
  6
CENTER
370
-3
390
F
  0
LAYER
  5
1FB
100
AcDbSymbolTableRecord
100
AcDbLayerTableRecord
  2
DEFAULT_2
 70
0
 62
8
  6
HIDDEN
370
-3
390
F
  0
LAYER
  5
1FC
100
AcDbSymbolTableRecord
100
AcDbLayerTableRecord
  2
DEFAULT_3
 70
0
 62
7
  6
PHANTOM
370
-3
390
F
  0
LAYER
  5
1FD
100
AcDbSymbolTableRecord
100
AcDbLayerTableRecord
  2
01_ALL_DTM_PLN
 70
0
 62
7
  6
CONTINUOUS
370
-3
390
F
  0
LAYER
  5
1FE
100
AcDbSymbolTableRecord
100
AcDbLayerTableRecord
  2
01__ASM_ALL_DTM_PLN
 70
0
 62
7
  6
CONTINUOUS
370
-3
390
F
  0
LAYER
  5
1FF
100
AcDbSymbolTableRecord
100
AcDbLayerTableRecord
  2
01__ASM_DEF_DTM_PLN
 70
0
 62
7
  6
CONTINUOUS
370
-3
390
F
  0
LAYER
  5
200
100
AcDbSymbolTableRecord
100
AcDbLayerTableRecord
  2
01___PRT_ALL_DTM_PLN
 70
0
 62
7
  6
CONTINUOUS
370
-3
390
F
  0
LAYER
  5
201
100
AcDbSymbolTableRecord
100
AcDbLayerTableRecord
  2
01___PRT_DEF_DTM_PLN
 70
0
 62
7
  6
CONTINUOUS
370
-3
390
F
  0
LAYER
  5
202
100
AcDbSymbolTableRecord
100
AcDbLayerTableRecord
  2
02_ALL_AXES
 70
0
 62
7
  6
CONTINUOUS
370
-3
390
F
  0
LAYER
  5
203
100
AcDbSymbolTableRecord
100
AcDbLayerTableRecord
  2
02__ASM_ALL_AXES
 70
0
 62
7
  6
CONTINUOUS
370
-3
390
F
  0
LAYER
  5
204
100
AcDbSymbolTableRecord
100
AcDbLayerTableRecord
  2
02___PRT_ALL_AXES
 70
0
 62
7
  6
CONTINUOUS
370
-3
390
F
  0
LAYER
  5
205
100
AcDbSymbolTableRecord
100
AcDbLayerTableRecord
  2
03_ALL_CURVES
 70
0
 62
7
  6
CONTINUOUS
370
-3
390
F
  0
LAYER
  5
206
100
AcDbSymbolTableRecord
100
AcDbLayerTableRecord
  2
03__ASM_ALL_CURVES
 70
0
 62
7
  6
CONTINUOUS
370
-3
390
F
  0
LAYER
  5
207
100
AcDbSymbolTableRecord
100
AcDbLayerTableRecord
  2
03___PRT_ALL_CURVES
 70
0
 62
7
  6
CONTINUOUS
370
-3
390
F
  0
LAYER
  5
208
100
AcDbSymbolTableRecord
100
AcDbLayerTableRecord
  2
04_ALL_DTM_PNT
 70
0
 62
7
  6
CONTINUOUS
370
-3
390
F
  0
LAYER
  5
209
100
AcDbSymbolTableRecord
100
AcDbLayerTableRecord
  2
04__ASM_ALL_DTM_PNT
 70
0
 62
7
  6
CONTINUOUS
370
-3
390
F
  0
LAYER
  5
20A
100
AcDbSymbolTableRecord
100
AcDbLayerTableRecord
  2
04___PRT_ALL_DTM_PNT
 70
0
 62
7
  6
CONTINUOUS
370
-3
390
F
  0
LAYER
  5
20B
100
AcDbSymbolTableRecord
100
AcDbLayerTableRecord
  2
05_ALL_DTM_CSYS
 70
0
 62
7
  6
CONTINUOUS
370
-3
390
F
  0
LAYER
  5
20C
100
AcDbSymbolTableRecord
100
AcDbLayerTableRecord
  2
05__ASM_ALL_DTM_CSYS
 70
0
 62
7
  6
CONTINUOUS
370
-3
390
F
  0
LAYER
  5
20D
100
AcDbSymbolTableRecord
100
AcDbLayerTableRecord
  2
05__ASM_DEF_DTM_CSYS
 70
0
 62
7
  6
CONTINUOUS
370
-3
390
F
  0
LAYER
  5
20E
100
AcDbSymbolTableRecord
100
AcDbLayerTableRecord
  2
05___PRT_ALL_DTM_CSYS
 70
0
 62
7
  6
CONTINUOUS
370
-3
390
F
  0
LAYER
  5
20F
100
AcDbSymbolTableRecord
100
AcDbLayerTableRecord
  2
05___PRT_DEF_DTM_CSYS
 70
0
 62
7
  6
CONTINUOUS
370
-3
390
F
  0
LAYER
  5
210
100
AcDbSymbolTableRecord
100
AcDbLayerTableRecord
  2
06_ALL_SURFS
 70
0
 62
7
  6
CONTINUOUS
370
-3
390
F
  0
LAYER
  5
211
100
AcDbSymbolTableRecord
100
AcDbLayerTableRecord
  2
06__ASM_ALL_SURFS
 70
0
 62
7
  6
CONTINUOUS
370
-3
390
F
  0
LAYER
  5
212
100
AcDbSymbolTableRecord
100
AcDbLayerTableRecord
  2
06___PRT_ALL_SURFS
 70
0
 62
7
  6
CONTINUOUS
370
-3
390
F
  0
LAYER
  5
213
100
AcDbSymbolTableRecord
100
AcDbLayerTableRecord
  2
07__ASM_ALL_SKELETONS
 70
0
 62
7
  6
CONTINUOUS
370
-3
390
F
  0
ENDTAB
  0
TABLE
  2
STYLE
  5
3
100
AcDbSymbolTable
 70
1
  0
STYLE
  5
11
100
AcDbSymbolTableRecord
100
AcDbTextStyleTableRecord
  2
STANDARD
 70
0
 40
0.0
 41
0.8
 50
0.0
 71
0
 42
0.2
  3
txt
  4

  0
STYLE
  5
214
100
AcDbSymbolTableRecord
100
AcDbTextStyleTableRecord
  2
TEXTSTYLE_1
 70
0
 40
0.0
 41
0.8
 50
0.0
 71
0
 42
0.2
  3
gdt
  4

  0
ENDTAB
  0
TABLE
  2
VIEW
  5
6
100
AcDbSymbolTable
 70
0
  0
ENDTAB
  0
TABLE
  2
UCS
  5
7
100
AcDbSymbolTable
 70
0
  0
ENDTAB
  0
TABLE
  2
APPID
  5
9
100
AcDbSymbolTable
 70
1
  0
APPID
  5
215
100
AcDbSymbolTableRecord
100
AcDbRegAppTableRecord
  2
ACAD
 70
0
  0
ENDTAB
  0
TABLE
  2
BLOCK_RECORD
  5
1
100
AcDbSymbolTable
 70
0
  0
BLOCK_RECORD
  5
216
100
AcDbSymbolTableRecord
100
AcDbBlockTableRecord
  2
*Model_Space
  0
BLOCK_RECORD
  5
217
100
AcDbSymbolTableRecord
100
AcDbBlockTableRecord
  2
*Paper_Space
  0
BLOCK_RECORD
  5
218
100
AcDbSymbolTableRecord
100
AcDbBlockTableRecord
  2
_FILLED
  0
BLOCK_RECORD
  5
219
100
AcDbSymbolTableRecord
100
AcDbBlockTableRecord
  2
*D0
  0
BLOCK_RECORD
  5
21A
100
AcDbSymbolTableRecord
100
AcDbBlockTableRecord
  2
*D1
  0
BLOCK_RECORD
  5
21B
100
AcDbSymbolTableRecord
100
AcDbBlockTableRecord
  2
*D2
  0
ENDTAB
  0
TABLE
  2
DIMSTYLE
  5
A
100
AcDbSymbolTable
 70
1
100
AcDbDimStyleTable
 71
0
  0
DIMSTYLE
105
21C
100
AcDbSymbolTableRecord
100
AcDbDimStyleTableRecord
  2
STANDARD
 70
0
  3

  4

 40
1.0
 41
3.0
 42
0.5
 43
0.38
 44
0.5
 45
0.0
 46
0.0
 47
0.001
 48
0.001
140
1.8
141
0.09
142
0.0
143
25.4
144
1.0
145
0.0
146
1.0
147
0.625
 71
1.0
 72
0.0
 73
0
 74
0
 75
0
 76
0
 77
1
 78
8
170
0
171
2
172
0
173
0
174
0
175
0
176
0
177
0
178
0
270
2
271
3
272
3
273
2
274
2
275
0
280
0
281
0
282
0
283
1
284
8
285
0
286
0
287
3
288
0
340
11
278
46
341
218
342
218
343
218
344
218
  0
DIMSTYLE
105
21D
100
AcDbSymbolTableRecord
100
AcDbDimStyleTableRecord
  2
DIMSTYLE_1
 70
0
  3

  4

 40
1.0
 41
3.0
 42
0.5
 43
0.38
 44
0.5
 45
0.0
 46
0.0
 47
0.001
 48
0.001
140
1.8
141
0.09
142
0.0
143
25.4
144
1.0
145
0.0
146
1.0
147
0.45
 71
0.0
 72
0.0
 73
0
 74
0
 75
0
 76
0
 77
1
 78
8
170
0
171
2
172
0
173
0
174
0
175
0
176
0
177
0
178
0
270
2
271
3
272
3
273
2
274
2
275
0
280
0
281
0
282
0
283
1
284
8
285
0
286
0
287
3
288
0
340
11
278
46
341
218
342
218
343
218
344
218
  0
DIMSTYLE
105
21E
100
AcDbSymbolTableRecord
100
AcDbDimStyleTableRecord
  2
DIMSTYLE_2
 70
0
  3

  4

 40
1.0
 41
3.0
 42
0.5
 43
0.38
 44
0.5
 45
0.0
 46
0.0
 47
0.001
 48
0.001
140
1.8
141
0.09
142
0.0
143
25.4
144
1.0
145
0.0
146
1.0
147
0.45
 71
0.0
 72
0.0
 73
0
 74
0
 75
0
 76
0
 77
1
 78
8
170
0
171
2
172
0
173
0
174
0
175
0
176
0
177
0
178
0
270
2
271
0
272
0
273
2
274
2
275
0
280
0
281
0
282
0
283
1
284
8
285
0
286
0
287
3
288
0
340
11
278
46
341
218
342
218
343
218
344
218
  0
ENDTAB
  0
ENDSEC
  0
SECTION
  2
BLOCKS
  0
BLOCK
  5
20
100
AcDbEntity
  8
0
100
AcDbBlockBegin
  2
*Model_Space
 70
0
 10
0.0
 20
0.0
 30
0.0
  3
*Model_Space
  1

  0
ENDBLK
  5
21
100
AcDbEntity
  8
0
100
AcDbBlockEnd
  0
BLOCK
  5
1C
100
AcDbEntity
  8
0
100
AcDbBlockBegin
  2
*Paper_Space
 70
0
 10
0.0
 20
0.0
 30
0.0
  3
*Paper_Space
  1

  0
ENDBLK
  5
1D
100
AcDbEntity
  8
0
100
AcDbBlockEnd
  0
BLOCK
  5
21F
100
AcDbEntity
  8
0
100
AcDbBlockBegin
  2
_FILLED
 70
64
 10
0.0
 20
0.0
  3
_FILLED
  1

  0
SOLID
  5
220
100
AcDbEntity
  8
0
  6
BYBLOCK
 62
0
100
AcDbTrace
 10
0.0
 20
0.0
 11
-1.0
 21
0.1666666667
 12
-1.0
 22
-0.1666666667
 13
-1.0
 23
-0.1666666667
  0
ENDBLK
  5
221
100
AcDbEntity
  8
0
  6
BYBLOCK
 62
0
100
AcDbBlockEnd
  0
BLOCK
  5
222
100
AcDbEntity
  8
0
100
AcDbBlockBegin
 62
2
  6
CONTINUOUS
  2
*D0
 70
65
 10
0.0
 20
0.0
  3
*D0
  1

  0
MTEXT
  5
223
100
AcDbEntity
  8
0
100
AcDbMText
 62
2
  6
CONTINUOUS
  7
STANDARD
 71
2
 72
1
 10
86.8177339901
 20
250.5320197044
 30
0.0
 11
0.0
 21
1.0
 31
0.0
 44
0.9
  1
267
 40
1.8
 41
8.3314285714
  0
LINE
  5
224
100
AcDbEntity
  8
0
100
AcDbLine
 62
2
  6
CONTINUOUS
 10
112.7943142935
 20
117.0320197044
 11
88.8891625616
 21
117.0320197044
  0
LINE
  5
225
100
AcDbEntity
  8
0
100
AcDbLine
 62
2
  6
CONTINUOUS
 10
112.7943142935
 20
384.0320197044
 11
88.8891625616
 21
384.0320197044
  0
LINE
  5
226
100
AcDbEntity
  8
0
100
AcDbLine
 62
2
  6
CONTINUOUS
 10
89.3891625616
 20
117.0320197044
 11
89.3891625616
 21
250.5320197044
  0
LINE
  5
227
100
AcDbEntity
  8
0
100
AcDbLine
 62
2
  6
CONTINUOUS
 10
89.3891625616
 20
384.0320197044
 11
89.3891625616
 21
250.5320197044
  0
INSERT
  5
228
100
AcDbEntity
  8
0
100
AcDbBlockReference
 62
2
  6
CONTINUOUS
  2
_FILLED
 10
89.3891625616
 20
117.0320197044
 41
3.0
 42
3.0
 43
3.0
 50
270.0
  0
INSERT
  5
229
100
AcDbEntity
  8
0
100
AcDbBlockReference
 62
2
  6
CONTINUOUS
  2
_FILLED
 10
89.3891625616
 20
384.0320197044
 41
3.0
 42
3.0
 43
3.0
 50
90.0
  0
ENDBLK
  5
22A
100
AcDbEntity
  8
0
  6
BYBLOCK
 62
0
100
AcDbBlockEnd
  0
BLOCK
  5
22B
100
AcDbEntity
  8
0
100
AcDbBlockBegin
 62
2
  6
CONTINUOUS
  2
*D1
 70
65
 10
0.0
 20
0.0
  3
*D1
  1

  0
MTEXT
  5
22C
100
AcDbEntity
  8
0
100
AcDbMText
 62
2
  6
CONTINUOUS
  7
STANDARD
 71
2
 72
1
 10
245.5872075123
 20
101.6256157635
 30
0.0
 11
1.0
 21
0.0
 31
0.0
 44
0.9
  1
267
 40
1.8
 41
8.3314285714
  0
LINE
  5
22D
100
AcDbEntity
  8
0
100
AcDbLine
 62
2
  6
CONTINUOUS
 10
112.0872075123
 20
117.7391264856
 11
112.0872075123
 21
98.5541871921
  0
LINE
  5
22E
100
AcDbEntity
  8
0
100
AcDbLine
 62
2
  6
CONTINUOUS
 10
379.0872075123
 20
117.7391264856
 11
379.0872075123
 21
98.5541871921
  0
LINE
  5
22F
100
AcDbEntity
  8
0
100
AcDbLine
 62
2
  6
CONTINUOUS
 10
112.0872075123
 20
99.0541871921
 11
245.5872075123
 21
99.0541871921
  0
LINE
  5
230
100
AcDbEntity
  8
0
100
AcDbLine
 62
2
  6
CONTINUOUS
 10
379.0872075123
 20
99.0541871921
 11
245.5872075123
 21
99.0541871921
  0
INSERT
  5
231
100
AcDbEntity
  8
0
100
AcDbBlockReference
 62
2
  6
CONTINUOUS
  2
_FILLED
 10
112.0872075123
 20
99.0541871921
 41
3.0
 42
3.0
 43
3.0
 50
180.0
  0
INSERT
  5
232
100
AcDbEntity
  8
0
100
AcDbBlockReference
 62
2
  6
CONTINUOUS
  2
_FILLED
 10
379.0872075123
 20
99.0541871921
 41
3.0
 42
3.0
 43
3.0
  0
ENDBLK
  5
233
100
AcDbEntity
  8
0
  6
BYBLOCK
 62
0
100
AcDbBlockEnd
  0
BLOCK
  5
234
100
AcDbEntity
  8
0
100
AcDbBlockBegin
 62
2
  6
CONTINUOUS
  2
*D2
 70
65
 10
0.0
 20
0.0
  3
*D2
  1

  0
MTEXT
  5
235
100
AcDbEntity
  8
0
100
AcDbMText
 62
2
  6
CONTINUOUS
  7
STANDARD
 71
2
 72
1
 10
89.255107803
 20
583.3431342365
 30
0.0
 11
0.0
 21
1.0
 31
0.0
 44
0.9
  1
254
 40
1.8
 41
8.3314285714
  0
LINE
  5
236
100
AcDbEntity
  8
0
100
AcDbLine
 62
2
  6
CONTINUOUS
 10
170.5872075123
 20
456.2731342365
 11
91.3265363744
 21
456.2731342365
  0
LINE
  5
237
100
AcDbEntity
  8
0
100
AcDbLine
 62
2
  6
CONTINUOUS
 10
221.087207511
 20
710.4131342365
 11
91.3265363744
 21
710.4131342365
  0
LINE
  5
238
100
AcDbEntity
  8
0
100
AcDbLine
 62
2
  6
CONTINUOUS
 10
91.8265363744
 20
456.2731342365
 11
91.8265363744
 21
583.3431342365
  0
LINE
  5
239
100
AcDbEntity
  8
0
100
AcDbLine
 62
2
  6
CONTINUOUS
 10
91.8265363744
 20
710.4131342365
 11
91.8265363744
 21
583.3431342365
  0
INSERT
  5
23A
100
AcDbEntity
  8
0
100
AcDbBlockReference
 62
2
  6
CONTINUOUS
  2
_FILLED
 10
91.8265363744
 20
456.2731342365
 41
3.0
 42
3.0
 43
3.0
 50
270.0
  0
INSERT
  5
23B
100
AcDbEntity
  8
0
100
AcDbBlockReference
 62
2
  6
CONTINUOUS
  2
_FILLED
 10
91.8265363744
 20
710.4131342365
 41
3.0
 42
3.0
 43
3.0
 50
90.0
  0
ENDBLK
  5
23C
100
AcDbEntity
  8
0
  6
BYBLOCK
 62
0
100
AcDbBlockEnd
  0
ENDSEC
  0
SECTION
  2
ENTITIES
  0
DIMENSION
  5
23D
100
AcDbEntity
  8
0
100
AcDbDimension
 62
2
  6
CONTINUOUS
  2
*D0
 10
89.3891625616
 20
384.0320197044
 11
89.3891625616
 21
250.5320197044
 70
160
 71
2
 42
267.0
  3
DIMSTYLE_1
100
AcDbAlignedDimension
 13
113.2943142935
 23
117.0320197044
 14
113.2943142935
 24
384.0320197044
 50
90.0
100
AcDbRotatedDimension
  0
DIMENSION
  5
23E
100
AcDbEntity
  8
0
100
AcDbDimension
 62
2
  6
CONTINUOUS
  2
*D1
 10
379.0872075123
 20
99.0541871921
 11
245.5872075123
 21
99.0541871921
 70
160
 71
2
 42
267.0
  3
DIMSTYLE_1
100
AcDbAlignedDimension
 13
112.0872075123
 23
118.2391264856
 14
379.0872075123
 24
118.2391264856
100
AcDbRotatedDimension
  0
DIMENSION
  5
23F
100
AcDbEntity
  8
0
100
AcDbDimension
 62
2
  6
CONTINUOUS
  2
*D2
 10
91.8265363744
 20
710.4131342365
 11
91.8265363744
 21
583.3431342365
 70
160
 71
2
 42
254.14
  3
DIMSTYLE_2
100
AcDbAlignedDimension
 13
171.0872075123
 23
456.2731342365
 14
221.587207511
 24
710.4131342365
 50
90.0
100
AcDbRotatedDimension
  0
LINE
  5
240
100
AcDbEntity
  8
0
100
AcDbLine
 62
7
  6
CONTINUOUS
 10
112.0872075123
 20
692.4131342365
 11
112.0872075123
 21
693.4131342365
  0
LINE
  5
241
100
AcDbEntity
  8
0
100
AcDbLine
 62
7
  6
CONTINUOUS
 10
112.7943142935
 20
692.4131342365
 11
112.7943142935
 21
693.4131342365
  0
LINE
  5
242
100
AcDbEntity
  8
02___PRT_ALL_AXES
100
AcDbLine
 62
7
  6
CONTINUOUS
 10
320.0872075123
 20
456.2731342365
 11
171.0872075123
 21
456.2731342365
  0
LINE
  5
243
100
AcDbEntity
  8
02___PRT_ALL_AXES
100
AcDbLine
 62
7
  6
CONTINUOUS
 10
320.0872075123
 20
457.7731342365
 11
171.0872075123
 21
457.7731342365
  0
LINE
  5
244
100
AcDbEntity
  8
0
100
AcDbLine
 62
3
  6
CONTINUOUS
 10
134.0872075123
 20
658.2131342365
 11
134.0872075123
 21
691.6131342365
  0
LINE
  5
245
100
AcDbEntity
  8
0
100
AcDbLine
 62
3
  6
CONTINUOUS
 10
135.0872075123
 20
691.6131342365
 11
135.0872075123
 21
658.8131342365
  0
LINE
  5
246
100
AcDbEntity
  8
0
100
AcDbLine
 62
7
  6
CONTINUOUS
 10
135.0872075123
 20
658.2131342365
 11
135.0872075123
 21
658.8131342365
  0
LINE
  5
247
100
AcDbEntity
  8
0
100
AcDbLine
 62
7
  6
CONTINUOUS
 10
135.8813447998
 20
693.4131342365
 11
135.8813447998
 21
694.4131342365
  0
LINE
  5
248
100
AcDbEntity
  8
0
100
AcDbLine
 62
3
  6
CONTINUOUS
 10
135.8872075123
 20
658.8131342365
 11
135.8872075123
 21
656.4131342365
  0
LINE
  5
249
100
AcDbEntity
  8
0
100
AcDbLine
 62
7
  6
CONTINUOUS
 10
137.0872075123
 20
693.4131342365
 11
137.0872075123
 21
694.4131342365
  0
LINE
  5
24A
100
AcDbEntity
  8
0
100
AcDbLine
 62
7
  6
CONTINUOUS
 10
137.6872075123
 20
693.4131342365
 11
137.6872075123
 21
694.4131342365
  0
LINE
  5
24B
100
AcDbEntity
  8
0
100
AcDbLine
 62
7
  6
CONTINUOUS
 10
152.077376851
 20
656.4131342365
 11
153.5268092136
 21
628.7184418122
  0
LINE
  5
24C
100
AcDbEntity
  8
02___PRT_ALL_AXES
100
AcDbLine
 62
7
  6
CONTINUOUS
 10
156.3422291911
 20
626.7516040183
 11
164.8503607627
 21
464.4067825428
  0
LINE
  5
24D
100
AcDbEntity
  8
0
100
AcDbLine
 62
7
  6
CONTINUOUS
 10
161.8188649384
 20
637.6557455404
 11
161.8188649384
 21
656.4131342365
  0
LINE
  5
24E
100
AcDbEntity
  8
0
100
AcDbLine
 62
7
  6
CONTINUOUS
 10
162.8188649384
 20
637.6557455404
 11
162.8188649384
 21
656.4131342365
  0
LINE
  5
24F
100
AcDbEntity
  8
02___PRT_ALL_AXES
100
AcDbLine
 62
7
  6
CONTINUOUS
 10
171.0872075123
 20
457.7731342365
 11
171.0872075123
 21
456.2731342365
  0
LINE
  5
250
100
AcDbEntity
  8
0
100
AcDbLine
 62
7
  6
CONTINUOUS
 10
220.5872075123
 20
710.1131342365
 11
220.5872075123
 21
708.7131342365
  0
LINE
  5
251
100
AcDbEntity
  8
0
100
AcDbLine
 62
7
  6
CONTINUOUS
 10
164.9094643197
 20
633.4027145094
 11
161.8188649384
 21
637.6557455404
  0
LINE
  5
252
100
AcDbEntity
  8
0
100
AcDbLine
 62
7
  6
CONTINUOUS
 10
165.9094643197
 20
633.4027145094
 11
162.8188649384
 21
637.6557455404
  0
LINE
  5
253
100
AcDbEntity
  8
0
100
AcDbLine
 62
7
  6
CONTINUOUS
 10
225.5872075123
 20
656.4131342365
 11
225.5872075123
 21
647.4131342365
  0
LINE
  5
254
100
AcDbEntity
  8
0
100
AcDbLine
 62
7
  6
CONTINUOUS
 10
233.5957827283
 20
707.9218604397
 11
233.8404582702
 21
693.9044080332
  0
LWPOLYLINE
  5
255
100
AcDbEntity
  8
0
100
AcDbPolyline
 62
7
  6
CONTINUOUS
 90
3
 70
0
 10
334.8321870835
 20
626.7516278684
 10
334.8653924299
 20
626.7650189065
 10
334.9017527056
 20
626.7764726109
  0
LINE
  5
256
100
AcDbEntity
  8
0
100
AcDbLine
 62
7
  6
CONTINUOUS
 10
257.5786322963
 20
707.9218604397
 11
257.3339567544
 21
693.9044080332
  0
LWPOLYLINE
  5
257
100
AcDbEntity
  8
0
100
AcDbPolyline
 62
7
  6
CONTINUOUS
 90
19
 70
0
 10
156.3089659479
 20
626.7650392457
 10
156.3439459497
 20
626.7509078324
 10
156.3753775575
 20
626.7353355842
 10
156.404403587
 20
626.7182425937
 10
156.4308560495
 20
626.7000764826
 10
156.4546577921
 20
626.6812815726
 10
156.4757985987
 20
626.662292393
 10
156.4942959275
 20
626.6435546438
 10
156.5102489022
 20
626.6254582956
 10
156.523732773
 20
626.608437622
 10
156.5350030659
 20
626.5926943196
 10
156.54425184
 20
626.5784660121
 10
156.5517126929
 20
626.5658802078
 10
156.5575824902
 20
626.5550650951
 10
156.5620598783
 20
626.5460876954
 10
156.5653167216
 20
626.5390061174
 10
156.5675105614
 20
626.5338508704
 10
156.5687792786
 20
626.5306411914
 10
156.5690635552
 20
626.5298820781
  0
LINE
  5
258
100
AcDbEntity
  8
0
100
AcDbLine
 62
7
  6
CONTINUOUS
 10
265.5872075123
 20
647.4131342365
 11
265.5872075123
 21
656.4131342365
  0
LINE
  5
259
100
AcDbEntity
  8
0
100
AcDbLine
 62
7
  6
CONTINUOUS
 10
270.5872075123
 20
710.1131342365
 11
270.5872075123
 21
708.7131342365
  0
LWPOLYLINE
  5
25A
100
AcDbEntity
  8
0
100
AcDbPolyline
 62
7
  6
CONTINUOUS
 90
3
 70
0
 10
334.9017527056
 20
626.7764726109
 10
334.9398367325
 20
626.7851939176
 10
334.9792143056
 20
626.7908847286
  0
LWPOLYLINE
  5
25B
100
AcDbEntity
  8
0
100
AcDbPolyline
 62
7
  6
CONTINUOUS
 90
3
 70
0
 10
156.2347558762
 20
626.7851607118
 10
156.2741535524
 20
626.7760644519
 10
156.3101582493
 20
626.7646095371
  0
LINE
  5
25C
100
AcDbEntity
  8
0
100
AcDbLine
 62
7
  6
CONTINUOUS
 10
156.2727552721
 20
626.7764473158
 11
156.3089659479
 21
626.7650392457
  0
LINE
  5
25D
100
AcDbEntity
  8
0
100
AcDbLine
 62
7
  6
CONTINUOUS
 10
325.2649507049
 20
633.4027145094
 11
328.3555500862
 21
637.6557455404
  0
LINE
  5
25E
100
AcDbEntity
  8
0
100
AcDbLine
 62
7
  6
CONTINUOUS
 10
326.2649507049
 20
633.4027145094
 11
329.3555500862
 21
637.6557455404
  0
LINE
  5
25F
100
AcDbEntity
  8
0
100
AcDbLine
 62
7
  6
CONTINUOUS
 10
335.00756423
 20
626.7929583881
 11
335.7376969554
 21
626.824880136
  0
LINE
  5
260
100
AcDbEntity
  8
0
100
AcDbLine
 62
7
  6
CONTINUOUS
 10
155.4367180692
 20
626.824880136
 11
156.1668507947
 21
626.7929583881
  0
LINE
  5
261
100
AcDbEntity
  8
0
100
AcDbLine
 62
7
  6
CONTINUOUS
 10
156.1668603814
 20
626.7929587093
 11
156.1953430916
 21
626.790870078
  0
LINE
  5
262
100
AcDbEntity
  8
0
100
AcDbLine
 62
7
  6
CONTINUOUS
 10
156.1953430916
 20
626.790870078
 11
156.2360920089
 21
626.7849087166
  0
LINE
  5
263
100
AcDbEntity
  8
0
100
AcDbLine
 62
7
  6
CONTINUOUS
 10
255.5872075123
 20
637.4131342365
 11
235.5872075123
 21
637.4131342365
  0
LINE
  5
264
100
AcDbEntity
  8
0
100
AcDbLine
 62
7
  6
CONTINUOUS
 10
329.3555500862
 20
637.6557455404
 11
328.3555500862
 21
637.6557455404
  0
LINE
  5
265
100
AcDbEntity
  8
0
100
AcDbLine
 62
7
  6
CONTINUOUS
 10
162.8188649384
 20
637.6557455404
 11
161.8188649384
 21
637.6557455404
  0
LINE
  5
266
100
AcDbEntity
  8
02___PRT_ALL_AXES
100
AcDbLine
 62
7
  6
CONTINUOUS
 10
320.0872075123
 20
457.7731342365
 11
320.0872075123
 21
456.2731342365
  0
LWPOLYLINE
  5
267
100
AcDbEntity
  8
0
100
AcDbPolyline
 62
7
  6
CONTINUOUS
 90
25
 70
0
 10
334.6059658341
 20
626.5318321463
 10
334.6056531005
 20
626.5308471523
 10
334.605173287
 20
626.5293927658
 10
334.6053579083
 20
626.5298995324
 10
334.6063179937
 20
626.5323955745
 10
334.608177008
 20
626.5368882614
 10
334.6110786599
 20
626.543378186
 10
334.6151865423
 20
626.551849928
 10
334.6206805773
 20
626.5622588953
 10
334.627771502
 20
626.5745530176
 10
334.6366640917
 20
626.5886045812
 10
334.6476026068
 20
626.6042875005
 10
334.6607930606
 20
626.6213632629
 10
334.6765081948
 20
626.6396296368
 10
334.6948369225
 20
626.6586378861
 10
334.7158951745
 20
626.6779855147
 10
334.7397095729
 20
626.6972042159
 10
334.7662802614
 20
626.7158381766
 10
334.7955324631
 20
626.7334164622
 10
334.8272970299
 20
626.7494648508
 10
334.8615244891
 20
626.7636112174
 10
334.8980682917
 20
626.7754547186
 10
334.936769287
 20
626.7846107221
 10
334.9773970014
 20
626.79069456
 10
335.0075543671
 20
626.792958732
  0
LINE
  5
268
100
AcDbEntity
  8
0
100
AcDbLine
 62
3
  6
CONTINUOUS
 10
135.8872075123
 20
656.4131342365
 11
355.2872075123
 21
656.4131342365
  0
LINE
  5
269
100
AcDbEntity
  8
0
100
AcDbLine
 62
7
  6
CONTINUOUS
 10
357.0872075123
 20
658.8131342365
 11
356.0872075123
 21
658.8131342365
  0
LINE
  5
26A
100
AcDbEntity
  8
0
100
AcDbLine
 62
7
  6
CONTINUOUS
 10
134.0872075123
 20
658.8131342365
 11
135.0872075123
 21
658.8131342365
  0
LINE
  5
26B
100
AcDbEntity
  8
0
100
AcDbLine
 62
3
  6
CONTINUOUS
 10
135.0872075123
 20
658.8131342365
 11
135.8872075123
 21
658.8131342365
  0
LINE
  5
26C
100
AcDbEntity
  8
0
100
AcDbLine
 62
3
  6
CONTINUOUS
 10
355.2872075123
 20
658.8131342365
 11
356.0872075123
 21
658.8131342365
  0
LINE
  5
26D
100
AcDbEntity
  8
0
100
AcDbLine
 62
7
  6
CONTINUOUS
 10
328.3555500862
 20
637.6557455404
 11
328.3555500862
 21
656.4131342365
  0
LINE
  5
26E
100
AcDbEntity
  8
0
100
AcDbLine
 62
7
  6
CONTINUOUS
 10
329.3555500862
 20
637.6557455404
 11
329.3555500862
 21
656.4131342365
  0
LINE
  5
26F
100
AcDbEntity
  8
0
100
AcDbLine
 62
7
  6
CONTINUOUS
 10
326.3240542619
 20
464.4067825428
 11
334.8321794802
 21
626.75148279
  0
LINE
  5
270
100
AcDbEntity
  8
0
100
AcDbLine
 62
7
  6
CONTINUOUS
 10
337.6476058111
 20
628.7184418122
 11
339.0970381736
 21
656.4131342365
  0
LINE
  5
271
100
AcDbEntity
  8
0
100
AcDbLine
 62
7
  6
CONTINUOUS
 10
353.4872075123
 20
693.4131342365
 11
353.4872075123
 21
694.4131342365
  0
LINE
  5
272
100
AcDbEntity
  8
0
100
AcDbLine
 62
7
  6
CONTINUOUS
 10
354.0872075123
 20
693.4131342365
 11
354.0872075123
 21
694.4131342365
  0
LINE
  5
273
100
AcDbEntity
  8
0
100
AcDbLine
 62
3
  6
CONTINUOUS
 10
355.2872075123
 20
656.4131342365
 11
355.2872075123
 21
658.8131342365
  0
LINE
  5
274
100
AcDbEntity
  8
0
100
AcDbLine
 62
7
  6
CONTINUOUS
 10
355.2930702248
 20
693.4131342365
 11
355.2930702248
 21
694.4131342365
  0
LINE
  5
275
100
AcDbEntity
  8
0
100
AcDbLine
 62
7
  6
CONTINUOUS
 10
356.0872075123
 20
658.8131342365
 11
356.0872075123
 21
658.2131342365
  0
LINE
  5
276
100
AcDbEntity
  8
0
100
AcDbLine
 62
3
  6
CONTINUOUS
 10
356.0872075123
 20
658.8131342365
 11
356.0872075123
 21
691.6131342365
  0
LINE
  5
277
100
AcDbEntity
  8
0
100
AcDbLine
 62
3
  6
CONTINUOUS
 10
357.0872075123
 20
691.6131342365
 11
357.0872075123
 21
658.2131342365
  0
LINE
  5
278
100
AcDbEntity
  8
0
100
AcDbLine
 62
7
  6
CONTINUOUS
 10
135.0872075123
 20
691.6131342365
 11
134.0872075123
 21
691.6131342365
  0
LINE
  5
279
100
AcDbEntity
  8
0
100
AcDbLine
 62
7
  6
CONTINUOUS
 10
356.0872075123
 20
691.6131342365
 11
357.0872075123
 21
691.6131342365
  0
LINE
  5
27A
100
AcDbEntity
  8
0
100
AcDbLine
 62
3
  6
CONTINUOUS
 10
379.0872075123
 20
692.4131342365
 11
112.7953953512
 21
692.4131342365
  0
LINE
  5
27B
100
AcDbEntity
  8
0
100
AcDbLine
 62
3
  6
CONTINUOUS
 10
112.7943142935
 20
692.4131342365
 11
112.0872075123
 21
692.4131342365
  0
LINE
  5
27C
100
AcDbEntity
  8
0
100
AcDbLine
 62
7
  6
CONTINUOUS
 10
112.0872075123
 20
693.4131342365
 11
378.3790196735
 21
693.4131342365
  0
LINE
  5
27D
100
AcDbEntity
  8
0
100
AcDbLine
 62
7
  6
CONTINUOUS
 10
378.3801007311
 20
693.4131342365
 11
379.0872075123
 21
693.4131342365
  0
LINE
  5
27E
100
AcDbEntity
  8
0
100
AcDbLine
 62
7
  6
CONTINUOUS
 10
135.8813447998
 20
694.4131342365
 11
137.6872075123
 21
694.4131342365
  0
LINE
  5
27F
100
AcDbEntity
  8
0
100
AcDbLine
 62
7
  6
CONTINUOUS
 10
353.4872075123
 20
694.4131342365
 11
355.2930702248
 21
694.4131342365
  0
LINE
  5
280
100
AcDbEntity
  8
0
100
AcDbLine
 62
7
  6
CONTINUOUS
 10
270.2872075123
 20
708.4131342365
 11
220.8872075123
 21
708.4131342365
  0
LINE
  5
281
100
AcDbEntity
  8
0
100
AcDbLine
 62
7
  6
CONTINUOUS
 10
220.8872075123
 20
710.4131342365
 11
270.2872075123
 21
710.4131342365
  0
LINE
  5
282
100
AcDbEntity
  8
0
100
AcDbLine
 62
7
  6
CONTINUOUS
 10
378.3801007311
 20
692.4131342365
 11
378.3801007311
 21
693.4131342365
  0
LINE
  5
283
100
AcDbEntity
  8
0
100
AcDbLine
 62
7
  6
CONTINUOUS
 10
379.0872075123
 20
692.4131342365
 11
379.0872075123
 21
693.4131342365
  0
LINE
  5
284
100
AcDbEntity
  8
03___PRT_ALL_CURVES
100
AcDbLine
 62
2
  6
CONTINUOUS
 10
137.8813447998
 20
352.934581558
 11
143.1846456587
 21
358.2378824169
  0
LINE
  5
285
100
AcDbEntity
  8
03___PRT_ALL_CURVES
100
AcDbLine
 62
2
  6
CONTINUOUS
 10
143.1846456587
 20
142.826156992
 11
137.8813447998
 21
148.1294578509
  0
LINE
  5
286
100
AcDbEntity
  8
0
100
AcDbLine
 62
7
  6
CONTINUOUS
 10
112.0872075123
 20
382.8249129232
 11
112.0872075123
 21
118.2391264856
  0
LINE
  5
287
100
AcDbEntity
  8
0
100
AcDbLine
 62
7
  6
CONTINUOUS
 10
113.2943142935
 20
117.0320197044
 11
377.8801007311
 21
117.0320197044
  0
LINE
  5
288
100
AcDbEntity
  8
0
100
AcDbLine
 62
7
  6
CONTINUOUS
 10
135.0872075123
 20
140.0320197044
 11
135.0872075123
 21
361.0320197044
  0
LINE
  5
289
100
AcDbEntity
  8
0
100
AcDbLine
 62
7
  6
CONTINUOUS
 10
135.8813447998
 20
359.0320197044
 11
135.8813447998
 21
358.4320197044
  0
LINE
  5
28A
100
AcDbEntity
  8
0
100
AcDbLine
 62
7
  6
CONTINUOUS
 10
135.8813447998
 20
142.6320197044
 11
135.8813447998
 21
142.0320197044
  0
LINE
  5
28B
100
AcDbEntity
  8
0
100
AcDbLine
 62
7
  6
CONTINUOUS
 10
135.8872075123
 20
361.0320197044
 11
135.8872075123
 21
360.2320197044
  0
LINE
  5
28C
100
AcDbEntity
  8
0
100
AcDbLine
 62
7
  6
CONTINUOUS
 10
135.8872075123
 20
140.0320197044
 11
135.8872075123
 21
140.8320197044
  0
LINE
  5
28D
100
AcDbEntity
  8
0
100
AcDbLine
 62
7
  6
CONTINUOUS
 10
136.0872075123
 20
142.6320197044
 11
136.0872075123
 21
358.4320197044
  0
LINE
  5
28E
100
AcDbEntity
  8
0
100
AcDbLine
 62
7
  6
CONTINUOUS
 10
137.0872075123
 20
360.2378824169
 11
137.0872075123
 21
359.0320197044
  0
LINE
  5
28F
100
AcDbEntity
  8
0
100
AcDbLine
 62
7
  6
CONTINUOUS
 10
137.0872075123
 20
140.826156992
 11
137.0872075123
 21
142.0320197044
  0
LINE
  5
290
100
AcDbEntity
  8
0
100
AcDbLine
 62
3
  6
CONTINUOUS
 10
137.0872075123
 20
142.0320197044
 11
137.0872075123
 21
142.440448396
  0
LINE
  5
291
100
AcDbEntity
  8
0
100
AcDbLine
 62
3
  6
CONTINUOUS
 10
137.0872075123
 20
358.6235910128
 11
137.0872075123
 21
359.0320197044
  0
LINE
  5
292
100
AcDbEntity
  8
0
100
AcDbLine
 62
7
  6
CONTINUOUS
 10
137.6872075123
 20
140.826156992
 11
137.6872075123
 21
142.6320197044
  0
LINE
  5
293
100
AcDbEntity
  8
0
100
AcDbLine
 62
7
  6
CONTINUOUS
 10
137.6872075123
 20
358.4320197044
 11
137.6872075123
 21
360.2378824169
  0
LINE
  5
294
100
AcDbEntity
  8
03___PRT_ALL_CURVES
100
AcDbLine
 62
2
  6
CONTINUOUS
 10
137.8813447998
 20
148.1294578509
 11
137.8813447998
 21
352.934581558
  0
LINE
  5
295
100
AcDbEntity
  8
0
100
AcDbLine
 62
7
  6
CONTINUOUS
 10
356.0872075123
 20
140.0320197044
 11
135.0872075123
 21
140.0320197044
  0
LINE
  5
296
100
AcDbEntity
  8
0
100
AcDbLine
 62
7
  6
CONTINUOUS
 10
137.0872075123
 20
140.826156992
 11
137.6872075123
 21
140.826156992
  0
LINE
  5
297
100
AcDbEntity
  8
0
100
AcDbLine
 62
7
  6
CONTINUOUS
 10
353.4872075123
 20
140.826156992
 11
354.0872075123
 21
140.826156992
  0
LINE
  5
298
100
AcDbEntity
  8
0
100
AcDbLine
 62
7
  6
CONTINUOUS
 10
356.0872075123
 20
140.8320197044
 11
355.2872075123
 21
140.8320197044
  0
LINE
  5
299
100
AcDbEntity
  8
0
100
AcDbLine
 62
7
  6
CONTINUOUS
 10
135.0872075123
 20
140.8320197044
 11
135.8872075123
 21
140.8320197044
  0
LINE
  5
29A
100
AcDbEntity
  8
0
100
AcDbLine
 62
7
  6
CONTINUOUS
 10
353.4872075123
 20
141.0320197044
 11
137.6872075123
 21
141.0320197044
  0
LINE
  5
29B
100
AcDbEntity
  8
0
100
AcDbLine
 62
3
  6
CONTINUOUS
 10
354.0872075123
 20
142.0320197044
 11
353.6787788207
 21
142.0320197044
  0
LINE
  5
29C
100
AcDbEntity
  8
0
100
AcDbLine
 62
3
  6
CONTINUOUS
 10
137.4956362039
 20
142.0320197044
 11
137.0872075123
 21
142.0320197044
  0
LINE
  5
29D
100
AcDbEntity
  8
0
100
AcDbLine
 62
7
  6
CONTINUOUS
 10
135.8813447998
 20
142.0320197044
 11
137.0872075123
 21
142.0320197044
  0
LINE
  5
29E
100
AcDbEntity
  8
0
100
AcDbLine
 62
7
  6
CONTINUOUS
 10
354.0872075123
 20
142.0320197044
 11
355.2930702248
 21
142.0320197044
  0
LINE
  5
29F
100
AcDbEntity
  8
0
100
AcDbLine
 62
7
  6
CONTINUOUS
 10
355.2930702248
 20
142.6320197044
 11
353.4872075123
 21
142.6320197044
  0
LINE
  5
2A0
100
AcDbEntity
  8
0
100
AcDbLine
 62
7
  6
CONTINUOUS
 10
137.6872075123
 20
142.6320197044
 11
135.8813447998
 21
142.6320197044
  0
LINE
  5
2A1
100
AcDbEntity
  8
03___PRT_ALL_CURVES
100
AcDbLine
 62
2
  6
CONTINUOUS
 10
347.9897693659
 20
142.826156992
 11
143.1846456587
 21
142.826156992
  0
LINE
  5
2A2
100
AcDbEntity
  8
03___PRT_ALL_CURVES
100
AcDbLine
 62
2
  6
CONTINUOUS
 10
239.4343678756
 20
156.7059545194
 11
238.8597918166
 21
156.680778466
  0
LINE
  5
2A3
100
AcDbEntity
  8
03___PRT_ALL_CURVES
100
AcDbLine
 62
2
  6
CONTINUOUS
 10
268.5872554438
 20
150.5622747192
 11
222.5871595808
 21
150.5622747192
  0
LINE
  5
2A4
100
AcDbEntity
  8
03___PRT_ALL_CURVES
100
AcDbLine
 62
2
  6
CONTINUOUS
 10
238.0699878659
 20
154.5321307113
 11
238.6963053458
 21
154.5321307113
  0
LINE
  5
2A5
100
AcDbEntity
  8
03___PRT_ALL_CURVES
100
AcDbLine
 62
2
  6
CONTINUOUS
 10
238.7269965548
 20
154.8376955873
 11
238.1775965492
 21
154.8376955873
  0
LINE
  5
2A6
100
AcDbEntity
  8
03___PRT_ALL_CURVES
100
AcDbLine
 62
2
  6
CONTINUOUS
 10
232.4807566512
 20
155.5302370339
 11
233.8451366609
 21
155.5302370339
  0
LINE
  5
2A7
100
AcDbEntity
  8
03___PRT_ALL_CURVES
100
AcDbLine
 62
2
  6
CONTINUOUS
 10
250.8942611132
 20
155.5357521894
 11
252.2586305978
 21
155.5357521894
  0
LINE
  5
2A8
100
AcDbEntity
  8
03___PRT_ALL_CURVES
100
AcDbLine
 62
2
  6
CONTINUOUS
 10
233.524384057
 20
155.7844288677
 11
232.4859350033
 21
155.7844288677
  0
LINE
  5
2A9
100
AcDbEntity
  8
03___PRT_ALL_CURVES
100
AcDbLine
 62
2
  6
CONTINUOUS
 10
251.9382253224
 20
155.7899334981
 11
250.8994289402
 21
155.7899334981
  0
LINE
  5
2AA
100
AcDbEntity
  8
03___PRT_ALL_CURVES
100
AcDbLine
 62
2
  6
CONTINUOUS
 10
254.686972518
 20
156.4721182405
 11
255.0939467899
 21
156.4721182405
  0
LINE
  5
2AB
100
AcDbEntity
  8
03___PRT_ALL_CURVES
100
AcDbLine
 62
2
  6
CONTINUOUS
 10
255.4609046089
 20
156.4721182405
 11
255.9089057438
 21
156.4721182405
  0
LINE
  5
2AC
100
AcDbEntity
  8
03___PRT_ALL_CURVES
100
AcDbLine
 62
2
  6
CONTINUOUS
 10
255.0939467899
 20
156.7469919075
 11
254.8145894277
 21
156.7469919075
  0
LINE
  5
2AD
100
AcDbEntity
  8
03___PRT_ALL_CURVES
100
AcDbLine
 62
2
  6
CONTINUOUS
 10
256.0365331786
 20
156.7469919075
 11
255.4609046089
 21
156.7469919075
  0
LINE
  5
2AE
100
AcDbEntity
  8
03___PRT_ALL_CURVES
100
AcDbLine
 62
2
  6
CONTINUOUS
 10
263.8360531545
 20
159.8122747192
 11
227.3383618701
 21
159.8122747192
  0
LINE
  5
2AF
100
AcDbEntity
  8
03___PRT_ALL_CURVES
100
AcDbLine
 62
2
  6
CONTINUOUS
 10
230.1441309194
 20
161.8378413752
 11
230.5870363578
 21
161.8378413752
  0
LINE
  5
2B0
100
AcDbEntity
  8
03___PRT_ALL_CURVES
100
AcDbLine
 62
2
  6
CONTINUOUS
 10
232.3182027244
 20
161.8378413752
 11
232.7252397891
 21
161.8378413752
  0
LINE
  5
2B1
100
AcDbEntity
  8
03___PRT_ALL_CURVES
100
AcDbLine
 62
2
  6
CONTINUOUS
 10
234.1347634117
 20
161.8378413752
 11
234.6852739714
 21
161.8378413752
  0
LINE
  5
2B2
100
AcDbEntity
  8
03___PRT_ALL_CURVES
100
AcDbLine
 62
2
  6
CONTINUOUS
 10
234.8169522898
 20
161.8378413752
 11
235.5350440304
 21
161.8378413752
  0
LINE
  5
2B3
100
AcDbEntity
  8
03___PRT_ALL_CURVES
100
AcDbLine
 62
2
  6
CONTINUOUS
 10
238.5339504768
 20
161.8378413752
 11
239.2264170235
 21
161.8378413752
  0
LINE
  5
2B4
100
AcDbEntity
  8
03___PRT_ALL_CURVES
100
AcDbLine
 62
2
  6
CONTINUOUS
 10
237.8409665979
 20
161.8378413752
 11
238.3355707788
 21
161.8378413752
  0
LINE
  5
2B5
100
AcDbEntity
  8
03___PRT_ALL_CURVES
100
AcDbLine
 62
2
  6
CONTINUOUS
 10
242.443571237
 20
161.8378413752
 11
242.8664361623
 21
161.8378413752
  0
LINE
  5
2B6
100
AcDbEntity
  8
03___PRT_ALL_CURVES
100
AcDbLine
 62
2
  6
CONTINUOUS
 10
247.6162047309
 20
161.8378413752
 11
248.0032011518
 21
161.8378413752
  0
LINE
  5
2B7
100
AcDbEntity
  8
03___PRT_ALL_CURVES
100
AcDbLine
 62
2
  6
CONTINUOUS
 10
250.03414435
 20
161.8378413752
 11
250.4261787775
 21
161.8378413752
  0
LINE
  5
2B8
100
AcDbEntity
  8
03___PRT_ALL_CURVES
100
AcDbLine
 62
2
  6
CONTINUOUS
 10
252.1573478977
 20
161.8378413752
 11
252.6002505826
 21
161.8378413752
  0
LINE
  5
2B9
100
AcDbEntity
  8
03___PRT_ALL_CURVES
100
AcDbLine
 62
2
  6
CONTINUOUS
 10
254.3610773353
 20
161.8378413752
 11
254.8039827737
 21
161.8378413752
  0
LINE
  5
2BA
100
AcDbEntity
  8
03___PRT_ALL_CURVES
100
AcDbLine
 62
2
  6
CONTINUOUS
 10
255.7813959589
 20
161.8378413752
 11
256.1683605297
 21
161.8378413752
  0
LINE
  5
2BB
100
AcDbEntity
  8
03___PRT_ALL_CURVES
100
AcDbLine
 62
2
  6
CONTINUOUS
 10
258.1999590155
 20
161.8378413752
 11
258.5923383312
 21
161.8378413752
  0
LINE
  5
2BC
100
AcDbEntity
  8
03___PRT_ALL_CURVES
100
AcDbLine
 62
2
  6
CONTINUOUS
 10
258.9837203972
 20
161.8378413752
 11
259.7017776671
 21
161.8378413752
  0
LINE
  5
2BD
100
AcDbEntity
  8
03___PRT_ALL_CURVES
100
AcDbLine
 62
2
  6
CONTINUOUS
 10
262.0075593352
 20
161.8378413752
 11
262.501991072
 21
161.8378413752
  0
LINE
  5
2BE
100
AcDbEntity
  8
03___PRT_ALL_CURVES
100
AcDbLine
 62
2
  6
CONTINUOUS
 10
240.6615338144
 20
162.1433051483
 11
240.9926265037
 21
162.1433051483
  0
LINE
  5
2BF
100
AcDbEntity
  8
03___PRT_ALL_CURVES
100
AcDbLine
 62
2
  6
CONTINUOUS
 10
235.8199561801
 20
162.6473247774
 11
237.3064612294
 21
162.6473247774
  0
LINE
  5
2C0
100
AcDbEntity
  8
03___PRT_ALL_CURVES
100
AcDbLine
 62
2
  6
CONTINUOUS
 10
259.9874111379
 20
162.6473247774
 11
261.4730515884
 21
162.6473247774
  0
LINE
  5
2C1
100
AcDbEntity
  8
03___PRT_ALL_CURVES
100
AcDbLine
 62
2
  6
CONTINUOUS
 10
232.7252397891
 20
163.192455081
 11
233.1987713005
 21
163.192455081
  0
LINE
  5
2C2
100
AcDbEntity
  8
03___PRT_ALL_CURVES
100
AcDbLine
 62
2
  6
CONTINUOUS
 10
261.2440113286
 20
163.2884412203
 11
260.2161065095
 21
163.2884412203
  0
LINE
  5
2C3
100
AcDbEntity
  8
03___PRT_ALL_CURVES
100
AcDbLine
 62
2
  6
CONTINUOUS
 10
237.0777634795
 20
163.2884412203
 11
236.0496517275
 21
163.2884412203
  0
LINE
  5
2C4
100
AcDbEntity
  8
03___PRT_ALL_CURVES
100
AcDbLine
 62
2
  6
CONTINUOUS
 10
233.204015876
 20
163.8177374045
 11
232.7252397891
 21
163.8177374045
  0
LINE
  5
2C5
100
AcDbEntity
  8
03___PRT_ALL_CURVES
100
AcDbLine
 62
2
  6
CONTINUOUS
 10
229.1308493604
 20
164.8520571442
 11
229.8637368052
 21
164.8520571442
  0
LINE
  5
2C6
100
AcDbEntity
  8
03___PRT_ALL_CURVES
100
AcDbLine
 62
2
  6
CONTINUOUS
 10
230.5870363578
 20
164.8520571442
 11
231.6003179168
 21
164.8520571442
  0
LINE
  5
2C7
100
AcDbEntity
  8
03___PRT_ALL_CURVES
100
AcDbLine
 62
2
  6
CONTINUOUS
 10
251.1439256299
 20
164.8520571442
 11
251.8768130747
 21
164.8520571442
  0
LINE
  5
2C8
100
AcDbEntity
  8
03___PRT_ALL_CURVES
100
AcDbLine
 62
2
  6
CONTINUOUS
 10
252.6002505826
 20
164.8520571442
 11
253.6133596975
 21
164.8520571442
  0
LINE
  5
2C9
100
AcDbEntity
  8
03___PRT_ALL_CURVES
100
AcDbLine
 62
2
  6
CONTINUOUS
 10
232.7252397891
 20
164.8773412407
 11
233.204015876
 21
164.8773412407
  0
LINE
  5
2CA
100
AcDbEntity
  8
03___PRT_ALL_CURVES
100
AcDbLine
 62
2
  6
CONTINUOUS
 10
261.0870527045
 20
165.5081724736
 11
260.3892059018
 21
165.5081724736
  0
LINE
  5
2CB
100
AcDbEntity
  8
03___PRT_ALL_CURVES
100
AcDbLine
 62
2
  6
CONTINUOUS
 10
258.5923383312
 20
165.5081724736
 11
257.9248072021
 21
165.5081724736
  0
LINE
  5
2CC
100
AcDbEntity
  8
03___PRT_ALL_CURVES
100
AcDbLine
 62
2
  6
CONTINUOUS
 10
256.15356768
 20
165.5081724736
 11
255.5021744646
 21
165.5081724736
  0
LINE
  5
2CD
100
AcDbEntity
  8
03___PRT_ALL_CURVES
100
AcDbLine
 62
2
  6
CONTINUOUS
 10
254.8039827737
 20
165.5081724736
 11
254.081855841
 21
165.5081724736
  0
LINE
  5
2CE
100
AcDbEntity
  8
03___PRT_ALL_CURVES
100
AcDbLine
 62
2
  6
CONTINUOUS
 10
253.6133596975
 20
165.5081724736
 11
250.8640170801
 21
165.5081724736
  0
LINE
  5
2CF
100
AcDbEntity
  8
03___PRT_ALL_CURVES
100
AcDbLine
 62
2
  6
CONTINUOUS
 10
250.4261787775
 20
165.5081724736
 11
249.7589580478
 21
165.5081724736
  0
LINE
  5
2D0
100
AcDbEntity
  8
03___PRT_ALL_CURVES
100
AcDbLine
 62
2
  6
CONTINUOUS
 10
247.9877156712
 20
165.5081724736
 11
247.3356700227
 21
165.5081724736
  0
LINE
  5
2D1
100
AcDbEntity
  8
03___PRT_ALL_CURVES
100
AcDbLine
 62
2
  6
CONTINUOUS
 10
242.2958875976
 20
165.5081724736
 11
241.6547749053
 21
165.5081724736
  0
LINE
  5
2D2
100
AcDbEntity
  8
03___PRT_ALL_CURVES
100
AcDbLine
 62
2
  6
CONTINUOUS
 10
239.7506471017
 20
165.5081724736
 11
239.1043265974
 21
165.5081724736
  0
LINE
  5
2D3
100
AcDbEntity
  8
03___PRT_ALL_CURVES
100
AcDbLine
 62
2
  6
CONTINUOUS
 10
236.9198046796
 20
165.5081724736
 11
236.2224407204
 21
165.5081724736
  0
LINE
  5
2D4
100
AcDbEntity
  8
03___PRT_ALL_CURVES
100
AcDbLine
 62
2
  6
CONTINUOUS
 10
233.2649553478
 20
165.5081724736
 11
232.0379810544
 21
165.5081724736
  0
LINE
  5
2D5
100
AcDbEntity
  8
03___PRT_ALL_CURVES
100
AcDbLine
 62
2
  6
CONTINUOUS
 10
231.6003179168
 20
165.5081724736
 11
228.8504552462
 21
165.5081724736
  0
LINE
  5
2D6
100
AcDbEntity
  8
03___PRT_ALL_CURVES
100
AcDbLine
 62
2
  6
CONTINUOUS
 10
227.3383618701
 20
167.9520197044
 11
263.8360531545
 21
167.9520197044
  0
LINE
  5
2D7
100
AcDbEntity
  8
03___PRT_ALL_CURVES
100
AcDbLine
 62
2
  6
CONTINUOUS
 10
222.5871595808
 20
172.5520197044
 11
268.5872554438
 21
172.5520197044
  0
LINE
  5
2D8
100
AcDbEntity
  8
03___PRT_ALL_CURVES
100
AcDbLine
 62
2
  6
CONTINUOUS
 10
234.6852739714
 20
161.8378413752
 11
233.8450918047
 21
163.3243095949
  0
LINE
  5
2D9
100
AcDbEntity
  8
03___PRT_ALL_CURVES
100
AcDbLine
 62
2
  6
CONTINUOUS
 10
256.1683605297
 20
164.3882897475
 11
257.7624712171
 21
162.0926065815
  0
LINE
  5
2DA
100
AcDbEntity
  8
03___PRT_ALL_CURVES
100
AcDbLine
 62
2
  6
CONTINUOUS
 10
248.0032011518
 20
164.3882897475
 11
249.5966191677
 21
162.0926065815
  0
LINE
  5
2DB
100
AcDbEntity
  8
03___PRT_ALL_CURVES
100
AcDbLine
 62
2
  6
CONTINUOUS
 10
249.7589580478
 20
162.9120609668
 11
247.9877156712
 21
165.5081724736
  0
LINE
  5
2DC
100
AcDbEntity
  8
03___PRT_ALL_CURVES
100
AcDbLine
 62
2
  6
CONTINUOUS
 10
257.9248072021
 20
162.9120609668
 11
256.15356768
 21
165.5081724736
  0
LINE
  5
2DD
100
AcDbEntity
  8
03___PRT_ALL_CURVES
100
AcDbLine
 62
2
  6
CONTINUOUS
 10
233.1987713005
 20
163.192455081
 11
233.7838051699
 21
162.0464987471
  0
LINE
  5
2DE
100
AcDbEntity
  8
03___PRT_ALL_CURVES
100
AcDbLine
 62
2
  6
CONTINUOUS
 10
238.3355707788
 20
161.8378413752
 11
236.9198046796
 21
165.5081724736
  0
LINE
  5
2DF
100
AcDbEntity
  8
03___PRT_ALL_CURVES
100
AcDbLine
 62
2
  6
CONTINUOUS
 10
220.5871595808
 20
152.5622747192
 11
220.5871595808
 21
170.5520197044
  0
LINE
  5
2E0
100
AcDbEntity
  8
0
100
AcDbLine
 62
7
  6
CONTINUOUS
 10
220.5872075123
 20
274.5320197044
 11
220.5872075123
 21
226.5320197044
  0
LINE
  5
2E1
100
AcDbEntity
  8
0
100
AcDbLine
 62
7
  6
CONTINUOUS
 10
221.5872075123
 20
225.5320197044
 11
269.5872075123
 21
225.5320197044
  0
LINE
  5
2E2
100
AcDbEntity
  8
03___PRT_ALL_CURVES
100
AcDbLine
 62
2
  6
CONTINUOUS
 10
239.556819928
 20
164.3576254074
 11
240.3051928534
 21
162.4082137819
  0
LINE
  5
2E3
100
AcDbEntity
  8
03___PRT_ALL_CURVES
100
AcDbLine
 62
2
  6
CONTINUOUS
 10
240.702607537
 20
163.0142858321
 11
239.7506471017
 21
165.5081724736
  0
LINE
  5
2E4
100
AcDbEntity
  8
03___PRT_ALL_CURVES
100
AcDbLine
 62
2
  6
CONTINUOUS
 10
237.3064612294
 20
162.6473247774
 11
237.5102188051
 21
162.0875712137
  0
LINE
  5
2E5
100
AcDbEntity
  8
03___PRT_ALL_CURVES
100
AcDbLine
 62
2
  6
CONTINUOUS
 10
236.5631212935
 20
164.7193824369
 11
237.0777634795
 21
163.2884412203
  0
LINE
  5
2E6
100
AcDbEntity
  8
03___PRT_ALL_CURVES
100
AcDbLine
 62
2
  6
CONTINUOUS
 10
225.5871595808
 20
161.5633411355
 11
225.5871595808
 21
166.2006390203
  0
LINE
  5
2E7
100
AcDbEntity
  8
03___PRT_ALL_CURVES
100
AcDbLine
 62
2
  6
CONTINUOUS
 10
228.8504552462
 20
165.5081724736
 11
228.8504552462
 21
165.1314510826
  0
LINE
  5
2E8
100
AcDbEntity
  8
03___PRT_ALL_CURVES
100
AcDbLine
 62
2
  6
CONTINUOUS
 10
229.3702299886
 20
157.2205269494
 11
229.3702299886
 21
154.5983441529
  0
LINE
  5
2E9
100
AcDbEntity
  8
03___PRT_ALL_CURVES
100
AcDbLine
 62
2
  6
CONTINUOUS
 10
229.7616692041
 20
154.7207827104
 11
229.7616692041
 21
157.1236117738
  0
LINE
  5
2EA
100
AcDbEntity
  8
03___PRT_ALL_CURVES
100
AcDbLine
 62
2
  6
CONTINUOUS
 10
229.8637368052
 20
164.8520571442
 11
229.8637368052
 21
162.1182354965
  0
LINE
  5
2EB
100
AcDbEntity
  8
03___PRT_ALL_CURVES
100
AcDbLine
 62
2
  6
CONTINUOUS
 10
230.5870363578
 20
161.8378413752
 11
230.5870363578
 21
164.8520571442
  0
LINE
  5
2EC
100
AcDbEntity
  8
03___PRT_ALL_CURVES
100
AcDbLine
 62
2
  6
CONTINUOUS
 10
231.6003179168
 20
164.8520571442
 11
231.6003179168
 21
165.5081724736
  0
LINE
  5
2ED
100
AcDbEntity
  8
03___PRT_ALL_CURVES
100
AcDbLine
 62
2
  6
CONTINUOUS
 10
232.0379810544
 20
165.5081724736
 11
232.0379810544
 21
162.1182354965
  0
LINE
  5
2EE
100
AcDbEntity
  8
03___PRT_ALL_CURVES
100
AcDbLine
 62
2
  6
CONTINUOUS
 10
232.7252397891
 20
161.8378413752
 11
232.7252397891
 21
163.192455081
  0
LINE
  5
2EF
100
AcDbEntity
  8
03___PRT_ALL_CURVES
100
AcDbLine
 62
2
  6
CONTINUOUS
 10
232.7252397891
 20
163.8177374045
 11
232.7252397891
 21
164.8773412407
  0
LINE
  5
2F0
100
AcDbEntity
  8
03___PRT_ALL_CURVES
100
AcDbLine
 62
2
  6
CONTINUOUS
 10
262.501991072
 20
161.8378413752
 11
261.0870527045
 21
165.5081724736
  0
LINE
  5
2F1
100
AcDbEntity
  8
03___PRT_ALL_CURVES
100
AcDbLine
 62
2
  6
CONTINUOUS
 10
261.4730515884
 20
162.6473247774
 11
261.6775013188
 21
162.0875712137
  0
LINE
  5
2F2
100
AcDbEntity
  8
03___PRT_ALL_CURVES
100
AcDbLine
 62
2
  6
CONTINUOUS
 10
260.7304038072
 20
164.7193824369
 11
261.2440113286
 21
163.2884412203
  0
LINE
  5
2F3
100
AcDbEntity
  8
03___PRT_ALL_CURVES
100
AcDbLine
 62
2
  6
CONTINUOUS
 10
242.8664361623
 20
161.8378413752
 11
242.2958875976
 21
165.5081724736
  0
LINE
  5
2F4
100
AcDbEntity
  8
03___PRT_ALL_CURVES
100
AcDbLine
 62
2
  6
CONTINUOUS
 10
241.8172862295
 20
164.3175493974
 11
242.1124785476
 21
162.1074367745
  0
LINE
  5
2F5
100
AcDbEntity
  8
03___PRT_ALL_CURVES
100
AcDbLine
 62
2
  6
CONTINUOUS
 10
236.5179978426
 20
156.6700849583
 11
236.5179978426
 21
154.4814312759
  0
LINE
  5
2F6
100
AcDbEntity
  8
03___PRT_ALL_CURVES
100
AcDbLine
 62
2
  6
CONTINUOUS
 10
236.8794405061
 20
154.4814312759
 11
236.8794405061
 21
156.6700849583
  0
LINE
  5
2F7
100
AcDbEntity
  8
03___PRT_ALL_CURVES
100
AcDbLine
 62
2
  6
CONTINUOUS
 10
239.9489297805
 20
156.6700849583
 11
239.9489297805
 21
154.4814312759
  0
LINE
  5
2F8
100
AcDbEntity
  8
03___PRT_ALL_CURVES
100
AcDbLine
 62
2
  6
CONTINUOUS
 10
240.2851963906
 20
156.4562569058
 11
240.2851963906
 21
156.6700849583
  0
LINE
  5
2F9
100
AcDbEntity
  8
03___PRT_ALL_CURVES
100
AcDbLine
 62
2
  6
CONTINUOUS
 10
240.310372444
 20
154.4814312759
 11
240.310372444
 21
156.1513761617
  0
LINE
  5
2FA
100
AcDbEntity
  8
03___PRT_ALL_CURVES
100
AcDbLine
 62
2
  6
CONTINUOUS
 10
241.3133203154
 20
156.018591425
 11
241.3133203154
 21
154.4814312759
  0
LINE
  5
2FB
100
AcDbEntity
  8
03___PRT_ALL_CURVES
100
AcDbLine
 62
2
  6
CONTINUOUS
 10
241.6747524538
 20
154.4814312759
 11
241.6747524538
 21
156.0648176903
  0
LINE
  5
2FC
100
AcDbEntity
  8
03___PRT_ALL_CURVES
100
AcDbLine
 62
2
  6
CONTINUOUS
 10
247.3356700227
 20
165.5081724736
 11
247.3356700227
 21
162.1182354965
  0
LINE
  5
2FD
100
AcDbEntity
  8
0
100
AcDbLine
 62
7
  6
CONTINUOUS
 10
378.2336541217
 20
383.1784663138
 11
357.8872075123
 21
362.8320197044
  0
LINE
  5
2FE
100
AcDbEntity
  8
0
100
AcDbLine
 62
7
  6
CONTINUOUS
 10
133.2872075123
 20
138.2320197044
 11
112.9407609029
 21
117.885573095
  0
LINE
  5
2FF
100
AcDbEntity
  8
0
100
AcDbLine
 62
7
  6
CONTINUOUS
 10
353.5913538491
 20
358.9547728919
 11
353.6787788207
 21
359.0320197044
  0
LINE
  5
300
100
AcDbEntity
  8
0
100
AcDbLine
 62
7
  6
CONTINUOUS
 10
378.2336541217
 20
117.885573095
 11
357.8872075123
 21
138.2320197044
  0
LINE
  5
301
100
AcDbEntity
  8
0
100
AcDbLine
 62
7
  6
CONTINUOUS
 10
112.9407609029
 20
383.1784663138
 11
133.2872075123
 21
362.8320197044
  0
LINE
  5
302
100
AcDbEntity
  8
0
100
AcDbLine
 62
7
  6
CONTINUOUS
 10
137.1644543248
 20
358.5361660412
 11
137.0872075123
 21
358.6235910128
  0
LINE
  5
303
100
AcDbEntity
  8
03___PRT_ALL_CURVES
100
AcDbLine
 62
2
  6
CONTINUOUS
 10
248.0032011518
 20
161.8378413752
 11
248.0032011518
 21
164.3882897475
  0
LINE
  5
304
100
AcDbEntity
  8
03___PRT_ALL_CURVES
100
AcDbLine
 62
2
  6
CONTINUOUS
 10
248.0992981773
 20
157.4850544373
 11
248.0992981773
 21
154.822865713
  0
LINE
  5
305
100
AcDbEntity
  8
03___PRT_ALL_CURVES
100
AcDbLine
 62
2
  6
CONTINUOUS
 10
248.4714343485
 20
154.8535674471
 11
248.4714343485
 21
157.4850544373
  0
LINE
  5
306
100
AcDbEntity
  8
03___PRT_ALL_CURVES
100
AcDbLine
 62
2
  6
CONTINUOUS
 10
249.397117417
 20
157.4850544373
 11
249.397117417
 21
154.822865713
  0
LINE
  5
307
100
AcDbEntity
  8
03___PRT_ALL_CURVES
100
AcDbLine
 62
2
  6
CONTINUOUS
 10
249.7589580478
 20
165.5081724736
 11
249.7589580478
 21
162.9120609668
  0
LINE
  5
308
100
AcDbEntity
  8
03___PRT_ALL_CURVES
100
AcDbLine
 62
2
  6
CONTINUOUS
 10
249.769243063
 20
154.8535674471
 11
249.769243063
 21
157.4850544373
  0
LINE
  5
309
100
AcDbEntity
  8
03___PRT_ALL_CURVES
100
AcDbLine
 62
2
  6
CONTINUOUS
 10
250.4261787775
 20
161.8378413752
 11
250.4261787775
 21
165.5081724736
  0
LINE
  5
30A
100
AcDbEntity
  8
03___PRT_ALL_CURVES
100
AcDbLine
 62
2
  6
CONTINUOUS
 10
250.8640170801
 20
165.5081724736
 11
250.8640170801
 21
165.1314510826
  0
LINE
  5
30B
100
AcDbEntity
  8
03___PRT_ALL_CURVES
100
AcDbLine
 62
2
  6
CONTINUOUS
 10
251.8768130747
 20
164.8520571442
 11
251.8768130747
 21
162.1182354965
  0
LINE
  5
30C
100
AcDbEntity
  8
03___PRT_ALL_CURVES
100
AcDbLine
 62
2
  6
CONTINUOUS
 10
252.6002505826
 20
161.8378413752
 11
252.6002505826
 21
164.8520571442
  0
LINE
  5
30D
100
AcDbEntity
  8
03___PRT_ALL_CURVES
100
AcDbLine
 62
2
  6
CONTINUOUS
 10
253.6133596975
 20
164.8520571442
 11
253.6133596975
 21
165.5081724736
  0
LINE
  5
30E
100
AcDbEntity
  8
03___PRT_ALL_CURVES
100
AcDbLine
 62
2
  6
CONTINUOUS
 10
254.081855841
 20
165.5081724736
 11
254.081855841
 21
162.1182354965
  0
LINE
  5
30F
100
AcDbEntity
  8
03___PRT_ALL_CURVES
100
AcDbLine
 62
2
  6
CONTINUOUS
 10
254.8039827737
 20
161.8378413752
 11
254.8039827737
 21
165.5081724736
  0
LINE
  5
310
100
AcDbEntity
  8
03___PRT_ALL_CURVES
100
AcDbLine
 62
2
  6
CONTINUOUS
 10
255.0939467899
 20
156.4721182405
 11
255.0939467899
 21
154.9397891151
  0
LINE
  5
311
100
AcDbEntity
  8
03___PRT_ALL_CURVES
100
AcDbLine
 62
2
  6
CONTINUOUS
 10
255.0939467899
 20
157.2563859854
 11
255.0939467899
 21
156.7469919075
  0
LINE
  5
312
100
AcDbEntity
  8
03___PRT_ALL_CURVES
100
AcDbLine
 62
2
  6
CONTINUOUS
 10
255.4609046089
 20
154.970480324
 11
255.4609046089
 21
156.4721182405
  0
LINE
  5
313
100
AcDbEntity
  8
03___PRT_ALL_CURVES
100
AcDbLine
 62
2
  6
CONTINUOUS
 10
255.4609046089
 20
156.7469919075
 11
255.4609046089
 21
157.2563859854
  0
LINE
  5
314
100
AcDbEntity
  8
03___PRT_ALL_CURVES
100
AcDbLine
 62
2
  6
CONTINUOUS
 10
255.5021744646
 20
165.5081724736
 11
255.5021744646
 21
162.1182354965
  0
LINE
  5
315
100
AcDbEntity
  8
03___PRT_ALL_CURVES
100
AcDbLine
 62
2
  6
CONTINUOUS
 10
256.1683605297
 20
161.8378413752
 11
256.1683605297
 21
164.3882897475
  0
LINE
  5
316
100
AcDbEntity
  8
03___PRT_ALL_CURVES
100
AcDbLine
 62
2
  6
CONTINUOUS
 10
256.6776594825
 20
156.6700849583
 11
256.6776594825
 21
154.4814312759
  0
LINE
  5
317
100
AcDbEntity
  8
03___PRT_ALL_CURVES
100
AcDbLine
 62
2
  6
CONTINUOUS
 10
257.0391126712
 20
154.4814312759
 11
257.0391126712
 21
156.6700849583
  0
LINE
  5
318
100
AcDbEntity
  8
03___PRT_ALL_CURVES
100
AcDbLine
 62
2
  6
CONTINUOUS
 10
257.9248072021
 20
165.5081724736
 11
257.9248072021
 21
162.9120609668
  0
LINE
  5
319
100
AcDbEntity
  8
03___PRT_ALL_CURVES
100
AcDbLine
 62
2
  6
CONTINUOUS
 10
258.5923383312
 20
161.8378413752
 11
258.5923383312
 21
165.5081724736
  0
LINE
  5
31A
100
AcDbEntity
  8
03___PRT_ALL_CURVES
100
AcDbLine
 62
2
  6
CONTINUOUS
 10
260.2465545093
 20
156.6700849583
 11
260.2465545093
 21
154.4814312759
  0
LINE
  5
31B
100
AcDbEntity
  8
03___PRT_ALL_CURVES
100
AcDbLine
 62
2
  6
CONTINUOUS
 10
260.5821369875
 20
156.4562569058
 11
260.5821369875
 21
156.6700849583
  0
LINE
  5
31C
100
AcDbEntity
  8
03___PRT_ALL_CURVES
100
AcDbLine
 62
2
  6
CONTINUOUS
 10
260.6124703429
 20
154.4814312759
 11
260.6124703429
 21
156.1513761617
  0
LINE
  5
31D
100
AcDbEntity
  8
03___PRT_ALL_CURVES
100
AcDbLine
 62
2
  6
CONTINUOUS
 10
239.2264170235
 20
161.8378413752
 11
239.556819928
 21
164.3576254074
  0
LINE
  5
31E
100
AcDbEntity
  8
03___PRT_ALL_CURVES
100
AcDbLine
 62
2
  6
CONTINUOUS
 10
239.1043265974
 20
165.5081724736
 11
238.5339504768
 21
161.8378413752
  0
LINE
  5
31F
100
AcDbEntity
  8
0
100
AcDbLine
 62
7
  6
CONTINUOUS
 10
137.5830611755
 20
142.1092665169
 11
137.4956362039
 21
142.0320197044
  0
LINE
  5
320
100
AcDbEntity
  8
0
100
AcDbLine
 62
7
  6
CONTINUOUS
 10
354.0099606998
 20
142.5278733676
 11
354.0872075123
 21
142.440448396
  0
LINE
  5
321
100
AcDbEntity
  8
03___PRT_ALL_CURVES
100
AcDbLine
 62
2
  6
CONTINUOUS
 10
261.6109239939
 20
156.018591425
 11
261.6109239939
 21
154.4814312759
  0
LINE
  5
322
100
AcDbEntity
  8
03___PRT_ALL_CURVES
100
AcDbLine
 62
2
  6
CONTINUOUS
 10
261.9716825255
 20
154.4814312759
 11
261.9716825255
 21
156.0648176903
  0
LINE
  5
323
100
AcDbEntity
  8
03___PRT_ALL_CURVES
100
AcDbLine
 62
2
  6
CONTINUOUS
 10
265.5871195708
 20
166.2006390203
 11
265.5871195708
 21
161.5633411355
  0
LINE
  5
324
100
AcDbEntity
  8
0
100
AcDbLine
 62
7
  6
CONTINUOUS
 10
270.5872075123
 20
226.5320197044
 11
270.5872075123
 21
274.5320197044
  0
LINE
  5
325
100
AcDbEntity
  8
03___PRT_ALL_CURVES
100
AcDbLine
 62
2
  6
CONTINUOUS
 10
270.5872554438
 20
170.5520197044
 11
270.5872554438
 21
152.5622747192
  0
LINE
  5
326
100
AcDbEntity
  8
03___PRT_ALL_CURVES
100
AcDbLine
 62
2
  6
CONTINUOUS
 10
235.5350440304
 20
161.8378413752
 11
235.8199561801
 21
162.6473247774
  0
LINE
  5
327
100
AcDbEntity
  8
03___PRT_ALL_CURVES
100
AcDbLine
 62
2
  6
CONTINUOUS
 10
236.0496517275
 20
163.2884412203
 11
236.5631212935
 21
164.7193824369
  0
LINE
  5
328
100
AcDbEntity
  8
03___PRT_ALL_CURVES
100
AcDbLine
 62
2
  6
CONTINUOUS
 10
240.9926265037
 20
162.1433051483
 11
241.8172862295
 21
164.3175493974
  0
LINE
  5
329
100
AcDbEntity
  8
03___PRT_ALL_CURVES
100
AcDbLine
 62
2
  6
CONTINUOUS
 10
241.6547749053
 20
165.5081724736
 11
240.702607537
 21
163.0142858321
  0
LINE
  5
32A
100
AcDbEntity
  8
03___PRT_ALL_CURVES
100
AcDbLine
 62
2
  6
CONTINUOUS
 10
236.2224407204
 20
165.5081724736
 11
234.8169522898
 21
161.8378413752
  0
LINE
  5
32B
100
AcDbEntity
  8
0
100
AcDbLine
 62
7
  6
CONTINUOUS
 10
269.5872075123
 20
275.5320197044
 11
221.5872075123
 21
275.5320197044
  0
LINE
  5
32C
100
AcDbEntity
  8
03___PRT_ALL_CURVES
100
AcDbLine
 62
2
  6
CONTINUOUS
 10
259.7017776671
 20
161.8378413752
 11
259.9874111379
 21
162.6473247774
  0
LINE
  5
32D
100
AcDbEntity
  8
03___PRT_ALL_CURVES
100
AcDbLine
 62
2
  6
CONTINUOUS
 10
260.2161065095
 20
163.2884412203
 11
260.7304038072
 21
164.7193824369
  0
LINE
  5
32E
100
AcDbEntity
  8
03___PRT_ALL_CURVES
100
AcDbLine
 62
2
  6
CONTINUOUS
 10
260.3892059018
 20
165.5081724736
 11
258.9837203972
 21
161.8378413752
  0
LINE
  5
32F
100
AcDbEntity
  8
03___PRT_ALL_CURVES
100
AcDbLine
 62
2
  6
CONTINUOUS
 10
353.2930702248
 20
352.934581558
 11
353.2930702248
 21
148.1294578509
  0
LINE
  5
330
100
AcDbEntity
  8
0
100
AcDbLine
 62
7
  6
CONTINUOUS
 10
353.4872075123
 20
360.2378824169
 11
353.4872075123
 21
358.4320197044
  0
LINE
  5
331
100
AcDbEntity
  8
0
100
AcDbLine
 62
7
  6
CONTINUOUS
 10
353.4872075123
 20
142.6320197044
 11
353.4872075123
 21
140.826156992
  0
LINE
  5
332
100
AcDbEntity
  8
0
100
AcDbLine
 62
3
  6
CONTINUOUS
 10
354.0872075123
 20
359.0320197044
 11
354.0872075123
 21
358.6235910128
  0
LINE
  5
333
100
AcDbEntity
  8
0
100
AcDbLine
 62
3
  6
CONTINUOUS
 10
354.0872075123
 20
142.440448396
 11
354.0872075123
 21
142.0320197044
  0
LINE
  5
334
100
AcDbEntity
  8
0
100
AcDbLine
 62
7
  6
CONTINUOUS
 10
354.0872075123
 20
140.826156992
 11
354.0872075123
 21
142.0320197044
  0
LINE
  5
335
100
AcDbEntity
  8
0
100
AcDbLine
 62
7
  6
CONTINUOUS
 10
354.0872075123
 20
359.0320197044
 11
354.0872075123
 21
360.2378824169
  0
LINE
  5
336
100
AcDbEntity
  8
03___PRT_ALL_CURVES
100
AcDbLine
 62
2
  6
CONTINUOUS
 10
143.1846456587
 20
358.2378824169
 11
347.9897693659
 21
358.2378824169
  0
LINE
  5
337
100
AcDbEntity
  8
0
100
AcDbLine
 62
7
  6
CONTINUOUS
 10
135.8813447998
 20
358.4320197044
 11
137.6872075123
 21
358.4320197044
  0
LINE
  5
338
100
AcDbEntity
  8
0
100
AcDbLine
 62
7
  6
CONTINUOUS
 10
353.4872075123
 20
358.4320197044
 11
355.2930702248
 21
358.4320197044
  0
LINE
  5
339
100
AcDbEntity
  8
0
100
AcDbLine
 62
7
  6
CONTINUOUS
 10
355.2930702248
 20
359.0320197044
 11
354.0872075123
 21
359.0320197044
  0
LINE
  5
33A
100
AcDbEntity
  8
0
100
AcDbLine
 62
7
  6
CONTINUOUS
 10
135.8813447998
 20
359.0320197044
 11
137.0872075123
 21
359.0320197044
  0
LINE
  5
33B
100
AcDbEntity
  8
0
100
AcDbLine
 62
3
  6
CONTINUOUS
 10
137.0872075123
 20
359.0320197044
 11
137.4956362039
 21
359.0320197044
  0
LINE
  5
33C
100
AcDbEntity
  8
0
100
AcDbLine
 62
3
  6
CONTINUOUS
 10
353.6787788207
 20
359.0320197044
 11
354.0872075123
 21
359.0320197044
  0
LINE
  5
33D
100
AcDbEntity
  8
0
100
AcDbLine
 62
7
  6
CONTINUOUS
 10
355.0872075123
 20
358.4320197044
 11
355.0872075123
 21
142.6320197044
  0
LINE
  5
33E
100
AcDbEntity
  8
0
100
AcDbLine
 62
7
  6
CONTINUOUS
 10
355.2872075123
 20
361.0320197044
 11
355.2872075123
 21
360.2320197044
  0
LINE
  5
33F
100
AcDbEntity
  8
0
100
AcDbLine
 62
7
  6
CONTINUOUS
 10
355.2872075123
 20
140.0320197044
 11
355.2872075123
 21
140.8320197044
  0
LINE
  5
340
100
AcDbEntity
  8
0
100
AcDbLine
 62
7
  6
CONTINUOUS
 10
355.2930702248
 20
142.0320197044
 11
355.2930702248
 21
142.6320197044
  0
LINE
  5
341
100
AcDbEntity
  8
0
100
AcDbLine
 62
7
  6
CONTINUOUS
 10
355.2930702248
 20
358.4320197044
 11
355.2930702248
 21
359.0320197044
  0
LINE
  5
342
100
AcDbEntity
  8
0
100
AcDbLine
 62
7
  6
CONTINUOUS
 10
356.0872075123
 20
361.0320197044
 11
356.0872075123
 21
140.0320197044
  0
LINE
  5
343
100
AcDbEntity
  8
0
100
AcDbLine
 62
7
  6
CONTINUOUS
 10
137.6872075123
 20
360.0320197044
 11
353.4872075123
 21
360.0320197044
  0
LINE
  5
344
100
AcDbEntity
  8
0
100
AcDbLine
 62
7
  6
CONTINUOUS
 10
356.0872075123
 20
360.2320197044
 11
355.2872075123
 21
360.2320197044
  0
LINE
  5
345
100
AcDbEntity
  8
0
100
AcDbLine
 62
7
  6
CONTINUOUS
 10
135.0872075123
 20
360.2320197044
 11
135.8872075123
 21
360.2320197044
  0
LINE
  5
346
100
AcDbEntity
  8
0
100
AcDbLine
 62
7
  6
CONTINUOUS
 10
354.0872075123
 20
360.2378824169
 11
353.4872075123
 21
360.2378824169
  0
LINE
  5
347
100
AcDbEntity
  8
0
100
AcDbLine
 62
7
  6
CONTINUOUS
 10
137.6872075123
 20
360.2378824169
 11
137.0872075123
 21
360.2378824169
  0
LINE
  5
348
100
AcDbEntity
  8
0
100
AcDbLine
 62
7
  6
CONTINUOUS
 10
135.0872075123
 20
361.0320197044
 11
356.0872075123
 21
361.0320197044
  0
LINE
  5
349
100
AcDbEntity
  8
0
100
AcDbLine
 62
7
  6
CONTINUOUS
 10
379.0872075123
 20
118.2391264856
 11
379.0872075123
 21
382.8249129232
  0
LINE
  5
34A
100
AcDbEntity
  8
0
100
AcDbLine
 62
7
  6
CONTINUOUS
 10
377.8801007311
 20
384.0320197044
 11
113.2943142935
 21
384.0320197044
  0
LINE
  5
34B
100
AcDbEntity
  8
03___PRT_ALL_CURVES
100
AcDbLine
 62
2
  6
CONTINUOUS
 10
353.2930702248
 20
148.1294578509
 11
347.9897693659
 21
142.826156992
  0
LINE
  5
34C
100
AcDbEntity
  8
03___PRT_ALL_CURVES
100
AcDbLine
 62
2
  6
CONTINUOUS
 10
347.9897693659
 20
358.2378824169
 11
353.2930702248
 21
352.934581558
  0
ARC
  5
34D
100
AcDbEntity
  8
0
100
AcDbCircle
 62
7
  6
CONTINUOUS
 10
255.5872075123
 20
647.4131342365
 40
10.0
100
AcDbArc
 50
270.0
 51
360.0
  0
ARC
  5
34E
100
AcDbEntity
  8
0
100
AcDbCircle
 62
7
  6
CONTINUOUS
 10
235.5872075123
 20
647.4131342365
 40
10.0
100
AcDbArc
 50
180.0
 51
270.0
  0
ARC
  5
34F
100
AcDbEntity
  8
0
100
AcDbCircle
 62
7
  6
CONTINUOUS
 10
171.840767506
 20
464.7731342365
 40
7.0
100
AcDbArc
 50
183.0
 51
270.0
  0
ARC
  5
350
100
AcDbEntity
  8
02___PRT_ALL_AXES
100
AcDbCircle
 62
7
  6
CONTINUOUS
 10
319.3336475186
 20
464.7731342365
 40
7.0
100
AcDbArc
 50
270.0
 51
357.0
  0
ARC
  5
351
100
AcDbEntity
  8
02___PRT_ALL_AXES
100
AcDbCircle
 62
7
  6
CONTINUOUS
 10
171.840767506
 20
464.7731342365
 40
7.0
100
AcDbArc
 50
183.0
 51
270.0
  0
ARC
  5
352
100
AcDbEntity
  8
0
100
AcDbCircle
 62
7
  6
CONTINUOUS
 10
155.5239170309
 20
628.8229189077
 40
1.9998375599
100
AcDbArc
 50
182.9917031467
 51
267.4965915895
  0
ARC
  5
353
100
AcDbEntity
  8
0
100
AcDbCircle
 62
7
  6
CONTINUOUS
 10
335.6504979931
 20
628.8229189077
 40
1.9998375606
100
AcDbArc
 50
272.5034026536
 51
357.0082968581
  0
ARC
  5
354
100
AcDbEntity
  8
0
100
AcDbCircle
 62
3
  6
CONTINUOUS
 10
355.2872075123
 20
658.2131342365
 40
1.8
100
AcDbArc
 50
270.0
 51
360.0
  0
ARC
  5
355
100
AcDbEntity
  8
0
100
AcDbCircle
 62
3
  6
CONTINUOUS
 10
135.8872075123
 20
658.2131342365
 40
1.8
100
AcDbArc
 50
180.0
 51
270.0
  0
ARC
  5
356
100
AcDbEntity
  8
0
100
AcDbCircle
 62
7
  6
CONTINUOUS
 10
355.2872075123
 20
658.2131342365
 40
0.8
100
AcDbArc
 50
270.0
 51
360.0
  0
ARC
  5
357
100
AcDbEntity
  8
0
100
AcDbCircle
 62
7
  6
CONTINUOUS
 10
135.8872075123
 20
658.2131342365
 40
0.8
100
AcDbArc
 50
180.0
 51
270.0
  0
ARC
  5
358
100
AcDbEntity
  8
0
100
AcDbCircle
 62
3
  6
CONTINUOUS
 10
357.8872075123
 20
691.6131342365
 40
0.8
100
AcDbArc
 50
90.0
 51
180.0
  0
ARC
  5
359
100
AcDbEntity
  8
0
100
AcDbCircle
 62
3
  6
CONTINUOUS
 10
133.2872075123
 20
691.6131342365
 40
0.8
100
AcDbArc
 50
0.0
 51
90.0
  0
ARC
  5
35A
100
AcDbEntity
  8
0
100
AcDbCircle
 62
7
  6
CONTINUOUS
 10
234.3403821178
 20
693.9131342365
 40
0.5
100
AcDbArc
 50
181.0
 51
270.0
  0
ARC
  5
35B
100
AcDbEntity
  8
0
100
AcDbCircle
 62
7
  6
CONTINUOUS
 10
256.8340329068
 20
693.9131342365
 40
0.5
100
AcDbArc
 50
270.0
 51
359.0
  0
ARC
  5
35C
100
AcDbEntity
  8
0
100
AcDbCircle
 62
7
  6
CONTINUOUS
 10
258.0785561439
 20
707.9131342365
 40
0.5
100
AcDbArc
 50
90.0
 51
179.0
  0
ARC
  5
35D
100
AcDbEntity
  8
0
100
AcDbCircle
 62
7
  6
CONTINUOUS
 10
233.0958588808
 20
707.9131342365
 40
0.5
100
AcDbArc
 50
1.0
 51
90.0
  0
ARC
  5
35E
100
AcDbEntity
  8
0
100
AcDbCircle
 62
7
  6
CONTINUOUS
 10
270.2872075123
 20
710.1131342365
 40
0.3
100
AcDbArc
 50
0.0
 51
90.0
  0
ARC
  5
35F
100
AcDbEntity
  8
0
100
AcDbCircle
 62
7
  6
CONTINUOUS
 10
270.2872075123
 20
708.7131342365
 40
0.3
100
AcDbArc
 50
270.0
 51
360.0
  0
ARC
  5
360
100
AcDbEntity
  8
0
100
AcDbCircle
 62
7
  6
CONTINUOUS
 10
220.8872075123
 20
708.7131342365
 40
0.3
100
AcDbArc
 50
180.0
 51
269.9999999999
  0
ARC
  5
361
100
AcDbEntity
  8
0
100
AcDbCircle
 62
7
  6
CONTINUOUS
 10
220.8872075123
 20
710.1131342365
 40
0.3
100
AcDbArc
 50
90.0000000001
 51
180.0
  0
ARC
  5
362
100
AcDbEntity
  8
03___PRT_ALL_CURVES
100
AcDbCircle
 62
2
  6
CONTINUOUS
 10
222.5871595808
 20
152.5622747192
 40
2.0
100
AcDbArc
 50
180.0
 51
270.0
  0
ARC
  5
363
100
AcDbEntity
  8
03___PRT_ALL_CURVES
100
AcDbCircle
 62
2
  6
CONTINUOUS
 10
268.5872554438
 20
152.5622747192
 40
2.0
100
AcDbArc
 50
270.0
 51
360.0
  0
ARC
  5
364
100
AcDbEntity
  8
03___PRT_ALL_CURVES
100
AcDbCircle
 62
2
  6
CONTINUOUS
 10
268.5872554438
 20
170.5520197044
 40
2.0
100
AcDbArc
 50
0.0
 51
90.0
  0
ARC
  5
365
100
AcDbEntity
  8
03___PRT_ALL_CURVES
100
AcDbCircle
 62
2
  6
CONTINUOUS
 10
222.5871595808
 20
170.5520197044
 40
2.0
100
AcDbArc
 50
90.0
 51
180.0
  0
ARC
  5
366
100
AcDbEntity
  8
0
100
AcDbCircle
 62
7
  6
CONTINUOUS
 10
269.5872075123
 20
226.5320197044
 40
1.0
100
AcDbArc
 50
270.0
 51
360.0
  0
ARC
  5
367
100
AcDbEntity
  8
0
100
AcDbCircle
 62
7
  6
CONTINUOUS
 10
269.5872075123
 20
274.5320197044
 40
1.0
100
AcDbArc
 50
0.0
 51
90.0
  0
ARC
  5
368
100
AcDbEntity
  8
0
100
AcDbCircle
 62
7
  6
CONTINUOUS
 10
221.5872075123
 20
226.5320197044
 40
1.0
100
AcDbArc
 50
180.0
 51
270.0
  0
ARC
  5
369
100
AcDbEntity
  8
0
100
AcDbCircle
 62
7
  6
CONTINUOUS
 10
221.5872075123
 20
274.5320197044
 40
1.0
100
AcDbArc
 50
90.0
 51
180.0
  0
ARC
  5
36A
100
AcDbEntity
  8
0
100
AcDbCircle
 62
7
  6
CONTINUOUS
 10
136.3897112467
 20
358.232228884
 40
0.7997908205
100
AcDbArc
 50
29.2965939081
 51
90.0
  0
ARC
  5
36B
100
AcDbEntity
  8
0
100
AcDbCircle
 62
7
  6
CONTINUOUS
 10
137.8869983328
 20
359.7295159701
 40
0.7997908205
100
AcDbArc
 50
180.0
 51
240.7034060919
  0
ARC
  5
36C
100
AcDbEntity
  8
0
100
AcDbCircle
 62
7
  6
CONTINUOUS
 10
353.2874166918
 20
359.7295159701
 40
0.7997908205
100
AcDbArc
 50
299.2965939081
 51
360.0
  0
ARC
  5
36D
100
AcDbEntity
  8
0
100
AcDbCircle
 62
7
  6
CONTINUOUS
 10
354.784703778
 20
358.232228884
 40
0.7997908205
100
AcDbArc
 50
90.0
 51
150.7034060919
  0
ARC
  5
36E
100
AcDbEntity
  8
0
100
AcDbCircle
 62
7
  6
CONTINUOUS
 10
354.784703778
 20
142.8318105249
 40
0.7997908205
100
AcDbArc
 50
209.2965939081
 51
270.0
  0
ARC
  5
36F
100
AcDbEntity
  8
0
100
AcDbCircle
 62
7
  6
CONTINUOUS
 10
353.2874166918
 20
141.3345234388
 40
0.7997908205
100
AcDbArc
 50
0.0
 51
60.7034060919
  0
ARC
  5
370
100
AcDbEntity
  8
0
100
AcDbCircle
 62
7
  6
CONTINUOUS
 10
137.8869983328
 20
141.3345234388
 40
0.7997908205
100
AcDbArc
 50
119.2965939081
 51
180.0
  0
ARC
  5
371
100
AcDbEntity
  8
0
100
AcDbCircle
 62
7
  6
CONTINUOUS
 10
136.3897112467
 20
142.8318105249
 40
0.7997908205
100
AcDbArc
 50
270.0
 51
330.7034060919
  0
ARC
  5
372
100
AcDbEntity
  8
0
100
AcDbCircle
 62
7
  6
CONTINUOUS
 10
112.5872075123
 20
382.8249129232
 40
0.5
100
AcDbArc
 50
44.9999999999
 51
180.0
  0
ARC
  5
373
100
AcDbEntity
  8
0
100
AcDbCircle
 62
7
  6
CONTINUOUS
 10
112.5872075123
 20
118.2391264856
 40
0.5
100
AcDbArc
 50
180.0
 51
315.0000000001
  0
ARC
  5
374
100
AcDbEntity
  8
0
100
AcDbCircle
 62
7
  6
CONTINUOUS
 10
113.2943142935
 20
383.5320197044
 40
0.5
100
AcDbArc
 50
90.0
 51
225.0000000001
  0
ARC
  5
375
100
AcDbEntity
  8
0
100
AcDbCircle
 62
7
  6
CONTINUOUS
 10
377.8801007311
 20
383.5320197044
 40
0.5
100
AcDbArc
 50
315.0
 51
90.0
  0
ARC
  5
376
100
AcDbEntity
  8
0
100
AcDbCircle
 62
7
  6
CONTINUOUS
 10
378.5872075123
 20
382.8249129232
 40
0.5
100
AcDbArc
 50
0.0
 51
135.0000000001
  0
ARC
  5
377
100
AcDbEntity
  8
0
100
AcDbCircle
 62
7
  6
CONTINUOUS
 10
378.5872075123
 20
118.2391264856
 40
0.5
100
AcDbArc
 50
224.9999999999
 51
360.0
  0
ARC
  5
378
100
AcDbEntity
  8
0
100
AcDbCircle
 62
7
  6
CONTINUOUS
 10
377.8801007311
 20
117.5320197044
 40
0.5
100
AcDbArc
 50
270.0
 51
45.0000000001
  0
ARC
  5
379
100
AcDbEntity
  8
0
100
AcDbCircle
 62
7
  6
CONTINUOUS
 10
113.2943142935
 20
117.5320197044
 40
0.5
100
AcDbArc
 50
134.9999999999
 51
270.0
  0
ARC
  5
37A
100
AcDbEntity
  8
0
100
AcDbCircle
 62
7
  6
CONTINUOUS
 10
137.3488370214
 20
358.7703901954
 40
0.3
100
AcDbArc
 50
231.789960954
 51
60.7034060919
  0
ARC
  5
37B
100
AcDbEntity
  8
0
100
AcDbCircle
 62
7
  6
CONTINUOUS
 10
353.8255780033
 20
358.7703901954
 40
0.3
100
AcDbArc
 50
141.789960954
 51
330.7034060919
  0
ARC
  5
37C
100
AcDbEntity
  8
0
100
AcDbCircle
 62
7
  6
CONTINUOUS
 10
353.8255780033
 20
142.2936492135
 40
0.3
100
AcDbArc
 50
51.789960954
 51
240.7034060919
  0
ARC
  5
37D
100
AcDbEntity
  8
0
100
AcDbCircle
 62
7
  6
CONTINUOUS
 10
137.3488370214
 20
142.2936492135
 40
0.3
100
AcDbArc
 50
321.789960954
 51
150.7034060919
  0
LINE
  5
37E
100
AcDbEntity
  8
0
100
AcDbLine
 62
7
  6
CONTINUOUS
 10
326.3093725254
 20
656.4131342362
 11
325.2649507049
 21
633.4027145094
  0
LINE
  5
37F
100
AcDbEntity
  8
0
100
AcDbLine
 62
7
  6
CONTINUOUS
 10
165.9094643197
 20
633.4027145094
 11
164.8650424992
 21
656.4131342362
  0
SPLINE
  5
380
100
AcDbEntity
  8
0
100
AcDbSpline
 62
3
  6
CONTINUOUS
 70
0
 71
3
 72
9
 73
5
 74
0
 42
0.0000001
 43
0.0000001
 44
0.0000000001
 40
0.0
 40
0.0
 40
0.0
 40
0.0
 40
0.2361983087
 40
1.0
 40
1.0
 40
1.0
 40
1.0
 10
133.2872075123
 20
692.4131342365
 30
0.0
 10
133.387620486
 20
692.4131342365
 30
0.0
 10
133.8137199734
 20
692.3733527171
 30
0.0
 10
134.2093192895
 20
692.1810829753
 30
0.0
 10
134.4872048588
 20
692.0131091027
 30
0.0
  0
SPLINE
  5
381
100
AcDbEntity
  8
0
100
AcDbSpline
 62
3
  6
CONTINUOUS
 70
0
 71
3
 72
8
 73
4
 74
0
 42
0.0000001
 43
0.0000001
 44
0.0000000001
 40
0.0
 40
0.0
 40
0.0
 40
0.0
 40
1.0
 40
1.0
 40
1.0
 40
1.0
 10
134.4872048588
 20
692.0131091027
 30
0.0
 10
134.6929102548
 20
691.8887660788
 30
0.0
 10
134.8901190358
 20
691.7507279498
 30
0.0
 10
135.0872075123
 20
691.6131342365
 30
0.0
  0
SPLINE
  5
382
100
AcDbEntity
  8
0
100
AcDbSpline
 62
3
  6
CONTINUOUS
 70
0
 71
3
 72
9
 73
5
 74
0
 42
0.0000001
 43
0.0000001
 44
0.0000000001
 40
0.0
 40
0.0
 40
0.0
 40
0.0
 40
0.2361983087
 40
1.0
 40
1.0
 40
1.0
 40
1.0
 10
357.8872075123
 20
692.4131342365
 30
0.0
 10
357.7867945387
 20
692.4131342365
 30
0.0
 10
357.3606950512
 20
692.3733527171
 30
0.0
 10
356.9650957352
 20
692.1810829753
 30
0.0
 10
356.6872101658
 20
692.0131091027
 30
0.0
  0
SPLINE
  5
383
100
AcDbEntity
  8
0
100
AcDbSpline
 62
3
  6
CONTINUOUS
 70
0
 71
3
 72
8
 73
4
 74
0
 42
0.0000001
 43
0.0000001
 44
0.0000000001
 40
0.0
 40
0.0
 40
0.0
 40
0.0
 40
1.0
 40
1.0
 40
1.0
 40
1.0
 10
356.6872101658
 20
692.0131091027
 30
0.0
 10
356.4815047698
 20
691.8887660788
 30
0.0
 10
356.2842959889
 20
691.7507279498
 30
0.0
 10
356.0872075123
 20
691.6131342365
 30
0.0
  0
SPLINE
  5
384
100
AcDbEntity
  8
03___PRT_ALL_CURVES
100
AcDbSpline
 62
2
  6
CONTINUOUS
 70
0
 71
3
 72
8
 73
4
 74
0
 42
0.0000001
 43
0.0000001
 44
0.0000000001
 40
0.0
 40
0.0
 40
0.0
 40
0.0
 40
1.0
 40
1.0
 40
1.0
 40
1.0
 10
245.1670668096
 20
154.7004376806
 30
0.0
 10
245.1670668096
 20
154.751137116
 30
0.0
 10
245.1415539528
 20
154.817697886
 30
0.0
 10
245.1056843917
 20
154.8428739394
 30
0.0
  0
SPLINE
  5
385
100
AcDbEntity
  8
03___PRT_ALL_CURVES
100
AcDbSpline
 62
2
  6
CONTINUOUS
 70
0
 71
3
 72
8
 73
4
 74
0
 42
0.0000001
 43
0.0000001
 44
0.0000000001
 40
0.0
 40
0.0
 40
0.0
 40
0.0
 40
1.0
 40
1.0
 40
1.0
 40
1.0
 10
245.0549849563
 20
154.5117751564
 30
0.0
 10
245.1163673742
 20
154.5528230696
 30
0.0
 10
245.1670668096
 20
154.6183523793
 30
0.0
 10
245.1670668096
 20
154.7004376806
 30
0.0
  0
SPLINE
  5
386
100
AcDbEntity
  8
03___PRT_ALL_CURVES
100
AcDbSpline
 62
2
  6
CONTINUOUS
 70
0
 71
3
 72
8
 73
4
 74
0
 42
0.0000001
 43
0.0000001
 44
0.0000000001
 40
0.0
 40
0.0
 40
0.0
 40
0.0
 40
1.0
 40
1.0
 40
1.0
 40
1.0
 10
244.5100581207
 20
154.3800324052
 30
0.0
 10
244.8159808504
 20
154.3800324052
 30
0.0
 10
244.9784148105
 20
154.4610862461
 30
0.0
 10
245.0549849563
 20
154.5117751564
 30
0.0
  0
SPLINE
  5
387
100
AcDbEntity
  8
03___PRT_ALL_CURVES
100
AcDbSpline
 62
2
  6
CONTINUOUS
 70
0
 71
3
 72
8
 73
4
 74
0
 42
0.0000001
 43
0.0000001
 44
0.0000000001
 40
0.0
 40
0.0
 40
0.0
 40
0.0
 40
1.0
 40
1.0
 40
1.0
 40
1.0
 10
243.2629488416
 20
155.9120247272
 30
0.0
 10
243.2629488416
 20
154.8883950227
 30
0.0
 10
243.7161283285
 20
154.3800324052
 30
0.0
 10
244.5100581207
 20
154.3800324052
 30
0.0
  0
SPLINE
  5
388
100
AcDbEntity
  8
03___PRT_ALL_CURVES
100
AcDbSpline
 62
2
  6
CONTINUOUS
 70
0
 71
3
 72
8
 73
4
 74
0
 42
0.0000001
 43
0.0000001
 44
0.0000000001
 40
0.0
 40
0.0
 40
0.0
 40
0.0
 40
1.0
 40
1.0
 40
1.0
 40
1.0
 10
244.556273861
 20
157.4798760852
 30
0.0
 10
243.8385668861
 20
157.4798760852
 30
0.0
 10
243.2629488416
 20
157.0011732163
 30
0.0
 10
243.2629488416
 20
155.9120247272
 30
0.0
  0
SPLINE
  5
389
100
AcDbEntity
  8
03___PRT_ALL_CURVES
100
AcDbSpline
 62
2
  6
CONTINUOUS
 70
0
 71
3
 72
8
 73
4
 74
0
 42
0.0000001
 43
0.0000001
 44
0.0000000001
 40
0.0
 40
0.0
 40
0.0
 40
0.0
 40
1.0
 40
1.0
 40
1.0
 40
1.0
 10
245.0246305508
 20
157.4388386971
 30
0.0
 10
244.8770159398
 20
157.464362079
 30
0.0
 10
244.6787124185
 20
157.4798760852
 30
0.0
 10
244.556273861
 20
157.4798760852
 30
0.0
  0
SPLINE
  5
38A
100
AcDbEntity
  8
03___PRT_ALL_CURVES
100
AcDbSpline
 62
2
  6
CONTINUOUS
 70
0
 71
3
 72
8
 73
4
 74
0
 42
0.0000001
 43
0.0000001
 44
0.0000000001
 40
0.0
 40
0.0
 40
0.0
 40
0.0
 40
1.0
 40
1.0
 40
1.0
 40
1.0
 10
246.4955772582
 20
156.7873451637
 30
0.0
 10
245.9206433456
 20
156.7873451637
 30
0.0
 10
245.5433393474
 20
156.3696879093
 30
0.0
 10
245.5433393474
 20
155.5809364693
 30
0.0
  0
SPLINE
  5
38B
100
AcDbEntity
  8
03___PRT_ALL_CURVES
100
AcDbSpline
 62
2
  6
CONTINUOUS
 70
0
 71
3
 72
8
 73
4
 74
0
 42
0.0000001
 43
0.0000001
 44
0.0000000001
 40
0.0
 40
0.0
 40
0.0
 40
0.0
 40
1.0
 40
1.0
 40
1.0
 40
1.0
 10
247.4422894884
 20
155.5809364693
 30
0.0
 10
247.4422894884
 20
156.4158931245
 30
0.0
 10
247.0660169506
 20
156.7873451637
 30
0.0
 10
246.4955772582
 20
156.7873451637
 30
0.0
  0
SPLINE
  5
38C
100
AcDbEntity
  8
03___PRT_ALL_CURVES
100
AcDbSpline
 62
2
  6
CONTINUOUS
 70
0
 71
3
 72
8
 73
4
 74
0
 42
0.0000001
 43
0.0000001
 44
0.0000000001
 40
0.0
 40
0.0
 40
0.0
 40
0.0
 40
1.0
 40
1.0
 40
1.0
 40
1.0
 10
246.4955772582
 20
154.3641710705
 30
0.0
 10
247.0660169506
 20
154.3641710705
 30
0.0
 10
247.4422894884
 20
154.8070043784
 30
0.0
 10
247.4422894884
 20
155.5809364693
 30
0.0
  0
SPLINE
  5
38D
100
AcDbEntity
  8
03___PRT_ALL_CURVES
100
AcDbSpline
 62
2
  6
CONTINUOUS
 70
0
 71
3
 72
8
 73
4
 74
0
 42
0.0000001
 43
0.0000001
 44
0.0000000001
 40
0.0
 40
0.0
 40
0.0
 40
0.0
 40
1.0
 40
1.0
 40
1.0
 40
1.0
 10
245.5433393474
 20
155.5809364693
 30
0.0
 10
245.5433393474
 20
154.7618306236
 30
0.0
 10
245.9206433456
 20
154.3641710705
 30
0.0
 10
246.4955772582
 20
154.3641710705
 30
0.0
  0
SPLINE
  5
38E
100
AcDbEntity
  8
03___PRT_ALL_CURVES
100
AcDbSpline
 62
2
  6
CONTINUOUS
 70
0
 71
3
 72
8
 73
4
 74
0
 42
0.0000001
 43
0.0000001
 44
0.0000000001
 40
0.0
 40
0.0
 40
0.0
 40
0.0
 40
1.0
 40
1.0
 40
1.0
 40
1.0
 10
258.6480014173
 20
156.7873451637
 30
0.0
 10
258.0723833727
 20
156.7873451637
 30
0.0
 10
257.6961108349
 20
156.3696879093
 30
0.0
 10
257.6961108349
 20
155.5809364693
 30
0.0
  0
SPLINE
  5
38F
100
AcDbEntity
  8
03___PRT_ALL_CURVES
100
AcDbSpline
 62
2
  6
CONTINUOUS
 70
0
 71
3
 72
8
 73
4
 74
0
 42
0.0000001
 43
0.0000001
 44
0.0000000001
 40
0.0
 40
0.0
 40
0.0
 40
0.0
 40
1.0
 40
1.0
 40
1.0
 40
1.0
 10
259.595060976
 20
155.5809364693
 30
0.0
 10
259.595060976
 20
156.4158931245
 30
0.0
 10
259.2177569778
 20
156.7873451637
 30
0.0
 10
258.6480014173
 20
156.7873451637
 30
0.0
  0
SPLINE
  5
390
100
AcDbEntity
  8
03___PRT_ALL_CURVES
100
AcDbSpline
 62
2
  6
CONTINUOUS
 70
0
 71
3
 72
8
 73
4
 74
0
 42
0.0000001
 43
0.0000001
 44
0.0000000001
 40
0.0
 40
0.0
 40
0.0
 40
0.0
 40
1.0
 40
1.0
 40
1.0
 40
1.0
 10
256.6217922202
 20
157.3070748957
 30
0.0
 10
256.6217922202
 20
157.1543135079
 30
0.0
 10
256.7080138881
 20
157.0677339863
 30
0.0
 10
256.8611436546
 20
157.0677339863
 30
0.0
  0
SPLINE
  5
391
100
AcDbEntity
  8
03___PRT_ALL_CURVES
100
AcDbSpline
 62
2
  6
CONTINUOUS
 70
0
 71
3
 72
8
 73
4
 74
0
 42
0.0000001
 43
0.0000001
 44
0.0000000001
 40
0.0
 40
0.0
 40
0.0
 40
0.0
 40
1.0
 40
1.0
 40
1.0
 40
1.0
 10
258.6480014173
 20
154.3641710705
 30
0.0
 10
259.2177569778
 20
154.3641710705
 30
0.0
 10
259.595060976
 20
154.8070043784
 30
0.0
 10
259.595060976
 20
155.5809364693
 30
0.0
  0
SPLINE
  5
392
100
AcDbEntity
  8
03___PRT_ALL_CURVES
100
AcDbSpline
 62
2
  6
CONTINUOUS
 70
0
 71
3
 72
8
 73
4
 74
0
 42
0.0000001
 43
0.0000001
 44
0.0000000001
 40
0.0
 40
0.0
 40
0.0
 40
0.0
 40
1.0
 40
1.0
 40
1.0
 40
1.0
 10
257.6961108349
 20
155.5809364693
 30
0.0
 10
257.6961108349
 20
154.7618306236
 30
0.0
 10
258.0723833727
 20
154.3641710705
 30
0.0
 10
258.6480014173
 20
154.3641710705
 30
0.0
  0
SPLINE
  5
393
100
AcDbEntity
  8
03___PRT_ALL_CURVES
100
AcDbSpline
 62
2
  6
CONTINUOUS
 70
0
 71
3
 72
8
 73
4
 74
0
 42
0.0000001
 43
0.0000001
 44
0.0000000001
 40
0.0
 40
0.0
 40
0.0
 40
0.0
 40
1.0
 40
1.0
 40
1.0
 40
1.0
 10
246.1241812098
 20
163.6702324776
 30
0.0
 10
246.1241812098
 20
163.0090817637
 30
0.0
 10
245.6055064198
 20
162.4693317024
 30
0.0
 10
244.9687712198
 20
162.4693317024
 30
0.0
  0
SPLINE
  5
394
100
AcDbEntity
  8
03___PRT_ALL_CURVES
100
AcDbSpline
 62
2
  6
CONTINUOUS
 70
0
 71
3
 72
8
 73
4
 74
0
 42
0.0000001
 43
0.0000001
 44
0.0000000001
 40
0.0
 40
0.0
 40
0.0
 40
0.0
 40
1.0
 40
1.0
 40
1.0
 40
1.0
 10
244.9687712198
 20
164.8773412407
 30
0.0
 10
245.6055064198
 20
164.8773412407
 30
0.0
 10
246.1241812098
 20
164.3323795904
 30
0.0
 10
246.1241812098
 20
163.6702324776
 30
0.0
  0
SPLINE
  5
395
100
AcDbEntity
  8
03___PRT_ALL_CURVES
100
AcDbSpline
 62
2
  6
CONTINUOUS
 70
0
 71
3
 72
8
 73
4
 74
0
 42
0.0000001
 43
0.0000001
 44
0.0000000001
 40
0.0
 40
0.0
 40
0.0
 40
0.0
 40
1.0
 40
1.0
 40
1.0
 40
1.0
 10
243.8182241535
 20
163.6702324776
 30
0.0
 10
243.8182241535
 20
164.3323795904
 30
0.0
 10
244.3316937195
 20
164.8773412407
 30
0.0
 10
244.9687712198
 20
164.8773412407
 30
0.0
  0
SPLINE
  5
396
100
AcDbEntity
  8
03___PRT_ALL_CURVES
100
AcDbSpline
 62
2
  6
CONTINUOUS
 70
0
 71
3
 72
8
 73
4
 74
0
 42
0.0000001
 43
0.0000001
 44
0.0000000001
 40
0.0
 40
0.0
 40
0.0
 40
0.0
 40
1.0
 40
1.0
 40
1.0
 40
1.0
 10
244.9687712198
 20
162.4693317024
 30
0.0
 10
244.3316937195
 20
162.4693317024
 30
0.0
 10
243.8182241535
 20
163.0090817637
 30
0.0
 10
243.8182241535
 20
163.6702324776
 30
0.0
  0
SPLINE
  5
397
100
AcDbEntity
  8
03___PRT_ALL_CURVES
100
AcDbSpline
 62
2
  6
CONTINUOUS
 70
0
 71
3
 72
8
 73
4
 74
0
 42
0.0000001
 43
0.0000001
 44
0.0000000001
 40
0.0
 40
0.0
 40
0.0
 40
0.0
 40
1.0
 40
1.0
 40
1.0
 40
1.0
 10
246.8678291667
 20
163.6754365293
 30
0.0
 10
246.8678291667
 20
164.7193824369
 30
0.0
 10
246.0221313872
 20
165.5743603293
 30
0.0
 10
244.9792213325
 20
165.5743603293
 30
0.0
  0
SPLINE
  5
398
100
AcDbEntity
  8
03___PRT_ALL_CURVES
100
AcDbSpline
 62
2
  6
CONTINUOUS
 70
0
 71
3
 72
8
 73
4
 74
0
 42
0.0000001
 43
0.0000001
 44
0.0000000001
 40
0.0
 40
0.0
 40
0.0
 40
0.0
 40
1.0
 40
1.0
 40
1.0
 40
1.0
 10
256.8611436546
 20
157.5412795533
 30
0.0
 10
256.7080138881
 20
157.5412795533
 30
0.0
 10
256.6217922202
 20
157.4547000317
 30
0.0
 10
256.6217922202
 20
157.3070748957
 30
0.0
  0
SPLINE
  5
399
100
AcDbEntity
  8
03___PRT_ALL_CURVES
100
AcDbSpline
 62
2
  6
CONTINUOUS
 70
0
 71
3
 72
8
 73
4
 74
0
 42
0.0000001
 43
0.0000001
 44
0.0000000001
 40
0.0
 40
0.0
 40
0.0
 40
0.0
 40
1.0
 40
1.0
 40
1.0
 40
1.0
 10
244.9581512346
 20
161.7713087257
 30
0.0
 10
246.0073011938
 20
161.7713087257
 30
0.0
 10
246.8678291667
 20
162.6168711485
 30
0.0
 10
246.8678291667
 20
163.6754365293
 30
0.0
  0
SPLINE
  5
39A
100
AcDbEntity
  8
03___PRT_ALL_CURVES
100
AcDbSpline
 62
2
  6
CONTINUOUS
 70
0
 71
3
 72
8
 73
4
 74
0
 42
0.0000001
 43
0.0000001
 44
0.0000000001
 40
0.0
 40
0.0
 40
0.0
 40
0.0
 40
1.0
 40
1.0
 40
1.0
 40
1.0
 10
243.0750935289
 20
163.6660210812
 30
0.0
 10
243.0750935289
 20
162.6220789605
 30
0.0
 10
243.9143789863
 20
161.7713087257
 30
0.0
 10
244.9581512346
 20
161.7713087257
 30
0.0
  0
SPLINE
  5
39B
100
AcDbEntity
  8
03___PRT_ALL_CURVES
100
AcDbSpline
 62
2
  6
CONTINUOUS
 70
0
 71
3
 72
8
 73
4
 74
0
 42
0.0000001
 43
0.0000001
 44
0.0000000001
 40
0.0
 40
0.0
 40
0.0
 40
0.0
 40
1.0
 40
1.0
 40
1.0
 40
1.0
 10
236.9353182936
 20
157.3070748957
 30
0.0
 10
236.9353182936
 20
157.4547000317
 30
0.0
 10
236.8487492971
 20
157.5412795533
 30
0.0
 10
236.7011346862
 20
157.5412795533
 30
0.0
  0
SPLINE
  5
39C
100
AcDbEntity
  8
03___PRT_ALL_CURVES
100
AcDbSpline
 62
2
  6
CONTINUOUS
 70
0
 71
3
 72
8
 73
4
 74
0
 42
0.0000001
 43
0.0000001
 44
0.0000000001
 40
0.0
 40
0.0
 40
0.0
 40
0.0
 40
1.0
 40
1.0
 40
1.0
 40
1.0
 10
244.9792213325
 20
165.5743603293
 30
0.0
 10
243.9300713998
 20
165.5743603293
 30
0.0
 10
243.0750935289
 20
164.7245864621
 30
0.0
 10
243.0750935289
 20
163.6660210812
 30
0.0
  0
SPLINE
  5
39D
100
AcDbEntity
  8
03___PRT_ALL_CURVES
100
AcDbSpline
 62
2
  6
CONTINUOUS
 70
0
 71
3
 72
8
 73
4
 74
0
 42
0.0000001
 43
0.0000001
 44
0.0000000001
 40
0.0
 40
0.0
 40
0.0
 40
0.0
 40
1.0
 40
1.0
 40
1.0
 40
1.0
 10
250.8994289402
 20
155.7899334981
 30
0.0
 10
250.9449605486
 20
156.318988474
 30
0.0
 10
251.1643037566
 20
156.5173025203
 30
0.0
 10
251.4698791577
 20
156.5173025203
 30
0.0
  0
SPLINE
  5
39E
100
AcDbEntity
  8
03___PRT_ALL_CURVES
100
AcDbSpline
 62
2
  6
CONTINUOUS
 70
0
 71
3
 72
8
 73
4
 74
0
 42
0.0000001
 43
0.0000001
 44
0.0000000001
 40
0.0
 40
0.0
 40
0.0
 40
0.0
 40
1.0
 40
1.0
 40
1.0
 40
1.0
 10
251.4698791577
 20
156.5173025203
 30
0.0
 10
251.7599195025
 20
156.5173025203
 30
0.0
 10
251.9382253224
 20
156.3445118559
 30
0.0
 10
251.9382253224
 20
155.7899334981
 30
0.0
  0
SPLINE
  5
39F
100
AcDbEntity
  8
03___PRT_ALL_CURVES
100
AcDbSpline
 62
2
  6
CONTINUOUS
 70
0
 71
3
 72
8
 73
4
 74
0
 42
0.0000001
 43
0.0000001
 44
0.0000000001
 40
0.0
 40
0.0
 40
0.0
 40
0.0
 40
1.0
 40
1.0
 40
1.0
 40
1.0
 10
236.7011346862
 20
157.0677339863
 30
0.0
 10
236.8487492971
 20
157.0677339863
 30
0.0
 10
236.9353182936
 20
157.1543135079
 30
0.0
 10
236.9353182936
 20
157.3070748957
 30
0.0
  0
SPLINE
  5
3A0
100
AcDbEntity
  8
03___PRT_ALL_CURVES
100
AcDbSpline
 62
2
  6
CONTINUOUS
 70
0
 71
3
 72
8
 73
4
 74
0
 42
0.0000001
 43
0.0000001
 44
0.0000000001
 40
0.0
 40
0.0
 40
0.0
 40
0.0
 40
1.0
 40
1.0
 40
1.0
 40
1.0
 10
232.4859350033
 20
155.7844288677
 30
0.0
 10
232.5314560865
 20
156.3138206469
 30
0.0
 10
232.7504624912
 20
156.5131451035
 30
0.0
 10
233.0553432353
 20
156.5131451035
 30
0.0
  0
SPLINE
  5
3A1
100
AcDbEntity
  8
03___PRT_ALL_CURVES
100
AcDbSpline
 62
2
  6
CONTINUOUS
 70
0
 71
3
 72
8
 73
4
 74
0
 42
0.0000001
 43
0.0000001
 44
0.0000000001
 40
0.0
 40
0.0
 40
0.0
 40
0.0
 40
1.0
 40
1.0
 40
1.0
 40
1.0
 10
233.0553432353
 20
156.5131451035
 30
0.0
 10
233.3464255655
 20
156.5131451035
 30
0.0
 10
233.524384057
 20
156.3393335038
 30
0.0
 10
233.524384057
 20
155.7844288677
 30
0.0
  0
SPLINE
  5
3A2
100
AcDbEntity
  8
03___PRT_ALL_CURVES
100
AcDbSpline
 62
2
  6
CONTINUOUS
 70
0
 71
3
 72
8
 73
4
 74
0
 42
0.0000001
 43
0.0000001
 44
0.0000000001
 40
0.0
 40
0.0
 40
0.0
 40
0.0
 40
1.0
 40
1.0
 40
1.0
 40
1.0
 10
238.3959082968
 20
153.7737336768
 30
0.0
 10
237.9434234668
 20
153.7737336768
 30
0.0
 10
237.8054709031
 20
153.9468611446
 30
0.0
 10
237.8054709031
 20
154.150343018
 30
0.0
  0
SPLINE
  5
3A3
100
AcDbEntity
  8
03___PRT_ALL_CURVES
100
AcDbSpline
 62
2
  6
CONTINUOUS
 70
0
 71
3
 72
8
 73
4
 74
0
 42
0.0000001
 43
0.0000001
 44
0.0000000001
 40
0.0
 40
0.0
 40
0.0
 40
0.0
 40
1.0
 40
1.0
 40
1.0
 40
1.0
 10
239.032582481
 20
154.1965692833
 30
0.0
 10
239.032582481
 20
153.9416933176
 30
0.0
 10
238.8387416047
 20
153.7737336768
 30
0.0
 10
238.3959082968
 20
153.7737336768
 30
0.0
  0
SPLINE
  5
3A4
100
AcDbEntity
  8
03___PRT_ALL_CURVES
100
AcDbSpline
 62
2
  6
CONTINUOUS
 70
0
 71
3
 72
8
 73
4
 74
0
 42
0.0000001
 43
0.0000001
 44
0.0000000001
 40
0.0
 40
0.0
 40
0.0
 40
0.0
 40
1.0
 40
1.0
 40
1.0
 40
1.0
 10
238.6963053458
 20
154.5321307113
 30
0.0
 10
238.9101333983
 20
154.5321307113
 30
0.0
 10
239.032582481
 20
154.4052189837
 30
0.0
 10
239.032582481
 20
154.1965692833
 30
0.0
  0
SPLINE
  5
3A5
100
AcDbEntity
  8
03___PRT_ALL_CURVES
100
AcDbSpline
 62
2
  6
CONTINUOUS
 70
0
 71
3
 72
8
 73
4
 74
0
 42
0.0000001
 43
0.0000001
 44
0.0000000001
 40
0.0
 40
0.0
 40
0.0
 40
0.0
 40
1.0
 40
1.0
 40
1.0
 40
1.0
 10
237.8054709031
 20
154.150343018
 30
0.0
 10
237.8054709031
 20
154.2672558949
 30
0.0
 10
237.8568544704
 20
154.4200383329
 30
0.0
 10
238.0699878659
 20
154.5321307113
 30
0.0
  0
SPLINE
  5
3A6
100
AcDbEntity
  8
03___PRT_ALL_CURVES
100
AcDbSpline
 62
2
  6
CONTINUOUS
 70
0
 71
3
 72
8
 73
4
 74
0
 42
0.0000001
 43
0.0000001
 44
0.0000000001
 40
0.0
 40
0.0
 40
0.0
 40
0.0
 40
1.0
 40
1.0
 40
1.0
 40
1.0
 10
236.8794405061
 20
156.6700849583
 30
0.0
 10
236.8794405061
 20
156.7218158541
 30
0.0
 10
236.8584008193
 20
156.7469919075
 30
0.0
 10
236.68562068
 20
156.7469919075
 30
0.0
  0
SPLINE
  5
3A7
100
AcDbEntity
  8
03___PRT_ALL_CURVES
100
AcDbSpline
 62
2
  6
CONTINUOUS
 70
0
 71
3
 72
8
 73
4
 74
0
 42
0.0000001
 43
0.0000001
 44
0.0000000001
 40
0.0
 40
0.0
 40
0.0
 40
0.0
 40
1.0
 40
1.0
 40
1.0
 40
1.0
 10
236.4617832517
 20
157.3070748957
 30
0.0
 10
236.4617832517
 20
157.1543135079
 30
0.0
 10
236.5483522482
 20
157.0677339863
 30
0.0
 10
236.7011346862
 20
157.0677339863
 30
0.0
  0
SPLINE
  5
3A8
100
AcDbEntity
  8
03___PRT_ALL_CURVES
100
AcDbSpline
 62
2
  6
CONTINUOUS
 70
0
 71
3
 72
8
 73
4
 74
0
 42
0.0000001
 43
0.0000001
 44
0.0000000001
 40
0.0
 40
0.0
 40
0.0
 40
0.0
 40
1.0
 40
1.0
 40
1.0
 40
1.0
 10
236.68562068
 20
154.4052189837
 30
0.0
 10
236.8584008193
 20
154.4052189837
 30
0.0
 10
236.8794405061
 20
154.4359101927
 30
0.0
 10
236.8794405061
 20
154.4814312759
 30
0.0
  0
SPLINE
  5
3A9
100
AcDbEntity
  8
03___PRT_ALL_CURVES
100
AcDbSpline
 62
2
  6
CONTINUOUS
 70
0
 71
3
 72
8
 73
4
 74
0
 42
0.0000001
 43
0.0000001
 44
0.0000000001
 40
0.0
 40
0.0
 40
0.0
 40
0.0
 40
1.0
 40
1.0
 40
1.0
 40
1.0
 10
236.5179978426
 20
154.4814312759
 30
0.0
 10
236.5179978426
 20
154.4359101927
 30
0.0
 10
236.538006069
 20
154.4052189837
 30
0.0
 10
236.68562068
 20
154.4052189837
 30
0.0
  0
SPLINE
  5
3AA
100
AcDbEntity
  8
03___PRT_ALL_CURVES
100
AcDbSpline
 62
2
  6
CONTINUOUS
 70
0
 71
3
 72
8
 73
4
 74
0
 42
0.0000001
 43
0.0000001
 44
0.0000000001
 40
0.0
 40
0.0
 40
0.0
 40
0.0
 40
1.0
 40
1.0
 40
1.0
 40
1.0
 10
236.7011346862
 20
157.5412795533
 30
0.0
 10
236.5483522482
 20
157.5412795533
 30
0.0
 10
236.4617832517
 20
157.4547000317
 30
0.0
 10
236.4617832517
 20
157.3070748957
 30
0.0
  0
SPLINE
  5
3AB
100
AcDbEntity
  8
03___PRT_ALL_CURVES
100
AcDbSpline
 62
2
  6
CONTINUOUS
 70
0
 71
3
 72
8
 73
4
 74
0
 42
0.0000001
 43
0.0000001
 44
0.0000000001
 40
0.0
 40
0.0
 40
0.0
 40
0.0
 40
1.0
 40
1.0
 40
1.0
 40
1.0
 10
236.68562068
 20
156.7469919075
 30
0.0
 10
236.538006069
 20
156.7469919075
 30
0.0
 10
236.5179978426
 20
156.7218158541
 30
0.0
 10
236.5179978426
 20
156.6700849583
 30
0.0
  0
SPLINE
  5
3AC
100
AcDbEntity
  8
03___PRT_ALL_CURVES
100
AcDbSpline
 62
2
  6
CONTINUOUS
 70
0
 71
3
 72
8
 73
4
 74
0
 42
0.0000001
 43
0.0000001
 44
0.0000000001
 40
0.0
 40
0.0
 40
0.0
 40
0.0
 40
1.0
 40
1.0
 40
1.0
 40
1.0
 10
257.0391126712
 20
156.6700849583
 30
0.0
 10
257.0391126712
 20
156.7218158541
 30
0.0
 10
257.0180624593
 20
156.7469919075
 30
0.0
 10
256.8452823199
 20
156.7469919075
 30
0.0
  0
SPLINE
  5
3AD
100
AcDbEntity
  8
03___PRT_ALL_CURVES
100
AcDbSpline
 62
2
  6
CONTINUOUS
 70
0
 71
3
 72
8
 73
4
 74
0
 42
0.0000001
 43
0.0000001
 44
0.0000000001
 40
0.0
 40
0.0
 40
0.0
 40
0.0
 40
1.0
 40
1.0
 40
1.0
 40
1.0
 10
238.4262627024
 20
155.5050715055
 30
0.0
 10
238.0858597257
 20
155.5050715055
 30
0.0
 10
237.9127217328
 20
155.7033645017
 30
0.0
 10
237.9127217328
 20
156.0134235979
 30
0.0
  0
SPLINE
  5
3AE
100
AcDbEntity
  8
03___PRT_ALL_CURVES
100
AcDbSpline
 62
2
  6
CONTINUOUS
 70
0
 71
3
 72
8
 73
4
 74
0
 42
0.0000001
 43
0.0000001
 44
0.0000000001
 40
0.0
 40
0.0
 40
0.0
 40
0.0
 40
1.0
 40
1.0
 40
1.0
 40
1.0
 10
256.8452823199
 20
154.4052189837
 30
0.0
 10
257.0180624593
 20
154.4052189837
 30
0.0
 10
257.0391126712
 20
154.4359101927
 30
0.0
 10
257.0391126712
 20
154.4814312759
 30
0.0
  0
SPLINE
  5
3AF
100
AcDbEntity
  8
03___PRT_ALL_CURVES
100
AcDbSpline
 62
2
  6
CONTINUOUS
 70
0
 71
3
 72
8
 73
4
 74
0
 42
0.0000001
 43
0.0000001
 44
0.0000000001
 40
0.0
 40
0.0
 40
0.0
 40
0.0
 40
1.0
 40
1.0
 40
1.0
 40
1.0
 10
256.6776594825
 20
154.4814312759
 30
0.0
 10
256.6776594825
 20
154.4359101927
 30
0.0
 10
256.697667709
 20
154.4052189837
 30
0.0
 10
256.8452823199
 20
154.4052189837
 30
0.0
  0
SPLINE
  5
3B0
100
AcDbEntity
  8
03___PRT_ALL_CURVES
100
AcDbSpline
 62
2
  6
CONTINUOUS
 70
0
 71
3
 72
8
 73
4
 74
0
 42
0.0000001
 43
0.0000001
 44
0.0000000001
 40
0.0
 40
0.0
 40
0.0
 40
0.0
 40
1.0
 40
1.0
 40
1.0
 40
1.0
 10
256.8452823199
 20
156.7469919075
 30
0.0
 10
256.697667709
 20
156.7469919075
 30
0.0
 10
256.6776594825
 20
156.7218158541
 30
0.0
 10
256.6776594825
 20
156.6700849583
 30
0.0
  0
SPLINE
  5
3B1
100
AcDbEntity
  8
03___PRT_ALL_CURVES
100
AcDbSpline
 62
2
  6
CONTINUOUS
 70
0
 71
3
 72
8
 73
4
 74
0
 42
0.0000001
 43
0.0000001
 44
0.0000000001
 40
0.0
 40
0.0
 40
0.0
 40
0.0
 40
1.0
 40
1.0
 40
1.0
 40
1.0
 10
248.4714343485
 20
157.4850544373
 30
0.0
 10
248.4714343485
 20
157.5305755206
 30
0.0
 10
248.4407326144
 20
157.5560989025
 30
0.0
 10
248.2827718243
 20
157.5560989025
 30
0.0
  0
SPLINE
  5
3B2
100
AcDbEntity
  8
03___PRT_ALL_CURVES
100
AcDbSpline
 62
2
  6
CONTINUOUS
 70
0
 71
3
 72
8
 73
4
 74
0
 42
0.0000001
 43
0.0000001
 44
0.0000000001
 40
0.0
 40
0.0
 40
0.0
 40
0.0
 40
1.0
 40
1.0
 40
1.0
 40
1.0
 10
238.8597918166
 20
156.0134235979
 30
0.0
 10
238.8597918166
 20
155.7285405551
 30
0.0
 10
238.7173555577
 20
155.5050715055
 30
0.0
 10
238.4262627024
 20
155.5050715055
 30
0.0
  0
SPLINE
  5
3B3
100
AcDbEntity
  8
03___PRT_ALL_CURVES
100
AcDbSpline
 62
2
  6
CONTINUOUS
 70
0
 71
3
 72
8
 73
4
 74
0
 42
0.0000001
 43
0.0000001
 44
0.0000000001
 40
0.0
 40
0.0
 40
0.0
 40
0.0
 40
1.0
 40
1.0
 40
1.0
 40
1.0
 10
248.6242167865
 20
154.6900915014
 30
0.0
 10
248.5114402762
 20
154.6900915014
 30
0.0
 10
248.4714343485
 20
154.751137116
 30
0.0
 10
248.4714343485
 20
154.8535674471
 30
0.0
  0
SPLINE
  5
3B4
100
AcDbEntity
  8
03___PRT_ALL_CURVES
100
AcDbSpline
 62
2
  6
CONTINUOUS
 70
0
 71
3
 72
8
 73
4
 74
0
 42
0.0000001
 43
0.0000001
 44
0.0000000001
 40
0.0
 40
0.0
 40
0.0
 40
0.0
 40
1.0
 40
1.0
 40
1.0
 40
1.0
 10
248.7970074509
 20
154.7207827104
 30
0.0
 10
248.7411401885
 20
154.7059528361
 30
0.0
 10
248.674926747
 20
154.6900915014
 30
0.0
 10
248.6242167865
 20
154.6900915014
 30
0.0
  0
SPLINE
  5
3B5
100
AcDbEntity
  8
03___PRT_ALL_CURVES
100
AcDbSpline
 62
2
  6
CONTINUOUS
 70
0
 71
3
 72
8
 73
4
 74
0
 42
0.0000001
 43
0.0000001
 44
0.0000000001
 40
0.0
 40
0.0
 40
0.0
 40
0.0
 40
1.0
 40
1.0
 40
1.0
 40
1.0
 10
248.8276986599
 20
154.5983441529
 30
0.0
 10
248.8276986599
 20
154.6445598931
 30
0.0
 10
248.8118478503
 20
154.6900915014
 30
0.0
 10
248.7970074509
 20
154.7207827104
 30
0.0
  0
SPLINE
  5
3B6
100
AcDbEntity
  8
03___PRT_ALL_CURVES
100
AcDbSpline
 62
2
  6
CONTINUOUS
 70
0
 71
3
 72
8
 73
4
 74
0
 42
0.0000001
 43
0.0000001
 44
0.0000000001
 40
0.0
 40
0.0
 40
0.0
 40
0.0
 40
1.0
 40
1.0
 40
1.0
 40
1.0
 10
248.7307834842
 20
154.4403938878
 30
0.0
 10
248.7970074509
 20
154.4759055953
 30
0.0
 10
248.8276986599
 20
154.5276470162
 30
0.0
 10
248.8276986599
 20
154.5983441529
 30
0.0
  0
SPLINE
  5
3B7
100
AcDbEntity
  8
03___PRT_ALL_CURVES
100
AcDbSpline
 62
2
  6
CONTINUOUS
 70
0
 71
3
 72
8
 73
4
 74
0
 42
0.0000001
 43
0.0000001
 44
0.0000000001
 40
0.0
 40
0.0
 40
0.0
 40
0.0
 40
1.0
 40
1.0
 40
1.0
 40
1.0
 10
248.5062619241
 20
154.4052189837
 30
0.0
 10
248.5724858907
 20
154.4052189837
 30
0.0
 10
248.674926747
 20
154.4148705059
 30
0.0
 10
248.7307834842
 20
154.4403938878
 30
0.0
  0
SPLINE
  5
3B8
100
AcDbEntity
  8
03___PRT_ALL_CURVES
100
AcDbSpline
 62
2
  6
CONTINUOUS
 70
0
 71
3
 72
8
 73
4
 74
0
 42
0.0000001
 43
0.0000001
 44
0.0000000001
 40
0.0
 40
0.0
 40
0.0
 40
0.0
 40
1.0
 40
1.0
 40
1.0
 40
1.0
 10
248.0992981773
 20
154.822865713
 30
0.0
 10
248.0992981773
 20
154.6394025912
 30
0.0
 10
248.1803520183
 20
154.4052189837
 30
0.0
 10
248.5062619241
 20
154.4052189837
 30
0.0
  0
SPLINE
  5
3B9
100
AcDbEntity
  8
03___PRT_ALL_CURVES
100
AcDbSpline
 62
2
  6
CONTINUOUS
 70
0
 71
3
 72
8
 73
4
 74
0
 42
0.0000001
 43
0.0000001
 44
0.0000000001
 40
0.0
 40
0.0
 40
0.0
 40
0.0
 40
1.0
 40
1.0
 40
1.0
 40
1.0
 10
238.4262627024
 20
156.533163855
 30
0.0
 10
238.6911375188
 20
156.533163855
 30
0.0
 10
238.8597918166
 20
156.3393335038
 30
0.0
 10
238.8597918166
 20
156.0134235979
 30
0.0
  0
SPLINE
  5
3BA
100
AcDbEntity
  8
03___PRT_ALL_CURVES
100
AcDbSpline
 62
2
  6
CONTINUOUS
 70
0
 71
3
 72
8
 73
4
 74
0
 42
0.0000001
 43
0.0000001
 44
0.0000000001
 40
0.0
 40
0.0
 40
0.0
 40
0.0
 40
1.0
 40
1.0
 40
1.0
 40
1.0
 10
248.2827718243
 20
157.5560989025
 30
0.0
 10
248.1244742308
 20
157.5560989025
 30
0.0
 10
248.0992981773
 20
157.5305755206
 30
0.0
 10
248.0992981773
 20
157.4850544373
 30
0.0
  0
SPLINE
  5
3BB
100
AcDbEntity
  8
03___PRT_ALL_CURVES
100
AcDbSpline
 62
2
  6
CONTINUOUS
 70
0
 71
3
 72
8
 73
4
 74
0
 42
0.0000001
 43
0.0000001
 44
0.0000000001
 40
0.0
 40
0.0
 40
0.0
 40
0.0
 40
1.0
 40
1.0
 40
1.0
 40
1.0
 10
237.9127217328
 20
156.0134235979
 30
0.0
 10
237.9127217328
 20
156.318988474
 30
0.0
 10
238.0699878659
 20
156.533163855
 30
0.0
 10
238.4262627024
 20
156.533163855
 30
0.0
  0
SPLINE
  5
3BC
100
AcDbEntity
  8
03___PRT_ALL_CURVES
100
AcDbSpline
 62
2
  6
CONTINUOUS
 70
0
 71
3
 72
8
 73
4
 74
0
 42
0.0000001
 43
0.0000001
 44
0.0000000001
 40
0.0
 40
0.0
 40
0.0
 40
0.0
 40
1.0
 40
1.0
 40
1.0
 40
1.0
 10
249.769243063
 20
157.4850544373
 30
0.0
 10
249.769243063
 20
157.5305755206
 30
0.0
 10
249.738541329
 20
157.5560989025
 30
0.0
 10
249.5805805388
 20
157.5560989025
 30
0.0
  0
SPLINE
  5
3BD
100
AcDbEntity
  8
03___PRT_ALL_CURVES
100
AcDbSpline
 62
2
  6
CONTINUOUS
 70
0
 71
3
 72
8
 73
4
 74
0
 42
0.0000001
 43
0.0000001
 44
0.0000000001
 40
0.0
 40
0.0
 40
0.0
 40
0.0
 40
1.0
 40
1.0
 40
1.0
 40
1.0
 10
249.9220360262
 20
154.6900915014
 30
0.0
 10
249.8102804511
 20
154.6900915014
 30
0.0
 10
249.769243063
 20
154.751137116
 30
0.0
 10
249.769243063
 20
154.8535674471
 30
0.0
  0
SPLINE
  5
3BE
100
AcDbEntity
  8
03___PRT_ALL_CURVES
100
AcDbSpline
 62
2
  6
CONTINUOUS
 70
0
 71
3
 72
8
 73
4
 74
0
 42
0.0000001
 43
0.0000001
 44
0.0000000001
 40
0.0
 40
0.0
 40
0.0
 40
0.0
 40
1.0
 40
1.0
 40
1.0
 40
1.0
 10
250.0951529689
 20
154.7207827104
 30
0.0
 10
250.0392857065
 20
154.7059528361
 30
0.0
 10
249.9727249364
 20
154.6900915014
 30
0.0
 10
249.9220360262
 20
154.6900915014
 30
0.0
  0
SPLINE
  5
3BF
100
AcDbEntity
  8
03___PRT_ALL_CURVES
100
AcDbSpline
 62
2
  6
CONTINUOUS
 70
0
 71
3
 72
8
 73
4
 74
0
 42
0.0000001
 43
0.0000001
 44
0.0000000001
 40
0.0
 40
0.0
 40
0.0
 40
0.0
 40
1.0
 40
1.0
 40
1.0
 40
1.0
 10
250.1255073744
 20
154.5983441529
 30
0.0
 10
250.1255073744
 20
154.6445598931
 30
0.0
 10
250.1099933682
 20
154.6900915014
 30
0.0
 10
250.0951529689
 20
154.7207827104
 30
0.0
  0
SPLINE
  5
3C0
100
AcDbEntity
  8
03___PRT_ALL_CURVES
100
AcDbSpline
 62
2
  6
CONTINUOUS
 70
0
 71
3
 72
8
 73
4
 74
0
 42
0.0000001
 43
0.0000001
 44
0.0000000001
 40
0.0
 40
0.0
 40
0.0
 40
0.0
 40
1.0
 40
1.0
 40
1.0
 40
1.0
 10
250.0285921988
 20
154.4403938878
 30
0.0
 10
250.0951529689
 20
154.4759055953
 30
0.0
 10
250.1255073744
 20
154.5276470162
 30
0.0
 10
250.1255073744
 20
154.5983441529
 30
0.0
  0
SPLINE
  5
3C1
100
AcDbEntity
  8
03___PRT_ALL_CURVES
100
AcDbSpline
 62
2
  6
CONTINUOUS
 70
0
 71
3
 72
8
 73
4
 74
0
 42
0.0000001
 43
0.0000001
 44
0.0000000001
 40
0.0
 40
0.0
 40
0.0
 40
0.0
 40
1.0
 40
1.0
 40
1.0
 40
1.0
 10
249.805102099
 20
154.4052189837
 30
0.0
 10
249.8706314087
 20
154.4052189837
 30
0.0
 10
249.9727249364
 20
154.4148705059
 30
0.0
 10
250.0285921988
 20
154.4403938878
 30
0.0
  0
SPLINE
  5
3C2
100
AcDbEntity
  8
03___PRT_ALL_CURVES
100
AcDbSpline
 62
2
  6
CONTINUOUS
 70
0
 71
3
 72
8
 73
4
 74
0
 42
0.0000001
 43
0.0000001
 44
0.0000000001
 40
0.0
 40
0.0
 40
0.0
 40
0.0
 40
1.0
 40
1.0
 40
1.0
 40
1.0
 10
254.1217111777
 20
156.4824644196
 30
0.0
 10
254.2441392102
 20
156.4824644196
 30
0.0
 10
254.2851871234
 20
156.5531720814
 30
0.0
 10
254.2851871234
 20
156.6249006785
 30
0.0
  0
SPLINE
  5
3C3
100
AcDbEntity
  8
03___PRT_ALL_CURVES
100
AcDbSpline
 62
2
  6
CONTINUOUS
 70
0
 71
3
 72
8
 73
4
 74
0
 42
0.0000001
 43
0.0000001
 44
0.0000000001
 40
0.0
 40
0.0
 40
0.0
 40
0.0
 40
1.0
 40
1.0
 40
1.0
 40
1.0
 10
249.397117417
 20
154.822865713
 30
0.0
 10
249.397117417
 20
154.6394025912
 30
0.0
 10
249.4791921932
 20
154.4052189837
 30
0.0
 10
249.805102099
 20
154.4052189837
 30
0.0
  0
SPLINE
  5
3C4
100
AcDbEntity
  8
03___PRT_ALL_CURVES
100
AcDbSpline
 62
2
  6
CONTINUOUS
 70
0
 71
3
 72
8
 73
4
 74
0
 42
0.0000001
 43
0.0000001
 44
0.0000000001
 40
0.0
 40
0.0
 40
0.0
 40
0.0
 40
1.0
 40
1.0
 40
1.0
 40
1.0
 10
249.5805805388
 20
157.5560989025
 30
0.0
 10
249.4233144057
 20
157.5560989025
 30
0.0
 10
249.397117417
 20
157.5305755206
 30
0.0
 10
249.397117417
 20
157.4850544373
 30
0.0
  0
SPLINE
  5
3C5
100
AcDbEntity
  8
03___PRT_ALL_CURVES
100
AcDbSpline
 62
2
  6
CONTINUOUS
 70
0
 71
3
 72
8
 73
4
 74
0
 42
0.0000001
 43
0.0000001
 44
0.0000000001
 40
0.0
 40
0.0
 40
0.0
 40
0.0
 40
1.0
 40
1.0
 40
1.0
 40
1.0
 10
256.0765285812
 20
156.6142071708
 30
0.0
 10
256.0765285812
 20
156.6607702395
 30
0.0
 10
256.0668665339
 20
156.7059545194
 30
0.0
 10
256.0365331786
 20
156.7469919075
 30
0.0
  0
SPLINE
  5
3C6
100
AcDbEntity
  8
03___PRT_ALL_CURVES
100
AcDbSpline
 62
2
  6
CONTINUOUS
 70
0
 71
3
 72
8
 73
4
 74
0
 42
0.0000001
 43
0.0000001
 44
0.0000000001
 40
0.0
 40
0.0
 40
0.0
 40
0.0
 40
1.0
 40
1.0
 40
1.0
 40
1.0
 10
255.9089057438
 20
156.4721182405
 30
0.0
 10
256.0461741756
 20
156.4721182405
 30
0.0
 10
256.0765285812
 20
156.5435205592
 30
0.0
 10
256.0765285812
 20
156.6142071708
 30
0.0
  0
SPLINE
  5
3C7
100
AcDbEntity
  8
03___PRT_ALL_CURVES
100
AcDbSpline
 62
2
  6
CONTINUOUS
 70
0
 71
3
 72
8
 73
4
 74
0
 42
0.0000001
 43
0.0000001
 44
0.0000000001
 40
0.0
 40
0.0
 40
0.0
 40
0.0
 40
1.0
 40
1.0
 40
1.0
 40
1.0
 10
253.8464901822
 20
156.502472646
 30
0.0
 10
253.9489205133
 20
156.502472646
 30
0.0
 10
254.0658333902
 20
156.4824644196
 30
0.0
 10
254.1217111777
 20
156.4824644196
 30
0.0
  0
SPLINE
  5
3C8
100
AcDbEntity
  8
03___PRT_ALL_CURVES
100
AcDbSpline
 62
2
  6
CONTINUOUS
 70
0
 71
3
 72
8
 73
4
 74
0
 42
0.0000001
 43
0.0000001
 44
0.0000000001
 40
0.0
 40
0.0
 40
0.0
 40
0.0
 40
1.0
 40
1.0
 40
1.0
 40
1.0
 10
255.7361256045
 20
154.6752721523
 30
0.0
 10
255.5526414324
 20
154.6752721523
 30
0.0
 10
255.4609046089
 20
154.7714926709
 30
0.0
 10
255.4609046089
 20
154.970480324
 30
0.0
  0
SPLINE
  5
3C9
100
AcDbEntity
  8
03___PRT_ALL_CURVES
100
AcDbSpline
 62
2
  6
CONTINUOUS
 70
0
 71
3
 72
8
 73
4
 74
0
 42
0.0000001
 43
0.0000001
 44
0.0000000001
 40
0.0
 40
0.0
 40
0.0
 40
0.0
 40
1.0
 40
1.0
 40
1.0
 40
1.0
 10
256.0406590201
 20
154.7562944179
 30
0.0
 10
255.9754770389
 20
154.7207827104
 30
0.0
 10
255.8678683557
 20
154.6752721523
 30
0.0
 10
255.7361256045
 20
154.6752721523
 30
0.0
  0
SPLINE
  5
3CA
100
AcDbEntity
  8
03___PRT_ALL_CURVES
100
AcDbSpline
 62
2
  6
CONTINUOUS
 70
0
 71
3
 72
8
 73
4
 74
0
 42
0.0000001
 43
0.0000001
 44
0.0000000001
 40
0.0
 40
0.0
 40
0.0
 40
0.0
 40
1.0
 40
1.0
 40
1.0
 40
1.0
 10
256.092400441
 20
154.6142160126
 30
0.0
 10
256.092400441
 20
154.6797453223
 30
0.0
 10
256.0668665339
 20
154.7311288896
 30
0.0
 10
256.0406590201
 20
154.7562944179
 30
0.0
  0
SPLINE
  5
3CB
100
AcDbEntity
  8
03___PRT_ALL_CURVES
100
AcDbSpline
 62
2
  6
CONTINUOUS
 70
0
 71
3
 72
8
 73
4
 74
0
 42
0.0000001
 43
0.0000001
 44
0.0000000001
 40
0.0
 40
0.0
 40
0.0
 40
0.0
 40
1.0
 40
1.0
 40
1.0
 40
1.0
 10
255.6540403031
 20
154.369686226
 30
0.0
 10
255.9647940564
 20
154.369686226
 30
0.0
 10
256.092400441
 20
154.4866096281
 30
0.0
 10
256.092400441
 20
154.6142160126
 30
0.0
  0
SPLINE
  5
3CC
100
AcDbEntity
  8
03___PRT_ALL_CURVES
100
AcDbSpline
 62
2
  6
CONTINUOUS
 70
0
 71
3
 72
8
 73
4
 74
0
 42
0.0000001
 43
0.0000001
 44
0.0000000001
 40
0.0
 40
0.0
 40
0.0
 40
0.0
 40
1.0
 40
1.0
 40
1.0
 40
1.0
 10
255.0939467899
 20
154.9397891151
 30
0.0
 10
255.0939467899
 20
154.5931763258
 30
0.0
 10
255.2467292279
 20
154.369686226
 30
0.0
 10
255.6540403031
 20
154.369686226
 30
0.0
  0
SPLINE
  5
3CD
100
AcDbEntity
  8
03___PRT_ALL_CURVES
100
AcDbSpline
 62
2
  6
CONTINUOUS
 70
0
 71
3
 72
8
 73
4
 74
0
 42
0.0000001
 43
0.0000001
 44
0.0000000001
 40
0.0
 40
0.0
 40
0.0
 40
0.0
 40
1.0
 40
1.0
 40
1.0
 40
1.0
 10
254.645945655
 20
156.6090393438
 30
0.0
 10
254.645945655
 20
156.5583399084
 30
0.0
 10
254.6614596612
 20
156.5173025203
 30
0.0
 10
254.686972518
 20
156.4721182405
 30
0.0
  0
SPLINE
  5
3CE
100
AcDbEntity
  8
03___PRT_ALL_CURVES
100
AcDbSpline
 62
2
  6
CONTINUOUS
 70
0
 71
3
 72
8
 73
4
 74
0
 42
0.0000001
 43
0.0000001
 44
0.0000000001
 40
0.0
 40
0.0
 40
0.0
 40
0.0
 40
1.0
 40
1.0
 40
1.0
 40
1.0
 10
254.8145894277
 20
156.7469919075
 30
0.0
 10
254.6818152161
 20
156.7469919075
 30
0.0
 10
254.645945655
 20
156.6756106389
 30
0.0
 10
254.645945655
 20
156.6090393438
 30
0.0
  0
SPLINE
  5
3CF
100
AcDbEntity
  8
03___PRT_ALL_CURVES
100
AcDbSpline
 62
2
  6
CONTINUOUS
 70
0
 71
3
 72
8
 73
4
 74
0
 42
0.0000001
 43
0.0000001
 44
0.0000000001
 40
0.0
 40
0.0
 40
0.0
 40
0.0
 40
1.0
 40
1.0
 40
1.0
 40
1.0
 10
255.2677689147
 20
157.3219152951
 30
0.0
 10
255.1201543037
 20
157.3219152951
 30
0.0
 10
255.0939467899
 20
157.3019175937
 30
0.0
 10
255.0939467899
 20
157.2563859854
 30
0.0
  0
SPLINE
  5
3D0
100
AcDbEntity
  8
03___PRT_ALL_CURVES
100
AcDbSpline
 62
2
  6
CONTINUOUS
 70
0
 71
3
 72
8
 73
4
 74
0
 42
0.0000001
 43
0.0000001
 44
0.0000000001
 40
0.0
 40
0.0
 40
0.0
 40
0.0
 40
1.0
 40
1.0
 40
1.0
 40
1.0
 10
255.4609046089
 20
157.2563859854
 30
0.0
 10
255.4609046089
 20
157.3019175937
 30
0.0
 10
255.435381227
 20
157.3219152951
 30
0.0
 10
255.2677689147
 20
157.3219152951
 30
0.0
  0
SPLINE
  5
3D1
100
AcDbEntity
  8
03___PRT_ALL_CURVES
100
AcDbSpline
 62
2
  6
CONTINUOUS
 70
0
 71
3
 72
8
 73
4
 74
0
 42
0.0000001
 43
0.0000001
 44
0.0000000001
 40
0.0
 40
0.0
 40
0.0
 40
0.0
 40
1.0
 40
1.0
 40
1.0
 40
1.0
 10
241.6747524538
 20
156.0648176903
 30
0.0
 10
241.6747524538
 20
156.5479937293
 30
0.0
 10
241.4050571388
 20
156.7873451637
 30
0.0
 10
240.9925571863
 20
156.7873451637
 30
0.0
  0
SPLINE
  5
3D2
100
AcDbEntity
  8
03___PRT_ALL_CURVES
100
AcDbSpline
 62
2
  6
CONTINUOUS
 70
0
 71
3
 72
8
 73
4
 74
0
 42
0.0000001
 43
0.0000001
 44
0.0000000001
 40
0.0
 40
0.0
 40
0.0
 40
0.0
 40
1.0
 40
1.0
 40
1.0
 40
1.0
 10
241.4912682817
 20
154.4052189837
 30
0.0
 10
241.6495764003
 20
154.4052189837
 30
0.0
 10
241.6747524538
 20
154.4359101927
 30
0.0
 10
241.6747524538
 20
154.4814312759
 30
0.0
  0
SPLINE
  5
3D3
100
AcDbEntity
  8
03___PRT_ALL_CURVES
100
AcDbSpline
 62
2
  6
CONTINUOUS
 70
0
 71
3
 72
8
 73
4
 74
0
 42
0.0000001
 43
0.0000001
 44
0.0000000001
 40
0.0
 40
0.0
 40
0.0
 40
0.0
 40
1.0
 40
1.0
 40
1.0
 40
1.0
 10
241.3133203154
 20
154.4814312759
 30
0.0
 10
241.3133203154
 20
154.4359101927
 30
0.0
 10
241.3384858437
 20
154.4052189837
 30
0.0
 10
241.4912682817
 20
154.4052189837
 30
0.0
  0
SPLINE
  5
3D4
100
AcDbEntity
  8
03___PRT_ALL_CURVES
100
AcDbSpline
 62
2
  6
CONTINUOUS
 70
0
 71
3
 72
8
 73
4
 74
0
 42
0.0000001
 43
0.0000001
 44
0.0000000001
 40
0.0
 40
0.0
 40
0.0
 40
0.0
 40
1.0
 40
1.0
 40
1.0
 40
1.0
 10
240.905998715
 20
156.4921264669
 30
0.0
 10
241.1601800237
 20
156.4921264669
 30
0.0
 10
241.3133203154
 20
156.3348498086
 30
0.0
 10
241.3133203154
 20
156.018591425
 30
0.0
  0
SPLINE
  5
3D5
100
AcDbEntity
  8
03___PRT_ALL_CURVES
100
AcDbSpline
 62
2
  6
CONTINUOUS
 70
0
 71
3
 72
8
 73
4
 74
0
 42
0.0000001
 43
0.0000001
 44
0.0000000001
 40
0.0
 40
0.0
 40
0.0
 40
0.0
 40
1.0
 40
1.0
 40
1.0
 40
1.0
 10
240.310372444
 20
156.1513761617
 30
0.0
 10
240.4938566161
 20
156.3748557363
 30
0.0
 10
240.6869923103
 20
156.4921264669
 30
0.0
 10
240.905998715
 20
156.4921264669
 30
0.0
  0
SPLINE
  5
3D6
100
AcDbEntity
  8
03___PRT_ALL_CURVES
100
AcDbSpline
 62
2
  6
CONTINUOUS
 70
0
 71
3
 72
8
 73
4
 74
0
 42
0.0000001
 43
0.0000001
 44
0.0000000001
 40
0.0
 40
0.0
 40
0.0
 40
0.0
 40
1.0
 40
1.0
 40
1.0
 40
1.0
 10
240.1324244777
 20
154.4052189837
 30
0.0
 10
240.2903747427
 20
154.4052189837
 30
0.0
 10
240.310372444
 20
154.4359101927
 30
0.0
 10
240.310372444
 20
154.4814312759
 30
0.0
  0
SPLINE
  5
3D7
100
AcDbEntity
  8
03___PRT_ALL_CURVES
100
AcDbSpline
 62
2
  6
CONTINUOUS
 70
0
 71
3
 72
8
 73
4
 74
0
 42
0.0000001
 43
0.0000001
 44
0.0000000001
 40
0.0
 40
0.0
 40
0.0
 40
0.0
 40
1.0
 40
1.0
 40
1.0
 40
1.0
 10
239.9489297805
 20
154.4814312759
 30
0.0
 10
239.9489297805
 20
154.4359101927
 30
0.0
 10
239.9689380069
 20
154.4052189837
 30
0.0
 10
240.1324244777
 20
154.4052189837
 30
0.0
  0
SPLINE
  5
3D8
100
AcDbEntity
  8
03___PRT_ALL_CURVES
100
AcDbSpline
 62
2
  6
CONTINUOUS
 70
0
 71
3
 72
8
 73
4
 74
0
 42
0.0000001
 43
0.0000001
 44
0.0000000001
 40
0.0
 40
0.0
 40
0.0
 40
0.0
 40
1.0
 40
1.0
 40
1.0
 40
1.0
 10
240.1165526179
 20
156.7469919075
 30
0.0
 10
239.9689380069
 20
156.7469919075
 30
0.0
 10
239.9489297805
 20
156.7218158541
 30
0.0
 10
239.9489297805
 20
156.6700849583
 30
0.0
  0
SPLINE
  5
3D9
100
AcDbEntity
  8
03___PRT_ALL_CURVES
100
AcDbSpline
 62
2
  6
CONTINUOUS
 70
0
 71
3
 72
8
 73
4
 74
0
 42
0.0000001
 43
0.0000001
 44
0.0000000001
 40
0.0
 40
0.0
 40
0.0
 40
0.0
 40
1.0
 40
1.0
 40
1.0
 40
1.0
 10
240.2851963906
 20
156.6700849583
 30
0.0
 10
240.2851963906
 20
156.7218158541
 30
0.0
 10
240.2641567038
 20
156.7469919075
 30
0.0
 10
240.1165526179
 20
156.7469919075
 30
0.0
  0
SPLINE
  5
3DA
100
AcDbEntity
  8
03___PRT_ALL_CURVES
100
AcDbSpline
 62
2
  6
CONTINUOUS
 70
0
 71
3
 72
8
 73
4
 74
0
 42
0.0000001
 43
0.0000001
 44
0.0000000001
 40
0.0
 40
0.0
 40
0.0
 40
0.0
 40
1.0
 40
1.0
 40
1.0
 40
1.0
 10
240.9925571863
 20
156.7873451637
 30
0.0
 10
240.6762988027
 20
156.7873451637
 30
0.0
 10
240.4379893537
 20
156.6449089049
 30
0.0
 10
240.2851963906
 20
156.4562569058
 30
0.0
  0
SPLINE
  5
3DB
100
AcDbEntity
  8
03___PRT_ALL_CURVES
100
AcDbSpline
 62
2
  6
CONTINUOUS
 70
0
 71
3
 72
8
 73
4
 74
0
 42
0.0000001
 43
0.0000001
 44
0.0000000001
 40
0.0
 40
0.0
 40
0.0
 40
0.0
 40
1.0
 40
1.0
 40
1.0
 40
1.0
 10
261.9716825255
 20
156.0648176903
 30
0.0
 10
261.9716825255
 20
156.5479937293
 30
0.0
 10
261.7071445125
 20
156.7873451637
 30
0.0
 10
261.2894872581
 20
156.7873451637
 30
0.0
  0
SPLINE
  5
3DC
100
AcDbEntity
  8
03___PRT_ALL_CURVES
100
AcDbSpline
 62
2
  6
CONTINUOUS
 70
0
 71
3
 72
8
 73
4
 74
0
 42
0.0000001
 43
0.0000001
 44
0.0000000001
 40
0.0
 40
0.0
 40
0.0
 40
0.0
 40
1.0
 40
1.0
 40
1.0
 40
1.0
 10
261.7933661805
 20
154.4052189837
 30
0.0
 10
261.946495947
 20
154.4052189837
 30
0.0
 10
261.9716825255
 20
154.4359101927
 30
0.0
 10
261.9716825255
 20
154.4814312759
 30
0.0
  0
SPLINE
  5
3DD
100
AcDbEntity
  8
03___PRT_ALL_CURVES
100
AcDbSpline
 62
2
  6
CONTINUOUS
 70
0
 71
3
 72
8
 73
4
 74
0
 42
0.0000001
 43
0.0000001
 44
0.0000000001
 40
0.0
 40
0.0
 40
0.0
 40
0.0
 40
1.0
 40
1.0
 40
1.0
 40
1.0
 10
261.6109239939
 20
154.4814312759
 30
0.0
 10
261.6109239939
 20
154.4359101927
 30
0.0
 10
261.6364473759
 20
154.4052189837
 30
0.0
 10
261.7933661805
 20
154.4052189837
 30
0.0
  0
SPLINE
  5
3DE
100
AcDbEntity
  8
03___PRT_ALL_CURVES
100
AcDbSpline
 62
2
  6
CONTINUOUS
 70
0
 71
3
 72
8
 73
4
 74
0
 42
0.0000001
 43
0.0000001
 44
0.0000000001
 40
0.0
 40
0.0
 40
0.0
 40
0.0
 40
1.0
 40
1.0
 40
1.0
 40
1.0
 10
261.2029182617
 20
156.4921264669
 30
0.0
 10
261.458152081
 20
156.4921264669
 30
0.0
 10
261.6109239939
 20
156.3348498086
 30
0.0
 10
261.6109239939
 20
156.018591425
 30
0.0
  0
SPLINE
  5
3DF
100
AcDbEntity
  8
03___PRT_ALL_CURVES
100
AcDbSpline
 62
2
  6
CONTINUOUS
 70
0
 71
3
 72
8
 73
4
 74
0
 42
0.0000001
 43
0.0000001
 44
0.0000000001
 40
0.0
 40
0.0
 40
0.0
 40
0.0
 40
1.0
 40
1.0
 40
1.0
 40
1.0
 10
260.6124703429
 20
156.1513761617
 30
0.0
 10
260.7907866879
 20
156.3748557363
 30
0.0
 10
260.984606514
 20
156.4921264669
 30
0.0
 10
261.2029182617
 20
156.4921264669
 30
0.0
  0
SPLINE
  5
3E0
100
AcDbEntity
  8
03___PRT_ALL_CURVES
100
AcDbSpline
 62
2
  6
CONTINUOUS
 70
0
 71
3
 72
8
 73
4
 74
0
 42
0.0000001
 43
0.0000001
 44
0.0000000001
 40
0.0
 40
0.0
 40
0.0
 40
0.0
 40
1.0
 40
1.0
 40
1.0
 40
1.0
 10
260.4289966959
 20
154.4052189837
 30
0.0
 10
260.5872942894
 20
154.4052189837
 30
0.0
 10
260.6124703429
 20
154.4359101927
 30
0.0
 10
260.6124703429
 20
154.4814312759
 30
0.0
  0
SPLINE
  5
3E1
100
AcDbEntity
  8
03___PRT_ALL_CURVES
100
AcDbSpline
 62
2
  6
CONTINUOUS
 70
0
 71
3
 72
8
 73
4
 74
0
 42
0.0000001
 43
0.0000001
 44
0.0000000001
 40
0.0
 40
0.0
 40
0.0
 40
0.0
 40
1.0
 40
1.0
 40
1.0
 40
1.0
 10
260.2465545093
 20
154.4814312759
 30
0.0
 10
260.2465545093
 20
154.4359101927
 30
0.0
 10
260.2665522106
 20
154.4052189837
 30
0.0
 10
260.4289966959
 20
154.4052189837
 30
0.0
  0
SPLINE
  5
3E2
100
AcDbEntity
  8
03___PRT_ALL_CURVES
100
AcDbSpline
 62
2
  6
CONTINUOUS
 70
0
 71
3
 72
8
 73
4
 74
0
 42
0.0000001
 43
0.0000001
 44
0.0000000001
 40
0.0
 40
0.0
 40
0.0
 40
0.0
 40
1.0
 40
1.0
 40
1.0
 40
1.0
 10
260.4196925022
 20
156.7469919075
 30
0.0
 10
260.2665522106
 20
156.7469919075
 30
0.0
 10
260.2465545093
 20
156.7218158541
 30
0.0
 10
260.2465545093
 20
156.6700849583
 30
0.0
  0
SPLINE
  5
3E3
100
AcDbEntity
  8
03___PRT_ALL_CURVES
100
AcDbSpline
 62
2
  6
CONTINUOUS
 70
0
 71
3
 72
8
 73
4
 74
0
 42
0.0000001
 43
0.0000001
 44
0.0000000001
 40
0.0
 40
0.0
 40
0.0
 40
0.0
 40
1.0
 40
1.0
 40
1.0
 40
1.0
 10
260.5821369875
 20
156.6700849583
 30
0.0
 10
260.5821369875
 20
156.7218158541
 30
0.0
 10
260.5617814326
 20
156.7469919075
 30
0.0
 10
260.4196925022
 20
156.7469919075
 30
0.0
  0
SPLINE
  5
3E4
100
AcDbEntity
  8
03___PRT_ALL_CURVES
100
AcDbSpline
 62
2
  6
CONTINUOUS
 70
0
 71
3
 72
8
 73
4
 74
0
 42
0.0000001
 43
0.0000001
 44
0.0000000001
 40
0.0
 40
0.0
 40
0.0
 40
0.0
 40
1.0
 40
1.0
 40
1.0
 40
1.0
 10
261.2894872581
 20
156.7873451637
 30
0.0
 10
260.9742603349
 20
156.7873451637
 30
0.0
 10
260.7400872525
 20
156.6449089049
 30
0.0
 10
260.5821369875
 20
156.4562569058
 30
0.0
  0
SPLINE
  5
3E5
100
AcDbEntity
  8
03___PRT_ALL_CURVES
100
AcDbSpline
 62
2
  6
CONTINUOUS
 70
0
 71
3
 72
8
 73
4
 74
0
 42
0.0000001
 43
0.0000001
 44
0.0000000001
 40
0.0
 40
0.0
 40
0.0
 40
0.0
 40
1.0
 40
1.0
 40
1.0
 40
1.0
 10
252.1520639
 20
154.8428739394
 30
0.0
 10
252.004449289
 20
154.7356231098
 30
0.0
 10
251.8306271642
 20
154.6542219404
 30
0.0
 10
251.5764458555
 20
154.6542219404
 30
0.0
  0
SPLINE
  5
3E6
100
AcDbEntity
  8
03___PRT_ALL_CURVES
100
AcDbSpline
 62
2
  6
CONTINUOUS
 70
0
 71
3
 72
8
 73
4
 74
0
 42
0.0000001
 43
0.0000001
 44
0.0000000001
 40
0.0
 40
0.0
 40
0.0
 40
0.0
 40
1.0
 40
1.0
 40
1.0
 40
1.0
 10
252.2131095146
 20
154.6797453223
 30
0.0
 10
252.2131095146
 20
154.7356231098
 30
0.0
 10
252.1924171562
 20
154.7966581992
 30
0.0
 10
252.1520639
 20
154.8428739394
 30
0.0
  0
SPLINE
  5
3E7
100
AcDbEntity
  8
03___PRT_ALL_CURVES
100
AcDbSpline
 62
2
  6
CONTINUOUS
 70
0
 71
3
 72
8
 73
4
 74
0
 42
0.0000001
 43
0.0000001
 44
0.0000000001
 40
0.0
 40
0.0
 40
0.0
 40
0.0
 40
1.0
 40
1.0
 40
1.0
 40
1.0
 10
252.1058481598
 20
154.5066073294
 30
0.0
 10
252.2079311624
 20
154.5835142786
 30
0.0
 10
252.2131095146
 20
154.6490435882
 30
0.0
 10
252.2131095146
 20
154.6797453223
 30
0.0
  0
SPLINE
  5
3E8
100
AcDbEntity
  8
03___PRT_ALL_CURVES
100
AcDbSpline
 62
2
  6
CONTINUOUS
 70
0
 71
3
 72
8
 73
4
 74
0
 42
0.0000001
 43
0.0000001
 44
0.0000000001
 40
0.0
 40
0.0
 40
0.0
 40
0.0
 40
1.0
 40
1.0
 40
1.0
 40
1.0
 10
251.5405762944
 20
154.369686226
 30
0.0
 10
251.8261539942
 20
154.369686226
 30
0.0
 10
252.0192791633
 20
154.4403938878
 30
0.0
 10
252.1058481598
 20
154.5066073294
 30
0.0
  0
SPLINE
  5
3E9
100
AcDbEntity
  8
03___PRT_ALL_CURVES
100
AcDbSpline
 62
2
  6
CONTINUOUS
 70
0
 71
3
 72
8
 73
4
 74
0
 42
0.0000001
 43
0.0000001
 44
0.0000000001
 40
0.0
 40
0.0
 40
0.0
 40
0.0
 40
1.0
 40
1.0
 40
1.0
 40
1.0
 10
250.5379862767
 20
155.566106595
 30
0.0
 10
250.5379862767
 20
154.7407909368
 30
0.0
 10
250.8942611132
 20
154.369686226
 30
0.0
 10
251.5405762944
 20
154.369686226
 30
0.0
  0
SPLINE
  5
3EA
100
AcDbEntity
  8
03___PRT_ALL_CURVES
100
AcDbSpline
 62
2
  6
CONTINUOUS
 70
0
 71
3
 72
8
 73
4
 74
0
 42
0.0000001
 43
0.0000001
 44
0.0000000001
 40
0.0
 40
0.0
 40
0.0
 40
0.0
 40
1.0
 40
1.0
 40
1.0
 40
1.0
 10
251.4647008056
 20
156.7925235159
 30
0.0
 10
250.9090909875
 20
156.7925235159
 30
0.0
 10
250.5379862767
 20
156.4055574704
 30
0.0
 10
250.5379862767
 20
155.566106595
 30
0.0
  0
SPLINE
  5
3EB
100
AcDbEntity
  8
03___PRT_ALL_CURVES
100
AcDbSpline
 62
2
  6
CONTINUOUS
 70
0
 71
3
 72
8
 73
4
 74
0
 42
0.0000001
 43
0.0000001
 44
0.0000000001
 40
0.0
 40
0.0
 40
0.0
 40
0.0
 40
1.0
 40
1.0
 40
1.0
 40
1.0
 10
252.2734604721
 20
155.7695884683
 30
0.0
 10
252.2734604721
 20
156.4158931245
 30
0.0
 10
252.0192791633
 20
156.7925235159
 30
0.0
 10
251.4647008056
 20
156.7925235159
 30
0.0
  0
SPLINE
  5
3EC
100
AcDbEntity
  8
03___PRT_ALL_CURVES
100
AcDbSpline
 62
2
  6
CONTINUOUS
 70
0
 71
3
 72
8
 73
4
 74
0
 42
0.0000001
 43
0.0000001
 44
0.0000000001
 40
0.0
 40
0.0
 40
0.0
 40
0.0
 40
1.0
 40
1.0
 40
1.0
 40
1.0
 10
252.2586305978
 20
155.5357521894
 30
0.0
 10
252.2693241054
 20
155.6116276782
 30
0.0
 10
252.2734604721
 20
155.6833668004
 30
0.0
 10
252.2734604721
 20
155.7695884683
 30
0.0
  0
SPLINE
  5
3ED
100
AcDbEntity
  8
03___PRT_ALL_CURVES
100
AcDbSpline
 62
2
  6
CONTINUOUS
 70
0
 71
3
 72
8
 73
4
 74
0
 42
0.0000001
 43
0.0000001
 44
0.0000000001
 40
0.0
 40
0.0
 40
0.0
 40
0.0
 40
1.0
 40
1.0
 40
1.0
 40
1.0
 10
251.5764458555
 20
154.6542219404
 30
0.0
 10
251.1232663685
 20
154.6542219404
 30
0.0
 10
250.9049546208
 20
154.9094347095
 30
0.0
 10
250.8942611132
 20
155.5357521894
 30
0.0
  0
SPLINE
  5
3EE
100
AcDbEntity
  8
03___PRT_ALL_CURVES
100
AcDbSpline
 62
2
  6
CONTINUOUS
 70
0
 71
3
 72
8
 73
4
 74
0
 42
0.0000001
 43
0.0000001
 44
0.0000000001
 40
0.0
 40
0.0
 40
0.0
 40
0.0
 40
1.0
 40
1.0
 40
1.0
 40
1.0
 10
233.7375385027
 20
154.8376955873
 30
0.0
 10
233.5899133666
 20
154.7311288896
 30
0.0
 10
233.4171227022
 20
154.6490435882
 30
0.0
 10
233.1629413935
 20
154.6490435882
 30
0.0
  0
SPLINE
  5
3EF
100
AcDbEntity
  8
03___PRT_ALL_CURVES
100
AcDbSpline
 62
2
  6
CONTINUOUS
 70
0
 71
3
 72
8
 73
4
 74
0
 42
0.0000001
 43
0.0000001
 44
0.0000000001
 40
0.0
 40
0.0
 40
0.0
 40
0.0
 40
1.0
 40
1.0
 40
1.0
 40
1.0
 10
233.7985735921
 20
154.6752721523
 30
0.0
 10
233.7985735921
 20
154.7311288896
 30
0.0
 10
233.7785653657
 20
154.792163979
 30
0.0
 10
233.7375385027
 20
154.8376955873
 30
0.0
  0
SPLINE
  5
3F0
100
AcDbEntity
  8
03___PRT_ALL_CURVES
100
AcDbSpline
 62
2
  6
CONTINUOUS
 70
0
 71
3
 72
8
 73
4
 74
0
 42
0.0000001
 43
0.0000001
 44
0.0000000001
 40
0.0
 40
0.0
 40
0.0
 40
0.0
 40
1.0
 40
1.0
 40
1.0
 40
1.0
 10
233.6919963693
 20
154.5014395024
 30
0.0
 10
233.7944372255
 20
154.5783464515
 30
0.0
 10
233.7985735921
 20
154.6445598931
 30
0.0
 10
233.7985735921
 20
154.6752721523
 30
0.0
  0
SPLINE
  5
3F1
100
AcDbEntity
  8
03___PRT_ALL_CURVES
100
AcDbSpline
 62
2
  6
CONTINUOUS
 70
0
 71
3
 72
8
 73
4
 74
0
 42
0.0000001
 43
0.0000001
 44
0.0000000001
 40
0.0
 40
0.0
 40
0.0
 40
0.0
 40
1.0
 40
1.0
 40
1.0
 40
1.0
 10
233.1270718324
 20
154.3641710705
 30
0.0
 10
233.4116075467
 20
154.3641710705
 30
0.0
 10
233.6057747013
 20
154.4359101927
 30
0.0
 10
233.6919963693
 20
154.5014395024
 30
0.0
  0
SPLINE
  5
3F2
100
AcDbEntity
  8
03___PRT_ALL_CURVES
100
AcDbSpline
 62
2
  6
CONTINUOUS
 70
0
 71
3
 72
8
 73
4
 74
0
 42
0.0000001
 43
0.0000001
 44
0.0000000001
 40
0.0
 40
0.0
 40
0.0
 40
0.0
 40
1.0
 40
1.0
 40
1.0
 40
1.0
 10
232.1241555364
 20
155.5609282428
 30
0.0
 10
232.1241555364
 20
154.7356231098
 30
0.0
 10
232.4807566512
 20
154.3641710705
 30
0.0
 10
233.1270718324
 20
154.3641710705
 30
0.0
  0
SPLINE
  5
3F3
100
AcDbEntity
  8
03___PRT_ALL_CURVES
100
AcDbSpline
 62
2
  6
CONTINUOUS
 70
0
 71
3
 72
8
 73
4
 74
0
 42
0.0000001
 43
0.0000001
 44
0.0000000001
 40
0.0
 40
0.0
 40
0.0
 40
0.0
 40
1.0
 40
1.0
 40
1.0
 40
1.0
 10
233.0508595402
 20
156.7873451637
 30
0.0
 10
232.4955865254
 20
156.7873451637
 30
0.0
 10
232.1241555364
 20
156.4003791183
 30
0.0
 10
232.1241555364
 20
155.5609282428
 30
0.0
  0
SPLINE
  5
3F4
100
AcDbEntity
  8
03___PRT_ALL_CURVES
100
AcDbSpline
 62
2
  6
CONTINUOUS
 70
0
 71
3
 72
8
 73
4
 74
0
 42
0.0000001
 43
0.0000001
 44
0.0000000001
 40
0.0
 40
0.0
 40
0.0
 40
0.0
 40
1.0
 40
1.0
 40
1.0
 40
1.0
 10
233.8599560101
 20
155.7644101162
 30
0.0
 10
233.8599560101
 20
156.4107252974
 30
0.0
 10
233.6057747013
 20
156.7873451637
 30
0.0
 10
233.0508595402
 20
156.7873451637
 30
0.0
  0
SPLINE
  5
3F5
100
AcDbEntity
  8
03___PRT_ALL_CURVES
100
AcDbSpline
 62
2
  6
CONTINUOUS
 70
0
 71
3
 72
8
 73
4
 74
0
 42
0.0000001
 43
0.0000001
 44
0.0000000001
 40
0.0
 40
0.0
 40
0.0
 40
0.0
 40
1.0
 40
1.0
 40
1.0
 40
1.0
 10
233.8451366609
 20
155.5302370339
 30
0.0
 10
233.854788183
 20
155.6064493261
 30
0.0
 10
233.8599560101
 20
155.6778516449
 30
0.0
 10
233.8599560101
 20
155.7644101162
 30
0.0
  0
SPLINE
  5
3F6
100
AcDbEntity
  8
03___PRT_ALL_CURVES
100
AcDbSpline
 62
2
  6
CONTINUOUS
 70
0
 71
3
 72
8
 73
4
 74
0
 42
0.0000001
 43
0.0000001
 44
0.0000000001
 40
0.0
 40
0.0
 40
0.0
 40
0.0
 40
1.0
 40
1.0
 40
1.0
 40
1.0
 10
233.1629413935
 20
154.6490435882
 30
0.0
 10
232.7094251031
 20
154.6490435882
 30
0.0
 10
232.4904292235
 20
154.903919554
 30
0.0
 10
232.4807566512
 20
155.5302370339
 30
0.0
  0
SPLINE
  5
3F7
100
AcDbEntity
  8
03___PRT_ALL_CURVES
100
AcDbSpline
 62
2
  6
CONTINUOUS
 70
0
 71
3
 72
8
 73
4
 74
0
 42
0.0000001
 43
0.0000001
 44
0.0000000001
 40
0.0
 40
0.0
 40
0.0
 40
0.0
 40
1.0
 40
1.0
 40
1.0
 40
1.0
 10
231.14156322
 20
155.9216762494
 30
0.0
 10
231.14156322
 20
155.0411879858
 30
0.0
 10
230.7242638192
 20
154.7059528361
 30
0.0
 10
230.0979358142
 20
154.7059528361
 30
0.0
  0
SPLINE
  5
3F8
100
AcDbEntity
  8
03___PRT_ALL_CURVES
100
AcDbSpline
 62
2
  6
CONTINUOUS
 70
0
 71
3
 72
8
 73
4
 74
0
 42
0.0000001
 43
0.0000001
 44
0.0000000001
 40
0.0
 40
0.0
 40
0.0
 40
0.0
 40
1.0
 40
1.0
 40
1.0
 40
1.0
 10
230.0979358142
 20
157.1436094751
 30
0.0
 10
230.7242638192
 20
157.1436094751
 30
0.0
 10
231.14156322
 20
156.802869695
 30
0.0
 10
231.14156322
 20
155.9216762494
 30
0.0
  0
SPLINE
  5
3F9
100
AcDbEntity
  8
03___PRT_ALL_CURVES
100
AcDbSpline
 62
2
  6
CONTINUOUS
 70
0
 71
3
 72
8
 73
4
 74
0
 42
0.0000001
 43
0.0000001
 44
0.0000000001
 40
0.0
 40
0.0
 40
0.0
 40
0.0
 40
1.0
 40
1.0
 40
1.0
 40
1.0
 10
229.7616692041
 20
157.1236117738
 30
0.0
 10
229.8437545054
 20
157.1384416481
 30
0.0
 10
230.0165451698
 20
157.1436094751
 30
0.0
 10
230.0979358142
 20
157.1436094751
 30
0.0
  0
SPLINE
  5
3FA
100
AcDbEntity
  8
03___PRT_ALL_CURVES
100
AcDbSpline
 62
2
  6
CONTINUOUS
 70
0
 71
3
 72
8
 73
4
 74
0
 42
0.0000001
 43
0.0000001
 44
0.0000000001
 40
0.0
 40
0.0
 40
0.0
 40
0.0
 40
1.0
 40
1.0
 40
1.0
 40
1.0
 10
230.0979358142
 20
154.7059528361
 30
0.0
 10
230.0165451698
 20
154.7059528361
 30
0.0
 10
229.8437545054
 20
154.7100892028
 30
0.0
 10
229.7616692041
 20
154.7207827104
 30
0.0
  0
SPLINE
  5
3FB
100
AcDbEntity
  8
03___PRT_ALL_CURVES
100
AcDbSpline
 62
2
  6
CONTINUOUS
 70
0
 71
3
 72
8
 73
4
 74
0
 42
0.0000001
 43
0.0000001
 44
0.0000000001
 40
0.0
 40
0.0
 40
0.0
 40
0.0
 40
1.0
 40
1.0
 40
1.0
 40
1.0
 10
239.342620527
 20
156.4265971572
 30
0.0
 10
239.4447140548
 20
156.4265971572
 30
0.0
 10
239.4754157888
 20
156.502472646
 30
0.0
 10
239.4754157888
 20
156.5742012431
 30
0.0
  0
SPLINE
  5
3FC
100
AcDbEntity
  8
03___PRT_ALL_CURVES
100
AcDbSpline
 62
2
  6
CONTINUOUS
 70
0
 71
3
 72
8
 73
4
 74
0
 42
0.0000001
 43
0.0000001
 44
0.0000000001
 40
0.0
 40
0.0
 40
0.0
 40
0.0
 40
1.0
 40
1.0
 40
1.0
 40
1.0
 10
239.0780930391
 20
156.4721182405
 30
0.0
 10
239.1643147071
 20
156.4362486794
 30
0.0
 10
239.2615772112
 20
156.4265971572
 30
0.0
 10
239.342620527
 20
156.4265971572
 30
0.0
  0
SPLINE
  5
3FD
100
AcDbEntity
  8
03___PRT_ALL_CURVES
100
AcDbSpline
 62
2
  6
CONTINUOUS
 70
0
 71
3
 72
8
 73
4
 74
0
 42
0.0000001
 43
0.0000001
 44
0.0000000001
 40
0.0
 40
0.0
 40
0.0
 40
0.0
 40
1.0
 40
1.0
 40
1.0
 40
1.0
 10
253.1801667746
 20
155.5505820637
 30
0.0
 10
253.1801667746
 20
156.202075597
 30
0.0
 10
253.4291907814
 20
156.502472646
 30
0.0
 10
253.8464901822
 20
156.502472646
 30
0.0
  0
SPLINE
  5
3FE
100
AcDbEntity
  8
03___PRT_ALL_CURVES
100
AcDbSpline
 62
2
  6
CONTINUOUS
 70
0
 71
3
 72
8
 73
4
 74
0
 42
0.0000001
 43
0.0000001
 44
0.0000000001
 40
0.0
 40
0.0
 40
0.0
 40
0.0
 40
1.0
 40
1.0
 40
1.0
 40
1.0
 10
253.8264819558
 20
154.6445598931
 30
0.0
 10
253.4343480833
 20
154.6445598931
 30
0.0
 10
253.1801667746
 20
154.9242645838
 30
0.0
 10
253.1801667746
 20
155.5505820637
 30
0.0
  0
SPLINE
  5
3FF
100
AcDbEntity
  8
03___PRT_ALL_CURVES
100
AcDbSpline
 62
2
  6
CONTINUOUS
 70
0
 71
3
 72
8
 73
4
 74
0
 42
0.0000001
 43
0.0000001
 44
0.0000000001
 40
0.0
 40
0.0
 40
0.0
 40
0.0
 40
1.0
 40
1.0
 40
1.0
 40
1.0
 10
254.2948491707
 20
154.792163979
 30
0.0
 10
254.1775784401
 20
154.7207827104
 30
0.0
 10
254.0299638292
 20
154.6445598931
 30
0.0
 10
253.8264819558
 20
154.6445598931
 30
0.0
  0
SPLINE
  5
400
100
AcDbEntity
  8
03___PRT_ALL_CURVES
100
AcDbSpline
 62
2
  6
CONTINUOUS
 70
0
 71
3
 72
8
 73
4
 74
0
 42
0.0000001
 43
0.0000001
 44
0.0000000001
 40
0.0
 40
0.0
 40
0.0
 40
0.0
 40
1.0
 40
1.0
 40
1.0
 40
1.0
 10
254.3558842601
 20
154.6290458869
 30
0.0
 10
254.3558842601
 20
154.6849131493
 30
0.0
 10
254.3358865588
 20
154.7459587638
 30
0.0
 10
254.2948491707
 20
154.792163979
 30
0.0
  0
SPLINE
  5
401
100
AcDbEntity
  8
03___PRT_ALL_CURVES
100
AcDbSpline
 62
2
  6
CONTINUOUS
 70
0
 71
3
 72
8
 73
4
 74
0
 42
0.0000001
 43
0.0000001
 44
0.0000000001
 40
0.0
 40
0.0
 40
0.0
 40
0.0
 40
1.0
 40
1.0
 40
1.0
 40
1.0
 10
254.2493175623
 20
154.455907894
 30
0.0
 10
254.3558842601
 20
154.5224791892
 30
0.0
 10
254.3558842601
 20
154.5983441529
 30
0.0
 10
254.3558842601
 20
154.6290458869
 30
0.0
  0
SPLINE
  5
402
100
AcDbEntity
  8
03___PRT_ALL_CURVES
100
AcDbSpline
 62
2
  6
CONTINUOUS
 70
0
 71
3
 72
8
 73
4
 74
0
 42
0.0000001
 43
0.0000001
 44
0.0000000001
 40
0.0
 40
0.0
 40
0.0
 40
0.0
 40
1.0
 40
1.0
 40
1.0
 40
1.0
 10
253.7906123947
 20
154.3590137686
 30
0.0
 10
254.0151339549
 20
154.3590137686
 30
0.0
 10
254.1775784401
 20
154.4096921538
 30
0.0
 10
254.2493175623
 20
154.455907894
 30
0.0
  0
SPLINE
  5
403
100
AcDbEntity
  8
03___PRT_ALL_CURVES
100
AcDbSpline
 62
2
  6
CONTINUOUS
 70
0
 71
3
 72
8
 73
4
 74
0
 42
0.0000001
 43
0.0000001
 44
0.0000000001
 40
0.0
 40
0.0
 40
0.0
 40
0.0
 40
1.0
 40
1.0
 40
1.0
 40
1.0
 10
252.8239024632
 20
155.5557498907
 30
0.0
 10
252.8239024632
 20
154.751137116
 30
0.0
 10
253.1853451267
 20
154.3590137686
 30
0.0
 10
253.7906123947
 20
154.3590137686
 30
0.0
  0
SPLINE
  5
404
100
AcDbEntity
  8
03___PRT_ALL_CURVES
100
AcDbSpline
 62
2
  6
CONTINUOUS
 70
0
 71
3
 72
8
 73
4
 74
0
 42
0.0000001
 43
0.0000001
 44
0.0000000001
 40
0.0
 40
0.0
 40
0.0
 40
0.0
 40
1.0
 40
1.0
 40
1.0
 40
1.0
 10
253.8464901822
 20
156.7873451637
 30
0.0
 10
253.236034037
 20
156.7873451637
 30
0.0
 10
252.8239024632
 20
156.3907275961
 30
0.0
 10
252.8239024632
 20
155.5557498907
 30
0.0
  0
SPLINE
  5
405
100
AcDbEntity
  8
03___PRT_ALL_CURVES
100
AcDbSpline
 62
2
  6
CONTINUOUS
 70
0
 71
3
 72
8
 73
4
 74
0
 42
0.0000001
 43
0.0000001
 44
0.0000000001
 40
0.0
 40
0.0
 40
0.0
 40
0.0
 40
1.0
 40
1.0
 40
1.0
 40
1.0
 10
254.2389713832
 20
156.7566539548
 30
0.0
 10
254.1472345597
 20
156.7725152894
 30
0.0
 10
253.9637503876
 20
156.7873451637
 30
0.0
 10
253.8464901822
 20
156.7873451637
 30
0.0
  0
SPLINE
  5
406
100
AcDbEntity
  8
03___PRT_ALL_CURVES
100
AcDbSpline
 62
2
  6
CONTINUOUS
 70
0
 71
3
 72
8
 73
4
 74
0
 42
0.0000001
 43
0.0000001
 44
0.0000000001
 40
0.0
 40
0.0
 40
0.0
 40
0.0
 40
1.0
 40
1.0
 40
1.0
 40
1.0
 10
254.2851871234
 20
156.6249006785
 30
0.0
 10
254.2851871234
 20
156.6700849583
 30
0.0
 10
254.2641474366
 20
156.716648027
 30
0.0
 10
254.2389713832
 20
156.7566539548
 30
0.0
  0
SPLINE
  5
407
100
AcDbEntity
  8
03___PRT_ALL_CURVES
100
AcDbSpline
 62
2
  6
CONTINUOUS
 70
0
 71
3
 72
8
 73
4
 74
0
 42
0.0000001
 43
0.0000001
 44
0.0000000001
 40
0.0
 40
0.0
 40
0.0
 40
0.0
 40
1.0
 40
1.0
 40
1.0
 40
1.0
 10
235.2546904253
 20
156.7469919075
 30
0.0
 10
234.6749360142
 20
156.7469919075
 30
0.0
 10
234.4048933707
 20
156.4772965926
 30
0.0
 10
234.4048933707
 20
156.1051604214
 30
0.0
  0
SPLINE
  5
408
100
AcDbEntity
  8
03___PRT_ALL_CURVES
100
AcDbSpline
 62
2
  6
CONTINUOUS
 70
0
 71
3
 72
8
 73
4
 74
0
 42
0.0000001
 43
0.0000001
 44
0.0000000001
 40
0.0
 40
0.0
 40
0.0
 40
0.0
 40
1.0
 40
1.0
 40
1.0
 40
1.0
 10
235.749265154
 20
156.7218158541
 30
0.0
 10
235.6775260319
 20
156.7314779013
 30
0.0
 10
235.3971266842
 20
156.7469919075
 30
0.0
 10
235.2546904253
 20
156.7469919075
 30
0.0
  0
SPLINE
  5
409
100
AcDbEntity
  8
03___PRT_ALL_CURVES
100
AcDbSpline
 62
2
  6
CONTINUOUS
 70
0
 71
3
 72
8
 73
4
 74
0
 42
0.0000001
 43
0.0000001
 44
0.0000000001
 40
0.0
 40
0.0
 40
0.0
 40
0.0
 40
1.0
 40
1.0
 40
1.0
 40
1.0
 10
235.7944283837
 20
156.5786849382
 30
0.0
 10
235.7944283837
 20
156.6300790306
 30
0.0
 10
235.7795985094
 20
156.6756106389
 30
0.0
 10
235.749265154
 20
156.7218158541
 30
0.0
  0
SPLINE
  5
40A
100
AcDbEntity
  8
03___PRT_ALL_CURVES
100
AcDbSpline
 62
2
  6
CONTINUOUS
 70
0
 71
3
 72
8
 73
4
 74
0
 42
0.0000001
 43
0.0000001
 44
0.0000000001
 40
0.0
 40
0.0
 40
0.0
 40
0.0
 40
1.0
 40
1.0
 40
1.0
 40
1.0
 10
235.6416564708
 20
156.4310913775
 30
0.0
 10
235.7744306824
 20
156.4310913775
 30
0.0
 10
235.7944283837
 20
156.5131451035
 30
0.0
 10
235.7944283837
 20
156.5786849382
 30
0.0
  0
SPLINE
  5
40B
100
AcDbEntity
  8
03___PRT_ALL_CURVES
100
AcDbSpline
 62
2
  6
CONTINUOUS
 70
0
 71
3
 72
8
 73
4
 74
0
 42
0.0000001
 43
0.0000001
 44
0.0000000001
 40
0.0
 40
0.0
 40
0.0
 40
0.0
 40
1.0
 40
1.0
 40
1.0
 40
1.0
 10
235.2450283781
 20
156.4517626855
 30
0.0
 10
235.3926324639
 20
156.4517626855
 30
0.0
 10
235.5857786833
 20
156.4310913775
 30
0.0
 10
235.6416564708
 20
156.4310913775
 30
0.0
  0
SPLINE
  5
40C
100
AcDbEntity
  8
03___PRT_ALL_CURVES
100
AcDbSpline
 62
2
  6
CONTINUOUS
 70
0
 71
3
 72
8
 73
4
 74
0
 42
0.0000001
 43
0.0000001
 44
0.0000000001
 40
0.0
 40
0.0
 40
0.0
 40
0.0
 40
1.0
 40
1.0
 40
1.0
 40
1.0
 10
234.7508009779
 20
156.1358516304
 30
0.0
 10
234.7508009779
 20
156.2990012977
 30
0.0
 10
234.8677243799
 20
156.4517626855
 30
0.0
 10
235.2450283781
 20
156.4517626855
 30
0.0
  0
SPLINE
  5
40D
100
AcDbEntity
  8
03___PRT_ALL_CURVES
100
AcDbSpline
 62
2
  6
CONTINUOUS
 70
0
 71
3
 72
8
 73
4
 74
0
 42
0.0000001
 43
0.0000001
 44
0.0000000001
 40
0.0
 40
0.0
 40
0.0
 40
0.0
 40
1.0
 40
1.0
 40
1.0
 40
1.0
 10
235.8713353329
 20
155.0360096337
 30
0.0
 10
235.8713353329
 20
155.8458112857
 30
0.0
 10
234.7508009779
 20
155.6167955052
 30
0.0
 10
234.7508009779
 20
156.1358516304
 30
0.0
  0
SPLINE
  5
40E
100
AcDbEntity
  8
03___PRT_ALL_CURVES
100
AcDbSpline
 62
2
  6
CONTINUOUS
 70
0
 71
3
 72
8
 73
4
 74
0
 42
0.0000001
 43
0.0000001
 44
0.0000000001
 40
0.0
 40
0.0
 40
0.0
 40
0.0
 40
1.0
 40
1.0
 40
1.0
 40
1.0
 10
235.0363681526
 20
154.3641710705
 30
0.0
 10
235.5964616658
 20
154.3641710705
 30
0.0
 10
235.8713353329
 20
154.6394025912
 30
0.0
 10
235.8713353329
 20
155.0360096337
 30
0.0
  0
SPLINE
  5
40F
100
AcDbEntity
  8
03___PRT_ALL_CURVES
100
AcDbSpline
 62
2
  6
CONTINUOUS
 70
0
 71
3
 72
8
 73
4
 74
0
 42
0.0000001
 43
0.0000001
 44
0.0000000001
 40
0.0
 40
0.0
 40
0.0
 40
0.0
 40
1.0
 40
1.0
 40
1.0
 40
1.0
 10
234.5628436358
 20
154.4403938878
 30
0.0
 10
234.6242260537
 20
154.4148705059
 30
0.0
 10
234.8225401
 20
154.3641710705
 30
0.0
 10
235.0363681526
 20
154.3641710705
 30
0.0
  0
SPLINE
  5
410
100
AcDbEntity
  8
03___PRT_ALL_CURVES
100
AcDbSpline
 62
2
  6
CONTINUOUS
 70
0
 71
3
 72
8
 73
4
 74
0
 42
0.0000001
 43
0.0000001
 44
0.0000000001
 40
0.0
 40
0.0
 40
0.0
 40
0.0
 40
1.0
 40
1.0
 40
1.0
 40
1.0
 10
234.3945471916
 20
154.6593897674
 30
0.0
 10
234.3945471916
 20
154.5879979737
 30
0.0
 10
234.4304167527
 20
154.4969558072
 30
0.0
 10
234.5628436358
 20
154.4403938878
 30
0.0
  0
SPLINE
  5
411
100
AcDbEntity
  8
03___PRT_ALL_CURVES
100
AcDbSpline
 62
2
  6
CONTINUOUS
 70
0
 71
3
 72
8
 73
4
 74
0
 42
0.0000001
 43
0.0000001
 44
0.0000000001
 40
0.0
 40
0.0
 40
0.0
 40
0.0
 40
1.0
 40
1.0
 40
1.0
 40
1.0
 10
234.4504039289
 20
154.817697886
 30
0.0
 10
234.424891072
 20
154.7870066771
 30
0.0
 10
234.3945471916
 20
154.7207827104
 30
0.0
 10
234.3945471916
 20
154.6593897674
 30
0.0
  0
SPLINE
  5
412
100
AcDbEntity
  8
03___PRT_ALL_CURVES
100
AcDbSpline
 62
2
  6
CONTINUOUS
 70
0
 71
3
 72
8
 73
4
 74
0
 42
0.0000001
 43
0.0000001
 44
0.0000000001
 40
0.0
 40
0.0
 40
0.0
 40
0.0
 40
1.0
 40
1.0
 40
1.0
 40
1.0
 10
235.0312003255
 20
154.6542219404
 30
0.0
 10
234.8118571175
 20
154.6542219404
 30
0.0
 10
234.5980185399
 20
154.7311288896
 30
0.0
 10
234.4504039289
 20
154.817697886
 30
0.0
  0
SPLINE
  5
413
100
AcDbEntity
  8
03___PRT_ALL_CURVES
100
AcDbSpline
 62
2
  6
CONTINUOUS
 70
0
 71
3
 72
8
 73
4
 74
0
 42
0.0000001
 43
0.0000001
 44
0.0000000001
 40
0.0
 40
0.0
 40
0.0
 40
0.0
 40
1.0
 40
1.0
 40
1.0
 40
1.0
 10
235.5247330688
 20
155.0160119324
 30
0.0
 10
235.5247330688
 20
154.8018365513
 30
0.0
 10
235.3515950758
 20
154.6542219404
 30
0.0
 10
235.0312003255
 20
154.6542219404
 30
0.0
  0
SPLINE
  5
414
100
AcDbEntity
  8
03___PRT_ALL_CURVES
100
AcDbSpline
 62
2
  6
CONTINUOUS
 70
0
 71
3
 72
8
 73
4
 74
0
 42
0.0000001
 43
0.0000001
 44
0.0000000001
 40
0.0
 40
0.0
 40
0.0
 40
0.0
 40
1.0
 40
1.0
 40
1.0
 40
1.0
 10
234.4048933707
 20
156.1051604214
 30
0.0
 10
234.4048933707
 20
155.3312178054
 30
0.0
 10
235.5247330688
 20
155.566106595
 30
0.0
 10
235.5247330688
 20
155.0160119324
 30
0.0
  0
SPLINE
  5
415
100
AcDbEntity
  8
03___PRT_ALL_CURVES
100
AcDbSpline
 62
2
  6
CONTINUOUS
 70
0
 71
3
 72
8
 73
4
 74
0
 42
0.0000001
 43
0.0000001
 44
0.0000000001
 40
0.0
 40
0.0
 40
0.0
 40
0.0
 40
1.0
 40
1.0
 40
1.0
 40
1.0
 10
245.9154755186
 20
155.5757581171
 30
0.0
 10
245.9154755186
 20
156.2327562809
 30
0.0
 10
246.154826953
 20
156.4972942939
 30
0.0
 10
246.4955772582
 20
156.4972942939
 30
0.0
  0
SPLINE
  5
416
100
AcDbEntity
  8
03___PRT_ALL_CURVES
100
AcDbSpline
 62
2
  6
CONTINUOUS
 70
0
 71
3
 72
8
 73
4
 74
0
 42
0.0000001
 43
0.0000001
 44
0.0000000001
 40
0.0
 40
0.0
 40
0.0
 40
0.0
 40
1.0
 40
1.0
 40
1.0
 40
1.0
 10
246.4955772582
 20
154.6490435882
 30
0.0
 10
246.149659126
 20
154.6490435882
 30
0.0
 10
245.9154755186
 20
154.9346107629
 30
0.0
 10
245.9154755186
 20
155.5757581171
 30
0.0
  0
SPLINE
  5
417
100
AcDbEntity
  8
03___PRT_ALL_CURVES
100
AcDbSpline
 62
2
  6
CONTINUOUS
 70
0
 71
3
 72
8
 73
4
 74
0
 42
0.0000001
 43
0.0000001
 44
0.0000000001
 40
0.0
 40
0.0
 40
0.0
 40
0.0
 40
1.0
 40
1.0
 40
1.0
 40
1.0
 10
239.2108777758
 20
156.018591425
 30
0.0
 10
239.2108777758
 20
156.1872457227
 30
0.0
 10
239.1643147071
 20
156.3445118559
 30
0.0
 10
239.0780930391
 20
156.4721182405
 30
0.0
  0
SPLINE
  5
418
100
AcDbEntity
  8
03___PRT_ALL_CURVES
100
AcDbSpline
 62
2
  6
CONTINUOUS
 70
0
 71
3
 72
8
 73
4
 74
0
 42
0.0000001
 43
0.0000001
 44
0.0000000001
 40
0.0
 40
0.0
 40
0.0
 40
0.0
 40
1.0
 40
1.0
 40
1.0
 40
1.0
 10
238.4221263358
 20
155.2498376862
 30
0.0
 10
238.9460029594
 20
155.2498376862
 30
0.0
 10
239.2108777758
 20
155.6012920242
 30
0.0
 10
239.2108777758
 20
156.018591425
 30
0.0
  0
SPLINE
  5
419
100
AcDbEntity
  8
03___PRT_ALL_CURVES
100
AcDbSpline
 62
2
  6
CONTINUOUS
 70
0
 71
3
 72
8
 73
4
 74
0
 42
0.0000001
 43
0.0000001
 44
0.0000000001
 40
0.0
 40
0.0
 40
0.0
 40
0.0
 40
1.0
 40
1.0
 40
1.0
 40
1.0
 10
238.0603468689
 20
155.3057049486
 30
0.0
 10
238.1669135666
 20
155.2701932411
 30
0.0
 10
238.2841632469
 20
155.2498376862
 30
0.0
 10
238.4221263358
 20
155.2498376862
 30
0.0
  0
SPLINE
  5
41A
100
AcDbEntity
  8
03___PRT_ALL_CURVES
100
AcDbSpline
 62
2
  6
CONTINUOUS
 70
0
 71
3
 72
8
 73
4
 74
0
 42
0.0000001
 43
0.0000001
 44
0.0000000001
 40
0.0
 40
0.0
 40
0.0
 40
0.0
 40
1.0
 40
1.0
 40
1.0
 40
1.0
 10
247.0605017951
 20
155.5757581171
 30
0.0
 10
247.0605017951
 20
154.9346107629
 30
0.0
 10
246.8421900475
 20
154.6490435882
 30
0.0
 10
246.4955772582
 20
154.6490435882
 30
0.0
  0
SPLINE
  5
41B
100
AcDbEntity
  8
03___PRT_ALL_CURVES
100
AcDbSpline
 62
2
  6
CONTINUOUS
 70
0
 71
3
 72
8
 73
4
 74
0
 42
0.0000001
 43
0.0000001
 44
0.0000000001
 40
0.0
 40
0.0
 40
0.0
 40
0.0
 40
1.0
 40
1.0
 40
1.0
 40
1.0
 10
246.4955772582
 20
156.4972942939
 30
0.0
 10
246.8370222204
 20
156.4972942939
 30
0.0
 10
247.0605017951
 20
156.2327562809
 30
0.0
 10
247.0605017951
 20
155.5757581171
 30
0.0
  0
SPLINE
  5
41C
100
AcDbEntity
  8
03___PRT_ALL_CURVES
100
AcDbSpline
 62
2
  6
CONTINUOUS
 70
0
 71
3
 72
8
 73
4
 74
0
 42
0.0000001
 43
0.0000001
 44
0.0000000001
 40
0.0
 40
0.0
 40
0.0
 40
0.0
 40
1.0
 40
1.0
 40
1.0
 40
1.0
 10
237.9475598335
 20
155.051534165
 30
0.0
 10
237.9475598335
 20
155.1380926363
 30
0.0
 10
237.9782510424
 20
155.2194938057
 30
0.0
 10
238.0603468689
 20
155.3057049486
 30
0.0
  0
SPLINE
  5
41D
100
AcDbEntity
  8
03___PRT_ALL_CURVES
100
AcDbSpline
 62
2
  6
CONTINUOUS
 70
0
 71
3
 72
8
 73
4
 74
0
 42
0.0000001
 43
0.0000001
 44
0.0000000001
 40
0.0
 40
0.0
 40
0.0
 40
0.0
 40
1.0
 40
1.0
 40
1.0
 40
1.0
 10
238.1775965492
 20
154.8376955873
 30
0.0
 10
237.9941229022
 20
154.8376955873
 30
0.0
 10
237.9475598335
 20
154.9494406372
 30
0.0
 10
237.9475598335
 20
155.051534165
 30
0.0
  0
SPLINE
  5
41E
100
AcDbEntity
  8
03___PRT_ALL_CURVES
100
AcDbSpline
 62
2
  6
CONTINUOUS
 70
0
 71
3
 72
8
 73
4
 74
0
 42
0.0000001
 43
0.0000001
 44
0.0000000001
 40
0.0
 40
0.0
 40
0.0
 40
0.0
 40
1.0
 40
1.0
 40
1.0
 40
1.0
 10
258.0672260708
 20
155.5757581171
 30
0.0
 10
258.0672260708
 20
156.2327562809
 30
0.0
 10
258.3065669802
 20
156.4972942939
 30
0.0
 10
258.6480014173
 20
156.4972942939
 30
0.0
  0
SPLINE
  5
41F
100
AcDbEntity
  8
03___PRT_ALL_CURVES
100
AcDbSpline
 62
2
  6
CONTINUOUS
 70
0
 71
3
 72
8
 73
4
 74
0
 42
0.0000001
 43
0.0000001
 44
0.0000000001
 40
0.0
 40
0.0
 40
0.0
 40
0.0
 40
1.0
 40
1.0
 40
1.0
 40
1.0
 10
258.6480014173
 20
154.6490435882
 30
0.0
 10
258.296220801
 20
154.6490435882
 30
0.0
 10
258.0672260708
 20
154.9346107629
 30
0.0
 10
258.0672260708
 20
155.5757581171
 30
0.0
  0
SPLINE
  5
420
100
AcDbEntity
  8
03___PRT_ALL_CURVES
100
AcDbSpline
 62
2
  6
CONTINUOUS
 70
0
 71
3
 72
8
 73
4
 74
0
 42
0.0000001
 43
0.0000001
 44
0.0000000001
 40
0.0
 40
0.0
 40
0.0
 40
0.0
 40
1.0
 40
1.0
 40
1.0
 40
1.0
 10
239.3733327862
 20
154.2165564595
 30
0.0
 10
239.3733327862
 20
154.5783464515
 30
0.0
 10
239.1443170058
 20
154.8376955873
 30
0.0
 10
238.7269965548
 20
154.8376955873
 30
0.0
  0
SPLINE
  5
421
100
AcDbEntity
  8
03___PRT_ALL_CURVES
100
AcDbSpline
 62
2
  6
CONTINUOUS
 70
0
 71
3
 72
8
 73
4
 74
0
 42
0.0000001
 43
0.0000001
 44
0.0000000001
 40
0.0
 40
0.0
 40
0.0
 40
0.0
 40
1.0
 40
1.0
 40
1.0
 40
1.0
 10
238.3555550406
 20
153.4985021561
 30
0.0
 10
239.0125637295
 20
153.4985021561
 30
0.0
 10
239.3733327862
 20
153.7685553247
 30
0.0
 10
239.3733327862
 20
154.2165564595
 30
0.0
  0
SPLINE
  5
422
100
AcDbEntity
  8
03___PRT_ALL_CURVES
100
AcDbSpline
 62
2
  6
CONTINUOUS
 70
0
 71
3
 72
8
 73
4
 74
0
 42
0.0000001
 43
0.0000001
 44
0.0000000001
 40
0.0
 40
0.0
 40
0.0
 40
0.0
 40
1.0
 40
1.0
 40
1.0
 40
1.0
 10
237.4647205979
 20
154.1048114096
 30
0.0
 10
237.4647205979
 20
153.7844166593
 30
0.0
 10
237.6882001726
 20
153.4985021561
 30
0.0
 10
238.3555550406
 20
153.4985021561
 30
0.0
  0
SPLINE
  5
423
100
AcDbEntity
  8
03___PRT_ALL_CURVES
100
AcDbSpline
 62
2
  6
CONTINUOUS
 70
0
 71
3
 72
8
 73
4
 74
0
 42
0.0000001
 43
0.0000001
 44
0.0000000001
 40
0.0
 40
0.0
 40
0.0
 40
0.0
 40
1.0
 40
1.0
 40
1.0
 40
1.0
 10
259.2132838078
 20
155.5757581171
 30
0.0
 10
259.2132838078
 20
154.9346107629
 30
0.0
 10
258.9939195495
 20
154.6490435882
 30
0.0
 10
258.6480014173
 20
154.6490435882
 30
0.0
  0
SPLINE
  5
424
100
AcDbEntity
  8
03___PRT_ALL_CURVES
100
AcDbSpline
 62
2
  6
CONTINUOUS
 70
0
 71
3
 72
8
 73
4
 74
0
 42
0.0000001
 43
0.0000001
 44
0.0000000001
 40
0.0
 40
0.0
 40
0.0
 40
0.0
 40
1.0
 40
1.0
 40
1.0
 40
1.0
 10
258.6480014173
 20
156.4972942939
 30
0.0
 10
258.9887517225
 20
156.4972942939
 30
0.0
 10
259.2132838078
 20
156.2327562809
 30
0.0
 10
259.2132838078
 20
155.5757581171
 30
0.0
  0
SPLINE
  5
425
100
AcDbEntity
  8
03___PRT_ALL_CURVES
100
AcDbSpline
 62
2
  6
CONTINUOUS
 70
0
 71
3
 72
8
 73
4
 74
0
 42
0.0000001
 43
0.0000001
 44
0.0000000001
 40
0.0
 40
0.0
 40
0.0
 40
0.0
 40
1.0
 40
1.0
 40
1.0
 40
1.0
 10
245.0701621591
 20
157.3070748957
 30
0.0
 10
245.0701621591
 20
157.3577848561
 30
0.0
 10
245.0549849563
 20
157.3988327694
 30
0.0
 10
245.0246305508
 20
157.4388386971
 30
0.0
  0
SPLINE
  5
426
100
AcDbEntity
  8
03___PRT_ALL_CURVES
100
AcDbSpline
 62
2
  6
CONTINUOUS
 70
0
 71
3
 72
8
 73
4
 74
0
 42
0.0000001
 43
0.0000001
 44
0.0000000001
 40
0.0
 40
0.0
 40
0.0
 40
0.0
 40
1.0
 40
1.0
 40
1.0
 40
1.0
 10
237.8409826106
 20
154.6183523793
 30
0.0
 10
237.5405960867
 20
154.4707377683
 30
0.0
 10
237.4647205979
 20
154.2927687517
 30
0.0
 10
237.4647205979
 20
154.1048114096
 30
0.0
  0
SPLINE
  5
427
100
AcDbEntity
  8
03___PRT_ALL_CURVES
100
AcDbSpline
 62
2
  6
CONTINUOUS
 70
0
 71
3
 72
8
 73
4
 74
0
 42
0.0000001
 43
0.0000001
 44
0.0000000001
 40
0.0
 40
0.0
 40
0.0
 40
0.0
 40
1.0
 40
1.0
 40
1.0
 40
1.0
 10
237.6578562921
 20
154.9853101983
 30
0.0
 10
237.6578562921
 20
154.8273494082
 30
0.0
 10
237.7240697337
 20
154.7004376806
 30
0.0
 10
237.8409826106
 20
154.6183523793
 30
0.0
  0
SPLINE
  5
428
100
AcDbEntity
  8
03___PRT_ALL_CURVES
100
AcDbSpline
 62
2
  6
CONTINUOUS
 70
0
 71
3
 72
8
 73
4
 74
0
 42
0.0000001
 43
0.0000001
 44
0.0000000001
 40
0.0
 40
0.0
 40
0.0
 40
0.0
 40
1.0
 40
1.0
 40
1.0
 40
1.0
 10
237.8665059925
 20
155.3974628223
 30
0.0
 10
237.7292480858
 20
155.2805394203
 30
0.0
 10
237.6578562921
 20
155.148786144
 30
0.0
 10
237.6578562921
 20
154.9853101983
 30
0.0
  0
SPLINE
  5
429
100
AcDbEntity
  8
03___PRT_ALL_CURVES
100
AcDbSpline
 62
2
  6
CONTINUOUS
 70
0
 71
3
 72
8
 73
4
 74
0
 42
0.0000001
 43
0.0000001
 44
0.0000000001
 40
0.0
 40
0.0
 40
0.0
 40
0.0
 40
1.0
 40
1.0
 40
1.0
 40
1.0
 10
257.0949799336
 20
157.3070748957
 30
0.0
 10
257.0949799336
 20
157.4547000317
 30
0.0
 10
257.0087582656
 20
157.5412795533
 30
0.0
 10
256.8611436546
 20
157.5412795533
 30
0.0
  0
SPLINE
  5
42A
100
AcDbEntity
  8
03___PRT_ALL_CURVES
100
AcDbSpline
 62
2
  6
CONTINUOUS
 70
0
 71
3
 72
8
 73
4
 74
0
 42
0.0000001
 43
0.0000001
 44
0.0000000001
 40
0.0
 40
0.0
 40
0.0
 40
0.0
 40
1.0
 40
1.0
 40
1.0
 40
1.0
 10
244.9022025183
 20
157.1436094751
 30
0.0
 10
245.0349767299
 20
157.1436094751
 30
0.0
 10
245.0701621591
 20
157.2205269494
 30
0.0
 10
245.0701621591
 20
157.3070748957
 30
0.0
  0
SPLINE
  5
42B
100
AcDbEntity
  8
03___PRT_ALL_CURVES
100
AcDbSpline
 62
2
  6
CONTINUOUS
 70
0
 71
3
 72
8
 73
4
 74
0
 42
0.0000001
 43
0.0000001
 44
0.0000000001
 40
0.0
 40
0.0
 40
0.0
 40
0.0
 40
1.0
 40
1.0
 40
1.0
 40
1.0
 10
256.8611436546
 20
157.0677339863
 30
0.0
 10
257.0087582656
 20
157.0677339863
 30
0.0
 10
257.0949799336
 20
157.1543135079
 30
0.0
 10
257.0949799336
 20
157.3070748957
 30
0.0
  0
SPLINE
  5
42C
100
AcDbEntity
  8
03___PRT_ALL_CURVES
100
AcDbSpline
 62
2
  6
CONTINUOUS
 70
0
 71
3
 72
8
 73
4
 74
0
 42
0.0000001
 43
0.0000001
 44
0.0000000001
 40
0.0
 40
0.0
 40
0.0
 40
0.0
 40
1.0
 40
1.0
 40
1.0
 40
1.0
 10
263.8360531545
 20
167.9520197044
 30
0.0
 10
264.894308136
 20
167.9520197044
 30
0.0
 10
265.5871195708
 20
167.2593768453
 30
0.0
 10
265.5871195708
 20
166.2006390203
 30
0.0
  0
SPLINE
  5
42D
100
AcDbEntity
  8
03___PRT_ALL_CURVES
100
AcDbSpline
 62
2
  6
CONTINUOUS
 70
0
 71
3
 72
8
 73
4
 74
0
 42
0.0000001
 43
0.0000001
 44
0.0000000001
 40
0.0
 40
0.0
 40
0.0
 40
0.0
 40
1.0
 40
1.0
 40
1.0
 40
1.0
 10
265.5871195708
 20
161.5633411355
 30
0.0
 10
265.5871195708
 20
160.50374109
 30
0.0
 10
264.894308136
 20
159.8122747192
 30
0.0
 10
263.8360531545
 20
159.8122747192
 30
0.0
  0
SPLINE
  5
42E
100
AcDbEntity
  8
03___PRT_ALL_CURVES
100
AcDbSpline
 62
2
  6
CONTINUOUS
 70
0
 71
3
 72
8
 73
4
 74
0
 42
0.0000001
 43
0.0000001
 44
0.0000000001
 40
0.0
 40
0.0
 40
0.0
 40
0.0
 40
1.0
 40
1.0
 40
1.0
 40
1.0
 10
227.3383618701
 20
159.8122747192
 30
0.0
 10
226.2799689334
 20
159.8122747192
 30
0.0
 10
225.5871595808
 20
160.50374109
 30
0.0
 10
225.5871595808
 20
161.5633411355
 30
0.0
  0
SPLINE
  5
42F
100
AcDbEntity
  8
03___PRT_ALL_CURVES
100
AcDbSpline
 62
2
  6
CONTINUOUS
 70
0
 71
3
 72
8
 73
4
 74
0
 42
0.0000001
 43
0.0000001
 44
0.0000000001
 40
0.0
 40
0.0
 40
0.0
 40
0.0
 40
1.0
 40
1.0
 40
1.0
 40
1.0
 10
225.5871595808
 20
166.2006390203
 30
0.0
 10
225.5871595808
 20
167.2593768453
 30
0.0
 10
226.2799689334
 20
167.9520197044
 30
0.0
 10
227.3383618701
 20
167.9520197044
 30
0.0
  0
SPLINE
  5
430
100
AcDbEntity
  8
03___PRT_ALL_CURVES
100
AcDbSpline
 62
2
  6
CONTINUOUS
 70
0
 71
3
 72
8
 73
4
 74
0
 42
0.0000001
 43
0.0000001
 44
0.0000000001
 40
0.0
 40
0.0
 40
0.0
 40
0.0
 40
1.0
 40
1.0
 40
1.0
 40
1.0
 10
242.1124785476
 20
162.1074367745
 30
0.0
 10
242.1379287977
 20
161.9147822208
 30
0.0
 10
242.2758495926
 20
161.8378413752
 30
0.0
 10
242.443571237
 20
161.8378413752
 30
0.0
  0
SPLINE
  5
431
100
AcDbEntity
  8
03___PRT_ALL_CURVES
100
AcDbSpline
 62
2
  6
CONTINUOUS
 70
0
 71
3
 72
8
 73
4
 74
0
 42
0.0000001
 43
0.0000001
 44
0.0000000001
 40
0.0
 40
0.0
 40
0.0
 40
0.0
 40
1.0
 40
1.0
 40
1.0
 40
1.0
 10
240.6615338144
 20
162.1433051483
 30
0.0
 10
240.4835345465
 20
162.1433051483
 30
0.0
 10
240.376929601
 20
162.2298720888
 30
0.0
 10
240.3051928534
 20
162.4082137819
 30
0.0
  0
SPLINE
  5
432
100
AcDbEntity
  8
03___PRT_ALL_CURVES
100
AcDbSpline
 62
2
  6
CONTINUOUS
 70
0
 71
3
 72
8
 73
4
 74
0
 42
0.0000001
 43
0.0000001
 44
0.0000000001
 40
0.0
 40
0.0
 40
0.0
 40
0.0
 40
1.0
 40
1.0
 40
1.0
 40
1.0
 10
234.4658560927
 20
164.3375911795
 30
0.0
 10
234.4658560927
 20
165.0607145109
 30
0.0
 10
233.9619744189
 20
165.5081724736
 30
0.0
 10
233.2649553478
 20
165.5081724736
 30
0.0
  0
SPLINE
  5
433
100
AcDbEntity
  8
03___PRT_ALL_CURVES
100
AcDbSpline
 62
2
  6
CONTINUOUS
 70
0
 71
3
 72
8
 73
4
 74
0
 42
0.0000001
 43
0.0000001
 44
0.0000000001
 40
0.0
 40
0.0
 40
0.0
 40
0.0
 40
1.0
 40
1.0
 40
1.0
 40
1.0
 10
232.0379810544
 20
162.1182354965
 30
0.0
 10
232.0379810544
 20
161.9240634297
 30
0.0
 10
232.1242031067
 20
161.8378413752
 30
0.0
 10
232.3182027244
 20
161.8378413752
 30
0.0
  0
SPLINE
  5
434
100
AcDbEntity
  8
03___PRT_ALL_CURVES
100
AcDbSpline
 62
2
  6
CONTINUOUS
 70
0
 71
3
 72
8
 73
4
 74
0
 42
0.0000001
 43
0.0000001
 44
0.0000000001
 40
0.0
 40
0.0
 40
0.0
 40
0.0
 40
1.0
 40
1.0
 40
1.0
 40
1.0
 10
233.7838051699
 20
162.0464987471
 30
0.0
 10
233.8599219977
 20
161.89374404
 30
0.0
 10
233.9619744189
 20
161.8378413752
 30
0.0
 10
234.1347634117
 20
161.8378413752
 30
0.0
  0
SPLINE
  5
435
100
AcDbEntity
  8
03___PRT_ALL_CURVES
100
AcDbSpline
 62
2
  6
CONTINUOUS
 70
0
 71
3
 72
8
 73
4
 74
0
 42
0.0000001
 43
0.0000001
 44
0.0000000001
 40
0.0
 40
0.0
 40
0.0
 40
0.0
 40
1.0
 40
1.0
 40
1.0
 40
1.0
 10
233.8450918047
 20
163.3243095949
 30
0.0
 10
234.2117079712
 20
163.5026475365
 30
0.0
 10
234.4658560927
 20
163.8640596561
 30
0.0
 10
234.4658560927
 20
164.3375911795
 30
0.0
  0
SPLINE
  5
436
100
AcDbEntity
  8
03___PRT_ALL_CURVES
100
AcDbSpline
 62
2
  6
CONTINUOUS
 70
0
 71
3
 72
8
 73
4
 74
0
 42
0.0000001
 43
0.0000001
 44
0.0000000001
 40
0.0
 40
0.0
 40
0.0
 40
0.0
 40
1.0
 40
1.0
 40
1.0
 40
1.0
 10
255.5021744646
 20
162.1182354965
 30
0.0
 10
255.5021744646
 20
161.9240634297
 30
0.0
 10
255.5887414051
 20
161.8378413752
 30
0.0
 10
255.7813959589
 20
161.8378413752
 30
0.0
  0
SPLINE
  5
437
100
AcDbEntity
  8
03___PRT_ALL_CURVES
100
AcDbSpline
 62
2
  6
CONTINUOUS
 70
0
 71
3
 72
8
 73
4
 74
0
 42
0.0000001
 43
0.0000001
 44
0.0000000001
 40
0.0
 40
0.0
 40
0.0
 40
0.0
 40
1.0
 40
1.0
 40
1.0
 40
1.0
 10
257.7624712171
 20
162.0926065815
 30
0.0
 10
257.8896914403
 20
161.9093963897
 30
0.0
 10
258.0113741426
 20
161.8378413752
 30
0.0
 10
258.1999590155
 20
161.8378413752
 30
0.0
  0
SPLINE
  5
438
100
AcDbEntity
  8
03___PRT_ALL_CURVES
100
AcDbSpline
 62
2
  6
CONTINUOUS
 70
0
 71
3
 72
8
 73
4
 74
0
 42
0.0000001
 43
0.0000001
 44
0.0000000001
 40
0.0
 40
0.0
 40
0.0
 40
0.0
 40
1.0
 40
1.0
 40
1.0
 40
1.0
 10
247.3356700227
 20
162.1182354965
 30
0.0
 10
247.3356700227
 20
161.9240634297
 30
0.0
 10
247.4222024744
 20
161.8378413752
 30
0.0
 10
247.6162047309
 20
161.8378413752
 30
0.0
  0
SPLINE
  5
439
100
AcDbEntity
  8
03___PRT_ALL_CURVES
100
AcDbSpline
 62
2
  6
CONTINUOUS
 70
0
 71
3
 72
8
 73
4
 74
0
 42
0.0000001
 43
0.0000001
 44
0.0000000001
 40
0.0
 40
0.0
 40
0.0
 40
0.0
 40
1.0
 40
1.0
 40
1.0
 40
1.0
 10
249.5966191677
 20
162.0926065815
 30
0.0
 10
249.7238030268
 20
161.9093691376
 30
0.0
 10
249.8462147647
 20
161.8378413752
 30
0.0
 10
250.03414435
 20
161.8378413752
 30
0.0
  0
SPLINE
  5
43A
100
AcDbEntity
  8
03___PRT_ALL_CURVES
100
AcDbSpline
 62
2
  6
CONTINUOUS
 70
0
 71
3
 72
8
 73
4
 74
0
 42
0.0000001
 43
0.0000001
 44
0.0000000001
 40
0.0
 40
0.0
 40
0.0
 40
0.0
 40
1.0
 40
1.0
 40
1.0
 40
1.0
 10
237.5102188051
 20
162.0875712137
 30
0.0
 10
237.5712783169
 20
161.9198312944
 30
0.0
 10
237.673385417
 20
161.8378413752
 30
0.0
 10
237.8409665979
 20
161.8378413752
 30
0.0
  0
SPLINE
  5
43B
100
AcDbEntity
  8
03___PRT_ALL_CURVES
100
AcDbSpline
 62
2
  6
CONTINUOUS
 70
0
 71
3
 72
8
 73
4
 74
0
 42
0.0000001
 43
0.0000001
 44
0.0000000001
 40
0.0
 40
0.0
 40
0.0
 40
0.0
 40
1.0
 40
1.0
 40
1.0
 40
1.0
 10
261.6775013188
 20
162.0875712137
 30
0.0
 10
261.7387638695
 20
161.9198432788
 30
0.0
 10
261.8401505984
 20
161.8378413752
 30
0.0
 10
262.0075593352
 20
161.8378413752
 30
0.0
  0
SPLINE
  5
43C
100
AcDbEntity
  8
03___PRT_ALL_CURVES
100
AcDbSpline
 62
2
  6
CONTINUOUS
 70
0
 71
3
 72
8
 73
4
 74
0
 42
0.0000001
 43
0.0000001
 44
0.0000000001
 40
0.0
 40
0.0
 40
0.0
 40
0.0
 40
1.0
 40
1.0
 40
1.0
 40
1.0
 10
251.8768130747
 20
162.1182354965
 30
0.0
 10
251.8768130747
 20
161.9240634297
 30
0.0
 10
251.9633455264
 20
161.8378413752
 30
0.0
 10
252.1573478977
 20
161.8378413752
 30
0.0
  0
SPLINE
  5
43D
100
AcDbEntity
  8
03___PRT_ALL_CURVES
100
AcDbSpline
 62
2
  6
CONTINUOUS
 70
0
 71
3
 72
8
 73
4
 74
0
 42
0.0000001
 43
0.0000001
 44
0.0000000001
 40
0.0
 40
0.0
 40
0.0
 40
0.0
 40
1.0
 40
1.0
 40
1.0
 40
1.0
 10
250.8640170801
 20
165.1314510826
 30
0.0
 10
250.8640170801
 20
164.9386240848
 30
0.0
 10
250.9502391346
 20
164.8520571442
 30
0.0
 10
251.1439256299
 20
164.8520571442
 30
0.0
  0
SPLINE
  5
43E
100
AcDbEntity
  8
03___PRT_ALL_CURVES
100
AcDbSpline
 62
2
  6
CONTINUOUS
 70
0
 71
3
 72
8
 73
4
 74
0
 42
0.0000001
 43
0.0000001
 44
0.0000000001
 40
0.0
 40
0.0
 40
0.0
 40
0.0
 40
1.0
 40
1.0
 40
1.0
 40
1.0
 10
229.8637368052
 20
162.1182354965
 30
0.0
 10
229.8637368052
 20
161.9240634297
 30
0.0
 10
229.9503037457
 20
161.8378413752
 30
0.0
 10
230.1441309194
 20
161.8378413752
 30
0.0
  0
SPLINE
  5
43F
100
AcDbEntity
  8
03___PRT_ALL_CURVES
100
AcDbSpline
 62
2
  6
CONTINUOUS
 70
0
 71
3
 72
8
 73
4
 74
0
 42
0.0000001
 43
0.0000001
 44
0.0000000001
 40
0.0
 40
0.0
 40
0.0
 40
0.0
 40
1.0
 40
1.0
 40
1.0
 40
1.0
 10
228.8504552462
 20
165.1314510826
 30
0.0
 10
228.8504552462
 20
164.9386240848
 30
0.0
 10
228.9370221868
 20
164.8520571442
 30
0.0
 10
229.1308493604
 20
164.8520571442
 30
0.0
  0
SPLINE
  5
440
100
AcDbEntity
  8
03___PRT_ALL_CURVES
100
AcDbSpline
 62
2
  6
CONTINUOUS
 70
0
 71
3
 72
8
 73
4
 74
0
 42
0.0000001
 43
0.0000001
 44
0.0000000001
 40
0.0
 40
0.0
 40
0.0
 40
0.0
 40
1.0
 40
1.0
 40
1.0
 40
1.0
 10
254.081855841
 20
162.1182354965
 30
0.0
 10
254.081855841
 20
161.9240634297
 30
0.0
 10
254.1684227815
 20
161.8378413752
 30
0.0
 10
254.3610773353
 20
161.8378413752
 30
0.0
  0
SPLINE
  5
441
100
AcDbEntity
  8
03___PRT_ALL_CURVES
100
AcDbSpline
 62
2
  6
CONTINUOUS
 70
0
 71
3
 72
8
 73
4
 74
0
 42
0.0000001
 43
0.0000001
 44
0.0000000001
 40
0.0
 40
0.0
 40
0.0
 40
0.0
 40
1.0
 40
1.0
 40
1.0
 40
1.0
 10
233.204015876
 20
164.8773412407
 30
0.0
 10
233.4633350458
 20
164.8773412407
 30
0.0
 10
233.758559353
 20
164.7552508115
 30
0.0
 10
233.758559353
 20
164.3428297032
 30
0.0
  0
SPLINE
  5
442
100
AcDbEntity
  8
03___PRT_ALL_CURVES
100
AcDbSpline
 62
2
  6
CONTINUOUS
 70
0
 71
3
 72
8
 73
4
 74
0
 42
0.0000001
 43
0.0000001
 44
0.0000000001
 40
0.0
 40
0.0
 40
0.0
 40
0.0
 40
1.0
 40
1.0
 40
1.0
 40
1.0
 10
233.758559353
 20
164.3428297032
 30
0.0
 10
233.758559353
 20
163.9401727188
 30
0.0
 10
233.4633350458
 20
163.8177374045
 30
0.0
 10
233.204015876
 20
163.8177374045
 30
0.0
  0
SPLINE
  5
443
100
AcDbEntity
  8
03___PRT_ALL_CURVES
100
AcDbSpline
 62
2
  6
CONTINUOUS
 70
0
 71
3
 72
8
 73
4
 74
0
 42
0.0000001
 43
0.0000001
 44
0.0000000001
 40
0.0
 40
0.0
 40
0.0
 40
0.0
 40
1.0
 40
1.0
 40
1.0
 40
1.0
 10
229.5537036356
 20
157.4240088228
 30
0.0
 10
229.3954060421
 20
157.4040005964
 30
0.0
 10
229.3702299886
 20
157.3219152951
 30
0.0
 10
229.3702299886
 20
157.2205269494
 30
0.0
  0
SPLINE
  5
444
100
AcDbEntity
  8
03___PRT_ALL_CURVES
100
AcDbSpline
 62
2
  6
CONTINUOUS
 70
0
 71
3
 72
8
 73
4
 74
0
 42
0.0000001
 43
0.0000001
 44
0.0000000001
 40
0.0
 40
0.0
 40
0.0
 40
0.0
 40
1.0
 40
1.0
 40
1.0
 40
1.0
 10
229.3702299886
 20
154.5983441529
 30
0.0
 10
229.3702299886
 20
154.5117751564
 30
0.0
 10
229.3954060421
 20
154.4455617148
 30
0.0
 10
229.5537036356
 20
154.4200383329
 30
0.0
  0
SPLINE
  5
445
100
AcDbEntity
  8
03___PRT_ALL_CURVES
100
AcDbSpline
 62
2
  6
CONTINUOUS
 70
0
 71
3
 72
8
 73
4
 74
0
 42
0.0000001
 43
0.0000001
 44
0.0000000001
 40
0.0
 40
0.0
 40
0.0
 40
0.0
 40
1.0
 40
1.0
 40
1.0
 40
1.0
 10
229.5537036356
 20
154.4200383329
 30
0.0
 10
229.6854569119
 20
154.4000406316
 30
0.0
 10
229.9806756088
 20
154.3896944525
 30
0.0
 10
230.1031141663
 20
154.3896944525
 30
0.0
  0
SPLINE
  5
446
100
AcDbEntity
  8
03___PRT_ALL_CURVES
100
AcDbSpline
 62
2
  6
CONTINUOUS
 70
0
 71
3
 72
8
 73
4
 74
0
 42
0.0000001
 43
0.0000001
 44
0.0000000001
 40
0.0
 40
0.0
 40
0.0
 40
0.0
 40
1.0
 40
1.0
 40
1.0
 40
1.0
 10
230.1031141663
 20
154.3896944525
 30
0.0
 10
231.0298181701
 20
154.3896944525
 30
0.0
 10
231.5592204744
 20
154.9242645838
 30
0.0
 10
231.5592204744
 20
155.9216762494
 30
0.0
  0
SPLINE
  5
447
100
AcDbEntity
  8
03___PRT_ALL_CURVES
100
AcDbSpline
 62
2
  6
CONTINUOUS
 70
0
 71
3
 72
8
 73
4
 74
0
 42
0.0000001
 43
0.0000001
 44
0.0000000001
 40
0.0
 40
0.0
 40
0.0
 40
0.0
 40
1.0
 40
1.0
 40
1.0
 40
1.0
 10
231.5592204744
 20
155.9216762494
 30
0.0
 10
231.5592204744
 20
156.9504737809
 30
0.0
 10
231.0298181701
 20
157.4598783839
 30
0.0
 10
230.1031141663
 20
157.4598783839
 30
0.0
  0
SPLINE
  5
448
100
AcDbEntity
  8
03___PRT_ALL_CURVES
100
AcDbSpline
 62
2
  6
CONTINUOUS
 70
0
 71
3
 72
8
 73
4
 74
0
 42
0.0000001
 43
0.0000001
 44
0.0000000001
 40
0.0
 40
0.0
 40
0.0
 40
0.0
 40
1.0
 40
1.0
 40
1.0
 40
1.0
 10
230.1031141663
 20
157.4598783839
 30
0.0
 10
229.9913691164
 20
157.4598783839
 30
0.0
 10
229.7013182466
 20
157.4440065241
 30
0.0
 10
229.5537036356
 20
157.4240088228
 30
0.0
  0
SPLINE
  5
449
100
AcDbEntity
  8
03___PRT_ALL_CURVES
100
AcDbSpline
 62
2
  6
CONTINUOUS
 70
0
 71
3
 72
8
 73
4
 74
0
 42
0.0000001
 43
0.0000001
 44
0.0000000001
 40
0.0
 40
0.0
 40
0.0
 40
0.0
 40
1.0
 40
1.0
 40
1.0
 40
1.0
 10
239.4754157888
 20
156.5742012431
 30
0.0
 10
239.4754157888
 20
156.6197328514
 30
0.0
 10
239.4595439291
 20
156.6649066062
 30
0.0
 10
239.4343678756
 20
156.7059545194
 30
0.0
  0
SPLINE
  5
44A
100
AcDbEntity
  8
03___PRT_ALL_CURVES
100
AcDbSpline
 62
2
  6
CONTINUOUS
 70
0
 71
3
 72
8
 73
4
 74
0
 42
0.0000001
 43
0.0000001
 44
0.0000000001
 40
0.0
 40
0.0
 40
0.0
 40
0.0
 40
1.0
 40
1.0
 40
1.0
 40
1.0
 10
238.8597918166
 20
156.680778466
 30
0.0
 10
238.7425210861
 20
156.7469919075
 30
0.0
 10
238.5949064751
 20
156.7873451637
 30
0.0
 10
238.4221263358
 20
156.7873451637
 30
0.0
  0
SPLINE
  5
44B
100
AcDbEntity
  8
03___PRT_ALL_CURVES
100
AcDbSpline
 62
2
  6
CONTINUOUS
 70
0
 71
3
 72
8
 73
4
 74
0
 42
0.0000001
 43
0.0000001
 44
0.0000000001
 40
0.0
 40
0.0
 40
0.0
 40
0.0
 40
1.0
 40
1.0
 40
1.0
 40
1.0
 10
238.4221263358
 20
156.7873451637
 30
0.0
 10
237.8465082912
 20
156.7873451637
 30
0.0
 10
237.5564574214
 20
156.4362486794
 30
0.0
 10
237.5564574214
 20
156.018591425
 30
0.0
  0
SPLINE
  5
44C
100
AcDbEntity
  8
03___PRT_ALL_CURVES
100
AcDbSpline
 62
2
  6
CONTINUOUS
 70
0
 71
3
 72
8
 73
4
 74
0
 42
0.0000001
 43
0.0000001
 44
0.0000000001
 40
0.0
 40
0.0
 40
0.0
 40
0.0
 40
1.0
 40
1.0
 40
1.0
 40
1.0
 10
237.5564574214
 20
156.018591425
 30
0.0
 10
237.5564574214
 20
155.7695884683
 30
0.0
 10
237.6578562921
 20
155.539888556
 30
0.0
 10
237.8665059925
 20
155.3974628223
 30
0.0
  0
SPLINE
  5
44D
100
AcDbEntity
  8
03___PRT_ALL_CURVES
100
AcDbSpline
 62
2
  6
CONTINUOUS
 70
0
 71
3
 72
8
 73
4
 74
0
 42
0.0000001
 43
0.0000001
 44
0.0000000001
 40
0.0
 40
0.0
 40
0.0
 40
0.0
 40
1.0
 40
1.0
 40
1.0
 40
1.0
 10
244.5659359082
 20
157.1646491619
 30
0.0
 10
244.6787124185
 20
157.1646491619
 30
0.0
 10
244.7956252954
 20
157.1436094751
 30
0.0
 10
244.9022025183
 20
157.1436094751
 30
0.0
  0
SPLINE
  5
44E
100
AcDbEntity
  8
03___PRT_ALL_CURVES
100
AcDbSpline
 62
2
  6
CONTINUOUS
 70
0
 71
3
 72
8
 73
4
 74
0
 42
0.0000001
 43
0.0000001
 44
0.0000000001
 40
0.0
 40
0.0
 40
0.0
 40
0.0
 40
1.0
 40
1.0
 40
1.0
 40
1.0
 10
243.6854371196
 20
155.9068463751
 30
0.0
 10
243.6854371196
 20
156.7776831165
 30
0.0
 10
244.0523949386
 20
157.1646491619
 30
0.0
 10
244.5659359082
 20
157.1646491619
 30
0.0
  0
SPLINE
  5
44F
100
AcDbEntity
  8
03___PRT_ALL_CURVES
100
AcDbSpline
 62
2
  6
CONTINUOUS
 70
0
 71
3
 72
8
 73
4
 74
0
 42
0.0000001
 43
0.0000001
 44
0.0000000001
 40
0.0
 40
0.0
 40
0.0
 40
0.0
 40
1.0
 40
1.0
 40
1.0
 40
1.0
 10
244.5459276818
 20
154.6952593285
 30
0.0
 10
243.9965276762
 20
154.6952593285
 30
0.0
 10
243.6854371196
 20
155.0463558128
 30
0.0
 10
243.6854371196
 20
155.9068463751
 30
0.0
  0
SPLINE
  5
450
100
AcDbEntity
  8
03___PRT_ALL_CURVES
100
AcDbSpline
 62
2
  6
CONTINUOUS
 70
0
 71
3
 72
8
 73
4
 74
0
 42
0.0000001
 43
0.0000001
 44
0.0000000001
 40
0.0
 40
0.0
 40
0.0
 40
0.0
 40
1.0
 40
1.0
 40
1.0
 40
1.0
 10
245.1056843917
 20
154.8428739394
 30
0.0
 10
244.9580697807
 20
154.7562944179
 30
0.0
 10
244.7749329371
 20
154.6952593285
 30
0.0
 10
244.5459276818
 20
154.6952593285
 30
0.0
  0
SPLINE
  5
451
100
AcDbEntity
  8
0
100
AcDbSpline
 62
7
  6
CONTINUOUS
 70
0
 71
3
 72
9
 73
5
 74
0
 42
0.0000001
 43
0.0000001
 44
0.0000000001
 40
0.0
 40
0.0
 40
0.0
 40
0.0
 40
0.5425775088
 40
1.0
 40
1.0
 40
1.0
 40
1.0
 10
357.8872075123
 20
362.8320197044
 30
0.0
 10
357.6010299353
 20
362.6498334005
 30
0.0
 10
357.0747794114
 20
362.3151558481
 30
0.0
 10
356.5790058662
 20
361.9227543476
 30
0.0
 10
356.3909076235
 20
361.7073062991
 30
0.0
  0
SPLINE
  5
452
100
AcDbEntity
  8
0
100
AcDbSpline
 62
7
  6
CONTINUOUS
 70
0
 71
3
 72
9
 73
5
 74
0
 42
0.0000001
 43
0.0000001
 44
0.0000000001
 40
0.0
 40
0.0
 40
0.0
 40
0.0
 40
0.5425775088
 40
1.0
 40
1.0
 40
1.0
 40
1.0
 10
357.8872075123
 20
138.2320197044
 30
0.0
 10
357.6010299353
 20
138.4142060084
 30
0.0
 10
357.0747794114
 20
138.7488835607
 30
0.0
 10
356.5790058662
 20
139.1412850613
 30
0.0
 10
356.3909076235
 20
139.3567331098
 30
0.0
  0
SPLINE
  5
453
100
AcDbEntity
  8
0
100
AcDbSpline
 62
7
  6
CONTINUOUS
 70
0
 71
3
 72
9
 73
5
 74
0
 42
0.0000001
 43
0.0000001
 44
0.0000000001
 40
0.0
 40
0.0
 40
0.0
 40
0.0
 40
0.5425775088
 40
1.0
 40
1.0
 40
1.0
 40
1.0
 10
357.8872075123
 20
138.2320197044
 30
0.0
 10
357.7050212084
 20
138.5181972815
 30
0.0
 10
357.370343656
 20
139.0444478054
 30
0.0
 10
356.9779421555
 20
139.5402213505
 30
0.0
 10
356.762494107
 20
139.7283195933
 30
0.0
  0
SPLINE
  5
454
100
AcDbEntity
  8
0
100
AcDbSpline
 62
7
  6
CONTINUOUS
 70
0
 71
3
 72
9
 73
5
 74
0
 42
0.0000001
 43
0.0000001
 44
0.0000000001
 40
0.0
 40
0.0
 40
0.0
 40
0.0
 40
0.5425775088
 40
1.0
 40
1.0
 40
1.0
 40
1.0
 10
133.2872075123
 20
138.2320197044
 30
0.0
 10
133.4693938163
 20
138.5181972815
 30
0.0
 10
133.8040713686
 20
139.0444478054
 30
0.0
 10
134.1964728692
 20
139.5402213505
 30
0.0
 10
134.4119209176
 20
139.7283195933
 30
0.0
  0
SPLINE
  5
455
100
AcDbEntity
  8
0
100
AcDbSpline
 62
7
  6
CONTINUOUS
 70
0
 71
3
 72
9
 73
5
 74
0
 42
0.0000001
 43
0.0000001
 44
0.0000000001
 40
0.0
 40
0.0
 40
0.0
 40
0.0
 40
0.5425775088
 40
1.0
 40
1.0
 40
1.0
 40
1.0
 10
133.2872075123
 20
362.8320197044
 30
0.0
 10
133.4693938163
 20
362.5458421274
 30
0.0
 10
133.8040713686
 20
362.0195916035
 30
0.0
 10
134.1964728692
 20
361.5238180584
 30
0.0
 10
134.4119209176
 20
361.3357198156
 30
0.0
  0
SPLINE
  5
456
100
AcDbEntity
  8
0
100
AcDbSpline
 62
7
  6
CONTINUOUS
 70
0
 71
3
 72
9
 73
5
 74
0
 42
0.0000001
 43
0.0000001
 44
0.0000000001
 40
0.0
 40
0.0
 40
0.0
 40
0.0
 40
0.5425775088
 40
1.0
 40
1.0
 40
1.0
 40
1.0
 10
357.8872075123
 20
362.8320197044
 30
0.0
 10
357.7050212084
 20
362.5458421274
 30
0.0
 10
357.370343656
 20
362.0195916035
 30
0.0
 10
356.9779421555
 20
361.5238180584
 30
0.0
 10
356.762494107
 20
361.3357198156
 30
0.0
  0
SPLINE
  5
457
100
AcDbEntity
  8
0
100
AcDbSpline
 62
7
  6
CONTINUOUS
 70
0
 71
3
 72
9
 73
5
 74
0
 42
0.0000001
 43
0.0000001
 44
0.0000000001
 40
0.0
 40
0.0
 40
0.0
 40
0.0
 40
0.5425775088
 40
1.0
 40
1.0
 40
1.0
 40
1.0
 10
133.2872075123
 20
138.2320197044
 30
0.0
 10
133.5733850894
 20
138.4142060084
 30
0.0
 10
134.0996356133
 20
138.7488835607
 30
0.0
 10
134.5954091584
 20
139.1412850613
 30
0.0
 10
134.7835074011
 20
139.3567331098
 30
0.0
  0
SPLINE
  5
458
100
AcDbEntity
  8
0
100
AcDbSpline
 62
7
  6
CONTINUOUS
 70
0
 71
3
 72
9
 73
5
 74
0
 42
0.0000001
 43
0.0000001
 44
0.0000000001
 40
0.0
 40
0.0
 40
0.0
 40
0.0
 40
0.5425775088
 40
1.0
 40
1.0
 40
1.0
 40
1.0
 10
133.2872075123
 20
362.8320197044
 30
0.0
 10
133.5733850894
 20
362.6498334005
 30
0.0
 10
134.0996356133
 20
362.3151558481
 30
0.0
 10
134.5954091584
 20
361.9227543476
 30
0.0
 10
134.7835074011
 20
361.7073062991
 30
0.0
  0
ELLIPSE
  5
459
100
AcDbEntity
  8
0
100
AcDbEllipse
 62
7
  6
CONTINUOUS
 10
250.300795821
 20
529.5550937561
 30
0.0
 11
82.9133004847
 21
101.5429798274
 31
0.0
 40
0.2627972559
 41
0.1998795357
 42
0.2228753875
  0
ELLIPSE
  5
45A
100
AcDbEntity
  8
0
100
AcDbEllipse
 62
7
  6
CONTINUOUS
 10
240.8736192036
 20
529.5550937561
 30
0.0
 11
-82.9133004847
 21
101.5429798274
 31
0.0
 40
0.2627972559
 41
-0.2228753875
 42
-0.1998795357
  0
ENDSEC
  0
SECTION
  2
OBJECTS
  0
DICTIONARY
  5
C
100
AcDbDictionary
280
0
281
1
  3
ACAD_GROUP
350
D
  3
ACAD_MLINESTYLE
350
17
  3
ACAD_LAYOUT
350
1A
  3
ACAD_PLOTSETTINGS
350
19
  3
ACAD_PLOTSTYLENAME
350
E
  0
DICTIONARY
  5
D
102
{ACAD_REACTORS
330
C
102
}
100
AcDbDictionary
280
0
281
1
  0
ACDBDICTIONARYWDFLT
  5
E
102
{ACAD_REACTORS
330
C
102
}
100
AcDbDictionary
281
1
  3
Normal
350
F
100
AcDbDictionaryWithDefault
340
F
  0
DICTIONARY
  5
17
102
{ACAD_REACTORS
330
C
102
}
100
AcDbDictionary
280
0
281
1
  3
Standard
350
18
  0
DICTIONARY
  5
19
102
{ACAD_REACTORS
330
C
102
}
100
AcDbDictionary
281
1
  0
DICTIONARY
  5
1A
102
{ACAD_REACTORS
330
C
102
}
100
AcDbDictionary
281
1
  3
Model
350
45B
  3
Layout1
350
45C
  0
ACDBPLACEHOLDER
  5
F
102
{ACAD_REACTORS
330
E
102
}
  0
MLINESTYLE
  5
18
102
{ACAD_REACTORS
330
17
102
}
100
AcDbMlineStyle
  2
STANDARD
 70
0
  3

 62
256
 51
90.0
 52
90.0
 71
2
 49
0.5
 62
256
  6
BYLAYER
 49
-0.5
 62
256
  6
BYLAYER
  0
LAYOUT
  5
45B
102
{ACAD_REACTORS
330
1A
102
}
100
AcDbPlotSettings
  1

  2
none_device
  4

  6

 40
0.0
 41
0.0
 42
0.0
 43
0.0
 44
500.0
 45
800.0
 46
0.0
 47
0.0
 48
0.0
 49
0.0
140
0.0
141
0.0
142
1.0
143
1.0
 70
1024
 72
1
 73
0
 74
0
  7

 75
0
147
1.0
148
0.0
149
0.0
100
AcDbLayout
  1
Model
 70
0
 71
0
 10
0.0
 20
0.0
 11
500.0
 21
800.0
 12
0.0
 22
0.0
 32
0.0
 14
0.0
 24
0.0
 34
0.0
 15
0.0
 25
0.0
 35
0.0
146
0.0
 13
0.0
 23
0.0
 33
0.0
 16
1.0
 26
0.0
 36
0.0
 17
0.0
 27
1.0
 37
0.0
 76
0
330
216
345
0
346
0
  0
LAYOUT
  5
45C
102
{ACAD_REACTORS
330
1A
102
}
100
AcDbPlotSettings
  1

  2
none_device
  4

  6

 40
0.0
 41
0.0
 42
0.0
 43
0.0
 44
500.0
 45
800.0
 46
0.0
 47
0.0
 48
0.0
 49
0.0
140
0.0
141
0.0
142
1.0
143
1.0
 70
0
 72
1
 73
0
 74
0
  7

 75
0
147
1.0
148
0.0
149
0.0
100
AcDbLayout
  1
Layout1
 70
0
 71
1
 10
0.0
 20
0.0
 11
500.0
 21
800.0
 12
0.0
 22
0.0
 32
0.0
 14
0.0
 24
0.0
 34
0.0
 15
0.0
 25
0.0
 35
0.0
146
0.0
 13
0.0
 23
0.0
 33
0.0
 16
1.0
 26
0.0
 36
0.0
 17
0.0
 27
1.0
 37
0.0
 76
0
330
217
345
0
346
0
  0
ENDSEC
  0
EOF
