  0
SECTION
  2
HEADER
  9
$ACADVER
  1
AC1018
  9
$ACADMAINTVER
 70
     0
  9
$DWGCODEPAGE
  3
ANSI_1252
  9
$LASTSAVEDBY
  1
eduardo.guerra
  9
$INSBASE
 10
0.0
 20
0.0
 30
0.0
  9
$EXTMIN
 10
-0.5
 20
-0.5
 30
-0.5
  9
$EXTMAX
 10
5.0
 20
5.0
 30
5.0
  9
$LIMMIN
 10
-0.5
 20
-0.5
  9
$LIMMAX
 10
5.0
 20
5.0
  9
$ORTHOMODE
 70
     0
  9
$REGENMODE
 70
     1
  9
$FILLMODE
 70
     1
  9
$QTEXTMODE
 70
     0
  9
$MIRRTEXT
 70
     1
  9
$LTSCALE
 40
1.0
  9
$ATTMODE
 70
     1
  9
$TEXTSIZE
 40
0.2
  9
$TRACEWID
 40
0.05
  9
$TEXTSTYLE
  7
Standard
  9
$CLAYER
  8
0
  9
$CELTYPE
  6
ByLayer
  9
$CECOLOR
 62
   256
  9
$CELTSCALE
 40
1.0
  9
$DISPSILH
 70
     0
  9
$DIMSCALE
 40
1.0
  9
$DIMASZ
 40
0.18
  9
$DIMEXO
 40
0.0625
  9
$DIMDLI
 40
0.38
  9
$DIMRND
 40
0.0
  9
$DIMDLE
 40
0.0
  9
$DIMEXE
 40
0.18
  9
$DIMTP
 40
0.0
  9
$DIMTM
 40
0.0
  9
$DIMTXT
 40
0.18
  9
$DIMCEN
 40
0.09
  9
$DIMTSZ
 40
0.0
  9
$DIMTOL
 70
     0
  9
$DIMLIM
 70
     0
  9
$DIMTIH
 70
     1
  9
$DIMTOH
 70
     1
  9
$DIMSE1
 70
     0
  9
$DIMSE2
 70
     0
  9
$DIMTAD
 70
     0
  9
$DIMZIN
 70
     0
  9
$DIMBLK
  1

  9
$DIMASO
 70
     1
  9
$DIMSHO
 70
     1
  9
$DIMPOST
  1

  9
$DIMAPOST
  1

  9
$DIMALT
 70
     0
  9
$DIMALTD
 70
     2
  9
$DIMALTF
 40
25.4
  9
$DIMLFAC
 40
1.0
  9
$DIMTOFL
 70
     0
  9
$DIMTVP
 40
0.0
  9
$DIMTIX
 70
     0
  9
$DIMSOXD
 70
     0
  9
$DIMSAH
 70
     0
  9
$DIMBLK1
  1

  9
$DIMBLK2
  1

  9
$DIMSTYLE
  2
Standard
  9
$DIMCLRD
 70
     0
  9
$DIMCLRE
 70
     0
  9
$DIMCLRT
 70
     0
  9
$DIMTFAC
 40
1.0
  9
$DIMGAP
 40
0.09
  9
$DIMJUST
 70
     0
  9
$DIMSD1
 70
     0
  9
$DIMSD2
 70
     0
  9
$DIMTOLJ
 70
     1
  9
$DIMTZIN
 70
     0
  9
$DIMALTZ
 70
     0
  9
$DIMALTTZ
 70
     0
  9
$DIMUPT
 70
     0
  9
$DIMDEC
 70
     4
  9
$DIMTDEC
 70
     4
  9
$DIMALTU
 70
     2
  9
$DIMALTTD
 70
     2
  9
$DIMTXSTY
  7
Standard
  9
$DIMAUNIT
 70
     0
  9
$DIMADEC
 70
     0
  9
$DIMALTRND
 40
0.0
  9
$DIMAZIN
 70
     0
  9
$DIMDSEP
 70
    46
  9
$DIMATFIT
 70
     3
  9
$DIMFRAC
 70
     0
  9
$DIMLDRBLK
  1

  9
$DIMLUNIT
 70
     2
  9
$DIMLWD
 70
    -2
  9
$DIMLWE
 70
    -2
  9
$DIMTMOVE
 70
     0
  9
$LUNITS
 70
     2
  9
$LUPREC
 70
     4
  9
$SKETCHINC
 40
0.1
  9
$FILLETRAD
 40
0.0
  9
$AUNITS
 70
     0
  9
$AUPREC
 70
     0
  9
$MENU
  1
.
  9
$ELEVATION
 40
0.0
  9
$PELEVATION
 40
0.0
  9
$THICKNESS
 40
0.0
  9
$LIMCHECK
 70
     0
  9
$CHAMFERA
 40
0.0
  9
$CHAMFERB
 40
0.0
  9
$CHAMFERC
 40
0.0
  9
$CHAMFERD
 40
0.0
  9
$SKPOLY
 70
     0
  9
$TDCREATE
 40
2460132.688584352
  9
$TDUCREATE
 40
2460132.813584352
  9
$TDUPDATE
 40
2460132.688586887
  9
$TDUUPDATE
 40
2460132.813586887
  9
$TDINDWG
 40
0.0000000116
  9
$TDUSRTIMER
 40
0.0000000116
  9
$USRTIMER
 70
     1
  9
$ANGBASE
 50
0.0
  9
$ANGDIR
 70
     0
  9
$PDMODE
 70
     0
  9
$PDSIZE
 40
0.0
  9
$PLINEWID
 40
0.0
  9
$SPLFRAME
 70
     0
  9
$SPLINETYPE
 70
     6
  9
$SPLINESEGS
 70
     8
  9
$HANDSEED
  5
19C
  9
$SURFTAB1
 70
     6
  9
$SURFTAB2
 70
     6
  9
$SURFTYPE
 70
     6
  9
$SURFU
 70
     6
  9
$SURFV
 70
     6
  9
$UCSBASE
  2

  9
$UCSNAME
  2

  9
$UCSORG
 10
0.0
 20
0.0
 30
0.0
  9
$UCSXDIR
 10
1.0
 20
0.0
 30
0.0
  9
$UCSYDIR
 10
0.0
 20
1.0
 30
0.0
  9
$UCSORTHOREF
  2

  9
$UCSORTHOVIEW
 70
     0
  9
$UCSORGTOP
 10
0.0
 20
0.0
 30
0.0
  9
$UCSORGBOTTOM
 10
0.0
 20
0.0
 30
0.0
  9
$UCSORGLEFT
 10
0.0
 20
0.0
 30
0.0
  9
$UCSORGRIGHT
 10
0.0
 20
0.0
 30
0.0
  9
$UCSORGFRONT
 10
0.0
 20
0.0
 30
0.0
  9
$UCSORGBACK
 10
0.0
 20
0.0
 30
0.0
  9
$PUCSBASE
  2

  9
$PUCSNAME
  2

  9
$PUCSORG
 10
0.0
 20
0.0
 30
0.0
  9
$PUCSXDIR
 10
1.0
 20
0.0
 30
0.0
  9
$PUCSYDIR
 10
0.0
 20
1.0
 30
0.0
  9
$PUCSORTHOREF
  2

  9
$PUCSORTHOVIEW
 70
     0
  9
$PUCSORGTOP
 10
0.0
 20
0.0
 30
0.0
  9
$PUCSORGBOTTOM
 10
0.0
 20
0.0
 30
0.0
  9
$PUCSORGLEFT
 10
0.0
 20
0.0
 30
0.0
  9
$PUCSORGRIGHT
 10
0.0
 20
0.0
 30
0.0
  9
$PUCSORGFRONT
 10
0.0
 20
0.0
 30
0.0
  9
$PUCSORGBACK
 10
0.0
 20
0.0
 30
0.0
  9
$USERI1
 70
     0
  9
$USERI2
 70
     0
  9
$USERI3
 70
     0
  9
$USERI4
 70
     0
  9
$USERI5
 70
     0
  9
$USERR1
 40
0.0
  9
$USERR2
 40
0.0
  9
$USERR3
 40
0.0
  9
$USERR4
 40
0.0
  9
$USERR5
 40
0.0
  9
$WORLDVIEW
 70
     1
  9
$SHADEDGE
 70
     3
  9
$SHADEDIF
 70
    70
  9
$TILEMODE
 70
     0
  9
$MAXACTVP
 70
    64
  9
$PINSBASE
 10
0.0
 20
0.0
 30
0.0
  9
$PLIMCHECK
 70
     0
  9
$PEXTMIN
 10
0.0
 20
0.0
 30
0.0
  9
$PEXTMAX
 10
650.0
 20
800.0
 30
0.0
  9
$PLIMMIN
 10
0.0
 20
0.0
  9
$PLIMMAX
 10
650.0
 20
800.0
  9
$UNITMODE
 70
     0
  9
$VISRETAIN
 70
     1
  9
$PLINEGEN
 70
     0
  9
$PSLTSCALE
 70
     1
  9
$TREEDEPTH
 70
  3020
  9
$CMLSTYLE
  2
Standard
  9
$CMLJUST
 70
     0
  9
$CMLSCALE
 40
1.0
  9
$PROXYGRAPHICS
 70
     1
  9
$MEASUREMENT
 70
     1
  9
$CELWEIGHT
370
    25
  9
$ENDCAPS
280
     0
  9
$JOINSTYLE
280
     0
  9
$LWDISPLAY
290
     1
  9
$INSUNITS
 70
     4
  9
$HYPERLINKBASE
  1

  9
$STYLESHEET
  1

  9
$XEDIT
290
     1
  9
$CEPSNTYPE
380
     0
  9
$PSTYLEMODE
290
     1
  9
$FINGERPRINTGUID
  2
{ab0e75d3-b382-4fcb-9b2c-9d08dfd107ff}
  9
$VERSIONGUID
  2
{FAEB1C32-E019-11D5-929B-00C0DF256EC4}
  9
$EXTNAMES
290
     1
  9
$PSVPSCALE
 40
0.0
  9
$OLESTARTUP
290
     0
  9
$SORTENTS
280
   127
  9
$INDEXCTL
280
     0
  9
$HIDETEXT
280
     1
  9
$XCLIPFRAME
290
     0
  9
$HALOGAP
280
     0
  9
$OBSCOLOR
 70
   257
  9
$OBSLTYPE
280
     0
  9
$INTERSECTIONDISPLAY
280
     0
  9
$INTERSECTIONCOLOR
 70
   257
  9
$DIMASSOC
280
     2
  9
$PROJECTNAME
  1

  0
ENDSEC
  0
SECTION
  2
CLASSES
  0
CLASS
  1
ACDBDICTIONARYWDFLT
  2
AcDbDictionaryWithDefault
  3
ObjectDBX Classes
 90
        0
 91
        3
280
     0
281
     0
  0
CLASS
  1
VISUALSTYLE
  2
AcDbVisualStyle
  3
ObjectDBX Classes
 90
     4095
 91
        3
280
     0
281
     0
  0
CLASS
  1
MATERIAL
  2
AcDbMaterial
  3
ObjectDBX Classes
 90
     1153
 91
        3
280
     0
281
     0
  0
CLASS
  1
SCALE
  2
AcDbScale
  3
ObjectDBX Classes
 90
     1153
 91
        3
280
     0
281
     0
  0
CLASS
  1
TABLESTYLE
  2
AcDbTableStyle
  3
ObjectDBX Classes
 90
     4095
 91
        3
280
     0
281
     0
  0
CLASS
  1
MLEADERSTYLE
  2
AcDbMLeaderStyle
  3
ACDB_MLEADERSTYLE_CLASS
 90
     4095
 91
        3
280
     0
281
     0
  0
CLASS
  1
SUN
  2
AcDbSun
  3
SCENEOE
 90
     1153
 91
        3
280
     0
281
     0
  0
CLASS
  1
DIMASSOC
  2
AcDbDimAssoc
  3
"AcDbDimAssoc|Product Desc:     AcDim ARX App For Dimension|Company:          Autodesk, Inc.|WEB Address:      www.autodesk.com"
 90
        0
 91
        3
280
     0
281
     0
  0
CLASS
  1
DICTIONARYVAR
  2
AcDbDictionaryVar
  3
ObjectDBX Classes
 90
        0
 91
        3
280
     0
281
     0
  0
CLASS
  1
CELLSTYLEMAP
  2
AcDbCellStyleMap
  3
ObjectDBX Classes
 90
     1152
 91
        3
280
     0
281
     0
  0
ENDSEC
  0
SECTION
  2
TABLES
  0
TABLE
  2
VPORT
  5
8
102
{ACAD_XDICTIONARY
360
155
102
}
330
0
100
AcDbSymbolTable
 70
    16
  0
VPORT
  5
29
330
8
100
AcDbSymbolTableRecord
100
AcDbViewportTableRecord
  2
*Active
 70
     0
 10
0.0
 20
0.0
 11
1.0
 21
1.0
 12
0.0
 22
0.0
 13
0.0
 23
0.0
 14
0.5
 24
0.5
 15
0.5
 25
0.5
 16
0.0
 26
0.0
 36
1.0
 17
0.0
 27
0.0
 37
0.0
 40
254.0
 41
0.069908
 42
50.0
 43
676.409142
 44
-676.409142
 50
0.0
 51
0.0
 71
     0
 72
   100
 73
     1
 74
     3
 75
     0
 76
     0
 77
     0
 78
     0
281
     0
 65
     1
110
0.0
120
0.0
130
0.0
111
1.0
121
0.0
131
0.0
112
0.0
122
1.0
132
0.0
 79
     0
146
0.0
  0
VPORT
  5
13D
330
8
100
AcDbSymbolTableRecord
100
AcDbViewportTableRecord
  2
L1
 70
     0
 10
0.0
 20
0.0
 11
1.0
 21
1.0
 12
0.0
 22
0.0
 13
0.0
 23
0.0
 14
0.5
 24
0.5
 15
0.5
 25
0.5
 16
0.0
 26
0.0
 36
1.0
 17
0.0
 27
0.0
 37
0.0
 40
254.0
 41
0.069908
 42
50.0
 43
676.409142
 44
-676.409142
 50
0.0
 51
0.0
 71
     0
 72
   100
 73
     1
 74
     3
 75
     0
 76
     0
 77
     0
 78
     0
281
     0
 65
     1
110
0.0
120
0.0
130
0.0
111
1.0
121
0.0
131
0.0
112
0.0
122
1.0
132
0.0
 79
     0
146
0.0
  0
VPORT
  5
13E
330
8
100
AcDbSymbolTableRecord
100
AcDbViewportTableRecord
  2
L2
 70
     0
 10
0.0
 20
0.0
 11
0.5
 21
1.0
 12
0.0
 22
0.0
 13
0.0
 23
0.0
 14
0.5
 24
0.5
 15
0.5
 25
0.5
 16
0.0
 26
-1.0
 36
0.0
 17
0.0
 27
0.0
 37
0.0
 40
1319.822715
 41
0.013454
 42
50.0
 43
672.020833
 44
-672.020833
 50
0.0
 51
0.0
 71
     0
 72
   100
 73
     1
 74
     3
 75
     0
 76
     0
 77
     0
 78
     0
281
     0
 65
     1
110
0.0
120
0.0
130
0.0
111
1.0
121
0.0
131
0.0
112
0.0
122
1.0
132
0.0
 79
     0
146
0.0
  0
VPORT
  5
13F
330
8
100
AcDbSymbolTableRecord
100
AcDbViewportTableRecord
  2
L2
 70
     0
 10
0.5
 20
0.0
 11
1.0
 21
1.0
 12
0.0
 22
0.0
 13
0.0
 23
0.0
 14
0.5
 24
0.5
 15
0.5
 25
0.5
 16
1.0
 26
0.0
 36
0.0
 17
0.0
 27
0.0
 37
0.0
 40
1319.822715
 41
0.013454
 42
50.0
 43
672.020833
 44
-672.020833
 50
0.0
 51
0.0
 71
     0
 72
   100
 73
     1
 74
     3
 75
     0
 76
     0
 77
     0
 78
     0
281
     0
 65
     1
110
0.0
120
0.0
130
0.0
111
1.0
121
0.0
131
0.0
112
0.0
122
1.0
132
0.0
 79
     0
146
0.0
  0
VPORT
  5
140
330
8
100
AcDbSymbolTableRecord
100
AcDbViewportTableRecord
  2
L3
 70
     0
 10
0.0
 20
0.5
 11
1.0
 21
1.0
 12
0.0
 22
0.0
 13
0.0
 23
0.0
 14
0.5
 24
0.5
 15
0.5
 25
0.5
 16
0.0
 26
0.0
 36
1.0
 17
0.0
 27
0.0
 37
0.0
 40
254.0
 41
0.069908
 42
50.0
 43
676.409142
 44
-676.409142
 50
0.0
 51
0.0
 71
     0
 72
   100
 73
     1
 74
     3
 75
     0
 76
     0
 77
     0
 78
     0
281
     0
 65
     1
110
0.0
120
0.0
130
0.0
111
1.0
121
0.0
131
0.0
112
0.0
122
1.0
132
0.0
 79
     0
146
0.0
  0
VPORT
  5
141
330
8
100
AcDbSymbolTableRecord
100
AcDbViewportTableRecord
  2
L3
 70
     0
 10
0.0
 20
0.0
 11
1.0
 21
0.5
 12
0.0
 22
0.0
 13
0.0
 23
0.0
 14
0.5
 24
0.5
 15
0.5
 25
0.5
 16
0.0
 26
-1.0
 36
0.0
 17
0.0
 27
0.0
 37
0.0
 40
1319.822715
 41
0.013454
 42
50.0
 43
672.020833
 44
-672.020833
 50
0.0
 51
0.0
 71
     0
 72
   100
 73
     1
 74
     3
 75
     0
 76
     0
 77
     0
 78
     0
281
     0
 65
     1
110
0.0
120
0.0
130
0.0
111
1.0
121
0.0
131
0.0
112
0.0
122
1.0
132
0.0
 79
     0
146
0.0
  0
VPORT
  5
142
330
8
100
AcDbSymbolTableRecord
100
AcDbViewportTableRecord
  2
L4
 70
     0
 10
0.0
 20
0.5
 11
0.5
 21
1.0
 12
0.0
 22
0.0
 13
0.0
 23
0.0
 14
0.5
 24
0.5
 15
0.5
 25
0.5
 16
0.0
 26
0.0
 36
1.0
 17
0.0
 27
0.0
 37
0.0
 40
254.0
 41
0.069908
 42
50.0
 43
676.409142
 44
-676.409142
 50
0.0
 51
0.0
 71
     0
 72
   100
 73
     1
 74
     3
 75
     0
 76
     0
 77
     0
 78
     0
281
     0
 65
     1
110
0.0
120
0.0
130
0.0
111
1.0
121
0.0
131
0.0
112
0.0
122
1.0
132
0.0
 79
     0
146
0.0
  0
VPORT
  5
143
330
8
100
AcDbSymbolTableRecord
100
AcDbViewportTableRecord
  2
L4
 70
     0
 10
0.0
 20
0.0
 11
0.5
 21
0.5
 12
0.0
 22
0.0
 13
0.0
 23
0.0
 14
0.5
 24
0.5
 15
0.5
 25
0.5
 16
0.0
 26
-1.0
 36
0.0
 17
0.0
 27
0.0
 37
0.0
 40
1319.822715
 41
0.013454
 42
50.0
 43
672.020833
 44
-672.020833
 50
0.0
 51
0.0
 71
     0
 72
   100
 73
     1
 74
     3
 75
     0
 76
     0
 77
     0
 78
     0
281
     0
 65
     1
110
0.0
120
0.0
130
0.0
111
1.0
121
0.0
131
0.0
112
0.0
122
1.0
132
0.0
 79
     0
146
0.0
  0
VPORT
  5
144
330
8
100
AcDbSymbolTableRecord
100
AcDbViewportTableRecord
  2
L4
 70
     0
 10
0.5
 20
0.0
 11
1.0
 21
0.5
 12
0.0
 22
0.0
 13
0.0
 23
0.0
 14
0.5
 24
0.5
 15
0.5
 25
0.5
 16
1.0
 26
0.0
 36
0.0
 17
0.0
 27
0.0
 37
0.0
 40
1319.822715
 41
0.013454
 42
50.0
 43
672.020833
 44
-672.020833
 50
0.0
 51
0.0
 71
     0
 72
   100
 73
     1
 74
     3
 75
     0
 76
     0
 77
     0
 78
     0
281
     0
 65
     1
110
0.0
120
0.0
130
0.0
111
1.0
121
0.0
131
0.0
112
0.0
122
1.0
132
0.0
 79
     0
146
0.0
  0
VPORT
  5
145
330
8
100
AcDbSymbolTableRecord
100
AcDbViewportTableRecord
  2
L4
 70
     0
 10
0.5
 20
0.5
 11
1.0
 21
1.0
 12
0.0
 22
0.0
 13
0.0
 23
0.0
 14
0.5
 24
0.5
 15
0.5
 25
0.5
 16
0.5773502691896258
 26
-0.5773502691896258
 36
0.5773502691896258
 17
0.0
 27
0.0
 37
0.0
 40
1285.020866
 41
0.013818
 42
50.0
 43
667.141407
 44
-667.141407
 50
0.0
 51
0.0
 71
     0
 72
   100
 73
     1
 74
     3
 75
     0
 76
     0
 77
     0
 78
     0
281
     0
 65
     1
110
0.0
120
0.0
130
0.0
111
1.0
121
0.0
131
0.0
112
0.0
122
1.0
132
0.0
 79
     0
146
0.0
  0
VPORT
  5
146
330
8
100
AcDbSymbolTableRecord
100
AcDbViewportTableRecord
  2
L6
 70
     0
 10
0.0
 20
0.5
 11
0.333333
 21
1.0
 12
0.0
 22
0.0
 13
0.0
 23
0.0
 14
0.5
 24
0.5
 15
0.5
 25
0.5
 16
0.7188730927569433
 26
-0.5850486126764433
 36
0.3754192287502549
 17
0.0
 27
0.0
 37
0.0
 40
1357.434192
 41
0.013081
 42
50.0
 43
701.839477
 44
-701.839477
 50
0.0
 51
0.0
 71
     0
 72
   100
 73
     1
 74
     3
 75
     0
 76
     0
 77
     0
 78
     0
281
     0
 65
     1
110
0.0
120
0.0
130
0.0
111
1.0
121
0.0
131
0.0
112
0.0
122
1.0
132
0.0
 79
     0
146
0.0
  0
VPORT
  5
147
330
8
100
AcDbSymbolTableRecord
100
AcDbViewportTableRecord
  2
L6
 70
     0
 10
0.0
 20
0.0
 11
0.333333
 21
0.5
 12
0.0
 22
0.0
 13
0.0
 23
0.0
 14
0.5
 24
0.5
 15
0.5
 25
0.5
 16
-1.0
 26
0.0
 36
0.0
 17
0.0
 27
0.0
 37
0.0
 40
1319.822715
 41
0.013454
 42
50.0
 43
672.020833
 44
-672.020833
 50
0.0
 51
0.0
 71
     0
 72
   100
 73
     1
 74
     3
 75
     0
 76
     0
 77
     0
 78
     0
281
     0
 65
     1
110
0.0
120
0.0
130
0.0
111
1.0
121
0.0
131
0.0
112
0.0
122
1.0
132
0.0
 79
     0
146
0.0
  0
VPORT
  5
148
330
8
100
AcDbSymbolTableRecord
100
AcDbViewportTableRecord
  2
L6
 70
     0
 10
0.333333
 20
0.5
 11
0.666667
 21
1.0
 12
0.0
 22
0.0
 13
0.0
 23
0.0
 14
0.5
 24
0.5
 15
0.5
 25
0.5
 16
0.0
 26
0.0
 36
1.0
 17
0.0
 27
0.0
 37
0.0
 40
254.0
 41
0.069908
 42
50.0
 43
676.409142
 44
-676.409142
 50
0.0
 51
0.0
 71
     0
 72
   100
 73
     1
 74
     3
 75
     0
 76
     0
 77
     0
 78
     0
281
     0
 65
     1
110
0.0
120
0.0
130
0.0
111
1.0
121
0.0
131
0.0
112
0.0
122
1.0
132
0.0
 79
     0
146
0.0
  0
VPORT
  5
149
330
8
100
AcDbSymbolTableRecord
100
AcDbViewportTableRecord
  2
L6
 70
     0
 10
0.333333
 20
0.0
 11
0.666667
 21
0.5
 12
0.0
 22
0.0
 13
0.0
 23
0.0
 14
0.5
 24
0.5
 15
0.5
 25
0.5
 16
0.0
 26
-1.0
 36
0.0
 17
0.0
 27
0.0
 37
0.0
 40
1319.822715
 41
0.013454
 42
50.0
 43
672.020833
 44
-672.020833
 50
0.0
 51
0.0
 71
     0
 72
   100
 73
     1
 74
     3
 75
     0
 76
     0
 77
     0
 78
     0
281
     0
 65
     1
110
0.0
120
0.0
130
0.0
111
1.0
121
0.0
131
0.0
112
0.0
122
1.0
132
0.0
 79
     0
146
0.0
  0
VPORT
  5
14A
330
8
100
AcDbSymbolTableRecord
100
AcDbViewportTableRecord
  2
L6
 70
     0
 10
0.666667
 20
0.5
 11
1.0
 21
1.0
 12
0.0
 22
0.0
 13
0.0
 23
0.0
 14
0.5
 24
0.5
 15
0.5
 25
0.5
 16
0.5773502691896258
 26
-0.5773502691896258
 36
0.5773502691896258
 17
0.0
 27
0.0
 37
0.0
 40
1285.020866
 41
0.013818
 42
50.0
 43
667.141407
 44
-667.141407
 50
0.0
 51
0.0
 71
     0
 72
   100
 73
     1
 74
     3
 75
     0
 76
     0
 77
     0
 78
     0
281
     0
 65
     1
110
0.0
120
0.0
130
0.0
111
1.0
121
0.0
131
0.0
112
0.0
122
1.0
132
0.0
 79
     0
146
0.0
  0
VPORT
  5
14B
330
8
100
AcDbSymbolTableRecord
100
AcDbViewportTableRecord
  2
L6
 70
     0
 10
0.666667
 20
0.0
 11
1.0
 21
0.5
 12
0.0
 22
0.0
 13
0.0
 23
0.0
 14
0.5
 24
0.5
 15
0.5
 25
0.5
 16
1.0
 26
0.0
 36
0.0
 17
0.0
 27
0.0
 37
0.0
 40
1319.822715
 41
0.013454
 42
50.0
 43
672.020833
 44
-672.020833
 50
0.0
 51
0.0
 71
     0
 72
   100
 73
     1
 74
     3
 75
     0
 76
     0
 77
     0
 78
     0
281
     0
 65
     1
110
0.0
120
0.0
130
0.0
111
1.0
121
0.0
131
0.0
112
0.0
122
1.0
132
0.0
 79
     0
146
0.0
  0
ENDTAB
  0
TABLE
  2
LTYPE
  5
5
330
0
100
AcDbSymbolTable
 70
    10
  0
LTYPE
  5
14
330
5
100
AcDbSymbolTableRecord
100
AcDbLinetypeTableRecord
  2
ByBlock
 70
     0
  3

 72
    65
 73
     0
 40
0.0
  0
LTYPE
  5
15
330
5
100
AcDbSymbolTableRecord
100
AcDbLinetypeTableRecord
  2
ByLayer
 70
     0
  3

 72
    65
 73
     0
 40
0.0
  0
LTYPE
  5
16
330
5
100
AcDbSymbolTableRecord
100
AcDbLinetypeTableRecord
  2
Continuous
 70
     0
  3
Solid line
 72
    65
 73
     0
 40
0.0
  0
LTYPE
  5
60
330
5
100
AcDbSymbolTableRecord
100
AcDbLinetypeTableRecord
  2
ACAD_ISO04W100
 70
     0
  3
ISO long-dash dot ____ . ____ . ____ . ____ . _
 72
    65
 73
     4
 40
30.0
 49
24.0
 74
     4
 75
     0
340
0
 46
0.0
 50
0.0
 44
0.0
 45
0.0
 49
-3.0
 74
     4
 75
     0
340
0
 46
0.0
 50
0.0
 44
0.0
 45
0.0
 49
0.0
 74
     4
 75
     0
340
0
 46
0.0
 50
0.0
 44
0.0
 45
0.0
 49
-3.0
 74
     4
 75
     0
340
0
 46
0.0
 50
0.0
 44
0.0
 45
0.0
  0
LTYPE
  5
61
330
5
100
AcDbSymbolTableRecord
100
AcDbLinetypeTableRecord
  2
ACAD_ISO05W100
 70
     0
  3
ISO long-dash double-dot ____ .. ____ .. ____ . 
 72
    65
 73
     6
 40
33.0
 49
24.0
 74
     4
 75
     0
340
0
 46
0.0
 50
0.0
 44
0.0
 45
0.0
 49
-3.0
 74
     4
 75
     0
340
0
 46
0.0
 50
0.0
 44
0.0
 45
0.0
 49
0.0
 74
     4
 75
     0
340
0
 46
0.0
 50
0.0
 44
0.0
 45
0.0
 49
-3.0
 74
     4
 75
     0
340
0
 46
0.0
 50
0.0
 44
0.0
 45
0.0
 49
0.0
 74
     4
 75
     0
340
0
 46
0.0
 50
0.0
 44
0.0
 45
0.0
 49
-3.0
 74
     4
 75
     0
340
0
 46
0.0
 50
0.0
 44
0.0
 45
0.0
  0
LTYPE
  5
62
330
5
100
AcDbSymbolTableRecord
100
AcDbLinetypeTableRecord
  2
ACAD_ISO06W100
 70
     0
  3
ISO long-dash triple-dot ____ ... ____ ... ____
 72
    65
 73
     8
 40
36.0
 49
24.0
 74
     4
 75
     0
340
0
 46
0.0
 50
0.0
 44
0.0
 45
0.0
 49
-3.0
 74
     4
 75
     0
340
0
 46
0.0
 50
0.0
 44
0.0
 45
0.0
 49
0.0
 74
     4
 75
     0
340
0
 46
0.0
 50
0.0
 44
0.0
 45
0.0
 49
-3.0
 74
     4
 75
     0
340
0
 46
0.0
 50
0.0
 44
0.0
 45
0.0
 49
0.0
 74
     4
 75
     0
340
0
 46
0.0
 50
0.0
 44
0.0
 45
0.0
 49
-3.0
 74
     4
 75
     0
340
0
 46
0.0
 50
0.0
 44
0.0
 45
0.0
 49
0.0
 74
     4
 75
     0
340
0
 46
0.0
 50
0.0
 44
0.0
 45
0.0
 49
-3.0
 74
     4
 75
     0
340
0
 46
0.0
 50
0.0
 44
0.0
 45
0.0
  0
LTYPE
  5
63
330
5
100
AcDbSymbolTableRecord
100
AcDbLinetypeTableRecord
  2
ACAD_ISO09W100
 70
     0
  3
ISO long-dash double-short-dash ____ __ __ ____
 72
    65
 73
     6
 40
45.0
 49
24.0
 74
     4
 75
     0
340
0
 46
0.0
 50
0.0
 44
0.0
 45
0.0
 49
-3.0
 74
     4
 75
     0
340
0
 46
0.0
 50
0.0
 44
0.0
 45
0.0
 49
6.0
 74
     4
 75
     0
340
0
 46
0.0
 50
0.0
 44
0.0
 45
0.0
 49
-3.0
 74
     4
 75
     0
340
0
 46
0.0
 50
0.0
 44
0.0
 45
0.0
 49
6.0
 74
     4
 75
     0
340
0
 46
0.0
 50
0.0
 44
0.0
 45
0.0
 49
-3.0
 74
     4
 75
     0
340
0
 46
0.0
 50
0.0
 44
0.0
 45
0.0
  0
LTYPE
  5
64
330
5
100
AcDbSymbolTableRecord
100
AcDbLinetypeTableRecord
  2
CENTER
 70
     0
  3
____ _ ____ _ ____ _ ____
 72
    65
 73
     4
 40
47.4
 49
22.0
 74
     4
 75
     0
340
0
 46
0.0
 50
0.0
 44
0.0
 45
0.0
 49
-8.5
 74
     4
 75
     0
340
0
 46
0.0
 50
0.0
 44
0.0
 45
0.0
 49
8.5
 74
     4
 75
     0
340
0
 46
0.0
 50
0.0
 44
0.0
 45
0.0
 49
-8.5
 74
     4
 75
     0
340
0
 46
0.0
 50
0.0
 44
0.0
 45
0.0
  0
LTYPE
  5
65
330
5
100
AcDbSymbolTableRecord
100
AcDbLinetypeTableRecord
  2
DASHDOT
 70
     0
  3
_._._._._._._._._._._._._._._._.
 72
    65
 73
     4
 40
70.0
 49
31.0
 74
     4
 75
     0
340
0
 46
0.0
 50
0.0
 44
0.0
 45
0.0
 49
-13.0
 74
     4
 75
     0
340
0
 46
0.0
 50
0.0
 44
0.0
 45
0.0
 49
13.0
 74
     4
 75
     0
340
0
 46
0.0
 50
0.0
 44
0.0
 45
0.0
 49
-13.0
 74
     4
 75
     0
340
0
 46
0.0
 50
0.0
 44
0.0
 45
0.0
  0
LTYPE
  5
66
330
5
100
AcDbSymbolTableRecord
100
AcDbLinetypeTableRecord
  2
DASHED
 70
     0
  3
__ __ __ __ __ __ __ __ __
 72
    65
 73
     2
 40
25.72
 49
12.86
 74
     4
 75
     0
340
0
 46
0.0
 50
0.0
 44
0.0
 45
0.0
 49
-12.86
 74
     4
 75
     0
340
0
 46
0.0
 50
0.0
 44
0.0
 45
0.0
  0
LTYPE
  5
67
330
5
100
AcDbSymbolTableRecord
100
AcDbLinetypeTableRecord
  2
DOT
 70
     0
  3
.........................
 72
    65
 73
     2
 40
10.0
 49
0.0
 74
     4
 75
     0
340
0
 46
0.0
 50
0.0
 44
0.0
 45
0.0
 49
-10.0
 74
     4
 75
     0
340
0
 46
0.0
 50
0.0
 44
0.0
 45
0.0
  0
LTYPE
  5
68
330
5
100
AcDbSymbolTableRecord
100
AcDbLinetypeTableRecord
  2
PHANTOM
 70
     0
  3
____ _ _ ____ _ _ _____ _ _ ____
 72
    65
 73
     6
 40
50.5
 49
18.0
 74
     4
 75
     0
340
0
 46
0.0
 50
0.0
 44
0.0
 45
0.0
 49
-6.5
 74
     4
 75
     0
340
0
 46
0.0
 50
0.0
 44
0.0
 45
0.0
 49
6.5
 74
     4
 75
     0
340
0
 46
0.0
 50
0.0
 44
0.0
 45
0.0
 49
-6.5
 74
     4
 75
     0
340
0
 46
0.0
 50
0.0
 44
0.0
 45
0.0
 49
6.5
 74
     4
 75
     0
340
0
 46
0.0
 50
0.0
 44
0.0
 45
0.0
 49
-6.5
 74
     4
 75
     0
340
0
 46
0.0
 50
0.0
 44
0.0
 45
0.0
  0
ENDTAB
  0
TABLE
  2
LAYER
  5
2
330
0
100
AcDbSymbolTable
 70
     5
  0
LAYER
  5
10
330
2
100
AcDbSymbolTableRecord
100
AcDbLayerTableRecord
  2
0
 70
     0
 62
     7
  6
Continuous
370
    -3
390
F
  0
LAYER
  5
69
330
2
100
AcDbSymbolTableRecord
100
AcDbLayerTableRecord
  2
Top$1
 70
     0
 62
     7
420
 16777215
  6
Continuous
370
    -3
390
F
  0
LAYER
  5
6A
330
2
100
AcDbSymbolTableRecord
100
AcDbLayerTableRecord
  2
ORTHO$3
 70
     0
 62
     7
420
 16777215
  6
Continuous
370
    -3
390
F
  0
LAYER
  5
C8
330
2
100
AcDbSymbolTableRecord
100
AcDbLayerTableRecord
  2
Defpoints
 70
     0
 62
     7
  6
Continuous
290
     0
370
    -3
390
F
  0
LAYER
  5
D5
330
2
100
AcDbSymbolTableRecord
100
AcDbLayerTableRecord
  2
1
 70
     0
 62
     7
420
 16777215
  6
Continuous
370
    -3
390
F
  0
ENDTAB
  0
TABLE
  2
STYLE
  5
3
330
0
100
AcDbSymbolTable
 70
     2
  0
STYLE
  5
11
330
3
100
AcDbSymbolTableRecord
100
AcDbTextStyleTableRecord
  2
Standard
 70
     0
 40
0.0
 41
1.0
 50
0.0
 71
     0
 42
0.2
  3
txt
  4

  0
STYLE
  5
C5
330
3
100
AcDbSymbolTableRecord
100
AcDbTextStyleTableRecord
  2
Arial Unicode MS
 70
     0
 40
0.0
 41
1.0
 50
0.0
 71
     0
 42
0.2
  3
ARIALUNI.ttf
  4

1001
ACAD
1000
Arial Unicode MS
1071
        0
  0
ENDTAB
  0
TABLE
  2
VIEW
  5
6
330
0
100
AcDbSymbolTable
 70
     0
  0
ENDTAB
  0
TABLE
  2
UCS
  5
7
330
0
100
AcDbSymbolTable
 70
     0
  0
ENDTAB
  0
TABLE
  2
APPID
  5
9
330
0
100
AcDbSymbolTable
 70
     6
  0
APPID
  5
12
330
9
100
AcDbSymbolTableRecord
100
AcDbRegAppTableRecord
  2
ACAD
 70
     0
  0
APPID
  5
C3
330
9
100
AcDbSymbolTableRecord
100
AcDbRegAppTableRecord
  2
ACAD_DSTYLE_DIMBREAK
 70
     0
  0
APPID
  5
152
330
9
100
AcDbSymbolTableRecord
100
AcDbRegAppTableRecord
  2
ACAD_DSTYLE_DIM_LINETYPE
 70
     0
  0
APPID
  5
153
330
9
100
AcDbSymbolTableRecord
100
AcDbRegAppTableRecord
  2
ACAD_DSTYLE_DIM_EXT1_LINETYPE
 70
     0
  0
APPID
  5
154
330
9
100
AcDbSymbolTableRecord
100
AcDbRegAppTableRecord
  2
ACAD_DSTYLE_DIM_EXT2_LINETYPE
 70
     0
  0
APPID
  5
194
330
9
100
AcDbSymbolTableRecord
100
AcDbRegAppTableRecord
  2
ACAD_MLEADERVER
 70
     0
  0
ENDTAB
  0
TABLE
  2
DIMSTYLE
  5
A
330
0
100
AcDbSymbolTable
 70
     1
100
AcDbDimStyleTable
  0
DIMSTYLE
105
27
102
{ACAD_REACTORS
330
C4
330
DF
330
F7
330
111
330
129
102
}
330
A
100
AcDbSymbolTableRecord
100
AcDbDimStyleTableRecord
  2
Standard
 70
     0
178
     0
340
11
1001
ACAD_DSTYLE_DIMBREAK
1070
   391
1040
6.35
  0
ENDTAB
  0
TABLE
  2
BLOCK_RECORD
  5
1
330
0
100
AcDbSymbolTable
 70
    10
  0
BLOCK_RECORD
  5
1F
330
1
100
AcDbSymbolTableRecord
100
AcDbBlockTableRecord
  2
*Model_Space
340
22
  0
BLOCK_RECORD
  5
BD
330
1
100
AcDbSymbolTableRecord
100
AcDbBlockTableRecord
  2
*PAPER_SPACE
340
13B
  0
BLOCK_RECORD
  5
C9
330
1
100
AcDbSymbolTableRecord
100
AcDbBlockTableRecord
  2
*D2
340
0
  0
BLOCK_RECORD
  5
D6
330
1
100
AcDbSymbolTableRecord
100
AcDbBlockTableRecord
  2
_U0
340
0
  0
BLOCK_RECORD
  5
E2
330
1
100
AcDbSymbolTableRecord
100
AcDbBlockTableRecord
  2
*D4
340
0
  0
BLOCK_RECORD
  5
EE
330
1
100
AcDbSymbolTableRecord
100
AcDbBlockTableRecord
  2
_U1
340
0
  0
BLOCK_RECORD
  5
FA
330
1
100
AcDbSymbolTableRecord
100
AcDbBlockTableRecord
  2
*D6
340
0
  0
BLOCK_RECORD
  5
108
330
1
100
AcDbSymbolTableRecord
100
AcDbBlockTableRecord
  2
_U2
340
0
  0
BLOCK_RECORD
  5
114
330
1
100
AcDbSymbolTableRecord
100
AcDbBlockTableRecord
  2
*D8
340
0
  0
BLOCK_RECORD
  5
120
330
1
100
AcDbSymbolTableRecord
100
AcDbBlockTableRecord
  2
_U3
340
0
  0
BLOCK_RECORD
  5
12C
330
1
100
AcDbSymbolTableRecord
100
AcDbBlockTableRecord
  2
*D10
340
0
  0
BLOCK_RECORD
  5
134
330
1
100
AcDbSymbolTableRecord
100
AcDbBlockTableRecord
  2
_U4
340
0
  0
ENDTAB
  0
ENDSEC
  0
SECTION
  2
BLOCKS
  0
BLOCK
  5
20
330
1F
100
AcDbEntity
  8
0
100
AcDbBlockBegin
  2
*Model_Space
 70
     0
 10
0.0
 20
0.0
 30
0.0
  3
*Model_Space
  1

  0
ENDBLK
  5
21
330
1F
100
AcDbEntity
  8
0
100
AcDbBlockEnd
  0
BLOCK
  5
BE
330
BD
100
AcDbEntity
 67
     1
  8
0
100
AcDbBlockBegin
  2
*PAPER_SPACE
 70
     0
 10
0.0
 20
0.0
 30
0.0
  3
*PAPER_SPACE
  1

  0
ENDBLK
  5
BF
330
BD
100
AcDbEntity
 67
     1
  8
0
100
AcDbBlockEnd
  0
BLOCK
  5
CA
330
C9
100
AcDbEntity
  8
0
100
AcDbBlockBegin
  2
*D2
 70
     1
 10
0.0
 20
0.0
 30
0.0
  3
*D2
  1

  0
LINE
  5
CC
330
C9
100
AcDbEntity
  8
0
 62
    18
370
    -2
100
AcDbLine
 10
126.573033
 20
265.953633
 30
0.0
 11
126.573033
 21
35.430952
 31
0.0
  0
LINE
  5
CD
330
C9
100
AcDbEntity
  8
0
 62
    18
370
    -2
100
AcDbLine
 10
606.573033
 20
265.953633
 30
0.0
 11
606.573033
 21
35.430952
 31
0.0
  0
LINE
  5
CE
330
C9
100
AcDbEntity
  8
0
 62
    18
370
    -2
100
AcDbLine
 10
146.573033
 20
37.430952
 30
0.0
 11
586.573033
 21
37.430952
 31
0.0
  0
SOLID
  5
CF
330
C9
100
AcDbEntity
  8
0
 62
    18
100
AcDbTrace
 10
146.573033
 20
40.764286
 30
0.0
 11
146.573033
 21
34.097619
 31
0.0
 12
126.573033
 22
37.430952
 32
0.0
 13
126.573033
 23
37.430952
 33
0.0
  0
SOLID
  5
D0
330
C9
100
AcDbEntity
  8
0
 62
    18
100
AcDbTrace
 10
586.573033
 20
34.097619
 30
0.0
 11
586.573033
 21
40.764286
 31
0.0
 12
606.573033
 22
37.430952
 32
0.0
 13
606.573033
 23
37.430952
 33
0.0
  0
MTEXT
  5
D1
330
C9
100
AcDbEntity
  8
0
 62
    18
370
    25
100
AcDbMText
 10
366.573033
 20
61.563084
 30
0.0
 40
12.0
 41
0.0
 71
     5
 72
     1
  1
\A1;480
  7
Arial Unicode MS
 73
     1
 44
1.0
  0
POINT
  5
D2
330
C9
100
AcDbEntity
  8
Defpoints
 62
     0
100
AcDbPoint
 10
126.573033
 20
266.953633
 30
0.0
  0
POINT
  5
D3
330
C9
100
AcDbEntity
  8
Defpoints
 62
     0
100
AcDbPoint
 10
606.573033
 20
266.953633
 30
0.0
  0
POINT
  5
D4
330
C9
100
AcDbEntity
  8
Defpoints
 62
     0
100
AcDbPoint
 10
606.573033
 20
37.430952
 30
0.0
  0
ENDBLK
  5
CB
330
C9
100
AcDbEntity
  8
0
100
AcDbBlockEnd
  0
BLOCK
  5
DD
330
D6
100
AcDbEntity
  8
0
100
AcDbBlockBegin
  2
_U0
 70
     0
 10
0.0
 20
0.0
 30
0.0
  3
_U0
  1

  0
MTEXT
  5
D7
330
D6
100
AcDbEntity
  8
1
  6
Continuous
 62
    18
370
    13
100
AcDbMText
 10
353.82404
 20
39.428195
 30
0.0
 40
12.0
 41
0.0
 71
     7
 72
     5
  1
\fArial Unicode MS|b0|i0;\W1.0000;480
  7
Arial Unicode MS
 73
     2
 44
1.069626
  0
LINE
  5
D8
330
D6
100
AcDbEntity
  8
1
 62
    18
370
    13
100
AcDbLine
 10
126.573033
 20
265.953633
 30
0.0
 11
126.573033
 21
35.430952
 31
0.0
  0
LINE
  5
D9
330
D6
100
AcDbEntity
  8
1
 62
    18
370
    13
100
AcDbLine
 10
606.573033
 20
265.953633
 30
0.0
 11
606.573033
 21
35.430952
 31
0.0
  0
LINE
  5
DA
330
D6
100
AcDbEntity
  8
1
 62
    18
370
    13
100
AcDbLine
 10
126.573033
 20
37.430952
 30
0.0
 11
606.573033
 21
37.430952
 31
0.0
  0
SOLID
  5
DB
330
D6
100
AcDbEntity
  8
1
 62
    18
370
    25
100
AcDbTrace
 10
126.573033
 20
37.430952
 30
0.0
 11
146.573023
 21
40.064002
 31
0.0
 12
146.573043
 22
34.797902
 32
0.0
 13
146.573043
 23
34.797902
 33
0.0
  0
SOLID
  5
DC
330
D6
100
AcDbEntity
  8
1
 62
    18
370
    25
100
AcDbTrace
 10
606.573033
 20
37.430952
 30
0.0
 11
586.573043
 21
34.797902
 31
0.0
 12
586.573023
 22
40.064002
 32
0.0
 13
586.573023
 23
40.064002
 33
0.0
  0
ENDBLK
  5
DE
330
D6
100
AcDbEntity
  8
0
100
AcDbBlockEnd
  0
BLOCK
  5
E3
330
E2
100
AcDbEntity
  8
0
100
AcDbBlockBegin
  2
*D4
 70
     1
 10
0.0
 20
0.0
 30
0.0
  3
*D4
  1

  0
LINE
  5
E5
330
E2
100
AcDbEntity
  8
0
 62
    18
370
    -2
100
AcDbLine
 10
365.573033
 20
96.953633
 30
0.0
 11
74.556364
 21
96.953633
 31
0.0
  0
LINE
  5
E6
330
E2
100
AcDbEntity
  8
0
 62
    18
370
    -2
100
AcDbLine
 10
365.573033
 20
436.953633
 30
0.0
 11
74.556364
 21
436.953633
 31
0.0
  0
LINE
  5
E7
330
E2
100
AcDbEntity
  8
0
 62
    18
370
    -2
100
AcDbLine
 10
76.556364
 20
116.953633
 30
0.0
 11
76.556364
 21
416.953633
 31
0.0
  0
SOLID
  5
E8
330
E2
100
AcDbEntity
  8
0
 62
    18
100
AcDbTrace
 10
73.223031
 20
116.953633
 30
0.0
 11
79.889698
 21
116.953633
 31
0.0
 12
76.556364
 22
96.953633
 32
0.0
 13
76.556364
 23
96.953633
 33
0.0
  0
SOLID
  5
E9
330
E2
100
AcDbEntity
  8
0
 62
    18
100
AcDbTrace
 10
79.889698
 20
416.953633
 30
0.0
 11
73.223031
 21
416.953633
 31
0.0
 12
76.556364
 22
436.953633
 32
0.0
 13
76.556364
 23
436.953633
 33
0.0
  0
MTEXT
  5
EA
330
E2
100
AcDbEntity
  8
0
 62
    18
370
    25
100
AcDbMText
 10
52.424232
 20
266.953633
 30
0.0
 40
12.0
 41
0.0
 71
     5
 72
     1
  1
\A1;340
  7
Arial Unicode MS
 11
-4.179663151530047E-17
 21
1.0
 31
0.0
 73
     1
 44
1.0
  0
POINT
  5
EB
330
E2
100
AcDbEntity
  8
Defpoints
 62
     0
100
AcDbPoint
 10
366.573033
 20
96.953633
 30
0.0
  0
POINT
  5
EC
330
E2
100
AcDbEntity
  8
Defpoints
 62
     0
100
AcDbPoint
 10
366.573033
 20
436.953633
 30
0.0
  0
POINT
  5
ED
330
E2
100
AcDbEntity
  8
Defpoints
 62
     0
100
AcDbPoint
 10
76.556364
 20
436.953633
 30
0.0
  0
ENDBLK
  5
E4
330
E2
100
AcDbEntity
  8
0
100
AcDbBlockEnd
  0
BLOCK
  5
F5
330
EE
100
AcDbEntity
  8
0
100
AcDbBlockBegin
  2
_U1
 70
     0
 10
0.0
 20
0.0
 30
0.0
  3
_U1
  1

  0
MTEXT
  5
EF
330
EE
100
AcDbEntity
  8
1
  6
Continuous
 62
    18
370
    13
100
AcDbMText
 10
75.735122
 20
254.10864
 30
0.0
 40
12.0
 41
0.0
 71
     7
 72
     5
  1
\fArial Unicode MS|b0|i0;\W1.0000;340
  7
Arial Unicode MS
 11
6.123233995736766E-17
 21
1.0
 31
0.0
 73
     2
 44
1.069626
  0
LINE
  5
F0
330
EE
100
AcDbEntity
  8
1
 62
    18
370
    13
100
AcDbLine
 10
365.573033
 20
96.953633
 30
0.0
 11
74.556364
 21
96.953633
 31
0.0
  0
LINE
  5
F1
330
EE
100
AcDbEntity
  8
1
 62
    18
370
    13
100
AcDbLine
 10
365.573033
 20
436.953633
 30
0.0
 11
74.556364
 21
436.953633
 31
0.0
  0
LINE
  5
F2
330
EE
100
AcDbEntity
  8
1
 62
    18
370
    13
100
AcDbLine
 10
76.556364
 20
96.953633
 30
0.0
 11
76.556364
 21
436.953633
 31
0.0
  0
SOLID
  5
F3
330
EE
100
AcDbEntity
  8
1
 62
    18
370
    25
100
AcDbTrace
 10
76.556364
 20
96.953633
 30
0.0
 11
73.923315
 21
116.953623
 31
0.0
 12
79.189414
 22
116.953643
 32
0.0
 13
79.189414
 23
116.953643
 33
0.0
  0
SOLID
  5
F4
330
EE
100
AcDbEntity
  8
1
 62
    18
370
    25
100
AcDbTrace
 10
76.556364
 20
436.953633
 30
0.0
 11
79.189414
 21
416.953643
 31
0.0
 12
73.923315
 22
416.953623
 32
0.0
 13
73.923315
 23
416.953623
 33
0.0
  0
ENDBLK
  5
F6
330
EE
100
AcDbEntity
  8
0
100
AcDbBlockEnd
  0
BLOCK
  5
FB
330
FA
100
AcDbEntity
  8
0
100
AcDbBlockBegin
  2
*D6
 70
     1
 10
0.0
 20
0.0
 30
0.0
  3
*D6
  1

  0
LINE
  5
FD
330
FA
100
AcDbEntity
  8
0
 62
    18
370
    -2
100
AcDbLine
 10
365.573033
 20
451.953633
 30
0.0
 11
74.556364
 21
451.953633
 31
0.0
  0
LINE
  5
FE
330
FA
100
AcDbEntity
  8
0
 62
    18
370
    -2
100
AcDbLine
 10
365.573033
 20
436.953633
 30
0.0
 11
74.556364
 21
436.953633
 31
0.0
  0
LINE
  5
FF
330
FA
100
AcDbEntity
  8
0
 62
    18
370
    -2
100
AcDbLine
 10
76.556364
 20
451.953633
 30
0.0
 11
76.556364
 21
544.085765
 31
0.0
  0
LINE
  5
100
330
FA
100
AcDbEntity
  8
0
 62
    18
370
    -2
100
AcDbLine
 10
76.556364
 20
471.953633
 30
0.0
 11
76.556364
 21
491.953633
 31
0.0
  0
LINE
  5
101
330
FA
100
AcDbEntity
  8
0
 62
    18
370
    -2
100
AcDbLine
 10
76.556364
 20
416.953633
 30
0.0
 11
76.556364
 21
396.953633
 31
0.0
  0
SOLID
  5
102
330
FA
100
AcDbEntity
  8
0
 62
    18
100
AcDbTrace
 10
73.223031
 20
471.953633
 30
0.0
 11
79.889698
 21
471.953633
 31
0.0
 12
76.556364
 22
451.953633
 32
0.0
 13
76.556364
 23
451.953633
 33
0.0
  0
SOLID
  5
103
330
FA
100
AcDbEntity
  8
0
 62
    18
100
AcDbTrace
 10
79.889698
 20
416.953633
 30
0.0
 11
73.223031
 21
416.953633
 31
0.0
 12
76.556364
 22
436.953633
 32
0.0
 13
76.556364
 23
436.953633
 33
0.0
  0
MTEXT
  5
104
330
FA
100
AcDbEntity
  8
0
 62
    18
370
    25
100
AcDbMText
 10
52.424232
 20
518.019699
 30
0.0
 40
12.0
 41
0.0
 71
     5
 72
     1
  1
\A1;15
  7
Arial Unicode MS
 11
0.0
 21
1.0
 31
0.0
 73
     1
 44
1.0
  0
POINT
  5
105
330
FA
100
AcDbEntity
  8
Defpoints
 62
     0
100
AcDbPoint
 10
366.573033
 20
451.953633
 30
0.0
  0
POINT
  5
106
330
FA
100
AcDbEntity
  8
Defpoints
 62
     0
100
AcDbPoint
 10
366.573033
 20
436.953633
 30
0.0
  0
POINT
  5
107
330
FA
100
AcDbEntity
  8
Defpoints
 62
     0
100
AcDbPoint
 10
76.556364
 20
436.953633
 30
0.0
  0
ENDBLK
  5
FC
330
FA
100
AcDbEntity
  8
0
100
AcDbBlockEnd
  0
BLOCK
  5
10F
330
108
100
AcDbEntity
  8
0
100
AcDbBlockBegin
  2
_U2
 70
     0
 10
0.0
 20
0.0
 30
0.0
  3
_U2
  1

  0
MTEXT
  5
109
330
108
100
AcDbEntity
  8
1
  6
Continuous
 62
    18
370
    13
100
AcDbMText
 10
75.735122
 20
478.154134
 30
0.0
 40
12.0
 41
0.0
 71
     7
 72
     5
  1
\fArial Unicode MS|b0|i0;\W1.0000;15
  7
Arial Unicode MS
 11
6.123233995736766E-17
 21
1.0
 31
0.0
 73
     2
 44
1.069626
  0
LINE
  5
10A
330
108
100
AcDbEntity
  8
1
 62
    18
370
    13
100
AcDbLine
 10
365.573033
 20
451.953633
 30
0.0
 11
74.556364
 21
451.953633
 31
0.0
  0
LINE
  5
10B
330
108
100
AcDbEntity
  8
1
 62
    18
370
    13
100
AcDbLine
 10
365.573033
 20
436.953633
 30
0.0
 11
74.556364
 21
436.953633
 31
0.0
  0
LINE
  5
10C
330
108
100
AcDbEntity
  8
1
 62
    18
370
    13
100
AcDbLine
 10
76.556364
 20
435.753633
 30
0.0
 11
76.556364
 21
495.060792
 31
0.0
  0
SOLID
  5
10D
330
108
100
AcDbEntity
  8
1
 62
    18
370
    25
100
AcDbTrace
 10
76.556364
 20
451.953633
 30
0.0
 11
73.923315
 21
471.953623
 31
0.0
 12
79.189414
 22
471.953643
 32
0.0
 13
79.189414
 23
471.953643
 33
0.0
  0
SOLID
  5
10E
330
108
100
AcDbEntity
  8
1
 62
    18
370
    25
100
AcDbTrace
 10
76.556364
 20
436.953633
 30
0.0
 11
79.189414
 21
416.953643
 31
0.0
 12
73.923315
 22
416.953623
 32
0.0
 13
73.923315
 23
416.953623
 33
0.0
  0
ENDBLK
  5
110
330
108
100
AcDbEntity
  8
0
100
AcDbBlockEnd
  0
BLOCK
  5
115
330
114
100
AcDbEntity
  8
0
100
AcDbBlockBegin
  2
*D8
 70
     1
 10
0.0
 20
0.0
 30
0.0
  3
*D8
  1

  0
LINE
  5
117
330
114
100
AcDbEntity
  8
0
 62
    18
370
    -2
100
AcDbLine
 10
110.573033
 20
748.45726
 30
0.0
 11
81.556364
 21
748.45726
 31
0.0
  0
LINE
  5
118
330
114
100
AcDbEntity
  8
0
 62
    18
370
    -2
100
AcDbLine
 10
365.573033
 20
565.93526
 30
0.0
 11
81.556364
 21
565.93526
 31
0.0
  0
LINE
  5
119
330
114
100
AcDbEntity
  8
0
 62
    18
370
    -2
100
AcDbLine
 10
83.556364
 20
728.45726
 30
0.0
 11
83.556364
 21
585.93526
 31
0.0
  0
SOLID
  5
11A
330
114
100
AcDbEntity
  8
0
 62
    18
100
AcDbTrace
 10
86.889698
 20
728.45726
 30
0.0
 11
80.223031
 21
728.45726
 31
0.0
 12
83.556364
 22
748.45726
 32
0.0
 13
83.556364
 23
748.45726
 33
0.0
  0
SOLID
  5
11B
330
114
100
AcDbEntity
  8
0
 62
    18
100
AcDbTrace
 10
80.223031
 20
585.93526
 30
0.0
 11
86.889698
 21
585.93526
 31
0.0
 12
83.556364
 22
565.93526
 32
0.0
 13
83.556364
 23
565.93526
 33
0.0
  0
MTEXT
  5
11C
330
114
100
AcDbEntity
  8
0
 62
    18
370
    25
100
AcDbMText
 10
59.424232
 20
657.19626
 30
0.0
 40
12.0
 41
0.0
 71
     5
 72
     1
  1
\A1;182.522
  7
Arial Unicode MS
 11
7.785831141014239E-17
 21
1.0
 31
0.0
 73
     1
 44
1.0
  0
POINT
  5
11D
330
114
100
AcDbEntity
  8
Defpoints
 62
     0
100
AcDbPoint
 10
111.573033
 20
748.45726
 30
0.0
  0
POINT
  5
11E
330
114
100
AcDbEntity
  8
Defpoints
 62
     0
100
AcDbPoint
 10
366.573033
 20
565.93526
 30
0.0
  0
POINT
  5
11F
330
114
100
AcDbEntity
  8
Defpoints
 62
     0
100
AcDbPoint
 10
83.556364
 20
565.93526
 30
0.0
  0
ENDBLK
  5
116
330
114
100
AcDbEntity
  8
0
100
AcDbBlockEnd
  0
BLOCK
  5
127
330
120
100
AcDbEntity
  8
0
100
AcDbBlockBegin
  2
_U3
 70
     0
 10
0.0
 20
0.0
 30
0.0
  3
_U3
  1

  0
MTEXT
  5
121
330
120
100
AcDbEntity
  8
1
  6
Continuous
 62
    18
370
    13
100
AcDbMText
 10
82.735122
 20
644.351267
 30
0.0
 40
12.0
 41
0.0
 71
     7
 72
     5
  1
\fArial Unicode MS|b0|i0;\W1.0000;184
  7
Arial Unicode MS
 11
6.123233995736766E-17
 21
1.0
 31
0.0
 73
     2
 44
1.069626
  0
LINE
  5
122
330
120
100
AcDbEntity
  8
1
 62
    18
370
    13
100
AcDbLine
 10
110.573033
 20
748.45726
 30
0.0
 11
81.556364
 21
748.45726
 31
0.0
  0
LINE
  5
123
330
120
100
AcDbEntity
  8
1
 62
    18
370
    13
100
AcDbLine
 10
365.573033
 20
565.93526
 30
0.0
 11
81.556364
 21
565.93526
 31
0.0
  0
LINE
  5
124
330
120
100
AcDbEntity
  8
1
 62
    18
370
    13
100
AcDbLine
 10
83.556364
 20
748.45726
 30
0.0
 11
83.556364
 21
565.93526
 31
0.0
  0
SOLID
  5
125
330
120
100
AcDbEntity
  8
1
 62
    18
370
    25
100
AcDbTrace
 10
83.556364
 20
748.45726
 30
0.0
 11
86.189414
 21
728.45727
 31
0.0
 12
80.923315
 22
728.45725
 32
0.0
 13
80.923315
 23
728.45725
 33
0.0
  0
SOLID
  5
126
330
120
100
AcDbEntity
  8
1
 62
    18
370
    25
100
AcDbTrace
 10
83.556364
 20
565.93526
 30
0.0
 11
80.923315
 21
585.93525
 31
0.0
 12
86.189414
 22
585.93527
 32
0.0
 13
86.189414
 23
585.93527
 33
0.0
  0
ENDBLK
  5
128
330
120
100
AcDbEntity
  8
0
100
AcDbBlockEnd
  0
BLOCK
  5
12D
330
12C
100
AcDbEntity
  8
0
100
AcDbBlockBegin
  2
*D10
 70
     1
 10
0.0
 20
0.0
 30
0.0
  3
*D10
  1

  0
LINE
  5
12F
330
12C
100
AcDbEntity
  8
0
 62
    18
370
    -2
100
AcDbLine
 10
565.110346
 20
396.67609
 30
0.0
 11
510.406719
 21
337.712363
 31
0.0
  0
MTEXT
  5
130
330
12C
100
AcDbEntity
  8
0
 62
    18
370
    25
100
AcDbMText
 10
514.708453
 20
377.830857
 30
0.0
 40
12.0
 41
0.0
 71
     5
 72
     1
  1
\A1;R80
  7
Arial Unicode MS
 11
0.6801278615448707
 21
0.7330935083264626
 31
0.0
 73
     1
 44
1.0
  0
SOLID
  5
131
330
12C
100
AcDbEntity
  8
0
 62
    18
100
AcDbTrace
 10
567.553991
 20
394.408998
 30
0.0
 11
562.666701
 21
398.943183
 31
0.0
 12
578.712904
 22
411.337961
 32
0.0
 13
578.712904
 23
411.337961
 33
0.0
  0
POINT
  5
132
330
12C
100
AcDbEntity
  8
Defpoints
 62
     0
100
AcDbPoint
 10
578.712904
 20
411.337961
 30
0.0
  0
POINT
  5
133
330
12C
100
AcDbEntity
  8
Defpoints
 62
     0
100
AcDbPoint
 10
524.302675
 20
352.69048
 30
0.0
  0
ENDBLK
  5
12E
330
12C
100
AcDbEntity
  8
0
100
AcDbBlockEnd
  0
BLOCK
  5
139
330
134
100
AcDbEntity
  8
0
100
AcDbBlockBegin
  2
_U4
 70
     0
 10
0.0
 20
0.0
 30
0.0
  3
_U4
  1

  0
MTEXT
  5
135
330
134
100
AcDbEntity
  8
1
  6
Continuous
 62
    18
370
    13
100
AcDbMText
 10
530.151243
 20
360.991583
 30
0.0
 40
12.0
 41
0.0
 71
     7
 72
     5
  1
\fArial Unicode MS|b0|i0;\W1.0000;80
  7
Arial Unicode MS
 11
0.6801278615448685
 21
0.7330935083264646
 31
0.0
 73
     2
 44
1.069626
  0
MTEXT
  5
136
330
134
100
AcDbEntity
  8
1
  6
Continuous
 62
    18
370
    13
100
AcDbMText
 10
521.917335
 20
352.11645
 30
0.0
 40
12.0
 41
0.0
 71
     7
 72
     5
  1
\fArial Unicode MS|b0|i0;\W1.0000;R
  7
Arial Unicode MS
 11
0.6801278615448685
 21
0.7330935083264646
 31
0.0
 73
     2
 44
1.069626
  0
LINE
  5
137
330
134
100
AcDbEntity
  8
1
 62
    18
370
    13
100
AcDbLine
 10
578.712904
 20
411.337961
 30
0.0
 11
522.349629
 21
350.585339
 31
0.0
  0
SOLID
  5
138
330
134
100
AcDbEntity
  8
1
 62
    18
370
    25
100
AcDbTrace
 10
578.712904
 20
411.337961
 30
0.0
 11
567.040625
 21
394.885287
 31
0.0
 12
563.180068
 22
398.466894
 32
0.0
 13
563.180068
 23
398.466894
 33
0.0
  0
ENDBLK
  5
13A
330
134
100
AcDbEntity
  8
0
100
AcDbBlockEnd
  0
ENDSEC
  0
SECTION
  2
ENTITIES
  0
POINT
  5
6B
102
{ACAD_REACTORS
330
113
102
}
330
1F
100
AcDbEntity
  8
ORTHO$3
  6
Continuous
 62
   173
 60
     1
370
    25
100
AcDbPoint
 10
-255.0
 20
0.0
 30
91.252087
  0
POINT
  5
6C
102
{ACAD_REACTORS
330
113
102
}
330
1F
100
AcDbEntity
  8
ORTHO$3
  6
Continuous
 62
   173
 60
     1
370
    25
100
AcDbPoint
 10
0.0
 20
0.0
 30
-91.269913
  0
LINE
  5
6D
330
1F
100
AcDbEntity
  8
ORTHO$3
  6
Continuous
 62
    18
370
    35
100
AcDbLine
 10
-240.6
 20
0.0
 30
89.152087
 11
-240.6
 21
0.0
 31
86.252087
  0
LINE
  5
6E
330
1F
100
AcDbEntity
  8
ORTHO$3
  6
Continuous
 62
    18
370
    35
100
AcDbLine
 10
240.6
 20
0.0
 30
86.252087
 11
240.6
 21
0.0
 31
89.152087
  0
LINE
  5
6F
330
1F
100
AcDbEntity
  8
ORTHO$3
  6
Continuous
 62
    18
370
    35
100
AcDbLine
 10
193.429956
 20
0.0
 30
-79.977242
 11
59.448707
 21
0.0
 31
-89.346124
  0
LINE
  5
70
330
1F
100
AcDbEntity
  8
ORTHO$3
  6
Continuous
 62
    18
370
    35
100
AcDbLine
 10
-193.429956
 20
0.0
 30
-79.977242
 11
-59.448707
 21
0.0
 31
-89.346124
  0
LINE
  5
71
330
1F
100
AcDbEntity
  8
ORTHO$3
  6
Continuous
 62
    18
370
    35
100
AcDbLine
 10
162.861257
 20
0.0
 30
90.652087
 11
252.596503
 21
0.0
 31
90.652087
  0
LINE
  5
72
330
1F
100
AcDbEntity
  8
ORTHO$3
  6
Continuous
 62
    18
370
    35
100
AcDbLine
 10
162.861257
 20
0.0
 30
91.252087
 11
252.596503
 21
0.0
 31
91.252087
  0
LINE
  5
73
330
1F
100
AcDbEntity
  8
ORTHO$3
  6
Continuous
 62
    18
370
    35
100
AcDbLine
 10
-252.596503
 20
0.0
 30
90.652087
 11
-162.861257
 21
0.0
 31
90.652087
  0
LINE
  5
74
330
1F
100
AcDbEntity
  8
ORTHO$3
  6
Continuous
 62
    18
370
    35
100
AcDbLine
 10
-252.596503
 20
0.0
 30
91.252087
 11
-162.861257
 21
0.0
 31
91.252087
  0
LINE
  5
75
330
1F
100
AcDbEntity
  8
ORTHO$3
  6
Continuous
 62
    18
370
    35
100
AcDbLine
 10
-162.861257
 20
0.0
 30
90.652081
 11
162.861257
 21
0.0
 31
90.652081
  0
LINE
  5
76
330
1F
100
AcDbEntity
  8
ORTHO$3
  6
Continuous
 62
    18
370
    35
100
AcDbLine
 10
252.596503
 20
0.0
 30
90.652086
 11
255.0
 21
0.0
 31
90.652086
  0
LINE
  5
77
330
1F
100
AcDbEntity
  8
ORTHO$3
  6
Continuous
 62
    18
370
    35
100
AcDbLine
 10
252.596503
 20
0.0
 30
91.252086
 11
255.0
 21
0.0
 31
91.252086
  0
LINE
  5
78
330
1F
100
AcDbEntity
  8
ORTHO$3
  6
Continuous
 62
    18
370
    35
100
AcDbLine
 10
162.861257
 20
0.0
 30
91.252081
 11
-162.861257
 21
0.0
 31
91.252081
  0
LINE
  5
79
330
1F
100
AcDbEntity
  8
ORTHO$3
  6
Continuous
 62
    18
370
    35
100
AcDbLine
 10
-57.041834
 20
0.0
 30
-91.269913
 11
57.041834
 21
0.0
 31
-91.269913
  0
ARC
  5
7A
330
1F
100
AcDbEntity
  8
Top$1
  6
Continuous
 62
    18
370
    35
100
AcDbCircle
 10
-157.729642
 20
-86.988933
 30
0.0
 40
80.0
210
0.0
220
0.0
230
-1.0
100
AcDbArc
 50
183.033738
 51
266.903547
  0
ARC
  5
7B
330
1F
100
AcDbEntity
  8
Top$1
  6
Continuous
 62
    18
370
    35
100
AcDbCircle
 10
-1460.0
 20
-1.252087
 30
0.0
 40
1715.0
100
AcDbArc
 50
356.966262
 51
359.999999
  0
ARC
  5
7C
330
1F
100
AcDbEntity
  8
Top$1
  6
Continuous
 62
    18
370
    35
100
AcDbCircle
 10
-157.729642
 20
84.48476
 30
0.0
 40
95.0
100
AcDbArc
 50
93.096453
 51
176.966262
  0
ARC
  5
7D
330
1F
100
AcDbEntity
  8
Top$1
  6
Continuous
 62
    18
370
    35
100
AcDbCircle
 10
1460.0
 20
-1.252087
 30
0.0
 40
1715.0
100
AcDbArc
 50
176.966262
 51
179.999999
  0
ARC
  5
7E
330
1F
100
AcDbEntity
  8
Top$1
  6
Continuous
 62
    18
370
    35
100
AcDbCircle
 10
-157.729642
 20
-86.988933
 30
0.0
 40
95.0
100
AcDbArc
 50
183.033738
 51
266.903547
  0
ARC
  5
7F
330
1F
100
AcDbEntity
  8
Top$1
  6
Continuous
 62
    18
370
    35
100
AcDbCircle
 10
0.0
 20
2828.747913
 30
0.0
 40
3015.0
210
0.0
220
0.0
230
-1.0
100
AcDbArc
 50
266.903547
 51
273.096453
  0
ARC
  5
80
330
1F
100
AcDbEntity
  8
Top$1
  6
Continuous
 62
    18
370
    35
100
AcDbCircle
 10
157.729642
 20
-86.988933
 30
0.0
 40
95.0
100
AcDbArc
 50
273.096453
 51
356.966262
  0
ARC
  5
81
330
1F
100
AcDbEntity
  8
Top$1
  6
Continuous
 62
    18
370
    35
100
AcDbCircle
 10
157.729642
 20
84.48476
 30
0.0
 40
95.0
100
AcDbArc
 50
3.033738
 51
86.903547
  0
CIRCLE
  5
82
330
1F
100
AcDbEntity
  8
Top$1
  6
Continuous
 62
    18
370
    35
100
AcDbCircle
 10
0.0
 20
56.747913
 30
0.0
 40
45.0
  0
ARC
  5
83
330
1F
100
AcDbEntity
  8
Top$1
  6
Continuous
 62
    18
370
    35
100
AcDbCircle
 10
157.729642
 20
-86.988933
 30
0.0
 40
80.0
210
0.0
220
0.0
230
-1.0
100
AcDbArc
 50
273.096453
 51
356.966262
  0
ARC
  5
84
330
1F
100
AcDbEntity
  8
Top$1
  6
Continuous
 62
    18
370
    35
100
AcDbCircle
 10
157.729642
 20
84.48476
 30
0.0
 40
80.0
210
0.0
220
0.0
230
-1.0
100
AcDbArc
 50
3.033738
 51
86.903547
  0
ARC
  5
85
102
{ACAD_REACTORS
330
12B
102
}
330
1F
100
AcDbEntity
  8
Top$1
  6
Continuous
 62
    18
370
    35
100
AcDbCircle
 10
-157.729642
 20
84.48476
 30
0.0
 40
80.0
210
0.0
220
0.0
230
-1.0
100
AcDbArc
 50
93.096453
 51
176.966262
  0
ARC
  5
86
102
{ACAD_REACTORS
330
F9
102
}
330
1F
100
AcDbEntity
  8
Top$1
  6
Continuous
 62
    18
370
    35
100
AcDbCircle
 10
0.0
 20
-2831.252087
 30
0.0
 40
3015.0
210
0.0
220
0.0
230
-1.0
100
AcDbArc
 50
86.903547
 51
93.096453
  0
ARC
  5
87
102
{ACAD_REACTORS
330
E1
330
F9
102
}
330
1F
100
AcDbEntity
  8
Top$1
  6
Continuous
 62
    18
370
    35
100
AcDbCircle
 10
0.0
 20
-2831.252087
 30
0.0
 40
3000.0
210
0.0
220
0.0
230
-1.0
100
AcDbArc
 50
86.903547
 51
93.096453
  0
ARC
  5
88
102
{ACAD_REACTORS
330
E1
102
}
330
1F
100
AcDbEntity
  8
Top$1
  6
Continuous
 62
    18
370
    35
100
AcDbCircle
 10
0.0
 20
2828.747913
 30
0.0
 40
3000.0
210
0.0
220
0.0
230
-1.0
100
AcDbArc
 50
266.903547
 51
273.096453
  0
ARC
  5
89
102
{ACAD_REACTORS
330
C7
102
}
330
1F
100
AcDbEntity
  8
Top$1
  6
Continuous
 62
    18
370
    35
100
AcDbCircle
 10
1460.0
 20
-1.252087
 30
0.0
 40
1700.0
210
0.0
220
0.0
230
-1.0
100
AcDbArc
 50
176.966262
 51
183.033738
  0
ARC
  5
8A
102
{ACAD_REACTORS
330
C7
102
}
330
1F
100
AcDbEntity
  8
Top$1
  6
Continuous
 62
    18
370
    35
100
AcDbCircle
 10
-1460.0
 20
-1.252087
 30
0.0
 40
1700.0
210
0.0
220
0.0
230
-1.0
100
AcDbArc
 50
356.966262
 51
3.033738
  0
ARC
  5
8B
330
1F
100
AcDbEntity
  8
ORTHO$3
  6
Continuous
 62
    18
370
    35
100
AcDbCircle
 10
1760.0
 20
86.252087
 30
0.0
 40
2000.600000028244
210
0.0
220
-1.0
230
0.0
100
AcDbArc
 50
180.0
 51
183.520745
  0
ARC
  5
8C
330
1F
100
AcDbEntity
  8
ORTHO$3
  6
Continuous
 62
    18
370
    35
100
AcDbCircle
 10
-1760.0
 20
86.252087
 30
0.0
 40
2000.60000001865
210
0.0
220
-1.0
230
0.0
100
AcDbArc
 50
356.479238
 51
0.0
  0
ARC
  5
8D
330
1F
100
AcDbEntity
  8
ORTHO$3
  6
Continuous
 62
    18
370
    35
100
AcDbCircle
 10
-242.1
 20
89.152087
 30
0.0
 40
1.5
210
0.0
220
1.0
230
0.0
100
AcDbArc
 50
0.0
 51
90.0
  0
ARC
  5
8E
330
1F
100
AcDbEntity
  8
ORTHO$3
  6
Continuous
 62
    18
370
    35
100
AcDbCircle
 10
242.1
 20
89.152087
 30
0.0
 40
1.5
210
0.0
220
1.0
230
0.0
100
AcDbArc
 50
90.0
 51
180.0
  0
ARC
  5
8F
330
1F
100
AcDbEntity
  8
ORTHO$3
  6
Continuous
 62
    18
370
    35
100
AcDbCircle
 10
57.041834
 20
-90.169913
 30
0.0
 40
1.1
210
0.0
220
-1.0
230
0.0
100
AcDbArc
 50
270.0
 51
345.008512
  0
ARC
  5
90
330
1F
100
AcDbEntity
  8
ORTHO$3
  6
Continuous
 62
    18
370
    35
100
AcDbCircle
 10
59.553342
 20
-90.84247
 30
0.0
 40
1.5
210
0.0
220
1.0
230
0.0
100
AcDbArc
 50
94.0
 51
165.008512
  0
ARC
  5
91
330
1F
100
AcDbEntity
  8
ORTHO$3
  6
Continuous
 62
    18
370
    35
100
AcDbCircle
 10
59.553342
 20
-90.84247
 30
0.0
 40
1.5
210
0.0
220
-1.0
230
0.0
100
AcDbArc
 50
94.0
 51
165.008512
  0
ARC
  5
92
330
1F
100
AcDbEntity
  8
ORTHO$3
  6
Continuous
 62
    18
370
    35
100
AcDbCircle
 10
57.041834
 20
-90.169913
 30
0.0
 40
1.1
210
0.0
220
1.0
230
0.0
100
AcDbArc
 50
270.0
 51
345.008512
  0
ELLIPSE
  5
93
330
1F
100
AcDbEntity
  8
Top$1
  6
Continuous
 62
    18
 60
     1
370
    35
100
AcDbEllipse
 10
-190.249061
 20
56.747913
 30
0.0
 11
-44.97199067128471
 21
1.587468125154206
 31
0.0
210
0.0
220
0.0
230
1.0
 40
0.002467
 41
0.0617993161100225
 42
1.501026680782735
  0
ELLIPSE
  5
94
330
1F
100
AcDbEntity
  8
Top$1
  6
Continuous
 62
    18
 60
     1
370
    35
100
AcDbEllipse
 10
190.249061
 20
56.747913
 30
0.0
 11
44.97199067135854
 21
1.587468125047302
 31
0.0
210
0.0
220
0.0
230
1.0
 40
0.002467
 41
4.782158625462609
 42
6.221385989328684
  0
ELLIPSE
  5
95
330
1F
100
AcDbEntity
  8
ORTHO$3
  6
Continuous
 62
    18
370
    35
100
AcDbEllipse
 10
190.249061
 20
0.0
 30
-34.488321
 11
-3.180895177393192
 21
0.0
 31
45.48892069353968
210
0.0
220
-1.0
230
0.0
 40
0.999375
 41
3.141592654145494
 42
3.158616015314086
  0
ELLIPSE
  5
96
330
1F
100
AcDbEntity
  8
ORTHO$3
  6
Continuous
 62
    18
370
    35
100
AcDbEllipse
 10
-190.249061
 20
0.0
 30
-34.488321
 11
3.180895219938211
 21
0.0
 31
45.48892069049445
210
0.0
220
-1.0
230
0.0
 40
0.999375
 41
3.124591780734087
 42
3.141592653975608
  0
SPLINE
  5
97
330
1F
100
AcDbEntity
  8
Top$1
  6
Continuous
 62
    18
370
    35
100
AcDbSpline
210
0.0
220
0.0
230
1.0
 70
     8
 71
     3
 72
     8
 73
     4
 74
     0
 42
0.000000001
 43
0.0000000001
 40
0.0
 40
0.0
 40
0.0
 40
0.0
 40
1.0
 40
1.0
 40
1.0
 40
1.0
 10
-254.9999999999901
 20
-1.252047965550659
 30
0.0
 10
-254.9999988290558
 20
-31.52107732261939
 30
0.0
 10
-254.19845886691
 20
-61.79010275326032
 30
0.0
 10
-252.5965032260892
 20
-92.01671150025031
 30
0.0
  0
SPLINE
  5
98
330
1F
100
AcDbEntity
  8
Top$1
  6
Continuous
 62
    18
370
    35
100
AcDbSpline
210
0.0
220
0.0
230
1.0
 70
     8
 71
     3
 72
     8
 73
     4
 74
     0
 42
0.000000001
 43
0.0000000001
 40
0.0
 40
0.0
 40
0.0
 40
0.0
 40
1.0
 40
1.0
 40
1.0
 40
1.0
 10
255.0000000000092
 20
-1.252127868007307
 30
0.0
 10
254.9999988764253
 20
29.01690238329621
 30
0.0
 10
254.1984589142666
 20
59.28592870943022
 30
0.0
 10
252.5965032260825
 20
89.51253834940817
 30
0.0
  0
SPLINE
  5
99
330
1F
100
AcDbEntity
  8
Top$1
  6
Continuous
 62
    18
 60
     1
370
    35
100
AcDbSpline
210
0.0
220
0.0
230
1.0
 70
     8
 71
     3
 72
    84
 73
    80
 74
     0
 42
0.000000001
 43
0.0000000001
 40
0.0
 40
0.0
 40
0.0
 40
0.0
 40
0.0312499999999991
 40
0.0312499999999991
 40
0.0624999999999981
 40
0.0937499999999972
 40
0.0937499999999972
 40
0.1015624999999967
 40
0.1015624999999967
 40
0.1093749999999962
 40
0.1093749999999962
 40
0.1249999999999952
 40
0.1249999999999952
 40
0.1562499999999917
 40
0.1874999999999881
 40
0.1874999999999881
 40
0.2031249999999876
 40
0.2109374999999883
 40
0.2109374999999883
 40
0.2187499999999889
 40
0.2187499999999889
 40
0.2499999999999914
 40
0.2812499999999938
 40
0.3124999999999963
 40
0.3124999999999963
 40
0.3203124999999972
 40
0.3203124999999972
 40
0.3281249999999982
 40
0.3281249999999982
 40
0.3437500000000001
 40
0.3437500000000001
 40
0.3750000000000027
 40
0.4062500000000053
 40
0.4062500000000053
 40
0.4218750000000067
 40
0.4218750000000067
 40
0.4375000000000079
 40
0.4375000000000079
 40
0.4687500000000099
 40
0.5000000000000119
 40
0.5312500000000139
 40
0.5312500000000139
 40
0.539062500000015
 40
0.539062500000015
 40
0.546875000000016
 40
0.5625000000000189
 40
0.5625000000000189
 40
0.593750000000024
 40
0.625000000000029
 40
0.625000000000029
 40
0.6406250000000316
 40
0.6406250000000316
 40
0.648437500000033
 40
0.648437500000033
 40
0.6562500000000343
 40
0.6875000000000376
 40
0.7187500000000409
 40
0.7500000000000442
 40
0.7500000000000442
 40
0.7578125000000436
 40
0.7578125000000436
 40
0.7656250000000431
 40
0.7812500000000414
 40
0.7812500000000414
 40
0.8125000000000353
 40
0.8437500000000293
 40
0.8437500000000293
 40
0.8593750000000254
 40
0.8593750000000254
 40
0.8750000000000214
 40
0.8750000000000214
 40
0.9062500000000155
 40
0.9375000000000097
 40
0.9375000000000097
 40
0.9531250000000067
 40
0.9531250000000067
 40
0.9687500000000036
 40
0.9687500000000036
 40
1.0
 40
1.0
 40
1.0
 40
1.0
 10
23.0
 20
168.2939356328359
 30
0.0
 10
23.0
 20
168.2920403452781
 30
0.0
 10
22.99510439913559
 20
168.2901911701708
 30
0.0
 10
22.97586263184111
 20
168.2865819057317
 30
0.0
 10
22.94716800242492
 20
168.2830617494432
 30
0.0
 10
22.89968665177867
 20
168.279719091178
 30
0.0
 10
22.86400581376424
 20
168.2776868756452
 30
0.0
 10
22.85656870326997
 20
168.2772832867338
 30
0.0
 10
22.84108638062418
 20
168.2764818827621
 30
0.0
 10
22.83302998974888
 20
168.2760835484013
 30
0.0
 10
22.8080246074334
 20
168.2749013857399
 30
0.0
 10
22.79026947862787
 20
168.2741315636265
 30
0.0
 10
22.73381549064366
 20
168.271875933276
 30
0.0
 10
22.65005587445439
 20
168.2690117264905
 30
0.0
 10
22.5496369813342
 20
168.2664298612218
 30
0.0
 10
22.46801310513962
 20
168.2646008653892
 30
0.0
 10
22.42562095205621
 20
168.2637132664679
 30
0.0
 10
22.38082041129832
 20
168.2628667590874
 30
0.0
 10
22.35041200810425
 20
168.2623116687663
 30
0.0
 10
22.33492012491744
 20
168.2620384748408
 30
0.0
 10
22.25651009582663
 20
168.2607028916441
 30
0.0
 10
22.12448767310601
 20
168.2587502301299
 30
0.0
 10
21.90736575417981
 20
168.2563589980005
 30
0.0
 10
21.74992570922942
 20
168.2551237993549
 30
0.0
 10
21.64745442634521
 20
168.2544673709997
 30
0.0
 10
21.62675612027126
 20
168.2543418776878
 30
0.0
 10
21.58494680241507
 20
168.25410261696
 30
0.0
 10
21.56385199741828
 20
168.2539889645832
 30
0.0
 10
21.50029816795207
 20
168.2536674559043
 30
0.0
 10
21.457460025481
 20
168.2534783922248
 30
0.0
 10
21.32756479869738
 20
168.2529857419996
 30
0.0
 10
21.15069556869351
 20
168.2525273041582
 30
0.0
 10
20.96658642370832
 20
168.2524607932252
 30
0.0
 10
20.8257526719479
 20
168.2525602182862
 30
0.0
 10
20.77834862666856
 20
168.2526182879757
 30
0.0
 10
20.68260518279758
 20
168.2527852212494
 30
0.0
 10
20.63416282968197
 20
168.2528944724071
 30
0.0
 10
20.48894549551251
 20
168.2532955223689
 30
0.0
 10
20.2948062621381
 20
168.2540259339615
 30
0.0
 10
20.00209158668027
 20
168.2556930666213
 30
0.0
 10
19.80594376517162
 20
168.2571859486564
 30
0.0
 10
19.68302788762934
 20
168.2582417763746
 30
0.0
 10
19.65839566928046
 20
168.2584593964798
 30
0.0
 10
19.60927139820116
 20
168.2589055062977
 30
0.0
 10
19.53584657637412
 20
168.25959045594
 30
0.0
 10
19.46319719543632
 20
168.2603221856355
 30
0.0
 10
19.31891511179863
 20
168.2618469335758
 30
0.0
 10
19.12924538961348
 20
168.2640430871656
 30
0.0
 10
18.94492553360266
 20
168.2665611060761
 30
0.0
 10
18.80872645788126
 20
168.2685720651235
 30
0.0
 10
18.76366750677609
 20
168.269262827698
 30
0.0
 10
18.69660030437307
 20
168.2703301922852
 30
0.0
 10
18.67430968999209
 20
168.2706915610992
 30
0.0
 10
18.63013904068356
 20
168.2714209020274
 30
0.0
 10
18.52061517708904
 20
168.2732627246892
 30
0.0
 10
18.33147760784356
 20
168.2767415962855
 30
0.0
 10
18.09596243373685
 20
168.2817188647182
 30
0.0
 10
17.95011344186482
 20
168.2852625489608
 30
0.0
 10
17.86256481781697
 20
168.2875497780767
 30
0.0
 10
17.84525318648357
 20
168.2880104269387
 30
0.0
 10
17.81118005680253
 20
168.2889339184177
 30
0.0
 10
17.76082799827029
 20
168.2903242075413
 30
0.0
 10
17.71272407100185
 20
168.2917294366199
 30
0.0
 10
17.61946929537098
 20
168.2945593886267
 30
0.0
 10
17.50299082395073
 20
168.2983845481465
 30
0.0
 10
17.40210828797347
 20
168.3023113212716
 30
0.0
 10
17.33241767151315
 20
168.3052948348483
 30
0.0
 10
17.3101819954668
 20
168.3062958738859
 30
0.0
 10
17.26775789690605
 20
168.3083105220085
 30
0.0
 10
17.24774305177036
 20
168.3093158751732
 30
0.0
 10
17.1912140096515
 20
168.3123260480239
 30
0.0
 10
17.12519960538527
 20
168.3163239347388
 30
0.0
 10
17.07751984467268
 20
168.3202902218635
 30
0.0
 10
17.04869204068546
 20
168.3232527407467
 30
0.0
 10
17.04024014986778
 20
168.3242382116454
 30
0.0
 10
17.02568603006579
 20
168.3262049909789
 30
0.0
 10
17.01957829591691
 20
168.3271874329658
 30
0.0
 10
17.00489638158129
 20
168.3301207124971
 30
0.0
 10
16.99999999999996
 20
168.3320461433688
 30
0.0
 10
16.99999999999996
 20
168.3339414200041
 30
0.0
  0
SPLINE
  5
9A
330
1F
100
AcDbEntity
  8
Top$1
  6
Continuous
 62
    18
 60
     1
370
    35
100
AcDbSpline
210
0.0
220
0.0
230
1.0
 70
    24
 71
     3
 72
     8
 73
     4
 74
     0
 42
0.000000001
 43
0.0000000001
 40
0.0
 40
0.0
 40
0.0
 40
0.0
 40
1.0
 40
1.0
 40
1.0
 40
1.0
 10
17.00000000000001
 20
168.3339414200042
 30
0.0
 10
17.00000000000001
 20
168.4359555431546
 30
0.0
 10
17.0
 20
168.5166333797736
 30
0.0
 10
17.0
 20
168.5759749291731
 30
0.0
  0
SPLINE
  5
9B
330
1F
100
AcDbEntity
  8
Top$1
  6
Continuous
 62
    18
 60
     1
370
    35
100
AcDbSpline
210
0.0
220
0.0
230
1.0
 70
    24
 71
     3
 72
     8
 73
     4
 74
     0
 42
0.000000001
 43
0.0000000001
 40
0.0
 40
0.0
 40
0.0
 40
0.0
 40
1.0
 40
1.0
 40
1.0
 40
1.0
 10
23.0
 20
168.5359723698132
 30
0.0
 10
23.0
 20
168.4766300289907
 30
0.0
 10
23.00000000000001
 20
168.3959511164124
 30
0.0
 10
23.00000000000001
 20
168.2939356328358
 30
0.0
  0
SPLINE
  5
9C
330
1F
100
AcDbEntity
  8
Top$1
  6
Continuous
 62
    18
 60
     1
370
    35
100
AcDbSpline
210
0.0
220
0.0
230
1.0
 70
     8
 71
     3
 72
    84
 73
    80
 74
     0
 42
0.000000001
 43
0.0000000001
 40
0.0
 40
0.0
 40
0.0
 40
0.0
 40
0.0312499999999935
 40
0.0312499999999935
 40
0.062499999999987
 40
0.0937499999999805
 40
0.0937499999999805
 40
0.1015624999999794
 40
0.1015624999999794
 40
0.1093749999999783
 40
0.1093749999999783
 40
0.1249999999999759
 40
0.1249999999999759
 40
0.1562499999999712
 40
0.1874999999999666
 40
0.1874999999999666
 40
0.2031249999999645
 40
0.2109374999999636
 40
0.2109374999999636
 40
0.2187499999999627
 40
0.2187499999999627
 40
0.2499999999999633
 40
0.2812499999999638
 40
0.3124999999999643
 40
0.3124999999999643
 40
0.3203124999999638
 40
0.3203124999999638
 40
0.3281249999999632
 40
0.3281249999999632
 40
0.3437499999999624
 40
0.3437499999999624
 40
0.3749999999999613
 40
0.4062499999999602
 40
0.4062499999999602
 40
0.4218749999999593
 40
0.4218749999999593
 40
0.4374999999999584
 40
0.4374999999999584
 40
0.4687499999999571
 40
0.4999999999999558
 40
0.5312499999999545
 40
0.5312499999999545
 40
0.5390624999999541
 40
0.5390624999999541
 40
0.5468749999999537
 40
0.562499999999953
 40
0.562499999999953
 40
0.5937499999999512
 40
0.6249999999999493
 40
0.6249999999999493
 40
0.6406249999999485
 40
0.6406249999999485
 40
0.6484374999999482
 40
0.6484374999999482
 40
0.6562499999999477
 40
0.687499999999947
 40
0.7187499999999465
 40
0.7499999999999458
 40
0.7499999999999458
 40
0.7578124999999459
 40
0.7578124999999459
 40
0.7656249999999462
 40
0.7812499999999479
 40
0.7812499999999479
 40
0.8124999999999534
 40
0.8437499999999588
 40
0.8437499999999588
 40
0.8593749999999625
 40
0.8593749999999625
 40
0.874999999999966
 40
0.874999999999966
 40
0.9062499999999736
 40
0.937499999999981
 40
0.937499999999981
 40
0.9531249999999858
 40
0.9531249999999858
 40
0.9687499999999906
 40
0.9687499999999906
 40
1.0
 40
1.0
 40
1.0
 40
1.0
 10
13.00000000000001
 20
168.3539441135048
 30
0.0
 10
13.00000000000001
 20
168.3520488795218
 30
0.0
 10
12.99510448064892
 20
168.3501834418396
 30
0.0
 10
12.97586321037448
 20
168.3465101539771
 30
0.0
 10
12.94716941124474
 20
168.3428944683419
 30
0.0
 10
12.89968990561526
 20
168.3393936630101
 30
0.0
 10
12.86401066737958
 20
168.337242589549
 30
0.0
 10
12.85657389929044
 20
168.3368142259397
 30
0.0
 10
12.84109231014194
 20
168.335961245608
 30
0.0
 10
12.83303632867519
 20
168.3355360731741
 30
0.0
 10
12.80803199763023
 20
168.3342705964547
 30
0.0
 10
12.79027763742526
 20
168.333441614709
 30
0.0
 10
12.733826176459
 20
168.3309978744578
 30
0.0
 10
12.65007051851298
 20
168.3278545561564
 30
0.0
 10
12.54965697917445
 20
168.3249380326802
 30
0.0
 10
12.46803774890124
 20
168.3228370033608
 30
0.0
 10
12.42564807688656
 20
168.3218081184379
 30
0.0
 10
12.38085027989651
 20
168.3208122939212
 30
0.0
 10
12.35044376757829
 20
168.3201558535037
 30
0.0
 10
12.33495275015091
 20
168.3198310228045
 30
0.0
 10
12.2565465122651
 20
168.3182340726054
 30
0.0
 10
12.12453057948126
 20
168.3158413221601
 30
0.0
 10
11.90741942960068
 20
168.3127262946606
 30
0.0
 10
11.7499882242579
 20
168.3109662089993
 30
0.0
 10
11.64752262756424
 20
168.3099681499467
 30
0.0
 10
11.62682547822704
 20
168.3097736497378
 30
0.0
 10
11.58501851470936
 20
168.3093949982966
 30
0.0
 10
11.56392422916441
 20
168.3092110101801
 30
0.0
 10
11.50037235435286
 20
168.3086775991339
 30
0.0
 10
11.45753552885046
 20
168.308345702851
 30
0.0
 10
11.32764429962688
 20
168.3074199480779
 30
0.0
 10
11.15078052388991
 20
168.3063717746888
 30
0.0
 10
10.96667714126332
 20
168.3056913707018
 30
0.0
 10
10.82584785568515
 20
168.3053211923871
 30
0.0
 10
10.77844532328146
 20
168.3052211943073
 30
0.0
 10
10.68270495953539
 20
168.3050688703404
 30
0.0
 10
10.63426328536439
 20
168.3050165873084
 30
0.0
 10
10.48904539090004
 20
168.3049333998956
 30
0.0
 10
10.29490555516589
 20
168.3050164427161
 30
0.0
 10
10.00219041878947
 20
168.3057074993318
 30
0.0
 10
9.806042599231022
 20
168.3065463077305
 30
0.0
 10
9.683126827361892
 20
168.3071922571521
 30
0.0
 10
9.658494874177691
 20
168.3073277363746
 30
0.0
 10
9.60936857439798
 20
168.3076100467194
 30
0.0
 10
9.535940775951527
 20
168.3080501700924
 30
0.0
 10
9.463288610200498
 20
168.3085396609433
 30
0.0
 10
9.31900119583928
 20
168.3095833227845
 30
0.0
 10
9.129325001389017
 20
168.3111470565917
 30
0.0
 10
8.94499980832443
 20
168.3130504950319
 30
0.0
 10
8.808797119084366
 20
168.3146073211396
 30
0.0
 10
8.763737028479476
 20
168.3151478418194
 30
0.0
 10
8.696668210709914
 20
168.3159915805475
 30
0.0
 10
8.674376575813554
 20
168.3162786306508
 30
0.0
 10
8.630203120671297
 20
168.3168607144695
 30
0.0
 10
8.520672458311672
 20
168.3183374045651
 30
0.0
 10
8.331524489203126
 20
168.3211857292855
 30
0.0
 10
8.095998220705741
 20
168.3253778203267
 30
0.0
 10
7.950144572227523
 20
168.3284352683835
 30
0.0
 10
7.862593214395208
 20
168.3304306116286
 30
0.0
 10
7.845280322778185
 20
168.3308335605448
 30
0.0
 10
7.811205118431308
 20
168.3316434778751
 30
0.0
 10
7.760850092510466
 20
168.3328659306407
 30
0.0
 10
7.71274360500716
 20
168.3341108151541
 30
0.0
 10
7.619484189123034
 20
168.336629918451
 30
0.0
 10
7.503000806970499
 20
168.3400668086458
 30
0.0
 10
7.402115355880663
 20
168.3436572764002
 30
0.0
 10
7.332423116931922
 20
168.3464084545142
 30
0.0
 10
7.31018744213886
 20
168.347335341909
 30
0.0
 10
7.267761694745545
 20
168.3492085868581
 30
0.0
 10
7.247746160702471
 20
168.3501472272221
 30
0.0
 10
7.191215387026474
 20
168.3529689742717
 30
0.0
 10
7.125199839917345
 20
168.3567468047089
 30
0.0
 10
7.077519516370772
 20
168.3605541175526
 30
0.0
 10
7.048691700931972
 20
168.363420501023
 30
0.0
 10
7.040239840274997
 20
168.3643777826566
 30
0.0
 10
7.0256858110841
 20
168.3662960114165
 30
0.0
 10
7.019578158957273
 20
168.3672580690184
 30
0.0
 10
7.00489630223724
 20
168.3701423635764
 30
0.0
 10
6.999999999999949
 20
168.3720514376416
 30
0.0
 10
6.999999999999949
 20
168.373946673619
 30
0.0
  0
SPLINE
  5
9D
330
1F
100
AcDbEntity
  8
Top$1
  6
Continuous
 62
    18
 60
     1
370
    35
100
AcDbSpline
210
0.0
220
0.0
230
1.0
 70
    24
 71
     3
 72
     8
 73
     4
 74
     0
 42
0.000000001
 43
0.0000000001
 40
0.0
 40
0.0
 40
0.0
 40
0.0
 40
1.0
 40
1.0
 40
1.0
 40
1.0
 10
7.0
 20
168.3739466736189
 30
0.0
 10
6.999999999999999
 20
168.4759594363974
 30
0.0
 10
6.999999999999999
 20
168.5566361971003
 30
0.0
 10
6.999999999999998
 20
168.6159769551085
 30
0.0
  0
SPLINE
  5
9E
330
1F
100
AcDbEntity
  8
Top$1
  6
Continuous
 62
    18
 60
     1
370
    35
100
AcDbSpline
210
0.0
220
0.0
230
1.0
 70
     8
 71
     3
 72
    84
 73
    80
 74
     0
 42
0.000000001
 43
0.0000000001
 40
0.0
 40
0.0
 40
0.0
 40
0.0
 40
0.0312499999999974
 40
0.0312499999999974
 40
0.0624999999999947
 40
0.0937499999999921
 40
0.0937499999999921
 40
0.1015624999999925
 40
0.1015624999999925
 40
0.1093749999999929
 40
0.1093749999999929
 40
0.1249999999999936
 40
0.1249999999999936
 40
0.1562499999999993
 40
0.187500000000005
 40
0.187500000000005
 40
0.2031250000000078
 40
0.2109375000000093
 40
0.2109375000000093
 40
0.2187500000000108
 40
0.2187500000000108
 40
0.2500000000000168
 40
0.2812500000000229
 40
0.3125000000000289
 40
0.3125000000000289
 40
0.3203125000000301
 40
0.3203125000000301
 40
0.3281250000000315
 40
0.3281250000000315
 40
0.343750000000034
 40
0.343750000000034
 40
0.3750000000000364
 40
0.4062500000000389
 40
0.4062500000000389
 40
0.4218750000000401
 40
0.4218750000000401
 40
0.4375000000000414
 40
0.4375000000000414
 40
0.4687500000000444
 40
0.5000000000000474
 40
0.5312500000000504
 40
0.5312500000000504
 40
0.5390625000000506
 40
0.5390625000000506
 40
0.5468750000000508
 40
0.5625000000000515
 40
0.5625000000000515
 40
0.5937500000000517
 40
0.625000000000052
 40
0.625000000000052
 40
0.6406250000000521
 40
0.6406250000000521
 40
0.6484375000000514
 40
0.6484375000000514
 40
0.6562500000000508
 40
0.6875000000000493
 40
0.7187500000000477
 40
0.7500000000000462
 40
0.7500000000000462
 40
0.7578125000000464
 40
0.7578125000000464
 40
0.7656250000000465
 40
0.781250000000043
 40
0.781250000000043
 40
0.8125000000000363
 40
0.8437500000000296
 40
0.8437500000000296
 40
0.8593750000000246
 40
0.8593750000000246
 40
0.8750000000000195
 40
0.8750000000000195
 40
0.9062500000000135
 40
0.9375000000000075
 40
0.9375000000000075
 40
0.9531250000000047
 40
0.9531250000000047
 40
0.9687500000000017
 40
0.9687500000000017
 40
1.0
 40
1.0
 40
1.0
 40
1.0
 10
6.999999999999995
 20
168.6159769551087
 30
0.0
 10
6.999999999999998
 20
168.6170793360435
 30
0.0
 10
7.00489609781462
 20
168.6181536709752
 30
0.0
 10
7.024139525468164
 20
168.6202482711521
 30
0.0
 10
7.052836483628631
 20
168.6222887892202
 30
0.0
 10
7.100320971796522
 20
168.6242222298922
 30
0.0
 10
7.136003868357498
 20
168.6253966151174
 30
0.0
 10
7.143441395433484
 20
168.6256297878026
 30
0.0
 10
7.158924556990231
 20
168.6260926957786
 30
0.0
 10
7.166981390065644
 20
168.626322731356
 30
0.0
 10
7.191987814789737
 20
168.6270052762669
 30
0.0
 10
7.20974361225648
 20
168.627449561273
 30
0.0
 10
7.266199483166779
 20
168.6287509255654
 30
0.0
 10
7.349961281067116
 20
168.630402249981
 30
0.0
 10
7.45038124587562
 20
168.6318901186395
 30
0.0
 10
7.532005323252564
 20
168.6329445787484
 30
0.0
 10
7.574397425895995
 20
168.6334564220555
 30
0.0
 10
7.619197649247398
 20
168.6339449099578
 30
0.0
 10
7.649605776477911
 20
168.6342653296404
 30
0.0
 10
7.665097345025683
 20
168.6344230761199
 30
0.0
 10
7.743504969011303
 20
168.6351945541348
 30
0.0
 10
7.875522676116827
 20
168.6363244198996
 30
0.0
 10
8.092635127835976
 20
168.6377175269393
 30
0.0
 10
8.25006623448888
 20
168.6384470688647
 30
0.0
 10
8.352531433437154
 20
168.6388395598774
 30
0.0
 10
8.373228486353966
 20
168.6389148770041
 30
0.0
 10
8.41503522214317
 20
168.6390590877188
 30
0.0
 10
8.436128260396915
 20
168.6391279115749
 30
0.0
 10
8.499677057053711
 20
168.639323645926
 30
0.0
 10
8.542511805663766
 20
168.6394402120587
 30
0.0
 10
8.672396742467168
 20
168.6397490252147
 30
0.0
 10
8.84925196493683
 20
168.6400519488472
 30
0.0
 10
9.033346568607232
 20
168.6401415864707
 30
0.0
 10
9.174169212658853
 20
168.6401280811216
 30
0.0
 10
9.221569521576377
 20
168.6401100991185
 30
0.0
 10
9.317305422693464
 20
168.6400467390761
 30
0.0
 10
9.36574393931299
 20
168.6400011798089
 30
0.0
 10
9.510950162967374
 20
168.6398246384119
 30
0.0
 10
9.705075352897007
 20
168.6394830729072
 30
0.0
 10
9.997771241548998
 20
168.6386615455932
 30
0.0
 10
10.19390807264388
 20
168.6379077086874
 30
0.0
 10
10.3168175778564
 20
168.6373701407553
 30
0.0
 10
10.34144840069677
 20
168.6372591444994
 30
0.0
 10
10.39057148618783
 20
168.6370312122103
 30
0.0
 10
10.46399463082103
 20
168.6366806814607
 30
0.0
 10
10.53664263160829
 20
168.6363045483559
 30
0.0
 10
10.68092233715804
 20
168.6355186701859
 30
0.0
 10
10.87058990570691
 20
168.634381364551
 30
0.0
 10
11.05490954833292
 20
168.6330665465461
 30
0.0
 10
11.19110917890849
 20
168.6320123795834
 30
0.0
 10
11.23616843433809
 20
168.6316496273179
 30
0.0
 10
11.30323627271981
 20
168.6310880663401
 30
0.0
 10
11.32552769999086
 20
168.6308977697852
 30
0.0
 10
11.36970095758669
 20
168.6305133449641
 30
0.0
 10
11.47923134067054
 20
168.6295416921762
 30
0.0
 10
11.66838064423963
 20
168.6276986039083
 30
0.0
 10
11.9039115157228
 20
168.6250433547086
 30
0.0
 10
12.04977103034669
 20
168.6231394050023
 30
0.0
 10
12.13732625492102
 20
168.6219057500579
 30
0.0
 10
12.15464045710596
 20
168.6216570409535
 30
0.0
 10
12.18871803517792
 20
168.6211579702436
 30
0.0
 10
12.23907661450609
 20
168.6204059235762
 30
0.0
 10
12.2871866289847
 20
168.619643617164
 30
0.0
 10
12.38045305027951
 20
168.6181053968387
 30
0.0
 10
12.49694564388087
 20
168.6160182093075
 30
0.0
 10
12.59783989684819
 20
168.6138578211697
 30
0.0
 10
12.66753851371507
 20
168.6122090326029
 30
0.0
 10
12.68977573894821
 20
168.61165463978
 30
0.0
 10
12.73220666662263
 20
168.6105362149721
 30
0.0
 10
12.75222462174337
 20
168.6099768196178
 30
0.0
 10
12.80876218529827
 20
168.6082979970712
 30
0.0
 10
12.87478580436123
 20
168.6060578649696
 30
0.0
 10
12.9224713743069
 20
168.6038135147988
 30
0.0
 10
12.95130252555405
 20
168.6021284081203
 30
0.0
 10
12.95975536331056
 20
168.6015663989482
 30
0.0
 10
12.97431107954399
 20
168.6004417271501
 30
0.0
 10
12.98041941972444
 20
168.5998784181595
 30
0.0
 10
12.99510311860705
 20
168.5981917979967
 30
0.0
 10
13.00000000000005
 20
168.5970784056271
 30
0.0
 10
13.00000000000005
 20
168.5959760088181
 30
0.0
  0
SPLINE
  5
9F
330
1F
100
AcDbEntity
  8
Top$1
  6
Continuous
 62
    18
 60
     1
370
    35
100
AcDbSpline
210
0.0
220
0.0
230
1.0
 70
    24
 71
     3
 72
     8
 73
     4
 74
     0
 42
0.000000001
 43
0.0000000001
 40
0.0
 40
0.0
 40
0.0
 40
0.0
 40
1.0
 40
1.0
 40
1.0
 40
1.0
 10
13.0
 20
168.5959760088179
 30
0.0
 10
13.0
 20
168.536634855118
 30
0.0
 10
13.0
 20
168.4559575564622
 30
0.0
 10
13.0
 20
168.3539441135045
 30
0.0
  0
SPLINE
  5
A0
330
1F
100
AcDbEntity
  8
Top$1
  6
Continuous
 62
    18
 60
     1
370
    35
100
AcDbSpline
210
0.0
220
0.0
230
1.0
 70
     8
 71
     3
 72
    84
 73
    80
 74
     0
 42
0.000000001
 43
0.0000000001
 40
0.0
 40
0.0
 40
0.0
 40
0.0
 40
0.0312500000000028
 40
0.0312500000000028
 40
0.0625000000000056
 40
0.0937500000000084
 40
0.0937500000000084
 40
0.1015625000000094
 40
0.1015625000000094
 40
0.1093750000000104
 40
0.1093750000000104
 40
0.1250000000000123
 40
0.1250000000000123
 40
0.156250000000014
 40
0.1875000000000158
 40
0.1875000000000158
 40
0.2031250000000166
 40
0.2109375000000169
 40
0.2109375000000169
 40
0.2187500000000172
 40
0.2187500000000172
 40
0.2500000000000192
 40
0.2812500000000209
 40
0.3125000000000227
 40
0.3125000000000227
 40
0.3203125000000229
 40
0.3203125000000229
 40
0.3281250000000231
 40
0.3281250000000231
 40
0.3437500000000235
 40
0.3437500000000235
 40
0.3750000000000229
 40
0.4062500000000224
 40
0.4062500000000224
 40
0.4218750000000217
 40
0.4218750000000217
 40
0.437500000000021
 40
0.437500000000021
 40
0.4687500000000201
 40
0.5000000000000192
 40
0.5312500000000183
 40
0.5312500000000183
 40
0.5390625000000183
 40
0.5390625000000183
 40
0.5468750000000184
 40
0.562500000000018
 40
0.562500000000018
 40
0.5937500000000167
 40
0.6250000000000153
 40
0.6250000000000153
 40
0.6406250000000144
 40
0.6406250000000144
 40
0.648437500000014
 40
0.648437500000014
 40
0.6562500000000135
 40
0.6875000000000119
 40
0.7187500000000102
 40
0.7500000000000085
 40
0.7500000000000085
 40
0.757812500000008
 40
0.757812500000008
 40
0.7656250000000073
 40
0.7812500000000066
 40
0.7812500000000066
 40
0.8125000000000053
 40
0.8437500000000041
 40
0.8437500000000041
 40
0.8593750000000033
 40
0.8593750000000033
 40
0.8750000000000027
 40
0.8750000000000027
 40
0.9062500000000009
 40
0.9374999999999991
 40
0.9374999999999991
 40
0.9531249999999993
 40
0.9531249999999993
 40
0.9687499999999997
 40
0.9687499999999997
 40
1.0
 40
1.0
 40
1.0
 40
1.0
 10
-7.000000000000002
 20
168.3739466736179
 30
0.0
 10
-7.000000000000006
 20
168.3720514510449
 30
0.0
 10
-7.004895523949394
 20
168.370153396511
 30
0.0
 10
-7.024136436980693
 20
168.3663518897271
 30
0.0
 10
-7.052829514163296
 20
168.3625449846423
 30
0.0
 10
-7.100306843495011
 20
168.3587277539633
 30
0.0
 10
-7.135984009649929
 20
168.3563388945192
 30
0.0
 10
-7.143420327535523
 20
168.3558609680869
 30
0.0
 10
-7.158900937338874
 20
168.3549048094504
 30
0.0
 10
-7.166956364176217
 20
168.3544259484786
 30
0.0
 10
-7.191959252882239
 20
168.3529938123604
 30
0.0
 10
-7.209712532902489
 20
168.352046493012
 30
0.0
 10
-7.266160355954918
 20
168.3492264857509
 30
0.0
 10
-7.349910105136763
 20
168.3455249022449
 30
0.0
 10
-7.450315140986228
 20
168.3419390654236
 30
0.0
 10
-7.531926795832332
 20
168.3392939904991
 30
0.0
 10
-7.574312379836744
 20
168.3379825490364
 30
0.0
 10
-7.619105586021313
 20
168.3366881134112
 30
0.0
 10
-7.649508919330622
 20
168.3358289900257
 30
0.0
 10
-7.664998432656464
 20
168.3354008952285
 30
0.0
 10
-7.743397835560447
 20
168.3332812588719
 30
0.0
 10
-7.875402442444058
 20
168.3300084313703
 30
0.0
 10
-8.09249226502716
 20
168.3254459692384
 30
0.0
 10
-8.249907355939932
 20
168.3226362920462
 30
0.0
 10
-8.352362060378123
 20
168.3209550836328
 30
0.0
 10
-8.373056990036117
 20
168.320622592647
 30
0.0
 10
-8.414859427959472
 20
168.3199652070737
 30
0.0
 10
-8.43595241253061
 20
168.3196405636177
 30
0.0
 10
-8.499499820225404
 20
168.3186834004594
 30
0.0
 10
-8.54233363476157
 20
168.3180658744206
 30
0.0
 10
-8.672215726141845
 20
168.3162740182672
 30
0.0
 10
-8.849067038983524
 20
168.3140465210144
 30
0.0
 10
-9.033157314055488
 20
168.3121384877872
 30
0.0
 10
-9.173976479803054
 20
168.3108292249935
 30
0.0
 10
-9.22137559056159
 20
168.310413132905
 30
0.0
 10
-9.317109003743091
 20
168.3096223792563
 30
0.0
 10
-9.365548588197406
 20
168.3092470561153
 30
0.0
 10
-9.510764686184894
 20
168.3081954310086
 30
0.0
 10
-9.704902066343879
 20
168.3069837846564
 30
0.0
 10
-9.99761331622455
 20
168.3057227640469
 30
0.0
 10
-10.19375838934138
 20
168.3052534797941
 30
0.0
 10
-10.31667238718376
 20
168.3050797092386
 30
0.0
 10
-10.34130351071352
 20
168.3050509189561
 30
0.0
 10
-10.39043286131205
 20
168.3050056039525
 30
0.0
 10
-10.46386514968347
 20
168.304956036191
 30
0.0
 10
-10.53652155739617
 20
168.3049610138156
 30
0.0
 10
-10.6808171499347
 20
168.3050424365512
 30
0.0
 10
-10.87050343561831
 20
168.3053412526928
 30
0.0
 10
-11.05483729926138
 20
168.3060154756111
 30
0.0
 10
-11.19104601745835
 20
168.3066640044269
 30
0.0
 10
-11.2361080385635
 20
168.306904032436
 30
0.0
 10
-11.30317963967366
 20
168.3073005086224
 30
0.0
 10
-11.32547310687535
 20
168.3074389077202
 30
0.0
 10
-11.36965180710588
 20
168.3077264350657
 30
0.0
 10
-11.47919522585
 20
168.3084727590363
 30
0.0
 10
-11.66836312580593
 20
168.3100598485895
 30
0.0
 10
-11.90391004696587
 20
168.3126815078668
 30
0.0
 10
-12.04977526781234
 20
168.3147664265093
 30
0.0
 10
-12.13733272009003
 20
168.3161779978997
 30
0.0
 10
-12.15464829361318
 20
168.3164655332959
 30
0.0
 10
-12.18872799902387
 20
168.3170482846834
 30
0.0
 10
-12.2390895026629
 20
168.3179350417226
 30
0.0
 10
-12.28720169556346
 20
168.31885922398
 30
0.0
 10
-12.38047160777866
 20
168.3207566156637
 30
0.0
 10
-12.49696655475554
 20
168.3234169803403
 30
0.0
 10
-12.59785972535039
 20
168.3263349050746
 30
0.0
 10
-12.66755664247031
 20
168.3286214806375
 30
0.0
 10
-12.68979270218738
 20
168.3294000959606
 30
0.0
 10
-12.73222288322787
 20
168.3309905797996
 30
0.0
 10
-12.75224033706586
 20
168.331795820397
 30
0.0
 10
-12.80877612142617
 20
168.3342408015689
 30
0.0
 10
-12.8747966389993
 20
168.3375786521025
 30
0.0
 10
-12.92247867527677
 20
168.3410681868009
 30
0.0
 10
-12.9513073933256
 20
168.3437424319775
 30
0.0
 10
-12.95975945631588
 20
168.3446433804807
 30
0.0
 10
-12.97431376381384
 20
168.3464646006322
 30
0.0
 10
-12.98042144487841
 20
168.3473859362313
 30
0.0
 10
-12.99510368879172
 20
168.3501724054177
 30
0.0
 10
-13.00000000000006
 20
168.3520488631209
 30
0.0
 10
-13.00000000000005
 20
168.3539441135029
 30
0.0
  0
SPLINE
  5
A1
330
1F
100
AcDbEntity
  8
Top$1
  6
Continuous
 62
    18
 60
     1
370
    35
100
AcDbSpline
210
0.0
220
0.0
230
1.0
 70
    24
 71
     3
 72
     8
 73
     4
 74
     0
 42
0.000000001
 43
0.0000000001
 40
0.0
 40
0.0
 40
0.0
 40
0.0
 40
1.0
 40
1.0
 40
1.0
 40
1.0
 10
-13.0
 20
168.3539441135023
 30
0.0
 10
-13.0
 20
168.45595755646
 30
0.0
 10
-13.0
 20
168.5366348551162
 30
0.0
 10
-13.0
 20
168.5959760088161
 30
0.0
  0
SPLINE
  5
A2
330
1F
100
AcDbEntity
  8
Top$1
  6
Continuous
 62
    18
 60
     1
370
    35
100
AcDbSpline
210
0.0
220
0.0
230
1.0
 70
    24
 71
     3
 72
     8
 73
     4
 74
     0
 42
0.000000001
 43
0.0000000001
 40
0.0
 40
0.0
 40
0.0
 40
0.0
 40
1.0
 40
1.0
 40
1.0
 40
1.0
 10
-7.0
 20
168.6159769551078
 30
0.0
 10
-6.999999999999999
 20
168.5566361970996
 30
0.0
 10
-6.999999999999999
 20
168.4759594363964
 30
0.0
 10
-6.999999999999998
 20
168.3739466736179
 30
0.0
  0
SPLINE
  5
A3
330
1F
100
AcDbEntity
  8
Top$1
  6
Continuous
 62
    18
 60
     1
370
    35
100
AcDbSpline
210
0.0
220
0.0
230
1.0
 70
     8
 71
     3
 72
    84
 73
    80
 74
     0
 42
0.000000001
 43
0.0000000001
 40
0.0
 40
0.0
 40
0.0
 40
0.0
 40
0.0312500000000006
 40
0.0312500000000006
 40
0.0625000000000013
 40
0.0937500000000019
 40
0.0937500000000019
 40
0.1015625000000018
 40
0.1015625000000018
 40
0.1093750000000018
 40
0.1093750000000018
 40
0.1250000000000017
 40
0.1250000000000017
 40
0.1562500000000017
 40
0.1875000000000017
 40
0.1875000000000017
 40
0.2031250000000017
 40
0.2109375000000016
 40
0.2109375000000016
 40
0.2187500000000015
 40
0.2187500000000015
 40
0.2499999999999996
 40
0.2812499999999977
 40
0.3124999999999959
 40
0.3124999999999959
 40
0.3203124999999951
 40
0.3203124999999951
 40
0.3281249999999943
 40
0.3281249999999943
 40
0.3437499999999936
 40
0.3437499999999936
 40
0.3749999999999931
 40
0.4062499999999926
 40
0.4062499999999926
 40
0.4218749999999921
 40
0.4218749999999921
 40
0.4374999999999916
 40
0.4374999999999916
 40
0.4687499999999921
 40
0.4999999999999925
 40
0.531249999999993
 40
0.531249999999993
 40
0.5390624999999933
 40
0.5390624999999933
 40
0.5468749999999938
 40
0.5624999999999942
 40
0.5624999999999942
 40
0.5937499999999946
 40
0.6249999999999949
 40
0.6249999999999949
 40
0.640624999999996
 40
0.640624999999996
 40
0.648437499999996
 40
0.648437499999996
 40
0.656249999999996
 40
0.6874999999999961
 40
0.7187499999999962
 40
0.7499999999999962
 40
0.7499999999999962
 40
0.7578124999999972
 40
0.7578124999999972
 40
0.7656249999999981
 40
0.7812499999999993
 40
0.7812499999999993
 40
0.8124999999999993
 40
0.8437499999999993
 40
0.8437499999999993
 40
0.8593749999999982
 40
0.8593749999999982
 40
0.8749999999999972
 40
0.8749999999999972
 40
0.9062499999999974
 40
0.9374999999999977
 40
0.9374999999999977
 40
0.9531249999999977
 40
0.9531249999999977
 40
0.9687499999999978
 40
0.9687499999999978
 40
1.0
 40
1.0
 40
1.0
 40
1.0
 10
-16.99999999999999
 20
168.3339414200018
 30
0.0
 10
-17.0
 20
168.3320461552655
 30
0.0
 10
-17.00489561006104
 20
168.3301317442509
 30
0.0
 10
-17.02413666282608
 20
168.326266033455
 30
0.0
 10
-17.0528298482619
 20
168.3223634256431
 30
0.0
 10
-17.10030684606064
 20
168.3183878960559
 30
0.0
 10
-17.13598353967563
 20
168.315880093122
 30
0.0
 10
-17.14341974971117
 20
168.3153773753493
 30
0.0
 10
-17.15890011355446
 20
168.3143696080809
 30
0.0
 10
-17.16695539525175
 20
168.3138638930865
 30
0.0
 10
-17.19195789275126
 20
168.3123484016735
 30
0.0
 10
-17.20971086108465
 20
168.3113418973658
 30
0.0
 10
-17.26615757289864
 20
168.3083337110182
 30
0.0
 10
-17.34990555214336
 20
168.3043529415952
 30
0.0
 10
-17.45030725638967
 20
168.3004324128809
 30
0.0
 10
-17.53191598106212
 20
168.2975152962658
 30
0.0
 10
-17.57429995776707
 20
168.2960625690206
 30
0.0
 10
-17.61909131651663
 20
168.2946188234944
 30
0.0
 10
-17.64949336141875
 20
168.2936583564645
 30
0.0
 10
-17.66498223738067
 20
168.2931786293521
 30
0.0
 10
-17.74337859613554
 20
168.2907976514325
 30
0.0
 10
-17.87537730102467
 20
168.287084781962
 30
0.0
 10
-18.09245799233934
 20
168.281798650894
 30
0.0
 10
-18.24986544489172
 20
168.2784642172512
 30
0.0
 10
-18.35231494269634
 20
168.2764414641966
 30
0.0
 10
-18.37300880929609
 20
168.2760399841043
 30
0.0
 10
-18.4148090757278
 20
168.2752432445986
 30
0.0
 10
-18.43590128247538
 20
168.2748482785288
 30
0.0
 10
-18.49944617752049
 20
168.2736792552174
 30
0.0
 10
-18.54227829792999
 20
168.2729189250206
 30
0.0
 10
-18.67215524862691
 20
168.2706940507789
 30
0.0
 10
-18.84899955227313
 20
168.2678769362532
 30
0.0
 10
-19.03308248150827
 20
168.2653551364643
 30
0.0
 10
-19.173895993095
 20
168.2635763691742
 30
0.0
 10
-19.22129319490788
 20
168.2630022429456
 30
0.0
 10
-19.31702273728584
 20
168.2618923008389
 30
0.0
 10
-19.36546091728368
 20
168.2613554658174
 30
0.0
 10
-19.51067465763785
 20
168.2598196275635
 30
0.0
 10
-19.70480897873502
 20
168.2579606420625
 30
0.0
 10
-19.99751587955998
 20
168.255723587257
 30
0.0
 10
-20.19365820711371
 20
168.254600258661
 30
0.0
 10
-20.3165705359363
 20
168.2540166295133
 30
0.0
 10
-20.34120110063114
 20
168.2539057071025
 30
0.0
 10
-20.39033147293983
 20
168.2536965620141
 30
0.0
 10
-20.46376527402039
 20
168.2534021228213
 30
0.0
 10
-20.53642313832961
 20
168.2531648187623
 30
0.0
 10
-20.68072157726975
 20
168.2527650729688
 30
0.0
 10
-20.87041148065605
 20
168.2524313680767
 30
0.0
 10
-21.05474867677382
 20
168.2524909283148
 30
0.0
 10
-21.19095980968635
 20
168.252685270476
 30
0.0
 10
-21.23602262156199
 20
168.2527750400107
 30
0.0
 10
-21.30309539031578
 20
168.2529478675808
 30
0.0
 10
-21.32538967101439
 20
168.2530119308234
 30
0.0
 10
-21.36957081042491
 20
168.2531521514258
 30
0.0
 10
-21.47912018662103
 20
168.2535332230872
 30
0.0
 10
-21.66829761740544
 20
168.2544895880775
 30
0.0
 10
-21.90385513525879
 20
168.2563259184516
 30
0.0
 10
-22.04972623344779
 20
168.2579245287606
 30
0.0
 10
-22.13728704641304
 20
168.2590441905155
 30
0.0
 10
-22.15460404085349
 20
168.2592740074018
 30
0.0
 10
-22.18868617298093
 20
168.2597431570757
 30
0.0
 10
-22.23905118741232
 20
168.260462039934
 30
0.0
 10
-22.28716652589261
 20
168.2612258499082
 30
0.0
 10
-22.38044229496208
 20
168.2628123498532
 30
0.0
 10
-22.49694389691076
 20
168.265084420824
 30
0.0
 10
-22.59784187249495
 20
168.2676660728896
 30
0.0
 10
-22.66754184565315
 20
168.2697203563193
 30
0.0
 10
-22.68977829071736
 20
168.2704248436577
 30
0.0
 10
-22.73221125713435
 20
168.2718739525673
 30
0.0
 10
-22.75222994210401
 20
168.2726124981432
 30
0.0
 10
-22.80876900623024
 20
168.2748691163714
 30
0.0
 10
-22.87479279893444
 20
168.277987018562
 30
0.0
 10
-22.92247653845525
 20
168.2813177270638
 30
0.0
 10
-22.95130614777232
 20
168.2838959570952
 30
0.0
 10
-22.95975844327982
 20
168.2847687581049
 30
0.0
 10
-22.97431311972435
 20
168.2865415139266
 30
0.0
 10
-22.98042091170793
 20
168.2874425092582
 30
0.0
 10
-22.99510360047644
 20
168.2901801314405
 30
0.0
 10
-23.00000000000005
 20
168.2920403273864
 30
0.0
 10
-23.00000000000005
 20
168.2939356328322
 30
0.0
  0
SPLINE
  5
A4
330
1F
100
AcDbEntity
  8
Top$1
  6
Continuous
 62
    18
 60
     1
370
    35
100
AcDbSpline
210
0.0
220
0.0
230
1.0
 70
     8
 71
     3
 72
    84
 73
    80
 74
     0
 42
0.000000001
 43
0.0000000001
 40
0.0
 40
0.0
 40
0.0
 40
0.0
 40
0.0312499999999791
 40
0.0312499999999791
 40
0.0624999999999581
 40
0.0937499999999372
 40
0.0937499999999372
 40
0.1015624999999311
 40
0.1015624999999311
 40
0.109374999999925
 40
0.109374999999925
 40
0.1249999999999173
 40
0.1249999999999173
 40
0.1562499999999022
 40
0.187499999999887
 40
0.187499999999887
 40
0.2031249999998816
 40
0.2109374999998807
 40
0.2109374999998807
 40
0.2187499999998798
 40
0.2187499999998798
 40
0.2499999999998775
 40
0.2812499999998753
 40
0.3124999999998731
 40
0.3124999999998731
 40
0.3203124999998746
 40
0.3203124999998746
 40
0.3281249999998762
 40
0.3281249999998762
 40
0.3437499999998784
 40
0.3437499999998784
 40
0.3749999999998828
 40
0.4062499999998872
 40
0.4062499999998872
 40
0.4218749999998889
 40
0.4218749999998889
 40
0.4374999999998906
 40
0.4374999999998906
 40
0.4687499999998949
 40
0.4999999999998992
 40
0.5312499999999034
 40
0.5312499999999034
 40
0.539062499999905
 40
0.539062499999905
 40
0.5468749999999065
 40
0.5624999999999095
 40
0.5624999999999095
 40
0.5937499999999164
 40
0.6249999999999235
 40
0.6249999999999235
 40
0.6406249999999266
 40
0.6406249999999266
 40
0.6484374999999292
 40
0.6484374999999292
 40
0.6562499999999317
 40
0.6874999999999367
 40
0.7187499999999416
 40
0.7499999999999465
 40
0.7499999999999465
 40
0.7578124999999464
 40
0.7578124999999464
 40
0.7656249999999463
 40
0.7812499999999468
 40
0.7812499999999468
 40
0.8124999999999519
 40
0.8437499999999571
 40
0.8437499999999571
 40
0.85937499999996
 40
0.85937499999996
 40
0.8749999999999628
 40
0.8749999999999628
 40
0.9062499999999721
 40
0.9374999999999813
 40
0.9374999999999813
 40
0.953124999999986
 40
0.953124999999986
 40
0.9687499999999907
 40
0.9687499999999907
 40
1.0
 40
1.0
 40
1.0
 40
1.0
 10
-22.99999999999999
 20
168.53597236981
 30
0.0
 10
-22.99999999999999
 20
168.5370747901779
 30
0.0
 10
-22.99510381482306
 20
168.5381981220136
 30
0.0
 10
-22.97586037769958
 20
168.5404852198062
 30
0.0
 10
-22.94716357368606
 20
168.5428127622888
 30
0.0
 10
-22.89968020518942
 20
168.5452210824109
 30
0.0
 10
-22.86399853114409
 20
168.5467523106076
 30
0.0
 10
-22.85656127485354
 20
168.5470598609837
 30
0.0
 10
-22.84107871367583
 20
168.547677604615
 30
0.0
 10
-22.83302222763427
 20
168.5479882095495
 30
0.0
 10
-22.80801669788437
 20
168.5489208292588
 30
0.0
 10
-22.79026158863581
 20
168.5495426781985
 30
0.0
 10
-22.73380809533672
 20
168.5514086158525
 30
0.0
 10
-22.6500503011812
 20
168.5538975692
 30
0.0
 10
-22.54963643924273
 20
168.5563896309326
 30
0.0
 10
-22.46801792505778
 20
168.5582603199865
 30
0.0
 10
-22.4256288512176
 20
168.5591960766788
 30
0.0
 10
-22.38083207332717
 20
168.5601325564878
 30
0.0
 10
-22.35042634153692
 20
168.5607570499495
 30
0.0
 10
-22.33493591828435
 20
168.5610697101793
 30
0.0
 10
-22.25653358570833
 20
168.5626252656851
 30
0.0
 10
-22.12452515704424
 20
168.5650753095462
 30
0.0
 10
-21.90742929025502
 20
168.5686395408657
 30
0.0
 10
-21.75001125144476
 20
168.5709433935095
 30
0.0
 10
-21.64755495744838
 20
168.5723605366729
 30
0.0
 10
-21.62685972257249
 20
168.5726428243803
 30
0.0
 10
-21.58505670046098
 20
168.5732051026095
 30
0.0
 10
-21.56396480662977
 20
168.5734848669287
 30
0.0
 10
-21.50041989414335
 20
168.5743161138516
 30
0.0
 10
-21.45758777106627
 20
168.5748610443128
 30
0.0
 10
-21.32771082523995
 20
168.5764687588025
 30
0.0
 10
-21.15086656162023
 20
168.5785403077664
 30
0.0
 10
-20.96678361121071
 20
168.5804709738964
 30
0.0
 10
-20.82597001457325
 20
168.5818657613062
 30
0.0
 10
-20.77857277287511
 20
168.5823218052468
 30
0.0
 10
-20.68284311940242
 20
168.5832158516294
 30
0.0
 10
-20.63440664953627
 20
168.5836547127959
 30
0.0
 10
-20.48920312116505
 20
168.5849303687839
 30
0.0
 10
-20.29508156247487
 20
168.5865302334806
 30
0.0
 10
-20.00239126039124
 20
168.5886359326611
 30
0.0
 10
-19.80625826493346
 20
168.5898436465323
 30
0.0
 10
-19.68335119826332
 20
168.5905352903965
 30
0.0
 10
-19.65872123664264
 20
168.5906706240015
 30
0.0
 10
-19.60959606373664
 20
168.5909339859959
 30
0.0
 10
-19.53616984650953
 20
168.5913177804634
 30
0.0
 10
-19.46351894047115
 20
168.5916682173549
 30
0.0
 10
-19.31923362844327
 20
168.5923253119697
 30
0.0
 10
-19.12955912714016
 20
168.5930849050475
 30
0.0
 10
-18.94523347230675
 20
168.5936134911568
 30
0.0
 10
-18.8090296267896
 20
168.5939214729769
 30
0.0
 10
-18.76396901550061
 20
168.5940093635414
 30
0.0
 10
-18.69689921109723
 20
168.5941185558487
 30
0.0
 10
-18.67460635623851
 20
168.5941511997415
 30
0.0
 10
-18.63042888721436
 20
168.5942085602596
 30
0.0
 10
-18.52088824603316
 20
168.5943323396504
 30
0.0
 10
-18.33172277269048
 20
168.5943809461419
 30
0.0
 10
-18.09617439106452
 20
168.5940812295198
 30
0.0
 10
-17.95030546924576
 20
168.5936360036668
 30
0.0
 10
-17.86274495786188
 20
168.5932779777925
 30
0.0
 10
-17.8454283948459
 20
168.593202420126
 30
0.0
 10
-17.81134683789704
 20
168.5930441449484
 30
0.0
 10
-17.76098251664669
 20
168.5927957119559
 30
0.0
 10
-17.7128673986971
 20
168.5925145288556
 30
0.0
 10
-17.6195915267792
 20
168.5919090140505
 30
0.0
 10
-17.50308834217355
 20
168.5909867941924
 30
0.0
 10
-17.40218668708863
 20
168.5898353751094
 30
0.0
 10
-17.33248344737023
 20
168.5888835908985
 30
0.0
 10
-17.31024576978653
 20
168.5885515913838
 30
0.0
 10
-17.2678104547313
 20
168.5878574567039
 30
0.0
 10
-17.24779057647252
 20
168.5874982305968
 30
0.0
 10
-17.19124793109479
 20
168.586384751654
 30
0.0
 10
-17.12521936116165
 20
168.5848048101108
 30
0.0
 10
-17.07753139378326
 20
168.583037274123
 30
0.0
 10
-17.04869904055934
 20
168.5816404529326
 30
0.0
 10
-17.04024590182068
 20
168.5811629643153
 30
0.0
 10
-17.02568972358398
 20
168.5801838363679
 30
0.0
 10
-17.0195812677844
 20
168.5796816106394
 30
0.0
 10
-17.00489697410225
 20
168.5781417896263
 30
0.0
 10
-16.99999999999996
 20
168.5770773438048
 30
0.0
 10
-16.99999999999995
 20
168.5759749291711
 30
0.0
  0
SPLINE
  5
A5
330
1F
100
AcDbEntity
  8
Top$1
  6
Continuous
 62
    18
 60
     1
370
    35
100
AcDbSpline
210
0.0
220
0.0
230
1.0
 70
     8
 71
     3
 72
    24
 73
    20
 74
     0
 42
0.000000001
 43
0.0000000001
 40
0.0
 40
0.0
 40
0.0
 40
0.0
 40
0.1454545454601798
 40
0.2909090909203596
 40
0.4363636363805394
 40
0.4363636363805394
 40
0.4727272727455843
 40
0.4727272727455843
 40
0.5090909091106294
 40
0.5090909091106294
 40
0.5818181818407271
 40
0.5818181818407271
 40
0.7272727273009223
 40
0.8727272727611174
 40
0.8727272727611174
 40
0.9454545454912106
 40
0.9818181818562525
 40
0.9818181818562525
 40
1.0
 40
1.0
 40
1.0
 40
1.0
 10
-1.796863821844503
 20
168.4757978153793
 30
0.0
 10
-1.886320311964539
 20
168.4767225005867
 30
0.0
 10
-2.057862176077467
 20
168.4786922370648
 30
0.0
 10
-2.293819294480199
 20
168.48199320383
 30
0.0
 10
-2.436978698131953
 20
168.4844216473557
 30
0.0
 10
-2.521932213092127
 20
168.4860117112185
 30
0.0
 10
-2.538696338545443
 20
168.4863333466376
 30
0.0
 10
-2.571766764348987
 20
168.4869839244666
 30
0.0
 10
-2.588094139212251
 20
168.4873133074265
 30
0.0
 10
-2.63621618353585
 20
168.4883090912355
 30
0.0
 10
-2.667104833953961
 20
168.4889820518792
 30
0.0
 10
-2.756265182513934
 20
168.4910275475267
 30
0.0
 10
-2.865815205713533
 20
168.4938256973439
 30
0.0
 10
-2.957052056694014
 20
168.496761414257
 30
0.0
 10
-3.018544183541881
 20
168.4990148184901
 30
0.0
 10
-3.047553580402531
 20
168.5001544465866
 30
0.0
 10
-3.073915271100245
 20
168.501313701667
 30
0.0
 10
-3.086649977745741
 20
168.501896630188
 30
0.0
 10
-3.090822409425656
 20
168.5020915928999
 30
0.0
 10
-3.094915921295708
 20
168.5022869004895
 30
0.0
  0
SPLINE
  5
A6
330
1F
100
AcDbEntity
  8
Top$1
  6
Continuous
 62
    18
 60
     1
370
    35
100
AcDbSpline
210
0.0
220
0.0
230
1.0
 70
     8
 71
     3
 72
    89
 73
    85
 74
     0
 42
0.000000001
 43
0.0000000001
 40
0.0
 40
0.0
 40
0.0
 40
0.0
 40
0.0064407203633835
 40
0.0064407203633835
 40
0.0142571285721621
 40
0.0142571285721621
 40
0.0298899449897192
 40
0.0298899449897192
 40
0.0611555778248354
 40
0.0924212106599516
 40
0.0924212106599516
 40
0.1080540270775107
 40
0.1080540270775107
 40
0.1236868434950699
 40
0.1236868434950699
 40
0.1549524763301863
 40
0.1862181091653028
 40
0.2174837420004192
 40
0.2174837420004192
 40
0.2253001502091976
 40
0.2253001502091976
 40
0.2331165584179759
 40
0.2487493748355326
 40
0.2487493748355326
 40
0.2800150076706447
 40
0.3112806405057569
 40
0.3112806405057569
 40
0.3269134569233125
 40
0.3269134569233125
 40
0.3347298651320904
 40
0.3347298651320904
 40
0.3425462733408682
 40
0.3738119061759805
 40
0.4050775390110927
 40
0.4050775390110927
 40
0.436343171846205
 40
0.436343171846205
 40
0.4441595800549833
 40
0.4441595800549833
 40
0.4519759882637616
 40
0.4676088046813179
 40
0.4676088046813179
 40
0.4988744375164303
 40
0.5301400703515429
 40
0.5301400703515429
 40
0.5457728867690991
 40
0.5457728867690991
 40
0.5614057031866553
 40
0.5614057031866553
 40
0.5926713360217682
 40
0.6239369688568811
 40
0.6239369688568811
 40
0.6395697852744373
 40
0.6473861934832161
 40
0.6473861934832161
 40
0.6552026016919946
 40
0.6552026016919946
 40
0.6864682345271091
 40
0.7177338673622236
 40
0.7489995001973381
 40
0.7489995001973381
 40
0.7568159084061171
 40
0.7568159084061171
 40
0.7646323166148961
 40
0.7646323166148961
 40
0.7802651330324525
 40
0.7802651330324525
 40
0.8115307658675651
 40
0.8427963987026779
 40
0.8427963987026779
 40
0.8584292151202335
 40
0.8662456233290119
 40
0.8662456233290119
 40
0.8740620315377904
 40
0.8740620315377904
 40
0.9053276643729088
 40
0.936593297208027
 40
0.9678589300431452
 40
0.9678589300431452
 40
0.9834917464607044
 40
0.9834917464607044
 40
0.9991245628782633
 40
0.9991245628782633
 40
1.0
 40
1.0
 40
1.0
 40
1.0
 10
-3.249999268428852
 20
168.5174072284738
 30
0.0
 10
-3.24998446514711
 20
168.5177403469429
 30
0.0
 10
-3.249745806325282
 20
168.518073826486
 30
0.0
 10
-3.248717392218525
 20
168.5188128210396
 30
0.0
 10
-3.24782023693829
 20
168.5192181742124
 30
0.0
 10
-3.244147240919102
 20
168.5204291555398
 30
0.0
 10
-3.240388222558202
 20
168.5212318364294
 30
0.0
 10
-3.225252603250226
 20
168.5236262372839
 30
0.0
 10
-3.194800749886711
 20
168.5267824524386
 30
0.0
 10
-3.144117334353155
 20
168.5298675870349
 30
0.0
 10
-3.098414717417068
 20
168.5321547096646
 30
0.0
 10
-3.081896565618286
 20
168.5329126223855
 30
0.0
 10
-3.04624645001615
 20
168.5344194276874
 30
0.0
 10
-3.027066452564318
 20
168.5351698453799
 30
0.0
 10
-2.966182176223881
 20
168.5373840355696
 30
0.0
 10
-2.875844642686472
 20
168.5402507505594
 30
0.0
 10
-2.713604633853834
 20
168.5443030330756
 30
0.0
 10
-2.587610738513747
 20
168.5468406893873
 30
0.0
 10
-2.50312204742905
 20
168.5483744656879
 30
0.0
 10
-2.485913281125389
 20
168.5486789985674
 30
0.0
 10
-2.451034108520005
 20
168.5492807076395
 30
0.0
 10
-2.398065097659187
 20
168.5501715595628
 30
0.0
 10
-2.343169323207781
 20
168.551027767805
 30
0.0
 10
-2.230851524474233
 20
168.5526949158451
 30
0.0
 10
-2.074369162245709
 20
168.5547972766557
 30
0.0
 10
-1.904592685458804
 20
168.5566630528056
 30
0.0
 10
-1.772188826498617
 20
168.5579727310394
 30
0.0
 10
-1.727207453538862
 20
168.558394321304
 30
0.0
 10
-1.658440110465452
 20
168.5590038807317
 30
0.0
 10
-1.635276962539767
 20
168.5592034558802
 30
0.0
 10
-1.588761285335529
 20
168.5595928929231
 30
0.0
 10
-1.471875098698221
 20
168.5605432121614
 30
0.0
 10
-1.256197542622481
 20
168.5620481559885
 30
0.0
 10
-1.057150231946058
 20
168.5631016584495
 30
0.0
 10
-0.8544193075074885
 20
168.5640129306793
 30
0.0
 10
-0.7512123818523124
 20
168.5643974644494
 30
0.0
 10
-0.6198230814298703
 20
168.5647864654093
 30
0.0
 10
-0.5934477473028089
 20
168.5648595907927
 30
0.0
 10
-0.5407489265400268
 20
168.5649958734716
 30
0.0
 10
-0.4616752291325845
 20
168.5651856443911
 30
0.0
 10
-0.3825259996668083
 20
168.5653319754679
 30
0.0
 10
-0.2241283289961509
 20
168.5655676180328
 30
0.0
 10
-0.01266728865875
 20
168.5657300056433
 30
0.0
 10
0.1993177315927096
 20
168.5655914402756
 30
0.0
 10
0.3585071149894959
 20
168.565372232633
 30
0.0
 10
0.4116072143531028
 20
168.565279906539
 30
0.0
 10
0.517861919416165
 20
168.5650559224283
 30
0.0
 10
0.5705754285028194
 20
168.5649251966896
 30
0.0
 10
0.7275007800238392
 20
168.5644779595489
 30
0.0
 10
0.9334999926337159
 20
168.5637350909548
 30
0.0
 10
1.133161957775791
 20
168.5627043356766
 30
0.0
 10
1.280512525356999
 20
168.561822039414
 30
0.0
 10
1.353587868734328
 20
168.5613535386069
 30
0.0
 10
1.425749363563111
 20
168.5608432858137
 30
0.0
 10
1.473651809239494
 20
168.5604937308302
 30
0.0
 10
1.497532154547024
 20
168.5603140107548
 30
0.0
 10
1.615994429258485
 20
168.5593949208867
 30
0.0
 10
1.799046137912262
 20
168.5577979542315
 30
0.0
 10
2.054797458121848
 20
168.5550334931536
 30
0.0
 10
2.212803269950977
 20
168.5529440435197
 30
0.0
 10
2.307555669474104
 20
168.5515586878102
 30
0.0
 10
2.326305623174088
 20
168.5512776348421
 30
0.0
 10
2.363400142123164
 20
168.5507074658417
 30
0.0
 10
2.381762040742305
 20
168.550418053171
 30
0.0
 10
2.435945445460267
 20
168.5495422754429
 30
0.0
 10
2.470950115507106
 20
168.5489471277524
 30
0.0
 10
2.572676091855515
 20
168.5471282979012
 30
0.0
 10
2.699558848779862
 20
168.5446143137421
 30
0.0
 10
2.809231896883787
 20
168.5419240018718
 30
0.0
 10
2.884956663399978
 20
168.5398388118442
 30
0.0
 10
2.921183915821191
 20
168.5387793264557
 30
0.0
 10
2.95491580851307
 20
168.5376939690083
 30
0.0
 10
2.976842828954934
 20
168.536964571688
 30
0.0
 10
2.987514209065108
 20
168.5365973116947
 30
0.0
 10
3.039179730041838
 20
168.534756486894
 30
0.0
 10
3.111505863828508
 20
168.5317674416348
 30
0.0
 10
3.189868956825504
 20
168.5271548928762
 30
0.0
 10
3.222048015354755
 20
168.523993179588
 30
0.0
 10
3.238443734678233
 20
168.5215882714903
 30
0.0
 10
3.242616823209453
 20
168.5207793688999
 30
0.0
 10
3.248275230852546
 20
168.5191672771676
 30
0.0
 10
3.249777876904193
 20
168.5183623368992
 30
0.0
 10
3.24998833299187
 20
168.5175134638849
 30
0.0
 10
3.249995413338404
 20
168.5174684513086
 30
0.0
 10
3.249998415005806
 20
168.5174234421197
 30
0.0
  0
SPLINE
  5
A7
330
1F
100
AcDbEntity
  8
Top$1
  6
Continuous
 62
    18
 60
     1
370
    35
100
AcDbSpline
210
0.0
220
0.0
230
1.0
 70
     8
 71
     3
 72
    53
 73
    49
 74
     0
 42
0.000000001
 43
0.0000000001
 40
0.0
 40
0.0
 40
0.0
 40
0.0
 40
0.0035200331183505
 40
0.0035200331183505
 40
0.0164613313895409
 40
0.0682265244743075
 40
0.1199917175590742
 40
0.1717569106438409
 40
0.1717569106438409
 40
0.1846982089150327
 40
0.1846982089150327
 40
0.1976395071862246
 40
0.2235221037286057
 40
0.2235221037286057
 40
0.2752872968133679
 40
0.3270524898981302
 40
0.3270524898981302
 40
0.3529350864405102
 40
0.3529350864405102
 40
0.3658763847117002
 40
0.3658763847117002
 40
0.3788176829828898
 40
0.4305828760676484
 40
0.4823480691524066
 40
0.4823480691524066
 40
0.5341132622371648
 40
0.5341132622371648
 40
0.585878455321923
 40
0.585878455321923
 40
0.6376436484066812
 40
0.6894088414914398
 40
0.6894088414914398
 40
0.702350139762629
 40
0.702350139762629
 40
0.7152914380338187
 40
0.7152914380338187
 40
0.7411740345761983
 40
0.7411740345761983
 40
0.7929392276609569
 40
0.8447044207457155
 40
0.8447044207457155
 40
0.8705870172880952
 40
0.8835283155592855
 40
0.8835283155592855
 40
0.8964696138304759
 40
0.8964696138304759
 40
0.9482348069152378
 40
1.0
 40
1.0
 40
1.0
 40
1.0
 10
3.141450092073832
 20
168.5047166075638
 30
0.0
 10
3.139580604969622
 20
168.5046089660233
 30
0.0
 10
3.137687490123833
 20
168.5045014125289
 30
0.0
 10
3.128726901271847
 20
168.5039990386398
 30
0.0
 10
3.091969858770855
 20
168.5020341462143
 30
0.0
 10
3.012237707627872
 20
168.4985845526097
 30
0.0
 10
2.877708590587305
 20
168.4941680148395
 30
0.0
 10
2.769162098695421
 20
168.4913471636023
 30
0.0
 10
2.695235539168801
 20
168.4896244455214
 30
0.0
 10
2.680129620797756
 20
168.4892815970823
 30
0.0
 10
2.649466890420805
 20
168.4886036110884
 30
0.0
 10
2.602747378544305
 20
168.4875970263346
 30
0.0
 10
2.553877273610722
 20
168.4866213127293
 30
0.0
 10
2.453314624973178
 20
168.4847105499492
 30
0.0
 10
2.311716866476004
 20
168.4822711348393
 30
0.0
 10
2.155237727985006
 20
168.4800477533663
 30
0.0
 10
2.032190385575287
 20
168.4784634140416
 30
0.0
 10
1.990224916344709
 20
168.4779491917936
 30
0.0
 10
1.925822506358051
 20
168.4771992065972
 30
0.0
 10
1.904133010548856
 20
168.4769530288949
 30
0.0
 10
1.860507585207002
 20
168.4764704708944
 30
0.0
 10
1.750687437760787
 20
168.4752870690029
 30
0.0
 10
1.546312371789099
 20
168.473360846984
 30
0.0
 10
1.355327589590009
 20
168.471933718378
 30
0.0
 10
1.159653670486989
 20
168.4706506879775
 30
0.0
 10
1.059456304708974
 20
168.4700811277046
 30
0.0
 10
0.8542687463563367
 20
168.4690921678123
 30
0.0
 10
0.7509738034726755
 20
168.4686809147856
 30
0.0
 10
0.5430303184108386
 20
168.4680194737022
 30
0.0
 10
0.3337327438784574
 20
168.4675191546664
 30
0.0
 10
0.1217440633821283
 20
168.4673395365921
 30
0.0
 10
-0.0116091543414808
 20
168.4673298531112
 30
0.0
 10
-0.0383229118829952
 20
168.467333056766
 30
0.0
 10
-0.0918375479662018
 20
168.467349851043
 30
0.0
 10
-0.1186748616628216
 20
168.4673634704636
 30
0.0
 10
-0.1990251303891938
 20
168.4674198734015
 30
0.0
 10
-0.2523161402261566
 20
168.4674780796313
 30
0.0
 10
-0.4113783682568199
 20
168.4677132419065
 30
0.0
 10
-0.6213033152682479
 20
168.4681879407712
 30
0.0
 10
-0.8269919378548073
 20
168.4689785264245
 30
0.0
 10
-0.979653759989773
 20
168.4696908302333
 30
0.0
 10
-1.055582864548821
 20
168.4700768697919
 30
0.0
 10
-1.13089932293163
 20
168.4705084095773
 30
0.0
 10
-1.180972647471713
 20
168.470806316964
 30
0.0
 10
-1.205959161868016
 20
168.4709605077355
 30
0.0
 10
-1.330003754873953
 20
168.4717537442971
 30
0.0
 10
-1.523558991514356
 20
168.4731694296385
 30
0.0
 10
-1.707407331724463
 20
168.4748731301719
 30
0.0
 10
-1.796863821844503
 20
168.4757978153793
 30
0.0
  0
SPLINE
  5
A8
330
1F
100
AcDbEntity
  8
Top$1
  6
Continuous
 62
    18
 60
     1
370
    35
100
AcDbSpline
210
0.0
220
0.0
230
1.0
 70
     8
 71
     3
 72
    63
 73
    59
 74
     0
 42
0.000000001
 43
0.0000000001
 40
0.0
 40
0.0
 40
0.0
 40
0.0
 40
0.01785714285714
 40
0.03571428571429
 40
0.05357142857143
 40
0.07142857142857
 40
0.08928571428571
 40
0.1071428571429
 40
0.125
 40
0.1428571428571
 40
0.1607142857143
 40
0.1785714285714
 40
0.1964285714286
 40
0.2142857142857
 40
0.2321428571429
 40
0.25
 40
0.2678571428571
 40
0.2857142857143
 40
0.3035714285714
 40
0.3214285714286
 40
0.3392857142857
 40
0.3571428571429
 40
0.375
 40
0.3928571428571
 40
0.4107142857143
 40
0.4285714285714
 40
0.4464285714286
 40
0.4642857142857
 40
0.4821428571429
 40
0.5
 40
0.5178571428571
 40
0.5357142857143
 40
0.5535714285714
 40
0.5714285714286
 40
0.5892857142857
 40
0.6071428571429
 40
0.625
 40
0.6428571428571
 40
0.6607142857143
 40
0.6785714285714
 40
0.6964285714286
 40
0.7142857142857
 40
0.7321428571429
 40
0.75
 40
0.7678571428571
 40
0.7857142857143
 40
0.8035714285714
 40
0.8214285714286
 40
0.8392857142857
 40
0.8571428571429
 40
0.875
 40
0.8928571428571
 40
0.9107142857143
 40
0.9285714285714
 40
0.9464285714286
 40
0.9642857142857
 40
0.9821428571429
 40
1.0
 40
1.0
 40
1.0
 40
1.0
 10
-162.3585300018
 20
116.7062683855791
 30
0.0
 10
-158.5037380602
 20
116.9249615558791
 30
0.0
 10
-151.1284113238
 20
117.3310253036791
 30
0.0
 10
-141.1189658207
 20
117.8541352000791
 30
0.0
 10
-131.9581645572
 20
118.3106938268791
 30
0.0
 10
-123.5137400179
 20
118.7135807494791
 30
0.0
 10
-115.6309487619
 20
119.0749274753791
 30
0.0
 10
-108.1756459248
 20
119.4042156177791
 30
0.0
 10
-101.1452684814
 20
119.7042146319791
 30
0.0
 10
-94.52726382578
 20
119.9778057503791
 30
0.0
 10
-88.31123182791
 20
120.2274007562791
 30
0.0
 10
-82.42870151129
 20
120.4573156661791
 30
0.0
 10
-76.81105017805
 20
120.6713157944791
 30
0.0
 10
-71.43416905726
 20
120.8710832915791
 30
0.0
 10
-66.27145635619
 20
121.0581440692791
 30
0.0
 10
-61.29520957208
 20
121.2338108099791
 30
0.0
 10
-56.48132953691
 20
121.3990350258791
 30
0.0
 10
-51.80699807875
 20
121.5545072251791
 30
0.0
 10
-47.24942123063
 20
121.7007021433791
 30
0.0
 10
-42.78787139182
 20
121.8378135633791
 30
0.0
 10
-38.40112702759
 20
121.9658307470791
 30
0.0
 10
-34.07246916692
 20
122.0843919162791
 30
0.0
 10
-29.7845769525
 20
122.1929440820791
 30
0.0
 10
-25.52309853859
 20
122.2906571204791
 30
0.0
 10
-21.27497936069
 20
122.3765051041791
 30
0.0
 10
-17.03028822099
 20
122.4492815503791
 30
0.0
 10
-12.7825790189
 20
122.5076973331791
 30
0.0
 10
-8.527654619883
 20
122.5505181241791
 30
0.0
 10
-4.26651701787
 20
122.5766832556791
 30
0.0
 10
-0.000516853478163
 20
122.5854926664791
 30
0.0
 10
4.265390104766
 20
122.5766877370791
 30
0.0
 10
8.526464410006001
 20
122.5505277869791
 30
0.0
 10
12.78140971069
 20
122.5077113296791
 30
0.0
 10
17.02912872272
 20
122.4492995245791
 30
0.0
 10
21.27382916019
 20
122.3765266476791
 30
0.0
 10
25.52194327834
 20
122.2906821013791
 30
0.0
 10
29.7834262372
 20
122.1929719038791
 30
0.0
 10
34.07130781855
 20
122.0844225782791
 30
0.0
 10
38.39995919083
 20
121.9658638346791
 30
0.0
 10
42.78668466895
 20
121.8378491616791
 30
0.0
 10
47.24821687593
 20
121.7007400050791
 30
0.0
 10
51.80576011691
 20
121.5545477023791
 30
0.0
 10
56.48006806343
 20
121.3990776818791
 30
0.0
 10
61.29390797108
 20
121.2338561391791
 30
0.0
 10
66.27010256147
 20
121.0581924948791
 30
0.0
 10
71.43273385826
 20
120.8711359513791
 30
0.0
 10
76.80957295563
 20
120.6713713847791
 30
0.0
 10
82.42726214298
 20
120.4573712479791
 30
0.0
 10
88.30991551174
 20
120.2274529620791
 30
0.0
 10
94.52602325233
 20
119.9778562860791
 30
0.0
 10
101.143885591
 20
119.7042726445791
 30
0.0
 10
108.1741396945
 20
119.4042809799791
 30
0.0
 10
115.6294905496
 20
119.0749932016791
 30
0.0
 10
123.5125101033
 20
118.7136383636791
 30
0.0
 10
131.9569612261
 20
118.3107525287791
 30
0.0
 10
141.117932717
 20
117.8541882486791
 30
0.0
 10
151.1279004407
 20
117.3310532264791
 30
0.0
 10
158.5035566837
 20
116.9249718430791
 30
0.0
 10
162.3585300018
 20
116.7062683854791
 30
0.0
  0
SPLINE
  5
A9
330
1F
100
AcDbEntity
  8
Top$1
  6
Continuous
 62
    18
 60
     1
370
    35
100
AcDbSpline
210
0.0
220
0.0
230
1.0
 70
     8
 71
     3
 72
    32
 73
    28
 74
     0
 42
0.000000001
 43
0.0000000001
 40
0.0
 40
0.0
 40
0.0
 40
0.0
 40
0.04
 40
0.08
 40
0.12
 40
0.16
 40
0.2
 40
0.24
 40
0.28
 40
0.32
 40
0.36
 40
0.4
 40
0.44
 40
0.48
 40
0.52
 40
0.56
 40
0.6
 40
0.64
 40
0.68
 40
0.72
 40
0.76
 40
0.8
 40
0.84
 40
0.88
 40
0.92
 40
0.96
 40
1.0
 40
1.0
 40
1.0
 40
1.0
 10
-192.0597879351
 20
86.62227857538909
 30
0.0
 10
-192.0262145811
 20
87.2417429386291
 30
0.0
 10
-191.9232525566
 20
88.47750713634909
 30
0.0
 10
-191.6615023918
 20
90.3207497189091
 30
0.0
 10
-191.2934434037
 20
92.1454374813591
 30
0.0
 10
-190.8203887123
 20
93.94545949785909
 30
0.0
 10
-190.2440280138
 20
95.71456872124911
 30
0.0
 10
-189.5660651799
 20
97.4474469284491
 30
0.0
 10
-188.7892114098
 20
99.1371612312791
 30
0.0
 10
-187.9161454719
 20
100.7781586744791
 30
0.0
 10
-186.9496775852
 20
102.3652096088791
 30
0.0
 10
-185.8931574062
 20
103.8928006879791
 30
0.0
 10
-184.7504508392
 20
105.3554196781791
 30
0.0
 10
-183.5254914634
 20
106.7481579544791
 30
0.0
 10
-182.2222067158
 20
108.0665800432791
 30
0.0
 10
-180.8450987856
 20
109.3060845238791
 30
0.0
 10
-179.3995166948
 20
110.4619383173791
 30
0.0
 10
-177.8903389202
 20
111.5303956877791
 30
0.0
 10
-176.3224106199
 20
112.5080638944791
 30
0.0
 10
-174.7013203819
 20
113.3914667587791
 30
0.0
 10
-173.0328309468
 20
114.1775171528791
 30
0.0
 10
-171.3228190828
 20
114.8635169159791
 30
0.0
 10
-169.5771120063
 20
115.4471948055791
 30
0.0
 10
-167.8016156416
 20
115.9265909215791
 30
0.0
 10
-166.0027361423
 20
116.3000327073791
 30
0.0
 10
-164.1861069457
 20
116.5662861867791
 30
0.0
 10
-162.9689848071
 20
116.6716343299791
 30
0.0
 10
-162.3585300018
 20
116.7062683855791
 30
0.0
  0
SPLINE
  5
AA
330
1F
100
AcDbEntity
  8
Top$1
  6
Continuous
 62
    18
 60
     1
370
    35
100
AcDbSpline
210
0.0
220
0.0
230
1.0
 70
     8
 71
     3
 72
    32
 73
    28
 74
     0
 42
0.000000001
 43
0.0000000001
 40
0.0
 40
0.0
 40
0.0
 40
0.0
 40
0.04
 40
0.08
 40
0.12
 40
0.16
 40
0.2
 40
0.24
 40
0.28
 40
0.32
 40
0.36
 40
0.4
 40
0.44
 40
0.48
 40
0.52
 40
0.56
 40
0.6
 40
0.64
 40
0.68
 40
0.72
 40
0.76
 40
0.8
 40
0.84
 40
0.88
 40
0.92
 40
0.96
 40
1.0
 40
1.0
 40
1.0
 40
1.0
 10
162.3585300018
 20
116.7062683854791
 30
0.0
 10
162.9689754846
 20
116.6716347080791
 30
0.0
 10
164.186083516
 20
116.5662889301791
 30
0.0
 10
166.0027150606
 20
116.3000363685791
 30
0.0
 10
167.8015900433
 20
115.9265969436791
 30
0.0
 10
169.5770849773
 20
115.4472029579791
 30
0.0
 10
171.3227948874
 20
114.8635258877791
 30
0.0
 10
173.0328095134
 20
114.1775264342791
 30
0.0
 10
174.7012914484
 20
113.3914811172791
 30
0.0
 10
176.322371772
 20
112.5080864643791
 30
0.0
 10
177.8903065098
 20
111.5304174950791
 30
0.0
 10
179.3994912069
 20
110.4619574702791
 30
0.0
 10
180.8450717614
 20
109.3061075655791
 30
0.0
 10
182.222189691
 20
108.0665965076791
 30
0.0
 10
183.5254734994
 20
106.7481769590791
 30
0.0
 10
184.7504285181
 20
105.3554464336791
 30
0.0
 10
185.8931370583
 20
103.8928285398791
 30
0.0
 10
186.9496621434
 20
102.3652334667791
 30
0.0
 10
187.9161283042
 20
100.7781882741791
 30
0.0
 10
188.7891892871
 20
99.1372054396791
 30
0.0
 10
189.5660466128
 20
97.4474913300091
 30
0.0
 10
190.2440193786
 20
95.7145940800291
 30
0.0
 10
190.8203851194
 20
93.9454720734991
 30
0.0
 10
191.2934403915
 20
92.1454505393791
 30
0.0
 10
191.6615007452
 20
90.3207594484891
 30
0.0
 10
191.9232505521
 20
88.4775238161991
 30
0.0
 10
192.0262143529
 20
87.24174975601909
 30
0.0
 10
192.0597879351
 20
86.62227857538909
 30
0.0
  0
SPLINE
  5
AB
330
1F
100
AcDbEntity
  8
Top$1
  6
Continuous
 62
    18
 60
     1
370
    35
100
AcDbSpline
210
0.0
220
0.0
230
1.0
 70
     8
 71
     3
 72
    41
 73
    37
 74
     0
 42
0.000000001
 43
0.0000000001
 40
0.0
 40
0.0
 40
0.0
 40
0.0
 40
0.02941176470588
 40
0.05882352941176
 40
0.08823529411765
 40
0.1176470588235
 40
0.1470588235294
 40
0.1764705882353
 40
0.2058823529412
 40
0.2352941176471
 40
0.2647058823529
 40
0.2941176470588
 40
0.3235294117647
 40
0.3529411764706
 40
0.3823529411765
 40
0.4117647058824
 40
0.4411764705882
 40
0.4705882352941
 40
0.5
 40
0.5294117647059
 40
0.5588235294118
 40
0.5882352941176
 40
0.6176470588235
 40
0.6470588235294
 40
0.6764705882353
 40
0.7058823529412
 40
0.7352941176471
 40
0.7647058823529
 40
0.7941176470588
 40
0.8235294117647
 40
0.8529411764706
 40
0.8823529411765
 40
0.9117647058824
 40
0.9411764705882
 40
0.9705882352941
 40
1.0
 40
1.0
 40
1.0
 40
1.0
 10
161.5423512488
 20
-120.7313021915209
 30
0.0
 10
158.0333302089
 20
-120.9344234310209
 30
0.0
 10
151.0855352884
 20
-121.3247837111209
 30
0.0
 10
140.8668828441
 20
-121.8649843634209
 30
0.0
 10
130.835237877
 20
-122.3623597379209
 30
0.0
 10
120.9754554521
 20
-122.8190898249209
 30
0.0
 10
111.2707981711
 20
-123.2371560598209
 30
0.0
 10
101.7034094988
 20
-123.6183098633209
 30
0.0
 10
92.24691817488
 20
-123.9643261406209
 30
0.0
 10
82.87158872043
 20
-124.2766869304209
 30
0.0
 10
73.5615560657
 20
-124.5560594323209
 30
0.0
 10
64.30400549888
 20
-124.8028219076209
 30
0.0
 10
55.08514271487001
 20
-125.0172051160209
 30
0.0
 10
45.88930169584
 20
-125.1992982450209
 30
0.0
 10
36.70666772265
 20
-125.3489234439209
 30
0.0
 10
27.52925009656
 20
-125.4658053931209
 30
0.0
 10
18.3534026246
 20
-125.5496026097209
 30
0.0
 10
9.177042013832
 20
-125.6000196397209
 30
0.0
 10
-0.0000390269488899
 20
-125.6168496684209
 30
0.0
 10
-9.177065095116
 20
-125.6000194587209
 30
0.0
 10
-18.35336352907
 20
-125.5496028500209
 30
0.0
 10
-27.52920328873
 20
-125.4658059249209
 30
0.0
 10
-36.70664131698
 20
-125.3489238329209
 30
0.0
 10
-45.88926957689
 20
-125.1992988284209
 30
0.0
 10
-55.08512878352001
 20
-125.0172054327209
 30
0.0
 10
-64.3039960997
 20
-124.8028221440209
 30
0.0
 10
-73.56154560992
 20
-124.5560597111209
 30
0.0
 10
-82.87156954296
 20
-124.2766875696209
 30
0.0
 10
-92.24695558918
 20
-123.9643248783209
 30
0.0
 10
-101.7034499917
 20
-123.6183082950209
 30
0.0
 10
-111.2708153541
 20
-123.2371553182209
 30
0.0
 10
-120.9754475554
 20
-122.8190901602209
 30
0.0
 10
-130.8352204392
 20
-122.3623605664209
 30
0.0
 10
-140.8668620128
 20
-121.8649854433209
 30
0.0
 10
-151.0855346282
 20
-121.3247837663209
 30
0.0
 10
-158.0333305633
 20
-120.9344234092209
 30
0.0
 10
-161.5423512488
 20
-120.7313021914209
 30
0.0
  0
SPLINE
  5
AC
330
1F
100
AcDbEntity
  8
Top$1
  6
Continuous
 62
    18
 60
     1
370
    35
100
AcDbSpline
210
0.0
220
0.0
230
1.0
 70
     8
 71
     3
 72
    32
 73
    28
 74
     0
 42
0.000000001
 43
0.0000000001
 40
0.0
 40
0.0
 40
0.0
 40
0.0
 40
0.04
 40
0.08
 40
0.12
 40
0.16
 40
0.2
 40
0.24
 40
0.28
 40
0.32
 40
0.36
 40
0.4
 40
0.44
 40
0.48
 40
0.52
 40
0.56
 40
0.6
 40
0.64
 40
0.68
 40
0.72
 40
0.76
 40
0.8
 40
0.84
 40
0.88
 40
0.92
 40
0.96
 40
1.0
 40
1.0
 40
1.0
 40
1.0
 10
-161.5423512488
 20
-120.7313021914209
 30
0.0
 10
-162.1611212532
 20
-120.6954830221209
 30
0.0
 10
-163.3950762826
 20
-120.5877187404209
 30
0.0
 10
-165.2365658275
 20
-120.3176872636209
 30
0.0
 10
-167.0595523158
 20
-119.9403953062209
 30
0.0
 10
-168.8585221665
 20
-119.4570829958209
 30
0.0
 10
-170.6272828355
 20
-118.8693483896209
 30
0.0
 10
-172.3597660613
 20
-118.1791718191209
 30
0.0
 10
-174.049937782
 20
-117.3889127844209
 30
0.0
 10
-175.6919024432
 20
-116.5012980693209
 30
0.0
 10
-177.2798727761
 20
-115.5194525875209
 30
0.0
 10
-178.8085144228
 20
-114.4466807212209
 30
0.0
 10
-180.2728420867
 20
-113.2864236976209
 30
0.0
 10
-181.6676619882
 20
-112.0426957676209
 30
0.0
 10
-182.9876691084
 20
-110.7202526904209
 30
0.0
 10
-184.2285891149
 20
-109.3234689445209
 30
0.0
 10
-185.3864000266
 20
-107.8568432516209
 30
0.0
 10
-186.4569903955
 20
-106.3255306779209
 30
0.0
 10
-187.4365703382
 20
-104.7349702706209
 30
0.0
 10
-188.3217583871
 20
-103.0907302023209
 30
0.0
 10
-189.1096182583
 20
-101.3983380860209
 30
0.0
 10
-189.7974817022
 20
-99.6635433754009
 30
0.0
 10
-190.3829603684
 20
-97.89241518272092
 30
0.0
 10
-190.8640552905
 20
-96.09106190514092
 30
0.0
 10
-191.23912964
 20
-94.2658507732709
 30
0.0
 10
-191.5069583541
 20
-92.42254455843091
 30
0.0
 10
-191.6133413111
 20
-91.18716592990091
 30
0.0
 10
-191.6484765452
 20
-90.56771336210092
 30
0.0
  0
SPLINE
  5
AD
330
1F
100
AcDbEntity
  8
Top$1
  6
Continuous
 62
    18
 60
     1
370
    35
100
AcDbSpline
210
0.0
220
0.0
230
1.0
 70
     8
 71
     3
 72
    32
 73
    28
 74
     0
 42
0.000000001
 43
0.0000000001
 40
0.0
 40
0.0
 40
0.0
 40
0.0
 40
0.04
 40
0.08
 40
0.12
 40
0.16
 40
0.2
 40
0.24
 40
0.28
 40
0.32
 40
0.36
 40
0.4
 40
0.44
 40
0.48
 40
0.52
 40
0.56
 40
0.6
 40
0.64
 40
0.68
 40
0.72
 40
0.76
 40
0.8
 40
0.84
 40
0.88
 40
0.92
 40
0.96
 40
1.0
 40
1.0
 40
1.0
 40
1.0
 10
191.6484765452
 20
-90.5677133620709
 30
0.0
 10
191.6133417111
 20
-91.18715634489091
 30
0.0
 10
191.5069611253
 20
-92.4225208846409
 30
0.0
 10
191.2391329744
 20
-94.2658316877209
 30
0.0
 10
190.8640601256
 20
-96.0910413163109
 30
0.0
 10
190.3829665603
 20
-97.8923942877109
 30
0.0
 10
189.7974900696
 20
-99.6635201096809
 30
0.0
 10
189.109629129
 20
-101.3983127813209
 30
0.0
 10
188.3217699101
 20
-103.0907073939209
 30
0.0
 10
187.4365814483
 20
-104.7349509643209
 30
0.0
 10
186.4570062253
 20
-106.3255061082209
 30
0.0
 10
185.3864248848
 20
-107.8568096026209
 30
0.0
 10
184.228613952
 20
-109.3234396001209
 30
0.0
 10
182.9876901641
 20
-110.7202302990209
 30
0.0
 10
181.6676880795
 20
-112.0426711678209
 30
0.0
 10
180.2728612973
 20
-113.2864077812209
 30
0.0
 10
178.8085339727
 20
-114.4466660174209
 30
0.0
 10
177.2798981434
 20
-115.5194357398209
 30
0.0
 10
175.6919322567
 20
-116.5012807587209
 30
0.0
 10
174.0499700005
 20
-117.3888965583209
 30
0.0
 10
172.3597977331
 20
-118.1791582225209
 30
0.0
 10
170.6273103743
 20
-118.8693384078209
 30
0.0
 10
168.8585540616
 20
-119.4570731609209
 30
0.0
 10
167.0596032215
 20
-119.9403828540209
 30
0.0
 10
165.2366209128
 20
-120.3176778729209
 30
0.0
 10
163.3951073924
 20
-120.5877155340209
 30
0.0
 10
162.1611330441
 20
-120.6954824839209
 30
0.0
 10
161.5423512488
 20
-120.7313021915209
 30
0.0
  0
SPLINE
  5
AE
330
1F
100
AcDbEntity
  8
Top$1
  6
Continuous
 62
    18
 60
     1
370
    35
100
AcDbSpline
210
0.0
220
0.0
230
1.0
 70
     8
 71
     3
 72
    32
 73
    28
 74
     0
 42
0.000000001
 43
0.0000000001
 40
0.0
 40
0.0
 40
0.0
 40
0.0
 40
0.04
 40
0.08
 40
0.12
 40
0.16
 40
0.2
 40
0.24
 40
0.28
 40
0.32
 40
0.36
 40
0.4
 40
0.44
 40
0.48
 40
0.52
 40
0.56
 40
0.6
 40
0.64
 40
0.68
 40
0.72
 40
0.76
 40
0.8
 40
0.84
 40
0.88
 40
0.92
 40
0.96
 40
1.0
 40
1.0
 40
1.0
 40
1.0
 10
234.0156232323
 20
-91.0319312269509
 30
0.0
 10
233.9381963474
 20
-92.5212453462109
 30
0.0
 10
233.6959898591
 20
-95.4952857448809
 30
0.0
 10
233.0718531477
 20
-99.9273871685809
 30
0.0
 10
232.1890484533
 20
-104.3152784545209
 30
0.0
 10
231.0506029029
 20
-108.6439201753209
 30
0.0
 10
229.6604320072
 20
-112.8984220711209
 30
0.0
 10
228.0233383793
 20
-117.0640962740209
 30
0.0
 10
226.145041477
 20
-121.1264711249209
 30
0.0
 10
224.0319366937
 20
-125.0717926653209
 30
0.0
 10
221.691068973
 20
-128.8868313919209
 30
0.0
 10
219.1305272937
 20
-132.5582919173209
 30
0.0
 10
216.3593445476
 20
-136.0732167431209
 30
0.0
 10
213.3873650057
 20
-139.4192599348209
 30
0.0
 10
210.2242322285
 20
-142.5856422658209
 30
0.0
 10
206.880109165
 20
-145.5619533808209
 30
0.0
 10
203.3677222329
 20
-148.3367756317209
 30
0.0
 10
199.6994796917
 20
-150.9005178091209
 30
0.0
 10
195.8872742507
 20
-153.2449568391209
 30
0.0
 10
191.9438490314
 20
-155.3621801865209
 30
0.0
 10
187.8830307151
 20
-157.2447024081209
 30
0.0
 10
183.7189155193
 20
-158.8859853004209
 30
0.0
 10
179.4659317123
 20
-160.2803589003209
 30
0.0
 10
175.1386975197
 20
-161.4230622602209
 30
0.0
 10
170.7515978781
 20
-162.3102908506209
 30
0.0
 10
166.3191018712
 20
-162.9389653611209
 30
0.0
 10
163.3450661788
 20
-163.1840956722209
 30
0.0
 10
161.855740917
 20
-163.2629824675209
 30
0.0
  0
SPLINE
  5
AF
330
1F
100
AcDbEntity
  8
Top$1
  6
Continuous
 62
    18
 60
     1
370
    35
100
AcDbSpline
210
0.0
220
0.0
230
1.0
 70
     8
 71
     3
 72
    32
 73
    28
 74
     0
 42
0.000000001
 43
0.0000000001
 40
0.0
 40
0.0
 40
0.0
 40
0.0
 40
0.04
 40
0.08
 40
0.12
 40
0.16
 40
0.2
 40
0.24
 40
0.28
 40
0.32
 40
0.36
 40
0.4
 40
0.44
 40
0.48
 40
0.52
 40
0.56
 40
0.6
 40
0.64
 40
0.68
 40
0.72
 40
0.76
 40
0.8
 40
0.84
 40
0.88
 40
0.92
 40
0.96
 40
1.0
 40
1.0
 40
1.0
 40
1.0
 10
-233.8092962212
 20
88.51682318802911
 30
0.0
 10
-233.7309092713
 20
90.00104297476909
 30
0.0
 10
-233.4871144201
 20
92.9650328285491
 30
0.0
 10
-232.8614369478
 20
97.3827842620091
 30
0.0
 10
-231.9779605396
 20
101.7562903915791
 30
0.0
 10
-230.8398902401
 20
106.0699534174791
 30
0.0
 10
-229.4512582019
 20
110.3090474035791
 30
0.0
 10
-227.8161423989
 20
114.4607494895791
 30
0.0
 10
-225.9410366507
 20
118.5084526299791
 30
0.0
 10
-223.8323522755
 20
122.4388320642791
 30
0.0
 10
-221.4968088143
 20
126.2393413140791
 30
0.0
 10
-218.9424215367
 20
129.8967508723791
 30
0.0
 10
-216.1784475403
 20
133.3978332459791
 30
0.0
 10
-213.2143020685
 20
136.7308049157791
 30
0.0
 10
-210.0593795687
 20
139.8850133127791
 30
0.0
 10
-206.7244605438
 20
142.8494076972791
 30
0.0
 10
-203.2223740622
 20
145.6126236869791
 30
0.0
 10
-199.5648083784
 20
148.1656597593791
 30
0.0
 10
-195.7633690075
 20
150.5003585953791
 30
0.0
 10
-191.8314645123
 20
152.6083662433791
 30
0.0
 10
-187.7829259477
 20
154.4822629445791
 30
0.0
 10
-183.6318751793
 20
156.1155628586791
 30
0.0
 10
-179.3922818304
 20
157.5028075368791
 30
0.0
 10
-175.078452372
 20
158.6392810444791
 30
0.0
 10
-170.7053966347
 20
159.5209930995791
 30
0.0
 10
-166.2882015272
 20
160.1448985057791
 30
0.0
 10
-163.3241678605
 20
160.3875248350791
 30
0.0
 10
-161.8398639271
 20
160.4653088086791
 30
0.0
  0
SPLINE
  5
B0
330
1F
100
AcDbEntity
  8
Top$1
  6
Continuous
 62
    18
 60
     1
370
    35
100
AcDbSpline
210
0.0
220
0.0
230
1.0
 70
     8
 71
     3
 72
    32
 73
    28
 74
     0
 42
0.000000001
 43
0.0000000001
 40
0.0
 40
0.0
 40
0.0
 40
0.0
 40
0.04
 40
0.08
 40
0.12
 40
0.16
 40
0.2
 40
0.24
 40
0.28
 40
0.32
 40
0.36
 40
0.4
 40
0.44
 40
0.48
 40
0.52
 40
0.56
 40
0.6
 40
0.64
 40
0.68
 40
0.72
 40
0.76
 40
0.8
 40
0.84
 40
0.88
 40
0.92
 40
0.96
 40
1.0
 40
1.0
 40
1.0
 40
1.0
 10
-161.8557354479
 20
-163.2629827373209
 30
0.0
 10
-163.3450481405
 20
-163.1840965464209
 30
0.0
 10
-166.3190522795
 20
-162.9389696508209
 30
0.0
 10
-170.7514842674
 20
-162.3103096515209
 30
0.0
 10
-175.1385952496
 20
-161.4230869192209
 30
0.0
 10
-179.4658743717
 20
-160.2803765104209
 30
0.0
 10
-183.7188683116
 20
-158.8860021615209
 30
0.0
 10
-187.882973064
 20
-157.2447268726209
 30
0.0
 10
-191.9437895614
 20
-155.3622099181209
 30
0.0
 10
-195.8872200135
 20
-153.2449881816209
 30
0.0
 10
-199.6994355707
 20
-150.9005470666209
 30
0.0
 10
-203.3676915042
 20
-148.3367987704209
 30
0.0
 10
-206.8800786484
 20
-145.5619784133209
 30
0.0
 10
-210.2241844604
 20
-142.5856872048209
 30
0.0
 10
-213.3873284479
 20
-139.4192988188209
 30
0.0
 10
-216.3592979851
 20
-136.0732716215209
 30
0.0
 10
-219.1304796529
 20
-132.5583566134209
 30
0.0
 10
-221.6910419076
 20
-128.8868738405209
 30
0.0
 10
-224.0319198837
 20
-125.0718220135209
 30
0.0
 10
-226.1450226688
 20
-121.1265084172209
 30
0.0
 10
-228.023320117
 20
-117.0641391248209
 30
0.0
 10
-229.660418716
 20
-112.8984595787209
 30
0.0
 10
-231.0505936973
 20
-108.6439516966209
 30
0.0
 10
-232.1890415753
 20
-104.3153084814209
 30
0.0
 10
-233.0718483527
 20
-99.9274148046009
 30
0.0
 10
-233.6959863856
 20
-95.4953183254109
 30
0.0
 10
-233.9381957466
 20
-92.5212585088109
 30
0.0
 10
-234.015622961
 20
-91.03193681968091
 30
0.0
  0
SPLINE
  5
B1
330
1F
100
AcDbEntity
  8
Top$1
  6
Continuous
 62
    18
 60
     1
370
    35
100
AcDbSpline
210
0.0
220
0.0
230
1.0
 70
     8
 71
     3
 72
    32
 73
    28
 74
     0
 42
0.000000001
 43
0.0000000001
 40
0.0
 40
0.0
 40
0.0
 40
0.0
 40
0.04
 40
0.08
 40
0.12
 40
0.16
 40
0.2
 40
0.24
 40
0.28
 40
0.32
 40
0.36
 40
0.4
 40
0.44
 40
0.48
 40
0.52
 40
0.56
 40
0.6
 40
0.64
 40
0.68
 40
0.72
 40
0.76
 40
0.8
 40
0.84
 40
0.88
 40
0.92
 40
0.96
 40
1.0
 40
1.0
 40
1.0
 40
1.0
 10
161.8398585059
 20
160.4653090707791
 30
0.0
 10
163.324157307
 20
160.3875253285791
 30
0.0
 10
166.28817436
 20
160.1449013249791
 30
0.0
 10
170.7053679404
 20
159.5209979268791
 30
0.0
 10
175.0784142656
 20
158.6392896629791
 30
0.0
 10
179.3922393113
 20
157.5028200792791
 30
0.0
 10
183.6318390948
 20
156.1155760379791
 30
0.0
 10
187.7828958456
 20
154.4822756806791
 30
0.0
 10
191.8314154226
 20
152.6083899468791
 30
0.0
 10
195.7632949937
 20
150.5004008630791
 30
0.0
 10
199.5647490147
 20
148.1656992639791
 30
0.0
 10
203.2223304789
 20
145.6126559547791
 30
0.0
 10
206.7244121938
 20
142.8494484455791
 30
0.0
 10
210.0593541636
 20
139.8850377603791
 30
0.0
 10
213.2142730263
 20
136.7308350487791
 30
0.0
 10
216.1784065547
 20
133.3978817109791
 30
0.0
 10
218.9423838752
 20
129.8968019633791
 30
0.0
 10
221.4967816348
 20
126.2393829157791
 30
0.0
 10
223.8323196335
 20
122.4388875210791
 30
0.0
 10
225.9409908553
 20
118.5085431957791
 30
0.0
 10
227.8161040751
 20
114.4608406649791
 30
0.0
 10
229.4512427946
 20
110.3090931098791
 30
0.0
 10
230.8398859282
 20
106.0699687006791
 30
0.0
 10
231.9779568091
 20
101.7563066803791
 30
0.0
 10
232.861435238
 20
97.3827938001291
 30
0.0
 10
233.4871118515
 20
92.9650549551991
 30
0.0
 10
233.730908905
 20
90.0010520583991
 30
0.0
 10
233.8092959431
 20
88.51682875805909
 30
0.0
  0
SPLINE
  5
B2
330
1F
100
AcDbEntity
  8
ORTHO$3
  6
Continuous
 62
    18
370
    35
100
AcDbSpline
210
0.0
220
1.0
230
0.0
 70
     8
 71
     3
 72
    27
 73
    23
 74
     0
 42
0.000000001
 43
0.0000000001
 40
0.0
 40
0.0
 40
0.0
 40
0.0
 40
0.0668586579236258
 40
0.1272629371716198
 40
0.1815093383118484
 40
0.2184077931566413
 40
0.2523193920584085
 40
0.2835593093472192
 40
0.3125338740519181
 40
0.3485134815883861
 40
0.3839584620420688
 40
0.4211580399378161
 40
0.4802701344872821
 40
0.5368000692533318
 40
0.5857410029408714
 40
0.6371691329747537
 40
0.6931917932994831
 40
0.7523320162914494
 40
0.8138577491442144
 40
0.8777732025770082
 40
0.9440928051371346
 40
1.0
 40
1.0
 40
1.0
 40
1.0
 10
194.173599170785
 20
0.0
 30
-79.91911828634748
 10
194.6471123785023
 20
0.0
 30
-79.88330407324673
 10
195.6657888761628
 20
0.0
 30
-79.77723874271221
 10
197.3901479745178
 20
0.0
 30
-79.54559798230933
 10
199.1442638005953
 20
0.0
 30
-79.239133663722
 10
200.8655067116767
 20
0.0
 30
-78.8710614452213
 10
202.4864167026566
 20
0.0
 30
-78.46727912759314
 10
204.2045144988695
 20
0.0
 30
-77.97306930925765
 10
206.1921643619502
 20
0.0
 30
-77.31804944000064
 10
208.5789040151759
 20
0.0
 30
-76.40462474248957
 10
211.3349879742094
 20
0.0
 30
-75.14508120202458
 10
214.5457198198872
 20
0.0
 30
-73.41300617710323
 10
218.1522955191492
 20
0.0
 30
-71.04401769727285
 10
221.7567710220757
 20
0.0
 30
-68.08351126240663
 10
224.9204872886696
 20
0.0
 30
-64.92020755237516
 10
227.7129318173372
 20
0.0
 30
-61.55781569698222
 10
230.2902880623703
 20
0.0
 30
-57.75959541327735
 10
232.5266164817124
 20
0.0
 30
-53.60857696550143
 10
234.3306504420536
 20
0.0
 30
-49.24261010465221
 10
235.669362000903
 20
0.0
 30
-44.74601314822716
 10
236.4927357281481
 20
0.0
 30
-40.47425334274025
 10
236.7395992151152
 20
0.0
 30
-37.78796619847486
 10
236.791077505157
 20
0.0
 30
-36.57956247109277
  0
SPLINE
  5
B3
330
1F
100
AcDbEntity
  8
ORTHO$3
  6
Continuous
 62
    18
370
    35
100
AcDbSpline
210
0.0
220
-1.0
230
0.0
 70
     8
 71
     3
 72
    30
 73
    26
 74
     0
 42
0.000000001
 43
0.0000000001
 40
0.0
 40
0.0
 40
0.0
 40
0.0
 40
0.0600403585044831
 40
0.1272078702915194
 40
0.1892303748273047
 40
0.2457002615012623
 40
0.2962942048228793
 40
0.3407762779941756
 40
0.3789937317035655
 40
0.4108702143511357
 40
0.4365934616823778
 40
0.4621906818645205
 40
0.490493801023722
 40
0.52145589430957
 40
0.5700101014941519
 40
0.6174875610498657
 40
0.6484972890396207
 40
0.6800801045897432
 40
0.7138985898659471
 40
0.7508200303499508
 40
0.7915090521146365
 40
0.8364577869856354
 40
0.8860257903081531
 40
0.9404756021873456
 40
1.0
 40
1.0
 40
1.0
 40
1.0
 10
-236.7853761857243
 20
0.0
 30
-36.57824879767922
 10
-236.720086446971
 20
0.0
 30
-38.01370333489929
 10
-236.4217210219488
 20
0.0
 30
-41.0551627245873
 10
-235.4542281756942
 20
0.0
 30
-45.60960649035457
 10
-234.0387665868161
 20
0.0
 30
-50.02277023139538
 10
-232.338106007272
 20
0.0
 30
-53.95770762631346
 10
-230.4812125361557
 20
0.0
 30
-57.3839857302128
 10
-228.5846282848791
 20
0.0
 30
-60.29999962583807
 10
-226.7496629037547
 20
0.0
 30
-62.72668196496242
 10
-225.0646389056581
 20
0.0
 30
-64.69419585362427
 10
-223.4623150457486
 20
0.0
 30
-66.38065944115027
 10
-221.8382905407203
 20
0.0
 30
-67.93582973960729
 10
-220.0303179373472
 20
0.0
 30
-69.50342937239841
 10
-217.6249948006178
 20
0.0
 30
-71.37064531316469
 10
-214.6426544015829
 20
0.0
 30
-73.35347837577481
 10
-211.5570547572129
 20
0.0
 30
-75.04008872677049
 10
-208.7802593392983
 20
0.0
 30
-76.31227341276086
 10
-206.4546267796992
 20
0.0
 30
-77.22515892879221
 10
-204.3025415697328
 20
0.0
 30
-77.94760938492144
 10
-202.2778849632777
 20
0.0
 30
-78.52669541008393
 10
-200.3901922083976
 20
0.0
 30
-78.98168503964342
 10
-198.6332179044695
 20
0.0
 30
-79.33409568233094
 10
-197.0020991294582
 20
0.0
 30
-79.60122406527579
 10
-195.496954841159
 20
0.0
 30
-79.79491844365349
 10
-194.5969305426532
 20
0.0
 30
-79.88621008110697
 10
-194.1735996029307
 20
0.0
 30
-79.91911824865078
  0
SPLINE
  5
B4
330
1F
100
AcDbEntity
  8
ORTHO$3
  6
Continuous
 62
    18
370
    35
100
AcDbSpline
210
0.0
220
0.0
230
1.0
 70
    24
 71
     3
 72
     8
 73
     4
 74
     0
 42
0.000000001
 43
0.0000000001
 40
0.0
 40
0.0
 40
0.0
 40
0.0
 40
1.0
 40
1.0
 40
1.0
 40
1.0
 10
-254.9999999999904
 20
0.0
 30
91.25208657662768
 10
-254.9996354984885
 20
0.0
 30
91.05208690965526
 10
-254.9992709969882
 20
0.0
 30
90.85208724268281
 10
-254.9989064954864
 20
0.0
 30
90.65208757571037
  0
SPLINE
  5
B5
330
1F
100
AcDbEntity
  8
ORTHO$3
  6
Continuous
 62
    18
 60
     1
370
    35
100
AcDbSpline
210
0.0
220
-1.0
230
0.0
 70
     8
 71
     3
 72
    37
 73
    33
 74
     0
 42
0.000000001
 43
0.0000000001
 40
0.0
 40
0.0
 40
0.0
 40
0.0
 40
0.03333333333333
 40
0.06666666666667
 40
0.1
 40
0.1333333333333
 40
0.1666666666667
 40
0.2
 40
0.2333333333333
 40
0.2666666666667
 40
0.3
 40
0.3333333333333
 40
0.3666666666667
 40
0.4
 40
0.4333333333333
 40
0.4666666666667
 40
0.5
 40
0.5333333333333
 40
0.5666666666667
 40
0.6
 40
0.6333333333333
 40
0.6666666666667
 40
0.7
 40
0.7333333333333
 40
0.7666666666667
 40
0.8
 40
0.8333333333333
 40
0.8666666666667
 40
0.9
 40
0.9333333333333
 40
0.9666666666667
 40
1.0
 40
1.0
 40
1.0
 40
1.0
 10
234.6137017934
 20
0.0
 30
-33.84567652927939
 10
234.5486643802
 20
0.0
 30
-33.82485055697937
 10
234.3574611481
 20
0.0
 30
-33.7844849433794
 10
233.8879250841
 20
0.0
 30
-33.72801627097939
 10
233.2368059654
 20
0.0
 30
-33.67568030127938
 10
232.4056420652
 20
0.0
 30
-33.62757874047939
 10
231.3964246876
 20
0.0
 30
-33.58378726987939
 10
230.2115619237
 20
0.0
 30
-33.54437810597939
 10
228.8538973411
 20
0.0
 30
-33.50941879607938
 10
227.3267375659
 20
0.0
 30
-33.47896926137939
 10
225.6336972628
 20
0.0
 30
-33.45307589297938
 10
223.7787350613
 20
0.0
 30
-33.43177923857939
 10
221.7661998325
 20
0.0
 30
-33.41511369657939
 10
219.600932939
 20
0.0
 30
-33.40310758047939
 10
217.2882571733
 20
0.0
 30
-33.3957824564794
 10
214.8339316306
 20
0.0
 30
-33.39314913007939
 10
212.243483935
 20
0.0
 30
-33.39520965757939
 10
209.5227924776
 20
0.0
 30
-33.40196200647939
 10
206.6782622198
 20
0.0
 30
-33.41339777877938
 10
203.7174005804
 20
0.0
 30
-33.42949699687939
 10
200.6475207644
 20
0.0
 30
-33.45023007427939
 10
197.4754141503
 20
0.0
 30
-33.47556420477939
 10
194.2084686437
 20
0.0
 30
-33.50546037957938
 10
190.8544787811
 20
0.0
 30
-33.53987081647939
 10
187.4215879765
 20
0.0
 30
-33.57873871377938
 10
183.9180738716
 20
0.0
 30
-33.62200103017938
 10
180.3523665973
 20
0.0
 30
-33.66958335757938
 10
176.7330161659
 20
0.0
 30
-33.72140248657939
 10
173.06832613
 20
0.0
 30
-33.77737675807938
 10
169.3668583685
 20
0.0
 30
-33.8374211574794
 10
165.6373384834
 20
0.0
 30
-33.9014184005794
 10
163.1389099955
 20
0.0
 30
-33.94666802907939
 10
161.8880924648
 20
0.0
 30
-33.96989687107938
  0
SPLINE
  5
B6
330
1F
100
AcDbEntity
  8
ORTHO$3
  6
Continuous
 62
    18
 60
     1
370
    35
100
AcDbSpline
210
0.0
220
-1.0
230
0.0
 70
     8
 71
     3
 72
    37
 73
    33
 74
     0
 42
0.000000001
 43
0.0000000001
 40
0.0
 40
0.0
 40
0.0
 40
0.0
 40
0.03333333333333
 40
0.06666666666667
 40
0.1
 40
0.1333333333333
 40
0.1666666666667
 40
0.2
 40
0.2333333333333
 40
0.2666666666667
 40
0.3
 40
0.3333333333333
 40
0.3666666666667
 40
0.4
 40
0.4333333333333
 40
0.4666666666667
 40
0.5
 40
0.5333333333333
 40
0.5666666666667
 40
0.6
 40
0.6333333333333
 40
0.6666666666667
 40
0.7
 40
0.7333333333333
 40
0.7666666666667
 40
0.8
 40
0.8333333333333
 40
0.8666666666667
 40
0.9
 40
0.9333333333333
 40
0.9666666666667
 40
1.0
 40
1.0
 40
1.0
 40
1.0
 10
-161.8880869738
 20
0.0
 30
-33.9698970397794
 10
-163.1388955637
 20
0.0
 30
-33.94666779497938
 10
-165.6372965687
 20
0.0
 30
-33.9014194050794
 10
-169.3667616099
 20
0.0
 30
-33.83742270967937
 10
-173.0682158062
 20
0.0
 30
-33.77737833407937
 10
-176.7329263367
 20
0.0
 30
-33.72140376517939
 10
-180.3523110349
 20
0.0
 30
-33.66958411447938
 10
-183.9180253592
 20
0.0
 30
-33.62200188107938
 10
-187.4215313842
 20
0.0
 30
-33.57873937557938
 10
-190.854419328
 20
0.0
 30
-33.5398713971794
 10
-194.2084107766
 20
0.0
 30
-33.5054608728794
 10
-197.4753628286
 20
0.0
 30
-33.47556461987939
 10
-200.6474784312
 20
0.0
 30
-33.45023040627938
 10
-203.7173690768
 20
0.0
 30
-33.42949728537938
 10
-206.6782314672
 20
0.0
 30
-33.41339789927938
 10
-209.5227494876
 20
0.0
 30
-33.40196212397939
 10
-212.2434417042
 20
0.0
 30
-33.39520971727939
 10
-214.833891182
 20
0.0
 30
-33.39314914487938
 10
-217.28821046
 20
0.0
 30
-33.39578239617938
 10
-219.6008856085
 20
0.0
 30
-33.4031073175794
 10
-221.7661696063
 20
0.0
 30
-33.41511344997939
 10
-223.7787150005
 20
0.0
 30
-33.43177904827939
 10
-225.6336795513
 20
0.0
 30
-33.45307570977938
 10
-227.3267187709
 20
0.0
 30
-33.4789689885794
 10
-228.8538796859
 20
0.0
 30
-33.50941840887938
 10
-230.2115485039
 20
0.0
 30
-33.54437752087939
 10
-231.3964147566
 20
0.0
 30
-33.58378688797939
 10
-232.4056343448
 20
0.0
 30
-33.62757838447938
 10
-233.2368001583
 20
0.0
 30
-33.67568004737938
 10
-233.887920496
 20
0.0
 30
-33.72801589587939
 10
-234.357458463
 20
0.0
 30
-33.78448428517938
 10
-234.5486638673
 20
0.0
 30
-33.8248508130794
 10
-234.613701521
 20
0.0
 30
-33.8456763766794
  0
SPLINE
  5
B7
330
1F
100
AcDbEntity
  8
ORTHO$3
  6
Continuous
 62
    18
 60
     1
370
    35
100
AcDbSpline
210
0.0
220
1.0
230
0.0
 70
     8
 71
     3
 72
    41
 73
    37
 74
     0
 42
0.000000001
 43
0.0000000001
 40
0.0
 40
0.0
 40
0.0
 40
0.0
 40
0.02941176470588
 40
0.05882352941176
 40
0.08823529411765
 40
0.1176470588235
 40
0.1470588235294
 40
0.1764705882353
 40
0.2058823529412
 40
0.2352941176471
 40
0.2647058823529
 40
0.2941176470588
 40
0.3235294117647
 40
0.3529411764706
 40
0.3823529411765
 40
0.4117647058824
 40
0.4411764705882
 40
0.4705882352941
 40
0.5
 40
0.5294117647059
 40
0.5588235294118
 40
0.5882352941176
 40
0.6176470588235
 40
0.6470588235294
 40
0.6764705882353
 40
0.7058823529412
 40
0.7352941176471
 40
0.7647058823529
 40
0.7941176470588
 40
0.8235294117647
 40
0.8529411764706
 40
0.8823529411765
 40
0.9117647058824
 40
0.9411764705882
 40
0.9705882352941
 40
1.0
 40
1.0
 40
1.0
 40
1.0
 10
161.5705240817
 20
0.0
 30
-76.71857780827939
 10
158.0611507782
 20
0.0
 30
-76.8732412702794
 10
151.1126290028
 20
0.0
 30
-77.1735595399794
 10
140.8928174704
 20
0.0
 30
-77.59697760547937
 10
130.859942545
 20
0.0
 30
-77.99362758827938
 10
120.9988576053
 20
0.0
 30
-78.3637088046794
 10
111.2928238221
 20
0.0
 30
-78.70742444157938
 10
101.7239835563
 20
0.0
 30
-79.0249489295794
 10
92.26596359564
 20
0.0
 30
-79.31663327507937
 10
82.88902618205
 20
0.0
 30
-79.5827365917794
 10
73.57730686998002
 20
0.0
 30
-79.8229567294794
 10
64.31799321559
 20
0.0
 30
-80.03685449257938
 10
55.09729426985
 20
0.0
 30
-80.22396967797937
 10
45.89954815405
 20
0.0
 30
-80.3838210478794
 10
36.71494736583
 20
0.0
 30
-80.51578921227939
 10
27.53550965506
 20
0.0
 30
-80.61925878267937
 10
18.35760009811
 20
0.0
 30
-80.69364203127941
 10
9.179148219501
 20
0.0
 30
-80.73847519677938
 10
-0.0000390408271782
 20
0.0
 30
-80.75345451887938
 10
-9.179171315667
 20
0.0
 30
-80.7384750361794
 10
-18.35756100267
 20
0.0
 30
-80.6936422457794
 10
-27.53546284498
 20
0.0
 30
-80.6192592550794
 10
-36.71492096066
 20
0.0
 30
-80.51578955717939
 10
-45.89951603458001
 20
0.0
 30
-80.38382156227938
 10
-55.09728033269
 20
0.0
 30
-80.22396995607939
 10
-64.31798380787
 20
0.0
 30
-80.0368546989794
 10
-73.57729640216
 20
0.0
 30
-79.82295697247937
 10
-82.88900698905
 20
0.0
 30
-79.58273713697939
 10
-92.26600100262
 20
0.0
 30
-79.3166322014794
 10
-101.7240240412
 20
0.0
 30
-79.02494761727938
 10
-111.2928409934
 20
0.0
 30
-78.70742383207937
 10
-120.9988496944
 20
0.0
 30
-78.36370908117937
 10
-130.8599250937
 20
0.0
 30
-77.99362825617936
 10
-140.8927966283
 20
0.0
 30
-77.59697845547939
 10
-151.1126283377
 20
0.0
 30
-77.17355958077937
 10
-158.061151131
 20
0.0
 30
-76.87324124697939
 10
-161.5705240817
 20
0.0
 30
-76.71857780787938
  0
SPLINE
  5
B8
330
1F
100
AcDbEntity
  8
ORTHO$3
  6
Continuous
 62
    18
370
    35
100
AcDbSpline
210
0.0
220
1.0
230
0.0
 70
     8
 71
     3
 72
     8
 73
     4
 74
     0
 42
0.000000001
 43
0.0000000001
 40
0.0
 40
0.0
 40
0.0
 40
0.0
 40
1.0
 40
1.0
 40
1.0
 40
1.0
 10
236.8086055180758
 20
0.0
 30
-36.7183950986457
 10
236.8163598814664
 20
0.0
 30
-36.68468706574842
 10
236.8213559242105
 20
0.0
 30
-36.64964457109692
 10
236.8235920673828
 20
0.0
 30
-36.61329450328739
  0
SPLINE
  5
B9
330
1F
100
AcDbEntity
  8
ORTHO$3
  6
Continuous
 62
    18
370
    35
100
AcDbSpline
210
0.0
220
-1.0
230
0.0
 70
     8
 71
     3
 72
     8
 73
     4
 74
     0
 42
0.000000001
 43
0.0000000001
 40
0.0
 40
0.0
 40
0.0
 40
0.0
 40
1.0
 40
1.0
 40
1.0
 40
1.0
 10
-236.824697584062
 20
0.0
 30
-36.58797889966815
 10
-236.8244753603971
 20
0.0
 30
-36.59648627615592
 10
-236.8241068216623
 20
0.0
 30
-36.6049246709862
 10
-236.8235919873563
 20
0.0
 30
-36.61329375474547
  0
SPLINE
  5
BA
330
1F
100
AcDbEntity
  8
ORTHO$3
  6
Continuous
 62
    18
370
    35
100
AcDbSpline
210
0.0
220
0.0
230
1.0
 70
    24
 71
     3
 72
     8
 73
     4
 74
     0
 42
0.000000001
 43
0.0000000001
 40
0.0
 40
0.0
 40
0.0
 40
0.0
 40
1.0
 40
1.0
 40
1.0
 40
1.0
 10
255.0000000000097
 20
0.0
 30
91.25208657665742
 10
254.9996101720453
 20
0.0
 30
91.05208695649323
 10
254.9992203440742
 20
0.0
 30
90.85208733632902
 10
254.9988305160569
 20
0.0
 30
90.65208771616479
  0
SPLINE
  5
BB
330
1F
100
AcDbEntity
  8
ORTHO$3
  6
Continuous
 62
    18
370
    35
100
AcDbSpline
210
0.0
220
0.0
230
1.0
 70
    24
 71
     3
 72
     8
 73
     4
 74
     0
 42
0.000000001
 43
0.0000000001
 40
0.0
 40
0.0
 40
0.0
 40
0.0
 40
1.0
 40
1.0
 40
1.0
 40
1.0
 10
-254.9989106531534
 20
0.0
 30
90.65208657642067
 10
-254.9989006521534
 20
0.0
 30
90.65208657642063
 10
-254.197365361095
 20
0.0
 30
90.65208657642063
 10
-252.5954112522803
 20
0.0
 30
90.65208657642063
  0
SPLINE
  5
BC
330
1F
100
AcDbEntity
  8
ORTHO$3
  6
Continuous
 62
    18
370
    35
100
AcDbSpline
210
0.0
220
0.0
230
1.0
 70
    24
 71
     3
 72
     8
 73
     4
 74
     0
 42
0.000000001
 43
0.0000000001
 40
0.0
 40
0.0
 40
0.0
 40
0.0
 40
1.0
 40
1.0
 40
1.0
 40
1.0
 10
-255.0000044150229
 20
0.0
 30
91.25208657642055
 10
-254.999994414023
 20
0.0
 30
91.25208657642062
 10
-254.19845886691
 20
0.0
 30
91.25208657642062
 10
-252.5965032260892
 20
0.0
 30
91.25208657642061
  0
VIEWPORT
  5
C0
102
{ACAD_XDICTIONARY
360
14C
102
}
330
BD
100
AcDbEntity
 67
     1
  8
0
370
    25
100
AcDbViewport
 10
325.0
 20
400.0
 30
0.0
 40
650.0
 41
800.0
 68
     1
 69
     1
 12
325.0
 22
400.0
 13
0.0
 23
0.0
 14
1.0
 24
1.0
 15
1.0
 25
1.0
 16
0.0
 26
0.0
 36
1.0
 17
0.0
 27
0.0
 37
0.0
 42
15.487805
 43
0.0
 44
0.0
 45
800.0
 50
0.0
 51
0.0
 72
   100
331
69
331
6A
 90
   557152
  1

281
     0
 71
     1
 74
     0
110
0.0
120
0.0
130
0.0
111
1.0
121
0.0
131
0.0
112
0.0
122
1.0
132
0.0
 79
     0
146
0.0
170
     0
  0
VIEWPORT
  5
C1
102
{ACAD_XDICTIONARY
360
14E
102
}
330
BD
100
AcDbEntity
 67
     1
  8
0
 60
     1
370
    25
100
AcDbViewport
 10
366.573612
 20
266.953633
 30
0.0
 40
522.734496
 41
382.7
 68
     2
 69
     2
 12
0.000579
 22
-1.252087
 13
0.0
 23
0.0
 14
1.0
 24
1.0
 15
1.0
 25
1.0
 16
0.0
 26
0.0
 36
1.0
 17
0.0
 27
0.0
 37
0.0
 42
15.487805
 43
0.0
 44
0.0
 45
382.7
 50
0.0
 51
0.0
 72
   100
331
6A
 90
   557152
  1

281
     0
 71
     1
 74
     0
110
0.0
120
0.0
130
0.0
111
1.0
121
0.0
131
0.0
112
0.0
122
1.0
132
0.0
 79
     0
146
0.0
170
     0
  0
VIEWPORT
  5
C2
102
{ACAD_XDICTIONARY
360
150
102
}
330
BD
100
AcDbEntity
 67
     1
  8
0
 60
     1
370
    25
100
AcDbViewport
 10
366.573612
 20
657.205174
 30
0.0
 40
522.734496
 41
195.239827
 68
     3
 69
     3
 12
0.000579
 22
0.0
 13
0.0
 23
0.0
 14
1.0
 24
1.0
 15
1.0
 25
1.0
 16
0.0
 26
-1.0
 36
0.0
 17
0.0
 27
0.0
 37
0.0
 42
15.487805
 43
0.0
 44
0.0
 45
195.239827
 50
0.0
 51
0.0
 72
   100
331
69
 90
   557152
  1

281
     0
 71
     1
 74
     0
110
0.0
120
0.0
130
0.0
111
1.0
121
0.0
131
0.0
112
0.0
122
1.0
132
0.0
 79
     0
146
0.0
170
     0
  0
DIMENSION
  5
C4
102
{ACAD_REACTORS
330
C7
102
}
102
{ACAD_XDICTIONARY
360
C6
102
}
330
BD
100
AcDbEntity
 67
     1
  8
1
  6
Continuous
 62
    18
370
    13
100
AcDbDimension
  2
_U0
 10
606.573033
 20
37.430952
 30
0.0
 11
366.573033
 21
37.430952
 31
0.0
 70
   160
 71
     1
 42
480.0
 52
90.0
  3
Standard
100
AcDbAlignedDimension
 13
126.573033
 23
266.953633
 33
0.0
 14
606.573033
 24
266.953633
 34
0.0
100
AcDbRotatedDimension
1001
ACAD
1000
DSTYLE
1002
{
1070
   371
1070
    13
1070
   372
1070
    13
1070
   170
1070
     0
1070
   277
1070
     2
1070
   284
1070
     8
1070
   278
1070
    44
1070
   146
1040
0.1
1070
   345
1005
16
1070
   347
1005
16
1070
   346
1005
16
1070
   344
1005
0
1070
   343
1005
0
1070
   172
1070
     1
1070
    76
1070
     0
1070
    75
1070
     0
1070
   282
1070
     0
1070
   281
1070
     0
1070
    71
1070
     0
1070
   144
1040
1.0
1070
    74
1070
     0
1070
   279
1070
     0
1070
   173
1070
     1
1070
   340
1005
C5
1070
   271
1070
     3
1070
   272
1070
     2
1070
    77
1070
     1
1070
    73
1070
     1
1070
   171
1070
     3
1070
   274
1070
     4
1070
   177
1070
    18
1070
   176
1070
    18
1070
   178
1070
    18
1070
    78
1070
     8
1070
    48
1040
-0.1
1070
    41
1040
20.0
1070
   147
1040
6.0
1070
    42
1040
1.0
1070
    44
1040
2.0
1070
   140
1040
12.0
1002
}
1001
ACAD_DSTYLE_DIM_LINETYPE
1070
   380
1005
16
1001
ACAD_DSTYLE_DIM_EXT1_LINETYPE
1070
   381
1005
16
1001
ACAD_DSTYLE_DIM_EXT2_LINETYPE
1070
   382
1005
16
  0
DIMENSION
  5
DF
102
{ACAD_REACTORS
330
E1
102
}
102
{ACAD_XDICTIONARY
360
E0
102
}
330
BD
100
AcDbEntity
 67
     1
  8
1
  6
Continuous
 62
    18
370
    13
100
AcDbDimension
  2
_U1
 10
76.556364
 20
436.953633
 30
0.0
 11
76.556364
 21
266.953633
 31
0.0
 70
   160
 71
     1
 42
340.0
 52
90.0
  3
Standard
100
AcDbAlignedDimension
 13
366.573033
 23
96.953633
 33
0.0
 14
366.573033
 24
436.953633
 34
0.0
 50
90.0
100
AcDbRotatedDimension
1001
ACAD
1000
DSTYLE
1002
{
1070
   371
1070
    13
1070
   372
1070
    13
1070
   170
1070
     0
1070
   277
1070
     2
1070
   284
1070
     8
1070
   278
1070
    44
1070
   146
1040
0.1
1070
   345
1005
16
1070
   347
1005
16
1070
   346
1005
16
1070
   344
1005
0
1070
   343
1005
0
1070
   172
1070
     1
1070
    76
1070
     0
1070
    75
1070
     0
1070
   282
1070
     0
1070
   281
1070
     0
1070
    71
1070
     0
1070
   144
1040
1.0
1070
    74
1070
     0
1070
   279
1070
     0
1070
   173
1070
     1
1070
   340
1005
C5
1070
   271
1070
     3
1070
   272
1070
     2
1070
    77
1070
     1
1070
    73
1070
     0
1070
   171
1070
     3
1070
   274
1070
     4
1070
   177
1070
    18
1070
   176
1070
    18
1070
   178
1070
    18
1070
    78
1070
     8
1070
    48
1040
-0.1
1070
    41
1040
20.0
1070
   147
1040
6.0
1070
    42
1040
1.0
1070
    44
1040
2.0
1070
   140
1040
12.0
1002
}
1001
ACAD_DSTYLE_DIM_LINETYPE
1070
   380
1005
16
1001
ACAD_DSTYLE_DIM_EXT1_LINETYPE
1070
   381
1005
16
1001
ACAD_DSTYLE_DIM_EXT2_LINETYPE
1070
   382
1005
16
  0
DIMENSION
  5
F7
102
{ACAD_REACTORS
330
F9
102
}
102
{ACAD_XDICTIONARY
360
F8
102
}
330
BD
100
AcDbEntity
 67
     1
  8
1
  6
Continuous
 62
    18
370
    13
100
AcDbDimension
  2
_U2
 10
76.556364
 20
436.953633
 30
0.0
 11
76.556364
 21
518.019699
 31
0.0
 70
   160
 71
     1
 42
15.0
 52
90.0
  3
Standard
100
AcDbAlignedDimension
 13
366.573033
 23
451.953633
 33
0.0
 14
366.573033
 24
436.953633
 34
0.0
 50
90.0
100
AcDbRotatedDimension
1001
ACAD
1000
DSTYLE
1002
{
1070
   371
1070
    13
1070
   372
1070
    13
1070
   170
1070
     0
1070
   277
1070
     2
1070
   284
1070
     8
1070
   278
1070
    44
1070
   146
1040
0.1
1070
   345
1005
16
1070
   347
1005
16
1070
   346
1005
16
1070
   344
1005
0
1070
   343
1005
0
1070
   172
1070
     1
1070
    76
1070
     0
1070
    75
1070
     0
1070
   282
1070
     0
1070
   281
1070
     0
1070
    71
1070
     0
1070
   144
1040
1.0
1070
    74
1070
     0
1070
   279
1070
     0
1070
   173
1070
     1
1070
   340
1005
C5
1070
   271
1070
     3
1070
   272
1070
     2
1070
    77
1070
     1
1070
    73
1070
     0
1070
   171
1070
     3
1070
   274
1070
     4
1070
   177
1070
    18
1070
   176
1070
    18
1070
   178
1070
    18
1070
    78
1070
     8
1070
    48
1040
-0.1
1070
    41
1040
20.0
1070
   147
1040
6.0
1070
    42
1040
1.0
1070
    44
1040
2.0
1070
   140
1040
12.0
1002
}
1001
ACAD_DSTYLE_DIM_LINETYPE
1070
   380
1005
16
1001
ACAD_DSTYLE_DIM_EXT1_LINETYPE
1070
   381
1005
16
1001
ACAD_DSTYLE_DIM_EXT2_LINETYPE
1070
   382
1005
16
  0
DIMENSION
  5
111
102
{ACAD_REACTORS
330
113
102
}
102
{ACAD_XDICTIONARY
360
112
102
}
330
BD
100
AcDbEntity
 67
     1
  8
1
  6
Continuous
 62
    18
370
    13
100
AcDbDimension
  2
_U3
 10
83.556364
 20
565.93526
 30
0.0
 11
83.556364
 21
657.19626
 31
0.0
 70
   160
  1
\fArial Unicode MS|b0|i0;\C18;184
 71
     1
 42
182.522
 52
90.0
  3
Standard
100
AcDbAlignedDimension
 13
111.573033
 23
748.45726
 33
0.0
 14
366.573033
 24
565.93526
 34
0.0
 50
90.0
100
AcDbRotatedDimension
1001
ACAD
1000
DSTYLE
1002
{
1070
   371
1070
    13
1070
   372
1070
    13
1070
     3
1000

1070
   170
1070
     0
1070
   277
1070
     2
1070
   284
1070
     8
1070
   278
1070
    44
1070
   146
1040
0.1
1070
   345
1005
16
1070
   347
1005
16
1070
   346
1005
16
1070
   344
1005
0
1070
   343
1005
0
1070
   172
1070
     1
1070
    76
1070
     0
1070
    75
1070
     0
1070
   282
1070
     0
1070
   281
1070
     0
1070
    71
1070
     0
1070
   144
1040
1.0
1070
    74
1070
     0
1070
   279
1070
     0
1070
   173
1070
     1
1070
   340
1005
C5
1070
   271
1070
     3
1070
   272
1070
     2
1070
    77
1070
     1
1070
    73
1070
     0
1070
   171
1070
     3
1070
   274
1070
     4
1070
   177
1070
    18
1070
   176
1070
    18
1070
   178
1070
    18
1070
    78
1070
     8
1070
    48
1040
-0.1
1070
    41
1040
20.0
1070
   147
1040
6.0
1070
    42
1040
1.0
1070
    44
1040
2.0
1070
   140
1040
12.0
1002
}
1001
ACAD_DSTYLE_DIM_LINETYPE
1070
   380
1005
16
1001
ACAD_DSTYLE_DIM_EXT1_LINETYPE
1070
   381
1005
16
1001
ACAD_DSTYLE_DIM_EXT2_LINETYPE
1070
   382
1005
16
  0
DIMENSION
  5
129
102
{ACAD_REACTORS
330
12B
102
}
102
{ACAD_XDICTIONARY
360
12A
102
}
330
BD
100
AcDbEntity
 67
     1
  8
1
  6
Continuous
 62
    18
370
    13
100
AcDbDimension
  2
_U4
 10
524.302675
 20
352.69048
 30
0.0
 11
532.399562
 21
361.417921
 31
0.0
 70
   164
 71
     1
 42
80.0
  3
Standard
100
AcDbRadialDimension
 15
578.712904
 25
411.337961
 35
0.0
 40
0.0
1001
ACAD
1000
DSTYLE
1002
{
1070
   371
1070
    13
1070
   372
1070
    13
1070
     3
1000
R<>
1070
   170
1070
     0
1070
   277
1070
     2
1070
   284
1070
     8
1070
   278
1070
    44
1070
   146
1040
0.1
1070
   345
1005
16
1070
   347
1005
16
1070
   346
1005
16
1070
   343
1005
0
1070
   344
1005
0
1070
    74
1070
     0
1070
    76
1070
     0
1070
    75
1070
     0
1070
   282
1070
     0
1070
   281
1070
     0
1070
    71
1070
     0
1070
   144
1040
1.0
1070
   279
1070
     0
1070
   173
1070
     1
1070
   340
1005
C5
1070
   271
1070
     3
1070
   272
1070
     2
1070
    77
1070
     1
1070
    73
1070
     0
1070
   171
1070
     3
1070
   274
1070
     4
1070
   177
1070
    18
1070
   176
1070
    18
1070
   178
1070
    18
1070
    78
1070
     8
1070
    48
1040
-0.1
1070
    41
1040
20.0
1070
   147
1040
6.0
1070
    42
1040
1.0
1070
    44
1040
2.0
1070
   140
1040
12.0
1002
}
1001
ACAD_DSTYLE_DIM_LINETYPE
1070
   380
1005
16
1001
ACAD_DSTYLE_DIM_EXT1_LINETYPE
1070
   381
1005
16
1001
ACAD_DSTYLE_DIM_EXT2_LINETYPE
1070
   382
1005
16
  0
ENDSEC
  0
SECTION
  2
OBJECTS
  0
DICTIONARY
  5
C
330
0
100
AcDbDictionary
281
     1
  3
ACAD_DETAILVIEWSTYLE
350
19A
  3
ACAD_GROUP
350
D
  3
ACAD_LAYOUT
350
1A
  3
ACAD_MATERIAL
350
43
  3
ACAD_MLEADERSTYLE
350
5B
  3
ACAD_MLINESTYLE
350
17
  3
ACAD_PLOTSETTINGS
350
19
  3
ACAD_PLOTSTYLENAME
350
E
  3
ACAD_SCALELIST
350
47
  3
ACAD_SECTIONVIEWSTYLE
350
19B
  3
ACAD_TABLESTYLE
350
59
  3
ACAD_VISUALSTYLE
350
2A
  3
ACDB_RECOMPOSE_DATA
350
197
  3
AcDbVariableDictionary
350
157
  0
DICTIONARY
  5
155
330
8
100
AcDbDictionary
280
     1
281
     1
  3
ACAD_XREC_ROUNDTRIP
360
156
  0
DICTIONARY
  5
14C
330
C0
100
AcDbDictionary
280
     1
281
     1
  3
ACAD_XREC_ROUNDTRIP
360
14D
  0
DICTIONARY
  5
14E
330
C1
100
AcDbDictionary
280
     1
281
     1
  3
ACAD_XREC_ROUNDTRIP
360
14F
  0
DICTIONARY
  5
150
330
C2
100
AcDbDictionary
280
     1
281
     1
  3
ACAD_XREC_ROUNDTRIP
360
151
  0
DICTIONARY
  5
C6
330
C4
100
AcDbDictionary
280
     1
281
     1
  3
ACAD_DIMASSOC
360
C7
  0
DICTIONARY
  5
E0
330
DF
100
AcDbDictionary
280
     1
281
     1
  3
ACAD_DIMASSOC
360
E1
  0
DICTIONARY
  5
F8
330
F7
100
AcDbDictionary
280
     1
281
     1
  3
ACAD_DIMASSOC
360
F9
  0
DICTIONARY
  5
112
330
111
100
AcDbDictionary
280
     1
281
     1
  3
ACAD_DIMASSOC
360
113
  0
DICTIONARY
  5
12A
330
129
100
AcDbDictionary
280
     1
281
     1
  3
ACAD_DIMASSOC
360
12B
  0
DICTIONARY
  5
19A
102
{ACAD_REACTORS
330
C
102
}
330
C
100
AcDbDictionary
281
     1
  0
DICTIONARY
  5
D
102
{ACAD_REACTORS
330
C
102
}
330
C
100
AcDbDictionary
281
     1
  0
DICTIONARY
  5
1A
102
{ACAD_REACTORS
330
C
102
}
330
C
100
AcDbDictionary
281
     1
  3
Model
350
22
  3
Sheet 1
350
13B
  0
DICTIONARY
  5
43
102
{ACAD_REACTORS
330
C
102
}
330
C
100
AcDbDictionary
281
     1
  3
ByBlock
350
45
  3
ByLayer
350
44
  3
Global
350
46
  0
DICTIONARY
  5
5B
102
{ACAD_REACTORS
330
C
102
}
330
C
100
AcDbDictionary
281
     1
  3
Standard
350
5C
  0
DICTIONARY
  5
17
102
{ACAD_REACTORS
330
C
102
}
330
C
100
AcDbDictionary
281
     1
  3
Standard
350
18
  0
DICTIONARY
  5
19
102
{ACAD_REACTORS
330
C
102
}
330
C
100
AcDbDictionary
281
     1
  0
ACDBDICTIONARYWDFLT
  5
E
102
{ACAD_REACTORS
330
C
102
}
330
C
100
AcDbDictionary
281
     1
  3
Normal
350
F
100
AcDbDictionaryWithDefault
340
F
  0
DICTIONARY
  5
47
102
{ACAD_REACTORS
330
C
102
}
330
C
100
AcDbDictionary
281
     1
  3
A0
350
48
  3
A1
350
49
  3
A2
350
4A
  3
A3
350
4B
  3
A4
350
4C
  3
A5
350
4D
  3
A6
350
4E
  3
A7
350
4F
  3
A8
350
50
  3
A9
350
51
  3
B1
350
52
  3
B2
350
53
  3
B3
350
54
  3
B4
350
55
  3
B5
350
56
  3
B6
350
57
  3
B7
350
58
  0
DICTIONARY
  5
19B
102
{ACAD_REACTORS
330
C
102
}
330
C
100
AcDbDictionary
281
     1
  0
DICTIONARY
  5
59
102
{ACAD_REACTORS
330
C
102
}
330
C
100
AcDbDictionary
281
     1
  3
Standard
350
5A
  0
DICTIONARY
  5
2A
102
{ACAD_REACTORS
330
C
102
}
330
C
100
AcDbDictionary
281
     1
  3
2dWireframe
350
2F
  3
Basic
350
32
  3
Brighten
350
36
  3
ColorChange
350
3A
  3
Conceptual
350
34
  3
Dim
350
35
  3
EdgeColorOff
350
3D
  3
Facepattern
350
39
  3
Flat
350
2B
  3
FlatWithEdges
350
2C
  3
Gouraud
350
2D
  3
GouraudWithEdges
350
2E
  3
Hidden
350
31
  3
JitterOff
350
3B
  3
Linepattern
350
38
  3
OverhangOff
350
3C
  3
Realistic
350
33
  3
Shaded
350
42
  3
Shaded with edges
350
41
  3
Shades of Gray
350
3E
  3
Sketchy
350
3F
  3
Thicken
350
37
  3
Wireframe
350
30
  3
X-Ray
350
40
  0
XRECORD
  5
197
102
{ACAD_REACTORS
330
C
102
}
330
C
100
AcDbXrecord
280
     1
 90
        1
330
5A
  0
DICTIONARY
  5
157
102
{ACAD_REACTORS
330
C
102
}
330
C
100
AcDbDictionary
281
     1
  3
CANNOSCALE
350
158
  3
CMLEADERSTYLE
350
199
  3
CTABLESTYLE
350
198
  3
MSLTSCALE
350
159
  3
XCLIPFRAME
350
15A
  0
XRECORD
  5
156
102
{ACAD_REACTORS
330
155
102
}
330
155
100
AcDbXrecord
280
     1
102
VTR_0.000_0.000_1.000_1.000_VISUALSTYLE
340
2F
102
VTR_0.000_0.000_1.000_1.000_GRIDDISPLAY
 70
     3
102
VTR_0.000_0.000_1.000_1.000_GRIDMAJOR
 70
     5
102
VTR_0.000_0.000_1.000_1.000_DEFAULTLIGHTING
280
     1
102
VTR_0.000_0.000_1.000_1.000_DEFAULTLIGHTINGTYPE
 70
     1
102
VTR_0.000_0.000_1.000_1.000_BRIGHTNESS
141
0.0
102
VTR_0.000_0.000_1.000_1.000_CONTRAST
142
0.0
102
VTR_0.000_0.000_0.500_1.000_VISUALSTYLE
340
2F
102
VTR_0.000_0.000_0.500_1.000_GRIDDISPLAY
 70
     3
102
VTR_0.000_0.000_0.500_1.000_GRIDMAJOR
 70
     5
102
VTR_0.000_0.000_0.500_1.000_DEFAULTLIGHTING
280
     1
102
VTR_0.000_0.000_0.500_1.000_DEFAULTLIGHTINGTYPE
 70
     1
102
VTR_0.000_0.000_0.500_1.000_BRIGHTNESS
141
0.0
102
VTR_0.000_0.000_0.500_1.000_CONTRAST
142
0.0
102
VTR_0.500_0.000_1.000_1.000_VISUALSTYLE
340
2F
102
VTR_0.500_0.000_1.000_1.000_GRIDDISPLAY
 70
     3
102
VTR_0.500_0.000_1.000_1.000_GRIDMAJOR
 70
     5
102
VTR_0.500_0.000_1.000_1.000_DEFAULTLIGHTING
280
     1
102
VTR_0.500_0.000_1.000_1.000_DEFAULTLIGHTINGTYPE
 70
     1
102
VTR_0.500_0.000_1.000_1.000_BRIGHTNESS
141
0.0
102
VTR_0.500_0.000_1.000_1.000_CONTRAST
142
0.0
102
VTR_0.000_0.500_1.000_1.000_VISUALSTYLE
340
2F
102
VTR_0.000_0.500_1.000_1.000_GRIDDISPLAY
 70
     3
102
VTR_0.000_0.500_1.000_1.000_GRIDMAJOR
 70
     5
102
VTR_0.000_0.500_1.000_1.000_DEFAULTLIGHTING
280
     1
102
VTR_0.000_0.500_1.000_1.000_DEFAULTLIGHTINGTYPE
 70
     1
102
VTR_0.000_0.500_1.000_1.000_BRIGHTNESS
141
0.0
102
VTR_0.000_0.500_1.000_1.000_CONTRAST
142
0.0
102
VTR_0.000_0.000_1.000_0.500_VISUALSTYLE
340
2F
102
VTR_0.000_0.000_1.000_0.500_GRIDDISPLAY
 70
     3
102
VTR_0.000_0.000_1.000_0.500_GRIDMAJOR
 70
     5
102
VTR_0.000_0.000_1.000_0.500_DEFAULTLIGHTING
280
     1
102
VTR_0.000_0.000_1.000_0.500_DEFAULTLIGHTINGTYPE
 70
     1
102
VTR_0.000_0.000_1.000_0.500_BRIGHTNESS
141
0.0
102
VTR_0.000_0.000_1.000_0.500_CONTRAST
142
0.0
102
VTR_0.000_0.500_0.500_1.000_VISUALSTYLE
340
2F
102
VTR_0.000_0.500_0.500_1.000_GRIDDISPLAY
 70
     3
102
VTR_0.000_0.500_0.500_1.000_GRIDMAJOR
 70
     5
102
VTR_0.000_0.500_0.500_1.000_DEFAULTLIGHTING
280
     1
102
VTR_0.000_0.500_0.500_1.000_DEFAULTLIGHTINGTYPE
 70
     1
102
VTR_0.000_0.500_0.500_1.000_BRIGHTNESS
141
0.0
102
VTR_0.000_0.500_0.500_1.000_CONTRAST
142
0.0
102
VTR_0.000_0.000_0.500_0.500_VISUALSTYLE
340
2F
102
VTR_0.000_0.000_0.500_0.500_GRIDDISPLAY
 70
     3
102
VTR_0.000_0.000_0.500_0.500_GRIDMAJOR
 70
     5
102
VTR_0.000_0.000_0.500_0.500_DEFAULTLIGHTING
280
     1
102
VTR_0.000_0.000_0.500_0.500_DEFAULTLIGHTINGTYPE
 70
     1
102
VTR_0.000_0.000_0.500_0.500_BRIGHTNESS
141
0.0
102
VTR_0.000_0.000_0.500_0.500_CONTRAST
142
0.0
102
VTR_0.500_0.000_1.000_0.500_VISUALSTYLE
340
2F
102
VTR_0.500_0.000_1.000_0.500_GRIDDISPLAY
 70
     3
102
VTR_0.500_0.000_1.000_0.500_GRIDMAJOR
 70
     5
102
VTR_0.500_0.000_1.000_0.500_DEFAULTLIGHTING
280
     1
102
VTR_0.500_0.000_1.000_0.500_DEFAULTLIGHTINGTYPE
 70
     1
102
VTR_0.500_0.000_1.000_0.500_BRIGHTNESS
141
0.0
102
VTR_0.500_0.000_1.000_0.500_CONTRAST
142
0.0
102
VTR_0.500_0.500_1.000_1.000_VISUALSTYLE
340
2F
102
VTR_0.500_0.500_1.000_1.000_GRIDDISPLAY
 70
     3
102
VTR_0.500_0.500_1.000_1.000_GRIDMAJOR
 70
     5
102
VTR_0.500_0.500_1.000_1.000_DEFAULTLIGHTING
280
     1
102
VTR_0.500_0.500_1.000_1.000_DEFAULTLIGHTINGTYPE
 70
     1
102
VTR_0.500_0.500_1.000_1.000_BRIGHTNESS
141
0.0
102
VTR_0.500_0.500_1.000_1.000_CONTRAST
142
0.0
102
VTR_0.000_0.500_0.333_1.000_VISUALSTYLE
340
2F
102
VTR_0.000_0.500_0.333_1.000_GRIDDISPLAY
 70
     3
102
VTR_0.000_0.500_0.333_1.000_GRIDMAJOR
 70
     5
102
VTR_0.000_0.500_0.333_1.000_DEFAULTLIGHTING
280
     1
102
VTR_0.000_0.500_0.333_1.000_DEFAULTLIGHTINGTYPE
 70
     1
102
VTR_0.000_0.500_0.333_1.000_BRIGHTNESS
141
0.0
102
VTR_0.000_0.500_0.333_1.000_CONTRAST
142
0.0
102
VTR_0.000_0.000_0.333_0.500_VISUALSTYLE
340
2F
102
VTR_0.000_0.000_0.333_0.500_GRIDDISPLAY
 70
     3
102
VTR_0.000_0.000_0.333_0.500_GRIDMAJOR
 70
     5
102
VTR_0.000_0.000_0.333_0.500_DEFAULTLIGHTING
280
     1
102
VTR_0.000_0.000_0.333_0.500_DEFAULTLIGHTINGTYPE
 70
     1
102
VTR_0.000_0.000_0.333_0.500_BRIGHTNESS
141
0.0
102
VTR_0.000_0.000_0.333_0.500_CONTRAST
142
0.0
102
VTR_0.333_0.500_0.667_1.000_VISUALSTYLE
340
2F
102
VTR_0.333_0.500_0.667_1.000_GRIDDISPLAY
 70
     3
102
VTR_0.333_0.500_0.667_1.000_GRIDMAJOR
 70
     5
102
VTR_0.333_0.500_0.667_1.000_DEFAULTLIGHTING
280
     1
102
VTR_0.333_0.500_0.667_1.000_DEFAULTLIGHTINGTYPE
 70
     1
102
VTR_0.333_0.500_0.667_1.000_BRIGHTNESS
141
0.0
102
VTR_0.333_0.500_0.667_1.000_CONTRAST
142
0.0
102
VTR_0.333_0.000_0.667_0.500_VISUALSTYLE
340
2F
102
VTR_0.333_0.000_0.667_0.500_GRIDDISPLAY
 70
     3
102
VTR_0.333_0.000_0.667_0.500_GRIDMAJOR
 70
     5
102
VTR_0.333_0.000_0.667_0.500_DEFAULTLIGHTING
280
     1
102
VTR_0.333_0.000_0.667_0.500_DEFAULTLIGHTINGTYPE
 70
     1
102
VTR_0.333_0.000_0.667_0.500_BRIGHTNESS
141
0.0
102
VTR_0.333_0.000_0.667_0.500_CONTRAST
142
0.0
102
VTR_0.667_0.500_1.000_1.000_VISUALSTYLE
340
2F
102
VTR_0.667_0.500_1.000_1.000_GRIDDISPLAY
 70
     3
102
VTR_0.667_0.500_1.000_1.000_GRIDMAJOR
 70
     5
102
VTR_0.667_0.500_1.000_1.000_DEFAULTLIGHTING
280
     1
102
VTR_0.667_0.500_1.000_1.000_DEFAULTLIGHTINGTYPE
 70
     1
102
VTR_0.667_0.500_1.000_1.000_BRIGHTNESS
141
0.0
102
VTR_0.667_0.500_1.000_1.000_CONTRAST
142
0.0
102
VTR_0.667_0.000_1.000_0.500_VISUALSTYLE
340
2F
102
VTR_0.667_0.000_1.000_0.500_GRIDDISPLAY
 70
     3
102
VTR_0.667_0.000_1.000_0.500_GRIDMAJOR
 70
     5
102
VTR_0.667_0.000_1.000_0.500_DEFAULTLIGHTING
280
     1
102
VTR_0.667_0.000_1.000_0.500_DEFAULTLIGHTINGTYPE
 70
     1
102
VTR_0.667_0.000_1.000_0.500_BRIGHTNESS
141
0.0
102
VTR_0.667_0.000_1.000_0.500_CONTRAST
142
0.0
  0
XRECORD
  5
14D
102
{ACAD_REACTORS
330
14C
102
}
330
14C
100
AcDbXrecord
280
     1
102
VISUALSTYLE
340
2F
102
GRIDDISPLAY
 70
     2
102
GRIDMAJOR
 70
     5
102
DEFAULTLIGHTING
280
     1
102
DEFAULTLIGHTINGTYPE
 70
     1
102
BRIGHTNESS
141
0.0
102
CONTRAST
142
0.0
  0
XRECORD
  5
14F
102
{ACAD_REACTORS
330
14E
102
}
330
14E
100
AcDbXrecord
280
     1
102
VISUALSTYLE
340
2F
102
GRIDDISPLAY
 70
     2
102
GRIDMAJOR
 70
     5
102
DEFAULTLIGHTING
280
     1
102
DEFAULTLIGHTINGTYPE
 70
     1
102
BRIGHTNESS
141
0.0
102
CONTRAST
142
0.0
  0
XRECORD
  5
151
102
{ACAD_REACTORS
330
150
102
}
330
150
100
AcDbXrecord
280
     1
102
VISUALSTYLE
340
2F
102
GRIDDISPLAY
 70
     2
102
GRIDMAJOR
 70
     5
102
DEFAULTLIGHTING
280
     1
102
DEFAULTLIGHTINGTYPE
 70
     1
102
BRIGHTNESS
141
0.0
102
CONTRAST
142
0.0
  0
DIMASSOC
  5
C7
102
{ACAD_REACTORS
330
C6
102
}
330
C6
100
AcDbDimAssoc
330
C4
 90
        3
 70
     0
 71
     1
  1
AcDbOsnapPointRef
 72
    10
331
C1
331
8A
 73
     0
 91
        1
 40
6.283185
 10
-240.0
 20
-1.252087
 30
0.0
 75
     0
  1
AcDbOsnapPointRef
 72
    10
331
C1
331
89
 73
     0
 91
        2
 40
3.141593
 10
240.0
 20
-1.252087
 30
0.0
 75
     0
  0
DIMASSOC
  5
E1
102
{ACAD_REACTORS
330
E0
102
}
330
E0
100
AcDbDimAssoc
330
DF
 90
        3
 70
     0
 71
     1
  1
AcDbOsnapPointRef
 72
    10
331
C1
331
88
 73
     0
 91
        1
 40
4.712389
 10
0.0
 20
-171.252087
 30
0.0
 75
     0
  1
AcDbOsnapPointRef
 72
    10
331
C1
331
87
 73
     0
 91
        2
 40
1.570796
 10
0.0
 20
168.747913
 30
0.0
 75
     0
  0
DIMASSOC
  5
F9
102
{ACAD_REACTORS
330
F8
102
}
330
F8
100
AcDbDimAssoc
330
F7
 90
        3
 70
     0
 71
     1
  1
AcDbOsnapPointRef
 72
    10
331
C1
331
86
 73
     0
 91
        1
 40
1.570796
 10
0.0
 20
183.747913
 30
0.0
 75
     0
  1
AcDbOsnapPointRef
 72
    10
331
C1
331
87
 73
     0
 91
        2
 40
1.570796
 10
0.0
 20
168.747913
 30
0.0
 75
     0
  0
DIMASSOC
  5
113
102
{ACAD_REACTORS
330
112
102
}
330
112
100
AcDbDimAssoc
330
111
 90
        3
 70
     0
 71
     1
  1
AcDbOsnapPointRef
 72
     4
331
C2
331
6B
 73
     3
 91
        1
 40
0.0
 10
-255.0
 20
0.0
 30
91.252087
 75
     0
  1
AcDbOsnapPointRef
 72
     4
331
C2
331
6C
 73
     3
 91
        2
 40
0.0
 10
0.0
 20
0.0
 30
-91.269913
 75
     0
  0
DIMASSOC
  5
12B
102
{ACAD_REACTORS
330
12A
102
}
330
12A
100
AcDbDimAssoc
330
129
 90
        2
 70
     1
 71
     1
  1
AcDbOsnapPointRef
 72
     3
331
C1
331
85
 73
     2
 91
        1
 40
0.0
 10
524.302675
 20
352.69048
 30
0.0
 75
     0
  0
LAYOUT
  5
22
102
{ACAD_REACTORS
330
1A
102
}
330
1A
100
AcDbPlotSettings
  1

  2
none_device
  4
Letter_(8.50_x_11.00_Inches)
  6

 40
6.35
 41
6.35
 42
6.350005
 43
6.350005
 44
215.9
 45
279.4
 46
0.0
 47
0.0
 48
0.0
 49
0.0
140
0.0
141
0.0
142
1.0
143
1.0
 70
  1712
 72
     0
 73
     0
 74
     0
  7

 75
     0
 76
     0
 77
     2
 78
   300
147
1.0
148
0.0
149
0.0
100
AcDbLayout
  1
Model
 70
     1
 71
     0
 10
-0.5
 20
-0.5
 11
5.0
 21
5.0
 12
0.0
 22
0.0
 32
0.0
 14
-0.5
 24
-0.5
 34
-0.5
 15
5.0
 25
5.0
 35
5.0
146
0.0
 13
0.0
 23
0.0
 33
0.0
 16
1.0
 26
0.0
 36
0.0
 17
0.0
 27
1.0
 37
0.0
 76
     0
330
1F
331
29
  0
LAYOUT
  5
13B
102
{ACAD_REACTORS
330
1A
102
}
330
1A
100
AcDbPlotSettings
  1

  2
none_device
  4
ISO_B1_(707.00_x_1000.00_MM)
  6

 40
7.5
 41
20.0
 42
7.5
 43
20.0
 44
707.0
 45
1000.0
 46
0.0
 47
54.215219
 48
0.0
 49
0.0
140
690.0
141
840.0
142
1.0
143
0.940029
 70
   692
 72
     1
 73
     0
 74
     1
  7

 75
     0
 76
     0
 77
     2
 78
   300
147
1.063797
148
0.5
149
0.5
100
AcDbLayout
  1
Sheet 1
 70
     1
 71
     1
 10
0.0
 20
0.0
 11
650.0
 21
800.0
 12
0.0
 22
0.0
 32
0.0
 14
0.0
 24
0.0
 34
0.0
 15
650.0
 25
800.0
 35
0.0
146
0.0
 13
0.0
 23
0.0
 33
0.0
 16
1.0
 26
0.0
 36
0.0
 17
0.0
 27
1.0
 37
0.0
 76
     0
330
BD
331
C0
  0
MATERIAL
  5
45
102
{ACAD_REACTORS
330
43
102
}
102
{ACAD_XDICTIONARY
360
18D
102
}
330
43
100
AcDbMaterial
  1
ByBlock
  0
MATERIAL
  5
44
102
{ACAD_REACTORS
330
43
102
}
102
{ACAD_XDICTIONARY
360
18B
102
}
330
43
100
AcDbMaterial
  1
ByLayer
  0
MATERIAL
  5
46
102
{ACAD_REACTORS
330
43
102
}
102
{ACAD_XDICTIONARY
360
18F
102
}
330
43
100
AcDbMaterial
  1
Global
  0
MLEADERSTYLE
  5
5C
102
{ACAD_REACTORS
330
5B
102
}
102
{ACAD_XDICTIONARY
360
195
102
}
330
5B
100
AcDbMLeaderStyle
170
     2
171
     1
172
     0
 90
        2
 40
0.0
 41
0.0
173
     1
 91
-1056964608
340
14
 92
       -2
290
     1
 42
0.09
291
     1
 43
0.36
  3
Standard
341
0
 44
0.18
300

342
11
174
     1
178
     6
175
     1
176
     0
 93
-1056964608
 45
0.18
292
     0
297
     0
 46
0.18
343
0
 94
-1056964608
 47
1.0
 49
1.0
140
1.0
293
     1
141
0.0
294
     1
177
     0
142
1.0
295
     0
296
     0
143
0.125
1001
ACAD_MLEADERVER
1070
     2
  0
MLINESTYLE
  5
18
102
{ACAD_REACTORS
330
17
102
}
330
17
100
AcDbMlineStyle
  2
Standard
 70
     0
  3

 62
   256
 51
90.0
 52
90.0
 71
     2
 49
0.5
 62
   256
  6
BYLAYER
 49
-0.5
 62
   256
  6
BYLAYER
  0
ACDBPLACEHOLDER
  5
F
102
{ACAD_REACTORS
330
E
102
}
330
E
  0
SCALE
  5
48
102
{ACAD_REACTORS
330
47
102
}
330
47
100
AcDbScale
 70
     0
300
1:1
140
1.0
141
1.0
290
     1
  0
SCALE
  5
49
102
{ACAD_REACTORS
330
47
102
}
330
47
100
AcDbScale
 70
     0
300
1/128" = 1'-0"
140
0.007812
141
12.0
290
     0
  0
SCALE
  5
4A
102
{ACAD_REACTORS
330
47
102
}
330
47
100
AcDbScale
 70
     0
300
1/64" = 1'-0"
140
0.015625
141
12.0
290
     0
  0
SCALE
  5
4B
102
{ACAD_REACTORS
330
47
102
}
330
47
100
AcDbScale
 70
     0
300
1/32" = 1'-0"
140
0.03125
141
12.0
290
     0
  0
SCALE
  5
4C
102
{ACAD_REACTORS
330
47
102
}
330
47
100
AcDbScale
 70
     0
300
1/16" = 1'-0"
140
0.0625
141
12.0
290
     0
  0
SCALE
  5
4D
102
{ACAD_REACTORS
330
47
102
}
330
47
100
AcDbScale
 70
     0
300
3/32" = 1'-0"
140
0.09375
141
12.0
290
     0
  0
SCALE
  5
4E
102
{ACAD_REACTORS
330
47
102
}
330
47
100
AcDbScale
 70
     0
300
1/8" = 1'-0"
140
0.125
141
12.0
290
     0
  0
SCALE
  5
4F
102
{ACAD_REACTORS
330
47
102
}
330
47
100
AcDbScale
 70
     0
300
3/16" = 1'-0"
140
0.1875
141
12.0
290
     0
  0
SCALE
  5
50
102
{ACAD_REACTORS
330
47
102
}
330
47
100
AcDbScale
 70
     0
300
1/4" = 1'-0"
140
0.25
141
12.0
290
     0
  0
SCALE
  5
51
102
{ACAD_REACTORS
330
47
102
}
330
47
100
AcDbScale
 70
     0
300
3/8" = 1'-0"
140
0.375
141
12.0
290
     0
  0
SCALE
  5
52
102
{ACAD_REACTORS
330
47
102
}
330
47
100
AcDbScale
 70
     0
300
1/2" = 1'-0"
140
0.5
141
12.0
290
     0
  0
SCALE
  5
53
102
{ACAD_REACTORS
330
47
102
}
330
47
100
AcDbScale
 70
     0
300
3/4" = 1'-0"
140
0.75
141
12.0
290
     0
  0
SCALE
  5
54
102
{ACAD_REACTORS
330
47
102
}
330
47
100
AcDbScale
 70
     0
300
1" = 1'-0"
140
1.0
141
12.0
290
     0
  0
SCALE
  5
55
102
{ACAD_REACTORS
330
47
102
}
330
47
100
AcDbScale
 70
     0
300
1-1/2" = 1'-0"
140
1.5
141
12.0
290
     0
  0
SCALE
  5
56
102
{ACAD_REACTORS
330
47
102
}
330
47
100
AcDbScale
 70
     0
300
3" = 1'-0"
140
3.0
141
12.0
290
     0
  0
SCALE
  5
57
102
{ACAD_REACTORS
330
47
102
}
330
47
100
AcDbScale
 70
     0
300
6" = 1'-0"
140
6.0
141
12.0
290
     0
  0
SCALE
  5
58
102
{ACAD_REACTORS
330
47
102
}
330
47
100
AcDbScale
 70
     0
300
1'-0" = 1'-0"
140
12.0
141
12.0
290
     0
  0
TABLESTYLE
  5
5A
102
{ACAD_REACTORS
330
59
102
}
102
{ACAD_XDICTIONARY
360
191
102
}
330
59
100
AcDbTableStyle
  3
Standard
 70
     0
 71
     0
 40
0.06
 41
0.06
280
     0
281
     0
  7
Standard
140
0.18
170
     2
 62
     0
 63
   257
283
     0
274
    -2
284
     1
 64
     0
275
    -2
285
     1
 65
     0
276
    -2
286
     1
 66
     0
277
    -2
287
     1
 67
     0
278
    -2
288
     1
 68
     0
279
    -2
289
     1
 69
     0
  7
Standard
140
0.25
170
     5
 62
     0
 63
   257
283
     0
274
    -2
284
     1
 64
     0
275
    -2
285
     1
 65
     0
276
    -2
286
     1
 66
     0
277
    -2
287
     1
 67
     0
278
    -2
288
     1
 68
     0
279
    -2
289
     1
 69
     0
  7
Standard
140
0.18
170
     5
 62
     0
 63
   257
283
     0
274
    -2
284
     1
 64
     0
275
    -2
285
     1
 65
     0
276
    -2
286
     1
 66
     0
277
    -2
287
     1
 67
     0
278
    -2
288
     1
 68
     0
279
    -2
289
     1
 69
     0
  0
VISUALSTYLE
  5
2F
102
{ACAD_REACTORS
330
2A
102
}
102
{ACAD_XDICTIONARY
360
163
102
}
330
2A
100
AcDbVisualStyle
  2
2dWireframe
 70
     4
 71
     0
 72
     2
 73
     0
 90
        0
 40
0.6
 41
30.0
 62
     5
 63
     7
421
 16777215
 74
     1
 91
        4
 64
     7
 65
   257
 75
     1
175
     1
 42
1.0
 92
        0
 66
   257
 43
1.0
 76
     1
 77
     6
 78
     2
 67
     7
 79
     5
170
     0
171
     0
290
     0
174
     0
 93
        1
 44
0.0
173
     0
291
     0
 45
0.0
1001
ACAD
1000
AcDbSavedByObjectVersion
1070
     0
  0
VISUALSTYLE
  5
32
102
{ACAD_REACTORS
330
2A
102
}
102
{ACAD_XDICTIONARY
360
169
102
}
330
2A
100
AcDbVisualStyle
  2
Basic
 70
     7
 71
     1
 72
     0
 73
     1
 90
        0
 40
0.6
 41
30.0
 62
     5
 63
     7
421
 16777215
 74
     0
 91
        4
 64
     7
 65
   257
 75
     1
175
     1
 42
1.0
 92
        8
 66
     7
 43
1.0
 76
     1
 77
     6
 78
     2
 67
     7
 79
     5
170
     0
171
     0
290
     0
174
     0
 93
        1
 44
0.0
173
     0
291
     1
 45
0.0
1001
ACAD
1000
AcDbSavedByObjectVersion
1070
     0
  0
VISUALSTYLE
  5
36
102
{ACAD_REACTORS
330
2A
102
}
102
{ACAD_XDICTIONARY
360
171
102
}
330
2A
100
AcDbVisualStyle
  2
Brighten
 70
    12
 71
     2
 72
     2
 73
     0
 90
        0
 40
0.6
 41
30.0
 62
     5
 63
     7
421
 16777215
 74
     1
 91
        4
 64
     7
 65
   257
 75
     1
175
     1
 42
1.0
 92
        8
 66
     7
 43
1.0
 76
     1
 77
     6
 78
     2
 67
     7
 79
     5
170
     0
171
     0
290
     0
174
     0
 93
        1
 44
50.0
173
     0
291
     1
 45
0.0
1001
ACAD
1000
AcDbSavedByObjectVersion
1070
     0
  0
VISUALSTYLE
  5
3A
102
{ACAD_REACTORS
330
2A
102
}
102
{ACAD_XDICTIONARY
360
179
102
}
330
2A
100
AcDbVisualStyle
  2
ColorChange
 70
    16
 71
     2
 72
     2
 73
     3
 90
        0
 40
0.6
 41
30.0
 62
     5
 63
     8
421
  8421504
 74
     1
 91
        4
 64
     7
 65
   257
 75
     1
175
     1
 42
1.0
 92
        8
 66
     8
424
  8421504
 43
1.0
 76
     1
 77
     6
 78
     2
 67
     7
 79
     5
170
     0
171
     0
290
     0
174
     0
 93
        1
 44
0.0
173
     0
291
     1
 45
0.0
1001
ACAD
1000
AcDbSavedByObjectVersion
1070
     0
  0
VISUALSTYLE
  5
34
102
{ACAD_REACTORS
330
2A
102
}
102
{ACAD_XDICTIONARY
360
16D
102
}
330
2A
100
AcDbVisualStyle
  2
Conceptual
 70
     9
 71
     3
 72
     2
 73
     0
 90
        0
 40
0.6
 41
30.0
 62
     5
 63
     7
421
 16777215
 74
     2
 91
        2
 64
     7
 65
   257
 75
     1
175
     1
 42
179.0
 92
        8
 66
     7
 43
1.0
 76
     1
 77
     6
 78
     2
 67
     7
 79
     3
170
     0
171
     0
290
     0
174
     0
 93
        1
 44
0.0
173
     0
291
     0
 45
0.0
1001
ACAD
1000
AcDbSavedByObjectVersion
1070
     0
  0
VISUALSTYLE
  5
35
102
{ACAD_REACTORS
330
2A
102
}
102
{ACAD_XDICTIONARY
360
16F
102
}
330
2A
100
AcDbVisualStyle
  2
Dim
 70
    11
 71
     2
 72
     2
 73
     0
 90
        0
 40
0.6
 41
30.0
 62
     5
 63
     7
421
 16777215
 74
     1
 91
        4
 64
     7
 65
   257
 75
     1
175
     1
 42
1.0
 92
        8
 66
     7
 43
1.0
 76
     1
 77
     6
 78
     2
 67
     7
 79
     5
170
     0
171
     0
290
     0
174
     0
 93
        1
 44
-50.0
173
     0
291
     1
 45
0.0
1001
ACAD
1000
AcDbSavedByObjectVersion
1070
     0
  0
VISUALSTYLE
  5
3D
102
{ACAD_REACTORS
330
2A
102
}
102
{ACAD_XDICTIONARY
360
17F
102
}
330
2A
100
AcDbVisualStyle
  2
EdgeColorOff
 70
    22
 71
     2
 72
     2
 73
     0
 90
        0
 40
0.6
 41
30.0
 62
     5
 63
     7
421
 16777215
 74
     1
 91
        4
 64
     7
 65
   257
 75
     1
175
     1
 42
1.0
 92
        8
 66
     7
 43
1.0
 76
     1
 77
     6
 78
     2
 67
     7
 79
     5
170
     0
171
     0
290
     0
174
     0
 93
        1
 44
0.0
173
     0
291
     1
 45
0.0
1001
ACAD
1000
AcDbSavedByObjectVersion
1070
     0
  0
VISUALSTYLE
  5
39
102
{ACAD_REACTORS
330
2A
102
}
102
{ACAD_XDICTIONARY
360
177
102
}
330
2A
100
AcDbVisualStyle
  2
Facepattern
 70
    15
 71
     2
 72
     2
 73
     0
 90
        0
 40
0.6
 41
30.0
 62
     5
 63
     7
421
 16777215
 74
     1
 91
        4
 64
     7
 65
   257
 75
     1
175
     1
 42
1.0
 92
        8
 66
     7
 43
1.0
 76
     1
 77
     6
 78
     2
 67
     7
 79
     5
170
     0
171
     0
290
     0
174
     0
 93
        1
 44
0.0
173
     0
291
     1
 45
0.0
1001
ACAD
1000
AcDbSavedByObjectVersion
1070
     0
  0
VISUALSTYLE
  5
2B
102
{ACAD_REACTORS
330
2A
102
}
102
{ACAD_XDICTIONARY
360
15B
102
}
330
2A
100
AcDbVisualStyle
  2
Flat
 70
     0
 71
     2
 72
     1
 73
     1
 90
        2
 40
0.6
 41
30.0
 62
     5
 63
     7
421
 16777215
 74
     0
 91
        0
 64
     7
 65
   257
 75
     1
175
     1
 42
1.0
 92
        8
 66
     7
 43
1.0
 76
     1
 77
     6
 78
     2
 67
     7
 79
     5
170
     0
171
     0
290
     0
174
     0
 93
       13
 44
0.0
173
     0
291
     1
 45
0.0
1001
ACAD
1000
AcDbSavedByObjectVersion
1070
     0
  0
VISUALSTYLE
  5
2C
102
{ACAD_REACTORS
330
2A
102
}
102
{ACAD_XDICTIONARY
360
15D
102
}
330
2A
100
AcDbVisualStyle
  2
FlatWithEdges
 70
     1
 71
     2
 72
     1
 73
     1
 90
        2
 40
0.6
 41
30.0
 62
     5
 63
     7
421
 16777215
 74
     1
 91
        0
 64
     7
 65
   257
 75
     1
175
     1
 42
1.0
 92
        0
 66
   257
 43
1.0
 76
     1
 77
     6
 78
     2
 67
     7
 79
     5
170
     0
171
     0
290
     0
174
     0
 93
       13
 44
0.0
173
     0
291
     1
 45
0.0
1001
ACAD
1000
AcDbSavedByObjectVersion
1070
     0
  0
VISUALSTYLE
  5
2D
102
{ACAD_REACTORS
330
2A
102
}
102
{ACAD_XDICTIONARY
360
15F
102
}
330
2A
100
AcDbVisualStyle
  2
Gouraud
 70
     2
 71
     2
 72
     2
 73
     1
 90
        2
 40
0.6
 41
30.0
 62
     5
 63
     7
421
 16777215
 74
     0
 91
        0
 64
     7
 65
   257
 75
     1
175
     1
 42
1.0
 92
        0
 66
     7
 43
1.0
 76
     1
 77
     6
 78
     2
 67
     7
 79
     5
170
     0
171
     0
290
     0
174
     0
 93
       13
 44
0.0
173
     0
291
     1
 45
0.0
1001
ACAD
1000
AcDbSavedByObjectVersion
1070
     0
  0
VISUALSTYLE
  5
2E
102
{ACAD_REACTORS
330
2A
102
}
102
{ACAD_XDICTIONARY
360
161
102
}
330
2A
100
AcDbVisualStyle
  2
GouraudWithEdges
 70
     3
 71
     2
 72
     2
 73
     1
 90
        2
 40
0.6
 41
30.0
 62
     5
 63
     7
421
 16777215
 74
     1
 91
        0
 64
     7
 65
   257
 75
     1
175
     1
 42
1.0
 92
        0
 66
   257
 43
1.0
 76
     1
 77
     6
 78
     2
 67
     7
 79
     5
170
     0
171
     0
290
     0
174
     0
 93
       13
 44
0.0
173
     0
291
     1
 45
0.0
1001
ACAD
1000
AcDbSavedByObjectVersion
1070
     0
  0
VISUALSTYLE
  5
31
102
{ACAD_REACTORS
330
2A
102
}
102
{ACAD_XDICTIONARY
360
167
102
}
330
2A
100
AcDbVisualStyle
  2
Hidden
 70
     6
 71
     1
 72
     2
 73
     2
 90
        0
 40
0.6
 41
30.0
 62
     5
 63
     7
421
 16777215
 74
     2
 91
        2
 64
     7
 65
   257
 75
     2
175
     1
 42
40.0
 92
        0
 66
   257
 43
1.0
 76
     1
 77
     6
 78
     2
 67
     7
 79
     3
170
     0
171
     0
290
     0
174
     0
 93
        1
 44
0.0
173
     0
291
     0
 45
0.0
1001
ACAD
1000
AcDbSavedByObjectVersion
1070
     0
  0
VISUALSTYLE
  5
3B
102
{ACAD_REACTORS
330
2A
102
}
102
{ACAD_XDICTIONARY
360
17B
102
}
330
2A
100
AcDbVisualStyle
  2
JitterOff
 70
    20
 71
     2
 72
     2
 73
     0
 90
        0
 40
0.6
 41
30.0
 62
     5
 63
     7
421
 16777215
 74
     1
 91
        4
 64
     7
 65
   257
 75
     1
175
     1
 42
1.0
 92
       10
 66
     7
 43
1.0
 76
     1
 77
     6
 78
     2
 67
     7
 79
     5
170
     0
171
     0
290
     0
174
     0
 93
        1
 44
0.0
173
     0
291
     1
 45
0.0
1001
ACAD
1000
AcDbSavedByObjectVersion
1070
     0
  0
VISUALSTYLE
  5
38
102
{ACAD_REACTORS
330
2A
102
}
102
{ACAD_XDICTIONARY
360
175
102
}
330
2A
100
AcDbVisualStyle
  2
Linepattern
 70
    14
 71
     2
 72
     2
 73
     0
 90
        0
 40
0.6
 41
30.0
 62
     5
 63
     7
421
 16777215
 74
     1
 91
        4
 64
     7
 65
   257
 75
     7
175
     7
 42
1.0
 92
        8
 66
     7
 43
1.0
 76
     1
 77
     6
 78
     2
 67
     7
 79
     5
170
     0
171
     0
290
     0
174
     0
 93
        1
 44
0.0
173
     0
291
     1
 45
0.0
1001
ACAD
1000
AcDbSavedByObjectVersion
1070
     0
  0
VISUALSTYLE
  5
3C
102
{ACAD_REACTORS
330
2A
102
}
102
{ACAD_XDICTIONARY
360
17D
102
}
330
2A
100
AcDbVisualStyle
  2
OverhangOff
 70
    21
 71
     2
 72
     2
 73
     0
 90
        0
 40
0.6
 41
30.0
 62
     5
 63
     7
421
 16777215
 74
     1
 91
        4
 64
     7
 65
   257
 75
     1
175
     1
 42
1.0
 92
        9
 66
     7
 43
1.0
 76
     1
 77
     6
 78
     2
 67
     7
 79
     5
170
     0
171
     0
290
     0
174
     0
 93
        1
 44
0.0
173
     0
291
     1
 45
0.0
1001
ACAD
1000
AcDbSavedByObjectVersion
1070
     0
  0
VISUALSTYLE
  5
33
102
{ACAD_REACTORS
330
2A
102
}
102
{ACAD_XDICTIONARY
360
16B
102
}
330
2A
100
AcDbVisualStyle
  2
Realistic
 70
     8
 71
     2
 72
     3
 73
     0
 90
        2
 40
0.6
 41
30.0
 62
     5
 63
     7
421
 16777215
 74
     0
 91
        0
 64
     7
 65
   257
 75
     1
175
     1
 42
1.0
 92
        8
 66
   257
 43
1.0
 76
     1
 77
     6
 78
     2
 67
     7
 79
     3
170
     0
171
     0
290
     0
174
     0
 93
       13
 44
0.0
173
     0
291
     0
 45
0.0
1001
ACAD
1000
AcDbSavedByObjectVersion
1070
     0
  0
VISUALSTYLE
  5
42
102
{ACAD_REACTORS
330
2A
102
}
102
{ACAD_XDICTIONARY
360
189
102
}
330
2A
100
AcDbVisualStyle
  2
Shaded
 70
    27
 71
     2
 72
     2
 73
     1
 90
        2
 40
0.6
 41
30.0
 62
     5
 63
     7
421
 16777215
 74
     0
 91
        4
 64
     7
 65
   257
 75
     1
175
     1
 42
1.0
 92
        8
 66
   257
 43
1.0
 76
     1
 77
     6
 78
     2
 67
     8
425
  7895160
 79
     3
170
     0
171
     0
290
     0
174
     0
 93
        5
 44
0.0
173
     0
291
     0
 45
0.0
1001
ACAD
1000
AcDbSavedByObjectVersion
1070
     0
  0
VISUALSTYLE
  5
41
102
{ACAD_REACTORS
330
2A
102
}
102
{ACAD_XDICTIONARY
360
187
102
}
330
2A
100
AcDbVisualStyle
  2
Shaded with edges
 70
    26
 71
     2
 72
     2
 73
     1
 90
        2
 40
0.6
 41
30.0
 62
     5
 63
     7
421
 16777215
 74
     1
 91
       10
 64
     7
 65
   257
 75
     2
175
     1
 42
1.0
 92
        8
 66
   257
 43
1.0
 76
     1
 77
     6
 78
     2
 67
     7
 79
     3
170
     0
171
     0
290
     0
174
     0
 93
        5
 44
0.0
173
     0
291
     0
 45
0.0
1001
ACAD
1000
AcDbSavedByObjectVersion
1070
     0
  0
VISUALSTYLE
  5
3E
102
{ACAD_REACTORS
330
2A
102
}
102
{ACAD_XDICTIONARY
360
181
102
}
330
2A
100
AcDbVisualStyle
  2
Shades of Gray
 70
    23
 71
     2
 72
     2
 73
     3
 90
        0
 40
0.6
 41
30.0
 62
     5
 63
     7
421
 16777215
 74
     2
 91
        2
 64
     7
 65
     7
 75
     1
175
     1
 42
40.0
 92
        8
 66
     7
 43
1.0
 76
     1
 77
     6
 78
     2
 67
     7
 79
     3
170
     0
171
     0
290
     0
174
     0
 93
        1
 44
0.0
173
     0
291
     0
 45
0.0
1001
ACAD
1000
AcDbSavedByObjectVersion
1070
     0
  0
VISUALSTYLE
  5
3F
102
{ACAD_REACTORS
330
2A
102
}
102
{ACAD_XDICTIONARY
360
183
102
}
330
2A
100
AcDbVisualStyle
  2
Sketchy
 70
    24
 71
     1
 72
     2
 73
     2
 90
        0
 40
0.6
 41
30.0
 62
     5
 63
     7
421
 16777215
 74
     2
 91
        2
 64
     7
 65
     7
 75
     1
175
     1
 42
40.0
 92
       11
 66
     7
 43
1.0
 76
     1
 77
     6
 78
     2
 67
     7
 79
     6
170
     0
171
     0
290
     0
174
     0
 93
        1
 44
0.0
173
     0
291
     0
 45
0.0
1001
ACAD
1000
AcDbSavedByObjectVersion
1070
     0
  0
VISUALSTYLE
  5
37
102
{ACAD_REACTORS
330
2A
102
}
102
{ACAD_XDICTIONARY
360
173
102
}
330
2A
100
AcDbVisualStyle
  2
Thicken
 70
    13
 71
     2
 72
     2
 73
     0
 90
        0
 40
0.6
 41
30.0
 62
     5
 63
     7
421
 16777215
 74
     1
 91
        4
 64
     7
 65
   257
 75
     1
175
     1
 42
1.0
 92
       12
 66
     7
 43
1.0
 76
     1
 77
     6
 78
     2
 67
     7
 79
     5
170
     0
171
     0
290
     0
174
     0
 93
        1
 44
0.0
173
     0
291
     1
 45
0.0
1001
ACAD
1000
AcDbSavedByObjectVersion
1070
     0
  0
VISUALSTYLE
  5
30
102
{ACAD_REACTORS
330
2A
102
}
102
{ACAD_XDICTIONARY
360
165
102
}
330
2A
100
AcDbVisualStyle
  2
Wireframe
 70
     5
 71
     0
 72
     2
 73
     0
 90
        0
 40
0.6
 41
30.0
 62
     5
 63
     7
421
 16777215
 74
     1
 91
        4
 64
     7
 65
   257
 75
     1
175
     1
 42
1.0
 92
        0
 66
   257
 43
1.0
 76
     1
 77
     6
 78
     2
 67
     7
 79
     3
170
     0
171
     0
290
     0
174
     0
 93
        1
 44
0.0
173
     0
291
     0
 45
0.0
1001
ACAD
1000
AcDbSavedByObjectVersion
1070
     0
  0
VISUALSTYLE
  5
40
102
{ACAD_REACTORS
330
2A
102
}
102
{ACAD_XDICTIONARY
360
185
102
}
330
2A
100
AcDbVisualStyle
  2
X-Ray
 70
    25
 71
     2
 72
     2
 73
     1
 90
        1
 40
0.5
 41
30.0
 62
     5
 63
     7
421
 16777215
 74
     1
 91
        0
 64
     7
 65
   257
 75
     1
175
     1
 42
1.0
 92
        8
 66
     7
 43
1.0
 76
     1
 77
     6
 78
     2
 67
     7
 79
     3
170
     0
171
     0
290
     0
174
     0
 93
       13
 44
0.0
173
     0
291
     0
 45
0.0
1001
ACAD
1000
AcDbSavedByObjectVersion
1070
     0
  0
DICTIONARYVAR
  5
158
102
{ACAD_REACTORS
330
157
102
}
330
157
100
DictionaryVariables
280
     0
  1
1:1
  0
DICTIONARYVAR
  5
199
102
{ACAD_REACTORS
330
157
102
}
330
157
100
DictionaryVariables
280
     0
  1
Standard
  0
DICTIONARYVAR
  5
198
102
{ACAD_REACTORS
330
157
102
}
330
157
100
DictionaryVariables
280
     0
  1
Standard
  0
DICTIONARYVAR
  5
159
102
{ACAD_REACTORS
330
157
102
}
330
157
100
DictionaryVariables
280
     0
  1
1
  0
DICTIONARYVAR
  5
15A
102
{ACAD_REACTORS
330
157
102
}
330
157
100
DictionaryVariables
280
     0
  1
2
  0
DICTIONARY
  5
18D
330
45
100
AcDbDictionary
280
     1
281
     1
  3
ACAD_XREC_ROUNDTRIP
360
18E
  0
DICTIONARY
  5
18B
330
44
100
AcDbDictionary
280
     1
281
     1
  3
ACAD_XREC_ROUNDTRIP
360
18C
  0
DICTIONARY
  5
18F
330
46
100
AcDbDictionary
280
     1
281
     1
  3
ACAD_XREC_ROUNDTRIP
360
190
  0
DICTIONARY
  5
195
330
5C
100
AcDbDictionary
280
     1
281
     1
  3
ACAD_XREC_ROUNDTRIP
360
196
  0
DICTIONARY
  5
191
330
5A
100
AcDbDictionary
280
     1
281
     1
  3
ACAD_ROUNDTRIP_2008_TABLESTYLE_CELLSTYLEMAP
360
193
  3
ACAD_XREC_ROUNDTRIP
360
192
  0
DICTIONARY
  5
163
330
2F
100
AcDbDictionary
280
     1
281
     1
  3
ACAD_XREC_ROUNDTRIP
360
164
  0
DICTIONARY
  5
169
330
32
100
AcDbDictionary
280
     1
281
     1
  3
ACAD_XREC_ROUNDTRIP
360
16A
  0
DICTIONARY
  5
171
330
36
100
AcDbDictionary
280
     1
281
     1
  3
ACAD_XREC_ROUNDTRIP
360
172
  0
DICTIONARY
  5
179
330
3A
100
AcDbDictionary
280
     1
281
     1
  3
ACAD_XREC_ROUNDTRIP
360
17A
  0
DICTIONARY
  5
16D
330
34
100
AcDbDictionary
280
     1
281
     1
  3
ACAD_XREC_ROUNDTRIP
360
16E
  0
DICTIONARY
  5
16F
330
35
100
AcDbDictionary
280
     1
281
     1
  3
ACAD_XREC_ROUNDTRIP
360
170
  0
DICTIONARY
  5
17F
330
3D
100
AcDbDictionary
280
     1
281
     1
  3
ACAD_XREC_ROUNDTRIP
360
180
  0
DICTIONARY
  5
177
330
39
100
AcDbDictionary
280
     1
281
     1
  3
ACAD_XREC_ROUNDTRIP
360
178
  0
DICTIONARY
  5
15B
330
2B
100
AcDbDictionary
280
     1
281
     1
  3
ACAD_XREC_ROUNDTRIP
360
15C
  0
DICTIONARY
  5
15D
330
2C
100
AcDbDictionary
280
     1
281
     1
  3
ACAD_XREC_ROUNDTRIP
360
15E
  0
DICTIONARY
  5
15F
330
2D
100
AcDbDictionary
280
     1
281
     1
  3
ACAD_XREC_ROUNDTRIP
360
160
  0
DICTIONARY
  5
161
330
2E
100
AcDbDictionary
280
     1
281
     1
  3
ACAD_XREC_ROUNDTRIP
360
162
  0
DICTIONARY
  5
167
330
31
100
AcDbDictionary
280
     1
281
     1
  3
ACAD_XREC_ROUNDTRIP
360
168
  0
DICTIONARY
  5
17B
330
3B
100
AcDbDictionary
280
     1
281
     1
  3
ACAD_XREC_ROUNDTRIP
360
17C
  0
DICTIONARY
  5
175
330
38
100
AcDbDictionary
280
     1
281
     1
  3
ACAD_XREC_ROUNDTRIP
360
176
  0
DICTIONARY
  5
17D
330
3C
100
AcDbDictionary
280
     1
281
     1
  3
ACAD_XREC_ROUNDTRIP
360
17E
  0
DICTIONARY
  5
16B
330
33
100
AcDbDictionary
280
     1
281
     1
  3
ACAD_XREC_ROUNDTRIP
360
16C
  0
DICTIONARY
  5
189
330
42
100
AcDbDictionary
280
     1
281
     1
  3
ACAD_XREC_ROUNDTRIP
360
18A
  0
DICTIONARY
  5
187
330
41
100
AcDbDictionary
280
     1
281
     1
  3
ACAD_XREC_ROUNDTRIP
360
188
  0
DICTIONARY
  5
181
330
3E
100
AcDbDictionary
280
     1
281
     1
  3
ACAD_XREC_ROUNDTRIP
360
182
  0
DICTIONARY
  5
183
330
3F
100
AcDbDictionary
280
     1
281
     1
  3
ACAD_XREC_ROUNDTRIP
360
184
  0
DICTIONARY
  5
173
330
37
100
AcDbDictionary
280
     1
281
     1
  3
ACAD_XREC_ROUNDTRIP
360
174
  0
DICTIONARY
  5
165
330
30
100
AcDbDictionary
280
     1
281
     1
  3
ACAD_XREC_ROUNDTRIP
360
166
  0
DICTIONARY
  5
185
330
40
100
AcDbDictionary
280
     1
281
     1
  3
ACAD_XREC_ROUNDTRIP
360
186
  0
XRECORD
  5
18E
102
{ACAD_REACTORS
330
18D
102
}
330
18D
100
AcDbXrecord
280
     1
102
MATERIAL
148
0.0
149
0.0
149
0.0
 93
        0
 94
      127
282
     0
 72
     1
 77
     1
171
     1
175
     1
179
     1
273
     0
  0
XRECORD
  5
18C
102
{ACAD_REACTORS
330
18B
102
}
330
18B
100
AcDbXrecord
280
     1
102
MATERIAL
148
0.0
149
0.0
149
0.0
 93
        0
 94
      127
282
     0
 72
     1
 77
     1
171
     1
175
     1
179
     1
273
     0
  0
XRECORD
  5
190
102
{ACAD_REACTORS
330
18F
102
}
330
18F
100
AcDbXrecord
280
     1
102
MATERIAL
148
0.0
149
0.0
149
0.0
 93
        0
 94
      127
282
     0
 72
     1
 77
     1
171
     1
175
     1
179
     1
273
     0
  0
XRECORD
  5
196
102
{ACAD_REACTORS
330
195
102
}
330
195
100
AcDbXrecord
280
     1
102
ACAD_ROUNDTRIP_2010_MLEADER_STYLE
  0
CELLSTYLEMAP
  5
193
102
{ACAD_REACTORS
330
191
102
}
330
191
100
AcDbCellStyleMap
 90
        3
300
CELLSTYLE
  1
TABLEFORMAT_BEGIN
 90
        5
170
     1
 91
        0
 92
    32768
 62
   257
 93
        1
300
CONTENTFORMAT
  1
CONTENTFORMAT_BEGIN
 90
        0
 91
        0
 92
        4
 93
        0
300

 40
0.0
140
1.0
 94
        5
 62
     0
340
11
144
0.25
309
CONTENTFORMAT_END
171
     1
301
MARGIN
  1
CELLMARGIN_BEGIN
 40
0.06
 40
0.06
 40
0.06
 40
0.06
 40
0.06
 40
0.06
309
CELLMARGIN_END
 94
        6
 95
        1
302
GRIDFORMAT
  1
GRIDFORMAT_BEGIN
 90
        0
 91
        1
 62
     0
 92
       -2
340
14
 93
        0
 40
0.045
309
GRIDFORMAT_END
 95
        2
302
GRIDFORMAT
  1
GRIDFORMAT_BEGIN
 90
        0
 91
        1
 62
     0
 92
       -2
340
14
 93
        0
 40
0.045
309
GRIDFORMAT_END
 95
        4
302
GRIDFORMAT
  1
GRIDFORMAT_BEGIN
 90
        0
 91
        1
 62
     0
 92
       -2
340
14
 93
        0
 40
0.045
309
GRIDFORMAT_END
 95
        8
302
GRIDFORMAT
  1
GRIDFORMAT_BEGIN
 90
        0
 91
        1
 62
     0
 92
       -2
340
14
 93
        0
 40
0.045
309
GRIDFORMAT_END
 95
       16
302
GRIDFORMAT
  1
GRIDFORMAT_BEGIN
 90
        0
 91
        1
 62
     0
 92
       -2
340
14
 93
        0
 40
0.045
309
GRIDFORMAT_END
 95
       32
302
GRIDFORMAT
  1
GRIDFORMAT_BEGIN
 90
        0
 91
        1
 62
     0
 92
       -2
340
14
 93
        0
 40
0.045
309
GRIDFORMAT_END
309
TABLEFORMAT_END
  1
CELLSTYLE_BEGIN
 90
        1
 91
        1
300
_TITLE
309
CELLSTYLE_END
300
CELLSTYLE
  1
TABLEFORMAT_BEGIN
 90
        5
170
     1
 91
        0
 92
        0
 62
   257
 93
        1
300
CONTENTFORMAT
  1
CONTENTFORMAT_BEGIN
 90
        0
 91
        0
 92
        4
 93
        0
300

 40
0.0
140
1.0
 94
        5
 62
     0
340
11
144
0.18
309
CONTENTFORMAT_END
171
     1
301
MARGIN
  1
CELLMARGIN_BEGIN
 40
0.06
 40
0.06
 40
0.06
 40
0.06
 40
0.06
 40
0.06
309
CELLMARGIN_END
 94
        6
 95
        1
302
GRIDFORMAT
  1
GRIDFORMAT_BEGIN
 90
        0
 91
        1
 62
     0
 92
       -2
340
14
 93
        0
 40
0.045
309
GRIDFORMAT_END
 95
        2
302
GRIDFORMAT
  1
GRIDFORMAT_BEGIN
 90
        0
 91
        1
 62
     0
 92
       -2
340
14
 93
        0
 40
0.045
309
GRIDFORMAT_END
 95
        4
302
GRIDFORMAT
  1
GRIDFORMAT_BEGIN
 90
        0
 91
        1
 62
     0
 92
       -2
340
14
 93
        0
 40
0.045
309
GRIDFORMAT_END
 95
        8
302
GRIDFORMAT
  1
GRIDFORMAT_BEGIN
 90
        0
 91
        1
 62
     0
 92
       -2
340
14
 93
        0
 40
0.045
309
GRIDFORMAT_END
 95
       16
302
GRIDFORMAT
  1
GRIDFORMAT_BEGIN
 90
        0
 91
        1
 62
     0
 92
       -2
340
14
 93
        0
 40
0.045
309
GRIDFORMAT_END
 95
       32
302
GRIDFORMAT
  1
GRIDFORMAT_BEGIN
 90
        0
 91
        1
 62
     0
 92
       -2
340
14
 93
        0
 40
0.045
309
GRIDFORMAT_END
309
TABLEFORMAT_END
  1
CELLSTYLE_BEGIN
 90
        2
 91
        1
300
_HEADER
309
CELLSTYLE_END
300
CELLSTYLE
  1
TABLEFORMAT_BEGIN
 90
        5
170
     1
 91
        0
 92
        0
 62
   257
 93
        1
300
CONTENTFORMAT
  1
CONTENTFORMAT_BEGIN
 90
        0
 91
        0
 92
        4
 93
        0
300

 40
0.0
140
1.0
 94
        2
 62
     0
340
11
144
0.18
309
CONTENTFORMAT_END
171
     1
301
MARGIN
  1
CELLMARGIN_BEGIN
 40
0.06
 40
0.06
 40
0.06
 40
0.06
 40
0.06
 40
0.06
309
CELLMARGIN_END
 94
        6
 95
        1
302
GRIDFORMAT
  1
GRIDFORMAT_BEGIN
 90
        0
 91
        1
 62
     0
 92
       -2
340
14
 93
        0
 40
0.045
309
GRIDFORMAT_END
 95
        2
302
GRIDFORMAT
  1
GRIDFORMAT_BEGIN
 90
        0
 91
        1
 62
     0
 92
       -2
340
14
 93
        0
 40
0.045
309
GRIDFORMAT_END
 95
        4
302
GRIDFORMAT
  1
GRIDFORMAT_BEGIN
 90
        0
 91
        1
 62
     0
 92
       -2
340
14
 93
        0
 40
0.045
309
GRIDFORMAT_END
 95
        8
302
GRIDFORMAT
  1
GRIDFORMAT_BEGIN
 90
        0
 91
        1
 62
     0
 92
       -2
340
14
 93
        0
 40
0.045
309
GRIDFORMAT_END
 95
       16
302
GRIDFORMAT
  1
GRIDFORMAT_BEGIN
 90
        0
 91
        1
 62
     0
 92
       -2
340
14
 93
        0
 40
0.045
309
GRIDFORMAT_END
 95
       32
302
GRIDFORMAT
  1
GRIDFORMAT_BEGIN
 90
        0
 91
        1
 62
     0
 92
       -2
340
14
 93
        0
 40
0.045
309
GRIDFORMAT_END
309
TABLEFORMAT_END
  1
CELLSTYLE_BEGIN
 90
        3
 91
        2
300
_DATA
309
CELLSTYLE_END
  0
XRECORD
  5
192
102
{ACAD_REACTORS
330
191
102
}
330
191
100
AcDbXrecord
280
     1
102
ACAD_ROUNDTRIP_PRE2007_TABLESTYLE
 90
        4
 91
        0
  1

 92
        4
 93
        0
  2

 94
        4
 95
        0
  3

  0
XRECORD
  5
164
102
{ACAD_REACTORS
330
163
102
}
330
163
100
AcDbXrecord
280
     1
102
RTVSPropertyOp0
 70
     1
102
RTVSPropertyOp1
 70
     1
102
RTVSPropertyOp2
 70
     1
102
RTVSPropertyOp3
 70
     1
102
RTVSPropertyOp4
 70
     1
102
RTVSPropertyOp5
 70
     1
102
RTVSPropertyOp6
 70
     1
102
RTVSPropertyOp7
 70
     1
102
RTVSPropertyOp8
 70
     1
102
RTVSPropertyOp9
 70
     1
102
RTVSPropertyOp10
 70
     1
102
RTVSPropertyOp11
 70
     1
102
RTVSPropertyOp12
 70
     1
102
RTVSPropertyOp13
 70
     1
102
RTVSPropertyOp14
 70
     1
102
RTVSPropertyOp15
 70
     1
102
RTVSPropertyOp16
 70
     1
102
RTVSPropertyOp17
 70
     1
102
RTVSPropertyOp18
 70
     1
102
RTVSPropertyOp19
 70
     1
102
RTVSPropertyOp20
 70
     1
102
RTVSPropertyOp21
 70
     1
102
RTVSPropertyOp22
 70
     1
102
RTVSPropertyOp23
 70
     1
102
RTVSPropertyOp24
 70
     1
102
RTVSPropertyOp25
 70
     1
102
RTVSPropertyOp26
 70
     1
102
RTVSPropertyOp27
 70
     1
102
RTVSPropertyOp28
 70
     1
102
RTVSPropertyOp29
 70
     1
102
RTVSPropertyOp30
 70
     1
102
RTVSPropertyOp31
 70
     1
102
RTVSPropertyOp32
 70
     1
102
RTVSPropertyOp33
 70
     1
102
RTVSPropertyOp34
 70
     1
102
RTVSPropertyOp35
 70
     1
102
RTVSPropertyOp36
 70
     1
102
RTVSPropertyOp37
 70
     1
102
RTVSPropertyOp38
 70
     1
102
RTVSPropertyOp39
 70
     1
102
RTVSPropertyOp40
 70
     1
102
RTVSPropertyOp41
 70
     1
102
RTVSPropertyOp42
 70
     1
102
RTVSPropertyOp43
 70
     1
102
RTVSPropertyOp44
 70
     1
102
RTVSPropertyOp45
 70
     1
102
RTVSPropertyOp46
 70
     1
102
RTVSPropertyOp47
 70
     1
102
RTVSPropertyOp48
 70
     1
102
RTVSPropertyOp49
 70
     1
102
RTVSPropertyOp50
 70
     1
102
RTVSPropertyOp51
 70
     0
102
RTVSPropertyOp52
 70
     0
102
RTVSPropertyOp53
 70
     1
102
RTVSPropertyOp54
 70
     1
102
RTVSPropertyOp55
 70
     1
102
RTVSPropertyOp56
 70
     1
102
RTVSPropertyOp57
 70
     1
102
RTVSPost2010Prop28
280
     1
102
RTVSPost2010PropOp28
 70
     1
102
RTVSPost2010Prop29
280
     1
102
RTVSPost2010PropOp29
 70
     1
102
RTVSPost2010Prop30
280
     0
102
RTVSPost2010PropOp30
 70
     1
102
RTVSPost2010Prop31
280
     0
102
RTVSPost2010PropOp31
 70
     1
102
RTVSPost2010Prop32
280
     0
102
RTVSPost2010PropOp32
 70
     1
102
RTVSPost2010Prop33
280
     0
102
RTVSPost2010PropOp33
 70
     1
102
RTVSPost2010Prop34
280
     0
102
RTVSPost2010PropOp34
 70
     1
102
RTVSPost2010Prop35
280
     0
102
RTVSPost2010PropOp35
 70
     1
102
RTVSPost2010Prop36
280
     0
102
RTVSPost2010PropOp36
 70
     1
102
RTVSPost2010Prop37
 90
       50
102
RTVSPost2010PropOp37
 70
     1
102
RTVSPost2010Prop38
140
0.0
102
RTVSPost2010PropOp38
 70
     1
102
RTVSPost2010Prop39
140
1.0
102
RTVSPost2010PropOp39
 70
     1
102
RTVSPost2010Prop40
 90
        0
102
RTVSPost2010PropOp40
 70
     1
102
RTVSPost2010Prop41ColorIndex
 90
       18
102
RTVSPost2010Prop41ColorRGB
 90
        0
102
RTVSPost2010PropOp41
 70
     1
102
RTVSPost2010Prop42
 90
       50
102
RTVSPost2010PropOp42
 70
     1
102
RTVSPost2010Prop43
 90
        3
102
RTVSPost2010PropOp43
 70
     1
102
RTVSPost2010Prop44ColorIndex
 90
        5
102
RTVSPost2010Prop44ColorRGB
 90
      255
102
RTVSPost2010PropOp44
 70
     1
102
RTVSPost2010Prop45
280
     0
102
RTVSPost2010PropOp45
 70
     1
102
RTVSPost2010Prop46
 90
       50
102
RTVSPost2010PropOp46
 70
     1
102
RTVSPost2010Prop47
 90
       50
102
RTVSPost2010PropOp47
 70
     1
102
RTVSPost2010Prop48
 90
       50
102
RTVSPost2010PropOp48
 70
     1
102
RTVSPost2010Prop49
280
     0
102
RTVSPost2010PropOp49
 70
     1
102
RTVSPost2010Prop50
 90
       50
102
RTVSPost2010PropOp50
 70
     1
102
RTVSPost2010Prop51ColorIndex
 90
      256
102
RTVSPost2010Prop51ColorRGB
 90
-16777216
102
RTVSPost2010PropOp51
 70
     0
102
RTVSPost2010Prop52
140
1.0
102
RTVSPost2010PropOp52
 70
     0
102
RTVSPost2010Prop53
 90
        2
102
RTVSPost2010PropOp53
 70
     1
102
RTVSPost2010Prop54
  1
strokes_ogs.tif
102
RTVSPost2010PropOp54
 70
     1
102
RTVSPost2010Prop55
280
     0
102
RTVSPost2010PropOp55
 70
     1
102
RTVSPost2010Prop56
140
1.0
102
RTVSPost2010PropOp56
 70
     1
102
RTVSPost2010Prop57
140
1.0
102
RTVSPost2010PropOp57
 70
     1
  0
XRECORD
  5
16A
102
{ACAD_REACTORS
330
169
102
}
330
169
100
AcDbXrecord
280
     1
102
RTVSPropertyOp0
 70
     1
102
RTVSPropertyOp1
 70
     1
102
RTVSPropertyOp2
 70
     1
102
RTVSPropertyOp3
 70
     1
102
RTVSPropertyOp4
 70
     1
102
RTVSPropertyOp5
 70
     1
102
RTVSPropertyOp6
 70
     1
102
RTVSPropertyOp7
 70
     1
102
RTVSPropertyOp8
 70
     1
102
RTVSPropertyOp9
 70
     1
102
RTVSPropertyOp10
 70
     1
102
RTVSPropertyOp11
 70
     1
102
RTVSPropertyOp12
 70
     1
102
RTVSPropertyOp13
 70
     1
102
RTVSPropertyOp14
 70
     1
102
RTVSPropertyOp15
 70
     1
102
RTVSPropertyOp16
 70
     1
102
RTVSPropertyOp17
 70
     1
102
RTVSPropertyOp18
 70
     1
102
RTVSPropertyOp19
 70
     1
102
RTVSPropertyOp20
 70
     1
102
RTVSPropertyOp21
 70
     1
102
RTVSPropertyOp22
 70
     1
102
RTVSPropertyOp23
 70
     1
102
RTVSPropertyOp24
 70
     1
102
RTVSPropertyOp25
 70
     1
102
RTVSPropertyOp26
 70
     1
102
RTVSPropertyOp27
 70
     1
102
RTVSPropertyOp28
 70
     1
102
RTVSPropertyOp29
 70
     1
102
RTVSPropertyOp30
 70
     1
102
RTVSPropertyOp31
 70
     1
102
RTVSPropertyOp32
 70
     1
102
RTVSPropertyOp33
 70
     1
102
RTVSPropertyOp34
 70
     1
102
RTVSPropertyOp35
 70
     1
102
RTVSPropertyOp36
 70
     1
102
RTVSPropertyOp37
 70
     1
102
RTVSPropertyOp38
 70
     1
102
RTVSPropertyOp39
 70
     1
102
RTVSPropertyOp40
 70
     1
102
RTVSPropertyOp41
 70
     1
102
RTVSPropertyOp42
 70
     1
102
RTVSPropertyOp43
 70
     1
102
RTVSPropertyOp44
 70
     1
102
RTVSPropertyOp45
 70
     1
102
RTVSPropertyOp46
 70
     1
102
RTVSPropertyOp47
 70
     1
102
RTVSPropertyOp48
 70
     1
102
RTVSPropertyOp49
 70
     1
102
RTVSPropertyOp50
 70
     1
102
RTVSPropertyOp51
 70
     0
102
RTVSPropertyOp52
 70
     0
102
RTVSPropertyOp53
 70
     1
102
RTVSPropertyOp54
 70
     1
102
RTVSPropertyOp55
 70
     1
102
RTVSPropertyOp56
 70
     1
102
RTVSPropertyOp57
 70
     1
102
RTVSPost2010Prop28
280
     0
102
RTVSPost2010PropOp28
 70
     1
102
RTVSPost2010Prop29
280
     1
102
RTVSPost2010PropOp29
 70
     1
102
RTVSPost2010Prop30
280
     1
102
RTVSPost2010PropOp30
 70
     1
102
RTVSPost2010Prop31
280
     0
102
RTVSPost2010PropOp31
 70
     1
102
RTVSPost2010Prop32
280
     0
102
RTVSPost2010PropOp32
 70
     1
102
RTVSPost2010Prop33
280
     0
102
RTVSPost2010PropOp33
 70
     1
102
RTVSPost2010Prop34
280
     0
102
RTVSPost2010PropOp34
 70
     1
102
RTVSPost2010Prop35
280
     0
102
RTVSPost2010PropOp35
 70
     1
102
RTVSPost2010Prop36
280
     0
102
RTVSPost2010PropOp36
 70
     1
102
RTVSPost2010Prop37
 90
       50
102
RTVSPost2010PropOp37
 70
     1
102
RTVSPost2010Prop38
140
0.0
102
RTVSPost2010PropOp38
 70
     1
102
RTVSPost2010Prop39
140
1.0
102
RTVSPost2010PropOp39
 70
     1
102
RTVSPost2010Prop40
 90
        0
102
RTVSPost2010PropOp40
 70
     1
102
RTVSPost2010Prop41ColorIndex
 90
       18
102
RTVSPost2010Prop41ColorRGB
 90
        0
102
RTVSPost2010PropOp41
 70
     1
102
RTVSPost2010Prop42
 90
       50
102
RTVSPost2010PropOp42
 70
     1
102
RTVSPost2010Prop43
 90
        3
102
RTVSPost2010PropOp43
 70
     1
102
RTVSPost2010Prop44ColorIndex
 90
        5
102
RTVSPost2010Prop44ColorRGB
 90
      255
102
RTVSPost2010PropOp44
 70
     1
102
RTVSPost2010Prop45
280
     0
102
RTVSPost2010PropOp45
 70
     1
102
RTVSPost2010Prop46
 90
       50
102
RTVSPost2010PropOp46
 70
     1
102
RTVSPost2010Prop47
 90
       50
102
RTVSPost2010PropOp47
 70
     1
102
RTVSPost2010Prop48
 90
       50
102
RTVSPost2010PropOp48
 70
     1
102
RTVSPost2010Prop49
280
     0
102
RTVSPost2010PropOp49
 70
     1
102
RTVSPost2010Prop50
 90
       50
102
RTVSPost2010PropOp50
 70
     1
102
RTVSPost2010Prop51ColorIndex
 90
      256
102
RTVSPost2010Prop51ColorRGB
 90
-16777216
102
RTVSPost2010PropOp51
 70
     0
102
RTVSPost2010Prop52
140
1.0
102
RTVSPost2010PropOp52
 70
     0
102
RTVSPost2010Prop53
 90
        2
102
RTVSPost2010PropOp53
 70
     1
102
RTVSPost2010Prop54
  1
strokes_ogs.tif
102
RTVSPost2010PropOp54
 70
     1
102
RTVSPost2010Prop55
280
     0
102
RTVSPost2010PropOp55
 70
     1
102
RTVSPost2010Prop56
140
1.0
102
RTVSPost2010PropOp56
 70
     1
102
RTVSPost2010Prop57
140
1.0
102
RTVSPost2010PropOp57
 70
     1
  0
XRECORD
  5
172
102
{ACAD_REACTORS
330
171
102
}
330
171
100
AcDbXrecord
280
     1
102
RTVSPropertyOp0
 70
     1
102
RTVSPropertyOp1
 70
     1
102
RTVSPropertyOp2
 70
     1
102
RTVSPropertyOp3
 70
     1
102
RTVSPropertyOp4
 70
     1
102
RTVSPropertyOp5
 70
     1
102
RTVSPropertyOp6
 70
     1
102
RTVSPropertyOp7
 70
     1
102
RTVSPropertyOp8
 70
     1
102
RTVSPropertyOp9
 70
     1
102
RTVSPropertyOp10
 70
     1
102
RTVSPropertyOp11
 70
     1
102
RTVSPropertyOp12
 70
     1
102
RTVSPropertyOp13
 70
     1
102
RTVSPropertyOp14
 70
     1
102
RTVSPropertyOp15
 70
     1
102
RTVSPropertyOp16
 70
     1
102
RTVSPropertyOp17
 70
     1
102
RTVSPropertyOp18
 70
     1
102
RTVSPropertyOp19
 70
     1
102
RTVSPropertyOp20
 70
     1
102
RTVSPropertyOp21
 70
     1
102
RTVSPropertyOp22
 70
     1
102
RTVSPropertyOp23
 70
     1
102
RTVSPropertyOp24
 70
     1
102
RTVSPropertyOp25
 70
     1
102
RTVSPropertyOp26
 70
     1
102
RTVSPropertyOp27
 70
     1
102
RTVSPropertyOp28
 70
     1
102
RTVSPropertyOp29
 70
     1
102
RTVSPropertyOp30
 70
     1
102
RTVSPropertyOp31
 70
     1
102
RTVSPropertyOp32
 70
     1
102
RTVSPropertyOp33
 70
     1
102
RTVSPropertyOp34
 70
     1
102
RTVSPropertyOp35
 70
     1
102
RTVSPropertyOp36
 70
     1
102
RTVSPropertyOp37
 70
     1
102
RTVSPropertyOp38
 70
     1
102
RTVSPropertyOp39
 70
     1
102
RTVSPropertyOp40
 70
     1
102
RTVSPropertyOp41
 70
     1
102
RTVSPropertyOp42
 70
     1
102
RTVSPropertyOp43
 70
     1
102
RTVSPropertyOp44
 70
     1
102
RTVSPropertyOp45
 70
     1
102
RTVSPropertyOp46
 70
     1
102
RTVSPropertyOp47
 70
     1
102
RTVSPropertyOp48
 70
     1
102
RTVSPropertyOp49
 70
     1
102
RTVSPropertyOp50
 70
     1
102
RTVSPropertyOp51
 70
     0
102
RTVSPropertyOp52
 70
     0
102
RTVSPropertyOp53
 70
     1
102
RTVSPropertyOp54
 70
     1
102
RTVSPropertyOp55
 70
     1
102
RTVSPropertyOp56
 70
     1
102
RTVSPropertyOp57
 70
     1
102
RTVSPost2010Prop28
280
     0
102
RTVSPost2010PropOp28
 70
     1
102
RTVSPost2010Prop29
280
     1
102
RTVSPost2010PropOp29
 70
     1
102
RTVSPost2010Prop30
280
     1
102
RTVSPost2010PropOp30
 70
     1
102
RTVSPost2010Prop31
280
     0
102
RTVSPost2010PropOp31
 70
     1
102
RTVSPost2010Prop32
280
     0
102
RTVSPost2010PropOp32
 70
     1
102
RTVSPost2010Prop33
280
     0
102
RTVSPost2010PropOp33
 70
     1
102
RTVSPost2010Prop34
280
     0
102
RTVSPost2010PropOp34
 70
     1
102
RTVSPost2010Prop35
280
     0
102
RTVSPost2010PropOp35
 70
     1
102
RTVSPost2010Prop36
280
     0
102
RTVSPost2010PropOp36
 70
     1
102
RTVSPost2010Prop37
 90
       50
102
RTVSPost2010PropOp37
 70
     1
102
RTVSPost2010Prop38
140
0.0
102
RTVSPost2010PropOp38
 70
     1
102
RTVSPost2010Prop39
140
1.0
102
RTVSPost2010PropOp39
 70
     1
102
RTVSPost2010Prop40
 90
        0
102
RTVSPost2010PropOp40
 70
     1
102
RTVSPost2010Prop41ColorIndex
 90
       18
102
RTVSPost2010Prop41ColorRGB
 90
        0
102
RTVSPost2010PropOp41
 70
     1
102
RTVSPost2010Prop42
 90
       50
102
RTVSPost2010PropOp42
 70
     1
102
RTVSPost2010Prop43
 90
        3
102
RTVSPost2010PropOp43
 70
     1
102
RTVSPost2010Prop44ColorIndex
 90
        5
102
RTVSPost2010Prop44ColorRGB
 90
      255
102
RTVSPost2010PropOp44
 70
     1
102
RTVSPost2010Prop45
280
     0
102
RTVSPost2010PropOp45
 70
     1
102
RTVSPost2010Prop46
 90
       50
102
RTVSPost2010PropOp46
 70
     1
102
RTVSPost2010Prop47
 90
       50
102
RTVSPost2010PropOp47
 70
     1
102
RTVSPost2010Prop48
 90
       50
102
RTVSPost2010PropOp48
 70
     1
102
RTVSPost2010Prop49
280
     0
102
RTVSPost2010PropOp49
 70
     1
102
RTVSPost2010Prop50
 90
       50
102
RTVSPost2010PropOp50
 70
     1
102
RTVSPost2010Prop51ColorIndex
 90
      256
102
RTVSPost2010Prop51ColorRGB
 90
-16777216
102
RTVSPost2010PropOp51
 70
     0
102
RTVSPost2010Prop52
140
1.0
102
RTVSPost2010PropOp52
 70
     0
102
RTVSPost2010Prop53
 90
        2
102
RTVSPost2010PropOp53
 70
     1
102
RTVSPost2010Prop54
  1
strokes_ogs.tif
102
RTVSPost2010PropOp54
 70
     1
102
RTVSPost2010Prop55
280
     0
102
RTVSPost2010PropOp55
 70
     1
102
RTVSPost2010Prop56
140
1.0
102
RTVSPost2010PropOp56
 70
     1
102
RTVSPost2010Prop57
140
1.0
102
RTVSPost2010PropOp57
 70
     1
  0
XRECORD
  5
17A
102
{ACAD_REACTORS
330
179
102
}
330
179
100
AcDbXrecord
280
     1
102
RTVSPropertyOp0
 70
     1
102
RTVSPropertyOp1
 70
     1
102
RTVSPropertyOp2
 70
     1
102
RTVSPropertyOp3
 70
     1
102
RTVSPropertyOp4
 70
     1
102
RTVSPropertyOp5
 70
     1
102
RTVSPropertyOp6
 70
     1
102
RTVSPropertyOp7
 70
     1
102
RTVSPropertyOp8
 70
     1
102
RTVSPropertyOp9
 70
     1
102
RTVSPropertyOp10
 70
     1
102
RTVSPropertyOp11
 70
     1
102
RTVSPropertyOp12
 70
     1
102
RTVSPropertyOp13
 70
     1
102
RTVSPropertyOp14
 70
     1
102
RTVSPropertyOp15
 70
     1
102
RTVSPropertyOp16
 70
     1
102
RTVSPropertyOp17
 70
     1
102
RTVSPropertyOp18
 70
     1
102
RTVSPropertyOp19
 70
     1
102
RTVSPropertyOp20
 70
     1
102
RTVSPropertyOp21
 70
     1
102
RTVSPropertyOp22
 70
     1
102
RTVSPropertyOp23
 70
     1
102
RTVSPropertyOp24
 70
     1
102
RTVSPropertyOp25
 70
     1
102
RTVSPropertyOp26
 70
     1
102
RTVSPropertyOp27
 70
     1
102
RTVSPropertyOp28
 70
     1
102
RTVSPropertyOp29
 70
     1
102
RTVSPropertyOp30
 70
     1
102
RTVSPropertyOp31
 70
     1
102
RTVSPropertyOp32
 70
     1
102
RTVSPropertyOp33
 70
     1
102
RTVSPropertyOp34
 70
     1
102
RTVSPropertyOp35
 70
     1
102
RTVSPropertyOp36
 70
     1
102
RTVSPropertyOp37
 70
     1
102
RTVSPropertyOp38
 70
     1
102
RTVSPropertyOp39
 70
     1
102
RTVSPropertyOp40
 70
     1
102
RTVSPropertyOp41
 70
     1
102
RTVSPropertyOp42
 70
     1
102
RTVSPropertyOp43
 70
     1
102
RTVSPropertyOp44
 70
     1
102
RTVSPropertyOp45
 70
     1
102
RTVSPropertyOp46
 70
     1
102
RTVSPropertyOp47
 70
     1
102
RTVSPropertyOp48
 70
     1
102
RTVSPropertyOp49
 70
     1
102
RTVSPropertyOp50
 70
     1
102
RTVSPropertyOp51
 70
     0
102
RTVSPropertyOp52
 70
     0
102
RTVSPropertyOp53
 70
     1
102
RTVSPropertyOp54
 70
     1
102
RTVSPropertyOp55
 70
     1
102
RTVSPropertyOp56
 70
     1
102
RTVSPropertyOp57
 70
     1
102
RTVSPost2010Prop28
280
     0
102
RTVSPost2010PropOp28
 70
     1
102
RTVSPost2010Prop29
280
     1
102
RTVSPost2010PropOp29
 70
     1
102
RTVSPost2010Prop30
280
     1
102
RTVSPost2010PropOp30
 70
     1
102
RTVSPost2010Prop31
280
     0
102
RTVSPost2010PropOp31
 70
     1
102
RTVSPost2010Prop32
280
     0
102
RTVSPost2010PropOp32
 70
     1
102
RTVSPost2010Prop33
280
     0
102
RTVSPost2010PropOp33
 70
     1
102
RTVSPost2010Prop34
280
     0
102
RTVSPost2010PropOp34
 70
     1
102
RTVSPost2010Prop35
280
     0
102
RTVSPost2010PropOp35
 70
     1
102
RTVSPost2010Prop36
280
     0
102
RTVSPost2010PropOp36
 70
     1
102
RTVSPost2010Prop37
 90
       50
102
RTVSPost2010PropOp37
 70
     1
102
RTVSPost2010Prop38
140
0.0
102
RTVSPost2010PropOp38
 70
     1
102
RTVSPost2010Prop39
140
1.0
102
RTVSPost2010PropOp39
 70
     1
102
RTVSPost2010Prop40
 90
        0
102
RTVSPost2010PropOp40
 70
     1
102
RTVSPost2010Prop41ColorIndex
 90
       18
102
RTVSPost2010Prop41ColorRGB
 90
        0
102
RTVSPost2010PropOp41
 70
     1
102
RTVSPost2010Prop42
 90
       50
102
RTVSPost2010PropOp42
 70
     1
102
RTVSPost2010Prop43
 90
        3
102
RTVSPost2010PropOp43
 70
     1
102
RTVSPost2010Prop44ColorIndex
 90
        5
102
RTVSPost2010Prop44ColorRGB
 90
      255
102
RTVSPost2010PropOp44
 70
     1
102
RTVSPost2010Prop45
280
     0
102
RTVSPost2010PropOp45
 70
     1
102
RTVSPost2010Prop46
 90
       50
102
RTVSPost2010PropOp46
 70
     1
102
RTVSPost2010Prop47
 90
       50
102
RTVSPost2010PropOp47
 70
     1
102
RTVSPost2010Prop48
 90
       50
102
RTVSPost2010PropOp48
 70
     1
102
RTVSPost2010Prop49
280
     0
102
RTVSPost2010PropOp49
 70
     1
102
RTVSPost2010Prop50
 90
       50
102
RTVSPost2010PropOp50
 70
     1
102
RTVSPost2010Prop51ColorIndex
 90
      256
102
RTVSPost2010Prop51ColorRGB
 90
-16777216
102
RTVSPost2010PropOp51
 70
     0
102
RTVSPost2010Prop52
140
1.0
102
RTVSPost2010PropOp52
 70
     0
102
RTVSPost2010Prop53
 90
        2
102
RTVSPost2010PropOp53
 70
     1
102
RTVSPost2010Prop54
  1
strokes_ogs.tif
102
RTVSPost2010PropOp54
 70
     1
102
RTVSPost2010Prop55
280
     0
102
RTVSPost2010PropOp55
 70
     1
102
RTVSPost2010Prop56
140
1.0
102
RTVSPost2010PropOp56
 70
     1
102
RTVSPost2010Prop57
140
1.0
102
RTVSPost2010PropOp57
 70
     1
  0
XRECORD
  5
16E
102
{ACAD_REACTORS
330
16D
102
}
330
16D
100
AcDbXrecord
280
     1
102
RTVSPropertyOp0
 70
     1
102
RTVSPropertyOp1
 70
     1
102
RTVSPropertyOp2
 70
     1
102
RTVSPropertyOp3
 70
     1
102
RTVSPropertyOp4
 70
     1
102
RTVSPropertyOp5
 70
     1
102
RTVSPropertyOp6
 70
     1
102
RTVSPropertyOp7
 70
     1
102
RTVSPropertyOp8
 70
     1
102
RTVSPropertyOp9
 70
     1
102
RTVSPropertyOp10
 70
     1
102
RTVSPropertyOp11
 70
     1
102
RTVSPropertyOp12
 70
     1
102
RTVSPropertyOp13
 70
     1
102
RTVSPropertyOp14
 70
     1
102
RTVSPropertyOp15
 70
     1
102
RTVSPropertyOp16
 70
     1
102
RTVSPropertyOp17
 70
     1
102
RTVSPropertyOp18
 70
     1
102
RTVSPropertyOp19
 70
     1
102
RTVSPropertyOp20
 70
     1
102
RTVSPropertyOp21
 70
     1
102
RTVSPropertyOp22
 70
     1
102
RTVSPropertyOp23
 70
     1
102
RTVSPropertyOp24
 70
     1
102
RTVSPropertyOp25
 70
     1
102
RTVSPropertyOp26
 70
     1
102
RTVSPropertyOp27
 70
     1
102
RTVSPropertyOp28
 70
     1
102
RTVSPropertyOp29
 70
     1
102
RTVSPropertyOp30
 70
     1
102
RTVSPropertyOp31
 70
     1
102
RTVSPropertyOp32
 70
     1
102
RTVSPropertyOp33
 70
     1
102
RTVSPropertyOp34
 70
     1
102
RTVSPropertyOp35
 70
     1
102
RTVSPropertyOp36
 70
     1
102
RTVSPropertyOp37
 70
     1
102
RTVSPropertyOp38
 70
     1
102
RTVSPropertyOp39
 70
     1
102
RTVSPropertyOp40
 70
     1
102
RTVSPropertyOp41
 70
     1
102
RTVSPropertyOp42
 70
     1
102
RTVSPropertyOp43
 70
     1
102
RTVSPropertyOp44
 70
     1
102
RTVSPropertyOp45
 70
     1
102
RTVSPropertyOp46
 70
     1
102
RTVSPropertyOp47
 70
     1
102
RTVSPropertyOp48
 70
     1
102
RTVSPropertyOp49
 70
     1
102
RTVSPropertyOp50
 70
     1
102
RTVSPropertyOp51
 70
     0
102
RTVSPropertyOp52
 70
     0
102
RTVSPropertyOp53
 70
     1
102
RTVSPropertyOp54
 70
     1
102
RTVSPropertyOp55
 70
     1
102
RTVSPropertyOp56
 70
     1
102
RTVSPropertyOp57
 70
     1
102
RTVSPost2010Prop28
280
     0
102
RTVSPost2010PropOp28
 70
     1
102
RTVSPost2010Prop29
280
     1
102
RTVSPost2010PropOp29
 70
     1
102
RTVSPost2010Prop30
280
     1
102
RTVSPost2010PropOp30
 70
     1
102
RTVSPost2010Prop31
280
     0
102
RTVSPost2010PropOp31
 70
     1
102
RTVSPost2010Prop32
280
     0
102
RTVSPost2010PropOp32
 70
     1
102
RTVSPost2010Prop33
280
     0
102
RTVSPost2010PropOp33
 70
     1
102
RTVSPost2010Prop34
280
     0
102
RTVSPost2010PropOp34
 70
     1
102
RTVSPost2010Prop35
280
     0
102
RTVSPost2010PropOp35
 70
     1
102
RTVSPost2010Prop36
280
     0
102
RTVSPost2010PropOp36
 70
     1
102
RTVSPost2010Prop37
 90
       50
102
RTVSPost2010PropOp37
 70
     1
102
RTVSPost2010Prop38
140
0.0
102
RTVSPost2010PropOp38
 70
     1
102
RTVSPost2010Prop39
140
1.0
102
RTVSPost2010PropOp39
 70
     1
102
RTVSPost2010Prop40
 90
        0
102
RTVSPost2010PropOp40
 70
     1
102
RTVSPost2010Prop41ColorIndex
 90
       18
102
RTVSPost2010Prop41ColorRGB
 90
        0
102
RTVSPost2010PropOp41
 70
     1
102
RTVSPost2010Prop42
 90
       50
102
RTVSPost2010PropOp42
 70
     1
102
RTVSPost2010Prop43
 90
        3
102
RTVSPost2010PropOp43
 70
     1
102
RTVSPost2010Prop44ColorIndex
 90
        5
102
RTVSPost2010Prop44ColorRGB
 90
      255
102
RTVSPost2010PropOp44
 70
     1
102
RTVSPost2010Prop45
280
     0
102
RTVSPost2010PropOp45
 70
     1
102
RTVSPost2010Prop46
 90
       50
102
RTVSPost2010PropOp46
 70
     1
102
RTVSPost2010Prop47
 90
       50
102
RTVSPost2010PropOp47
 70
     1
102
RTVSPost2010Prop48
 90
       50
102
RTVSPost2010PropOp48
 70
     1
102
RTVSPost2010Prop49
280
     0
102
RTVSPost2010PropOp49
 70
     1
102
RTVSPost2010Prop50
 90
       50
102
RTVSPost2010PropOp50
 70
     1
102
RTVSPost2010Prop51ColorIndex
 90
      256
102
RTVSPost2010Prop51ColorRGB
 90
-16777216
102
RTVSPost2010PropOp51
 70
     0
102
RTVSPost2010Prop52
140
1.0
102
RTVSPost2010PropOp52
 70
     0
102
RTVSPost2010Prop53
 90
        2
102
RTVSPost2010PropOp53
 70
     1
102
RTVSPost2010Prop54
  1
strokes_ogs.tif
102
RTVSPost2010PropOp54
 70
     1
102
RTVSPost2010Prop55
280
     0
102
RTVSPost2010PropOp55
 70
     1
102
RTVSPost2010Prop56
140
1.0
102
RTVSPost2010PropOp56
 70
     1
102
RTVSPost2010Prop57
140
1.0
102
RTVSPost2010PropOp57
 70
     1
  0
XRECORD
  5
170
102
{ACAD_REACTORS
330
16F
102
}
330
16F
100
AcDbXrecord
280
     1
102
RTVSPropertyOp0
 70
     1
102
RTVSPropertyOp1
 70
     1
102
RTVSPropertyOp2
 70
     1
102
RTVSPropertyOp3
 70
     1
102
RTVSPropertyOp4
 70
     1
102
RTVSPropertyOp5
 70
     1
102
RTVSPropertyOp6
 70
     1
102
RTVSPropertyOp7
 70
     1
102
RTVSPropertyOp8
 70
     1
102
RTVSPropertyOp9
 70
     1
102
RTVSPropertyOp10
 70
     1
102
RTVSPropertyOp11
 70
     1
102
RTVSPropertyOp12
 70
     1
102
RTVSPropertyOp13
 70
     1
102
RTVSPropertyOp14
 70
     1
102
RTVSPropertyOp15
 70
     1
102
RTVSPropertyOp16
 70
     1
102
RTVSPropertyOp17
 70
     1
102
RTVSPropertyOp18
 70
     1
102
RTVSPropertyOp19
 70
     1
102
RTVSPropertyOp20
 70
     1
102
RTVSPropertyOp21
 70
     1
102
RTVSPropertyOp22
 70
     1
102
RTVSPropertyOp23
 70
     1
102
RTVSPropertyOp24
 70
     1
102
RTVSPropertyOp25
 70
     1
102
RTVSPropertyOp26
 70
     1
102
RTVSPropertyOp27
 70
     1
102
RTVSPropertyOp28
 70
     1
102
RTVSPropertyOp29
 70
     1
102
RTVSPropertyOp30
 70
     1
102
RTVSPropertyOp31
 70
     1
102
RTVSPropertyOp32
 70
     1
102
RTVSPropertyOp33
 70
     1
102
RTVSPropertyOp34
 70
     1
102
RTVSPropertyOp35
 70
     1
102
RTVSPropertyOp36
 70
     1
102
RTVSPropertyOp37
 70
     1
102
RTVSPropertyOp38
 70
     1
102
RTVSPropertyOp39
 70
     1
102
RTVSPropertyOp40
 70
     1
102
RTVSPropertyOp41
 70
     1
102
RTVSPropertyOp42
 70
     1
102
RTVSPropertyOp43
 70
     1
102
RTVSPropertyOp44
 70
     1
102
RTVSPropertyOp45
 70
     1
102
RTVSPropertyOp46
 70
     1
102
RTVSPropertyOp47
 70
     1
102
RTVSPropertyOp48
 70
     1
102
RTVSPropertyOp49
 70
     1
102
RTVSPropertyOp50
 70
     1
102
RTVSPropertyOp51
 70
     0
102
RTVSPropertyOp52
 70
     0
102
RTVSPropertyOp53
 70
     1
102
RTVSPropertyOp54
 70
     1
102
RTVSPropertyOp55
 70
     1
102
RTVSPropertyOp56
 70
     1
102
RTVSPropertyOp57
 70
     1
102
RTVSPost2010Prop28
280
     0
102
RTVSPost2010PropOp28
 70
     1
102
RTVSPost2010Prop29
280
     1
102
RTVSPost2010PropOp29
 70
     1
102
RTVSPost2010Prop30
280
     1
102
RTVSPost2010PropOp30
 70
     1
102
RTVSPost2010Prop31
280
     0
102
RTVSPost2010PropOp31
 70
     1
102
RTVSPost2010Prop32
280
     0
102
RTVSPost2010PropOp32
 70
     1
102
RTVSPost2010Prop33
280
     0
102
RTVSPost2010PropOp33
 70
     1
102
RTVSPost2010Prop34
280
     0
102
RTVSPost2010PropOp34
 70
     1
102
RTVSPost2010Prop35
280
     0
102
RTVSPost2010PropOp35
 70
     1
102
RTVSPost2010Prop36
280
     0
102
RTVSPost2010PropOp36
 70
     1
102
RTVSPost2010Prop37
 90
       50
102
RTVSPost2010PropOp37
 70
     1
102
RTVSPost2010Prop38
140
0.0
102
RTVSPost2010PropOp38
 70
     1
102
RTVSPost2010Prop39
140
1.0
102
RTVSPost2010PropOp39
 70
     1
102
RTVSPost2010Prop40
 90
        0
102
RTVSPost2010PropOp40
 70
     1
102
RTVSPost2010Prop41ColorIndex
 90
       18
102
RTVSPost2010Prop41ColorRGB
 90
        0
102
RTVSPost2010PropOp41
 70
     1
102
RTVSPost2010Prop42
 90
       50
102
RTVSPost2010PropOp42
 70
     1
102
RTVSPost2010Prop43
 90
        3
102
RTVSPost2010PropOp43
 70
     1
102
RTVSPost2010Prop44ColorIndex
 90
        5
102
RTVSPost2010Prop44ColorRGB
 90
      255
102
RTVSPost2010PropOp44
 70
     1
102
RTVSPost2010Prop45
280
     0
102
RTVSPost2010PropOp45
 70
     1
102
RTVSPost2010Prop46
 90
       50
102
RTVSPost2010PropOp46
 70
     1
102
RTVSPost2010Prop47
 90
       50
102
RTVSPost2010PropOp47
 70
     1
102
RTVSPost2010Prop48
 90
       50
102
RTVSPost2010PropOp48
 70
     1
102
RTVSPost2010Prop49
280
     0
102
RTVSPost2010PropOp49
 70
     1
102
RTVSPost2010Prop50
 90
       50
102
RTVSPost2010PropOp50
 70
     1
102
RTVSPost2010Prop51ColorIndex
 90
      256
102
RTVSPost2010Prop51ColorRGB
 90
-16777216
102
RTVSPost2010PropOp51
 70
     0
102
RTVSPost2010Prop52
140
1.0
102
RTVSPost2010PropOp52
 70
     0
102
RTVSPost2010Prop53
 90
        2
102
RTVSPost2010PropOp53
 70
     1
102
RTVSPost2010Prop54
  1
strokes_ogs.tif
102
RTVSPost2010PropOp54
 70
     1
102
RTVSPost2010Prop55
280
     0
102
RTVSPost2010PropOp55
 70
     1
102
RTVSPost2010Prop56
140
1.0
102
RTVSPost2010PropOp56
 70
     1
102
RTVSPost2010Prop57
140
1.0
102
RTVSPost2010PropOp57
 70
     1
  0
XRECORD
  5
180
102
{ACAD_REACTORS
330
17F
102
}
330
17F
100
AcDbXrecord
280
     1
102
RTVSPropertyOp0
 70
     0
102
RTVSPropertyOp1
 70
     0
102
RTVSPropertyOp2
 70
     0
102
RTVSPropertyOp3
 70
     0
102
RTVSPropertyOp4
 70
     0
102
RTVSPropertyOp5
 70
     0
102
RTVSPropertyOp6
 70
     0
102
RTVSPropertyOp7
 70
     0
102
RTVSPropertyOp8
 70
     0
102
RTVSPropertyOp9
 70
     0
102
RTVSPropertyOp10
 70
     0
102
RTVSPropertyOp11
 70
     0
102
RTVSPropertyOp12
 70
     0
102
RTVSPropertyOp13
 70
     0
102
RTVSPropertyOp14
 70
     2
102
RTVSPropertyOp15
 70
     0
102
RTVSPropertyOp16
 70
     0
102
RTVSPropertyOp17
 70
     0
102
RTVSPropertyOp18
 70
     0
102
RTVSPropertyOp19
 70
     0
102
RTVSPropertyOp20
 70
     0
102
RTVSPropertyOp21
 70
     0
102
RTVSPropertyOp22
 70
     0
102
RTVSPropertyOp23
 70
     0
102
RTVSPropertyOp24
 70
     0
102
RTVSPropertyOp25
 70
     0
102
RTVSPropertyOp26
 70
     0
102
RTVSPropertyOp27
 70
     0
102
RTVSPropertyOp28
 70
     0
102
RTVSPropertyOp29
 70
     0
102
RTVSPropertyOp30
 70
     0
102
RTVSPropertyOp31
 70
     0
102
RTVSPropertyOp32
 70
     0
102
RTVSPropertyOp33
 70
     0
102
RTVSPropertyOp34
 70
     0
102
RTVSPropertyOp35
 70
     0
102
RTVSPropertyOp36
 70
     0
102
RTVSPropertyOp37
 70
     0
102
RTVSPropertyOp38
 70
     0
102
RTVSPropertyOp39
 70
     0
102
RTVSPropertyOp40
 70
     0
102
RTVSPropertyOp41
 70
     0
102
RTVSPropertyOp42
 70
     0
102
RTVSPropertyOp43
 70
     0
102
RTVSPropertyOp44
 70
     0
102
RTVSPropertyOp45
 70
     0
102
RTVSPropertyOp46
 70
     0
102
RTVSPropertyOp47
 70
     0
102
RTVSPropertyOp48
 70
     0
102
RTVSPropertyOp49
 70
     0
102
RTVSPropertyOp50
 70
     0
102
RTVSPropertyOp51
 70
     0
102
RTVSPropertyOp52
 70
     0
102
RTVSPropertyOp53
 70
     0
102
RTVSPropertyOp54
 70
     0
102
RTVSPropertyOp55
 70
     0
102
RTVSPropertyOp56
 70
     0
102
RTVSPropertyOp57
 70
     0
102
RTVSPost2010Prop28
280
     0
102
RTVSPost2010PropOp28
 70
     0
102
RTVSPost2010Prop29
280
     1
102
RTVSPost2010PropOp29
 70
     0
102
RTVSPost2010Prop30
280
     1
102
RTVSPost2010PropOp30
 70
     0
102
RTVSPost2010Prop31
280
     0
102
RTVSPost2010PropOp31
 70
     0
102
RTVSPost2010Prop32
280
     0
102
RTVSPost2010PropOp32
 70
     0
102
RTVSPost2010Prop33
280
     0
102
RTVSPost2010PropOp33
 70
     0
102
RTVSPost2010Prop34
280
     0
102
RTVSPost2010PropOp34
 70
     0
102
RTVSPost2010Prop35
280
     0
102
RTVSPost2010PropOp35
 70
     0
102
RTVSPost2010Prop36
280
     0
102
RTVSPost2010PropOp36
 70
     0
102
RTVSPost2010Prop37
 90
       50
102
RTVSPost2010PropOp37
 70
     0
102
RTVSPost2010Prop38
140
0.0
102
RTVSPost2010PropOp38
 70
     0
102
RTVSPost2010Prop39
140
1.0
102
RTVSPost2010PropOp39
 70
     0
102
RTVSPost2010Prop40
 90
        0
102
RTVSPost2010PropOp40
 70
     0
102
RTVSPost2010Prop41ColorIndex
 90
       18
102
RTVSPost2010Prop41ColorRGB
 90
        0
102
RTVSPost2010PropOp41
 70
     0
102
RTVSPost2010Prop42
 90
       50
102
RTVSPost2010PropOp42
 70
     0
102
RTVSPost2010Prop43
 90
        3
102
RTVSPost2010PropOp43
 70
     0
102
RTVSPost2010Prop44ColorIndex
 90
        5
102
RTVSPost2010Prop44ColorRGB
 90
      255
102
RTVSPost2010PropOp44
 70
     0
102
RTVSPost2010Prop45
280
     0
102
RTVSPost2010PropOp45
 70
     0
102
RTVSPost2010Prop46
 90
       50
102
RTVSPost2010PropOp46
 70
     0
102
RTVSPost2010Prop47
 90
       50
102
RTVSPost2010PropOp47
 70
     0
102
RTVSPost2010Prop48
 90
       50
102
RTVSPost2010PropOp48
 70
     0
102
RTVSPost2010Prop49
280
     0
102
RTVSPost2010PropOp49
 70
     0
102
RTVSPost2010Prop50
 90
       50
102
RTVSPost2010PropOp50
 70
     0
102
RTVSPost2010Prop51ColorIndex
 90
      256
102
RTVSPost2010Prop51ColorRGB
 90
-16777216
102
RTVSPost2010PropOp51
 70
     0
102
RTVSPost2010Prop52
140
1.0
102
RTVSPost2010PropOp52
 70
     0
102
RTVSPost2010Prop53
 90
        2
102
RTVSPost2010PropOp53
 70
     0
102
RTVSPost2010Prop54
  1
strokes_ogs.tif
102
RTVSPost2010PropOp54
 70
     0
102
RTVSPost2010Prop55
280
     0
102
RTVSPost2010PropOp55
 70
     0
102
RTVSPost2010Prop56
140
1.0
102
RTVSPost2010PropOp56
 70
     0
102
RTVSPost2010Prop57
140
1.0
102
RTVSPost2010PropOp57
 70
     0
  0
XRECORD
  5
178
102
{ACAD_REACTORS
330
177
102
}
330
177
100
AcDbXrecord
280
     1
102
RTVSPropertyOp0
 70
     1
102
RTVSPropertyOp1
 70
     1
102
RTVSPropertyOp2
 70
     1
102
RTVSPropertyOp3
 70
     1
102
RTVSPropertyOp4
 70
     1
102
RTVSPropertyOp5
 70
     1
102
RTVSPropertyOp6
 70
     1
102
RTVSPropertyOp7
 70
     1
102
RTVSPropertyOp8
 70
     1
102
RTVSPropertyOp9
 70
     1
102
RTVSPropertyOp10
 70
     1
102
RTVSPropertyOp11
 70
     1
102
RTVSPropertyOp12
 70
     1
102
RTVSPropertyOp13
 70
     1
102
RTVSPropertyOp14
 70
     1
102
RTVSPropertyOp15
 70
     1
102
RTVSPropertyOp16
 70
     1
102
RTVSPropertyOp17
 70
     1
102
RTVSPropertyOp18
 70
     1
102
RTVSPropertyOp19
 70
     1
102
RTVSPropertyOp20
 70
     1
102
RTVSPropertyOp21
 70
     1
102
RTVSPropertyOp22
 70
     1
102
RTVSPropertyOp23
 70
     1
102
RTVSPropertyOp24
 70
     1
102
RTVSPropertyOp25
 70
     1
102
RTVSPropertyOp26
 70
     1
102
RTVSPropertyOp27
 70
     1
102
RTVSPropertyOp28
 70
     1
102
RTVSPropertyOp29
 70
     1
102
RTVSPropertyOp30
 70
     1
102
RTVSPropertyOp31
 70
     1
102
RTVSPropertyOp32
 70
     1
102
RTVSPropertyOp33
 70
     1
102
RTVSPropertyOp34
 70
     1
102
RTVSPropertyOp35
 70
     1
102
RTVSPropertyOp36
 70
     1
102
RTVSPropertyOp37
 70
     1
102
RTVSPropertyOp38
 70
     1
102
RTVSPropertyOp39
 70
     1
102
RTVSPropertyOp40
 70
     1
102
RTVSPropertyOp41
 70
     1
102
RTVSPropertyOp42
 70
     1
102
RTVSPropertyOp43
 70
     1
102
RTVSPropertyOp44
 70
     1
102
RTVSPropertyOp45
 70
     1
102
RTVSPropertyOp46
 70
     1
102
RTVSPropertyOp47
 70
     1
102
RTVSPropertyOp48
 70
     1
102
RTVSPropertyOp49
 70
     1
102
RTVSPropertyOp50
 70
     1
102
RTVSPropertyOp51
 70
     0
102
RTVSPropertyOp52
 70
     0
102
RTVSPropertyOp53
 70
     1
102
RTVSPropertyOp54
 70
     1
102
RTVSPropertyOp55
 70
     1
102
RTVSPropertyOp56
 70
     1
102
RTVSPropertyOp57
 70
     1
102
RTVSPost2010Prop28
280
     0
102
RTVSPost2010PropOp28
 70
     1
102
RTVSPost2010Prop29
280
     1
102
RTVSPost2010PropOp29
 70
     1
102
RTVSPost2010Prop30
280
     1
102
RTVSPost2010PropOp30
 70
     1
102
RTVSPost2010Prop31
280
     0
102
RTVSPost2010PropOp31
 70
     1
102
RTVSPost2010Prop32
280
     0
102
RTVSPost2010PropOp32
 70
     1
102
RTVSPost2010Prop33
280
     0
102
RTVSPost2010PropOp33
 70
     1
102
RTVSPost2010Prop34
280
     0
102
RTVSPost2010PropOp34
 70
     1
102
RTVSPost2010Prop35
280
     0
102
RTVSPost2010PropOp35
 70
     1
102
RTVSPost2010Prop36
280
     0
102
RTVSPost2010PropOp36
 70
     1
102
RTVSPost2010Prop37
 90
       50
102
RTVSPost2010PropOp37
 70
     1
102
RTVSPost2010Prop38
140
0.0
102
RTVSPost2010PropOp38
 70
     1
102
RTVSPost2010Prop39
140
1.0
102
RTVSPost2010PropOp39
 70
     1
102
RTVSPost2010Prop40
 90
        0
102
RTVSPost2010PropOp40
 70
     1
102
RTVSPost2010Prop41ColorIndex
 90
       18
102
RTVSPost2010Prop41ColorRGB
 90
        0
102
RTVSPost2010PropOp41
 70
     1
102
RTVSPost2010Prop42
 90
       50
102
RTVSPost2010PropOp42
 70
     1
102
RTVSPost2010Prop43
 90
        3
102
RTVSPost2010PropOp43
 70
     1
102
RTVSPost2010Prop44ColorIndex
 90
        5
102
RTVSPost2010Prop44ColorRGB
 90
      255
102
RTVSPost2010PropOp44
 70
     1
102
RTVSPost2010Prop45
280
     0
102
RTVSPost2010PropOp45
 70
     1
102
RTVSPost2010Prop46
 90
       50
102
RTVSPost2010PropOp46
 70
     1
102
RTVSPost2010Prop47
 90
       50
102
RTVSPost2010PropOp47
 70
     1
102
RTVSPost2010Prop48
 90
       50
102
RTVSPost2010PropOp48
 70
     1
102
RTVSPost2010Prop49
280
     0
102
RTVSPost2010PropOp49
 70
     1
102
RTVSPost2010Prop50
 90
       50
102
RTVSPost2010PropOp50
 70
     1
102
RTVSPost2010Prop51ColorIndex
 90
      256
102
RTVSPost2010Prop51ColorRGB
 90
-16777216
102
RTVSPost2010PropOp51
 70
     0
102
RTVSPost2010Prop52
140
1.0
102
RTVSPost2010PropOp52
 70
     0
102
RTVSPost2010Prop53
 90
        2
102
RTVSPost2010PropOp53
 70
     1
102
RTVSPost2010Prop54
  1
strokes_ogs.tif
102
RTVSPost2010PropOp54
 70
     1
102
RTVSPost2010Prop55
280
     0
102
RTVSPost2010PropOp55
 70
     1
102
RTVSPost2010Prop56
140
1.0
102
RTVSPost2010PropOp56
 70
     1
102
RTVSPost2010Prop57
140
1.0
102
RTVSPost2010PropOp57
 70
     1
  0
XRECORD
  5
15C
102
{ACAD_REACTORS
330
15B
102
}
330
15B
100
AcDbXrecord
280
     1
102
RTVSPropertyOp0
 70
     1
102
RTVSPropertyOp1
 70
     1
102
RTVSPropertyOp2
 70
     1
102
RTVSPropertyOp3
 70
     1
102
RTVSPropertyOp4
 70
     1
102
RTVSPropertyOp5
 70
     1
102
RTVSPropertyOp6
 70
     1
102
RTVSPropertyOp7
 70
     1
102
RTVSPropertyOp8
 70
     1
102
RTVSPropertyOp9
 70
     1
102
RTVSPropertyOp10
 70
     1
102
RTVSPropertyOp11
 70
     1
102
RTVSPropertyOp12
 70
     1
102
RTVSPropertyOp13
 70
     1
102
RTVSPropertyOp14
 70
     1
102
RTVSPropertyOp15
 70
     1
102
RTVSPropertyOp16
 70
     1
102
RTVSPropertyOp17
 70
     1
102
RTVSPropertyOp18
 70
     1
102
RTVSPropertyOp19
 70
     1
102
RTVSPropertyOp20
 70
     1
102
RTVSPropertyOp21
 70
     1
102
RTVSPropertyOp22
 70
     1
102
RTVSPropertyOp23
 70
     1
102
RTVSPropertyOp24
 70
     1
102
RTVSPropertyOp25
 70
     1
102
RTVSPropertyOp26
 70
     1
102
RTVSPropertyOp27
 70
     1
102
RTVSPropertyOp28
 70
     1
102
RTVSPropertyOp29
 70
     1
102
RTVSPropertyOp30
 70
     1
102
RTVSPropertyOp31
 70
     1
102
RTVSPropertyOp32
 70
     1
102
RTVSPropertyOp33
 70
     1
102
RTVSPropertyOp34
 70
     1
102
RTVSPropertyOp35
 70
     1
102
RTVSPropertyOp36
 70
     1
102
RTVSPropertyOp37
 70
     1
102
RTVSPropertyOp38
 70
     1
102
RTVSPropertyOp39
 70
     1
102
RTVSPropertyOp40
 70
     1
102
RTVSPropertyOp41
 70
     1
102
RTVSPropertyOp42
 70
     1
102
RTVSPropertyOp43
 70
     1
102
RTVSPropertyOp44
 70
     1
102
RTVSPropertyOp45
 70
     1
102
RTVSPropertyOp46
 70
     1
102
RTVSPropertyOp47
 70
     1
102
RTVSPropertyOp48
 70
     1
102
RTVSPropertyOp49
 70
     1
102
RTVSPropertyOp50
 70
     1
102
RTVSPropertyOp51
 70
     0
102
RTVSPropertyOp52
 70
     0
102
RTVSPropertyOp53
 70
     1
102
RTVSPropertyOp54
 70
     1
102
RTVSPropertyOp55
 70
     1
102
RTVSPropertyOp56
 70
     1
102
RTVSPropertyOp57
 70
     1
102
RTVSPost2010Prop28
280
     0
102
RTVSPost2010PropOp28
 70
     1
102
RTVSPost2010Prop29
280
     1
102
RTVSPost2010PropOp29
 70
     1
102
RTVSPost2010Prop30
280
     1
102
RTVSPost2010PropOp30
 70
     1
102
RTVSPost2010Prop31
280
     0
102
RTVSPost2010PropOp31
 70
     1
102
RTVSPost2010Prop32
280
     0
102
RTVSPost2010PropOp32
 70
     1
102
RTVSPost2010Prop33
280
     0
102
RTVSPost2010PropOp33
 70
     1
102
RTVSPost2010Prop34
280
     0
102
RTVSPost2010PropOp34
 70
     1
102
RTVSPost2010Prop35
280
     0
102
RTVSPost2010PropOp35
 70
     1
102
RTVSPost2010Prop36
280
     0
102
RTVSPost2010PropOp36
 70
     1
102
RTVSPost2010Prop37
 90
       50
102
RTVSPost2010PropOp37
 70
     1
102
RTVSPost2010Prop38
140
0.0
102
RTVSPost2010PropOp38
 70
     1
102
RTVSPost2010Prop39
140
1.0
102
RTVSPost2010PropOp39
 70
     1
102
RTVSPost2010Prop40
 90
        0
102
RTVSPost2010PropOp40
 70
     1
102
RTVSPost2010Prop41ColorIndex
 90
       18
102
RTVSPost2010Prop41ColorRGB
 90
        0
102
RTVSPost2010PropOp41
 70
     1
102
RTVSPost2010Prop42
 90
       50
102
RTVSPost2010PropOp42
 70
     1
102
RTVSPost2010Prop43
 90
        3
102
RTVSPost2010PropOp43
 70
     1
102
RTVSPost2010Prop44ColorIndex
 90
        5
102
RTVSPost2010Prop44ColorRGB
 90
      255
102
RTVSPost2010PropOp44
 70
     1
102
RTVSPost2010Prop45
280
     0
102
RTVSPost2010PropOp45
 70
     1
102
RTVSPost2010Prop46
 90
       50
102
RTVSPost2010PropOp46
 70
     1
102
RTVSPost2010Prop47
 90
       50
102
RTVSPost2010PropOp47
 70
     1
102
RTVSPost2010Prop48
 90
       50
102
RTVSPost2010PropOp48
 70
     1
102
RTVSPost2010Prop49
280
     0
102
RTVSPost2010PropOp49
 70
     1
102
RTVSPost2010Prop50
 90
       50
102
RTVSPost2010PropOp50
 70
     1
102
RTVSPost2010Prop51ColorIndex
 90
      256
102
RTVSPost2010Prop51ColorRGB
 90
-16777216
102
RTVSPost2010PropOp51
 70
     0
102
RTVSPost2010Prop52
140
1.0
102
RTVSPost2010PropOp52
 70
     0
102
RTVSPost2010Prop53
 90
        2
102
RTVSPost2010PropOp53
 70
     1
102
RTVSPost2010Prop54
  1
strokes_ogs.tif
102
RTVSPost2010PropOp54
 70
     1
102
RTVSPost2010Prop55
280
     0
102
RTVSPost2010PropOp55
 70
     1
102
RTVSPost2010Prop56
140
1.0
102
RTVSPost2010PropOp56
 70
     1
102
RTVSPost2010Prop57
140
1.0
102
RTVSPost2010PropOp57
 70
     1
  0
XRECORD
  5
15E
102
{ACAD_REACTORS
330
15D
102
}
330
15D
100
AcDbXrecord
280
     1
102
RTVSPropertyOp0
 70
     1
102
RTVSPropertyOp1
 70
     1
102
RTVSPropertyOp2
 70
     1
102
RTVSPropertyOp3
 70
     1
102
RTVSPropertyOp4
 70
     1
102
RTVSPropertyOp5
 70
     1
102
RTVSPropertyOp6
 70
     1
102
RTVSPropertyOp7
 70
     1
102
RTVSPropertyOp8
 70
     1
102
RTVSPropertyOp9
 70
     1
102
RTVSPropertyOp10
 70
     1
102
RTVSPropertyOp11
 70
     1
102
RTVSPropertyOp12
 70
     1
102
RTVSPropertyOp13
 70
     1
102
RTVSPropertyOp14
 70
     1
102
RTVSPropertyOp15
 70
     1
102
RTVSPropertyOp16
 70
     1
102
RTVSPropertyOp17
 70
     1
102
RTVSPropertyOp18
 70
     1
102
RTVSPropertyOp19
 70
     1
102
RTVSPropertyOp20
 70
     1
102
RTVSPropertyOp21
 70
     1
102
RTVSPropertyOp22
 70
     1
102
RTVSPropertyOp23
 70
     1
102
RTVSPropertyOp24
 70
     1
102
RTVSPropertyOp25
 70
     1
102
RTVSPropertyOp26
 70
     1
102
RTVSPropertyOp27
 70
     1
102
RTVSPropertyOp28
 70
     1
102
RTVSPropertyOp29
 70
     1
102
RTVSPropertyOp30
 70
     1
102
RTVSPropertyOp31
 70
     1
102
RTVSPropertyOp32
 70
     1
102
RTVSPropertyOp33
 70
     1
102
RTVSPropertyOp34
 70
     1
102
RTVSPropertyOp35
 70
     1
102
RTVSPropertyOp36
 70
     1
102
RTVSPropertyOp37
 70
     1
102
RTVSPropertyOp38
 70
     1
102
RTVSPropertyOp39
 70
     1
102
RTVSPropertyOp40
 70
     1
102
RTVSPropertyOp41
 70
     1
102
RTVSPropertyOp42
 70
     1
102
RTVSPropertyOp43
 70
     1
102
RTVSPropertyOp44
 70
     1
102
RTVSPropertyOp45
 70
     1
102
RTVSPropertyOp46
 70
     1
102
RTVSPropertyOp47
 70
     1
102
RTVSPropertyOp48
 70
     1
102
RTVSPropertyOp49
 70
     1
102
RTVSPropertyOp50
 70
     1
102
RTVSPropertyOp51
 70
     0
102
RTVSPropertyOp52
 70
     0
102
RTVSPropertyOp53
 70
     1
102
RTVSPropertyOp54
 70
     1
102
RTVSPropertyOp55
 70
     1
102
RTVSPropertyOp56
 70
     1
102
RTVSPropertyOp57
 70
     1
102
RTVSPost2010Prop28
280
     0
102
RTVSPost2010PropOp28
 70
     1
102
RTVSPost2010Prop29
280
     1
102
RTVSPost2010PropOp29
 70
     1
102
RTVSPost2010Prop30
280
     1
102
RTVSPost2010PropOp30
 70
     1
102
RTVSPost2010Prop31
280
     0
102
RTVSPost2010PropOp31
 70
     1
102
RTVSPost2010Prop32
280
     0
102
RTVSPost2010PropOp32
 70
     1
102
RTVSPost2010Prop33
280
     0
102
RTVSPost2010PropOp33
 70
     1
102
RTVSPost2010Prop34
280
     0
102
RTVSPost2010PropOp34
 70
     1
102
RTVSPost2010Prop35
280
     0
102
RTVSPost2010PropOp35
 70
     1
102
RTVSPost2010Prop36
280
     0
102
RTVSPost2010PropOp36
 70
     1
102
RTVSPost2010Prop37
 90
       50
102
RTVSPost2010PropOp37
 70
     1
102
RTVSPost2010Prop38
140
0.0
102
RTVSPost2010PropOp38
 70
     1
102
RTVSPost2010Prop39
140
1.0
102
RTVSPost2010PropOp39
 70
     1
102
RTVSPost2010Prop40
 90
        0
102
RTVSPost2010PropOp40
 70
     1
102
RTVSPost2010Prop41ColorIndex
 90
       18
102
RTVSPost2010Prop41ColorRGB
 90
        0
102
RTVSPost2010PropOp41
 70
     1
102
RTVSPost2010Prop42
 90
       50
102
RTVSPost2010PropOp42
 70
     1
102
RTVSPost2010Prop43
 90
        3
102
RTVSPost2010PropOp43
 70
     1
102
RTVSPost2010Prop44ColorIndex
 90
        5
102
RTVSPost2010Prop44ColorRGB
 90
      255
102
RTVSPost2010PropOp44
 70
     1
102
RTVSPost2010Prop45
280
     0
102
RTVSPost2010PropOp45
 70
     1
102
RTVSPost2010Prop46
 90
       50
102
RTVSPost2010PropOp46
 70
     1
102
RTVSPost2010Prop47
 90
       50
102
RTVSPost2010PropOp47
 70
     1
102
RTVSPost2010Prop48
 90
       50
102
RTVSPost2010PropOp48
 70
     1
102
RTVSPost2010Prop49
280
     0
102
RTVSPost2010PropOp49
 70
     1
102
RTVSPost2010Prop50
 90
       50
102
RTVSPost2010PropOp50
 70
     1
102
RTVSPost2010Prop51ColorIndex
 90
      256
102
RTVSPost2010Prop51ColorRGB
 90
-16777216
102
RTVSPost2010PropOp51
 70
     0
102
RTVSPost2010Prop52
140
1.0
102
RTVSPost2010PropOp52
 70
     0
102
RTVSPost2010Prop53
 90
        2
102
RTVSPost2010PropOp53
 70
     1
102
RTVSPost2010Prop54
  1
strokes_ogs.tif
102
RTVSPost2010PropOp54
 70
     1
102
RTVSPost2010Prop55
280
     0
102
RTVSPost2010PropOp55
 70
     1
102
RTVSPost2010Prop56
140
1.0
102
RTVSPost2010PropOp56
 70
     1
102
RTVSPost2010Prop57
140
1.0
102
RTVSPost2010PropOp57
 70
     1
  0
XRECORD
  5
160
102
{ACAD_REACTORS
330
15F
102
}
330
15F
100
AcDbXrecord
280
     1
102
RTVSPropertyOp0
 70
     1
102
RTVSPropertyOp1
 70
     1
102
RTVSPropertyOp2
 70
     1
102
RTVSPropertyOp3
 70
     1
102
RTVSPropertyOp4
 70
     1
102
RTVSPropertyOp5
 70
     1
102
RTVSPropertyOp6
 70
     1
102
RTVSPropertyOp7
 70
     1
102
RTVSPropertyOp8
 70
     1
102
RTVSPropertyOp9
 70
     1
102
RTVSPropertyOp10
 70
     1
102
RTVSPropertyOp11
 70
     1
102
RTVSPropertyOp12
 70
     1
102
RTVSPropertyOp13
 70
     1
102
RTVSPropertyOp14
 70
     1
102
RTVSPropertyOp15
 70
     1
102
RTVSPropertyOp16
 70
     1
102
RTVSPropertyOp17
 70
     1
102
RTVSPropertyOp18
 70
     1
102
RTVSPropertyOp19
 70
     1
102
RTVSPropertyOp20
 70
     1
102
RTVSPropertyOp21
 70
     1
102
RTVSPropertyOp22
 70
     1
102
RTVSPropertyOp23
 70
     1
102
RTVSPropertyOp24
 70
     1
102
RTVSPropertyOp25
 70
     1
102
RTVSPropertyOp26
 70
     1
102
RTVSPropertyOp27
 70
     1
102
RTVSPropertyOp28
 70
     1
102
RTVSPropertyOp29
 70
     1
102
RTVSPropertyOp30
 70
     1
102
RTVSPropertyOp31
 70
     1
102
RTVSPropertyOp32
 70
     1
102
RTVSPropertyOp33
 70
     1
102
RTVSPropertyOp34
 70
     1
102
RTVSPropertyOp35
 70
     1
102
RTVSPropertyOp36
 70
     1
102
RTVSPropertyOp37
 70
     1
102
RTVSPropertyOp38
 70
     1
102
RTVSPropertyOp39
 70
     1
102
RTVSPropertyOp40
 70
     1
102
RTVSPropertyOp41
 70
     1
102
RTVSPropertyOp42
 70
     1
102
RTVSPropertyOp43
 70
     1
102
RTVSPropertyOp44
 70
     1
102
RTVSPropertyOp45
 70
     1
102
RTVSPropertyOp46
 70
     1
102
RTVSPropertyOp47
 70
     1
102
RTVSPropertyOp48
 70
     1
102
RTVSPropertyOp49
 70
     1
102
RTVSPropertyOp50
 70
     1
102
RTVSPropertyOp51
 70
     0
102
RTVSPropertyOp52
 70
     0
102
RTVSPropertyOp53
 70
     1
102
RTVSPropertyOp54
 70
     1
102
RTVSPropertyOp55
 70
     1
102
RTVSPropertyOp56
 70
     1
102
RTVSPropertyOp57
 70
     1
102
RTVSPost2010Prop28
280
     0
102
RTVSPost2010PropOp28
 70
     1
102
RTVSPost2010Prop29
280
     1
102
RTVSPost2010PropOp29
 70
     1
102
RTVSPost2010Prop30
280
     1
102
RTVSPost2010PropOp30
 70
     1
102
RTVSPost2010Prop31
280
     0
102
RTVSPost2010PropOp31
 70
     1
102
RTVSPost2010Prop32
280
     0
102
RTVSPost2010PropOp32
 70
     1
102
RTVSPost2010Prop33
280
     0
102
RTVSPost2010PropOp33
 70
     1
102
RTVSPost2010Prop34
280
     0
102
RTVSPost2010PropOp34
 70
     1
102
RTVSPost2010Prop35
280
     0
102
RTVSPost2010PropOp35
 70
     1
102
RTVSPost2010Prop36
280
     0
102
RTVSPost2010PropOp36
 70
     1
102
RTVSPost2010Prop37
 90
       50
102
RTVSPost2010PropOp37
 70
     1
102
RTVSPost2010Prop38
140
0.0
102
RTVSPost2010PropOp38
 70
     1
102
RTVSPost2010Prop39
140
1.0
102
RTVSPost2010PropOp39
 70
     1
102
RTVSPost2010Prop40
 90
        0
102
RTVSPost2010PropOp40
 70
     1
102
RTVSPost2010Prop41ColorIndex
 90
       18
102
RTVSPost2010Prop41ColorRGB
 90
        0
102
RTVSPost2010PropOp41
 70
     1
102
RTVSPost2010Prop42
 90
       50
102
RTVSPost2010PropOp42
 70
     1
102
RTVSPost2010Prop43
 90
        3
102
RTVSPost2010PropOp43
 70
     1
102
RTVSPost2010Prop44ColorIndex
 90
        5
102
RTVSPost2010Prop44ColorRGB
 90
      255
102
RTVSPost2010PropOp44
 70
     1
102
RTVSPost2010Prop45
280
     0
102
RTVSPost2010PropOp45
 70
     1
102
RTVSPost2010Prop46
 90
       50
102
RTVSPost2010PropOp46
 70
     1
102
RTVSPost2010Prop47
 90
       50
102
RTVSPost2010PropOp47
 70
     1
102
RTVSPost2010Prop48
 90
       50
102
RTVSPost2010PropOp48
 70
     1
102
RTVSPost2010Prop49
280
     0
102
RTVSPost2010PropOp49
 70
     1
102
RTVSPost2010Prop50
 90
       50
102
RTVSPost2010PropOp50
 70
     1
102
RTVSPost2010Prop51ColorIndex
 90
      256
102
RTVSPost2010Prop51ColorRGB
 90
-16777216
102
RTVSPost2010PropOp51
 70
     0
102
RTVSPost2010Prop52
140
1.0
102
RTVSPost2010PropOp52
 70
     0
102
RTVSPost2010Prop53
 90
        2
102
RTVSPost2010PropOp53
 70
     1
102
RTVSPost2010Prop54
  1
strokes_ogs.tif
102
RTVSPost2010PropOp54
 70
     1
102
RTVSPost2010Prop55
280
     0
102
RTVSPost2010PropOp55
 70
     1
102
RTVSPost2010Prop56
140
1.0
102
RTVSPost2010PropOp56
 70
     1
102
RTVSPost2010Prop57
140
1.0
102
RTVSPost2010PropOp57
 70
     1
  0
XRECORD
  5
162
102
{ACAD_REACTORS
330
161
102
}
330
161
100
AcDbXrecord
280
     1
102
RTVSPropertyOp0
 70
     1
102
RTVSPropertyOp1
 70
     1
102
RTVSPropertyOp2
 70
     1
102
RTVSPropertyOp3
 70
     1
102
RTVSPropertyOp4
 70
     1
102
RTVSPropertyOp5
 70
     1
102
RTVSPropertyOp6
 70
     1
102
RTVSPropertyOp7
 70
     1
102
RTVSPropertyOp8
 70
     1
102
RTVSPropertyOp9
 70
     1
102
RTVSPropertyOp10
 70
     1
102
RTVSPropertyOp11
 70
     1
102
RTVSPropertyOp12
 70
     1
102
RTVSPropertyOp13
 70
     1
102
RTVSPropertyOp14
 70
     1
102
RTVSPropertyOp15
 70
     1
102
RTVSPropertyOp16
 70
     1
102
RTVSPropertyOp17
 70
     1
102
RTVSPropertyOp18
 70
     1
102
RTVSPropertyOp19
 70
     1
102
RTVSPropertyOp20
 70
     1
102
RTVSPropertyOp21
 70
     1
102
RTVSPropertyOp22
 70
     1
102
RTVSPropertyOp23
 70
     1
102
RTVSPropertyOp24
 70
     1
102
RTVSPropertyOp25
 70
     1
102
RTVSPropertyOp26
 70
     1
102
RTVSPropertyOp27
 70
     1
102
RTVSPropertyOp28
 70
     1
102
RTVSPropertyOp29
 70
     1
102
RTVSPropertyOp30
 70
     1
102
RTVSPropertyOp31
 70
     1
102
RTVSPropertyOp32
 70
     1
102
RTVSPropertyOp33
 70
     1
102
RTVSPropertyOp34
 70
     1
102
RTVSPropertyOp35
 70
     1
102
RTVSPropertyOp36
 70
     1
102
RTVSPropertyOp37
 70
     1
102
RTVSPropertyOp38
 70
     1
102
RTVSPropertyOp39
 70
     1
102
RTVSPropertyOp40
 70
     1
102
RTVSPropertyOp41
 70
     1
102
RTVSPropertyOp42
 70
     1
102
RTVSPropertyOp43
 70
     1
102
RTVSPropertyOp44
 70
     1
102
RTVSPropertyOp45
 70
     1
102
RTVSPropertyOp46
 70
     1
102
RTVSPropertyOp47
 70
     1
102
RTVSPropertyOp48
 70
     1
102
RTVSPropertyOp49
 70
     1
102
RTVSPropertyOp50
 70
     1
102
RTVSPropertyOp51
 70
     0
102
RTVSPropertyOp52
 70
     0
102
RTVSPropertyOp53
 70
     1
102
RTVSPropertyOp54
 70
     1
102
RTVSPropertyOp55
 70
     1
102
RTVSPropertyOp56
 70
     1
102
RTVSPropertyOp57
 70
     1
102
RTVSPost2010Prop28
280
     0
102
RTVSPost2010PropOp28
 70
     1
102
RTVSPost2010Prop29
280
     1
102
RTVSPost2010PropOp29
 70
     1
102
RTVSPost2010Prop30
280
     1
102
RTVSPost2010PropOp30
 70
     1
102
RTVSPost2010Prop31
280
     0
102
RTVSPost2010PropOp31
 70
     1
102
RTVSPost2010Prop32
280
     0
102
RTVSPost2010PropOp32
 70
     1
102
RTVSPost2010Prop33
280
     0
102
RTVSPost2010PropOp33
 70
     1
102
RTVSPost2010Prop34
280
     0
102
RTVSPost2010PropOp34
 70
     1
102
RTVSPost2010Prop35
280
     0
102
RTVSPost2010PropOp35
 70
     1
102
RTVSPost2010Prop36
280
     0
102
RTVSPost2010PropOp36
 70
     1
102
RTVSPost2010Prop37
 90
       50
102
RTVSPost2010PropOp37
 70
     1
102
RTVSPost2010Prop38
140
0.0
102
RTVSPost2010PropOp38
 70
     1
102
RTVSPost2010Prop39
140
1.0
102
RTVSPost2010PropOp39
 70
     1
102
RTVSPost2010Prop40
 90
        0
102
RTVSPost2010PropOp40
 70
     1
102
RTVSPost2010Prop41ColorIndex
 90
       18
102
RTVSPost2010Prop41ColorRGB
 90
        0
102
RTVSPost2010PropOp41
 70
     1
102
RTVSPost2010Prop42
 90
       50
102
RTVSPost2010PropOp42
 70
     1
102
RTVSPost2010Prop43
 90
        3
102
RTVSPost2010PropOp43
 70
     1
102
RTVSPost2010Prop44ColorIndex
 90
        5
102
RTVSPost2010Prop44ColorRGB
 90
      255
102
RTVSPost2010PropOp44
 70
     1
102
RTVSPost2010Prop45
280
     0
102
RTVSPost2010PropOp45
 70
     1
102
RTVSPost2010Prop46
 90
       50
102
RTVSPost2010PropOp46
 70
     1
102
RTVSPost2010Prop47
 90
       50
102
RTVSPost2010PropOp47
 70
     1
102
RTVSPost2010Prop48
 90
       50
102
RTVSPost2010PropOp48
 70
     1
102
RTVSPost2010Prop49
280
     0
102
RTVSPost2010PropOp49
 70
     1
102
RTVSPost2010Prop50
 90
       50
102
RTVSPost2010PropOp50
 70
     1
102
RTVSPost2010Prop51ColorIndex
 90
      256
102
RTVSPost2010Prop51ColorRGB
 90
-16777216
102
RTVSPost2010PropOp51
 70
     0
102
RTVSPost2010Prop52
140
1.0
102
RTVSPost2010PropOp52
 70
     0
102
RTVSPost2010Prop53
 90
        2
102
RTVSPost2010PropOp53
 70
     1
102
RTVSPost2010Prop54
  1
strokes_ogs.tif
102
RTVSPost2010PropOp54
 70
     1
102
RTVSPost2010Prop55
280
     0
102
RTVSPost2010PropOp55
 70
     1
102
RTVSPost2010Prop56
140
1.0
102
RTVSPost2010PropOp56
 70
     1
102
RTVSPost2010Prop57
140
1.0
102
RTVSPost2010PropOp57
 70
     1
  0
XRECORD
  5
168
102
{ACAD_REACTORS
330
167
102
}
330
167
100
AcDbXrecord
280
     1
102
RTVSPropertyOp0
 70
     1
102
RTVSPropertyOp1
 70
     1
102
RTVSPropertyOp2
 70
     1
102
RTVSPropertyOp3
 70
     1
102
RTVSPropertyOp4
 70
     1
102
RTVSPropertyOp5
 70
     1
102
RTVSPropertyOp6
 70
     1
102
RTVSPropertyOp7
 70
     1
102
RTVSPropertyOp8
 70
     1
102
RTVSPropertyOp9
 70
     1
102
RTVSPropertyOp10
 70
     1
102
RTVSPropertyOp11
 70
     1
102
RTVSPropertyOp12
 70
     1
102
RTVSPropertyOp13
 70
     1
102
RTVSPropertyOp14
 70
     1
102
RTVSPropertyOp15
 70
     1
102
RTVSPropertyOp16
 70
     1
102
RTVSPropertyOp17
 70
     1
102
RTVSPropertyOp18
 70
     1
102
RTVSPropertyOp19
 70
     1
102
RTVSPropertyOp20
 70
     1
102
RTVSPropertyOp21
 70
     1
102
RTVSPropertyOp22
 70
     1
102
RTVSPropertyOp23
 70
     1
102
RTVSPropertyOp24
 70
     1
102
RTVSPropertyOp25
 70
     1
102
RTVSPropertyOp26
 70
     1
102
RTVSPropertyOp27
 70
     1
102
RTVSPropertyOp28
 70
     1
102
RTVSPropertyOp29
 70
     1
102
RTVSPropertyOp30
 70
     1
102
RTVSPropertyOp31
 70
     1
102
RTVSPropertyOp32
 70
     1
102
RTVSPropertyOp33
 70
     1
102
RTVSPropertyOp34
 70
     1
102
RTVSPropertyOp35
 70
     1
102
RTVSPropertyOp36
 70
     1
102
RTVSPropertyOp37
 70
     1
102
RTVSPropertyOp38
 70
     1
102
RTVSPropertyOp39
 70
     1
102
RTVSPropertyOp40
 70
     1
102
RTVSPropertyOp41
 70
     1
102
RTVSPropertyOp42
 70
     1
102
RTVSPropertyOp43
 70
     1
102
RTVSPropertyOp44
 70
     1
102
RTVSPropertyOp45
 70
     1
102
RTVSPropertyOp46
 70
     1
102
RTVSPropertyOp47
 70
     1
102
RTVSPropertyOp48
 70
     1
102
RTVSPropertyOp49
 70
     1
102
RTVSPropertyOp50
 70
     1
102
RTVSPropertyOp51
 70
     0
102
RTVSPropertyOp52
 70
     0
102
RTVSPropertyOp53
 70
     1
102
RTVSPropertyOp54
 70
     1
102
RTVSPropertyOp55
 70
     1
102
RTVSPropertyOp56
 70
     1
102
RTVSPropertyOp57
 70
     1
102
RTVSPost2010Prop28
280
     0
102
RTVSPost2010PropOp28
 70
     1
102
RTVSPost2010Prop29
280
     1
102
RTVSPost2010PropOp29
 70
     1
102
RTVSPost2010Prop30
280
     1
102
RTVSPost2010PropOp30
 70
     1
102
RTVSPost2010Prop31
280
     0
102
RTVSPost2010PropOp31
 70
     1
102
RTVSPost2010Prop32
280
     0
102
RTVSPost2010PropOp32
 70
     1
102
RTVSPost2010Prop33
280
     0
102
RTVSPost2010PropOp33
 70
     1
102
RTVSPost2010Prop34
280
     0
102
RTVSPost2010PropOp34
 70
     1
102
RTVSPost2010Prop35
280
     0
102
RTVSPost2010PropOp35
 70
     1
102
RTVSPost2010Prop36
280
     0
102
RTVSPost2010PropOp36
 70
     1
102
RTVSPost2010Prop37
 90
       50
102
RTVSPost2010PropOp37
 70
     1
102
RTVSPost2010Prop38
140
0.0
102
RTVSPost2010PropOp38
 70
     1
102
RTVSPost2010Prop39
140
1.0
102
RTVSPost2010PropOp39
 70
     1
102
RTVSPost2010Prop40
 90
        0
102
RTVSPost2010PropOp40
 70
     1
102
RTVSPost2010Prop41ColorIndex
 90
       18
102
RTVSPost2010Prop41ColorRGB
 90
        0
102
RTVSPost2010PropOp41
 70
     1
102
RTVSPost2010Prop42
 90
       50
102
RTVSPost2010PropOp42
 70
     1
102
RTVSPost2010Prop43
 90
        3
102
RTVSPost2010PropOp43
 70
     1
102
RTVSPost2010Prop44ColorIndex
 90
        5
102
RTVSPost2010Prop44ColorRGB
 90
      255
102
RTVSPost2010PropOp44
 70
     1
102
RTVSPost2010Prop45
280
     0
102
RTVSPost2010PropOp45
 70
     1
102
RTVSPost2010Prop46
 90
       50
102
RTVSPost2010PropOp46
 70
     1
102
RTVSPost2010Prop47
 90
       50
102
RTVSPost2010PropOp47
 70
     1
102
RTVSPost2010Prop48
 90
       50
102
RTVSPost2010PropOp48
 70
     1
102
RTVSPost2010Prop49
280
     0
102
RTVSPost2010PropOp49
 70
     1
102
RTVSPost2010Prop50
 90
       50
102
RTVSPost2010PropOp50
 70
     1
102
RTVSPost2010Prop51ColorIndex
 90
      256
102
RTVSPost2010Prop51ColorRGB
 90
-16777216
102
RTVSPost2010PropOp51
 70
     0
102
RTVSPost2010Prop52
140
1.0
102
RTVSPost2010PropOp52
 70
     0
102
RTVSPost2010Prop53
 90
        2
102
RTVSPost2010PropOp53
 70
     1
102
RTVSPost2010Prop54
  1
strokes_ogs.tif
102
RTVSPost2010PropOp54
 70
     1
102
RTVSPost2010Prop55
280
     0
102
RTVSPost2010PropOp55
 70
     1
102
RTVSPost2010Prop56
140
1.0
102
RTVSPost2010PropOp56
 70
     1
102
RTVSPost2010Prop57
140
1.0
102
RTVSPost2010PropOp57
 70
     1
  0
XRECORD
  5
17C
102
{ACAD_REACTORS
330
17B
102
}
330
17B
100
AcDbXrecord
280
     1
102
RTVSPropertyOp0
 70
     0
102
RTVSPropertyOp1
 70
     0
102
RTVSPropertyOp2
 70
     0
102
RTVSPropertyOp3
 70
     0
102
RTVSPropertyOp4
 70
     0
102
RTVSPropertyOp5
 70
     0
102
RTVSPropertyOp6
 70
     0
102
RTVSPropertyOp7
 70
     0
102
RTVSPropertyOp8
 70
     0
102
RTVSPropertyOp9
 70
     0
102
RTVSPropertyOp10
 70
     0
102
RTVSPropertyOp11
 70
     0
102
RTVSPropertyOp12
 70
     0
102
RTVSPropertyOp13
 70
     0
102
RTVSPropertyOp14
 70
     2
102
RTVSPropertyOp15
 70
     0
102
RTVSPropertyOp16
 70
     0
102
RTVSPropertyOp17
 70
     0
102
RTVSPropertyOp18
 70
     0
102
RTVSPropertyOp19
 70
     0
102
RTVSPropertyOp20
 70
     0
102
RTVSPropertyOp21
 70
     0
102
RTVSPropertyOp22
 70
     0
102
RTVSPropertyOp23
 70
     0
102
RTVSPropertyOp24
 70
     0
102
RTVSPropertyOp25
 70
     0
102
RTVSPropertyOp26
 70
     0
102
RTVSPropertyOp27
 70
     0
102
RTVSPropertyOp28
 70
     0
102
RTVSPropertyOp29
 70
     0
102
RTVSPropertyOp30
 70
     0
102
RTVSPropertyOp31
 70
     0
102
RTVSPropertyOp32
 70
     0
102
RTVSPropertyOp33
 70
     0
102
RTVSPropertyOp34
 70
     0
102
RTVSPropertyOp35
 70
     0
102
RTVSPropertyOp36
 70
     0
102
RTVSPropertyOp37
 70
     0
102
RTVSPropertyOp38
 70
     0
102
RTVSPropertyOp39
 70
     0
102
RTVSPropertyOp40
 70
     0
102
RTVSPropertyOp41
 70
     0
102
RTVSPropertyOp42
 70
     0
102
RTVSPropertyOp43
 70
     0
102
RTVSPropertyOp44
 70
     0
102
RTVSPropertyOp45
 70
     0
102
RTVSPropertyOp46
 70
     0
102
RTVSPropertyOp47
 70
     0
102
RTVSPropertyOp48
 70
     0
102
RTVSPropertyOp49
 70
     0
102
RTVSPropertyOp50
 70
     0
102
RTVSPropertyOp51
 70
     0
102
RTVSPropertyOp52
 70
     0
102
RTVSPropertyOp53
 70
     0
102
RTVSPropertyOp54
 70
     0
102
RTVSPropertyOp55
 70
     0
102
RTVSPropertyOp56
 70
     0
102
RTVSPropertyOp57
 70
     0
102
RTVSPost2010Prop28
280
     0
102
RTVSPost2010PropOp28
 70
     0
102
RTVSPost2010Prop29
280
     1
102
RTVSPost2010PropOp29
 70
     0
102
RTVSPost2010Prop30
280
     1
102
RTVSPost2010PropOp30
 70
     0
102
RTVSPost2010Prop31
280
     0
102
RTVSPost2010PropOp31
 70
     0
102
RTVSPost2010Prop32
280
     0
102
RTVSPost2010PropOp32
 70
     0
102
RTVSPost2010Prop33
280
     0
102
RTVSPost2010PropOp33
 70
     0
102
RTVSPost2010Prop34
280
     0
102
RTVSPost2010PropOp34
 70
     0
102
RTVSPost2010Prop35
280
     0
102
RTVSPost2010PropOp35
 70
     0
102
RTVSPost2010Prop36
280
     0
102
RTVSPost2010PropOp36
 70
     0
102
RTVSPost2010Prop37
 90
       50
102
RTVSPost2010PropOp37
 70
     0
102
RTVSPost2010Prop38
140
0.0
102
RTVSPost2010PropOp38
 70
     0
102
RTVSPost2010Prop39
140
1.0
102
RTVSPost2010PropOp39
 70
     0
102
RTVSPost2010Prop40
 90
        0
102
RTVSPost2010PropOp40
 70
     0
102
RTVSPost2010Prop41ColorIndex
 90
       18
102
RTVSPost2010Prop41ColorRGB
 90
        0
102
RTVSPost2010PropOp41
 70
     0
102
RTVSPost2010Prop42
 90
       50
102
RTVSPost2010PropOp42
 70
     0
102
RTVSPost2010Prop43
 90
        3
102
RTVSPost2010PropOp43
 70
     0
102
RTVSPost2010Prop44ColorIndex
 90
        5
102
RTVSPost2010Prop44ColorRGB
 90
      255
102
RTVSPost2010PropOp44
 70
     0
102
RTVSPost2010Prop45
280
     0
102
RTVSPost2010PropOp45
 70
     0
102
RTVSPost2010Prop46
 90
       50
102
RTVSPost2010PropOp46
 70
     0
102
RTVSPost2010Prop47
 90
       50
102
RTVSPost2010PropOp47
 70
     0
102
RTVSPost2010Prop48
 90
       50
102
RTVSPost2010PropOp48
 70
     0
102
RTVSPost2010Prop49
280
     0
102
RTVSPost2010PropOp49
 70
     0
102
RTVSPost2010Prop50
 90
       50
102
RTVSPost2010PropOp50
 70
     0
102
RTVSPost2010Prop51ColorIndex
 90
      256
102
RTVSPost2010Prop51ColorRGB
 90
-16777216
102
RTVSPost2010PropOp51
 70
     0
102
RTVSPost2010Prop52
140
1.0
102
RTVSPost2010PropOp52
 70
     0
102
RTVSPost2010Prop53
 90
        2
102
RTVSPost2010PropOp53
 70
     0
102
RTVSPost2010Prop54
  1
strokes_ogs.tif
102
RTVSPost2010PropOp54
 70
     0
102
RTVSPost2010Prop55
280
     0
102
RTVSPost2010PropOp55
 70
     0
102
RTVSPost2010Prop56
140
1.0
102
RTVSPost2010PropOp56
 70
     0
102
RTVSPost2010Prop57
140
1.0
102
RTVSPost2010PropOp57
 70
     0
  0
XRECORD
  5
176
102
{ACAD_REACTORS
330
175
102
}
330
175
100
AcDbXrecord
280
     1
102
RTVSPropertyOp0
 70
     1
102
RTVSPropertyOp1
 70
     1
102
RTVSPropertyOp2
 70
     1
102
RTVSPropertyOp3
 70
     1
102
RTVSPropertyOp4
 70
     1
102
RTVSPropertyOp5
 70
     1
102
RTVSPropertyOp6
 70
     1
102
RTVSPropertyOp7
 70
     1
102
RTVSPropertyOp8
 70
     1
102
RTVSPropertyOp9
 70
     1
102
RTVSPropertyOp10
 70
     1
102
RTVSPropertyOp11
 70
     1
102
RTVSPropertyOp12
 70
     1
102
RTVSPropertyOp13
 70
     1
102
RTVSPropertyOp14
 70
     1
102
RTVSPropertyOp15
 70
     1
102
RTVSPropertyOp16
 70
     1
102
RTVSPropertyOp17
 70
     1
102
RTVSPropertyOp18
 70
     1
102
RTVSPropertyOp19
 70
     1
102
RTVSPropertyOp20
 70
     1
102
RTVSPropertyOp21
 70
     1
102
RTVSPropertyOp22
 70
     1
102
RTVSPropertyOp23
 70
     1
102
RTVSPropertyOp24
 70
     1
102
RTVSPropertyOp25
 70
     1
102
RTVSPropertyOp26
 70
     1
102
RTVSPropertyOp27
 70
     1
102
RTVSPropertyOp28
 70
     1
102
RTVSPropertyOp29
 70
     1
102
RTVSPropertyOp30
 70
     1
102
RTVSPropertyOp31
 70
     1
102
RTVSPropertyOp32
 70
     1
102
RTVSPropertyOp33
 70
     1
102
RTVSPropertyOp34
 70
     1
102
RTVSPropertyOp35
 70
     1
102
RTVSPropertyOp36
 70
     1
102
RTVSPropertyOp37
 70
     1
102
RTVSPropertyOp38
 70
     1
102
RTVSPropertyOp39
 70
     1
102
RTVSPropertyOp40
 70
     1
102
RTVSPropertyOp41
 70
     1
102
RTVSPropertyOp42
 70
     1
102
RTVSPropertyOp43
 70
     1
102
RTVSPropertyOp44
 70
     1
102
RTVSPropertyOp45
 70
     1
102
RTVSPropertyOp46
 70
     1
102
RTVSPropertyOp47
 70
     1
102
RTVSPropertyOp48
 70
     1
102
RTVSPropertyOp49
 70
     1
102
RTVSPropertyOp50
 70
     1
102
RTVSPropertyOp51
 70
     0
102
RTVSPropertyOp52
 70
     0
102
RTVSPropertyOp53
 70
     1
102
RTVSPropertyOp54
 70
     1
102
RTVSPropertyOp55
 70
     1
102
RTVSPropertyOp56
 70
     1
102
RTVSPropertyOp57
 70
     1
102
RTVSPost2010Prop28
280
     0
102
RTVSPost2010PropOp28
 70
     1
102
RTVSPost2010Prop29
280
     1
102
RTVSPost2010PropOp29
 70
     1
102
RTVSPost2010Prop30
280
     1
102
RTVSPost2010PropOp30
 70
     1
102
RTVSPost2010Prop31
280
     0
102
RTVSPost2010PropOp31
 70
     1
102
RTVSPost2010Prop32
280
     0
102
RTVSPost2010PropOp32
 70
     1
102
RTVSPost2010Prop33
280
     0
102
RTVSPost2010PropOp33
 70
     1
102
RTVSPost2010Prop34
280
     0
102
RTVSPost2010PropOp34
 70
     1
102
RTVSPost2010Prop35
280
     0
102
RTVSPost2010PropOp35
 70
     1
102
RTVSPost2010Prop36
280
     0
102
RTVSPost2010PropOp36
 70
     1
102
RTVSPost2010Prop37
 90
       50
102
RTVSPost2010PropOp37
 70
     1
102
RTVSPost2010Prop38
140
0.0
102
RTVSPost2010PropOp38
 70
     1
102
RTVSPost2010Prop39
140
1.0
102
RTVSPost2010PropOp39
 70
     1
102
RTVSPost2010Prop40
 90
        0
102
RTVSPost2010PropOp40
 70
     1
102
RTVSPost2010Prop41ColorIndex
 90
       18
102
RTVSPost2010Prop41ColorRGB
 90
        0
102
RTVSPost2010PropOp41
 70
     1
102
RTVSPost2010Prop42
 90
       50
102
RTVSPost2010PropOp42
 70
     1
102
RTVSPost2010Prop43
 90
        3
102
RTVSPost2010PropOp43
 70
     1
102
RTVSPost2010Prop44ColorIndex
 90
        5
102
RTVSPost2010Prop44ColorRGB
 90
      255
102
RTVSPost2010PropOp44
 70
     1
102
RTVSPost2010Prop45
280
     0
102
RTVSPost2010PropOp45
 70
     1
102
RTVSPost2010Prop46
 90
       50
102
RTVSPost2010PropOp46
 70
     1
102
RTVSPost2010Prop47
 90
       50
102
RTVSPost2010PropOp47
 70
     1
102
RTVSPost2010Prop48
 90
       50
102
RTVSPost2010PropOp48
 70
     1
102
RTVSPost2010Prop49
280
     0
102
RTVSPost2010PropOp49
 70
     1
102
RTVSPost2010Prop50
 90
       50
102
RTVSPost2010PropOp50
 70
     1
102
RTVSPost2010Prop51ColorIndex
 90
      256
102
RTVSPost2010Prop51ColorRGB
 90
-16777216
102
RTVSPost2010PropOp51
 70
     0
102
RTVSPost2010Prop52
140
1.0
102
RTVSPost2010PropOp52
 70
     0
102
RTVSPost2010Prop53
 90
        2
102
RTVSPost2010PropOp53
 70
     1
102
RTVSPost2010Prop54
  1
strokes_ogs.tif
102
RTVSPost2010PropOp54
 70
     1
102
RTVSPost2010Prop55
280
     0
102
RTVSPost2010PropOp55
 70
     1
102
RTVSPost2010Prop56
140
1.0
102
RTVSPost2010PropOp56
 70
     1
102
RTVSPost2010Prop57
140
1.0
102
RTVSPost2010PropOp57
 70
     1
  0
XRECORD
  5
17E
102
{ACAD_REACTORS
330
17D
102
}
330
17D
100
AcDbXrecord
280
     1
102
RTVSPropertyOp0
 70
     0
102
RTVSPropertyOp1
 70
     0
102
RTVSPropertyOp2
 70
     0
102
RTVSPropertyOp3
 70
     0
102
RTVSPropertyOp4
 70
     0
102
RTVSPropertyOp5
 70
     0
102
RTVSPropertyOp6
 70
     0
102
RTVSPropertyOp7
 70
     0
102
RTVSPropertyOp8
 70
     0
102
RTVSPropertyOp9
 70
     0
102
RTVSPropertyOp10
 70
     0
102
RTVSPropertyOp11
 70
     0
102
RTVSPropertyOp12
 70
     0
102
RTVSPropertyOp13
 70
     0
102
RTVSPropertyOp14
 70
     2
102
RTVSPropertyOp15
 70
     0
102
RTVSPropertyOp16
 70
     0
102
RTVSPropertyOp17
 70
     0
102
RTVSPropertyOp18
 70
     0
102
RTVSPropertyOp19
 70
     0
102
RTVSPropertyOp20
 70
     0
102
RTVSPropertyOp21
 70
     0
102
RTVSPropertyOp22
 70
     0
102
RTVSPropertyOp23
 70
     0
102
RTVSPropertyOp24
 70
     0
102
RTVSPropertyOp25
 70
     0
102
RTVSPropertyOp26
 70
     0
102
RTVSPropertyOp27
 70
     0
102
RTVSPropertyOp28
 70
     0
102
RTVSPropertyOp29
 70
     0
102
RTVSPropertyOp30
 70
     0
102
RTVSPropertyOp31
 70
     0
102
RTVSPropertyOp32
 70
     0
102
RTVSPropertyOp33
 70
     0
102
RTVSPropertyOp34
 70
     0
102
RTVSPropertyOp35
 70
     0
102
RTVSPropertyOp36
 70
     0
102
RTVSPropertyOp37
 70
     0
102
RTVSPropertyOp38
 70
     0
102
RTVSPropertyOp39
 70
     0
102
RTVSPropertyOp40
 70
     0
102
RTVSPropertyOp41
 70
     0
102
RTVSPropertyOp42
 70
     0
102
RTVSPropertyOp43
 70
     0
102
RTVSPropertyOp44
 70
     0
102
RTVSPropertyOp45
 70
     0
102
RTVSPropertyOp46
 70
     0
102
RTVSPropertyOp47
 70
     0
102
RTVSPropertyOp48
 70
     0
102
RTVSPropertyOp49
 70
     0
102
RTVSPropertyOp50
 70
     0
102
RTVSPropertyOp51
 70
     0
102
RTVSPropertyOp52
 70
     0
102
RTVSPropertyOp53
 70
     0
102
RTVSPropertyOp54
 70
     0
102
RTVSPropertyOp55
 70
     0
102
RTVSPropertyOp56
 70
     0
102
RTVSPropertyOp57
 70
     0
102
RTVSPost2010Prop28
280
     0
102
RTVSPost2010PropOp28
 70
     0
102
RTVSPost2010Prop29
280
     1
102
RTVSPost2010PropOp29
 70
     0
102
RTVSPost2010Prop30
280
     1
102
RTVSPost2010PropOp30
 70
     0
102
RTVSPost2010Prop31
280
     0
102
RTVSPost2010PropOp31
 70
     0
102
RTVSPost2010Prop32
280
     0
102
RTVSPost2010PropOp32
 70
     0
102
RTVSPost2010Prop33
280
     0
102
RTVSPost2010PropOp33
 70
     0
102
RTVSPost2010Prop34
280
     0
102
RTVSPost2010PropOp34
 70
     0
102
RTVSPost2010Prop35
280
     0
102
RTVSPost2010PropOp35
 70
     0
102
RTVSPost2010Prop36
280
     0
102
RTVSPost2010PropOp36
 70
     0
102
RTVSPost2010Prop37
 90
       50
102
RTVSPost2010PropOp37
 70
     0
102
RTVSPost2010Prop38
140
0.0
102
RTVSPost2010PropOp38
 70
     0
102
RTVSPost2010Prop39
140
1.0
102
RTVSPost2010PropOp39
 70
     0
102
RTVSPost2010Prop40
 90
        0
102
RTVSPost2010PropOp40
 70
     0
102
RTVSPost2010Prop41ColorIndex
 90
       18
102
RTVSPost2010Prop41ColorRGB
 90
        0
102
RTVSPost2010PropOp41
 70
     0
102
RTVSPost2010Prop42
 90
       50
102
RTVSPost2010PropOp42
 70
     0
102
RTVSPost2010Prop43
 90
        3
102
RTVSPost2010PropOp43
 70
     0
102
RTVSPost2010Prop44ColorIndex
 90
        5
102
RTVSPost2010Prop44ColorRGB
 90
      255
102
RTVSPost2010PropOp44
 70
     0
102
RTVSPost2010Prop45
280
     0
102
RTVSPost2010PropOp45
 70
     0
102
RTVSPost2010Prop46
 90
       50
102
RTVSPost2010PropOp46
 70
     0
102
RTVSPost2010Prop47
 90
       50
102
RTVSPost2010PropOp47
 70
     0
102
RTVSPost2010Prop48
 90
       50
102
RTVSPost2010PropOp48
 70
     0
102
RTVSPost2010Prop49
280
     0
102
RTVSPost2010PropOp49
 70
     0
102
RTVSPost2010Prop50
 90
       50
102
RTVSPost2010PropOp50
 70
     0
102
RTVSPost2010Prop51ColorIndex
 90
      256
102
RTVSPost2010Prop51ColorRGB
 90
-16777216
102
RTVSPost2010PropOp51
 70
     0
102
RTVSPost2010Prop52
140
1.0
102
RTVSPost2010PropOp52
 70
     0
102
RTVSPost2010Prop53
 90
        2
102
RTVSPost2010PropOp53
 70
     0
102
RTVSPost2010Prop54
  1
strokes_ogs.tif
102
RTVSPost2010PropOp54
 70
     0
102
RTVSPost2010Prop55
280
     0
102
RTVSPost2010PropOp55
 70
     0
102
RTVSPost2010Prop56
140
1.0
102
RTVSPost2010PropOp56
 70
     0
102
RTVSPost2010Prop57
140
1.0
102
RTVSPost2010PropOp57
 70
     0
  0
XRECORD
  5
16C
102
{ACAD_REACTORS
330
16B
102
}
330
16B
100
AcDbXrecord
280
     1
102
RTVSPropertyOp0
 70
     1
102
RTVSPropertyOp1
 70
     1
102
RTVSPropertyOp2
 70
     1
102
RTVSPropertyOp3
 70
     1
102
RTVSPropertyOp4
 70
     1
102
RTVSPropertyOp5
 70
     1
102
RTVSPropertyOp6
 70
     1
102
RTVSPropertyOp7
 70
     1
102
RTVSPropertyOp8
 70
     1
102
RTVSPropertyOp9
 70
     1
102
RTVSPropertyOp10
 70
     1
102
RTVSPropertyOp11
 70
     1
102
RTVSPropertyOp12
 70
     1
102
RTVSPropertyOp13
 70
     1
102
RTVSPropertyOp14
 70
     1
102
RTVSPropertyOp15
 70
     1
102
RTVSPropertyOp16
 70
     1
102
RTVSPropertyOp17
 70
     1
102
RTVSPropertyOp18
 70
     1
102
RTVSPropertyOp19
 70
     1
102
RTVSPropertyOp20
 70
     1
102
RTVSPropertyOp21
 70
     1
102
RTVSPropertyOp22
 70
     1
102
RTVSPropertyOp23
 70
     1
102
RTVSPropertyOp24
 70
     1
102
RTVSPropertyOp25
 70
     1
102
RTVSPropertyOp26
 70
     1
102
RTVSPropertyOp27
 70
     1
102
RTVSPropertyOp28
 70
     1
102
RTVSPropertyOp29
 70
     1
102
RTVSPropertyOp30
 70
     1
102
RTVSPropertyOp31
 70
     1
102
RTVSPropertyOp32
 70
     1
102
RTVSPropertyOp33
 70
     1
102
RTVSPropertyOp34
 70
     1
102
RTVSPropertyOp35
 70
     1
102
RTVSPropertyOp36
 70
     1
102
RTVSPropertyOp37
 70
     1
102
RTVSPropertyOp38
 70
     1
102
RTVSPropertyOp39
 70
     1
102
RTVSPropertyOp40
 70
     1
102
RTVSPropertyOp41
 70
     1
102
RTVSPropertyOp42
 70
     1
102
RTVSPropertyOp43
 70
     1
102
RTVSPropertyOp44
 70
     1
102
RTVSPropertyOp45
 70
     1
102
RTVSPropertyOp46
 70
     1
102
RTVSPropertyOp47
 70
     1
102
RTVSPropertyOp48
 70
     1
102
RTVSPropertyOp49
 70
     1
102
RTVSPropertyOp50
 70
     1
102
RTVSPropertyOp51
 70
     0
102
RTVSPropertyOp52
 70
     0
102
RTVSPropertyOp53
 70
     1
102
RTVSPropertyOp54
 70
     1
102
RTVSPropertyOp55
 70
     1
102
RTVSPropertyOp56
 70
     1
102
RTVSPropertyOp57
 70
     1
102
RTVSPost2010Prop28
280
     0
102
RTVSPost2010PropOp28
 70
     1
102
RTVSPost2010Prop29
280
     1
102
RTVSPost2010PropOp29
 70
     1
102
RTVSPost2010Prop30
280
     1
102
RTVSPost2010PropOp30
 70
     1
102
RTVSPost2010Prop31
280
     0
102
RTVSPost2010PropOp31
 70
     1
102
RTVSPost2010Prop32
280
     0
102
RTVSPost2010PropOp32
 70
     1
102
RTVSPost2010Prop33
280
     0
102
RTVSPost2010PropOp33
 70
     1
102
RTVSPost2010Prop34
280
     0
102
RTVSPost2010PropOp34
 70
     1
102
RTVSPost2010Prop35
280
     0
102
RTVSPost2010PropOp35
 70
     1
102
RTVSPost2010Prop36
280
     0
102
RTVSPost2010PropOp36
 70
     1
102
RTVSPost2010Prop37
 90
       50
102
RTVSPost2010PropOp37
 70
     1
102
RTVSPost2010Prop38
140
0.0
102
RTVSPost2010PropOp38
 70
     1
102
RTVSPost2010Prop39
140
1.0
102
RTVSPost2010PropOp39
 70
     1
102
RTVSPost2010Prop40
 90
        0
102
RTVSPost2010PropOp40
 70
     1
102
RTVSPost2010Prop41ColorIndex
 90
       18
102
RTVSPost2010Prop41ColorRGB
 90
        0
102
RTVSPost2010PropOp41
 70
     1
102
RTVSPost2010Prop42
 90
       50
102
RTVSPost2010PropOp42
 70
     1
102
RTVSPost2010Prop43
 90
        3
102
RTVSPost2010PropOp43
 70
     1
102
RTVSPost2010Prop44ColorIndex
 90
        5
102
RTVSPost2010Prop44ColorRGB
 90
      255
102
RTVSPost2010PropOp44
 70
     1
102
RTVSPost2010Prop45
280
     0
102
RTVSPost2010PropOp45
 70
     1
102
RTVSPost2010Prop46
 90
       50
102
RTVSPost2010PropOp46
 70
     1
102
RTVSPost2010Prop47
 90
       50
102
RTVSPost2010PropOp47
 70
     1
102
RTVSPost2010Prop48
 90
       50
102
RTVSPost2010PropOp48
 70
     1
102
RTVSPost2010Prop49
280
     0
102
RTVSPost2010PropOp49
 70
     1
102
RTVSPost2010Prop50
 90
       50
102
RTVSPost2010PropOp50
 70
     1
102
RTVSPost2010Prop51ColorIndex
 90
      256
102
RTVSPost2010Prop51ColorRGB
 90
-16777216
102
RTVSPost2010PropOp51
 70
     0
102
RTVSPost2010Prop52
140
1.0
102
RTVSPost2010PropOp52
 70
     0
102
RTVSPost2010Prop53
 90
        2
102
RTVSPost2010PropOp53
 70
     1
102
RTVSPost2010Prop54
  1
strokes_ogs.tif
102
RTVSPost2010PropOp54
 70
     1
102
RTVSPost2010Prop55
280
     0
102
RTVSPost2010PropOp55
 70
     1
102
RTVSPost2010Prop56
140
1.0
102
RTVSPost2010PropOp56
 70
     1
102
RTVSPost2010Prop57
140
1.0
102
RTVSPost2010PropOp57
 70
     1
  0
XRECORD
  5
18A
102
{ACAD_REACTORS
330
189
102
}
330
189
100
AcDbXrecord
280
     1
102
RTVSPropertyOp0
 70
     1
102
RTVSPropertyOp1
 70
     1
102
RTVSPropertyOp2
 70
     1
102
RTVSPropertyOp3
 70
     1
102
RTVSPropertyOp4
 70
     1
102
RTVSPropertyOp5
 70
     1
102
RTVSPropertyOp6
 70
     1
102
RTVSPropertyOp7
 70
     1
102
RTVSPropertyOp8
 70
     1
102
RTVSPropertyOp9
 70
     1
102
RTVSPropertyOp10
 70
     1
102
RTVSPropertyOp11
 70
     1
102
RTVSPropertyOp12
 70
     1
102
RTVSPropertyOp13
 70
     1
102
RTVSPropertyOp14
 70
     1
102
RTVSPropertyOp15
 70
     1
102
RTVSPropertyOp16
 70
     1
102
RTVSPropertyOp17
 70
     1
102
RTVSPropertyOp18
 70
     1
102
RTVSPropertyOp19
 70
     1
102
RTVSPropertyOp20
 70
     1
102
RTVSPropertyOp21
 70
     1
102
RTVSPropertyOp22
 70
     1
102
RTVSPropertyOp23
 70
     1
102
RTVSPropertyOp24
 70
     1
102
RTVSPropertyOp25
 70
     1
102
RTVSPropertyOp26
 70
     1
102
RTVSPropertyOp27
 70
     1
102
RTVSPropertyOp28
 70
     1
102
RTVSPropertyOp29
 70
     1
102
RTVSPropertyOp30
 70
     1
102
RTVSPropertyOp31
 70
     1
102
RTVSPropertyOp32
 70
     1
102
RTVSPropertyOp33
 70
     1
102
RTVSPropertyOp34
 70
     1
102
RTVSPropertyOp35
 70
     1
102
RTVSPropertyOp36
 70
     1
102
RTVSPropertyOp37
 70
     1
102
RTVSPropertyOp38
 70
     1
102
RTVSPropertyOp39
 70
     1
102
RTVSPropertyOp40
 70
     1
102
RTVSPropertyOp41
 70
     1
102
RTVSPropertyOp42
 70
     1
102
RTVSPropertyOp43
 70
     1
102
RTVSPropertyOp44
 70
     1
102
RTVSPropertyOp45
 70
     1
102
RTVSPropertyOp46
 70
     1
102
RTVSPropertyOp47
 70
     1
102
RTVSPropertyOp48
 70
     1
102
RTVSPropertyOp49
 70
     1
102
RTVSPropertyOp50
 70
     1
102
RTVSPropertyOp51
 70
     0
102
RTVSPropertyOp52
 70
     0
102
RTVSPropertyOp53
 70
     1
102
RTVSPropertyOp54
 70
     1
102
RTVSPropertyOp55
 70
     1
102
RTVSPropertyOp56
 70
     1
102
RTVSPropertyOp57
 70
     1
102
RTVSPost2010Prop28
280
     0
102
RTVSPost2010PropOp28
 70
     1
102
RTVSPost2010Prop29
280
     1
102
RTVSPost2010PropOp29
 70
     1
102
RTVSPost2010Prop30
280
     1
102
RTVSPost2010PropOp30
 70
     1
102
RTVSPost2010Prop31
280
     0
102
RTVSPost2010PropOp31
 70
     1
102
RTVSPost2010Prop32
280
     0
102
RTVSPost2010PropOp32
 70
     1
102
RTVSPost2010Prop33
280
     0
102
RTVSPost2010PropOp33
 70
     1
102
RTVSPost2010Prop34
280
     0
102
RTVSPost2010PropOp34
 70
     1
102
RTVSPost2010Prop35
280
     0
102
RTVSPost2010PropOp35
 70
     1
102
RTVSPost2010Prop36
280
     0
102
RTVSPost2010PropOp36
 70
     1
102
RTVSPost2010Prop37
 90
       50
102
RTVSPost2010PropOp37
 70
     1
102
RTVSPost2010Prop38
140
0.0
102
RTVSPost2010PropOp38
 70
     1
102
RTVSPost2010Prop39
140
1.0
102
RTVSPost2010PropOp39
 70
     1
102
RTVSPost2010Prop40
 90
        0
102
RTVSPost2010PropOp40
 70
     1
102
RTVSPost2010Prop41ColorIndex
 90
       18
102
RTVSPost2010Prop41ColorRGB
 90
        0
102
RTVSPost2010PropOp41
 70
     1
102
RTVSPost2010Prop42
 90
       50
102
RTVSPost2010PropOp42
 70
     1
102
RTVSPost2010Prop43
 90
        3
102
RTVSPost2010PropOp43
 70
     1
102
RTVSPost2010Prop44ColorIndex
 90
        5
102
RTVSPost2010Prop44ColorRGB
 90
      255
102
RTVSPost2010PropOp44
 70
     1
102
RTVSPost2010Prop45
280
     0
102
RTVSPost2010PropOp45
 70
     1
102
RTVSPost2010Prop46
 90
       50
102
RTVSPost2010PropOp46
 70
     1
102
RTVSPost2010Prop47
 90
       50
102
RTVSPost2010PropOp47
 70
     1
102
RTVSPost2010Prop48
 90
       50
102
RTVSPost2010PropOp48
 70
     1
102
RTVSPost2010Prop49
280
     0
102
RTVSPost2010PropOp49
 70
     1
102
RTVSPost2010Prop50
 90
       50
102
RTVSPost2010PropOp50
 70
     1
102
RTVSPost2010Prop51ColorIndex
 90
      256
102
RTVSPost2010Prop51ColorRGB
 90
-16777216
102
RTVSPost2010PropOp51
 70
     0
102
RTVSPost2010Prop52
140
1.0
102
RTVSPost2010PropOp52
 70
     0
102
RTVSPost2010Prop53
 90
        2
102
RTVSPost2010PropOp53
 70
     1
102
RTVSPost2010Prop54
  1
strokes_ogs.tif
102
RTVSPost2010PropOp54
 70
     1
102
RTVSPost2010Prop55
280
     0
102
RTVSPost2010PropOp55
 70
     1
102
RTVSPost2010Prop56
140
1.0
102
RTVSPost2010PropOp56
 70
     1
102
RTVSPost2010Prop57
140
1.0
102
RTVSPost2010PropOp57
 70
     1
  0
XRECORD
  5
188
102
{ACAD_REACTORS
330
187
102
}
330
187
100
AcDbXrecord
280
     1
102
RTVSPropertyOp0
 70
     1
102
RTVSPropertyOp1
 70
     1
102
RTVSPropertyOp2
 70
     1
102
RTVSPropertyOp3
 70
     1
102
RTVSPropertyOp4
 70
     1
102
RTVSPropertyOp5
 70
     1
102
RTVSPropertyOp6
 70
     1
102
RTVSPropertyOp7
 70
     1
102
RTVSPropertyOp8
 70
     1
102
RTVSPropertyOp9
 70
     1
102
RTVSPropertyOp10
 70
     1
102
RTVSPropertyOp11
 70
     1
102
RTVSPropertyOp12
 70
     1
102
RTVSPropertyOp13
 70
     1
102
RTVSPropertyOp14
 70
     1
102
RTVSPropertyOp15
 70
     1
102
RTVSPropertyOp16
 70
     1
102
RTVSPropertyOp17
 70
     1
102
RTVSPropertyOp18
 70
     1
102
RTVSPropertyOp19
 70
     1
102
RTVSPropertyOp20
 70
     1
102
RTVSPropertyOp21
 70
     1
102
RTVSPropertyOp22
 70
     1
102
RTVSPropertyOp23
 70
     1
102
RTVSPropertyOp24
 70
     1
102
RTVSPropertyOp25
 70
     1
102
RTVSPropertyOp26
 70
     1
102
RTVSPropertyOp27
 70
     1
102
RTVSPropertyOp28
 70
     1
102
RTVSPropertyOp29
 70
     1
102
RTVSPropertyOp30
 70
     1
102
RTVSPropertyOp31
 70
     1
102
RTVSPropertyOp32
 70
     1
102
RTVSPropertyOp33
 70
     1
102
RTVSPropertyOp34
 70
     1
102
RTVSPropertyOp35
 70
     1
102
RTVSPropertyOp36
 70
     1
102
RTVSPropertyOp37
 70
     1
102
RTVSPropertyOp38
 70
     1
102
RTVSPropertyOp39
 70
     1
102
RTVSPropertyOp40
 70
     1
102
RTVSPropertyOp41
 70
     1
102
RTVSPropertyOp42
 70
     1
102
RTVSPropertyOp43
 70
     1
102
RTVSPropertyOp44
 70
     1
102
RTVSPropertyOp45
 70
     1
102
RTVSPropertyOp46
 70
     1
102
RTVSPropertyOp47
 70
     1
102
RTVSPropertyOp48
 70
     1
102
RTVSPropertyOp49
 70
     1
102
RTVSPropertyOp50
 70
     1
102
RTVSPropertyOp51
 70
     0
102
RTVSPropertyOp52
 70
     0
102
RTVSPropertyOp53
 70
     1
102
RTVSPropertyOp54
 70
     1
102
RTVSPropertyOp55
 70
     1
102
RTVSPropertyOp56
 70
     1
102
RTVSPropertyOp57
 70
     1
102
RTVSPost2010Prop28
280
     0
102
RTVSPost2010PropOp28
 70
     1
102
RTVSPost2010Prop29
280
     1
102
RTVSPost2010PropOp29
 70
     1
102
RTVSPost2010Prop30
280
     1
102
RTVSPost2010PropOp30
 70
     1
102
RTVSPost2010Prop31
280
     0
102
RTVSPost2010PropOp31
 70
     1
102
RTVSPost2010Prop32
280
     0
102
RTVSPost2010PropOp32
 70
     1
102
RTVSPost2010Prop33
280
     0
102
RTVSPost2010PropOp33
 70
     1
102
RTVSPost2010Prop34
280
     0
102
RTVSPost2010PropOp34
 70
     1
102
RTVSPost2010Prop35
280
     0
102
RTVSPost2010PropOp35
 70
     1
102
RTVSPost2010Prop36
280
     0
102
RTVSPost2010PropOp36
 70
     1
102
RTVSPost2010Prop37
 90
       50
102
RTVSPost2010PropOp37
 70
     1
102
RTVSPost2010Prop38
140
0.0
102
RTVSPost2010PropOp38
 70
     1
102
RTVSPost2010Prop39
140
1.0
102
RTVSPost2010PropOp39
 70
     1
102
RTVSPost2010Prop40
 90
        0
102
RTVSPost2010PropOp40
 70
     1
102
RTVSPost2010Prop41ColorIndex
 90
       18
102
RTVSPost2010Prop41ColorRGB
 90
        0
102
RTVSPost2010PropOp41
 70
     1
102
RTVSPost2010Prop42
 90
       50
102
RTVSPost2010PropOp42
 70
     1
102
RTVSPost2010Prop43
 90
        3
102
RTVSPost2010PropOp43
 70
     1
102
RTVSPost2010Prop44ColorIndex
 90
        5
102
RTVSPost2010Prop44ColorRGB
 90
      255
102
RTVSPost2010PropOp44
 70
     1
102
RTVSPost2010Prop45
280
     0
102
RTVSPost2010PropOp45
 70
     1
102
RTVSPost2010Prop46
 90
       50
102
RTVSPost2010PropOp46
 70
     1
102
RTVSPost2010Prop47
 90
       50
102
RTVSPost2010PropOp47
 70
     1
102
RTVSPost2010Prop48
 90
       50
102
RTVSPost2010PropOp48
 70
     1
102
RTVSPost2010Prop49
280
     0
102
RTVSPost2010PropOp49
 70
     1
102
RTVSPost2010Prop50
 90
       50
102
RTVSPost2010PropOp50
 70
     1
102
RTVSPost2010Prop51ColorIndex
 90
      256
102
RTVSPost2010Prop51ColorRGB
 90
-16777216
102
RTVSPost2010PropOp51
 70
     0
102
RTVSPost2010Prop52
140
1.0
102
RTVSPost2010PropOp52
 70
     0
102
RTVSPost2010Prop53
 90
        2
102
RTVSPost2010PropOp53
 70
     1
102
RTVSPost2010Prop54
  1
strokes_ogs.tif
102
RTVSPost2010PropOp54
 70
     1
102
RTVSPost2010Prop55
280
     0
102
RTVSPost2010PropOp55
 70
     1
102
RTVSPost2010Prop56
140
1.0
102
RTVSPost2010PropOp56
 70
     1
102
RTVSPost2010Prop57
140
1.0
102
RTVSPost2010PropOp57
 70
     1
  0
XRECORD
  5
182
102
{ACAD_REACTORS
330
181
102
}
330
181
100
AcDbXrecord
280
     1
102
RTVSPropertyOp0
 70
     1
102
RTVSPropertyOp1
 70
     1
102
RTVSPropertyOp2
 70
     1
102
RTVSPropertyOp3
 70
     1
102
RTVSPropertyOp4
 70
     1
102
RTVSPropertyOp5
 70
     1
102
RTVSPropertyOp6
 70
     1
102
RTVSPropertyOp7
 70
     1
102
RTVSPropertyOp8
 70
     1
102
RTVSPropertyOp9
 70
     1
102
RTVSPropertyOp10
 70
     1
102
RTVSPropertyOp11
 70
     1
102
RTVSPropertyOp12
 70
     1
102
RTVSPropertyOp13
 70
     1
102
RTVSPropertyOp14
 70
     1
102
RTVSPropertyOp15
 70
     1
102
RTVSPropertyOp16
 70
     1
102
RTVSPropertyOp17
 70
     1
102
RTVSPropertyOp18
 70
     1
102
RTVSPropertyOp19
 70
     1
102
RTVSPropertyOp20
 70
     1
102
RTVSPropertyOp21
 70
     1
102
RTVSPropertyOp22
 70
     1
102
RTVSPropertyOp23
 70
     1
102
RTVSPropertyOp24
 70
     1
102
RTVSPropertyOp25
 70
     1
102
RTVSPropertyOp26
 70
     1
102
RTVSPropertyOp27
 70
     1
102
RTVSPropertyOp28
 70
     1
102
RTVSPropertyOp29
 70
     1
102
RTVSPropertyOp30
 70
     1
102
RTVSPropertyOp31
 70
     1
102
RTVSPropertyOp32
 70
     1
102
RTVSPropertyOp33
 70
     1
102
RTVSPropertyOp34
 70
     1
102
RTVSPropertyOp35
 70
     1
102
RTVSPropertyOp36
 70
     1
102
RTVSPropertyOp37
 70
     1
102
RTVSPropertyOp38
 70
     1
102
RTVSPropertyOp39
 70
     1
102
RTVSPropertyOp40
 70
     1
102
RTVSPropertyOp41
 70
     1
102
RTVSPropertyOp42
 70
     1
102
RTVSPropertyOp43
 70
     1
102
RTVSPropertyOp44
 70
     1
102
RTVSPropertyOp45
 70
     1
102
RTVSPropertyOp46
 70
     1
102
RTVSPropertyOp47
 70
     1
102
RTVSPropertyOp48
 70
     1
102
RTVSPropertyOp49
 70
     1
102
RTVSPropertyOp50
 70
     1
102
RTVSPropertyOp51
 70
     0
102
RTVSPropertyOp52
 70
     0
102
RTVSPropertyOp53
 70
     1
102
RTVSPropertyOp54
 70
     1
102
RTVSPropertyOp55
 70
     1
102
RTVSPropertyOp56
 70
     1
102
RTVSPropertyOp57
 70
     1
102
RTVSPost2010Prop28
280
     0
102
RTVSPost2010PropOp28
 70
     1
102
RTVSPost2010Prop29
280
     1
102
RTVSPost2010PropOp29
 70
     1
102
RTVSPost2010Prop30
280
     1
102
RTVSPost2010PropOp30
 70
     1
102
RTVSPost2010Prop31
280
     0
102
RTVSPost2010PropOp31
 70
     1
102
RTVSPost2010Prop32
280
     0
102
RTVSPost2010PropOp32
 70
     1
102
RTVSPost2010Prop33
280
     0
102
RTVSPost2010PropOp33
 70
     1
102
RTVSPost2010Prop34
280
     0
102
RTVSPost2010PropOp34
 70
     1
102
RTVSPost2010Prop35
280
     0
102
RTVSPost2010PropOp35
 70
     1
102
RTVSPost2010Prop36
280
     0
102
RTVSPost2010PropOp36
 70
     1
102
RTVSPost2010Prop37
 90
       50
102
RTVSPost2010PropOp37
 70
     1
102
RTVSPost2010Prop38
140
0.0
102
RTVSPost2010PropOp38
 70
     1
102
RTVSPost2010Prop39
140
1.0
102
RTVSPost2010PropOp39
 70
     1
102
RTVSPost2010Prop40
 90
        0
102
RTVSPost2010PropOp40
 70
     1
102
RTVSPost2010Prop41ColorIndex
 90
       18
102
RTVSPost2010Prop41ColorRGB
 90
        0
102
RTVSPost2010PropOp41
 70
     1
102
RTVSPost2010Prop42
 90
       50
102
RTVSPost2010PropOp42
 70
     1
102
RTVSPost2010Prop43
 90
        3
102
RTVSPost2010PropOp43
 70
     1
102
RTVSPost2010Prop44ColorIndex
 90
        5
102
RTVSPost2010Prop44ColorRGB
 90
      255
102
RTVSPost2010PropOp44
 70
     1
102
RTVSPost2010Prop45
280
     0
102
RTVSPost2010PropOp45
 70
     1
102
RTVSPost2010Prop46
 90
       50
102
RTVSPost2010PropOp46
 70
     1
102
RTVSPost2010Prop47
 90
       50
102
RTVSPost2010PropOp47
 70
     1
102
RTVSPost2010Prop48
 90
       50
102
RTVSPost2010PropOp48
 70
     1
102
RTVSPost2010Prop49
280
     0
102
RTVSPost2010PropOp49
 70
     1
102
RTVSPost2010Prop50
 90
       50
102
RTVSPost2010PropOp50
 70
     1
102
RTVSPost2010Prop51ColorIndex
 90
      256
102
RTVSPost2010Prop51ColorRGB
 90
-16777216
102
RTVSPost2010PropOp51
 70
     0
102
RTVSPost2010Prop52
140
1.0
102
RTVSPost2010PropOp52
 70
     0
102
RTVSPost2010Prop53
 90
        2
102
RTVSPost2010PropOp53
 70
     1
102
RTVSPost2010Prop54
  1
strokes_ogs.tif
102
RTVSPost2010PropOp54
 70
     1
102
RTVSPost2010Prop55
280
     0
102
RTVSPost2010PropOp55
 70
     1
102
RTVSPost2010Prop56
140
1.0
102
RTVSPost2010PropOp56
 70
     1
102
RTVSPost2010Prop57
140
1.0
102
RTVSPost2010PropOp57
 70
     1
  0
XRECORD
  5
184
102
{ACAD_REACTORS
330
183
102
}
330
183
100
AcDbXrecord
280
     1
102
RTVSPropertyOp0
 70
     1
102
RTVSPropertyOp1
 70
     1
102
RTVSPropertyOp2
 70
     1
102
RTVSPropertyOp3
 70
     1
102
RTVSPropertyOp4
 70
     1
102
RTVSPropertyOp5
 70
     1
102
RTVSPropertyOp6
 70
     1
102
RTVSPropertyOp7
 70
     1
102
RTVSPropertyOp8
 70
     1
102
RTVSPropertyOp9
 70
     1
102
RTVSPropertyOp10
 70
     1
102
RTVSPropertyOp11
 70
     1
102
RTVSPropertyOp12
 70
     1
102
RTVSPropertyOp13
 70
     1
102
RTVSPropertyOp14
 70
     1
102
RTVSPropertyOp15
 70
     1
102
RTVSPropertyOp16
 70
     1
102
RTVSPropertyOp17
 70
     1
102
RTVSPropertyOp18
 70
     1
102
RTVSPropertyOp19
 70
     1
102
RTVSPropertyOp20
 70
     1
102
RTVSPropertyOp21
 70
     1
102
RTVSPropertyOp22
 70
     1
102
RTVSPropertyOp23
 70
     1
102
RTVSPropertyOp24
 70
     1
102
RTVSPropertyOp25
 70
     1
102
RTVSPropertyOp26
 70
     1
102
RTVSPropertyOp27
 70
     1
102
RTVSPropertyOp28
 70
     1
102
RTVSPropertyOp29
 70
     1
102
RTVSPropertyOp30
 70
     1
102
RTVSPropertyOp31
 70
     1
102
RTVSPropertyOp32
 70
     1
102
RTVSPropertyOp33
 70
     1
102
RTVSPropertyOp34
 70
     1
102
RTVSPropertyOp35
 70
     1
102
RTVSPropertyOp36
 70
     1
102
RTVSPropertyOp37
 70
     1
102
RTVSPropertyOp38
 70
     1
102
RTVSPropertyOp39
 70
     1
102
RTVSPropertyOp40
 70
     1
102
RTVSPropertyOp41
 70
     1
102
RTVSPropertyOp42
 70
     1
102
RTVSPropertyOp43
 70
     1
102
RTVSPropertyOp44
 70
     1
102
RTVSPropertyOp45
 70
     1
102
RTVSPropertyOp46
 70
     1
102
RTVSPropertyOp47
 70
     1
102
RTVSPropertyOp48
 70
     1
102
RTVSPropertyOp49
 70
     1
102
RTVSPropertyOp50
 70
     1
102
RTVSPropertyOp51
 70
     0
102
RTVSPropertyOp52
 70
     0
102
RTVSPropertyOp53
 70
     1
102
RTVSPropertyOp54
 70
     1
102
RTVSPropertyOp55
 70
     1
102
RTVSPropertyOp56
 70
     1
102
RTVSPropertyOp57
 70
     1
102
RTVSPost2010Prop28
280
     0
102
RTVSPost2010PropOp28
 70
     1
102
RTVSPost2010Prop29
280
     1
102
RTVSPost2010PropOp29
 70
     1
102
RTVSPost2010Prop30
280
     1
102
RTVSPost2010PropOp30
 70
     1
102
RTVSPost2010Prop31
280
     0
102
RTVSPost2010PropOp31
 70
     1
102
RTVSPost2010Prop32
280
     0
102
RTVSPost2010PropOp32
 70
     1
102
RTVSPost2010Prop33
280
     0
102
RTVSPost2010PropOp33
 70
     1
102
RTVSPost2010Prop34
280
     0
102
RTVSPost2010PropOp34
 70
     1
102
RTVSPost2010Prop35
280
     0
102
RTVSPost2010PropOp35
 70
     1
102
RTVSPost2010Prop36
280
     0
102
RTVSPost2010PropOp36
 70
     1
102
RTVSPost2010Prop37
 90
       50
102
RTVSPost2010PropOp37
 70
     1
102
RTVSPost2010Prop38
140
0.0
102
RTVSPost2010PropOp38
 70
     1
102
RTVSPost2010Prop39
140
1.0
102
RTVSPost2010PropOp39
 70
     1
102
RTVSPost2010Prop40
 90
        0
102
RTVSPost2010PropOp40
 70
     1
102
RTVSPost2010Prop41ColorIndex
 90
       18
102
RTVSPost2010Prop41ColorRGB
 90
        0
102
RTVSPost2010PropOp41
 70
     1
102
RTVSPost2010Prop42
 90
       50
102
RTVSPost2010PropOp42
 70
     1
102
RTVSPost2010Prop43
 90
        3
102
RTVSPost2010PropOp43
 70
     1
102
RTVSPost2010Prop44ColorIndex
 90
        5
102
RTVSPost2010Prop44ColorRGB
 90
      255
102
RTVSPost2010PropOp44
 70
     1
102
RTVSPost2010Prop45
280
     0
102
RTVSPost2010PropOp45
 70
     1
102
RTVSPost2010Prop46
 90
       50
102
RTVSPost2010PropOp46
 70
     1
102
RTVSPost2010Prop47
 90
       50
102
RTVSPost2010PropOp47
 70
     1
102
RTVSPost2010Prop48
 90
       50
102
RTVSPost2010PropOp48
 70
     1
102
RTVSPost2010Prop49
280
     0
102
RTVSPost2010PropOp49
 70
     1
102
RTVSPost2010Prop50
 90
       50
102
RTVSPost2010PropOp50
 70
     1
102
RTVSPost2010Prop51ColorIndex
 90
      256
102
RTVSPost2010Prop51ColorRGB
 90
-16777216
102
RTVSPost2010PropOp51
 70
     0
102
RTVSPost2010Prop52
140
1.0
102
RTVSPost2010PropOp52
 70
     0
102
RTVSPost2010Prop53
 90
        2
102
RTVSPost2010PropOp53
 70
     1
102
RTVSPost2010Prop54
  1
strokes_ogs.tif
102
RTVSPost2010PropOp54
 70
     1
102
RTVSPost2010Prop55
280
     0
102
RTVSPost2010PropOp55
 70
     1
102
RTVSPost2010Prop56
140
1.0
102
RTVSPost2010PropOp56
 70
     1
102
RTVSPost2010Prop57
140
1.0
102
RTVSPost2010PropOp57
 70
     1
  0
XRECORD
  5
174
102
{ACAD_REACTORS
330
173
102
}
330
173
100
AcDbXrecord
280
     1
102
RTVSPropertyOp0
 70
     1
102
RTVSPropertyOp1
 70
     1
102
RTVSPropertyOp2
 70
     1
102
RTVSPropertyOp3
 70
     1
102
RTVSPropertyOp4
 70
     1
102
RTVSPropertyOp5
 70
     1
102
RTVSPropertyOp6
 70
     1
102
RTVSPropertyOp7
 70
     1
102
RTVSPropertyOp8
 70
     1
102
RTVSPropertyOp9
 70
     1
102
RTVSPropertyOp10
 70
     1
102
RTVSPropertyOp11
 70
     1
102
RTVSPropertyOp12
 70
     1
102
RTVSPropertyOp13
 70
     1
102
RTVSPropertyOp14
 70
     1
102
RTVSPropertyOp15
 70
     1
102
RTVSPropertyOp16
 70
     1
102
RTVSPropertyOp17
 70
     1
102
RTVSPropertyOp18
 70
     1
102
RTVSPropertyOp19
 70
     1
102
RTVSPropertyOp20
 70
     1
102
RTVSPropertyOp21
 70
     1
102
RTVSPropertyOp22
 70
     1
102
RTVSPropertyOp23
 70
     1
102
RTVSPropertyOp24
 70
     1
102
RTVSPropertyOp25
 70
     1
102
RTVSPropertyOp26
 70
     1
102
RTVSPropertyOp27
 70
     1
102
RTVSPropertyOp28
 70
     1
102
RTVSPropertyOp29
 70
     1
102
RTVSPropertyOp30
 70
     1
102
RTVSPropertyOp31
 70
     1
102
RTVSPropertyOp32
 70
     1
102
RTVSPropertyOp33
 70
     1
102
RTVSPropertyOp34
 70
     1
102
RTVSPropertyOp35
 70
     1
102
RTVSPropertyOp36
 70
     1
102
RTVSPropertyOp37
 70
     1
102
RTVSPropertyOp38
 70
     1
102
RTVSPropertyOp39
 70
     1
102
RTVSPropertyOp40
 70
     1
102
RTVSPropertyOp41
 70
     1
102
RTVSPropertyOp42
 70
     1
102
RTVSPropertyOp43
 70
     1
102
RTVSPropertyOp44
 70
     1
102
RTVSPropertyOp45
 70
     1
102
RTVSPropertyOp46
 70
     1
102
RTVSPropertyOp47
 70
     1
102
RTVSPropertyOp48
 70
     1
102
RTVSPropertyOp49
 70
     1
102
RTVSPropertyOp50
 70
     1
102
RTVSPropertyOp51
 70
     0
102
RTVSPropertyOp52
 70
     0
102
RTVSPropertyOp53
 70
     1
102
RTVSPropertyOp54
 70
     1
102
RTVSPropertyOp55
 70
     1
102
RTVSPropertyOp56
 70
     1
102
RTVSPropertyOp57
 70
     1
102
RTVSPost2010Prop28
280
     0
102
RTVSPost2010PropOp28
 70
     1
102
RTVSPost2010Prop29
280
     1
102
RTVSPost2010PropOp29
 70
     1
102
RTVSPost2010Prop30
280
     1
102
RTVSPost2010PropOp30
 70
     1
102
RTVSPost2010Prop31
280
     0
102
RTVSPost2010PropOp31
 70
     1
102
RTVSPost2010Prop32
280
     0
102
RTVSPost2010PropOp32
 70
     1
102
RTVSPost2010Prop33
280
     0
102
RTVSPost2010PropOp33
 70
     1
102
RTVSPost2010Prop34
280
     0
102
RTVSPost2010PropOp34
 70
     1
102
RTVSPost2010Prop35
280
     0
102
RTVSPost2010PropOp35
 70
     1
102
RTVSPost2010Prop36
280
     0
102
RTVSPost2010PropOp36
 70
     1
102
RTVSPost2010Prop37
 90
       50
102
RTVSPost2010PropOp37
 70
     1
102
RTVSPost2010Prop38
140
0.0
102
RTVSPost2010PropOp38
 70
     1
102
RTVSPost2010Prop39
140
1.0
102
RTVSPost2010PropOp39
 70
     1
102
RTVSPost2010Prop40
 90
        0
102
RTVSPost2010PropOp40
 70
     1
102
RTVSPost2010Prop41ColorIndex
 90
       18
102
RTVSPost2010Prop41ColorRGB
 90
        0
102
RTVSPost2010PropOp41
 70
     1
102
RTVSPost2010Prop42
 90
       50
102
RTVSPost2010PropOp42
 70
     1
102
RTVSPost2010Prop43
 90
        3
102
RTVSPost2010PropOp43
 70
     1
102
RTVSPost2010Prop44ColorIndex
 90
        5
102
RTVSPost2010Prop44ColorRGB
 90
      255
102
RTVSPost2010PropOp44
 70
     1
102
RTVSPost2010Prop45
280
     0
102
RTVSPost2010PropOp45
 70
     1
102
RTVSPost2010Prop46
 90
       50
102
RTVSPost2010PropOp46
 70
     1
102
RTVSPost2010Prop47
 90
       50
102
RTVSPost2010PropOp47
 70
     1
102
RTVSPost2010Prop48
 90
       50
102
RTVSPost2010PropOp48
 70
     1
102
RTVSPost2010Prop49
280
     0
102
RTVSPost2010PropOp49
 70
     1
102
RTVSPost2010Prop50
 90
       50
102
RTVSPost2010PropOp50
 70
     1
102
RTVSPost2010Prop51ColorIndex
 90
      256
102
RTVSPost2010Prop51ColorRGB
 90
-16777216
102
RTVSPost2010PropOp51
 70
     0
102
RTVSPost2010Prop52
140
1.0
102
RTVSPost2010PropOp52
 70
     0
102
RTVSPost2010Prop53
 90
        2
102
RTVSPost2010PropOp53
 70
     1
102
RTVSPost2010Prop54
  1
strokes_ogs.tif
102
RTVSPost2010PropOp54
 70
     1
102
RTVSPost2010Prop55
280
     0
102
RTVSPost2010PropOp55
 70
     1
102
RTVSPost2010Prop56
140
1.0
102
RTVSPost2010PropOp56
 70
     1
102
RTVSPost2010Prop57
140
1.0
102
RTVSPost2010PropOp57
 70
     1
  0
XRECORD
  5
166
102
{ACAD_REACTORS
330
165
102
}
330
165
100
AcDbXrecord
280
     1
102
RTVSPropertyOp0
 70
     1
102
RTVSPropertyOp1
 70
     1
102
RTVSPropertyOp2
 70
     1
102
RTVSPropertyOp3
 70
     1
102
RTVSPropertyOp4
 70
     1
102
RTVSPropertyOp5
 70
     1
102
RTVSPropertyOp6
 70
     1
102
RTVSPropertyOp7
 70
     1
102
RTVSPropertyOp8
 70
     1
102
RTVSPropertyOp9
 70
     1
102
RTVSPropertyOp10
 70
     1
102
RTVSPropertyOp11
 70
     1
102
RTVSPropertyOp12
 70
     1
102
RTVSPropertyOp13
 70
     1
102
RTVSPropertyOp14
 70
     1
102
RTVSPropertyOp15
 70
     1
102
RTVSPropertyOp16
 70
     1
102
RTVSPropertyOp17
 70
     1
102
RTVSPropertyOp18
 70
     1
102
RTVSPropertyOp19
 70
     1
102
RTVSPropertyOp20
 70
     1
102
RTVSPropertyOp21
 70
     1
102
RTVSPropertyOp22
 70
     1
102
RTVSPropertyOp23
 70
     1
102
RTVSPropertyOp24
 70
     1
102
RTVSPropertyOp25
 70
     1
102
RTVSPropertyOp26
 70
     1
102
RTVSPropertyOp27
 70
     1
102
RTVSPropertyOp28
 70
     1
102
RTVSPropertyOp29
 70
     1
102
RTVSPropertyOp30
 70
     1
102
RTVSPropertyOp31
 70
     1
102
RTVSPropertyOp32
 70
     1
102
RTVSPropertyOp33
 70
     1
102
RTVSPropertyOp34
 70
     1
102
RTVSPropertyOp35
 70
     1
102
RTVSPropertyOp36
 70
     1
102
RTVSPropertyOp37
 70
     1
102
RTVSPropertyOp38
 70
     1
102
RTVSPropertyOp39
 70
     1
102
RTVSPropertyOp40
 70
     1
102
RTVSPropertyOp41
 70
     1
102
RTVSPropertyOp42
 70
     1
102
RTVSPropertyOp43
 70
     1
102
RTVSPropertyOp44
 70
     1
102
RTVSPropertyOp45
 70
     1
102
RTVSPropertyOp46
 70
     1
102
RTVSPropertyOp47
 70
     1
102
RTVSPropertyOp48
 70
     1
102
RTVSPropertyOp49
 70
     1
102
RTVSPropertyOp50
 70
     1
102
RTVSPropertyOp51
 70
     0
102
RTVSPropertyOp52
 70
     0
102
RTVSPropertyOp53
 70
     1
102
RTVSPropertyOp54
 70
     1
102
RTVSPropertyOp55
 70
     1
102
RTVSPropertyOp56
 70
     1
102
RTVSPropertyOp57
 70
     1
102
RTVSPost2010Prop28
280
     0
102
RTVSPost2010PropOp28
 70
     1
102
RTVSPost2010Prop29
280
     1
102
RTVSPost2010PropOp29
 70
     1
102
RTVSPost2010Prop30
280
     1
102
RTVSPost2010PropOp30
 70
     1
102
RTVSPost2010Prop31
280
     0
102
RTVSPost2010PropOp31
 70
     1
102
RTVSPost2010Prop32
280
     0
102
RTVSPost2010PropOp32
 70
     1
102
RTVSPost2010Prop33
280
     0
102
RTVSPost2010PropOp33
 70
     1
102
RTVSPost2010Prop34
280
     0
102
RTVSPost2010PropOp34
 70
     1
102
RTVSPost2010Prop35
280
     0
102
RTVSPost2010PropOp35
 70
     1
102
RTVSPost2010Prop36
280
     0
102
RTVSPost2010PropOp36
 70
     1
102
RTVSPost2010Prop37
 90
       50
102
RTVSPost2010PropOp37
 70
     1
102
RTVSPost2010Prop38
140
0.0
102
RTVSPost2010PropOp38
 70
     1
102
RTVSPost2010Prop39
140
1.0
102
RTVSPost2010PropOp39
 70
     1
102
RTVSPost2010Prop40
 90
        0
102
RTVSPost2010PropOp40
 70
     1
102
RTVSPost2010Prop41ColorIndex
 90
       18
102
RTVSPost2010Prop41ColorRGB
 90
        0
102
RTVSPost2010PropOp41
 70
     1
102
RTVSPost2010Prop42
 90
       50
102
RTVSPost2010PropOp42
 70
     1
102
RTVSPost2010Prop43
 90
        3
102
RTVSPost2010PropOp43
 70
     1
102
RTVSPost2010Prop44ColorIndex
 90
        5
102
RTVSPost2010Prop44ColorRGB
 90
      255
102
RTVSPost2010PropOp44
 70
     1
102
RTVSPost2010Prop45
280
     0
102
RTVSPost2010PropOp45
 70
     1
102
RTVSPost2010Prop46
 90
       50
102
RTVSPost2010PropOp46
 70
     1
102
RTVSPost2010Prop47
 90
       50
102
RTVSPost2010PropOp47
 70
     1
102
RTVSPost2010Prop48
 90
       50
102
RTVSPost2010PropOp48
 70
     1
102
RTVSPost2010Prop49
280
     0
102
RTVSPost2010PropOp49
 70
     1
102
RTVSPost2010Prop50
 90
       50
102
RTVSPost2010PropOp50
 70
     1
102
RTVSPost2010Prop51ColorIndex
 90
      256
102
RTVSPost2010Prop51ColorRGB
 90
-16777216
102
RTVSPost2010PropOp51
 70
     0
102
RTVSPost2010Prop52
140
1.0
102
RTVSPost2010PropOp52
 70
     0
102
RTVSPost2010Prop53
 90
        2
102
RTVSPost2010PropOp53
 70
     1
102
RTVSPost2010Prop54
  1
strokes_ogs.tif
102
RTVSPost2010PropOp54
 70
     1
102
RTVSPost2010Prop55
280
     0
102
RTVSPost2010PropOp55
 70
     1
102
RTVSPost2010Prop56
140
1.0
102
RTVSPost2010PropOp56
 70
     1
102
RTVSPost2010Prop57
140
1.0
102
RTVSPost2010PropOp57
 70
     1
  0
XRECORD
  5
186
102
{ACAD_REACTORS
330
185
102
}
330
185
100
AcDbXrecord
280
     1
102
RTVSPropertyOp0
 70
     1
102
RTVSPropertyOp1
 70
     1
102
RTVSPropertyOp2
 70
     1
102
RTVSPropertyOp3
 70
     1
102
RTVSPropertyOp4
 70
     1
102
RTVSPropertyOp5
 70
     1
102
RTVSPropertyOp6
 70
     1
102
RTVSPropertyOp7
 70
     1
102
RTVSPropertyOp8
 70
     1
102
RTVSPropertyOp9
 70
     1
102
RTVSPropertyOp10
 70
     1
102
RTVSPropertyOp11
 70
     1
102
RTVSPropertyOp12
 70
     1
102
RTVSPropertyOp13
 70
     1
102
RTVSPropertyOp14
 70
     1
102
RTVSPropertyOp15
 70
     1
102
RTVSPropertyOp16
 70
     1
102
RTVSPropertyOp17
 70
     1
102
RTVSPropertyOp18
 70
     1
102
RTVSPropertyOp19
 70
     1
102
RTVSPropertyOp20
 70
     1
102
RTVSPropertyOp21
 70
     1
102
RTVSPropertyOp22
 70
     1
102
RTVSPropertyOp23
 70
     1
102
RTVSPropertyOp24
 70
     1
102
RTVSPropertyOp25
 70
     1
102
RTVSPropertyOp26
 70
     1
102
RTVSPropertyOp27
 70
     1
102
RTVSPropertyOp28
 70
     1
102
RTVSPropertyOp29
 70
     1
102
RTVSPropertyOp30
 70
     1
102
RTVSPropertyOp31
 70
     1
102
RTVSPropertyOp32
 70
     1
102
RTVSPropertyOp33
 70
     1
102
RTVSPropertyOp34
 70
     1
102
RTVSPropertyOp35
 70
     1
102
RTVSPropertyOp36
 70
     1
102
RTVSPropertyOp37
 70
     1
102
RTVSPropertyOp38
 70
     1
102
RTVSPropertyOp39
 70
     1
102
RTVSPropertyOp40
 70
     1
102
RTVSPropertyOp41
 70
     1
102
RTVSPropertyOp42
 70
     1
102
RTVSPropertyOp43
 70
     1
102
RTVSPropertyOp44
 70
     1
102
RTVSPropertyOp45
 70
     1
102
RTVSPropertyOp46
 70
     1
102
RTVSPropertyOp47
 70
     1
102
RTVSPropertyOp48
 70
     1
102
RTVSPropertyOp49
 70
     1
102
RTVSPropertyOp50
 70
     1
102
RTVSPropertyOp51
 70
     0
102
RTVSPropertyOp52
 70
     0
102
RTVSPropertyOp53
 70
     1
102
RTVSPropertyOp54
 70
     1
102
RTVSPropertyOp55
 70
     1
102
RTVSPropertyOp56
 70
     1
102
RTVSPropertyOp57
 70
     1
102
RTVSPost2010Prop28
280
     0
102
RTVSPost2010PropOp28
 70
     1
102
RTVSPost2010Prop29
280
     1
102
RTVSPost2010PropOp29
 70
     1
102
RTVSPost2010Prop30
280
     1
102
RTVSPost2010PropOp30
 70
     1
102
RTVSPost2010Prop31
280
     0
102
RTVSPost2010PropOp31
 70
     1
102
RTVSPost2010Prop32
280
     0
102
RTVSPost2010PropOp32
 70
     1
102
RTVSPost2010Prop33
280
     0
102
RTVSPost2010PropOp33
 70
     1
102
RTVSPost2010Prop34
280
     0
102
RTVSPost2010PropOp34
 70
     1
102
RTVSPost2010Prop35
280
     0
102
RTVSPost2010PropOp35
 70
     1
102
RTVSPost2010Prop36
280
     0
102
RTVSPost2010PropOp36
 70
     1
102
RTVSPost2010Prop37
 90
       50
102
RTVSPost2010PropOp37
 70
     1
102
RTVSPost2010Prop38
140
0.0
102
RTVSPost2010PropOp38
 70
     1
102
RTVSPost2010Prop39
140
1.0
102
RTVSPost2010PropOp39
 70
     1
102
RTVSPost2010Prop40
 90
        0
102
RTVSPost2010PropOp40
 70
     1
102
RTVSPost2010Prop41ColorIndex
 90
       18
102
RTVSPost2010Prop41ColorRGB
 90
        0
102
RTVSPost2010PropOp41
 70
     1
102
RTVSPost2010Prop42
 90
       50
102
RTVSPost2010PropOp42
 70
     1
102
RTVSPost2010Prop43
 90
        3
102
RTVSPost2010PropOp43
 70
     1
102
RTVSPost2010Prop44ColorIndex
 90
        5
102
RTVSPost2010Prop44ColorRGB
 90
      255
102
RTVSPost2010PropOp44
 70
     1
102
RTVSPost2010Prop45
280
     0
102
RTVSPost2010PropOp45
 70
     1
102
RTVSPost2010Prop46
 90
       50
102
RTVSPost2010PropOp46
 70
     1
102
RTVSPost2010Prop47
 90
       50
102
RTVSPost2010PropOp47
 70
     1
102
RTVSPost2010Prop48
 90
       50
102
RTVSPost2010PropOp48
 70
     1
102
RTVSPost2010Prop49
280
     0
102
RTVSPost2010PropOp49
 70
     1
102
RTVSPost2010Prop50
 90
       50
102
RTVSPost2010PropOp50
 70
     1
102
RTVSPost2010Prop51ColorIndex
 90
      256
102
RTVSPost2010Prop51ColorRGB
 90
-16777216
102
RTVSPost2010PropOp51
 70
     0
102
RTVSPost2010Prop52
140
1.0
102
RTVSPost2010PropOp52
 70
     0
102
RTVSPost2010Prop53
 90
        2
102
RTVSPost2010PropOp53
 70
     1
102
RTVSPost2010Prop54
  1
strokes_ogs.tif
102
RTVSPost2010PropOp54
 70
     1
102
RTVSPost2010Prop55
280
     0
102
RTVSPost2010PropOp55
 70
     1
102
RTVSPost2010Prop56
140
1.0
102
RTVSPost2010PropOp56
 70
     1
102
RTVSPost2010Prop57
140
1.0
102
RTVSPost2010PropOp57
 70
     1
  0
ENDSEC
  0
EOF
