  0
SECTION
  2
HEADER
  9
$ACADVER
  1
AC1018
  9
$ACADMAINTVER
 70
     0
  9
$DWGCODEPAGE
  3
ANSI_1252
  9
$LASTSAVEDBY
  1
eduardo.guerra
  9
$INSBASE
 10
0.0
 20
0.0
 30
0.0
  9
$EXTMIN
 10
-0.5
 20
-0.5
 30
-0.5
  9
$EXTMAX
 10
5.0
 20
5.0
 30
5.0
  9
$LIMMIN
 10
-0.5
 20
-0.5
  9
$LIMMAX
 10
5.0
 20
5.0
  9
$ORTHOMODE
 70
     0
  9
$REGENMODE
 70
     1
  9
$FILLMODE
 70
     1
  9
$QTEXTMODE
 70
     0
  9
$MIRRTEXT
 70
     1
  9
$LTSCALE
 40
1.0
  9
$ATTMODE
 70
     1
  9
$TEXTSIZE
 40
0.2
  9
$TRACEWID
 40
0.05
  9
$TEXTSTYLE
  7
Standard
  9
$CLAYER
  8
0
  9
$CELTYPE
  6
ByLayer
  9
$CECOLOR
 62
   256
  9
$CELTSCALE
 40
1.0
  9
$DISPSILH
 70
     0
  9
$DIMSCALE
 40
1.0
  9
$DIMASZ
 40
0.18
  9
$DIMEXO
 40
0.0625
  9
$DIMDLI
 40
0.38
  9
$DIMRND
 40
0.0
  9
$DIMDLE
 40
0.0
  9
$DIMEXE
 40
0.18
  9
$DIMTP
 40
0.0
  9
$DIMTM
 40
0.0
  9
$DIMTXT
 40
0.18
  9
$DIMCEN
 40
0.09
  9
$DIMTSZ
 40
0.0
  9
$DIMTOL
 70
     0
  9
$DIMLIM
 70
     0
  9
$DIMTIH
 70
     1
  9
$DIMTOH
 70
     1
  9
$DIMSE1
 70
     0
  9
$DIMSE2
 70
     0
  9
$DIMTAD
 70
     0
  9
$DIMZIN
 70
     0
  9
$DIMBLK
  1

  9
$DIMASO
 70
     1
  9
$DIMSHO
 70
     1
  9
$DIMPOST
  1

  9
$DIMAPOST
  1

  9
$DIMALT
 70
     0
  9
$DIMALTD
 70
     2
  9
$DIMALTF
 40
25.4
  9
$DIMLFAC
 40
1.0
  9
$DIMTOFL
 70
     0
  9
$DIMTVP
 40
0.0
  9
$DIMTIX
 70
     0
  9
$DIMSOXD
 70
     0
  9
$DIMSAH
 70
     0
  9
$DIMBLK1
  1

  9
$DIMBLK2
  1

  9
$DIMSTYLE
  2
Standard
  9
$DIMCLRD
 70
     0
  9
$DIMCLRE
 70
     0
  9
$DIMCLRT
 70
     0
  9
$DIMTFAC
 40
1.0
  9
$DIMGAP
 40
0.09
  9
$DIMJUST
 70
     0
  9
$DIMSD1
 70
     0
  9
$DIMSD2
 70
     0
  9
$DIMTOLJ
 70
     1
  9
$DIMTZIN
 70
     0
  9
$DIMALTZ
 70
     0
  9
$DIMALTTZ
 70
     0
  9
$DIMUPT
 70
     0
  9
$DIMDEC
 70
     4
  9
$DIMTDEC
 70
     4
  9
$DIMALTU
 70
     2
  9
$DIMALTTD
 70
     2
  9
$DIMTXSTY
  7
Standard
  9
$DIMAUNIT
 70
     0
  9
$DIMADEC
 70
     0
  9
$DIMALTRND
 40
0.0
  9
$DIMAZIN
 70
     0
  9
$DIMDSEP
 70
    46
  9
$DIMATFIT
 70
     3
  9
$DIMFRAC
 70
     0
  9
$DIMLDRBLK
  1

  9
$DIMLUNIT
 70
     2
  9
$DIMLWD
 70
    -2
  9
$DIMLWE
 70
    -2
  9
$DIMTMOVE
 70
     0
  9
$LUNITS
 70
     2
  9
$LUPREC
 70
     4
  9
$SKETCHINC
 40
0.1
  9
$FILLETRAD
 40
0.0
  9
$AUNITS
 70
     0
  9
$AUPREC
 70
     0
  9
$MENU
  1
.
  9
$ELEVATION
 40
0.0
  9
$PELEVATION
 40
0.0
  9
$THICKNESS
 40
0.0
  9
$LIMCHECK
 70
     0
  9
$CHAMFERA
 40
0.0
  9
$CHAMFERB
 40
0.0
  9
$CHAMFERC
 40
0.0
  9
$CHAMFERD
 40
0.0
  9
$SKPOLY
 70
     0
  9
$TDCREATE
 40
2460375.592941968
  9
$TDUCREATE
 40
2460375.717941968
  9
$TDUPDATE
 40
2460375.5929436
  9
$TDUUPDATE
 40
2460375.7179436
  9
$TDINDWG
 40
0.0000000116
  9
$TDUSRTIMER
 40
0.0000000116
  9
$USRTIMER
 70
     1
  9
$ANGBASE
 50
0.0
  9
$ANGDIR
 70
     0
  9
$PDMODE
 70
     0
  9
$PDSIZE
 40
0.0
  9
$PLINEWID
 40
0.0
  9
$SPLFRAME
 70
     0
  9
$SPLINETYPE
 70
     6
  9
$SPLINESEGS
 70
     8
  9
$HANDSEED
  5
16A
  9
$SURFTAB1
 70
     6
  9
$SURFTAB2
 70
     6
  9
$SURFTYPE
 70
     6
  9
$SURFU
 70
     6
  9
$SURFV
 70
     6
  9
$UCSBASE
  2

  9
$UCSNAME
  2

  9
$UCSORG
 10
0.0
 20
0.0
 30
0.0
  9
$UCSXDIR
 10
1.0
 20
0.0
 30
0.0
  9
$UCSYDIR
 10
0.0
 20
1.0
 30
0.0
  9
$UCSORTHOREF
  2

  9
$UCSORTHOVIEW
 70
     0
  9
$UCSORGTOP
 10
0.0
 20
0.0
 30
0.0
  9
$UCSORGBOTTOM
 10
0.0
 20
0.0
 30
0.0
  9
$UCSORGLEFT
 10
0.0
 20
0.0
 30
0.0
  9
$UCSORGRIGHT
 10
0.0
 20
0.0
 30
0.0
  9
$UCSORGFRONT
 10
0.0
 20
0.0
 30
0.0
  9
$UCSORGBACK
 10
0.0
 20
0.0
 30
0.0
  9
$PUCSBASE
  2

  9
$PUCSNAME
  2

  9
$PUCSORG
 10
0.0
 20
0.0
 30
0.0
  9
$PUCSXDIR
 10
1.0
 20
0.0
 30
0.0
  9
$PUCSYDIR
 10
0.0
 20
1.0
 30
0.0
  9
$PUCSORTHOREF
  2

  9
$PUCSORTHOVIEW
 70
     0
  9
$PUCSORGTOP
 10
0.0
 20
0.0
 30
0.0
  9
$PUCSORGBOTTOM
 10
0.0
 20
0.0
 30
0.0
  9
$PUCSORGLEFT
 10
0.0
 20
0.0
 30
0.0
  9
$PUCSORGRIGHT
 10
0.0
 20
0.0
 30
0.0
  9
$PUCSORGFRONT
 10
0.0
 20
0.0
 30
0.0
  9
$PUCSORGBACK
 10
0.0
 20
0.0
 30
0.0
  9
$USERI1
 70
     0
  9
$USERI2
 70
     0
  9
$USERI3
 70
     0
  9
$USERI4
 70
     0
  9
$USERI5
 70
     0
  9
$USERR1
 40
0.0
  9
$USERR2
 40
0.0
  9
$USERR3
 40
0.0
  9
$USERR4
 40
0.0
  9
$USERR5
 40
0.0
  9
$WORLDVIEW
 70
     1
  9
$SHADEDGE
 70
     3
  9
$SHADEDIF
 70
    70
  9
$TILEMODE
 70
     1
  9
$MAXACTVP
 70
    64
  9
$PINSBASE
 10
0.0
 20
0.0
 30
0.0
  9
$PLIMCHECK
 70
     0
  9
$PEXTMIN
 10
-0.5
 20
-0.5
 30
-0.5
  9
$PEXTMAX
 10
5.0
 20
5.0
 30
5.0
  9
$PLIMMIN
 10
-0.5
 20
-0.5
  9
$PLIMMAX
 10
5.0
 20
5.0
  9
$UNITMODE
 70
     0
  9
$VISRETAIN
 70
     1
  9
$PLINEGEN
 70
     0
  9
$PSLTSCALE
 70
     1
  9
$TREEDEPTH
 70
  3020
  9
$CMLSTYLE
  2
Standard
  9
$CMLJUST
 70
     0
  9
$CMLSCALE
 40
1.0
  9
$PROXYGRAPHICS
 70
     1
  9
$MEASUREMENT
 70
     1
  9
$CELWEIGHT
370
    -1
  9
$ENDCAPS
280
     0
  9
$JOINSTYLE
280
     0
  9
$LWDISPLAY
290
     0
  9
$INSUNITS
 70
     4
  9
$HYPERLINKBASE
  1

  9
$STYLESHEET
  1

  9
$XEDIT
290
     1
  9
$CEPSNTYPE
380
     0
  9
$PSTYLEMODE
290
     1
  9
$FINGERPRINTGUID
  2
{be962b51-572b-42ea-989a-decff5920506}
  9
$VERSIONGUID
  2
{FAEB1C32-E019-11D5-929B-00C0DF256EC4}
  9
$EXTNAMES
290
     1
  9
$PSVPSCALE
 40
0.0
  9
$OLESTARTUP
290
     0
  9
$SORTENTS
280
   127
  9
$INDEXCTL
280
     0
  9
$HIDETEXT
280
     1
  9
$XCLIPFRAME
290
     0
  9
$HALOGAP
280
     0
  9
$OBSCOLOR
 70
   257
  9
$OBSLTYPE
280
     0
  9
$INTERSECTIONDISPLAY
280
     0
  9
$INTERSECTIONCOLOR
 70
   257
  9
$DIMASSOC
280
     2
  9
$PROJECTNAME
  1

  0
ENDSEC
  0
SECTION
  2
CLASSES
  0
CLASS
  1
ACDBDICTIONARYWDFLT
  2
AcDbDictionaryWithDefault
  3
ObjectDBX Classes
 90
        0
 91
        3
280
     0
281
     0
  0
CLASS
  1
VISUALSTYLE
  2
AcDbVisualStyle
  3
ObjectDBX Classes
 90
     4095
 91
        3
280
     0
281
     0
  0
CLASS
  1
MATERIAL
  2
AcDbMaterial
  3
ObjectDBX Classes
 90
     1153
 91
        3
280
     0
281
     0
  0
CLASS
  1
SCALE
  2
AcDbScale
  3
ObjectDBX Classes
 90
     1153
 91
        3
280
     0
281
     0
  0
CLASS
  1
TABLESTYLE
  2
AcDbTableStyle
  3
ObjectDBX Classes
 90
     4095
 91
        3
280
     0
281
     0
  0
CLASS
  1
MLEADERSTYLE
  2
AcDbMLeaderStyle
  3
ACDB_MLEADERSTYLE_CLASS
 90
     4095
 91
        3
280
     0
281
     0
  0
CLASS
  1
SUN
  2
AcDbSun
  3
SCENEOE
 90
     1153
 91
        3
280
     0
281
     0
  0
CLASS
  1
RASTERVARIABLES
  2
AcDbRasterVariables
  3
ISM
 90
        0
 91
        3
280
     0
281
     0
  0
CLASS
  1
DIMASSOC
  2
AcDbDimAssoc
  3
"AcDbDimAssoc|Product Desc:     AcDim ARX App For Dimension|Company:          Autodesk, Inc.|WEB Address:      www.autodesk.com"
 90
        0
 91
        3
280
     0
281
     0
  0
CLASS
  1
DICTIONARYVAR
  2
AcDbDictionaryVar
  3
ObjectDBX Classes
 90
        0
 91
        3
280
     0
281
     0
  0
CLASS
  1
CELLSTYLEMAP
  2
AcDbCellStyleMap
  3
ObjectDBX Classes
 90
     1152
 91
        3
280
     0
281
     0
  0
ENDSEC
  0
SECTION
  2
TABLES
  0
TABLE
  2
VPORT
  5
8
102
{ACAD_XDICTIONARY
360
123
102
}
330
0
100
AcDbSymbolTable
 70
    16
  0
VPORT
  5
29
330
8
100
AcDbSymbolTableRecord
100
AcDbViewportTableRecord
  2
*Active
 70
     0
 10
0.0
 20
0.0
 11
1.0
 21
1.0
 12
0.0
 22
0.0
 13
0.0
 23
0.0
 14
0.5
 24
0.5
 15
0.5
 25
0.5
 16
0.0
 26
0.0
 36
1.0
 17
0.0
 27
0.0
 37
0.0
 40
206.110417
 41
0.086152
 42
50.0
 43
747.608218
 44
-747.608218
 50
0.0
 51
0.0
 71
     0
 72
   100
 73
     1
 74
     3
 75
     0
 76
     0
 77
     0
 78
     0
281
     0
 65
     1
110
0.0
120
0.0
130
0.0
111
1.0
121
0.0
131
0.0
112
0.0
122
1.0
132
0.0
 79
     0
146
0.0
  0
VPORT
  5
10F
330
8
100
AcDbSymbolTableRecord
100
AcDbViewportTableRecord
  2
L1
 70
     0
 10
0.0
 20
0.0
 11
1.0
 21
1.0
 12
0.0
 22
0.0
 13
0.0
 23
0.0
 14
0.5
 24
0.5
 15
0.5
 25
0.5
 16
0.0
 26
0.0
 36
1.0
 17
0.0
 27
0.0
 37
0.0
 40
206.110417
 41
0.086152
 42
50.0
 43
747.608218
 44
-747.608218
 50
0.0
 51
0.0
 71
     0
 72
   100
 73
     1
 74
     3
 75
     0
 76
     0
 77
     0
 78
     0
281
     0
 65
     1
110
0.0
120
0.0
130
0.0
111
1.0
121
0.0
131
0.0
112
0.0
122
1.0
132
0.0
 79
     0
146
0.0
  0
VPORT
  5
110
330
8
100
AcDbSymbolTableRecord
100
AcDbViewportTableRecord
  2
L2
 70
     0
 10
0.0
 20
0.0
 11
0.5
 21
1.0
 12
0.0
 22
0.0
 13
0.0
 23
0.0
 14
0.5
 24
0.5
 15
0.5
 25
0.5
 16
0.0
 26
-1.0
 36
0.0
 17
0.0
 27
0.0
 37
0.0
 40
1495.216436
 41
0.011876
 42
50.0
 43
774.454196
 44
-774.454196
 50
0.0
 51
0.0
 71
     0
 72
   100
 73
     1
 74
     3
 75
     0
 76
     0
 77
     0
 78
     0
281
     0
 65
     1
110
0.0
120
0.0
130
0.0
111
1.0
121
0.0
131
0.0
112
0.0
122
1.0
132
0.0
 79
     0
146
0.0
  0
VPORT
  5
111
330
8
100
AcDbSymbolTableRecord
100
AcDbViewportTableRecord
  2
L2
 70
     0
 10
0.5
 20
0.0
 11
1.0
 21
1.0
 12
0.0
 22
0.0
 13
0.0
 23
0.0
 14
0.5
 24
0.5
 15
0.5
 25
0.5
 16
1.0
 26
0.0
 36
0.0
 17
0.0
 27
0.0
 37
0.0
 40
1495.216436
 41
0.011876
 42
50.0
 43
754.677695
 44
-754.677695
 50
0.0
 51
0.0
 71
     0
 72
   100
 73
     1
 74
     3
 75
     0
 76
     0
 77
     0
 78
     0
281
     0
 65
     1
110
0.0
120
0.0
130
0.0
111
1.0
121
0.0
131
0.0
112
0.0
122
1.0
132
0.0
 79
     0
146
0.0
  0
VPORT
  5
112
330
8
100
AcDbSymbolTableRecord
100
AcDbViewportTableRecord
  2
L3
 70
     0
 10
0.0
 20
0.5
 11
1.0
 21
1.0
 12
0.0
 22
0.0
 13
0.0
 23
0.0
 14
0.5
 24
0.5
 15
0.5
 25
0.5
 16
0.0
 26
0.0
 36
1.0
 17
0.0
 27
0.0
 37
0.0
 40
206.110417
 41
0.086152
 42
50.0
 43
747.608218
 44
-747.608218
 50
0.0
 51
0.0
 71
     0
 72
   100
 73
     1
 74
     3
 75
     0
 76
     0
 77
     0
 78
     0
281
     0
 65
     1
110
0.0
120
0.0
130
0.0
111
1.0
121
0.0
131
0.0
112
0.0
122
1.0
132
0.0
 79
     0
146
0.0
  0
VPORT
  5
113
330
8
100
AcDbSymbolTableRecord
100
AcDbViewportTableRecord
  2
L3
 70
     0
 10
0.0
 20
0.0
 11
1.0
 21
0.5
 12
0.0
 22
0.0
 13
0.0
 23
0.0
 14
0.5
 24
0.5
 15
0.5
 25
0.5
 16
0.0
 26
-1.0
 36
0.0
 17
0.0
 27
0.0
 37
0.0
 40
1495.216436
 41
0.011876
 42
50.0
 43
774.454196
 44
-774.454196
 50
0.0
 51
0.0
 71
     0
 72
   100
 73
     1
 74
     3
 75
     0
 76
     0
 77
     0
 78
     0
281
     0
 65
     1
110
0.0
120
0.0
130
0.0
111
1.0
121
0.0
131
0.0
112
0.0
122
1.0
132
0.0
 79
     0
146
0.0
  0
VPORT
  5
114
330
8
100
AcDbSymbolTableRecord
100
AcDbViewportTableRecord
  2
L4
 70
     0
 10
0.0
 20
0.5
 11
0.5
 21
1.0
 12
0.0
 22
0.0
 13
0.0
 23
0.0
 14
0.5
 24
0.5
 15
0.5
 25
0.5
 16
0.0
 26
0.0
 36
1.0
 17
0.0
 27
0.0
 37
0.0
 40
206.110417
 41
0.086152
 42
50.0
 43
747.608218
 44
-747.608218
 50
0.0
 51
0.0
 71
     0
 72
   100
 73
     1
 74
     3
 75
     0
 76
     0
 77
     0
 78
     0
281
     0
 65
     1
110
0.0
120
0.0
130
0.0
111
1.0
121
0.0
131
0.0
112
0.0
122
1.0
132
0.0
 79
     0
146
0.0
  0
VPORT
  5
115
330
8
100
AcDbSymbolTableRecord
100
AcDbViewportTableRecord
  2
L4
 70
     0
 10
0.0
 20
0.0
 11
0.5
 21
0.5
 12
0.0
 22
0.0
 13
0.0
 23
0.0
 14
0.5
 24
0.5
 15
0.5
 25
0.5
 16
0.0
 26
-1.0
 36
0.0
 17
0.0
 27
0.0
 37
0.0
 40
1495.216436
 41
0.011876
 42
50.0
 43
774.454196
 44
-774.454196
 50
0.0
 51
0.0
 71
     0
 72
   100
 73
     1
 74
     3
 75
     0
 76
     0
 77
     0
 78
     0
281
     0
 65
     1
110
0.0
120
0.0
130
0.0
111
1.0
121
0.0
131
0.0
112
0.0
122
1.0
132
0.0
 79
     0
146
0.0
  0
VPORT
  5
116
330
8
100
AcDbSymbolTableRecord
100
AcDbViewportTableRecord
  2
L4
 70
     0
 10
0.5
 20
0.0
 11
1.0
 21
0.5
 12
0.0
 22
0.0
 13
0.0
 23
0.0
 14
0.5
 24
0.5
 15
0.5
 25
0.5
 16
1.0
 26
0.0
 36
0.0
 17
0.0
 27
0.0
 37
0.0
 40
1495.216436
 41
0.011876
 42
50.0
 43
754.677695
 44
-754.677695
 50
0.0
 51
0.0
 71
     0
 72
   100
 73
     1
 74
     3
 75
     0
 76
     0
 77
     0
 78
     0
281
     0
 65
     1
110
0.0
120
0.0
130
0.0
111
1.0
121
0.0
131
0.0
112
0.0
122
1.0
132
0.0
 79
     0
146
0.0
  0
VPORT
  5
117
330
8
100
AcDbSymbolTableRecord
100
AcDbViewportTableRecord
  2
L4
 70
     0
 10
0.5
 20
0.5
 11
1.0
 21
1.0
 12
0.0
 22
0.0
 13
0.0
 23
0.0
 14
0.5
 24
0.5
 15
0.5
 25
0.5
 16
0.5773502691896258
 26
-0.5773502691896258
 36
0.5773502691896258
 17
0.0
 27
0.0
 37
0.0
 40
1470.031313
 41
0.012079
 42
50.0
 43
766.042154
 44
-766.042154
 50
0.0
 51
0.0
 71
     0
 72
   100
 73
     1
 74
     3
 75
     0
 76
     0
 77
     0
 78
     0
281
     0
 65
     1
110
0.0
120
0.0
130
0.0
111
1.0
121
0.0
131
0.0
112
0.0
122
1.0
132
0.0
 79
     0
146
0.0
  0
VPORT
  5
118
330
8
100
AcDbSymbolTableRecord
100
AcDbViewportTableRecord
  2
L6
 70
     0
 10
0.0
 20
0.5
 11
0.333333
 21
1.0
 12
0.0
 22
0.0
 13
0.0
 23
0.0
 14
0.5
 24
0.5
 15
0.5
 25
0.5
 16
0.7188730927569433
 26
-0.5850486126764433
 36
0.3754192287502549
 17
0.0
 27
0.0
 37
0.0
 40
1552.409312
 41
0.011438
 42
50.0
 43
803.467866
 44
-803.467866
 50
0.0
 51
0.0
 71
     0
 72
   100
 73
     1
 74
     3
 75
     0
 76
     0
 77
     0
 78
     0
281
     0
 65
     1
110
0.0
120
0.0
130
0.0
111
1.0
121
0.0
131
0.0
112
0.0
122
1.0
132
0.0
 79
     0
146
0.0
  0
VPORT
  5
119
330
8
100
AcDbSymbolTableRecord
100
AcDbViewportTableRecord
  2
L6
 70
     0
 10
0.0
 20
0.0
 11
0.333333
 21
0.5
 12
0.0
 22
0.0
 13
0.0
 23
0.0
 14
0.5
 24
0.5
 15
0.5
 25
0.5
 16
-1.0
 26
0.0
 36
0.0
 17
0.0
 27
0.0
 37
0.0
 40
1495.216436
 41
0.011876
 42
50.0
 43
754.677695
 44
-754.677695
 50
0.0
 51
0.0
 71
     0
 72
   100
 73
     1
 74
     3
 75
     0
 76
     0
 77
     0
 78
     0
281
     0
 65
     1
110
0.0
120
0.0
130
0.0
111
1.0
121
0.0
131
0.0
112
0.0
122
1.0
132
0.0
 79
     0
146
0.0
  0
VPORT
  5
11A
330
8
100
AcDbSymbolTableRecord
100
AcDbViewportTableRecord
  2
L6
 70
     0
 10
0.333333
 20
0.5
 11
0.666667
 21
1.0
 12
0.0
 22
0.0
 13
0.0
 23
0.0
 14
0.5
 24
0.5
 15
0.5
 25
0.5
 16
0.0
 26
0.0
 36
1.0
 17
0.0
 27
0.0
 37
0.0
 40
206.110417
 41
0.086152
 42
50.0
 43
747.608218
 44
-747.608218
 50
0.0
 51
0.0
 71
     0
 72
   100
 73
     1
 74
     3
 75
     0
 76
     0
 77
     0
 78
     0
281
     0
 65
     1
110
0.0
120
0.0
130
0.0
111
1.0
121
0.0
131
0.0
112
0.0
122
1.0
132
0.0
 79
     0
146
0.0
  0
VPORT
  5
11B
330
8
100
AcDbSymbolTableRecord
100
AcDbViewportTableRecord
  2
L6
 70
     0
 10
0.333333
 20
0.0
 11
0.666667
 21
0.5
 12
0.0
 22
0.0
 13
0.0
 23
0.0
 14
0.5
 24
0.5
 15
0.5
 25
0.5
 16
0.0
 26
-1.0
 36
0.0
 17
0.0
 27
0.0
 37
0.0
 40
1495.216436
 41
0.011876
 42
50.0
 43
774.454196
 44
-774.454196
 50
0.0
 51
0.0
 71
     0
 72
   100
 73
     1
 74
     3
 75
     0
 76
     0
 77
     0
 78
     0
281
     0
 65
     1
110
0.0
120
0.0
130
0.0
111
1.0
121
0.0
131
0.0
112
0.0
122
1.0
132
0.0
 79
     0
146
0.0
  0
VPORT
  5
11C
330
8
100
AcDbSymbolTableRecord
100
AcDbViewportTableRecord
  2
L6
 70
     0
 10
0.666667
 20
0.5
 11
1.0
 21
1.0
 12
0.0
 22
0.0
 13
0.0
 23
0.0
 14
0.5
 24
0.5
 15
0.5
 25
0.5
 16
0.5773502691896258
 26
-0.5773502691896258
 36
0.5773502691896258
 17
0.0
 27
0.0
 37
0.0
 40
1470.031313
 41
0.012079
 42
50.0
 43
766.042154
 44
-766.042154
 50
0.0
 51
0.0
 71
     0
 72
   100
 73
     1
 74
     3
 75
     0
 76
     0
 77
     0
 78
     0
281
     0
 65
     1
110
0.0
120
0.0
130
0.0
111
1.0
121
0.0
131
0.0
112
0.0
122
1.0
132
0.0
 79
     0
146
0.0
  0
VPORT
  5
11D
330
8
100
AcDbSymbolTableRecord
100
AcDbViewportTableRecord
  2
L6
 70
     0
 10
0.666667
 20
0.0
 11
1.0
 21
0.5
 12
0.0
 22
0.0
 13
0.0
 23
0.0
 14
0.5
 24
0.5
 15
0.5
 25
0.5
 16
1.0
 26
0.0
 36
0.0
 17
0.0
 27
0.0
 37
0.0
 40
1495.216436
 41
0.011876
 42
50.0
 43
754.677695
 44
-754.677695
 50
0.0
 51
0.0
 71
     0
 72
   100
 73
     1
 74
     3
 75
     0
 76
     0
 77
     0
 78
     0
281
     0
 65
     1
110
0.0
120
0.0
130
0.0
111
1.0
121
0.0
131
0.0
112
0.0
122
1.0
132
0.0
 79
     0
146
0.0
  0
ENDTAB
  0
TABLE
  2
LTYPE
  5
5
330
0
100
AcDbSymbolTable
 70
    10
  0
LTYPE
  5
14
330
5
100
AcDbSymbolTableRecord
100
AcDbLinetypeTableRecord
  2
ByBlock
 70
     0
  3

 72
    65
 73
     0
 40
0.0
  0
LTYPE
  5
15
330
5
100
AcDbSymbolTableRecord
100
AcDbLinetypeTableRecord
  2
ByLayer
 70
     0
  3

 72
    65
 73
     0
 40
0.0
  0
LTYPE
  5
16
330
5
100
AcDbSymbolTableRecord
100
AcDbLinetypeTableRecord
  2
Continuous
 70
     0
  3
Solid line
 72
    65
 73
     0
 40
0.0
  0
LTYPE
  5
5F
330
5
100
AcDbSymbolTableRecord
100
AcDbLinetypeTableRecord
  2
ACAD_ISO04W100
 70
     0
  3
ISO long-dash dot ____ . ____ . ____ . ____ . _
 72
    65
 73
     4
 40
30.0
 49
24.0
 74
     4
 75
     0
340
0
 46
0.0
 50
0.0
 44
0.0
 45
0.0
 49
-3.0
 74
     4
 75
     0
340
0
 46
0.0
 50
0.0
 44
0.0
 45
0.0
 49
0.0
 74
     4
 75
     0
340
0
 46
0.0
 50
0.0
 44
0.0
 45
0.0
 49
-3.0
 74
     4
 75
     0
340
0
 46
0.0
 50
0.0
 44
0.0
 45
0.0
  0
LTYPE
  5
60
330
5
100
AcDbSymbolTableRecord
100
AcDbLinetypeTableRecord
  2
ACAD_ISO05W100
 70
     0
  3
ISO long-dash double-dot ____ .. ____ .. ____ . 
 72
    65
 73
     6
 40
33.0
 49
24.0
 74
     4
 75
     0
340
0
 46
0.0
 50
0.0
 44
0.0
 45
0.0
 49
-3.0
 74
     4
 75
     0
340
0
 46
0.0
 50
0.0
 44
0.0
 45
0.0
 49
0.0
 74
     4
 75
     0
340
0
 46
0.0
 50
0.0
 44
0.0
 45
0.0
 49
-3.0
 74
     4
 75
     0
340
0
 46
0.0
 50
0.0
 44
0.0
 45
0.0
 49
0.0
 74
     4
 75
     0
340
0
 46
0.0
 50
0.0
 44
0.0
 45
0.0
 49
-3.0
 74
     4
 75
     0
340
0
 46
0.0
 50
0.0
 44
0.0
 45
0.0
  0
LTYPE
  5
61
330
5
100
AcDbSymbolTableRecord
100
AcDbLinetypeTableRecord
  2
ACAD_ISO06W100
 70
     0
  3
ISO long-dash triple-dot ____ ... ____ ... ____
 72
    65
 73
     8
 40
36.0
 49
24.0
 74
     4
 75
     0
340
0
 46
0.0
 50
0.0
 44
0.0
 45
0.0
 49
-3.0
 74
     4
 75
     0
340
0
 46
0.0
 50
0.0
 44
0.0
 45
0.0
 49
0.0
 74
     4
 75
     0
340
0
 46
0.0
 50
0.0
 44
0.0
 45
0.0
 49
-3.0
 74
     4
 75
     0
340
0
 46
0.0
 50
0.0
 44
0.0
 45
0.0
 49
0.0
 74
     4
 75
     0
340
0
 46
0.0
 50
0.0
 44
0.0
 45
0.0
 49
-3.0
 74
     4
 75
     0
340
0
 46
0.0
 50
0.0
 44
0.0
 45
0.0
 49
0.0
 74
     4
 75
     0
340
0
 46
0.0
 50
0.0
 44
0.0
 45
0.0
 49
-3.0
 74
     4
 75
     0
340
0
 46
0.0
 50
0.0
 44
0.0
 45
0.0
  0
LTYPE
  5
62
330
5
100
AcDbSymbolTableRecord
100
AcDbLinetypeTableRecord
  2
ACAD_ISO09W100
 70
     0
  3
ISO long-dash double-short-dash ____ __ __ ____
 72
    65
 73
     6
 40
45.0
 49
24.0
 74
     4
 75
     0
340
0
 46
0.0
 50
0.0
 44
0.0
 45
0.0
 49
-3.0
 74
     4
 75
     0
340
0
 46
0.0
 50
0.0
 44
0.0
 45
0.0
 49
6.0
 74
     4
 75
     0
340
0
 46
0.0
 50
0.0
 44
0.0
 45
0.0
 49
-3.0
 74
     4
 75
     0
340
0
 46
0.0
 50
0.0
 44
0.0
 45
0.0
 49
6.0
 74
     4
 75
     0
340
0
 46
0.0
 50
0.0
 44
0.0
 45
0.0
 49
-3.0
 74
     4
 75
     0
340
0
 46
0.0
 50
0.0
 44
0.0
 45
0.0
  0
LTYPE
  5
63
330
5
100
AcDbSymbolTableRecord
100
AcDbLinetypeTableRecord
  2
CENTER
 70
     0
  3
____ _ ____ _ ____ _ ____
 72
    65
 73
     4
 40
47.4
 49
22.0
 74
     4
 75
     0
340
0
 46
0.0
 50
0.0
 44
0.0
 45
0.0
 49
-8.5
 74
     4
 75
     0
340
0
 46
0.0
 50
0.0
 44
0.0
 45
0.0
 49
8.5
 74
     4
 75
     0
340
0
 46
0.0
 50
0.0
 44
0.0
 45
0.0
 49
-8.5
 74
     4
 75
     0
340
0
 46
0.0
 50
0.0
 44
0.0
 45
0.0
  0
LTYPE
  5
64
330
5
100
AcDbSymbolTableRecord
100
AcDbLinetypeTableRecord
  2
DASHDOT
 70
     0
  3
_._._._._._._._._._._._._._._._.
 72
    65
 73
     4
 40
70.0
 49
31.0
 74
     4
 75
     0
340
0
 46
0.0
 50
0.0
 44
0.0
 45
0.0
 49
-13.0
 74
     4
 75
     0
340
0
 46
0.0
 50
0.0
 44
0.0
 45
0.0
 49
13.0
 74
     4
 75
     0
340
0
 46
0.0
 50
0.0
 44
0.0
 45
0.0
 49
-13.0
 74
     4
 75
     0
340
0
 46
0.0
 50
0.0
 44
0.0
 45
0.0
  0
LTYPE
  5
65
330
5
100
AcDbSymbolTableRecord
100
AcDbLinetypeTableRecord
  2
DASHED
 70
     0
  3
__ __ __ __ __ __ __ __ __
 72
    65
 73
     2
 40
25.72
 49
12.86
 74
     4
 75
     0
340
0
 46
0.0
 50
0.0
 44
0.0
 45
0.0
 49
-12.86
 74
     4
 75
     0
340
0
 46
0.0
 50
0.0
 44
0.0
 45
0.0
  0
LTYPE
  5
66
330
5
100
AcDbSymbolTableRecord
100
AcDbLinetypeTableRecord
  2
DOT
 70
     0
  3
.........................
 72
    65
 73
     2
 40
10.0
 49
0.0
 74
     4
 75
     0
340
0
 46
0.0
 50
0.0
 44
0.0
 45
0.0
 49
-10.0
 74
     4
 75
     0
340
0
 46
0.0
 50
0.0
 44
0.0
 45
0.0
  0
LTYPE
  5
67
330
5
100
AcDbSymbolTableRecord
100
AcDbLinetypeTableRecord
  2
PHANTOM
 70
     0
  3
____ _ _ ____ _ _ _____ _ _ ____
 72
    65
 73
     6
 40
50.5
 49
18.0
 74
     4
 75
     0
340
0
 46
0.0
 50
0.0
 44
0.0
 45
0.0
 49
-6.5
 74
     4
 75
     0
340
0
 46
0.0
 50
0.0
 44
0.0
 45
0.0
 49
6.5
 74
     4
 75
     0
340
0
 46
0.0
 50
0.0
 44
0.0
 45
0.0
 49
-6.5
 74
     4
 75
     0
340
0
 46
0.0
 50
0.0
 44
0.0
 45
0.0
 49
6.5
 74
     4
 75
     0
340
0
 46
0.0
 50
0.0
 44
0.0
 45
0.0
 49
-6.5
 74
     4
 75
     0
340
0
 46
0.0
 50
0.0
 44
0.0
 45
0.0
  0
ENDTAB
  0
TABLE
  2
LAYER
  5
2
330
0
100
AcDbSymbolTable
 70
     3
  0
LAYER
  5
10
330
2
100
AcDbSymbolTableRecord
100
AcDbLayerTableRecord
  2
0
 70
     0
 62
     7
  6
Continuous
370
    -3
390
F
  0
LAYER
  5
69
330
2
100
AcDbSymbolTableRecord
100
AcDbLayerTableRecord
  2
1
 70
     0
 62
     7
420
 16777215
  6
Continuous
370
    -3
390
F
  0
LAYER
  5
9E
330
2
100
AcDbSymbolTableRecord
100
AcDbLayerTableRecord
  2
Defpoints
 70
     0
 62
     7
  6
Continuous
290
     0
370
    -3
390
F
  0
ENDTAB
  0
TABLE
  2
STYLE
  5
3
330
0
100
AcDbSymbolTable
 70
     2
  0
STYLE
  5
11
330
3
100
AcDbSymbolTableRecord
100
AcDbTextStyleTableRecord
  2
Standard
 70
     0
 40
0.0
 41
1.0
 50
0.0
 71
     0
 42
0.2
  3
txt
  4

  0
STYLE
  5
9B
330
3
100
AcDbSymbolTableRecord
100
AcDbTextStyleTableRecord
  2
Arial Unicode MS
 70
     0
 40
0.0
 41
1.0
 50
0.0
 71
     0
 42
0.2
  3

  4

1001
ACAD
1000
Arial Unicode MS
1071
        0
  0
ENDTAB
  0
TABLE
  2
VIEW
  5
6
330
0
100
AcDbSymbolTable
 70
     0
  0
ENDTAB
  0
TABLE
  2
UCS
  5
7
330
0
100
AcDbSymbolTable
 70
     0
  0
ENDTAB
  0
TABLE
  2
APPID
  5
9
330
0
100
AcDbSymbolTable
 70
     9
  0
APPID
  5
12
330
9
100
AcDbSymbolTableRecord
100
AcDbRegAppTableRecord
  2
ACAD
 70
     0
  0
APPID
  5
99
330
9
100
AcDbSymbolTableRecord
100
AcDbRegAppTableRecord
  2
ACAD_DSTYLE_DIMBREAK
 70
     0
  0
APPID
  5
FD
330
9
100
AcDbSymbolTableRecord
100
AcDbRegAppTableRecord
  2
ACAD_DSTYLE_DIMRADIAL_EXTENSION
 70
     0
  0
APPID
  5
11E
330
9
100
AcDbSymbolTableRecord
100
AcDbRegAppTableRecord
  2
ACAD_DSTYLE_DIM_LINETYPE
 70
     0
  0
APPID
  5
11F
330
9
100
AcDbSymbolTableRecord
100
AcDbRegAppTableRecord
  2
ACAD_DSTYLE_DIM_EXT1_LINETYPE
 70
     0
  0
APPID
  5
120
330
9
100
AcDbSymbolTableRecord
100
AcDbRegAppTableRecord
  2
ACAD_DSTYLE_DIM_EXT2_LINETYPE
 70
     0
  0
APPID
  5
121
330
9
100
AcDbSymbolTableRecord
100
AcDbRegAppTableRecord
  2
ACAD_DSTYLE_DIMFLIPARROW_SYMBOL
 70
     0
  0
APPID
  5
122
330
9
100
AcDbSymbolTableRecord
100
AcDbRegAppTableRecord
  2
ACAD_DSTYLE_DIMFLIPARROW_WHICH_SYMBOL
 70
     0
  0
APPID
  5
162
330
9
100
AcDbSymbolTableRecord
100
AcDbRegAppTableRecord
  2
ACAD_MLEADERVER
 70
     0
  0
ENDTAB
  0
TABLE
  2
DIMSTYLE
  5
A
330
0
100
AcDbSymbolTable
 70
     1
100
AcDbDimStyleTable
  0
DIMSTYLE
105
27
102
{ACAD_REACTORS
330
9A
330
B4
330
CC
330
E4
330
FC
102
}
330
A
100
AcDbSymbolTableRecord
100
AcDbDimStyleTableRecord
  2
Standard
 70
     0
178
     0
340
11
1001
ACAD_DSTYLE_DIMBREAK
1070
   391
1040
6.35
  0
ENDTAB
  0
TABLE
  2
BLOCK_RECORD
  5
1
330
0
100
AcDbSymbolTable
 70
    11
  0
BLOCK_RECORD
  5
1F
330
1
100
AcDbSymbolTableRecord
100
AcDbBlockTableRecord
  2
*Model_Space
340
22
  0
BLOCK_RECORD
  5
1B
330
1
100
AcDbSymbolTableRecord
100
AcDbBlockTableRecord
  2
*Paper_Space
340
1E
  0
BLOCK_RECORD
  5
23
330
1
100
AcDbSymbolTableRecord
100
AcDbBlockTableRecord
  2
*Paper_Space0
340
26
  0
BLOCK_RECORD
  5
9F
330
1
100
AcDbSymbolTableRecord
100
AcDbBlockTableRecord
  2
*D1
340
0
  0
BLOCK_RECORD
  5
AB
330
1
100
AcDbSymbolTableRecord
100
AcDbBlockTableRecord
  2
_U0
340
0
  0
BLOCK_RECORD
  5
B7
330
1
100
AcDbSymbolTableRecord
100
AcDbBlockTableRecord
  2
*D3
340
0
  0
BLOCK_RECORD
  5
C3
330
1
100
AcDbSymbolTableRecord
100
AcDbBlockTableRecord
  2
_U1
340
0
  0
BLOCK_RECORD
  5
CF
330
1
100
AcDbSymbolTableRecord
100
AcDbBlockTableRecord
  2
*D5
340
0
  0
BLOCK_RECORD
  5
DB
330
1
100
AcDbSymbolTableRecord
100
AcDbBlockTableRecord
  2
_U2
340
0
  0
BLOCK_RECORD
  5
E7
330
1
100
AcDbSymbolTableRecord
100
AcDbBlockTableRecord
  2
*D7
340
0
  0
BLOCK_RECORD
  5
F3
330
1
100
AcDbSymbolTableRecord
100
AcDbBlockTableRecord
  2
_U3
340
0
  0
BLOCK_RECORD
  5
100
330
1
100
AcDbSymbolTableRecord
100
AcDbBlockTableRecord
  2
*D9
340
0
  0
BLOCK_RECORD
  5
108
330
1
100
AcDbSymbolTableRecord
100
AcDbBlockTableRecord
  2
_U4
340
0
  0
ENDTAB
  0
ENDSEC
  0
SECTION
  2
BLOCKS
  0
BLOCK
  5
20
330
1F
100
AcDbEntity
  8
0
100
AcDbBlockBegin
  2
*Model_Space
 70
     0
 10
0.0
 20
0.0
 30
0.0
  3
*Model_Space
  1

  0
ENDBLK
  5
21
330
1F
100
AcDbEntity
  8
0
100
AcDbBlockEnd
  0
BLOCK
  5
1C
330
1B
100
AcDbEntity
 67
     1
  8
0
100
AcDbBlockBegin
  2
*Paper_Space
 70
     0
 10
0.0
 20
0.0
 30
0.0
  3
*Paper_Space
  1

  0
ENDBLK
  5
1D
330
1B
100
AcDbEntity
 67
     1
  8
0
100
AcDbBlockEnd
  0
BLOCK
  5
24
330
23
100
AcDbEntity
  8
0
100
AcDbBlockBegin
  2
*Paper_Space0
 70
     0
 10
0.0
 20
0.0
 30
0.0
  3
*Paper_Space0
  1

  0
ENDBLK
  5
25
330
23
100
AcDbEntity
  8
0
100
AcDbBlockEnd
  0
BLOCK
  5
A0
330
9F
100
AcDbEntity
  8
0
100
AcDbBlockBegin
  2
*D1
 70
     1
 10
0.0
 20
0.0
 30
0.0
  3
*D1
  1

  0
LINE
  5
A2
330
9F
100
AcDbEntity
  8
0
 62
    18
370
    -2
100
AcDbLine
 10
655.36373
 20
276.448684
 30
0.0
 11
655.36373
 21
511.448725
 31
0.0
  0
LINE
  5
A3
330
9F
100
AcDbEntity
  8
0
 62
    18
370
    -2
100
AcDbLine
 10
145.36373
 20
276.448764
 30
0.0
 11
145.36373
 21
511.448725
 31
0.0
  0
LINE
  5
A4
330
9F
100
AcDbEntity
  8
0
 62
    18
370
    -2
100
AcDbLine
 10
640.36373
 20
509.448725
 30
0.0
 11
160.36373
 21
509.448725
 31
0.0
  0
SOLID
  5
A5
330
9F
100
AcDbEntity
  8
0
 62
    18
100
AcDbTrace
 10
640.36373
 20
506.948725
 30
0.0
 11
640.36373
 21
511.948725
 31
0.0
 12
655.36373
 22
509.448725
 32
0.0
 13
655.36373
 23
509.448725
 33
0.0
  0
SOLID
  5
A6
330
9F
100
AcDbEntity
  8
0
 62
    18
100
AcDbTrace
 10
160.36373
 20
511.948725
 30
0.0
 11
160.36373
 21
506.948725
 31
0.0
 12
145.36373
 22
509.448725
 32
0.0
 13
145.36373
 23
509.448725
 33
0.0
  0
MTEXT
  5
A7
330
9F
100
AcDbEntity
  8
0
 62
    18
100
AcDbMText
 10
400.36373
 20
529.558835
 30
0.0
 40
10.0
 41
0.0
 71
     5
 72
     1
  1
\A1;510
  7
Arial Unicode MS
 73
     1
 44
1.0
  0
POINT
  5
A8
330
9F
100
AcDbEntity
  8
Defpoints
 62
     0
100
AcDbPoint
 10
655.36373
 20
275.448684
 30
0.0
  0
POINT
  5
A9
330
9F
100
AcDbEntity
  8
Defpoints
 62
     0
100
AcDbPoint
 10
145.36373
 20
275.448764
 30
0.0
  0
POINT
  5
AA
330
9F
100
AcDbEntity
  8
Defpoints
 62
     0
100
AcDbPoint
 10
145.36373
 20
509.448725
 30
0.0
  0
ENDBLK
  5
A1
330
9F
100
AcDbEntity
  8
0
100
AcDbBlockEnd
  0
BLOCK
  5
B2
330
AB
100
AcDbEntity
  8
0
100
AcDbBlockBegin
  2
_U0
 70
     0
 10
0.0
 20
0.0
 30
0.0
  3
_U0
  1

  0
MTEXT
  5
AC
330
AB
100
AcDbEntity
  8
1
  6
Continuous
 62
    18
370
    13
100
AcDbMText
 10
389.739569
 20
511.113094
 30
0.0
 40
10.0
 41
0.0
 71
     7
 72
     5
  1
\fArial Unicode MS|b0|i0;\W1.0000;510
  7
Arial Unicode MS
 73
     2
 44
1.069626
  0
LINE
  5
AD
330
AB
100
AcDbEntity
  8
1
 62
    18
370
    13
100
AcDbLine
 10
655.36373
 20
276.448684
 30
0.0
 11
655.36373
 21
511.448725
 31
0.0
  0
LINE
  5
AE
330
AB
100
AcDbEntity
  8
1
 62
    18
370
    13
100
AcDbLine
 10
145.36373
 20
276.448764
 30
0.0
 11
145.36373
 21
511.448725
 31
0.0
  0
LINE
  5
AF
330
AB
100
AcDbEntity
  8
1
 62
    18
370
    13
100
AcDbLine
 10
655.36373
 20
509.448725
 30
0.0
 11
145.36373
 21
509.448725
 31
0.0
  0
SOLID
  5
B0
330
AB
100
AcDbEntity
  8
1
 62
    18
100
AcDbTrace
 10
655.36373
 20
509.448725
 30
0.0
 11
640.363737
 21
507.473938
 31
0.0
 12
640.363723
 22
511.423513
 32
0.0
 13
640.363723
 23
511.423513
 33
0.0
  0
SOLID
  5
B1
330
AB
100
AcDbEntity
  8
1
 62
    18
100
AcDbTrace
 10
145.36373
 20
509.448725
 30
0.0
 11
160.363723
 21
511.423513
 31
0.0
 12
160.363737
 22
507.473938
 32
0.0
 13
160.363737
 23
507.473938
 33
0.0
  0
ENDBLK
  5
B3
330
AB
100
AcDbEntity
  8
0
100
AcDbBlockEnd
  0
BLOCK
  5
B8
330
B7
100
AcDbEntity
  8
0
100
AcDbBlockBegin
  2
*D3
 70
     1
 10
0.0
 20
0.0
 30
0.0
  3
*D3
  1

  0
LINE
  5
BA
330
B7
100
AcDbEntity
  8
0
 62
    18
370
    -2
100
AcDbLine
 10
401.36373
 20
460.448725
 30
0.0
 11
734.381557
 21
460.448725
 31
0.0
  0
LINE
  5
BB
330
B7
100
AcDbEntity
  8
0
 62
    18
370
    -2
100
AcDbLine
 10
401.36373
 20
90.448725
 30
0.0
 11
734.381557
 21
90.448725
 31
0.0
  0
LINE
  5
BC
330
B7
100
AcDbEntity
  8
0
 62
    18
370
    -2
100
AcDbLine
 10
732.381557
 20
445.448725
 30
0.0
 11
732.381557
 21
105.448725
 31
0.0
  0
SOLID
  5
BD
330
B7
100
AcDbEntity
  8
0
 62
    18
100
AcDbTrace
 10
734.881557
 20
445.448725
 30
0.0
 11
729.881557
 21
445.448725
 31
0.0
 12
732.381557
 22
460.448725
 32
0.0
 13
732.381557
 23
460.448725
 33
0.0
  0
SOLID
  5
BE
330
B7
100
AcDbEntity
  8
0
 62
    18
100
AcDbTrace
 10
729.881557
 20
105.448725
 30
0.0
 11
734.881557
 21
105.448725
 31
0.0
 12
732.381557
 22
90.448725
 32
0.0
 13
732.381557
 23
90.448725
 33
0.0
  0
MTEXT
  5
BF
330
B7
100
AcDbEntity
  8
0
 62
    18
100
AcDbMText
 10
712.271447
 20
275.448725
 30
0.0
 40
10.0
 41
0.0
 71
     5
 72
     1
  1
\A1;370
  7
Arial Unicode MS
 11
0.0
 21
1.0
 31
0.0
 73
     1
 44
1.0
  0
POINT
  5
C0
330
B7
100
AcDbEntity
  8
Defpoints
 62
     0
100
AcDbPoint
 10
400.36373
 20
460.448725
 30
0.0
  0
POINT
  5
C1
330
B7
100
AcDbEntity
  8
Defpoints
 62
     0
100
AcDbPoint
 10
400.36373
 20
90.448725
 30
0.0
  0
POINT
  5
C2
330
B7
100
AcDbEntity
  8
Defpoints
 62
     0
100
AcDbPoint
 10
732.381557
 20
90.448725
 30
0.0
  0
ENDBLK
  5
B9
330
B7
100
AcDbEntity
  8
0
100
AcDbBlockEnd
  0
BLOCK
  5
CA
330
C3
100
AcDbEntity
  8
0
100
AcDbBlockBegin
  2
_U1
 70
     0
 10
0.0
 20
0.0
 30
0.0
  3
_U1
  1

  0
MTEXT
  5
C4
330
C3
100
AcDbEntity
  8
1
  6
Continuous
 62
    18
370
    13
100
AcDbMText
 10
731.697188
 20
264.744564
 30
0.0
 40
10.0
 41
0.0
 71
     7
 72
     5
  1
\fArial Unicode MS|b0|i0;\W1.0000;370
  7
Arial Unicode MS
 11
6.123233995736766E-17
 21
1.0
 31
0.0
 73
     2
 44
1.069626
  0
LINE
  5
C5
330
C3
100
AcDbEntity
  8
1
 62
    18
370
    13
100
AcDbLine
 10
401.36373
 20
460.448725
 30
0.0
 11
734.381557
 21
460.448725
 31
0.0
  0
LINE
  5
C6
330
C3
100
AcDbEntity
  8
1
 62
    18
370
    13
100
AcDbLine
 10
401.36373
 20
90.448725
 30
0.0
 11
734.381557
 21
90.448725
 31
0.0
  0
LINE
  5
C7
330
C3
100
AcDbEntity
  8
1
 62
    18
370
    13
100
AcDbLine
 10
732.381557
 20
460.448725
 30
0.0
 11
732.381557
 21
90.448725
 31
0.0
  0
SOLID
  5
C8
330
C3
100
AcDbEntity
  8
1
 62
    18
100
AcDbTrace
 10
732.381557
 20
460.448725
 30
0.0
 11
734.356344
 21
445.448733
 31
0.0
 12
730.40677
 22
445.448718
 32
0.0
 13
730.40677
 23
445.448718
 33
0.0
  0
SOLID
  5
C9
330
C3
100
AcDbEntity
  8
1
 62
    18
100
AcDbTrace
 10
732.381557
 20
90.448725
 30
0.0
 11
730.40677
 21
105.448718
 31
0.0
 12
734.356344
 22
105.448733
 32
0.0
 13
734.356344
 23
105.448733
 33
0.0
  0
ENDBLK
  5
CB
330
C3
100
AcDbEntity
  8
0
100
AcDbBlockEnd
  0
BLOCK
  5
D0
330
CF
100
AcDbEntity
  8
0
100
AcDbBlockBegin
  2
*D5
 70
     1
 10
0.0
 20
0.0
 30
0.0
  3
*D5
  1

  0
LINE
  5
D2
330
CF
100
AcDbEntity
  8
0
 62
    18
370
    -2
100
AcDbLine
 10
401.36373
 20
445.448725
 30
0.0
 11
706.381557
 21
445.448725
 31
0.0
  0
LINE
  5
D3
330
CF
100
AcDbEntity
  8
0
 62
    18
370
    -2
100
AcDbLine
 10
401.36373
 20
105.448725
 30
0.0
 11
706.381557
 21
105.448725
 31
0.0
  0
LINE
  5
D4
330
CF
100
AcDbEntity
  8
0
 62
    18
370
    -2
100
AcDbLine
 10
704.381557
 20
430.448725
 30
0.0
 11
704.381557
 21
120.448725
 31
0.0
  0
SOLID
  5
D5
330
CF
100
AcDbEntity
  8
0
 62
    18
100
AcDbTrace
 10
706.881557
 20
430.448725
 30
0.0
 11
701.881557
 21
430.448725
 31
0.0
 12
704.381557
 22
445.448725
 32
0.0
 13
704.381557
 23
445.448725
 33
0.0
  0
SOLID
  5
D6
330
CF
100
AcDbEntity
  8
0
 62
    18
100
AcDbTrace
 10
701.881557
 20
120.448725
 30
0.0
 11
706.881557
 21
120.448725
 31
0.0
 12
704.381557
 22
105.448725
 32
0.0
 13
704.381557
 23
105.448725
 33
0.0
  0
MTEXT
  5
D7
330
CF
100
AcDbEntity
  8
0
 62
    18
100
AcDbMText
 10
684.271447
 20
275.448725
 30
0.0
 40
10.0
 41
0.0
 71
     5
 72
     1
  1
\A1;340
  7
Arial Unicode MS
 11
0.0
 21
1.0
 31
0.0
 73
     1
 44
1.0
  0
POINT
  5
D8
330
CF
100
AcDbEntity
  8
Defpoints
 62
     0
100
AcDbPoint
 10
400.36373
 20
445.448725
 30
0.0
  0
POINT
  5
D9
330
CF
100
AcDbEntity
  8
Defpoints
 62
     0
100
AcDbPoint
 10
400.36373
 20
105.448725
 30
0.0
  0
POINT
  5
DA
330
CF
100
AcDbEntity
  8
Defpoints
 62
     0
100
AcDbPoint
 10
704.381557
 20
105.448725
 30
0.0
  0
ENDBLK
  5
D1
330
CF
100
AcDbEntity
  8
0
100
AcDbBlockEnd
  0
BLOCK
  5
E2
330
DB
100
AcDbEntity
  8
0
100
AcDbBlockBegin
  2
_U2
 70
     0
 10
0.0
 20
0.0
 30
0.0
  3
_U2
  1

  0
MTEXT
  5
DC
330
DB
100
AcDbEntity
  8
1
  6
Continuous
 62
    18
370
    13
100
AcDbMText
 10
703.697188
 20
264.744564
 30
0.0
 40
10.0
 41
0.0
 71
     7
 72
     5
  1
\fArial Unicode MS|b0|i0;\W1.0000;340
  7
Arial Unicode MS
 11
6.123233995736766E-17
 21
1.0
 31
0.0
 73
     2
 44
1.069626
  0
LINE
  5
DD
330
DB
100
AcDbEntity
  8
1
 62
    18
370
    13
100
AcDbLine
 10
401.36373
 20
445.448725
 30
0.0
 11
706.381557
 21
445.448725
 31
0.0
  0
LINE
  5
DE
330
DB
100
AcDbEntity
  8
1
 62
    18
370
    13
100
AcDbLine
 10
401.36373
 20
105.448725
 30
0.0
 11
706.381557
 21
105.448725
 31
0.0
  0
LINE
  5
DF
330
DB
100
AcDbEntity
  8
1
 62
    18
370
    13
100
AcDbLine
 10
704.381557
 20
445.448725
 30
0.0
 11
704.381557
 21
105.448725
 31
0.0
  0
SOLID
  5
E0
330
DB
100
AcDbEntity
  8
1
 62
    18
100
AcDbTrace
 10
704.381557
 20
445.448725
 30
0.0
 11
706.356344
 21
430.448733
 31
0.0
 12
702.40677
 22
430.448718
 32
0.0
 13
702.40677
 23
430.448718
 33
0.0
  0
SOLID
  5
E1
330
DB
100
AcDbEntity
  8
1
 62
    18
100
AcDbTrace
 10
704.381557
 20
105.448725
 30
0.0
 11
702.40677
 21
120.448718
 31
0.0
 12
706.356344
 22
120.448733
 32
0.0
 13
706.356344
 23
120.448733
 33
0.0
  0
ENDBLK
  5
E3
330
DB
100
AcDbEntity
  8
0
100
AcDbBlockEnd
  0
BLOCK
  5
E8
330
E7
100
AcDbEntity
  8
0
100
AcDbBlockBegin
  2
*D7
 70
     1
 10
0.0
 20
0.0
 30
0.0
  3
*D7
  1

  0
LINE
  5
EA
330
E7
100
AcDbEntity
  8
0
 62
    18
370
    -2
100
AcDbLine
 10
160.36373
 20
276.448725
 30
0.0
 11
160.36373
 21
483.448725
 31
0.0
  0
LINE
  5
EB
330
E7
100
AcDbEntity
  8
0
 62
    18
370
    -2
100
AcDbLine
 10
640.36373
 20
276.448725
 30
0.0
 11
640.36373
 21
483.448725
 31
0.0
  0
LINE
  5
EC
330
E7
100
AcDbEntity
  8
0
 62
    18
370
    -2
100
AcDbLine
 10
175.36373
 20
481.448725
 30
0.0
 11
625.36373
 21
481.448725
 31
0.0
  0
SOLID
  5
ED
330
E7
100
AcDbEntity
  8
0
 62
    18
100
AcDbTrace
 10
175.36373
 20
483.948725
 30
0.0
 11
175.36373
 21
478.948725
 31
0.0
 12
160.36373
 22
481.448725
 32
0.0
 13
160.36373
 23
481.448725
 33
0.0
  0
SOLID
  5
EE
330
E7
100
AcDbEntity
  8
0
 62
    18
100
AcDbTrace
 10
625.36373
 20
478.948725
 30
0.0
 11
625.36373
 21
483.948725
 31
0.0
 12
640.36373
 22
481.448725
 32
0.0
 13
640.36373
 23
481.448725
 33
0.0
  0
MTEXT
  5
EF
330
E7
100
AcDbEntity
  8
0
 62
    18
100
AcDbMText
 10
400.36373
 20
501.558835
 30
0.0
 40
10.0
 41
0.0
 71
     5
 72
     1
  1
\A1;480
  7
Arial Unicode MS
 73
     1
 44
1.0
  0
POINT
  5
F0
330
E7
100
AcDbEntity
  8
Defpoints
 62
     0
100
AcDbPoint
 10
160.36373
 20
275.448725
 30
0.0
  0
POINT
  5
F1
330
E7
100
AcDbEntity
  8
Defpoints
 62
     0
100
AcDbPoint
 10
640.36373
 20
275.448725
 30
0.0
  0
POINT
  5
F2
330
E7
100
AcDbEntity
  8
Defpoints
 62
     0
100
AcDbPoint
 10
640.36373
 20
481.448725
 30
0.0
  0
ENDBLK
  5
E9
330
E7
100
AcDbEntity
  8
0
100
AcDbBlockEnd
  0
BLOCK
  5
FA
330
F3
100
AcDbEntity
  8
0
100
AcDbBlockBegin
  2
_U3
 70
     0
 10
0.0
 20
0.0
 30
0.0
  3
_U3
  1

  0
MTEXT
  5
F4
330
F3
100
AcDbEntity
  8
1
  6
Continuous
 62
    18
370
    13
100
AcDbMText
 10
389.739569
 20
483.113094
 30
0.0
 40
10.0
 41
0.0
 71
     7
 72
     5
  1
\fArial Unicode MS|b0|i0;\W1.0000;480
  7
Arial Unicode MS
 73
     2
 44
1.069626
  0
LINE
  5
F5
330
F3
100
AcDbEntity
  8
1
 62
    18
370
    13
100
AcDbLine
 10
160.36373
 20
276.448725
 30
0.0
 11
160.36373
 21
483.448725
 31
0.0
  0
LINE
  5
F6
330
F3
100
AcDbEntity
  8
1
 62
    18
370
    13
100
AcDbLine
 10
640.36373
 20
276.448725
 30
0.0
 11
640.36373
 21
483.448725
 31
0.0
  0
LINE
  5
F7
330
F3
100
AcDbEntity
  8
1
 62
    18
370
    13
100
AcDbLine
 10
160.36373
 20
481.448725
 30
0.0
 11
640.36373
 21
481.448725
 31
0.0
  0
SOLID
  5
F8
330
F3
100
AcDbEntity
  8
1
 62
    18
100
AcDbTrace
 10
160.36373
 20
481.448725
 30
0.0
 11
175.363723
 21
483.423513
 31
0.0
 12
175.363737
 22
479.473938
 32
0.0
 13
175.363737
 23
479.473938
 33
0.0
  0
SOLID
  5
F9
330
F3
100
AcDbEntity
  8
1
 62
    18
100
AcDbTrace
 10
640.36373
 20
481.448725
 30
0.0
 11
625.363737
 21
479.473938
 31
0.0
 12
625.363723
 22
483.423513
 32
0.0
 13
625.363723
 23
483.423513
 33
0.0
  0
ENDBLK
  5
FB
330
F3
100
AcDbEntity
  8
0
100
AcDbBlockEnd
  0
BLOCK
  5
101
330
100
100
AcDbEntity
  8
0
100
AcDbBlockBegin
  2
*D9
 70
     1
 10
0.0
 20
0.0
 30
0.0
  3
*D9
  1

  0
LINE
  5
103
330
100
100
AcDbEntity
  8
0
 62
    18
370
    -2
100
AcDbLine
 10
196.418756
 20
406.892717
 30
0.0
 11
238.066752
 21
365.702686
 31
0.0
  0
MTEXT
  5
104
330
100
100
AcDbEntity
  8
0
 62
    18
100
AcDbMText
 10
233.0485
 20
398.949816
 30
0.0
 40
10.0
 41
0.0
 71
     5
 72
     1
  1
\A1;R80
  7
Arial Unicode MS
 11
0.7110051103948593
 21
-0.7031868407417718
 31
0.0
 73
     1
 44
1.0
  0
SOLID
  5
105
330
100
100
AcDbEntity
  8
0
 62
    18
100
AcDbTrace
 10
198.176724
 20
408.67023
 30
0.0
 11
194.660789
 21
405.115204
 31
0.0
 12
185.75368
 22
417.440519
 32
0.0
 13
185.75368
 23
417.440519
 33
0.0
  0
POINT
  5
106
330
100
100
AcDbEntity
  8
Defpoints
 62
     0
100
AcDbPoint
 10
185.75368
 20
417.440519
 30
0.0
  0
POINT
  5
107
330
100
100
AcDbEntity
  8
Defpoints
 62
     0
100
AcDbPoint
 10
242.634089
 20
361.185572
 30
0.0
  0
ENDBLK
  5
102
330
100
100
AcDbEntity
  8
0
100
AcDbBlockEnd
  0
BLOCK
  5
10D
330
108
100
AcDbEntity
  8
0
100
AcDbBlockBegin
  2
_U4
 70
     0
 10
0.0
 20
0.0
 30
0.0
  3
_U4
  1

  0
MTEXT
  5
109
330
108
100
AcDbEntity
  8
1
  6
Continuous
 62
    18
370
    13
100
AcDbMText
 10
218.709204
 20
387.529509
 30
0.0
 40
10.0
 41
0.0
 71
     7
 72
     5
  1
\fArial Unicode MS|b0|i0;\W1.0000;80
  7
Arial Unicode MS
 11
0.7110051103948608
 21
-0.7031868407417703
 31
0.0
 73
     2
 44
1.069626
  0
MTEXT
  5
10A
330
108
100
AcDbEntity
  8
1
  6
Continuous
 62
    18
370
    13
100
AcDbMText
 10
211.536103
 20
394.623734
 30
0.0
 40
10.0
 41
0.0
 71
     7
 72
     5
  1
\fArial Unicode MS|b0|i0;\W1.0000;R
  7
Arial Unicode MS
 11
0.7110051103948608
 21
-0.7031868407417703
 31
0.0
 73
     2
 44
1.069626
  0
LINE
  5
10B
330
108
100
AcDbEntity
  8
1
 62
    18
370
    13
100
AcDbLine
 10
185.75368
 20
417.440519
 30
0.0
 11
227.662495
 21
375.992537
 31
0.0
  0
SOLID
  5
10C
330
108
100
AcDbEntity
  8
1
 62
    18
100
AcDbTrace
 10
185.75368
 20
417.440519
 30
0.0
 11
197.807396
 21
408.296806
 31
0.0
 12
195.030117
 22
405.488628
 32
0.0
 13
195.030117
 23
405.488628
 33
0.0
  0
ENDBLK
  5
10E
330
108
100
AcDbEntity
  8
0
100
AcDbBlockEnd
  0
ENDSEC
  0
SECTION
  2
ENTITIES
  0
CIRCLE
  5
68
330
1F
100
AcDbEntity
  8
1
  6
Continuous
 62
    18
370
    35
100
AcDbCircle
 10
400.36373
 20
333.448725
 30
0.0
 40
45.0
  0
ARC
  5
6A
330
1F
100
AcDbEntity
  8
1
  6
Continuous
 62
    18
370
    35
100
AcDbCircle
 10
558.093372
 20
189.711878
 30
0.0
 40
80.0
100
AcDbArc
 50
273.096453
 51
356.966262
  0
ARC
  5
6B
330
1F
100
AcDbEntity
  8
1
  6
Continuous
 62
    18
370
    35
100
AcDbCircle
 10
242.634089
 20
189.711878
 30
0.0
 40
80.0
100
AcDbArc
 50
183.033738
 51
266.903547
  0
ARC
  5
6C
102
{ACAD_REACTORS
330
E6
102
}
330
1F
100
AcDbEntity
  8
1
  6
Continuous
 62
    18
370
    35
100
AcDbCircle
 10
-1059.63627
 20
275.448725
 30
0.0
 40
1700.0
100
AcDbArc
 50
356.966262
 51
3.033738
  0
ARC
  5
6D
102
{ACAD_REACTORS
330
CE
102
}
330
1F
100
AcDbEntity
  8
1
  6
Continuous
 62
    18
370
    35
100
AcDbCircle
 10
400.36373
 20
-2554.551275
 30
0.0
 40
3000.0
100
AcDbArc
 50
86.903547
 51
93.096453
  0
ARC
  5
6E
102
{ACAD_REACTORS
330
E6
102
}
330
1F
100
AcDbEntity
  8
1
  6
Continuous
 62
    18
370
    35
100
AcDbCircle
 10
1860.36373
 20
275.448725
 30
0.0
 40
1700.0
100
AcDbArc
 50
176.966262
 51
183.033738
  0
ARC
  5
6F
102
{ACAD_REACTORS
330
CE
102
}
330
1F
100
AcDbEntity
  8
1
  6
Continuous
 62
    18
370
    35
100
AcDbCircle
 10
400.36373
 20
3105.448725
 30
0.0
 40
3000.0
100
AcDbArc
 50
266.903547
 51
273.096453
  0
ARC
  5
70
102
{ACAD_REACTORS
330
FF
102
}
330
1F
100
AcDbEntity
  8
1
  6
Continuous
 62
    18
370
    35
100
AcDbCircle
 10
242.634089
 20
361.185572
 30
0.0
 40
80.0
100
AcDbArc
 50
93.096453
 51
176.966262
  0
ARC
  5
71
330
1F
100
AcDbEntity
  8
1
  6
Continuous
 62
    18
370
    35
100
AcDbCircle
 10
558.093372
 20
361.185572
 30
0.0
 40
80.0
100
AcDbArc
 50
3.033738
 51
86.903547
  0
ARC
  5
72
330
1F
100
AcDbEntity
  8
1
  6
Continuous
 62
    18
370
    35
100
AcDbCircle
 10
-1059.63627
 20
275.448725
 30
0.0
 40
1715.0
100
AcDbArc
 50
356.966262
 51
359.999999
  0
ARC
  5
73
102
{ACAD_REACTORS
330
B6
102
}
330
1F
100
AcDbEntity
  8
1
  6
Continuous
 62
    18
370
    35
100
AcDbCircle
 10
400.36373
 20
-2554.551275
 30
0.0
 40
3015.0
100
AcDbArc
 50
86.903547
 51
93.096453
  0
ARC
  5
74
330
1F
100
AcDbEntity
  8
1
  6
Continuous
 62
    18
370
    35
100
AcDbCircle
 10
242.634089
 20
361.185572
 30
0.0
 40
95.0
100
AcDbArc
 50
93.096453
 51
176.966262
  0
ARC
  5
75
102
{ACAD_REACTORS
330
9D
102
}
330
1F
100
AcDbEntity
  8
1
  6
Continuous
 62
    18
370
    35
100
AcDbCircle
 10
1860.36373
 20
275.448725
 30
0.0
 40
1715.0
100
AcDbArc
 50
176.966262
 51
179.999999
  0
ARC
  5
76
330
1F
100
AcDbEntity
  8
1
  6
Continuous
 62
    18
370
    35
100
AcDbCircle
 10
242.634089
 20
189.711878
 30
0.0
 40
95.0
100
AcDbArc
 50
183.033738
 51
266.903547
  0
ARC
  5
77
102
{ACAD_REACTORS
330
B6
102
}
330
1F
100
AcDbEntity
  8
1
  6
Continuous
 62
    18
370
    35
100
AcDbCircle
 10
400.36373
 20
3105.448725
 30
0.0
 40
3015.0
100
AcDbArc
 50
266.903547
 51
273.096453
  0
ARC
  5
78
330
1F
100
AcDbEntity
  8
1
  6
Continuous
 62
    18
370
    35
100
AcDbCircle
 10
558.093372
 20
189.711878
 30
0.0
 40
95.0
100
AcDbArc
 50
273.096453
 51
356.966262
  0
ARC
  5
79
330
1F
100
AcDbEntity
  8
1
  6
Continuous
 62
    18
370
    35
100
AcDbCircle
 10
558.093372
 20
361.185572
 30
0.0
 40
95.0
100
AcDbArc
 50
3.033738
 51
86.903547
  0
ELLIPSE
  5
7A
330
1F
100
AcDbEntity
  8
1
  6
Continuous
 62
    18
 60
     1
370
    35
100
AcDbEllipse
 10
210.114669
 20
333.448725
 30
0.0
 11
-44.97199067128471
 21
1.587468125154206
 31
0.0
210
0.0
220
0.0
230
1.0
 40
0.002467
 41
0.0617993161100225
 42
1.501026680782735
  0
ELLIPSE
  5
7B
330
1F
100
AcDbEntity
  8
1
  6
Continuous
 62
    18
 60
     1
370
    35
100
AcDbEllipse
 10
590.612791
 20
333.448725
 30
0.0
 11
44.97199067135854
 21
1.587468125047302
 31
0.0
210
0.0
220
0.0
230
1.0
 40
0.002467
 41
4.782158625462609
 42
6.221385989328684
  0
SPLINE
  5
7C
330
1F
100
AcDbEntity
  8
1
  6
Continuous
 62
    18
 60
     1
370
    35
100
AcDbSpline
210
0.0
220
0.0
230
1.0
 70
     8
 71
     3
 72
    63
 73
    59
 74
     0
 42
0.000000001
 43
0.0000000001
 40
0.0
 40
0.0
 40
0.0
 40
0.0
 40
0.01785714285714
 40
0.03571428571429
 40
0.05357142857143
 40
0.07142857142857
 40
0.08928571428571
 40
0.1071428571429
 40
0.125
 40
0.1428571428571
 40
0.1607142857143
 40
0.1785714285714
 40
0.1964285714286
 40
0.2142857142857
 40
0.2321428571429
 40
0.25
 40
0.2678571428571
 40
0.2857142857143
 40
0.3035714285714
 40
0.3214285714286
 40
0.3392857142857
 40
0.3571428571429
 40
0.375
 40
0.3928571428571
 40
0.4107142857143
 40
0.4285714285714
 40
0.4464285714286
 40
0.4642857142857
 40
0.4821428571429
 40
0.5
 40
0.5178571428571
 40
0.5357142857143
 40
0.5535714285714
 40
0.5714285714286
 40
0.5892857142857
 40
0.6071428571429
 40
0.625
 40
0.6428571428571
 40
0.6607142857143
 40
0.6785714285714
 40
0.6964285714286
 40
0.7142857142857
 40
0.7321428571429
 40
0.75
 40
0.7678571428571
 40
0.7857142857143
 40
0.8035714285714
 40
0.8214285714286
 40
0.8392857142857
 40
0.8571428571429
 40
0.875
 40
0.8928571428571
 40
0.9107142857143
 40
0.9285714285714
 40
0.9464285714286
 40
0.9642857142857
 40
0.9821428571429
 40
1.0
 40
1.0
 40
1.0
 40
1.0
 10
238.0052001174542
 20
393.407080290445
 30
0.0
 10
241.8599920590542
 20
393.625773460745
 30
0.0
 10
249.2353187954542
 20
394.031837208545
 30
0.0
 10
259.2447642985542
 20
394.554947104945
 30
0.0
 10
268.4055655620542
 20
395.011505731745
 30
0.0
 10
276.8499901013543
 20
395.414392654345
 30
0.0
 10
284.7327813573542
 20
395.775739380245
 30
0.0
 10
292.1880841944542
 20
396.1050275226449
 30
0.0
 10
299.2184616378543
 20
396.405026536845
 30
0.0
 10
305.8364662934742
 20
396.678617655245
 30
0.0
 10
312.0524982913442
 20
396.928212661145
 30
0.0
 10
317.9350286079642
 20
397.158127571045
 30
0.0
 10
323.5526799412042
 20
397.372127699345
 30
0.0
 10
328.9295610619943
 20
397.571895196445
 30
0.0
 10
334.0922737630642
 20
397.758955974145
 30
0.0
 10
339.0685205471742
 20
397.934622714845
 30
0.0
 10
343.8824005823442
 20
398.099846930745
 30
0.0
 10
348.5567320405042
 20
398.255319130045
 30
0.0
 10
353.1143088886242
 20
398.401514048245
 30
0.0
 10
357.5758587274343
 20
398.538625468245
 30
0.0
 10
361.9626030916642
 20
398.666642651945
 30
0.0
 10
366.2912609523343
 20
398.785203821145
 30
0.0
 10
370.5791531667542
 20
398.8937559869449
 30
0.0
 10
374.8406315806643
 20
398.9914690253449
 30
0.0
 10
379.0887507585642
 20
399.077317009045
 30
0.0
 10
383.3334418982643
 20
399.150093455245
 30
0.0
 10
387.5811511003542
 20
399.2085092380449
 30
0.0
 10
391.8360754993712
 20
399.251330029045
 30
0.0
 10
396.0972131013842
 20
399.277495160545
 30
0.0
 10
400.363213265776
 20
399.286304571345
 30
0.0
 10
404.6291202240203
 20
399.277499641945
 30
0.0
 10
408.8901945292602
 20
399.251339691845
 30
0.0
 10
413.1451398299442
 20
399.2085232345449
 30
0.0
 10
417.3928588419742
 20
399.150111429445
 30
0.0
 10
421.6375592794442
 20
399.077338552545
 30
0.0
 10
425.8856733975942
 20
398.991494006245
 30
0.0
 10
430.1471563564542
 20
398.893783808745
 30
0.0
 10
434.4350379378042
 20
398.785234483145
 30
0.0
 10
438.7636893100843
 20
398.666675739545
 30
0.0
 10
443.1504147882042
 20
398.538661066545
 30
0.0
 10
447.6119469951842
 20
398.401551909945
 30
0.0
 10
452.1694902361642
 20
398.2553596072449
 30
0.0
 10
456.8437981826842
 20
398.099889586745
 30
0.0
 10
461.6576380903342
 20
397.934668044045
 30
0.0
 10
466.6338326807243
 20
397.759004399745
 30
0.0
 10
471.7964639775142
 20
397.5719478562449
 30
0.0
 10
477.1733030748842
 20
397.372183289645
 30
0.0
 10
482.7909922622342
 20
397.158183152845
 30
0.0
 10
488.6736456309942
 20
396.928264866945
 30
0.0
 10
494.8897533715842
 20
396.678668190945
 30
0.0
 10
501.5076157102542
 20
396.405084549445
 30
0.0
 10
508.5378698137542
 20
396.105092884845
 30
0.0
 10
515.9932206688543
 20
395.775805106545
 30
0.0
 10
523.8762402225542
 20
395.414450268545
 30
0.0
 10
532.3206913453542
 20
395.0115644336449
 30
0.0
 10
541.4816628362543
 20
394.5550001535449
 30
0.0
 10
551.4916305599543
 20
394.0318651313449
 30
0.0
 10
558.8672868029543
 20
393.625783747945
 30
0.0
 10
562.7222601210542
 20
393.407080290345
 30
0.0
  0
SPLINE
  5
7D
330
1F
100
AcDbEntity
  8
1
  6
Continuous
 62
    18
 60
     1
370
    35
100
AcDbSpline
210
0.0
220
0.0
230
1.0
 70
     8
 71
     3
 72
    32
 73
    28
 74
     0
 42
0.000000001
 43
0.0000000001
 40
0.0
 40
0.0
 40
0.0
 40
0.0
 40
0.04
 40
0.08
 40
0.12
 40
0.16
 40
0.2
 40
0.24
 40
0.28
 40
0.32
 40
0.36
 40
0.4
 40
0.44
 40
0.48
 40
0.52
 40
0.56
 40
0.6
 40
0.64
 40
0.68
 40
0.72
 40
0.76
 40
0.8
 40
0.84
 40
0.88
 40
0.92
 40
0.96
 40
1.0
 40
1.0
 40
1.0
 40
1.0
 10
208.3039421841542
 20
363.323090480255
 30
0.0
 10
208.3375155381542
 20
363.942554843495
 30
0.0
 10
208.4404775626542
 20
365.178319041215
 30
0.0
 10
208.7022277274542
 20
367.021561623775
 30
0.0
 10
209.0702867155542
 20
368.8462493862249
 30
0.0
 10
209.5433414069542
 20
370.6462714027249
 30
0.0
 10
210.1197021054542
 20
372.415380626115
 30
0.0
 10
210.7976649393542
 20
374.148258833315
 30
0.0
 10
211.5745187094542
 20
375.837973136145
 30
0.0
 10
212.4475846473542
 20
377.4789705793449
 30
0.0
 10
213.4140525340542
 20
379.066021513745
 30
0.0
 10
214.4705727130542
 20
380.593612592845
 30
0.0
 10
215.6132792800542
 20
382.056231583045
 30
0.0
 10
216.8382386558542
 20
383.448969859345
 30
0.0
 10
218.1415234034542
 20
384.767391948145
 30
0.0
 10
219.5186313336542
 20
386.006896428745
 30
0.0
 10
220.9642134244542
 20
387.162750222245
 30
0.0
 10
222.4733911990542
 20
388.231207592645
 30
0.0
 10
224.0413194993542
 20
389.208875799345
 30
0.0
 10
225.6624097373542
 20
390.0922786636449
 30
0.0
 10
227.3308991724542
 20
390.878329057745
 30
0.0
 10
229.0409110364542
 20
391.5643288208449
 30
0.0
 10
230.7866181129542
 20
392.148006710445
 30
0.0
 10
232.5621144776542
 20
392.6274028264449
 30
0.0
 10
234.3609939769542
 20
393.000844612245
 30
0.0
 10
236.1776231735542
 20
393.267098091645
 30
0.0
 10
237.3947453121542
 20
393.372446234845
 30
0.0
 10
238.0052001174542
 20
393.407080290445
 30
0.0
  0
SPLINE
  5
7E
330
1F
100
AcDbEntity
  8
1
  6
Continuous
 62
    18
 60
     1
370
    35
100
AcDbSpline
210
0.0
220
0.0
230
1.0
 70
     8
 71
     3
 72
    32
 73
    28
 74
     0
 42
0.000000001
 43
0.0000000001
 40
0.0
 40
0.0
 40
0.0
 40
0.0
 40
0.04
 40
0.08
 40
0.12
 40
0.16
 40
0.2
 40
0.24
 40
0.28
 40
0.32
 40
0.36
 40
0.4
 40
0.44
 40
0.48
 40
0.52
 40
0.56
 40
0.6
 40
0.64
 40
0.68
 40
0.72
 40
0.76
 40
0.8
 40
0.84
 40
0.88
 40
0.92
 40
0.96
 40
1.0
 40
1.0
 40
1.0
 40
1.0
 10
562.7222601210542
 20
393.407080290345
 30
0.0
 10
563.3327056038543
 20
393.3724466129449
 30
0.0
 10
564.5498136352542
 20
393.267100835045
 30
0.0
 10
566.3664451798543
 20
393.0008482734449
 30
0.0
 10
568.1653201625543
 20
392.627408848545
 30
0.0
 10
569.9408150965542
 20
392.148014862845
 30
0.0
 10
571.6865250066542
 20
391.5643377926449
 30
0.0
 10
573.3965396326543
 20
390.878338339145
 30
0.0
 10
575.0650215676542
 20
390.092293022145
 30
0.0
 10
576.6861018912542
 20
389.208898369245
 30
0.0
 10
578.2540366290542
 20
388.2312293999449
 30
0.0
 10
579.7632213261543
 20
387.162769375145
 30
0.0
 10
581.2088018806542
 20
386.006919470445
 30
0.0
 10
582.5859198102543
 20
384.767408412545
 30
0.0
 10
583.8892036186542
 20
383.448988863945
 30
0.0
 10
585.1141586373542
 20
382.056258338545
 30
0.0
 10
586.2568671775542
 20
380.5936404447449
 30
0.0
 10
587.3133922626542
 20
379.066045371645
 30
0.0
 10
588.2798584234542
 20
377.479000179045
 30
0.0
 10
589.1529194063542
 20
375.8380173445449
 30
0.0
 10
589.9297767320543
 20
374.148303234875
 30
0.0
 10
590.6077494978542
 20
372.415405984895
 30
0.0
 10
591.1841152386542
 20
370.646283978365
 30
0.0
 10
591.6571705107542
 20
368.846262444245
 30
0.0
 10
592.0252308644542
 20
367.0215713533549
 30
0.0
 10
592.2869806713543
 20
365.178335721065
 30
0.0
 10
592.3899444721542
 20
363.942561660885
 30
0.0
 10
592.4235180543542
 20
363.323090480255
 30
0.0
  0
SPLINE
  5
7F
330
1F
100
AcDbEntity
  8
1
  6
Continuous
 62
    18
 60
     1
370
    35
100
AcDbSpline
210
0.0
220
0.0
230
1.0
 70
     8
 71
     3
 72
    41
 73
    37
 74
     0
 42
0.000000001
 43
0.0000000001
 40
0.0
 40
0.0
 40
0.0
 40
0.0
 40
0.02941176470588
 40
0.05882352941176
 40
0.08823529411765
 40
0.1176470588235
 40
0.1470588235294
 40
0.1764705882353
 40
0.2058823529412
 40
0.2352941176471
 40
0.2647058823529
 40
0.2941176470588
 40
0.3235294117647
 40
0.3529411764706
 40
0.3823529411765
 40
0.4117647058824
 40
0.4411764705882
 40
0.4705882352941
 40
0.5
 40
0.5294117647059
 40
0.5588235294118
 40
0.5882352941176
 40
0.6176470588235
 40
0.6470588235294
 40
0.6764705882353
 40
0.7058823529412
 40
0.7352941176471
 40
0.7647058823529
 40
0.7941176470588
 40
0.8235294117647
 40
0.8529411764706
 40
0.8823529411765
 40
0.9117647058824
 40
0.9411764705882
 40
0.9705882352941
 40
1.0
 40
1.0
 40
1.0
 40
1.0
 10
561.9060813680542
 20
155.969509713345
 30
0.0
 10
558.3970603281542
 20
155.766388473845
 30
0.0
 10
551.4492654076543
 20
155.376028193745
 30
0.0
 10
541.2306129633542
 20
154.835827541445
 30
0.0
 10
531.1989679962542
 20
154.338452166945
 30
0.0
 10
521.3391855713542
 20
153.881722079945
 30
0.0
 10
511.6345282903542
 20
153.463655845045
 30
0.0
 10
502.0671396180542
 20
153.082502041545
 30
0.0
 10
492.6106482941342
 20
152.736485764245
 30
0.0
 10
483.2353188396842
 20
152.424124974445
 30
0.0
 10
473.9252861849542
 20
152.144752472545
 30
0.0
 10
464.6677356181342
 20
151.897989997245
 30
0.0
 10
455.4488728341242
 20
151.683606788845
 30
0.0
 10
446.2530318150942
 20
151.501513659845
 30
0.0
 10
437.0703978419043
 20
151.351888460945
 30
0.0
 10
427.8929802158142
 20
151.235006511745
 30
0.0
 10
418.7171327438542
 20
151.151209295145
 30
0.0
 10
409.5407721330863
 20
151.100792265145
 30
0.0
 10
400.3636910923053
 20
151.083962236445
 30
0.0
 10
391.1866650241382
 20
151.100792446145
 30
0.0
 10
382.0103665901842
 20
151.151209054845
 30
0.0
 10
372.8345268305242
 20
151.235005979945
 30
0.0
 10
363.6570888022742
 20
151.351888071945
 30
0.0
 10
354.4744605423642
 20
151.501513076445
 30
0.0
 10
345.2786013357342
 20
151.683606472145
 30
0.0
 10
336.0597340195542
 20
151.897989760845
 30
0.0
 10
326.8021845093342
 20
152.144752193745
 30
0.0
 10
317.4921605762942
 20
152.424124335245
 30
0.0
 10
308.1167745300742
 20
152.7364870265449
 30
0.0
 10
298.6602801275542
 20
153.082503609845
 30
0.0
 10
289.0929147651542
 20
153.463656586645
 30
0.0
 10
279.3882825638542
 20
153.8817217446449
 30
0.0
 10
269.5285096800542
 20
154.3384513384449
 30
0.0
 10
259.4968681064543
 20
154.835826461545
 30
0.0
 10
249.2781954910542
 20
155.3760281385449
 30
0.0
 10
242.3303995559542
 20
155.7663884956449
 30
0.0
 10
238.8213788704542
 20
155.9695097134449
 30
0.0
  0
SPLINE
  5
80
330
1F
100
AcDbEntity
  8
1
  6
Continuous
 62
    18
 60
     1
370
    35
100
AcDbSpline
210
0.0
220
0.0
230
1.0
 70
     8
 71
     3
 72
    32
 73
    28
 74
     0
 42
0.000000001
 43
0.0000000001
 40
0.0
 40
0.0
 40
0.0
 40
0.0
 40
0.04
 40
0.08
 40
0.12
 40
0.16
 40
0.2
 40
0.24
 40
0.28
 40
0.32
 40
0.36
 40
0.4
 40
0.44
 40
0.48
 40
0.52
 40
0.56
 40
0.6
 40
0.64
 40
0.68
 40
0.72
 40
0.76
 40
0.8
 40
0.84
 40
0.88
 40
0.92
 40
0.96
 40
1.0
 40
1.0
 40
1.0
 40
1.0
 10
238.8213788704542
 20
155.9695097134449
 30
0.0
 10
238.2026088660542
 20
156.0053288827449
 30
0.0
 10
236.9686538366542
 20
156.113093164445
 30
0.0
 10
235.1271642917542
 20
156.383124641245
 30
0.0
 10
233.3041778034542
 20
156.760416598645
 30
0.0
 10
231.5052079527542
 20
157.243728909045
 30
0.0
 10
229.7364472837542
 20
157.8314635152449
 30
0.0
 10
228.0039640579542
 20
158.521640085745
 30
0.0
 10
226.3137923372542
 20
159.311899120445
 30
0.0
 10
224.6718276760542
 20
160.199513835545
 30
0.0
 10
223.0838573431542
 20
161.181359317345
 30
0.0
 10
221.5552156964542
 20
162.254131183645
 30
0.0
 10
220.0908880325542
 20
163.414388207245
 30
0.0
 10
218.6960681310542
 20
164.658116137245
 30
0.0
 10
217.3760610108542
 20
165.980559214445
 30
0.0
 10
216.1351410043542
 20
167.377342960345
 30
0.0
 10
214.9773300926542
 20
168.843968653245
 30
0.0
 10
213.9067397237542
 20
170.375281226945
 30
0.0
 10
212.9271597810542
 20
171.965841634245
 30
0.0
 10
212.0419717321542
 20
173.610081702545
 30
0.0
 10
211.2541118609542
 20
175.302473818845
 30
0.0
 10
210.5662484170542
 20
177.037268529465
 30
0.0
 10
209.9807697508542
 20
178.8083967221449
 30
0.0
 10
209.4996748287542
 20
180.609749999725
 30
0.0
 10
209.1246004792542
 20
182.434961131595
 30
0.0
 10
208.8567717651542
 20
184.278267346435
 30
0.0
 10
208.7503888081542
 20
185.513645974965
 30
0.0
 10
208.7152535740542
 20
186.133098542765
 30
0.0
  0
SPLINE
  5
81
330
1F
100
AcDbEntity
  8
1
  6
Continuous
 62
    18
 60
     1
370
    35
100
AcDbSpline
210
0.0
220
0.0
230
1.0
 70
     8
 71
     3
 72
    32
 73
    28
 74
     0
 42
0.000000001
 43
0.0000000001
 40
0.0
 40
0.0
 40
0.0
 40
0.0
 40
0.04
 40
0.08
 40
0.12
 40
0.16
 40
0.2
 40
0.24
 40
0.28
 40
0.32
 40
0.36
 40
0.4
 40
0.44
 40
0.48
 40
0.52
 40
0.56
 40
0.6
 40
0.64
 40
0.68
 40
0.72
 40
0.76
 40
0.8
 40
0.84
 40
0.88
 40
0.92
 40
0.96
 40
1.0
 40
1.0
 40
1.0
 40
1.0
 10
592.0122066644542
 20
186.133098542795
 30
0.0
 10
591.9770718303542
 20
185.5136555599749
 30
0.0
 10
591.8706912445542
 20
184.278291020225
 30
0.0
 10
591.6028630936543
 20
182.434980217145
 30
0.0
 10
591.2277902448542
 20
180.609770588555
 30
0.0
 10
590.7466966795542
 20
178.808417617155
 30
0.0
 10
590.1612201888543
 20
177.037291795185
 30
0.0
 10
589.4733592482543
 20
175.302499123545
 30
0.0
 10
588.6855000293542
 20
173.610104510945
 30
0.0
 10
587.8003115675542
 20
171.965860940545
 30
0.0
 10
586.8207363445542
 20
170.375305796645
 30
0.0
 10
585.7501550040542
 20
168.844002302245
 30
0.0
 10
584.5923440712543
 20
167.377372304745
 30
0.0
 10
583.3514202833542
 20
165.980581605845
 30
0.0
 10
582.0314181987542
 20
164.658140737045
 30
0.0
 10
580.6365914165542
 20
163.414404123645
 30
0.0
 10
579.1722640919543
 20
162.254145887445
 30
0.0
 10
577.6436282626543
 20
161.181376165045
 30
0.0
 10
576.0556623759542
 20
160.1995311461449
 30
0.0
 10
574.4137001197543
 20
159.311915346545
 30
0.0
 10
572.7235278523542
 20
158.521653682345
 30
0.0
 10
570.9910404935542
 20
157.831473497045
 30
0.0
 10
569.2222841808542
 20
157.243738743945
 30
0.0
 10
567.4233333407542
 20
156.7604290508449
 30
0.0
 10
565.6003510320543
 20
156.383134031945
 30
0.0
 10
563.7588375116543
 20
156.113096370845
 30
0.0
 10
562.5248631633542
 20
156.005329420945
 30
0.0
 10
561.9060813680542
 20
155.969509713345
 30
0.0
  0
SPLINE
  5
82
330
1F
100
AcDbEntity
  8
1
  6
Continuous
 62
    18
 60
     1
370
    35
100
AcDbSpline
210
0.0
220
0.0
230
1.0
 70
     8
 71
     3
 72
    32
 73
    28
 74
     0
 42
0.000000001
 43
0.0000000001
 40
0.0
 40
0.0
 40
0.0
 40
0.0
 40
0.04
 40
0.08
 40
0.12
 40
0.16
 40
0.2
 40
0.24
 40
0.28
 40
0.32
 40
0.36
 40
0.4
 40
0.44
 40
0.48
 40
0.52
 40
0.56
 40
0.6
 40
0.64
 40
0.68
 40
0.72
 40
0.76
 40
0.8
 40
0.84
 40
0.88
 40
0.92
 40
0.96
 40
1.0
 40
1.0
 40
1.0
 40
1.0
 10
238.5079946713542
 20
113.437829167545
 30
0.0
 10
237.0186819787542
 20
113.516715358445
 30
0.0
 10
234.0446778397542
 20
113.761842254045
 30
0.0
 10
229.6122458518542
 20
114.390502253345
 30
0.0
 10
225.2251348696542
 20
115.277724985645
 30
0.0
 10
220.8978557475542
 20
116.420435394445
 30
0.0
 10
216.6448618076542
 20
117.814809743345
 30
0.0
 10
212.4807570552542
 20
119.456085032245
 30
0.0
 10
208.4199405578542
 20
121.3386019867449
 30
0.0
 10
204.4765101057542
 20
123.455823723245
 30
0.0
 10
200.6642945485542
 20
125.800264838245
 30
0.0
 10
196.9960386150542
 20
128.3640131344449
 30
0.0
 10
193.4836514708542
 20
131.138833491545
 30
0.0
 10
190.1395456588542
 20
134.115124700045
 30
0.0
 10
186.9764016713542
 20
137.281513086045
 30
0.0
 10
184.0044321341542
 20
140.627540283345
 30
0.0
 10
181.2332504663542
 20
144.1424552914449
 30
0.0
 10
178.6726882116542
 20
147.813938064345
 30
0.0
 10
176.3318102355542
 20
151.628989891345
 30
0.0
 10
174.2187074504542
 20
155.574303487645
 30
0.0
 10
172.3404100022542
 20
159.636672780045
 30
0.0
 10
170.7033114032542
 20
163.802352326145
 30
0.0
 10
169.3131364219542
 20
168.056860208245
 30
0.0
 10
168.1746885439542
 20
172.385503423445
 30
0.0
 10
167.2918817665542
 20
176.773397100265
 30
0.0
 10
166.6677437336542
 20
181.205493579455
 30
0.0
 10
166.4255343726542
 20
184.179553396055
 30
0.0
 10
166.3481071582542
 20
185.668875085185
 30
0.0
  0
SPLINE
  5
83
330
1F
100
AcDbEntity
  8
1
  6
Continuous
 62
    18
 60
     1
370
    35
100
AcDbSpline
210
0.0
220
0.0
230
1.0
 70
     8
 71
     3
 72
    84
 73
    80
 74
     0
 42
0.000000001
 43
0.0000000001
 40
0.0
 40
0.0
 40
0.0
 40
0.0
 40
0.0312499999999991
 40
0.0312499999999991
 40
0.0624999999999981
 40
0.0937499999999972
 40
0.0937499999999972
 40
0.1015624999999967
 40
0.1015624999999967
 40
0.1093749999999962
 40
0.1093749999999962
 40
0.1249999999999952
 40
0.1249999999999952
 40
0.1562499999999917
 40
0.1874999999999881
 40
0.1874999999999881
 40
0.2031249999999876
 40
0.2109374999999883
 40
0.2109374999999883
 40
0.2187499999999889
 40
0.2187499999999889
 40
0.2499999999999914
 40
0.2812499999999938
 40
0.3124999999999963
 40
0.3124999999999963
 40
0.3203124999999972
 40
0.3203124999999972
 40
0.3281249999999982
 40
0.3281249999999982
 40
0.3437500000000001
 40
0.3437500000000001
 40
0.3750000000000027
 40
0.4062500000000053
 40
0.4062500000000053
 40
0.4218750000000067
 40
0.4218750000000067
 40
0.4375000000000079
 40
0.4375000000000079
 40
0.4687500000000099
 40
0.5000000000000119
 40
0.5312500000000139
 40
0.5312500000000139
 40
0.539062500000015
 40
0.539062500000015
 40
0.546875000000016
 40
0.5625000000000189
 40
0.5625000000000189
 40
0.593750000000024
 40
0.625000000000029
 40
0.625000000000029
 40
0.6406250000000316
 40
0.6406250000000316
 40
0.648437500000033
 40
0.648437500000033
 40
0.6562500000000343
 40
0.6875000000000376
 40
0.7187500000000409
 40
0.7500000000000442
 40
0.7500000000000442
 40
0.7578125000000436
 40
0.7578125000000436
 40
0.7656250000000431
 40
0.7812500000000414
 40
0.7812500000000414
 40
0.8125000000000353
 40
0.8437500000000293
 40
0.8437500000000293
 40
0.8593750000000254
 40
0.8593750000000254
 40
0.8750000000000214
 40
0.8750000000000214
 40
0.9062500000000155
 40
0.9375000000000097
 40
0.9375000000000097
 40
0.9531250000000067
 40
0.9531250000000067
 40
0.9687500000000036
 40
0.9687500000000036
 40
1.0
 40
1.0
 40
1.0
 40
1.0
 10
423.3637301192542
 20
444.9947475377018
 30
0.0
 10
423.3637301192542
 20
444.9928522501439
 30
0.0
 10
423.3588345183898
 20
444.9910030750366
 30
0.0
 10
423.3395927510953
 20
444.9873938105976
 30
0.0
 10
423.3108981216791
 20
444.9838736543091
 30
0.0
 10
423.2634167710329
 20
444.9805309960439
 30
0.0
 10
423.2277359330185
 20
444.9784987805111
 30
0.0
 10
423.2202988225242
 20
444.9780951915997
 30
0.0
 10
423.2048164998784
 20
444.977293787628
 30
0.0
 10
423.1967601090031
 20
444.9768954532672
 30
0.0
 10
423.1717547266877
 20
444.9757132906058
 30
0.0
 10
423.1539995978821
 20
444.9749434684924
 30
0.0
 10
423.0975456098979
 20
444.9726878381418
 30
0.0
 10
423.0137859937086
 20
444.9698236313564
 30
0.0
 10
422.9133671005884
 20
444.9672417660877
 30
0.0
 10
422.8317432243938
 20
444.9654127702551
 30
0.0
 10
422.7893510713104
 20
444.9645251713338
 30
0.0
 10
422.7445505305525
 20
444.9636786639533
 30
0.0
 10
422.7141421273585
 20
444.9631235736322
 30
0.0
 10
422.6986502441717
 20
444.9628503797067
 30
0.0
 10
422.6202402150809
 20
444.96151479651
 30
0.0
 10
422.4882177923602
 20
444.9595621349958
 30
0.0
 10
422.271095873434
 20
444.9571709028664
 30
0.0
 10
422.1136558284837
 20
444.9559357042208
 30
0.0
 10
422.0111845455995
 20
444.9552792758656
 30
0.0
 10
421.9904862395255
 20
444.9551537825537
 30
0.0
 10
421.9486769216693
 20
444.9549145218259
 30
0.0
 10
421.9275821166725
 20
444.9548008694491
 30
0.0
 10
421.8640282872063
 20
444.9544793607702
 30
0.0
 10
421.8211901447352
 20
444.9542902970907
 30
0.0
 10
421.6912949179516
 20
444.9537976468654
 30
0.0
 10
421.5144256879477
 20
444.9533392090241
 30
0.0
 10
421.3303165429626
 20
444.9532726980911
 30
0.0
 10
421.1894827912021
 20
444.9533721231521
 30
0.0
 10
421.1420787459228
 20
444.9534301928416
 30
0.0
 10
421.0463353020518
 20
444.9535971261153
 30
0.0
 10
420.9978929489362
 20
444.953706377273
 30
0.0
 10
420.8526756147667
 20
444.9541074272347
 30
0.0
 10
420.6585363813923
 20
444.9548378388273
 30
0.0
 10
420.3658217059345
 20
444.9565049714872
 30
0.0
 10
420.1696738844258
 20
444.9579978535223
 30
0.0
 10
420.0467580068836
 20
444.9590536812404
 30
0.0
 10
420.0221257885347
 20
444.9592713013457
 30
0.0
 10
419.9730015174554
 20
444.9597174111636
 30
0.0
 10
419.8995766956284
 20
444.9604023608059
 30
0.0
 10
419.8269273146905
 20
444.9611340905013
 30
0.0
 10
419.6826452310528
 20
444.9626588384416
 30
0.0
 10
419.4929755088677
 20
444.9648549920315
 30
0.0
 10
419.3086556528569
 20
444.967373010942
 30
0.0
 10
419.1724565771355
 20
444.9693839699894
 30
0.0
 10
419.1273976260303
 20
444.9700747325638
 30
0.0
 10
419.0603304236273
 20
444.9711420971511
 30
0.0
 10
419.0380398092463
 20
444.971503465965
 30
0.0
 10
418.9938691599378
 20
444.9722328068933
 30
0.0
 10
418.8843452963433
 20
444.974074629555
 30
0.0
 10
418.6952077270978
 20
444.9775535011514
 30
0.0
 10
418.4596925529911
 20
444.9825307695841
 30
0.0
 10
418.313843561119
 20
444.9860744538267
 30
0.0
 10
418.2262949370712
 20
444.9883616829426
 30
0.0
 10
418.2089833057378
 20
444.9888223318045
 30
0.0
 10
418.1749101760568
 20
444.9897458232836
 30
0.0
 10
418.1245581175245
 20
444.9911361124072
 30
0.0
 10
418.0764541902561
 20
444.9925413414858
 30
0.0
 10
417.9831994146252
 20
444.9953712934926
 30
0.0
 10
417.8667209432049
 20
444.9991964530124
 30
0.0
 10
417.7658384072277
 20
445.0031232261375
 30
0.0
 10
417.6961477907674
 20
445.0061067397142
 30
0.0
 10
417.673912114721
 20
445.0071077787518
 30
0.0
 10
417.6314880161603
 20
445.0091224268743
 30
0.0
 10
417.6114731710246
 20
445.0101277800391
 30
0.0
 10
417.5549441289057
 20
445.0131379528898
 30
0.0
 10
417.4889297246395
 20
445.0171358396046
 30
0.0
 10
417.4412499639269
 20
445.0211021267294
 30
0.0
 10
417.4124221599397
 20
445.0240646456126
 30
0.0
 10
417.403970269122
 20
445.0250501165112
 30
0.0
 10
417.38941614932
 20
445.0270168958448
 30
0.0
 10
417.3833084151711
 20
445.0279993378317
 30
0.0
 10
417.3686265008355
 20
445.030932617363
 30
0.0
 10
417.3637301192542
 20
445.0328580482347
 30
0.0
 10
417.3637301192542
 20
445.0347533248699
 30
0.0
  0
SPLINE
  5
84
330
1F
100
AcDbEntity
  8
1
  6
Continuous
 62
    18
 60
     1
370
    35
100
AcDbSpline
210
0.0
220
0.0
230
1.0
 70
    24
 71
     3
 72
     8
 73
     4
 74
     0
 42
0.000000001
 43
0.0000000001
 40
0.0
 40
0.0
 40
0.0
 40
0.0
 40
1.0
 40
1.0
 40
1.0
 40
1.0
 10
417.3637301192542
 20
445.0347533248701
 30
0.0
 10
417.3637301192542
 20
445.1367674480205
 30
0.0
 10
417.3637301192542
 20
445.2174452846394
 30
0.0
 10
417.3637301192542
 20
445.276786834039
 30
0.0
  0
SPLINE
  5
85
330
1F
100
AcDbEntity
  8
1
  6
Continuous
 62
    18
 60
     1
370
    35
100
AcDbSpline
210
0.0
220
0.0
230
1.0
 70
    24
 71
     3
 72
     8
 73
     4
 74
     0
 42
0.000000001
 43
0.0000000001
 40
0.0
 40
0.0
 40
0.0
 40
0.0
 40
1.0
 40
1.0
 40
1.0
 40
1.0
 10
423.3637301192542
 20
445.2367842746791
 30
0.0
 10
423.3637301192542
 20
445.1774419338566
 30
0.0
 10
423.3637301192542
 20
445.0967630212783
 30
0.0
 10
423.3637301192542
 20
444.9947475377016
 30
0.0
  0
SPLINE
  5
86
330
1F
100
AcDbEntity
  8
1
  6
Continuous
 62
    18
 60
     1
370
    35
100
AcDbSpline
210
0.0
220
0.0
230
1.0
 70
     8
 71
     3
 72
    84
 73
    80
 74
     0
 42
0.000000001
 43
0.0000000001
 40
0.0
 40
0.0
 40
0.0
 40
0.0
 40
0.0312499999999935
 40
0.0312499999999935
 40
0.062499999999987
 40
0.0937499999999805
 40
0.0937499999999805
 40
0.1015624999999794
 40
0.1015624999999794
 40
0.1093749999999783
 40
0.1093749999999783
 40
0.1249999999999759
 40
0.1249999999999759
 40
0.1562499999999712
 40
0.1874999999999666
 40
0.1874999999999666
 40
0.2031249999999645
 40
0.2109374999999636
 40
0.2109374999999636
 40
0.2187499999999627
 40
0.2187499999999627
 40
0.2499999999999633
 40
0.2812499999999638
 40
0.3124999999999643
 40
0.3124999999999643
 40
0.3203124999999638
 40
0.3203124999999638
 40
0.3281249999999632
 40
0.3281249999999632
 40
0.3437499999999624
 40
0.3437499999999624
 40
0.3749999999999613
 40
0.4062499999999602
 40
0.4062499999999602
 40
0.4218749999999593
 40
0.4218749999999593
 40
0.4374999999999584
 40
0.4374999999999584
 40
0.4687499999999571
 40
0.4999999999999558
 40
0.5312499999999545
 40
0.5312499999999545
 40
0.5390624999999541
 40
0.5390624999999541
 40
0.5468749999999537
 40
0.562499999999953
 40
0.562499999999953
 40
0.5937499999999512
 40
0.6249999999999493
 40
0.6249999999999493
 40
0.6406249999999485
 40
0.6406249999999485
 40
0.6484374999999482
 40
0.6484374999999482
 40
0.6562499999999477
 40
0.687499999999947
 40
0.7187499999999465
 40
0.7499999999999458
 40
0.7499999999999458
 40
0.7578124999999459
 40
0.7578124999999459
 40
0.7656249999999462
 40
0.7812499999999479
 40
0.7812499999999479
 40
0.8124999999999534
 40
0.8437499999999588
 40
0.8437499999999588
 40
0.8593749999999625
 40
0.8593749999999625
 40
0.874999999999966
 40
0.874999999999966
 40
0.9062499999999736
 40
0.937499999999981
 40
0.937499999999981
 40
0.9531249999999858
 40
0.9531249999999858
 40
0.9687499999999906
 40
0.9687499999999906
 40
1.0
 40
1.0
 40
1.0
 40
1.0
 10
413.3637301192542
 20
445.0547560183707
 30
0.0
 10
413.3637301192542
 20
445.0528607843876
 30
0.0
 10
413.3588345999032
 20
445.0509953467055
 30
0.0
 10
413.3395933296287
 20
445.047322058843
 30
0.0
 10
413.3108995304989
 20
445.0437063732078
 30
0.0
 10
413.2634200248695
 20
445.040205567876
 30
0.0
 10
413.2277407866338
 20
445.0380544944148
 30
0.0
 10
413.2203040185447
 20
445.0376261308056
 30
0.0
 10
413.2048224293962
 20
445.0367731504739
 30
0.0
 10
413.1967664479294
 20
445.0363479780399
 30
0.0
 10
413.1717621168845
 20
445.0350825013206
 30
0.0
 10
413.1540077566795
 20
445.0342535195748
 30
0.0
 10
413.0975562957132
 20
445.0318097793237
 30
0.0
 10
413.0138006377672
 20
445.0286664610223
 30
0.0
 10
412.9133870984287
 20
445.025749937546
 30
0.0
 10
412.8317678681555
 20
445.0236489082266
 30
0.0
 10
412.7893781961408
 20
445.0226200233038
 30
0.0
 10
412.7445803991507
 20
445.0216241987871
 30
0.0
 10
412.7141738868325
 20
445.0209677583696
 30
0.0
 10
412.6986828694052
 20
445.0206429276703
 30
0.0
 10
412.6202766315193
 20
445.0190459774713
 30
0.0
 10
412.4882606987355
 20
445.016653227026
 30
0.0
 10
412.2711495488549
 20
445.0135381995265
 30
0.0
 10
412.1137183435121
 20
445.0117781138652
 30
0.0
 10
412.0112527468185
 20
445.0107800548126
 30
0.0
 10
411.9905555974813
 20
445.0105855546037
 30
0.0
 10
411.9487486339636
 20
445.0102069031625
 30
0.0
 10
411.9276543484186
 20
445.010022915046
 30
0.0
 10
411.8641024736071
 20
445.0094895039998
 30
0.0
 10
411.8212656481047
 20
445.0091576077168
 30
0.0
 10
411.6913744188811
 20
445.0082318529438
 30
0.0
 10
411.5145106431441
 20
445.0071836795546
 30
0.0
 10
411.3304072605176
 20
445.0065032755677
 30
0.0
 10
411.1895779749394
 20
445.006133097253
 30
0.0
 10
411.1421754425357
 20
445.0060330991732
 30
0.0
 10
411.0464350787896
 20
445.0058807752063
 30
0.0
 10
410.9979934046186
 20
445.0058284921743
 30
0.0
 10
410.8527755101543
 20
445.0057453047615
 30
0.0
 10
410.6586356744201
 20
445.0058283475819
 30
0.0
 10
410.3659205380437
 20
445.0065194041977
 30
0.0
 10
410.1697727184853
 20
445.0073582125964
 30
0.0
 10
410.0468569466161
 20
445.008004162018
 30
0.0
 10
410.0222249934319
 20
445.0081396412405
 30
0.0
 10
409.9730986936522
 20
445.0084219515853
 30
0.0
 10
409.8996708952058
 20
445.0088620749583
 30
0.0
 10
409.8270187294547
 20
445.0093515658092
 30
0.0
 10
409.6827313150935
 20
445.0103952276504
 30
0.0
 10
409.4930551206432
 20
445.0119589614576
 30
0.0
 10
409.3087299275787
 20
445.0138623998978
 30
0.0
 10
409.1725272383386
 20
445.0154192260055
 30
0.0
 10
409.1274671477337
 20
445.0159597466852
 30
0.0
 10
409.0603983299641
 20
445.0168034854133
 30
0.0
 10
409.0381066950678
 20
445.0170905355167
 30
0.0
 10
408.9939332399255
 20
445.0176726193354
 30
0.0
 10
408.8844025775659
 20
445.0191493094309
 30
0.0
 10
408.6952546084573
 20
445.0219976341514
 30
0.0
 10
408.45972833996
 20
445.0261897251926
 30
0.0
 10
408.3138746914818
 20
445.0292471732494
 30
0.0
 10
408.2263233336494
 20
445.0312425164944
 30
0.0
 10
408.2090104420324
 20
445.0316454654107
 30
0.0
 10
408.1749352376855
 20
445.032455382741
 30
0.0
 10
408.1245802117647
 20
445.0336778355065
 30
0.0
 10
408.0764737242614
 20
445.0349227200199
 30
0.0
 10
407.9832143083773
 20
445.0374418233169
 30
0.0
 10
407.8667309262247
 20
445.0408787135117
 30
0.0
 10
407.7658454751349
 20
445.0444691812661
 30
0.0
 10
407.6961532361861
 20
445.04722035938
 30
0.0
 10
407.6739175613931
 20
445.0481472467749
 30
0.0
 10
407.6314918139998
 20
445.050020491724
 30
0.0
 10
407.6114762799567
 20
445.050959132088
 30
0.0
 10
407.5549455062807
 20
445.0537808791375
 30
0.0
 10
407.4889299591716
 20
445.0575587095748
 30
0.0
 10
407.441249635625
 20
445.0613660224184
 30
0.0
 10
407.4124218201862
 20
445.0642324058889
 30
0.0
 10
407.4039699595292
 20
445.0651896875224
 30
0.0
 10
407.3894159303383
 20
445.0671079162824
 30
0.0
 10
407.3833082782115
 20
445.0680699738842
 30
0.0
 10
407.3686264214915
 20
445.0709542684423
 30
0.0
 10
407.3637301192542
 20
445.0728633425074
 30
0.0
 10
407.3637301192542
 20
445.0747585784849
 30
0.0
  0
SPLINE
  5
87
330
1F
100
AcDbEntity
  8
1
  6
Continuous
 62
    18
 60
     1
370
    35
100
AcDbSpline
210
0.0
220
0.0
230
1.0
 70
    24
 71
     3
 72
     8
 73
     4
 74
     0
 42
0.000000001
 43
0.0000000001
 40
0.0
 40
0.0
 40
0.0
 40
0.0
 40
1.0
 40
1.0
 40
1.0
 40
1.0
 10
407.3637301192542
 20
445.0747585784848
 30
0.0
 10
407.3637301192542
 20
445.1767713412632
 30
0.0
 10
407.3637301192542
 20
445.2574481019662
 30
0.0
 10
407.3637301192542
 20
445.3167888599744
 30
0.0
  0
SPLINE
  5
88
330
1F
100
AcDbEntity
  8
1
  6
Continuous
 62
    18
 60
     1
370
    35
100
AcDbSpline
210
0.0
220
0.0
230
1.0
 70
    24
 71
     3
 72
     8
 73
     4
 74
     0
 42
0.000000001
 43
0.0000000001
 40
0.0
 40
0.0
 40
0.0
 40
0.0
 40
1.0
 40
1.0
 40
1.0
 40
1.0
 10
413.3637301192542
 20
445.2967879136838
 30
0.0
 10
413.3637301192542
 20
445.2374467599839
 30
0.0
 10
413.3637301192542
 20
445.1567694613281
 30
0.0
 10
413.3637301192542
 20
445.0547560183704
 30
0.0
  0
SPLINE
  5
89
330
1F
100
AcDbEntity
  8
1
  6
Continuous
 62
    18
 60
     1
370
    35
100
AcDbSpline
210
0.0
220
0.0
230
1.0
 70
     8
 71
     3
 72
    84
 73
    80
 74
     0
 42
0.000000001
 43
0.0000000001
 40
0.0
 40
0.0
 40
0.0
 40
0.0
 40
0.0312500000000028
 40
0.0312500000000028
 40
0.0625000000000056
 40
0.0937500000000084
 40
0.0937500000000084
 40
0.1015625000000094
 40
0.1015625000000094
 40
0.1093750000000104
 40
0.1093750000000104
 40
0.1250000000000123
 40
0.1250000000000123
 40
0.156250000000014
 40
0.1875000000000158
 40
0.1875000000000158
 40
0.2031250000000166
 40
0.2109375000000169
 40
0.2109375000000169
 40
0.2187500000000172
 40
0.2187500000000172
 40
0.2500000000000192
 40
0.2812500000000209
 40
0.3125000000000227
 40
0.3125000000000227
 40
0.3203125000000229
 40
0.3203125000000229
 40
0.3281250000000231
 40
0.3281250000000231
 40
0.3437500000000235
 40
0.3437500000000235
 40
0.3750000000000229
 40
0.4062500000000224
 40
0.4062500000000224
 40
0.4218750000000217
 40
0.4218750000000217
 40
0.437500000000021
 40
0.437500000000021
 40
0.4687500000000201
 40
0.5000000000000192
 40
0.5312500000000183
 40
0.5312500000000183
 40
0.5390625000000183
 40
0.5390625000000183
 40
0.5468750000000184
 40
0.562500000000018
 40
0.562500000000018
 40
0.5937500000000167
 40
0.6250000000000153
 40
0.6250000000000153
 40
0.6406250000000144
 40
0.6406250000000144
 40
0.648437500000014
 40
0.648437500000014
 40
0.6562500000000135
 40
0.6875000000000119
 40
0.7187500000000102
 40
0.7500000000000085
 40
0.7500000000000085
 40
0.757812500000008
 40
0.757812500000008
 40
0.7656250000000073
 40
0.7812500000000066
 40
0.7812500000000066
 40
0.8125000000000053
 40
0.8437500000000041
 40
0.8437500000000041
 40
0.8593750000000033
 40
0.8593750000000033
 40
0.8750000000000027
 40
0.8750000000000027
 40
0.9062500000000009
 40
0.9374999999999991
 40
0.9374999999999991
 40
0.9531249999999993
 40
0.9531249999999993
 40
0.9687499999999997
 40
0.9687499999999997
 40
1.0
 40
1.0
 40
1.0
 40
1.0
 10
393.3637301192542
 20
445.0747585784837
 30
0.0
 10
393.3637301192542
 20
445.0728633559107
 30
0.0
 10
393.3588345953048
 20
445.0709653013769
 30
0.0
 10
393.3395936822735
 20
445.067163794593
 30
0.0
 10
393.3109006050909
 20
445.0633568895082
 30
0.0
 10
393.2634232757592
 20
445.0595396588292
 30
0.0
 10
393.2277461096043
 20
445.0571507993851
 30
0.0
 10
393.2203097917187
 20
445.0566728729527
 30
0.0
 10
393.2048291819153
 20
445.0557167143163
 30
0.0
 10
393.196773755078
 20
445.0552378533445
 30
0.0
 10
393.171770866372
 20
445.0538057172263
 30
0.0
 10
393.1540175863518
 20
445.0528583978778
 30
0.0
 10
393.0975697632993
 20
445.0500383906168
 30
0.0
 10
393.0138200141175
 20
445.0463368071108
 30
0.0
 10
392.913414978268
 20
445.0427509702895
 30
0.0
 10
392.8318033234219
 20
445.0401058953649
 30
0.0
 10
392.7894177394175
 20
445.0387944539023
 30
0.0
 10
392.7446245332329
 20
445.0375000182771
 30
0.0
 10
392.7142211999236
 20
445.0366408948915
 30
0.0
 10
392.6987316865977
 20
445.0362128000944
 30
0.0
 10
392.6203322836938
 20
445.0340931637377
 30
0.0
 10
392.4883276768102
 20
445.0308203362362
 30
0.0
 10
392.2712378542271
 20
445.0262578741043
 30
0.0
 10
392.1138227633143
 20
445.0234481969121
 30
0.0
 10
392.0113680588761
 20
445.0217669884987
 30
0.0
 10
391.9906731292181
 20
445.0214344975128
 30
0.0
 10
391.9488706912948
 20
445.0207771119395
 30
0.0
 10
391.9277777067236
 20
445.0204524684836
 30
0.0
 10
391.8642302990288
 20
445.0194953053253
 30
0.0
 10
391.8213964844927
 20
445.0188777792865
 30
0.0
 10
391.6915143931124
 20
445.0170859231331
 30
0.0
 10
391.5146630802707
 20
445.0148584258803
 30
0.0
 10
391.3305728051988
 20
445.0129503926531
 30
0.0
 10
391.1897536394512
 20
445.0116411298594
 30
0.0
 10
391.1423545286926
 20
445.0112250377708
 30
0.0
 10
391.0466211155111
 20
445.0104342841222
 30
0.0
 10
390.9981815310568
 20
445.0100589609812
 30
0.0
 10
390.8529654330694
 20
445.0090073358745
 30
0.0
 10
390.6588280529103
 20
445.0077956895223
 30
0.0
 10
390.3661168030297
 20
445.0065346689128
 30
0.0
 10
390.1699717299128
 20
445.0060653846599
 30
0.0
 10
390.0470577320705
 20
445.0058916141044
 30
0.0
 10
390.0224266085407
 20
445.005862823822
 30
0.0
 10
389.9732972579422
 20
445.0058175088183
 30
0.0
 10
389.8998649695707
 20
445.0057679410569
 30
0.0
 10
389.8272085618581
 20
445.0057729186815
 30
0.0
 10
389.6829129693195
 20
445.005854341417
 30
0.0
 10
389.4932266836359
 20
445.0061531575587
 30
0.0
 10
389.3088928199928
 20
445.006827380477
 30
0.0
 10
389.1726841017959
 20
445.0074759092928
 30
0.0
 10
389.1276220806907
 20
445.0077159373018
 30
0.0
 10
389.0605504795806
 20
445.0081124134882
 30
0.0
 10
389.0382570123789
 20
445.0082508125861
 30
0.0
 10
388.9940783121484
 20
445.0085383399315
 30
0.0
 10
388.8845348934042
 20
445.0092846639022
 30
0.0
 10
388.6953669934483
 20
445.0108717534554
 30
0.0
 10
388.4598200722884
 20
445.0134934127327
 30
0.0
 10
388.3139548514419
 20
445.0155783313751
 30
0.0
 10
388.2263973991642
 20
445.0169899027655
 30
0.0
 10
388.2090818256411
 20
445.0172774381617
 30
0.0
 10
388.1750021202304
 20
445.0178601895493
 30
0.0
 10
388.1246406165913
 20
445.0187469465884
 30
0.0
 10
388.0765284236908
 20
445.0196711288459
 30
0.0
 10
387.9832585114756
 20
445.0215685205295
 30
0.0
 10
387.8667635644987
 20
445.0242288852062
 30
0.0
 10
387.7658703939038
 20
445.0271468099405
 30
0.0
 10
387.6961734767839
 20
445.0294333855034
 30
0.0
 10
387.6739374170668
 20
445.0302120008264
 30
0.0
 10
387.6315072360264
 20
445.0318024846655
 30
0.0
 10
387.6114897821884
 20
445.0326077252628
 30
0.0
 10
387.5549539978281
 20
445.0350527064348
 30
0.0
 10
387.4889334802549
 20
445.0383905569684
 30
0.0
 10
387.4412514439775
 20
445.0418800916668
 30
0.0
 10
387.4124227259286
 20
445.0445543368434
 30
0.0
 10
387.4039706629384
 20
445.0454552853466
 30
0.0
 10
387.3894163554404
 20
445.0472765054981
 30
0.0
 10
387.3833086743758
 20
445.0481978410972
 30
0.0
 10
387.3686264304625
 20
445.0509843102835
 30
0.0
 10
387.3637301192542
 20
445.0528607679868
 30
0.0
 10
387.3637301192542
 20
445.0547560183687
 30
0.0
  0
SPLINE
  5
8A
330
1F
100
AcDbEntity
  8
1
  6
Continuous
 62
    18
 60
     1
370
    35
100
AcDbSpline
210
0.0
220
0.0
230
1.0
 70
    24
 71
     3
 72
     8
 73
     4
 74
     0
 42
0.000000001
 43
0.0000000001
 40
0.0
 40
0.0
 40
0.0
 40
0.0
 40
1.0
 40
1.0
 40
1.0
 40
1.0
 10
387.3637301192542
 20
445.0547560183682
 30
0.0
 10
387.3637301192542
 20
445.1567694613258
 30
0.0
 10
387.3637301192542
 20
445.237446759982
 30
0.0
 10
387.3637301192542
 20
445.296787913682
 30
0.0
  0
SPLINE
  5
8B
330
1F
100
AcDbEntity
  8
1
  6
Continuous
 62
    18
 60
     1
370
    35
100
AcDbSpline
210
0.0
220
0.0
230
1.0
 70
     8
 71
     3
 72
    84
 73
    80
 74
     0
 42
0.000000001
 43
0.0000000001
 40
0.0
 40
0.0
 40
0.0
 40
0.0
 40
0.0312500000000119
 40
0.0312500000000119
 40
0.0625000000000238
 40
0.0937500000000356
 40
0.0937500000000356
 40
0.1015625000000398
 40
0.1015625000000398
 40
0.1093750000000439
 40
0.1093750000000439
 40
0.1250000000000479
 40
0.1250000000000479
 40
0.1562500000000599
 40
0.187500000000072
 40
0.187500000000072
 40
0.2031250000000782
 40
0.2109375000000795
 40
0.2109375000000795
 40
0.2187500000000809
 40
0.2187500000000809
 40
0.2500000000000791
 40
0.2812500000000774
 40
0.3125000000000757
 40
0.3125000000000757
 40
0.3203125000000752
 40
0.3203125000000752
 40
0.3281250000000748
 40
0.3281250000000748
 40
0.3437500000000717
 40
0.3437500000000717
 40
0.3750000000000655
 40
0.4062500000000593
 40
0.4062500000000593
 40
0.4218750000000571
 40
0.4218750000000571
 40
0.437500000000055
 40
0.437500000000055
 40
0.4687500000000501
 40
0.5000000000000452
 40
0.5312500000000403
 40
0.5312500000000403
 40
0.5390625000000389
 40
0.5390625000000389
 40
0.5468750000000373
 40
0.5625000000000339
 40
0.5625000000000339
 40
0.5937500000000263
 40
0.6250000000000188
 40
0.6250000000000188
 40
0.6406250000000147
 40
0.6406250000000147
 40
0.6484375000000139
 40
0.6484375000000139
 40
0.6562500000000131
 40
0.6875000000000123
 40
0.7187500000000115
 40
0.7500000000000108
 40
0.7500000000000108
 40
0.7578125000000117
 40
0.7578125000000117
 40
0.7656250000000125
 40
0.7812500000000113
 40
0.7812500000000113
 40
0.8125000000000085
 40
0.8437500000000058
 40
0.8437500000000058
 40
0.8593750000000063
 40
0.8593750000000063
 40
0.875000000000007
 40
0.875000000000007
 40
0.9062500000000041
 40
0.9375000000000012
 40
0.9375000000000012
 40
0.9531249999999998
 40
0.9531249999999998
 40
0.9687499999999984
 40
0.9687499999999984
 40
1.0
 40
1.0
 40
1.0
 40
1.0
 10
387.3637301192542
 20
445.2967879136823
 30
0.0
 10
387.3637301192542
 20
445.2978903023435
 30
0.0
 10
387.3686262194153
 20
445.298997282852
 30
0.0
 10
387.3878694410734
 20
445.3012201765756
 30
0.0
 10
387.4165659835481
 20
445.3034520059065
 30
0.0
 10
387.4640492207184
 20
445.3057019956705
 30
0.0
 10
387.4997309265168
 20
445.3071142537984
 30
0.0
 10
387.5071681948844
 20
445.3073970071717
 30
0.0
 10
387.5226507936803
 20
445.3079631301368
 30
0.0
 10
387.530707307323
 20
445.3082468741943
 30
0.0
 10
387.5557129153862
 20
445.3090961237816
 30
0.0
 10
387.5734681017497
 20
445.3096587771123
 30
0.0
 10
387.6299219157256
 20
445.3113365016465
 30
0.0
 10
387.7136803755623
 20
445.3135462184003
 30
0.0
 10
387.8140955377148
 20
445.3157035278458
 30
0.0
 10
387.89571533476
 20
445.317302127214
 30
0.0
 10
387.9381051271615
 20
445.3180965734056
 30
0.0
 10
387.9829027550264
 20
445.3188837176123
 30
0.0
 10
388.0133090846623
 20
445.3194068500889
 30
0.0
 10
388.0287998137259
 20
445.3196678712038
 30
0.0
 10
388.1072036613652
 20
445.3209620627891
 30
0.0
 10
388.2392148098114
 20
445.3229720420746
 30
0.0
 10
388.456315716671
 20
445.3258125652304
 30
0.0
 10
388.6137378327916
 20
445.3275916533181
 30
0.0
 10
388.7161969358835
 20
445.3286672513763
 30
0.0
 10
388.736892745677
 20
445.3288805501155
 30
0.0
 10
388.778696945001
 20
445.3293034751734
 30
0.0
 10
388.7997893055515
 20
445.3295129269235
 30
0.0
 10
388.8633356988419
 20
445.3301323393341
 30
0.0
 10
388.9061688228746
 20
445.3305344837592
 30
0.0
 10
389.036048813589
 20
445.3317092376039
 30
0.0
 10
389.2128972487519
 20
445.3331912540662
 30
0.0
 10
389.3969846117722
 20
445.3345082551011
 30
0.0
 10
389.5378016205181
 20
445.3354336207715
 30
0.0
 10
389.585200016756
 20
445.3357316592708
 30
0.0
 10
389.6809320165705
 20
445.3363065769219
 30
0.0
 10
389.7293694058847
 20
445.3365839662492
 30
0.0
 10
389.8745748054226
 20
445.3373755550808
 30
0.0
 10
390.0686987951686
 20
445.3383282740707
 30
0.0
 10
390.3613925631338
 20
445.3394582271965
 30
0.0
 10
390.5575277519948
 20
445.3400120884996
 30
0.0
 10
390.6804361528521
 20
445.3402939939103
 30
0.0
 10
390.705066490515
 20
445.3403472181401
 30
0.0
 10
390.7541913036661
 20
445.340446808403
 30
0.0
 10
390.8276169852366
 20
445.3405858174503
 30
0.0
 10
390.9002673661438
 20
445.3406940543323
 30
0.0
 10
391.0445516385167
 20
445.3408701384791
 30
0.0
 10
391.234224781761
 20
445.3409974072177
 30
0.0
 10
391.4185491019138
 20
445.3409115034202
 30
0.0
 10
391.5547519428975
 20
445.3407654204678
 30
0.0
 10
391.59981221875
 20
445.3407030919005
 30
0.0
 10
391.6668815174515
 20
445.340588692823
 30
0.0
 10
391.6891739569581
 20
445.3405470192002
 30
0.0
 10
391.7333501450763
 20
445.3404571068943
 30
0.0
 10
391.8428876489871
 20
445.3402157153655
 30
0.0
 10
392.0320480245992
 20
445.3396337151487
 30
0.0
 10
392.267590564897
 20
445.3385487782466
 30
0.0
 10
392.4134561184186
 20
445.3376172908843
 30
0.0
 10
392.5010146592411
 20
445.3369673785716
 30
0.0
 10
392.5183303774489
 20
445.3368340990081
 30
0.0
 10
392.552410491176
 20
445.3365622175769
 30
0.0
 10
392.6027727179149
 20
445.3361459024293
 30
0.0
 10
392.6508859400969
 20
445.3357043359329
 30
0.0
 10
392.744158257179
 20
445.3347879038038
 30
0.0
 10
392.8606573309706
 20
445.3334773472171
 30
0.0
 10
392.9615558892658
 20
445.3319896023463
 30
0.0
 10
393.0312571104812
 20
445.3308054851285
 30
0.0
 10
393.0534945073985
 20
445.3303993572289
 30
0.0
 10
393.0959279812228
 20
445.3295637931913
 30
0.0
 10
393.1159470377206
 20
445.3291378451753
 30
0.0
 10
393.1724874731431
 20
445.3278359240941
 30
0.0
 10
393.2385137742166
 20
445.3260359325332
 30
0.0
 10
393.2862004700963
 20
445.3241094812581
 30
0.0
 10
393.3150321293567
 20
445.3226165847058
 30
0.0
 10
393.3234850801969
 20
445.3221109296254
 30
0.0
 10
393.3380409512209
 20
445.3210833019639
 30
0.0
 10
393.3441493041055
 20
445.3205607229459
 30
0.0
 10
393.3588332319615
 20
445.3189719936694
 30
0.0
 10
393.3637301192543
 20
445.317891250107
 30
0.0
 10
393.3637301192543
 20
445.3167888599733
 30
0.0
  0
SPLINE
  5
8C
330
1F
100
AcDbEntity
  8
1
  6
Continuous
 62
    18
 60
     1
370
    35
100
AcDbSpline
210
0.0
220
0.0
230
1.0
 70
    24
 71
     3
 72
     8
 73
     4
 74
     0
 42
0.000000001
 43
0.0000000001
 40
0.0
 40
0.0
 40
0.0
 40
0.0
 40
1.0
 40
1.0
 40
1.0
 40
1.0
 10
393.3637301192542
 20
445.3167888599736
 30
0.0
 10
393.3637301192542
 20
445.2574481019655
 30
0.0
 10
393.3637301192542
 20
445.1767713412623
 30
0.0
 10
393.3637301192542
 20
445.0747585784837
 30
0.0
  0
SPLINE
  5
8D
330
1F
100
AcDbEntity
  8
1
  6
Continuous
 62
    18
 60
     1
370
    35
100
AcDbSpline
210
0.0
220
0.0
230
1.0
 70
     8
 71
     3
 72
    84
 73
    80
 74
     0
 42
0.000000001
 43
0.0000000001
 40
0.0
 40
0.0
 40
0.0
 40
0.0
 40
0.0312500000000006
 40
0.0312500000000006
 40
0.0625000000000013
 40
0.0937500000000019
 40
0.0937500000000019
 40
0.1015625000000018
 40
0.1015625000000018
 40
0.1093750000000018
 40
0.1093750000000018
 40
0.1250000000000017
 40
0.1250000000000017
 40
0.1562500000000017
 40
0.1875000000000017
 40
0.1875000000000017
 40
0.2031250000000017
 40
0.2109375000000016
 40
0.2109375000000016
 40
0.2187500000000015
 40
0.2187500000000015
 40
0.2499999999999996
 40
0.2812499999999977
 40
0.3124999999999959
 40
0.3124999999999959
 40
0.3203124999999951
 40
0.3203124999999951
 40
0.3281249999999943
 40
0.3281249999999943
 40
0.3437499999999936
 40
0.3437499999999936
 40
0.3749999999999931
 40
0.4062499999999926
 40
0.4062499999999926
 40
0.4218749999999921
 40
0.4218749999999921
 40
0.4374999999999916
 40
0.4374999999999916
 40
0.4687499999999921
 40
0.4999999999999925
 40
0.531249999999993
 40
0.531249999999993
 40
0.5390624999999933
 40
0.5390624999999933
 40
0.5468749999999938
 40
0.5624999999999942
 40
0.5624999999999942
 40
0.5937499999999946
 40
0.6249999999999949
 40
0.6249999999999949
 40
0.640624999999996
 40
0.640624999999996
 40
0.648437499999996
 40
0.648437499999996
 40
0.656249999999996
 40
0.6874999999999961
 40
0.7187499999999962
 40
0.7499999999999962
 40
0.7499999999999962
 40
0.7578124999999972
 40
0.7578124999999972
 40
0.7656249999999981
 40
0.7812499999999993
 40
0.7812499999999993
 40
0.8124999999999993
 40
0.8437499999999993
 40
0.8437499999999993
 40
0.8593749999999982
 40
0.8593749999999982
 40
0.8749999999999972
 40
0.8749999999999972
 40
0.9062499999999974
 40
0.9374999999999977
 40
0.9374999999999977
 40
0.9531249999999977
 40
0.9531249999999977
 40
0.9687499999999978
 40
0.9687499999999978
 40
1.0
 40
1.0
 40
1.0
 40
1.0
 10
383.3637301192542
 20
445.0347533248677
 30
0.0
 10
383.3637301192542
 20
445.0328580601314
 30
0.0
 10
383.3588345091932
 20
445.0309436491168
 30
0.0
 10
383.3395934564281
 20
445.0270779383209
 30
0.0
 10
383.3109002709923
 20
445.023175330509
 30
0.0
 10
383.2634232731936
 20
445.0191998009217
 30
0.0
 10
383.2277465795786
 20
445.0166919979878
 30
0.0
 10
383.2203103695431
 20
445.0161892802151
 30
0.0
 10
383.2048300056998
 20
445.0151815129467
 30
0.0
 10
383.1967747240025
 20
445.0146757979524
 30
0.0
 10
383.171772226503
 20
445.0131603065394
 30
0.0
 10
383.1540192581696
 20
445.0121538022316
 30
0.0
 10
383.0975725463556
 20
445.009145615884
 30
0.0
 10
383.0138245671109
 20
445.0051648464611
 30
0.0
 10
382.9134228628645
 20
445.0012443177468
 30
0.0
 10
382.8318141381921
 20
444.9983272011317
 30
0.0
 10
382.7894301614872
 20
444.9968744738865
 30
0.0
 10
382.7446388027376
 20
444.9954307283602
 30
0.0
 10
382.7142367578355
 20
444.9944702613304
 30
0.0
 10
382.6987478818735
 20
444.9939905342179
 30
0.0
 10
382.6203515231187
 20
444.9916095562983
 30
0.0
 10
382.4883528182295
 20
444.9878966868279
 30
0.0
 10
382.2712721269149
 20
444.9826105557599
 30
0.0
 10
382.1138646743625
 20
444.9792761221171
 30
0.0
 10
382.0114151765579
 20
444.9772533690625
 30
0.0
 10
381.9907213099581
 20
444.9768518889701
 30
0.0
 10
381.9489210435264
 20
444.9760551494645
 30
0.0
 10
381.9278288367789
 20
444.9756601833947
 30
0.0
 10
381.8642839417337
 20
444.9744911600833
 30
0.0
 10
381.8214518213242
 20
444.9737308298865
 30
0.0
 10
381.6915748706273
 20
444.9715059556448
 30
0.0
 10
381.5147305669811
 20
444.968688841119
 30
0.0
 10
381.330647637746
 20
444.9661670413302
 30
0.0
 10
381.1898341261592
 20
444.9643882740401
 30
0.0
 10
381.1424369243463
 20
444.9638141478115
 30
0.0
 10
381.0467073819684
 20
444.9627042057048
 30
0.0
 10
380.9982692019705
 20
444.9621673706833
 30
0.0
 10
380.8530554616163
 20
444.9606315324294
 30
0.0
 10
380.6589211405192
 20
444.9587725469283
 30
0.0
 10
380.3662142396943
 20
444.9565354921229
 30
0.0
 10
380.1700719121405
 20
444.9554121635268
 30
0.0
 10
380.0471595833179
 20
444.9548285343792
 30
0.0
 10
380.0225290186231
 20
444.9547176119684
 30
0.0
 10
379.9733986463144
 20
444.9545084668799
 30
0.0
 10
379.8999648452339
 20
444.9542140276872
 30
0.0
 10
379.8273069809246
 20
444.9539767236281
 30
0.0
 10
379.6830085419845
 20
444.9535769778346
 30
0.0
 10
379.4933186385982
 20
444.9532432729426
 30
0.0
 10
379.3089814424804
 20
444.9533028331806
 30
0.0
 10
379.1727703095679
 20
444.9534971753419
 30
0.0
 10
379.1277074976923
 20
444.9535869448766
 30
0.0
 10
379.0606347289385
 20
444.9537597724467
 30
0.0
 10
379.0383404482399
 20
444.9538238356893
 30
0.0
 10
378.9941593088293
 20
444.9539640562916
 30
0.0
 10
378.8846099326332
 20
444.954345127953
 30
0.0
 10
378.6954325018488
 20
444.9553014929434
 30
0.0
 10
378.4598749839954
 20
444.9571378233175
 30
0.0
 10
378.3140038858064
 20
444.9587364336265
 30
0.0
 10
378.2264430728412
 20
444.9598560953814
 30
0.0
 10
378.2091260784007
 20
444.9600859122676
 30
0.0
 10
378.1750439462733
 20
444.9605550619415
 30
0.0
 10
378.1246789318419
 20
444.9612739447998
 30
0.0
 10
378.0765635933616
 20
444.9620377547741
 30
0.0
 10
377.9832878242921
 20
444.9636242547191
 30
0.0
 10
377.8667862223435
 20
444.9658963256899
 30
0.0
 10
377.7658882467593
 20
444.9684779777555
 30
0.0
 10
377.6961882736011
 20
444.9705322611851
 30
0.0
 10
377.6739518285369
 20
444.9712367485236
 30
0.0
 10
377.6315188621199
 20
444.9726858574331
 30
0.0
 10
377.6115001771502
 20
444.9734244030091
 30
0.0
 10
377.554961113024
 20
444.9756810212373
 30
0.0
 10
377.4889373203198
 20
444.9787989234279
 30
0.0
 10
377.441253580799
 20
444.9821296319296
 30
0.0
 10
377.4124239714819
 20
444.9847078619611
 30
0.0
 10
377.4039716759744
 20
444.9855806629708
 30
0.0
 10
377.3894169995299
 20
444.9873534187925
 30
0.0
 10
377.3833092075463
 20
444.9882544141241
 30
0.0
 10
377.3686265187778
 20
444.9909920363064
 30
0.0
 10
377.3637301192542
 20
444.9928522322522
 30
0.0
 10
377.3637301192542
 20
444.9947475376981
 30
0.0
  0
SPLINE
  5
8E
330
1F
100
AcDbEntity
  8
1
  6
Continuous
 62
    18
 60
     1
370
    35
100
AcDbSpline
210
0.0
220
0.0
230
1.0
 70
    24
 71
     3
 72
     8
 73
     4
 74
     0
 42
0.000000001
 43
0.0000000001
 40
0.0
 40
0.0
 40
0.0
 40
0.0
 40
1.0
 40
1.0
 40
1.0
 40
1.0
 10
377.3637301192542
 20
444.9947475376982
 30
0.0
 10
377.3637301192542
 20
445.0967630212749
 30
0.0
 10
377.3637301192542
 20
445.1774419338528
 30
0.0
 10
377.3637301192542
 20
445.2367842746753
 30
0.0
  0
SPLINE
  5
8F
330
1F
100
AcDbEntity
  8
1
  6
Continuous
 62
    18
 60
     1
370
    35
100
AcDbSpline
210
0.0
220
0.0
230
1.0
 70
     8
 71
     3
 72
    84
 73
    80
 74
     0
 42
0.000000001
 43
0.0000000001
 40
0.0
 40
0.0
 40
0.0
 40
0.0
 40
0.0312499999999791
 40
0.0312499999999791
 40
0.0624999999999581
 40
0.0937499999999372
 40
0.0937499999999372
 40
0.1015624999999311
 40
0.1015624999999311
 40
0.109374999999925
 40
0.109374999999925
 40
0.1249999999999173
 40
0.1249999999999173
 40
0.1562499999999022
 40
0.187499999999887
 40
0.187499999999887
 40
0.2031249999998816
 40
0.2109374999998807
 40
0.2109374999998807
 40
0.2187499999998798
 40
0.2187499999998798
 40
0.2499999999998775
 40
0.2812499999998753
 40
0.3124999999998731
 40
0.3124999999998731
 40
0.3203124999998746
 40
0.3203124999998746
 40
0.3281249999998762
 40
0.3281249999998762
 40
0.3437499999998784
 40
0.3437499999998784
 40
0.3749999999998828
 40
0.4062499999998872
 40
0.4062499999998872
 40
0.4218749999998889
 40
0.4218749999998889
 40
0.4374999999998906
 40
0.4374999999998906
 40
0.4687499999998949
 40
0.4999999999998992
 40
0.5312499999999034
 40
0.5312499999999034
 40
0.539062499999905
 40
0.539062499999905
 40
0.5468749999999065
 40
0.5624999999999095
 40
0.5624999999999095
 40
0.5937499999999164
 40
0.6249999999999235
 40
0.6249999999999235
 40
0.6406249999999266
 40
0.6406249999999266
 40
0.6484374999999292
 40
0.6484374999999292
 40
0.6562499999999317
 40
0.6874999999999367
 40
0.7187499999999416
 40
0.7499999999999465
 40
0.7499999999999465
 40
0.7578124999999464
 40
0.7578124999999464
 40
0.7656249999999463
 40
0.7812499999999468
 40
0.7812499999999468
 40
0.8124999999999519
 40
0.8437499999999571
 40
0.8437499999999571
 40
0.85937499999996
 40
0.85937499999996
 40
0.8749999999999628
 40
0.8749999999999628
 40
0.9062499999999721
 40
0.9374999999999813
 40
0.9374999999999813
 40
0.953124999999986
 40
0.953124999999986
 40
0.9687499999999907
 40
0.9687499999999907
 40
1.0
 40
1.0
 40
1.0
 40
1.0
 10
377.3637301192542
 20
445.2367842746759
 30
0.0
 10
377.3637301192542
 20
445.2378866950438
 30
0.0
 10
377.3686263044312
 20
445.2390100268795
 30
0.0
 10
377.3878697415547
 20
445.2412971246721
 30
0.0
 10
377.4165665455682
 20
445.2436246671547
 30
0.0
 10
377.4640499140648
 20
445.2460329872767
 30
0.0
 10
377.4997315881101
 20
445.2475642154735
 30
0.0
 10
377.5071688444007
 20
445.2478717658495
 30
0.0
 10
377.5226514055784
 20
445.2484895094808
 30
0.0
 10
377.53070789162
 20
445.2488001144153
 30
0.0
 10
377.5557134213699
 20
445.2497327341247
 30
0.0
 10
377.5734685306184
 20
445.2503545830643
 30
0.0
 10
377.6299220239175
 20
445.2522205207183
 30
0.0
 10
377.713679818073
 20
445.2547094740659
 30
0.0
 10
377.8140936800115
 20
445.2572015357985
 30
0.0
 10
377.8957121941964
 20
445.2590722248523
 30
0.0
 10
377.9381012680366
 20
445.2600079815447
 30
0.0
 10
377.9828980459271
 20
445.2609444613537
 30
0.0
 10
378.0133037777173
 20
445.2615689548153
 30
0.0
 10
378.0287942009699
 20
445.2618816150452
 30
0.0
 10
378.1071965335459
 20
445.263437170551
 30
0.0
 10
378.23920496221
 20
445.265887214412
 30
0.0
 10
378.4563008289992
 20
445.2694514457316
 30
0.0
 10
378.6137188678095
 20
445.2717552983754
 30
0.0
 10
378.7161751618058
 20
445.2731724415388
 30
0.0
 10
378.7368703966818
 20
445.2734547292462
 30
0.0
 10
378.7786734187932
 20
445.2740170074753
 30
0.0
 10
378.7997653126245
 20
445.2742967717945
 30
0.0
 10
378.8633102251109
 20
445.2751280187175
 30
0.0
 10
378.9061423481879
 20
445.2756729491787
 30
0.0
 10
379.0360192940143
 20
445.2772806636684
 30
0.0
 10
379.212863557634
 20
445.2793522126323
 30
0.0
 10
379.3969465080435
 20
445.2812828787622
 30
0.0
 10
379.537760104681
 20
445.282677666172
 30
0.0
 10
379.5851573463791
 20
445.2831337101127
 30
0.0
 10
379.6808869998518
 20
445.2840277564953
 30
0.0
 10
379.7293234697179
 20
445.2844666176618
 30
0.0
 10
379.8745269980892
 20
445.2857422736498
 30
0.0
 10
380.0686485567794
 20
445.2873421383464
 30
0.0
 10
380.361338858863
 20
445.289447837527
 30
0.0
 10
380.5574718543208
 20
445.2906555513982
 30
0.0
 10
380.6803789209909
 20
445.2913471952623
 30
0.0
 10
380.7050088826116
 20
445.2914825288674
 30
0.0
 10
380.7541340555176
 20
445.2917458908618
 30
0.0
 10
380.8275602727447
 20
445.2921296853293
 30
0.0
 10
380.9002111787831
 20
445.2924801222207
 30
0.0
 10
381.044496490811
 20
445.2931372168356
 30
0.0
 10
381.2341709921141
 20
445.2938968099133
 30
0.0
 10
381.4184966469475
 20
445.2944253960227
 30
0.0
 10
381.5547004924646
 20
445.2947333778427
 30
0.0
 10
381.5997611037536
 20
445.2948212684073
 30
0.0
 10
381.666830908157
 20
445.2949304607146
 30
0.0
 10
381.6891237630157
 20
445.2949631046073
 30
0.0
 10
381.7333012320399
 20
445.2950204651254
 30
0.0
 10
381.8428418732211
 20
445.2951442445162
 30
0.0
 10
382.0320073465638
 20
445.2951928510078
 30
0.0
 10
382.2675557281897
 20
445.2948931343857
 30
0.0
 10
382.4134246500085
 20
445.2944479085327
 30
0.0
 10
382.5009851613924
 20
445.2940898826583
 30
0.0
 10
382.5183017244083
 20
445.2940143249918
 30
0.0
 10
382.5523832813572
 20
445.2938560498143
 30
0.0
 10
382.6027476026076
 20
445.2936076168218
 30
0.0
 10
382.6508627205571
 20
445.2933264337214
 30
0.0
 10
382.7441385924751
 20
445.2927209189164
 30
0.0
 10
382.8606417770807
 20
445.2917986990582
 30
0.0
 10
382.9615434321656
 20
445.2906472799752
 30
0.0
 10
383.031246671884
 20
445.2896954957644
 30
0.0
 10
383.0534843494677
 20
445.2893634962497
 30
0.0
 10
383.0959196645229
 20
445.2886693615698
 30
0.0
 10
383.1159395427817
 20
445.2883101354627
 30
0.0
 10
383.1724821881594
 20
445.2871966565199
 30
0.0
 10
383.2385107580926
 20
445.2856167149766
 30
0.0
 10
383.286198725471
 20
445.2838491789889
 30
0.0
 10
383.3150310786949
 20
445.2824523577984
 30
0.0
 10
383.3234842174335
 20
445.2819748691811
 30
0.0
 10
383.3380403956702
 20
445.2809957412338
 30
0.0
 10
383.3441488514698
 20
445.2804935155053
 30
0.0
 10
383.358833145152
 20
445.2789536944922
 30
0.0
 10
383.3637301192543
 20
445.2778892486706
 30
0.0
 10
383.3637301192543
 20
445.2767868340369
 30
0.0
  0
SPLINE
  5
90
330
1F
100
AcDbEntity
  8
1
  6
Continuous
 62
    18
 60
     1
370
    35
100
AcDbSpline
210
0.0
220
0.0
230
1.0
 70
    24
 71
     3
 72
     8
 73
     4
 74
     0
 42
0.000000001
 43
0.0000000001
 40
0.0
 40
0.0
 40
0.0
 40
0.0
 40
1.0
 40
1.0
 40
1.0
 40
1.0
 10
383.3637301192542
 20
445.276786834037
 30
0.0
 10
383.3637301192542
 20
445.2174452846375
 30
0.0
 10
383.3637301192542
 20
445.1367674480182
 30
0.0
 10
383.3637301192542
 20
445.0347533248678
 30
0.0
  0
SPLINE
  5
91
330
1F
100
AcDbEntity
  8
1
  6
Continuous
 62
    18
 60
     1
370
    35
100
AcDbSpline
210
0.0
220
0.0
230
1.0
 70
     8
 71
     3
 72
    24
 73
    20
 74
     0
 42
0.000000001
 43
0.0000000001
 40
0.0
 40
0.0
 40
0.0
 40
0.0
 40
0.1454545454545364
 40
0.2909090909090727
 40
0.4363636363636091
 40
0.4363636363636091
 40
0.4727272727272432
 40
0.4727272727272432
 40
0.5090909090908773
 40
0.5090909090908773
 40
0.5818181818181534
 40
0.5818181818181534
 40
0.7272727272727052
 40
0.8727272727272568
 40
0.8727272727272568
 40
0.9454545454545282
 40
0.9818181818181594
 40
0.9818181818181594
 40
1.0
 40
1.0
 40
1.0
 40
1.0
 10
398.5668662974097
 20
445.1766097202452
 30
0.0
 10
398.4774098072897
 20
445.1775344054526
 30
0.0
 10
398.3058679431767
 20
445.1795041419307
 30
0.0
 10
398.069910824774
 20
445.1828051086958
 30
0.0
 10
397.9267514211223
 20
445.1852335522216
 30
0.0
 10
397.8417979061621
 20
445.1868236160843
 30
0.0
 10
397.8250337807088
 20
445.1871452515035
 30
0.0
 10
397.7919633549052
 20
445.1877958293325
 30
0.0
 10
397.775635980042
 20
445.1881252122924
 30
0.0
 10
397.7275139357184
 20
445.1891209961013
 30
0.0
 10
397.6966252853003
 20
445.1897939567451
 30
0.0
 10
397.6074649367403
 20
445.1918394523926
 30
0.0
 10
397.4979149135407
 20
445.1946376022098
 30
0.0
 10
397.4066780625602
 20
445.1975733191229
 30
0.0
 10
397.3451859357123
 20
445.199826723356
 30
0.0
 10
397.3161765388517
 20
445.2009663514525
 30
0.0
 10
397.289814848154
 20
445.2021256065328
 30
0.0
 10
397.2770801414994
 20
445.2027085350543
 30
0.0
 10
397.2729077098108
 20
445.2029034977667
 30
0.0
 10
397.2688141979324
 20
445.2030988053567
 30
0.0
  0
SPLINE
  5
92
330
1F
100
AcDbEntity
  8
1
  6
Continuous
 62
    18
 60
     1
370
    35
100
AcDbSpline
210
0.0
220
0.0
230
1.0
 70
     8
 71
     3
 72
    89
 73
    85
 74
     0
 42
0.000000001
 43
0.0000000001
 40
0.0
 40
0.0
 40
0.0
 40
0.0
 40
0.0064407203601655
 40
0.0064407203601655
 40
0.0142571285642677
 40
0.0142571285642677
 40
0.0298899449724723
 40
0.0298899449724723
 40
0.0611555777888833
 40
0.0924212106052944
 40
0.0924212106052944
 40
0.108054027013501
 40
0.108054027013501
 40
0.1236868434217075
 40
0.1236868434217075
 40
0.1549524762381188
 40
0.1862181090545302
 40
0.2174837418709415
 40
0.2174837418709415
 40
0.2253001500750435
 40
0.2253001500750435
 40
0.2331165582791456
 40
0.2487493746873497
 40
0.2487493746873497
 40
0.2800150075037567
 40
0.3112806403201638
 40
0.3112806403201638
 40
0.3269134567283667
 40
0.3269134567283667
 40
0.3347298649324684
 40
0.3347298649324684
 40
0.3425462731365699
 40
0.3738119059529771
 40
0.4050775387693842
 40
0.4050775387693842
 40
0.4363431715857914
 40
0.4363431715857914
 40
0.4441595797898933
 40
0.4441595797898933
 40
0.4519759879939952
 40
0.467608804402199
 40
0.467608804402199
 40
0.4988744372186063
 40
0.5301400700350138
 40
0.5301400700350138
 40
0.5457728864432174
 40
0.5457728864432174
 40
0.5614057028514211
 40
0.5614057028514211
 40
0.5926713356678289
 40
0.6239369684842365
 40
0.6239369684842365
 40
0.6395697848924403
 40
0.6473861930965427
 40
0.6473861930965427
 40
0.655202601300645
 40
0.655202601300645
 40
0.6864682341170544
 40
0.7177338669334636
 40
0.748999499749873
 40
0.748999499749873
 40
0.7568159079539757
 40
0.7568159079539757
 40
0.7646323161580785
 40
0.7646323161580785
 40
0.7802651325662823
 40
0.7802651325662823
 40
0.8115307653826899
 40
0.8427963981990974
 40
0.8427963981990974
 40
0.8584292146073004
 40
0.8662456228114026
 40
0.8662456228114026
 40
0.8740620310155047
 40
0.8740620310155047
 40
0.9053276638319181
 40
0.9365932966483311
 40
0.9678589294647443
 40
0.9678589294647443
 40
0.9834917458729507
 40
0.9834917458729507
 40
0.999124562281157
 40
0.999124562281157
 40
1.0
 40
1.0
 40
1.0
 40
1.0
 10
397.1137308508253
 20
445.2182191333396
 30
0.0
 10
397.113745654107
 20
445.2185522518087
 30
0.0
 10
397.1139843129289
 20
445.2188857313518
 30
0.0
 10
397.1150127270357
 20
445.2196247259054
 30
0.0
 10
397.1159098823159
 20
445.2200300790782
 30
0.0
 10
397.1195828783351
 20
445.2212410604057
 30
0.0
 10
397.123341896696
 20
445.2220437412952
 30
0.0
 10
397.138477516004
 20
445.2244381421498
 30
0.0
 10
397.1689293693675
 20
445.2275943573045
 30
0.0
 10
397.2196127849011
 20
445.2306794919008
 30
0.0
 10
397.2653154018371
 20
445.2329666145305
 30
0.0
 10
397.2818335536359
 20
445.2337245272513
 30
0.0
 10
397.3174836692381
 20
445.2352313325533
 30
0.0
 10
397.3366636666899
 20
445.2359817502457
 30
0.0
 10
397.3975479430304
 20
445.2381959404355
 30
0.0
 10
397.4878854765678
 20
445.2410626554253
 30
0.0
 10
397.6501254854004
 20
445.2451149379415
 30
0.0
 10
397.7761193807405
 20
445.2476525942532
 30
0.0
 10
397.8606080718252
 20
445.2491863705538
 30
0.0
 10
397.8778168381289
 20
445.2494909034333
 30
0.0
 10
397.9126960107342
 20
445.2500926125053
 30
0.0
 10
397.965665021595
 20
445.2509834644286
 30
0.0
 10
398.0205607960464
 20
445.2518396726708
 30
0.0
 10
398.13287859478
 20
445.253506820711
 30
0.0
 10
398.2893609570085
 20
445.2556091815215
 30
0.0
 10
398.4591374337954
 20
445.2574749576714
 30
0.0
 10
398.5915412927556
 20
445.2587846359053
 30
0.0
 10
398.6365226657153
 20
445.2592062261699
 30
0.0
 10
398.7052900087888
 20
445.2598157855976
 30
0.0
 10
398.7284531567145
 20
445.2600153607461
 30
0.0
 10
398.7749688339187
 20
445.260404797789
 30
0.0
 10
398.891855020556
 20
445.2613551170273
 30
0.0
 10
399.1075325766317
 20
445.2628600608544
 30
0.0
 10
399.3065798873081
 20
445.2639135633154
 30
0.0
 10
399.5093108117467
 20
445.2648248355452
 30
0.0
 10
399.6125177374019
 20
445.2652093693152
 30
0.0
 10
399.7439070378244
 20
445.2655983702751
 30
0.0
 10
399.7702823719514
 20
445.2656714956586
 30
0.0
 10
399.8229811927142
 20
445.2658077783375
 30
0.0
 10
399.9020548901216
 20
445.265997549257
 30
0.0
 10
399.9812041195874
 20
445.2661438803337
 30
0.0
 10
400.1396017902581
 20
445.2663795228987
 30
0.0
 10
400.3510628305955
 20
445.2665419105092
 30
0.0
 10
400.5630478508469
 20
445.2664033451415
 30
0.0
 10
400.7222372342437
 20
445.2661841374988
 30
0.0
 10
400.7753373336074
 20
445.2660918114049
 30
0.0
 10
400.8815920386704
 20
445.2658678272942
 30
0.0
 10
400.934305547757
 20
445.2657371015555
 30
0.0
 10
401.0912308992781
 20
445.2652898644147
 30
0.0
 10
401.2972301118879
 20
445.2645469958206
 30
0.0
 10
401.49689207703
 20
445.2635162405425
 30
0.0
 10
401.6442426446112
 20
445.2626339442799
 30
0.0
 10
401.7173179879886
 20
445.2621654434727
 30
0.0
 10
401.7894794828173
 20
445.2616551906796
 30
0.0
 10
401.8373819284937
 20
445.261305635696
 30
0.0
 10
401.8612622738012
 20
445.2611259156207
 30
0.0
 10
401.9797245485127
 20
445.2602068257526
 30
0.0
 10
402.1627762571665
 20
445.2586098590974
 30
0.0
 10
402.4185275773761
 20
445.2558453980195
 30
0.0
 10
402.5765333892052
 20
445.2537559483856
 30
0.0
 10
402.6712857887283
 20
445.2523705926761
 30
0.0
 10
402.6900357424283
 20
445.2520895397079
 30
0.0
 10
402.7271302613774
 20
445.2515193707076
 30
0.0
 10
402.7454921599966
 20
445.2512299580369
 30
0.0
 10
402.7996755647145
 20
445.2503541803088
 30
0.0
 10
402.8346802347613
 20
445.2497590326183
 30
0.0
 10
402.9364062111097
 20
445.247940202767
 30
0.0
 10
403.0632889680341
 20
445.245426218608
 30
0.0
 10
403.172962016138
 20
445.2427359067376
 30
0.0
 10
403.2486867826542
 20
445.2406507167101
 30
0.0
 10
403.2849140350754
 20
445.2395912313215
 30
0.0
 10
403.3186459277673
 20
445.2385058738742
 30
0.0
 10
403.3405729482092
 20
445.2377764765538
 30
0.0
 10
403.3512443283194
 20
445.2374092165605
 30
0.0
 10
403.4029098492961
 20
445.2355683917598
 30
0.0
 10
403.4752359830827
 20
445.2325793465006
 30
0.0
 10
403.5535990760797
 20
445.2279667977421
 30
0.0
 10
403.585778134609
 20
445.2248050844539
 30
0.0
 10
403.6021738539325
 20
445.2224001763562
 30
0.0
 10
403.6063469424637
 20
445.2215912737657
 30
0.0
 10
403.6120053501068
 20
445.2199791820335
 30
0.0
 10
403.6135079961584
 20
445.219174241765
 30
0.0
 10
403.6137184522537
 20
445.2183253687199
 30
0.0
 10
403.6137255326022
 20
445.218280356113
 30
0.0
 10
403.6137285342661
 20
445.2182353468934
 30
0.0
  0
SPLINE
  5
93
330
1F
100
AcDbEntity
  8
1
  6
Continuous
 62
    18
 60
     1
370
    35
100
AcDbSpline
210
0.0
220
0.0
230
1.0
 70
     8
 71
     3
 72
    53
 73
    49
 74
     0
 42
0.000000001
 43
0.0000000001
 40
0.0
 40
0.0
 40
0.0
 40
0.0
 40
0.0035200331297613
 40
0.0035200331297613
 40
0.0164613314008035
 40
0.0682265244849774
 40
0.1199917175691513
 40
0.1717569106533252
 40
0.1717569106533252
 40
0.1846982089243689
 40
0.1846982089243689
 40
0.1976395071954125
 40
0.2235221037374973
 40
0.2235221037374973
 40
0.2752872968216667
 40
0.3270524899058362
 40
0.3270524899058362
 40
0.3529350864479198
 40
0.3529350864479198
 40
0.3658763847189617
 40
0.3658763847189617
 40
0.3788176829900031
 40
0.4305828760741689
 40
0.4823480691583343
 40
0.4823480691583343
 40
0.5341132622424998
 40
0.5341132622424998
 40
0.5858784553266652
 40
0.5858784553266652
 40
0.6376436484108307
 40
0.6894088414949964
 40
0.6894088414949964
 40
0.7023501397660374
 40
0.7023501397660374
 40
0.715291438037079
 40
0.715291438037079
 40
0.7411740345791622
 40
0.7411740345791622
 40
0.792939227663328
 40
0.8447044207474937
 40
0.8447044207474937
 40
0.8705870172895771
 40
0.8835283155606193
 40
0.8835283155606193
 40
0.8964696138316615
 40
0.8964696138316615
 40
0.9482348069158305
 40
1.0
 40
1.0
 40
1.0
 40
1.0
 10
403.5051802113464
 20
445.2055285124308
 30
0.0
 10
403.5033107242363
 20
445.2054208708899
 30
0.0
 10
403.5014176093844
 20
445.2053133173951
 30
0.0
 10
403.4924570205261
 20
445.2048109435057
 30
0.0
 10
403.4556999780251
 20
445.2028460510802
 30
0.0
 10
403.3759678268821
 20
445.1993964574755
 30
0.0
 10
403.2414387098415
 20
445.1949799197054
 30
0.0
 10
403.1328922179496
 20
445.1921590684681
 30
0.0
 10
403.058965658423
 20
445.1904363503872
 30
0.0
 10
403.043859740052
 20
445.1900935019482
 30
0.0
 10
403.013197009675
 20
445.1894155159542
 30
0.0
 10
402.9664774977985
 20
445.1884089312005
 30
0.0
 10
402.917607392865
 20
445.1874332175952
 30
0.0
 10
402.8170447442274
 20
445.185522454815
 30
0.0
 10
402.6754469857302
 20
445.1830830397051
 30
0.0
 10
402.5189678472393
 20
445.1808596582322
 30
0.0
 10
402.3959205048295
 20
445.1792753189075
 30
0.0
 10
402.3539550355989
 20
445.1787610966595
 30
0.0
 10
402.2895526256123
 20
445.1780111114631
 30
0.0
 10
402.2678631298031
 20
445.1777649337608
 30
0.0
 10
402.2242377044612
 20
445.1772823757602
 30
0.0
 10
402.114417557015
 20
445.1760989738688
 30
0.0
 10
401.9100424910433
 20
445.1741727518499
 30
0.0
 10
401.7190577088442
 20
445.1727456232438
 30
0.0
 10
401.5233837897412
 20
445.1714625928433
 30
0.0
 10
401.4231864239632
 20
445.1708930325705
 30
0.0
 10
401.2179988656106
 20
445.1699040726782
 30
0.0
 10
401.1147039227269
 20
445.1694928196514
 30
0.0
 10
400.9067604376651
 20
445.1688313785681
 30
0.0
 10
400.6974628631327
 20
445.1683310595322
 30
0.0
 10
400.4854741826364
 20
445.168151441458
 30
0.0
 10
400.3521209649127
 20
445.1681417579771
 30
0.0
 10
400.3254072073713
 20
445.1681449616319
 30
0.0
 10
400.271892571288
 20
445.1681617559088
 30
0.0
 10
400.2450552575914
 20
445.1681753753295
 30
0.0
 10
400.164704988865
 20
445.1682317782673
 30
0.0
 10
400.111413979028
 20
445.1682899844972
 30
0.0
 10
399.9523517509974
 20
445.1685251467724
 30
0.0
 10
399.742426803986
 20
445.168999845637
 30
0.0
 10
399.5367381813994
 20
445.1697904312904
 30
0.0
 10
399.3840763592644
 20
445.1705027350991
 30
0.0
 10
399.3081472547054
 20
445.1708887746578
 30
0.0
 10
399.2328307963226
 20
445.1713203144432
 30
0.0
 10
399.1827574717825
 20
445.1716182218298
 30
0.0
 10
399.1577709573862
 20
445.1717724126013
 30
0.0
 10
399.0337263643803
 20
445.172565649163
 30
0.0
 10
398.8401711277399
 20
445.1739813345044
 30
0.0
 10
398.6563227875297
 20
445.1756850350378
 30
0.0
 10
398.5668662974097
 20
445.1766097202452
 30
0.0
  0
SPLINE
  5
94
330
1F
100
AcDbEntity
  8
1
  6
Continuous
 62
    18
 60
     1
370
    35
100
AcDbSpline
210
0.0
220
0.0
230
1.0
 70
     8
 71
     3
 72
    32
 73
    28
 74
     0
 42
0.000000001
 43
0.0000000001
 40
0.0
 40
0.0
 40
0.0
 40
0.0
 40
0.04
 40
0.08
 40
0.12
 40
0.16
 40
0.2
 40
0.24
 40
0.28
 40
0.32
 40
0.36
 40
0.4
 40
0.44
 40
0.48
 40
0.52
 40
0.56
 40
0.6
 40
0.64
 40
0.68
 40
0.72
 40
0.76
 40
0.8
 40
0.84
 40
0.88
 40
0.92
 40
0.96
 40
1.0
 40
1.0
 40
1.0
 40
1.0
 10
562.2035886251542
 20
437.166120975645
 30
0.0
 10
563.6878874262543
 20
437.088337233445
 30
0.0
 10
566.6519044792542
 20
436.845713229845
 30
0.0
 10
571.0690980596543
 20
436.221809831745
 30
0.0
 10
575.4421443848543
 20
435.340101567845
 30
0.0
 10
579.7559694305542
 20
434.203631984145
 30
0.0
 10
583.9955692140543
 20
432.816387942845
 30
0.0
 10
588.1466259648543
 20
431.183087585545
 30
0.0
 10
592.1951455418542
 20
429.309201851745
 30
0.0
 10
596.1270251129542
 20
427.201212767945
 30
0.0
 10
599.9284791339542
 20
424.866511168845
 30
0.0
 10
603.5860605981543
 20
422.313467859645
 30
0.0
 10
607.0881423130543
 20
419.550260350445
 30
0.0
 10
610.4230842828542
 20
416.585849665245
 30
0.0
 10
613.5780031455542
 20
413.431646953645
 30
0.0
 10
616.5421366739542
 20
410.098693615845
 30
0.0
 10
619.3061139944542
 20
406.597613868245
 30
0.0
 10
621.8605117540542
 20
402.940194820645
 30
0.0
 10
624.1960497527542
 20
399.139699425945
 30
0.0
 10
626.3047209745542
 20
395.209355100645
 30
0.0
 10
628.1798341943543
 20
391.161652569845
 30
0.0
 10
629.8149729138543
 20
387.009905014745
 30
0.0
 10
631.2036160474543
 20
382.770780605545
 30
0.0
 10
632.3416869283542
 20
378.457118585245
 30
0.0
 10
633.2251653572542
 20
374.083605704995
 30
0.0
 10
633.8508419707542
 20
369.665866860065
 30
0.0
 10
634.0946390242542
 20
366.7018639632649
 30
0.0
 10
634.1730260623542
 20
365.217640662925
 30
0.0
  0
SPLINE
  5
95
330
1F
100
AcDbEntity
  8
1
  6
Continuous
 62
    18
 60
     1
370
    35
100
AcDbSpline
210
0.0
220
0.0
230
1.0
 70
     8
 71
     3
 72
    32
 73
    28
 74
     0
 42
0.000000001
 43
0.0000000001
 40
0.0
 40
0.0
 40
0.0
 40
0.0
 40
0.04
 40
0.08
 40
0.12
 40
0.16
 40
0.2
 40
0.24
 40
0.28
 40
0.32
 40
0.36
 40
0.4
 40
0.44
 40
0.48
 40
0.52
 40
0.56
 40
0.6
 40
0.64
 40
0.68
 40
0.72
 40
0.76
 40
0.8
 40
0.84
 40
0.88
 40
0.92
 40
0.96
 40
1.0
 40
1.0
 40
1.0
 40
1.0
 10
634.3793533515542
 20
185.668880677915
 30
0.0
 10
634.3019264666542
 20
184.179566558655
 30
0.0
 10
634.0597199783542
 20
181.205526159985
 30
0.0
 10
633.4355832669543
 20
176.773424736285
 30
0.0
 10
632.5527785725542
 20
172.385533450345
 30
0.0
 10
631.4143330221543
 20
168.056891729545
 30
0.0
 10
630.0241621264543
 20
163.8023898337449
 30
0.0
 10
628.3870684985543
 20
159.636715630845
 30
0.0
 10
626.5087715962543
 20
155.574340779945
 30
0.0
 10
624.3956668129542
 20
151.629019239545
 30
0.0
 10
622.0547990922543
 20
147.813980512945
 30
0.0
 10
619.4942574129542
 20
144.142519987545
 30
0.0
 10
616.7230746668542
 20
140.627595161745
 30
0.0
 10
613.7510951249542
 20
137.281551970045
 30
0.0
 10
610.5879623477542
 20
134.115169639045
 30
0.0
 10
607.2438392842542
 20
131.138858524045
 30
0.0
 10
603.7314523521543
 20
128.364036273145
 30
0.0
 10
600.0632098109543
 20
125.800294095745
 30
0.0
 10
596.2510043699542
 20
123.455855065745
 30
0.0
 10
592.3075791506542
 20
121.338631718345
 30
0.0
 10
588.2467608343543
 20
119.456109496745
 30
0.0
 10
584.0826456385543
 20
117.814826604445
 30
0.0
 10
579.8296618315543
 20
116.420453004545
 30
0.0
 10
575.5024276389543
 20
115.277749644645
 30
0.0
 10
571.1153279973543
 20
114.390521054245
 30
0.0
 10
566.6828319904542
 20
113.761846543745
 30
0.0
 10
563.7087962980543
 20
113.516716232645
 30
0.0
 10
562.2194710362542
 20
113.437829437345
 30
0.0
  0
SPLINE
  5
96
330
1F
100
AcDbEntity
  8
1
  6
Continuous
 62
    18
 60
     1
370
    35
100
AcDbSpline
210
0.0
220
0.0
230
1.0
 70
     8
 71
     3
 72
    32
 73
    28
 74
     0
 42
0.000000001
 43
0.0000000001
 40
0.0
 40
0.0
 40
0.0
 40
0.0
 40
0.04
 40
0.08
 40
0.12
 40
0.16
 40
0.2
 40
0.24
 40
0.28
 40
0.32
 40
0.36
 40
0.4
 40
0.44
 40
0.48
 40
0.52
 40
0.56
 40
0.6
 40
0.64
 40
0.68
 40
0.72
 40
0.76
 40
0.8
 40
0.84
 40
0.88
 40
0.92
 40
0.96
 40
1.0
 40
1.0
 40
1.0
 40
1.0
 10
166.5544338980542
 20
365.217635092895
 30
0.0
 10
166.6328208479542
 20
366.701854879635
 30
0.0
 10
166.8766156991542
 20
369.665844733415
 30
0.0
 10
167.5022931714542
 20
374.0835961668749
 30
0.0
 10
168.3857695796542
 20
378.457102296445
 30
0.0
 10
169.5238398791542
 20
382.770765322345
 30
0.0
 10
170.9124719173542
 20
387.009859308445
 30
0.0
 10
172.5475877203542
 20
391.161561394445
 30
0.0
 10
174.4226934685542
 20
395.209264534845
 30
0.0
 10
176.5313778437542
 20
399.139643969145
 30
0.0
 10
178.8669213049542
 20
402.9401532189449
 30
0.0
 10
181.4213085825542
 20
406.597562777245
 30
0.0
 10
184.1852825789542
 20
410.098645150845
 30
0.0
 10
187.1494280507542
 20
413.431616820645
 30
0.0
 10
190.3043505505542
 20
416.585825217645
 30
0.0
 10
193.6392695754542
 20
419.550219602145
 30
0.0
 10
197.1413560570542
 20
422.313435591845
 30
0.0
 10
200.7989217408542
 20
424.866471664245
 30
0.0
 10
204.6003611117542
 20
427.201170500245
 30
0.0
 10
208.5322656069542
 20
429.309178148245
 30
0.0
 10
212.5808041715542
 20
431.183074849445
 30
0.0
 10
216.7318549399542
 20
432.816374763545
 30
0.0
 10
220.9714482888542
 20
434.203619441745
 30
0.0
 10
225.2852777472542
 20
435.340092949345
 30
0.0
 10
229.6583334845542
 20
436.2218050044449
 30
0.0
 10
234.0755285920542
 20
436.845710410645
 30
0.0
 10
237.0395622587542
 20
437.088336739945
 30
0.0
 10
238.5238661921542
 20
437.166120713545
 30
0.0
  0
SPLINE
  5
97
330
1F
100
AcDbEntity
  8
1
  6
Continuous
 62
    18
370
    35
100
AcDbSpline
210
0.0
220
0.0
230
1.0
 70
     8
 71
     3
 72
     8
 73
     4
 74
     0
 42
0.000000001
 43
0.0000000001
 40
0.0
 40
0.0
 40
0.0
 40
0.0
 40
1.0
 40
1.0
 40
1.0
 40
1.0
 10
145.3637301192641
 20
275.4487639393152
 30
0.0
 10
145.3637312901984
 20
245.1797345822465
 30
0.0
 10
146.1652712523442
 20
214.9107091516055
 30
0.0
 10
147.767226893165
 20
184.6841004046155
 30
0.0
  0
SPLINE
  5
98
102
{ACAD_REACTORS
330
9D
102
}
330
1F
100
AcDbEntity
  8
1
  6
Continuous
 62
    18
370
    35
100
AcDbSpline
210
0.0
220
0.0
230
1.0
 70
     8
 71
     3
 72
     8
 73
     4
 74
     0
 42
0.000000001
 43
0.0000000001
 40
0.0
 40
0.0
 40
0.0
 40
0.0
 40
1.0
 40
1.0
 40
1.0
 40
1.0
 10
655.3637301192634
 20
275.4486840368585
 30
0.0
 10
655.3637289956796
 20
305.7177142881621
 30
0.0
 10
654.5621890335208
 20
335.9867406142961
 30
0.0
 10
652.9602333453367
 20
366.213350254274
 30
0.0
  0
DIMENSION
  5
9A
102
{ACAD_REACTORS
330
9D
102
}
102
{ACAD_XDICTIONARY
360
9C
102
}
330
1F
100
AcDbEntity
  8
1
  6
Continuous
 62
    18
370
    13
100
AcDbDimension
  2
_U0
 10
145.36373
 20
509.448725
 30
0.0
 11
400.36373
 21
509.448725
 31
0.0
 70
   160
 71
     1
 42
510.0
 52
90.0
  3
Standard
100
AcDbAlignedDimension
 13
655.36373
 23
275.448684
 33
0.0
 14
145.36373
 24
275.448764
 34
0.0
100
AcDbRotatedDimension
1001
ACAD
1000
DSTYLE
1002
{
1070
   371
1070
    13
1070
   372
1070
    13
1070
   170
1070
     0
1070
   144
1040
1.0
1070
   277
1070
     2
1070
   284
1070
     8
1070
   278
1070
    44
1070
   146
1040
0.12
1070
   345
1005
16
1070
   347
1005
16
1070
   346
1005
16
1070
   344
1005
0
1070
   343
1005
0
1070
   172
1070
     1
1070
    76
1070
     0
1070
    75
1070
     0
1070
   282
1070
     0
1070
   281
1070
     0
1070
    71
1070
     0
1070
    74
1070
     0
1070
   279
1070
     0
1070
   173
1070
     1
1070
   340
1005
9B
1070
   271
1070
     3
1070
   272
1070
     2
1070
    77
1070
     1
1070
    73
1070
     1
1070
   171
1070
     3
1070
   274
1070
     4
1070
   177
1070
    18
1070
   176
1070
    18
1070
   178
1070
    18
1070
    78
1070
     8
1070
    48
1040
-0.1
1070
    41
1040
15.0
1070
   147
1040
5.0
1070
    42
1040
1.0
1070
    44
1040
2.0
1070
   140
1040
10.0
1002
}
1001
ACAD_DSTYLE_DIM_LINETYPE
1070
   380
1005
16
1001
ACAD_DSTYLE_DIM_EXT1_LINETYPE
1070
   381
1005
16
1001
ACAD_DSTYLE_DIM_EXT2_LINETYPE
1070
   382
1005
16
  0
DIMENSION
  5
B4
102
{ACAD_REACTORS
330
B6
102
}
102
{ACAD_XDICTIONARY
360
B5
102
}
330
1F
100
AcDbEntity
  8
1
  6
Continuous
 62
    18
370
    13
100
AcDbDimension
  2
_U1
 10
732.381557
 20
90.448725
 30
0.0
 11
732.381557
 21
275.448725
 31
0.0
 70
   160
 71
     1
 42
370.0
 52
90.0
  3
Standard
100
AcDbAlignedDimension
 13
400.36373
 23
460.448725
 33
0.0
 14
400.36373
 24
90.448725
 34
0.0
 50
90.0
100
AcDbRotatedDimension
1001
ACAD
1000
DSTYLE
1002
{
1070
   371
1070
    13
1070
   372
1070
    13
1070
   170
1070
     0
1070
   144
1040
1.0
1070
   277
1070
     2
1070
   284
1070
     8
1070
   278
1070
    44
1070
   146
1040
0.12
1070
   345
1005
16
1070
   347
1005
16
1070
   346
1005
16
1070
   344
1005
0
1070
   343
1005
0
1070
   172
1070
     1
1070
    76
1070
     0
1070
    75
1070
     0
1070
   282
1070
     0
1070
   281
1070
     0
1070
    71
1070
     0
1070
    74
1070
     0
1070
   279
1070
     0
1070
   173
1070
     1
1070
   340
1005
9B
1070
   271
1070
     3
1070
   272
1070
     2
1070
    77
1070
     1
1070
    73
1070
     0
1070
   171
1070
     3
1070
   274
1070
     4
1070
   177
1070
    18
1070
   176
1070
    18
1070
   178
1070
    18
1070
    78
1070
     8
1070
    48
1040
-0.1
1070
    41
1040
15.0
1070
   147
1040
5.0
1070
    42
1040
1.0
1070
    44
1040
2.0
1070
   140
1040
10.0
1002
}
1001
ACAD_DSTYLE_DIM_LINETYPE
1070
   380
1005
16
1001
ACAD_DSTYLE_DIM_EXT1_LINETYPE
1070
   381
1005
16
1001
ACAD_DSTYLE_DIM_EXT2_LINETYPE
1070
   382
1005
16
  0
DIMENSION
  5
CC
102
{ACAD_REACTORS
330
CE
102
}
102
{ACAD_XDICTIONARY
360
CD
102
}
330
1F
100
AcDbEntity
  8
1
  6
Continuous
 62
    18
370
    13
100
AcDbDimension
  2
_U2
 10
704.381557
 20
105.448725
 30
0.0
 11
704.381557
 21
275.448725
 31
0.0
 70
   160
 71
     1
 42
340.0
 52
90.0
  3
Standard
100
AcDbAlignedDimension
 13
400.36373
 23
445.448725
 33
0.0
 14
400.36373
 24
105.448725
 34
0.0
 50
90.0
100
AcDbRotatedDimension
1001
ACAD
1000
DSTYLE
1002
{
1070
   371
1070
    13
1070
   372
1070
    13
1070
   170
1070
     0
1070
   144
1040
1.0
1070
   277
1070
     2
1070
   284
1070
     8
1070
   278
1070
    44
1070
   146
1040
0.12
1070
   345
1005
16
1070
   347
1005
16
1070
   346
1005
16
1070
   344
1005
0
1070
   343
1005
0
1070
   172
1070
     1
1070
    76
1070
     0
1070
    75
1070
     0
1070
   282
1070
     0
1070
   281
1070
     0
1070
    71
1070
     0
1070
    74
1070
     0
1070
   279
1070
     0
1070
   173
1070
     1
1070
   340
1005
9B
1070
   271
1070
     3
1070
   272
1070
     2
1070
    77
1070
     1
1070
    73
1070
     0
1070
   171
1070
     3
1070
   274
1070
     4
1070
   177
1070
    18
1070
   176
1070
    18
1070
   178
1070
    18
1070
    78
1070
     8
1070
    48
1040
-0.1
1070
    41
1040
15.0
1070
   147
1040
5.0
1070
    42
1040
1.0
1070
    44
1040
2.0
1070
   140
1040
10.0
1002
}
1001
ACAD_DSTYLE_DIM_LINETYPE
1070
   380
1005
16
1001
ACAD_DSTYLE_DIM_EXT1_LINETYPE
1070
   381
1005
16
1001
ACAD_DSTYLE_DIM_EXT2_LINETYPE
1070
   382
1005
16
  0
DIMENSION
  5
E4
102
{ACAD_REACTORS
330
E6
102
}
102
{ACAD_XDICTIONARY
360
E5
102
}
330
1F
100
AcDbEntity
  8
1
  6
Continuous
 62
    18
370
    13
100
AcDbDimension
  2
_U3
 10
640.36373
 20
481.448725
 30
0.0
 11
400.36373
 21
481.448725
 31
0.0
 70
   160
 71
     1
 42
480.0
 52
90.0
  3
Standard
100
AcDbAlignedDimension
 13
160.36373
 23
275.448725
 33
0.0
 14
640.36373
 24
275.448725
 34
0.0
100
AcDbRotatedDimension
1001
ACAD
1000
DSTYLE
1002
{
1070
   371
1070
    13
1070
   372
1070
    13
1070
   170
1070
     0
1070
   144
1040
1.0
1070
   277
1070
     2
1070
   284
1070
     8
1070
   278
1070
    44
1070
   146
1040
0.12
1070
   345
1005
16
1070
   347
1005
16
1070
   346
1005
16
1070
   344
1005
0
1070
   343
1005
0
1070
   172
1070
     1
1070
    76
1070
     0
1070
    75
1070
     0
1070
   282
1070
     0
1070
   281
1070
     0
1070
    71
1070
     0
1070
    74
1070
     0
1070
   279
1070
     0
1070
   173
1070
     1
1070
   340
1005
9B
1070
   271
1070
     3
1070
   272
1070
     2
1070
    77
1070
     1
1070
    73
1070
     1
1070
   171
1070
     3
1070
   274
1070
     4
1070
   177
1070
    18
1070
   176
1070
    18
1070
   178
1070
    18
1070
    78
1070
     8
1070
    48
1040
-0.1
1070
    41
1040
15.0
1070
   147
1040
5.0
1070
    42
1040
1.0
1070
    44
1040
2.0
1070
   140
1040
10.0
1002
}
1001
ACAD_DSTYLE_DIM_LINETYPE
1070
   380
1005
16
1001
ACAD_DSTYLE_DIM_EXT1_LINETYPE
1070
   381
1005
16
1001
ACAD_DSTYLE_DIM_EXT2_LINETYPE
1070
   382
1005
16
  0
DIMENSION
  5
FC
102
{ACAD_REACTORS
330
FF
102
}
102
{ACAD_XDICTIONARY
360
FE
102
}
330
1F
100
AcDbEntity
  8
1
  6
Continuous
 62
    18
370
    13
100
AcDbDimension
  2
_U4
 10
242.634089
 20
361.185572
 30
0.0
 11
218.907335
 21
384.651425
 31
0.0
 70
   164
 71
     1
 42
80.0
  3
Standard
100
AcDbRadialDimension
 15
185.75368
 25
417.440519
 35
0.0
 40
0.0
1001
ACAD
1000
DSTYLE
1002
{
1070
   371
1070
    13
1070
   372
1070
    13
1070
     3
1000
R<>
1070
   170
1070
     0
1070
   144
1040
1.0
1070
   277
1070
     2
1070
   284
1070
     8
1070
   278
1070
    44
1070
   146
1040
0.12
1070
   345
1005
16
1070
   347
1005
16
1070
   346
1005
16
1070
   343
1005
0
1070
   344
1005
0
1070
    74
1070
     0
1070
    76
1070
     0
1070
    75
1070
     0
1070
   282
1070
     0
1070
   281
1070
     0
1070
    71
1070
     0
1070
   279
1070
     0
1070
   173
1070
     1
1070
   340
1005
9B
1070
   271
1070
     3
1070
   272
1070
     2
1070
    77
1070
     1
1070
    73
1070
     0
1070
   171
1070
     3
1070
   274
1070
     4
1070
   177
1070
    18
1070
   176
1070
    18
1070
   178
1070
    18
1070
    78
1070
     8
1070
    48
1040
-0.1
1070
    41
1040
15.0
1070
   147
1040
5.0
1070
    42
1040
1.0
1070
    44
1040
2.0
1070
   140
1040
10.0
1002
}
1001
ACAD_DSTYLE_DIMRADIAL_EXTENSION
1070
   387
1070
     1
1070
   388
1040
2.361723
1070
   390
1040
4.819381
1001
ACAD_DSTYLE_DIM_LINETYPE
1070
   380
1005
16
1001
ACAD_DSTYLE_DIM_EXT1_LINETYPE
1070
   381
1005
16
1001
ACAD_DSTYLE_DIM_EXT2_LINETYPE
1070
   382
1005
16
1001
ACAD_DSTYLE_DIMFLIPARROW_SYMBOL
1070
   385
1070
     0
1001
ACAD_DSTYLE_DIMFLIPARROW_WHICH_SYMBOL
1070
   386
1070
     1
  0
ENDSEC
  0
SECTION
  2
OBJECTS
  0
DICTIONARY
  5
C
330
0
100
AcDbDictionary
281
     1
  3
ACAD_DETAILVIEWSTYLE
350
168
  3
ACAD_GROUP
350
D
  3
ACAD_IMAGE_VARS
350
5E
  3
ACAD_LAYOUT
350
1A
  3
ACAD_MATERIAL
350
43
  3
ACAD_MLEADERSTYLE
350
5B
  3
ACAD_MLINESTYLE
350
17
  3
ACAD_PLOTSETTINGS
350
19
  3
ACAD_PLOTSTYLENAME
350
E
  3
ACAD_SCALELIST
350
47
  3
ACAD_SECTIONVIEWSTYLE
350
169
  3
ACAD_TABLESTYLE
350
59
  3
ACAD_VISUALSTYLE
350
2A
  3
ACDB_RECOMPOSE_DATA
350
165
  3
AcDbVariableDictionary
350
125
  0
DICTIONARY
  5
123
330
8
100
AcDbDictionary
280
     1
281
     1
  3
ACAD_XREC_ROUNDTRIP
360
124
  0
DICTIONARY
  5
9C
330
9A
100
AcDbDictionary
280
     1
281
     1
  3
ACAD_DIMASSOC
360
9D
  0
DICTIONARY
  5
B5
330
B4
100
AcDbDictionary
280
     1
281
     1
  3
ACAD_DIMASSOC
360
B6
  0
DICTIONARY
  5
CD
330
CC
100
AcDbDictionary
280
     1
281
     1
  3
ACAD_DIMASSOC
360
CE
  0
DICTIONARY
  5
E5
330
E4
100
AcDbDictionary
280
     1
281
     1
  3
ACAD_DIMASSOC
360
E6
  0
DICTIONARY
  5
FE
330
FC
100
AcDbDictionary
280
     1
281
     1
  3
ACAD_DIMASSOC
360
FF
  0
DICTIONARY
  5
168
102
{ACAD_REACTORS
330
C
102
}
330
C
100
AcDbDictionary
281
     1
  0
DICTIONARY
  5
D
102
{ACAD_REACTORS
330
C
102
}
330
C
100
AcDbDictionary
281
     1
  0
RASTERVARIABLES
  5
5E
102
{ACAD_REACTORS
330
C
102
}
330
C
100
AcDbRasterVariables
 90
        0
 70
     0
 71
     1
 72
     1
  0
DICTIONARY
  5
1A
102
{ACAD_REACTORS
330
C
102
}
330
C
100
AcDbDictionary
281
     1
  3
Layout1
350
1E
  3
Layout2
350
26
  3
Model
350
22
  0
DICTIONARY
  5
43
102
{ACAD_REACTORS
330
C
102
}
330
C
100
AcDbDictionary
281
     1
  3
ByBlock
350
45
  3
ByLayer
350
44
  3
Global
350
46
  0
DICTIONARY
  5
5B
102
{ACAD_REACTORS
330
C
102
}
330
C
100
AcDbDictionary
281
     1
  3
Standard
350
5C
  0
DICTIONARY
  5
17
102
{ACAD_REACTORS
330
C
102
}
330
C
100
AcDbDictionary
281
     1
  3
Standard
350
18
  0
DICTIONARY
  5
19
102
{ACAD_REACTORS
330
C
102
}
330
C
100
AcDbDictionary
281
     1
  0
ACDBDICTIONARYWDFLT
  5
E
102
{ACAD_REACTORS
330
C
102
}
330
C
100
AcDbDictionary
281
     1
  3
Normal
350
F
100
AcDbDictionaryWithDefault
340
F
  0
DICTIONARY
  5
47
102
{ACAD_REACTORS
330
C
102
}
330
C
100
AcDbDictionary
281
     1
  3
A0
350
48
  3
A1
350
49
  3
A2
350
4A
  3
A3
350
4B
  3
A4
350
4C
  3
A5
350
4D
  3
A6
350
4E
  3
A7
350
4F
  3
A8
350
50
  3
A9
350
51
  3
B1
350
52
  3
B2
350
53
  3
B3
350
54
  3
B4
350
55
  3
B5
350
56
  3
B6
350
57
  3
B7
350
58
  0
DICTIONARY
  5
169
102
{ACAD_REACTORS
330
C
102
}
330
C
100
AcDbDictionary
281
     1
  0
DICTIONARY
  5
59
102
{ACAD_REACTORS
330
C
102
}
330
C
100
AcDbDictionary
281
     1
  3
Standard
350
5A
  0
DICTIONARY
  5
2A
102
{ACAD_REACTORS
330
C
102
}
330
C
100
AcDbDictionary
281
     1
  3
2dWireframe
350
2F
  3
Basic
350
32
  3
Brighten
350
36
  3
ColorChange
350
3A
  3
Conceptual
350
34
  3
Dim
350
35
  3
EdgeColorOff
350
3D
  3
Facepattern
350
39
  3
Flat
350
2B
  3
FlatWithEdges
350
2C
  3
Gouraud
350
2D
  3
GouraudWithEdges
350
2E
  3
Hidden
350
31
  3
JitterOff
350
3B
  3
Linepattern
350
38
  3
OverhangOff
350
3C
  3
Realistic
350
33
  3
Shaded
350
42
  3
Shaded with edges
350
41
  3
Shades of Gray
350
3E
  3
Sketchy
350
3F
  3
Thicken
350
37
  3
Wireframe
350
30
  3
X-Ray
350
40
  0
XRECORD
  5
165
102
{ACAD_REACTORS
330
C
102
}
330
C
100
AcDbXrecord
280
     1
 90
        1
330
5A
  0
DICTIONARY
  5
125
102
{ACAD_REACTORS
330
C
102
}
330
C
100
AcDbDictionary
281
     1
  3
CANNOSCALE
350
126
  3
CMLEADERSTYLE
350
167
  3
CTABLESTYLE
350
166
  3
MSLTSCALE
350
127
  3
XCLIPFRAME
350
128
  0
XRECORD
  5
124
102
{ACAD_REACTORS
330
123
102
}
330
123
100
AcDbXrecord
280
     1
102
VTR_0.000_0.000_1.000_1.000_VISUALSTYLE
340
2F
102
VTR_0.000_0.000_1.000_1.000_GRIDDISPLAY
 70
     3
102
VTR_0.000_0.000_1.000_1.000_GRIDMAJOR
 70
     5
102
VTR_0.000_0.000_1.000_1.000_DEFAULTLIGHTING
280
     1
102
VTR_0.000_0.000_1.000_1.000_DEFAULTLIGHTINGTYPE
 70
     1
102
VTR_0.000_0.000_1.000_1.000_BRIGHTNESS
141
0.0
102
VTR_0.000_0.000_1.000_1.000_CONTRAST
142
0.0
102
VTR_0.000_0.000_0.500_1.000_VISUALSTYLE
340
2F
102
VTR_0.000_0.000_0.500_1.000_GRIDDISPLAY
 70
     3
102
VTR_0.000_0.000_0.500_1.000_GRIDMAJOR
 70
     5
102
VTR_0.000_0.000_0.500_1.000_DEFAULTLIGHTING
280
     1
102
VTR_0.000_0.000_0.500_1.000_DEFAULTLIGHTINGTYPE
 70
     1
102
VTR_0.000_0.000_0.500_1.000_BRIGHTNESS
141
0.0
102
VTR_0.000_0.000_0.500_1.000_CONTRAST
142
0.0
102
VTR_0.500_0.000_1.000_1.000_VISUALSTYLE
340
2F
102
VTR_0.500_0.000_1.000_1.000_GRIDDISPLAY
 70
     3
102
VTR_0.500_0.000_1.000_1.000_GRIDMAJOR
 70
     5
102
VTR_0.500_0.000_1.000_1.000_DEFAULTLIGHTING
280
     1
102
VTR_0.500_0.000_1.000_1.000_DEFAULTLIGHTINGTYPE
 70
     1
102
VTR_0.500_0.000_1.000_1.000_BRIGHTNESS
141
0.0
102
VTR_0.500_0.000_1.000_1.000_CONTRAST
142
0.0
102
VTR_0.000_0.500_1.000_1.000_VISUALSTYLE
340
2F
102
VTR_0.000_0.500_1.000_1.000_GRIDDISPLAY
 70
     3
102
VTR_0.000_0.500_1.000_1.000_GRIDMAJOR
 70
     5
102
VTR_0.000_0.500_1.000_1.000_DEFAULTLIGHTING
280
     1
102
VTR_0.000_0.500_1.000_1.000_DEFAULTLIGHTINGTYPE
 70
     1
102
VTR_0.000_0.500_1.000_1.000_BRIGHTNESS
141
0.0
102
VTR_0.000_0.500_1.000_1.000_CONTRAST
142
0.0
102
VTR_0.000_0.000_1.000_0.500_VISUALSTYLE
340
2F
102
VTR_0.000_0.000_1.000_0.500_GRIDDISPLAY
 70
     3
102
VTR_0.000_0.000_1.000_0.500_GRIDMAJOR
 70
     5
102
VTR_0.000_0.000_1.000_0.500_DEFAULTLIGHTING
280
     1
102
VTR_0.000_0.000_1.000_0.500_DEFAULTLIGHTINGTYPE
 70
     1
102
VTR_0.000_0.000_1.000_0.500_BRIGHTNESS
141
0.0
102
VTR_0.000_0.000_1.000_0.500_CONTRAST
142
0.0
102
VTR_0.000_0.500_0.500_1.000_VISUALSTYLE
340
2F
102
VTR_0.000_0.500_0.500_1.000_GRIDDISPLAY
 70
     3
102
VTR_0.000_0.500_0.500_1.000_GRIDMAJOR
 70
     5
102
VTR_0.000_0.500_0.500_1.000_DEFAULTLIGHTING
280
     1
102
VTR_0.000_0.500_0.500_1.000_DEFAULTLIGHTINGTYPE
 70
     1
102
VTR_0.000_0.500_0.500_1.000_BRIGHTNESS
141
0.0
102
VTR_0.000_0.500_0.500_1.000_CONTRAST
142
0.0
102
VTR_0.000_0.000_0.500_0.500_VISUALSTYLE
340
2F
102
VTR_0.000_0.000_0.500_0.500_GRIDDISPLAY
 70
     3
102
VTR_0.000_0.000_0.500_0.500_GRIDMAJOR
 70
     5
102
VTR_0.000_0.000_0.500_0.500_DEFAULTLIGHTING
280
     1
102
VTR_0.000_0.000_0.500_0.500_DEFAULTLIGHTINGTYPE
 70
     1
102
VTR_0.000_0.000_0.500_0.500_BRIGHTNESS
141
0.0
102
VTR_0.000_0.000_0.500_0.500_CONTRAST
142
0.0
102
VTR_0.500_0.000_1.000_0.500_VISUALSTYLE
340
2F
102
VTR_0.500_0.000_1.000_0.500_GRIDDISPLAY
 70
     3
102
VTR_0.500_0.000_1.000_0.500_GRIDMAJOR
 70
     5
102
VTR_0.500_0.000_1.000_0.500_DEFAULTLIGHTING
280
     1
102
VTR_0.500_0.000_1.000_0.500_DEFAULTLIGHTINGTYPE
 70
     1
102
VTR_0.500_0.000_1.000_0.500_BRIGHTNESS
141
0.0
102
VTR_0.500_0.000_1.000_0.500_CONTRAST
142
0.0
102
VTR_0.500_0.500_1.000_1.000_VISUALSTYLE
340
2F
102
VTR_0.500_0.500_1.000_1.000_GRIDDISPLAY
 70
     3
102
VTR_0.500_0.500_1.000_1.000_GRIDMAJOR
 70
     5
102
VTR_0.500_0.500_1.000_1.000_DEFAULTLIGHTING
280
     1
102
VTR_0.500_0.500_1.000_1.000_DEFAULTLIGHTINGTYPE
 70
     1
102
VTR_0.500_0.500_1.000_1.000_BRIGHTNESS
141
0.0
102
VTR_0.500_0.500_1.000_1.000_CONTRAST
142
0.0
102
VTR_0.000_0.500_0.333_1.000_VISUALSTYLE
340
2F
102
VTR_0.000_0.500_0.333_1.000_GRIDDISPLAY
 70
     3
102
VTR_0.000_0.500_0.333_1.000_GRIDMAJOR
 70
     5
102
VTR_0.000_0.500_0.333_1.000_DEFAULTLIGHTING
280
     1
102
VTR_0.000_0.500_0.333_1.000_DEFAULTLIGHTINGTYPE
 70
     1
102
VTR_0.000_0.500_0.333_1.000_BRIGHTNESS
141
0.0
102
VTR_0.000_0.500_0.333_1.000_CONTRAST
142
0.0
102
VTR_0.000_0.000_0.333_0.500_VISUALSTYLE
340
2F
102
VTR_0.000_0.000_0.333_0.500_GRIDDISPLAY
 70
     3
102
VTR_0.000_0.000_0.333_0.500_GRIDMAJOR
 70
     5
102
VTR_0.000_0.000_0.333_0.500_DEFAULTLIGHTING
280
     1
102
VTR_0.000_0.000_0.333_0.500_DEFAULTLIGHTINGTYPE
 70
     1
102
VTR_0.000_0.000_0.333_0.500_BRIGHTNESS
141
0.0
102
VTR_0.000_0.000_0.333_0.500_CONTRAST
142
0.0
102
VTR_0.333_0.500_0.667_1.000_VISUALSTYLE
340
2F
102
VTR_0.333_0.500_0.667_1.000_GRIDDISPLAY
 70
     3
102
VTR_0.333_0.500_0.667_1.000_GRIDMAJOR
 70
     5
102
VTR_0.333_0.500_0.667_1.000_DEFAULTLIGHTING
280
     1
102
VTR_0.333_0.500_0.667_1.000_DEFAULTLIGHTINGTYPE
 70
     1
102
VTR_0.333_0.500_0.667_1.000_BRIGHTNESS
141
0.0
102
VTR_0.333_0.500_0.667_1.000_CONTRAST
142
0.0
102
VTR_0.333_0.000_0.667_0.500_VISUALSTYLE
340
2F
102
VTR_0.333_0.000_0.667_0.500_GRIDDISPLAY
 70
     3
102
VTR_0.333_0.000_0.667_0.500_GRIDMAJOR
 70
     5
102
VTR_0.333_0.000_0.667_0.500_DEFAULTLIGHTING
280
     1
102
VTR_0.333_0.000_0.667_0.500_DEFAULTLIGHTINGTYPE
 70
     1
102
VTR_0.333_0.000_0.667_0.500_BRIGHTNESS
141
0.0
102
VTR_0.333_0.000_0.667_0.500_CONTRAST
142
0.0
102
VTR_0.667_0.500_1.000_1.000_VISUALSTYLE
340
2F
102
VTR_0.667_0.500_1.000_1.000_GRIDDISPLAY
 70
     3
102
VTR_0.667_0.500_1.000_1.000_GRIDMAJOR
 70
     5
102
VTR_0.667_0.500_1.000_1.000_DEFAULTLIGHTING
280
     1
102
VTR_0.667_0.500_1.000_1.000_DEFAULTLIGHTINGTYPE
 70
     1
102
VTR_0.667_0.500_1.000_1.000_BRIGHTNESS
141
0.0
102
VTR_0.667_0.500_1.000_1.000_CONTRAST
142
0.0
102
VTR_0.667_0.000_1.000_0.500_VISUALSTYLE
340
2F
102
VTR_0.667_0.000_1.000_0.500_GRIDDISPLAY
 70
     3
102
VTR_0.667_0.000_1.000_0.500_GRIDMAJOR
 70
     5
102
VTR_0.667_0.000_1.000_0.500_DEFAULTLIGHTING
280
     1
102
VTR_0.667_0.000_1.000_0.500_DEFAULTLIGHTINGTYPE
 70
     1
102
VTR_0.667_0.000_1.000_0.500_BRIGHTNESS
141
0.0
102
VTR_0.667_0.000_1.000_0.500_CONTRAST
142
0.0
  0
DIMASSOC
  5
9D
102
{ACAD_REACTORS
330
9C
102
}
330
9C
100
AcDbDimAssoc
330
9A
 90
        3
 70
     0
 71
     1
  1
AcDbOsnapPointRef
 72
    13
331
98
 73
     2
 91
        1
 40
0.0
 10
655.36373
 20
275.448684
 30
0.0
 75
     0
  1
AcDbOsnapPointRef
 72
     1
331
75
 73
     0
 91
        2
 40
3.141593
 10
145.36373
 20
275.448764
 30
0.0
 75
     0
  0
DIMASSOC
  5
B6
102
{ACAD_REACTORS
330
B5
102
}
330
B5
100
AcDbDimAssoc
330
B4
 90
        3
 70
     0
 71
     1
  1
AcDbOsnapPointRef
 72
    10
331
73
 73
     0
 91
        1
 40
1.570796
 10
400.36373
 20
460.448725
 30
0.0
 75
     0
  1
AcDbOsnapPointRef
 72
    10
331
77
 73
     0
 91
        2
 40
4.712389
 10
400.36373
 20
90.448725
 30
0.0
 75
     0
  0
DIMASSOC
  5
CE
102
{ACAD_REACTORS
330
CD
102
}
330
CD
100
AcDbDimAssoc
330
CC
 90
        3
 70
     0
 71
     1
  1
AcDbOsnapPointRef
 72
    10
331
6D
 73
     0
 91
        1
 40
1.570796
 10
400.36373
 20
445.448725
 30
0.0
 75
     0
  1
AcDbOsnapPointRef
 72
    10
331
6F
 73
     0
 91
        2
 40
4.712389
 10
400.36373
 20
105.448725
 30
0.0
 75
     0
  0
DIMASSOC
  5
E6
102
{ACAD_REACTORS
330
E5
102
}
330
E5
100
AcDbDimAssoc
330
E4
 90
        3
 70
     0
 71
     1
  1
AcDbOsnapPointRef
 72
    10
331
6E
 73
     0
 91
        1
 40
3.141593
 10
160.36373
 20
275.448725
 30
0.0
 75
     0
  1
AcDbOsnapPointRef
 72
    10
331
6C
 73
     0
 91
        2
 40
6.283185
 10
640.36373
 20
275.448725
 30
0.0
 75
     0
  0
DIMASSOC
  5
FF
102
{ACAD_REACTORS
330
FE
102
}
330
FE
100
AcDbDimAssoc
330
FC
 90
        2
 70
     0
 71
     1
  1
AcDbOsnapPointRef
 72
     3
331
70
 73
     2
 91
        1
 40
0.0
 10
242.634089
 20
361.185572
 30
0.0
 75
     0
  0
LAYOUT
  5
1E
102
{ACAD_REACTORS
330
1A
102
}
330
1A
100
AcDbPlotSettings
  1

  2
none_device
  4

  6

 40
0.0
 41
0.0
 42
0.0
 43
0.0
 44
0.0
 45
0.0
 46
0.0
 47
0.0
 48
0.0
 49
0.0
140
0.0
141
0.0
142
1.0
143
1.0
 70
   688
 72
     0
 73
     0
 74
     5
  7

 75
    16
 76
     0
 77
     2
 78
   300
147
1.0
148
0.0
149
0.0
100
AcDbLayout
  1
Layout1
 70
     1
 71
     1
 10
-0.5
 20
-0.5
 11
5.0
 21
5.0
 12
0.0
 22
0.0
 32
0.0
 14
-0.5
 24
-0.5
 34
-0.5
 15
5.0
 25
5.0
 35
5.0
146
0.0
 13
0.0
 23
0.0
 33
0.0
 16
1.0
 26
0.0
 36
0.0
 17
0.0
 27
1.0
 37
0.0
 76
     0
330
1B
  0
LAYOUT
  5
26
102
{ACAD_REACTORS
330
1A
102
}
330
1A
100
AcDbPlotSettings
  1

  2
none_device
  4

  6

 40
0.0
 41
0.0
 42
0.0
 43
0.0
 44
0.0
 45
0.0
 46
0.0
 47
0.0
 48
0.0
 49
0.0
140
0.0
141
0.0
142
1.0
143
1.0
 70
   688
 72
     0
 73
     0
 74
     5
  7

 75
    16
 76
     0
 77
     2
 78
   300
147
1.0
148
0.0
149
0.0
100
AcDbLayout
  1
Layout2
 70
     1
 71
     2
 10
0.0
 20
0.0
 11
0.0
 21
0.0
 12
0.0
 22
0.0
 32
0.0
 14
0.0
 24
0.0
 34
0.0
 15
0.0
 25
0.0
 35
0.0
146
0.0
 13
0.0
 23
0.0
 33
0.0
 16
1.0
 26
0.0
 36
0.0
 17
0.0
 27
1.0
 37
0.0
 76
     0
330
23
  0
LAYOUT
  5
22
102
{ACAD_REACTORS
330
1A
102
}
330
1A
100
AcDbPlotSettings
  1

  2
none_device
  4
Letter_(8.50_x_11.00_Inches)
  6

 40
6.35
 41
6.35
 42
6.350005
 43
6.350005
 44
215.9
 45
279.4
 46
0.0
 47
0.0
 48
0.0
 49
0.0
140
0.0
141
0.0
142
1.0
143
1.0
 70
  1712
 72
     0
 73
     0
 74
     0
  7

 75
     0
 76
     0
 77
     2
 78
   300
147
1.0
148
0.0
149
0.0
100
AcDbLayout
  1
Model
 70
     1
 71
     0
 10
-0.5
 20
-0.5
 11
5.0
 21
5.0
 12
0.0
 22
0.0
 32
0.0
 14
-0.5
 24
-0.5
 34
-0.5
 15
5.0
 25
5.0
 35
5.0
146
0.0
 13
0.0
 23
0.0
 33
0.0
 16
1.0
 26
0.0
 36
0.0
 17
0.0
 27
1.0
 37
0.0
 76
     0
330
1F
331
29
  0
MATERIAL
  5
45
102
{ACAD_REACTORS
330
43
102
}
102
{ACAD_XDICTIONARY
360
15B
102
}
330
43
100
AcDbMaterial
  1
ByBlock
  0
MATERIAL
  5
44
102
{ACAD_REACTORS
330
43
102
}
102
{ACAD_XDICTIONARY
360
159
102
}
330
43
100
AcDbMaterial
  1
ByLayer
  0
MATERIAL
  5
46
102
{ACAD_REACTORS
330
43
102
}
102
{ACAD_XDICTIONARY
360
15D
102
}
330
43
100
AcDbMaterial
  1
Global
  0
MLEADERSTYLE
  5
5C
102
{ACAD_REACTORS
330
5B
102
}
102
{ACAD_XDICTIONARY
360
163
102
}
330
5B
100
AcDbMLeaderStyle
170
     2
171
     1
172
     0
 90
        2
 40
0.0
 41
0.0
173
     1
 91
-1056964608
340
14
 92
       -2
290
     1
 42
0.09
291
     1
 43
0.36
  3
Standard
341
0
 44
0.18
300

342
11
174
     1
178
     6
175
     1
176
     0
 93
-1056964608
 45
0.18
292
     0
297
     0
 46
0.18
343
0
 94
-1056964608
 47
1.0
 49
1.0
140
1.0
293
     1
141
0.0
294
     1
177
     0
142
1.0
295
     0
296
     0
143
0.125
1001
ACAD_MLEADERVER
1070
     2
  0
MLINESTYLE
  5
18
102
{ACAD_REACTORS
330
17
102
}
330
17
100
AcDbMlineStyle
  2
Standard
 70
     0
  3

 62
   256
 51
90.0
 52
90.0
 71
     2
 49
0.5
 62
   256
  6
BYLAYER
 49
-0.5
 62
   256
  6
BYLAYER
  0
ACDBPLACEHOLDER
  5
F
102
{ACAD_REACTORS
330
E
102
}
330
E
  0
SCALE
  5
48
102
{ACAD_REACTORS
330
47
102
}
330
47
100
AcDbScale
 70
     0
300
1:1
140
1.0
141
1.0
290
     1
  0
SCALE
  5
49
102
{ACAD_REACTORS
330
47
102
}
330
47
100
AcDbScale
 70
     0
300
1/128" = 1'-0"
140
0.007813
141
12.0
290
     0
  0
SCALE
  5
4A
102
{ACAD_REACTORS
330
47
102
}
330
47
100
AcDbScale
 70
     0
300
1/64" = 1'-0"
140
0.015625
141
12.0
290
     0
  0
SCALE
  5
4B
102
{ACAD_REACTORS
330
47
102
}
330
47
100
AcDbScale
 70
     0
300
1/32" = 1'-0"
140
0.03125
141
12.0
290
     0
  0
SCALE
  5
4C
102
{ACAD_REACTORS
330
47
102
}
330
47
100
AcDbScale
 70
     0
300
1/16" = 1'-0"
140
0.0625
141
12.0
290
     0
  0
SCALE
  5
4D
102
{ACAD_REACTORS
330
47
102
}
330
47
100
AcDbScale
 70
     0
300
3/32" = 1'-0"
140
0.09375
141
12.0
290
     0
  0
SCALE
  5
4E
102
{ACAD_REACTORS
330
47
102
}
330
47
100
AcDbScale
 70
     0
300
1/8" = 1'-0"
140
0.125
141
12.0
290
     0
  0
SCALE
  5
4F
102
{ACAD_REACTORS
330
47
102
}
330
47
100
AcDbScale
 70
     0
300
3/16" = 1'-0"
140
0.1875
141
12.0
290
     0
  0
SCALE
  5
50
102
{ACAD_REACTORS
330
47
102
}
330
47
100
AcDbScale
 70
     0
300
1/4" = 1'-0"
140
0.25
141
12.0
290
     0
  0
SCALE
  5
51
102
{ACAD_REACTORS
330
47
102
}
330
47
100
AcDbScale
 70
     0
300
3/8" = 1'-0"
140
0.375
141
12.0
290
     0
  0
SCALE
  5
52
102
{ACAD_REACTORS
330
47
102
}
330
47
100
AcDbScale
 70
     0
300
1/2" = 1'-0"
140
0.5
141
12.0
290
     0
  0
SCALE
  5
53
102
{ACAD_REACTORS
330
47
102
}
330
47
100
AcDbScale
 70
     0
300
3/4" = 1'-0"
140
0.75
141
12.0
290
     0
  0
SCALE
  5
54
102
{ACAD_REACTORS
330
47
102
}
330
47
100
AcDbScale
 70
     0
300
1" = 1'-0"
140
1.0
141
12.0
290
     0
  0
SCALE
  5
55
102
{ACAD_REACTORS
330
47
102
}
330
47
100
AcDbScale
 70
     0
300
1-1/2" = 1'-0"
140
1.5
141
12.0
290
     0
  0
SCALE
  5
56
102
{ACAD_REACTORS
330
47
102
}
330
47
100
AcDbScale
 70
     0
300
3" = 1'-0"
140
3.0
141
12.0
290
     0
  0
SCALE
  5
57
102
{ACAD_REACTORS
330
47
102
}
330
47
100
AcDbScale
 70
     0
300
6" = 1'-0"
140
6.0
141
12.0
290
     0
  0
SCALE
  5
58
102
{ACAD_REACTORS
330
47
102
}
330
47
100
AcDbScale
 70
     0
300
1'-0" = 1'-0"
140
12.0
141
12.0
290
     0
  0
TABLESTYLE
  5
5A
102
{ACAD_REACTORS
330
59
102
}
102
{ACAD_XDICTIONARY
360
15F
102
}
330
59
100
AcDbTableStyle
  3
Standard
 70
     0
 71
     0
 40
0.06
 41
0.06
280
     0
281
     0
  7
Standard
140
0.18
170
     2
 62
     0
 63
   257
283
     0
274
    -2
284
     1
 64
     0
275
    -2
285
     1
 65
     0
276
    -2
286
     1
 66
     0
277
    -2
287
     1
 67
     0
278
    -2
288
     1
 68
     0
279
    -2
289
     1
 69
     0
  7
Standard
140
0.25
170
     5
 62
     0
 63
   257
283
     0
274
    -2
284
     1
 64
     0
275
    -2
285
     1
 65
     0
276
    -2
286
     1
 66
     0
277
    -2
287
     1
 67
     0
278
    -2
288
     1
 68
     0
279
    -2
289
     1
 69
     0
  7
Standard
140
0.18
170
     5
 62
     0
 63
   257
283
     0
274
    -2
284
     1
 64
     0
275
    -2
285
     1
 65
     0
276
    -2
286
     1
 66
     0
277
    -2
287
     1
 67
     0
278
    -2
288
     1
 68
     0
279
    -2
289
     1
 69
     0
  0
VISUALSTYLE
  5
2F
102
{ACAD_REACTORS
330
2A
102
}
102
{ACAD_XDICTIONARY
360
131
102
}
330
2A
100
AcDbVisualStyle
  2
2dWireframe
 70
     4
 71
     0
 72
     2
 73
     0
 90
        0
 40
0.6
 41
30.0
 62
     5
 63
     7
421
 16777215
 74
     1
 91
        4
 64
     7
 65
   257
 75
     1
175
     1
 42
1.0
 92
        0
 66
   257
 43
1.0
 76
     1
 77
     6
 78
     2
 67
     7
 79
     5
170
     0
171
     0
290
     0
174
     0
 93
        1
 44
0.0
173
     0
291
     0
 45
0.0
1001
ACAD
1000
AcDbSavedByObjectVersion
1070
     0
  0
VISUALSTYLE
  5
32
102
{ACAD_REACTORS
330
2A
102
}
102
{ACAD_XDICTIONARY
360
137
102
}
330
2A
100
AcDbVisualStyle
  2
Basic
 70
     7
 71
     1
 72
     0
 73
     1
 90
        0
 40
0.6
 41
30.0
 62
     5
 63
     7
421
 16777215
 74
     0
 91
        4
 64
     7
 65
   257
 75
     1
175
     1
 42
1.0
 92
        8
 66
     7
 43
1.0
 76
     1
 77
     6
 78
     2
 67
     7
 79
     5
170
     0
171
     0
290
     0
174
     0
 93
        1
 44
0.0
173
     0
291
     1
 45
0.0
1001
ACAD
1000
AcDbSavedByObjectVersion
1070
     0
  0
VISUALSTYLE
  5
36
102
{ACAD_REACTORS
330
2A
102
}
102
{ACAD_XDICTIONARY
360
13F
102
}
330
2A
100
AcDbVisualStyle
  2
Brighten
 70
    12
 71
     2
 72
     2
 73
     0
 90
        0
 40
0.6
 41
30.0
 62
     5
 63
     7
421
 16777215
 74
     1
 91
        4
 64
     7
 65
   257
 75
     1
175
     1
 42
1.0
 92
        8
 66
     7
 43
1.0
 76
     1
 77
     6
 78
     2
 67
     7
 79
     5
170
     0
171
     0
290
     0
174
     0
 93
        1
 44
50.0
173
     0
291
     1
 45
0.0
1001
ACAD
1000
AcDbSavedByObjectVersion
1070
     0
  0
VISUALSTYLE
  5
3A
102
{ACAD_REACTORS
330
2A
102
}
102
{ACAD_XDICTIONARY
360
147
102
}
330
2A
100
AcDbVisualStyle
  2
ColorChange
 70
    16
 71
     2
 72
     2
 73
     3
 90
        0
 40
0.6
 41
30.0
 62
     5
 63
     8
421
  8421504
 74
     1
 91
        4
 64
     7
 65
   257
 75
     1
175
     1
 42
1.0
 92
        8
 66
     8
424
  8421504
 43
1.0
 76
     1
 77
     6
 78
     2
 67
     7
 79
     5
170
     0
171
     0
290
     0
174
     0
 93
        1
 44
0.0
173
     0
291
     1
 45
0.0
1001
ACAD
1000
AcDbSavedByObjectVersion
1070
     0
  0
VISUALSTYLE
  5
34
102
{ACAD_REACTORS
330
2A
102
}
102
{ACAD_XDICTIONARY
360
13B
102
}
330
2A
100
AcDbVisualStyle
  2
Conceptual
 70
     9
 71
     3
 72
     2
 73
     0
 90
        0
 40
0.6
 41
30.0
 62
     5
 63
     7
421
 16777215
 74
     2
 91
        2
 64
     7
 65
   257
 75
     1
175
     1
 42
179.0
 92
        8
 66
     7
 43
1.0
 76
     1
 77
     6
 78
     2
 67
     7
 79
     3
170
     0
171
     0
290
     0
174
     0
 93
        1
 44
0.0
173
     0
291
     0
 45
0.0
1001
ACAD
1000
AcDbSavedByObjectVersion
1070
     0
  0
VISUALSTYLE
  5
35
102
{ACAD_REACTORS
330
2A
102
}
102
{ACAD_XDICTIONARY
360
13D
102
}
330
2A
100
AcDbVisualStyle
  2
Dim
 70
    11
 71
     2
 72
     2
 73
     0
 90
        0
 40
0.6
 41
30.0
 62
     5
 63
     7
421
 16777215
 74
     1
 91
        4
 64
     7
 65
   257
 75
     1
175
     1
 42
1.0
 92
        8
 66
     7
 43
1.0
 76
     1
 77
     6
 78
     2
 67
     7
 79
     5
170
     0
171
     0
290
     0
174
     0
 93
        1
 44
-50.0
173
     0
291
     1
 45
0.0
1001
ACAD
1000
AcDbSavedByObjectVersion
1070
     0
  0
VISUALSTYLE
  5
3D
102
{ACAD_REACTORS
330
2A
102
}
102
{ACAD_XDICTIONARY
360
14D
102
}
330
2A
100
AcDbVisualStyle
  2
EdgeColorOff
 70
    22
 71
     2
 72
     2
 73
     0
 90
        0
 40
0.6
 41
30.0
 62
     5
 63
     7
421
 16777215
 74
     1
 91
        4
 64
     7
 65
   257
 75
     1
175
     1
 42
1.0
 92
        8
 66
     7
 43
1.0
 76
     1
 77
     6
 78
     2
 67
     7
 79
     5
170
     0
171
     0
290
     0
174
     0
 93
        1
 44
0.0
173
     0
291
     1
 45
0.0
1001
ACAD
1000
AcDbSavedByObjectVersion
1070
     0
  0
VISUALSTYLE
  5
39
102
{ACAD_REACTORS
330
2A
102
}
102
{ACAD_XDICTIONARY
360
145
102
}
330
2A
100
AcDbVisualStyle
  2
Facepattern
 70
    15
 71
     2
 72
     2
 73
     0
 90
        0
 40
0.6
 41
30.0
 62
     5
 63
     7
421
 16777215
 74
     1
 91
        4
 64
     7
 65
   257
 75
     1
175
     1
 42
1.0
 92
        8
 66
     7
 43
1.0
 76
     1
 77
     6
 78
     2
 67
     7
 79
     5
170
     0
171
     0
290
     0
174
     0
 93
        1
 44
0.0
173
     0
291
     1
 45
0.0
1001
ACAD
1000
AcDbSavedByObjectVersion
1070
     0
  0
VISUALSTYLE
  5
2B
102
{ACAD_REACTORS
330
2A
102
}
102
{ACAD_XDICTIONARY
360
129
102
}
330
2A
100
AcDbVisualStyle
  2
Flat
 70
     0
 71
     2
 72
     1
 73
     1
 90
        2
 40
0.6
 41
30.0
 62
     5
 63
     7
421
 16777215
 74
     0
 91
        0
 64
     7
 65
   257
 75
     1
175
     1
 42
1.0
 92
        8
 66
     7
 43
1.0
 76
     1
 77
     6
 78
     2
 67
     7
 79
     5
170
     0
171
     0
290
     0
174
     0
 93
       13
 44
0.0
173
     0
291
     1
 45
0.0
1001
ACAD
1000
AcDbSavedByObjectVersion
1070
     0
  0
VISUALSTYLE
  5
2C
102
{ACAD_REACTORS
330
2A
102
}
102
{ACAD_XDICTIONARY
360
12B
102
}
330
2A
100
AcDbVisualStyle
  2
FlatWithEdges
 70
     1
 71
     2
 72
     1
 73
     1
 90
        2
 40
0.6
 41
30.0
 62
     5
 63
     7
421
 16777215
 74
     1
 91
        0
 64
     7
 65
   257
 75
     1
175
     1
 42
1.0
 92
        0
 66
   257
 43
1.0
 76
     1
 77
     6
 78
     2
 67
     7
 79
     5
170
     0
171
     0
290
     0
174
     0
 93
       13
 44
0.0
173
     0
291
     1
 45
0.0
1001
ACAD
1000
AcDbSavedByObjectVersion
1070
     0
  0
VISUALSTYLE
  5
2D
102
{ACAD_REACTORS
330
2A
102
}
102
{ACAD_XDICTIONARY
360
12D
102
}
330
2A
100
AcDbVisualStyle
  2
Gouraud
 70
     2
 71
     2
 72
     2
 73
     1
 90
        2
 40
0.6
 41
30.0
 62
     5
 63
     7
421
 16777215
 74
     0
 91
        0
 64
     7
 65
   257
 75
     1
175
     1
 42
1.0
 92
        0
 66
     7
 43
1.0
 76
     1
 77
     6
 78
     2
 67
     7
 79
     5
170
     0
171
     0
290
     0
174
     0
 93
       13
 44
0.0
173
     0
291
     1
 45
0.0
1001
ACAD
1000
AcDbSavedByObjectVersion
1070
     0
  0
VISUALSTYLE
  5
2E
102
{ACAD_REACTORS
330
2A
102
}
102
{ACAD_XDICTIONARY
360
12F
102
}
330
2A
100
AcDbVisualStyle
  2
GouraudWithEdges
 70
     3
 71
     2
 72
     2
 73
     1
 90
        2
 40
0.6
 41
30.0
 62
     5
 63
     7
421
 16777215
 74
     1
 91
        0
 64
     7
 65
   257
 75
     1
175
     1
 42
1.0
 92
        0
 66
   257
 43
1.0
 76
     1
 77
     6
 78
     2
 67
     7
 79
     5
170
     0
171
     0
290
     0
174
     0
 93
       13
 44
0.0
173
     0
291
     1
 45
0.0
1001
ACAD
1000
AcDbSavedByObjectVersion
1070
     0
  0
VISUALSTYLE
  5
31
102
{ACAD_REACTORS
330
2A
102
}
102
{ACAD_XDICTIONARY
360
135
102
}
330
2A
100
AcDbVisualStyle
  2
Hidden
 70
     6
 71
     1
 72
     2
 73
     2
 90
        0
 40
0.6
 41
30.0
 62
     5
 63
     7
421
 16777215
 74
     2
 91
        2
 64
     7
 65
   257
 75
     2
175
     1
 42
40.0
 92
        0
 66
   257
 43
1.0
 76
     1
 77
     6
 78
     2
 67
     7
 79
     3
170
     0
171
     0
290
     0
174
     0
 93
        1
 44
0.0
173
     0
291
     0
 45
0.0
1001
ACAD
1000
AcDbSavedByObjectVersion
1070
     0
  0
VISUALSTYLE
  5
3B
102
{ACAD_REACTORS
330
2A
102
}
102
{ACAD_XDICTIONARY
360
149
102
}
330
2A
100
AcDbVisualStyle
  2
JitterOff
 70
    20
 71
     2
 72
     2
 73
     0
 90
        0
 40
0.6
 41
30.0
 62
     5
 63
     7
421
 16777215
 74
     1
 91
        4
 64
     7
 65
   257
 75
     1
175
     1
 42
1.0
 92
       10
 66
     7
 43
1.0
 76
     1
 77
     6
 78
     2
 67
     7
 79
     5
170
     0
171
     0
290
     0
174
     0
 93
        1
 44
0.0
173
     0
291
     1
 45
0.0
1001
ACAD
1000
AcDbSavedByObjectVersion
1070
     0
  0
VISUALSTYLE
  5
38
102
{ACAD_REACTORS
330
2A
102
}
102
{ACAD_XDICTIONARY
360
143
102
}
330
2A
100
AcDbVisualStyle
  2
Linepattern
 70
    14
 71
     2
 72
     2
 73
     0
 90
        0
 40
0.6
 41
30.0
 62
     5
 63
     7
421
 16777215
 74
     1
 91
        4
 64
     7
 65
   257
 75
     7
175
     7
 42
1.0
 92
        8
 66
     7
 43
1.0
 76
     1
 77
     6
 78
     2
 67
     7
 79
     5
170
     0
171
     0
290
     0
174
     0
 93
        1
 44
0.0
173
     0
291
     1
 45
0.0
1001
ACAD
1000
AcDbSavedByObjectVersion
1070
     0
  0
VISUALSTYLE
  5
3C
102
{ACAD_REACTORS
330
2A
102
}
102
{ACAD_XDICTIONARY
360
14B
102
}
330
2A
100
AcDbVisualStyle
  2
OverhangOff
 70
    21
 71
     2
 72
     2
 73
     0
 90
        0
 40
0.6
 41
30.0
 62
     5
 63
     7
421
 16777215
 74
     1
 91
        4
 64
     7
 65
   257
 75
     1
175
     1
 42
1.0
 92
        9
 66
     7
 43
1.0
 76
     1
 77
     6
 78
     2
 67
     7
 79
     5
170
     0
171
     0
290
     0
174
     0
 93
        1
 44
0.0
173
     0
291
     1
 45
0.0
1001
ACAD
1000
AcDbSavedByObjectVersion
1070
     0
  0
VISUALSTYLE
  5
33
102
{ACAD_REACTORS
330
2A
102
}
102
{ACAD_XDICTIONARY
360
139
102
}
330
2A
100
AcDbVisualStyle
  2
Realistic
 70
     8
 71
     2
 72
     3
 73
     0
 90
        2
 40
0.6
 41
30.0
 62
     5
 63
     7
421
 16777215
 74
     0
 91
        0
 64
     7
 65
   257
 75
     1
175
     1
 42
1.0
 92
        8
 66
   257
 43
1.0
 76
     1
 77
     6
 78
     2
 67
     7
 79
     3
170
     0
171
     0
290
     0
174
     0
 93
       13
 44
0.0
173
     0
291
     0
 45
0.0
1001
ACAD
1000
AcDbSavedByObjectVersion
1070
     0
  0
VISUALSTYLE
  5
42
102
{ACAD_REACTORS
330
2A
102
}
102
{ACAD_XDICTIONARY
360
157
102
}
330
2A
100
AcDbVisualStyle
  2
Shaded
 70
    27
 71
     2
 72
     2
 73
     1
 90
        2
 40
0.6
 41
30.0
 62
     5
 63
     7
421
 16777215
 74
     0
 91
        4
 64
     7
 65
   257
 75
     1
175
     1
 42
1.0
 92
        8
 66
   257
 43
1.0
 76
     1
 77
     6
 78
     2
 67
     8
425
  7895160
 79
     3
170
     0
171
     0
290
     0
174
     0
 93
        5
 44
0.0
173
     0
291
     0
 45
0.0
1001
ACAD
1000
AcDbSavedByObjectVersion
1070
     0
  0
VISUALSTYLE
  5
41
102
{ACAD_REACTORS
330
2A
102
}
102
{ACAD_XDICTIONARY
360
155
102
}
330
2A
100
AcDbVisualStyle
  2
Shaded with edges
 70
    26
 71
     2
 72
     2
 73
     1
 90
        2
 40
0.6
 41
30.0
 62
     5
 63
     7
421
 16777215
 74
     1
 91
       10
 64
     7
 65
   257
 75
     2
175
     1
 42
1.0
 92
        8
 66
   257
 43
1.0
 76
     1
 77
     6
 78
     2
 67
     7
 79
     3
170
     0
171
     0
290
     0
174
     0
 93
        5
 44
0.0
173
     0
291
     0
 45
0.0
1001
ACAD
1000
AcDbSavedByObjectVersion
1070
     0
  0
VISUALSTYLE
  5
3E
102
{ACAD_REACTORS
330
2A
102
}
102
{ACAD_XDICTIONARY
360
14F
102
}
330
2A
100
AcDbVisualStyle
  2
Shades of Gray
 70
    23
 71
     2
 72
     2
 73
     3
 90
        0
 40
0.6
 41
30.0
 62
     5
 63
     7
421
 16777215
 74
     2
 91
        2
 64
     7
 65
     7
 75
     1
175
     1
 42
40.0
 92
        8
 66
     7
 43
1.0
 76
     1
 77
     6
 78
     2
 67
     7
 79
     3
170
     0
171
     0
290
     0
174
     0
 93
        1
 44
0.0
173
     0
291
     0
 45
0.0
1001
ACAD
1000
AcDbSavedByObjectVersion
1070
     0
  0
VISUALSTYLE
  5
3F
102
{ACAD_REACTORS
330
2A
102
}
102
{ACAD_XDICTIONARY
360
151
102
}
330
2A
100
AcDbVisualStyle
  2
Sketchy
 70
    24
 71
     1
 72
     2
 73
     2
 90
        0
 40
0.6
 41
30.0
 62
     5
 63
     7
421
 16777215
 74
     2
 91
        2
 64
     7
 65
     7
 75
     1
175
     1
 42
40.0
 92
       11
 66
     7
 43
1.0
 76
     1
 77
     6
 78
     2
 67
     7
 79
     6
170
     0
171
     0
290
     0
174
     0
 93
        1
 44
0.0
173
     0
291
     0
 45
0.0
1001
ACAD
1000
AcDbSavedByObjectVersion
1070
     0
  0
VISUALSTYLE
  5
37
102
{ACAD_REACTORS
330
2A
102
}
102
{ACAD_XDICTIONARY
360
141
102
}
330
2A
100
AcDbVisualStyle
  2
Thicken
 70
    13
 71
     2
 72
     2
 73
     0
 90
        0
 40
0.6
 41
30.0
 62
     5
 63
     7
421
 16777215
 74
     1
 91
        4
 64
     7
 65
   257
 75
     1
175
     1
 42
1.0
 92
       12
 66
     7
 43
1.0
 76
     1
 77
     6
 78
     2
 67
     7
 79
     5
170
     0
171
     0
290
     0
174
     0
 93
        1
 44
0.0
173
     0
291
     1
 45
0.0
1001
ACAD
1000
AcDbSavedByObjectVersion
1070
     0
  0
VISUALSTYLE
  5
30
102
{ACAD_REACTORS
330
2A
102
}
102
{ACAD_XDICTIONARY
360
133
102
}
330
2A
100
AcDbVisualStyle
  2
Wireframe
 70
     5
 71
     0
 72
     2
 73
     0
 90
        0
 40
0.6
 41
30.0
 62
     5
 63
     7
421
 16777215
 74
     1
 91
        4
 64
     7
 65
   257
 75
     1
175
     1
 42
1.0
 92
        0
 66
   257
 43
1.0
 76
     1
 77
     6
 78
     2
 67
     7
 79
     3
170
     0
171
     0
290
     0
174
     0
 93
        1
 44
0.0
173
     0
291
     0
 45
0.0
1001
ACAD
1000
AcDbSavedByObjectVersion
1070
     0
  0
VISUALSTYLE
  5
40
102
{ACAD_REACTORS
330
2A
102
}
102
{ACAD_XDICTIONARY
360
153
102
}
330
2A
100
AcDbVisualStyle
  2
X-Ray
 70
    25
 71
     2
 72
     2
 73
     1
 90
        1
 40
0.5
 41
30.0
 62
     5
 63
     7
421
 16777215
 74
     1
 91
        0
 64
     7
 65
   257
 75
     1
175
     1
 42
1.0
 92
        8
 66
     7
 43
1.0
 76
     1
 77
     6
 78
     2
 67
     7
 79
     3
170
     0
171
     0
290
     0
174
     0
 93
       13
 44
0.0
173
     0
291
     0
 45
0.0
1001
ACAD
1000
AcDbSavedByObjectVersion
1070
     0
  0
DICTIONARYVAR
  5
126
102
{ACAD_REACTORS
330
125
102
}
330
125
100
DictionaryVariables
280
     0
  1
1:1
  0
DICTIONARYVAR
  5
167
102
{ACAD_REACTORS
330
125
102
}
330
125
100
DictionaryVariables
280
     0
  1
Standard
  0
DICTIONARYVAR
  5
166
102
{ACAD_REACTORS
330
125
102
}
330
125
100
DictionaryVariables
280
     0
  1
Standard
  0
DICTIONARYVAR
  5
127
102
{ACAD_REACTORS
330
125
102
}
330
125
100
DictionaryVariables
280
     0
  1
1
  0
DICTIONARYVAR
  5
128
102
{ACAD_REACTORS
330
125
102
}
330
125
100
DictionaryVariables
280
     0
  1
2
  0
DICTIONARY
  5
15B
330
45
100
AcDbDictionary
280
     1
281
     1
  3
ACAD_XREC_ROUNDTRIP
360
15C
  0
DICTIONARY
  5
159
330
44
100
AcDbDictionary
280
     1
281
     1
  3
ACAD_XREC_ROUNDTRIP
360
15A
  0
DICTIONARY
  5
15D
330
46
100
AcDbDictionary
280
     1
281
     1
  3
ACAD_XREC_ROUNDTRIP
360
15E
  0
DICTIONARY
  5
163
330
5C
100
AcDbDictionary
280
     1
281
     1
  3
ACAD_XREC_ROUNDTRIP
360
164
  0
DICTIONARY
  5
15F
330
5A
100
AcDbDictionary
280
     1
281
     1
  3
ACAD_ROUNDTRIP_2008_TABLESTYLE_CELLSTYLEMAP
360
161
  3
ACAD_XREC_ROUNDTRIP
360
160
  0
DICTIONARY
  5
131
330
2F
100
AcDbDictionary
280
     1
281
     1
  3
ACAD_XREC_ROUNDTRIP
360
132
  0
DICTIONARY
  5
137
330
32
100
AcDbDictionary
280
     1
281
     1
  3
ACAD_XREC_ROUNDTRIP
360
138
  0
DICTIONARY
  5
13F
330
36
100
AcDbDictionary
280
     1
281
     1
  3
ACAD_XREC_ROUNDTRIP
360
140
  0
DICTIONARY
  5
147
330
3A
100
AcDbDictionary
280
     1
281
     1
  3
ACAD_XREC_ROUNDTRIP
360
148
  0
DICTIONARY
  5
13B
330
34
100
AcDbDictionary
280
     1
281
     1
  3
ACAD_XREC_ROUNDTRIP
360
13C
  0
DICTIONARY
  5
13D
330
35
100
AcDbDictionary
280
     1
281
     1
  3
ACAD_XREC_ROUNDTRIP
360
13E
  0
DICTIONARY
  5
14D
330
3D
100
AcDbDictionary
280
     1
281
     1
  3
ACAD_XREC_ROUNDTRIP
360
14E
  0
DICTIONARY
  5
145
330
39
100
AcDbDictionary
280
     1
281
     1
  3
ACAD_XREC_ROUNDTRIP
360
146
  0
DICTIONARY
  5
129
330
2B
100
AcDbDictionary
280
     1
281
     1
  3
ACAD_XREC_ROUNDTRIP
360
12A
  0
DICTIONARY
  5
12B
330
2C
100
AcDbDictionary
280
     1
281
     1
  3
ACAD_XREC_ROUNDTRIP
360
12C
  0
DICTIONARY
  5
12D
330
2D
100
AcDbDictionary
280
     1
281
     1
  3
ACAD_XREC_ROUNDTRIP
360
12E
  0
DICTIONARY
  5
12F
330
2E
100
AcDbDictionary
280
     1
281
     1
  3
ACAD_XREC_ROUNDTRIP
360
130
  0
DICTIONARY
  5
135
330
31
100
AcDbDictionary
280
     1
281
     1
  3
ACAD_XREC_ROUNDTRIP
360
136
  0
DICTIONARY
  5
149
330
3B
100
AcDbDictionary
280
     1
281
     1
  3
ACAD_XREC_ROUNDTRIP
360
14A
  0
DICTIONARY
  5
143
330
38
100
AcDbDictionary
280
     1
281
     1
  3
ACAD_XREC_ROUNDTRIP
360
144
  0
DICTIONARY
  5
14B
330
3C
100
AcDbDictionary
280
     1
281
     1
  3
ACAD_XREC_ROUNDTRIP
360
14C
  0
DICTIONARY
  5
139
330
33
100
AcDbDictionary
280
     1
281
     1
  3
ACAD_XREC_ROUNDTRIP
360
13A
  0
DICTIONARY
  5
157
330
42
100
AcDbDictionary
280
     1
281
     1
  3
ACAD_XREC_ROUNDTRIP
360
158
  0
DICTIONARY
  5
155
330
41
100
AcDbDictionary
280
     1
281
     1
  3
ACAD_XREC_ROUNDTRIP
360
156
  0
DICTIONARY
  5
14F
330
3E
100
AcDbDictionary
280
     1
281
     1
  3
ACAD_XREC_ROUNDTRIP
360
150
  0
DICTIONARY
  5
151
330
3F
100
AcDbDictionary
280
     1
281
     1
  3
ACAD_XREC_ROUNDTRIP
360
152
  0
DICTIONARY
  5
141
330
37
100
AcDbDictionary
280
     1
281
     1
  3
ACAD_XREC_ROUNDTRIP
360
142
  0
DICTIONARY
  5
133
330
30
100
AcDbDictionary
280
     1
281
     1
  3
ACAD_XREC_ROUNDTRIP
360
134
  0
DICTIONARY
  5
153
330
40
100
AcDbDictionary
280
     1
281
     1
  3
ACAD_XREC_ROUNDTRIP
360
154
  0
XRECORD
  5
15C
102
{ACAD_REACTORS
330
15B
102
}
330
15B
100
AcDbXrecord
280
     1
102
MATERIAL
148
0.0
149
0.0
149
0.0
 93
        0
 94
      127
282
     0
 72
     1
 77
     1
171
     1
175
     1
179
     1
273
     0
  0
XRECORD
  5
15A
102
{ACAD_REACTORS
330
159
102
}
330
159
100
AcDbXrecord
280
     1
102
MATERIAL
148
0.0
149
0.0
149
0.0
 93
        0
 94
      127
282
     0
 72
     1
 77
     1
171
     1
175
     1
179
     1
273
     0
  0
XRECORD
  5
15E
102
{ACAD_REACTORS
330
15D
102
}
330
15D
100
AcDbXrecord
280
     1
102
MATERIAL
148
0.0
149
0.0
149
0.0
 93
        0
 94
      127
282
     0
 72
     1
 77
     1
171
     1
175
     1
179
     1
273
     0
  0
XRECORD
  5
164
102
{ACAD_REACTORS
330
163
102
}
330
163
100
AcDbXrecord
280
     1
102
ACAD_ROUNDTRIP_2010_MLEADER_STYLE
  0
CELLSTYLEMAP
  5
161
102
{ACAD_REACTORS
330
15F
102
}
330
15F
100
AcDbCellStyleMap
 90
        3
300
CELLSTYLE
  1
TABLEFORMAT_BEGIN
 90
        5
170
     1
 91
        0
 92
    32768
 62
   257
 93
        1
300
CONTENTFORMAT
  1
CONTENTFORMAT_BEGIN
 90
        0
 91
        0
 92
        4
 93
        0
300

 40
0.0
140
1.0
 94
        5
 62
     0
340
11
144
0.25
309
CONTENTFORMAT_END
171
     1
301
MARGIN
  1
CELLMARGIN_BEGIN
 40
0.06
 40
0.06
 40
0.06
 40
0.06
 40
0.06
 40
0.06
309
CELLMARGIN_END
 94
        6
 95
        1
302
GRIDFORMAT
  1
GRIDFORMAT_BEGIN
 90
        0
 91
        1
 62
     0
 92
       -2
340
14
 93
        0
 40
0.045
309
GRIDFORMAT_END
 95
        2
302
GRIDFORMAT
  1
GRIDFORMAT_BEGIN
 90
        0
 91
        1
 62
     0
 92
       -2
340
14
 93
        0
 40
0.045
309
GRIDFORMAT_END
 95
        4
302
GRIDFORMAT
  1
GRIDFORMAT_BEGIN
 90
        0
 91
        1
 62
     0
 92
       -2
340
14
 93
        0
 40
0.045
309
GRIDFORMAT_END
 95
        8
302
GRIDFORMAT
  1
GRIDFORMAT_BEGIN
 90
        0
 91
        1
 62
     0
 92
       -2
340
14
 93
        0
 40
0.045
309
GRIDFORMAT_END
 95
       16
302
GRIDFORMAT
  1
GRIDFORMAT_BEGIN
 90
        0
 91
        1
 62
     0
 92
       -2
340
14
 93
        0
 40
0.045
309
GRIDFORMAT_END
 95
       32
302
GRIDFORMAT
  1
GRIDFORMAT_BEGIN
 90
        0
 91
        1
 62
     0
 92
       -2
340
14
 93
        0
 40
0.045
309
GRIDFORMAT_END
309
TABLEFORMAT_END
  1
CELLSTYLE_BEGIN
 90
        1
 91
        1
300
_TITLE
309
CELLSTYLE_END
300
CELLSTYLE
  1
TABLEFORMAT_BEGIN
 90
        5
170
     1
 91
        0
 92
        0
 62
   257
 93
        1
300
CONTENTFORMAT
  1
CONTENTFORMAT_BEGIN
 90
        0
 91
        0
 92
        4
 93
        0
300

 40
0.0
140
1.0
 94
        5
 62
     0
340
11
144
0.18
309
CONTENTFORMAT_END
171
     1
301
MARGIN
  1
CELLMARGIN_BEGIN
 40
0.06
 40
0.06
 40
0.06
 40
0.06
 40
0.06
 40
0.06
309
CELLMARGIN_END
 94
        6
 95
        1
302
GRIDFORMAT
  1
GRIDFORMAT_BEGIN
 90
        0
 91
        1
 62
     0
 92
       -2
340
14
 93
        0
 40
0.045
309
GRIDFORMAT_END
 95
        2
302
GRIDFORMAT
  1
GRIDFORMAT_BEGIN
 90
        0
 91
        1
 62
     0
 92
       -2
340
14
 93
        0
 40
0.045
309
GRIDFORMAT_END
 95
        4
302
GRIDFORMAT
  1
GRIDFORMAT_BEGIN
 90
        0
 91
        1
 62
     0
 92
       -2
340
14
 93
        0
 40
0.045
309
GRIDFORMAT_END
 95
        8
302
GRIDFORMAT
  1
GRIDFORMAT_BEGIN
 90
        0
 91
        1
 62
     0
 92
       -2
340
14
 93
        0
 40
0.045
309
GRIDFORMAT_END
 95
       16
302
GRIDFORMAT
  1
GRIDFORMAT_BEGIN
 90
        0
 91
        1
 62
     0
 92
       -2
340
14
 93
        0
 40
0.045
309
GRIDFORMAT_END
 95
       32
302
GRIDFORMAT
  1
GRIDFORMAT_BEGIN
 90
        0
 91
        1
 62
     0
 92
       -2
340
14
 93
        0
 40
0.045
309
GRIDFORMAT_END
309
TABLEFORMAT_END
  1
CELLSTYLE_BEGIN
 90
        2
 91
        1
300
_HEADER
309
CELLSTYLE_END
300
CELLSTYLE
  1
TABLEFORMAT_BEGIN
 90
        5
170
     1
 91
        0
 92
        0
 62
   257
 93
        1
300
CONTENTFORMAT
  1
CONTENTFORMAT_BEGIN
 90
        0
 91
        0
 92
        4
 93
        0
300

 40
0.0
140
1.0
 94
        2
 62
     0
340
11
144
0.18
309
CONTENTFORMAT_END
171
     1
301
MARGIN
  1
CELLMARGIN_BEGIN
 40
0.06
 40
0.06
 40
0.06
 40
0.06
 40
0.06
 40
0.06
309
CELLMARGIN_END
 94
        6
 95
        1
302
GRIDFORMAT
  1
GRIDFORMAT_BEGIN
 90
        0
 91
        1
 62
     0
 92
       -2
340
14
 93
        0
 40
0.045
309
GRIDFORMAT_END
 95
        2
302
GRIDFORMAT
  1
GRIDFORMAT_BEGIN
 90
        0
 91
        1
 62
     0
 92
       -2
340
14
 93
        0
 40
0.045
309
GRIDFORMAT_END
 95
        4
302
GRIDFORMAT
  1
GRIDFORMAT_BEGIN
 90
        0
 91
        1
 62
     0
 92
       -2
340
14
 93
        0
 40
0.045
309
GRIDFORMAT_END
 95
        8
302
GRIDFORMAT
  1
GRIDFORMAT_BEGIN
 90
        0
 91
        1
 62
     0
 92
       -2
340
14
 93
        0
 40
0.045
309
GRIDFORMAT_END
 95
       16
302
GRIDFORMAT
  1
GRIDFORMAT_BEGIN
 90
        0
 91
        1
 62
     0
 92
       -2
340
14
 93
        0
 40
0.045
309
GRIDFORMAT_END
 95
       32
302
GRIDFORMAT
  1
GRIDFORMAT_BEGIN
 90
        0
 91
        1
 62
     0
 92
       -2
340
14
 93
        0
 40
0.045
309
GRIDFORMAT_END
309
TABLEFORMAT_END
  1
CELLSTYLE_BEGIN
 90
        3
 91
        2
300
_DATA
309
CELLSTYLE_END
  0
XRECORD
  5
160
102
{ACAD_REACTORS
330
15F
102
}
330
15F
100
AcDbXrecord
280
     1
102
ACAD_ROUNDTRIP_PRE2007_TABLESTYLE
 90
        4
 91
        0
  1

 92
        4
 93
        0
  2

 94
        4
 95
        0
  3

  0
XRECORD
  5
132
102
{ACAD_REACTORS
330
131
102
}
330
131
100
AcDbXrecord
280
     1
102
RTVSPropertyOp0
 70
     1
102
RTVSPropertyOp1
 70
     1
102
RTVSPropertyOp2
 70
     1
102
RTVSPropertyOp3
 70
     1
102
RTVSPropertyOp4
 70
     1
102
RTVSPropertyOp5
 70
     1
102
RTVSPropertyOp6
 70
     1
102
RTVSPropertyOp7
 70
     1
102
RTVSPropertyOp8
 70
     1
102
RTVSPropertyOp9
 70
     1
102
RTVSPropertyOp10
 70
     1
102
RTVSPropertyOp11
 70
     1
102
RTVSPropertyOp12
 70
     1
102
RTVSPropertyOp13
 70
     1
102
RTVSPropertyOp14
 70
     1
102
RTVSPropertyOp15
 70
     1
102
RTVSPropertyOp16
 70
     1
102
RTVSPropertyOp17
 70
     1
102
RTVSPropertyOp18
 70
     1
102
RTVSPropertyOp19
 70
     1
102
RTVSPropertyOp20
 70
     1
102
RTVSPropertyOp21
 70
     1
102
RTVSPropertyOp22
 70
     1
102
RTVSPropertyOp23
 70
     1
102
RTVSPropertyOp24
 70
     1
102
RTVSPropertyOp25
 70
     1
102
RTVSPropertyOp26
 70
     1
102
RTVSPropertyOp27
 70
     1
102
RTVSPropertyOp28
 70
     1
102
RTVSPropertyOp29
 70
     1
102
RTVSPropertyOp30
 70
     1
102
RTVSPropertyOp31
 70
     1
102
RTVSPropertyOp32
 70
     1
102
RTVSPropertyOp33
 70
     1
102
RTVSPropertyOp34
 70
     1
102
RTVSPropertyOp35
 70
     1
102
RTVSPropertyOp36
 70
     1
102
RTVSPropertyOp37
 70
     1
102
RTVSPropertyOp38
 70
     1
102
RTVSPropertyOp39
 70
     1
102
RTVSPropertyOp40
 70
     1
102
RTVSPropertyOp41
 70
     1
102
RTVSPropertyOp42
 70
     1
102
RTVSPropertyOp43
 70
     1
102
RTVSPropertyOp44
 70
     1
102
RTVSPropertyOp45
 70
     1
102
RTVSPropertyOp46
 70
     1
102
RTVSPropertyOp47
 70
     1
102
RTVSPropertyOp48
 70
     1
102
RTVSPropertyOp49
 70
     1
102
RTVSPropertyOp50
 70
     1
102
RTVSPropertyOp51
 70
     0
102
RTVSPropertyOp52
 70
     0
102
RTVSPropertyOp53
 70
     1
102
RTVSPropertyOp54
 70
     1
102
RTVSPropertyOp55
 70
     1
102
RTVSPropertyOp56
 70
     1
102
RTVSPropertyOp57
 70
     1
102
RTVSPost2010Prop28
280
     1
102
RTVSPost2010PropOp28
 70
     1
102
RTVSPost2010Prop29
280
     1
102
RTVSPost2010PropOp29
 70
     1
102
RTVSPost2010Prop30
280
     0
102
RTVSPost2010PropOp30
 70
     1
102
RTVSPost2010Prop31
280
     0
102
RTVSPost2010PropOp31
 70
     1
102
RTVSPost2010Prop32
280
     0
102
RTVSPost2010PropOp32
 70
     1
102
RTVSPost2010Prop33
280
     0
102
RTVSPost2010PropOp33
 70
     1
102
RTVSPost2010Prop34
280
     0
102
RTVSPost2010PropOp34
 70
     1
102
RTVSPost2010Prop35
280
     0
102
RTVSPost2010PropOp35
 70
     1
102
RTVSPost2010Prop36
280
     0
102
RTVSPost2010PropOp36
 70
     1
102
RTVSPost2010Prop37
 90
       50
102
RTVSPost2010PropOp37
 70
     1
102
RTVSPost2010Prop38
140
0.0
102
RTVSPost2010PropOp38
 70
     1
102
RTVSPost2010Prop39
140
1.0
102
RTVSPost2010PropOp39
 70
     1
102
RTVSPost2010Prop40
 90
        0
102
RTVSPost2010PropOp40
 70
     1
102
RTVSPost2010Prop41ColorIndex
 90
       18
102
RTVSPost2010Prop41ColorRGB
 90
        0
102
RTVSPost2010PropOp41
 70
     1
102
RTVSPost2010Prop42
 90
       50
102
RTVSPost2010PropOp42
 70
     1
102
RTVSPost2010Prop43
 90
        3
102
RTVSPost2010PropOp43
 70
     1
102
RTVSPost2010Prop44ColorIndex
 90
        5
102
RTVSPost2010Prop44ColorRGB
 90
      255
102
RTVSPost2010PropOp44
 70
     1
102
RTVSPost2010Prop45
280
     0
102
RTVSPost2010PropOp45
 70
     1
102
RTVSPost2010Prop46
 90
       50
102
RTVSPost2010PropOp46
 70
     1
102
RTVSPost2010Prop47
 90
       50
102
RTVSPost2010PropOp47
 70
     1
102
RTVSPost2010Prop48
 90
       50
102
RTVSPost2010PropOp48
 70
     1
102
RTVSPost2010Prop49
280
     0
102
RTVSPost2010PropOp49
 70
     1
102
RTVSPost2010Prop50
 90
       50
102
RTVSPost2010PropOp50
 70
     1
102
RTVSPost2010Prop51ColorIndex
 90
      256
102
RTVSPost2010Prop51ColorRGB
 90
-16777216
102
RTVSPost2010PropOp51
 70
     0
102
RTVSPost2010Prop52
140
1.0
102
RTVSPost2010PropOp52
 70
     0
102
RTVSPost2010Prop53
 90
        2
102
RTVSPost2010PropOp53
 70
     1
102
RTVSPost2010Prop54
  1
strokes_ogs.tif
102
RTVSPost2010PropOp54
 70
     1
102
RTVSPost2010Prop55
280
     0
102
RTVSPost2010PropOp55
 70
     1
102
RTVSPost2010Prop56
140
1.0
102
RTVSPost2010PropOp56
 70
     1
102
RTVSPost2010Prop57
140
1.0
102
RTVSPost2010PropOp57
 70
     1
  0
XRECORD
  5
138
102
{ACAD_REACTORS
330
137
102
}
330
137
100
AcDbXrecord
280
     1
102
RTVSPropertyOp0
 70
     1
102
RTVSPropertyOp1
 70
     1
102
RTVSPropertyOp2
 70
     1
102
RTVSPropertyOp3
 70
     1
102
RTVSPropertyOp4
 70
     1
102
RTVSPropertyOp5
 70
     1
102
RTVSPropertyOp6
 70
     1
102
RTVSPropertyOp7
 70
     1
102
RTVSPropertyOp8
 70
     1
102
RTVSPropertyOp9
 70
     1
102
RTVSPropertyOp10
 70
     1
102
RTVSPropertyOp11
 70
     1
102
RTVSPropertyOp12
 70
     1
102
RTVSPropertyOp13
 70
     1
102
RTVSPropertyOp14
 70
     1
102
RTVSPropertyOp15
 70
     1
102
RTVSPropertyOp16
 70
     1
102
RTVSPropertyOp17
 70
     1
102
RTVSPropertyOp18
 70
     1
102
RTVSPropertyOp19
 70
     1
102
RTVSPropertyOp20
 70
     1
102
RTVSPropertyOp21
 70
     1
102
RTVSPropertyOp22
 70
     1
102
RTVSPropertyOp23
 70
     1
102
RTVSPropertyOp24
 70
     1
102
RTVSPropertyOp25
 70
     1
102
RTVSPropertyOp26
 70
     1
102
RTVSPropertyOp27
 70
     1
102
RTVSPropertyOp28
 70
     1
102
RTVSPropertyOp29
 70
     1
102
RTVSPropertyOp30
 70
     1
102
RTVSPropertyOp31
 70
     1
102
RTVSPropertyOp32
 70
     1
102
RTVSPropertyOp33
 70
     1
102
RTVSPropertyOp34
 70
     1
102
RTVSPropertyOp35
 70
     1
102
RTVSPropertyOp36
 70
     1
102
RTVSPropertyOp37
 70
     1
102
RTVSPropertyOp38
 70
     1
102
RTVSPropertyOp39
 70
     1
102
RTVSPropertyOp40
 70
     1
102
RTVSPropertyOp41
 70
     1
102
RTVSPropertyOp42
 70
     1
102
RTVSPropertyOp43
 70
     1
102
RTVSPropertyOp44
 70
     1
102
RTVSPropertyOp45
 70
     1
102
RTVSPropertyOp46
 70
     1
102
RTVSPropertyOp47
 70
     1
102
RTVSPropertyOp48
 70
     1
102
RTVSPropertyOp49
 70
     1
102
RTVSPropertyOp50
 70
     1
102
RTVSPropertyOp51
 70
     0
102
RTVSPropertyOp52
 70
     0
102
RTVSPropertyOp53
 70
     1
102
RTVSPropertyOp54
 70
     1
102
RTVSPropertyOp55
 70
     1
102
RTVSPropertyOp56
 70
     1
102
RTVSPropertyOp57
 70
     1
102
RTVSPost2010Prop28
280
     0
102
RTVSPost2010PropOp28
 70
     1
102
RTVSPost2010Prop29
280
     1
102
RTVSPost2010PropOp29
 70
     1
102
RTVSPost2010Prop30
280
     1
102
RTVSPost2010PropOp30
 70
     1
102
RTVSPost2010Prop31
280
     0
102
RTVSPost2010PropOp31
 70
     1
102
RTVSPost2010Prop32
280
     0
102
RTVSPost2010PropOp32
 70
     1
102
RTVSPost2010Prop33
280
     0
102
RTVSPost2010PropOp33
 70
     1
102
RTVSPost2010Prop34
280
     0
102
RTVSPost2010PropOp34
 70
     1
102
RTVSPost2010Prop35
280
     0
102
RTVSPost2010PropOp35
 70
     1
102
RTVSPost2010Prop36
280
     0
102
RTVSPost2010PropOp36
 70
     1
102
RTVSPost2010Prop37
 90
       50
102
RTVSPost2010PropOp37
 70
     1
102
RTVSPost2010Prop38
140
0.0
102
RTVSPost2010PropOp38
 70
     1
102
RTVSPost2010Prop39
140
1.0
102
RTVSPost2010PropOp39
 70
     1
102
RTVSPost2010Prop40
 90
        0
102
RTVSPost2010PropOp40
 70
     1
102
RTVSPost2010Prop41ColorIndex
 90
       18
102
RTVSPost2010Prop41ColorRGB
 90
        0
102
RTVSPost2010PropOp41
 70
     1
102
RTVSPost2010Prop42
 90
       50
102
RTVSPost2010PropOp42
 70
     1
102
RTVSPost2010Prop43
 90
        3
102
RTVSPost2010PropOp43
 70
     1
102
RTVSPost2010Prop44ColorIndex
 90
        5
102
RTVSPost2010Prop44ColorRGB
 90
      255
102
RTVSPost2010PropOp44
 70
     1
102
RTVSPost2010Prop45
280
     0
102
RTVSPost2010PropOp45
 70
     1
102
RTVSPost2010Prop46
 90
       50
102
RTVSPost2010PropOp46
 70
     1
102
RTVSPost2010Prop47
 90
       50
102
RTVSPost2010PropOp47
 70
     1
102
RTVSPost2010Prop48
 90
       50
102
RTVSPost2010PropOp48
 70
     1
102
RTVSPost2010Prop49
280
     0
102
RTVSPost2010PropOp49
 70
     1
102
RTVSPost2010Prop50
 90
       50
102
RTVSPost2010PropOp50
 70
     1
102
RTVSPost2010Prop51ColorIndex
 90
      256
102
RTVSPost2010Prop51ColorRGB
 90
-16777216
102
RTVSPost2010PropOp51
 70
     0
102
RTVSPost2010Prop52
140
1.0
102
RTVSPost2010PropOp52
 70
     0
102
RTVSPost2010Prop53
 90
        2
102
RTVSPost2010PropOp53
 70
     1
102
RTVSPost2010Prop54
  1
strokes_ogs.tif
102
RTVSPost2010PropOp54
 70
     1
102
RTVSPost2010Prop55
280
     0
102
RTVSPost2010PropOp55
 70
     1
102
RTVSPost2010Prop56
140
1.0
102
RTVSPost2010PropOp56
 70
     1
102
RTVSPost2010Prop57
140
1.0
102
RTVSPost2010PropOp57
 70
     1
  0
XRECORD
  5
140
102
{ACAD_REACTORS
330
13F
102
}
330
13F
100
AcDbXrecord
280
     1
102
RTVSPropertyOp0
 70
     1
102
RTVSPropertyOp1
 70
     1
102
RTVSPropertyOp2
 70
     1
102
RTVSPropertyOp3
 70
     1
102
RTVSPropertyOp4
 70
     1
102
RTVSPropertyOp5
 70
     1
102
RTVSPropertyOp6
 70
     1
102
RTVSPropertyOp7
 70
     1
102
RTVSPropertyOp8
 70
     1
102
RTVSPropertyOp9
 70
     1
102
RTVSPropertyOp10
 70
     1
102
RTVSPropertyOp11
 70
     1
102
RTVSPropertyOp12
 70
     1
102
RTVSPropertyOp13
 70
     1
102
RTVSPropertyOp14
 70
     1
102
RTVSPropertyOp15
 70
     1
102
RTVSPropertyOp16
 70
     1
102
RTVSPropertyOp17
 70
     1
102
RTVSPropertyOp18
 70
     1
102
RTVSPropertyOp19
 70
     1
102
RTVSPropertyOp20
 70
     1
102
RTVSPropertyOp21
 70
     1
102
RTVSPropertyOp22
 70
     1
102
RTVSPropertyOp23
 70
     1
102
RTVSPropertyOp24
 70
     1
102
RTVSPropertyOp25
 70
     1
102
RTVSPropertyOp26
 70
     1
102
RTVSPropertyOp27
 70
     1
102
RTVSPropertyOp28
 70
     1
102
RTVSPropertyOp29
 70
     1
102
RTVSPropertyOp30
 70
     1
102
RTVSPropertyOp31
 70
     1
102
RTVSPropertyOp32
 70
     1
102
RTVSPropertyOp33
 70
     1
102
RTVSPropertyOp34
 70
     1
102
RTVSPropertyOp35
 70
     1
102
RTVSPropertyOp36
 70
     1
102
RTVSPropertyOp37
 70
     1
102
RTVSPropertyOp38
 70
     1
102
RTVSPropertyOp39
 70
     1
102
RTVSPropertyOp40
 70
     1
102
RTVSPropertyOp41
 70
     1
102
RTVSPropertyOp42
 70
     1
102
RTVSPropertyOp43
 70
     1
102
RTVSPropertyOp44
 70
     1
102
RTVSPropertyOp45
 70
     1
102
RTVSPropertyOp46
 70
     1
102
RTVSPropertyOp47
 70
     1
102
RTVSPropertyOp48
 70
     1
102
RTVSPropertyOp49
 70
     1
102
RTVSPropertyOp50
 70
     1
102
RTVSPropertyOp51
 70
     0
102
RTVSPropertyOp52
 70
     0
102
RTVSPropertyOp53
 70
     1
102
RTVSPropertyOp54
 70
     1
102
RTVSPropertyOp55
 70
     1
102
RTVSPropertyOp56
 70
     1
102
RTVSPropertyOp57
 70
     1
102
RTVSPost2010Prop28
280
     0
102
RTVSPost2010PropOp28
 70
     1
102
RTVSPost2010Prop29
280
     1
102
RTVSPost2010PropOp29
 70
     1
102
RTVSPost2010Prop30
280
     1
102
RTVSPost2010PropOp30
 70
     1
102
RTVSPost2010Prop31
280
     0
102
RTVSPost2010PropOp31
 70
     1
102
RTVSPost2010Prop32
280
     0
102
RTVSPost2010PropOp32
 70
     1
102
RTVSPost2010Prop33
280
     0
102
RTVSPost2010PropOp33
 70
     1
102
RTVSPost2010Prop34
280
     0
102
RTVSPost2010PropOp34
 70
     1
102
RTVSPost2010Prop35
280
     0
102
RTVSPost2010PropOp35
 70
     1
102
RTVSPost2010Prop36
280
     0
102
RTVSPost2010PropOp36
 70
     1
102
RTVSPost2010Prop37
 90
       50
102
RTVSPost2010PropOp37
 70
     1
102
RTVSPost2010Prop38
140
0.0
102
RTVSPost2010PropOp38
 70
     1
102
RTVSPost2010Prop39
140
1.0
102
RTVSPost2010PropOp39
 70
     1
102
RTVSPost2010Prop40
 90
        0
102
RTVSPost2010PropOp40
 70
     1
102
RTVSPost2010Prop41ColorIndex
 90
       18
102
RTVSPost2010Prop41ColorRGB
 90
        0
102
RTVSPost2010PropOp41
 70
     1
102
RTVSPost2010Prop42
 90
       50
102
RTVSPost2010PropOp42
 70
     1
102
RTVSPost2010Prop43
 90
        3
102
RTVSPost2010PropOp43
 70
     1
102
RTVSPost2010Prop44ColorIndex
 90
        5
102
RTVSPost2010Prop44ColorRGB
 90
      255
102
RTVSPost2010PropOp44
 70
     1
102
RTVSPost2010Prop45
280
     0
102
RTVSPost2010PropOp45
 70
     1
102
RTVSPost2010Prop46
 90
       50
102
RTVSPost2010PropOp46
 70
     1
102
RTVSPost2010Prop47
 90
       50
102
RTVSPost2010PropOp47
 70
     1
102
RTVSPost2010Prop48
 90
       50
102
RTVSPost2010PropOp48
 70
     1
102
RTVSPost2010Prop49
280
     0
102
RTVSPost2010PropOp49
 70
     1
102
RTVSPost2010Prop50
 90
       50
102
RTVSPost2010PropOp50
 70
     1
102
RTVSPost2010Prop51ColorIndex
 90
      256
102
RTVSPost2010Prop51ColorRGB
 90
-16777216
102
RTVSPost2010PropOp51
 70
     0
102
RTVSPost2010Prop52
140
1.0
102
RTVSPost2010PropOp52
 70
     0
102
RTVSPost2010Prop53
 90
        2
102
RTVSPost2010PropOp53
 70
     1
102
RTVSPost2010Prop54
  1
strokes_ogs.tif
102
RTVSPost2010PropOp54
 70
     1
102
RTVSPost2010Prop55
280
     0
102
RTVSPost2010PropOp55
 70
     1
102
RTVSPost2010Prop56
140
1.0
102
RTVSPost2010PropOp56
 70
     1
102
RTVSPost2010Prop57
140
1.0
102
RTVSPost2010PropOp57
 70
     1
  0
XRECORD
  5
148
102
{ACAD_REACTORS
330
147
102
}
330
147
100
AcDbXrecord
280
     1
102
RTVSPropertyOp0
 70
     1
102
RTVSPropertyOp1
 70
     1
102
RTVSPropertyOp2
 70
     1
102
RTVSPropertyOp3
 70
     1
102
RTVSPropertyOp4
 70
     1
102
RTVSPropertyOp5
 70
     1
102
RTVSPropertyOp6
 70
     1
102
RTVSPropertyOp7
 70
     1
102
RTVSPropertyOp8
 70
     1
102
RTVSPropertyOp9
 70
     1
102
RTVSPropertyOp10
 70
     1
102
RTVSPropertyOp11
 70
     1
102
RTVSPropertyOp12
 70
     1
102
RTVSPropertyOp13
 70
     1
102
RTVSPropertyOp14
 70
     1
102
RTVSPropertyOp15
 70
     1
102
RTVSPropertyOp16
 70
     1
102
RTVSPropertyOp17
 70
     1
102
RTVSPropertyOp18
 70
     1
102
RTVSPropertyOp19
 70
     1
102
RTVSPropertyOp20
 70
     1
102
RTVSPropertyOp21
 70
     1
102
RTVSPropertyOp22
 70
     1
102
RTVSPropertyOp23
 70
     1
102
RTVSPropertyOp24
 70
     1
102
RTVSPropertyOp25
 70
     1
102
RTVSPropertyOp26
 70
     1
102
RTVSPropertyOp27
 70
     1
102
RTVSPropertyOp28
 70
     1
102
RTVSPropertyOp29
 70
     1
102
RTVSPropertyOp30
 70
     1
102
RTVSPropertyOp31
 70
     1
102
RTVSPropertyOp32
 70
     1
102
RTVSPropertyOp33
 70
     1
102
RTVSPropertyOp34
 70
     1
102
RTVSPropertyOp35
 70
     1
102
RTVSPropertyOp36
 70
     1
102
RTVSPropertyOp37
 70
     1
102
RTVSPropertyOp38
 70
     1
102
RTVSPropertyOp39
 70
     1
102
RTVSPropertyOp40
 70
     1
102
RTVSPropertyOp41
 70
     1
102
RTVSPropertyOp42
 70
     1
102
RTVSPropertyOp43
 70
     1
102
RTVSPropertyOp44
 70
     1
102
RTVSPropertyOp45
 70
     1
102
RTVSPropertyOp46
 70
     1
102
RTVSPropertyOp47
 70
     1
102
RTVSPropertyOp48
 70
     1
102
RTVSPropertyOp49
 70
     1
102
RTVSPropertyOp50
 70
     1
102
RTVSPropertyOp51
 70
     0
102
RTVSPropertyOp52
 70
     0
102
RTVSPropertyOp53
 70
     1
102
RTVSPropertyOp54
 70
     1
102
RTVSPropertyOp55
 70
     1
102
RTVSPropertyOp56
 70
     1
102
RTVSPropertyOp57
 70
     1
102
RTVSPost2010Prop28
280
     0
102
RTVSPost2010PropOp28
 70
     1
102
RTVSPost2010Prop29
280
     1
102
RTVSPost2010PropOp29
 70
     1
102
RTVSPost2010Prop30
280
     1
102
RTVSPost2010PropOp30
 70
     1
102
RTVSPost2010Prop31
280
     0
102
RTVSPost2010PropOp31
 70
     1
102
RTVSPost2010Prop32
280
     0
102
RTVSPost2010PropOp32
 70
     1
102
RTVSPost2010Prop33
280
     0
102
RTVSPost2010PropOp33
 70
     1
102
RTVSPost2010Prop34
280
     0
102
RTVSPost2010PropOp34
 70
     1
102
RTVSPost2010Prop35
280
     0
102
RTVSPost2010PropOp35
 70
     1
102
RTVSPost2010Prop36
280
     0
102
RTVSPost2010PropOp36
 70
     1
102
RTVSPost2010Prop37
 90
       50
102
RTVSPost2010PropOp37
 70
     1
102
RTVSPost2010Prop38
140
0.0
102
RTVSPost2010PropOp38
 70
     1
102
RTVSPost2010Prop39
140
1.0
102
RTVSPost2010PropOp39
 70
     1
102
RTVSPost2010Prop40
 90
        0
102
RTVSPost2010PropOp40
 70
     1
102
RTVSPost2010Prop41ColorIndex
 90
       18
102
RTVSPost2010Prop41ColorRGB
 90
        0
102
RTVSPost2010PropOp41
 70
     1
102
RTVSPost2010Prop42
 90
       50
102
RTVSPost2010PropOp42
 70
     1
102
RTVSPost2010Prop43
 90
        3
102
RTVSPost2010PropOp43
 70
     1
102
RTVSPost2010Prop44ColorIndex
 90
        5
102
RTVSPost2010Prop44ColorRGB
 90
      255
102
RTVSPost2010PropOp44
 70
     1
102
RTVSPost2010Prop45
280
     0
102
RTVSPost2010PropOp45
 70
     1
102
RTVSPost2010Prop46
 90
       50
102
RTVSPost2010PropOp46
 70
     1
102
RTVSPost2010Prop47
 90
       50
102
RTVSPost2010PropOp47
 70
     1
102
RTVSPost2010Prop48
 90
       50
102
RTVSPost2010PropOp48
 70
     1
102
RTVSPost2010Prop49
280
     0
102
RTVSPost2010PropOp49
 70
     1
102
RTVSPost2010Prop50
 90
       50
102
RTVSPost2010PropOp50
 70
     1
102
RTVSPost2010Prop51ColorIndex
 90
      256
102
RTVSPost2010Prop51ColorRGB
 90
-16777216
102
RTVSPost2010PropOp51
 70
     0
102
RTVSPost2010Prop52
140
1.0
102
RTVSPost2010PropOp52
 70
     0
102
RTVSPost2010Prop53
 90
        2
102
RTVSPost2010PropOp53
 70
     1
102
RTVSPost2010Prop54
  1
strokes_ogs.tif
102
RTVSPost2010PropOp54
 70
     1
102
RTVSPost2010Prop55
280
     0
102
RTVSPost2010PropOp55
 70
     1
102
RTVSPost2010Prop56
140
1.0
102
RTVSPost2010PropOp56
 70
     1
102
RTVSPost2010Prop57
140
1.0
102
RTVSPost2010PropOp57
 70
     1
  0
XRECORD
  5
13C
102
{ACAD_REACTORS
330
13B
102
}
330
13B
100
AcDbXrecord
280
     1
102
RTVSPropertyOp0
 70
     1
102
RTVSPropertyOp1
 70
     1
102
RTVSPropertyOp2
 70
     1
102
RTVSPropertyOp3
 70
     1
102
RTVSPropertyOp4
 70
     1
102
RTVSPropertyOp5
 70
     1
102
RTVSPropertyOp6
 70
     1
102
RTVSPropertyOp7
 70
     1
102
RTVSPropertyOp8
 70
     1
102
RTVSPropertyOp9
 70
     1
102
RTVSPropertyOp10
 70
     1
102
RTVSPropertyOp11
 70
     1
102
RTVSPropertyOp12
 70
     1
102
RTVSPropertyOp13
 70
     1
102
RTVSPropertyOp14
 70
     1
102
RTVSPropertyOp15
 70
     1
102
RTVSPropertyOp16
 70
     1
102
RTVSPropertyOp17
 70
     1
102
RTVSPropertyOp18
 70
     1
102
RTVSPropertyOp19
 70
     1
102
RTVSPropertyOp20
 70
     1
102
RTVSPropertyOp21
 70
     1
102
RTVSPropertyOp22
 70
     1
102
RTVSPropertyOp23
 70
     1
102
RTVSPropertyOp24
 70
     1
102
RTVSPropertyOp25
 70
     1
102
RTVSPropertyOp26
 70
     1
102
RTVSPropertyOp27
 70
     1
102
RTVSPropertyOp28
 70
     1
102
RTVSPropertyOp29
 70
     1
102
RTVSPropertyOp30
 70
     1
102
RTVSPropertyOp31
 70
     1
102
RTVSPropertyOp32
 70
     1
102
RTVSPropertyOp33
 70
     1
102
RTVSPropertyOp34
 70
     1
102
RTVSPropertyOp35
 70
     1
102
RTVSPropertyOp36
 70
     1
102
RTVSPropertyOp37
 70
     1
102
RTVSPropertyOp38
 70
     1
102
RTVSPropertyOp39
 70
     1
102
RTVSPropertyOp40
 70
     1
102
RTVSPropertyOp41
 70
     1
102
RTVSPropertyOp42
 70
     1
102
RTVSPropertyOp43
 70
     1
102
RTVSPropertyOp44
 70
     1
102
RTVSPropertyOp45
 70
     1
102
RTVSPropertyOp46
 70
     1
102
RTVSPropertyOp47
 70
     1
102
RTVSPropertyOp48
 70
     1
102
RTVSPropertyOp49
 70
     1
102
RTVSPropertyOp50
 70
     1
102
RTVSPropertyOp51
 70
     0
102
RTVSPropertyOp52
 70
     0
102
RTVSPropertyOp53
 70
     1
102
RTVSPropertyOp54
 70
     1
102
RTVSPropertyOp55
 70
     1
102
RTVSPropertyOp56
 70
     1
102
RTVSPropertyOp57
 70
     1
102
RTVSPost2010Prop28
280
     0
102
RTVSPost2010PropOp28
 70
     1
102
RTVSPost2010Prop29
280
     1
102
RTVSPost2010PropOp29
 70
     1
102
RTVSPost2010Prop30
280
     1
102
RTVSPost2010PropOp30
 70
     1
102
RTVSPost2010Prop31
280
     0
102
RTVSPost2010PropOp31
 70
     1
102
RTVSPost2010Prop32
280
     0
102
RTVSPost2010PropOp32
 70
     1
102
RTVSPost2010Prop33
280
     0
102
RTVSPost2010PropOp33
 70
     1
102
RTVSPost2010Prop34
280
     0
102
RTVSPost2010PropOp34
 70
     1
102
RTVSPost2010Prop35
280
     0
102
RTVSPost2010PropOp35
 70
     1
102
RTVSPost2010Prop36
280
     0
102
RTVSPost2010PropOp36
 70
     1
102
RTVSPost2010Prop37
 90
       50
102
RTVSPost2010PropOp37
 70
     1
102
RTVSPost2010Prop38
140
0.0
102
RTVSPost2010PropOp38
 70
     1
102
RTVSPost2010Prop39
140
1.0
102
RTVSPost2010PropOp39
 70
     1
102
RTVSPost2010Prop40
 90
        0
102
RTVSPost2010PropOp40
 70
     1
102
RTVSPost2010Prop41ColorIndex
 90
       18
102
RTVSPost2010Prop41ColorRGB
 90
        0
102
RTVSPost2010PropOp41
 70
     1
102
RTVSPost2010Prop42
 90
       50
102
RTVSPost2010PropOp42
 70
     1
102
RTVSPost2010Prop43
 90
        3
102
RTVSPost2010PropOp43
 70
     1
102
RTVSPost2010Prop44ColorIndex
 90
        5
102
RTVSPost2010Prop44ColorRGB
 90
      255
102
RTVSPost2010PropOp44
 70
     1
102
RTVSPost2010Prop45
280
     0
102
RTVSPost2010PropOp45
 70
     1
102
RTVSPost2010Prop46
 90
       50
102
RTVSPost2010PropOp46
 70
     1
102
RTVSPost2010Prop47
 90
       50
102
RTVSPost2010PropOp47
 70
     1
102
RTVSPost2010Prop48
 90
       50
102
RTVSPost2010PropOp48
 70
     1
102
RTVSPost2010Prop49
280
     0
102
RTVSPost2010PropOp49
 70
     1
102
RTVSPost2010Prop50
 90
       50
102
RTVSPost2010PropOp50
 70
     1
102
RTVSPost2010Prop51ColorIndex
 90
      256
102
RTVSPost2010Prop51ColorRGB
 90
-16777216
102
RTVSPost2010PropOp51
 70
     0
102
RTVSPost2010Prop52
140
1.0
102
RTVSPost2010PropOp52
 70
     0
102
RTVSPost2010Prop53
 90
        2
102
RTVSPost2010PropOp53
 70
     1
102
RTVSPost2010Prop54
  1
strokes_ogs.tif
102
RTVSPost2010PropOp54
 70
     1
102
RTVSPost2010Prop55
280
     0
102
RTVSPost2010PropOp55
 70
     1
102
RTVSPost2010Prop56
140
1.0
102
RTVSPost2010PropOp56
 70
     1
102
RTVSPost2010Prop57
140
1.0
102
RTVSPost2010PropOp57
 70
     1
  0
XRECORD
  5
13E
102
{ACAD_REACTORS
330
13D
102
}
330
13D
100
AcDbXrecord
280
     1
102
RTVSPropertyOp0
 70
     1
102
RTVSPropertyOp1
 70
     1
102
RTVSPropertyOp2
 70
     1
102
RTVSPropertyOp3
 70
     1
102
RTVSPropertyOp4
 70
     1
102
RTVSPropertyOp5
 70
     1
102
RTVSPropertyOp6
 70
     1
102
RTVSPropertyOp7
 70
     1
102
RTVSPropertyOp8
 70
     1
102
RTVSPropertyOp9
 70
     1
102
RTVSPropertyOp10
 70
     1
102
RTVSPropertyOp11
 70
     1
102
RTVSPropertyOp12
 70
     1
102
RTVSPropertyOp13
 70
     1
102
RTVSPropertyOp14
 70
     1
102
RTVSPropertyOp15
 70
     1
102
RTVSPropertyOp16
 70
     1
102
RTVSPropertyOp17
 70
     1
102
RTVSPropertyOp18
 70
     1
102
RTVSPropertyOp19
 70
     1
102
RTVSPropertyOp20
 70
     1
102
RTVSPropertyOp21
 70
     1
102
RTVSPropertyOp22
 70
     1
102
RTVSPropertyOp23
 70
     1
102
RTVSPropertyOp24
 70
     1
102
RTVSPropertyOp25
 70
     1
102
RTVSPropertyOp26
 70
     1
102
RTVSPropertyOp27
 70
     1
102
RTVSPropertyOp28
 70
     1
102
RTVSPropertyOp29
 70
     1
102
RTVSPropertyOp30
 70
     1
102
RTVSPropertyOp31
 70
     1
102
RTVSPropertyOp32
 70
     1
102
RTVSPropertyOp33
 70
     1
102
RTVSPropertyOp34
 70
     1
102
RTVSPropertyOp35
 70
     1
102
RTVSPropertyOp36
 70
     1
102
RTVSPropertyOp37
 70
     1
102
RTVSPropertyOp38
 70
     1
102
RTVSPropertyOp39
 70
     1
102
RTVSPropertyOp40
 70
     1
102
RTVSPropertyOp41
 70
     1
102
RTVSPropertyOp42
 70
     1
102
RTVSPropertyOp43
 70
     1
102
RTVSPropertyOp44
 70
     1
102
RTVSPropertyOp45
 70
     1
102
RTVSPropertyOp46
 70
     1
102
RTVSPropertyOp47
 70
     1
102
RTVSPropertyOp48
 70
     1
102
RTVSPropertyOp49
 70
     1
102
RTVSPropertyOp50
 70
     1
102
RTVSPropertyOp51
 70
     0
102
RTVSPropertyOp52
 70
     0
102
RTVSPropertyOp53
 70
     1
102
RTVSPropertyOp54
 70
     1
102
RTVSPropertyOp55
 70
     1
102
RTVSPropertyOp56
 70
     1
102
RTVSPropertyOp57
 70
     1
102
RTVSPost2010Prop28
280
     0
102
RTVSPost2010PropOp28
 70
     1
102
RTVSPost2010Prop29
280
     1
102
RTVSPost2010PropOp29
 70
     1
102
RTVSPost2010Prop30
280
     1
102
RTVSPost2010PropOp30
 70
     1
102
RTVSPost2010Prop31
280
     0
102
RTVSPost2010PropOp31
 70
     1
102
RTVSPost2010Prop32
280
     0
102
RTVSPost2010PropOp32
 70
     1
102
RTVSPost2010Prop33
280
     0
102
RTVSPost2010PropOp33
 70
     1
102
RTVSPost2010Prop34
280
     0
102
RTVSPost2010PropOp34
 70
     1
102
RTVSPost2010Prop35
280
     0
102
RTVSPost2010PropOp35
 70
     1
102
RTVSPost2010Prop36
280
     0
102
RTVSPost2010PropOp36
 70
     1
102
RTVSPost2010Prop37
 90
       50
102
RTVSPost2010PropOp37
 70
     1
102
RTVSPost2010Prop38
140
0.0
102
RTVSPost2010PropOp38
 70
     1
102
RTVSPost2010Prop39
140
1.0
102
RTVSPost2010PropOp39
 70
     1
102
RTVSPost2010Prop40
 90
        0
102
RTVSPost2010PropOp40
 70
     1
102
RTVSPost2010Prop41ColorIndex
 90
       18
102
RTVSPost2010Prop41ColorRGB
 90
        0
102
RTVSPost2010PropOp41
 70
     1
102
RTVSPost2010Prop42
 90
       50
102
RTVSPost2010PropOp42
 70
     1
102
RTVSPost2010Prop43
 90
        3
102
RTVSPost2010PropOp43
 70
     1
102
RTVSPost2010Prop44ColorIndex
 90
        5
102
RTVSPost2010Prop44ColorRGB
 90
      255
102
RTVSPost2010PropOp44
 70
     1
102
RTVSPost2010Prop45
280
     0
102
RTVSPost2010PropOp45
 70
     1
102
RTVSPost2010Prop46
 90
       50
102
RTVSPost2010PropOp46
 70
     1
102
RTVSPost2010Prop47
 90
       50
102
RTVSPost2010PropOp47
 70
     1
102
RTVSPost2010Prop48
 90
       50
102
RTVSPost2010PropOp48
 70
     1
102
RTVSPost2010Prop49
280
     0
102
RTVSPost2010PropOp49
 70
     1
102
RTVSPost2010Prop50
 90
       50
102
RTVSPost2010PropOp50
 70
     1
102
RTVSPost2010Prop51ColorIndex
 90
      256
102
RTVSPost2010Prop51ColorRGB
 90
-16777216
102
RTVSPost2010PropOp51
 70
     0
102
RTVSPost2010Prop52
140
1.0
102
RTVSPost2010PropOp52
 70
     0
102
RTVSPost2010Prop53
 90
        2
102
RTVSPost2010PropOp53
 70
     1
102
RTVSPost2010Prop54
  1
strokes_ogs.tif
102
RTVSPost2010PropOp54
 70
     1
102
RTVSPost2010Prop55
280
     0
102
RTVSPost2010PropOp55
 70
     1
102
RTVSPost2010Prop56
140
1.0
102
RTVSPost2010PropOp56
 70
     1
102
RTVSPost2010Prop57
140
1.0
102
RTVSPost2010PropOp57
 70
     1
  0
XRECORD
  5
14E
102
{ACAD_REACTORS
330
14D
102
}
330
14D
100
AcDbXrecord
280
     1
102
RTVSPropertyOp0
 70
     0
102
RTVSPropertyOp1
 70
     0
102
RTVSPropertyOp2
 70
     0
102
RTVSPropertyOp3
 70
     0
102
RTVSPropertyOp4
 70
     0
102
RTVSPropertyOp5
 70
     0
102
RTVSPropertyOp6
 70
     0
102
RTVSPropertyOp7
 70
     0
102
RTVSPropertyOp8
 70
     0
102
RTVSPropertyOp9
 70
     0
102
RTVSPropertyOp10
 70
     0
102
RTVSPropertyOp11
 70
     0
102
RTVSPropertyOp12
 70
     0
102
RTVSPropertyOp13
 70
     0
102
RTVSPropertyOp14
 70
     2
102
RTVSPropertyOp15
 70
     0
102
RTVSPropertyOp16
 70
     0
102
RTVSPropertyOp17
 70
     0
102
RTVSPropertyOp18
 70
     0
102
RTVSPropertyOp19
 70
     0
102
RTVSPropertyOp20
 70
     0
102
RTVSPropertyOp21
 70
     0
102
RTVSPropertyOp22
 70
     0
102
RTVSPropertyOp23
 70
     0
102
RTVSPropertyOp24
 70
     0
102
RTVSPropertyOp25
 70
     0
102
RTVSPropertyOp26
 70
     0
102
RTVSPropertyOp27
 70
     0
102
RTVSPropertyOp28
 70
     0
102
RTVSPropertyOp29
 70
     0
102
RTVSPropertyOp30
 70
     0
102
RTVSPropertyOp31
 70
     0
102
RTVSPropertyOp32
 70
     0
102
RTVSPropertyOp33
 70
     0
102
RTVSPropertyOp34
 70
     0
102
RTVSPropertyOp35
 70
     0
102
RTVSPropertyOp36
 70
     0
102
RTVSPropertyOp37
 70
     0
102
RTVSPropertyOp38
 70
     0
102
RTVSPropertyOp39
 70
     0
102
RTVSPropertyOp40
 70
     0
102
RTVSPropertyOp41
 70
     0
102
RTVSPropertyOp42
 70
     0
102
RTVSPropertyOp43
 70
     0
102
RTVSPropertyOp44
 70
     0
102
RTVSPropertyOp45
 70
     0
102
RTVSPropertyOp46
 70
     0
102
RTVSPropertyOp47
 70
     0
102
RTVSPropertyOp48
 70
     0
102
RTVSPropertyOp49
 70
     0
102
RTVSPropertyOp50
 70
     0
102
RTVSPropertyOp51
 70
     0
102
RTVSPropertyOp52
 70
     0
102
RTVSPropertyOp53
 70
     0
102
RTVSPropertyOp54
 70
     0
102
RTVSPropertyOp55
 70
     0
102
RTVSPropertyOp56
 70
     0
102
RTVSPropertyOp57
 70
     0
102
RTVSPost2010Prop28
280
     0
102
RTVSPost2010PropOp28
 70
     0
102
RTVSPost2010Prop29
280
     1
102
RTVSPost2010PropOp29
 70
     0
102
RTVSPost2010Prop30
280
     1
102
RTVSPost2010PropOp30
 70
     0
102
RTVSPost2010Prop31
280
     0
102
RTVSPost2010PropOp31
 70
     0
102
RTVSPost2010Prop32
280
     0
102
RTVSPost2010PropOp32
 70
     0
102
RTVSPost2010Prop33
280
     0
102
RTVSPost2010PropOp33
 70
     0
102
RTVSPost2010Prop34
280
     0
102
RTVSPost2010PropOp34
 70
     0
102
RTVSPost2010Prop35
280
     0
102
RTVSPost2010PropOp35
 70
     0
102
RTVSPost2010Prop36
280
     0
102
RTVSPost2010PropOp36
 70
     0
102
RTVSPost2010Prop37
 90
       50
102
RTVSPost2010PropOp37
 70
     0
102
RTVSPost2010Prop38
140
0.0
102
RTVSPost2010PropOp38
 70
     0
102
RTVSPost2010Prop39
140
1.0
102
RTVSPost2010PropOp39
 70
     0
102
RTVSPost2010Prop40
 90
        0
102
RTVSPost2010PropOp40
 70
     0
102
RTVSPost2010Prop41ColorIndex
 90
       18
102
RTVSPost2010Prop41ColorRGB
 90
        0
102
RTVSPost2010PropOp41
 70
     0
102
RTVSPost2010Prop42
 90
       50
102
RTVSPost2010PropOp42
 70
     0
102
RTVSPost2010Prop43
 90
        3
102
RTVSPost2010PropOp43
 70
     0
102
RTVSPost2010Prop44ColorIndex
 90
        5
102
RTVSPost2010Prop44ColorRGB
 90
      255
102
RTVSPost2010PropOp44
 70
     0
102
RTVSPost2010Prop45
280
     0
102
RTVSPost2010PropOp45
 70
     0
102
RTVSPost2010Prop46
 90
       50
102
RTVSPost2010PropOp46
 70
     0
102
RTVSPost2010Prop47
 90
       50
102
RTVSPost2010PropOp47
 70
     0
102
RTVSPost2010Prop48
 90
       50
102
RTVSPost2010PropOp48
 70
     0
102
RTVSPost2010Prop49
280
     0
102
RTVSPost2010PropOp49
 70
     0
102
RTVSPost2010Prop50
 90
       50
102
RTVSPost2010PropOp50
 70
     0
102
RTVSPost2010Prop51ColorIndex
 90
      256
102
RTVSPost2010Prop51ColorRGB
 90
-16777216
102
RTVSPost2010PropOp51
 70
     0
102
RTVSPost2010Prop52
140
1.0
102
RTVSPost2010PropOp52
 70
     0
102
RTVSPost2010Prop53
 90
        2
102
RTVSPost2010PropOp53
 70
     0
102
RTVSPost2010Prop54
  1
strokes_ogs.tif
102
RTVSPost2010PropOp54
 70
     0
102
RTVSPost2010Prop55
280
     0
102
RTVSPost2010PropOp55
 70
     0
102
RTVSPost2010Prop56
140
1.0
102
RTVSPost2010PropOp56
 70
     0
102
RTVSPost2010Prop57
140
1.0
102
RTVSPost2010PropOp57
 70
     0
  0
XRECORD
  5
146
102
{ACAD_REACTORS
330
145
102
}
330
145
100
AcDbXrecord
280
     1
102
RTVSPropertyOp0
 70
     1
102
RTVSPropertyOp1
 70
     1
102
RTVSPropertyOp2
 70
     1
102
RTVSPropertyOp3
 70
     1
102
RTVSPropertyOp4
 70
     1
102
RTVSPropertyOp5
 70
     1
102
RTVSPropertyOp6
 70
     1
102
RTVSPropertyOp7
 70
     1
102
RTVSPropertyOp8
 70
     1
102
RTVSPropertyOp9
 70
     1
102
RTVSPropertyOp10
 70
     1
102
RTVSPropertyOp11
 70
     1
102
RTVSPropertyOp12
 70
     1
102
RTVSPropertyOp13
 70
     1
102
RTVSPropertyOp14
 70
     1
102
RTVSPropertyOp15
 70
     1
102
RTVSPropertyOp16
 70
     1
102
RTVSPropertyOp17
 70
     1
102
RTVSPropertyOp18
 70
     1
102
RTVSPropertyOp19
 70
     1
102
RTVSPropertyOp20
 70
     1
102
RTVSPropertyOp21
 70
     1
102
RTVSPropertyOp22
 70
     1
102
RTVSPropertyOp23
 70
     1
102
RTVSPropertyOp24
 70
     1
102
RTVSPropertyOp25
 70
     1
102
RTVSPropertyOp26
 70
     1
102
RTVSPropertyOp27
 70
     1
102
RTVSPropertyOp28
 70
     1
102
RTVSPropertyOp29
 70
     1
102
RTVSPropertyOp30
 70
     1
102
RTVSPropertyOp31
 70
     1
102
RTVSPropertyOp32
 70
     1
102
RTVSPropertyOp33
 70
     1
102
RTVSPropertyOp34
 70
     1
102
RTVSPropertyOp35
 70
     1
102
RTVSPropertyOp36
 70
     1
102
RTVSPropertyOp37
 70
     1
102
RTVSPropertyOp38
 70
     1
102
RTVSPropertyOp39
 70
     1
102
RTVSPropertyOp40
 70
     1
102
RTVSPropertyOp41
 70
     1
102
RTVSPropertyOp42
 70
     1
102
RTVSPropertyOp43
 70
     1
102
RTVSPropertyOp44
 70
     1
102
RTVSPropertyOp45
 70
     1
102
RTVSPropertyOp46
 70
     1
102
RTVSPropertyOp47
 70
     1
102
RTVSPropertyOp48
 70
     1
102
RTVSPropertyOp49
 70
     1
102
RTVSPropertyOp50
 70
     1
102
RTVSPropertyOp51
 70
     0
102
RTVSPropertyOp52
 70
     0
102
RTVSPropertyOp53
 70
     1
102
RTVSPropertyOp54
 70
     1
102
RTVSPropertyOp55
 70
     1
102
RTVSPropertyOp56
 70
     1
102
RTVSPropertyOp57
 70
     1
102
RTVSPost2010Prop28
280
     0
102
RTVSPost2010PropOp28
 70
     1
102
RTVSPost2010Prop29
280
     1
102
RTVSPost2010PropOp29
 70
     1
102
RTVSPost2010Prop30
280
     1
102
RTVSPost2010PropOp30
 70
     1
102
RTVSPost2010Prop31
280
     0
102
RTVSPost2010PropOp31
 70
     1
102
RTVSPost2010Prop32
280
     0
102
RTVSPost2010PropOp32
 70
     1
102
RTVSPost2010Prop33
280
     0
102
RTVSPost2010PropOp33
 70
     1
102
RTVSPost2010Prop34
280
     0
102
RTVSPost2010PropOp34
 70
     1
102
RTVSPost2010Prop35
280
     0
102
RTVSPost2010PropOp35
 70
     1
102
RTVSPost2010Prop36
280
     0
102
RTVSPost2010PropOp36
 70
     1
102
RTVSPost2010Prop37
 90
       50
102
RTVSPost2010PropOp37
 70
     1
102
RTVSPost2010Prop38
140
0.0
102
RTVSPost2010PropOp38
 70
     1
102
RTVSPost2010Prop39
140
1.0
102
RTVSPost2010PropOp39
 70
     1
102
RTVSPost2010Prop40
 90
        0
102
RTVSPost2010PropOp40
 70
     1
102
RTVSPost2010Prop41ColorIndex
 90
       18
102
RTVSPost2010Prop41ColorRGB
 90
        0
102
RTVSPost2010PropOp41
 70
     1
102
RTVSPost2010Prop42
 90
       50
102
RTVSPost2010PropOp42
 70
     1
102
RTVSPost2010Prop43
 90
        3
102
RTVSPost2010PropOp43
 70
     1
102
RTVSPost2010Prop44ColorIndex
 90
        5
102
RTVSPost2010Prop44ColorRGB
 90
      255
102
RTVSPost2010PropOp44
 70
     1
102
RTVSPost2010Prop45
280
     0
102
RTVSPost2010PropOp45
 70
     1
102
RTVSPost2010Prop46
 90
       50
102
RTVSPost2010PropOp46
 70
     1
102
RTVSPost2010Prop47
 90
       50
102
RTVSPost2010PropOp47
 70
     1
102
RTVSPost2010Prop48
 90
       50
102
RTVSPost2010PropOp48
 70
     1
102
RTVSPost2010Prop49
280
     0
102
RTVSPost2010PropOp49
 70
     1
102
RTVSPost2010Prop50
 90
       50
102
RTVSPost2010PropOp50
 70
     1
102
RTVSPost2010Prop51ColorIndex
 90
      256
102
RTVSPost2010Prop51ColorRGB
 90
-16777216
102
RTVSPost2010PropOp51
 70
     0
102
RTVSPost2010Prop52
140
1.0
102
RTVSPost2010PropOp52
 70
     0
102
RTVSPost2010Prop53
 90
        2
102
RTVSPost2010PropOp53
 70
     1
102
RTVSPost2010Prop54
  1
strokes_ogs.tif
102
RTVSPost2010PropOp54
 70
     1
102
RTVSPost2010Prop55
280
     0
102
RTVSPost2010PropOp55
 70
     1
102
RTVSPost2010Prop56
140
1.0
102
RTVSPost2010PropOp56
 70
     1
102
RTVSPost2010Prop57
140
1.0
102
RTVSPost2010PropOp57
 70
     1
  0
XRECORD
  5
12A
102
{ACAD_REACTORS
330
129
102
}
330
129
100
AcDbXrecord
280
     1
102
RTVSPropertyOp0
 70
     1
102
RTVSPropertyOp1
 70
     1
102
RTVSPropertyOp2
 70
     1
102
RTVSPropertyOp3
 70
     1
102
RTVSPropertyOp4
 70
     1
102
RTVSPropertyOp5
 70
     1
102
RTVSPropertyOp6
 70
     1
102
RTVSPropertyOp7
 70
     1
102
RTVSPropertyOp8
 70
     1
102
RTVSPropertyOp9
 70
     1
102
RTVSPropertyOp10
 70
     1
102
RTVSPropertyOp11
 70
     1
102
RTVSPropertyOp12
 70
     1
102
RTVSPropertyOp13
 70
     1
102
RTVSPropertyOp14
 70
     1
102
RTVSPropertyOp15
 70
     1
102
RTVSPropertyOp16
 70
     1
102
RTVSPropertyOp17
 70
     1
102
RTVSPropertyOp18
 70
     1
102
RTVSPropertyOp19
 70
     1
102
RTVSPropertyOp20
 70
     1
102
RTVSPropertyOp21
 70
     1
102
RTVSPropertyOp22
 70
     1
102
RTVSPropertyOp23
 70
     1
102
RTVSPropertyOp24
 70
     1
102
RTVSPropertyOp25
 70
     1
102
RTVSPropertyOp26
 70
     1
102
RTVSPropertyOp27
 70
     1
102
RTVSPropertyOp28
 70
     1
102
RTVSPropertyOp29
 70
     1
102
RTVSPropertyOp30
 70
     1
102
RTVSPropertyOp31
 70
     1
102
RTVSPropertyOp32
 70
     1
102
RTVSPropertyOp33
 70
     1
102
RTVSPropertyOp34
 70
     1
102
RTVSPropertyOp35
 70
     1
102
RTVSPropertyOp36
 70
     1
102
RTVSPropertyOp37
 70
     1
102
RTVSPropertyOp38
 70
     1
102
RTVSPropertyOp39
 70
     1
102
RTVSPropertyOp40
 70
     1
102
RTVSPropertyOp41
 70
     1
102
RTVSPropertyOp42
 70
     1
102
RTVSPropertyOp43
 70
     1
102
RTVSPropertyOp44
 70
     1
102
RTVSPropertyOp45
 70
     1
102
RTVSPropertyOp46
 70
     1
102
RTVSPropertyOp47
 70
     1
102
RTVSPropertyOp48
 70
     1
102
RTVSPropertyOp49
 70
     1
102
RTVSPropertyOp50
 70
     1
102
RTVSPropertyOp51
 70
     0
102
RTVSPropertyOp52
 70
     0
102
RTVSPropertyOp53
 70
     1
102
RTVSPropertyOp54
 70
     1
102
RTVSPropertyOp55
 70
     1
102
RTVSPropertyOp56
 70
     1
102
RTVSPropertyOp57
 70
     1
102
RTVSPost2010Prop28
280
     0
102
RTVSPost2010PropOp28
 70
     1
102
RTVSPost2010Prop29
280
     1
102
RTVSPost2010PropOp29
 70
     1
102
RTVSPost2010Prop30
280
     1
102
RTVSPost2010PropOp30
 70
     1
102
RTVSPost2010Prop31
280
     0
102
RTVSPost2010PropOp31
 70
     1
102
RTVSPost2010Prop32
280
     0
102
RTVSPost2010PropOp32
 70
     1
102
RTVSPost2010Prop33
280
     0
102
RTVSPost2010PropOp33
 70
     1
102
RTVSPost2010Prop34
280
     0
102
RTVSPost2010PropOp34
 70
     1
102
RTVSPost2010Prop35
280
     0
102
RTVSPost2010PropOp35
 70
     1
102
RTVSPost2010Prop36
280
     0
102
RTVSPost2010PropOp36
 70
     1
102
RTVSPost2010Prop37
 90
       50
102
RTVSPost2010PropOp37
 70
     1
102
RTVSPost2010Prop38
140
0.0
102
RTVSPost2010PropOp38
 70
     1
102
RTVSPost2010Prop39
140
1.0
102
RTVSPost2010PropOp39
 70
     1
102
RTVSPost2010Prop40
 90
        0
102
RTVSPost2010PropOp40
 70
     1
102
RTVSPost2010Prop41ColorIndex
 90
       18
102
RTVSPost2010Prop41ColorRGB
 90
        0
102
RTVSPost2010PropOp41
 70
     1
102
RTVSPost2010Prop42
 90
       50
102
RTVSPost2010PropOp42
 70
     1
102
RTVSPost2010Prop43
 90
        3
102
RTVSPost2010PropOp43
 70
     1
102
RTVSPost2010Prop44ColorIndex
 90
        5
102
RTVSPost2010Prop44ColorRGB
 90
      255
102
RTVSPost2010PropOp44
 70
     1
102
RTVSPost2010Prop45
280
     0
102
RTVSPost2010PropOp45
 70
     1
102
RTVSPost2010Prop46
 90
       50
102
RTVSPost2010PropOp46
 70
     1
102
RTVSPost2010Prop47
 90
       50
102
RTVSPost2010PropOp47
 70
     1
102
RTVSPost2010Prop48
 90
       50
102
RTVSPost2010PropOp48
 70
     1
102
RTVSPost2010Prop49
280
     0
102
RTVSPost2010PropOp49
 70
     1
102
RTVSPost2010Prop50
 90
       50
102
RTVSPost2010PropOp50
 70
     1
102
RTVSPost2010Prop51ColorIndex
 90
      256
102
RTVSPost2010Prop51ColorRGB
 90
-16777216
102
RTVSPost2010PropOp51
 70
     0
102
RTVSPost2010Prop52
140
1.0
102
RTVSPost2010PropOp52
 70
     0
102
RTVSPost2010Prop53
 90
        2
102
RTVSPost2010PropOp53
 70
     1
102
RTVSPost2010Prop54
  1
strokes_ogs.tif
102
RTVSPost2010PropOp54
 70
     1
102
RTVSPost2010Prop55
280
     0
102
RTVSPost2010PropOp55
 70
     1
102
RTVSPost2010Prop56
140
1.0
102
RTVSPost2010PropOp56
 70
     1
102
RTVSPost2010Prop57
140
1.0
102
RTVSPost2010PropOp57
 70
     1
  0
XRECORD
  5
12C
102
{ACAD_REACTORS
330
12B
102
}
330
12B
100
AcDbXrecord
280
     1
102
RTVSPropertyOp0
 70
     1
102
RTVSPropertyOp1
 70
     1
102
RTVSPropertyOp2
 70
     1
102
RTVSPropertyOp3
 70
     1
102
RTVSPropertyOp4
 70
     1
102
RTVSPropertyOp5
 70
     1
102
RTVSPropertyOp6
 70
     1
102
RTVSPropertyOp7
 70
     1
102
RTVSPropertyOp8
 70
     1
102
RTVSPropertyOp9
 70
     1
102
RTVSPropertyOp10
 70
     1
102
RTVSPropertyOp11
 70
     1
102
RTVSPropertyOp12
 70
     1
102
RTVSPropertyOp13
 70
     1
102
RTVSPropertyOp14
 70
     1
102
RTVSPropertyOp15
 70
     1
102
RTVSPropertyOp16
 70
     1
102
RTVSPropertyOp17
 70
     1
102
RTVSPropertyOp18
 70
     1
102
RTVSPropertyOp19
 70
     1
102
RTVSPropertyOp20
 70
     1
102
RTVSPropertyOp21
 70
     1
102
RTVSPropertyOp22
 70
     1
102
RTVSPropertyOp23
 70
     1
102
RTVSPropertyOp24
 70
     1
102
RTVSPropertyOp25
 70
     1
102
RTVSPropertyOp26
 70
     1
102
RTVSPropertyOp27
 70
     1
102
RTVSPropertyOp28
 70
     1
102
RTVSPropertyOp29
 70
     1
102
RTVSPropertyOp30
 70
     1
102
RTVSPropertyOp31
 70
     1
102
RTVSPropertyOp32
 70
     1
102
RTVSPropertyOp33
 70
     1
102
RTVSPropertyOp34
 70
     1
102
RTVSPropertyOp35
 70
     1
102
RTVSPropertyOp36
 70
     1
102
RTVSPropertyOp37
 70
     1
102
RTVSPropertyOp38
 70
     1
102
RTVSPropertyOp39
 70
     1
102
RTVSPropertyOp40
 70
     1
102
RTVSPropertyOp41
 70
     1
102
RTVSPropertyOp42
 70
     1
102
RTVSPropertyOp43
 70
     1
102
RTVSPropertyOp44
 70
     1
102
RTVSPropertyOp45
 70
     1
102
RTVSPropertyOp46
 70
     1
102
RTVSPropertyOp47
 70
     1
102
RTVSPropertyOp48
 70
     1
102
RTVSPropertyOp49
 70
     1
102
RTVSPropertyOp50
 70
     1
102
RTVSPropertyOp51
 70
     0
102
RTVSPropertyOp52
 70
     0
102
RTVSPropertyOp53
 70
     1
102
RTVSPropertyOp54
 70
     1
102
RTVSPropertyOp55
 70
     1
102
RTVSPropertyOp56
 70
     1
102
RTVSPropertyOp57
 70
     1
102
RTVSPost2010Prop28
280
     0
102
RTVSPost2010PropOp28
 70
     1
102
RTVSPost2010Prop29
280
     1
102
RTVSPost2010PropOp29
 70
     1
102
RTVSPost2010Prop30
280
     1
102
RTVSPost2010PropOp30
 70
     1
102
RTVSPost2010Prop31
280
     0
102
RTVSPost2010PropOp31
 70
     1
102
RTVSPost2010Prop32
280
     0
102
RTVSPost2010PropOp32
 70
     1
102
RTVSPost2010Prop33
280
     0
102
RTVSPost2010PropOp33
 70
     1
102
RTVSPost2010Prop34
280
     0
102
RTVSPost2010PropOp34
 70
     1
102
RTVSPost2010Prop35
280
     0
102
RTVSPost2010PropOp35
 70
     1
102
RTVSPost2010Prop36
280
     0
102
RTVSPost2010PropOp36
 70
     1
102
RTVSPost2010Prop37
 90
       50
102
RTVSPost2010PropOp37
 70
     1
102
RTVSPost2010Prop38
140
0.0
102
RTVSPost2010PropOp38
 70
     1
102
RTVSPost2010Prop39
140
1.0
102
RTVSPost2010PropOp39
 70
     1
102
RTVSPost2010Prop40
 90
        0
102
RTVSPost2010PropOp40
 70
     1
102
RTVSPost2010Prop41ColorIndex
 90
       18
102
RTVSPost2010Prop41ColorRGB
 90
        0
102
RTVSPost2010PropOp41
 70
     1
102
RTVSPost2010Prop42
 90
       50
102
RTVSPost2010PropOp42
 70
     1
102
RTVSPost2010Prop43
 90
        3
102
RTVSPost2010PropOp43
 70
     1
102
RTVSPost2010Prop44ColorIndex
 90
        5
102
RTVSPost2010Prop44ColorRGB
 90
      255
102
RTVSPost2010PropOp44
 70
     1
102
RTVSPost2010Prop45
280
     0
102
RTVSPost2010PropOp45
 70
     1
102
RTVSPost2010Prop46
 90
       50
102
RTVSPost2010PropOp46
 70
     1
102
RTVSPost2010Prop47
 90
       50
102
RTVSPost2010PropOp47
 70
     1
102
RTVSPost2010Prop48
 90
       50
102
RTVSPost2010PropOp48
 70
     1
102
RTVSPost2010Prop49
280
     0
102
RTVSPost2010PropOp49
 70
     1
102
RTVSPost2010Prop50
 90
       50
102
RTVSPost2010PropOp50
 70
     1
102
RTVSPost2010Prop51ColorIndex
 90
      256
102
RTVSPost2010Prop51ColorRGB
 90
-16777216
102
RTVSPost2010PropOp51
 70
     0
102
RTVSPost2010Prop52
140
1.0
102
RTVSPost2010PropOp52
 70
     0
102
RTVSPost2010Prop53
 90
        2
102
RTVSPost2010PropOp53
 70
     1
102
RTVSPost2010Prop54
  1
strokes_ogs.tif
102
RTVSPost2010PropOp54
 70
     1
102
RTVSPost2010Prop55
280
     0
102
RTVSPost2010PropOp55
 70
     1
102
RTVSPost2010Prop56
140
1.0
102
RTVSPost2010PropOp56
 70
     1
102
RTVSPost2010Prop57
140
1.0
102
RTVSPost2010PropOp57
 70
     1
  0
XRECORD
  5
12E
102
{ACAD_REACTORS
330
12D
102
}
330
12D
100
AcDbXrecord
280
     1
102
RTVSPropertyOp0
 70
     1
102
RTVSPropertyOp1
 70
     1
102
RTVSPropertyOp2
 70
     1
102
RTVSPropertyOp3
 70
     1
102
RTVSPropertyOp4
 70
     1
102
RTVSPropertyOp5
 70
     1
102
RTVSPropertyOp6
 70
     1
102
RTVSPropertyOp7
 70
     1
102
RTVSPropertyOp8
 70
     1
102
RTVSPropertyOp9
 70
     1
102
RTVSPropertyOp10
 70
     1
102
RTVSPropertyOp11
 70
     1
102
RTVSPropertyOp12
 70
     1
102
RTVSPropertyOp13
 70
     1
102
RTVSPropertyOp14
 70
     1
102
RTVSPropertyOp15
 70
     1
102
RTVSPropertyOp16
 70
     1
102
RTVSPropertyOp17
 70
     1
102
RTVSPropertyOp18
 70
     1
102
RTVSPropertyOp19
 70
     1
102
RTVSPropertyOp20
 70
     1
102
RTVSPropertyOp21
 70
     1
102
RTVSPropertyOp22
 70
     1
102
RTVSPropertyOp23
 70
     1
102
RTVSPropertyOp24
 70
     1
102
RTVSPropertyOp25
 70
     1
102
RTVSPropertyOp26
 70
     1
102
RTVSPropertyOp27
 70
     1
102
RTVSPropertyOp28
 70
     1
102
RTVSPropertyOp29
 70
     1
102
RTVSPropertyOp30
 70
     1
102
RTVSPropertyOp31
 70
     1
102
RTVSPropertyOp32
 70
     1
102
RTVSPropertyOp33
 70
     1
102
RTVSPropertyOp34
 70
     1
102
RTVSPropertyOp35
 70
     1
102
RTVSPropertyOp36
 70
     1
102
RTVSPropertyOp37
 70
     1
102
RTVSPropertyOp38
 70
     1
102
RTVSPropertyOp39
 70
     1
102
RTVSPropertyOp40
 70
     1
102
RTVSPropertyOp41
 70
     1
102
RTVSPropertyOp42
 70
     1
102
RTVSPropertyOp43
 70
     1
102
RTVSPropertyOp44
 70
     1
102
RTVSPropertyOp45
 70
     1
102
RTVSPropertyOp46
 70
     1
102
RTVSPropertyOp47
 70
     1
102
RTVSPropertyOp48
 70
     1
102
RTVSPropertyOp49
 70
     1
102
RTVSPropertyOp50
 70
     1
102
RTVSPropertyOp51
 70
     0
102
RTVSPropertyOp52
 70
     0
102
RTVSPropertyOp53
 70
     1
102
RTVSPropertyOp54
 70
     1
102
RTVSPropertyOp55
 70
     1
102
RTVSPropertyOp56
 70
     1
102
RTVSPropertyOp57
 70
     1
102
RTVSPost2010Prop28
280
     0
102
RTVSPost2010PropOp28
 70
     1
102
RTVSPost2010Prop29
280
     1
102
RTVSPost2010PropOp29
 70
     1
102
RTVSPost2010Prop30
280
     1
102
RTVSPost2010PropOp30
 70
     1
102
RTVSPost2010Prop31
280
     0
102
RTVSPost2010PropOp31
 70
     1
102
RTVSPost2010Prop32
280
     0
102
RTVSPost2010PropOp32
 70
     1
102
RTVSPost2010Prop33
280
     0
102
RTVSPost2010PropOp33
 70
     1
102
RTVSPost2010Prop34
280
     0
102
RTVSPost2010PropOp34
 70
     1
102
RTVSPost2010Prop35
280
     0
102
RTVSPost2010PropOp35
 70
     1
102
RTVSPost2010Prop36
280
     0
102
RTVSPost2010PropOp36
 70
     1
102
RTVSPost2010Prop37
 90
       50
102
RTVSPost2010PropOp37
 70
     1
102
RTVSPost2010Prop38
140
0.0
102
RTVSPost2010PropOp38
 70
     1
102
RTVSPost2010Prop39
140
1.0
102
RTVSPost2010PropOp39
 70
     1
102
RTVSPost2010Prop40
 90
        0
102
RTVSPost2010PropOp40
 70
     1
102
RTVSPost2010Prop41ColorIndex
 90
       18
102
RTVSPost2010Prop41ColorRGB
 90
        0
102
RTVSPost2010PropOp41
 70
     1
102
RTVSPost2010Prop42
 90
       50
102
RTVSPost2010PropOp42
 70
     1
102
RTVSPost2010Prop43
 90
        3
102
RTVSPost2010PropOp43
 70
     1
102
RTVSPost2010Prop44ColorIndex
 90
        5
102
RTVSPost2010Prop44ColorRGB
 90
      255
102
RTVSPost2010PropOp44
 70
     1
102
RTVSPost2010Prop45
280
     0
102
RTVSPost2010PropOp45
 70
     1
102
RTVSPost2010Prop46
 90
       50
102
RTVSPost2010PropOp46
 70
     1
102
RTVSPost2010Prop47
 90
       50
102
RTVSPost2010PropOp47
 70
     1
102
RTVSPost2010Prop48
 90
       50
102
RTVSPost2010PropOp48
 70
     1
102
RTVSPost2010Prop49
280
     0
102
RTVSPost2010PropOp49
 70
     1
102
RTVSPost2010Prop50
 90
       50
102
RTVSPost2010PropOp50
 70
     1
102
RTVSPost2010Prop51ColorIndex
 90
      256
102
RTVSPost2010Prop51ColorRGB
 90
-16777216
102
RTVSPost2010PropOp51
 70
     0
102
RTVSPost2010Prop52
140
1.0
102
RTVSPost2010PropOp52
 70
     0
102
RTVSPost2010Prop53
 90
        2
102
RTVSPost2010PropOp53
 70
     1
102
RTVSPost2010Prop54
  1
strokes_ogs.tif
102
RTVSPost2010PropOp54
 70
     1
102
RTVSPost2010Prop55
280
     0
102
RTVSPost2010PropOp55
 70
     1
102
RTVSPost2010Prop56
140
1.0
102
RTVSPost2010PropOp56
 70
     1
102
RTVSPost2010Prop57
140
1.0
102
RTVSPost2010PropOp57
 70
     1
  0
XRECORD
  5
130
102
{ACAD_REACTORS
330
12F
102
}
330
12F
100
AcDbXrecord
280
     1
102
RTVSPropertyOp0
 70
     1
102
RTVSPropertyOp1
 70
     1
102
RTVSPropertyOp2
 70
     1
102
RTVSPropertyOp3
 70
     1
102
RTVSPropertyOp4
 70
     1
102
RTVSPropertyOp5
 70
     1
102
RTVSPropertyOp6
 70
     1
102
RTVSPropertyOp7
 70
     1
102
RTVSPropertyOp8
 70
     1
102
RTVSPropertyOp9
 70
     1
102
RTVSPropertyOp10
 70
     1
102
RTVSPropertyOp11
 70
     1
102
RTVSPropertyOp12
 70
     1
102
RTVSPropertyOp13
 70
     1
102
RTVSPropertyOp14
 70
     1
102
RTVSPropertyOp15
 70
     1
102
RTVSPropertyOp16
 70
     1
102
RTVSPropertyOp17
 70
     1
102
RTVSPropertyOp18
 70
     1
102
RTVSPropertyOp19
 70
     1
102
RTVSPropertyOp20
 70
     1
102
RTVSPropertyOp21
 70
     1
102
RTVSPropertyOp22
 70
     1
102
RTVSPropertyOp23
 70
     1
102
RTVSPropertyOp24
 70
     1
102
RTVSPropertyOp25
 70
     1
102
RTVSPropertyOp26
 70
     1
102
RTVSPropertyOp27
 70
     1
102
RTVSPropertyOp28
 70
     1
102
RTVSPropertyOp29
 70
     1
102
RTVSPropertyOp30
 70
     1
102
RTVSPropertyOp31
 70
     1
102
RTVSPropertyOp32
 70
     1
102
RTVSPropertyOp33
 70
     1
102
RTVSPropertyOp34
 70
     1
102
RTVSPropertyOp35
 70
     1
102
RTVSPropertyOp36
 70
     1
102
RTVSPropertyOp37
 70
     1
102
RTVSPropertyOp38
 70
     1
102
RTVSPropertyOp39
 70
     1
102
RTVSPropertyOp40
 70
     1
102
RTVSPropertyOp41
 70
     1
102
RTVSPropertyOp42
 70
     1
102
RTVSPropertyOp43
 70
     1
102
RTVSPropertyOp44
 70
     1
102
RTVSPropertyOp45
 70
     1
102
RTVSPropertyOp46
 70
     1
102
RTVSPropertyOp47
 70
     1
102
RTVSPropertyOp48
 70
     1
102
RTVSPropertyOp49
 70
     1
102
RTVSPropertyOp50
 70
     1
102
RTVSPropertyOp51
 70
     0
102
RTVSPropertyOp52
 70
     0
102
RTVSPropertyOp53
 70
     1
102
RTVSPropertyOp54
 70
     1
102
RTVSPropertyOp55
 70
     1
102
RTVSPropertyOp56
 70
     1
102
RTVSPropertyOp57
 70
     1
102
RTVSPost2010Prop28
280
     0
102
RTVSPost2010PropOp28
 70
     1
102
RTVSPost2010Prop29
280
     1
102
RTVSPost2010PropOp29
 70
     1
102
RTVSPost2010Prop30
280
     1
102
RTVSPost2010PropOp30
 70
     1
102
RTVSPost2010Prop31
280
     0
102
RTVSPost2010PropOp31
 70
     1
102
RTVSPost2010Prop32
280
     0
102
RTVSPost2010PropOp32
 70
     1
102
RTVSPost2010Prop33
280
     0
102
RTVSPost2010PropOp33
 70
     1
102
RTVSPost2010Prop34
280
     0
102
RTVSPost2010PropOp34
 70
     1
102
RTVSPost2010Prop35
280
     0
102
RTVSPost2010PropOp35
 70
     1
102
RTVSPost2010Prop36
280
     0
102
RTVSPost2010PropOp36
 70
     1
102
RTVSPost2010Prop37
 90
       50
102
RTVSPost2010PropOp37
 70
     1
102
RTVSPost2010Prop38
140
0.0
102
RTVSPost2010PropOp38
 70
     1
102
RTVSPost2010Prop39
140
1.0
102
RTVSPost2010PropOp39
 70
     1
102
RTVSPost2010Prop40
 90
        0
102
RTVSPost2010PropOp40
 70
     1
102
RTVSPost2010Prop41ColorIndex
 90
       18
102
RTVSPost2010Prop41ColorRGB
 90
        0
102
RTVSPost2010PropOp41
 70
     1
102
RTVSPost2010Prop42
 90
       50
102
RTVSPost2010PropOp42
 70
     1
102
RTVSPost2010Prop43
 90
        3
102
RTVSPost2010PropOp43
 70
     1
102
RTVSPost2010Prop44ColorIndex
 90
        5
102
RTVSPost2010Prop44ColorRGB
 90
      255
102
RTVSPost2010PropOp44
 70
     1
102
RTVSPost2010Prop45
280
     0
102
RTVSPost2010PropOp45
 70
     1
102
RTVSPost2010Prop46
 90
       50
102
RTVSPost2010PropOp46
 70
     1
102
RTVSPost2010Prop47
 90
       50
102
RTVSPost2010PropOp47
 70
     1
102
RTVSPost2010Prop48
 90
       50
102
RTVSPost2010PropOp48
 70
     1
102
RTVSPost2010Prop49
280
     0
102
RTVSPost2010PropOp49
 70
     1
102
RTVSPost2010Prop50
 90
       50
102
RTVSPost2010PropOp50
 70
     1
102
RTVSPost2010Prop51ColorIndex
 90
      256
102
RTVSPost2010Prop51ColorRGB
 90
-16777216
102
RTVSPost2010PropOp51
 70
     0
102
RTVSPost2010Prop52
140
1.0
102
RTVSPost2010PropOp52
 70
     0
102
RTVSPost2010Prop53
 90
        2
102
RTVSPost2010PropOp53
 70
     1
102
RTVSPost2010Prop54
  1
strokes_ogs.tif
102
RTVSPost2010PropOp54
 70
     1
102
RTVSPost2010Prop55
280
     0
102
RTVSPost2010PropOp55
 70
     1
102
RTVSPost2010Prop56
140
1.0
102
RTVSPost2010PropOp56
 70
     1
102
RTVSPost2010Prop57
140
1.0
102
RTVSPost2010PropOp57
 70
     1
  0
XRECORD
  5
136
102
{ACAD_REACTORS
330
135
102
}
330
135
100
AcDbXrecord
280
     1
102
RTVSPropertyOp0
 70
     1
102
RTVSPropertyOp1
 70
     1
102
RTVSPropertyOp2
 70
     1
102
RTVSPropertyOp3
 70
     1
102
RTVSPropertyOp4
 70
     1
102
RTVSPropertyOp5
 70
     1
102
RTVSPropertyOp6
 70
     1
102
RTVSPropertyOp7
 70
     1
102
RTVSPropertyOp8
 70
     1
102
RTVSPropertyOp9
 70
     1
102
RTVSPropertyOp10
 70
     1
102
RTVSPropertyOp11
 70
     1
102
RTVSPropertyOp12
 70
     1
102
RTVSPropertyOp13
 70
     1
102
RTVSPropertyOp14
 70
     1
102
RTVSPropertyOp15
 70
     1
102
RTVSPropertyOp16
 70
     1
102
RTVSPropertyOp17
 70
     1
102
RTVSPropertyOp18
 70
     1
102
RTVSPropertyOp19
 70
     1
102
RTVSPropertyOp20
 70
     1
102
RTVSPropertyOp21
 70
     1
102
RTVSPropertyOp22
 70
     1
102
RTVSPropertyOp23
 70
     1
102
RTVSPropertyOp24
 70
     1
102
RTVSPropertyOp25
 70
     1
102
RTVSPropertyOp26
 70
     1
102
RTVSPropertyOp27
 70
     1
102
RTVSPropertyOp28
 70
     1
102
RTVSPropertyOp29
 70
     1
102
RTVSPropertyOp30
 70
     1
102
RTVSPropertyOp31
 70
     1
102
RTVSPropertyOp32
 70
     1
102
RTVSPropertyOp33
 70
     1
102
RTVSPropertyOp34
 70
     1
102
RTVSPropertyOp35
 70
     1
102
RTVSPropertyOp36
 70
     1
102
RTVSPropertyOp37
 70
     1
102
RTVSPropertyOp38
 70
     1
102
RTVSPropertyOp39
 70
     1
102
RTVSPropertyOp40
 70
     1
102
RTVSPropertyOp41
 70
     1
102
RTVSPropertyOp42
 70
     1
102
RTVSPropertyOp43
 70
     1
102
RTVSPropertyOp44
 70
     1
102
RTVSPropertyOp45
 70
     1
102
RTVSPropertyOp46
 70
     1
102
RTVSPropertyOp47
 70
     1
102
RTVSPropertyOp48
 70
     1
102
RTVSPropertyOp49
 70
     1
102
RTVSPropertyOp50
 70
     1
102
RTVSPropertyOp51
 70
     0
102
RTVSPropertyOp52
 70
     0
102
RTVSPropertyOp53
 70
     1
102
RTVSPropertyOp54
 70
     1
102
RTVSPropertyOp55
 70
     1
102
RTVSPropertyOp56
 70
     1
102
RTVSPropertyOp57
 70
     1
102
RTVSPost2010Prop28
280
     0
102
RTVSPost2010PropOp28
 70
     1
102
RTVSPost2010Prop29
280
     1
102
RTVSPost2010PropOp29
 70
     1
102
RTVSPost2010Prop30
280
     1
102
RTVSPost2010PropOp30
 70
     1
102
RTVSPost2010Prop31
280
     0
102
RTVSPost2010PropOp31
 70
     1
102
RTVSPost2010Prop32
280
     0
102
RTVSPost2010PropOp32
 70
     1
102
RTVSPost2010Prop33
280
     0
102
RTVSPost2010PropOp33
 70
     1
102
RTVSPost2010Prop34
280
     0
102
RTVSPost2010PropOp34
 70
     1
102
RTVSPost2010Prop35
280
     0
102
RTVSPost2010PropOp35
 70
     1
102
RTVSPost2010Prop36
280
     0
102
RTVSPost2010PropOp36
 70
     1
102
RTVSPost2010Prop37
 90
       50
102
RTVSPost2010PropOp37
 70
     1
102
RTVSPost2010Prop38
140
0.0
102
RTVSPost2010PropOp38
 70
     1
102
RTVSPost2010Prop39
140
1.0
102
RTVSPost2010PropOp39
 70
     1
102
RTVSPost2010Prop40
 90
        0
102
RTVSPost2010PropOp40
 70
     1
102
RTVSPost2010Prop41ColorIndex
 90
       18
102
RTVSPost2010Prop41ColorRGB
 90
        0
102
RTVSPost2010PropOp41
 70
     1
102
RTVSPost2010Prop42
 90
       50
102
RTVSPost2010PropOp42
 70
     1
102
RTVSPost2010Prop43
 90
        3
102
RTVSPost2010PropOp43
 70
     1
102
RTVSPost2010Prop44ColorIndex
 90
        5
102
RTVSPost2010Prop44ColorRGB
 90
      255
102
RTVSPost2010PropOp44
 70
     1
102
RTVSPost2010Prop45
280
     0
102
RTVSPost2010PropOp45
 70
     1
102
RTVSPost2010Prop46
 90
       50
102
RTVSPost2010PropOp46
 70
     1
102
RTVSPost2010Prop47
 90
       50
102
RTVSPost2010PropOp47
 70
     1
102
RTVSPost2010Prop48
 90
       50
102
RTVSPost2010PropOp48
 70
     1
102
RTVSPost2010Prop49
280
     0
102
RTVSPost2010PropOp49
 70
     1
102
RTVSPost2010Prop50
 90
       50
102
RTVSPost2010PropOp50
 70
     1
102
RTVSPost2010Prop51ColorIndex
 90
      256
102
RTVSPost2010Prop51ColorRGB
 90
-16777216
102
RTVSPost2010PropOp51
 70
     0
102
RTVSPost2010Prop52
140
1.0
102
RTVSPost2010PropOp52
 70
     0
102
RTVSPost2010Prop53
 90
        2
102
RTVSPost2010PropOp53
 70
     1
102
RTVSPost2010Prop54
  1
strokes_ogs.tif
102
RTVSPost2010PropOp54
 70
     1
102
RTVSPost2010Prop55
280
     0
102
RTVSPost2010PropOp55
 70
     1
102
RTVSPost2010Prop56
140
1.0
102
RTVSPost2010PropOp56
 70
     1
102
RTVSPost2010Prop57
140
1.0
102
RTVSPost2010PropOp57
 70
     1
  0
XRECORD
  5
14A
102
{ACAD_REACTORS
330
149
102
}
330
149
100
AcDbXrecord
280
     1
102
RTVSPropertyOp0
 70
     0
102
RTVSPropertyOp1
 70
     0
102
RTVSPropertyOp2
 70
     0
102
RTVSPropertyOp3
 70
     0
102
RTVSPropertyOp4
 70
     0
102
RTVSPropertyOp5
 70
     0
102
RTVSPropertyOp6
 70
     0
102
RTVSPropertyOp7
 70
     0
102
RTVSPropertyOp8
 70
     0
102
RTVSPropertyOp9
 70
     0
102
RTVSPropertyOp10
 70
     0
102
RTVSPropertyOp11
 70
     0
102
RTVSPropertyOp12
 70
     0
102
RTVSPropertyOp13
 70
     0
102
RTVSPropertyOp14
 70
     2
102
RTVSPropertyOp15
 70
     0
102
RTVSPropertyOp16
 70
     0
102
RTVSPropertyOp17
 70
     0
102
RTVSPropertyOp18
 70
     0
102
RTVSPropertyOp19
 70
     0
102
RTVSPropertyOp20
 70
     0
102
RTVSPropertyOp21
 70
     0
102
RTVSPropertyOp22
 70
     0
102
RTVSPropertyOp23
 70
     0
102
RTVSPropertyOp24
 70
     0
102
RTVSPropertyOp25
 70
     0
102
RTVSPropertyOp26
 70
     0
102
RTVSPropertyOp27
 70
     0
102
RTVSPropertyOp28
 70
     0
102
RTVSPropertyOp29
 70
     0
102
RTVSPropertyOp30
 70
     0
102
RTVSPropertyOp31
 70
     0
102
RTVSPropertyOp32
 70
     0
102
RTVSPropertyOp33
 70
     0
102
RTVSPropertyOp34
 70
     0
102
RTVSPropertyOp35
 70
     0
102
RTVSPropertyOp36
 70
     0
102
RTVSPropertyOp37
 70
     0
102
RTVSPropertyOp38
 70
     0
102
RTVSPropertyOp39
 70
     0
102
RTVSPropertyOp40
 70
     0
102
RTVSPropertyOp41
 70
     0
102
RTVSPropertyOp42
 70
     0
102
RTVSPropertyOp43
 70
     0
102
RTVSPropertyOp44
 70
     0
102
RTVSPropertyOp45
 70
     0
102
RTVSPropertyOp46
 70
     0
102
RTVSPropertyOp47
 70
     0
102
RTVSPropertyOp48
 70
     0
102
RTVSPropertyOp49
 70
     0
102
RTVSPropertyOp50
 70
     0
102
RTVSPropertyOp51
 70
     0
102
RTVSPropertyOp52
 70
     0
102
RTVSPropertyOp53
 70
     0
102
RTVSPropertyOp54
 70
     0
102
RTVSPropertyOp55
 70
     0
102
RTVSPropertyOp56
 70
     0
102
RTVSPropertyOp57
 70
     0
102
RTVSPost2010Prop28
280
     0
102
RTVSPost2010PropOp28
 70
     0
102
RTVSPost2010Prop29
280
     1
102
RTVSPost2010PropOp29
 70
     0
102
RTVSPost2010Prop30
280
     1
102
RTVSPost2010PropOp30
 70
     0
102
RTVSPost2010Prop31
280
     0
102
RTVSPost2010PropOp31
 70
     0
102
RTVSPost2010Prop32
280
     0
102
RTVSPost2010PropOp32
 70
     0
102
RTVSPost2010Prop33
280
     0
102
RTVSPost2010PropOp33
 70
     0
102
RTVSPost2010Prop34
280
     0
102
RTVSPost2010PropOp34
 70
     0
102
RTVSPost2010Prop35
280
     0
102
RTVSPost2010PropOp35
 70
     0
102
RTVSPost2010Prop36
280
     0
102
RTVSPost2010PropOp36
 70
     0
102
RTVSPost2010Prop37
 90
       50
102
RTVSPost2010PropOp37
 70
     0
102
RTVSPost2010Prop38
140
0.0
102
RTVSPost2010PropOp38
 70
     0
102
RTVSPost2010Prop39
140
1.0
102
RTVSPost2010PropOp39
 70
     0
102
RTVSPost2010Prop40
 90
        0
102
RTVSPost2010PropOp40
 70
     0
102
RTVSPost2010Prop41ColorIndex
 90
       18
102
RTVSPost2010Prop41ColorRGB
 90
        0
102
RTVSPost2010PropOp41
 70
     0
102
RTVSPost2010Prop42
 90
       50
102
RTVSPost2010PropOp42
 70
     0
102
RTVSPost2010Prop43
 90
        3
102
RTVSPost2010PropOp43
 70
     0
102
RTVSPost2010Prop44ColorIndex
 90
        5
102
RTVSPost2010Prop44ColorRGB
 90
      255
102
RTVSPost2010PropOp44
 70
     0
102
RTVSPost2010Prop45
280
     0
102
RTVSPost2010PropOp45
 70
     0
102
RTVSPost2010Prop46
 90
       50
102
RTVSPost2010PropOp46
 70
     0
102
RTVSPost2010Prop47
 90
       50
102
RTVSPost2010PropOp47
 70
     0
102
RTVSPost2010Prop48
 90
       50
102
RTVSPost2010PropOp48
 70
     0
102
RTVSPost2010Prop49
280
     0
102
RTVSPost2010PropOp49
 70
     0
102
RTVSPost2010Prop50
 90
       50
102
RTVSPost2010PropOp50
 70
     0
102
RTVSPost2010Prop51ColorIndex
 90
      256
102
RTVSPost2010Prop51ColorRGB
 90
-16777216
102
RTVSPost2010PropOp51
 70
     0
102
RTVSPost2010Prop52
140
1.0
102
RTVSPost2010PropOp52
 70
     0
102
RTVSPost2010Prop53
 90
        2
102
RTVSPost2010PropOp53
 70
     0
102
RTVSPost2010Prop54
  1
strokes_ogs.tif
102
RTVSPost2010PropOp54
 70
     0
102
RTVSPost2010Prop55
280
     0
102
RTVSPost2010PropOp55
 70
     0
102
RTVSPost2010Prop56
140
1.0
102
RTVSPost2010PropOp56
 70
     0
102
RTVSPost2010Prop57
140
1.0
102
RTVSPost2010PropOp57
 70
     0
  0
XRECORD
  5
144
102
{ACAD_REACTORS
330
143
102
}
330
143
100
AcDbXrecord
280
     1
102
RTVSPropertyOp0
 70
     1
102
RTVSPropertyOp1
 70
     1
102
RTVSPropertyOp2
 70
     1
102
RTVSPropertyOp3
 70
     1
102
RTVSPropertyOp4
 70
     1
102
RTVSPropertyOp5
 70
     1
102
RTVSPropertyOp6
 70
     1
102
RTVSPropertyOp7
 70
     1
102
RTVSPropertyOp8
 70
     1
102
RTVSPropertyOp9
 70
     1
102
RTVSPropertyOp10
 70
     1
102
RTVSPropertyOp11
 70
     1
102
RTVSPropertyOp12
 70
     1
102
RTVSPropertyOp13
 70
     1
102
RTVSPropertyOp14
 70
     1
102
RTVSPropertyOp15
 70
     1
102
RTVSPropertyOp16
 70
     1
102
RTVSPropertyOp17
 70
     1
102
RTVSPropertyOp18
 70
     1
102
RTVSPropertyOp19
 70
     1
102
RTVSPropertyOp20
 70
     1
102
RTVSPropertyOp21
 70
     1
102
RTVSPropertyOp22
 70
     1
102
RTVSPropertyOp23
 70
     1
102
RTVSPropertyOp24
 70
     1
102
RTVSPropertyOp25
 70
     1
102
RTVSPropertyOp26
 70
     1
102
RTVSPropertyOp27
 70
     1
102
RTVSPropertyOp28
 70
     1
102
RTVSPropertyOp29
 70
     1
102
RTVSPropertyOp30
 70
     1
102
RTVSPropertyOp31
 70
     1
102
RTVSPropertyOp32
 70
     1
102
RTVSPropertyOp33
 70
     1
102
RTVSPropertyOp34
 70
     1
102
RTVSPropertyOp35
 70
     1
102
RTVSPropertyOp36
 70
     1
102
RTVSPropertyOp37
 70
     1
102
RTVSPropertyOp38
 70
     1
102
RTVSPropertyOp39
 70
     1
102
RTVSPropertyOp40
 70
     1
102
RTVSPropertyOp41
 70
     1
102
RTVSPropertyOp42
 70
     1
102
RTVSPropertyOp43
 70
     1
102
RTVSPropertyOp44
 70
     1
102
RTVSPropertyOp45
 70
     1
102
RTVSPropertyOp46
 70
     1
102
RTVSPropertyOp47
 70
     1
102
RTVSPropertyOp48
 70
     1
102
RTVSPropertyOp49
 70
     1
102
RTVSPropertyOp50
 70
     1
102
RTVSPropertyOp51
 70
     0
102
RTVSPropertyOp52
 70
     0
102
RTVSPropertyOp53
 70
     1
102
RTVSPropertyOp54
 70
     1
102
RTVSPropertyOp55
 70
     1
102
RTVSPropertyOp56
 70
     1
102
RTVSPropertyOp57
 70
     1
102
RTVSPost2010Prop28
280
     0
102
RTVSPost2010PropOp28
 70
     1
102
RTVSPost2010Prop29
280
     1
102
RTVSPost2010PropOp29
 70
     1
102
RTVSPost2010Prop30
280
     1
102
RTVSPost2010PropOp30
 70
     1
102
RTVSPost2010Prop31
280
     0
102
RTVSPost2010PropOp31
 70
     1
102
RTVSPost2010Prop32
280
     0
102
RTVSPost2010PropOp32
 70
     1
102
RTVSPost2010Prop33
280
     0
102
RTVSPost2010PropOp33
 70
     1
102
RTVSPost2010Prop34
280
     0
102
RTVSPost2010PropOp34
 70
     1
102
RTVSPost2010Prop35
280
     0
102
RTVSPost2010PropOp35
 70
     1
102
RTVSPost2010Prop36
280
     0
102
RTVSPost2010PropOp36
 70
     1
102
RTVSPost2010Prop37
 90
       50
102
RTVSPost2010PropOp37
 70
     1
102
RTVSPost2010Prop38
140
0.0
102
RTVSPost2010PropOp38
 70
     1
102
RTVSPost2010Prop39
140
1.0
102
RTVSPost2010PropOp39
 70
     1
102
RTVSPost2010Prop40
 90
        0
102
RTVSPost2010PropOp40
 70
     1
102
RTVSPost2010Prop41ColorIndex
 90
       18
102
RTVSPost2010Prop41ColorRGB
 90
        0
102
RTVSPost2010PropOp41
 70
     1
102
RTVSPost2010Prop42
 90
       50
102
RTVSPost2010PropOp42
 70
     1
102
RTVSPost2010Prop43
 90
        3
102
RTVSPost2010PropOp43
 70
     1
102
RTVSPost2010Prop44ColorIndex
 90
        5
102
RTVSPost2010Prop44ColorRGB
 90
      255
102
RTVSPost2010PropOp44
 70
     1
102
RTVSPost2010Prop45
280
     0
102
RTVSPost2010PropOp45
 70
     1
102
RTVSPost2010Prop46
 90
       50
102
RTVSPost2010PropOp46
 70
     1
102
RTVSPost2010Prop47
 90
       50
102
RTVSPost2010PropOp47
 70
     1
102
RTVSPost2010Prop48
 90
       50
102
RTVSPost2010PropOp48
 70
     1
102
RTVSPost2010Prop49
280
     0
102
RTVSPost2010PropOp49
 70
     1
102
RTVSPost2010Prop50
 90
       50
102
RTVSPost2010PropOp50
 70
     1
102
RTVSPost2010Prop51ColorIndex
 90
      256
102
RTVSPost2010Prop51ColorRGB
 90
-16777216
102
RTVSPost2010PropOp51
 70
     0
102
RTVSPost2010Prop52
140
1.0
102
RTVSPost2010PropOp52
 70
     0
102
RTVSPost2010Prop53
 90
        2
102
RTVSPost2010PropOp53
 70
     1
102
RTVSPost2010Prop54
  1
strokes_ogs.tif
102
RTVSPost2010PropOp54
 70
     1
102
RTVSPost2010Prop55
280
     0
102
RTVSPost2010PropOp55
 70
     1
102
RTVSPost2010Prop56
140
1.0
102
RTVSPost2010PropOp56
 70
     1
102
RTVSPost2010Prop57
140
1.0
102
RTVSPost2010PropOp57
 70
     1
  0
XRECORD
  5
14C
102
{ACAD_REACTORS
330
14B
102
}
330
14B
100
AcDbXrecord
280
     1
102
RTVSPropertyOp0
 70
     0
102
RTVSPropertyOp1
 70
     0
102
RTVSPropertyOp2
 70
     0
102
RTVSPropertyOp3
 70
     0
102
RTVSPropertyOp4
 70
     0
102
RTVSPropertyOp5
 70
     0
102
RTVSPropertyOp6
 70
     0
102
RTVSPropertyOp7
 70
     0
102
RTVSPropertyOp8
 70
     0
102
RTVSPropertyOp9
 70
     0
102
RTVSPropertyOp10
 70
     0
102
RTVSPropertyOp11
 70
     0
102
RTVSPropertyOp12
 70
     0
102
RTVSPropertyOp13
 70
     0
102
RTVSPropertyOp14
 70
     2
102
RTVSPropertyOp15
 70
     0
102
RTVSPropertyOp16
 70
     0
102
RTVSPropertyOp17
 70
     0
102
RTVSPropertyOp18
 70
     0
102
RTVSPropertyOp19
 70
     0
102
RTVSPropertyOp20
 70
     0
102
RTVSPropertyOp21
 70
     0
102
RTVSPropertyOp22
 70
     0
102
RTVSPropertyOp23
 70
     0
102
RTVSPropertyOp24
 70
     0
102
RTVSPropertyOp25
 70
     0
102
RTVSPropertyOp26
 70
     0
102
RTVSPropertyOp27
 70
     0
102
RTVSPropertyOp28
 70
     0
102
RTVSPropertyOp29
 70
     0
102
RTVSPropertyOp30
 70
     0
102
RTVSPropertyOp31
 70
     0
102
RTVSPropertyOp32
 70
     0
102
RTVSPropertyOp33
 70
     0
102
RTVSPropertyOp34
 70
     0
102
RTVSPropertyOp35
 70
     0
102
RTVSPropertyOp36
 70
     0
102
RTVSPropertyOp37
 70
     0
102
RTVSPropertyOp38
 70
     0
102
RTVSPropertyOp39
 70
     0
102
RTVSPropertyOp40
 70
     0
102
RTVSPropertyOp41
 70
     0
102
RTVSPropertyOp42
 70
     0
102
RTVSPropertyOp43
 70
     0
102
RTVSPropertyOp44
 70
     0
102
RTVSPropertyOp45
 70
     0
102
RTVSPropertyOp46
 70
     0
102
RTVSPropertyOp47
 70
     0
102
RTVSPropertyOp48
 70
     0
102
RTVSPropertyOp49
 70
     0
102
RTVSPropertyOp50
 70
     0
102
RTVSPropertyOp51
 70
     0
102
RTVSPropertyOp52
 70
     0
102
RTVSPropertyOp53
 70
     0
102
RTVSPropertyOp54
 70
     0
102
RTVSPropertyOp55
 70
     0
102
RTVSPropertyOp56
 70
     0
102
RTVSPropertyOp57
 70
     0
102
RTVSPost2010Prop28
280
     0
102
RTVSPost2010PropOp28
 70
     0
102
RTVSPost2010Prop29
280
     1
102
RTVSPost2010PropOp29
 70
     0
102
RTVSPost2010Prop30
280
     1
102
RTVSPost2010PropOp30
 70
     0
102
RTVSPost2010Prop31
280
     0
102
RTVSPost2010PropOp31
 70
     0
102
RTVSPost2010Prop32
280
     0
102
RTVSPost2010PropOp32
 70
     0
102
RTVSPost2010Prop33
280
     0
102
RTVSPost2010PropOp33
 70
     0
102
RTVSPost2010Prop34
280
     0
102
RTVSPost2010PropOp34
 70
     0
102
RTVSPost2010Prop35
280
     0
102
RTVSPost2010PropOp35
 70
     0
102
RTVSPost2010Prop36
280
     0
102
RTVSPost2010PropOp36
 70
     0
102
RTVSPost2010Prop37
 90
       50
102
RTVSPost2010PropOp37
 70
     0
102
RTVSPost2010Prop38
140
0.0
102
RTVSPost2010PropOp38
 70
     0
102
RTVSPost2010Prop39
140
1.0
102
RTVSPost2010PropOp39
 70
     0
102
RTVSPost2010Prop40
 90
        0
102
RTVSPost2010PropOp40
 70
     0
102
RTVSPost2010Prop41ColorIndex
 90
       18
102
RTVSPost2010Prop41ColorRGB
 90
        0
102
RTVSPost2010PropOp41
 70
     0
102
RTVSPost2010Prop42
 90
       50
102
RTVSPost2010PropOp42
 70
     0
102
RTVSPost2010Prop43
 90
        3
102
RTVSPost2010PropOp43
 70
     0
102
RTVSPost2010Prop44ColorIndex
 90
        5
102
RTVSPost2010Prop44ColorRGB
 90
      255
102
RTVSPost2010PropOp44
 70
     0
102
RTVSPost2010Prop45
280
     0
102
RTVSPost2010PropOp45
 70
     0
102
RTVSPost2010Prop46
 90
       50
102
RTVSPost2010PropOp46
 70
     0
102
RTVSPost2010Prop47
 90
       50
102
RTVSPost2010PropOp47
 70
     0
102
RTVSPost2010Prop48
 90
       50
102
RTVSPost2010PropOp48
 70
     0
102
RTVSPost2010Prop49
280
     0
102
RTVSPost2010PropOp49
 70
     0
102
RTVSPost2010Prop50
 90
       50
102
RTVSPost2010PropOp50
 70
     0
102
RTVSPost2010Prop51ColorIndex
 90
      256
102
RTVSPost2010Prop51ColorRGB
 90
-16777216
102
RTVSPost2010PropOp51
 70
     0
102
RTVSPost2010Prop52
140
1.0
102
RTVSPost2010PropOp52
 70
     0
102
RTVSPost2010Prop53
 90
        2
102
RTVSPost2010PropOp53
 70
     0
102
RTVSPost2010Prop54
  1
strokes_ogs.tif
102
RTVSPost2010PropOp54
 70
     0
102
RTVSPost2010Prop55
280
     0
102
RTVSPost2010PropOp55
 70
     0
102
RTVSPost2010Prop56
140
1.0
102
RTVSPost2010PropOp56
 70
     0
102
RTVSPost2010Prop57
140
1.0
102
RTVSPost2010PropOp57
 70
     0
  0
XRECORD
  5
13A
102
{ACAD_REACTORS
330
139
102
}
330
139
100
AcDbXrecord
280
     1
102
RTVSPropertyOp0
 70
     1
102
RTVSPropertyOp1
 70
     1
102
RTVSPropertyOp2
 70
     1
102
RTVSPropertyOp3
 70
     1
102
RTVSPropertyOp4
 70
     1
102
RTVSPropertyOp5
 70
     1
102
RTVSPropertyOp6
 70
     1
102
RTVSPropertyOp7
 70
     1
102
RTVSPropertyOp8
 70
     1
102
RTVSPropertyOp9
 70
     1
102
RTVSPropertyOp10
 70
     1
102
RTVSPropertyOp11
 70
     1
102
RTVSPropertyOp12
 70
     1
102
RTVSPropertyOp13
 70
     1
102
RTVSPropertyOp14
 70
     1
102
RTVSPropertyOp15
 70
     1
102
RTVSPropertyOp16
 70
     1
102
RTVSPropertyOp17
 70
     1
102
RTVSPropertyOp18
 70
     1
102
RTVSPropertyOp19
 70
     1
102
RTVSPropertyOp20
 70
     1
102
RTVSPropertyOp21
 70
     1
102
RTVSPropertyOp22
 70
     1
102
RTVSPropertyOp23
 70
     1
102
RTVSPropertyOp24
 70
     1
102
RTVSPropertyOp25
 70
     1
102
RTVSPropertyOp26
 70
     1
102
RTVSPropertyOp27
 70
     1
102
RTVSPropertyOp28
 70
     1
102
RTVSPropertyOp29
 70
     1
102
RTVSPropertyOp30
 70
     1
102
RTVSPropertyOp31
 70
     1
102
RTVSPropertyOp32
 70
     1
102
RTVSPropertyOp33
 70
     1
102
RTVSPropertyOp34
 70
     1
102
RTVSPropertyOp35
 70
     1
102
RTVSPropertyOp36
 70
     1
102
RTVSPropertyOp37
 70
     1
102
RTVSPropertyOp38
 70
     1
102
RTVSPropertyOp39
 70
     1
102
RTVSPropertyOp40
 70
     1
102
RTVSPropertyOp41
 70
     1
102
RTVSPropertyOp42
 70
     1
102
RTVSPropertyOp43
 70
     1
102
RTVSPropertyOp44
 70
     1
102
RTVSPropertyOp45
 70
     1
102
RTVSPropertyOp46
 70
     1
102
RTVSPropertyOp47
 70
     1
102
RTVSPropertyOp48
 70
     1
102
RTVSPropertyOp49
 70
     1
102
RTVSPropertyOp50
 70
     1
102
RTVSPropertyOp51
 70
     0
102
RTVSPropertyOp52
 70
     0
102
RTVSPropertyOp53
 70
     1
102
RTVSPropertyOp54
 70
     1
102
RTVSPropertyOp55
 70
     1
102
RTVSPropertyOp56
 70
     1
102
RTVSPropertyOp57
 70
     1
102
RTVSPost2010Prop28
280
     0
102
RTVSPost2010PropOp28
 70
     1
102
RTVSPost2010Prop29
280
     1
102
RTVSPost2010PropOp29
 70
     1
102
RTVSPost2010Prop30
280
     1
102
RTVSPost2010PropOp30
 70
     1
102
RTVSPost2010Prop31
280
     0
102
RTVSPost2010PropOp31
 70
     1
102
RTVSPost2010Prop32
280
     0
102
RTVSPost2010PropOp32
 70
     1
102
RTVSPost2010Prop33
280
     0
102
RTVSPost2010PropOp33
 70
     1
102
RTVSPost2010Prop34
280
     0
102
RTVSPost2010PropOp34
 70
     1
102
RTVSPost2010Prop35
280
     0
102
RTVSPost2010PropOp35
 70
     1
102
RTVSPost2010Prop36
280
     0
102
RTVSPost2010PropOp36
 70
     1
102
RTVSPost2010Prop37
 90
       50
102
RTVSPost2010PropOp37
 70
     1
102
RTVSPost2010Prop38
140
0.0
102
RTVSPost2010PropOp38
 70
     1
102
RTVSPost2010Prop39
140
1.0
102
RTVSPost2010PropOp39
 70
     1
102
RTVSPost2010Prop40
 90
        0
102
RTVSPost2010PropOp40
 70
     1
102
RTVSPost2010Prop41ColorIndex
 90
       18
102
RTVSPost2010Prop41ColorRGB
 90
        0
102
RTVSPost2010PropOp41
 70
     1
102
RTVSPost2010Prop42
 90
       50
102
RTVSPost2010PropOp42
 70
     1
102
RTVSPost2010Prop43
 90
        3
102
RTVSPost2010PropOp43
 70
     1
102
RTVSPost2010Prop44ColorIndex
 90
        5
102
RTVSPost2010Prop44ColorRGB
 90
      255
102
RTVSPost2010PropOp44
 70
     1
102
RTVSPost2010Prop45
280
     0
102
RTVSPost2010PropOp45
 70
     1
102
RTVSPost2010Prop46
 90
       50
102
RTVSPost2010PropOp46
 70
     1
102
RTVSPost2010Prop47
 90
       50
102
RTVSPost2010PropOp47
 70
     1
102
RTVSPost2010Prop48
 90
       50
102
RTVSPost2010PropOp48
 70
     1
102
RTVSPost2010Prop49
280
     0
102
RTVSPost2010PropOp49
 70
     1
102
RTVSPost2010Prop50
 90
       50
102
RTVSPost2010PropOp50
 70
     1
102
RTVSPost2010Prop51ColorIndex
 90
      256
102
RTVSPost2010Prop51ColorRGB
 90
-16777216
102
RTVSPost2010PropOp51
 70
     0
102
RTVSPost2010Prop52
140
1.0
102
RTVSPost2010PropOp52
 70
     0
102
RTVSPost2010Prop53
 90
        2
102
RTVSPost2010PropOp53
 70
     1
102
RTVSPost2010Prop54
  1
strokes_ogs.tif
102
RTVSPost2010PropOp54
 70
     1
102
RTVSPost2010Prop55
280
     0
102
RTVSPost2010PropOp55
 70
     1
102
RTVSPost2010Prop56
140
1.0
102
RTVSPost2010PropOp56
 70
     1
102
RTVSPost2010Prop57
140
1.0
102
RTVSPost2010PropOp57
 70
     1
  0
XRECORD
  5
158
102
{ACAD_REACTORS
330
157
102
}
330
157
100
AcDbXrecord
280
     1
102
RTVSPropertyOp0
 70
     1
102
RTVSPropertyOp1
 70
     1
102
RTVSPropertyOp2
 70
     1
102
RTVSPropertyOp3
 70
     1
102
RTVSPropertyOp4
 70
     1
102
RTVSPropertyOp5
 70
     1
102
RTVSPropertyOp6
 70
     1
102
RTVSPropertyOp7
 70
     1
102
RTVSPropertyOp8
 70
     1
102
RTVSPropertyOp9
 70
     1
102
RTVSPropertyOp10
 70
     1
102
RTVSPropertyOp11
 70
     1
102
RTVSPropertyOp12
 70
     1
102
RTVSPropertyOp13
 70
     1
102
RTVSPropertyOp14
 70
     1
102
RTVSPropertyOp15
 70
     1
102
RTVSPropertyOp16
 70
     1
102
RTVSPropertyOp17
 70
     1
102
RTVSPropertyOp18
 70
     1
102
RTVSPropertyOp19
 70
     1
102
RTVSPropertyOp20
 70
     1
102
RTVSPropertyOp21
 70
     1
102
RTVSPropertyOp22
 70
     1
102
RTVSPropertyOp23
 70
     1
102
RTVSPropertyOp24
 70
     1
102
RTVSPropertyOp25
 70
     1
102
RTVSPropertyOp26
 70
     1
102
RTVSPropertyOp27
 70
     1
102
RTVSPropertyOp28
 70
     1
102
RTVSPropertyOp29
 70
     1
102
RTVSPropertyOp30
 70
     1
102
RTVSPropertyOp31
 70
     1
102
RTVSPropertyOp32
 70
     1
102
RTVSPropertyOp33
 70
     1
102
RTVSPropertyOp34
 70
     1
102
RTVSPropertyOp35
 70
     1
102
RTVSPropertyOp36
 70
     1
102
RTVSPropertyOp37
 70
     1
102
RTVSPropertyOp38
 70
     1
102
RTVSPropertyOp39
 70
     1
102
RTVSPropertyOp40
 70
     1
102
RTVSPropertyOp41
 70
     1
102
RTVSPropertyOp42
 70
     1
102
RTVSPropertyOp43
 70
     1
102
RTVSPropertyOp44
 70
     1
102
RTVSPropertyOp45
 70
     1
102
RTVSPropertyOp46
 70
     1
102
RTVSPropertyOp47
 70
     1
102
RTVSPropertyOp48
 70
     1
102
RTVSPropertyOp49
 70
     1
102
RTVSPropertyOp50
 70
     1
102
RTVSPropertyOp51
 70
     0
102
RTVSPropertyOp52
 70
     0
102
RTVSPropertyOp53
 70
     1
102
RTVSPropertyOp54
 70
     1
102
RTVSPropertyOp55
 70
     1
102
RTVSPropertyOp56
 70
     1
102
RTVSPropertyOp57
 70
     1
102
RTVSPost2010Prop28
280
     0
102
RTVSPost2010PropOp28
 70
     1
102
RTVSPost2010Prop29
280
     1
102
RTVSPost2010PropOp29
 70
     1
102
RTVSPost2010Prop30
280
     1
102
RTVSPost2010PropOp30
 70
     1
102
RTVSPost2010Prop31
280
     0
102
RTVSPost2010PropOp31
 70
     1
102
RTVSPost2010Prop32
280
     0
102
RTVSPost2010PropOp32
 70
     1
102
RTVSPost2010Prop33
280
     0
102
RTVSPost2010PropOp33
 70
     1
102
RTVSPost2010Prop34
280
     0
102
RTVSPost2010PropOp34
 70
     1
102
RTVSPost2010Prop35
280
     0
102
RTVSPost2010PropOp35
 70
     1
102
RTVSPost2010Prop36
280
     0
102
RTVSPost2010PropOp36
 70
     1
102
RTVSPost2010Prop37
 90
       50
102
RTVSPost2010PropOp37
 70
     1
102
RTVSPost2010Prop38
140
0.0
102
RTVSPost2010PropOp38
 70
     1
102
RTVSPost2010Prop39
140
1.0
102
RTVSPost2010PropOp39
 70
     1
102
RTVSPost2010Prop40
 90
        0
102
RTVSPost2010PropOp40
 70
     1
102
RTVSPost2010Prop41ColorIndex
 90
       18
102
RTVSPost2010Prop41ColorRGB
 90
        0
102
RTVSPost2010PropOp41
 70
     1
102
RTVSPost2010Prop42
 90
       50
102
RTVSPost2010PropOp42
 70
     1
102
RTVSPost2010Prop43
 90
        3
102
RTVSPost2010PropOp43
 70
     1
102
RTVSPost2010Prop44ColorIndex
 90
        5
102
RTVSPost2010Prop44ColorRGB
 90
      255
102
RTVSPost2010PropOp44
 70
     1
102
RTVSPost2010Prop45
280
     0
102
RTVSPost2010PropOp45
 70
     1
102
RTVSPost2010Prop46
 90
       50
102
RTVSPost2010PropOp46
 70
     1
102
RTVSPost2010Prop47
 90
       50
102
RTVSPost2010PropOp47
 70
     1
102
RTVSPost2010Prop48
 90
       50
102
RTVSPost2010PropOp48
 70
     1
102
RTVSPost2010Prop49
280
     0
102
RTVSPost2010PropOp49
 70
     1
102
RTVSPost2010Prop50
 90
       50
102
RTVSPost2010PropOp50
 70
     1
102
RTVSPost2010Prop51ColorIndex
 90
      256
102
RTVSPost2010Prop51ColorRGB
 90
-16777216
102
RTVSPost2010PropOp51
 70
     0
102
RTVSPost2010Prop52
140
1.0
102
RTVSPost2010PropOp52
 70
     0
102
RTVSPost2010Prop53
 90
        2
102
RTVSPost2010PropOp53
 70
     1
102
RTVSPost2010Prop54
  1
strokes_ogs.tif
102
RTVSPost2010PropOp54
 70
     1
102
RTVSPost2010Prop55
280
     0
102
RTVSPost2010PropOp55
 70
     1
102
RTVSPost2010Prop56
140
1.0
102
RTVSPost2010PropOp56
 70
     1
102
RTVSPost2010Prop57
140
1.0
102
RTVSPost2010PropOp57
 70
     1
  0
XRECORD
  5
156
102
{ACAD_REACTORS
330
155
102
}
330
155
100
AcDbXrecord
280
     1
102
RTVSPropertyOp0
 70
     1
102
RTVSPropertyOp1
 70
     1
102
RTVSPropertyOp2
 70
     1
102
RTVSPropertyOp3
 70
     1
102
RTVSPropertyOp4
 70
     1
102
RTVSPropertyOp5
 70
     1
102
RTVSPropertyOp6
 70
     1
102
RTVSPropertyOp7
 70
     1
102
RTVSPropertyOp8
 70
     1
102
RTVSPropertyOp9
 70
     1
102
RTVSPropertyOp10
 70
     1
102
RTVSPropertyOp11
 70
     1
102
RTVSPropertyOp12
 70
     1
102
RTVSPropertyOp13
 70
     1
102
RTVSPropertyOp14
 70
     1
102
RTVSPropertyOp15
 70
     1
102
RTVSPropertyOp16
 70
     1
102
RTVSPropertyOp17
 70
     1
102
RTVSPropertyOp18
 70
     1
102
RTVSPropertyOp19
 70
     1
102
RTVSPropertyOp20
 70
     1
102
RTVSPropertyOp21
 70
     1
102
RTVSPropertyOp22
 70
     1
102
RTVSPropertyOp23
 70
     1
102
RTVSPropertyOp24
 70
     1
102
RTVSPropertyOp25
 70
     1
102
RTVSPropertyOp26
 70
     1
102
RTVSPropertyOp27
 70
     1
102
RTVSPropertyOp28
 70
     1
102
RTVSPropertyOp29
 70
     1
102
RTVSPropertyOp30
 70
     1
102
RTVSPropertyOp31
 70
     1
102
RTVSPropertyOp32
 70
     1
102
RTVSPropertyOp33
 70
     1
102
RTVSPropertyOp34
 70
     1
102
RTVSPropertyOp35
 70
     1
102
RTVSPropertyOp36
 70
     1
102
RTVSPropertyOp37
 70
     1
102
RTVSPropertyOp38
 70
     1
102
RTVSPropertyOp39
 70
     1
102
RTVSPropertyOp40
 70
     1
102
RTVSPropertyOp41
 70
     1
102
RTVSPropertyOp42
 70
     1
102
RTVSPropertyOp43
 70
     1
102
RTVSPropertyOp44
 70
     1
102
RTVSPropertyOp45
 70
     1
102
RTVSPropertyOp46
 70
     1
102
RTVSPropertyOp47
 70
     1
102
RTVSPropertyOp48
 70
     1
102
RTVSPropertyOp49
 70
     1
102
RTVSPropertyOp50
 70
     1
102
RTVSPropertyOp51
 70
     0
102
RTVSPropertyOp52
 70
     0
102
RTVSPropertyOp53
 70
     1
102
RTVSPropertyOp54
 70
     1
102
RTVSPropertyOp55
 70
     1
102
RTVSPropertyOp56
 70
     1
102
RTVSPropertyOp57
 70
     1
102
RTVSPost2010Prop28
280
     0
102
RTVSPost2010PropOp28
 70
     1
102
RTVSPost2010Prop29
280
     1
102
RTVSPost2010PropOp29
 70
     1
102
RTVSPost2010Prop30
280
     1
102
RTVSPost2010PropOp30
 70
     1
102
RTVSPost2010Prop31
280
     0
102
RTVSPost2010PropOp31
 70
     1
102
RTVSPost2010Prop32
280
     0
102
RTVSPost2010PropOp32
 70
     1
102
RTVSPost2010Prop33
280
     0
102
RTVSPost2010PropOp33
 70
     1
102
RTVSPost2010Prop34
280
     0
102
RTVSPost2010PropOp34
 70
     1
102
RTVSPost2010Prop35
280
     0
102
RTVSPost2010PropOp35
 70
     1
102
RTVSPost2010Prop36
280
     0
102
RTVSPost2010PropOp36
 70
     1
102
RTVSPost2010Prop37
 90
       50
102
RTVSPost2010PropOp37
 70
     1
102
RTVSPost2010Prop38
140
0.0
102
RTVSPost2010PropOp38
 70
     1
102
RTVSPost2010Prop39
140
1.0
102
RTVSPost2010PropOp39
 70
     1
102
RTVSPost2010Prop40
 90
        0
102
RTVSPost2010PropOp40
 70
     1
102
RTVSPost2010Prop41ColorIndex
 90
       18
102
RTVSPost2010Prop41ColorRGB
 90
        0
102
RTVSPost2010PropOp41
 70
     1
102
RTVSPost2010Prop42
 90
       50
102
RTVSPost2010PropOp42
 70
     1
102
RTVSPost2010Prop43
 90
        3
102
RTVSPost2010PropOp43
 70
     1
102
RTVSPost2010Prop44ColorIndex
 90
        5
102
RTVSPost2010Prop44ColorRGB
 90
      255
102
RTVSPost2010PropOp44
 70
     1
102
RTVSPost2010Prop45
280
     0
102
RTVSPost2010PropOp45
 70
     1
102
RTVSPost2010Prop46
 90
       50
102
RTVSPost2010PropOp46
 70
     1
102
RTVSPost2010Prop47
 90
       50
102
RTVSPost2010PropOp47
 70
     1
102
RTVSPost2010Prop48
 90
       50
102
RTVSPost2010PropOp48
 70
     1
102
RTVSPost2010Prop49
280
     0
102
RTVSPost2010PropOp49
 70
     1
102
RTVSPost2010Prop50
 90
       50
102
RTVSPost2010PropOp50
 70
     1
102
RTVSPost2010Prop51ColorIndex
 90
      256
102
RTVSPost2010Prop51ColorRGB
 90
-16777216
102
RTVSPost2010PropOp51
 70
     0
102
RTVSPost2010Prop52
140
1.0
102
RTVSPost2010PropOp52
 70
     0
102
RTVSPost2010Prop53
 90
        2
102
RTVSPost2010PropOp53
 70
     1
102
RTVSPost2010Prop54
  1
strokes_ogs.tif
102
RTVSPost2010PropOp54
 70
     1
102
RTVSPost2010Prop55
280
     0
102
RTVSPost2010PropOp55
 70
     1
102
RTVSPost2010Prop56
140
1.0
102
RTVSPost2010PropOp56
 70
     1
102
RTVSPost2010Prop57
140
1.0
102
RTVSPost2010PropOp57
 70
     1
  0
XRECORD
  5
150
102
{ACAD_REACTORS
330
14F
102
}
330
14F
100
AcDbXrecord
280
     1
102
RTVSPropertyOp0
 70
     1
102
RTVSPropertyOp1
 70
     1
102
RTVSPropertyOp2
 70
     1
102
RTVSPropertyOp3
 70
     1
102
RTVSPropertyOp4
 70
     1
102
RTVSPropertyOp5
 70
     1
102
RTVSPropertyOp6
 70
     1
102
RTVSPropertyOp7
 70
     1
102
RTVSPropertyOp8
 70
     1
102
RTVSPropertyOp9
 70
     1
102
RTVSPropertyOp10
 70
     1
102
RTVSPropertyOp11
 70
     1
102
RTVSPropertyOp12
 70
     1
102
RTVSPropertyOp13
 70
     1
102
RTVSPropertyOp14
 70
     1
102
RTVSPropertyOp15
 70
     1
102
RTVSPropertyOp16
 70
     1
102
RTVSPropertyOp17
 70
     1
102
RTVSPropertyOp18
 70
     1
102
RTVSPropertyOp19
 70
     1
102
RTVSPropertyOp20
 70
     1
102
RTVSPropertyOp21
 70
     1
102
RTVSPropertyOp22
 70
     1
102
RTVSPropertyOp23
 70
     1
102
RTVSPropertyOp24
 70
     1
102
RTVSPropertyOp25
 70
     1
102
RTVSPropertyOp26
 70
     1
102
RTVSPropertyOp27
 70
     1
102
RTVSPropertyOp28
 70
     1
102
RTVSPropertyOp29
 70
     1
102
RTVSPropertyOp30
 70
     1
102
RTVSPropertyOp31
 70
     1
102
RTVSPropertyOp32
 70
     1
102
RTVSPropertyOp33
 70
     1
102
RTVSPropertyOp34
 70
     1
102
RTVSPropertyOp35
 70
     1
102
RTVSPropertyOp36
 70
     1
102
RTVSPropertyOp37
 70
     1
102
RTVSPropertyOp38
 70
     1
102
RTVSPropertyOp39
 70
     1
102
RTVSPropertyOp40
 70
     1
102
RTVSPropertyOp41
 70
     1
102
RTVSPropertyOp42
 70
     1
102
RTVSPropertyOp43
 70
     1
102
RTVSPropertyOp44
 70
     1
102
RTVSPropertyOp45
 70
     1
102
RTVSPropertyOp46
 70
     1
102
RTVSPropertyOp47
 70
     1
102
RTVSPropertyOp48
 70
     1
102
RTVSPropertyOp49
 70
     1
102
RTVSPropertyOp50
 70
     1
102
RTVSPropertyOp51
 70
     0
102
RTVSPropertyOp52
 70
     0
102
RTVSPropertyOp53
 70
     1
102
RTVSPropertyOp54
 70
     1
102
RTVSPropertyOp55
 70
     1
102
RTVSPropertyOp56
 70
     1
102
RTVSPropertyOp57
 70
     1
102
RTVSPost2010Prop28
280
     0
102
RTVSPost2010PropOp28
 70
     1
102
RTVSPost2010Prop29
280
     1
102
RTVSPost2010PropOp29
 70
     1
102
RTVSPost2010Prop30
280
     1
102
RTVSPost2010PropOp30
 70
     1
102
RTVSPost2010Prop31
280
     0
102
RTVSPost2010PropOp31
 70
     1
102
RTVSPost2010Prop32
280
     0
102
RTVSPost2010PropOp32
 70
     1
102
RTVSPost2010Prop33
280
     0
102
RTVSPost2010PropOp33
 70
     1
102
RTVSPost2010Prop34
280
     0
102
RTVSPost2010PropOp34
 70
     1
102
RTVSPost2010Prop35
280
     0
102
RTVSPost2010PropOp35
 70
     1
102
RTVSPost2010Prop36
280
     0
102
RTVSPost2010PropOp36
 70
     1
102
RTVSPost2010Prop37
 90
       50
102
RTVSPost2010PropOp37
 70
     1
102
RTVSPost2010Prop38
140
0.0
102
RTVSPost2010PropOp38
 70
     1
102
RTVSPost2010Prop39
140
1.0
102
RTVSPost2010PropOp39
 70
     1
102
RTVSPost2010Prop40
 90
        0
102
RTVSPost2010PropOp40
 70
     1
102
RTVSPost2010Prop41ColorIndex
 90
       18
102
RTVSPost2010Prop41ColorRGB
 90
        0
102
RTVSPost2010PropOp41
 70
     1
102
RTVSPost2010Prop42
 90
       50
102
RTVSPost2010PropOp42
 70
     1
102
RTVSPost2010Prop43
 90
        3
102
RTVSPost2010PropOp43
 70
     1
102
RTVSPost2010Prop44ColorIndex
 90
        5
102
RTVSPost2010Prop44ColorRGB
 90
      255
102
RTVSPost2010PropOp44
 70
     1
102
RTVSPost2010Prop45
280
     0
102
RTVSPost2010PropOp45
 70
     1
102
RTVSPost2010Prop46
 90
       50
102
RTVSPost2010PropOp46
 70
     1
102
RTVSPost2010Prop47
 90
       50
102
RTVSPost2010PropOp47
 70
     1
102
RTVSPost2010Prop48
 90
       50
102
RTVSPost2010PropOp48
 70
     1
102
RTVSPost2010Prop49
280
     0
102
RTVSPost2010PropOp49
 70
     1
102
RTVSPost2010Prop50
 90
       50
102
RTVSPost2010PropOp50
 70
     1
102
RTVSPost2010Prop51ColorIndex
 90
      256
102
RTVSPost2010Prop51ColorRGB
 90
-16777216
102
RTVSPost2010PropOp51
 70
     0
102
RTVSPost2010Prop52
140
1.0
102
RTVSPost2010PropOp52
 70
     0
102
RTVSPost2010Prop53
 90
        2
102
RTVSPost2010PropOp53
 70
     1
102
RTVSPost2010Prop54
  1
strokes_ogs.tif
102
RTVSPost2010PropOp54
 70
     1
102
RTVSPost2010Prop55
280
     0
102
RTVSPost2010PropOp55
 70
     1
102
RTVSPost2010Prop56
140
1.0
102
RTVSPost2010PropOp56
 70
     1
102
RTVSPost2010Prop57
140
1.0
102
RTVSPost2010PropOp57
 70
     1
  0
XRECORD
  5
152
102
{ACAD_REACTORS
330
151
102
}
330
151
100
AcDbXrecord
280
     1
102
RTVSPropertyOp0
 70
     1
102
RTVSPropertyOp1
 70
     1
102
RTVSPropertyOp2
 70
     1
102
RTVSPropertyOp3
 70
     1
102
RTVSPropertyOp4
 70
     1
102
RTVSPropertyOp5
 70
     1
102
RTVSPropertyOp6
 70
     1
102
RTVSPropertyOp7
 70
     1
102
RTVSPropertyOp8
 70
     1
102
RTVSPropertyOp9
 70
     1
102
RTVSPropertyOp10
 70
     1
102
RTVSPropertyOp11
 70
     1
102
RTVSPropertyOp12
 70
     1
102
RTVSPropertyOp13
 70
     1
102
RTVSPropertyOp14
 70
     1
102
RTVSPropertyOp15
 70
     1
102
RTVSPropertyOp16
 70
     1
102
RTVSPropertyOp17
 70
     1
102
RTVSPropertyOp18
 70
     1
102
RTVSPropertyOp19
 70
     1
102
RTVSPropertyOp20
 70
     1
102
RTVSPropertyOp21
 70
     1
102
RTVSPropertyOp22
 70
     1
102
RTVSPropertyOp23
 70
     1
102
RTVSPropertyOp24
 70
     1
102
RTVSPropertyOp25
 70
     1
102
RTVSPropertyOp26
 70
     1
102
RTVSPropertyOp27
 70
     1
102
RTVSPropertyOp28
 70
     1
102
RTVSPropertyOp29
 70
     1
102
RTVSPropertyOp30
 70
     1
102
RTVSPropertyOp31
 70
     1
102
RTVSPropertyOp32
 70
     1
102
RTVSPropertyOp33
 70
     1
102
RTVSPropertyOp34
 70
     1
102
RTVSPropertyOp35
 70
     1
102
RTVSPropertyOp36
 70
     1
102
RTVSPropertyOp37
 70
     1
102
RTVSPropertyOp38
 70
     1
102
RTVSPropertyOp39
 70
     1
102
RTVSPropertyOp40
 70
     1
102
RTVSPropertyOp41
 70
     1
102
RTVSPropertyOp42
 70
     1
102
RTVSPropertyOp43
 70
     1
102
RTVSPropertyOp44
 70
     1
102
RTVSPropertyOp45
 70
     1
102
RTVSPropertyOp46
 70
     1
102
RTVSPropertyOp47
 70
     1
102
RTVSPropertyOp48
 70
     1
102
RTVSPropertyOp49
 70
     1
102
RTVSPropertyOp50
 70
     1
102
RTVSPropertyOp51
 70
     0
102
RTVSPropertyOp52
 70
     0
102
RTVSPropertyOp53
 70
     1
102
RTVSPropertyOp54
 70
     1
102
RTVSPropertyOp55
 70
     1
102
RTVSPropertyOp56
 70
     1
102
RTVSPropertyOp57
 70
     1
102
RTVSPost2010Prop28
280
     0
102
RTVSPost2010PropOp28
 70
     1
102
RTVSPost2010Prop29
280
     1
102
RTVSPost2010PropOp29
 70
     1
102
RTVSPost2010Prop30
280
     1
102
RTVSPost2010PropOp30
 70
     1
102
RTVSPost2010Prop31
280
     0
102
RTVSPost2010PropOp31
 70
     1
102
RTVSPost2010Prop32
280
     0
102
RTVSPost2010PropOp32
 70
     1
102
RTVSPost2010Prop33
280
     0
102
RTVSPost2010PropOp33
 70
     1
102
RTVSPost2010Prop34
280
     0
102
RTVSPost2010PropOp34
 70
     1
102
RTVSPost2010Prop35
280
     0
102
RTVSPost2010PropOp35
 70
     1
102
RTVSPost2010Prop36
280
     0
102
RTVSPost2010PropOp36
 70
     1
102
RTVSPost2010Prop37
 90
       50
102
RTVSPost2010PropOp37
 70
     1
102
RTVSPost2010Prop38
140
0.0
102
RTVSPost2010PropOp38
 70
     1
102
RTVSPost2010Prop39
140
1.0
102
RTVSPost2010PropOp39
 70
     1
102
RTVSPost2010Prop40
 90
        0
102
RTVSPost2010PropOp40
 70
     1
102
RTVSPost2010Prop41ColorIndex
 90
       18
102
RTVSPost2010Prop41ColorRGB
 90
        0
102
RTVSPost2010PropOp41
 70
     1
102
RTVSPost2010Prop42
 90
       50
102
RTVSPost2010PropOp42
 70
     1
102
RTVSPost2010Prop43
 90
        3
102
RTVSPost2010PropOp43
 70
     1
102
RTVSPost2010Prop44ColorIndex
 90
        5
102
RTVSPost2010Prop44ColorRGB
 90
      255
102
RTVSPost2010PropOp44
 70
     1
102
RTVSPost2010Prop45
280
     0
102
RTVSPost2010PropOp45
 70
     1
102
RTVSPost2010Prop46
 90
       50
102
RTVSPost2010PropOp46
 70
     1
102
RTVSPost2010Prop47
 90
       50
102
RTVSPost2010PropOp47
 70
     1
102
RTVSPost2010Prop48
 90
       50
102
RTVSPost2010PropOp48
 70
     1
102
RTVSPost2010Prop49
280
     0
102
RTVSPost2010PropOp49
 70
     1
102
RTVSPost2010Prop50
 90
       50
102
RTVSPost2010PropOp50
 70
     1
102
RTVSPost2010Prop51ColorIndex
 90
      256
102
RTVSPost2010Prop51ColorRGB
 90
-16777216
102
RTVSPost2010PropOp51
 70
     0
102
RTVSPost2010Prop52
140
1.0
102
RTVSPost2010PropOp52
 70
     0
102
RTVSPost2010Prop53
 90
        2
102
RTVSPost2010PropOp53
 70
     1
102
RTVSPost2010Prop54
  1
strokes_ogs.tif
102
RTVSPost2010PropOp54
 70
     1
102
RTVSPost2010Prop55
280
     0
102
RTVSPost2010PropOp55
 70
     1
102
RTVSPost2010Prop56
140
1.0
102
RTVSPost2010PropOp56
 70
     1
102
RTVSPost2010Prop57
140
1.0
102
RTVSPost2010PropOp57
 70
     1
  0
XRECORD
  5
142
102
{ACAD_REACTORS
330
141
102
}
330
141
100
AcDbXrecord
280
     1
102
RTVSPropertyOp0
 70
     1
102
RTVSPropertyOp1
 70
     1
102
RTVSPropertyOp2
 70
     1
102
RTVSPropertyOp3
 70
     1
102
RTVSPropertyOp4
 70
     1
102
RTVSPropertyOp5
 70
     1
102
RTVSPropertyOp6
 70
     1
102
RTVSPropertyOp7
 70
     1
102
RTVSPropertyOp8
 70
     1
102
RTVSPropertyOp9
 70
     1
102
RTVSPropertyOp10
 70
     1
102
RTVSPropertyOp11
 70
     1
102
RTVSPropertyOp12
 70
     1
102
RTVSPropertyOp13
 70
     1
102
RTVSPropertyOp14
 70
     1
102
RTVSPropertyOp15
 70
     1
102
RTVSPropertyOp16
 70
     1
102
RTVSPropertyOp17
 70
     1
102
RTVSPropertyOp18
 70
     1
102
RTVSPropertyOp19
 70
     1
102
RTVSPropertyOp20
 70
     1
102
RTVSPropertyOp21
 70
     1
102
RTVSPropertyOp22
 70
     1
102
RTVSPropertyOp23
 70
     1
102
RTVSPropertyOp24
 70
     1
102
RTVSPropertyOp25
 70
     1
102
RTVSPropertyOp26
 70
     1
102
RTVSPropertyOp27
 70
     1
102
RTVSPropertyOp28
 70
     1
102
RTVSPropertyOp29
 70
     1
102
RTVSPropertyOp30
 70
     1
102
RTVSPropertyOp31
 70
     1
102
RTVSPropertyOp32
 70
     1
102
RTVSPropertyOp33
 70
     1
102
RTVSPropertyOp34
 70
     1
102
RTVSPropertyOp35
 70
     1
102
RTVSPropertyOp36
 70
     1
102
RTVSPropertyOp37
 70
     1
102
RTVSPropertyOp38
 70
     1
102
RTVSPropertyOp39
 70
     1
102
RTVSPropertyOp40
 70
     1
102
RTVSPropertyOp41
 70
     1
102
RTVSPropertyOp42
 70
     1
102
RTVSPropertyOp43
 70
     1
102
RTVSPropertyOp44
 70
     1
102
RTVSPropertyOp45
 70
     1
102
RTVSPropertyOp46
 70
     1
102
RTVSPropertyOp47
 70
     1
102
RTVSPropertyOp48
 70
     1
102
RTVSPropertyOp49
 70
     1
102
RTVSPropertyOp50
 70
     1
102
RTVSPropertyOp51
 70
     0
102
RTVSPropertyOp52
 70
     0
102
RTVSPropertyOp53
 70
     1
102
RTVSPropertyOp54
 70
     1
102
RTVSPropertyOp55
 70
     1
102
RTVSPropertyOp56
 70
     1
102
RTVSPropertyOp57
 70
     1
102
RTVSPost2010Prop28
280
     0
102
RTVSPost2010PropOp28
 70
     1
102
RTVSPost2010Prop29
280
     1
102
RTVSPost2010PropOp29
 70
     1
102
RTVSPost2010Prop30
280
     1
102
RTVSPost2010PropOp30
 70
     1
102
RTVSPost2010Prop31
280
     0
102
RTVSPost2010PropOp31
 70
     1
102
RTVSPost2010Prop32
280
     0
102
RTVSPost2010PropOp32
 70
     1
102
RTVSPost2010Prop33
280
     0
102
RTVSPost2010PropOp33
 70
     1
102
RTVSPost2010Prop34
280
     0
102
RTVSPost2010PropOp34
 70
     1
102
RTVSPost2010Prop35
280
     0
102
RTVSPost2010PropOp35
 70
     1
102
RTVSPost2010Prop36
280
     0
102
RTVSPost2010PropOp36
 70
     1
102
RTVSPost2010Prop37
 90
       50
102
RTVSPost2010PropOp37
 70
     1
102
RTVSPost2010Prop38
140
0.0
102
RTVSPost2010PropOp38
 70
     1
102
RTVSPost2010Prop39
140
1.0
102
RTVSPost2010PropOp39
 70
     1
102
RTVSPost2010Prop40
 90
        0
102
RTVSPost2010PropOp40
 70
     1
102
RTVSPost2010Prop41ColorIndex
 90
       18
102
RTVSPost2010Prop41ColorRGB
 90
        0
102
RTVSPost2010PropOp41
 70
     1
102
RTVSPost2010Prop42
 90
       50
102
RTVSPost2010PropOp42
 70
     1
102
RTVSPost2010Prop43
 90
        3
102
RTVSPost2010PropOp43
 70
     1
102
RTVSPost2010Prop44ColorIndex
 90
        5
102
RTVSPost2010Prop44ColorRGB
 90
      255
102
RTVSPost2010PropOp44
 70
     1
102
RTVSPost2010Prop45
280
     0
102
RTVSPost2010PropOp45
 70
     1
102
RTVSPost2010Prop46
 90
       50
102
RTVSPost2010PropOp46
 70
     1
102
RTVSPost2010Prop47
 90
       50
102
RTVSPost2010PropOp47
 70
     1
102
RTVSPost2010Prop48
 90
       50
102
RTVSPost2010PropOp48
 70
     1
102
RTVSPost2010Prop49
280
     0
102
RTVSPost2010PropOp49
 70
     1
102
RTVSPost2010Prop50
 90
       50
102
RTVSPost2010PropOp50
 70
     1
102
RTVSPost2010Prop51ColorIndex
 90
      256
102
RTVSPost2010Prop51ColorRGB
 90
-16777216
102
RTVSPost2010PropOp51
 70
     0
102
RTVSPost2010Prop52
140
1.0
102
RTVSPost2010PropOp52
 70
     0
102
RTVSPost2010Prop53
 90
        2
102
RTVSPost2010PropOp53
 70
     1
102
RTVSPost2010Prop54
  1
strokes_ogs.tif
102
RTVSPost2010PropOp54
 70
     1
102
RTVSPost2010Prop55
280
     0
102
RTVSPost2010PropOp55
 70
     1
102
RTVSPost2010Prop56
140
1.0
102
RTVSPost2010PropOp56
 70
     1
102
RTVSPost2010Prop57
140
1.0
102
RTVSPost2010PropOp57
 70
     1
  0
XRECORD
  5
134
102
{ACAD_REACTORS
330
133
102
}
330
133
100
AcDbXrecord
280
     1
102
RTVSPropertyOp0
 70
     1
102
RTVSPropertyOp1
 70
     1
102
RTVSPropertyOp2
 70
     1
102
RTVSPropertyOp3
 70
     1
102
RTVSPropertyOp4
 70
     1
102
RTVSPropertyOp5
 70
     1
102
RTVSPropertyOp6
 70
     1
102
RTVSPropertyOp7
 70
     1
102
RTVSPropertyOp8
 70
     1
102
RTVSPropertyOp9
 70
     1
102
RTVSPropertyOp10
 70
     1
102
RTVSPropertyOp11
 70
     1
102
RTVSPropertyOp12
 70
     1
102
RTVSPropertyOp13
 70
     1
102
RTVSPropertyOp14
 70
     1
102
RTVSPropertyOp15
 70
     1
102
RTVSPropertyOp16
 70
     1
102
RTVSPropertyOp17
 70
     1
102
RTVSPropertyOp18
 70
     1
102
RTVSPropertyOp19
 70
     1
102
RTVSPropertyOp20
 70
     1
102
RTVSPropertyOp21
 70
     1
102
RTVSPropertyOp22
 70
     1
102
RTVSPropertyOp23
 70
     1
102
RTVSPropertyOp24
 70
     1
102
RTVSPropertyOp25
 70
     1
102
RTVSPropertyOp26
 70
     1
102
RTVSPropertyOp27
 70
     1
102
RTVSPropertyOp28
 70
     1
102
RTVSPropertyOp29
 70
     1
102
RTVSPropertyOp30
 70
     1
102
RTVSPropertyOp31
 70
     1
102
RTVSPropertyOp32
 70
     1
102
RTVSPropertyOp33
 70
     1
102
RTVSPropertyOp34
 70
     1
102
RTVSPropertyOp35
 70
     1
102
RTVSPropertyOp36
 70
     1
102
RTVSPropertyOp37
 70
     1
102
RTVSPropertyOp38
 70
     1
102
RTVSPropertyOp39
 70
     1
102
RTVSPropertyOp40
 70
     1
102
RTVSPropertyOp41
 70
     1
102
RTVSPropertyOp42
 70
     1
102
RTVSPropertyOp43
 70
     1
102
RTVSPropertyOp44
 70
     1
102
RTVSPropertyOp45
 70
     1
102
RTVSPropertyOp46
 70
     1
102
RTVSPropertyOp47
 70
     1
102
RTVSPropertyOp48
 70
     1
102
RTVSPropertyOp49
 70
     1
102
RTVSPropertyOp50
 70
     1
102
RTVSPropertyOp51
 70
     0
102
RTVSPropertyOp52
 70
     0
102
RTVSPropertyOp53
 70
     1
102
RTVSPropertyOp54
 70
     1
102
RTVSPropertyOp55
 70
     1
102
RTVSPropertyOp56
 70
     1
102
RTVSPropertyOp57
 70
     1
102
RTVSPost2010Prop28
280
     0
102
RTVSPost2010PropOp28
 70
     1
102
RTVSPost2010Prop29
280
     1
102
RTVSPost2010PropOp29
 70
     1
102
RTVSPost2010Prop30
280
     1
102
RTVSPost2010PropOp30
 70
     1
102
RTVSPost2010Prop31
280
     0
102
RTVSPost2010PropOp31
 70
     1
102
RTVSPost2010Prop32
280
     0
102
RTVSPost2010PropOp32
 70
     1
102
RTVSPost2010Prop33
280
     0
102
RTVSPost2010PropOp33
 70
     1
102
RTVSPost2010Prop34
280
     0
102
RTVSPost2010PropOp34
 70
     1
102
RTVSPost2010Prop35
280
     0
102
RTVSPost2010PropOp35
 70
     1
102
RTVSPost2010Prop36
280
     0
102
RTVSPost2010PropOp36
 70
     1
102
RTVSPost2010Prop37
 90
       50
102
RTVSPost2010PropOp37
 70
     1
102
RTVSPost2010Prop38
140
0.0
102
RTVSPost2010PropOp38
 70
     1
102
RTVSPost2010Prop39
140
1.0
102
RTVSPost2010PropOp39
 70
     1
102
RTVSPost2010Prop40
 90
        0
102
RTVSPost2010PropOp40
 70
     1
102
RTVSPost2010Prop41ColorIndex
 90
       18
102
RTVSPost2010Prop41ColorRGB
 90
        0
102
RTVSPost2010PropOp41
 70
     1
102
RTVSPost2010Prop42
 90
       50
102
RTVSPost2010PropOp42
 70
     1
102
RTVSPost2010Prop43
 90
        3
102
RTVSPost2010PropOp43
 70
     1
102
RTVSPost2010Prop44ColorIndex
 90
        5
102
RTVSPost2010Prop44ColorRGB
 90
      255
102
RTVSPost2010PropOp44
 70
     1
102
RTVSPost2010Prop45
280
     0
102
RTVSPost2010PropOp45
 70
     1
102
RTVSPost2010Prop46
 90
       50
102
RTVSPost2010PropOp46
 70
     1
102
RTVSPost2010Prop47
 90
       50
102
RTVSPost2010PropOp47
 70
     1
102
RTVSPost2010Prop48
 90
       50
102
RTVSPost2010PropOp48
 70
     1
102
RTVSPost2010Prop49
280
     0
102
RTVSPost2010PropOp49
 70
     1
102
RTVSPost2010Prop50
 90
       50
102
RTVSPost2010PropOp50
 70
     1
102
RTVSPost2010Prop51ColorIndex
 90
      256
102
RTVSPost2010Prop51ColorRGB
 90
-16777216
102
RTVSPost2010PropOp51
 70
     0
102
RTVSPost2010Prop52
140
1.0
102
RTVSPost2010PropOp52
 70
     0
102
RTVSPost2010Prop53
 90
        2
102
RTVSPost2010PropOp53
 70
     1
102
RTVSPost2010Prop54
  1
strokes_ogs.tif
102
RTVSPost2010PropOp54
 70
     1
102
RTVSPost2010Prop55
280
     0
102
RTVSPost2010PropOp55
 70
     1
102
RTVSPost2010Prop56
140
1.0
102
RTVSPost2010PropOp56
 70
     1
102
RTVSPost2010Prop57
140
1.0
102
RTVSPost2010PropOp57
 70
     1
  0
XRECORD
  5
154
102
{ACAD_REACTORS
330
153
102
}
330
153
100
AcDbXrecord
280
     1
102
RTVSPropertyOp0
 70
     1
102
RTVSPropertyOp1
 70
     1
102
RTVSPropertyOp2
 70
     1
102
RTVSPropertyOp3
 70
     1
102
RTVSPropertyOp4
 70
     1
102
RTVSPropertyOp5
 70
     1
102
RTVSPropertyOp6
 70
     1
102
RTVSPropertyOp7
 70
     1
102
RTVSPropertyOp8
 70
     1
102
RTVSPropertyOp9
 70
     1
102
RTVSPropertyOp10
 70
     1
102
RTVSPropertyOp11
 70
     1
102
RTVSPropertyOp12
 70
     1
102
RTVSPropertyOp13
 70
     1
102
RTVSPropertyOp14
 70
     1
102
RTVSPropertyOp15
 70
     1
102
RTVSPropertyOp16
 70
     1
102
RTVSPropertyOp17
 70
     1
102
RTVSPropertyOp18
 70
     1
102
RTVSPropertyOp19
 70
     1
102
RTVSPropertyOp20
 70
     1
102
RTVSPropertyOp21
 70
     1
102
RTVSPropertyOp22
 70
     1
102
RTVSPropertyOp23
 70
     1
102
RTVSPropertyOp24
 70
     1
102
RTVSPropertyOp25
 70
     1
102
RTVSPropertyOp26
 70
     1
102
RTVSPropertyOp27
 70
     1
102
RTVSPropertyOp28
 70
     1
102
RTVSPropertyOp29
 70
     1
102
RTVSPropertyOp30
 70
     1
102
RTVSPropertyOp31
 70
     1
102
RTVSPropertyOp32
 70
     1
102
RTVSPropertyOp33
 70
     1
102
RTVSPropertyOp34
 70
     1
102
RTVSPropertyOp35
 70
     1
102
RTVSPropertyOp36
 70
     1
102
RTVSPropertyOp37
 70
     1
102
RTVSPropertyOp38
 70
     1
102
RTVSPropertyOp39
 70
     1
102
RTVSPropertyOp40
 70
     1
102
RTVSPropertyOp41
 70
     1
102
RTVSPropertyOp42
 70
     1
102
RTVSPropertyOp43
 70
     1
102
RTVSPropertyOp44
 70
     1
102
RTVSPropertyOp45
 70
     1
102
RTVSPropertyOp46
 70
     1
102
RTVSPropertyOp47
 70
     1
102
RTVSPropertyOp48
 70
     1
102
RTVSPropertyOp49
 70
     1
102
RTVSPropertyOp50
 70
     1
102
RTVSPropertyOp51
 70
     0
102
RTVSPropertyOp52
 70
     0
102
RTVSPropertyOp53
 70
     1
102
RTVSPropertyOp54
 70
     1
102
RTVSPropertyOp55
 70
     1
102
RTVSPropertyOp56
 70
     1
102
RTVSPropertyOp57
 70
     1
102
RTVSPost2010Prop28
280
     0
102
RTVSPost2010PropOp28
 70
     1
102
RTVSPost2010Prop29
280
     1
102
RTVSPost2010PropOp29
 70
     1
102
RTVSPost2010Prop30
280
     1
102
RTVSPost2010PropOp30
 70
     1
102
RTVSPost2010Prop31
280
     0
102
RTVSPost2010PropOp31
 70
     1
102
RTVSPost2010Prop32
280
     0
102
RTVSPost2010PropOp32
 70
     1
102
RTVSPost2010Prop33
280
     0
102
RTVSPost2010PropOp33
 70
     1
102
RTVSPost2010Prop34
280
     0
102
RTVSPost2010PropOp34
 70
     1
102
RTVSPost2010Prop35
280
     0
102
RTVSPost2010PropOp35
 70
     1
102
RTVSPost2010Prop36
280
     0
102
RTVSPost2010PropOp36
 70
     1
102
RTVSPost2010Prop37
 90
       50
102
RTVSPost2010PropOp37
 70
     1
102
RTVSPost2010Prop38
140
0.0
102
RTVSPost2010PropOp38
 70
     1
102
RTVSPost2010Prop39
140
1.0
102
RTVSPost2010PropOp39
 70
     1
102
RTVSPost2010Prop40
 90
        0
102
RTVSPost2010PropOp40
 70
     1
102
RTVSPost2010Prop41ColorIndex
 90
       18
102
RTVSPost2010Prop41ColorRGB
 90
        0
102
RTVSPost2010PropOp41
 70
     1
102
RTVSPost2010Prop42
 90
       50
102
RTVSPost2010PropOp42
 70
     1
102
RTVSPost2010Prop43
 90
        3
102
RTVSPost2010PropOp43
 70
     1
102
RTVSPost2010Prop44ColorIndex
 90
        5
102
RTVSPost2010Prop44ColorRGB
 90
      255
102
RTVSPost2010PropOp44
 70
     1
102
RTVSPost2010Prop45
280
     0
102
RTVSPost2010PropOp45
 70
     1
102
RTVSPost2010Prop46
 90
       50
102
RTVSPost2010PropOp46
 70
     1
102
RTVSPost2010Prop47
 90
       50
102
RTVSPost2010PropOp47
 70
     1
102
RTVSPost2010Prop48
 90
       50
102
RTVSPost2010PropOp48
 70
     1
102
RTVSPost2010Prop49
280
     0
102
RTVSPost2010PropOp49
 70
     1
102
RTVSPost2010Prop50
 90
       50
102
RTVSPost2010PropOp50
 70
     1
102
RTVSPost2010Prop51ColorIndex
 90
      256
102
RTVSPost2010Prop51ColorRGB
 90
-16777216
102
RTVSPost2010PropOp51
 70
     0
102
RTVSPost2010Prop52
140
1.0
102
RTVSPost2010PropOp52
 70
     0
102
RTVSPost2010Prop53
 90
        2
102
RTVSPost2010PropOp53
 70
     1
102
RTVSPost2010Prop54
  1
strokes_ogs.tif
102
RTVSPost2010PropOp54
 70
     1
102
RTVSPost2010Prop55
280
     0
102
RTVSPost2010PropOp55
 70
     1
102
RTVSPost2010Prop56
140
1.0
102
RTVSPost2010PropOp56
 70
     1
102
RTVSPost2010Prop57
140
1.0
102
RTVSPost2010PropOp57
 70
     1
  0
ENDSEC
  0
EOF
