999
DXF file: S:\Engenharia\Wildfire\Engenharia\Produtos\Cubas\Prime\Sem_Escape\94021\94021.dxf
999
Pro/ENGINEER 2013050 by Parametric Technology Corporation
  0
SECTION
  2
HEADER
  9
$ACADVER
  1
AC1021
  9
$DWGCODEPAGE
  3
ANSI_1252
  9
$EXTMAX
 10
1189.0
 20
841.0
 30
0.0
  9
$EXTMIN
 10
0.0
 20
0.0
 30
0.0
  9
$LIMMIN
 10
0.0
 20
0.0
  9
$LIMMAX
 10
1189.0
 20
841.0
  9
$VIEWCTR
 10
594.5
 20
420.5
  9
$VIEWSIZE
 40
841.0
  9
$CLAYER
  8
0
  9
$LTSCALE
 40
65.395
  9
$CELTYPE
  6
BYLAYER
  9
$DIMSCALE
 40
1.0
  9
$DIMASZ
 40
3.0
  9
$DIMEXO
 40
0.5
  9
$DIMDLI
 40
45.182
  9
$DIMEXE
 40
0.5
  9
$DIMCEN
 40
10.701
  9
$DIMLFAC
 40
5.0
  9
$DIMBLK
  1
_FILLED
  9
$DIMTXT
 40
1.8
  9
$DIMTOL
 70
1
  9
$DIMLIM
 70
0
  9
$DIMTFAC
 40
1.0
  9
$DIMTP
 40
0.001
  9
$DIMTM
 40
0.001
  9
$DIMGAP
 40
0.625
  9
$DIMDSEP
 70
46
  9
$PDMODE
 70
3
  9
$PDSIZE
 40
1.0
  9
$HANDSEED
  5
284
  9
$TILEMODE
 70
1
  9
$MEASUREMENT
 70
1
  9
$INSUNITS
 70
4
  0
ENDSEC
  0
SECTION
  2
CLASSES
  0
CLASS
  1
ACDBDICTIONARYWDFLT
  2
AcDbDictionaryWithDefault
  3
AutoCAD 2000
 90
0
 91
1
280
0
281
0
  0
CLASS
  1
ACDBPLACEHOLDER
  2
AcDbPlaceHolder
  3
AutoCAD 2000
 90
0
 91
1
280
0
281
0
  0
CLASS
  1
LAYOUT
  2
AcDbLayout
  3
AutoCAD 2000
 90
0
 91
0
280
0
281
0
  0
ENDSEC
  0
SECTION
  2
TABLES
  0
TABLE
  2
VPORT
  5
8
100
AcDbSymbolTable
 70
2
  0
VPORT
  5
1F4
100
AcDbSymbolTableRecord
100
AcDbViewportTableRecord
  2
*ACTIVE
 70
0
 10
0.0
 20
0.0
 11
1.0
 21
1.0
 12
594.5
 22
420.5
 13
0.0
 23
0.0
 14
1.0
 24
1.0
 15
0.0
 25
0.0
 16
0.0
 26
0.0
 36
1.0
 17
0.0
 27
0.0
 37
0.0
 40
841.0
 41
1.4137931034
 42
50.0
 43
0.0
 44
0.0
 50
0.0
 51
0.0
 71
0
 72
100
 73
1
 74
1
 75
0
 76
0
 77
0
 78
0
  0
ENDTAB
  0
TABLE
  2
LTYPE
  5
5
100
AcDbSymbolTable
 70
6
  0
LTYPE
  5
14
100
AcDbSymbolTableRecord
100
AcDbLinetypeTableRecord
  2
BYBLOCK
 70
0
  3

 72
65
 73
0
 40
0.0
  0
LTYPE
  5
15
100
AcDbSymbolTableRecord
100
AcDbLinetypeTableRecord
  2
BYLAYER
 70
0
  3

 72
65
 73
0
 40
0.0
  0
LTYPE
  5
16
100
AcDbSymbolTableRecord
100
AcDbLinetypeTableRecord
  2
CONTINUOUS
 70
64
  3
Solid line
 72
65
 73
0
 40
0.0
  0
LTYPE
  5
1F5
100
AcDbSymbolTableRecord
100
AcDbLinetypeTableRecord
  2
CENTER
 70
64
  3
____ _ ____ _ ____ _ ____ _ ____ _ ____ _ ____
 72
65
 73
4
 40
0.6
 49
0.375
 74
0
 49
-0.075
 74
0
 49
0.075
 74
0
 49
-0.075
 74
0
  0
LTYPE
  5
1F6
100
AcDbSymbolTableRecord
100
AcDbLinetypeTableRecord
  2
HIDDEN
 70
64
  3
- - - - - - - - - - - - - - - - - - - -
 72
65
 73
2
 40
0.2
 49
0.1
 74
0
 49
-0.1
 74
0
  0
LTYPE
  5
1F7
100
AcDbSymbolTableRecord
100
AcDbLinetypeTableRecord
  2
PHANTOM
 70
64
  3
_____ _ _ _____ _ _ _____ _ _ _____
 72
65
 73
6
 40
0.8
 49
0.45
 74
0
 49
-0.05
 74
0
 49
0.1
 74
0
 49
-0.05
 74
0
 49
0.1
 74
0
 49
-0.05
 74
0
  0
LTYPE
  5
1F8
100
AcDbSymbolTableRecord
100
AcDbLinetypeTableRecord
  2
DOT
 70
64
  3
. . . . . . . . . . . . . . . . . . . .
 72
65
 73
2
 40
0.2
 49
0.1
 74
0
 49
-0.1
 74
0
  0
LTYPE
  5
1F9
100
AcDbSymbolTableRecord
100
AcDbLinetypeTableRecord
  2
DASHED
 70
64
  3
- - - - - - - - - - - - - - - - - - - -
 72
65
 73
2
 40
0.2
 49
0.1
 74
0
 49
-0.1
 74
0
  0
ENDTAB
  0
TABLE
  2
LAYER
  5
2
100
AcDbSymbolTable
 70
36
  0
LAYER
  5
10
100
AcDbSymbolTableRecord
100
AcDbLayerTableRecord
  2
0
 70
0
 62
7
  6
CONTINUOUS
370
-3
390
F
  0
LAYER
  5
1FA
100
AcDbSymbolTableRecord
100
AcDbLayerTableRecord
  2
DEFAULT_1
 70
0
 62
7
  6
CENTER
370
-3
390
F
  0
LAYER
  5
1FB
100
AcDbSymbolTableRecord
100
AcDbLayerTableRecord
  2
DEFAULT_2
 70
0
 62
8
  6
HIDDEN
370
-3
390
F
  0
LAYER
  5
1FC
100
AcDbSymbolTableRecord
100
AcDbLayerTableRecord
  2
DEFAULT_3
 70
0
 62
7
  6
PHANTOM
370
-3
390
F
  0
LAYER
  5
1FD
100
AcDbSymbolTableRecord
100
AcDbLayerTableRecord
  2
01___PRT_ALL_DTM_PLN
 70
0
 62
7
  6
CONTINUOUS
370
-3
390
F
  0
LAYER
  5
1FE
100
AcDbSymbolTableRecord
100
AcDbLayerTableRecord
  2
01___PRT_DEF_DTM_PLN
 70
0
 62
7
  6
CONTINUOUS
370
-3
390
F
  0
LAYER
  5
1FF
100
AcDbSymbolTableRecord
100
AcDbLayerTableRecord
  2
02___PRT_ALL_AXES
 70
0
 62
7
  6
CONTINUOUS
370
-3
390
F
  0
LAYER
  5
200
100
AcDbSymbolTableRecord
100
AcDbLayerTableRecord
  2
03___PRT_ALL_CURVES
 70
0
 62
7
  6
CONTINUOUS
370
-3
390
F
  0
LAYER
  5
201
100
AcDbSymbolTableRecord
100
AcDbLayerTableRecord
  2
04___PRT_ALL_DTM_PNT
 70
0
 62
7
  6
CONTINUOUS
370
-3
390
F
  0
LAYER
  5
202
100
AcDbSymbolTableRecord
100
AcDbLayerTableRecord
  2
05___PRT_ALL_DTM_CSYS
 70
0
 62
7
  6
CONTINUOUS
370
-3
390
F
  0
LAYER
  5
203
100
AcDbSymbolTableRecord
100
AcDbLayerTableRecord
  2
05___PRT_DEF_DTM_CSYS
 70
0
 62
7
  6
CONTINUOUS
370
-3
390
F
  0
LAYER
  5
204
100
AcDbSymbolTableRecord
100
AcDbLayerTableRecord
  2
06___PRT_ALL_SURFS
 70
0
 62
7
  6
CONTINUOUS
370
-3
390
F
  0
ENDTAB
  0
TABLE
  2
STYLE
  5
3
100
AcDbSymbolTable
 70
1
  0
STYLE
  5
11
100
AcDbSymbolTableRecord
100
AcDbTextStyleTableRecord
  2
STANDARD
 70
0
 40
0.0
 41
0.8
 50
0.0
 71
0
 42
0.2
  3
txt
  4

  0
STYLE
  5
205
100
AcDbSymbolTableRecord
100
AcDbTextStyleTableRecord
  2
TEXTSTYLE_1
 70
0
 40
0.0
 41
0.8
 50
0.0
 71
0
 42
0.2
  3
gdt
  4

  0
ENDTAB
  0
TABLE
  2
VIEW
  5
6
100
AcDbSymbolTable
 70
0
  0
ENDTAB
  0
TABLE
  2
UCS
  5
7
100
AcDbSymbolTable
 70
0
  0
ENDTAB
  0
TABLE
  2
APPID
  5
9
100
AcDbSymbolTable
 70
1
  0
APPID
  5
206
100
AcDbSymbolTableRecord
100
AcDbRegAppTableRecord
  2
ACAD
 70
0
  0
ENDTAB
  0
TABLE
  2
BLOCK_RECORD
  5
1
100
AcDbSymbolTable
 70
0
  0
BLOCK_RECORD
  5
207
100
AcDbSymbolTableRecord
100
AcDbBlockTableRecord
  2
*Model_Space
  0
BLOCK_RECORD
  5
208
100
AcDbSymbolTableRecord
100
AcDbBlockTableRecord
  2
*Paper_Space
  0
BLOCK_RECORD
  5
209
100
AcDbSymbolTableRecord
100
AcDbBlockTableRecord
  2
_FILLED
  0
BLOCK_RECORD
  5
20A
100
AcDbSymbolTableRecord
100
AcDbBlockTableRecord
  2
*D0
  0
BLOCK_RECORD
  5
20B
100
AcDbSymbolTableRecord
100
AcDbBlockTableRecord
  2
*D1
  0
BLOCK_RECORD
  5
20C
100
AcDbSymbolTableRecord
100
AcDbBlockTableRecord
  2
*D2
  0
BLOCK_RECORD
  5
20D
100
AcDbSymbolTableRecord
100
AcDbBlockTableRecord
  2
*D3
  0
BLOCK_RECORD
  5
20E
100
AcDbSymbolTableRecord
100
AcDbBlockTableRecord
  2
*D4
  0
ENDTAB
  0
TABLE
  2
DIMSTYLE
  5
A
100
AcDbSymbolTable
 70
1
100
AcDbDimStyleTable
 71
0
  0
DIMSTYLE
105
20F
100
AcDbSymbolTableRecord
100
AcDbDimStyleTableRecord
  2
STANDARD
 70
0
  3

  4

 40
1.0
 41
3.0
 42
0.5
 43
0.38
 44
0.5
 45
0.0
 46
0.0
 47
0.001
 48
0.001
140
1.8
141
0.09
142
0.0
143
25.4
144
1.0
145
0.0
146
1.0
147
0.625
 71
1.0
 72
0.0
 73
0
 74
0
 75
0
 76
0
 77
1
 78
8
170
0
171
2
172
0
173
0
174
0
175
0
176
0
177
0
178
0
270
2
271
3
272
3
273
2
274
2
275
0
280
0
281
0
282
0
283
1
284
8
285
0
286
0
287
3
288
0
340
11
278
46
341
209
342
209
343
209
344
209
  0
DIMSTYLE
105
210
100
AcDbSymbolTableRecord
100
AcDbDimStyleTableRecord
  2
DIMSTYLE_1
 70
0
  3

  4

 40
1.0
 41
3.0
 42
0.5
 43
0.38
 44
0.5
 45
0.0
 46
0.0
 47
0.5
 48
0.5
140
8.0
141
0.09
142
0.0
143
25.4
144
1.0
145
0.0
146
1.0
147
2.0
 71
0.0
 72
0.0
 73
0
 74
0
 75
0
 76
0
 77
1
 78
8
170
0
171
2
172
0
173
0
174
0
175
0
176
0
177
0
178
0
270
2
271
0
272
0
273
2
274
2
275
0
280
0
281
0
282
0
283
1
284
8
285
0
286
0
287
3
288
0
340
11
278
46
341
209
342
209
343
209
344
209
  0
DIMSTYLE
105
211
100
AcDbSymbolTableRecord
100
AcDbDimStyleTableRecord
  2
DIMSTYLE_2
 70
0
  3

  4

 40
1.0
 41
3.0
 42
0.5
 43
0.38
 44
0.5
 45
0.0
 46
0.0
 47
0.2
 48
0.2
140
8.0
141
0.09
142
0.0
143
25.4
144
1.0
145
0.0
146
1.0
147
2.0
 71
0.0
 72
0.0
 73
0
 74
0
 75
0
 76
0
 77
1
 78
8
170
0
171
2
172
0
173
0
174
0
175
0
176
0
177
0
178
0
270
2
271
0
272
0
273
2
274
2
275
0
280
0
281
0
282
0
283
1
284
8
285
0
286
0
287
3
288
0
340
11
278
46
341
209
342
209
343
209
344
209
  0
ENDTAB
  0
ENDSEC
  0
SECTION
  2
BLOCKS
  0
BLOCK
  5
20
100
AcDbEntity
  8
0
100
AcDbBlockBegin
  2
*Model_Space
 70
0
 10
0.0
 20
0.0
 30
0.0
  3
*Model_Space
  1

  0
ENDBLK
  5
21
100
AcDbEntity
  8
0
100
AcDbBlockEnd
  0
BLOCK
  5
1C
100
AcDbEntity
  8
0
100
AcDbBlockBegin
  2
*Paper_Space
 70
0
 10
0.0
 20
0.0
 30
0.0
  3
*Paper_Space
  1

  0
ENDBLK
  5
1D
100
AcDbEntity
  8
0
100
AcDbBlockEnd
  0
BLOCK
  5
212
100
AcDbEntity
  8
0
100
AcDbBlockBegin
  2
_FILLED
 70
64
 10
0.0
 20
0.0
  3
_FILLED
  1

  0
SOLID
  5
213
100
AcDbEntity
  8
0
  6
BYBLOCK
 62
0
100
AcDbTrace
 10
0.0
 20
0.0
 11
-1.0
 21
0.1666666667
 12
-1.0
 22
-0.1666666667
 13
-1.0
 23
-0.1666666667
  0
ENDBLK
  5
214
100
AcDbEntity
  8
0
  6
BYBLOCK
 62
0
100
AcDbBlockEnd
  0
BLOCK
  5
215
100
AcDbEntity
  8
0
100
AcDbBlockBegin
 62
2
  6
CONTINUOUS
  2
*D0
 70
65
 10
0.0
 20
0.0
  3
*D0
  1

  0
MTEXT
  5
216
100
AcDbEntity
  8
0
100
AcDbMText
 62
2
  6
CONTINUOUS
  7
STANDARD
 71
2
 72
1
 10
309.8263857797
 20
637.522937523
 30
0.0
 11
1.0
 21
0.0
 31
0.0
 44
0.9
  1
201
 40
8.0
 41
37.0285714286
  0
LINE
  5
217
100
AcDbEntity
  8
0
100
AcDbLine
 62
2
  6
CONTINUOUS
 10
209.3763857797
 20
576.910705549
 11
209.3763857797
 21
626.5943660945
  0
LINE
  5
218
100
AcDbEntity
  8
0
100
AcDbLine
 62
2
  6
CONTINUOUS
 10
410.2763857797
 20
437.0160283733
 11
410.2763857797
 21
626.5943660945
  0
LINE
  5
219
100
AcDbEntity
  8
0
100
AcDbLine
 62
2
  6
CONTINUOUS
 10
209.3763857797
 20
626.0943660945
 11
309.8263857797
 21
626.0943660945
  0
LINE
  5
21A
100
AcDbEntity
  8
0
100
AcDbLine
 62
2
  6
CONTINUOUS
 10
410.2763857797
 20
626.0943660945
 11
309.8263857797
 21
626.0943660945
  0
INSERT
  5
21B
100
AcDbEntity
  8
0
100
AcDbBlockReference
 62
2
  6
CONTINUOUS
  2
_FILLED
 10
209.3763857797
 20
626.0943660945
 41
3.0
 42
3.0
 43
3.0
 50
180.0
  0
INSERT
  5
21C
100
AcDbEntity
  8
0
100
AcDbBlockReference
 62
2
  6
CONTINUOUS
  2
_FILLED
 10
410.2763857797
 20
626.0943660945
 41
3.0
 42
3.0
 43
3.0
  0
ENDBLK
  5
21D
100
AcDbEntity
  8
0
  6
BYBLOCK
 62
0
100
AcDbBlockEnd
  0
BLOCK
  5
21E
100
AcDbEntity
  8
0
100
AcDbBlockBegin
 62
2
  6
CONTINUOUS
  2
*D1
 70
65
 10
0.0
 20
0.0
  3
*D1
  1

  0
MTEXT
  5
21F
100
AcDbEntity
  8
0
100
AcDbMText
 62
2
  6
CONTINUOUS
  7
STANDARD
 71
2
 72
1
 10
564.0090503394
 20
391.410705549
 30
0.0
 11
0.0
 21
1.0
 31
0.0
 44
0.9
  1
350
 40
8.0
 41
37.0285714286
  0
LINE
  5
220
100
AcDbEntity
  8
0
100
AcDbLine
 62
2
  6
CONTINUOUS
 10
817.9106180132
 20
566.3188412945
 11
574.9376217679
 21
566.3188412945
  0
LINE
  5
221
100
AcDbEntity
  8
0
100
AcDbLine
 62
2
  6
CONTINUOUS
 10
817.9106180132
 20
216.5025698035
 11
574.9376217679
 21
216.5025698035
  0
LINE
  5
222
100
AcDbEntity
  8
0
100
AcDbLine
 62
2
  6
CONTINUOUS
 10
575.4376217679
 20
566.3188412945
 11
575.4376217679
 21
391.410705549
  0
LINE
  5
223
100
AcDbEntity
  8
0
100
AcDbLine
 62
2
  6
CONTINUOUS
 10
575.4376217679
 20
216.5025698035
 11
575.4376217679
 21
391.410705549
  0
INSERT
  5
224
100
AcDbEntity
  8
0
100
AcDbBlockReference
 62
2
  6
CONTINUOUS
  2
_FILLED
 10
575.4376217679
 20
566.3188412945
 41
3.0
 42
3.0
 43
3.0
 50
90.0
  0
INSERT
  5
225
100
AcDbEntity
  8
0
100
AcDbBlockReference
 62
2
  6
CONTINUOUS
  2
_FILLED
 10
575.4376217679
 20
216.5025698035
 41
3.0
 42
3.0
 43
3.0
 50
270.0
  0
ENDBLK
  5
226
100
AcDbEntity
  8
0
  6
BYBLOCK
 62
0
100
AcDbBlockEnd
  0
BLOCK
  5
227
100
AcDbEntity
  8
0
100
AcDbBlockBegin
 62
2
  6
CONTINUOUS
  2
*D2
 70
65
 10
0.0
 20
0.0
  3
*D2
  1

  0
MTEXT
  5
228
100
AcDbEntity
  8
0
100
AcDbMText
 62
2
  6
CONTINUOUS
  7
STANDARD
 71
3
 72
1
 10
564.0090503394
 20
187.8215005211
 30
0.0
 11
0.0
 21
1.0
 31
0.0
 44
0.9
  1
10
 40
8.0
 41
24.6857142857
  0
LINE
  5
229
100
AcDbEntity
  8
0
100
AcDbLine
 62
2
  6
CONTINUOUS
 10
817.9106180132
 20
206.410705549
 11
574.9376217679
 21
206.410705549
  0
LINE
  5
22A
100
AcDbEntity
  8
0
100
AcDbLine
 62
2
  6
CONTINUOUS
 10
817.9106180132
 20
216.5025698035
 11
574.9376217679
 21
216.5025698035
  0
LINE
  5
22B
100
AcDbEntity
  8
0
100
AcDbLine
 62
2
  6
CONTINUOUS
 10
575.4376217679
 20
206.410705549
 11
575.4376217679
 21
211.4566376763
  0
LINE
  5
22C
100
AcDbEntity
  8
0
100
AcDbLine
 62
2
  6
CONTINUOUS
 10
575.4376217679
 20
211.4566376763
 11
575.4376217679
 21
171.364357664
  0
LINE
  5
22D
100
AcDbEntity
  8
0
100
AcDbLine
 62
2
  6
CONTINUOUS
 10
575.4376217679
 20
216.5025698035
 11
575.4376217679
 21
211.4566376763
  0
INSERT
  5
22E
100
AcDbEntity
  8
0
100
AcDbBlockReference
 62
2
  6
CONTINUOUS
  2
_FILLED
 10
575.4376217679
 20
206.410705549
 41
3.0
 42
3.0
 43
3.0
 50
270.0
  0
INSERT
  5
22F
100
AcDbEntity
  8
0
100
AcDbBlockReference
 62
2
  6
CONTINUOUS
  2
_FILLED
 10
575.4376217679
 20
216.5025698035
 41
3.0
 42
3.0
 43
3.0
 50
90.0
  0
ENDBLK
  5
230
100
AcDbEntity
  8
0
  6
BYBLOCK
 62
0
100
AcDbBlockEnd
  0
BLOCK
  5
231
100
AcDbEntity
  8
0
100
AcDbBlockBegin
 62
2
  6
CONTINUOUS
  2
*D3
 70
65
 10
0.0
 20
0.0
  3
*D3
  1

  0
MTEXT
  5
232
100
AcDbEntity
  8
0
100
AcDbMText
 62
2
  6
CONTINUOUS
  7
STANDARD
 71
2
 72
1
 10
818.4106180132
 20
181.3378037319
 30
0.0
 11
1.0
 21
0.0
 31
0.0
 44
0.9
  1
400
 40
8.0
 41
37.0285714286
  0
LINE
  5
233
100
AcDbEntity
  8
0
100
AcDbLine
 62
2
  6
CONTINUOUS
 10
618.5024822677
 20
390.910705549
 11
618.5024822677
 21
169.4092323034
  0
LINE
  5
234
100
AcDbEntity
  8
0
100
AcDbLine
 62
2
  6
CONTINUOUS
 10
1018.3187537587
 20
390.910705549
 11
1018.3187537587
 21
169.4092323034
  0
LINE
  5
235
100
AcDbEntity
  8
0
100
AcDbLine
 62
2
  6
CONTINUOUS
 10
618.5024822677
 20
169.9092323034
 11
818.4106180132
 21
169.9092323034
  0
LINE
  5
236
100
AcDbEntity
  8
0
100
AcDbLine
 62
2
  6
CONTINUOUS
 10
1018.3187537587
 20
169.9092323034
 11
818.4106180132
 21
169.9092323034
  0
INSERT
  5
237
100
AcDbEntity
  8
0
100
AcDbBlockReference
 62
2
  6
CONTINUOUS
  2
_FILLED
 10
618.5024822677
 20
169.9092323034
 41
3.0
 42
3.0
 43
3.0
 50
180.0
  0
INSERT
  5
238
100
AcDbEntity
  8
0
100
AcDbBlockReference
 62
2
  6
CONTINUOUS
  2
_FILLED
 10
1018.3187537587
 20
169.9092323034
 41
3.0
 42
3.0
 43
3.0
  0
ENDBLK
  5
239
100
AcDbEntity
  8
0
  6
BYBLOCK
 62
0
100
AcDbBlockEnd
  0
BLOCK
  5
23A
100
AcDbEntity
  8
0
100
AcDbBlockBegin
 62
2
  6
CONTINUOUS
  2
*D4
 70
65
 10
0.0
 20
0.0
  3
*D4
  1

  0
MTEXT
  5
23B
100
AcDbEntity
  8
0
100
AcDbMText
 62
2
  6
CONTINUOUS
  7
STANDARD
 71
1
 72
1
 10
1049.8085431163
 20
181.3378037319
 30
0.0
 11
1.0
 21
0.0
 31
0.0
 44
0.9
  1
10
 40
8.0
 41
24.6857142857
  0
LINE
  5
23C
100
AcDbEntity
  8
0
100
AcDbLine
 62
2
  6
CONTINUOUS
 10
1018.3187537587
 20
390.910705549
 11
1018.3187537587
 21
169.4092323034
  0
LINE
  5
23D
100
AcDbEntity
  8
0
100
AcDbLine
 62
2
  6
CONTINUOUS
 10
1028.4106180132
 20
390.910705549
 11
1028.4106180132
 21
169.4092323034
  0
LINE
  5
23E
100
AcDbEntity
  8
0
100
AcDbLine
 62
2
  6
CONTINUOUS
 10
1018.3187537587
 20
169.9092323034
 11
1023.3646858859
 21
169.9092323034
  0
LINE
  5
23F
100
AcDbEntity
  8
0
100
AcDbLine
 62
2
  6
CONTINUOUS
 10
1028.4106180132
 20
169.9092323034
 11
1023.3646858859
 21
169.9092323034
  0
LINE
  5
240
100
AcDbEntity
  8
0
100
AcDbLine
 62
2
  6
CONTINUOUS
 10
1023.3646858859
 20
169.9092323034
 11
1066.2656859734
 21
169.9092323034
  0
INSERT
  5
241
100
AcDbEntity
  8
0
100
AcDbBlockReference
 62
2
  6
CONTINUOUS
  2
_FILLED
 10
1018.3187537587
 20
169.9092323034
 41
3.0
 42
3.0
 43
3.0
 50
180.0
  0
INSERT
  5
242
100
AcDbEntity
  8
0
100
AcDbBlockReference
 62
2
  6
CONTINUOUS
  2
_FILLED
 10
1028.4106180132
 20
169.9092323034
 41
3.0
 42
3.0
 43
3.0
  0
ENDBLK
  5
243
100
AcDbEntity
  8
0
  6
BYBLOCK
 62
0
100
AcDbBlockEnd
  0
ENDSEC
  0
SECTION
  2
ENTITIES
  0
DIMENSION
  5
244
100
AcDbEntity
  8
0
100
AcDbDimension
 62
2
  6
CONTINUOUS
  2
*D0
 10
410.2763857797
 20
626.0943660945
 11
309.8263857797
 21
626.0943660945
 70
160
 71
2
 42
200.9
  3
DIMSTYLE_1
100
AcDbAlignedDimension
 13
209.3763857797
 23
576.410705549
 14
410.2763857797
 24
436.5160283733
100
AcDbRotatedDimension
  0
DIMENSION
  5
245
100
AcDbEntity
  8
0
100
AcDbDimension
 62
2
  6
CONTINUOUS
  2
*D1
 10
575.4376217679
 20
216.5025698035
 11
575.4376217679
 21
391.410705549
 70
160
 71
2
 42
349.816271491
  3
DIMSTYLE_1
100
AcDbAlignedDimension
 13
818.4106180132
 23
566.3188412945
 14
818.4106180132
 24
216.5025698035
 50
270.0
100
AcDbRotatedDimension
  0
DIMENSION
  5
246
100
AcDbEntity
  8
0
100
AcDbDimension
 62
2
  6
CONTINUOUS
  2
*D2
 10
575.4376217679
 20
216.5025698035
 11
575.4376217679
 21
179.5929290925
 70
160
 71
3
 42
10.0918642545
  3
DIMSTYLE_2
100
AcDbAlignedDimension
 13
818.4106180132
 23
206.410705549
 14
818.4106180132
 24
216.5025698035
 50
90.0
100
AcDbRotatedDimension
  0
DIMENSION
  5
247
100
AcDbEntity
  8
0
100
AcDbDimension
 62
2
  6
CONTINUOUS
  2
*D3
 10
1018.3187537587
 20
169.9092323034
 11
818.4106180132
 21
169.9092323034
 70
160
 71
2
 42
399.816271491
  3
DIMSTYLE_1
100
AcDbAlignedDimension
 13
618.5024822677
 23
391.410705549
 14
1018.3187537587
 24
391.410705549
100
AcDbRotatedDimension
  0
DIMENSION
  5
248
100
AcDbEntity
  8
0
100
AcDbDimension
 62
2
  6
CONTINUOUS
  2
*D4
 10
1028.4106180132
 20
169.9092323034
 11
1058.0371145448
 21
169.9092323034
 70
160
 71
1
 42
10.0918642545
  3
DIMSTYLE_2
100
AcDbAlignedDimension
 13
1018.3187537587
 23
391.410705549
 14
1028.4106180132
 24
391.410705549
100
AcDbRotatedDimension
  0
LINE
  5
249
100
AcDbEntity
  8
0
100
AcDbLine
 62
7
  6
CONTINUOUS
 10
209.3763857797
 20
206.410705549
 11
209.3763857797
 21
576.410705549
  0
LINE
  5
24A
100
AcDbEntity
  8
0
100
AcDbLine
 62
7
  6
CONTINUOUS
 10
210.1763857797
 20
206.4107055491
 11
210.1763857797
 21
576.4107055489
  0
LINE
  5
24B
100
AcDbEntity
  8
0
100
AcDbLine
 62
7
  6
CONTINUOUS
 10
211.5153186374
 20
567.1180798717
 11
211.5153186374
 21
215.7033312263
  0
LINE
  5
24C
100
AcDbEntity
  8
0
100
AcDbLine
 62
7
  6
CONTINUOUS
 10
402.4162923662
 20
516.935066046
 11
402.3638068145
 21
516.8434150439
  0
LINE
  5
24D
100
AcDbEntity
  8
0
100
AcDbLine
 62
7
  6
CONTINUOUS
 10
210.1763857797
 20
206.4107055491
 11
209.3763857797
 21
206.410705549
  0
LINE
  5
24E
100
AcDbEntity
  8
0
100
AcDbLine
 62
7
  6
CONTINUOUS
 10
209.3763857797
 20
209.5479726139
 11
210.1763857797
 21
209.5479726139
  0
LINE
  5
24F
100
AcDbEntity
  8
0
100
AcDbLine
 62
7
  6
CONTINUOUS
 10
405.2659683052
 20
451.6667610048
 11
402.4148262657
 21
516.9686498227
  0
LINE
  5
250
100
AcDbEntity
  8
0
100
AcDbLine
 62
7
  6
CONTINUOUS
 10
405.2659683052
 20
331.1546500932
 11
405.2659683052
 21
451.6667610048
  0
LINE
  5
251
100
AcDbEntity
  8
0
100
AcDbLine
 62
7
  6
CONTINUOUS
 10
406.8661610961
 20
333.5782517665
 11
406.8661610961
 21
449.2431593315
  0
LINE
  5
252
100
AcDbEntity
  8
0
100
AcDbLine
 62
7
  6
CONTINUOUS
 10
410.2763857797
 20
346.3053827247
 11
410.2763857797
 21
436.5160283733
  0
LINE
  5
253
100
AcDbEntity
  8
0
100
AcDbLine
 62
7
  6
CONTINUOUS
 10
405.2659683052
 20
331.1546500932
 11
402.4148262657
 21
265.8527612753
  0
LINE
  5
254
100
AcDbEntity
  8
0
100
AcDbLine
 62
7
  6
CONTINUOUS
 10
358.6548989899
 20
222.1275840436
 11
211.5153186374
 21
215.7033312263
  0
LINE
  5
255
100
AcDbEntity
  8
0
100
AcDbLine
 62
7
  6
CONTINUOUS
 10
211.5153186374
 20
218.8274066855
 11
356.7932476125
 21
225.1613723077
  0
LINE
  5
256
100
AcDbEntity
  8
0
100
AcDbLine
 62
7
  6
CONTINUOUS
 10
410.2763857797
 20
436.5160275471
 11
406.8661610961
 21
449.2431593315
  0
LINE
  5
257
100
AcDbEntity
  8
0
100
AcDbLine
 62
7
  6
CONTINUOUS
 10
410.2763857797
 20
346.3053835509
 11
406.8661610961
 21
333.5782517665
  0
LINE
  5
258
100
AcDbEntity
  8
0
100
AcDbLine
 62
7
  6
CONTINUOUS
 10
209.3763857797
 20
299.2956072567
 11
210.1763857797
 21
299.2956072567
  0
LINE
  5
259
100
AcDbEntity
  8
0
100
AcDbLine
 62
7
  6
CONTINUOUS
 10
406.8661610961
 20
449.2431593315
 11
405.2659683052
 21
451.6667610048
  0
LINE
  5
25A
100
AcDbEntity
  8
0
100
AcDbLine
 62
7
  6
CONTINUOUS
 10
406.8661610961
 20
333.5782517665
 11
405.2659683052
 21
331.1546500932
  0
LINE
  5
25B
100
AcDbEntity
  8
0
100
AcDbLine
 62
7
  6
CONTINUOUS
 10
209.3763857797
 20
483.5258038413
 11
210.1763857797
 21
483.5258038413
  0
LINE
  5
25C
100
AcDbEntity
  8
0
100
AcDbLine
 62
7
  6
CONTINUOUS
 10
211.5153186374
 20
563.9940044125
 11
356.7932482034
 21
557.6600391183
  0
LINE
  5
25D
100
AcDbEntity
  8
0
100
AcDbLine
 62
7
  6
CONTINUOUS
 10
358.6548989899
 20
560.6938270544
 11
211.5153186374
 21
567.1180798717
  0
LINE
  5
25E
100
AcDbEntity
  8
0
100
AcDbLine
 62
7
  6
CONTINUOUS
 10
209.3763857797
 20
573.2734384841
 11
210.1763857797
 21
573.2734384841
  0
LINE
  5
25F
100
AcDbEntity
  8
0
100
AcDbLine
 62
7
  6
CONTINUOUS
 10
210.1763857797
 20
576.4107055489
 11
209.3763857797
 21
576.410705549
  0
ARC
  5
260
100
AcDbEntity
  8
0
100
AcDbCircle
 62
7
  6
CONTINUOUS
 10
-3931.0941759368
 20
393.8644957359
 40
4332.4175550865
100
AcDbArc
 50
358.7792582232
 51
359.9675488738
  0
ARC
  5
261
100
AcDbEntity
  8
0
100
AcDbCircle
 62
7
  6
CONTINUOUS
 10
-3931.0941758559
 20
388.956915363
 40
4332.4175550056
100
AcDbArc
 50
0.0324511262
 51
1.2207417768
  0
ARC
  5
262
100
AcDbEntity
  8
0
100
AcDbCircle
 62
7
  6
CONTINUOUS
 10
818.4106180132
 20
-1633.589294451
 40
2210.0
100
AcDbArc
 50
86.9467059728
 51
93.0532940272
  0
ARC
  5
263
100
AcDbEntity
  8
0
100
AcDbCircle
 62
7
  6
CONTINUOUS
 10
818.4106180132
 20
2416.410705549
 40
2210.0
100
AcDbArc
 50
266.9467059728
 51
273.0532940272
  0
ARC
  5
264
100
AcDbEntity
  8
0
100
AcDbCircle
 62
7
  6
CONTINUOUS
 10
818.4106180132
 20
-1633.589294451
 40
2199.9081357455
100
AcDbArc
 50
86.9467059728
 51
93.0532940272
  0
ARC
  5
265
100
AcDbEntity
  8
0
100
AcDbCircle
 62
7
  6
CONTINUOUS
 10
818.4106180132
 20
2416.410705549
 40
2199.9081357455
100
AcDbArc
 50
266.9467059728
 51
273.0532940272
  0
ARC
  5
266
100
AcDbEntity
  8
0
100
AcDbCircle
 62
7
  6
CONTINUOUS
 10
-681.5893819868
 20
391.410705549
 40
1710.0
100
AcDbArc
 50
356.9120688684
 51
3.0879311316
  0
ARC
  5
267
100
AcDbEntity
  8
0
100
AcDbCircle
 62
7
  6
CONTINUOUS
 10
2318.4106180132
 20
391.410705549
 40
1710.0
100
AcDbArc
 50
176.9120688684
 51
183.0879311316
  0
ARC
  5
268
100
AcDbEntity
  8
0
100
AcDbCircle
 62
7
  6
CONTINUOUS
 10
-681.5893819868
 20
391.410705549
 40
1699.9081357455
100
AcDbArc
 50
356.9120688684
 51
3.0879311316
  0
ARC
  5
269
100
AcDbEntity
  8
0
100
AcDbCircle
 62
7
  6
CONTINUOUS
 10
2318.4106180132
 20
391.410705549
 40
1699.9081357455
100
AcDbArc
 50
176.9120688684
 51
183.0879311316
  0
ARC
  5
26A
100
AcDbEntity
  8
0
100
AcDbCircle
 62
7
  6
CONTINUOUS
 10
705.7555343572
 20
304.4131127174
 40
95.0
100
AcDbArc
 50
183.0879311316
 51
266.9467059728
  0
ARC
  5
26B
100
AcDbEntity
  8
0
100
AcDbCircle
 62
7
  6
CONTINUOUS
 10
705.7555343572
 20
478.4082983806
 40
95.0
100
AcDbArc
 50
93.0532940271
 51
176.9120688684
  0
ARC
  5
26C
100
AcDbEntity
  8
0
100
AcDbCircle
 62
7
  6
CONTINUOUS
 10
931.0657016692
 20
304.4131127174
 40
95.0
100
AcDbArc
 50
273.0532940272
 51
356.9120688684
  0
ARC
  5
26D
100
AcDbEntity
  8
0
100
AcDbCircle
 62
7
  6
CONTINUOUS
 10
931.0657016692
 20
478.4082983806
 40
95.0
100
AcDbArc
 50
3.0879311316
 51
86.9467059729
  0
ARC
  5
26E
100
AcDbEntity
  8
0
100
AcDbCircle
 62
7
  6
CONTINUOUS
 10
705.7555343572
 20
304.4131127174
 40
84.9081357455
100
AcDbArc
 50
183.0879311316
 51
266.9467059728
  0
ARC
  5
26F
100
AcDbEntity
  8
0
100
AcDbCircle
 62
7
  6
CONTINUOUS
 10
705.7555343572
 20
478.4082983806
 40
84.9081357455
100
AcDbArc
 50
93.0532940272
 51
176.9120688684
  0
ARC
  5
270
100
AcDbEntity
  8
0
100
AcDbCircle
 62
7
  6
CONTINUOUS
 10
931.0657016692
 20
304.4131127174
 40
84.9081357455
100
AcDbArc
 50
273.0532940272
 51
356.9120688684
  0
ARC
  5
271
100
AcDbEntity
  8
0
100
AcDbCircle
 62
7
  6
CONTINUOUS
 10
931.0657016692
 20
478.4082983806
 40
84.9081357455
100
AcDbArc
 50
3.0879311316
 51
86.9467059728
  0
CIRCLE
  5
272
100
AcDbEntity
  8
0
100
AcDbCircle
 62
7
  6
CONTINUOUS
 10
818.4106180132
 20
391.410705549
 40
57.5
  0
ARC
  5
273
100
AcDbEntity
  8
0
100
AcDbCircle
 62
7
  6
CONTINUOUS
 10
452.0680696209
 20
294.4558026447
 40
57.2844908478
100
AcDbArc
 50
205.9332458205
 51
209.9159708345
  0
ARC
  5
274
100
AcDbEntity
  8
0
100
AcDbCircle
 62
7
  6
CONTINUOUS
 10
356.6598838087
 20
514.9372983226
 40
45.7999999898
100
AcDbArc
 50
2.5
 51
87.4999999975
  0
ARC
  5
275
100
AcDbEntity
  8
0
100
AcDbCircle
 62
7
  6
CONTINUOUS
 10
356.6598838087
 20
267.8841127754
 40
45.7999999898
100
AcDbArc
 50
272.5000000025
 51
357.5
  0
CIRCLE
  5
276
100
AcDbEntity
  8
0
100
AcDbCircle
 62
7
  6
CONTINUOUS
 10
818.4106180132
 20
391.410705549
 40
45.0
  0
ARC
  5
277
100
AcDbEntity
  8
0
100
AcDbCircle
 62
7
  6
CONTINUOUS
 10
211.5763857797
 20
568.516747382
 40
1.4
100
AcDbArc
 50
180.0
 51
267.5
  0
ARC
  5
278
100
AcDbEntity
  8
0
100
AcDbCircle
 62
7
  6
CONTINUOUS
 10
211.5763857797
 20
214.304663716
 40
1.4
100
AcDbArc
 50
92.5
 51
180.0
  0
ARC
  5
279
100
AcDbEntity
  8
0
100
AcDbCircle
 62
7
  6
CONTINUOUS
 10
211.5752237887
 20
565.3916866447
 40
1.3989014213
100
AcDbArc
 50
180.0409693501
 51
267.5457848389
  0
ARC
  5
27A
100
AcDbEntity
  8
0
100
AcDbCircle
 62
7
  6
CONTINUOUS
 10
211.5752237893
 20
217.429724454
 40
1.3989014213
100
AcDbArc
 50
92.4542151885
 51
179.9590306768
  0
SPLINE
  5
27B
100
AcDbEntity
  8
0
100
AcDbSpline
 62
7
  6
CONTINUOUS
 70
0
 71
3
 72
14
 73
10
 74
0
 42
0.0000001
 43
0.0000001
 44
0.0000000001
 40
0.0
 40
0.0
 40
0.0
 40
0.0
 40
0.0216906619
 40
0.0786424508
 40
0.170242829
 40
0.2934091143
 40
0.443762505
 40
0.6158883737
 40
1.0
 40
1.0
 40
1.0
 40
1.0
 10
210.1763857797
 20
483.1005683252
 30
0.0
 10
210.1763857797
 20
483.0908411306
 30
0.0
 10
210.2252648556
 20
483.0821824103
 30
0.0
 10
210.2875178352
 20
483.0689603334
 30
0.0
 10
210.415991569
 20
483.0580406663
 30
0.0
 10
210.5764054187
 20
483.0470301117
 30
0.0
 10
210.7771421848
 20
483.0381495843
 30
0.0
 10
211.0934187015
 20
483.0285514914
 30
0.0
 10
211.3430639486
 20
483.0256293686
 30
0.0
 10
211.5153186374
 20
483.0252242345
 30
0.0
  0
SPLINE
  5
27C
100
AcDbEntity
  8
0
100
AcDbSpline
 62
7
  6
CONTINUOUS
 70
0
 71
3
 72
14
 73
10
 74
0
 42
0.0000001
 43
0.0000001
 44
0.0000000001
 40
0.0
 40
0.0
 40
0.0
 40
0.0
 40
0.0216906619
 40
0.0786424508
 40
0.170242829
 40
0.2934091143
 40
0.443762505
 40
0.6158883737
 40
1.0
 40
1.0
 40
1.0
 40
1.0
 10
210.1763857797
 20
299.7208427728
 30
0.0
 10
210.1763857797
 20
299.7305699674
 30
0.0
 10
210.2252648556
 20
299.7392286877
 30
0.0
 10
210.2875178352
 20
299.7524507646
 30
0.0
 10
210.415991569
 20
299.7633704317
 30
0.0
 10
210.5764054187
 20
299.7743809863
 30
0.0
 10
210.7771421848
 20
299.7832615137
 30
0.0
 10
211.0934187015
 20
299.7928596066
 30
0.0
 10
211.3430639486
 20
299.7957817294
 30
0.0
 10
211.5153186374
 20
299.7961868635
 30
0.0
  0
SPLINE
  5
27D
100
AcDbEntity
  8
0
100
AcDbSpline
 62
7
  6
CONTINUOUS
 70
0
 71
3
 72
9
 73
5
 74
0
 42
0.0000001
 43
0.0000001
 44
0.0000000001
 40
0.0
 40
0.0
 40
0.0
 40
0.0
 40
0.7420923003
 40
1.0
 40
1.0
 40
1.0
 40
1.0
 10
356.7932480151
 20
225.1613723388
 30
0.0
 10
357.2081572242
 20
224.3839231832
 30
0.0
 10
357.8046701757
 20
223.3542418717
 30
0.0
 10
358.478203418
 20
222.3759623084
 30
0.0
 10
358.6576511931
 20
222.1277042109
 30
0.0
  0
SPLINE
  5
27E
100
AcDbEntity
  8
0
100
AcDbSpline
 62
7
  6
CONTINUOUS
 70
0
 71
3
 72
15
 73
11
 74
0
 42
0.0000001
 43
0.0000001
 44
0.0000000001
 40
0.0
 40
0.0
 40
0.0
 40
0.0
 40
0.1249039367
 40
0.2498482706
 40
0.3748322081
 40
0.4998494769
 40
0.6248892186
 40
0.7499374821
 40
0.8749791415
 40
1.0
 40
1.0
 40
1.0
 40
1.0
 10
400.5518879115
 20
513.4174729328
 30
0.0
 10
400.4575241284
 20
516.2594999847
 30
0.0
 10
399.7345999399
 20
521.9410050325
 30
0.0
 10
397.0880687642
 20
530.1036111972
 30
0.0
 10
392.9709047461
 20
537.6385004142
 30
0.0
 10
387.5263932563
 20
544.2798680508
 30
0.0
 10
380.9441106552
 20
549.7979025729
 30
0.0
 10
373.4518724131
 20
554.0005858598
 30
0.0
 10
365.3139810742
 20
556.741732266
 30
0.0
 10
359.6366104551
 20
557.5317645413
 30
0.0
 10
356.7932473014
 20
557.6600373266
 30
0.0
  0
SPLINE
  5
27F
100
AcDbEntity
  8
0
100
AcDbSpline
 62
7
  6
CONTINUOUS
 70
0
 71
3
 72
15
 73
11
 74
0
 42
0.0000001
 43
0.0000001
 44
0.0000000001
 40
0.0
 40
0.0
 40
0.0
 40
0.0
 40
0.1249039367
 40
0.2498482706
 40
0.3748322081
 40
0.4998494769
 40
0.6248892186
 40
0.7499374821
 40
0.8749791415
 40
1.0
 40
1.0
 40
1.0
 40
1.0
 10
400.5518879128
 20
269.4039381665
 30
0.0
 10
400.4575241343
 20
266.5619111114
 30
0.0
 10
399.7345999538
 20
260.8804060563
 30
0.0
 10
397.0880687866
 20
252.717799879
 30
0.0
 10
392.9709047733
 20
245.1829106488
 30
0.0
 10
387.5263932844
 20
238.5415429993
 30
0.0
 10
380.9441106809
 20
233.0235084655
 30
0.0
 10
373.4518724334
 20
228.8208251692
 30
0.0
 10
365.3139810868
 20
226.0796787564
 30
0.0
 10
359.6366104616
 20
225.2896464789
 30
0.0
 10
356.7932473049
 20
225.1613736932
 30
0.0
  0
SPLINE
  5
280
100
AcDbEntity
  8
0
100
AcDbSpline
 62
7
  6
CONTINUOUS
 70
0
 71
3
 72
20
 73
16
 74
0
 42
0.0000001
 43
0.0000001
 44
0.0000000001
 40
0.0
 40
0.0
 40
0.0
 40
0.0
 40
0.1906826404
 40
0.3730498253
 40
0.5411169531
 40
0.6893795997
 40
0.7545354343
 40
0.812974607
 40
0.864213581
 40
0.9078270916
 40
0.9434529708
 40
0.9707991728
 40
0.9896592885
 40
0.9958830771
 40
1.0
 40
1.0
 40
1.0
 40
1.0
 10
400.3400787118
 20
301.5651497056
 30
0.0
 10
400.298142194
 20
299.5199301702
 30
0.0
 10
400.227084294
 20
295.5184469266
 30
0.0
 10
400.1561289971
 20
289.7137292051
 30
0.0
 10
400.1230993976
 20
284.3637605654
 30
0.0
 10
400.1271882526
 20
280.2711176972
 30
0.0
 10
400.1524582878
 20
277.3547123185
 30
0.0
 10
400.1802284316
 20
275.4792869386
 30
0.0
 10
400.2172841686
 20
273.8351406439
 30
0.0
 10
400.2635577604
 20
272.4361665213
 30
0.0
 10
400.3177494487
 20
271.2937481907
 30
0.0
 10
400.3807794701
 20
270.4184487625
 30
0.0
 10
400.4410743616
 20
269.8581328568
 30
0.0
 10
400.5011287062
 20
269.5510016625
 30
0.0
 10
400.5325663375
 20
269.4436540913
 30
0.0
 10
400.5518879121
 20
269.4039381665
 30
0.0
  0
SPLINE
  5
281
100
AcDbEntity
  8
0
100
AcDbSpline
 62
7
  6
CONTINUOUS
 70
0
 71
3
 72
20
 73
16
 74
0
 42
0.0000001
 43
0.0000001
 44
0.0000000001
 40
0.0
 40
0.0
 40
0.0
 40
0.0
 40
0.0041169231
 40
0.0103407118
 40
0.0292008276
 40
0.0565470295
 40
0.0921729084
 40
0.1357864186
 40
0.1870253925
 40
0.2454645653
 40
0.3106204002
 40
0.4588830472
 40
0.6269501747
 40
0.8093173593
 40
1.0
 40
1.0
 40
1.0
 40
1.0
 10
400.5518879121
 20
513.4174729315
 30
0.0
 10
400.532566377
 20
513.377756985
 30
0.0
 10
400.5011286802
 20
513.2704094428
 30
0.0
 10
400.4410743905
 20
512.9632782171
 30
0.0
 10
400.3807794557
 20
512.4029623319
 30
0.0
 10
400.3177494555
 20
511.5276628968
 30
0.0
 10
400.2635577578
 20
510.3852445788
 30
0.0
 10
400.2172841686
 20
508.9862704633
 30
0.0
 10
400.1802284303
 20
507.3421241734
 30
0.0
 10
400.152458287
 20
505.4666987903
 30
0.0
 10
400.1271882531
 20
502.5502934032
 30
0.0
 10
400.1230993989
 20
498.4576505305
 30
0.0
 10
400.1561289962
 20
493.1076818928
 30
0.0
 10
400.2270842968
 20
487.3029641741
 30
0.0
 10
400.2981421854
 20
483.3014809303
 30
0.0
 10
400.3400787118
 20
481.2562613925
 30
0.0
  0
ENDSEC
  0
SECTION
  2
OBJECTS
  0
DICTIONARY
  5
C
100
AcDbDictionary
280
0
281
1
  3
ACAD_GROUP
350
D
  3
ACAD_MLINESTYLE
350
17
  3
ACAD_LAYOUT
350
1A
  3
ACAD_PLOTSETTINGS
350
19
  3
ACAD_PLOTSTYLENAME
350
E
  0
DICTIONARY
  5
D
102
{ACAD_REACTORS
330
C
102
}
100
AcDbDictionary
280
0
281
1
  0
ACDBDICTIONARYWDFLT
  5
E
102
{ACAD_REACTORS
330
C
102
}
100
AcDbDictionary
281
1
  3
Normal
350
F
100
AcDbDictionaryWithDefault
340
F
  0
DICTIONARY
  5
17
102
{ACAD_REACTORS
330
C
102
}
100
AcDbDictionary
280
0
281
1
  3
Standard
350
18
  0
DICTIONARY
  5
19
102
{ACAD_REACTORS
330
C
102
}
100
AcDbDictionary
281
1
  0
DICTIONARY
  5
1A
102
{ACAD_REACTORS
330
C
102
}
100
AcDbDictionary
281
1
  3
Model
350
282
  3
Layout1
350
283
  0
ACDBPLACEHOLDER
  5
F
102
{ACAD_REACTORS
330
E
102
}
  0
MLINESTYLE
  5
18
102
{ACAD_REACTORS
330
17
102
}
100
AcDbMlineStyle
  2
STANDARD
 70
0
  3

 62
256
 51
90.0
 52
90.0
 71
2
 49
0.5
 62
256
  6
BYLAYER
 49
-0.5
 62
256
  6
BYLAYER
  0
LAYOUT
  5
282
102
{ACAD_REACTORS
330
1A
102
}
100
AcDbPlotSettings
  1

  2
none_device
  4
ISO_A0_(1189.00_x_841.00_MM)
  6

 40
0.0
 41
0.0
 42
0.0
 43
0.0
 44
1189.0
 45
841.0
 46
0.0
 47
0.0
 48
0.0
 49
0.0
140
0.0
141
0.0
142
1.0
143
1.0
 70
1024
 72
1
 73
0
 74
0
  7

 75
0
147
1.0
148
0.0
149
0.0
100
AcDbLayout
  1
Model
 70
0
 71
0
 10
0.0
 20
0.0
 11
1189.0
 21
841.0
 12
0.0
 22
0.0
 32
0.0
 14
0.0
 24
0.0
 34
0.0
 15
0.0
 25
0.0
 35
0.0
146
0.0
 13
0.0
 23
0.0
 33
0.0
 16
1.0
 26
0.0
 36
0.0
 17
0.0
 27
1.0
 37
0.0
 76
0
330
207
345
0
346
0
  0
LAYOUT
  5
283
102
{ACAD_REACTORS
330
1A
102
}
100
AcDbPlotSettings
  1

  2
none_device
  4
ISO_A0_(1189.00_x_841.00_MM)
  6

 40
0.0
 41
0.0
 42
0.0
 43
0.0
 44
1189.0
 45
841.0
 46
0.0
 47
0.0
 48
0.0
 49
0.0
140
0.0
141
0.0
142
1.0
143
1.0
 70
0
 72
1
 73
0
 74
0
  7

 75
0
147
1.0
148
0.0
149
0.0
100
AcDbLayout
  1
Layout1
 70
0
 71
1
 10
0.0
 20
0.0
 11
1189.0
 21
841.0
 12
0.0
 22
0.0
 32
0.0
 14
0.0
 24
0.0
 34
0.0
 15
0.0
 25
0.0
 35
0.0
146
0.0
 13
0.0
 23
0.0
 33
0.0
 16
1.0
 26
0.0
 36
0.0
 17
0.0
 27
1.0
 37
0.0
 76
0
330
208
345
0
346
0
  0
ENDSEC
  0
EOF
