999
DXF file: W:\Engenharia\Produtos\Cubas\Quadrum\cubas_quadrum_7.dxf
999
Pro/ENGINEER 2012230 by Parametric Technology Corporation
  0
SECTION
  2
HEADER
  9
$ACADVER
  1
AC1018
  9
$DWGCODEPAGE
  3
ANSI_1252
  9
$EXTMAX
 10
1016.0
 20
635.0
 30
0.0
  9
$EXTMIN
 10
0.0
 20
0.0
 30
0.0
  9
$LIMMIN
 10
0.0
 20
0.0
  9
$LIMMAX
 10
1016.0
 20
635.0
  9
$VIEWCTR
 10
508.0
 20
317.5
  9
$VIEWSIZE
 40
635.0
  9
$CLAYER
  8
0
  9
$LTSCALE
 40
55.88
  9
$CELTYPE
  6
BYLAYER
  9
$DIMSCALE
 40
1.0
  9
$DIMASZ
 40
3.0
  9
$DIMEXO
 40
0.5
  9
$DIMDLI
 40
38.608
  9
$DIMEXE
 40
0.5
  9
$DIMCEN
 40
9.144
  9
$DIMLFAC
 40
1.0
  9
$DIMBLK
  1
_FILLED
  9
$DIMTXT
 40
1.8
  9
$DIMTOL
 70
1
  9
$DIMLIM
 70
0
  9
$DIMTFAC
 40
1.0
  9
$DIMTP
 40
0.001
  9
$DIMTM
 40
0.001
  9
$DIMGAP
 40
0.625
  9
$DIMDSEP
 70
46
  9
$PDMODE
 70
3
  9
$PDSIZE
 40
1.0
  9
$HANDSEED
  5
2B4
  9
$TILEMODE
 70
1
  9
$MEASUREMENT
 70
1
  9
$INSUNITS
 70
4
  0
ENDSEC
  0
SECTION
  2
CLASSES
  0
CLASS
  1
ACDBDICTIONARYWDFLT
  2
AcDbDictionaryWithDefault
  3
AutoCAD 2000
 90
0
 91
1
280
0
281
0
  0
CLASS
  1
ACDBPLACEHOLDER
  2
AcDbPlaceHolder
  3
AutoCAD 2000
 90
0
 91
1
280
0
281
0
  0
CLASS
  1
LAYOUT
  2
AcDbLayout
  3
AutoCAD 2000
 90
0
 91
0
280
0
281
0
  0
ENDSEC
  0
SECTION
  2
TABLES
  0
TABLE
  2
VPORT
  5
8
100
AcDbSymbolTable
 70
2
  0
VPORT
  5
1F4
100
AcDbSymbolTableRecord
100
AcDbViewportTableRecord
  2
*ACTIVE
 70
0
 10
0.0
 20
0.0
 11
1.0
 21
1.0
 12
508.0
 22
317.5
 13
0.0
 23
0.0
 14
1.0
 24
1.0
 15
0.0
 25
0.0
 16
0.0
 26
0.0
 36
1.0
 17
0.0
 27
0.0
 37
0.0
 40
635.0
 41
1.6
 42
50.0
 43
0.0
 44
0.0
 50
0.0
 51
0.0
 71
0
 72
100
 73
1
 74
1
 75
0
 76
0
 77
0
 78
0
  0
ENDTAB
  0
TABLE
  2
LTYPE
  5
5
100
AcDbSymbolTable
 70
6
  0
LTYPE
  5
14
100
AcDbSymbolTableRecord
100
AcDbLinetypeTableRecord
  2
BYBLOCK
 70
0
  3

 72
65
 73
0
 40
0.0
  0
LTYPE
  5
15
100
AcDbSymbolTableRecord
100
AcDbLinetypeTableRecord
  2
BYLAYER
 70
0
  3

 72
65
 73
0
 40
0.0
  0
LTYPE
  5
16
100
AcDbSymbolTableRecord
100
AcDbLinetypeTableRecord
  2
CONTINUOUS
 70
64
  3
Solid line
 72
65
 73
0
 40
0.0
  0
LTYPE
  5
1F5
100
AcDbSymbolTableRecord
100
AcDbLinetypeTableRecord
  2
CENTER
 70
64
  3
____ _ ____ _ ____ _ ____ _ ____ _ ____ _ ____
 72
65
 73
4
 40
0.6
 49
0.375
 74
0
 49
-0.075
 74
0
 49
0.075
 74
0
 49
-0.075
 74
0
  0
LTYPE
  5
1F6
100
AcDbSymbolTableRecord
100
AcDbLinetypeTableRecord
  2
HIDDEN
 70
64
  3
- - - - - - - - - - - - - - - - - - - -
 72
65
 73
2
 40
0.2
 49
0.1
 74
0
 49
-0.1
 74
0
  0
LTYPE
  5
1F7
100
AcDbSymbolTableRecord
100
AcDbLinetypeTableRecord
  2
PHANTOM
 70
64
  3
_____ _ _ _____ _ _ _____ _ _ _____
 72
65
 73
6
 40
0.8
 49
0.45
 74
0
 49
-0.05
 74
0
 49
0.1
 74
0
 49
-0.05
 74
0
 49
0.1
 74
0
 49
-0.05
 74
0
  0
LTYPE
  5
1F8
100
AcDbSymbolTableRecord
100
AcDbLinetypeTableRecord
  2
DOT
 70
64
  3
. . . . . . . . . . . . . . . . . . . .
 72
65
 73
2
 40
0.2
 49
0.1
 74
0
 49
-0.1
 74
0
  0
LTYPE
  5
1F9
100
AcDbSymbolTableRecord
100
AcDbLinetypeTableRecord
  2
DASHED
 70
64
  3
- - - - - - - - - - - - - - - - - - - -
 72
65
 73
2
 40
0.2
 49
0.1
 74
0
 49
-0.1
 74
0
  0
ENDTAB
  0
TABLE
  2
LAYER
  5
2
100
AcDbSymbolTable
 70
36
  0
LAYER
  5
10
100
AcDbSymbolTableRecord
100
AcDbLayerTableRecord
  2
0
 70
0
 62
7
  6
CONTINUOUS
370
-3
390
F
  0
LAYER
  5
1FA
100
AcDbSymbolTableRecord
100
AcDbLayerTableRecord
  2
DEFAULT_1
 70
0
 62
7
  6
CENTER
370
-3
390
F
  0
LAYER
  5
1FB
100
AcDbSymbolTableRecord
100
AcDbLayerTableRecord
  2
DEFAULT_2
 70
0
 62
8
  6
HIDDEN
370
-3
390
F
  0
LAYER
  5
1FC
100
AcDbSymbolTableRecord
100
AcDbLayerTableRecord
  2
DEFAULT_3
 70
0
 62
7
  6
PHANTOM
370
-3
390
F
  0
ENDTAB
  0
TABLE
  2
STYLE
  5
3
100
AcDbSymbolTable
 70
1
  0
STYLE
  5
11
100
AcDbSymbolTableRecord
100
AcDbTextStyleTableRecord
  2
STANDARD
 70
0
 40
0.0
 41
0.8
 50
0.0
 71
0
 42
0.2
  3
txt
  4

  0
STYLE
  5
1FD
100
AcDbSymbolTableRecord
100
AcDbTextStyleTableRecord
  2
TEXTSTYLE_1
 70
0
 40
0.0
 41
0.8
 50
0.0
 71
0
 42
0.2
  3
gdt
  4

  0
ENDTAB
  0
TABLE
  2
VIEW
  5
6
100
AcDbSymbolTable
 70
0
  0
ENDTAB
  0
TABLE
  2
UCS
  5
7
100
AcDbSymbolTable
 70
0
  0
ENDTAB
  0
TABLE
  2
APPID
  5
9
100
AcDbSymbolTable
 70
1
  0
APPID
  5
1FE
100
AcDbSymbolTableRecord
100
AcDbRegAppTableRecord
  2
ACAD
 70
0
  0
ENDTAB
  0
TABLE
  2
BLOCK_RECORD
  5
1
100
AcDbSymbolTable
 70
0
  0
BLOCK_RECORD
  5
1FF
100
AcDbSymbolTableRecord
100
AcDbBlockTableRecord
  2
*Model_Space
  0
BLOCK_RECORD
  5
200
100
AcDbSymbolTableRecord
100
AcDbBlockTableRecord
  2
*Paper_Space
  0
BLOCK_RECORD
  5
201
100
AcDbSymbolTableRecord
100
AcDbBlockTableRecord
  2
_FILLED
  0
BLOCK_RECORD
  5
202
100
AcDbSymbolTableRecord
100
AcDbBlockTableRecord
  2
*D0
  0
BLOCK_RECORD
  5
203
100
AcDbSymbolTableRecord
100
AcDbBlockTableRecord
  2
*D1
  0
BLOCK_RECORD
  5
204
100
AcDbSymbolTableRecord
100
AcDbBlockTableRecord
  2
*D2
  0
BLOCK_RECORD
  5
205
100
AcDbSymbolTableRecord
100
AcDbBlockTableRecord
  2
*D3
  0
BLOCK_RECORD
  5
206
100
AcDbSymbolTableRecord
100
AcDbBlockTableRecord
  2
*D4
  0
BLOCK_RECORD
  5
207
100
AcDbSymbolTableRecord
100
AcDbBlockTableRecord
  2
*D5
  0
BLOCK_RECORD
  5
208
100
AcDbSymbolTableRecord
100
AcDbBlockTableRecord
  2
*D6
  0
BLOCK_RECORD
  5
209
100
AcDbSymbolTableRecord
100
AcDbBlockTableRecord
  2
*D7
  0
ENDTAB
  0
TABLE
  2
DIMSTYLE
  5
A
100
AcDbSymbolTable
 70
1
100
AcDbDimStyleTable
 71
0
  0
DIMSTYLE
105
20A
100
AcDbSymbolTableRecord
100
AcDbDimStyleTableRecord
  2
STANDARD
 70
0
  3

  4

 40
1.0
 41
3.0
 42
0.5
 43
0.38
 44
0.5
 45
0.0
 46
0.0
 47
0.001
 48
0.001
140
1.8
141
0.09
142
0.0
143
25.4
144
1.0
145
0.0
146
1.0
147
0.625
 71
1.0
 72
0.0
 73
0
 74
0
 75
0
 76
0
 77
1
 78
8
170
0
171
2
172
0
173
0
174
0
175
0
176
0
177
0
178
0
270
2
271
3
272
3
273
2
274
2
275
0
280
0
281
0
282
0
283
1
284
8
285
0
286
0
287
3
288
0
340
11
278
46
341
201
342
201
343
201
344
201
  0
DIMSTYLE
105
20B
100
AcDbSymbolTableRecord
100
AcDbDimStyleTableRecord
  2
DIMSTYLE_1
 70
0
  3

  4

 40
1.0
 41
3.0
 42
0.5
 43
0.38
 44
0.5
 45
0.0
 46
0.0
 47
0.8
 48
0.8
140
5.0
141
0.09
142
0.0
143
25.4
144
1.0
145
0.0
146
1.0
147
1.25
 71
0.0
 72
0.0
 73
0
 74
0
 75
0
 76
0
 77
1
 78
8
170
0
171
2
172
0
173
0
174
0
175
0
176
0
177
0
178
0
270
2
271
3
272
3
273
2
274
2
275
0
280
0
281
0
282
0
283
1
284
8
285
0
286
0
287
3
288
0
340
11
278
46
341
201
342
201
343
201
344
201
  0
DIMSTYLE
105
20C
100
AcDbSymbolTableRecord
100
AcDbDimStyleTableRecord
  2
DIMSTYLE_2
 70
0
  3

  4

 40
1.0
 41
3.0
 42
0.5
 43
0.38
 44
0.5
 45
0.0
 46
0.0
 47
0.5
 48
0.5
140
5.0
141
0.09
142
0.0
143
25.4
144
1.0
145
0.0
146
1.0
147
1.25
 71
0.0
 72
0.0
 73
0
 74
0
 75
0
 76
0
 77
1
 78
8
170
0
171
2
172
0
173
0
174
0
175
0
176
0
177
0
178
0
270
2
271
3
272
3
273
2
274
2
275
0
280
0
281
0
282
0
283
1
284
8
285
0
286
0
287
3
288
0
340
11
278
46
341
201
342
201
343
201
344
201
  0
DIMSTYLE
105
20D
100
AcDbSymbolTableRecord
100
AcDbDimStyleTableRecord
  2
DIMSTYLE_3
 70
0
  3

  4

 40
1.0
 41
3.0
 42
0.5
 43
0.38
 44
0.5
 45
0.0
 46
0.0
 47
0.2
 48
0.2
140
5.0
141
0.09
142
0.0
143
25.4
144
1.0
145
0.0
146
1.0
147
0.625
 71
0.0
 72
0.0
 73
0
 74
0
 75
0
 76
0
 77
1
 78
8
170
0
171
2
172
0
173
0
174
0
175
0
176
0
177
0
178
0
270
2
271
3
272
3
273
2
274
2
275
0
280
0
281
0
282
0
283
1
284
8
285
0
286
0
287
3
288
0
340
11
278
46
341
201
342
201
343
201
344
201
  0
ENDTAB
  0
ENDSEC
  0
SECTION
  2
BLOCKS
  0
BLOCK
  5
20
100
AcDbEntity
  8
0
100
AcDbBlockBegin
  2
*Model_Space
 70
0
 10
0.0
 20
0.0
 30
0.0
  3
*Model_Space
  1

  0
ENDBLK
  5
21
100
AcDbEntity
  8
0
100
AcDbBlockEnd
  0
BLOCK
  5
1C
100
AcDbEntity
  8
0
100
AcDbBlockBegin
  2
*Paper_Space
 70
0
 10
0.0
 20
0.0
 30
0.0
  3
*Paper_Space
  1

  0
ENDBLK
  5
1D
100
AcDbEntity
  8
0
100
AcDbBlockEnd
  0
BLOCK
  5
20E
100
AcDbEntity
  8
0
100
AcDbBlockBegin
  2
_FILLED
 70
64
 10
0.0
 20
0.0
  3
_FILLED
  1

  0
SOLID
  5
20F
100
AcDbEntity
  8
0
  6
BYBLOCK
 62
0
100
AcDbTrace
 10
0.0
 20
0.0
 11
-1.0
 21
0.1666666667
 12
-1.0
 22
-0.1666666667
 13
-1.0
 23
-0.1666666667
  0
ENDBLK
  5
210
100
AcDbEntity
  8
0
  6
BYBLOCK
 62
0
100
AcDbBlockEnd
  0
BLOCK
  5
211
100
AcDbEntity
  8
0
100
AcDbBlockBegin
 62
2
  6
CONTINUOUS
  2
*D0
 70
65
 10
0.0
 20
0.0
  3
*D0
  1

  0
LINE
  5
212
100
AcDbEntity
  8
0
100
AcDbLine
 62
2
  6
CONTINUOUS
 10
118.3713827204
 20
500.446719792
 11
118.3713827204
 21
552.6785963436
  0
LINE
  5
213
100
AcDbEntity
  8
0
100
AcDbLine
 62
2
  6
CONTINUOUS
 10
618.3713827204
 20
500.446719792
 11
618.3713827204
 21
552.6785963436
  0
LINE
  5
214
100
AcDbEntity
  8
0
100
AcDbLine
 62
2
  6
CONTINUOUS
 10
118.3713827204
 20
552.1785963436
 11
368.3713827204
 21
552.1785963436
  0
LINE
  5
215
100
AcDbEntity
  8
0
100
AcDbLine
 62
2
  6
CONTINUOUS
 10
618.3713827204
 20
552.1785963436
 11
368.3713827204
 21
552.1785963436
  0
INSERT
  5
216
100
AcDbEntity
  8
0
100
AcDbBlockReference
 62
2
  6
CONTINUOUS
  2
_FILLED
 10
118.3713827204
 20
552.1785963436
 41
3.0
 42
3.0
 43
3.0
 50
180.0
  0
INSERT
  5
217
100
AcDbEntity
  8
0
100
AcDbBlockReference
 62
2
  6
CONTINUOUS
  2
_FILLED
 10
618.3713827204
 20
552.1785963436
 41
3.0
 42
3.0
 43
3.0
  0
ENDBLK
  5
218
100
AcDbEntity
  8
0
  6
BYBLOCK
 62
0
100
AcDbBlockEnd
  0
BLOCK
  5
219
100
AcDbEntity
  8
0
100
AcDbBlockBegin
 62
2
  6
CONTINUOUS
  2
*D1
 70
65
 10
0.0
 20
0.0
  3
*D1
  1

  0
LINE
  5
21A
100
AcDbEntity
  8
0
100
AcDbLine
 62
2
  6
CONTINUOUS
 10
98.3713826992
 20
526.4467016305
 11
98.3713805824
 21
576.3312040283
  0
LINE
  5
21B
100
AcDbEntity
  8
0
100
AcDbLine
 62
2
  6
CONTINUOUS
 10
638.3713826992
 20
526.4467016305
 11
638.3713805824
 21
576.3312269423
  0
LINE
  5
21C
100
AcDbEntity
  8
0
100
AcDbLine
 62
2
  6
CONTINUOUS
 10
98.3713806036
 20
575.8312040283
 11
368.3713806036
 21
575.8312154853
  0
LINE
  5
21D
100
AcDbEntity
  8
0
100
AcDbLine
 62
2
  6
CONTINUOUS
 10
638.3713806036
 20
575.8312269423
 11
368.3713806036
 21
575.8312154853
  0
INSERT
  5
21E
100
AcDbEntity
  8
0
100
AcDbBlockReference
 62
2
  6
CONTINUOUS
  2
_FILLED
 10
98.3713806036
 20
575.8312040283
 41
3.0
 42
3.0
 43
3.0
 50
180.0000024313
  0
INSERT
  5
21F
100
AcDbEntity
  8
0
100
AcDbBlockReference
 62
2
  6
CONTINUOUS
  2
_FILLED
 10
638.3713806036
 20
575.8312269423
 41
3.0
 42
3.0
 43
3.0
 50
0.0000024313
  0
ENDBLK
  5
220
100
AcDbEntity
  8
0
  6
BYBLOCK
 62
0
100
AcDbBlockEnd
  0
BLOCK
  5
221
100
AcDbEntity
  8
0
100
AcDbBlockBegin
 62
2
  6
CONTINUOUS
  2
*D2
 70
65
 10
0.0
 20
0.0
  3
*D2
  1

  0
LINE
  5
222
100
AcDbEntity
  8
0
100
AcDbLine
 62
2
  6
CONTINUOUS
 10
129.8713827204
 20
511.946719792
 11
74.1441712159
 21
511.946719792
  0
LINE
  5
223
100
AcDbEntity
  8
0
100
AcDbLine
 62
2
  6
CONTINUOUS
 10
129.8713827204
 20
111.946719792
 11
74.1441712159
 21
111.946719792
  0
LINE
  5
224
100
AcDbEntity
  8
0
100
AcDbLine
 62
2
  6
CONTINUOUS
 10
74.6441712159
 20
511.946719792
 11
74.6441712159
 21
311.946719792
  0
LINE
  5
225
100
AcDbEntity
  8
0
100
AcDbLine
 62
2
  6
CONTINUOUS
 10
74.6441712159
 20
111.946719792
 11
74.6441712159
 21
311.946719792
  0
INSERT
  5
226
100
AcDbEntity
  8
0
100
AcDbBlockReference
 62
2
  6
CONTINUOUS
  2
_FILLED
 10
74.6441712159
 20
511.946719792
 41
3.0
 42
3.0
 43
3.0
 50
90.0
  0
INSERT
  5
227
100
AcDbEntity
  8
0
100
AcDbBlockReference
 62
2
  6
CONTINUOUS
  2
_FILLED
 10
74.6441712159
 20
111.946719792
 41
3.0
 42
3.0
 43
3.0
 50
270.0
  0
ENDBLK
  5
228
100
AcDbEntity
  8
0
  6
BYBLOCK
 62
0
100
AcDbBlockEnd
  0
BLOCK
  5
229
100
AcDbEntity
  8
0
100
AcDbBlockBegin
 62
2
  6
CONTINUOUS
  2
*D3
 70
65
 10
0.0
 20
0.0
  3
*D3
  1

  0
LINE
  5
22A
100
AcDbEntity
  8
0
100
AcDbLine
 62
2
  6
CONTINUOUS
 10
103.8713827204
 20
531.9467016305
 11
49.4182615759
 21
531.9467016305
  0
LINE
  5
22B
100
AcDbEntity
  8
0
100
AcDbLine
 62
2
  6
CONTINUOUS
 10
103.8714008819
 20
91.946719792
 11
49.4182615759
 21
91.946719792
  0
LINE
  5
22C
100
AcDbEntity
  8
0
100
AcDbLine
 62
2
  6
CONTINUOUS
 10
49.9182615759
 20
531.9467016305
 11
49.9182615759
 21
311.9467107112
  0
LINE
  5
22D
100
AcDbEntity
  8
0
100
AcDbLine
 62
2
  6
CONTINUOUS
 10
49.9182615759
 20
91.946719792
 11
49.9182615759
 21
311.9467107112
  0
INSERT
  5
22E
100
AcDbEntity
  8
0
100
AcDbBlockReference
 62
2
  6
CONTINUOUS
  2
_FILLED
 10
49.9182615759
 20
531.9467016305
 41
3.0
 42
3.0
 43
3.0
 50
90.0
  0
INSERT
  5
22F
100
AcDbEntity
  8
0
100
AcDbBlockReference
 62
2
  6
CONTINUOUS
  2
_FILLED
 10
49.9182615759
 20
91.946719792
 41
3.0
 42
3.0
 43
3.0
 50
270.0
  0
ENDBLK
  5
230
100
AcDbEntity
  8
0
  6
BYBLOCK
 62
0
100
AcDbBlockEnd
  0
BLOCK
  5
231
100
AcDbEntity
  8
0
100
AcDbBlockBegin
 62
2
  6
CONTINUOUS
  2
*D4
 70
65
 10
0.0
 20
0.0
  3
*D4
  1

  0
LINE
  5
232
100
AcDbEntity
  8
0
100
AcDbLine
 62
2
  6
CONTINUOUS
 10
632.8713827204
 20
531.9467016305
 11
668.3614997893
 21
531.9467016305
  0
LINE
  5
233
100
AcDbEntity
  8
0
100
AcDbLine
 62
2
  6
CONTINUOUS
 10
372.3257827204
 20
391.946719792
 11
668.3614997893
 21
391.946719792
  0
LINE
  5
234
100
AcDbEntity
  8
0
100
AcDbLine
 62
2
  6
CONTINUOUS
 10
667.8614997893
 20
531.9467016305
 11
667.8614997893
 21
461.9467107112
  0
LINE
  5
235
100
AcDbEntity
  8
0
100
AcDbLine
 62
2
  6
CONTINUOUS
 10
667.8614997893
 20
391.946719792
 11
667.8614997893
 21
461.9467107112
  0
INSERT
  5
236
100
AcDbEntity
  8
0
100
AcDbBlockReference
 62
2
  6
CONTINUOUS
  2
_FILLED
 10
667.8614997893
 20
531.9467016305
 41
3.0
 42
3.0
 43
3.0
 50
90.0
  0
INSERT
  5
237
100
AcDbEntity
  8
0
100
AcDbBlockReference
 62
2
  6
CONTINUOUS
  2
_FILLED
 10
667.8614997893
 20
391.946719792
 41
3.0
 42
3.0
 43
3.0
 50
270.0
  0
ENDBLK
  5
238
100
AcDbEntity
  8
0
  6
BYBLOCK
 62
0
100
AcDbBlockEnd
  0
BLOCK
  5
239
100
AcDbEntity
  8
0
100
AcDbBlockBegin
 62
2
  6
CONTINUOUS
  2
*D5
 70
65
 10
0.0
 20
0.0
  3
*D5
  1

  0
LINE
  5
23A
100
AcDbEntity
  8
0
100
AcDbLine
 62
2
  6
CONTINUOUS
 10
638.3713645377
 20
97.446719792
 11
638.3713630806
 21
63.1093488979
  0
LINE
  5
23B
100
AcDbEntity
  8
0
100
AcDbLine
 62
2
  6
CONTINUOUS
 10
368.3713825354
 20
387.585919792
 11
368.3713687667
 21
63.109360355
  0
LINE
  5
23C
100
AcDbEntity
  8
0
100
AcDbLine
 62
2
  6
CONTINUOUS
 10
638.3713631019
 20
63.6093488979
 11
503.3713659449
 21
63.6093546265
  0
LINE
  5
23D
100
AcDbEntity
  8
0
100
AcDbLine
 62
2
  6
CONTINUOUS
 10
368.3713687879
 20
63.609360355
 11
503.3713659449
 21
63.6093546265
  0
INSERT
  5
23E
100
AcDbEntity
  8
0
100
AcDbBlockReference
 62
2
  6
CONTINUOUS
  2
_FILLED
 10
638.3713631019
 20
63.6093488979
 41
3.0
 42
3.0
 43
3.0
 50
359.9999975687
  0
INSERT
  5
23F
100
AcDbEntity
  8
0
100
AcDbBlockReference
 62
2
  6
CONTINUOUS
  2
_FILLED
 10
368.3713687879
 20
63.609360355
 41
3.0
 42
3.0
 43
3.0
 50
179.9999975687
  0
ENDBLK
  5
240
100
AcDbEntity
  8
0
  6
BYBLOCK
 62
0
100
AcDbBlockEnd
  0
BLOCK
  5
241
100
AcDbEntity
  8
0
100
AcDbBlockBegin
 62
2
  6
CONTINUOUS
  2
*D6
 70
65
 10
0.0
 20
0.0
  3
*D6
  1

  0
LINE
  5
242
100
AcDbEntity
  8
0
100
AcDbLine
 62
2
  6
CONTINUOUS
 10
939.8355867957
 20
91.446719792
 11
939.8355867957
 21
62.8847230769
  0
LINE
  5
243
100
AcDbEntity
  8
0
100
AcDbLine
 62
2
  6
CONTINUOUS
 10
739.0355867957
 20
126.446719792
 11
739.0355867957
 21
62.8847230769
  0
LINE
  5
244
100
AcDbEntity
  8
0
100
AcDbLine
 62
2
  6
CONTINUOUS
 10
939.8355867957
 20
63.3847230769
 11
839.4355867957
 21
63.3847230769
  0
LINE
  5
245
100
AcDbEntity
  8
0
100
AcDbLine
 62
2
  6
CONTINUOUS
 10
739.0355867957
 20
63.3847230769
 11
839.4355867957
 21
63.3847230769
  0
INSERT
  5
246
100
AcDbEntity
  8
0
100
AcDbBlockReference
 62
2
  6
CONTINUOUS
  2
_FILLED
 10
939.8355867957
 20
63.3847230769
 41
3.0
 42
3.0
 43
3.0
  0
INSERT
  5
247
100
AcDbEntity
  8
0
100
AcDbBlockReference
 62
2
  6
CONTINUOUS
  2
_FILLED
 10
739.0355867957
 20
63.3847230769
 41
3.0
 42
3.0
 43
3.0
 50
180.0
  0
ENDBLK
  5
248
100
AcDbEntity
  8
0
  6
BYBLOCK
 62
0
100
AcDbBlockEnd
  0
BLOCK
  5
249
100
AcDbEntity
  8
0
100
AcDbBlockBegin
 62
2
  6
CONTINUOUS
  2
*D7
 70
65
 10
0.0
 20
0.0
  3
*D7
  1

  0
LINE
  5
24A
100
AcDbEntity
  8
0
100
AcDbLine
 62
2
  6
CONTINUOUS
 10
615.7466011552
 20
507.4370655316
 11
562.3275035579
 21
464.7577922022
  0
INSERT
  5
24B
100
AcDbEntity
  8
0
100
AcDbBlockReference
 62
2
  6
CONTINUOUS
  2
_FILLED
 10
615.7466011552
 20
507.4370655316
 41
3.0
 42
3.0
 43
3.0
 50
38.6231620336
  0
ENDBLK
  5
24C
100
AcDbEntity
  8
0
  6
BYBLOCK
 62
0
100
AcDbBlockEnd
  0
ENDSEC
  0
SECTION
  2
ENTITIES
  0
DIMENSION
  5
24D
100
AcDbEntity
  8
0
100
AcDbDimension
 62
2
  6
CONTINUOUS
  2
*D0
 10
618.3713827204
 20
552.1785963436
 11
360.6570970061
 21
552.1785963436
 70
160
 71
2
 42
500.0
  3
DIMSTYLE_1
100
AcDbAlignedDimension
 13
118.3713827204
 23
499.946719792
 14
618.3713827204
 24
499.946719792
100
AcDbRotatedDimension
  0
DIMENSION
  5
24E
100
AcDbEntity
  8
0
100
AcDbDimension
 62
2
  6
CONTINUOUS
  2
*D1
 10
638.3713806036
 20
575.8312269423
 11
360.6570949803
 21
575.831215158
 70
160
 71
2
 42
540.0
  3
DIMSTYLE_1
100
AcDbAlignedDimension
 13
98.3713827204
 23
525.9467016305
 14
638.3713827204
 24
525.9467016305
 50
0.0000024313
100
AcDbRotatedDimension
  0
DIMENSION
  5
24F
100
AcDbEntity
  8
0
100
AcDbDimension
 62
2
  6
CONTINUOUS
  2
*D2
 10
74.6441712159
 20
111.946719792
 11
74.6441712159
 21
304.2324340777
 70
160
 71
2
 42
400.0
  3
DIMSTYLE_2
100
AcDbAlignedDimension
 13
130.3713827204
 23
511.946719792
 14
130.3713827204
 24
111.946719792
 50
270.0
100
AcDbRotatedDimension
  0
DIMENSION
  5
250
100
AcDbEntity
  8
0
100
AcDbDimension
 62
2
  6
CONTINUOUS
  2
*D3
 10
49.9182615759
 20
91.946719792
 11
49.9182615759
 21
304.2324249969
 70
160
 71
2
 42
439.9999818385
  3
DIMSTYLE_1
100
AcDbAlignedDimension
 13
104.3713827204
 23
531.9467016305
 14
104.3714008819
 24
91.946719792
 50
270.0
100
AcDbRotatedDimension
  0
DIMENSION
  5
251
100
AcDbEntity
  8
0
100
AcDbDimension
 62
2
  6
CONTINUOUS
  2
*D4
 10
667.8614997893
 20
391.946719792
 11
667.8614997893
 21
454.2324249969
 70
160
 71
2
 42
139.9999818385
  3
DIMSTYLE_2
100
AcDbAlignedDimension
 13
632.3713827204
 23
531.9467016305
 14
371.8257827204
 24
391.946719792
 50
270.0
100
AcDbRotatedDimension
  0
DIMENSION
  5
252
100
AcDbEntity
  8
0
100
AcDbDimension
 62
2
  6
CONTINUOUS
  2
*D5
 10
368.3713687879
 20
63.609360355
 11
495.6570801397
 21
63.6093549538
 70
160
 71
2
 42
269.9999943139
  3
DIMSTYLE_2
100
AcDbAlignedDimension
 13
638.3713645589
 23
97.946719792
 14
368.3713825566
 24
388.085919792
 50
179.9999975687
100
AcDbRotatedDimension
  0
DIMENSION
  5
253
100
AcDbEntity
  8
0
100
AcDbDimension
 62
2
  6
CONTINUOUS
  2
*D6
 10
739.0355867957
 20
63.3847230769
 11
831.7213010814
 21
63.3847230769
 70
160
 71
2
 42
200.8
  3
DIMSTYLE_2
100
AcDbAlignedDimension
 13
939.8355867957
 23
91.946719792
 14
739.0355867957
 24
126.946719792
 50
180.0
100
AcDbRotatedDimension
  0
DIMENSION
  5
254
100
AcDbEntity
  8
0
100
AcDbDimension
 62
2
  6
CONTINUOUS
  2
*D7
 10
606.3713827204
 20
499.946719792
 11
560.9899418187
 21
466.4319383513
 70
164
 71
3
 42
12.0
  1
<>
  3
DIMSTYLE_3
100
AcDbRadialDimension
 15
615.7466011552
 25
507.4370655316
  0
LINE
  5
255
100
AcDbEntity
  8
0
100
AcDbLine
 62
7
  6
CONTINUOUS
 10
98.3714008819
 20
97.946719792
 11
98.3713827204
 21
525.9467016305
  0
LINE
  5
256
100
AcDbEntity
  8
0
100
AcDbLine
 62
7
  6
CONTINUOUS
 10
118.3713827204
 20
123.946719792
 11
118.3713827204
 21
499.946719792
  0
LWPOLYLINE
  5
257
100
AcDbEntity
  8
0
100
AcDbPolyline
 62
2
  6
CONTINUOUS
 90
9
 70
0
 43
0.2500000019
 10
500.7999433594
 20
74.3236339111
 10
504.2285092773
 20
74.3236339111
 10
503.5142272949
 20
73.6093519287
 10
502.7999453125
 20
72.418881958
 10
501.9427883301
 20
70.7522084961
 10
501.5142253418
 20
69.3236445313
 10
501.2285063477
 20
68.1331590576
 10
501.0856623535
 20
66.9426890869
 10
501.0856623535
 20
65.7522191162
  0
LINE
  5
258
100
AcDbEntity
  8
0
100
AcDbLine
 62
7
  6
CONTINUOUS
 10
939.8355867957
 20
91.946719792
 11
938.8355867957
 21
91.946719792
  0
LINE
  5
259
100
AcDbEntity
  8
0
100
AcDbLine
 62
7
  6
CONTINUOUS
 10
104.3714008819
 20
91.946719792
 11
632.3713645589
 21
91.946719792
  0
LWPOLYLINE
  5
25A
100
AcDbEntity
  8
0
100
AcDbPolyline
 62
2
  6
CONTINUOUS
 90
25
 70
0
 43
0.2500000019
 10
365.7999665527
 20
560.7500205078
 10
365.9428105469
 20
561.7023964844
 10
366.085654541
 20
562.1785844727
 10
366.3713735352
 20
562.6547724609
 10
366.6570925293
 20
562.8928974609
 10
367.2285305176
 20
563.1309604492
 10
367.7999685059
 20
563.1309604492
 10
368.3713754883
 20
562.8928974609
 10
368.6570944824
 20
562.6547724609
 10
368.9428134766
 20
562.1785844727
 10
369.0856574707
 20
561.7023964844
 10
369.2285324707
 20
560.7500205078
 10
369.2285324707
 20
556.7023916016
 10
369.0856574707
 20
555.750015625
 10
368.9428134766
 20
555.2738276367
 10
368.6570944824
 20
554.7976396484
 10
368.3713754883
 20
554.5595766602
 10
367.7999685059
 20
554.3214516602
 10
367.2285305176
 20
554.3214516602
 10
366.6570925293
 20
554.5595766602
 10
366.3713735352
 20
554.7976396484
 10
366.085654541
 20
555.2738276367
 10
365.9428105469
 20
555.750015625
 10
365.7999665527
 20
556.7023916016
 10
365.7999665527
 20
560.7500205078
  0
LWPOLYLINE
  5
25B
100
AcDbEntity
  8
0
100
AcDbPolyline
 62
2
  6
CONTINUOUS
 90
25
 70
0
 43
0.2500000019
 10
370.9428154297
 20
584.4026542969
 10
371.0856594238
 20
585.3550302734
 10
371.2285344238
 20
585.8312182617
 10
371.5142224121
 20
586.30740625
 10
371.7999414063
 20
586.54553125
 10
372.3713793945
 20
586.7835942383
 10
372.9428173828
 20
586.7835942383
 10
373.5142243652
 20
586.54553125
 10
373.7999433594
 20
586.30740625
 10
374.0856623535
 20
585.8312182617
 10
374.2285373535
 20
585.3550302734
 10
374.3713813477
 20
584.4026542969
 10
374.3713813477
 20
580.3550253906
 10
374.2285373535
 20
579.4026494141
 10
374.0856623535
 20
578.9264614258
 10
373.7999433594
 20
578.4502734375
 10
373.5142243652
 20
578.2121484375
 10
372.9428173828
 20
577.9740854492
 10
372.3713793945
 20
577.9740854492
 10
371.7999414063
 20
578.2121484375
 10
371.5142224121
 20
578.4502734375
 10
371.2285344238
 20
578.9264614258
 10
371.0856594238
 20
579.4026494141
 10
370.9428154297
 20
580.3550253906
 10
370.9428154297
 20
584.4026542969
  0
LINE
  5
25C
100
AcDbEntity
  8
0
100
AcDbLine
 62
7
  6
CONTINUOUS
 10
754.8355867957
 20
111.146719792
 11
938.0355867957
 21
111.146719792
  0
LINE
  5
25D
100
AcDbEntity
  8
0
100
AcDbLine
 62
7
  6
CONTINUOUS
 10
606.3713827204
 20
111.946719792
 11
130.3713827204
 21
111.946719792
  0
LINE
  5
25E
100
AcDbEntity
  8
0
100
AcDbLine
 62
7
  6
CONTINUOUS
 10
938.8355867957
 20
131.7837016305
 11
939.8355867957
 21
131.7837016305
  0
LWPOLYLINE
  5
25F
100
AcDbEntity
  8
0
100
AcDbPolyline
 62
2
  6
CONTINUOUS
 90
4
 70
0
 43
0.2500000019
 10
368.6570944824
 20
577.9740854492
 10
368.6570944824
 20
586.7835942383
 10
365.7999665527
 20
580.1169003906
 10
369.2285324707
 20
580.1169003906
  0
LWPOLYLINE
  5
260
100
AcDbEntity
  8
0
100
AcDbPolyline
 62
2
  6
CONTINUOUS
 90
25
 70
0
 43
0.2500000019
 10
370.9428154297
 20
560.7500205078
 10
371.0856594238
 20
561.7023964844
 10
371.2285344238
 20
562.1785844727
 10
371.514253418
 20
562.6547724609
 10
371.7999414063
 20
562.8928974609
 10
372.3713793945
 20
563.1309604492
 10
372.9428173828
 20
563.1309604492
 10
373.5142243652
 20
562.8928974609
 10
373.7999433594
 20
562.6547724609
 10
374.0856623535
 20
562.1785844727
 10
374.2285373535
 20
561.7023964844
 10
374.3713813477
 20
560.7500205078
 10
374.3713813477
 20
556.7023916016
 10
374.2285373535
 20
555.750015625
 10
374.0856623535
 20
555.2738276367
 10
373.7999433594
 20
554.7976396484
 10
373.5142243652
 20
554.5595766602
 10
372.9428173828
 20
554.3214516602
 10
372.3713793945
 20
554.3214516602
 10
371.7999414063
 20
554.5595766602
 10
371.514253418
 20
554.7976396484
 10
371.2285344238
 20
555.2738276367
 10
371.0856594238
 20
555.750015625
 10
370.9428154297
 20
556.7023916016
 10
370.9428154297
 20
560.7500205078
  0
LWPOLYLINE
  5
261
100
AcDbEntity
  8
0
100
AcDbPolyline
 62
2
  6
CONTINUOUS
 90
25
 70
0
 43
0.2500000019
 10
66.0727421875
 20
309.3752866211
 10
65.1203584595
 20
309.5181616211
 10
64.6441704712
 20
309.6610056152
 10
64.1679824829
 20
309.9467246094
 10
63.929884613
 20
310.2324436035
 10
63.6917906189
 20
310.8038505859
 10
63.6917906189
 20
311.3752885742
 10
63.929884613
 20
311.9467265625
 10
64.1679824829
 20
312.2324455566
 10
64.6441704712
 20
312.5181335449
 10
65.1203584595
 20
312.6610085449
 10
66.0727421875
 20
312.8038525391
 10
70.1203633423
 20
312.8038525391
 10
71.0727393188
 20
312.6610085449
 10
71.5489350586
 20
312.5181335449
 10
72.0251230469
 20
312.2324455566
 10
72.263217041
 20
311.9467265625
 10
72.5013110352
 20
311.3752885742
 10
72.5013110352
 20
310.8038505859
 10
72.263217041
 20
310.2324436035
 10
72.0251230469
 20
309.9467246094
 10
71.5489350586
 20
309.6610056152
 10
71.0727393188
 20
309.5181616211
 10
70.1203633423
 20
309.3752866211
 10
66.0727421875
 20
309.3752866211
  0
LWPOLYLINE
  5
262
100
AcDbEntity
  8
0
100
AcDbPolyline
 62
2
  6
CONTINUOUS
 90
25
 70
0
 43
0.2500000019
 10
41.3468328247
 20
314.518135498
 10
40.3944529724
 20
314.661010498
 10
39.9182611084
 20
314.8038544922
 10
39.4420692444
 20
315.0895734863
 10
39.2039752502
 20
315.3752924805
 10
38.9658812561
 20
315.9466994629
 10
38.9658812561
 20
316.5181374512
 10
39.2039752502
 20
317.0895754395
 10
39.4420692444
 20
317.3752944336
 10
39.9182611084
 20
317.6609824219
 10
40.3944529724
 20
317.8038574219
 10
41.3468328247
 20
317.946701416
 10
45.3944539795
 20
317.946701416
 10
46.3468338318
 20
317.8038574219
 10
46.8230218201
 20
317.6609824219
 10
47.2992136841
 20
317.3752944336
 10
47.5373076782
 20
317.0895754395
 10
47.7754055481
 20
316.5181374512
 10
47.7754055481
 20
315.9466994629
 10
47.5373076782
 20
315.3752924805
 10
47.2992136841
 20
315.0895734863
 10
46.8230218201
 20
314.8038544922
 10
46.3468338318
 20
314.661010498
 10
45.3944539795
 20
314.518135498
 10
41.3468328247
 20
314.518135498
  0
LWPOLYLINE
  5
263
100
AcDbEntity
  8
0
100
AcDbPolyline
 62
2
  6
CONTINUOUS
 90
25
 70
0
 43
0.2500000019
 10
66.0727421875
 20
314.518135498
 10
65.1203584595
 20
314.661010498
 10
64.6441704712
 20
314.8038544922
 10
64.1679824829
 20
315.0895734863
 10
63.929884613
 20
315.3752924805
 10
63.6917906189
 20
315.9467304687
 10
63.6917906189
 20
316.5181374512
 10
63.929884613
 20
317.0895754395
 10
64.1679824829
 20
317.3752944336
 10
64.6441704712
 20
317.6610134277
 10
65.1203584595
 20
317.8038574219
 10
66.0727421875
 20
317.9467324219
 10
70.1203633423
 20
317.9467324219
 10
71.0727393188
 20
317.8038574219
 10
71.5489350586
 20
317.6610134277
 10
72.0251230469
 20
317.3752944336
 10
72.263217041
 20
317.0895754395
 10
72.5013110352
 20
316.5181374512
 10
72.5013110352
 20
315.9467304687
 10
72.263217041
 20
315.3752924805
 10
72.0251230469
 20
315.0895734863
 10
71.5489350586
 20
314.8038544922
 10
71.0727393188
 20
314.661010498
 10
70.1203633423
 20
314.518135498
 10
66.0727421875
 20
314.518135498
  0
LWPOLYLINE
  5
264
100
AcDbEntity
  8
0
100
AcDbPolyline
 62
2
  6
CONTINUOUS
 90
4
 70
0
 43
0.2500000019
 10
72.5013110352
 20
307.0895656738
 10
63.6917906189
 20
307.0895656738
 10
70.3584573364
 20
304.2324377441
 10
70.3584573364
 20
307.6610036621
  0
LWPOLYLINE
  5
265
100
AcDbEntity
  8
0
100
AcDbPolyline
 62
2
  6
CONTINUOUS
 90
4
 70
0
 43
0.2500000019
 10
47.7754055481
 20
307.0895656738
 10
38.9658812561
 20
307.0895656738
 10
45.6325479736
 20
304.2324377441
 10
45.6325479736
 20
307.6610036621
  0
LWPOLYLINE
  5
266
100
AcDbEntity
  8
0
100
AcDbPolyline
 62
2
  6
CONTINUOUS
 90
4
 70
0
 43
0.2500000019
 10
47.7754055481
 20
312.2324145508
 10
38.9658812561
 20
312.2324145508
 10
45.6325479736
 20
309.3752866211
 10
45.6325479736
 20
312.8038525391
  0
LWPOLYLINE
  5
267
100
AcDbEntity
  8
0
100
AcDbPolyline
 62
2
  6
CONTINUOUS
 90
25
 70
0
 43
0.2500000019
 10
505.9427922363
 20
72.1807879639
 10
506.0856362305
 20
73.1331639404
 10
506.2285112305
 20
73.6093519287
 10
506.5142302246
 20
74.085539917
 10
506.7999492187
 20
74.3236339111
 10
507.3713562012
 20
74.5617279053
 10
507.9427941895
 20
74.5617279053
 10
508.5142321777
 20
74.3236339111
 10
508.7999511719
 20
74.085539917
 10
509.0856391602
 20
73.6093519287
 10
509.2285141602
 20
73.1331639404
 10
509.3713581543
 20
72.1807879639
 10
509.3713581543
 20
68.1331590576
 10
509.2285141602
 20
67.1807830811
 10
509.0856391602
 20
66.7045950928
 10
508.7999511719
 20
66.2284071045
 10
508.5142321777
 20
65.9903131104
 10
507.9427941895
 20
65.7522191162
 10
507.3713562012
 20
65.7522191162
 10
506.7999492187
 20
65.9903131104
 10
506.5142302246
 20
66.2284071045
 10
506.2285112305
 20
66.7045950928
 10
506.0856362305
 20
67.1807830811
 10
505.9427922363
 20
68.1331590576
 10
505.9427922363
 20
72.1807879639
  0
LWPOLYLINE
  5
268
100
AcDbEntity
  8
0
100
AcDbPolyline
 62
2
  6
CONTINUOUS
 90
17
 70
0
 43
0.2500000019
 10
495.6570944824
 20
72.6569759521
 10
495.9427824707
 20
73.6093519287
 10
496.2285014648
 20
74.085539917
 10
496.514220459
 20
74.3236339111
 10
497.0856584473
 20
74.5617279053
 10
497.6570654297
 20
74.5617279053
 10
498.228503418
 20
74.3236339111
 10
498.5142224121
 20
74.085539917
 10
498.7999414063
 20
73.6093519287
 10
498.9427854004
 20
73.1331639404
 10
499.0856604004
 20
72.418881958
 10
499.0856604004
 20
72.1807879639
 10
498.9427854004
 20
71.4664904785
 10
495.9427824707
 20
66.9426890869
 10
495.7999384766
 20
66.4665010986
 10
495.6570944824
 20
65.7522191162
 10
499.0856604004
 20
65.7522191162
  0
LINE
  5
269
100
AcDbEntity
  8
0
100
AcDbLine
 62
7
  6
CONTINUOUS
 10
618.3713827204
 20
499.946719792
 11
618.3713827204
 21
123.946719792
  0
LWPOLYLINE
  5
26A
100
AcDbEntity
  8
0
100
AcDbPolyline
 62
2
  6
CONTINUOUS
 90
3
 70
0
 43
0.2500000019
 10
561.4052363281
 20
476.2111186523
 10
560.9969511719
 20
477.4087509766
 10
566.3471982422
 20
470.7121054687
  0
LINE
  5
26B
100
AcDbEntity
  8
0
100
AcDbLine
 62
7
  6
CONTINUOUS
 10
638.3713645589
 20
97.946719792
 11
638.3713827204
 21
525.9467016305
  0
LINE
  5
26C
100
AcDbEntity
  8
0
100
AcDbLine
 62
7
  6
CONTINUOUS
 10
734.101292041
 20
453.8386441424
 11
733.9738440661
 21
453.577898611
  0
LINE
  5
26D
100
AcDbEntity
  8
0
100
AcDbLine
 62
7
  6
CONTINUOUS
 10
733.9738440661
 20
453.577898611
 11
733.9574236843
 21
453.55107714
  0
LINE
  5
26E
100
AcDbEntity
  8
0
100
AcDbLine
 62
7
  6
CONTINUOUS
 10
731.736422479
 20
449.9974938664
 11
733.9482397403
 21
453.5364014845
  0
LWPOLYLINE
  5
26F
100
AcDbEntity
  8
0
100
AcDbPolyline
 62
2
  6
CONTINUOUS
 90
4
 70
0
 43
0.2500000019
 10
665.7186210938
 20
462.2324370117
 10
656.9091123047
 20
462.2324370117
 10
663.5758061523
 20
459.375309082
 10
663.5758061523
 20
462.803875
  0
LWPOLYLINE
  5
270
100
AcDbEntity
  8
0
100
AcDbPolyline
 62
2
  6
CONTINUOUS
 90
13
 70
0
 43
0.2500000019
 10
560.9899438477
 20
466.4319326172
 10
555.6396967773
 20
473.1285161133
 10
557.4254482422
 20
474.5552817383
 10
558.0205126953
 20
474.7259379883
 10
558.3923349609
 20
474.7182485352
 10
558.6525981445
 20
474.6213862305
 10
559.2100214844
 20
474.152515625
 10
559.804527832
 20
473.4084370117
 10
560.1387709961
 20
472.7612207031
 10
560.1757299805
 20
472.486074707
 10
560.1011298828
 20
472.1216938477
 10
559.8033496094
 20
471.5789672852
 10
558.0175981445
 20
470.1522636719
  0
LWPOLYLINE
  5
271
100
AcDbEntity
  8
0
100
AcDbPolyline
 62
2
  6
CONTINUOUS
 90
17
 70
0
 43
0.2500000019
 10
564.7159179687
 20
478.246715332
 10
564.3446538086
 20
479.1691396484
 10
564.2706738281
 20
479.7194936523
 10
564.3452739258
 20
480.0838745117
 10
564.6430541992
 20
480.6265390625
 10
565.0895385742
 20
480.9832304687
 10
565.6845410156
 20
481.1538867187
 10
566.056425293
 20
481.1461972656
 10
566.5768896484
 20
480.952534668
 10
566.9857329102
 20
480.669637207
 10
567.54315625
 20
480.2007666016
 10
567.6917983398
 20
480.014793457
 10
568.0260415039
 20
479.3675771484
 10
568.5059501953
 20
473.9606513672
 10
568.6916132813
 20
473.4994702148
 10
569.0258564453
 20
472.8522539062
 10
571.7044526367
 20
474.992340332
  0
LINE
  5
272
100
AcDbEntity
  8
0
100
AcDbLine
 62
7
  6
CONTINUOUS
 10
728.2134812293
 20
437.1537750281
 11
731.5241529389
 21
449.5093700556
  0
LINE
  5
273
100
AcDbEntity
  8
0
100
AcDbLine
 62
7
  6
CONTINUOUS
 10
734.159486979
 20
454.0180506831
 11
734.101292041
 21
453.8386441424
  0
LINE
  5
274
100
AcDbEntity
  8
0
100
AcDbLine
 62
7
  6
CONTINUOUS
 10
938.8355867957
 20
492.109719792
 11
939.8355867957
 21
492.109719792
  0
LWPOLYLINE
  5
275
100
AcDbEntity
  8
0
100
AcDbPolyline
 62
2
  6
CONTINUOUS
 90
25
 70
0
 43
0.2500000019
 10
659.2900522461
 20
464.5181269531
 10
658.3376762695
 20
464.6610019531
 10
657.8614882812
 20
464.8038769531
 10
657.385300293
 20
465.0895649414
 10
657.1472373047
 20
465.3752529297
 10
656.9091123047
 20
465.946690918
 10
656.9091123047
 20
466.5181289063
 10
657.1472373047
 20
467.0895668945
 10
657.385300293
 20
467.3752548828
 10
657.8614882812
 20
467.6610048828
 10
658.3376762695
 20
467.8038798828
 10
659.2900522461
 20
467.9466928711
 10
663.3376811523
 20
467.9466928711
 10
664.2900571289
 20
467.8038798828
 10
664.7662451172
 20
467.6610048828
 10
665.2424331055
 20
467.3752548828
 10
665.4805581055
 20
467.0895668945
 10
665.7186210938
 20
466.5181289063
 10
665.7186210938
 20
465.946690918
 10
665.4805581055
 20
465.3752529297
 10
665.2424331055
 20
465.0895649414
 10
664.7662451172
 20
464.8038769531
 10
664.2900571289
 20
464.6610019531
 10
663.3376811523
 20
464.5181269531
 10
659.2900522461
 20
464.5181269531
  0
LWPOLYLINE
  5
276
100
AcDbEntity
  8
0
100
AcDbPolyline
 62
2
  6
CONTINUOUS
 90
3
 70
0
 43
0.2500000019
 10
658.3376762695
 20
455.5181181641
 10
657.1472373047
 20
455.9466811523
 10
665.7186210938
 20
455.9466811523
  0
LWPOLYLINE
  5
277
100
AcDbEntity
  8
0
100
AcDbPolyline
 62
2
  6
CONTINUOUS
 90
2
 70
0
 43
0.2500000019
 10
559.5801074219
 20
471.4006835938
 10
563.6686020508
 20
468.572019043
  0
LINE
  5
278
100
AcDbEntity
  8
0
100
AcDbLine
 62
7
  6
CONTINUOUS
 10
738.5426931475
 20
479.2055181069
 11
737.836436837
 21
472.6335271329
  0
LINE
  5
279
100
AcDbEntity
  8
0
100
AcDbLine
 62
7
  6
CONTINUOUS
 10
737.836436837
 20
472.6335271329
 11
736.8126221609
 21
466.0128520948
  0
LINE
  5
27A
100
AcDbEntity
  8
0
100
AcDbLine
 62
7
  6
CONTINUOUS
 10
736.8126221609
 20
466.0128520948
 11
735.4694323131
 21
459.3658359788
  0
LINE
  5
27B
100
AcDbEntity
  8
0
100
AcDbLine
 62
7
  6
CONTINUOUS
 10
735.4694323131
 20
459.3658359788
 11
734.1595075493
 21
454.018044499
  0
LINE
  5
27C
100
AcDbEntity
  8
0
100
AcDbLine
 62
7
  6
CONTINUOUS
 10
130.3713827204
 20
511.946719792
 11
606.3713827204
 21
511.946719792
  0
LINE
  5
27D
100
AcDbEntity
  8
0
100
AcDbLine
 62
7
  6
CONTINUOUS
 10
754.8355867957
 20
512.746719792
 11
938.0355867957
 21
512.746719792
  0
LINE
  5
27E
100
AcDbEntity
  8
0
100
AcDbLine
 62
7
  6
CONTINUOUS
 10
939.8355867957
 20
531.9467016305
 11
938.8355867957
 21
531.9467016305
  0
LINE
  5
27F
100
AcDbEntity
  8
0
100
AcDbLine
 62
7
  6
CONTINUOUS
 10
104.3713827204
 20
531.9467016305
 11
632.3713827204
 21
531.9467016305
  0
LINE
  5
280
100
AcDbEntity
  8
0
100
AcDbLine
 62
7
  6
CONTINUOUS
 10
731.736422479
 20
333.8959457175
 11
733.8129001328
 21
330.5735814714
  0
LINE
  5
281
100
AcDbEntity
  8
0
100
AcDbLine
 62
7
  6
CONTINUOUS
 10
733.8131241082
 20
330.5732261201
 11
733.8406279641
 21
330.5276473059
  0
LINE
  5
282
100
AcDbEntity
  8
0
100
AcDbLine
 62
7
  6
CONTINUOUS
 10
733.8406279641
 20
330.5276473059
 11
733.8762620257
 21
330.4632857094
  0
LINE
  5
283
100
AcDbEntity
  8
0
100
AcDbLine
 62
7
  6
CONTINUOUS
 10
733.8762620257
 20
330.4632857094
 11
733.9084043887
 21
330.3988693298
  0
LINE
  5
284
100
AcDbEntity
  8
0
100
AcDbLine
 62
7
  6
CONTINUOUS
 10
733.9084043887
 20
330.3988693298
 11
733.9371778487
 21
330.3346002913
  0
LINE
  5
285
100
AcDbEntity
  8
0
100
AcDbLine
 62
7
  6
CONTINUOUS
 10
733.9371778487
 20
330.3346002913
 11
733.96271875
 21
330.270649525
  0
LINE
  5
286
100
AcDbEntity
  8
0
100
AcDbLine
 62
7
  6
CONTINUOUS
 10
733.96271875
 20
330.270649525
 11
733.985146588
 21
330.2072337768
  0
LINE
  5
287
100
AcDbEntity
  8
0
100
AcDbLine
 62
7
  6
CONTINUOUS
 10
734.0617497926
 20
329.8542856086
 11
734.0664553091
 21
329.8034370399
  0
LINE
  5
288
100
AcDbEntity
  8
0
100
AcDbLine
 62
7
  6
CONTINUOUS
 10
734.0664553091
 20
329.8034370399
 11
734.0693649894
 21
329.7579229181
  0
LINE
  5
289
100
AcDbEntity
  8
0
100
AcDbLine
 62
7
  6
CONTINUOUS
 10
734.0693842503
 20
329.7579154494
 11
735.5504110005
 21
297.819865485
  0
LINE
  5
28A
100
AcDbEntity
  8
0
100
AcDbLine
 62
7
  6
CONTINUOUS
 10
735.5504110005
 20
297.819865485
 11
736.813444555
 21
264.597521138
  0
LINE
  5
28B
100
AcDbEntity
  8
0
100
AcDbLine
 62
7
  6
CONTINUOUS
 10
736.813444555
 20
264.597521138
 11
737.7934605216
 21
231.3751276102
  0
LINE
  5
28C
100
AcDbEntity
  8
0
100
AcDbLine
 62
7
  6
CONTINUOUS
 10
737.7934605216
 20
231.3751276102
 11
738.4903971633
 21
198.1562982657
  0
LINE
  5
28D
100
AcDbEntity
  8
0
100
AcDbLine
 62
7
  6
CONTINUOUS
 10
738.4903971633
 20
198.1562982657
 11
738.904315902
 21
164.9446464682
  0
LINE
  5
28E
100
AcDbEntity
  8
0
100
AcDbLine
 62
7
  6
CONTINUOUS
 10
738.904315902
 20
164.9446464682
 11
739.0150747347
 21
137.9466356416
  0
LINE
  5
28F
100
AcDbEntity
  8
0
100
AcDbLine
 62
7
  6
CONTINUOUS
 10
728.2134812293
 20
346.7396645559
 11
728.2134812293
 21
437.1537750281
  0
LINE
  5
290
100
AcDbEntity
  8
0
100
AcDbLine
 62
7
  6
CONTINUOUS
 10
739.0355867957
 20
496.946719792
 11
739.0355867957
 21
126.946719792
  0
LINE
  5
291
100
AcDbEntity
  8
0
100
AcDbLine
 62
7
  6
CONTINUOUS
 10
738.9419448395
 20
485.9484741708
 11
738.9374111126
 21
485.7064813554
  0
LINE
  5
292
100
AcDbEntity
  8
0
100
AcDbLine
 62
7
  6
CONTINUOUS
 10
738.9374111126
 20
485.7064813554
 11
738.5426931475
 21
479.2055181069
  0
LWPOLYLINE
  5
293
100
AcDbEntity
  8
0
100
AcDbPolyline
 62
2
  6
CONTINUOUS
 90
22
 70
0
 43
0.2500000019
 10
364.0856835937
 20
562.8928974609
 10
360.9428056641
 20
562.8928974609
 10
360.9428056641
 20
559.5595195312
 10
361.3713686523
 20
559.7976445313
 10
362.0856816406
 20
560.0357695313
 10
362.657088623
 20
560.0357695313
 10
363.2285266113
 20
559.7976445313
 10
363.5142456055
 20
559.5595195312
 10
363.7999645996
 20
559.083331543
 10
363.9428085937
 20
558.6071435547
 10
364.0856835937
 20
557.6547675781
 10
364.0856835937
 20
556.7023916016
 10
363.9428085937
 20
555.750015625
 10
363.7999645996
 20
555.2738276367
 10
363.5142456055
 20
554.7976396484
 10
363.2285266113
 20
554.5595766602
 10
362.657088623
 20
554.3214516602
 10
362.0856816406
 20
554.3214516602
 10
361.5142436523
 20
554.5595766602
 10
361.2285246582
 20
554.7976396484
 10
360.9428056641
 20
555.2738276367
 10
360.6570866699
 20
555.988140625
  0
LINE
  5
294
100
AcDbEntity
  8
0
100
AcDbLine
 62
7
  6
CONTINUOUS
 10
733.985146588
 20
330.2072337768
 11
734.0046229442
 21
330.1444533903
  0
LINE
  5
295
100
AcDbEntity
  8
0
100
AcDbLine
 62
7
  6
CONTINUOUS
 10
734.0046229442
 20
330.1444533903
 11
734.021214673
 21
330.0827515317
  0
LINE
  5
296
100
AcDbEntity
  8
0
100
AcDbLine
 62
7
  6
CONTINUOUS
 10
728.2134812293
 20
346.7396645559
 11
731.5241529389
 21
334.3840695284
  0
LINE
  5
297
100
AcDbEntity
  8
0
100
AcDbLine
 62
7
  6
CONTINUOUS
 10
734.021214673
 20
330.0827515317
 11
734.0350639255
 21
330.02243319
  0
LINE
  5
298
100
AcDbEntity
  8
0
100
AcDbLine
 62
7
  6
CONTINUOUS
 10
734.0350639255
 20
330.02243319
 11
734.0463058257
 21
329.9639717872
  0
LINE
  5
299
100
AcDbEntity
  8
0
100
AcDbLine
 62
7
  6
CONTINUOUS
 10
734.0463058257
 20
329.9639717872
 11
734.0551469681
 21
329.9076470232
  0
LINE
  5
29A
100
AcDbEntity
  8
0
100
AcDbLine
 62
7
  6
CONTINUOUS
 10
734.0551469681
 20
329.9076470232
 11
734.0617497926
 21
329.8542856086
  0
LWPOLYLINE
  5
29B
100
AcDbEntity
  8
0
100
AcDbPolyline
 62
2
  6
CONTINUOUS
 90
22
 70
0
 43
0.2500000019
 10
364.0856525879
 20
586.54553125
 10
360.9428056641
 20
586.54553125
 10
360.9428056641
 20
583.2121533203
 10
361.3713686523
 20
583.4502783203
 10
362.0856816406
 20
583.6883413086
 10
362.657088623
 20
583.6883413086
 10
363.2285266113
 20
583.4502783203
 10
363.5142456055
 20
583.2121533203
 10
363.7999645996
 20
582.735965332
 10
363.9428085937
 20
582.2597773437
 10
364.0856525879
 20
581.3074013672
 10
364.0856525879
 20
580.3550253906
 10
363.9428085937
 20
579.4026494141
 10
363.7999645996
 20
578.9264614258
 10
363.5142456055
 20
578.4502734375
 10
363.2285266113
 20
578.2121484375
 10
362.657088623
 20
577.9740854492
 10
362.0856816406
 20
577.9740854492
 10
361.5142436523
 20
578.2121484375
 10
361.2285246582
 20
578.4502734375
 10
360.9428056641
 20
578.9264614258
 10
360.6570866699
 20
579.6407124023
  0
LWPOLYLINE
  5
29C
100
AcDbEntity
  8
0
100
AcDbPolyline
 62
2
  6
CONTINUOUS
 90
25
 70
0
 43
0.2500000019
 10
836.8641435547
 20
71.9561505127
 10
837.0070185547
 20
72.9085264893
 10
837.1498935547
 20
73.3847299805
 10
837.435581543
 20
73.8609179688
 10
837.721331543
 20
74.0990119629
 10
838.2927075195
 20
74.337105957
 10
838.8641455078
 20
74.337105957
 10
839.4355834961
 20
74.0990119629
 10
839.7212714844
 20
73.8609179688
 10
840.0070214844
 20
73.3847299805
 10
840.1498964844
 20
72.9085264893
 10
840.2927094727
 20
71.9561505127
 10
840.2927094727
 20
67.9085371094
 10
840.1498964844
 20
66.9561456299
 10
840.0070214844
 20
66.4799576416
 10
839.7212714844
 20
66.0037696533
 10
839.4355834961
 20
65.7656756592
 10
838.8641455078
 20
65.527581665
 10
838.2927075195
 20
65.527581665
 10
837.721331543
 20
65.7656756592
 10
837.435581543
 20
66.0037696533
 10
837.1498935547
 20
66.4799576416
 10
837.0070185547
 20
66.9561456299
 10
836.8641435547
 20
67.9085371094
 10
836.8641435547
 20
71.9561505127
  0
LWPOLYLINE
  5
29D
100
AcDbEntity
  8
0
100
AcDbPolyline
 62
2
  6
CONTINUOUS
 90
25
 70
0
 43
0.2500000019
 10
842.0070234375
 20
71.9561505127
 10
842.1498984375
 20
72.9085264893
 10
842.2927114258
 20
73.3847299805
 10
842.5784614258
 20
73.8609179688
 10
842.8641494141
 20
74.0990119629
 10
843.4355874023
 20
74.337105957
 10
844.0070253906
 20
74.337105957
 10
844.5784633789
 20
74.0990119629
 10
844.8641513672
 20
73.8609179688
 10
845.1499013672
 20
73.3847299805
 10
845.2927143555
 20
72.9085264893
 10
845.4355893555
 20
71.9561505127
 10
845.4355893555
 20
67.9085371094
 10
845.2927143555
 20
66.9561456299
 10
845.1499013672
 20
66.4799576416
 10
844.8641513672
 20
66.0037696533
 10
844.5784633789
 20
65.7656756592
 10
844.0070253906
 20
65.527581665
 10
843.4355874023
 20
65.527581665
 10
842.8641494141
 20
65.7656756592
 10
842.5784614258
 20
66.0037696533
 10
842.2927114258
 20
66.4799576416
 10
842.1498984375
 20
66.9561456299
 10
842.0070234375
 20
67.9085371094
 10
842.0070234375
 20
71.9561505127
  0
LWPOLYLINE
  5
29E
100
AcDbEntity
  8
0
100
AcDbPolyline
 62
2
  6
CONTINUOUS
 90
17
 70
0
 43
0.2500000019
 10
831.7213256836
 20
72.432338501
 10
832.0070136719
 20
73.3847299805
 10
832.2927016602
 20
73.8609179688
 10
832.5784516602
 20
74.0990119629
 10
833.1498896484
 20
74.337105957
 10
833.7213276367
 20
74.337105957
 10
834.2927036133
 20
74.0990119629
 10
834.5784536133
 20
73.8609179688
 10
834.8641416016
 20
73.3847299805
 10
835.0070166016
 20
72.9085264893
 10
835.1498916016
 20
72.1942445068
 10
835.1498916016
 20
71.9561505127
 10
835.0070166016
 20
71.2418685303
 10
832.0070136719
 20
66.7180516357
 10
831.8641386719
 20
66.2418636475
 10
831.7213256836
 20
65.527581665
 10
835.1498916016
 20
65.527581665
  0
LINE
  5
29F
100
AcDbEntity
  8
0
100
AcDbLine
 62
7
  6
CONTINUOUS
 10
938.8355867957
 20
91.946719792
 11
938.8355867957
 21
131.7837016305
  0
LINE
  5
2A0
100
AcDbEntity
  8
0
100
AcDbLine
 62
7
  6
CONTINUOUS
 10
938.8355867957
 20
492.109719792
 11
938.8355867957
 21
531.9467016305
  0
LINE
  5
2A1
100
AcDbEntity
  8
0
100
AcDbLine
 62
7
  6
CONTINUOUS
 10
939.0355867957
 20
131.783719792
 11
939.0355867957
 21
492.109719792
  0
LINE
  5
2A2
100
AcDbEntity
  8
0
100
AcDbLine
 62
7
  6
CONTINUOUS
 10
939.8355867957
 20
91.946719792
 11
939.8355867957
 21
531.9467016305
  0
CIRCLE
  5
2A3
100
AcDbEntity
  8
0
100
AcDbCircle
 62
7
  6
CONTINUOUS
 10
368.3713827204
 20
391.946719792
 40
45.0
  0
ARC
  5
2A4
100
AcDbEntity
  8
0
100
AcDbCircle
 62
7
  6
CONTINUOUS
 10
754.8355867957
 20
126.946719792
 40
15.8
100
AcDbArc
 50
180.0
 51
270.0
  0
ARC
  5
2A5
100
AcDbEntity
  8
0
100
AcDbCircle
 62
7
  6
CONTINUOUS
 10
754.8355867957
 20
496.946719792
 40
15.8
100
AcDbArc
 50
90.0
 51
180.0
  0
ARC
  5
2A6
100
AcDbEntity
  8
0
100
AcDbCircle
 62
7
  6
CONTINUOUS
 10
130.3713827204
 20
499.946719792
 40
12.0
100
AcDbArc
 50
90.0
 51
180.0
  0
ARC
  5
2A7
100
AcDbEntity
  8
0
100
AcDbCircle
 62
7
  6
CONTINUOUS
 10
606.3713827204
 20
499.946719792
 40
12.0
100
AcDbArc
 50
0.0
 51
90.0
  0
ARC
  5
2A8
100
AcDbEntity
  8
0
100
AcDbCircle
 62
7
  6
CONTINUOUS
 10
606.3713827204
 20
123.946719792
 40
12.0
100
AcDbArc
 50
270.0
 51
360.0
  0
ARC
  5
2A9
100
AcDbEntity
  8
0
100
AcDbCircle
 62
7
  6
CONTINUOUS
 10
130.3713827204
 20
123.946719792
 40
12.0
100
AcDbArc
 50
180.0
 51
270.0
  0
ARC
  5
2AA
100
AcDbEntity
  8
0
100
AcDbCircle
 62
7
  6
CONTINUOUS
 10
104.3714008819
 20
97.946719792
 40
6.0
100
AcDbArc
 50
180.0
 51
270.0
  0
ARC
  5
2AB
100
AcDbEntity
  8
0
100
AcDbCircle
 62
7
  6
CONTINUOUS
 10
104.3713827204
 20
525.9467016305
 40
6.0
100
AcDbArc
 50
90.0
 51
180.0
  0
ARC
  5
2AC
100
AcDbEntity
  8
0
100
AcDbCircle
 62
7
  6
CONTINUOUS
 10
632.3713645589
 20
97.946719792
 40
6.0
100
AcDbArc
 50
270.0
 51
360.0
  0
ARC
  5
2AD
100
AcDbEntity
  8
0
100
AcDbCircle
 62
7
  6
CONTINUOUS
 10
632.3713827204
 20
525.9467016305
 40
6.0
100
AcDbArc
 50
0.0
 51
90.0
  0
ARC
  5
2AE
100
AcDbEntity
  8
0
100
AcDbCircle
 62
7
  6
CONTINUOUS
 10
733.2628194262
 20
449.0434957744
 40
1.8
100
AcDbArc
 50
151.7735908382
 51
165.0
  0
ARC
  5
2AF
100
AcDbEntity
  8
0
100
AcDbCircle
 62
7
  6
CONTINUOUS
 10
733.2628194262
 20
334.8499438095
 40
1.8
100
AcDbArc
 50
195.0
 51
208.2264091618
  0
ARC
  5
2B0
100
AcDbEntity
  8
0
100
AcDbCircle
 62
7
  6
CONTINUOUS
 10
938.0355867957
 20
513.746719792
 40
1.0
100
AcDbArc
 50
270.0
 51
323.7679987422
  0
ARC
  5
2B1
100
AcDbEntity
  8
0
100
AcDbCircle
 62
7
  6
CONTINUOUS
 10
938.0355867957
 20
110.146719792
 40
1.0
100
AcDbArc
 50
36.2319949854
 51
90.0
  0
ENDSEC
  0
SECTION
  2
OBJECTS
  0
DICTIONARY
  5
C
100
AcDbDictionary
280
0
281
1
  3
ACAD_GROUP
350
D
  3
ACAD_MLINESTYLE
350
17
  3
ACAD_LAYOUT
350
1A
  3
ACAD_PLOTSETTINGS
350
19
  3
ACAD_PLOTSTYLENAME
350
E
  0
DICTIONARY
  5
D
102
{ACAD_REACTORS
330
C
102
}
100
AcDbDictionary
280
0
281
1
  0
ACDBDICTIONARYWDFLT
  5
E
102
{ACAD_REACTORS
330
C
102
}
100
AcDbDictionary
281
1
  3
Normal
350
F
100
AcDbDictionaryWithDefault
340
F
  0
DICTIONARY
  5
17
102
{ACAD_REACTORS
330
C
102
}
100
AcDbDictionary
280
0
281
1
  3
Standard
350
18
  0
DICTIONARY
  5
19
102
{ACAD_REACTORS
330
C
102
}
100
AcDbDictionary
281
1
  0
DICTIONARY
  5
1A
102
{ACAD_REACTORS
330
C
102
}
100
AcDbDictionary
281
1
  3
Model
350
2B2
  3
Layout1
350
2B3
  0
ACDBPLACEHOLDER
  5
F
102
{ACAD_REACTORS
330
E
102
}
  0
MLINESTYLE
  5
18
102
{ACAD_REACTORS
330
17
102
}
100
AcDbMlineStyle
  2
STANDARD
 70
0
  3

 62
256
 51
90.0
 52
90.0
 71
2
 49
0.5
 62
256
  6
BYLAYER
 49
-0.5
 62
256
  6
BYLAYER
  0
LAYOUT
  5
2B2
102
{ACAD_REACTORS
330
1A
102
}
100
AcDbPlotSettings
  1

  2
none_device
  4

  6

 40
0.0
 41
0.0
 42
0.0
 43
0.0
 44
1016.0
 45
635.0
 46
0.0
 47
0.0
 48
0.0
 49
0.0
140
0.0
141
0.0
142
1.0
143
1.0
 70
1024
 72
1
 73
0
 74
0
  7

 75
0
147
1.0
148
0.0
149
0.0
100
AcDbLayout
  1
Model
 70
0
 71
0
 10
0.0
 20
0.0
 11
1016.0
 21
635.0
 12
0.0
 22
0.0
 32
0.0
 14
0.0
 24
0.0
 34
0.0
 15
0.0
 25
0.0
 35
0.0
146
0.0
 13
0.0
 23
0.0
 33
0.0
 16
1.0
 26
0.0
 36
0.0
 17
0.0
 27
1.0
 37
0.0
 76
0
330
1FF
345
0
346
0
  0
LAYOUT
  5
2B3
102
{ACAD_REACTORS
330
1A
102
}
100
AcDbPlotSettings
  1

  2
none_device
  4

  6

 40
0.0
 41
0.0
 42
0.0
 43
0.0
 44
1016.0
 45
635.0
 46
0.0
 47
0.0
 48
0.0
 49
0.0
140
0.0
141
0.0
142
1.0
143
1.0
 70
0
 72
1
 73
0
 74
0
  7

 75
0
147
1.0
148
0.0
149
0.0
100
AcDbLayout
  1
Layout1
 70
0
 71
1
 10
0.0
 20
0.0
 11
1016.0
 21
635.0
 12
0.0
 22
0.0
 32
0.0
 14
0.0
 24
0.0
 34
0.0
 15
0.0
 25
0.0
 35
0.0
146
0.0
 13
0.0
 23
0.0
 33
0.0
 16
1.0
 26
0.0
 36
0.0
 17
0.0
 27
1.0
 37
0.0
 76
0
330
200
345
0
346
0
  0
ENDSEC
  0
EOF
