999
DXF file: W:\Engenharia\Produtos\Cubas\Quadrum\cubas_quadrum_6.dxf
999
Pro/ENGINEER 2012230 by Parametric Technology Corporation
  0
SECTION
  2
HEADER
  9
$ACADVER
  1
AC1018
  9
$DWGCODEPAGE
  3
ANSI_1252
  9
$EXTMAX
 10
1016.0
 20
762.0
 30
0.0
  9
$EXTMIN
 10
0.0
 20
0.0
 30
0.0
  9
$LIMMIN
 10
0.0
 20
0.0
  9
$LIMMAX
 10
1016.0
 20
762.0
  9
$VIEWCTR
 10
508.0
 20
381.0
  9
$VIEWSIZE
 40
762.0
  9
$CLAYER
  8
0
  9
$LTSCALE
 40
55.88
  9
$CELTYPE
  6
BYLAYER
  9
$DIMSCALE
 40
1.0
  9
$DIMASZ
 40
3.0
  9
$DIMEXO
 40
0.5
  9
$DIMDLI
 40
38.608
  9
$DIMEXE
 40
0.5
  9
$DIMCEN
 40
9.144
  9
$DIMLFAC
 40
1.0
  9
$DIMBLK
  1
_FILLED
  9
$DIMTXT
 40
1.8
  9
$DIMTOL
 70
1
  9
$DIMLIM
 70
0
  9
$DIMTFAC
 40
1.0
  9
$DIMTP
 40
0.001
  9
$DIMTM
 40
0.001
  9
$DIMGAP
 40
0.625
  9
$DIMDSEP
 70
46
  9
$PDMODE
 70
3
  9
$PDSIZE
 40
1.0
  9
$HANDSEED
  5
2B1
  9
$TILEMODE
 70
1
  9
$MEASUREMENT
 70
1
  9
$INSUNITS
 70
4
  0
ENDSEC
  0
SECTION
  2
CLASSES
  0
CLASS
  1
ACDBDICTIONARYWDFLT
  2
AcDbDictionaryWithDefault
  3
AutoCAD 2000
 90
0
 91
1
280
0
281
0
  0
CLASS
  1
ACDBPLACEHOLDER
  2
AcDbPlaceHolder
  3
AutoCAD 2000
 90
0
 91
1
280
0
281
0
  0
CLASS
  1
LAYOUT
  2
AcDbLayout
  3
AutoCAD 2000
 90
0
 91
0
280
0
281
0
  0
ENDSEC
  0
SECTION
  2
TABLES
  0
TABLE
  2
VPORT
  5
8
100
AcDbSymbolTable
 70
2
  0
VPORT
  5
1F4
100
AcDbSymbolTableRecord
100
AcDbViewportTableRecord
  2
*ACTIVE
 70
0
 10
0.0
 20
0.0
 11
1.0
 21
1.0
 12
508.0
 22
381.0
 13
0.0
 23
0.0
 14
1.0
 24
1.0
 15
0.0
 25
0.0
 16
0.0
 26
0.0
 36
1.0
 17
0.0
 27
0.0
 37
0.0
 40
762.0
 41
1.3333333333
 42
50.0
 43
0.0
 44
0.0
 50
0.0
 51
0.0
 71
0
 72
100
 73
1
 74
1
 75
0
 76
0
 77
0
 78
0
  0
ENDTAB
  0
TABLE
  2
LTYPE
  5
5
100
AcDbSymbolTable
 70
6
  0
LTYPE
  5
14
100
AcDbSymbolTableRecord
100
AcDbLinetypeTableRecord
  2
BYBLOCK
 70
0
  3

 72
65
 73
0
 40
0.0
  0
LTYPE
  5
15
100
AcDbSymbolTableRecord
100
AcDbLinetypeTableRecord
  2
BYLAYER
 70
0
  3

 72
65
 73
0
 40
0.0
  0
LTYPE
  5
16
100
AcDbSymbolTableRecord
100
AcDbLinetypeTableRecord
  2
CONTINUOUS
 70
64
  3
Solid line
 72
65
 73
0
 40
0.0
  0
LTYPE
  5
1F5
100
AcDbSymbolTableRecord
100
AcDbLinetypeTableRecord
  2
CENTER
 70
64
  3
____ _ ____ _ ____ _ ____ _ ____ _ ____ _ ____
 72
65
 73
4
 40
0.6
 49
0.375
 74
0
 49
-0.075
 74
0
 49
0.075
 74
0
 49
-0.075
 74
0
  0
LTYPE
  5
1F6
100
AcDbSymbolTableRecord
100
AcDbLinetypeTableRecord
  2
HIDDEN
 70
64
  3
- - - - - - - - - - - - - - - - - - - -
 72
65
 73
2
 40
0.2
 49
0.1
 74
0
 49
-0.1
 74
0
  0
LTYPE
  5
1F7
100
AcDbSymbolTableRecord
100
AcDbLinetypeTableRecord
  2
PHANTOM
 70
64
  3
_____ _ _ _____ _ _ _____ _ _ _____
 72
65
 73
6
 40
0.8
 49
0.45
 74
0
 49
-0.05
 74
0
 49
0.1
 74
0
 49
-0.05
 74
0
 49
0.1
 74
0
 49
-0.05
 74
0
  0
LTYPE
  5
1F8
100
AcDbSymbolTableRecord
100
AcDbLinetypeTableRecord
  2
DOT
 70
64
  3
. . . . . . . . . . . . . . . . . . . .
 72
65
 73
2
 40
0.2
 49
0.1
 74
0
 49
-0.1
 74
0
  0
LTYPE
  5
1F9
100
AcDbSymbolTableRecord
100
AcDbLinetypeTableRecord
  2
DASHED
 70
64
  3
- - - - - - - - - - - - - - - - - - - -
 72
65
 73
2
 40
0.2
 49
0.1
 74
0
 49
-0.1
 74
0
  0
ENDTAB
  0
TABLE
  2
LAYER
  5
2
100
AcDbSymbolTable
 70
36
  0
LAYER
  5
10
100
AcDbSymbolTableRecord
100
AcDbLayerTableRecord
  2
0
 70
0
 62
7
  6
CONTINUOUS
370
-3
390
F
  0
LAYER
  5
1FA
100
AcDbSymbolTableRecord
100
AcDbLayerTableRecord
  2
DEFAULT_1
 70
0
 62
7
  6
CENTER
370
-3
390
F
  0
LAYER
  5
1FB
100
AcDbSymbolTableRecord
100
AcDbLayerTableRecord
  2
DEFAULT_2
 70
0
 62
8
  6
HIDDEN
370
-3
390
F
  0
LAYER
  5
1FC
100
AcDbSymbolTableRecord
100
AcDbLayerTableRecord
  2
DEFAULT_3
 70
0
 62
7
  6
PHANTOM
370
-3
390
F
  0
ENDTAB
  0
TABLE
  2
STYLE
  5
3
100
AcDbSymbolTable
 70
1
  0
STYLE
  5
11
100
AcDbSymbolTableRecord
100
AcDbTextStyleTableRecord
  2
STANDARD
 70
0
 40
0.0
 41
0.8
 50
0.0
 71
0
 42
0.2
  3
txt
  4

  0
STYLE
  5
1FD
100
AcDbSymbolTableRecord
100
AcDbTextStyleTableRecord
  2
TEXTSTYLE_1
 70
0
 40
0.0
 41
0.8
 50
0.0
 71
0
 42
0.2
  3
gdt
  4

  0
ENDTAB
  0
TABLE
  2
VIEW
  5
6
100
AcDbSymbolTable
 70
0
  0
ENDTAB
  0
TABLE
  2
UCS
  5
7
100
AcDbSymbolTable
 70
0
  0
ENDTAB
  0
TABLE
  2
APPID
  5
9
100
AcDbSymbolTable
 70
1
  0
APPID
  5
1FE
100
AcDbSymbolTableRecord
100
AcDbRegAppTableRecord
  2
ACAD
 70
0
  0
ENDTAB
  0
TABLE
  2
BLOCK_RECORD
  5
1
100
AcDbSymbolTable
 70
0
  0
BLOCK_RECORD
  5
1FF
100
AcDbSymbolTableRecord
100
AcDbBlockTableRecord
  2
*Model_Space
  0
BLOCK_RECORD
  5
200
100
AcDbSymbolTableRecord
100
AcDbBlockTableRecord
  2
*Paper_Space
  0
BLOCK_RECORD
  5
201
100
AcDbSymbolTableRecord
100
AcDbBlockTableRecord
  2
_FILLED
  0
BLOCK_RECORD
  5
202
100
AcDbSymbolTableRecord
100
AcDbBlockTableRecord
  2
*D0
  0
BLOCK_RECORD
  5
203
100
AcDbSymbolTableRecord
100
AcDbBlockTableRecord
  2
*D1
  0
BLOCK_RECORD
  5
204
100
AcDbSymbolTableRecord
100
AcDbBlockTableRecord
  2
*D2
  0
BLOCK_RECORD
  5
205
100
AcDbSymbolTableRecord
100
AcDbBlockTableRecord
  2
*D3
  0
BLOCK_RECORD
  5
206
100
AcDbSymbolTableRecord
100
AcDbBlockTableRecord
  2
*D4
  0
BLOCK_RECORD
  5
207
100
AcDbSymbolTableRecord
100
AcDbBlockTableRecord
  2
*D5
  0
BLOCK_RECORD
  5
208
100
AcDbSymbolTableRecord
100
AcDbBlockTableRecord
  2
*D6
  0
BLOCK_RECORD
  5
209
100
AcDbSymbolTableRecord
100
AcDbBlockTableRecord
  2
*D7
  0
ENDTAB
  0
TABLE
  2
DIMSTYLE
  5
A
100
AcDbSymbolTable
 70
1
100
AcDbDimStyleTable
 71
0
  0
DIMSTYLE
105
20A
100
AcDbSymbolTableRecord
100
AcDbDimStyleTableRecord
  2
STANDARD
 70
0
  3

  4

 40
1.0
 41
3.0
 42
0.5
 43
0.38
 44
0.5
 45
0.0
 46
0.0
 47
0.001
 48
0.001
140
1.8
141
0.09
142
0.0
143
25.4
144
1.0
145
0.0
146
1.0
147
0.625
 71
1.0
 72
0.0
 73
0
 74
0
 75
0
 76
0
 77
1
 78
8
170
0
171
2
172
0
173
0
174
0
175
0
176
0
177
0
178
0
270
2
271
3
272
3
273
2
274
2
275
0
280
0
281
0
282
0
283
1
284
8
285
0
286
0
287
3
288
0
340
11
278
46
341
201
342
201
343
201
344
201
  0
DIMSTYLE
105
20B
100
AcDbSymbolTableRecord
100
AcDbDimStyleTableRecord
  2
DIMSTYLE_1
 70
0
  3

  4

 40
1.0
 41
3.0
 42
0.5
 43
0.38
 44
0.5
 45
0.0
 46
0.0
 47
0.8
 48
0.8
140
5.0
141
0.09
142
0.0
143
25.4
144
1.0
145
0.0
146
1.0
147
1.25
 71
0.0
 72
0.0
 73
0
 74
0
 75
0
 76
0
 77
1
 78
8
170
0
171
2
172
0
173
0
174
0
175
0
176
0
177
0
178
0
270
2
271
3
272
3
273
2
274
2
275
0
280
0
281
0
282
0
283
1
284
8
285
0
286
0
287
3
288
0
340
11
278
46
341
201
342
201
343
201
344
201
  0
DIMSTYLE
105
20C
100
AcDbSymbolTableRecord
100
AcDbDimStyleTableRecord
  2
DIMSTYLE_2
 70
0
  3

  4

 40
1.0
 41
3.0
 42
0.5
 43
0.38
 44
0.5
 45
0.0
 46
0.0
 47
0.5
 48
0.5
140
5.0
141
0.09
142
0.0
143
25.4
144
1.0
145
0.0
146
1.0
147
1.25
 71
0.0
 72
0.0
 73
0
 74
0
 75
0
 76
0
 77
1
 78
8
170
0
171
2
172
0
173
0
174
0
175
0
176
0
177
0
178
0
270
2
271
3
272
3
273
2
274
2
275
0
280
0
281
0
282
0
283
1
284
8
285
0
286
0
287
3
288
0
340
11
278
46
341
201
342
201
343
201
344
201
  0
DIMSTYLE
105
20D
100
AcDbSymbolTableRecord
100
AcDbDimStyleTableRecord
  2
DIMSTYLE_3
 70
0
  3

  4

 40
1.0
 41
3.0
 42
0.5
 43
0.38
 44
0.5
 45
0.0
 46
0.0
 47
0.2
 48
0.2
140
5.0
141
0.09
142
0.0
143
25.4
144
1.0
145
0.0
146
1.0
147
0.625
 71
0.0
 72
0.0
 73
0
 74
0
 75
0
 76
0
 77
1
 78
8
170
0
171
2
172
0
173
0
174
0
175
0
176
0
177
0
178
0
270
2
271
3
272
3
273
2
274
2
275
0
280
0
281
0
282
0
283
1
284
8
285
0
286
0
287
3
288
0
340
11
278
46
341
201
342
201
343
201
344
201
  0
ENDTAB
  0
ENDSEC
  0
SECTION
  2
BLOCKS
  0
BLOCK
  5
20
100
AcDbEntity
  8
0
100
AcDbBlockBegin
  2
*Model_Space
 70
0
 10
0.0
 20
0.0
 30
0.0
  3
*Model_Space
  1

  0
ENDBLK
  5
21
100
AcDbEntity
  8
0
100
AcDbBlockEnd
  0
BLOCK
  5
1C
100
AcDbEntity
  8
0
100
AcDbBlockBegin
  2
*Paper_Space
 70
0
 10
0.0
 20
0.0
 30
0.0
  3
*Paper_Space
  1

  0
ENDBLK
  5
1D
100
AcDbEntity
  8
0
100
AcDbBlockEnd
  0
BLOCK
  5
20E
100
AcDbEntity
  8
0
100
AcDbBlockBegin
  2
_FILLED
 70
64
 10
0.0
 20
0.0
  3
_FILLED
  1

  0
SOLID
  5
20F
100
AcDbEntity
  8
0
  6
BYBLOCK
 62
0
100
AcDbTrace
 10
0.0
 20
0.0
 11
-1.0
 21
0.1666666667
 12
-1.0
 22
-0.1666666667
 13
-1.0
 23
-0.1666666667
  0
ENDBLK
  5
210
100
AcDbEntity
  8
0
  6
BYBLOCK
 62
0
100
AcDbBlockEnd
  0
BLOCK
  5
211
100
AcDbEntity
  8
0
100
AcDbBlockBegin
 62
2
  6
CONTINUOUS
  2
*D0
 70
65
 10
0.0
 20
0.0
  3
*D0
  1

  0
LINE
  5
212
100
AcDbEntity
  8
0
100
AcDbLine
 62
2
  6
CONTINUOUS
 10
121.3867153363
 20
592.8179980838
 11
121.3867127486
 21
653.7991757651
  0
LINE
  5
213
100
AcDbEntity
  8
0
100
AcDbLine
 62
2
  6
CONTINUOUS
 10
611.3867153363
 20
592.8179980838
 11
611.3867127486
 21
653.7991965574
  0
LINE
  5
214
100
AcDbEntity
  8
0
100
AcDbLine
 62
2
  6
CONTINUOUS
 10
121.3867127698
 20
653.2991757651
 11
366.3867127698
 21
653.2991861612
  0
LINE
  5
215
100
AcDbEntity
  8
0
100
AcDbLine
 62
2
  6
CONTINUOUS
 10
611.3867127698
 20
653.2991965574
 11
366.3867127698
 21
653.2991861612
  0
INSERT
  5
216
100
AcDbEntity
  8
0
100
AcDbBlockReference
 62
2
  6
CONTINUOUS
  2
_FILLED
 10
121.3867127698
 20
653.2991757651
 41
3.0
 42
3.0
 43
3.0
 50
180.0000024313
  0
INSERT
  5
217
100
AcDbEntity
  8
0
100
AcDbBlockReference
 62
2
  6
CONTINUOUS
  2
_FILLED
 10
611.3867127698
 20
653.2991965574
 41
3.0
 42
3.0
 43
3.0
 50
0.0000024313
  0
ENDBLK
  5
218
100
AcDbEntity
  8
0
  6
BYBLOCK
 62
0
100
AcDbBlockEnd
  0
BLOCK
  5
219
100
AcDbEntity
  8
0
100
AcDbBlockBegin
 62
2
  6
CONTINUOUS
  2
*D1
 70
65
 10
0.0
 20
0.0
  3
*D1
  1

  0
LINE
  5
21A
100
AcDbEntity
  8
0
100
AcDbLine
 62
2
  6
CONTINUOUS
 10
141.3867153575
 20
566.8180162453
 11
141.3867153575
 21
622.9339330025
  0
LINE
  5
21B
100
AcDbEntity
  8
0
100
AcDbLine
 62
2
  6
CONTINUOUS
 10
591.3867153575
 20
566.8180162453
 11
591.3867153575
 21
622.9339330025
  0
LINE
  5
21C
100
AcDbEntity
  8
0
100
AcDbLine
 62
2
  6
CONTINUOUS
 10
141.3867153575
 20
622.4339330025
 11
366.3867153575
 21
622.4339330025
  0
LINE
  5
21D
100
AcDbEntity
  8
0
100
AcDbLine
 62
2
  6
CONTINUOUS
 10
591.3867153575
 20
622.4339330025
 11
366.3867153575
 21
622.4339330025
  0
INSERT
  5
21E
100
AcDbEntity
  8
0
100
AcDbBlockReference
 62
2
  6
CONTINUOUS
  2
_FILLED
 10
141.3867153575
 20
622.4339330025
 41
3.0
 42
3.0
 43
3.0
 50
180.0
  0
INSERT
  5
21F
100
AcDbEntity
  8
0
100
AcDbBlockReference
 62
2
  6
CONTINUOUS
  2
_FILLED
 10
591.3867153575
 20
622.4339330025
 41
3.0
 42
3.0
 43
3.0
  0
ENDBLK
  5
220
100
AcDbEntity
  8
0
  6
BYBLOCK
 62
0
100
AcDbBlockEnd
  0
BLOCK
  5
221
100
AcDbEntity
  8
0
100
AcDbBlockBegin
 62
2
  6
CONTINUOUS
  2
*D2
 70
65
 10
0.0
 20
0.0
  3
*D2
  1

  0
LINE
  5
222
100
AcDbEntity
  8
0
100
AcDbLine
 62
2
  6
CONTINUOUS
 10
152.8867153575
 20
578.3180162453
 11
96.8495967742
 21
578.3180162453
  0
LINE
  5
223
100
AcDbEntity
  8
0
100
AcDbLine
 62
2
  6
CONTINUOUS
 10
152.8867153575
 20
178.3180162453
 11
96.8495967742
 21
178.3180162453
  0
LINE
  5
224
100
AcDbEntity
  8
0
100
AcDbLine
 62
2
  6
CONTINUOUS
 10
97.3495967742
 20
578.3180162453
 11
97.3495967742
 21
378.3180162453
  0
LINE
  5
225
100
AcDbEntity
  8
0
100
AcDbLine
 62
2
  6
CONTINUOUS
 10
97.3495967742
 20
178.3180162453
 11
97.3495967742
 21
378.3180162453
  0
INSERT
  5
226
100
AcDbEntity
  8
0
100
AcDbBlockReference
 62
2
  6
CONTINUOUS
  2
_FILLED
 10
97.3495967742
 20
578.3180162453
 41
3.0
 42
3.0
 43
3.0
 50
90.0
  0
INSERT
  5
227
100
AcDbEntity
  8
0
100
AcDbBlockReference
 62
2
  6
CONTINUOUS
  2
_FILLED
 10
97.3495967742
 20
178.3180162453
 41
3.0
 42
3.0
 43
3.0
 50
270.0
  0
ENDBLK
  5
228
100
AcDbEntity
  8
0
  6
BYBLOCK
 62
0
100
AcDbBlockEnd
  0
BLOCK
  5
229
100
AcDbEntity
  8
0
100
AcDbBlockBegin
 62
2
  6
CONTINUOUS
  2
*D3
 70
65
 10
0.0
 20
0.0
  3
*D3
  1

  0
LINE
  5
22A
100
AcDbEntity
  8
0
100
AcDbLine
 62
2
  6
CONTINUOUS
 10
126.8867153575
 20
598.3179980838
 11
68.1327853598
 21
598.3179980838
  0
LINE
  5
22B
100
AcDbEntity
  8
0
100
AcDbLine
 62
2
  6
CONTINUOUS
 10
126.886733519
 20
158.3180162453
 11
68.1327853598
 21
158.3180162453
  0
LINE
  5
22C
100
AcDbEntity
  8
0
100
AcDbLine
 62
2
  6
CONTINUOUS
 10
68.6327853598
 20
598.3179980838
 11
68.6327853598
 21
378.3180071646
  0
LINE
  5
22D
100
AcDbEntity
  8
0
100
AcDbLine
 62
2
  6
CONTINUOUS
 10
68.6327853598
 20
158.3180162453
 11
68.6327853598
 21
378.3180071646
  0
INSERT
  5
22E
100
AcDbEntity
  8
0
100
AcDbBlockReference
 62
2
  6
CONTINUOUS
  2
_FILLED
 10
68.6327853598
 20
598.3179980838
 41
3.0
 42
3.0
 43
3.0
 50
90.0
  0
INSERT
  5
22F
100
AcDbEntity
  8
0
100
AcDbBlockReference
 62
2
  6
CONTINUOUS
  2
_FILLED
 10
68.6327853598
 20
158.3180162453
 41
3.0
 42
3.0
 43
3.0
 50
270.0
  0
ENDBLK
  5
230
100
AcDbEntity
  8
0
  6
BYBLOCK
 62
0
100
AcDbBlockEnd
  0
BLOCK
  5
231
100
AcDbEntity
  8
0
100
AcDbBlockBegin
 62
2
  6
CONTINUOUS
  2
*D4
 70
65
 10
0.0
 20
0.0
  3
*D4
  1

  0
LINE
  5
232
100
AcDbEntity
  8
0
100
AcDbLine
 62
2
  6
CONTINUOUS
 10
944.6718545822
 20
156.7544306374
 11
944.6718545822
 21
138.7456817346
  0
LINE
  5
233
100
AcDbEntity
  8
0
100
AcDbLine
 62
2
  6
CONTINUOUS
 10
743.8718545822
 20
191.7544306374
 11
743.8718545822
 21
138.7456817346
  0
LINE
  5
234
100
AcDbEntity
  8
0
100
AcDbLine
 62
2
  6
CONTINUOUS
 10
944.6718545822
 20
139.2456817346
 11
844.2718545822
 21
139.2456817346
  0
LINE
  5
235
100
AcDbEntity
  8
0
100
AcDbLine
 62
2
  6
CONTINUOUS
 10
743.8718545822
 20
139.2456817346
 11
844.2718545822
 21
139.2456817346
  0
INSERT
  5
236
100
AcDbEntity
  8
0
100
AcDbBlockReference
 62
2
  6
CONTINUOUS
  2
_FILLED
 10
944.6718545822
 20
139.2456817346
 41
3.0
 42
3.0
 43
3.0
  0
INSERT
  5
237
100
AcDbEntity
  8
0
100
AcDbBlockReference
 62
2
  6
CONTINUOUS
  2
_FILLED
 10
743.8718545822
 20
139.2456817346
 41
3.0
 42
3.0
 43
3.0
 50
180.0
  0
ENDBLK
  5
238
100
AcDbEntity
  8
0
  6
BYBLOCK
 62
0
100
AcDbBlockEnd
  0
BLOCK
  5
239
100
AcDbEntity
  8
0
100
AcDbBlockBegin
 62
2
  6
CONTINUOUS
  2
*D5
 70
65
 10
0.0
 20
0.0
  3
*D5
  1

  0
LINE
  5
23A
100
AcDbEntity
  8
0
100
AcDbLine
 62
2
  6
CONTINUOUS
 10
605.8867153575
 20
598.3179980838
 11
641.7967167246
 21
598.3179980838
  0
LINE
  5
23B
100
AcDbEntity
  8
0
100
AcDbLine
 62
2
  6
CONTINUOUS
 10
370.0363153575
 20
458.3180162453
 11
641.7967167246
 21
458.3180162453
  0
LINE
  5
23C
100
AcDbEntity
  8
0
100
AcDbLine
 62
2
  6
CONTINUOUS
 10
641.2967167246
 20
598.3179980838
 11
641.2967167246
 21
528.3180071646
  0
LINE
  5
23D
100
AcDbEntity
  8
0
100
AcDbLine
 62
2
  6
CONTINUOUS
 10
641.2967167246
 20
458.3180162453
 11
641.2967167246
 21
528.3180071646
  0
INSERT
  5
23E
100
AcDbEntity
  8
0
100
AcDbBlockReference
 62
2
  6
CONTINUOUS
  2
_FILLED
 10
641.2967167246
 20
598.3179980838
 41
3.0
 42
3.0
 43
3.0
 50
90.0
  0
INSERT
  5
23F
100
AcDbEntity
  8
0
100
AcDbBlockReference
 62
2
  6
CONTINUOUS
  2
_FILLED
 10
641.2967167246
 20
458.3180162453
 41
3.0
 42
3.0
 43
3.0
 50
270.0
  0
ENDBLK
  5
240
100
AcDbEntity
  8
0
  6
BYBLOCK
 62
0
100
AcDbBlockEnd
  0
BLOCK
  5
241
100
AcDbEntity
  8
0
100
AcDbBlockBegin
 62
2
  6
CONTINUOUS
  2
*D6
 70
65
 10
0.0
 20
0.0
  3
*D6
  1

  0
LINE
  5
242
100
AcDbEntity
  8
0
100
AcDbLine
 62
2
  6
CONTINUOUS
 10
611.3866971747
 20
163.8180162453
 11
611.3866957634
 21
130.5573780629
  0
LINE
  5
243
100
AcDbEntity
  8
0
100
AcDbLine
 62
2
  6
CONTINUOUS
 10
366.3867151854
 20
454.2620162453
 11
366.3867014495
 21
130.5573884591
  0
LINE
  5
244
100
AcDbEntity
  8
0
100
AcDbLine
 62
2
  6
CONTINUOUS
 10
611.3866957846
 20
131.0573780629
 11
488.8866986276
 21
131.057383261
  0
LINE
  5
245
100
AcDbEntity
  8
0
100
AcDbLine
 62
2
  6
CONTINUOUS
 10
366.3867014707
 20
131.0573884591
 11
488.8866986276
 21
131.057383261
  0
INSERT
  5
246
100
AcDbEntity
  8
0
100
AcDbBlockReference
 62
2
  6
CONTINUOUS
  2
_FILLED
 10
611.3866957846
 20
131.0573780629
 41
3.0
 42
3.0
 43
3.0
 50
359.9999975687
  0
INSERT
  5
247
100
AcDbEntity
  8
0
100
AcDbBlockReference
 62
2
  6
CONTINUOUS
  2
_FILLED
 10
366.3867014707
 20
131.0573884591
 41
3.0
 42
3.0
 43
3.0
 50
179.9999975687
  0
ENDBLK
  5
248
100
AcDbEntity
  8
0
  6
BYBLOCK
 62
0
100
AcDbBlockEnd
  0
BLOCK
  5
249
100
AcDbEntity
  8
0
100
AcDbBlockBegin
 62
2
  6
CONTINUOUS
  2
*D7
 70
65
 10
0.0
 20
0.0
  3
*D7
  1

  0
LINE
  5
24A
100
AcDbEntity
  8
0
100
AcDbLine
 62
2
  6
CONTINUOUS
 10
589.4170951615
 20
572.9052372821
 11
542.7694500003
 21
542.2704701524
  0
INSERT
  5
24B
100
AcDbEntity
  8
0
100
AcDbBlockReference
 62
2
  6
CONTINUOUS
  2
_FILLED
 10
589.4170951615
 20
572.9052372821
 41
3.0
 42
3.0
 43
3.0
 50
33.2939860814
  0
ENDBLK
  5
24C
100
AcDbEntity
  8
0
  6
BYBLOCK
 62
0
100
AcDbBlockEnd
  0
ENDSEC
  0
SECTION
  2
ENTITIES
  0
DIMENSION
  5
24D
100
AcDbEntity
  8
0
100
AcDbDimension
 62
2
  6
CONTINUOUS
  2
*D0
 10
611.3867127698
 20
653.2991965574
 11
358.6724271465
 21
653.2991858339
 70
160
 71
2
 42
490.0
  3
DIMSTYLE_1
100
AcDbAlignedDimension
 13
121.3867153575
 23
592.3179980838
 14
611.3867153575
 24
592.3179980838
 50
0.0000024313
100
AcDbRotatedDimension
  0
DIMENSION
  5
24E
100
AcDbEntity
  8
0
100
AcDbDimension
 62
2
  6
CONTINUOUS
  2
*D1
 10
591.3867153575
 20
622.4339330025
 11
358.6724296432
 21
622.4339330025
 70
160
 71
2
 42
450.0
  3
DIMSTYLE_1
100
AcDbAlignedDimension
 13
141.3867153575
 23
566.3180162453
 14
591.3867153575
 24
566.3180162453
100
AcDbRotatedDimension
  0
DIMENSION
  5
24F
100
AcDbEntity
  8
0
100
AcDbDimension
 62
2
  6
CONTINUOUS
  2
*D2
 10
97.3495967742
 20
178.3180162453
 11
97.3495967742
 21
370.6037305311
 70
160
 71
2
 42
400.0
  3
DIMSTYLE_2
100
AcDbAlignedDimension
 13
153.3867153575
 23
578.3180162453
 14
153.3867153575
 24
178.3180162453
 50
270.0
100
AcDbRotatedDimension
  0
DIMENSION
  5
250
100
AcDbEntity
  8
0
100
AcDbDimension
 62
2
  6
CONTINUOUS
  2
*D3
 10
68.6327853598
 20
158.3180162453
 11
68.6327853598
 21
370.6037214503
 70
160
 71
2
 42
439.9999818385
  3
DIMSTYLE_1
100
AcDbAlignedDimension
 13
127.3867153575
 23
598.3179980838
 14
127.386733519
 24
158.3180162453
 50
270.0
100
AcDbRotatedDimension
  0
DIMENSION
  5
251
100
AcDbEntity
  8
0
100
AcDbDimension
 62
2
  6
CONTINUOUS
  2
*D4
 10
743.8718545822
 20
139.2456817346
 11
836.5575688679
 21
139.2456817346
 70
160
 71
2
 42
200.8
  3
DIMSTYLE_2
100
AcDbAlignedDimension
 13
944.6718545822
 23
157.2544306374
 14
743.8718545822
 24
192.2544306374
 50
180.0
100
AcDbRotatedDimension
  0
DIMENSION
  5
252
100
AcDbEntity
  8
0
100
AcDbDimension
 62
2
  6
CONTINUOUS
  2
*D5
 10
641.2967167246
 20
458.3180162453
 11
641.2967167246
 21
520.6037214503
 70
160
 71
2
 42
139.9999818385
  3
DIMSTYLE_2
100
AcDbAlignedDimension
 13
605.3867153575
 23
598.3179980838
 14
369.5363153575
 24
458.3180162453
 50
270.0
100
AcDbRotatedDimension
  0
DIMENSION
  5
253
100
AcDbEntity
  8
0
100
AcDbDimension
 62
2
  6
CONTINUOUS
  2
*D6
 10
366.3867014707
 20
131.0573884591
 11
481.1724128224
 21
131.0573835883
 70
160
 71
2
 42
244.9999943139
  3
DIMSTYLE_2
100
AcDbAlignedDimension
 13
611.386697196
 23
164.3180162453
 14
366.3867152066
 24
454.7620162453
 50
179.9999975687
100
AcDbRotatedDimension
  0
DIMENSION
  5
254
100
AcDbEntity
  8
0
100
AcDbDimension
 62
2
  6
CONTINUOUS
  2
*D7
 10
579.3867153575
 20
566.3180162453
 11
541.5931605294
 21
544.0616094031
 70
164
 71
3
 42
12.0
  1
<>
  3
DIMSTYLE_3
100
AcDbRadialDimension
 15
589.4170951615
 25
572.9052372821
  0
LINE
  5
255
100
AcDbEntity
  8
0
100
AcDbLine
 62
7
  6
CONTINUOUS
 10
121.3867153575
 20
592.3179980838
 11
121.386733519
 21
164.3180162453
  0
LINE
  5
256
100
AcDbEntity
  8
0
100
AcDbLine
 62
7
  6
CONTINUOUS
 10
141.3867153575
 20
190.3180162453
 11
141.3867153575
 21
566.3180162453
  0
LWPOLYLINE
  5
257
100
AcDbEntity
  8
0
100
AcDbPolyline
 62
2
  6
CONTINUOUS
 90
22
 70
0
 43
0.2500000019
 10
494.8866918945
 20
141.7716719971
 10
491.7438449707
 20
141.7716719971
 10
491.7438449707
 20
138.4383405762
 10
492.172407959
 20
138.6764345703
 10
492.8866899414
 20
138.9145285645
 10
493.4581279297
 20
138.9145285645
 10
494.029565918
 20
138.6764345703
 10
494.3152849121
 20
138.4383405762
 10
494.6009729004
 20
137.9621525879
 10
494.7438479004
 20
137.4859490967
 10
494.8866918945
 20
136.5335731201
 10
494.8866918945
 20
135.5811971436
 10
494.7438479004
 20
134.6288056641
 10
494.6009729004
 20
134.1526176758
 10
494.3152849121
 20
133.6764296875
 10
494.029565918
 20
133.4383356934
 10
493.4581279297
 20
133.2002416992
 10
492.8866899414
 20
133.2002416992
 10
492.315282959
 20
133.4383356934
 10
492.0295639648
 20
133.6764296875
 10
491.7438449707
 20
134.1526176758
 10
491.4581259766
 20
134.8668996582
  0
LINE
  5
258
100
AcDbEntity
  8
0
100
AcDbLine
 62
7
  6
CONTINUOUS
 10
944.6718545822
 20
157.2544306374
 11
943.6718545822
 21
157.2544306374
  0
LINE
  5
259
100
AcDbEntity
  8
0
100
AcDbLine
 62
7
  6
CONTINUOUS
 10
127.386733519
 20
158.3180162453
 11
605.386697196
 21
158.3180162453
  0
LWPOLYLINE
  5
25A
100
AcDbEntity
  8
0
100
AcDbPolyline
 62
2
  6
CONTINUOUS
 90
25
 70
0
 43
0.2500000019
 10
368.9581303711
 20
661.8706079102
 10
369.1010053711
 20
662.8229838867
 10
369.2438493652
 20
663.299171875
 10
369.5295683594
 20
663.7753598633
 10
369.8152873535
 20
664.0134848633
 10
370.3867253418
 20
664.2515478516
 10
370.9581323242
 20
664.2515478516
 10
371.5295703125
 20
664.0134848633
 10
371.8152893066
 20
663.7753598633
 10
372.1010083008
 20
663.299171875
 10
372.2438522949
 20
662.8229838867
 10
372.3867272949
 20
661.8706079102
 10
372.3867272949
 20
657.8229790039
 10
372.2438522949
 20
656.8706030273
 10
372.1010083008
 20
656.3944150391
 10
371.8152893066
 20
655.9182270508
 10
371.5295703125
 20
655.6801640625
 10
370.9581323242
 20
655.4420390625
 10
370.3867253418
 20
655.4420390625
 10
369.8152873535
 20
655.6801640625
 10
369.5295683594
 20
655.9182270508
 10
369.2438493652
 20
656.3944150391
 10
369.1010053711
 20
656.8706030273
 10
368.9581303711
 20
657.8229790039
 10
368.9581303711
 20
661.8706079102
  0
LWPOLYLINE
  5
25B
100
AcDbEntity
  8
0
100
AcDbPolyline
 62
2
  6
CONTINUOUS
 90
25
 70
0
 43
0.2500000019
 10
368.9581303711
 20
631.0053911133
 10
369.1010053711
 20
631.9577670898
 10
369.2438493652
 20
632.4339550781
 10
369.5295683594
 20
632.9101430664
 10
369.8152873535
 20
633.1482060547
 10
370.3867253418
 20
633.3863310547
 10
370.9581323242
 20
633.3863310547
 10
371.5295703125
 20
633.1482060547
 10
371.8152893066
 20
632.9101430664
 10
372.1010083008
 20
632.4339550781
 10
372.2438522949
 20
631.9577670898
 10
372.3867272949
 20
631.0053911133
 10
372.3867272949
 20
626.957762207
 10
372.2438522949
 20
626.0053862305
 10
372.1010083008
 20
625.5291982422
 10
371.8152893066
 20
625.0530102539
 10
371.5295703125
 20
624.8148852539
 10
370.9581323242
 20
624.5767602539
 10
370.3867253418
 20
624.5767602539
 10
369.8152873535
 20
624.8148852539
 10
369.5295683594
 20
625.0530102539
 10
369.2438493652
 20
625.5291982422
 10
369.1010053711
 20
626.0053862305
 10
368.9581303711
 20
626.957762207
 10
368.9581303711
 20
631.0053911133
  0
LINE
  5
25C
100
AcDbEntity
  8
0
100
AcDbLine
 62
7
  6
CONTINUOUS
 10
759.6718545822
 20
176.4544306374
 11
942.8718545822
 21
176.4544306374
  0
LINE
  5
25D
100
AcDbEntity
  8
0
100
AcDbLine
 62
7
  6
CONTINUOUS
 10
579.3867153575
 20
178.3180162453
 11
153.3867153575
 21
178.3180162453
  0
LINE
  5
25E
100
AcDbEntity
  8
0
100
AcDbLine
 62
7
  6
CONTINUOUS
 10
943.6718545822
 20
197.0914124759
 11
944.6718545822
 21
197.0914124759
  0
LWPOLYLINE
  5
25F
100
AcDbEntity
  8
0
100
AcDbPolyline
 62
2
  6
CONTINUOUS
 90
4
 70
0
 43
0.2500000019
 10
361.5295605469
 20
624.5767602539
 10
361.5295605469
 20
633.3863310547
 10
358.6724326172
 20
626.719637207
 10
362.1009985352
 20
626.719637207
  0
LWPOLYLINE
  5
260
100
AcDbEntity
  8
0
100
AcDbPolyline
 62
2
  6
CONTINUOUS
 90
4
 70
0
 43
0.2500000019
 10
361.5295605469
 20
655.4420390625
 10
361.5295605469
 20
664.2515478516
 10
358.6724326172
 20
657.5849160156
 10
362.1009985352
 20
657.5849160156
  0
LWPOLYLINE
  5
261
100
AcDbEntity
  8
0
100
AcDbPolyline
 62
2
  6
CONTINUOUS
 90
25
 70
0
 43
0.2500000019
 10
367.2438474121
 20
657.8229790039
 10
367.2438474121
 20
662.1087329102
 10
367.101003418
 20
662.8229838867
 10
366.958128418
 20
663.299171875
 10
366.6724404297
 20
663.7753598633
 10
366.3867214355
 20
664.0134848633
 10
365.8152834473
 20
664.2515478516
 10
365.243845459
 20
664.2515478516
 10
364.6724384766
 20
664.0134848633
 10
364.3867194824
 20
663.7753598633
 10
364.1010004883
 20
663.299171875
 10
363.9581564941
 20
662.8229838867
 10
363.8152814941
 20
662.1087329102
 10
363.8152814941
 20
661.1563569336
 10
363.9581564941
 20
660.4420439453
 10
364.1010004883
 20
659.965855957
 10
364.3867194824
 20
659.4896679688
 10
364.6724384766
 20
659.2515429687
 10
365.243845459
 20
659.0134799805
 10
365.8152834473
 20
659.0134799805
 10
366.3867214355
 20
659.2515429687
 10
366.6724404297
 20
659.4896679688
 10
366.958128418
 20
659.965855957
 10
367.101003418
 20
660.4420439453
 10
367.2438474121
 20
661.1563569336
  0
LWPOLYLINE
  5
262
100
AcDbEntity
  8
0
100
AcDbPolyline
 62
2
  6
CONTINUOUS
 90
25
 70
0
 43
0.2500000019
 10
88.7781702271
 20
375.7465842285
 10
87.825786499
 20
375.8894592285
 10
87.3495985107
 20
376.0323032227
 10
86.873402771
 20
376.3180222168
 10
86.6353087769
 20
376.6037412109
 10
86.3972147827
 20
377.1751481934
 10
86.3972147827
 20
377.7465861816
 10
86.6353087769
 20
378.3180241699
 10
86.873402771
 20
378.6037431641
 10
87.3495985107
 20
378.8894311523
 10
87.825786499
 20
379.0323061523
 10
88.7781702271
 20
379.1751501465
 10
92.8257836304
 20
379.1751501465
 10
93.7781673584
 20
379.0323061523
 10
94.2543553467
 20
378.8894311523
 10
94.7305510864
 20
378.6037431641
 10
94.9686450806
 20
378.3180241699
 10
95.2067390747
 20
377.7465861816
 10
95.2067390747
 20
377.1751481934
 10
94.9686450806
 20
376.6037412109
 10
94.7305510864
 20
376.3180222168
 10
94.2543553467
 20
376.0323032227
 10
93.7781673584
 20
375.8894592285
 10
92.8257836304
 20
375.7465842285
 10
88.7781702271
 20
375.7465842285
  0
LWPOLYLINE
  5
263
100
AcDbEntity
  8
0
100
AcDbPolyline
 62
2
  6
CONTINUOUS
 90
25
 70
0
 43
0.2500000019
 10
60.0613571777
 20
380.8894331055
 10
59.1089773254
 20
381.0323081055
 10
58.6327854614
 20
381.1751520996
 10
58.1565935974
 20
381.4608710938
 10
57.9184996033
 20
381.7465900879
 10
57.6804056091
 20
382.3179970703
 10
57.6804056091
 20
382.8894350586
 10
57.9184996033
 20
383.4608730469
 10
58.1565935974
 20
383.746592041
 10
58.6327854614
 20
384.0322800293
 10
59.1089773254
 20
384.1751550293
 10
60.0613571777
 20
384.3179990234
 10
64.1089744568
 20
384.3179990234
 10
65.0613543091
 20
384.1751550293
 10
65.5375500488
 20
384.0322800293
 10
66.0137380371
 20
383.746592041
 10
66.2518320313
 20
383.4608730469
 10
66.4899260254
 20
382.8894350586
 10
66.4899260254
 20
382.3179970703
 10
66.2518320313
 20
381.7465900879
 10
66.0137380371
 20
381.4608710938
 10
65.5375500488
 20
381.1751520996
 10
65.0613543091
 20
381.0323081055
 10
64.1089744568
 20
380.8894331055
 10
60.0613571777
 20
380.8894331055
  0
LWPOLYLINE
  5
264
100
AcDbEntity
  8
0
100
AcDbPolyline
 62
2
  6
CONTINUOUS
 90
25
 70
0
 43
0.2500000019
 10
88.7781702271
 20
380.8894331055
 10
87.825786499
 20
381.0323081055
 10
87.3495985107
 20
381.1751520996
 10
86.873402771
 20
381.4608710938
 10
86.6353087769
 20
381.7465900879
 10
86.3972147827
 20
382.3180280762
 10
86.3972147827
 20
382.8894350586
 10
86.6353087769
 20
383.4608730469
 10
86.873402771
 20
383.746592041
 10
87.3495985107
 20
384.0323110352
 10
87.825786499
 20
384.1751550293
 10
88.7781702271
 20
384.3180300293
 10
92.8257836304
 20
384.3180300293
 10
93.7781673584
 20
384.1751550293
 10
94.2543553467
 20
384.0323110352
 10
94.7305510864
 20
383.746592041
 10
94.9686450806
 20
383.4608730469
 10
95.2067390747
 20
382.8894350586
 10
95.2067390747
 20
382.3180280762
 10
94.9686450806
 20
381.7465900879
 10
94.7305510864
 20
381.4608710938
 10
94.2543553467
 20
381.1751520996
 10
93.7781673584
 20
381.0323081055
 10
92.8257836304
 20
380.8894331055
 10
88.7781702271
 20
380.8894331055
  0
LWPOLYLINE
  5
265
100
AcDbEntity
  8
0
100
AcDbPolyline
 62
2
  6
CONTINUOUS
 90
11
 70
0
 43
0.2500000019
 10
363.8152814941
 20
657.1087280273
 10
364.1010004883
 20
656.3944150391
 10
364.3867194824
 20
655.9182270508
 10
364.6724384766
 20
655.6801640625
 10
365.243845459
 20
655.4420390625
 10
365.8152834473
 20
655.4420390625
 10
366.3867214355
 20
655.6801640625
 10
366.6724404297
 20
655.9182270508
 10
366.958128418
 20
656.3944150391
 10
367.101003418
 20
656.8706030273
 10
367.2438474121
 20
657.8229790039
  0
LWPOLYLINE
  5
266
100
AcDbEntity
  8
0
100
AcDbPolyline
 62
2
  6
CONTINUOUS
 90
4
 70
0
 43
0.2500000019
 10
489.1724050293
 20
133.2002416992
 10
489.1724050293
 20
142.0097659912
 10
486.3152770996
 20
135.3431031494
 10
489.7438430176
 20
135.3431031494
  0
LWPOLYLINE
  5
267
100
AcDbEntity
  8
0
100
AcDbPolyline
 62
2
  6
CONTINUOUS
 90
4
 70
0
 43
0.2500000019
 10
95.2067390747
 20
373.4608632812
 10
86.3972147827
 20
373.4608632812
 10
93.063885376
 20
370.6037353516
 10
93.063885376
 20
374.0323012695
  0
LWPOLYLINE
  5
268
100
AcDbEntity
  8
0
100
AcDbPolyline
 62
2
  6
CONTINUOUS
 90
4
 70
0
 43
0.2500000019
 10
66.4899260254
 20
373.4608632812
 10
57.6804056091
 20
373.4608632812
 10
64.3470723267
 20
370.6037353516
 10
64.3470723267
 20
374.0323012695
  0
LWPOLYLINE
  5
269
100
AcDbEntity
  8
0
100
AcDbPolyline
 62
2
  6
CONTINUOUS
 90
4
 70
0
 43
0.2500000019
 10
66.4899260254
 20
378.6037121582
 10
57.6804056091
 20
378.6037121582
 10
64.3470723267
 20
375.7465842285
 10
64.3470723267
 20
379.1751501465
  0
LWPOLYLINE
  5
26A
100
AcDbEntity
  8
0
100
AcDbPolyline
 62
2
  6
CONTINUOUS
 90
17
 70
0
 43
0.2500000019
 10
481.1724282227
 20
140.1049985352
 10
481.4581162109
 20
141.0573900146
 10
481.7438352051
 20
141.5335780029
 10
482.0295541992
 20
141.7716719971
 10
482.6009921875
 20
142.0097659912
 10
483.1723991699
 20
142.0097659912
 10
483.7438371582
 20
141.7716719971
 10
484.0295561523
 20
141.5335780029
 10
484.3152751465
 20
141.0573900146
 10
484.4581191406
 20
140.5811865234
 10
484.6009941406
 20
139.866904541
 10
484.6009941406
 20
139.6288105469
 10
484.4581191406
 20
138.9145285645
 10
481.4581162109
 20
134.3907116699
 10
481.3152722168
 20
133.9145236816
 10
481.1724282227
 20
133.2002416992
 10
484.6009941406
 20
133.2002416992
  0
LWPOLYLINE
  5
26B
100
AcDbEntity
  8
0
100
AcDbPolyline
 62
2
  6
CONTINUOUS
 90
3
 70
0
 43
0.2500000019
 10
542.9148920898
 20
553.7599355469
 10
542.6196542969
 20
554.9903100586
 10
547.324793457
 20
547.8257241211
  0
LINE
  5
26C
100
AcDbEntity
  8
0
100
AcDbLine
 62
7
  6
CONTINUOUS
 10
591.3867153575
 20
566.3180162453
 11
591.3867153575
 21
190.3180162453
  0
LINE
  5
26D
100
AcDbEntity
  8
0
100
AcDbLine
 62
7
  6
CONTINUOUS
 10
611.386697196
 20
164.3180162453
 11
611.3867153575
 21
592.3179980838
  0
LWPOLYLINE
  5
26E
100
AcDbEntity
  8
0
100
AcDbPolyline
 62
2
  6
CONTINUOUS
 90
17
 70
0
 43
0.2500000019
 10
546.4003847656
 20
555.4792724609
 10
546.1163710937
 20
556.4321445313
 10
546.0937988281
 20
556.9870253906
 10
546.2019472656
 20
557.3428486328
 10
546.5488408203
 20
557.8555615234
 10
547.0265170898
 20
558.1692167969
 10
547.6348520508
 20
558.2838764648
 10
548.0043798828
 20
558.2417084961
 10
548.5045664062
 20
558.0005449219
 10
548.8853803711
 20
557.6809365234
 10
549.3969150391
 20
557.1622705078
 10
549.5275737305
 20
556.9632749023
 10
549.8003012695
 20
556.2878432617
 10
549.7759306641
 20
550.8597094727
 10
549.9179375
 20
550.3832734375
 10
550.1906030273
 20
549.7077797852
 10
553.0564746094
 20
551.5898354492
  0
LINE
  5
26F
100
AcDbEntity
  8
0
100
AcDbLine
 62
7
  6
CONTINUOUS
 10
738.8787086085
 20
519.0119206965
 11
738.8487897236
 21
518.9535671949
  0
LINE
  5
270
100
AcDbEntity
  8
0
100
AcDbLine
 62
7
  6
CONTINUOUS
 10
738.8487897236
 20
518.9535671949
 11
738.8162052645
 21
518.8956687421
  0
LINE
  5
271
100
AcDbEntity
  8
0
100
AcDbLine
 62
7
  6
CONTINUOUS
 10
738.8162052645
 20
518.8956687421
 11
738.7928874066
 21
518.8572386615
  0
LINE
  5
272
100
AcDbEntity
  8
0
100
AcDbLine
 62
7
  6
CONTINUOUS
 10
736.5726902655
 20
515.3052047119
 11
738.7885579761
 21
518.8505930487
  0
LWPOLYLINE
  5
273
100
AcDbEntity
  8
0
100
AcDbPolyline
 62
2
  6
CONTINUOUS
 90
13
 70
0
 43
0.2500000019
 10
541.5931743164
 20
544.061612793
 10
536.8879731445
 20
551.2261367188
 10
538.7985541992
 20
552.4808818359
 10
539.4068891602
 20
552.5955415039
 10
539.7764169922
 20
552.5533735352
 10
540.0265102539
 20
552.4327607422
 10
540.5380449219
 20
551.9141567383
 10
541.0608037109
 20
551.118050293
 10
541.33353125
 20
550.4426186523
 10
541.3448173828
 20
550.1651782227
 10
541.2366689453
 20
549.8092929688
 10
540.8897133789
 20
549.2966420898
 10
538.9791943359
 20
548.0418969727
  0
LINE
  5
274
100
AcDbEntity
  8
0
100
AcDbLine
 62
7
  6
CONTINUOUS
 10
738.972429159
 20
519.2464975082
 11
738.9527939422
 21
519.1880064322
  0
LINE
  5
275
100
AcDbEntity
  8
0
100
AcDbLine
 62
7
  6
CONTINUOUS
 10
738.9527939422
 20
519.1880064322
 11
738.9306674105
 21
519.1293077807
  0
LINE
  5
276
100
AcDbEntity
  8
0
100
AcDbLine
 62
7
  6
CONTINUOUS
 10
738.9306674105
 20
519.1293077807
 11
738.9059884728
 21
519.0705571257
  0
LINE
  5
277
100
AcDbEntity
  8
0
100
AcDbLine
 62
7
  6
CONTINUOUS
 10
738.9059884728
 20
519.0705571257
 11
738.8787086085
 21
519.0119206965
  0
LWPOLYLINE
  5
278
100
AcDbEntity
  8
0
100
AcDbPolyline
 62
2
  6
CONTINUOUS
 90
4
 70
0
 43
0.2500000019
 10
639.1538549805
 20
528.6037036133
 10
630.3443461914
 20
528.6037036133
 10
637.0109780273
 20
525.7465756836
 10
637.0109780273
 20
529.1751416016
  0
LINE
  5
279
100
AcDbEntity
  8
0
100
AcDbLine
 62
7
  6
CONTINUOUS
 10
943.6718545822
 20
557.4174306374
 11
944.6718545822
 21
557.4174306374
  0
LWPOLYLINE
  5
27A
100
AcDbEntity
  8
0
100
AcDbPolyline
 62
2
  6
CONTINUOUS
 90
25
 70
0
 43
0.2500000019
 10
632.7252861328
 20
530.8894555664
 10
631.7729101562
 20
531.0322685547
 10
631.296722168
 20
531.1751435547
 10
630.8205341797
 20
531.4608935547
 10
630.5824091797
 20
531.746581543
 10
630.3443461914
 20
532.3180195313
 10
630.3443461914
 20
532.8894575195
 10
630.5824091797
 20
533.4608334961
 10
630.8205341797
 20
533.7465834961
 10
631.296722168
 20
534.0322714844
 10
631.7729101562
 20
534.1751464844
 10
632.7252861328
 20
534.3180214844
 10
636.7729150391
 20
534.3180214844
 10
637.7252910156
 20
534.1751464844
 10
638.2014790039
 20
534.0322714844
 10
638.6776669922
 20
533.7465834961
 10
638.9157919922
 20
533.4608334961
 10
639.1538549805
 20
532.8894575195
 10
639.1538549805
 20
532.3180195313
 10
638.9157919922
 20
531.746581543
 10
638.6776669922
 20
531.4608935547
 10
638.2014790039
 20
531.1751435547
 10
637.7252910156
 20
531.0322685547
 10
636.7729150391
 20
530.8894555664
 10
632.7252861328
 20
530.8894555664
  0
LWPOLYLINE
  5
27B
100
AcDbEntity
  8
0
100
AcDbPolyline
 62
2
  6
CONTINUOUS
 90
3
 70
0
 43
0.2500000019
 10
631.7729101562
 20
521.8894467773
 10
630.5824091797
 20
522.3180097656
 10
639.1538549805
 20
522.3180097656
  0
LWPOLYLINE
  5
27C
100
AcDbEntity
  8
0
100
AcDbPolyline
 62
2
  6
CONTINUOUS
 90
2
 70
0
 43
0.2500000019
 10
540.65090625
 20
549.1398144531
 10
544.4589838867
 20
545.943668457
  0
LINE
  5
27D
100
AcDbEntity
  8
0
100
AcDbLine
 62
7
  6
CONTINUOUS
 10
743.3775309941
 20
544.4962107822
 11
742.6732570358
 21
537.9454564627
  0
LINE
  5
27E
100
AcDbEntity
  8
0
100
AcDbLine
 62
7
  6
CONTINUOUS
 10
742.6732570358
 20
537.9454564627
 11
741.6534826005
 21
531.3463326374
  0
LINE
  5
27F
100
AcDbEntity
  8
0
100
AcDbLine
 62
7
  6
CONTINUOUS
 10
741.6534826005
 20
531.3463326374
 11
740.3164014117
 21
524.7209680273
  0
LINE
  5
280
100
AcDbEntity
  8
0
100
AcDbLine
 62
7
  6
CONTINUOUS
 10
740.3164014117
 20
524.7209680273
 11
738.9953154008
 21
519.3240135833
  0
LINE
  5
281
100
AcDbEntity
  8
0
100
AcDbLine
 62
7
  6
CONTINUOUS
 10
733.0497490158
 20
502.4614858735
 11
736.3604207254
 21
514.817080901
  0
LINE
  5
282
100
AcDbEntity
  8
0
100
AcDbLine
 62
7
  6
CONTINUOUS
 10
738.9949134004
 20
519.3241184018
 11
738.9896410101
 21
519.3046224604
  0
LINE
  5
283
100
AcDbEntity
  8
0
100
AcDbLine
 62
7
  6
CONTINUOUS
 10
738.9896410101
 20
519.3046224604
 11
738.972429159
 21
519.2464975082
  0
LINE
  5
284
100
AcDbEntity
  8
0
100
AcDbLine
 62
7
  6
CONTINUOUS
 10
759.6718580777
 20
578.0544306374
 11
942.8718545822
 21
578.0544306374
  0
LINE
  5
285
100
AcDbEntity
  8
0
100
AcDbLine
 62
7
  6
CONTINUOUS
 10
153.3867153575
 20
578.3180162453
 11
579.3867153575
 21
578.3180162453
  0
LINE
  5
286
100
AcDbEntity
  8
0
100
AcDbLine
 62
7
  6
CONTINUOUS
 10
944.6718545822
 20
597.2544124759
 11
943.6718545822
 21
597.2544124759
  0
LINE
  5
287
100
AcDbEntity
  8
0
100
AcDbLine
 62
7
  6
CONTINUOUS
 10
127.3867153575
 20
598.3179980838
 11
605.3867153575
 21
598.3179980838
  0
LINE
  5
288
100
AcDbEntity
  8
0
100
AcDbLine
 62
7
  6
CONTINUOUS
 10
736.5726902655
 20
399.203656563
 11
738.649387993
 21
395.8809401991
  0
LINE
  5
289
100
AcDbEntity
  8
0
100
AcDbLine
 62
7
  6
CONTINUOUS
 10
738.6494117434
 20
395.8809022097
 11
738.6951375594
 21
395.8032329217
  0
LINE
  5
28A
100
AcDbEntity
  8
0
100
AcDbLine
 62
7
  6
CONTINUOUS
 10
738.6951375594
 20
395.8032329217
 11
738.8117749112
 21
395.5432080183
  0
LINE
  5
28B
100
AcDbEntity
  8
0
100
AcDbLine
 62
7
  6
CONTINUOUS
 10
738.9056539552
 20
395.0655882824
 11
740.3890714424
 21
363.0709719595
  0
LINE
  5
28C
100
AcDbEntity
  8
0
100
AcDbLine
 62
7
  6
CONTINUOUS
 10
740.3890714424
 20
363.0709719595
 11
741.6508457069
 21
329.871654591
  0
LINE
  5
28D
100
AcDbEntity
  8
0
100
AcDbLine
 62
7
  6
CONTINUOUS
 10
741.6508457069
 20
329.871654591
 11
742.6299945223
 21
296.6722902354
  0
LINE
  5
28E
100
AcDbEntity
  8
0
100
AcDbLine
 62
7
  6
CONTINUOUS
 10
742.6299945223
 20
296.6722902354
 11
743.3264563228
 21
263.4764847519
  0
LINE
  5
28F
100
AcDbEntity
  8
0
100
AcDbLine
 62
7
  6
CONTINUOUS
 10
743.3264563228
 20
263.4764847519
 11
743.7402923601
 21
230.2878439989
  0
LINE
  5
290
100
AcDbEntity
  8
0
100
AcDbLine
 62
7
  6
CONTINUOUS
 10
743.7402923601
 20
230.2878439989
 11
743.8513197735
 21
203.2543463003
  0
LINE
  5
291
100
AcDbEntity
  8
0
100
AcDbLine
 62
7
  6
CONTINUOUS
 10
733.0497490158
 20
412.0473754013
 11
733.0497490158
 21
502.4614858735
  0
LINE
  5
292
100
AcDbEntity
  8
0
100
AcDbLine
 62
7
  6
CONTINUOUS
 10
743.8718545822
 20
562.2544306374
 11
743.8718545822
 21
192.2544306374
  0
LINE
  5
293
100
AcDbEntity
  8
0
100
AcDbLine
 62
7
  6
CONTINUOUS
 10
743.7775389098
 20
551.2562103601
 11
743.7722601793
 21
550.9764662075
  0
LINE
  5
294
100
AcDbEntity
  8
0
100
AcDbLine
 62
7
  6
CONTINUOUS
 10
743.7722601793
 20
550.9764662075
 11
743.3775309941
 21
544.4962107822
  0
LWPOLYLINE
  5
295
100
AcDbEntity
  8
0
100
AcDbPolyline
 62
2
  6
CONTINUOUS
 90
22
 70
0
 43
0.2500000019
 10
367.2438474121
 20
633.1482060547
 10
364.1010004883
 20
633.1482060547
 10
364.1010004883
 20
629.8148901367
 10
364.5295634766
 20
630.052953125
 10
365.243845459
 20
630.291078125
 10
365.8152834473
 20
630.291078125
 10
366.3867214355
 20
630.052953125
 10
366.6724404297
 20
629.8148901367
 10
366.9581594238
 20
629.3387021484
 10
367.101003418
 20
628.8625141602
 10
367.2438474121
 20
627.9101381836
 10
367.2438474121
 20
626.957762207
 10
367.101003418
 20
626.0053862305
 10
366.9581594238
 20
625.5291982422
 10
366.6724404297
 20
625.0530102539
 10
366.3867214355
 20
624.8148852539
 10
365.8152834473
 20
624.5767602539
 10
365.243845459
 20
624.5767602539
 10
364.6724384766
 20
624.8148852539
 10
364.3867194824
 20
625.0530102539
 10
364.1010004883
 20
625.5291982422
 10
363.8152814941
 20
626.2434492188
  0
LINE
  5
296
100
AcDbEntity
  8
0
100
AcDbLine
 62
7
  6
CONTINUOUS
 10
733.0497490158
 20
412.0473754013
 11
736.3604207254
 21
399.6917803738
  0
LINE
  5
297
100
AcDbEntity
  8
0
100
AcDbLine
 62
7
  6
CONTINUOUS
 10
738.8117749112
 20
395.5432080183
 11
738.8817806121
 21
395.2762785811
  0
LINE
  5
298
100
AcDbEntity
  8
0
100
AcDbLine
 62
7
  6
CONTINUOUS
 10
738.8817806121
 20
395.2762785811
 11
738.9056538948
 21
395.0655884254
  0
LWPOLYLINE
  5
299
100
AcDbEntity
  8
0
100
AcDbPolyline
 62
2
  6
CONTINUOUS
 90
25
 70
0
 43
0.2500000019
 10
841.7004375
 20
147.8171169434
 10
841.8433125
 20
148.7694929199
 10
841.9861254883
 20
149.2456809082
 10
842.2718754883
 20
149.7218688965
 10
842.5575634766
 20
149.9599628906
 10
843.1290014648
 20
150.1980568848
 10
843.7004394531
 20
150.1980568848
 10
844.2718774414
 20
149.9599628906
 10
844.5575654297
 20
149.7218688965
 10
844.843253418
 20
149.2456809082
 10
844.986128418
 20
148.7694929199
 10
845.129003418
 20
147.8171169434
 10
845.129003418
 20
143.7694880371
 10
844.986128418
 20
142.8171120605
 10
844.843253418
 20
142.3409240723
 10
844.5575654297
 20
141.864736084
 10
844.2718774414
 20
141.6266265869
 10
843.7004394531
 20
141.3885325928
 10
843.1290014648
 20
141.3885325928
 10
842.5575634766
 20
141.6266265869
 10
842.2718754883
 20
141.864736084
 10
841.9861254883
 20
142.3409240723
 10
841.8433125
 20
142.8171120605
 10
841.7004375
 20
143.7694880371
 10
841.7004375
 20
147.8171169434
  0
LWPOLYLINE
  5
29A
100
AcDbEntity
  8
0
100
AcDbPolyline
 62
2
  6
CONTINUOUS
 90
25
 70
0
 43
0.2500000019
 10
846.8432553711
 20
147.8171169434
 10
846.9861303711
 20
148.7694929199
 10
847.1290053711
 20
149.2456809082
 10
847.4146933594
 20
149.7218688965
 10
847.7004433594
 20
149.9599628906
 10
848.2718813477
 20
150.1980568848
 10
848.8432573242
 20
150.1980568848
 10
849.4146953125
 20
149.9599628906
 10
849.7004453125
 20
149.7218688965
 10
849.9861333008
 20
149.2456809082
 10
850.1290083008
 20
148.7694929199
 10
850.2718833008
 20
147.8171169434
 10
850.2718833008
 20
143.7694880371
 10
850.1290083008
 20
142.8171120605
 10
849.9861333008
 20
142.3409240723
 10
849.7004453125
 20
141.864736084
 10
849.4146953125
 20
141.6266265869
 10
848.8432573242
 20
141.3885325928
 10
848.2718813477
 20
141.3885325928
 10
847.7004433594
 20
141.6266265869
 10
847.4146933594
 20
141.864736084
 10
847.1290053711
 20
142.3409240723
 10
846.9861303711
 20
142.8171120605
 10
846.8432553711
 20
143.7694880371
 10
846.8432553711
 20
147.8171169434
  0
LWPOLYLINE
  5
29B
100
AcDbEntity
  8
0
100
AcDbPolyline
 62
2
  6
CONTINUOUS
 90
17
 70
0
 43
0.2500000019
 10
836.5575576172
 20
148.2933049316
 10
836.8433076172
 20
149.2456809082
 10
837.1289956055
 20
149.7218688965
 10
837.4146835938
 20
149.9599628906
 10
837.986121582
 20
150.1980568848
 10
838.5575595703
 20
150.1980568848
 10
839.1289975586
 20
149.9599628906
 10
839.4146855469
 20
149.7218688965
 10
839.7004355469
 20
149.2456809082
 10
839.8433105469
 20
148.7694929199
 10
839.9861235352
 20
148.0552109375
 10
839.9861235352
 20
147.8171169434
 10
839.8433105469
 20
147.102819458
 10
836.8433076172
 20
142.5790180664
 10
836.7004326172
 20
142.1028300781
 10
836.5575576172
 20
141.3885325928
 10
839.9861235352
 20
141.3885325928
  0
LINE
  5
29C
100
AcDbEntity
  8
0
100
AcDbLine
 62
7
  6
CONTINUOUS
 10
943.6718545822
 20
157.2544306374
 11
943.6718545822
 21
197.0914124759
  0
LINE
  5
29D
100
AcDbEntity
  8
0
100
AcDbLine
 62
7
  6
CONTINUOUS
 10
943.6718545822
 20
557.4174306374
 11
943.6718545822
 21
597.2544124759
  0
LINE
  5
29E
100
AcDbEntity
  8
0
100
AcDbLine
 62
7
  6
CONTINUOUS
 10
943.8718545822
 20
197.0914306374
 11
943.8718545822
 21
557.4174306374
  0
LINE
  5
29F
100
AcDbEntity
  8
0
100
AcDbLine
 62
7
  6
CONTINUOUS
 10
944.6718545822
 20
157.2544306374
 11
944.6718545822
 21
597.2544124759
  0
CIRCLE
  5
2A0
100
AcDbEntity
  8
0
100
AcDbCircle
 62
7
  6
CONTINUOUS
 10
366.3867153575
 20
458.3180162453
 40
45.0
  0
ARC
  5
2A1
100
AcDbEntity
  8
0
100
AcDbCircle
 62
7
  6
CONTINUOUS
 10
759.6718545822
 20
192.2544306374
 40
15.8
100
AcDbArc
 50
180.0
 51
270.0
  0
ARC
  5
2A2
100
AcDbEntity
  8
0
100
AcDbCircle
 62
7
  6
CONTINUOUS
 10
759.6718545822
 20
562.2544306374
 40
15.8
100
AcDbArc
 50
90.0
 51
180.0
  0
ARC
  5
2A3
100
AcDbEntity
  8
0
100
AcDbCircle
 62
7
  6
CONTINUOUS
 10
153.3867153575
 20
566.3180162453
 40
12.0
100
AcDbArc
 50
90.0
 51
180.0
  0
ARC
  5
2A4
100
AcDbEntity
  8
0
100
AcDbCircle
 62
7
  6
CONTINUOUS
 10
579.3867153575
 20
566.3180162453
 40
12.0
100
AcDbArc
 50
0.0
 51
90.0
  0
ARC
  5
2A5
100
AcDbEntity
  8
0
100
AcDbCircle
 62
7
  6
CONTINUOUS
 10
579.3867153575
 20
190.3180162453
 40
12.0
100
AcDbArc
 50
270.0
 51
360.0
  0
ARC
  5
2A6
100
AcDbEntity
  8
0
100
AcDbCircle
 62
7
  6
CONTINUOUS
 10
153.3867153575
 20
190.3180162453
 40
12.0
100
AcDbArc
 50
180.0
 51
270.0
  0
ARC
  5
2A7
100
AcDbEntity
  8
0
100
AcDbCircle
 62
7
  6
CONTINUOUS
 10
127.386733519
 20
164.3180162453
 40
6.0
100
AcDbArc
 50
180.0
 51
270.0
  0
ARC
  5
2A8
100
AcDbEntity
  8
0
100
AcDbCircle
 62
7
  6
CONTINUOUS
 10
127.3867153575
 20
592.3179980838
 40
6.0
100
AcDbArc
 50
90.0
 51
180.0
  0
ARC
  5
2A9
100
AcDbEntity
  8
0
100
AcDbCircle
 62
7
  6
CONTINUOUS
 10
605.386697196
 20
164.3180162453
 40
6.0
100
AcDbArc
 50
270.0
 51
360.0
  0
ARC
  5
2AA
100
AcDbEntity
  8
0
100
AcDbCircle
 62
7
  6
CONTINUOUS
 10
605.3867153575
 20
592.3179980838
 40
6.0
100
AcDbArc
 50
0.0
 51
90.0
  0
ARC
  5
2AB
100
AcDbEntity
  8
0
100
AcDbCircle
 62
7
  6
CONTINUOUS
 10
738.0990872128
 20
514.3512066199
 40
1.8
100
AcDbArc
 50
151.7735908382
 51
165.0
  0
ARC
  5
2AC
100
AcDbEntity
  8
0
100
AcDbCircle
 62
7
  6
CONTINUOUS
 10
738.0990872128
 20
400.157654655
 40
1.8
100
AcDbArc
 50
195.0
 51
208.2264091618
  0
ARC
  5
2AD
100
AcDbEntity
  8
0
100
AcDbCircle
 62
7
  6
CONTINUOUS
 10
942.8718545822
 20
579.0544306374
 40
1.0
100
AcDbArc
 50
270.0
 51
323.7679987417
  0
ARC
  5
2AE
100
AcDbEntity
  8
0
100
AcDbCircle
 62
7
  6
CONTINUOUS
 10
942.8718545822
 20
175.4544306374
 40
1.0
100
AcDbArc
 50
36.2319951715
 51
90.0
  0
ENDSEC
  0
SECTION
  2
OBJECTS
  0
DICTIONARY
  5
C
100
AcDbDictionary
280
0
281
1
  3
ACAD_GROUP
350
D
  3
ACAD_MLINESTYLE
350
17
  3
ACAD_LAYOUT
350
1A
  3
ACAD_PLOTSETTINGS
350
19
  3
ACAD_PLOTSTYLENAME
350
E
  0
DICTIONARY
  5
D
102
{ACAD_REACTORS
330
C
102
}
100
AcDbDictionary
280
0
281
1
  0
ACDBDICTIONARYWDFLT
  5
E
102
{ACAD_REACTORS
330
C
102
}
100
AcDbDictionary
281
1
  3
Normal
350
F
100
AcDbDictionaryWithDefault
340
F
  0
DICTIONARY
  5
17
102
{ACAD_REACTORS
330
C
102
}
100
AcDbDictionary
280
0
281
1
  3
Standard
350
18
  0
DICTIONARY
  5
19
102
{ACAD_REACTORS
330
C
102
}
100
AcDbDictionary
281
1
  0
DICTIONARY
  5
1A
102
{ACAD_REACTORS
330
C
102
}
100
AcDbDictionary
281
1
  3
Model
350
2AF
  3
Layout1
350
2B0
  0
ACDBPLACEHOLDER
  5
F
102
{ACAD_REACTORS
330
E
102
}
  0
MLINESTYLE
  5
18
102
{ACAD_REACTORS
330
17
102
}
100
AcDbMlineStyle
  2
STANDARD
 70
0
  3

 62
256
 51
90.0
 52
90.0
 71
2
 49
0.5
 62
256
  6
BYLAYER
 49
-0.5
 62
256
  6
BYLAYER
  0
LAYOUT
  5
2AF
102
{ACAD_REACTORS
330
1A
102
}
100
AcDbPlotSettings
  1

  2
none_device
  4

  6

 40
0.0
 41
0.0
 42
0.0
 43
0.0
 44
1016.0
 45
762.0
 46
0.0
 47
0.0
 48
0.0
 49
0.0
140
0.0
141
0.0
142
1.0
143
1.0
 70
1024
 72
1
 73
0
 74
0
  7

 75
0
147
1.0
148
0.0
149
0.0
100
AcDbLayout
  1
Model
 70
0
 71
0
 10
0.0
 20
0.0
 11
1016.0
 21
762.0
 12
0.0
 22
0.0
 32
0.0
 14
0.0
 24
0.0
 34
0.0
 15
0.0
 25
0.0
 35
0.0
146
0.0
 13
0.0
 23
0.0
 33
0.0
 16
1.0
 26
0.0
 36
0.0
 17
0.0
 27
1.0
 37
0.0
 76
0
330
1FF
345
0
346
0
  0
LAYOUT
  5
2B0
102
{ACAD_REACTORS
330
1A
102
}
100
AcDbPlotSettings
  1

  2
none_device
  4

  6

 40
0.0
 41
0.0
 42
0.0
 43
0.0
 44
1016.0
 45
762.0
 46
0.0
 47
0.0
 48
0.0
 49
0.0
140
0.0
141
0.0
142
1.0
143
1.0
 70
0
 72
1
 73
0
 74
0
  7

 75
0
147
1.0
148
0.0
149
0.0
100
AcDbLayout
  1
Layout1
 70
0
 71
1
 10
0.0
 20
0.0
 11
1016.0
 21
762.0
 12
0.0
 22
0.0
 32
0.0
 14
0.0
 24
0.0
 34
0.0
 15
0.0
 25
0.0
 35
0.0
146
0.0
 13
0.0
 23
0.0
 33
0.0
 16
1.0
 26
0.0
 36
0.0
 17
0.0
 27
1.0
 37
0.0
 76
0
330
200
345
0
346
0
  0
ENDSEC
  0
EOF
